  0
SECTION
  2
HEADER
  9
$ACADVER
  1
AC1014
  9
$ACADMAINTVER
 70
         0
  9
$DWGCODEPAGE
  3
BIG5
  9
$INSBASE
 10
0.0
 20
0.0
 30
0.0
  9
$EXTMIN
 10
1131.0976275857
 20
-399.272074785
 30
0.0
  9
$EXTMAX
 10
1794.8030427378
 20
-75.2727884669
 30
0.0
  9
$LIMMIN
 10
0.0
 20
0.0
  9
$LIMMAX
 10
0.0
 20
0.0
  9
$ORTHOMODE
 70
         0
  9
$REGENMODE
 70
         1
  9
$FILLMODE
 70
         1
  9
$QTEXTMODE
 70
         0
  9
$MIRRTEXT
 70
         1
  9
$DRAGMODE
 70
         2
  9
$LTSCALE
 40
1.0
  9
$OSMODE
 70
         0
  9
$ATTMODE
 70
         1
  9
$TEXTSIZE
 40
1.7
  9
$TRACEWID
 40
0.05
  9
$TEXTSTYLE
  7
STANDARD
  9
$CLAYER
  8
0
  9
$CELTYPE
  6
CONTINUOUS
  9
$CECOLOR
 62
        16
  9
$CELTSCALE
 40
1.0
  9
$DELOBJ
 70
         1
  9
$DISPSILH
 70
         0
  9
$DIMSCALE
 40
1.0
  9
$DIMASZ
 40
0.18
  9
$DIMEXO
 40
0.0625
  9
$DIMDLI
 40
0.38
  9
$DIMRND
 40
0.0
  9
$DIMDLE
 40
0.0
  9
$DIMEXE
 40
0.25
  9
$DIMTP
 40
0.01
  9
$DIMTM
 40
-0.01
  9
$DIMTXT
 40
2.7
  9
$DIMCEN
 40
0.09
  9
$DIMTSZ
 40
0.0
  9
$DIMTOL
 70
         0
  9
$DIMLIM
 70
         0
  9
$DIMTIH
 70
         1
  9
$DIMTOH
 70
         1
  9
$DIMSE1
 70
         0
  9
$DIMSE2
 70
         0
  9
$DIMTAD
 70
         0
  9
$DIMZIN
 70
         0
  9
$DIMBLK
  1

  9
$DIMASO
 70
         1
  9
$DIMSHO
 70
         1
  9
$DIMPOST
  1

  9
$DIMAPOST
  1

  9
$DIMALT
 70
         0
  9
$DIMALTD
 70
         2
  9
$DIMALTF
 40
25.4
  9
$DIMLFAC
 40
1.0
  9
$DIMTOFL
 70
         0
  9
$DIMTVP
 40
0.0
  9
$DIMTIX
 70
         0
  9
$DIMSOXD
 70
         0
  9
$DIMSAH
 70
         0
  9
$DIMBLK1
  1

  9
$DIMBLK2
  1

  9
$DIMSTYLE
  2
STANDARD
  9
$DIMCLRD
 70
         0
  9
$DIMCLRE
 70
         0
  9
$DIMCLRT
 70
        16
  9
$DIMTFAC
 40
1.0
  9
$DIMGAP
 40
0.09
  9
$DIMJUST
 70
         0
  9
$DIMSD1
 70
         0
  9
$DIMSD2
 70
         0
  9
$DIMTOLJ
 70
         1
  9
$DIMTZIN
 70
         0
  9
$DIMALTZ
 70
         0
  9
$DIMALTTZ
 70
         0
  9
$DIMFIT
 70
         3
  9
$DIMUPT
 70
         0
  9
$DIMUNIT
 70
         2
  9
$DIMDEC
 70
         4
  9
$DIMTDEC
 70
         4
  9
$DIMALTU
 70
         2
  9
$DIMALTTD
 70
         2
  9
$DIMTXSTY
  7
STANDARD
  9
$DIMAUNIT
 70
         0
  9
$LUNITS
 70
         2
  9
$LUPREC
 70
        10
  9
$SKETCHINC
 40
0.1
  9
$FILLETRAD
 40
0.0
  9
$AUNITS
 70
         0
  9
$AUPREC
 70
         0
  9
$MENU
  1
acad
  9
$ELEVATION
 40
0.0
  9
$PELEVATION
 40
0.0
  9
$THICKNESS
 40
0.0
  9
$LIMCHECK
 70
         0
  9
$BLIPMODE
 70
         1
  9
$CHAMFERA
 40
0.0
  9
$CHAMFERB
 40
0.0
  9
$CHAMFERC
 40
0.0
  9
$CHAMFERD
 40
0.0
  9
$SKPOLY
 70
         0
  9
$TDCREATE
 40
0.000000000
  9
$TDUPDATE
 40
0.000000000
  9
$TDINDWG
 40
0.0000000000
  9
$TDUSRTIMER
 40
0.0000000000
  9
$USRTIMER
 70
         1
  9
$ANGBASE
 50
0.0
  9
$ANGDIR
 70
         0
  9
$PDMODE
 70
         2
  9
$PDSIZE
 40
0.0
  9
$PLINEWID
 40
0.0
  9
$COORDS
 70
         0
  9
$SPLFRAME
 70
         0
  9
$SPLINETYPE
 70
         6
  9
$SPLINESEGS
 70
         8
  9
$ATTDIA
 70
         0
  9
$ATTREQ
 70
         1
  9
$HANDLING
 70
         1
  9
$HANDSEED
  5
3E6
  9
$SURFTAB1
 70
         6
  9
$SURFTAB2
 70
         6
  9
$SURFTYPE
 70
         6
  9
$SURFU
 70
         6
  9
$SURFV
 70
         6
  9
$UCSNAME
  2

  9
$UCSORG
 10
0.0
 20
0.0
 30
0.0
  9
$UCSXDIR
 10
1.0
 20
0.0
 30
0.0
  9
$UCSYDIR
 10
0.0
 20
1.0
 30
0.0
  9
$PUCSNAME
  2

  9
$PUCSORG
 10
0.0
 20
0.0
 30
0.0
  9
$PUCSXDIR
 10
1.0
 20
0.0
 30
0.0
  9
$PUCSYDIR
 10
0.0
 20
1.0
 30
0.0
  9
$USERI1
 70
         0
  9
$USERI2
 70
         0
  9
$USERI3
 70
         0
  9
$USERI4
 70
         0
  9
$USERI5
 70
         0
  9
$USERR1
 40
0.0
  9
$USERR2
 40
0.0
  9
$USERR3
 40
0.0
  9
$USERR4
 40
0.0
  9
$USERR5
 40
0.0
  9
$WORLDVIEW
 70
         1
  9
$SHADEDGE
 70
         3
  9
$SHADEDIF
 70
        70
  9
$TILEMODE
 70
         1
  9
$MAXACTVP
 70
        16
  9
$PINSBASE
 10
0.0
 20
0.0
 30
0.0
  9
$PLIMCHECK
 70
         0
  9
$PEXTMIN
 10
1.0000000000E+20
 20
1.0000000000E+20
 30
1.0000000000E+20
  9
$PEXTMAX
 10
-1.0000000000E+20
 20
-1.0000000000E+20
 30
-1.0000000000E+20
  9
$PLIMMIN
 10
0.0
 20
0.0
  9
$PLIMMAX
 10
12.0
 20
9.0
  9
$UNITMODE
 70
         0
  9
$VISRETAIN
 70
         0
  9
$PLINEGEN
 70
         1
  9
$PSLTSCALE
 70
         0
  9
$TREEDEPTH
 70
      3020
  9
$PICKSTYLE
 70
         1
  9
$CMLSTYLE
  2
STANDARD
  9
$CMLJUST
 70
         0
  9
$CMLSCALE
 40
1.0
  9
$PROXYGRAPHICS
 70
         0
  9
$MEASUREMENT
 70
         0
  0
ENDSEC
  0
SECTION
  2
CLASSES
  0
CLASS
  1
LWPOLYLINE
  2
AcDbPolyline
  3
"AutoCAD"
 90
        0
280
         0
281
         1
  0
CLASS
  1
IMAGE
  2
AcDbRasterImage
  3
ISM
 90
      127
280
         0
281
         1
  0
CLASS
  1
OLE2FRAME
  2
AcDbOle2Frame
  3
""
 90
        0
280
         0
281
         1
  0
CLASS
  1
HATCH
  2
AcDbHatch
  3
"ACAD_SEDONA"
 90
        0
280
         0
281
         1
  0
CLASS
  1
DICTIONARYVAR
  2
AcDbDictionaryVar
  3
"AutoCAD"
 90
        0
280
         0
281
         0
  0
CLASS
  1
RASTERVARIABLES
  2
AcDbRasterVariables
  3
ISM
 90
        0
280
         0
281
         0
  0
CLASS
  1
IMAGEDEF
  2
AcDbRasterImageDef
  3
ISM
 90
        0
280
         0
281
         0
  0
CLASS
  1
IMAGEDEF_REACTOR
  2
AcDbRasterImageDefReactor
  3
ISM
 90
        1
280
         0
281
         0
  0
CLASS
  1
IDBUFFER
  2
AcDbIdBuffer
  3
"Acad"
 90
        0
280
         0
281
         0
  0
CLASS
  1
SPATIAL_FILTER
  2
AcDbSpatialFilter
  3
"Acad"
 90
        0
280
         0
281
         0
  0
CLASS
  1
XRECORD
  2
AcDbXrecord
  3
"<Built In>"
 90
        0
280
         0
281
         0
  0
CLASS
  1
SORTENTSTABLE
  2
AcDbSortentsTable
  3
"AutoCAD"
 90
        0
280
         0
281
         0
  0
CLASS
  1
LAYER_INDEX
  2
AcDbLayerIndex
  3
"Acad"
 90
        0
280
         0
281
         0
  0
CLASS
  1
SPATIAL_INDEX
  2
AcDbSpatialIndex
  3
"Acad"
 90
        0
280
         0
281
         0
  0
CLASS
  1
OBJECT_PTR
  2
CAseDLPNTableRecord
  3
"ASE-LPNTableRecord"
 90
        1
280
         0
281
         0
  0
CLASS
  1
LAYOUT
  2
AcDbLayout
  3
"AutoCAD 2000"
 90
        1
280
         0
281
         0
  0
CLASS
  1
PLOTSETTINGS
  2
AcDbPlotSettings
  3
"AutoCAD 2000"
 90
        1
280
         0
281
         0
  0
CLASS
  1
ACDBDICTIONARYWDFLT
  2
AcDbDictionaryWithDefault
  3
"AutoCAD 2000"
 90
        1
280
         0
281
         0
  0
CLASS
  1
ACDBPLACEHOLDER
  2
AcDbPlaceHolder
  3
"AutoCAD 2000"
 90
        1
280
         0
281
         0
  0
CLASS
  1
VBA_PROJECT
  2
AcDbVbaProject
  3
"acadvba"
 90
        1
280
         0
281
         0
  0
CLASS
  1
WIPEOUT
  2
AcDbWipeout
  3
WipeOut|AutoCAD Express Tool|expresstools@autodesk.com
 90
      127
280
         0
281
         1
  0
CLASS
  1
WIPEOUTVARIABLES
  2
AcDbWipeoutVariables
  3
WipeOut|AutoCAD Express Tool|expresstools@autodesk.com
 90
        0
280
         0
281
         0
  0
CLASS
  1
RTEXT
  2
RText
  3
RText|AutoCAD Express Tool|expresstools@autodesk.com
 90
        0
280
         0
281
         1
  0
CLASS
  1
ARCALIGNEDTEXT
  2
AcDbArcAlignedText
  3
ATEXT|AutoCAD Express Tool|expresstools@autodesk.com
 90
        0
280
         0
281
         1
  0
ENDSEC
  0
SECTION
  2
TABLES
  0
TABLE
  2
VPORT
  5
7
100
AcDbSymbolTable
 70
         1
  0
VPORT
  5
15
100
AcDbSymbolTableRecord
100
AcDbViewportTableRecord
  2
*ACTIVE
 70
         0
 10
0.0
 20
0.0
 11
1.0
 21
1.0
 12
1462.9503351617
 22
-237.272431626
 13
0.0
 23
0.0
 14
1.0
 24
1.0
 15
0.0
 25
0.0
 16
0.0
 26
0.0
 36
1.0
 17
0.0
 27
0.0
 37
0.0
 40
323.9992863181
 41
2.0484780158
 42
50.0
 43
0.0
 44
0.0
 50
0.0
 51
0.0
 71
         0
 72
       100
 73
         1
 74
         1
 75
         0
 76
         0
 77
         0
 78
         0
  0
ENDTAB
  0
TABLE
  2
LTYPE
  5
4
100
AcDbSymbolTable
 70
         6
  0
LTYPE
  5
11
100
AcDbSymbolTableRecord
100
AcDbLinetypeTableRecord
  2
BYBLOCK
 70
        64
  3

 72
        65
 73
         0
 40
0.0
  0
LTYPE
  5
12
100
AcDbSymbolTableRecord
100
AcDbLinetypeTableRecord
  2
BYLAYER
 70
        64
  3

 72
        65
 73
         0
 40
0.0
  0
LTYPE
  5
13
100
AcDbSymbolTableRecord
100
AcDbLinetypeTableRecord
  2
CONTINUOUS
 70
        64
  3
Solid line
 72
        65
 73
         0
 40
0.0
  0
LTYPE
  5
1D
100
AcDbSymbolTableRecord
100
AcDbLinetypeTableRecord
  2
DASHED
 70
        64
  3
_ _ _ _ _ _ _ _ _ _ _ _ _ _ _ _
 72
        65
 73
         2
 40
0.2
 49
0.1
 74
         0
 49
-0.1
 74
         0
  0
LTYPE
  5
1E
100
AcDbSymbolTableRecord
100
AcDbLinetypeTableRecord
  2
CENTER
 70
        64
  3
___ _ ___ _ ___ _ ___ _ ___ _ ___ _ ___ _ ___ _
 72
        65
 73
         4
 40
0.95
 49
0.625
 74
         0
 49
-0.125
 74
         0
 49
0.075
 74
         0
 49
-0.125
 74
         0
  0
LTYPE
  5
1F
100
AcDbSymbolTableRecord
100
AcDbLinetypeTableRecord
  2
PHANTOM
 70
        64
  3
______  __  __  ______  __  __  ______  __  __  
 72
        65
 73
         6
 40
1.025
 49
0.625
 74
         0
 49
-0.125
 74
         0
 49
0.075
 74
         0
 49
-0.125
 74
         0
 49
0.075
 74
         0
 49
-0.125
 74
         0
  0
ENDTAB
  0
TABLE
  2
LAYER
  5
2
100
AcDbSymbolTable
 70
         6
  0
LAYER
  5
14
100
AcDbSymbolTableRecord
100
AcDbLayerTableRecord
  2
0
 70
         0
 62
         7
  6
CONTINUOUS
  0
LAYER
  5
21
100
AcDbSymbolTableRecord
100
AcDbLayerTableRecord
  2
_____U
 70
         1
 62
         7
  6
CONTINUOUS
  0
LAYER
  5
22
100
AcDbSymbolTableRecord
100
AcDbLayerTableRecord
  2
_____T______
 70
         1
 62
         7
  6
CONTINUOUS
  0
LAYER
  5
23
100
AcDbSymbolTableRecord
100
AcDbLayerTableRecord
  2
______L_______
 70
         1
 62
         7
  6
CONTINUOUS
  0
LAYER
  5
24
100
AcDbSymbolTableRecord
100
AcDbLayerTableRecord
  2
L1_120
 70
         0
 62
         7
  6
CONTINUOUS
  0
LAYER
  5
22E
100
AcDbSymbolTableRecord
100
AcDbLayerTableRecord
  2
DEFPOINTS
 70
         0
 62
        -7
  6
CONTINUOUS
  0
ENDTAB
  0
TABLE
  2
STYLE
  5
3
100
AcDbSymbolTable
 70
        10
  0
STYLE
  5
17
100
AcDbSymbolTableRecord
100
AcDbTextStyleTableRecord
  2
STANDARD
 70
         0
 40
0.0
 41
1.0
 50
0.0
 71
         0
 42
0.0
  3
txt
  4

  0
STYLE
  5
AF
100
AcDbSymbolTableRecord
100
AcDbTextStyleTableRecord
  2
BOX
 70
         0
 40
1.0
 41
1.0
 50
0.0
 71
         0
 42
0.2
  3
txt.shx
  4

  0
STYLE
  5
237
100
AcDbSymbolTableRecord
100
AcDbTextStyleTableRecord
  2
BOX
 70
         0
 40
1.0
 41
1.0
 50
0.0
 71
         0
 42
0.2
  3
txt.shx
  4

  0
STYLE
  5
29D
100
AcDbSymbolTableRecord
100
AcDbTextStyleTableRecord
  2
BOX
 70
         0
 40
1.0
 41
1.0
 50
0.0
 71
         0
 42
0.2
  3
txt.shx
  4

  0
STYLE
  5
376
100
AcDbSymbolTableRecord
100
AcDbTextStyleTableRecord
  2
BOX
 70
         0
 40
1.0
 41
1.0
 50
0.0
 71
         0
 42
0.2
  3
txt.shx
  4

  0
STYLE
  5
384
100
AcDbSymbolTableRecord
100
AcDbTextStyleTableRecord
  2
BOX
 70
         0
 40
1.0
 41
1.0
 50
0.0
 71
         0
 42
0.2
  3
txt.shx
  4

  0
STYLE
  5
393
100
AcDbSymbolTableRecord
100
AcDbTextStyleTableRecord
  2
STSL
 70
         0
 40
1.0
 41
1.0
 50
0.0
 71
         0
 42
0.2
  3

  4
Stsl
  0
STYLE
  5
3A1
100
AcDbSymbolTableRecord
100
AcDbTextStyleTableRecord
  2
BOX
 70
         0
 40
1.0
 41
1.0
 50
0.0
 71
         0
 42
0.2
  3
txt.shx
  4

  0
STYLE
  5
3D3
100
AcDbSymbolTableRecord
100
AcDbTextStyleTableRecord
  2
BOX
 70
         0
 40
1.0
 41
1.0
 50
0.0
 71
         0
 42
0.2
  3
txt.shx
  4

  0
STYLE
  5
3E3
100
AcDbSymbolTableRecord
100
AcDbTextStyleTableRecord
  2
BOX
 70
         0
 40
1.0
 41
1.0
 50
0.0
 71
         0
 42
0.2
  3
txt.shx
  4

  0
ENDTAB
  0
TABLE
  2
VIEW
  5
5
100
AcDbSymbolTable
 70
         0
  0
ENDTAB
  0
TABLE
  2
UCS
  5
6
100
AcDbSymbolTable
 70
         1
  0
UCS
  5
20
100
AcDbSymbolTableRecord
100
AcDbUCSTableRecord
  2
CK_VIEW_1
 70
         0
 10
0.0
 20
0.0
 30
1.0
 11
1.0
 21
0.0
 31
0.0
 12
0.0
 22
1.0
 32
0.0
  0
ENDTAB
  0
TABLE
  2
APPID
  5
8
100
AcDbSymbolTable
 70
         1
  0
APPID
  5
16
100
AcDbSymbolTableRecord
100
AcDbRegAppTableRecord
  2
ACAD
 70
         0
  0
ENDTAB
  0
TABLE
  2
DIMSTYLE
  5
9
100
AcDbSymbolTable
 70
         2
  0
DIMSTYLE
105
18
100
AcDbSymbolTableRecord
100
AcDbDimStyleTableRecord
  2
STANDARD
 70
         0
  3

  4

  5

  6

  7

 40
1.0
 41
0.18
 42
0.0625
 43
0.38
 44
0.18
 45
0.0
 46
0.0
 47
0.0
 48
0.0
 71
         0
 72
         0
 73
         1
 74
         1
 75
         0
 76
         0
 77
         0
 78
         0
140
0.18
141
0.09
142
0.0
143
25.4
144
1.0
145
0.0
146
1.0
147
0.09
170
         0
171
         2
172
         0
173
         0
174
         0
175
         0
176
         0
177
         0
178
         0
270
         2
271
         4
272
         4
273
         2
274
         2
275
         0
280
         0
281
         0
282
         0
283
         1
284
         0
285
         0
286
         0
287
         0
288
         0
340
17
  0
DIMSTYLE
105
22A
100
AcDbSymbolTableRecord
100
AcDbDimStyleTableRecord
  2
DIMSTYLE1
 70
         0
  3

  4

  5

  6

  7

 40
1.0
 41
2.7
 42
0.0625
 43
0.38
 44
2.7
 45
0.0
 46
0.0
 47
0.0
 48
0.0
 71
         0
 72
         0
 73
         1
 74
         1
 75
         0
 76
         0
 77
         0
 78
         0
140
2.7
141
0.09
142
0.0
143
25.4
144
1.0
145
0.0
146
1.0
147
0.09
170
         0
171
         2
172
         0
173
         0
174
         0
175
         0
176
         0
177
         0
178
         0
270
         2
271
         4
272
         4
273
         2
274
         2
275
         0
280
         0
281
         0
282
         0
283
         1
284
         0
285
         0
286
         0
287
         0
288
         0
340
17
  0
ENDTAB
  0
TABLE
  2
BLOCK_RECORD
  5
1
100
AcDbSymbolTable
 70
        14
  0
BLOCK_RECORD
  5
A
100
AcDbSymbolTableRecord
100
AcDbBlockTableRecord
  2
*MODEL_SPACE
  0
BLOCK_RECORD
  5
B
100
AcDbSymbolTableRecord
100
AcDbBlockTableRecord
  2
*PAPER_SPACE
  0
BLOCK_RECORD
  5
1C8
100
AcDbSymbolTableRecord
100
AcDbBlockTableRecord
  2
*X0
  0
BLOCK_RECORD
  5
1D1
100
AcDbSymbolTableRecord
100
AcDbBlockTableRecord
  2
*X1
  0
BLOCK_RECORD
  5
1D8
100
AcDbSymbolTableRecord
100
AcDbBlockTableRecord
  2
*X2
  0
BLOCK_RECORD
  5
1E0
100
AcDbSymbolTableRecord
100
AcDbBlockTableRecord
  2
*X3
  0
BLOCK_RECORD
  5
1F1
100
AcDbSymbolTableRecord
100
AcDbBlockTableRecord
  2
*X4
  0
BLOCK_RECORD
  5
22B
100
AcDbSymbolTableRecord
100
AcDbBlockTableRecord
  2
*D5
  0
BLOCK_RECORD
  5
292
100
AcDbSymbolTableRecord
100
AcDbBlockTableRecord
  2
*D6
  0
BLOCK_RECORD
  5
2F0
100
AcDbSymbolTableRecord
100
AcDbBlockTableRecord
  2
*X7
  0
BLOCK_RECORD
  5
36B
100
AcDbSymbolTableRecord
100
AcDbBlockTableRecord
  2
*D8
  0
BLOCK_RECORD
  5
379
100
AcDbSymbolTableRecord
100
AcDbBlockTableRecord
  2
*D9
  0
BLOCK_RECORD
  5
387
100
AcDbSymbolTableRecord
100
AcDbBlockTableRecord
  2
*D10
  0
BLOCK_RECORD
  5
396
100
AcDbSymbolTableRecord
100
AcDbBlockTableRecord
  2
*D11
  0
BLOCK_RECORD
  5
3C6
100
AcDbSymbolTableRecord
100
AcDbBlockTableRecord
  2
*D12
  0
BLOCK_RECORD
  5
3D6
100
AcDbSymbolTableRecord
100
AcDbBlockTableRecord
  2
*D13
  0
ENDTAB
  0
ENDSEC
  0
SECTION
  2
BLOCKS
  0
BLOCK
  5
D
100
AcDbEntity
  8
0
100
AcDbBlockBegin
  2
*MODEL_SPACE
 70
         0
 10
0.0
 20
0.0
 30
0.0
  3
*MODEL_SPACE
  1

  0
ENDBLK
  5
E
100
AcDbEntity
  8
0
100
AcDbBlockEnd
  0
BLOCK
  5
F
100
AcDbEntity
 67
         1
  8
0
100
AcDbBlockBegin
  2
*PAPER_SPACE
 70
         0
 10
0.0
 20
0.0
 30
0.0
  3
*PAPER_SPACE
  1

  0
ENDBLK
  5
10
100
AcDbEntity
 67
         1
  8
0
100
AcDbBlockEnd
  0
BLOCK
  5
1C9
100
AcDbEntity
  8
0
100
AcDbBlockBegin
  2
*X0
 70
        65
 10
0.0
 20
0.0
 30
0.0
  3
*X0
  1

  0
LINE
  5
1CA
100
AcDbEntity
  8
L1_120
  6
CONTINUOUS
 62
         2
100
AcDbLine
 10
1521.0648660965
 20
-207.9328091
 30
-75.6813532398
 11
1520.2528660965
 21
-208.6958395081
 31
-75.9590735961
  0
LINE
  5
1CB
100
AcDbEntity
  8
L1_120
  6
CONTINUOUS
 62
         2
100
AcDbLine
 10
1523.1861864401
 20
-207.9328091
 30
-75.6813532398
 11
1522.3741864401
 21
-208.6958395081
 31
-75.9590735961
  0
LINE
  5
1CC
100
AcDbEntity
  8
L1_120
  6
CONTINUOUS
 62
         2
100
AcDbLine
 10
1525.3075067837
 20
-207.9328091
 30
-75.6813532398
 11
1524.4955067837
 21
-208.6958395081
 31
-75.9590735961
  0
LINE
  5
1CD
100
AcDbEntity
  8
L1_120
  6
CONTINUOUS
 62
         2
100
AcDbLine
 10
1526.9338348425
 20
-208.3979496973
 30
-75.8506505719
 11
1526.6168271272
 21
-208.6958395081
 31
-75.9590735961
  0
ENDBLK
  5
1CE
100
AcDbEntity
  8
0
  6
CONTINUOUS
100
AcDbBlockEnd
  0
BLOCK
  5
1D2
100
AcDbEntity
  8
0
100
AcDbBlockBegin
  2
*X1
 70
        65
 10
0.0
 20
0.0
 30
0.0
  3
*X1
  1

  0
LINE
  5
1D3
100
AcDbEntity
  8
L1_120
  6
CONTINUOUS
 62
         2
100
AcDbLine
 10
1535.1485393726
 20
-190.7117071026
 30
-69.4133847114
 11
1534.3958593052
 21
-191.4189950077
 31
-69.670816456
  0
LINE
  5
1D4
100
AcDbEntity
  8
L1_120
  6
CONTINUOUS
 62
         2
100
AcDbLine
 10
1536.5508425579
 20
-191.3873622205
 30
-69.659303063
 11
1535.7407225135
 21
-192.1486260481
 31
-69.9363804367
  0
ENDBLK
  5
1D5
100
AcDbEntity
  8
0
  6
CONTINUOUS
100
AcDbBlockEnd
  0
BLOCK
  5
1D9
100
AcDbEntity
  8
0
100
AcDbBlockBegin
  2
*X2
 70
        65
 10
0.0
 20
0.0
 30
0.0
  3
*X2
  1

  0
LINE
  5
1DA
100
AcDbEntity
  8
L1_120
  6
CONTINUOUS
 62
         2
100
AcDbLine
 10
1521.0396626609
 20
-188.0226018508
 30
-68.434630443
 11
1520.2276626609
 21
-188.7856322589
 31
-68.7123507994
  0
LINE
  5
1DB
100
AcDbEntity
  8
L1_120
  6
CONTINUOUS
 62
         2
100
AcDbLine
 10
1523.1609830045
 20
-188.0226018508
 30
-68.434630443
 11
1522.3489830045
 21
-188.7856322589
 31
-68.7123507994
  0
LINE
  5
1DC
100
AcDbEntity
  8
L1_120
  6
CONTINUOUS
 62
         2
100
AcDbLine
 10
1525.2823033481
 20
-188.0226018508
 30
-68.434630443
 11
1524.4703033481
 21
-188.7856322589
 31
-68.7123507994
  0
ENDBLK
  5
1DD
100
AcDbEntity
  8
0
  6
CONTINUOUS
100
AcDbBlockEnd
  0
BLOCK
  5
1E1
100
AcDbEntity
  8
0
100
AcDbBlockBegin
  2
*X3
 70
        65
 10
0.0
 20
0.0
 30
0.0
  3
*X3
  1

  0
LINE
  5
1E2
100
AcDbEntity
  8
L1_120
  6
CONTINUOUS
 62
         2
100
AcDbLine
 10
1520.2528660965
 20
-208.6958395081
 30
-75.9590735961
 11
1519.0508425579
 21
-209.8253721574
 31
-76.3701898591
  0
LINE
  5
1E3
100
AcDbEntity
  8
L1_120
  6
CONTINUOUS
 62
         2
100
AcDbLine
 10
1522.3741864401
 20
-208.6958395081
 30
-75.9590735961
 11
1519.6642482239
 21
-211.2423484526
 31
-76.8859270532
  0
LINE
  5
1E4
100
AcDbEntity
  8
L1_120
  6
CONTINUOUS
 62
         2
100
AcDbLine
 10
1524.4955067837
 20
-208.6958395081
 30
-75.9590735961
 11
1521.4955067837
 21
-211.5149173705
 31
-76.9851340261
  0
LINE
  5
1E5
100
AcDbEntity
  8
L1_120
  6
CONTINUOUS
 62
         2
100
AcDbLine
 10
1526.6168271272
 20
-208.6958395081
 30
-75.9590735961
 11
1524.9658299992
 21
-210.2472693262
 31
-76.5237478705
  0
LINE
  5
1E6
100
AcDbEntity
  8
L1_120
  6
CONTINUOUS
 62
         2
100
AcDbLine
 10
1524.6452153588
 20
-210.5485485379
 30
-76.6334045357
 11
1523.6168271272
 21
-211.5149173705
 31
-76.9851340261
  0
LINE
  5
1E7
100
AcDbEntity
  8
L1_120
  6
CONTINUOUS
 62
         2
100
AcDbLine
 10
1531.8508425579
 20
-205.770862904
 30
-74.8944691763
 11
1530.7508425579
 21
-206.8045247869
 31
-75.270691334
  0
LINE
  5
1E8
100
AcDbEntity
  8
L1_120
  6
CONTINUOUS
 62
         2
100
AcDbLine
 10
1528.2381474708
 20
-209.1656858185
 30
-76.1300836678
 11
1527.2381474708
 21
-210.1053784393
 31
-76.4721038111
  0
LINE
  5
1E9
100
AcDbEntity
  8
L1_120
  6
CONTINUOUS
 62
         2
100
AcDbLine
 10
1534.5803492211
 20
-205.1993547073
 30
-74.6864572041
 11
1532.8508425579
 21
-206.8245593564
 31
-75.2779833209
  0
LINE
  5
1EA
100
AcDbEntity
  8
L1_120
  6
CONTINUOUS
 62
         2
100
AcDbLine
 10
1532.0594678143
 20
-207.5682083632
 30
-75.5486494242
 11
1529.3594678143
 21
-210.1053784393
 31
-76.4721038111
  0
LINE
  5
1EB
100
AcDbEntity
  8
L1_120
  6
CONTINUOUS
 62
         2
100
AcDbLine
 10
1536.5508425579
 20
-205.3410857326
 30
-74.7380430786
 11
1531.4807881579
 21
-210.1053784393
 31
-76.4721038111
  0
LINE
  5
1EC
100
AcDbEntity
  8
L1_120
  6
CONTINUOUS
 62
         2
100
AcDbLine
 10
1536.5508425579
 20
-207.3344748058
 30
-75.4635773665
 11
1533.6021085015
 21
-210.1053784393
 31
-76.4721038111
  0
LINE
  5
1ED
100
AcDbEntity
  8
L1_120
  6
CONTINUOUS
 62
         2
100
AcDbLine
 10
1535.9735789543
 20
-209.8703142274
 30
-76.3865474349
 11
1535.723428845
 21
-210.1053784393
 31
-76.4721038111
  0
ENDBLK
  5
1EE
100
AcDbEntity
  8
0
  6
CONTINUOUS
100
AcDbBlockEnd
  0
BLOCK
  5
1F2
100
AcDbEntity
  8
0
100
AcDbBlockBegin
  2
*X4
 70
        65
 10
0.0
 20
0.0
 30
0.0
  3
*X4
  1

  0
LINE
  5
1F3
100
AcDbEntity
  8
L1_120
  6
CONTINUOUS
 62
         2
100
AcDbLine
 10
1521.9183423174
 20
-185.2035239885
 30
-67.408570013
 11
1519.0938504548
 21
-187.8576781492
 31
-68.3746031247
  0
LINE
  5
1F4
100
AcDbEntity
  8
L1_120
  6
CONTINUOUS
 62
         2
100
AcDbLine
 10
1524.0396626609
 20
-185.2035239885
 30
-67.408570013
 11
1521.0396626609
 21
-188.0226018508
 31
-68.434630443
  0
LINE
  5
1F5
100
AcDbEntity
  8
L1_120
  6
CONTINUOUS
 62
         2
100
AcDbLine
 10
1524.8754272932
 20
-186.4115512039
 30
-67.8482559616
 11
1523.1609830045
 21
-188.0226018508
 31
-68.434630443
  0
LINE
  5
1F6
100
AcDbEntity
  8
L1_120
  6
CONTINUOUS
 62
         2
100
AcDbLine
 10
1526.7823033481
 20
-186.6130629196
 30
-67.921600228
 11
1525.2823033481
 21
-188.0226018508
 31
-68.434630443
  0
LINE
  5
1F7
100
AcDbEntity
  8
L1_120
  6
CONTINUOUS
 62
         2
100
AcDbLine
 10
1528.9036236916
 20
-186.6130629196
 30
-67.921600228
 11
1527.9036236916
 21
-187.5527555404
 31
-68.2636203713
  0
LINE
  5
1F8
100
AcDbEntity
  8
L1_120
  6
CONTINUOUS
 62
         2
100
AcDbLine
 10
1531.0249440352
 20
-186.6130629196
 30
-67.921600228
 11
1529.9947440473
 21
-187.5811342462
 31
-68.2739493755
  0
LINE
  5
1F9
100
AcDbEntity
  8
L1_120
  6
CONTINUOUS
 62
         2
100
AcDbLine
 10
1533.1462643787
 20
-186.6130629196
 30
-67.921600228
 11
1530.7508425579
 21
-188.8640231284
 31
-68.7408827425
  0
LINE
  5
1FA
100
AcDbEntity
  8
L1_120
  6
CONTINUOUS
 62
         2
100
AcDbLine
 10
1535.2675847223
 20
-186.6130629196
 30
-67.921600228
 11
1532.5675847223
 21
-189.1502329958
 31
-68.845054615
  0
LINE
  5
1FB
100
AcDbEntity
  8
L1_120
  6
CONTINUOUS
 62
         2
100
AcDbLine
 10
1536.3975569815
 20
-187.5446253991
 30
-68.2606612419
 11
1533.050996097
 21
-190.6893639673
 31
-69.4052524753
  0
LINE
  5
1FC
100
AcDbEntity
  8
L1_120
  6
CONTINUOUS
 62
         2
100
AcDbLine
 10
1536.5508425579
 20
-189.3939731473
 30
-68.933768775
 11
1535.1485393726
 21
-190.7117071026
 31
-69.4133847114
  0
ENDBLK
  5
1FD
100
AcDbEntity
  8
0
  6
CONTINUOUS
100
AcDbBlockEnd
  0
BLOCK
  5
22C
100
AcDbEntity
  8
0
100
AcDbBlockBegin
  2
*D5
 70
        65
 10
0.0
 20
0.0
 30
0.0
  3
*D5
  1

  0
POINT
  5
22F
100
AcDbEntity
  8
DEFPOINTS
  6
CONTINUOUS
 62
         0
100
AcDbPoint
 10
1551.5412003955
 20
-185.2035239885
 30
-67.408570013
  0
POINT
  5
230
100
AcDbEntity
  8
DEFPOINTS
  6
CONTINUOUS
 62
         0
100
AcDbPoint
 10
1504.1123410046
 20
-185.2035239885
 30
-67.408570013
  0
POINT
  5
231
100
AcDbEntity
  8
DEFPOINTS
  6
CONTINUOUS
 62
         0
100
AcDbPoint
 10
1504.1123410046
 20
-211.5149173705
 30
-76.9851340261
  0
LINE
  5
232
100
AcDbEntity
  8
L1_120
  6
CONTINUOUS
 62
         4
100
AcDbLine
 10
1505.4623410046
 20
-185.2035239885
 30
-67.408570013
 11
1552.2162003955
 21
-185.2035239885
 31
-67.408570013
  0
LINE
  5
233
100
AcDbEntity
  8
L1_120
  6
CONTINUOUS
 62
         4
100
AcDbLine
 10
1505.4623410046
 20
-211.5149173705
 30
-76.9851340261
 11
1552.2162003955
 21
-211.5149173705
 31
-76.9851340261
  0
LINE
  5
234
100
AcDbEntity
  8
L1_120
  6
CONTINUOUS
 62
         4
100
AcDbLine
 10
1551.5412003955
 20
-185.2035239885
 30
-67.408570013
 11
1551.5412003955
 21
-211.5149173705
 31
-76.9851340261
  0
SOLID
  5
235
100
AcDbEntity
  8
L1_120
  6
CONTINUOUS
 62
         4
100
AcDbTrace
 10
1551.5412003955
 20
-185.2035239885
 30
-67.408570013
 11
1551.9462003955
 21
-187.7406940646
 31
-68.3320244
 12
1551.1362003955
 22
-187.7406940646
 32
-68.3320244
 13
1551.5412003955
 23
-185.2035239885
 33
-67.408570013
  0
SOLID
  5
236
100
AcDbEntity
  8
L1_120
  6
CONTINUOUS
 62
         4
100
AcDbTrace
 10
1551.5412003955
 20
-211.5149173705
 30
-76.9851340261
 11
1551.1362003955
 21
-208.9777472943
 31
-76.0616796391
 12
1551.9462003955
 22
-208.9777472943
 32
-76.0616796391
 13
1551.5412003955
 23
-211.5149173705
 33
-76.9851340261
  0
TEXT
  5
238
100
AcDbEntity
  8
L1_120
  6
CONTINUOUS
 62
         4
100
AcDbText
 10
1549.5162003955
 20
-220.8323180396
 30
0.0
 40
2.7
  1
ØÙ28
 50
90.0
  7
BOX
210
0.0
220
-0.3420201433256687
230
0.9396926207859084
100
AcDbText
  0
ENDBLK
  5
239
100
AcDbEntity
  8
0
  6
CONTINUOUS
100
AcDbBlockEnd
  0
BLOCK
  5
293
100
AcDbEntity
  8
0
100
AcDbBlockBegin
  2
*D6
 70
        65
 10
0.0
 20
0.0
 30
0.0
  3
*D6
  1

  0
POINT
  5
295
100
AcDbEntity
  8
DEFPOINTS
  6
CONTINUOUS
 62
         0
100
AcDbPoint
 10
1445.9508425579
 20
-330.9856750994
 30
-120.4689337047
  0
POINT
  5
296
100
AcDbEntity
  8
DEFPOINTS
  6
CONTINUOUS
 62
         0
100
AcDbPoint
 10
1445.9508425579
 20
-303.3088709692
 30
-110.3954008217
  0
POINT
  5
297
100
AcDbEntity
  8
DEFPOINTS
  6
CONTINUOUS
 62
         0
100
AcDbPoint
 10
1525.9508425579
 20
-308.0073340731
 30
-112.1055015383
  0
LINE
  5
298
100
AcDbEntity
  8
L1_120
  6
CONTINUOUS
 62
         4
100
AcDbLine
 10
1445.9508425579
 20
-304.5774560072
 30
-110.8571280152
 11
1445.9508425579
 21
-331.6199676184
 31
-120.6997973014
  0
LINE
  5
299
100
AcDbEntity
  8
L1_120
  6
CONTINUOUS
 62
         4
100
AcDbLine
 10
1525.9508425579
 20
-309.2759191112
 30
-112.5672287318
 11
1525.9508425579
 21
-331.6199676184
 31
-120.6997973014
  0
LINE
  5
29A
100
AcDbEntity
  8
L1_120
  6
CONTINUOUS
 62
         4
100
AcDbLine
 10
1445.9508425579
 20
-330.9856750994
 30
-120.4689337047
 11
1525.9508425579
 21
-330.9856750994
 31
-120.4689337047
  0
SOLID
  5
29B
100
AcDbEntity
  8
L1_120
  6
CONTINUOUS
 62
         4
100
AcDbTrace
 10
1445.9508425579
 20
-330.9856750994
 30
-120.4689337047
 11
1448.6508425579
 21
-330.605099588
 31
-120.3304155466
 12
1448.6508425579
 22
-331.3662506108
 32
-120.6074518627
 13
1445.9508425579
 23
-330.9856750994
 33
-120.4689337047
  0
SOLID
  5
29C
100
AcDbEntity
  8
L1_120
  6
CONTINUOUS
 62
         4
100
AcDbTrace
 10
1525.9508425579
 20
-330.9856750994
 30
-120.4689337047
 11
1523.2508425579
 21
-331.3662506108
 31
-120.6074518627
 12
1523.2508425579
 22
-330.605099588
 32
-120.3304155466
 13
1525.9508425579
 23
-330.9856750994
 33
-120.4689337047
  0
TEXT
  5
29E
100
AcDbEntity
  8
L1_120
  6
CONTINUOUS
 62
         4
100
AcDbText
 10
1479.0986109856
 20
-350.2025984487
 30
0.0
 40
2.7
  1
80
  7
BOX
210
0.0
220
-0.3420201433256687
230
0.9396926207859084
100
AcDbText
  0
ENDBLK
  5
29F
100
AcDbEntity
  8
0
  6
CONTINUOUS
100
AcDbBlockEnd
  0
BLOCK
  5
2F1
100
AcDbEntity
  8
0
100
AcDbBlockBegin
  2
*X7
 70
        65
 10
0.0
 20
0.0
 30
0.0
  3
*X7
  1

  0
LINE
  5
2F2
100
AcDbEntity
  8
L1_120
  6
CONTINUOUS
 62
         4
100
AcDbLine
 10
1522.0518024675
 20
-308.9470266939
 30
-112.4475216816
 11
1525.0998267585
 21
-306.0828207597
 31
-111.4050359768
  0
LINE
  5
2F3
100
AcDbEntity
  8
L1_120
  6
CONTINUOUS
 62
         4
100
AcDbLine
 10
1517.8091617804
 20
-308.9470266939
 30
-112.4475216816
 11
1521.4423981812
 21
-305.5329012585
 31
-111.2048816471
  0
LINE
  5
2F4
100
AcDbEntity
  8
L1_120
  6
CONTINUOUS
 62
         4
100
AcDbLine
 10
1513.5665210933
 20
-308.9470266939
 30
-112.4475216816
 11
1517.7225483012
 21
-305.0416385948
 31
-111.0260766603
  0
LINE
  5
2F5
100
AcDbEntity
  8
L1_120
  6
CONTINUOUS
 62
         4
100
AcDbLine
 10
1506.3238804061
 20
-311.7661045562
 30
-113.4735821116
 11
1514.0026984211
 21
-304.5503759312
 31
-110.8472716735
  0
LINE
  5
2F6
100
AcDbEntity
  8
L1_120
  6
CONTINUOUS
 62
         4
100
AcDbLine
 10
1502.081239719
 20
-311.7661045562
 30
-113.4735821116
 11
1510.2828485411
 21
-304.0591132675
 31
-110.6684666868
  0
LINE
  5
2F7
100
AcDbEntity
  8
L1_120
  6
CONTINUOUS
 62
         4
100
AcDbLine
 10
1523.7759647054
 20
-291.3797315766
 30
-106.0535491624
 11
1525.9135658259
 21
-289.3710435775
 31
-105.3224465208
  0
LINE
  5
2F8
100
AcDbEntity
  8
L1_120
  6
CONTINUOUS
 62
         4
100
AcDbLine
 10
1497.8385990319
 20
-311.7661045562
 30
-113.4735821116
 11
1506.2335990319
 21
-303.8773850047
 31
-110.6023230084
  0
LINE
  5
2F9
100
AcDbEntity
  8
L1_120
  6
CONTINUOUS
 62
         4
100
AcDbLine
 10
1518.8395571849
 20
-292.0316591504
 30
-106.2908313941
 11
1522.8385990319
 21
-288.2737890366
 31
-104.9230785285
  0
LINE
  5
2FA
100
AcDbEntity
  8
L1_120
  6
CONTINUOUS
 62
         4
100
AcDbLine
 10
1493.5959583448
 20
-311.7661045562
 30
-113.4735821116
 11
1502.5209583448
 21
-303.3793479157
 31
-110.4210523324
  0
LINE
  5
2FB
100
AcDbEntity
  8
L1_120
  6
CONTINUOUS
 62
         4
100
AcDbLine
 10
1513.9031496644
 20
-292.6835867243
 30
-106.5281136259
 11
1518.5959583448
 21
-288.2737890366
 31
-104.9230785285
  0
LINE
  5
2FC
100
AcDbEntity
  8
L1_120
  6
CONTINUOUS
 62
         4
100
AcDbLine
 10
1489.3533176577
 20
-311.7661045562
 30
-113.4735821116
 11
1498.2783176577
 21
-303.3793479157
 31
-110.4210523324
  0
LINE
  5
2FD
100
AcDbEntity
  8
L1_120
  6
CONTINUOUS
 62
         4
100
AcDbLine
 10
1508.9667421439
 20
-293.3355142981
 30
-106.7653958577
 11
1514.3533176577
 21
-288.2737890366
 31
-104.9230785285
  0
LINE
  5
2FE
100
AcDbEntity
  8
L1_120
  6
CONTINUOUS
 62
         4
100
AcDbLine
 10
1485.1106769706
 20
-311.7661045562
 30
-113.4735821116
 11
1494.0356769705
 21
-303.3793479157
 31
-110.4210523324
  0
LINE
  5
2FF
100
AcDbEntity
  8
L1_120
  6
CONTINUOUS
 62
         4
100
AcDbLine
 10
1504.7156769705
 20
-293.3434307257
 30
-106.7682772017
 11
1510.4708051816
 21
-287.9353792142
 31
-104.7999074261
  0
LINE
  5
300
100
AcDbEntity
  8
L1_120
  6
CONTINUOUS
 62
         4
100
AcDbLine
 10
1480.8680362834
 20
-311.7661045562
 30
-113.4735821116
 11
1489.7930362834
 21
-303.3793479157
 31
-110.4210523324
  0
LINE
  5
301
100
AcDbEntity
  8
L1_120
  6
CONTINUOUS
 62
         4
100
AcDbLine
 10
1499.9430362834
 20
-293.8414678148
 30
-106.9495478777
 11
1508.8680362834
 21
-285.4547111742
 31
-103.8970180985
  0
LINE
  5
302
100
AcDbEntity
  8
L1_120
  6
CONTINUOUS
 62
         4
100
AcDbLine
 10
1476.6253955963
 20
-311.7661045562
 30
-113.4735821116
 11
1485.5503955963
 21
-303.3793479157
 31
-110.4210523324
  0
LINE
  5
303
100
AcDbEntity
  8
L1_120
  6
CONTINUOUS
 62
         4
100
AcDbLine
 10
1495.7003955963
 20
-293.8414678148
 30
-106.9495478777
 11
1504.6253955963
 21
-285.4547111742
 31
-103.8970180985
  0
LINE
  5
304
100
AcDbEntity
  8
L1_120
  6
CONTINUOUS
 62
         4
100
AcDbLine
 10
1472.3827549092
 20
-311.7661045562
 30
-113.4735821116
 11
1481.3077549092
 21
-303.3793479157
 31
-110.4210523324
  0
LINE
  5
305
100
AcDbEntity
  8
L1_120
  6
CONTINUOUS
 62
         4
100
AcDbLine
 10
1491.4577549092
 20
-293.8414678148
 30
-106.9495478777
 11
1500.3827549092
 21
-285.4547111742
 31
-103.8970180985
  0
LINE
  5
306
100
AcDbEntity
  8
L1_120
  6
CONTINUOUS
 62
         4
100
AcDbLine
 10
1468.1401142221
 20
-311.7661045562
 30
-113.4735821116
 11
1477.0651142221
 21
-303.3793479157
 31
-110.4210523324
  0
LINE
  5
307
100
AcDbEntity
  8
L1_120
  6
CONTINUOUS
 62
         4
100
AcDbLine
 10
1487.2151142221
 20
-293.8414678148
 30
-106.9495478777
 11
1496.1401142221
 21
-285.4547111742
 31
-103.8970180985
  0
LINE
  5
308
100
AcDbEntity
  8
L1_120
  6
CONTINUOUS
 62
         4
100
AcDbLine
 10
1463.897473535
 20
-311.7661045562
 30
-113.4735821116
 11
1472.8224735349
 21
-303.3793479157
 31
-110.4210523324
  0
LINE
  5
309
100
AcDbEntity
  8
L1_120
  6
CONTINUOUS
 62
         4
100
AcDbLine
 10
1482.972473535
 20
-293.8414678148
 30
-106.9495478777
 11
1491.8974735349
 21
-285.4547111742
 31
-103.8970180985
  0
LINE
  5
30A
100
AcDbEntity
  8
L1_120
  6
CONTINUOUS
 62
         4
100
AcDbLine
 10
1459.6548328478
 20
-311.7661045562
 30
-113.4735821116
 11
1468.5798328478
 21
-303.3793479157
 31
-110.4210523324
  0
LINE
  5
30B
100
AcDbEntity
  8
L1_120
  6
CONTINUOUS
 62
         4
100
AcDbLine
 10
1478.7298328478
 20
-293.8414678148
 30
-106.9495478777
 11
1487.6548328478
 21
-285.4547111742
 31
-103.8970180985
  0
LINE
  5
30C
100
AcDbEntity
  8
L1_120
  6
CONTINUOUS
 62
         4
100
AcDbLine
 10
1455.4121921607
 20
-311.7661045562
 30
-113.4735821116
 11
1464.3371921607
 21
-303.3793479157
 31
-110.4210523324
  0
LINE
  5
30D
100
AcDbEntity
  8
L1_120
  6
CONTINUOUS
 62
         4
100
AcDbLine
 10
1474.4871921607
 20
-293.8414678148
 30
-106.9495478777
 11
1483.4121921607
 21
-285.4547111742
 31
-103.8970180985
  0
LINE
  5
30E
100
AcDbEntity
  8
L1_120
  6
CONTINUOUS
 62
         4
100
AcDbLine
 10
1451.1695514736
 20
-311.7661045562
 30
-113.4735821116
 11
1460.0945514736
 21
-303.3793479157
 31
-110.4210523324
  0
LINE
  5
30F
100
AcDbEntity
  8
L1_120
  6
CONTINUOUS
 62
         4
100
AcDbLine
 10
1470.2445514736
 20
-293.8414678148
 30
-106.9495478777
 11
1479.1695514736
 21
-285.4547111742
 31
-103.8970180985
  0
LINE
  5
310
100
AcDbEntity
  8
L1_120
  6
CONTINUOUS
 62
         4
100
AcDbLine
 10
1446.9269107865
 20
-311.7661045562
 30
-113.4735821116
 11
1455.8519107865
 21
-303.3793479157
 31
-110.4210523324
  0
LINE
  5
311
100
AcDbEntity
  8
L1_120
  6
CONTINUOUS
 62
         4
100
AcDbLine
 10
1466.0019107865
 20
-293.8414678148
 30
-106.9495478777
 11
1474.9269107865
 21
-285.4547111742
 31
-103.8970180985
  0
LINE
  5
312
100
AcDbEntity
  8
L1_120
  6
CONTINUOUS
 62
         4
100
AcDbLine
 10
1442.6842700994
 20
-311.7661045562
 30
-113.4735821116
 11
1451.6092700993
 21
-303.3793479157
 31
-110.4210523324
  0
LINE
  5
313
100
AcDbEntity
  8
L1_120
  6
CONTINUOUS
 62
         4
100
AcDbLine
 10
1461.7592700994
 20
-293.8414678148
 30
-106.9495478777
 11
1470.6842700994
 21
-285.4547111742
 31
-103.8970180985
  0
LINE
  5
314
100
AcDbEntity
  8
L1_120
  6
CONTINUOUS
 62
         4
100
AcDbLine
 10
1438.4416294122
 20
-311.7661045562
 30
-113.4735821116
 11
1447.3666294122
 21
-303.3793479157
 31
-110.4210523324
  0
LINE
  5
315
100
AcDbEntity
  8
L1_120
  6
CONTINUOUS
 62
         4
100
AcDbLine
 10
1457.5166294122
 20
-293.8414678148
 30
-106.9495478777
 11
1466.4416294122
 21
-285.4547111742
 31
-103.8970180985
  0
LINE
  5
316
100
AcDbEntity
  8
L1_120
  6
CONTINUOUS
 62
         4
100
AcDbLine
 10
1434.1989887251
 20
-311.7661045562
 30
-113.4735821116
 11
1443.1239887251
 21
-303.3793479157
 31
-110.4210523324
  0
LINE
  5
317
100
AcDbEntity
  8
L1_120
  6
CONTINUOUS
 62
         4
100
AcDbLine
 10
1453.2739887251
 20
-293.8414678148
 30
-106.9495478777
 11
1462.1989887251
 21
-285.4547111742
 31
-103.8970180985
  0
LINE
  5
318
100
AcDbEntity
  8
L1_120
  6
CONTINUOUS
 62
         4
100
AcDbLine
 10
1429.956348038
 20
-311.7661045562
 30
-113.4735821116
 11
1438.881348038
 21
-303.3793479157
 31
-110.4210523324
  0
LINE
  5
319
100
AcDbEntity
  8
L1_120
  6
CONTINUOUS
 62
         4
100
AcDbLine
 10
1449.031348038
 20
-293.8414678148
 30
-106.9495478777
 11
1457.956348038
 21
-285.4547111742
 31
-103.8970180985
  0
LINE
  5
31A
100
AcDbEntity
  8
L1_120
  6
CONTINUOUS
 62
         4
100
AcDbLine
 10
1417.4287073509
 20
-319.5514579195
 30
-116.3072189991
 11
1419.2028425579
 21
-317.8843161572
 31
-115.7004290213
  0
LINE
  5
31B
100
AcDbEntity
  8
L1_120
  6
CONTINUOUS
 62
         4
100
AcDbLine
 10
1425.7137073509
 20
-311.7661045562
 30
-113.4735821116
 11
1432.7137073509
 21
-305.1882562107
 31
-111.0794411083
  0
LINE
  5
31C
100
AcDbEntity
  8
L1_120
  6
CONTINUOUS
 62
         4
100
AcDbLine
 10
1444.7887073509
 20
-293.8414678148
 30
-106.9495478777
 11
1453.7137073509
 21
-285.4547111742
 31
-103.8970180985
  0
LINE
  5
31D
100
AcDbEntity
  8
L1_120
  6
CONTINUOUS
 62
         4
100
AcDbLine
 10
1413.1860666638
 20
-319.5514579195
 30
-116.3072189991
 11
1419.2028425579
 21
-313.8975380108
 31
-114.2493604454
  0
LINE
  5
31E
100
AcDbEntity
  8
L1_120
  6
CONTINUOUS
 62
         4
100
AcDbLine
 10
1421.4710666638
 20
-311.7661045562
 30
-113.4735821116
 11
1428.4710666638
 21
-305.1882562107
 31
-111.0794411083
  0
LINE
  5
31F
100
AcDbEntity
  8
L1_120
  6
CONTINUOUS
 62
         4
100
AcDbLine
 10
1440.5460666638
 20
-293.8414678148
 30
-106.9495478777
 11
1449.4710666638
 21
-285.4547111742
 31
-103.8970180985
  0
LINE
  5
320
100
AcDbEntity
  8
L1_120
  6
CONTINUOUS
 62
         4
100
AcDbLine
 10
1399.4534259765
 20
-328.4691408909
 30
-119.5529901593
 11
1403.2508425579
 21
-324.9007365513
 31
-118.2541971958
  0
LINE
  5
321
100
AcDbEntity
  8
L1_120
  6
CONTINUOUS
 62
         4
100
AcDbLine
 10
1408.9434259766
 20
-319.5514579195
 30
-116.3072189991
 11
1424.2284259766
 21
-305.1882562107
 31
-111.0794411083
  0
LINE
  5
322
100
AcDbEntity
  8
L1_120
  6
CONTINUOUS
 62
         4
100
AcDbLine
 10
1436.3034259766
 20
-293.8414678148
 30
-106.9495478777
 11
1445.2284259766
 21
-285.4547111742
 31
-103.8970180985
  0
LINE
  5
323
100
AcDbEntity
  8
L1_120
  6
CONTINUOUS
 62
         4
100
AcDbLine
 10
1397.4780861782
 20
-326.3385749765
 30
-118.7775275843
 11
1403.2508425579
 21
-320.9139584049
 31
-116.8031286199
  0
LINE
  5
324
100
AcDbEntity
  8
L1_120
  6
CONTINUOUS
 62
         4
100
AcDbLine
 10
1404.7007852895
 20
-319.5514579195
 30
-116.3072189991
 11
1419.9857852895
 21
-305.1882562107
 31
-111.0794411083
  0
LINE
  5
325
100
AcDbEntity
  8
L1_120
  6
CONTINUOUS
 62
         4
100
AcDbLine
 10
1433.9857852895
 20
-292.0325595197
 30
-106.2911591018
 11
1440.9857852895
 21
-285.4547111742
 31
-103.8970180985
  0
LINE
  5
326
100
AcDbEntity
  8
L1_120
  6
CONTINUOUS
 62
         4
100
AcDbLine
 10
1390.9681446022
 20
-328.4691408909
 30
-119.5529901593
 11
1392.7342111636
 21
-326.8095811753
 31
-118.9489598208
  0
LINE
  5
327
100
AcDbEntity
  8
L1_120
  6
CONTINUOUS
 62
         4
100
AcDbLine
 10
1394.6181446024
 20
-325.0392628248
 30
-118.3046166361
 11
1415.7431446024
 21
-305.1882562107
 31
-111.0794411083
  0
LINE
  5
328
100
AcDbEntity
  8
L1_120
  6
CONTINUOUS
 62
         4
100
AcDbLine
 10
1429.7431446024
 20
-292.0325595197
 30
-106.2911591018
 11
1436.7431446024
 21
-285.4547111742
 31
-103.8970180985
  0
LINE
  5
329
100
AcDbEntity
  8
L1_120
  6
CONTINUOUS
 62
         4
100
AcDbLine
 10
1386.7255039151
 20
-328.4691408909
 30
-119.5529901593
 11
1411.5005039153
 21
-305.1882562107
 31
-111.0794411083
  0
LINE
  5
32A
100
AcDbEntity
  8
L1_120
  6
CONTINUOUS
 62
         4
100
AcDbLine
 10
1425.5005039153
 20
-292.0325595197
 30
-106.2911591018
 11
1432.5005039153
 21
-285.4547111742
 31
-103.8970180985
  0
LINE
  5
32B
100
AcDbEntity
  8
L1_120
  6
CONTINUOUS
 62
         4
100
AcDbLine
 10
1385.1708425579
 20
-325.9432665498
 30
-118.6336470836
 11
1407.2578632282
 21
-305.1882562107
 31
-111.0794411083
  0
LINE
  5
32C
100
AcDbEntity
  8
L1_120
  6
CONTINUOUS
 62
         4
100
AcDbLine
 10
1421.2578632282
 20
-292.0325595197
 30
-106.2911591018
 11
1428.2578632282
 21
-285.4547111742
 31
-103.8970180985
  0
LINE
  5
32D
100
AcDbEntity
  8
L1_120
  6
CONTINUOUS
 62
         4
100
AcDbLine
 10
1385.1708425579
 20
-321.9564884034
 30
-117.1825785077
 11
1403.015222541
 21
-305.1882562107
 31
-111.0794411083
  0
LINE
  5
32E
100
AcDbEntity
  8
L1_120
  6
CONTINUOUS
 62
         4
100
AcDbLine
 10
1417.015222541
 20
-292.0325595197
 30
-106.2911591018
 11
1424.015222541
 21
-285.4547111742
 31
-103.8970180985
  0
LINE
  5
32F
100
AcDbEntity
  8
L1_120
  6
CONTINUOUS
 62
         4
100
AcDbLine
 10
1383.624360489
 20
-319.4229280454
 30
-116.2604379507
 11
1398.7725818539
 21
-305.1882562107
 31
-111.0794411083
  0
LINE
  5
330
100
AcDbEntity
  8
L1_120
  6
CONTINUOUS
 62
         4
100
AcDbLine
 10
1414.3531725102
 20
-290.5472901435
 30
-105.750565259
 11
1420.1024868511
 21
-285.1447018829
 31
-103.7841839441
  0
LINE
  5
331
100
AcDbEntity
  8
L1_120
  6
CONTINUOUS
 62
         4
100
AcDbLine
 10
1379.9216922529
 20
-318.9155199177
 30
-116.0757564956
 11
1394.5299411668
 21
-305.1882562107
 31
-111.0794411083
  0
LINE
  5
332
100
AcDbEntity
  8
L1_120
  6
CONTINUOUS
 62
         4
100
AcDbLine
 10
1408.5299411668
 20
-292.0325595197
 30
-106.2911591018
 11
1409.4883565133
 21
-291.131943691
 31
-105.9633617476
  0
LINE
  5
333
100
AcDbEntity
  8
L1_120
  6
CONTINUOUS
 62
         4
100
AcDbLine
 10
1411.8578061554
 20
-288.905389347
 30
-105.1529622414
 11
1419.2028425579
 21
-282.0033128402
 31
-102.6408118383
  0
LINE
  5
334
100
AcDbEntity
  8
L1_120
  6
CONTINUOUS
 62
         4
100
AcDbLine
 10
1376.2190240169
 20
-318.40811179
 30
-115.8910750405
 11
1390.2873004797
 21
-305.1882562107
 31
-111.0794411083
  0
LINE
  5
335
100
AcDbEntity
  8
L1_120
  6
CONTINUOUS
 62
         4
100
AcDbLine
 10
1404.2873004797
 20
-292.0325595197
 30
-106.2911591018
 11
1406.9929901584
 21
-289.4900428945
 31
-105.36575873
  0
LINE
  5
336
100
AcDbEntity
  8
L1_120
  6
CONTINUOUS
 62
         4
100
AcDbLine
 10
1409.3624398005
 20
-287.2634885505
 30
-104.5553592239
 11
1419.1375715188
 21
-278.0778694076
 31
-101.2120672725
  0
LINE
  5
337
100
AcDbEntity
  8
L1_120
  6
CONTINUOUS
 62
         4
100
AcDbLine
 10
1372.5163557809
 20
-317.9007036623
 30
-115.7063935853
 11
1386.0446597926
 21
-305.1882562107
 31
-111.0794411083
  0
LINE
  5
338
100
AcDbEntity
  8
L1_120
  6
CONTINUOUS
 62
         4
100
AcDbLine
 10
1400.0446597926
 20
-292.0325595197
 30
-106.2911591018
 11
1404.4976238035
 21
-287.848142098
 31
-104.7681557125
  0
LINE
  5
339
100
AcDbEntity
  8
L1_120
  6
CONTINUOUS
 62
         4
100
AcDbLine
 10
1406.8670734457
 20
-285.621587754
 30
-103.9577562063
 11
1415.3296597926
 21
-277.669357811
 31
-101.063381211
  0
LINE
  5
33A
100
AcDbEntity
  8
L1_120
  6
CONTINUOUS
 62
         4
100
AcDbLine
 10
1368.8136875448
 20
-317.3932955346
 30
-115.5217121302
 11
1381.8020191054
 21
-305.1882562107
 31
-111.0794411083
  0
LINE
  5
33B
100
AcDbEntity
  8
L1_120
  6
CONTINUOUS
 62
         4
100
AcDbLine
 10
1395.8020191054
 20
-292.0325595197
 30
-106.2911591018
 11
1402.0022574487
 21
-286.2062413015
 31
-104.1705526949
  0
LINE
  5
33C
100
AcDbEntity
  8
L1_120
  6
CONTINUOUS
 62
         4
100
AcDbLine
 10
1404.3717070908
 20
-283.9796869575
 30
-103.3601531888
 11
1411.0870191055
 21
-277.669357811
 31
-101.063381211
  0
LINE
  5
33D
100
AcDbEntity
  8
L1_120
  6
CONTINUOUS
 62
         4
100
AcDbLine
 10
1365.1110193088
 20
-316.8858874068
 30
-115.3370306751
 11
1377.5593784183
 21
-305.1882562107
 31
-111.0794411083
  0
LINE
  5
33E
100
AcDbEntity
  8
L1_120
  6
CONTINUOUS
 62
         4
100
AcDbLine
 10
1391.5593784183
 20
-292.0325595197
 30
-106.2911591018
 11
1399.5068910938
 21
-284.564340505
 31
-103.5729496774
  0
LINE
  5
33F
100
AcDbEntity
  8
L1_120
  6
CONTINUOUS
 62
         4
100
AcDbLine
 10
1401.8763407359
 20
-282.3377861609
 30
-102.7625501712
 11
1406.8443784183
 21
-277.669357811
 31
-101.063381211
  0
LINE
  5
340
100
AcDbEntity
  8
L1_120
  6
CONTINUOUS
 62
         4
100
AcDbLine
 10
1361.4083510728
 20
-316.3784792791
 30
-115.15234922
 11
1373.3167377312
 21
-305.1882562107
 31
-111.0794411083
  0
LINE
  5
341
100
AcDbEntity
  8
L1_120
  6
CONTINUOUS
 62
         4
100
AcDbLine
 10
1387.3167377312
 20
-292.0325595197
 30
-106.2911591018
 11
1397.011524739
 21
-282.9224397084
 31
-102.9753466598
  0
LINE
  5
342
100
AcDbEntity
  8
L1_120
  6
CONTINUOUS
 62
         4
100
AcDbLine
 10
1399.3809743811
 20
-280.6958853644
 30
-102.1649471537
 11
1403.2508425579
 21
-277.0593987953
 31
-100.8413742852
  0
LINE
  5
343
100
AcDbEntity
  8
L1_120
  6
CONTINUOUS
 62
         4
100
AcDbLine
 10
1357.7056828368
 20
-315.8710711514
 30
-114.9676677649
 11
1369.0740970441
 21
-305.1882562107
 31
-111.0794411083
  0
LINE
  5
344
100
AcDbEntity
  8
L1_120
  6
CONTINUOUS
 62
         4
100
AcDbLine
 10
1383.0740970441
 20
-292.0325595197
 30
-106.2911591018
 11
1394.5161583841
 21
-281.2805389119
 31
-102.3777436423
  0
LINE
  5
345
100
AcDbEntity
  8
L1_120
  6
CONTINUOUS
 62
         4
100
AcDbLine
 10
1396.8856080262
 20
-279.0539845679
 30
-101.5673441361
 11
1403.2508425579
 21
-273.072620649
 31
-99.3903057093
  0
LINE
  5
346
100
AcDbEntity
  8
L1_120
  6
CONTINUOUS
 62
         4
100
AcDbLine
 10
1354.0030146007
 20
-315.3636630237
 30
-114.7829863098
 11
1364.831456357
 21
-305.1882562107
 31
-111.0794411083
  0
LINE
  5
347
100
AcDbEntity
  8
L1_120
  6
CONTINUOUS
 62
         4
100
AcDbLine
 10
1378.831456357
 20
-292.0325595197
 30
-106.2911591018
 11
1392.0207920293
 21
-279.6386381154
 31
-101.7801406247
  0
LINE
  5
348
100
AcDbEntity
  8
L1_120
  6
CONTINUOUS
 62
         4
100
AcDbLine
 10
1394.3902416714
 20
-277.4120837714
 30
-100.9697411185
 11
1403.1786494574
 21
-269.1536818264
 31
-97.963928628
  0
LINE
  5
349
100
AcDbEntity
  8
L1_120
  6
CONTINUOUS
 62
         4
100
AcDbLine
 10
1350.3003463647
 20
-314.856254896
 30
-114.5983048547
 11
1360.5888156698
 21
-305.1882562107
 31
-111.0794411083
  0
LINE
  5
34A
100
AcDbEntity
  8
L1_120
  6
CONTINUOUS
 62
         4
100
AcDbLine
 10
1374.5888156698
 20
-292.0325595197
 30
-106.2911591018
 11
1389.5254256744
 21
-277.9967373189
 31
-101.1825376072
  0
LINE
  5
34B
100
AcDbEntity
  8
L1_120
  6
CONTINUOUS
 62
         4
100
AcDbLine
 10
1391.8948753165
 20
-275.7701829749
 30
-100.372138101
 11
1395.71381567
 21
-272.1815529055
 31
-99.0659835739
  0
LINE
  5
34C
100
AcDbEntity
  8
L1_120
  6
CONTINUOUS
 62
         4
100
AcDbLine
 10
1397.9993223998
 20
-270.0338790968
 30
-98.2842942347
 11
1399.36381567
 21
-268.7516748396
 31
-97.8176100508
  0
LINE
  5
34D
100
AcDbEntity
  8
L1_120
  6
CONTINUOUS
 62
         4
100
AcDbLine
 10
1346.5976781287
 20
-314.3488467683
 30
-114.4136233996
 11
1356.3461749827
 21
-305.1882562107
 31
-111.0794411083
  0
LINE
  5
34E
100
AcDbEntity
  8
L1_120
  6
CONTINUOUS
 62
         4
100
AcDbLine
 10
1370.3461749827
 20
-292.0325595197
 30
-106.2911591018
 11
1387.0300593196
 21
-276.3548365224
 31
-100.5849345896
  0
LINE
  5
34F
100
AcDbEntity
  8
L1_120
  6
CONTINUOUS
 62
         4
100
AcDbLine
 10
1389.3995089617
 20
-274.1282821784
 30
-99.7745350834
 11
1392.9614753331
 21
-270.7811286636
 31
-98.5562708346
  0
LINE
  5
350
100
AcDbEntity
  8
L1_120
  6
CONTINUOUS
 62
         4
100
AcDbLine
 10
1342.8950098926
 20
-313.8414386406
 30
-114.2289419444
 11
1352.1035342956
 21
-305.1882562107
 31
-111.0794411083
  0
LINE
  5
351
100
AcDbEntity
  8
L1_120
  6
CONTINUOUS
 62
         4
100
AcDbLine
 10
1366.1035342956
 20
-292.0325595197
 30
-106.2911591018
 11
1380.8466767874
 21
-278.178537313
 31
-101.2487073936
  0
LINE
  5
352
100
AcDbEntity
  8
L1_120
  6
CONTINUOUS
 62
         4
100
AcDbLine
 10
1387.191348624
 20
-272.2164960068
 30
-99.0787018227
 11
1390.8785342958
 21
-268.7516748396
 31
-97.8176100508
  0
LINE
  5
353
100
AcDbEntity
  8
L1_120
  6
CONTINUOUS
 62
         4
100
AcDbLine
 10
1339.1923416566
 20
-313.3340305128
 30
-114.0442604893
 11
1347.8608936085
 21
-305.1882562107
 31
-111.0794411083
  0
LINE
  5
354
100
AcDbEntity
  8
L1_120
  6
CONTINUOUS
 62
         4
100
AcDbLine
 10
1361.8608936085
 20
-292.0325595197
 30
-106.2911591018
 11
1375.8796828123
 21
-278.8592067526
 31
-101.496450809
  0
LINE
  5
355
100
AcDbEntity
  8
L1_120
  6
CONTINUOUS
 62
         4
100
AcDbLine
 10
1385.1708425579
 20
-270.1283725011
 30
-98.3186870212
 11
1386.6358936087
 21
-268.7516748396
 31
-97.8176100508
  0
LINE
  5
356
100
AcDbEntity
  8
L1_120
  6
CONTINUOUS
 62
         4
100
AcDbLine
 10
1335.4896734206
 20
-312.8266223851
 30
-113.8595790342
 11
1343.6182529214
 21
-305.1882562107
 31
-111.0794411083
  0
LINE
  5
357
100
AcDbEntity
  8
L1_120
  6
CONTINUOUS
 62
         4
100
AcDbLine
 10
1357.6182529214
 20
-292.0325595197
 30
-106.2911591018
 11
1370.9126888371
 21
-279.5398761922
 31
-101.7441942244
  0
LINE
  5
358
100
AcDbEntity
  8
L1_120
  6
CONTINUOUS
 62
         4
100
AcDbLine
 10
1331.7870051845
 20
-312.3192142574
 30
-113.6748975791
 11
1339.3756122343
 21
-305.1882562107
 31
-111.0794411083
  0
LINE
  5
359
100
AcDbEntity
  8
L1_120
  6
CONTINUOUS
 62
         4
100
AcDbLine
 10
1353.3756122343
 20
-292.0325595197
 30
-106.2911591018
 11
1365.9456948619
 21
-280.2205456318
 31
-101.9919376398
  0
LINE
  5
35A
100
AcDbEntity
  8
L1_120
  6
CONTINUOUS
 62
         4
100
AcDbLine
 10
1328.0843369485
 20
-311.8118061297
 30
-113.490216124
 11
1335.1329715471
 21
-305.1882562107
 31
-111.0794411083
  0
LINE
  5
35B
100
AcDbEntity
  8
L1_120
  6
CONTINUOUS
 62
         4
100
AcDbLine
 10
1349.1329715471
 20
-292.0325595197
 30
-106.2911591018
 11
1360.9787008868
 21
-280.9012150715
 31
-102.2396810552
  0
LINE
  5
35C
100
AcDbEntity
  8
L1_120
  6
CONTINUOUS
 62
         4
100
AcDbLine
 10
1324.3816687125
 20
-311.304398002
 30
-113.3055346689
 11
1330.89033086
 21
-305.1882562107
 31
-111.0794411083
  0
LINE
  5
35D
100
AcDbEntity
  8
L1_120
  6
CONTINUOUS
 62
         4
100
AcDbLine
 10
1344.89033086
 20
-292.0325595197
 30
-106.2911591018
 11
1356.0117069116
 21
-281.5818845111
 31
-102.4874244706
  0
LINE
  5
35E
100
AcDbEntity
  8
L1_120
  6
CONTINUOUS
 62
         4
100
AcDbLine
 10
1320.6790004764
 20
-310.7969898743
 30
-113.1208532138
 11
1326.6476901729
 21
-305.1882562107
 31
-111.0794411083
  0
LINE
  5
35F
100
AcDbEntity
  8
L1_120
  6
CONTINUOUS
 62
         4
100
AcDbLine
 10
1340.6476901729
 20
-292.0325595197
 30
-106.2911591018
 11
1351.0447129364
 21
-282.2625539507
 31
-102.735167886
  0
LINE
  5
360
100
AcDbEntity
  8
L1_120
  6
CONTINUOUS
 62
         4
100
AcDbLine
 10
1316.9763322404
 20
-310.2895817466
 30
-112.9361717587
 11
1322.4050494858
 21
-305.1882562107
 31
-111.0794411083
  0
LINE
  5
361
100
AcDbEntity
  8
L1_120
  6
CONTINUOUS
 62
         4
100
AcDbLine
 10
1336.4050494858
 20
-292.0325595197
 30
-106.2911591018
 11
1346.0777189613
 21
-282.9432233903
 31
-102.9829113014
  0
LINE
  5
362
100
AcDbEntity
  8
L1_120
  6
CONTINUOUS
 62
         4
100
AcDbLine
 10
1315.9008425579
 20
-307.3134333186
 30
-111.8529423181
 11
1317.0124087987
 21
-306.2689027246
 31
-111.4727642731
  0
LINE
  5
363
100
AcDbEntity
  8
L1_120
  6
CONTINUOUS
 62
         4
100
AcDbLine
 10
1332.1624087987
 20
-292.0325595197
 30
-106.2911591018
 11
1341.1107249861
 21
-283.6238928299
 31
-103.2306547168
  0
LINE
  5
364
100
AcDbEntity
  8
L1_120
  6
CONTINUOUS
 62
         4
100
AcDbLine
 10
1327.9197681115
 20
-292.0325595197
 30
-106.2911591018
 11
1336.1437310109
 21
-284.3045622696
 31
-103.4783981322
  0
LINE
  5
365
100
AcDbEntity
  8
L1_120
  6
CONTINUOUS
 62
         4
100
AcDbLine
 10
1323.6771274244
 20
-292.0325595197
 30
-106.2911591018
 11
1331.1767370358
 21
-284.9852317092
 31
-103.7261415476
  0
LINE
  5
366
100
AcDbEntity
  8
L1_120
  6
CONTINUOUS
 62
         4
100
AcDbLine
 10
1320.6190860038
 20
-290.9194003304
 30
-105.8860022908
 11
1326.2097430606
 21
-285.6659011488
 31
-103.973884963
  0
LINE
  5
367
100
AcDbEntity
  8
L1_120
  6
CONTINUOUS
 62
         4
100
AcDbLine
 10
1316.449496866
 20
-290.8507543286
 30
-105.8610171895
 11
1321.2427490855
 21
-286.3465705884
 31
-104.2216283784
  0
ENDBLK
  5
368
100
AcDbEntity
  8
0
  6
CONTINUOUS
100
AcDbBlockEnd
  0
BLOCK
  5
36C
100
AcDbEntity
  8
0
100
AcDbBlockBegin
  2
*D8
 70
        65
 10
0.0
 20
0.0
 30
0.0
  3
*D8
  1

  0
POINT
  5
36E
100
AcDbEntity
  8
DEFPOINTS
  6
CONTINUOUS
 62
         0
100
AcDbPoint
 10
1315.9008425579
 20
-133.1198339692
 30
-48.4516571553
  0
POINT
  5
36F
100
AcDbEntity
  8
DEFPOINTS
  6
CONTINUOUS
 62
         0
100
AcDbPoint
 10
1315.9008425579
 20
-187.4842202385
 30
-68.2386755614
  0
POINT
  5
370
100
AcDbEntity
  8
DEFPOINTS
  6
CONTINUOUS
 62
         0
100
AcDbPoint
 10
1525.9508425579
 20
-189.1138180006
 30
-68.8318006406
  0
LINE
  5
371
100
AcDbEntity
  8
L1_120
  6
CONTINUOUS
 62
         4
100
AcDbLine
 10
1315.9008425579
 20
-186.2156352005
 30
-67.7769483679
 11
1315.9008425579
 21
-132.4855414502
 31
-48.2207935585
  0
LINE
  5
372
100
AcDbEntity
  8
L1_120
  6
CONTINUOUS
 62
         4
100
AcDbLine
 10
1525.9508425579
 20
-187.8452329625
 30
-68.3700734471
 11
1525.9508425579
 21
-132.4855414502
 31
-48.2207935585
  0
LINE
  5
373
100
AcDbEntity
  8
L1_120
  6
CONTINUOUS
 62
         4
100
AcDbLine
 10
1315.9008425579
 20
-133.1198339692
 30
-48.4516571553
 11
1525.9508425579
 21
-133.1198339692
 31
-48.4516571553
  0
SOLID
  5
374
100
AcDbEntity
  8
L1_120
  6
CONTINUOUS
 62
         4
100
AcDbTrace
 10
1315.9008425579
 20
-133.1198339692
 30
-48.4516571553
 11
1318.6008425579
 21
-132.7392584578
 31
-48.3131389972
 12
1318.6008425579
 22
-133.5004094806
 32
-48.5901753133
 13
1315.9008425579
 23
-133.1198339692
 33
-48.4516571553
  0
SOLID
  5
375
100
AcDbEntity
  8
L1_120
  6
CONTINUOUS
 62
         4
100
AcDbTrace
 10
1525.9508425579
 20
-133.1198339692
 30
-48.4516571553
 11
1523.2508425579
 21
-133.5004094806
 31
-48.5901753133
 12
1523.2508425579
 22
-132.7392584578
 32
-48.3131389972
 13
1525.9508425579
 23
-133.1198339692
 33
-48.4516571553
  0
TEXT
  5
377
100
AcDbEntity
  8
L1_120
  6
CONTINUOUS
 62
         4
100
AcDbText
 10
1410.809771259
 20
-139.6381683857
 30
0.0
 40
2.7
  1
210.05
  7
BOX
210
0.0
220
-0.3420201433256687
230
0.9396926207859084
100
AcDbText
  0
ENDBLK
  5
378
100
AcDbEntity
  8
0
  6
CONTINUOUS
100
AcDbBlockEnd
  0
BLOCK
  5
37A
100
AcDbEntity
  8
0
100
AcDbBlockBegin
  2
*D9
 70
        65
 10
0.0
 20
0.0
 30
0.0
  3
*D9
  1

  0
POINT
  5
37C
100
AcDbEntity
  8
DEFPOINTS
  6
CONTINUOUS
 62
         0
100
AcDbPoint
 10
1384.1508425579
 20
-150.2053928066
 30
-54.6702920079
  0
POINT
  5
37D
100
AcDbEntity
  8
DEFPOINTS
  6
CONTINUOUS
 62
         0
100
AcDbPoint
 10
1384.1508425579
 20
-177.1562294011
 30
-64.4795943168
  0
POINT
  5
37E
100
AcDbEntity
  8
DEFPOINTS
  6
CONTINUOUS
 62
         0
100
AcDbPoint
 10
1525.9508425579
 20
-189.1138180006
 30
-68.8318006406
  0
LINE
  5
37F
100
AcDbEntity
  8
L1_120
  6
CONTINUOUS
 62
         4
100
AcDbLine
 10
1384.1508425579
 20
-175.887644363
 30
-64.0178671233
 11
1384.1508425579
 21
-149.5711002876
 31
-54.4394284111
  0
LINE
  5
380
100
AcDbEntity
  8
L1_120
  6
CONTINUOUS
 62
         4
100
AcDbLine
 10
1525.9508425579
 20
-187.8452329625
 30
-68.3700734471
 11
1525.9508425579
 21
-149.5711002876
 31
-54.4394284111
  0
LINE
  5
381
100
AcDbEntity
  8
L1_120
  6
CONTINUOUS
 62
         4
100
AcDbLine
 10
1384.1508425579
 20
-150.2053928066
 30
-54.6702920079
 11
1525.9508425579
 21
-150.2053928066
 31
-54.6702920079
  0
SOLID
  5
382
100
AcDbEntity
  8
L1_120
  6
CONTINUOUS
 62
         4
100
AcDbTrace
 10
1384.1508425579
 20
-150.2053928066
 30
-54.6702920079
 11
1386.8508425579
 21
-149.8248172952
 31
-54.5317738498
 12
1386.8508425579
 22
-150.585968318
 32
-54.8088101659
 13
1384.1508425579
 23
-150.2053928066
 33
-54.6702920079
  0
SOLID
  5
383
100
AcDbEntity
  8
L1_120
  6
CONTINUOUS
 62
         4
100
AcDbTrace
 10
1525.9508425579
 20
-150.2053928066
 30
-54.6702920079
 11
1523.2508425579
 21
-150.585968318
 31
-54.8088101659
 12
1523.2508425579
 22
-149.8248172952
 32
-54.5317738498
 13
1525.9508425579
 23
-150.2053928066
 33
-54.6702920079
  0
TEXT
  5
385
100
AcDbEntity
  8
L1_120
  6
CONTINUOUS
 62
         4
100
AcDbText
 10
1453.8481317186
 20
-157.8202403308
 30
0.0
 40
2.7
  1
142
  7
BOX
210
0.0
220
-0.3420201433256687
230
0.9396926207859084
100
AcDbText
  0
ENDBLK
  5
386
100
AcDbEntity
  8
0
  6
CONTINUOUS
100
AcDbBlockEnd
  0
BLOCK
  5
388
100
AcDbEntity
  8
0
100
AcDbBlockBegin
  2
*D10
 70
        65
 10
0.0
 20
0.0
 30
0.0
  3
*D10
  1

  0
POINT
  5
38A
100
AcDbEntity
  8
DEFPOINTS
  6
CONTINUOUS
 62
         0
100
AcDbPoint
 10
1609.0439366311
 20
-291.7840973853
 30
-106.2007262805
  0
POINT
  5
38B
100
AcDbEntity
  8
DEFPOINTS
  6
CONTINUOUS
 62
         0
100
AcDbPoint
 10
1593.5641326977
 20
-291.7840973853
 30
-106.2007262805
  0
POINT
  5
38C
100
AcDbEntity
  8
DEFPOINTS
  6
CONTINUOUS
 62
         0
100
AcDbPoint
 10
1593.5641326977
 20
-302.2240824022
 30
-110.0005700728
  0
LINE
  5
38D
100
AcDbEntity
  8
L1_120
  6
CONTINUOUS
 62
         4
100
AcDbLine
 10
1594.9141326977
 20
-291.7840973853
 30
-106.2007262805
 11
1609.7189366311
 21
-291.7840973853
 31
-106.2007262805
  0
LINE
  5
38E
100
AcDbEntity
  8
L1_120
  6
CONTINUOUS
 62
         4
100
AcDbLine
 10
1594.9141326977
 20
-302.2240824022
 30
-110.0005700728
 11
1609.7189366311
 21
-302.2240824022
 31
-110.0005700728
  0
LINE
  5
38F
100
AcDbEntity
  8
L1_120
  6
CONTINUOUS
 62
         4
100
AcDbLine
 10
1609.0439366311
 20
-291.7840973853
 30
-106.2007262805
 11
1609.0439366311
 21
-302.2240824022
 31
-110.0005700728
  0
SOLID
  5
390
100
AcDbEntity
  8
L1_120
  6
CONTINUOUS
 62
         4
100
AcDbTrace
 10
1609.0439366311
 20
-291.7840973853
 30
-106.2007262805
 11
1609.4489366311
 21
-294.3212674614
 31
-107.1241806674
 12
1608.6389366311
 22
-294.3212674614
 32
-107.1241806674
 13
1609.0439366311
 23
-291.7840973853
 33
-106.2007262805
  0
LINE
  5
391
100
AcDbEntity
  8
L1_120
  6
CONTINUOUS
 62
         4
100
AcDbLine
 10
1609.0439366311
 20
-291.7840973853
 30
-106.2007262805
 11
1609.0439366311
 21
-303.4305324743
 31
-110.4396819882
  0
SOLID
  5
392
100
AcDbEntity
  8
L1_120
  6
CONTINUOUS
 62
         4
100
AcDbTrace
 10
1609.0439366311
 20
-302.2240824022
 30
-110.0005700728
 11
1608.6389366311
 21
-299.6869123261
 31
-109.0771156858
 12
1609.4489366311
 22
-299.6869123261
 32
-109.0771156858
 13
1609.0439366311
 23
-302.2240824022
 33
-110.0005700728
  0
TEXT
  5
394
100
AcDbEntity
  8
L1_120
  6
CONTINUOUS
 62
         4
100
AcDbText
 10
1607.0189366311
 20
-321.5540281497
 30
0.0
 40
2.7
  1
7/16"-20UNF†Š’»„Ú
 50
90.0
  7
STSL
210
0.0
220
-0.3420201433256687
230
0.9396926207859084
100
AcDbText
  0
ENDBLK
  5
395
100
AcDbEntity
  8
0
  6
CONTINUOUS
100
AcDbBlockEnd
  0
BLOCK
  5
397
100
AcDbEntity
  8
0
100
AcDbBlockBegin
  2
*D11
 70
        65
 10
0.0
 20
0.0
 30
0.0
  3
*D11
  1

  0
POINT
  5
399
100
AcDbEntity
  8
DEFPOINTS
  6
CONTINUOUS
 62
         0
100
AcDbPoint
 10
1584.0391326977
 20
-286.0346808214
 30
-104.1081097868
  0
POINT
  5
39A
100
AcDbEntity
  8
DEFPOINTS
  6
CONTINUOUS
 62
         0
100
AcDbPoint
 10
1584.0391326977
 20
-293.6399903113
 30
-106.8762160635
  0
POINT
  5
39B
100
AcDbEntity
  8
DEFPOINTS
  6
CONTINUOUS
 62
         0
100
AcDbPoint
 10
1597.0391326977
 20
-293.6399903113
 30
-106.8762160635
  0
LINE
  5
39C
100
AcDbEntity
  8
L1_120
  6
CONTINUOUS
 62
         4
100
AcDbLine
 10
1584.0391326977
 20
-292.3714052732
 30
-106.41448887
 11
1584.0391326977
 21
-285.4003883023
 31
-103.8772461901
  0
LINE
  5
39D
100
AcDbEntity
  8
L1_120
  6
CONTINUOUS
 62
         4
100
AcDbLine
 10
1597.0391326977
 20
-292.3714052732
 30
-106.41448887
 11
1597.0391326977
 21
-285.4003883023
 31
-103.8772461901
  0
LINE
  5
39E
100
AcDbEntity
  8
L1_120
  6
CONTINUOUS
 62
         4
100
AcDbLine
 10
1584.0391326977
 20
-286.0346808214
 30
-104.1081097868
 11
1597.0391326977
 21
-286.0346808214
 31
-104.1081097868
  0
SOLID
  5
39F
100
AcDbEntity
  8
L1_120
  6
CONTINUOUS
 62
         4
100
AcDbTrace
 10
1584.0391326977
 20
-286.0346808214
 30
-104.1081097868
 11
1586.7391326977
 21
-285.6541053099
 31
-103.9695916288
 12
1586.7391326977
 22
-286.4152563328
 32
-104.2466279449
 13
1584.0391326977
 23
-286.0346808214
 33
-104.1081097868
  0
SOLID
  5
3A0
100
AcDbEntity
  8
L1_120
  6
CONTINUOUS
 62
         4
100
AcDbTrace
 10
1597.0391326977
 20
-286.0346808214
 30
-104.1081097868
 11
1594.3391326977
 21
-286.4152563328
 31
-104.2466279449
 12
1594.3391326977
 22
-285.6541053099
 32
-103.9695916288
 13
1597.0391326977
 23
-286.0346808214
 33
-104.1081097868
  0
TEXT
  5
3A2
100
AcDbEntity
  8
L1_120
  6
CONTINUOUS
 62
         4
100
AcDbText
 10
1587.8633661842
 20
-302.3667494873
 30
0.0
 40
2.7
  1
13
  7
BOX
210
0.0
220
-0.3420201433256687
230
0.9396926207859084
100
AcDbText
  0
ENDBLK
  5
3A3
100
AcDbEntity
  8
0
  6
CONTINUOUS
100
AcDbBlockEnd
  0
BLOCK
  5
3C7
100
AcDbEntity
  8
0
100
AcDbBlockBegin
  2
*D12
 70
        65
 10
0.0
 20
0.0
 30
0.0
  3
*D12
  1

  0
POINT
  5
3C9
100
AcDbEntity
  8
DEFPOINTS
  6
CONTINUOUS
 62
         0
100
AcDbPoint
 10
1565.6431470208
 20
-290.2686871969
 30
-105.6491620792
  0
POINT
  5
3CA
100
AcDbEntity
  8
DEFPOINTS
  6
CONTINUOUS
 62
         0
100
AcDbPoint
 10
1565.6431470208
 20
-293.2870858734
 30
-106.7477693526
  0
POINT
  5
3CB
100
AcDbEntity
  8
DEFPOINTS
  6
CONTINUOUS
 62
         0
100
AcDbPoint
 10
1567.6431470208
 20
-293.2870858734
 30
-106.7477693526
  0
LINE
  5
3CC
100
AcDbEntity
  8
L1_120
  6
CONTINUOUS
 62
         4
100
AcDbLine
 10
1565.6431470208
 20
-292.0185008353
 30
-106.2860421591
 11
1565.6431470208
 21
-289.6343946779
 31
-105.4182984824
  0
LINE
  5
3CD
100
AcDbEntity
  8
L1_120
  6
CONTINUOUS
 62
         4
100
AcDbLine
 10
1567.6431470208
 20
-292.0185008353
 30
-106.2860421591
 11
1567.6431470208
 21
-289.6343946779
 31
-105.4182984824
  0
LINE
  5
3CE
100
AcDbEntity
  8
L1_120
  6
CONTINUOUS
 62
         4
100
AcDbLine
 10
1565.6431470208
 20
-290.2686871969
 30
-105.6491620792
 11
1560.2431470208
 21
-290.2686871969
 31
-105.6491620792
  0
SOLID
  5
3CF
100
AcDbEntity
  8
L1_120
  6
CONTINUOUS
 62
         4
100
AcDbTrace
 10
1565.6431470208
 20
-290.2686871969
 30
-105.6491620792
 11
1562.9431470208
 21
-290.6492627083
 31
-105.7876802372
 12
1562.9431470208
 22
-289.8881116855
 32
-105.5106439211
 13
1565.6431470208
 23
-290.2686871969
 33
-105.6491620792
  0
LINE
  5
3D0
100
AcDbEntity
  8
L1_120
  6
CONTINUOUS
 62
         4
100
AcDbLine
 10
1567.6431470208
 20
-290.2686871969
 30
-105.6491620792
 11
1573.0431470208
 21
-290.2686871969
 31
-105.6491620792
  0
SOLID
  5
3D1
100
AcDbEntity
  8
L1_120
  6
CONTINUOUS
 62
         4
100
AcDbTrace
 10
1567.6431470208
 20
-290.2686871969
 30
-105.6491620792
 11
1570.3431470208
 21
-289.8881116855
 31
-105.5106439211
 12
1570.3431470208
 22
-290.6492627083
 32
-105.7876802372
 13
1567.6431470208
 23
-290.2686871969
 33
-105.6491620792
  0
LINE
  5
3D2
100
AcDbEntity
  8
L1_120
  6
CONTINUOUS
 62
         4
100
AcDbLine
 10
1565.6431470208
 20
-290.2686871969
 30
-105.6491620792
 11
1567.6431470208
 21
-290.2686871969
 31
-105.6491620792
  0
TEXT
  5
3D4
100
AcDbEntity
  8
L1_120
  6
CONTINUOUS
 62
         4
100
AcDbText
 10
1565.2931470208
 20
-306.8724849607
 30
0.0
 40
2.7
  1
2
  7
BOX
210
0.0
220
-0.3420201433256687
230
0.9396926207859084
100
AcDbText
  0
ENDBLK
  5
3D5
100
AcDbEntity
  8
0
  6
CONTINUOUS
100
AcDbBlockEnd
  0
BLOCK
  5
3D7
100
AcDbEntity
  8
0
100
AcDbBlockBegin
  2
*D13
 70
        65
 10
0.0
 20
0.0
 30
0.0
  3
*D13
  1

  0
POINT
  5
3D9
100
AcDbEntity
  8
DEFPOINTS
  6
CONTINUOUS
 62
         0
100
AcDbPoint
 10
1581.103837595
 20
-295.5945509625
 30
-107.5876179616
  0
POINT
  5
3DA
100
AcDbEntity
  8
DEFPOINTS
  6
CONTINUOUS
 62
         0
100
AcDbPoint
 10
1584.0391326977
 20
-295.5945509625
 30
-107.5876179616
  0
POINT
  5
3DB
100
AcDbEntity
  8
DEFPOINTS
  6
CONTINUOUS
 62
         0
100
AcDbPoint
 10
1584.0391326977
 20
-298.4136288249
 30
-108.6136783916
  0
LINE
  5
3DC
100
AcDbEntity
  8
L1_120
  6
CONTINUOUS
 62
         4
100
AcDbLine
 10
1582.6891326977
 20
-295.5945509625
 30
-107.5876179616
 11
1580.428837595
 21
-295.5945509625
 31
-107.5876179616
  0
LINE
  5
3DD
100
AcDbEntity
  8
L1_120
  6
CONTINUOUS
 62
         4
100
AcDbLine
 10
1582.6891326977
 20
-298.4136288249
 30
-108.6136783916
 11
1580.428837595
 21
-298.4136288249
 31
-108.6136783916
  0
LINE
  5
3DE
100
AcDbEntity
  8
L1_120
  6
CONTINUOUS
 62
         4
100
AcDbLine
 10
1581.103837595
 20
-295.5945509625
 30
-107.5876179616
 11
1581.103837595
 21
-290.5202108103
 31
-105.7407091877
  0
SOLID
  5
3DF
100
AcDbEntity
  8
L1_120
  6
CONTINUOUS
 62
         4
100
AcDbTrace
 10
1581.103837595
 20
-295.5945509625
 30
-107.5876179616
 11
1580.698837595
 21
-293.0573808864
 31
-106.6641635747
 12
1581.508837595
 22
-293.0573808864
 32
-106.6641635747
 13
1581.103837595
 23
-295.5945509625
 33
-107.5876179616
  0
LINE
  5
3E0
100
AcDbEntity
  8
L1_120
  6
CONTINUOUS
 62
         4
100
AcDbLine
 10
1581.103837595
 20
-298.4136288249
 30
-108.6136783916
 11
1581.103837595
 21
-303.4879689771
 31
-110.4605871656
  0
SOLID
  5
3E1
100
AcDbEntity
  8
L1_120
  6
CONTINUOUS
 62
         4
100
AcDbTrace
 10
1581.103837595
 20
-298.4136288249
 30
-108.6136783916
 11
1581.508837595
 21
-300.950798901
 31
-109.5371327786
 12
1580.698837595
 22
-300.950798901
 32
-109.5371327786
 13
1581.103837595
 23
-298.4136288249
 33
-108.6136783916
  0
LINE
  5
3E2
100
AcDbEntity
  8
L1_120
  6
CONTINUOUS
 62
         4
100
AcDbLine
 10
1581.103837595
 20
-295.5945509625
 30
-107.5876179616
 11
1581.103837595
 21
-298.4136288249
 31
-108.6136783916
  0
TEXT
  5
3E4
100
AcDbEntity
  8
L1_120
  6
CONTINUOUS
 62
         4
100
AcDbText
 10
1579.078837595
 20
-320.1550670445
 30
0.0
 40
2.7
  1
ØÙ3
 50
90.0
  7
BOX
210
0.0
220
-0.3420201433256687
230
0.9396926207859084
100
AcDbText
  0
ENDBLK
  5
3E5
100
AcDbEntity
  8
0
  6
CONTINUOUS
100
AcDbBlockEnd
  0
ENDSEC
  0
SECTION
  2
ENTITIES
  0
LINE
  5
25
100
AcDbEntity
  8
L1_120
  6
CONTINUOUS
 62
         7
100
AcDbLine
 10
1387.6217806956
 20
-194.7779927968
 30
10.8676900542
 11
1389.3508425579
 21
-194.7779927968
 31
10.8676900542
  0
LINE
  5
26
100
AcDbEntity
  8
L1_120
  6
CONTINUOUS
 62
         4
100
AcDbLine
 10
1385.6708425579
 20
-254.4954588478
 30
-10.8676900542
 11
1385.6708425579
 21
-232.9530055163
 31
-3.0268782684
  0
LINE
  5
27
100
AcDbEntity
  8
L1_120
  6
CONTINUOUS
 62
         4
100
AcDbLine
 10
1385.6708425579
 20
-216.3204461283
 30
3.0268782684
 11
1385.6708425579
 21
-194.7779927968
 31
10.8676900542
  0
LINE
  5
28
100
AcDbEntity
  8
L1_120
  6
CONTINUOUS
 62
         7
100
AcDbLine
 10
1385.6708425579
 20
-194.7779927968
 30
10.8676900542
 11
1385.1708425579
 21
-195.2478391072
 31
10.6966799825
  0
LINE
  5
29
100
AcDbEntity
  8
L1_120
  6
CONTINUOUS
 62
         7
100
AcDbLine
 10
1385.1708425579
 20
-254.0256125374
 30
-10.6966799825
 11
1385.6708425579
 21
-254.4954588478
 31
-10.8676900542
  0
ARC
  5
2A
100
AcDbEntity
  8
L1_120
  6
CONTINUOUS
 62
         7
100
AcDbCircle
 10
1384.4088425579
 20
-234.1014736127
 30
76.830285162
 40
0.762
210
0.0
220
-0.3420201433256687
230
0.9396926207859084
100
AcDbArc
 50
0.0000000001
 51
89.9999999999
  0
LINE
  5
2B
100
AcDbEntity
  8
L1_120
  6
CONTINUOUS
 62
         7
100
AcDbLine
 10
1384.3222711293
 20
-245.5448866348
 30
-7.609948189
 11
1384.4088425579
 21
-245.5448866348
 31
-7.609948189
  0
LINE
  5
2C
100
AcDbEntity
  8
L1_120
  6
CONTINUOUS
 62
         7
100
AcDbLine
 10
1384.3222711293
 20
-245.5448866348
 30
-7.609948189
 11
1384.3222711293
 21
-203.7285650098
 31
7.609948189
  0
ARC
  5
2D
100
AcDbEntity
  8
L1_120
  6
CONTINUOUS
 62
         7
100
AcDbCircle
 10
1384.4088425579
 20
-188.0774736127
 30
76.830285162
 40
0.762
210
0.0
220
-0.3420201433256687
230
0.9396926207859084
100
AcDbArc
 50
270.0000000001
 51
359.9999999999
  0
LINE
  5
2E
100
AcDbEntity
  8
L1_120
  6
CONTINUOUS
 62
         7
100
AcDbLine
 10
1384.3222711293
 20
-203.7285650098
 30
7.609948189
 11
1384.4088425579
 21
-203.7285650098
 31
7.609948189
  0
LINE
  5
2F
100
AcDbEntity
  8
L1_120
  6
CONTINUOUS
 62
         7
100
AcDbLine
 10
1385.1708425579
 20
-195.7176854176
 30
10.5256699108
 11
1385.1708425579
 21
-254.0256125374
 31
-10.6966799825
  0
LINE
  5
30
100
AcDbEntity
  8
L1_120
  6
CENTER
 62
         1
100
AcDbLine
 10
1384.1508425579
 20
-203.7520573253
 30
7.6013976854
 11
1384.1508425579
 21
-245.5213943193
 31
-7.6013976854
  0
LINE
  5
31
100
AcDbEntity
  8
L1_120
  6
CONTINUOUS
 62
         7
100
AcDbLine
 10
1385.6708425579
 20
-254.4954588478
 30
-10.8676900542
 11
1386.7199044201
 21
-254.4954588478
 31
-10.8676900542
  0
LINE
  5
32
100
AcDbEntity
  8
L1_120
  6
CONTINUOUS
 62
         7
100
AcDbLine
 10
1385.1708425579
 20
-195.2478391072
 30
10.6966799825
 11
1385.1708425579
 21
-196.6573780384
 31
10.1836497675
  0
LINE
  5
33
100
AcDbEntity
  8
L1_120
  6
CONTINUOUS
 62
         7
100
AcDbLine
 10
1385.6708425579
 20
-194.7779927968
 30
10.8676900542
 11
1386.7199044201
 21
-194.7779927968
 31
10.8676900542
  0
LINE
  5
34
100
AcDbEntity
  8
L1_120
  6
CONTINUOUS
 62
         7
100
AcDbLine
 10
1386.7199044201
 20
-216.3204461283
 30
3.0268782684
 11
1386.7199044201
 21
-194.7779927968
 31
10.8676900542
  0
LINE
  5
35
100
AcDbEntity
  8
L1_120
  6
CONTINUOUS
 62
         7
100
AcDbLine
 10
1387.6217806956
 20
-216.3204461283
 30
3.0268782684
 11
1387.6217806956
 21
-194.7779927968
 31
10.8676900542
  0
LINE
  5
36
100
AcDbEntity
  8
L1_120
  6
CONTINUOUS
 62
         7
100
AcDbLine
 10
1387.6217806956
 20
-194.7779927968
 30
10.8676900542
 11
1387.5528099493
 21
-194.9835479833
 31
10.7928740848
  0
ARC
  5
37
100
AcDbEntity
  8
L1_120
  6
CONTINUOUS
 62
         7
100
AcDbCircle
 10
1387.1708425579
 20
-179.4144736127
 30
76.830285162
 40
0.4
210
0.0
220
-0.3420201433256687
230
0.9396926207859084
100
AcDbArc
 50
197.2695937807
 51
342.7304062193
  0
LINE
  5
38
100
AcDbEntity
  8
L1_120
  6
CONTINUOUS
 62
         7
100
AcDbLine
 10
1386.7199044201
 20
-194.7779927968
 30
10.8676900542
 11
1386.7888751664
 21
-194.9835479833
 31
10.7928740848
  0
LINE
  5
39
100
AcDbEntity
  8
L1_120
  6
CONTINUOUS
 62
         7
100
AcDbLine
 10
1387.6217806956
 20
-232.9530055163
 30
-3.0268782684
 11
1387.6217806956
 21
-254.4954588478
 31
-10.8676900542
  0
LINE
  5
3A
100
AcDbEntity
  8
L1_120
  6
CONTINUOUS
 62
         7
100
AcDbLine
 10
1386.7199044201
 20
-232.9530055163
 30
-3.0268782684
 11
1386.7199044201
 21
-254.4954588478
 31
-10.8676900542
  0
LINE
  5
3B
100
AcDbEntity
  8
L1_120
  6
CONTINUOUS
 62
         7
100
AcDbLine
 10
1387.6217806956
 20
-254.4954588478
 30
-10.8676900542
 11
1387.5528099493
 21
-254.2899036613
 31
-10.7928740848
  0
ARC
  5
3C
100
AcDbEntity
  8
L1_120
  6
CONTINUOUS
 62
         7
100
AcDbCircle
 10
1387.1708425579
 20
-242.7644736127
 30
76.830285162
 40
0.4
210
0.0
220
-0.3420201433256687
230
0.9396926207859084
100
AcDbArc
 50
17.2695937807
 51
162.7304062193
  0
LINE
  5
3D
100
AcDbEntity
  8
L1_120
  6
CONTINUOUS
 62
         7
100
AcDbLine
 10
1386.7199044201
 20
-254.4954588478
 30
-10.8676900542
 11
1386.7888751664
 21
-254.2899036613
 31
-10.7928740848
  0
LINE
  5
3E
100
AcDbEntity
  8
L1_120
  6
CONTINUOUS
 62
         7
100
AcDbLine
 10
1385.9708425579
 20
-217.072200225
 30
2.7532621538
 11
1385.9708425579
 21
-232.2012514196
 31
-2.7532621538
  0
LINE
  5
3F
100
AcDbEntity
  8
L1_120
  6
CONTINUOUS
 62
         7
100
AcDbLine
 10
1385.9708425579
 20
-232.2012514196
 30
-2.7532621538
 11
1385.1708425579
 21
-232.9530055163
 31
-3.0268782684
  0
LINE
  5
40
100
AcDbEntity
  8
L1_120
  6
CONTINUOUS
 62
         7
100
AcDbLine
 10
1385.1708425579
 20
-216.3204461283
 30
3.0268782684
 11
1385.9708425579
 21
-217.072200225
 31
2.7532621538
  0
CIRCLE
  5
41
100
AcDbEntity
  8
L1_120
  6
CONTINUOUS
 62
         7
100
AcDbCircle
 10
1395.2508425579
 20
-224.2933613161
 30
76.830285162
 40
1.875
210
0.0
220
-0.3420201433256687
230
0.9396926207859084
  0
CIRCLE
  5
42
100
AcDbEntity
  8
L1_120
  6
CONTINUOUS
 62
         7
100
AcDbCircle
 10
1395.2508425579
 20
-197.8855859094
 30
76.830285162
 40
1.875
210
0.0
220
-0.3420201433256687
230
0.9396926207859084
  0
CIRCLE
  5
43
100
AcDbEntity
  8
L1_120
  6
CONTINUOUS
 62
         7
100
AcDbCircle
 10
1395.2508425579
 20
-211.0894736127
 30
76.830285162
 40
5.0
210
0.0
220
-0.3420201433256687
230
0.9396926207859084
  0
LINE
  5
44
100
AcDbEntity
  8
L1_120
  6
CONTINUOUS
 62
         7
100
AcDbLine
 10
1403.2508425579
 20
-254.0256125374
 30
-10.6966799825
 11
1402.7508425579
 21
-254.4954588478
 31
-10.8676900542
  0
LINE
  5
45
100
AcDbEntity
  8
L1_120
  6
CONTINUOUS
 62
         7
100
AcDbLine
 10
1401.2508425579
 20
-254.4954588478
 30
-10.8676900542
 11
1402.7508425579
 21
-254.4954588478
 31
-10.8676900542
  0
LINE
  5
46
100
AcDbEntity
  8
L1_120
  6
CONTINUOUS
 62
         7
100
AcDbLine
 10
1403.2508425579
 20
-252.6160736062
 30
-10.1836497675
 11
1403.2508425579
 21
-254.0256125374
 31
-10.6966799825
  0
LINE
  5
47
100
AcDbEntity
  8
L1_120
  6
CONTINUOUS
 62
         7
100
AcDbLine
 10
1402.7508425579
 20
-194.7779927968
 30
10.8676900542
 11
1403.2508425579
 21
-195.2478391072
 31
10.6966799825
  0
LINE
  5
48
100
AcDbEntity
  8
L1_120
  6
CONTINUOUS
 62
         7
100
AcDbLine
 10
1403.2508425579
 20
-195.2478391072
 30
10.6966799825
 11
1403.2508425579
 21
-196.6573780384
 31
10.1836497675
  0
LINE
  5
49
100
AcDbEntity
  8
L1_120
  6
CONTINUOUS
 62
         7
100
AcDbLine
 10
1401.2508425579
 20
-194.7779927968
 30
10.8676900542
 11
1402.7508425579
 21
-194.7779927968
 31
10.8676900542
  0
LINE
  5
4A
100
AcDbEntity
  8
L1_120
  6
CONTINUOUS
 62
         7
100
AcDbLine
 10
1403.2508425579
 20
-246.0476221869
 30
-7.7929289657
 11
1403.2508425579
 21
-253.555766227
 31
-10.5256699108
  0
LINE
  5
4B
100
AcDbEntity
  8
L1_120
  6
CONTINUOUS
 62
         7
100
AcDbLine
 10
1403.2508425579
 20
-195.7176854176
 30
10.5256699108
 11
1403.2508425579
 21
-203.2258294577
 31
7.7929289657
  0
LINE
  5
4C
100
AcDbEntity
  8
L1_120
  6
CONTINUOUS
 62
         7
100
AcDbLine
 10
1398.7871129567
 20
-232.9530055163
 30
-3.0268782684
 11
1398.7871129567
 21
-254.4954588478
 31
-10.8676900542
  0
LINE
  5
4D
100
AcDbEntity
  8
L1_120
  6
CONTINUOUS
 62
         7
100
AcDbLine
 10
1397.1258425579
 20
-232.2012514196
 30
-2.7532621538
 11
1397.1258425579
 21
-251.7915828505
 31
-9.883559674
  0
LINE
  5
4E
100
AcDbEntity
  8
L1_120
  6
CONTINUOUS
 62
         7
100
AcDbLine
 10
1393.3758425579
 20
-232.2012514196
 30
-2.7532621538
 11
1393.3758425579
 21
-251.7915828505
 31
-9.883559674
  0
LINE
  5
4F
100
AcDbEntity
  8
L1_120
  6
CONTINUOUS
 62
         7
100
AcDbLine
 10
1391.7145721591
 20
-232.9530055163
 30
-3.0268782684
 11
1391.7145721591
 21
-254.4954588478
 31
-10.8676900542
  0
LINE
  5
50
100
AcDbEntity
  8
L1_120
  6
CONTINUOUS
 62
         7
100
AcDbLine
 10
1403.2508425579
 20
-216.3204461283
 30
3.0268782684
 11
1398.7871129567
 21
-216.3204461283
 31
3.0268782684
  0
LINE
  5
51
100
AcDbEntity
  8
L1_120
  6
CONTINUOUS
 62
         7
100
AcDbLine
 10
1397.1258425579
 20
-217.072200225
 30
2.7532621538
 11
1398.7871129567
 21
-216.3204461283
 31
3.0268782684
  0
LINE
  5
52
100
AcDbEntity
  8
L1_120
  6
CONTINUOUS
 62
         7
100
AcDbLine
 10
1403.2508425579
 20
-216.3204461283
 30
3.0268782684
 11
1402.4508425579
 21
-217.072200225
 31
2.7532621538
  0
LINE
  5
53
100
AcDbEntity
  8
L1_120
  6
CONTINUOUS
 62
         7
100
AcDbLine
 10
1397.1258425579
 20
-232.2012514196
 30
-2.7532621538
 11
1398.7871129567
 21
-232.9530055163
 31
-3.0268782684
  0
LINE
  5
54
100
AcDbEntity
  8
L1_120
  6
CONTINUOUS
 62
         7
100
AcDbLine
 10
1402.4508425579
 20
-232.2012514196
 30
-2.7532621538
 11
1403.2508425579
 21
-232.9530055163
 31
-3.0268782684
  0
LINE
  5
55
100
AcDbEntity
  8
L1_120
  6
CONTINUOUS
 62
         7
100
AcDbLine
 10
1403.2508425579
 20
-232.9530055163
 30
-3.0268782684
 11
1398.7871129567
 21
-232.9530055163
 31
-3.0268782684
  0
LINE
  5
56
100
AcDbEntity
  8
L1_120
  6
CONTINUOUS
 62
         7
100
AcDbLine
 10
1402.4508425579
 20
-217.072200225
 30
2.7532621538
 11
1402.4508425579
 21
-232.2012514196
 31
-2.7532621538
  0
LINE
  5
57
100
AcDbEntity
  8
L1_120
  6
CONTINUOUS
 62
         7
100
AcDbLine
 10
1391.7145721591
 20
-216.3204461283
 30
3.0268782684
 11
1385.1708425579
 21
-216.3204461283
 31
3.0268782684
  0
LINE
  5
58
100
AcDbEntity
  8
L1_120
  6
CONTINUOUS
 62
         7
100
AcDbLine
 10
1391.7145721591
 20
-232.9530055163
 30
-3.0268782684
 11
1385.1708425579
 21
-232.9530055163
 31
-3.0268782684
  0
LINE
  5
59
100
AcDbEntity
  8
L1_120
  6
CONTINUOUS
 62
         7
100
AcDbLine
 10
1391.7145721591
 20
-232.9530055163
 30
-3.0268782684
 11
1393.3758425579
 21
-232.2012514196
 31
-2.7532621538
  0
LINE
  5
5A
100
AcDbEntity
  8
L1_120
  6
CONTINUOUS
 62
         7
100
AcDbLine
 10
1391.7145721591
 20
-216.3204461283
 30
3.0268782684
 11
1393.3758425579
 21
-217.072200225
 31
2.7532621538
  0
LINE
  5
5B
100
AcDbEntity
  8
L1_120
  6
CONTINUOUS
 62
         7
100
AcDbLine
 10
1402.4508425579
 20
-232.2012514196
 30
-2.7532621538
 11
1385.9708425579
 21
-232.2012514196
 31
-2.7532621538
  0
LINE
  5
5C
100
AcDbEntity
  8
L1_120
  6
CONTINUOUS
 62
         7
100
AcDbLine
 10
1402.4508425579
 20
-217.072200225
 30
2.7532621538
 11
1385.9708425579
 21
-217.072200225
 31
2.7532621538
  0
LINE
  5
5D
100
AcDbEntity
  8
L1_120
  6
CONTINUOUS
 62
         7
100
AcDbLine
 10
1398.7871129567
 20
-194.7779927968
 30
10.8676900542
 11
1398.7871129567
 21
-216.3204461283
 31
3.0268782684
  0
LINE
  5
5E
100
AcDbEntity
  8
L1_120
  6
CONTINUOUS
 62
         7
100
AcDbLine
 10
1397.1258425579
 20
-197.4818687941
 30
9.883559674
 11
1397.1258425579
 21
-217.072200225
 31
2.7532621538
  0
LINE
  5
5F
100
AcDbEntity
  8
L1_120
  6
CONTINUOUS
 62
         7
100
AcDbLine
 10
1393.3758425579
 20
-197.4818687941
 30
9.883559674
 11
1393.3758425579
 21
-217.072200225
 31
2.7532621538
  0
LINE
  5
60
100
AcDbEntity
  8
L1_120
  6
CONTINUOUS
 62
         7
100
AcDbLine
 10
1391.7145721591
 20
-194.7779927968
 30
10.8676900542
 11
1391.7145721591
 21
-216.3204461283
 31
3.0268782684
  0
LINE
  5
61
100
AcDbEntity
  8
L1_120
  6
CONTINUOUS
 62
         7
100
AcDbLine
 10
1393.3758425579
 20
-197.4818687941
 30
9.883559674
 11
1391.7145721591
 21
-194.7779927968
 31
10.8676900542
  0
LINE
  5
62
100
AcDbEntity
  8
L1_120
  6
CENTER
 62
         1
100
AcDbLine
 10
1390.9398372993
 20
-193.9557617536
 30
11.1669576796
 11
1399.3486718677
 21
-193.9557617536
 31
11.1669576796
  0
LINE
  5
63
100
AcDbEntity
  8
L1_120
  6
CENTER
 62
         1
100
AcDbLine
 10
1390.9398372993
 20
-255.317689891
 30
-11.1669576796
 11
1399.3486718677
 21
-255.317689891
 31
-11.1669576796
  0
LINE
  5
64
100
AcDbEntity
  8
L1_120
  6
CONTINUOUS
 62
         7
100
AcDbLine
 10
1393.3758425579
 20
-251.7915828505
 30
-9.883559674
 11
1391.7145721591
 21
-254.4954588478
 31
-10.8676900542
  0
LINE
  5
65
100
AcDbEntity
  8
L1_120
  6
CONTINUOUS
 62
         7
100
AcDbLine
 10
1387.6217806956
 20
-254.4954588478
 30
-10.8676900542
 11
1391.7145721591
 21
-254.4954588478
 31
-10.8676900542
  0
LINE
  5
66
100
AcDbEntity
  8
L1_120
  6
CONTINUOUS
 62
         7
100
AcDbLine
 10
1388.3508425579
 20
-194.7779927968
 30
10.8676900542
 11
1391.7145721591
 21
-194.7779927968
 31
10.8676900542
  0
LINE
  5
67
100
AcDbEntity
  8
L1_120
  6
CONTINUOUS
 62
         7
100
AcDbLine
 10
1403.2508425579
 20
-195.7176854176
 30
10.5256699108
 11
1403.2508425579
 21
-253.555766227
 31
-10.5256699108
  0
LINE
  5
68
100
AcDbEntity
  8
L1_120
  6
CONTINUOUS
 62
         7
100
AcDbLine
 10
1403.2508425579
 20
-195.7176854176
 30
10.5256699108
 11
1403.2508425579
 21
-206.7825660274
 31
6.4983827232
  0
LINE
  5
69
100
AcDbEntity
  8
L1_120
  6
CONTINUOUS
 62
         7
100
AcDbLine
 10
1394.3496428896
 20
-251.0655807819
 30
-9.619316531
 11
1396.1520422261
 21
-251.0655807819
 31
-9.619316531
  0
ARC
  5
6A
100
AcDbEntity
  8
L1_120
  6
CONTINUOUS
 62
         7
100
AcDbCircle
 10
1394.3496428896
 20
-240.2144736127
 30
76.830285162
 40
1.0
210
0.0
220
-0.3420201433256687
230
0.9396926207859084
100
AcDbArc
 50
90.0
 51
166.8556743105
  0
LINE
  5
6B
100
AcDbEntity
  8
L1_120
  6
CONTINUOUS
 62
         7
100
AcDbLine
 10
1397.1258425579
 20
-251.7915828505
 30
-9.883559674
 11
1398.7871129567
 21
-254.4954588478
 31
-10.8676900542
  0
ARC
  5
6C
100
AcDbEntity
  8
L1_120
  6
CONTINUOUS
 62
         7
100
AcDbCircle
 10
1396.1520422261
 20
-240.2144736127
 30
76.830285162
 40
1.0
210
0.0
220
-0.3420201433256687
230
0.9396926207859084
100
AcDbArc
 50
13.1443256895
 51
90.0
  0
LINE
  5
6D
100
AcDbEntity
  8
L1_120
  6
CONTINUOUS
 62
         7
100
AcDbLine
 10
1398.7871129567
 20
-254.4954588478
 30
-10.8676900542
 11
1402.2508425579
 21
-254.4954588478
 31
-10.8676900542
  0
LINE
  5
6E
100
AcDbEntity
  8
L1_120
  6
CONTINUOUS
 62
         7
100
AcDbLine
 10
1397.1258425579
 20
-197.4818687941
 30
9.883559674
 11
1398.7871129567
 21
-194.7779927968
 31
10.8676900542
  0
LINE
  5
6F
100
AcDbEntity
  8
L1_120
  6
CONTINUOUS
 62
         7
100
AcDbLine
 10
1398.7871129567
 20
-194.7779927968
 30
10.8676900542
 11
1402.2508425579
 21
-194.7779927968
 31
10.8676900542
  0
LINE
  5
70
100
AcDbEntity
  8
L1_120
  6
CONTINUOUS
 62
         7
100
AcDbLine
 10
1394.3496428896
 20
-198.2078708627
 30
9.619316531
 11
1396.1520422261
 21
-198.2078708627
 31
9.619316531
  0
ARC
  5
71
100
AcDbEntity
  8
L1_120
  6
CONTINUOUS
 62
         7
100
AcDbCircle
 10
1394.3496428896
 20
-181.9644736127
 30
76.830285162
 40
1.0
210
0.0
220
-0.3420201433256687
230
0.9396926207859084
100
AcDbArc
 50
193.1443256895
 51
270.0
  0
ARC
  5
72
100
AcDbEntity
  8
L1_120
  6
CONTINUOUS
 62
         7
100
AcDbCircle
 10
1396.1520422261
 20
-181.9644736127
 30
76.830285162
 40
1.0
210
0.0
220
-0.3420201433256687
230
0.9396926207859084
100
AcDbArc
 50
270.0
 51
346.8556743105
  0
LINE
  5
73
100
AcDbEntity
  8
L1_120
  6
CENTER
 62
         1
100
AcDbLine
 10
1395.2508425579
 20
-189.3933066579
 30
12.8275555296
 11
1395.2508425579
 21
-259.8729027289
 31
-12.8249195633
  0
LINE
  5
74
100
AcDbEntity
  8
L1_120
  6
CENTER
 62
         1
100
AcDbLine
 10
1380.7983511394
 20
-224.6367258223
 30
0.0
 11
1403.2508425579
 21
-224.6367258223
 31
0.0
  0
LINE
  5
75
100
AcDbEntity
  8
L1_120
  6
CONTINUOUS
 62
         4
100
AcDbLine
 10
1402.7508425579
 20
-216.3204461283
 30
3.0268782684
 11
1402.7508425579
 21
-194.7779927968
 31
10.8676900542
  0
LINE
  5
76
100
AcDbEntity
  8
L1_120
  6
CONTINUOUS
 62
         4
100
AcDbLine
 10
1402.7508425579
 20
-254.4954588478
 30
-10.8676900542
 11
1402.7508425579
 21
-232.9530055163
 31
-3.0268782684
  0
LINE
  5
77
100
AcDbEntity
  8
L1_120
  6
CENTER
 62
         1
100
AcDbLine
 10
1315.9008425579
 20
-224.6367258223
 30
0.0
 11
1536.5508425579
 21
-224.6367258223
 31
0.0
  0
LINE
  5
78
100
AcDbEntity
  8
L1_120
  6
CONTINUOUS
 62
         7
100
AcDbLine
 10
1316.7776742862
 20
-349.8205720976
 30
-4.2409630046
 11
1385.3508425583
 21
-359.2177367114
 31
-7.6612512105
  0
ARC
  5
79
100
AcDbEntity
  8
L1_120
  6
CONTINUOUS
 62
         7
100
AcDbCircle
 10
1317.1008425579
 20
-306.5403769637
 30
115.6604805667
 40
1.2
210
0.0
220
-0.3420201433256687
230
0.9396926207859084
100
AcDbArc
 50
98.2971449698
 51
180.0
  0
ARC
  5
7A
100
AcDbEntity
  8
L1_120
  6
CONTINUOUS
 62
         7
100
AcDbCircle
 10
1317.1008425579
 20
-329.0087403966
 30
115.6604805667
 40
1.2
210
0.0
220
-0.3420201433256687
230
0.9396926207859084
100
AcDbArc
 50
180.0
 51
261.7028550302
  0
LINE
  5
7B
100
AcDbEntity
  8
L1_120
  6
CONTINUOUS
 62
         7
100
AcDbLine
 10
1315.9008425579
 20
-213.7195557837
 30
3.8423164408
 11
1315.9008425579
 21
-234.8329111027
 31
-3.8423164408
  0
ARC
  5
7C
100
AcDbEntity
  8
L1_120
  6
CONTINUOUS
 62
         7
100
AcDbCircle
 10
1317.1008425579
 20
-199.5165398678
 30
76.7069895068
 40
1.2
210
0.0
220
-0.3420201433256687
230
0.9396926207859084
100
AcDbArc
 50
98.2971449698
 51
180.0
  0
ARC
  5
7D
100
AcDbEntity
  8
L1_120
  6
CONTINUOUS
 62
         7
100
AcDbCircle
 10
1317.1008425579
 20
-221.9849033007
 30
76.7069895068
 40
1.2
210
0.0
220
-0.3420201433256687
230
0.9396926207859084
100
AcDbArc
 50
180.0
 51
261.7028550302
  0
LINE
  5
7E
100
AcDbEntity
  8
L1_120
  6
CONTINUOUS
 62
         7
100
AcDbLine
 10
1315.9008425579
 20
-213.7195557837
 30
3.8423164408
 11
1315.9008425579
 21
-234.8329111027
 31
-3.8423164408
  0
LINE
  5
7F
100
AcDbEntity
  8
L1_120
  6
CONTINUOUS
 62
         7
100
AcDbLine
 10
1316.9276742862
 20
-235.9487393111
 30
-4.2484446952
 11
1384.3222711293
 21
-245.1843942557
 31
-7.609948189
  0
LINE
  5
80
100
AcDbEntity
  8
L1_120
  6
CONTINUOUS
 62
         7
100
AcDbLine
 10
1316.9276742862
 20
-212.6037275753
 30
4.2484446952
 11
1384.3222711293
 21
-203.3680726307
 31
7.609948189
  0
LINE
  5
81
100
AcDbEntity
  8
L1_120
  6
CONTINUOUS
 62
         5
100
AcDbLine
 10
1324.9008425579
 20
-330.6510810395
 30
2.7361611466
 11
1346.9008425579
 21
-330.6510810395
 31
2.7361611466
  0
LINE
  5
82
100
AcDbEntity
  8
L1_120
  6
CONTINUOUS
 62
         5
100
AcDbLine
 10
1324.9008425579
 20
-345.6861629721
 30
-2.7361611466
 11
1346.9008425579
 21
-345.6861629721
 31
-2.7361611466
  0
ARC
  5
83
100
AcDbEntity
  8
L1_120
  6
CONTINUOUS
 62
         7
100
AcDbCircle
 10
1317.4008425579
 20
-327.7745586802
 30
115.6604805667
 40
1.5
210
0.0
220
-0.3420201433256687
230
0.9396926207859084
100
AcDbArc
 50
90.0
 51
180.0
  0
ARC
  5
84
100
AcDbEntity
  8
L1_120
  6
CONTINUOUS
 62
         7
100
AcDbCircle
 10
1323.7262442179
 20
-325.8745586802
 30
115.6604805667
 40
0.6
210
0.0
220
-0.3420201433256687
230
0.9396926207859084
100
AcDbArc
 50
255.0
 51
270.0
  0
LINE
  5
85
100
AcDbEntity
  8
L1_120
  6
CONTINUOUS
 62
         7
100
AcDbLine
 10
1322.9008425579
 20
-346.1560092824
 30
-2.9071712183
 11
1323.5709527909
 21
-346.3247362568
 31
-2.9685828147
  0
LINE
  5
86
100
AcDbEntity
  8
L1_120
  6
CONTINUOUS
 62
         7
100
AcDbLine
 10
1317.4008425579
 20
-346.1560092824
 30
-2.9071712183
 11
1322.9008425579
 21
-346.1560092824
 31
-2.9071712183
  0
LINE
  5
87
100
AcDbEntity
  8
L1_120
  6
CONTINUOUS
 62
         7
100
AcDbLine
 10
1323.7262442179
 20
-346.3439478066
 30
-2.9755752469
 11
1324.3008425579
 21
-346.3439478066
 31
-2.9755752469
  0
ARC
  5
88
100
AcDbEntity
  8
L1_120
  6
CONTINUOUS
 62
         7
100
AcDbCircle
 10
1324.3008425579
 20
-325.8745586802
 30
115.6604805667
 40
0.6
210
0.0
220
-0.3420201433256687
230
0.9396926207859084
100
AcDbArc
 50
270.0
 51
360.0
  0
LINE
  5
89
100
AcDbEntity
  8
L1_120
  6
CONTINUOUS
 62
         7
100
AcDbLine
 10
1322.9008425579
 20
-330.1812347291
 30
2.9071712183
 11
1322.9008425579
 21
-346.1560092824
 31
-2.9071712183
  0
LINE
  5
8A
100
AcDbEntity
  8
L1_120
  6
CONTINUOUS
 62
         7
100
AcDbLine
 10
1317.6328933654
 20
-330.1812347291
 30
2.9071712183
 11
1317.6328933654
 21
-346.1560092824
 31
-2.9071712183
  0
ARC
  5
8B
100
AcDbEntity
  8
L1_120
  6
CONTINUOUS
 62
         7
100
AcDbCircle
 10
1317.4008425579
 20
-307.7745586802
 30
115.6604805667
 40
1.5
210
0.0
220
-0.3420201433256687
230
0.9396926207859084
100
AcDbArc
 50
180.0
 51
270.0
  0
LINE
  5
8C
100
AcDbEntity
  8
L1_120
  6
CONTINUOUS
 62
         7
100
AcDbLine
 10
1317.4008425579
 20
-330.1812347291
 30
2.9071712183
 11
1322.9008425579
 21
-330.1812347291
 31
2.9071712183
  0
LINE
  5
8D
100
AcDbEntity
  8
L1_120
  6
CONTINUOUS
 62
         7
100
AcDbLine
 10
1322.9008425579
 20
-330.1812347291
 30
2.9071712183
 11
1323.5709527909
 21
-330.0125077547
 31
2.9685828147
  0
ARC
  5
8E
100
AcDbEntity
  8
L1_120
  6
CONTINUOUS
 62
         7
100
AcDbCircle
 10
1323.7262442179
 20
-309.6745586802
 30
115.6604805667
 40
0.6
210
0.0
220
-0.3420201433256687
230
0.9396926207859084
100
AcDbArc
 50
90.0
 51
105.0
  0
LINE
  5
8F
100
AcDbEntity
  8
L1_120
  6
CONTINUOUS
 62
         7
100
AcDbLine
 10
1323.7262442179
 20
-329.9932962049
 30
2.9755752469
 11
1324.3008425579
 21
-329.9932962049
 31
2.9755752469
  0
ARC
  5
90
100
AcDbEntity
  8
L1_120
  6
CONTINUOUS
 62
         7
100
AcDbCircle
 10
1324.3008425579
 20
-309.6745586802
 30
115.6604805667
 40
0.6
210
0.0
220
-0.3420201433256687
230
0.9396926207859084
100
AcDbArc
 50
0.0
 51
90.0
  0
LINE
  5
91
100
AcDbEntity
  8
L1_120
  6
CONTINUOUS
 62
         7
100
AcDbLine
 10
1324.9008425579
 20
-330.5571117774
 30
2.7703631609
 11
1324.9008425579
 21
-345.7801322341
 31
-2.7703631609
  0
LINE
  5
92
100
AcDbEntity
  8
L1_120
  6
CONTINUOUS
 62
         7
100
AcDbLine
 10
1324.9008425579
 20
-344.7934549823
 30
-2.4112420104
 11
1434.8394432897
 21
-344.7934549823
 31
-2.4112420104
  0
LINE
  5
93
100
AcDbEntity
  8
L1_120
  6
CONTINUOUS
 62
         7
100
AcDbLine
 10
1346.9008425579
 20
-330.6510810395
 30
2.7361611466
 11
1346.9008425579
 21
-345.6861629721
 31
-2.7361611466
  0
LINE
  5
94
100
AcDbEntity
  8
L1_120
  6
CONTINUOUS
 62
         5
100
AcDbLine
 10
1346.9008425579
 20
-330.6510810395
 30
2.7361611466
 11
1349.9008425579
 21
-331.5437890292
 31
2.4112420104
  0
LINE
  5
95
100
AcDbEntity
  8
L1_120
  6
CONTINUOUS
 62
         5
100
AcDbLine
 10
1346.9008425579
 20
-345.6861629721
 30
-2.7361611466
 11
1349.9008425579
 21
-344.7934549823
 31
-2.4112420104
  0
LINE
  5
96
100
AcDbEntity
  8
L1_120
  6
CONTINUOUS
 62
         5
100
AcDbLine
 10
1324.9008425579
 20
-330.6510810395
 30
2.7361611466
 11
1346.9008425579
 21
-330.6510810395
 31
2.7361611466
  0
LINE
  5
97
100
AcDbEntity
  8
L1_120
  6
CONTINUOUS
 62
         5
100
AcDbLine
 10
1324.9008425579
 20
-345.6861629721
 30
-2.7361611466
 11
1346.9008425579
 21
-345.6861629721
 31
-2.7361611466
  0
ARC
  5
98
100
AcDbEntity
  8
L1_120
  6
CONTINUOUS
 62
         7
100
AcDbCircle
 10
1317.4008425579
 20
-327.7745586802
 30
115.6604805667
 40
1.5
210
0.0
220
-0.3420201433256687
230
0.9396926207859084
100
AcDbArc
 50
90.0
 51
180.0
  0
ARC
  5
99
100
AcDbEntity
  8
L1_120
  6
CONTINUOUS
 62
         7
100
AcDbCircle
 10
1323.7262442179
 20
-325.8745586802
 30
115.6604805667
 40
0.6
210
0.0
220
-0.3420201433256687
230
0.9396926207859084
100
AcDbArc
 50
255.0
 51
270.0
  0
LINE
  5
9A
100
AcDbEntity
  8
L1_120
  6
CONTINUOUS
 62
         7
100
AcDbLine
 10
1322.9008425579
 20
-346.1560092824
 30
-2.9071712183
 11
1323.5709527909
 21
-346.3247362568
 31
-2.9685828147
  0
LINE
  5
9B
100
AcDbEntity
  8
L1_120
  6
CONTINUOUS
 62
         7
100
AcDbLine
 10
1317.4008425579
 20
-346.1560092824
 30
-2.9071712183
 11
1322.9008425579
 21
-346.1560092824
 31
-2.9071712183
  0
LINE
  5
9C
100
AcDbEntity
  8
L1_120
  6
CONTINUOUS
 62
         7
100
AcDbLine
 10
1323.7262442179
 20
-346.3439478066
 30
-2.9755752469
 11
1324.3008425579
 21
-346.3439478066
 31
-2.9755752469
  0
ARC
  5
9D
100
AcDbEntity
  8
L1_120
  6
CONTINUOUS
 62
         7
100
AcDbCircle
 10
1324.3008425579
 20
-325.8745586802
 30
115.6604805667
 40
0.6
210
0.0
220
-0.3420201433256687
230
0.9396926207859084
100
AcDbArc
 50
270.0
 51
360.0
  0
LINE
  5
9E
100
AcDbEntity
  8
L1_120
  6
CONTINUOUS
 62
         7
100
AcDbLine
 10
1322.9008425579
 20
-330.1812347291
 30
2.9071712183
 11
1322.9008425579
 21
-346.1560092824
 31
-2.9071712183
  0
LINE
  5
9F
100
AcDbEntity
  8
L1_120
  6
CONTINUOUS
 62
         7
100
AcDbLine
 10
1317.6328933654
 20
-330.1812347291
 30
2.9071712183
 11
1317.6328933654
 21
-346.1560092824
 31
-2.9071712183
  0
ARC
  5
A0
100
AcDbEntity
  8
L1_120
  6
CONTINUOUS
 62
         7
100
AcDbCircle
 10
1317.4008425579
 20
-307.7745586802
 30
115.6604805667
 40
1.5
210
0.0
220
-0.3420201433256687
230
0.9396926207859084
100
AcDbArc
 50
180.0
 51
270.0
  0
LINE
  5
A1
100
AcDbEntity
  8
L1_120
  6
CONTINUOUS
 62
         7
100
AcDbLine
 10
1317.4008425579
 20
-330.1812347291
 30
2.9071712183
 11
1322.9008425579
 21
-330.1812347291
 31
2.9071712183
  0
LINE
  5
A2
100
AcDbEntity
  8
L1_120
  6
CONTINUOUS
 62
         7
100
AcDbLine
 10
1322.9008425579
 20
-330.1812347291
 30
2.9071712183
 11
1323.5709527909
 21
-330.0125077547
 31
2.9685828147
  0
ARC
  5
A3
100
AcDbEntity
  8
L1_120
  6
CONTINUOUS
 62
         7
100
AcDbCircle
 10
1323.7262442179
 20
-309.6745586802
 30
115.6604805667
 40
0.6
210
0.0
220
-0.3420201433256687
230
0.9396926207859084
100
AcDbArc
 50
90.0
 51
105.0
  0
LINE
  5
A4
100
AcDbEntity
  8
L1_120
  6
CONTINUOUS
 62
         7
100
AcDbLine
 10
1323.7262442179
 20
-329.9932962049
 30
2.9755752469
 11
1324.3008425579
 21
-329.9932962049
 31
2.9755752469
  0
ARC
  5
A5
100
AcDbEntity
  8
L1_120
  6
CONTINUOUS
 62
         7
100
AcDbCircle
 10
1324.3008425579
 20
-309.6745586802
 30
115.6604805667
 40
0.6
210
0.0
220
-0.3420201433256687
230
0.9396926207859084
100
AcDbArc
 50
0.0
 51
90.0
  0
LINE
  5
A6
100
AcDbEntity
  8
L1_120
  6
CONTINUOUS
 62
         7
100
AcDbLine
 10
1324.9008425579
 20
-330.5571117774
 30
2.7703631609
 11
1324.9008425579
 21
-345.7801322341
 31
-2.7703631609
  0
LINE
  5
A7
100
AcDbEntity
  8
L1_120
  6
CONTINUOUS
 62
         7
100
AcDbLine
 10
1324.9008425579
 20
-331.5437890292
 30
2.4112420104
 11
1434.8394432897
 21
-331.5437890292
 31
2.4112420104
  0
LINE
  5
A8
100
AcDbEntity
  8
L1_120
  6
CONTINUOUS
 62
         7
100
AcDbLine
 10
1346.9008425579
 20
-330.6510810395
 30
2.7361611466
 11
1346.9008425579
 21
-345.6861629721
 31
-2.7361611466
  0
LINE
  5
A9
100
AcDbEntity
  8
L1_120
  6
CONTINUOUS
 62
         5
100
AcDbLine
 10
1346.9008425579
 20
-330.6510810395
 30
2.7361611466
 11
1349.9008425579
 21
-331.5437890292
 31
2.4112420104
  0
LINE
  5
AA
100
AcDbEntity
  8
L1_120
  6
CONTINUOUS
 62
         5
100
AcDbLine
 10
1346.9008425579
 20
-345.6861629721
 30
-2.7361611466
 11
1349.9008425579
 21
-344.7934549823
 31
-2.4112420104
  0
LINE
  5
AB
100
AcDbEntity
  8
L1_120
  6
CONTINUOUS
 62
         7
100
AcDbLine
 10
1315.9008425579
 20
-213.7195557837
 30
3.8423164408
 11
1315.9008425579
 21
-235.3860382514
 31
-4.0436382587
  0
LINE
  5
AC
100
AcDbEntity
  8
L1_120
  6
CONTINUOUS
 62
         7
100
AcDbLine
 10
1315.9008425579
 20
-327.1051127527
 30
1.9507951826
 11
1315.9008425579
 21
-349.2321312589
 31
-1.9507951826
  0
LINE
  5
AD
100
AcDbEntity
  8
L1_120
  6
CONTINUOUS
 62
         7
100
AcDbLine
 10
1315.9008425579
 20
-213.0420517268
 30
0.0
 11
1315.9008425579
 21
-236.2313999178
 31
0.0
  0
LINE
  5
AE
100
AcDbEntity
  8
L1_120
  6
CONTINUOUS
 62
         7
100
AcDbLine
 10
1315.9008425579
 20
-213.0420517268
 30
0.0
 11
1315.9008425579
 21
-235.5104151597
 31
0.0
  0
TEXT
  5
B0
100
AcDbEntity
  8
L1_120
  6
CONTINUOUS
 62
         2
100
AcDbText
 10
1592.1080648389
 20
-163.5944569002
 30
0.0
 40
4.5
  1
521410
 41
0.98
  7
BOX
100
AcDbText
  0
LINE
  5
B1
100
AcDbEntity
  8
L1_120
  6
CENTER
 62
         1
100
AcDbLine
 10
1231.0721451996
 20
-191.6969502521
 30
0.0
 11
1231.0721451996
 21
-263.4386336571
 31
0.0
  0
LINE
  5
B2
100
AcDbEntity
  8
L1_120
  6
CENTER
 62
         1
100
AcDbLine
 10
1193.0188256845
 20
-225.2185500851
 30
0.0
 11
1262.5721451996
 21
-225.2185500851
 31
0.0
  0
LINE
  5
B3
100
AcDbEntity
  8
L1_120
  6
CONTINUOUS
 62
         7
100
AcDbLine
 10
1316.9276742862
 20
-349.8411278737
 30
-4.2484446952
 11
1385.3508425579
 21
-359.2177367114
 31
-7.6612512105
  0
LINE
  5
B4
100
AcDbEntity
  8
L1_120
  6
CONTINUOUS
 62
         7
100
AcDbLine
 10
1208.2721451996
 20
-232.313229372
 30
-2.5822520821
 11
1208.2721451996
 21
-218.1238707982
 31
2.5822520821
  0
LINE
  5
B5
100
AcDbEntity
  8
L1_120
  6
CONTINUOUS
 62
         7
100
AcDbLine
 10
1208.2721451996
 20
-232.313229372
 30
-2.5822520821
 11
1207.7721451996
 21
-232.7830756824
 31
-2.7532621538
  0
LINE
  5
B6
100
AcDbEntity
  8
L1_120
  6
CONTINUOUS
 62
         7
100
AcDbLine
 10
1207.7721451996
 20
-232.7830756824
 30
-2.7532621538
 11
1200.833763248
 21
-232.7830756824
 31
-2.7532621538
  0
LINE
  5
B7
100
AcDbEntity
  8
L1_120
  6
CONTINUOUS
 62
         7
100
AcDbLine
 10
1200.4396779669
 20
-233.1533947131
 30
-2.8880472581
 11
1200.833763248
 21
-232.7830756824
 31
-2.7532621538
  0
LINE
  5
B8
100
AcDbEntity
  8
L1_120
  6
CONTINUOUS
 62
         7
100
AcDbLine
 10
1207.7721451996
 20
-217.6540244878
 30
2.7532621538
 11
1200.833763248
 21
-217.6540244878
 31
2.7532621538
  0
LINE
  5
B9
100
AcDbEntity
  8
L1_120
  6
CONTINUOUS
 62
         7
100
AcDbLine
 10
1208.2721451996
 20
-218.1238707982
 30
2.5822520821
 11
1207.7721451996
 21
-217.6540244878
 31
2.7532621538
  0
LINE
  5
BA
100
AcDbEntity
  8
L1_120
  6
CONTINUOUS
 62
         7
100
AcDbLine
 10
1200.4396779669
 20
-217.2837054571
 30
2.8880472581
 11
1200.833763248
 21
-217.6540244878
 31
2.7532621538
  0
LINE
  5
BB
100
AcDbEntity
  8
L1_120
  6
CONTINUOUS
 62
         7
100
AcDbLine
 10
1261.3105271512
 20
-232.7830756824
 30
-2.7532621538
 11
1256.5721451996
 21
-232.7830756824
 31
-2.7532621538
  0
LINE
  5
BC
100
AcDbEntity
  8
L1_120
  6
CONTINUOUS
 62
         7
100
AcDbLine
 10
1256.0721451996
 20
-232.313229372
 30
-2.5822520821
 11
1256.0721451996
 21
-218.1238707982
 31
2.5822520821
  0
LINE
  5
BD
100
AcDbEntity
  8
L1_120
  6
CONTINUOUS
 62
         7
100
AcDbLine
 10
1256.0721451996
 20
-232.313229372
 30
-2.5822520821
 11
1256.5721451996
 21
-232.7830756824
 31
-2.7532621538
  0
LINE
  5
BE
100
AcDbEntity
  8
L1_120
  6
CONTINUOUS
 62
         7
100
AcDbLine
 10
1261.7046124323
 20
-233.1533947131
 30
-2.8880472581
 11
1261.3105271512
 21
-232.7830756824
 31
-2.7532621538
  0
LINE
  5
BF
100
AcDbEntity
  8
L1_120
  6
CONTINUOUS
 62
         7
100
AcDbLine
 10
1256.0721451996
 20
-218.1238707982
 30
2.5822520821
 11
1256.5721451996
 21
-217.6540244878
 31
2.7532621538
  0
LINE
  5
C0
100
AcDbEntity
  8
L1_120
  6
CONTINUOUS
 62
         7
100
AcDbLine
 10
1261.7046124323
 20
-217.2837054571
 30
2.8880472581
 11
1261.3105271512
 21
-217.6540244878
 31
2.7532621538
  0
LINE
  5
C1
100
AcDbEntity
  8
L1_120
  6
CONTINUOUS
 62
         7
100
AcDbLine
 10
1261.3105271512
 20
-217.6540244878
 30
2.7532621538
 11
1256.5721451996
 21
-217.6540244878
 31
2.7532621538
  0
CIRCLE
  5
C2
100
AcDbEntity
  8
L1_120
  6
CONTINUOUS
 62
         7
100
AcDbCircle
 10
1231.0721451996
 20
-211.6362095791
 30
77.0292807797
 40
22.225
210
0.0
220
-0.3420201433256687
230
0.9396926207859084
  0
CIRCLE
  5
C3
100
AcDbEntity
  8
L1_120
  6
CONTINUOUS
 62
         7
100
AcDbCircle
 10
1231.0721451996
 20
-211.6362095791
 30
77.0292807797
 40
8.5
210
0.0
220
-0.3420201433256687
230
0.9396926207859084
  0
CIRCLE
  5
C4
100
AcDbEntity
  8
L1_120
  6
CONTINUOUS
 62
         7
100
AcDbCircle
 10
1231.0721451996
 20
-211.6362095791
 30
77.0292807797
 40
9.5
210
0.0
220
-0.3420201433256687
230
0.9396926207859084
  0
ARC
  5
C5
100
AcDbEntity
  8
L1_120
  6
CONTINUOUS
 62
         5
100
AcDbCircle
 10
1231.0721451996
 20
-211.6362095791
 30
77.0292807797
 40
8.0
210
0.0
220
-0.3420201433256687
230
0.9396926207859084
100
AcDbArc
 50
352.9901372228
 51
621.2264515101
  0
CIRCLE
  5
C6
100
AcDbEntity
  8
L1_120
  6
CONTINUOUS
 62
         7
100
AcDbCircle
 10
1231.0721451996
 20
-211.6362095791
 30
77.0292807797
 40
7.0
210
0.0
220
-0.3420201433256687
230
0.9396926207859084
  0
CIRCLE
  5
C7
100
AcDbEntity
  8
L1_120
  6
CONTINUOUS
 62
         7
100
AcDbCircle
 10
1231.0721451996
 20
-211.6362095791
 30
77.0292807797
 40
12.7165768873
210
0.0
220
-0.3420201433256687
230
0.9396926207859084
  0
ARC
  5
C8
100
AcDbEntity
  8
L1_120
  6
CONTINUOUS
 62
         7
100
AcDbCircle
 10
1231.0721451996
 20
-211.6362095791
 30
77.0292807797
 40
31.775
210
0.0
220
-0.3420201433256687
230
0.9396926207859084
100
AcDbArc
 50
15.411296411
 51
164.588703589
  0
ARC
  5
C9
100
AcDbEntity
  8
L1_120
  6
CONTINUOUS
 62
         7
100
AcDbCircle
 10
1231.0721451996
 20
-211.6362095791
 30
77.0292807797
 40
31.775
210
0.0
220
-0.3420201433256687
230
0.9396926207859084
100
AcDbArc
 50
195.411296411
 51
344.588703589
  0
LINE
  5
CA
100
AcDbEntity
  8
L1_120
  6
CENTER
 62
         1
100
AcDbLine
 10
1243.2519449943
 20
-193.7729347238
 30
11.4452679897
 11
1219.021849326
 21
-256.3298142618
 31
-11.3235741107
  0
LINE
  5
CB
100
AcDbEntity
  8
L1_120
  6
CENTER
 62
         1
100
AcDbLine
 10
1224.6566791922
 20
-250.0243314817
 30
-9.0285660661
 11
1219.0185234674
 21
-248.0959686527
 31
-8.3266993954
  0
ARC
  5
CC
100
AcDbEntity
  8
L1_120
  6
CONTINUOUS
 62
         7
100
AcDbCircle
 10
1222.7511951417
 20
-237.340431294
 30
77.0292807797
 40
2.9722262277
210
0.0
220
-0.3420201433256687
230
0.9396926207859084
100
AcDbArc
 50
141.257725858
 51
160.0
  0
POLYLINE
  5
CE
100
AcDbEntity
  8
L1_120
  6
CONTINUOUS
 62
         7
100
AcDb3dPolyline
 66
         1
 10
0.0
 20
0.0
 30
0.0
 70
         8
  0
VERTEX
  5
D0
100
AcDbEntity
  8
L1_120
  6
CONTINUOUS
 62
         7
100
AcDbVertex
100
AcDb3dPolylineVertex
 10
1220.43295119
 20
-247.6247201349
 30
-8.155178962
 70
        32
  0
VERTEX
  5
D2
100
AcDbEntity
  8
L1_120
  6
CONTINUOUS
 62
         7
100
AcDbVertex
100
AcDb3dPolylineVertex
 10
1220.43295119
 20
-247.6247201349
 30
-8.155178962
 70
        32
  0
SEQEND
  5
D4
100
AcDbEntity
  8
L1_120
  6
CONTINUOUS
 62
         7
  0
ARC
  5
D5
100
AcDbEntity
  8
L1_120
  6
CONTINUOUS
 62
         7
100
AcDbCircle
 10
1222.3591177863
 20
-237.0258428616
 30
77.0292807797
 40
2.4695428935
210
0.0
220
-0.3420201433256687
230
0.9396926207859084
100
AcDbArc
 50
120.6773100904
 51
141.257725858
  0
POLYLINE
  5
D7
100
AcDbEntity
  8
L1_120
  6
CONTINUOUS
 62
         7
100
AcDb3dPolyline
 66
         1
 10
0.0
 20
0.0
 30
0.0
 70
         8
  0
VERTEX
  5
D9
100
AcDbEntity
  8
L1_120
  6
CONTINUOUS
 62
         7
100
AcDbVertex
100
AcDb3dPolylineVertex
 10
1221.0991511624
 20
-247.0811492551
 30
-7.9573353416
 70
        32
  0
VERTEX
  5
DB
100
AcDbEntity
  8
L1_120
  6
CONTINUOUS
 62
         7
100
AcDbVertex
100
AcDb3dPolylineVertex
 10
1221.0991511624
 20
-247.0811492551
 30
-7.9573353416
 70
        32
  0
SEQEND
  5
DD
100
AcDbEntity
  8
L1_120
  6
CONTINUOUS
 62
         7
  0
ARC
  5
DE
100
AcDbEntity
  8
L1_120
  6
CONTINUOUS
 62
         7
100
AcDbCircle
 10
1222.1593792552
 20
-236.689141169
 30
77.0292807797
 40
2.0780540551
210
0.0
220
-0.3420201433256687
230
0.9396926207859084
100
AcDbArc
 50
96.8239621528
 51
120.6773100904
  0
ARC
  5
DF
100
AcDbEntity
  8
L1_120
  6
CONTINUOUS
 62
         7
100
AcDbCircle
 10
1222.1084689265
 20
-236.2637077347
 30
77.0292807797
 40
1.6495853065
210
0.0
220
-0.3420201433256687
230
0.9396926207859084
100
AcDbArc
 50
70.0
 51
96.8239621528
  0
POLYLINE
  5
E1
100
AcDbEntity
  8
L1_120
  6
CONTINUOUS
 62
         7
100
AcDb3dPolyline
 66
         1
 10
0.0
 20
0.0
 30
0.0
 70
         8
  0
VERTEX
  5
E3
100
AcDbEntity
  8
L1_120
  6
CONTINUOUS
 62
         7
100
AcDbVertex
100
AcDb3dPolylineVertex
 10
1222.6726603294
 20
-246.9042078884
 30
-7.8929339509
 70
        32
  0
VERTEX
  5
E5
100
AcDbEntity
  8
L1_120
  6
CONTINUOUS
 62
         7
100
AcDbVertex
100
AcDb3dPolylineVertex
 10
1222.6726603294
 20
-246.9042078884
 30
-7.8929339509
 70
        32
  0
SEQEND
  5
E7
100
AcDbEntity
  8
L1_120
  6
CONTINUOUS
 62
         7
  0
ARC
  5
E8
100
AcDbEntity
  8
L1_120
  6
CONTINUOUS
 62
         7
100
AcDbCircle
 10
1222.1084689265
 20
-236.2637077347
 30
77.0292807797
 40
1.6495853065
210
0.0
220
-0.3420201433256687
230
0.9396926207859084
100
AcDbArc
 50
43.1760378472
 51
70.0
  0
POLYLINE
  5
EA
100
AcDbEntity
  8
L1_120
  6
CONTINUOUS
 62
         7
100
AcDb3dPolyline
 66
         1
 10
0.0
 20
0.0
 30
0.0
 70
         8
  0
VERTEX
  5
EC
100
AcDbEntity
  8
L1_120
  6
CONTINUOUS
 62
         7
100
AcDbVertex
100
AcDb3dPolylineVertex
 10
1223.3114370182
 20
-247.300182422
 30
-8.0370568946
 70
        32
  0
VERTEX
  5
EE
100
AcDbEntity
  8
L1_120
  6
CONTINUOUS
 62
         7
100
AcDbVertex
100
AcDb3dPolylineVertex
 10
1223.3114370182
 20
-247.300182422
 30
-8.0370568946
 70
        32
  0
SEQEND
  5
F0
100
AcDbEntity
  8
L1_120
  6
CONTINUOUS
 62
         7
  0
POLYLINE
  5
F2
100
AcDbEntity
  8
L1_120
  6
CONTINUOUS
 62
         7
100
AcDb3dPolyline
 66
         1
 10
0.0
 20
0.0
 30
0.0
 70
         8
  0
VERTEX
  5
F4
100
AcDbEntity
  8
L1_120
  6
CONTINUOUS
 62
         7
100
AcDbVertex
100
AcDb3dPolylineVertex
 10
1223.8955176663
 20
-248.8089876174
 30
-8.5862170751
 70
        32
  0
VERTEX
  5
F6
100
AcDbEntity
  8
L1_120
  6
CONTINUOUS
 62
         7
100
AcDbVertex
100
AcDb3dPolylineVertex
 10
1223.8955176663
 20
-248.8089876174
 30
-8.5862170751
 70
        32
  0
SEQEND
  5
F8
100
AcDbEntity
  8
L1_120
  6
CONTINUOUS
 62
         7
  0
ARC
  5
F9
100
AcDbEntity
  8
L1_120
  6
CONTINUOUS
 62
         7
100
AcDbCircle
 10
1220.9240075179
 20
-236.6753893865
 30
77.0292807797
 40
2.9722262277
210
0.0
220
-0.3420201433256687
230
0.9396926207859084
100
AcDbArc
 50
339.9999999999
 51
358.742274142
  0
POLYLINE
  5
FB
100
AcDbEntity
  8
L1_120
  6
CONTINUOUS
 62
         7
100
AcDb3dPolyline
 66
         1
 10
0.0
 20
0.0
 30
0.0
 70
         8
  0
VERTEX
  5
FD
100
AcDbEntity
  8
L1_120
  6
CONTINUOUS
 62
         7
100
AcDbVertex
100
AcDb3dPolylineVertex
 10
1223.7169865714
 20
-249.7029376769
 30
-8.9115882876
 70
        32
  0
VERTEX
  5
FF
100
AcDbEntity
  8
L1_120
  6
CONTINUOUS
 62
         7
100
AcDbVertex
100
AcDb3dPolylineVertex
 10
1223.7169865714
 20
-249.7029376769
 30
-8.9115882876
 70
        32
  0
SEQEND
  5
101
100
AcDbEntity
  8
L1_120
  6
CONTINUOUS
 62
         7
  0
ARC
  5
102
100
AcDbEntity
  8
L1_120
  6
CONTINUOUS
 62
         7
100
AcDbCircle
 10
1220.9240075179
 20
-236.6753893865
 30
77.0292807797
 40
2.9722262277
210
0.0
220
-0.3420201433256687
230
0.9396926207859084
100
AcDbArc
 50
321.257725858
 51
340.0
  0
POLYLINE
  5
104
100
AcDbEntity
  8
L1_120
  6
CONTINUOUS
 62
         7
100
AcDb3dPolyline
 66
         1
 10
0.0
 20
0.0
 30
0.0
 70
         8
  0
VERTEX
  5
106
100
AcDbEntity
  8
L1_120
  6
CONTINUOUS
 62
         7
100
AcDbVertex
100
AcDb3dPolylineVertex
 10
1223.2422514696
 20
-250.4955799995
 30
-9.2000864995
 70
        32
  0
VERTEX
  5
108
100
AcDbEntity
  8
L1_120
  6
CONTINUOUS
 62
         7
100
AcDbVertex
100
AcDb3dPolylineVertex
 10
1223.2422514696
 20
-250.4955799995
 30
-9.2000864995
 70
        32
  0
SEQEND
  5
10A
100
AcDbEntity
  8
L1_120
  6
CONTINUOUS
 62
         7
  0
ARC
  5
10B
100
AcDbEntity
  8
L1_120
  6
CONTINUOUS
 62
         7
100
AcDbCircle
 10
1221.3160848733
 20
-236.989977819
 30
77.0292807797
 40
2.4695428935
210
0.0
220
-0.3420201433256687
230
0.9396926207859084
100
AcDbArc
 50
300.6773100904
 51
321.2577258581
  0
POLYLINE
  5
10D
100
AcDbEntity
  8
L1_120
  6
CONTINUOUS
 62
         7
100
AcDb3dPolyline
 66
         1
 10
0.0
 20
0.0
 30
0.0
 70
         8
  0
VERTEX
  5
10F
100
AcDbEntity
  8
L1_120
  6
CONTINUOUS
 62
         7
100
AcDbVertex
100
AcDb3dPolylineVertex
 10
1222.5760514972
 20
-251.0391508793
 30
-9.39793012
 70
        32
  0
VERTEX
  5
111
100
AcDbEntity
  8
L1_120
  6
CONTINUOUS
 62
         7
100
AcDbVertex
100
AcDb3dPolylineVertex
 10
1222.5760514972
 20
-251.0391508793
 30
-9.39793012
 70
        32
  0
SEQEND
  5
113
100
AcDbEntity
  8
L1_120
  6
CONTINUOUS
 62
         7
  0
ARC
  5
114
100
AcDbEntity
  8
L1_120
  6
CONTINUOUS
 62
         7
100
AcDbCircle
 10
1221.5158234044
 20
-237.3266795116
 30
77.0292807797
 40
2.0780540551
210
0.0
220
-0.3420201433256687
230
0.9396926207859084
100
AcDbArc
 50
276.8239621528
 51
300.6773100903
  0
POLYLINE
  5
116
100
AcDbEntity
  8
L1_120
  6
CONTINUOUS
 62
         7
100
AcDb3dPolyline
 66
         1
 10
0.0
 20
0.0
 30
0.0
 70
         8
  0
VERTEX
  5
118
100
AcDbEntity
  8
L1_120
  6
CONTINUOUS
 62
         7
100
AcDbVertex
100
AcDb3dPolylineVertex
 10
1221.7627361964
 20
-251.2985938222
 30
-9.4923596286
 70
        32
  0
VERTEX
  5
11A
100
AcDbEntity
  8
L1_120
  6
CONTINUOUS
 62
         7
100
AcDbVertex
100
AcDb3dPolylineVertex
 10
1221.7627361964
 20
-251.2985938222
 30
-9.4923596286
 70
        32
  0
SEQEND
  5
11C
100
AcDbEntity
  8
L1_120
  6
CONTINUOUS
 62
         7
  0
ARC
  5
11D
100
AcDbEntity
  8
L1_120
  6
CONTINUOUS
 62
         7
100
AcDbCircle
 10
1221.5667337331
 20
-237.7521129458
 30
77.0292807797
 40
1.6495853065
210
0.0
220
-0.3420201433256687
230
0.9396926207859084
100
AcDbArc
 50
250.0
 51
276.8239621528
  0
POLYLINE
  5
11F
100
AcDbEntity
  8
L1_120
  6
CONTINUOUS
 62
         7
100
AcDb3dPolyline
 66
         1
 10
0.0
 20
0.0
 30
0.0
 70
         8
  0
VERTEX
  5
121
100
AcDbEntity
  8
L1_120
  6
CONTINUOUS
 62
         7
100
AcDbVertex
100
AcDb3dPolylineVertex
 10
1221.0025423302
 20
-251.216092246
 30
-9.4623315106
 70
        32
  0
VERTEX
  5
123
100
AcDbEntity
  8
L1_120
  6
CONTINUOUS
 62
         7
100
AcDbVertex
100
AcDb3dPolylineVertex
 10
1221.0025423302
 20
-251.216092246
 30
-9.4623315106
 70
        32
  0
SEQEND
  5
125
100
AcDbEntity
  8
L1_120
  6
CONTINUOUS
 62
         7
  0
ARC
  5
126
100
AcDbEntity
  8
L1_120
  6
CONTINUOUS
 62
         7
100
AcDbCircle
 10
1221.5667337331
 20
-237.7521129458
 30
77.0292807797
 40
1.6495853065
210
0.0
220
-0.3420201433256687
230
0.9396926207859084
100
AcDbArc
 50
223.1760378472
 51
250.0
  0
POLYLINE
  5
128
100
AcDbEntity
  8
L1_120
  6
CONTINUOUS
 62
         7
100
AcDb3dPolyline
 66
         1
 10
0.0
 20
0.0
 30
0.0
 70
         8
  0
VERTEX
  5
12A
100
AcDbEntity
  8
L1_120
  6
CONTINUOUS
 62
         7
100
AcDbVertex
100
AcDb3dPolylineVertex
 10
1220.3637656414
 20
-250.8201177124
 30
-9.3182085669
 70
        32
  0
VERTEX
  5
12C
100
AcDbEntity
  8
L1_120
  6
CONTINUOUS
 62
         7
100
AcDbVertex
100
AcDb3dPolylineVertex
 10
1220.3637656414
 20
-250.8201177124
 30
-9.3182085669
 70
        32
  0
SEQEND
  5
12E
100
AcDbEntity
  8
L1_120
  6
CONTINUOUS
 62
         7
  0
ARC
  5
12F
100
AcDbEntity
  8
L1_120
  6
CONTINUOUS
 62
         7
100
AcDbCircle
 10
1221.8791966478
 20
-237.4589365561
 30
77.0292807797
 40
2.0780540551
210
0.0
220
-0.3420201433256687
230
0.9396926207859084
100
AcDbArc
 50
199.3226899096
 51
223.1760378473
  0
ARC
  5
130
100
AcDbEntity
  8
L1_120
  6
CONTINUOUS
 62
         7
100
AcDbCircle
 10
1222.2486329158
 20
-237.3293975485
 30
77.0292807797
 40
2.4695428935
210
0.0
220
-0.3420201433256687
230
0.9396926207859084
100
AcDbArc
 50
178.742274142
 51
199.3226899096
  0
ARC
  5
131
100
AcDbEntity
  8
L1_120
  6
CONTINUOUS
 62
         7
100
AcDbCircle
 10
1222.7511951417
 20
-237.340431294
 30
77.0292807797
 40
2.9722262277
210
0.0
220
-0.3420201433256687
230
0.9396926207859084
100
AcDbArc
 50
160.0
 51
178.742274142
  0
ARC
  5
132
100
AcDbEntity
  8
L1_120
  6
CONTINUOUS
 62
         7
100
AcDbCircle
 10
1221.4265697438
 20
-236.6864231321
 30
77.0292807797
 40
2.4695428935
210
0.0
220
-0.3420201433256687
230
0.9396926207859084
100
AcDbArc
 50
358.742274142
 51
379.3226899097
  0
ARC
  5
133
100
AcDbEntity
  8
L1_120
  6
CONTINUOUS
 62
         7
100
AcDbCircle
 10
1221.7960060118
 20
-236.5568841245
 30
77.0292807797
 40
2.0780540551
210
0.0
220
-0.3420201433256687
230
0.9396926207859084
100
AcDbArc
 50
19.3226899096
 51
43.1760378472
  0
POLYLINE
  5
135
100
AcDbEntity
  8
L1_120
  6
CONTINUOUS
 62
         7
100
AcDb3dPolyline
 66
         1
 10
0.0
 20
0.0
 30
0.0
 70
         8
  0
VERTEX
  5
137
100
AcDbEntity
  8
L1_120
  6
CONTINUOUS
 62
         7
100
AcDbVertex
100
AcDb3dPolylineVertex
 10
1238.4273038278
 20
-200.7341624933
 30
8.9115882877
 70
        32
  0
VERTEX
  5
139
100
AcDbEntity
  8
L1_120
  6
CONTINUOUS
 62
         7
100
AcDbVertex
100
AcDb3dPolylineVertex
 10
1238.4273038278
 20
-200.7341624933
 30
8.9115882877
 70
        32
  0
SEQEND
  5
13B
100
AcDbEntity
  8
L1_120
  6
CONTINUOUS
 62
         7
  0
ARC
  5
13C
100
AcDbEntity
  8
L1_120
  6
CONTINUOUS
 62
         7
100
AcDbCircle
 10
1241.2202828813
 20
-186.5970297716
 30
77.0292807797
 40
2.9722262277
210
0.0
220
-0.3420201433256687
230
0.9396926207859084
100
AcDbArc
 50
160.0
 51
178.7422741421
  0
POLYLINE
  5
13E
100
AcDbEntity
  8
L1_120
  6
CONTINUOUS
 62
         7
100
AcDb3dPolyline
 66
         1
 10
0.0
 20
0.0
 30
0.0
 70
         8
  0
VERTEX
  5
140
100
AcDbEntity
  8
L1_120
  6
CONTINUOUS
 62
         7
100
AcDbVertex
100
AcDb3dPolylineVertex
 10
1238.2487727329
 20
-201.6281125528
 30
8.5862170751
 70
        32
  0
VERTEX
  5
142
100
AcDbEntity
  8
L1_120
  6
CONTINUOUS
 62
         7
100
AcDbVertex
100
AcDb3dPolylineVertex
 10
1238.2487727329
 20
-201.6281125528
 30
8.5862170751
 70
        32
  0
SEQEND
  5
144
100
AcDbEntity
  8
L1_120
  6
CONTINUOUS
 62
         7
  0
ARC
  5
145
100
AcDbEntity
  8
L1_120
  6
CONTINUOUS
 62
         7
100
AcDbCircle
 10
1240.7177206553
 20
-186.585996026
 30
77.0292807797
 40
2.4695428935
210
0.0
220
-0.3420201433256687
230
0.9396926207859084
100
AcDbArc
 50
178.7422741421
 51
199.3226899097
  0
POLYLINE
  5
147
100
AcDbEntity
  8
L1_120
  6
CONTINUOUS
 62
         7
100
AcDb3dPolyline
 66
         1
 10
0.0
 20
0.0
 30
0.0
 70
         8
  0
VERTEX
  5
149
100
AcDbEntity
  8
L1_120
  6
CONTINUOUS
 62
         7
100
AcDbVertex
100
AcDb3dPolylineVertex
 10
1238.3872871393
 20
-202.4469119598
 30
8.2881984631
 70
        32
  0
VERTEX
  5
14B
100
AcDbEntity
  8
L1_120
  6
CONTINUOUS
 62
         7
100
AcDbVertex
100
AcDb3dPolylineVertex
 10
1238.3872871393
 20
-202.4469119598
 30
8.2881984631
 70
        32
  0
SEQEND
  5
14D
100
AcDbEntity
  8
L1_120
  6
CONTINUOUS
 62
         7
  0
ARC
  5
14E
100
AcDbEntity
  8
L1_120
  6
CONTINUOUS
 62
         7
100
AcDbCircle
 10
1240.3482843874
 20
-186.7155350337
 30
77.0292807797
 40
2.0780540551
210
0.0
220
-0.3420201433256687
230
0.9396926207859084
100
AcDbArc
 50
199.3226899097
 51
223.1760378473
  0
POLYLINE
  5
150
100
AcDbEntity
  8
L1_120
  6
CONTINUOUS
 62
         7
100
AcDb3dPolyline
 66
         1
 10
0.0
 20
0.0
 30
0.0
 70
         8
  0
VERTEX
  5
152
100
AcDbEntity
  8
L1_120
  6
CONTINUOUS
 62
         7
100
AcDbVertex
100
AcDb3dPolylineVertex
 10
1238.832853381
 20
-203.1369177482
 30
8.0370568946
 70
        32
  0
VERTEX
  5
154
100
AcDbEntity
  8
L1_120
  6
CONTINUOUS
 62
         7
100
AcDbVertex
100
AcDb3dPolylineVertex
 10
1238.832853381
 20
-203.1369177482
 30
8.0370568946
 70
        32
  0
SEQEND
  5
156
100
AcDbEntity
  8
L1_120
  6
CONTINUOUS
 62
         7
  0
ARC
  5
157
100
AcDbEntity
  8
L1_120
  6
CONTINUOUS
 62
         7
100
AcDbCircle
 10
1240.0358214727
 20
-187.0087114234
 30
77.0292807797
 40
1.6495853065
210
0.0
220
-0.3420201433256687
230
0.9396926207859084
100
AcDbArc
 50
223.1760378472
 51
249.9999999999
  0
POLYLINE
  5
159
100
AcDbEntity
  8
L1_120
  6
CONTINUOUS
 62
         7
100
AcDb3dPolyline
 66
         1
 10
0.0
 20
0.0
 30
0.0
 70
         8
  0
VERTEX
  5
15B
100
AcDbEntity
  8
L1_120
  6
CONTINUOUS
 62
         7
100
AcDbVertex
100
AcDb3dPolylineVertex
 10
1239.4716300697
 20
-203.5328922818
 30
7.8929339509
 70
        32
  0
VERTEX
  5
15D
100
AcDbEntity
  8
L1_120
  6
CONTINUOUS
 62
         7
100
AcDbVertex
100
AcDb3dPolylineVertex
 10
1239.4716300697
 20
-203.5328922818
 30
7.8929339509
 70
        32
  0
SEQEND
  5
15F
100
AcDbEntity
  8
L1_120
  6
CONTINUOUS
 62
         7
  0
ARC
  5
160
100
AcDbEntity
  8
L1_120
  6
CONTINUOUS
 62
         7
100
AcDbCircle
 10
1240.0358214727
 20
-187.0087114234
 30
77.0292807797
 40
1.6495853065
210
0.0
220
-0.3420201433256687
230
0.9396926207859084
100
AcDbArc
 50
250.0
 51
276.8239621528
  0
POLYLINE
  5
162
100
AcDbEntity
  8
L1_120
  6
CONTINUOUS
 62
         7
100
AcDb3dPolyline
 66
         1
 10
0.0
 20
0.0
 30
0.0
 70
         8
  0
VERTEX
  5
164
100
AcDbEntity
  8
L1_120
  6
CONTINUOUS
 62
         7
100
AcDbVertex
100
AcDb3dPolylineVertex
 10
1240.231823936
 20
-203.6153938579
 30
7.8629058329
 70
        32
  0
VERTEX
  5
166
100
AcDbEntity
  8
L1_120
  6
CONTINUOUS
 62
         7
100
AcDbVertex
100
AcDb3dPolylineVertex
 10
1240.231823936
 20
-203.6153938579
 30
7.8629058329
 70
        32
  0
SEQEND
  5
168
100
AcDbEntity
  8
L1_120
  6
CONTINUOUS
 62
         7
  0
ARC
  5
169
100
AcDbEntity
  8
L1_120
  6
CONTINUOUS
 62
         7
100
AcDbCircle
 10
1239.984911144
 20
-186.5832779891
 30
77.0292807797
 40
2.0780540551
210
0.0
220
-0.3420201433256687
230
0.9396926207859084
100
AcDbArc
 50
276.8239621528
 51
300.6773100904
  0
POLYLINE
  5
16B
100
AcDbEntity
  8
L1_120
  6
CONTINUOUS
 62
         7
100
AcDb3dPolyline
 66
         1
 10
0.0
 20
0.0
 30
0.0
 70
         8
  0
VERTEX
  5
16D
100
AcDbEntity
  8
L1_120
  6
CONTINUOUS
 62
         7
100
AcDbVertex
100
AcDb3dPolylineVertex
 10
1241.0451392368
 20
-203.3559509151
 30
7.9573353416
 70
        32
  0
VERTEX
  5
16F
100
AcDbEntity
  8
L1_120
  6
CONTINUOUS
 62
         7
100
AcDbVertex
100
AcDb3dPolylineVertex
 10
1241.0451392368
 20
-203.3559509151
 30
7.9573353416
 70
        32
  0
SEQEND
  5
171
100
AcDbEntity
  8
L1_120
  6
CONTINUOUS
 62
         7
  0
ARC
  5
172
100
AcDbEntity
  8
L1_120
  6
CONTINUOUS
 62
         7
100
AcDbCircle
 10
1239.7851726129
 20
-186.2465762966
 30
77.0292807797
 40
2.4695428935
210
0.0
220
-0.3420201433256687
230
0.9396926207859084
100
AcDbArc
 50
300.6773100903
 51
321.257725858
  0
POLYLINE
  5
174
100
AcDbEntity
  8
L1_120
  6
CONTINUOUS
 62
         7
100
AcDb3dPolyline
 66
         1
 10
0.0
 20
0.0
 30
0.0
 70
         8
  0
VERTEX
  5
176
100
AcDbEntity
  8
L1_120
  6
CONTINUOUS
 62
         7
100
AcDbVertex
100
AcDb3dPolylineVertex
 10
1241.7113392092
 20
-202.8123800353
 30
8.155178962
 70
        32
  0
VERTEX
  5
178
100
AcDbEntity
  8
L1_120
  6
CONTINUOUS
 62
         7
100
AcDbVertex
100
AcDb3dPolylineVertex
 10
1241.7113392092
 20
-202.8123800353
 30
8.155178962
 70
        32
  0
SEQEND
  5
17A
100
AcDbEntity
  8
L1_120
  6
CONTINUOUS
 62
         7
  0
ARC
  5
17B
100
AcDbEntity
  8
L1_120
  6
CONTINUOUS
 62
         7
100
AcDbCircle
 10
1239.3930952574
 20
-185.9319878641
 30
77.0292807797
 40
2.9722262277
210
0.0
220
-0.3420201433256687
230
0.9396926207859084
100
AcDbArc
 50
321.257725858
 51
340.0
  0
POLYLINE
  5
17D
100
AcDbEntity
  8
L1_120
  6
CONTINUOUS
 62
         7
100
AcDb3dPolyline
 66
         1
 10
0.0
 20
0.0
 30
0.0
 70
         8
  0
VERTEX
  5
17F
100
AcDbEntity
  8
L1_120
  6
CONTINUOUS
 62
         7
100
AcDbVertex
100
AcDb3dPolylineVertex
 10
1242.186074311
 20
-202.0197377127
 30
8.4436771739
 70
        32
  0
VERTEX
  5
181
100
AcDbEntity
  8
L1_120
  6
CONTINUOUS
 62
         7
100
AcDbVertex
100
AcDb3dPolylineVertex
 10
1242.186074311
 20
-202.0197377127
 30
8.4436771739
 70
        32
  0
SEQEND
  5
183
100
AcDbEntity
  8
L1_120
  6
CONTINUOUS
 62
         7
  0
ARC
  5
184
100
AcDbEntity
  8
L1_120
  6
CONTINUOUS
 62
         7
100
AcDbCircle
 10
1239.3930952575
 20
-185.9319878641
 30
77.0292807797
 40
2.9722262277
210
0.0
220
-0.3420201433256687
230
0.9396926207859084
100
AcDbArc
 50
339.9999999999
 51
358.742274142
  0
POLYLINE
  5
186
100
AcDbEntity
  8
L1_120
  6
CONTINUOUS
 62
         7
100
AcDb3dPolyline
 66
         1
 10
0.0
 20
0.0
 30
0.0
 70
         8
  0
VERTEX
  5
188
100
AcDbEntity
  8
L1_120
  6
CONTINUOUS
 62
         7
100
AcDbVertex
100
AcDb3dPolylineVertex
 10
1242.3646054058
 20
-201.1257876532
 30
8.7690483865
 70
        32
  0
VERTEX
  5
18A
100
AcDbEntity
  8
L1_120
  6
CONTINUOUS
 62
         7
100
AcDbVertex
100
AcDb3dPolylineVertex
 10
1242.3646054058
 20
-201.1257876532
 30
8.7690483865
 70
        32
  0
SEQEND
  5
18C
100
AcDbEntity
  8
L1_120
  6
CONTINUOUS
 62
         7
  0
ARC
  5
18D
100
AcDbEntity
  8
L1_120
  6
CONTINUOUS
 62
         7
100
AcDbCircle
 10
1239.8956574834
 20
-185.9430216097
 30
77.0292807797
 40
2.4695428935
210
0.0
220
-0.3420201433256687
230
0.9396926207859084
100
AcDbArc
 50
358.742274142
 51
379.3226899097
  0
POLYLINE
  5
18F
100
AcDbEntity
  8
L1_120
  6
CONTINUOUS
 62
         7
100
AcDb3dPolyline
 66
         1
 10
0.0
 20
0.0
 30
0.0
 70
         8
  0
VERTEX
  5
191
100
AcDbEntity
  8
L1_120
  6
CONTINUOUS
 62
         7
100
AcDbVertex
100
AcDb3dPolylineVertex
 10
1242.2260909995
 20
-200.3069882462
 30
9.0670669984
 70
        32
  0
VERTEX
  5
193
100
AcDbEntity
  8
L1_120
  6
CONTINUOUS
 62
         7
100
AcDbVertex
100
AcDb3dPolylineVertex
 10
1242.2260909995
 20
-200.3069882462
 30
9.0670669984
 70
        32
  0
SEQEND
  5
195
100
AcDbEntity
  8
L1_120
  6
CONTINUOUS
 62
         7
  0
ARC
  5
196
100
AcDbEntity
  8
L1_120
  6
CONTINUOUS
 62
         7
100
AcDbCircle
 10
1240.2650937514
 20
-185.813482602
 30
77.0292807797
 40
2.0780540551
210
0.0
220
-0.3420201433256687
230
0.9396926207859084
100
AcDbArc
 50
19.3226899096
 51
43.1760378472
  0
POLYLINE
  5
198
100
AcDbEntity
  8
L1_120
  6
CONTINUOUS
 62
         7
100
AcDb3dPolyline
 66
         1
 10
0.0
 20
0.0
 30
0.0
 70
         8
  0
VERTEX
  5
19A
100
AcDbEntity
  8
L1_120
  6
CONTINUOUS
 62
         7
100
AcDbVertex
100
AcDb3dPolylineVertex
 10
1241.7805247577
 20
-199.6169824578
 30
9.3182085669
 70
        32
  0
VERTEX
  5
19C
100
AcDbEntity
  8
L1_120
  6
CONTINUOUS
 62
         7
100
AcDbVertex
100
AcDb3dPolylineVertex
 10
1241.7805247577
 20
-199.6169824578
 30
9.3182085669
 70
        32
  0
SEQEND
  5
19E
100
AcDbEntity
  8
L1_120
  6
CONTINUOUS
 62
         7
  0
ARC
  5
19F
100
AcDbEntity
  8
L1_120
  6
CONTINUOUS
 62
         7
100
AcDbCircle
 10
1240.5775566661
 20
-185.5203062123
 30
77.0292807797
 40
1.6495853065
210
0.0
220
-0.3420201433256687
230
0.9396926207859084
100
AcDbArc
 50
43.1760378472
 51
70.0
  0
POLYLINE
  5
1A1
100
AcDbEntity
  8
L1_120
  6
CONTINUOUS
 62
         7
100
AcDb3dPolyline
 66
         1
 10
0.0
 20
0.0
 30
0.0
 70
         8
  0
VERTEX
  5
1A3
100
AcDbEntity
  8
L1_120
  6
CONTINUOUS
 62
         7
100
AcDbVertex
100
AcDb3dPolylineVertex
 10
1241.141748069
 20
-199.2210079242
 30
9.4623315106
 70
        32
  0
VERTEX
  5
1A5
100
AcDbEntity
  8
L1_120
  6
CONTINUOUS
 62
         7
100
AcDbVertex
100
AcDb3dPolylineVertex
 10
1241.141748069
 20
-199.2210079242
 30
9.4623315106
 70
        32
  0
SEQEND
  5
1A7
100
AcDbEntity
  8
L1_120
  6
CONTINUOUS
 62
         7
  0
ARC
  5
1A8
100
AcDbEntity
  8
L1_120
  6
CONTINUOUS
 62
         7
100
AcDbCircle
 10
1240.5775566661
 20
-185.5203062123
 30
77.0292807797
 40
1.6495853065
210
0.0
220
-0.3420201433256687
230
0.9396926207859084
100
AcDbArc
 50
70.0000000001
 51
96.8239621529
  0
POLYLINE
  5
1AA
100
AcDbEntity
  8
L1_120
  6
CONTINUOUS
 62
         7
100
AcDb3dPolyline
 66
         1
 10
0.0
 20
0.0
 30
0.0
 70
         8
  0
VERTEX
  5
1AC
100
AcDbEntity
  8
L1_120
  6
CONTINUOUS
 62
         7
100
AcDbVertex
100
AcDb3dPolylineVertex
 10
1240.3815542028
 20
-199.138506348
 30
9.4923596286
 70
        32
  0
VERTEX
  5
1AE
100
AcDbEntity
  8
L1_120
  6
CONTINUOUS
 62
         7
100
AcDbVertex
100
AcDb3dPolylineVertex
 10
1240.3815542028
 20
-199.138506348
 30
9.4923596286
 70
        32
  0
SEQEND
  5
1B0
100
AcDbEntity
  8
L1_120
  6
CONTINUOUS
 62
         7
  0
ARC
  5
1B1
100
AcDbEntity
  8
L1_120
  6
CONTINUOUS
 62
         7
100
AcDbCircle
 10
1240.6284669948
 20
-185.9457396466
 30
77.0292807797
 40
2.0780540551
210
0.0
220
-0.3420201433256687
230
0.9396926207859084
100
AcDbArc
 50
96.8239621528
 51
120.6773100904
  0
POLYLINE
  5
1B3
100
AcDbEntity
  8
L1_120
  6
CONTINUOUS
 62
         7
100
AcDb3dPolyline
 66
         1
 10
0.0
 20
0.0
 30
0.0
 70
         8
  0
VERTEX
  5
1B5
100
AcDbEntity
  8
L1_120
  6
CONTINUOUS
 62
         7
100
AcDbVertex
100
AcDb3dPolylineVertex
 10
1239.5682389019
 20
-199.3979492909
 30
9.39793012
 70
        32
  0
VERTEX
  5
1B7
100
AcDbEntity
  8
L1_120
  6
CONTINUOUS
 62
         7
100
AcDbVertex
100
AcDb3dPolylineVertex
 10
1239.5682389019
 20
-199.3979492909
 30
9.39793012
 70
        32
  0
SEQEND
  5
1B9
100
AcDbEntity
  8
L1_120
  6
CONTINUOUS
 62
         7
  0
ARC
  5
1BA
100
AcDbEntity
  8
L1_120
  6
CONTINUOUS
 62
         7
100
AcDbCircle
 10
1240.8282055258
 20
-186.2824413391
 30
77.0292807797
 40
2.4695428935
210
0.0
220
-0.3420201433256687
230
0.9396926207859084
100
AcDbArc
 50
120.6773100903
 51
141.257725858
  0
ARC
  5
1BB
100
AcDbEntity
  8
L1_120
  6
CONTINUOUS
 62
         7
100
AcDbCircle
 10
1241.2202828813
 20
-186.5970297716
 30
77.0292807797
 40
2.9722262277
210
0.0
220
-0.3420201433256687
230
0.9396926207859084
100
AcDbArc
 50
141.257725858
 51
160.0
  0
LINE
  5
1BC
100
AcDbEntity
  8
L1_120
  6
CENTER
 62
         1
100
AcDbLine
 10
1243.1257669317
 20
-202.3411315175
 30
8.3266993954
 11
1237.487611207
 21
-200.4127686885
 31
9.0285660661
  0
LINE
  5
1BD
100
AcDbEntity
  8
L1_120
  6
CONTINUOUS
 62
         7
100
AcDbLine
 10
1316.9276742862
 20
-326.4961161379
 30
4.2484446952
 11
1385.3508425579
 21
-317.1195073002
 31
7.6612512105
  0
LINE
  5
1BE
100
AcDbEntity
  8
L1_120
  6
CENTER
 62
         1
100
AcDbLine
 10
1525.9508425579
 20
-338.1686220058
 30
0.0
 11
1315.9008425579
 21
-338.1686220058
 31
0.0
  0
ARC
  5
1BF
100
AcDbEntity
  8
L1_120
  6
CONTINUOUS
 62
         7
100
AcDbCircle
 10
1421.2028425579
 20
-227.0894736127
 30
76.830285162
 40
2.0
210
0.0
220
-0.3420201433256687
230
0.9396926207859084
100
AcDbArc
 50
90.0
 51
180.0
  0
ARC
  5
1C0
100
AcDbEntity
  8
L1_120
  6
CONTINUOUS
 62
         7
100
AcDbCircle
 10
1421.2028425579
 20
-195.0894736127
 30
76.830285162
 40
2.0
210
0.0
220
-0.3420201433256687
230
0.9396926207859084
100
AcDbArc
 50
180.0
 51
270.0
  0
ARC
  5
1C1
100
AcDbEntity
  8
L1_120
  6
CONTINUOUS
 62
         4
100
AcDbCircle
 10
1607.4308425579
 20
-211.0894736127
 30
76.830285162
 40
10.0
210
0.0
220
-0.3420201433256687
230
0.9396926207859084
100
AcDbArc
 50
250.2170796992
 51
556.8024117489
  0
CIRCLE
  5
1C2
100
AcDbEntity
  8
L1_120
  6
CONTINUOUS
 62
         7
100
AcDbCircle
 10
1607.4308425579
 20
-211.0894736127
 30
76.830285162
 40
11.0
210
0.0
220
-0.3420201433256687
230
0.9396926207859084
  0
CIRCLE
  5
1C3
100
AcDbEntity
  8
L1_120
  6
CONTINUOUS
 62
         7
100
AcDbCircle
 10
1607.4308425579
 20
-211.0894736127
 30
76.830285162
 40
8.0
210
0.0
220
-0.3420201433256687
230
0.9396926207859084
  0
CIRCLE
  5
1C4
100
AcDbEntity
  8
L1_120
  6
CONTINUOUS
 62
         7
100
AcDbCircle
 10
1607.4308425579
 20
-211.0894736127
 30
76.830285162
 40
14.0
210
0.0
220
-0.3420201433256687
230
0.9396926207859084
  0
CIRCLE
  5
1C5
100
AcDbEntity
  8
L1_120
  6
CONTINUOUS
 62
         7
100
AcDbCircle
 10
1607.4308425579
 20
-211.0894736127
 30
76.830285162
 40
5.43
210
0.0
220
-0.3420201433256687
230
0.9396926207859084
  0
ARC
  5
1C6
100
AcDbEntity
  8
L1_120
  6
CONTINUOUS
 62
         4
100
AcDbCircle
 10
1607.4308425579
 20
-211.0894736127
 30
76.830285162
 40
6.0
210
0.0
220
-0.3420201433256687
230
0.9396926207859084
100
AcDbArc
 50
180.0
 51
450.0
  0
CIRCLE
  5
1C7
100
AcDbEntity
  8
L1_120
  6
CONTINUOUS
 62
         7
100
AcDbCircle
 10
1607.4308425579
 20
-211.0894736127
 30
76.830285162
 40
6.25
210
0.0
220
-0.3420201433256687
230
0.9396926207859084
  0
INSERT
  5
1D0
100
AcDbEntity
  8
0
  6
CONTINUOUS
100
AcDbBlockReference
  2
*X0
 10
0.0
 20
0.0
 30
0.0
  0
INSERT
  5
1D7
100
AcDbEntity
  8
0
  6
CONTINUOUS
100
AcDbBlockReference
  2
*X1
 10
0.0
 20
0.0
 30
0.0
  0
INSERT
  5
1DF
100
AcDbEntity
  8
0
  6
CONTINUOUS
100
AcDbBlockReference
  2
*X2
 10
0.0
 20
0.0
 30
0.0
  0
INSERT
  5
1F0
100
AcDbEntity
  8
0
  6
CONTINUOUS
100
AcDbBlockReference
  2
*X3
 10
0.0
 20
0.0
 30
0.0
  0
INSERT
  5
1FF
100
AcDbEntity
  8
0
  6
CONTINUOUS
100
AcDbBlockReference
  2
*X4
 10
0.0
 20
0.0
 30
0.0
  0
LINE
  5
200
100
AcDbEntity
  8
L1_120
  6
DASHED
 62
         2
100
AcDbLine
 10
1527.2508425579
 20
-234.9733446509
 30
-3.7622215766
 11
1519.1951801252
 21
-234.9733446509
 31
-3.7622215766
  0
LINE
  5
201
100
AcDbEntity
  8
L1_120
  6
DASHED
 62
         2
100
AcDbLine
 10
1527.2508425579
 20
-214.3001069937
 30
3.7622215766
 11
1519.1951801252
 21
-214.3001069937
 31
3.7622215766
  0
LINE
  5
202
100
AcDbEntity
  8
L1_120
  6
DASHED
 62
         2
100
AcDbLine
 10
1531.8508425579
 20
-233.845713506
 30
-3.3517974046
 11
1531.8508425579
 21
-231.402512692
 31
-2.4625450319
  0
LINE
  5
203
100
AcDbEntity
  8
L1_120
  6
DASHED
 62
         2
100
AcDbLine
 10
1519.6639885438
 20
-215.0631374017
 30
3.4845012202
 11
1519.6639885438
 21
-234.2103142429
 31
-3.4845012202
  0
LINE
  5
204
100
AcDbEntity
  8
L1_120
  6
DASHED
 62
         2
100
AcDbLine
 10
1519.0508425579
 20
-214.0651838385
 30
3.8477266124
 11
1519.6639885438
 21
-215.0631374017
 31
3.4845012202
  0
LINE
  5
205
100
AcDbEntity
  8
L1_120
  6
DASHED
 62
         2
100
AcDbLine
 10
1519.0508425579
 20
-235.2082678061
 30
-3.8477266124
 11
1519.6639885438
 21
-234.2103142429
 31
-3.4845012202
  0
LINE
  5
206
100
AcDbEntity
  8
L1_120
  6
DASHED
 62
         2
100
AcDbLine
 10
1535.8291547214
 20
-212.8905680625
 30
4.2752517916
 11
1525.4942182308
 21
-212.8905680625
 31
4.2752517916
  0
LINE
  5
207
100
AcDbEntity
  8
L1_120
  6
DASHED
 62
         2
100
AcDbLine
 10
1524.0508425579
 20
-211.4810291313
 30
4.7882820066
 11
1524.6281928271
 21
-212.4207217521
 31
4.4462618632
  0
LINE
  5
208
100
AcDbEntity
  8
L1_120
  6
DASHED
 62
         2
100
AcDbLine
 10
1524.0508425579
 20
-237.7924225133
 30
-4.7882820066
 11
1524.6281928271
 21
-236.8527298925
 31
-4.4462618632
  0
LINE
  5
209
100
AcDbEntity
  8
L1_120
  6
DASHED
 62
         2
100
AcDbLine
 10
1535.8291547214
 20
-236.3828835821
 30
-4.2752517916
 11
1525.4942182308
 21
-236.3828835821
 31
-4.2752517916
  0
LINE
  5
20A
100
AcDbEntity
  8
L1_120
  6
DASHED
 62
         2
100
AcDbLine
 10
1524.0508425579
 20
-211.4810291313
 30
4.7882820066
 11
1520.5508425579
 21
-211.4810291313
 31
4.7882820066
  0
ARC
  5
20B
100
AcDbEntity
  8
L1_120
  6
DASHED
 62
         2
100
AcDbCircle
 10
1535.0508425579
 20
-200.2413974014
 30
76.830285162
 40
1.5
210
0.0
220
-0.3420201433256687
230
0.9396926207859084
100
AcDbArc
 50
0.0
 51
30.0
  0
LINE
  5
20C
100
AcDbEntity
  8
L1_120
  6
DASHED
 62
         2
100
AcDbLine
 10
1536.3498806635
 20
-213.7380991912
 30
3.9667756881
 11
1535.8291547214
 21
-212.8905680625
 31
4.2752517916
  0
ARC
  5
20D
100
AcDbEntity
  8
L1_120
  6
DASHED
 62
         2
100
AcDbCircle
 10
1520.5508425579
 20
-198.5894736127
 30
76.830285162
 40
1.5
210
0.0
220
-0.3420201433256687
230
0.9396926207859084
100
AcDbArc
 50
90.0
 51
180.0
  0
ARC
  5
20E
100
AcDbEntity
  8
L1_120
  6
DASHED
 62
         2
100
AcDbCircle
 10
1520.5508425579
 20
-223.5894736127
 30
76.830285162
 40
1.5
210
0.0
220
-0.3420201433256687
230
0.9396926207859084
100
AcDbArc
 50
180.0
 51
270.0
  0
LINE
  5
20F
100
AcDbEntity
  8
L1_120
  6
DASHED
 62
         2
100
AcDbLine
 10
1524.0508425579
 20
-237.7924225133
 30
-4.7882820066
 11
1520.5508425579
 21
-237.7924225133
 31
-4.7882820066
  0
ARC
  5
210
100
AcDbEntity
  8
L1_120
  6
DASHED
 62
         2
100
AcDbCircle
 10
1535.0508425579
 20
-221.9375498241
 30
76.830285162
 40
1.5
210
0.0
220
-0.3420201433256687
230
0.9396926207859084
100
AcDbArc
 50
330.0
 51
360.0
  0
LINE
  5
211
100
AcDbEntity
  8
L1_120
  6
DASHED
 62
         2
100
AcDbLine
 10
1536.3498806635
 20
-235.5353524534
 30
-3.9667756881
 11
1535.8291547214
 21
-236.3828835821
 31
-4.2752517916
  0
LINE
  5
212
100
AcDbEntity
  8
L1_120
  6
DASHED
 62
         2
100
AcDbLine
 10
1527.7508425579
 20
-213.8302606833
 30
3.9332316482
 11
1526.4388425579
 21
-215.0631374017
 31
3.4845012202
  0
ARC
  5
213
100
AcDbEntity
  8
L1_120
  6
DASHED
 62
         2
100
AcDbCircle
 10
1529.7508425579
 20
-221.5894736127
 30
76.830285162
 40
1.0
210
0.0
220
-0.3420201433256687
230
0.9396926207859084
100
AcDbArc
 50
270.0
 51
360.0
  0
ARC
  5
214
100
AcDbEntity
  8
L1_120
  6
DASHED
 62
         2
100
AcDbCircle
 10
1529.7508425579
 20
-200.5894736127
 30
76.830285162
 40
1.0
210
0.0
220
-0.3420201433256687
230
0.9396926207859084
100
AcDbArc
 50
0.0
 51
90.0
  0
LINE
  5
215
100
AcDbEntity
  8
L1_120
  6
DASHED
 62
         2
100
AcDbLine
 10
1532.8508425579
 20
-233.845713506
 30
-3.3517974046
 11
1531.8508425579
 21
-233.845713506
 31
-3.3517974046
  0
LINE
  5
216
100
AcDbEntity
  8
L1_120
  6
DASHED
 62
         2
100
AcDbLine
 10
1532.8508425579
 20
-215.4277381386
 30
3.3517974046
 11
1530.7508425579
 21
-215.4277381386
 31
3.3517974046
  0
LINE
  5
217
100
AcDbEntity
  8
L1_120
  6
DASHED
 62
         2
100
AcDbLine
 10
1532.8508425579
 20
-233.845713506
 30
-3.3517974046
 11
1532.8508425579
 21
-215.4277381386
 31
3.3517974046
  0
LINE
  5
218
100
AcDbEntity
  8
L1_120
  6
DASHED
 62
         2
100
AcDbLine
 10
1529.7508425579
 20
-213.8302606833
 30
3.9332316482
 11
1527.7508425579
 21
-213.8302606833
 31
3.9332316482
  0
LINE
  5
219
100
AcDbEntity
  8
L1_120
  6
DASHED
 62
         2
100
AcDbLine
 10
1529.7508425579
 20
-235.4431909613
 30
-3.9332316482
 11
1527.7508425579
 21
-235.4431909613
 31
-3.9332316482
  0
LINE
  5
21A
100
AcDbEntity
  8
L1_120
  6
DASHED
 62
         2
100
AcDbLine
 10
1527.7508425579
 20
-235.4431909613
 30
-3.9332316482
 11
1527.7508425579
 21
-213.8302606833
 31
3.9332316482
  0
LINE
  5
21B
100
AcDbEntity
  8
L1_120
  6
DASHED
 62
         2
100
AcDbLine
 10
1526.4388425579
 20
-215.0631374017
 30
3.4845012202
 11
1519.6639885438
 21
-215.0631374017
 31
3.4845012202
  0
LINE
  5
21C
100
AcDbEntity
  8
L1_120
  6
DASHED
 62
         2
100
AcDbLine
 10
1526.4388425579
 20
-234.2103142429
 30
-3.4845012202
 11
1519.6639885438
 21
-234.2103142429
 31
-3.4845012202
  0
LINE
  5
21D
100
AcDbEntity
  8
L1_120
  6
DASHED
 62
         2
100
AcDbLine
 10
1531.8508425579
 20
-231.402512692
 30
-2.4625450319
 11
1530.7508425579
 21
-231.402512692
 31
-2.4625450319
  0
LINE
  5
21E
100
AcDbEntity
  8
L1_120
  6
DASHED
 62
         2
100
AcDbLine
 10
1532.8508425579
 20
-216.8582794528
 30
2.8311229473
 11
1536.5508425579
 21
-218.8656470668
 31
2.1005008866
  0
LINE
  5
21F
100
AcDbEntity
  8
L1_120
  6
DASHED
 62
         2
100
AcDbLine
 10
1532.8508425579
 20
-232.4151721918
 30
-2.8311229473
 11
1536.5508425579
 21
-230.4078045778
 31
-2.1005008866
  0
LINE
  5
220
100
AcDbEntity
  8
L1_120
  6
DASHED
 62
         2
100
AcDbLine
 10
1530.7508425579
 20
-234.5034983406
 30
-3.5912115049
 11
1530.7508425579
 21
-214.769953304
 31
3.5912115049
  0
LINE
  5
221
100
AcDbEntity
  8
L1_120
  6
DASHED
 62
         2
100
AcDbLine
 10
1531.8508425579
 20
-231.402512692
 30
-2.4625450319
 11
1531.8508425579
 21
-215.4277381386
 31
3.3517974046
  0
LINE
  5
222
100
AcDbEntity
  8
L1_120
  6
DASHED
 62
         2
100
AcDbLine
 10
1536.5508425579
 20
-234.8305829878
 30
-3.7102605806
 11
1536.5508425579
 21
-214.4428686568
 31
3.7102605806
  0
LINE
  5
223
100
AcDbEntity
  8
L1_120
  6
DASHED
 62
         2
100
AcDbLine
 10
1519.0508425579
 20
-236.3828835821
 30
-4.2752517916
 11
1519.0508425579
 21
-212.8905680625
 31
4.2752517916
  0
ARC
  5
224
100
AcDbEntity
  8
L1_120
  6
DASHED
 62
         2
100
AcDbCircle
 10
1525.4942182308
 20
-224.5894736127
 30
76.830285162
 40
1.0
210
0.0
220
-0.3420201433256687
230
0.9396926207859084
100
AcDbArc
 50
90.0
 51
150.0
  0
ARC
  5
225
100
AcDbEntity
  8
L1_120
  6
DASHED
 62
         2
100
AcDbCircle
 10
1525.4942182308
 20
-197.5894736127
 30
76.830285162
 40
1.0
210
0.0
220
-0.3420201433256687
230
0.9396926207859084
100
AcDbArc
 50
210.0
 51
270.0
  0
LINE
  5
226
100
AcDbEntity
  8
L1_120
  6
DASHED
 62
         2
100
AcDbLine
 10
1526.4388425579
 20
-215.0631374017
 30
3.4845012202
 11
1526.4388425579
 21
-234.2103142429
 31
-3.4845012202
  0
LINE
  5
227
100
AcDbEntity
  8
L1_120
  6
DASHED
 62
         2
100
AcDbLine
 10
1527.7508425579
 20
-235.4431909613
 30
-3.9332316482
 11
1526.4388425579
 21
-234.2103142429
 31
-3.4845012202
  0
ARC
  5
228
100
AcDbEntity
  8
L1_120
  6
CONTINUOUS
 62
         7
100
AcDbCircle
 10
1524.4508425579
 20
-220.5894736127
 30
76.830285162
 40
1.5
210
0.0
220
-0.3420201433256687
230
0.9396926207859084
100
AcDbArc
 50
270.0
 51
360.0
  0
ARC
  5
229
100
AcDbEntity
  8
L1_120
  6
CONTINUOUS
 62
         7
100
AcDbCircle
 10
1524.4508425579
 20
-201.5894736127
 30
76.830285162
 40
1.5
210
0.0
220
-0.3420201433256687
230
0.9396926207859084
100
AcDbArc
 50
0.0
 51
90.0
  0
DIMENSION
  5
22D
100
AcDbEntity
  8
L1_120
  6
CONTINUOUS
 62
         4
100
AcDbDimension
  2
*D5
 10
1551.5412003955
 20
-185.2035239885
 30
-67.408570013
 11
1549.5162003955
 21
-220.8323180396
 31
0.0
210
0.0
220
-0.3420201433256687
230
0.9396926207859084
  3
DIMSTYLE1
100
AcDbAlignedDimension
 13
1504.1123410046
 23
-185.2035239885
 33
-67.408570013
 14
1504.1123410046
 24
-211.5149173705
 34
-76.9851340261
 50
90.0
100
AcDbRotatedDimension
  0
LINE
  5
23A
100
AcDbEntity
  8
L1_120
  6
CONTINUOUS
 62
         7
100
AcDbLine
 10
1421.2028425579
 20
-237.7924225133
 30
-4.7882820066
 11
1509.9508425579
 21
-237.7924225133
 31
-4.7882820066
  0
LINE
  5
23B
100
AcDbEntity
  8
L1_120
  6
CONTINUOUS
 62
         7
100
AcDbLine
 10
1421.2028425579
 20
-211.4810291313
 30
4.7882820066
 11
1509.9508425579
 21
-211.4810291313
 31
4.7882820066
  0
LINE
  5
23C
100
AcDbEntity
  8
L1_120
  6
CONTINUOUS
 62
         7
100
AcDbLine
 10
1512.9508425579
 20
-214.3001069937
 30
3.7622215766
 11
1512.9508425579
 21
-234.9733446509
 31
-3.7622215766
  0
LINE
  5
23D
100
AcDbEntity
  8
L1_120
  6
CONTINUOUS
 62
         4
100
AcDbLine
 10
1525.8650561202
 20
-234.0336520302
 30
-3.4202014333
 11
1512.9508425579
 21
-234.0336520302
 31
-3.4202014333
  0
LINE
  5
23E
100
AcDbEntity
  8
L1_120
  6
CONTINUOUS
 62
         4
100
AcDbLine
 10
1525.8650561202
 20
-215.2397996144
 30
3.4202014333
 11
1512.9508425579
 21
-215.2397996144
 31
3.4202014333
  0
LINE
  5
23F
100
AcDbEntity
  8
L1_120
  6
CONTINUOUS
 62
         7
100
AcDbLine
 10
1510.9508425579
 20
-214.3001069937
 30
3.7622215766
 11
1524.4508425579
 21
-214.3001069937
 31
3.7622215766
  0
LINE
  5
240
100
AcDbEntity
  8
L1_120
  6
CONTINUOUS
 62
         7
100
AcDbLine
 10
1510.9508425579
 20
-234.9733446509
 30
-3.7622215766
 11
1524.4508425579
 21
-234.9733446509
 31
-3.7622215766
  0
LINE
  5
241
100
AcDbEntity
  8
L1_120
  6
CONTINUOUS
 62
         7
100
AcDbLine
 10
1525.9508425579
 20
-215.7096459248
 30
3.2491913616
 11
1525.9508425579
 21
-233.5638057198
 31
-3.2491913616
  0
LINE
  5
242
100
AcDbEntity
  8
L1_120
  6
CONTINUOUS
 62
         7
100
AcDbLine
 10
1510.4508425579
 20
-211.9508754417
 30
4.6172719349
 11
1510.4508425579
 21
-237.3225762029
 31
-4.6172719349
  0
LINE
  5
243
100
AcDbEntity
  8
L1_120
  6
CONTINUOUS
 62
         4
100
AcDbLine
 10
1509.9508425579
 20
-211.4810291313
 30
4.7882820066
 11
1509.9508425579
 21
-237.7924225133
 31
-4.7882820066
  0
LINE
  5
244
100
AcDbEntity
  8
L1_120
  6
CONTINUOUS
 62
         7
100
AcDbLine
 10
1512.9508425579
 20
-214.3001069937
 30
3.7622215766
 11
1512.9508425579
 21
-234.9733446509
 31
-3.7622215766
  0
LINE
  5
245
100
AcDbEntity
  8
L1_120
  6
CONTINUOUS
 62
         7
100
AcDbLine
 10
1509.9508425579
 20
-211.4810291313
 30
4.7882820066
 11
1510.4508425579
 21
-211.9508754417
 31
4.6172719349
  0
LINE
  5
246
100
AcDbEntity
  8
L1_120
  6
CONTINUOUS
 62
         7
100
AcDbLine
 10
1510.4508425579
 20
-237.3225762029
 30
-4.6172719349
 11
1509.9508425579
 21
-237.7924225133
 31
-4.7882820066
  0
ARC
  5
247
100
AcDbEntity
  8
L1_120
  6
CONTINUOUS
 62
         7
100
AcDbCircle
 10
1510.9508425579
 20
-199.5894736127
 30
76.830285162
 40
0.5
210
0.0
220
-0.3420201433256687
230
0.9396926207859084
100
AcDbArc
 50
180.0
 51
270.0
  0
ARC
  5
248
100
AcDbEntity
  8
L1_120
  6
CONTINUOUS
 62
         7
100
AcDbCircle
 10
1510.9508425579
 20
-222.5894736127
 30
76.830285162
 40
0.5
210
0.0
220
-0.3420201433256687
230
0.9396926207859084
100
AcDbArc
 50
90.0
 51
180.0
  0
LINE
  5
249
100
AcDbEntity
  8
L1_120
  6
CONTINUOUS
 62
         7
100
AcDbLine
 10
1419.2028425579
 20
-204.1655220785
 30
7.4509088223
 11
1419.2028425579
 21
-245.1079295661
 31
-7.4509088224
  0
LINE
  5
24A
100
AcDbEntity
  8
L1_120
  6
CONTINUOUS
 62
         7
100
AcDbLine
 10
1419.2028425579
 20
-245.1079295661
 30
-7.4509088224
 11
1418.7028425579
 21
-245.5777758765
 31
-7.621918894
  0
LINE
  5
24B
100
AcDbEntity
  8
L1_120
  6
CONTINUOUS
 62
         7
100
AcDbLine
 10
1418.7028425579
 20
-203.6956757681
 30
7.621918894
 11
1419.2028425579
 21
-204.1655220785
 31
7.4509088223
  0
LINE
  5
24C
100
AcDbEntity
  8
L1_120
  6
CONTINUOUS
 62
         4
100
AcDbLine
 10
1418.7028425579
 20
-245.5777758765
 30
-7.621918894
 11
1418.7028425579
 21
-203.6956757681
 31
7.621918894
  0
LINE
  5
24D
100
AcDbEntity
  8
L1_120
  6
CONTINUOUS
 62
         7
100
AcDbLine
 10
1403.7508425579
 20
-245.5777758765
 30
-7.621918894
 11
1418.7028425579
 21
-245.5777758765
 31
-7.621918894
  0
ARC
  5
24E
100
AcDbEntity
  8
L1_120
  6
CONTINUOUS
 62
         7
100
AcDbCircle
 10
1403.7508425579
 20
-188.3044736127
 30
76.830285162
 40
0.5
210
0.0
220
-0.3420201433256687
230
0.9396926207859084
100
AcDbArc
 50
180.0
 51
270.0
  0
ARC
  5
24F
100
AcDbEntity
  8
L1_120
  6
CONTINUOUS
 62
         7
100
AcDbCircle
 10
1403.7508425579
 20
-233.8744736127
 30
76.830285162
 40
0.5
210
0.0
220
-0.3420201433256687
230
0.9396926207859084
100
AcDbArc
 50
90.0
 51
180.0
  0
LINE
  5
250
100
AcDbEntity
  8
L1_120
  6
CONTINUOUS
 62
         7
100
AcDbLine
 10
1403.7508425579
 20
-203.6956757681
 30
7.621918894
 11
1418.7028425579
 21
-203.6956757681
 31
7.621918894
  0
LINE
  5
251
100
AcDbEntity
  8
L1_120
  6
CENTER
 62
         1
100
AcDbLine
 10
1595.5370920737
 20
-193.9296280676
 30
11.1764695634
 11
1619.4717158171
 21
-255.7236628416
 31
-11.3147197495
  0
LINE
  5
252
100
AcDbEntity
  8
L1_120
  6
DASHED
 62
         2
100
AcDbLine
 10
1601.1517481279
 20
-202.9305038368
 30
7.9004187011
 11
1599.7152635259
 21
-199.2218105063
 31
9.2502726814
  0
LINE
  5
253
100
AcDbEntity
  8
L1_120
  6
DASHED
 62
         2
100
AcDbLine
 10
1597.3929776447
 20
-204.2160790562
 30
7.4325075873
 11
1595.9564930428
 21
-200.5073857256
 31
8.7823615677
  0
LINE
  5
254
100
AcDbEntity
  8
L1_120
  6
DASHED
 62
         2
100
AcDbLine
 10
1600.8228557106
 20
-203.0429916685
 30
7.8594764786
 11
1605.7728450739
 21
-215.8227962782
 31
3.208008001
  0
LINE
  5
255
100
AcDbEntity
  8
L1_120
  6
DASHED
 62
         2
100
AcDbLine
 10
1597.721870062
 20
-204.1035912245
 30
7.4734498098
 11
1602.6718594253
 21
-216.8833958342
 31
2.8219813321
  0
LINE
  5
256
100
AcDbEntity
  8
L1_120
  6
DASHED
 62
         2
100
AcDbLine
 10
1601.1517481279
 20
-202.9305038368
 30
7.9004187011
 11
1597.3929776447
 21
-204.2160790562
 31
7.4325075873
  0
LINE
  5
257
100
AcDbEntity
  8
L1_120
  6
DASHED
 62
         2
100
AcDbLine
 10
1613.7099369879
 20
-246.3429478078
 30
-7.9004187011
 11
1615.1464215898
 21
-250.0516411383
 31
-9.2502726814
  0
LINE
  5
258
100
AcDbEntity
  8
L1_120
  6
DASHED
 62
         2
100
AcDbLine
 10
1617.468707471
 20
-245.0573725884
 30
-7.4325075873
 11
1613.7099369879
 21
-246.3429478078
 31
-7.9004187011
  0
LINE
  5
259
100
AcDbEntity
  8
L1_120
  6
DASHED
 62
         2
100
AcDbLine
 10
1617.468707471
 20
-245.0573725884
 30
-7.4325075873
 11
1618.905192073
 21
-248.7660659189
 31
-8.7823615677
  0
LINE
  5
25A
100
AcDbEntity
  8
L1_120
  6
DASHED
 62
         2
100
AcDbLine
 10
1612.1898256905
 20
-232.3900558104
 30
-2.8219813321
 11
1617.1398150537
 21
-245.1698604201
 31
-7.4734498098
  0
LINE
  5
25B
100
AcDbEntity
  8
L1_120
  6
DASHED
 62
         2
100
AcDbLine
 10
1609.0888400419
 20
-233.4506553664
 30
-3.208008001
 11
1614.0388294051
 21
-246.2304599761
 31
-7.8594764786
  0
ARC
  5
25C
100
AcDbEntity
  8
L1_120
  6
CONTINUOUS
 62
         7
100
AcDbCircle
 10
1607.4308425579
 20
-211.0894736127
 30
76.830285162
 40
31.775
210
0.0
220
-0.3420201433256687
230
0.9396926207859084
100
AcDbArc
 50
195.411296411
 51
344.588703589
  0
ARC
  5
25D
100
AcDbEntity
  8
L1_120
  6
CONTINUOUS
 62
         7
100
AcDbCircle
 10
1607.4308425579
 20
-211.0894736127
 30
76.830285162
 40
31.775
210
0.0
220
-0.3420201433256687
230
0.9396926207859084
100
AcDbArc
 50
15.411296411
 51
164.588703589
  0
LINE
  5
25E
100
AcDbEntity
  8
L1_120
  6
CENTER
 62
         1
100
AcDbLine
 10
1607.4308425579
 20
-191.9589149345
 30
11.8937504841
 11
1607.4308425579
 21
-257.3145367101
 31
-11.8937504842
  0
ARC
  5
25F
100
AcDbEntity
  8
L1_120
  6
DASHED
 62
         2
100
AcDbCircle
 10
1607.4308425579
 20
-211.0894736127
 30
76.830285162
 40
28.125
210
0.0
220
-0.3420201433256687
230
0.9396926207859084
100
AcDbArc
 50
16.6319205355
 51
163.3680794645
  0
ARC
  5
260
100
AcDbEntity
  8
L1_120
  6
DASHED
 62
         2
100
AcDbCircle
 10
1607.4308425579
 20
-211.0894736127
 30
76.830285162
 40
28.125
210
0.0
220
-0.3420201433256687
230
0.9396926207859084
100
AcDbArc
 50
196.6319205355
 51
343.3680794645
  0
LINE
  5
261
100
AcDbEntity
  8
L1_120
  6
CONTINUOUS
 62
         7
100
AcDbLine
 10
1630.2308425579
 20
-217.5420465354
 30
2.5822520821
 11
1630.2308425579
 21
-231.7314051092
 31
-2.5822520821
  0
LINE
  5
262
100
AcDbEntity
  8
L1_120
  6
CONTINUOUS
 62
         7
100
AcDbLine
 10
1630.2308425579
 20
-217.5420465354
 30
2.5822520821
 11
1630.7308425579
 21
-217.072200225
 31
2.7532621538
  0
LINE
  5
263
100
AcDbEntity
  8
L1_120
  6
CONTINUOUS
 62
         7
100
AcDbLine
 10
1630.7308425579
 20
-217.072200225
 30
2.7532621538
 11
1637.6692245094
 21
-217.072200225
 31
2.7532621538
  0
LINE
  5
264
100
AcDbEntity
  8
L1_120
  6
CONTINUOUS
 62
         7
100
AcDbLine
 10
1638.0633097906
 20
-216.7018811943
 30
2.8880472581
 11
1637.6692245094
 21
-217.072200225
 31
2.7532621538
  0
LINE
  5
265
100
AcDbEntity
  8
L1_120
  6
CONTINUOUS
 62
         7
100
AcDbLine
 10
1630.7308425579
 20
-232.2012514196
 30
-2.7532621538
 11
1637.6692245094
 21
-232.2012514196
 31
-2.7532621538
  0
LINE
  5
266
100
AcDbEntity
  8
L1_120
  6
CONTINUOUS
 62
         7
100
AcDbLine
 10
1630.2308425579
 20
-231.7314051092
 30
-2.5822520821
 11
1630.7308425579
 21
-232.2012514196
 31
-2.7532621538
  0
LINE
  5
267
100
AcDbEntity
  8
L1_120
  6
CONTINUOUS
 62
         7
100
AcDbLine
 10
1638.0633097906
 20
-232.5715704503
 30
-2.8880472581
 11
1637.6692245094
 21
-232.2012514196
 31
-2.7532621538
  0
LINE
  5
268
100
AcDbEntity
  8
L1_120
  6
CONTINUOUS
 62
         7
100
AcDbLine
 10
1577.1924606063
 20
-217.072200225
 30
2.7532621538
 11
1581.9308425579
 21
-217.072200225
 31
2.7532621538
  0
LINE
  5
269
100
AcDbEntity
  8
L1_120
  6
CONTINUOUS
 62
         7
100
AcDbLine
 10
1582.4308425579
 20
-217.5420465354
 30
2.5822520821
 11
1582.4308425579
 21
-231.7314051092
 31
-2.5822520821
  0
LINE
  5
26A
100
AcDbEntity
  8
L1_120
  6
CONTINUOUS
 62
         7
100
AcDbLine
 10
1582.4308425579
 20
-217.5420465354
 30
2.5822520821
 11
1581.9308425579
 21
-217.072200225
 31
2.7532621538
  0
LINE
  5
26B
100
AcDbEntity
  8
L1_120
  6
CONTINUOUS
 62
         7
100
AcDbLine
 10
1576.7983753251
 20
-216.7018811943
 30
2.8880472581
 11
1577.1924606063
 21
-217.072200225
 31
2.7532621538
  0
LINE
  5
26C
100
AcDbEntity
  8
L1_120
  6
CONTINUOUS
 62
         7
100
AcDbLine
 10
1582.4308425579
 20
-231.7314051092
 30
-2.5822520821
 11
1581.9308425579
 21
-232.2012514196
 31
-2.7532621538
  0
LINE
  5
26D
100
AcDbEntity
  8
L1_120
  6
CONTINUOUS
 62
         7
100
AcDbLine
 10
1576.7983753251
 20
-232.5715704503
 30
-2.8880472581
 11
1577.1924606063
 21
-232.2012514196
 31
-2.7532621538
  0
LINE
  5
26E
100
AcDbEntity
  8
L1_120
  6
CONTINUOUS
 62
         7
100
AcDbLine
 10
1577.1924606063
 20
-232.2012514196
 30
-2.7532621538
 11
1581.9308425579
 21
-232.2012514196
 31
-2.7532621538
  0
LINE
  5
26F
100
AcDbEntity
  8
L1_120
  6
CENTER
 62
         1
100
AcDbLine
 10
1575.6558425579
 20
-224.6367258223
 30
0.0
 11
1639.2058425579
 21
-224.6367258223
 31
0.0
  0
LINE
  5
270
100
AcDbEntity
  8
L1_120
  6
CENTER
 62
         1
100
AcDbLine
 10
1574.0698934993
 20
-207.9681468288
 30
6.0668666011
 11
1607.4044130876
 21
-224.6235205111
 31
0.0048063402
  0
LINE
  5
271
100
AcDbEntity
  8
L1_120
  6
DASHED
 62
         2
100
AcDbLine
 10
1582.4308425579
 20
-229.5231274504
 30
-1.7785047453
 11
1582.6308425579
 21
-229.3351889262
 31
-1.7101007166
  0
LINE
  5
272
100
AcDbEntity
  8
L1_120
  6
DASHED
 62
         2
100
AcDbLine
 10
1582.4308425579
 20
-219.7503241942
 30
1.7785047453
 11
1582.6308425579
 21
-219.9382627184
 31
1.7101007166
  0
LINE
  5
273
100
AcDbEntity
  8
L1_120
  6
DASHED
 62
         2
100
AcDbLine
 10
1582.6308425579
 20
-219.9382627184
 30
1.7101007166
 11
1582.6308425579
 21
-229.3351889262
 31
-1.7101007166
  0
ARC
  5
274
100
AcDbEntity
  8
L1_120
  6
DASHED
 62
         2
100
AcDbCircle
 10
1586.8808425579
 20
-215.8894736127
 30
76.830285162
 40
0.2
210
0.0
220
-0.3420201433256687
230
0.9396926207859084
100
AcDbArc
 50
270.0
 51
360.0
  0
ARC
  5
275
100
AcDbEntity
  8
L1_120
  6
DASHED
 62
         2
100
AcDbCircle
 10
1586.8808425579
 20
-206.2894736127
 30
76.830285162
 40
0.2
210
0.0
220
-0.3420201433256687
230
0.9396926207859084
100
AcDbArc
 50
0.0
 51
90.0
  0
LINE
  5
276
100
AcDbEntity
  8
L1_120
  6
DASHED
 62
         2
100
AcDbLine
 10
1587.0808425579
 20
-220.1262012425
 30
1.641696688
 11
1587.0808425579
 21
-229.1472504021
 31
-1.641696688
  0
LINE
  5
277
100
AcDbEntity
  8
L1_120
  6
DASHED
 62
         2
100
AcDbLine
 10
1582.6308425579
 20
-219.9382627184
 30
1.7101007166
 11
1586.8808425579
 21
-219.9382627184
 31
1.7101007166
  0
LINE
  5
278
100
AcDbEntity
  8
L1_120
  6
DASHED
 62
         2
100
AcDbLine
 10
1582.6308425579
 20
-229.3351889262
 30
-1.7101007166
 11
1586.8808425579
 21
-229.3351889262
 31
-1.7101007166
  0
LINE
  5
279
100
AcDbEntity
  8
L1_120
  6
CENTER
 62
         1
100
AcDbLine
 10
1574.0698934993
 20
-241.3053048158
 30
-6.0668666011
 11
1607.4044130876
 21
-224.6499311335
 31
-0.0048063402
  0
LINE
  5
27A
100
AcDbEntity
  8
L1_120
  6
DASHED
 62
         2
100
AcDbLine
 10
1581.7218653445
 20
-235.3535119236
 30
-3.9005911479
 11
1588.585986658
 21
-231.9238988111
 31
-2.6523140599
  0
LINE
  5
27B
100
AcDbEntity
  8
L1_120
  6
DASHED
 62
         2
100
AcDbLine
 10
1583.5997515957
 20
-238.6723092738
 30
-5.1085345969
 11
1590.4638729092
 21
-235.2426961613
 31
-3.8602575089
  0
LINE
  5
27C
100
AcDbEntity
  8
L1_120
  6
DASHED
 62
         2
100
AcDbLine
 10
1588.585986658
 20
-231.9238988111
 30
-2.6523140599
 11
1590.4638729092
 21
-235.2426961613
 31
-3.8602575089
  0
LINE
  5
27D
100
AcDbEntity
  8
L1_120
  6
DASHED
 62
         2
100
AcDbLine
 10
1590.5444698444
 20
-233.0738909939
 30
-3.070876984
 11
1590.4638729092
 21
-235.2426961613
 31
-3.8602575089
  0
LINE
  5
27E
100
AcDbEntity
  8
L1_120
  6
DASHED
 62
         2
100
AcDbLine
 10
1588.585986658
 20
-231.9238988111
 30
-2.6523140599
 11
1590.5444698444
 21
-233.0738909939
 31
-3.070876984
  0
LINE
  5
27F
100
AcDbEntity
  8
L1_120
  6
DASHED
 62
         2
100
AcDbLine
 10
1581.7218653445
 20
-213.919939721
 30
3.9005911479
 11
1588.585986658
 21
-217.3495528335
 31
2.6523140599
  0
LINE
  5
280
100
AcDbEntity
  8
L1_120
  6
DASHED
 62
         2
100
AcDbLine
 10
1588.585986658
 20
-217.3495528335
 30
2.6523140599
 11
1590.4638729092
 21
-214.0307554833
 31
3.8602575089
  0
LINE
  5
281
100
AcDbEntity
  8
L1_120
  6
DASHED
 62
         2
100
AcDbLine
 10
1588.585986658
 20
-217.3495528335
 30
2.6523140599
 11
1590.5444698444
 21
-216.1995606507
 31
3.070876984
  0
LINE
  5
282
100
AcDbEntity
  8
L1_120
  6
DASHED
 62
         2
100
AcDbLine
 10
1590.5444698444
 20
-216.1995606507
 30
3.070876984
 11
1590.4638729092
 21
-214.0307554833
 31
3.8602575089
  0
LINE
  5
283
100
AcDbEntity
  8
L1_120
  6
DASHED
 62
         2
100
AcDbLine
 10
1583.5997515957
 20
-210.6011423708
 30
5.1085345969
 11
1590.4638729092
 21
-214.0307554833
 31
3.8602575089
  0
LINE
  5
284
100
AcDbEntity
  8
L1_120
  6
CONTINUOUS
 62
         7
100
AcDbLine
 10
1582.4308425579
 20
-219.7503241942
 30
1.7785047453
 11
1582.4308425579
 21
-229.5231274504
 31
-1.7785047453
  0
LINE
  5
285
100
AcDbEntity
  8
L1_120
  6
CONTINUOUS
 62
         7
100
AcDbLine
 10
1434.8394432897
 20
-344.7464703513
 30
-2.3941410033
 11
1434.8394432897
 21
-331.5907736603
 31
2.3941410033
  0
LINE
  5
286
100
AcDbEntity
  8
L1_120
  6
CONTINUOUS
 62
         7
100
AcDbLine
 10
1434.8394432897
 20
-331.5907736603
 30
2.3941410033
 11
1435.9508425579
 21
-333.3996819553
 31
1.7357522274
  0
LINE
  5
287
100
AcDbEntity
  8
L1_120
  6
CONTINUOUS
 62
         7
100
AcDbLine
 10
1434.8394432897
 20
-344.7464703513
 30
-2.3941410033
 11
1435.9508425579
 21
-342.9375620563
 31
-1.7357522274
  0
ARC
  5
288
100
AcDbEntity
  8
L1_120
  6
CONTINUOUS
 62
         7
100
AcDbCircle
 10
1421.2028425579
 20
-333.7745586802
 30
115.6604805667
 40
2.0
210
0.0
220
-0.3420201433256687
230
0.9396926207859084
100
AcDbArc
 50
90.0
 51
180.0
  0
LINE
  5
289
100
AcDbEntity
  8
L1_120
  6
CONTINUOUS
 62
         7
100
AcDbLine
 10
1419.2028425579
 20
-358.6398257496
 30
-7.4509088224
 11
1419.2028425579
 21
-353.2037039383
 31
-5.4723222932
  0
ARC
  5
28A
100
AcDbEntity
  8
L1_120
  6
CONTINUOUS
 62
         7
100
AcDbCircle
 10
1421.2028425579
 20
-301.7745586802
 30
115.6604805667
 40
2.0
210
0.0
220
-0.3420201433256687
230
0.9396926207859084
100
AcDbArc
 50
180.0
 51
270.0
  0
ARC
  5
28B
100
AcDbEntity
  8
L1_120
  6
CONTINUOUS
 62
         7
100
AcDbCircle
 10
1524.4508425579
 20
-327.078872922
 30
115.6604805667
 40
1.5
210
0.0
220
-0.3420201433256687
230
0.9396926207859084
100
AcDbArc
 50
0.0
 51
82.0
  0
LINE
  5
28C
100
AcDbEntity
  8
L1_120
  6
CONTINUOUS
 62
         7
100
AcDbLine
 10
1508.9067988093
 20
-343.4355991453
 30
-1.9170229033
 11
1524.6596022093
 21
-345.5159960451
 31
-2.6742254503
  0
LINE
  5
28D
100
AcDbEntity
  8
L1_120
  6
CONTINUOUS
 62
         4
100
AcDbLine
 10
1524.6596022093
 20
-345.5159960451
 30
-2.6742254503
 11
1524.6596022093
 21
-330.8212479664
 31
2.6742254503
  0
ARC
  5
28E
100
AcDbEntity
  8
L1_120
  6
CONTINUOUS
 62
         7
100
AcDbCircle
 10
1524.4508425579
 20
-308.4702444383
 30
115.6604805667
 40
1.5
210
0.0
220
-0.3420201433256687
230
0.9396926207859084
100
AcDbArc
 50
278.0
 51
360.0
  0
LINE
  5
28F
100
AcDbEntity
  8
L1_120
  6
CONTINUOUS
 62
         7
100
AcDbLine
 10
1508.9067988093
 20
-332.9016448663
 30
1.9170229033
 11
1524.6596022093
 21
-330.8212479664
 31
2.6742254503
  0
LINE
  5
290
100
AcDbEntity
  8
L1_120
  6
CONTINUOUS
 62
         7
100
AcDbLine
 10
1508.9067988093
 20
-332.9016448663
 30
1.9170229033
 11
1508.9067988093
 21
-343.4355991453
 31
-1.9170229033
  0
LINE
  5
291
100
AcDbEntity
  8
L1_120
  6
CONTINUOUS
 62
         7
100
AcDbLine
 10
1503.9508425579
 20
-332.9016448663
 30
1.9170229033
 11
1503.9508425579
 21
-343.4355991453
 31
-1.9170229033
  0
DIMENSION
  5
294
100
AcDbEntity
  8
L1_120
  6
CONTINUOUS
 62
         4
100
AcDbDimension
  2
*D6
 10
1445.9508425579
 20
-330.9856750994
 30
-120.4689337047
 11
1479.0986109856
 21
-350.2025984487
 31
0.0
210
0.0
220
-0.3420201433256687
230
0.9396926207859084
  3
DIMSTYLE1
100
AcDbAlignedDimension
 13
1445.9508425579
 23
-303.3088709692
 33
-110.3954008217
 14
1525.9508425579
 24
-308.0073340731
 34
-112.1055015383
100
AcDbRotatedDimension
  0
LINE
  5
2A0
100
AcDbEntity
  8
L1_120
  6
CONTINUOUS
 62
         7
100
AcDbLine
 10
1445.9508425579
 20
-332.9486294973
 30
1.8999218962
 11
1445.9508425579
 21
-343.3886145142
 31
-1.8999218962
  0
LINE
  5
2A1
100
AcDbEntity
  8
L1_120
  6
CONTINUOUS
 62
         7
100
AcDbLine
 10
1435.9508425579
 20
-333.3996819553
 30
1.7357522274
 11
1435.9508425579
 21
-342.9375620563
 31
-1.7357522274
  0
LINE
  5
2A2
100
AcDbEntity
  8
L1_120
  6
CONTINUOUS
 62
         7
100
AcDbLine
 10
1503.9508425579
 20
-333.3996819553
 30
1.7357522274
 11
1435.9508425579
 21
-333.3996819553
 31
1.7357522274
  0
LINE
  5
2A3
100
AcDbEntity
  8
L1_120
  6
CONTINUOUS
 62
         7
100
AcDbLine
 10
1503.9508425579
 20
-342.9375620563
 30
-1.7357522274
 11
1435.9508425579
 21
-342.9375620563
 31
-1.7357522274
  0
LINE
  5
2A4
100
AcDbEntity
  8
L1_120
  6
CONTINUOUS
 62
         4
100
AcDbLine
 10
1503.9508425579
 20
-332.9486294973
 30
1.8999218962
 11
1445.9508425579
 21
-332.9486294973
 31
1.8999218962
  0
LINE
  5
2A5
100
AcDbEntity
  8
L1_120
  6
CONTINUOUS
 62
         4
100
AcDbLine
 10
1503.9508425579
 20
-343.3886145142
 30
-1.8999218962
 11
1445.9508425579
 21
-343.3886145142
 31
-1.8999218962
  0
LINE
  5
2A6
100
AcDbEntity
  8
L1_120
  6
CONTINUOUS
 62
         7
100
AcDbLine
 10
1508.9067988093
 20
-332.9016448663
 30
1.9170229033
 11
1503.9508425579
 21
-332.9016448663
 31
1.9170229033
  0
LINE
  5
2A7
100
AcDbEntity
  8
L1_120
  6
CONTINUOUS
 62
         7
100
AcDbLine
 10
1508.9067988093
 20
-343.4355991453
 30
-1.9170229033
 11
1503.9508425579
 21
-343.4355991453
 31
-1.9170229033
  0
ARC
  5
2A8
100
AcDbEntity
  8
L1_120
  6
CONTINUOUS
 62
         7
100
AcDbCircle
 10
1524.4508425579
 20
-308.2745586802
 30
115.6604805667
 40
1.5
210
0.0
220
-0.3420201433256687
230
0.9396926207859084
100
AcDbArc
 50
0.0
 51
90.0
  0
ARC
  5
2A9
100
AcDbEntity
  8
L1_120
  6
CONTINUOUS
 62
         7
100
AcDbCircle
 10
1524.4508425579
 20
-327.2745586802
 30
115.6604805667
 40
1.5
210
0.0
220
-0.3420201433256687
230
0.9396926207859084
100
AcDbArc
 50
270.0
 51
360.0
  0
LINE
  5
2AA
100
AcDbEntity
  8
L1_120
  6
CONTINUOUS
 62
         7
100
AcDbLine
 10
1496.1508425579
 20
-351.3243186968
 30
-4.7882820066
 11
1504.1123410046
 21
-351.3243186968
 31
-4.7882820066
  0
LINE
  5
2AB
100
AcDbEntity
  8
L1_120
  6
CONTINUOUS
 62
         7
100
AcDbLine
 10
1496.1508425579
 20
-325.0129253148
 30
4.7882820066
 11
1504.1123410046
 21
-325.0129253148
 31
4.7882820066
  0
LINE
  5
2AC
100
AcDbEntity
  8
L1_120
  6
CONTINUOUS
 62
         7
100
AcDbLine
 10
1512.9508425579
 20
-347.5655482136
 30
-3.4202014333
 11
1512.9508425579
 21
-348.5052408344
 31
-3.7622215766
  0
LINE
  5
2AD
100
AcDbEntity
  8
L1_120
  6
CONTINUOUS
 62
         4
100
AcDbLine
 10
1525.7797599089
 20
-347.5655482136
 30
-3.4202014333
 11
1512.9508425579
 21
-347.5655482136
 31
-3.4202014333
  0
LINE
  5
2AE
100
AcDbEntity
  8
L1_120
  6
CONTINUOUS
 62
         7
100
AcDbLine
 10
1512.9508425579
 20
-327.8320031771
 30
3.7622215766
 11
1512.9508425579
 21
-328.7716957979
 31
3.4202014333
  0
LINE
  5
2AF
100
AcDbEntity
  8
L1_120
  6
CONTINUOUS
 62
         4
100
AcDbLine
 10
1525.8650561202
 20
-328.7716957979
 30
3.4202014333
 11
1512.9508425579
 21
-328.7716957979
 31
3.4202014333
  0
LINE
  5
2B0
100
AcDbEntity
  8
L1_120
  6
CONTINUOUS
 62
         7
100
AcDbLine
 10
1525.9508425579
 20
-329.2415421083
 30
3.2491913616
 11
1525.9508425579
 21
-347.0957019032
 31
-3.2491913616
  0
LINE
  5
2B1
100
AcDbEntity
  8
L1_120
  6
CONTINUOUS
 62
         7
100
AcDbLine
 10
1510.9508425579
 20
-327.8320031771
 30
3.7622215766
 11
1524.4508425579
 21
-327.8320031771
 31
3.7622215766
  0
LINE
  5
2B2
100
AcDbEntity
  8
L1_120
  6
CONTINUOUS
 62
         7
100
AcDbLine
 10
1510.9508425579
 20
-348.5052408344
 30
-3.7622215766
 11
1524.4508425579
 21
-348.5052408344
 31
-3.7622215766
  0
LINE
  5
2B3
100
AcDbEntity
  8
L1_120
  6
CONTINUOUS
 62
         7
100
AcDbLine
 10
1421.2028425579
 20
-325.0129253148
 30
4.7882820066
 11
1509.9508425579
 21
-325.0129253148
 31
4.7882820066
  0
LINE
  5
2B4
100
AcDbEntity
  8
L1_120
  6
CONTINUOUS
 62
         7
100
AcDbLine
 10
1509.9508425579
 20
-325.0129253148
 30
4.7882820066
 11
1510.4508425579
 21
-325.4827716252
 31
4.6172719349
  0
LINE
  5
2B5
100
AcDbEntity
  8
L1_120
  6
CONTINUOUS
 62
         7
100
AcDbLine
 10
1421.2028425579
 20
-351.3243186968
 30
-4.7882820066
 11
1509.9508425579
 21
-351.3243186968
 31
-4.7882820066
  0
LINE
  5
2B6
100
AcDbEntity
  8
L1_120
  6
CONTINUOUS
 62
         7
100
AcDbLine
 10
1510.4508425579
 20
-325.4827716252
 30
4.6172719349
 11
1510.4508425579
 21
-327.3621568667
 31
3.9332316482
  0
LINE
  5
2B7
100
AcDbEntity
  8
L1_120
  6
CONTINUOUS
 62
         7
100
AcDbLine
 10
1510.4508425579
 20
-350.8544723864
 30
-4.6172719349
 11
1509.9508425579
 21
-351.3243186968
 31
-4.7882820066
  0
LINE
  5
2B8
100
AcDbEntity
  8
L1_120
  6
CONTINUOUS
 62
         7
100
AcDbLine
 10
1510.4508425579
 20
-348.9750871448
 30
-3.9332316482
 11
1510.4508425579
 21
-350.8544723864
 31
-4.6172719349
  0
ARC
  5
2B9
100
AcDbEntity
  8
L1_120
  6
CONTINUOUS
 62
         7
100
AcDbCircle
 10
1510.9508425579
 20
-329.2745586802
 30
115.6604805667
 40
0.5
210
0.0
220
-0.3420201433256687
230
0.9396926207859084
100
AcDbArc
 50
90.0
 51
180.0
  0
ARC
  5
2BA
100
AcDbEntity
  8
L1_120
  6
CONTINUOUS
 62
         7
100
AcDbCircle
 10
1510.9508425579
 20
-306.2745586802
 30
115.6604805667
 40
0.5
210
0.0
220
-0.3420201433256687
230
0.9396926207859084
100
AcDbArc
 50
180.0
 51
270.0
  0
LINE
  5
2BB
100
AcDbEntity
  8
L1_120
  6
CENTER
 62
         6
100
AcDbLine
 10
1524.9508425579
 20
-326.8923105563
 30
4.1042417199
 11
1512.9508425579
 21
-326.8923105563
 31
4.1042417199
  0
ARC
  5
2BC
100
AcDbEntity
  8
L1_120
  6
CENTER
 62
         6
100
AcDbCircle
 10
1524.9508425579
 20
-307.7745586802
 30
115.6604805667
 40
2.0
210
0.0
220
-0.3420201433256687
230
0.9396926207859084
100
AcDbArc
 50
0.0
 51
90.0
  0
LINE
  5
2BD
100
AcDbEntity
  8
L1_120
  6
CENTER
 62
         6
100
AcDbLine
 10
1526.9508425579
 20
-328.7716957979
 30
3.4202014333
 11
1526.9508425579
 21
-330.5186548852
 31
2.784360325
  0
LINE
  5
2BE
100
AcDbEntity
  8
L1_120
  6
CENTER
 62
         6
100
AcDbLine
 10
1524.9508425579
 20
-349.4449334552
 30
-4.1042417199
 11
1512.9508425579
 21
-349.4449334552
 31
-4.1042417199
  0
ARC
  5
2BF
100
AcDbEntity
  8
L1_120
  6
CENTER
 62
         6
100
AcDbCircle
 10
1524.9508425579
 20
-327.7745586802
 30
115.6604805667
 40
2.0
210
0.0
220
-0.3420201433256687
230
0.9396926207859084
100
AcDbArc
 50
270.0
 51
360.0
  0
LINE
  5
2C0
100
AcDbEntity
  8
L1_120
  6
CENTER
 62
         6
100
AcDbLine
 10
1526.9508425579
 20
-347.5655482136
 30
-3.4202014333
 11
1526.9508425579
 21
-345.8185891263
 31
-2.784360325
  0
LINE
  5
2C1
100
AcDbEntity
  8
L1_120
  6
CONTINUOUS
 62
         7
100
AcDbLine
 10
1419.2028425579
 20
-317.6974182619
 30
7.4509088223
 11
1419.2028425579
 21
-323.1335400732
 31
5.4723222932
  0
LINE
  5
2C2
100
AcDbEntity
  8
L1_120
  6
CONTINUOUS
 62
         7
100
AcDbLine
 10
1418.7028425579
 20
-317.2275719516
 30
7.621918894
 11
1419.2028425579
 21
-317.6974182619
 31
7.4509088223
  0
LINE
  5
2C3
100
AcDbEntity
  8
L1_120
  6
CONTINUOUS
 62
         7
100
AcDbLine
 10
1419.2028425579
 20
-358.6398257496
 30
-7.4509088224
 11
1418.7028425579
 21
-359.10967206
 31
-7.621918894
  0
LINE
  5
2C4
100
AcDbEntity
  8
L1_120
  6
CONTINUOUS
 62
         7
100
AcDbLine
 10
1403.7508425579
 20
-317.2275719516
 30
7.621918894
 11
1418.7028425579
 21
-317.2275719516
 31
7.621918894
  0
LINE
  5
2C5
100
AcDbEntity
  8
L1_120
  6
CONTINUOUS
 62
         7
100
AcDbLine
 10
1403.7508425579
 20
-359.10967206
 30
-7.621918894
 11
1418.7028425579
 21
-359.10967206
 31
-7.621918894
  0
ARC
  5
2C6
100
AcDbEntity
  8
L1_120
  6
CONTINUOUS
 62
         7
100
AcDbCircle
 10
1403.7508425579
 20
-340.5595586802
 30
115.6604805667
 40
0.5
210
0.0
220
-0.3420201433256687
230
0.9396926207859084
100
AcDbArc
 50
90.0
 51
180.0
  0
ARC
  5
2C7
100
AcDbEntity
  8
L1_120
  6
CONTINUOUS
 62
         7
100
AcDbCircle
 10
1403.7508425579
 20
-294.9895586802
 30
115.6604805667
 40
0.5
210
0.0
220
-0.3420201433256687
230
0.9396926207859084
100
AcDbArc
 50
180.0
 51
270.0
  0
LINE
  5
2C8
100
AcDbEntity
  8
L1_120
  6
CONTINUOUS
 62
         7
100
AcDbLine
 10
1387.2643965506
 20
-312.2816353606
 30
9.4220925937
 11
1416.6104899055
 21
-331.5907736603
 31
2.3941410033
  0
LINE
  5
2C9
100
AcDbEntity
  8
L1_120
  6
CONTINUOUS
 62
         7
100
AcDbLine
 10
1385.3715943106
 20
-314.821814094
 30
8.497543145
 11
1410.8571154799
 21
-331.5907736603
 31
2.3941410033
  0
LINE
  5
2CA
100
AcDbEntity
  8
L1_120
  6
CENTER
 62
         1
100
AcDbLine
 10
1384.4602119025
 20
-312.3293405878
 30
9.404729311
 11
1413.7338026927
 21
-331.5907736603
 31
2.3941410033
  0
LINE
  5
2CB
100
AcDbEntity
  8
L1_120
  6
CONTINUOUS
 62
         7
100
AcDbLine
 10
1385.1708425579
 20
-310.4452578555
 30
10.0904793444
 11
1387.4938271251
 21
-311.9737349081
 31
9.5341591935
  0
LINE
  5
2CC
100
AcDbEntity
  8
L1_120
  6
CONTINUOUS
 62
         4
100
AcDbLine
 10
1387.4651483033
 20
-312.0122224647
 30
9.5201508685
 11
1391.5609085247
 21
-314.7071501882
 31
8.5392773937
  0
LINE
  5
2CD
100
AcDbEntity
  8
L1_120
  6
CONTINUOUS
 62
         7
100
AcDbLine
 10
1389.2666027793
 20
-317.7861547134
 30
7.4186113953
 11
1391.5609085247
 21
-314.7071501882
 31
8.5392773937
  0
LINE
  5
2CE
100
AcDbEntity
  8
L1_120
  6
CONTINUOUS
 62
         4
100
AcDbLine
 10
1385.1708425579
 20
-315.09122699
 30
8.3994848702
 11
1389.2666027793
 21
-317.7861547134
 31
7.4186113953
  0
LINE
  5
2CF
100
AcDbEntity
  8
L1_120
  6
CONTINUOUS
 62
         7
100
AcDbLine
 10
1385.1708425579
 20
-315.09122699
 30
8.3994848702
 11
1387.4938271251
 21
-311.9737349081
 31
9.5341591935
  0
LINE
  5
2D0
100
AcDbEntity
  8
L1_120
  6
CONTINUOUS
 62
         7
100
AcDbLine
 10
1398.7871129567
 20
-308.3098889801
 30
10.8676900542
 11
1402.2508425579
 21
-308.3098889801
 31
10.8676900542
  0
LINE
  5
2D1
100
AcDbEntity
  8
L1_120
  6
CONTINUOUS
 62
         7
100
AcDbLine
 10
1397.1258425579
 20
-311.0137649774
 30
9.8835596741
 11
1398.7871129567
 21
-308.3098889801
 31
10.8676900542
  0
ARC
  5
2D2
100
AcDbEntity
  8
L1_120
  6
CONTINUOUS
 62
         7
100
AcDbCircle
 10
1396.1520422261
 20
-288.64955868
 30
115.6604805667
 40
1.0
210
0.0
220
-0.3420201433256687
230
0.9396926207859084
100
AcDbArc
 50
270.0
 51
346.8556743105
  0
LINE
  5
2D3
100
AcDbEntity
  8
L1_120
  6
CONTINUOUS
 62
         7
100
AcDbLine
 10
1394.3496428896
 20
-311.739767046
 30
9.6193165311
 11
1396.1520422261
 21
-311.739767046
 31
9.6193165311
  0
ARC
  5
2D4
100
AcDbEntity
  8
L1_120
  6
CONTINUOUS
 62
         7
100
AcDbCircle
 10
1394.3496428896
 20
-288.64955868
 30
115.6604805667
 40
1.0
210
0.0
220
-0.3420201433256687
230
0.9396926207859084
100
AcDbArc
 50
193.1443256895
 51
270.0
  0
LINE
  5
2D5
100
AcDbEntity
  8
L1_120
  6
CONTINUOUS
 62
         7
100
AcDbLine
 10
1393.3758425579
 20
-311.0137649775
 30
9.883559674
 11
1391.7145721591
 21
-308.3098889803
 31
10.8676900542
  0
LINE
  5
2D6
100
AcDbEntity
  8
L1_120
  6
CONTINUOUS
 62
         7
100
AcDbLine
 10
1386.1708425579
 20
-308.3098889801
 30
10.8676900542
 11
1391.7145721591
 21
-308.3098889801
 31
10.8676900542
  0
LINE
  5
2D7
100
AcDbEntity
  8
L1_120
  6
CONTINUOUS
 62
         7
100
AcDbLine
 10
1385.1708425579
 20
-316.7436302518
 30
7.7980592678
 11
1385.1708425579
 21
-309.2495816009
 31
10.5256699109
  0
LINE
  5
2D8
100
AcDbEntity
  8
L1_120
  6
CONTINUOUS
 62
         7
100
AcDbLine
 10
1386.1708425579
 20
-368.0273550314
 30
-10.8676900542
 11
1391.7145721591
 21
-368.0273550314
 31
-10.8676900542
  0
LINE
  5
2D9
100
AcDbEntity
  8
L1_120
  6
CONTINUOUS
 62
         7
100
AcDbLine
 10
1385.1708425579
 20
-359.5936137599
 30
-7.7980592679
 11
1385.1708425579
 21
-367.0876624106
 31
-10.5256699109
  0
LINE
  5
2DA
100
AcDbEntity
  8
L1_120
  6
CONTINUOUS
 62
         7
100
AcDbLine
 10
1393.3758425579
 20
-365.323479034
 30
-9.883559674
 11
1391.7145721591
 21
-368.0273550312
 31
-10.8676900542
  0
ARC
  5
2DB
100
AcDbEntity
  8
L1_120
  6
CONTINUOUS
 62
         7
100
AcDbCircle
 10
1394.3496428896
 20
-346.8995586802
 30
115.6604805667
 40
1.0
210
0.0
220
-0.3420201433256687
230
0.9396926207859084
100
AcDbArc
 50
90.0
 51
166.8556743105
  0
LINE
  5
2DC
100
AcDbEntity
  8
L1_120
  6
CONTINUOUS
 62
         7
100
AcDbLine
 10
1394.3496428896
 20
-364.5974769654
 30
-9.619316531
 11
1396.1520422261
 21
-364.5974769654
 31
-9.619316531
  0
ARC
  5
2DD
100
AcDbEntity
  8
L1_120
  6
CONTINUOUS
 62
         7
100
AcDbCircle
 10
1396.1520422261
 20
-346.8995586803
 30
115.6604805667
 40
1.0
210
0.0
220
-0.3420201433256687
230
0.9396926207859084
100
AcDbArc
 50
13.1443256895
 51
90.0
  0
LINE
  5
2DE
100
AcDbEntity
  8
L1_120
  6
CONTINUOUS
 62
         7
100
AcDbLine
 10
1397.1258425579
 20
-365.323479034
 30
-9.883559674
 11
1398.7871129567
 21
-368.0273550312
 31
-10.8676900542
  0
LINE
  5
2DF
100
AcDbEntity
  8
L1_120
  6
CONTINUOUS
 62
         7
100
AcDbLine
 10
1398.7871129567
 20
-368.0273550314
 30
-10.8676900542
 11
1402.2508425579
 21
-368.0273550314
 31
-10.8676900542
  0
LINE
  5
2E0
100
AcDbEntity
  8
L1_120
  6
CONTINUOUS
 62
         7
100
AcDbLine
 10
1403.2508425579
 20
-359.5795183704
 30
-7.7929289657
 11
1403.2508425579
 21
-367.5575087208
 31
-10.6966799825
  0
LINE
  5
2E1
100
AcDbEntity
  8
L1_120
  6
CONTINUOUS
 62
         7
100
AcDbLine
 10
1385.1708425579
 20
-366.1479697897
 30
-10.1836497675
 11
1385.1708425579
 21
-367.5575087208
 31
-10.6966799825
  0
LINE
  5
2E2
100
AcDbEntity
  8
L1_120
  6
CONTINUOUS
 62
         7
100
AcDbLine
 10
1403.2508425579
 20
-308.7797352907
 30
10.6966799825
 11
1403.2508425579
 21
-316.7577256412
 31
7.7929289657
  0
LINE
  5
2E3
100
AcDbEntity
  8
L1_120
  6
CONTINUOUS
 62
         7
100
AcDbLine
 10
1401.2508425579
 20
-368.0273550312
 30
-10.8676900542
 11
1402.7508425579
 21
-368.0273550312
 31
-10.8676900542
  0
LINE
  5
2E4
100
AcDbEntity
  8
L1_120
  6
CONTINUOUS
 62
         7
100
AcDbLine
 10
1385.6708425579
 20
-368.0273550312
 30
-10.8676900542
 11
1387.1708425579
 21
-368.0273550312
 31
-10.8676900542
  0
LINE
  5
2E5
100
AcDbEntity
  8
L1_120
  6
CONTINUOUS
 62
         7
100
AcDbLine
 10
1401.2508425579
 20
-308.3098889803
 30
10.8676900542
 11
1402.7508425579
 21
-308.3098889803
 31
10.8676900542
  0
LINE
  5
2E6
100
AcDbEntity
  8
L1_120
  6
CONTINUOUS
 62
         7
100
AcDbLine
 10
1385.1708425579
 20
-308.7797352907
 30
10.6966799825
 11
1385.1708425579
 21
-310.1892742219
 31
10.1836497675
  0
LINE
  5
2E7
100
AcDbEntity
  8
L1_120
  6
CONTINUOUS
 62
         7
100
AcDbLine
 10
1385.6708425579
 20
-308.3098889803
 30
10.8676900542
 11
1387.1708425579
 21
-308.3098889803
 31
10.8676900542
  0
LINE
  5
2E8
100
AcDbEntity
  8
L1_120
  6
CONTINUOUS
 62
         7
100
AcDbLine
 10
1403.2508425579
 20
-367.5575087208
 30
-10.6966799825
 11
1402.7508425579
 21
-368.0273550312
 31
-10.8676900542
  0
LINE
  5
2E9
100
AcDbEntity
  8
L1_120
  6
CONTINUOUS
 62
         7
100
AcDbLine
 10
1385.1708425579
 20
-367.5575087208
 30
-10.6966799825
 11
1385.6708425579
 21
-368.0273550312
 31
-10.8676900542
  0
LINE
  5
2EA
100
AcDbEntity
  8
L1_120
  6
CONTINUOUS
 62
         7
100
AcDbLine
 10
1385.1708425579
 20
-308.7797352907
 30
10.6966799825
 11
1385.6708425579
 21
-308.3098889803
 31
10.8676900542
  0
LINE
  5
2EB
100
AcDbEntity
  8
L1_120
  6
CONTINUOUS
 62
         7
100
AcDbLine
 10
1402.7508425579
 20
-308.3098889803
 30
10.8676900542
 11
1403.2508425579
 21
-308.7797352907
 31
10.6966799825
  0
ARC
  5
2EC
100
AcDbEntity
  8
L1_120
  6
CONTINUOUS
 62
         7
100
AcDbCircle
 10
1384.4088425579
 20
-294.7625586802
 30
115.6604805667
 40
0.762
210
0.0
220
-0.3420201433256687
230
0.9396926207859084
100
AcDbArc
 50
270.0000000001
 51
359.9999999999
  0
LINE
  5
2ED
100
AcDbEntity
  8
L1_120
  6
CONTINUOUS
 62
         7
100
AcDbLine
 10
1384.3222711293
 20
-317.2604611933
 30
7.609948189
 11
1384.4088425579
 21
-317.2604611933
 31
7.609948189
  0
ARC
  5
2EE
100
AcDbEntity
  8
L1_120
  6
CONTINUOUS
 62
         7
100
AcDbCircle
 10
1384.4088425579
 20
-340.7865586802
 30
115.6604805667
 40
0.762
210
0.0
220
-0.3420201433256687
230
0.9396926207859084
100
AcDbArc
 50
0.0000000001
 51
89.9999999999
  0
LINE
  5
2EF
100
AcDbEntity
  8
L1_120
  6
CONTINUOUS
 62
         7
100
AcDbLine
 10
1384.3222711293
 20
-359.0767828183
 30
-7.609948189
 11
1384.4088425579
 21
-359.0767828183
 31
-7.609948189
  0
INSERT
  5
36A
100
AcDbEntity
  8
0
  6
CONTINUOUS
100
AcDbBlockReference
  2
*X7
 10
0.0
 20
0.0
 30
0.0
  0
DIMENSION
  5
36D
100
AcDbEntity
  8
L1_120
  6
CONTINUOUS
 62
         4
100
AcDbDimension
  2
*D8
 10
1315.9008425579
 20
-133.1198339692
 30
-48.4516571553
 11
1410.809771259
 21
-139.6381683857
 31
0.0
210
0.0
220
-0.3420201433256687
230
0.9396926207859084
  3
DIMSTYLE1
100
AcDbAlignedDimension
 13
1315.9008425579
 23
-187.4842202385
 33
-68.2386755614
 14
1525.9508425579
 24
-189.1138180006
 34
-68.8318006406
100
AcDbRotatedDimension
  0
DIMENSION
  5
37B
100
AcDbEntity
  8
L1_120
  6
CONTINUOUS
 62
         4
100
AcDbDimension
  2
*D9
 10
1384.1508425579
 20
-150.2053928066
 30
-54.6702920079
 11
1453.8481317186
 21
-157.8202403308
 31
0.0
210
0.0
220
-0.3420201433256687
230
0.9396926207859084
  3
DIMSTYLE1
100
AcDbAlignedDimension
 13
1384.1508425579
 23
-177.1562294011
 33
-64.4795943168
 14
1525.9508425579
 24
-189.1138180006
 34
-68.8318006406
100
AcDbRotatedDimension
  0
DIMENSION
  5
389
100
AcDbEntity
  8
L1_120
  6
CONTINUOUS
 62
         4
100
AcDbDimension
  2
*D10
 10
1609.0439366311
 20
-291.7840973853
 30
-106.2007262805
 11
1607.0189366311
 21
-321.5540281497
 31
0.0
210
0.0
220
-0.3420201433256687
230
0.9396926207859084
  3
DIMSTYLE1
100
AcDbAlignedDimension
 13
1593.5641326977
 23
-291.7840973853
 33
-106.2007262805
 14
1593.5641326977
 24
-302.2240824022
 34
-110.0005700728
 50
90.0
100
AcDbRotatedDimension
  0
DIMENSION
  5
398
100
AcDbEntity
  8
L1_120
  6
CONTINUOUS
 62
         4
100
AcDbDimension
  2
*D11
 10
1584.0391326977
 20
-286.0346808214
 30
-104.1081097868
 11
1587.8633661842
 21
-302.3667494873
 31
0.0
210
0.0
220
-0.3420201433256687
230
0.9396926207859084
  3
DIMSTYLE1
100
AcDbAlignedDimension
 13
1584.0391326977
 23
-293.6399903113
 33
-106.8762160635
 14
1597.0391326977
 24
-293.6399903113
 34
-106.8762160635
100
AcDbRotatedDimension
  0
LINE
  5
3A4
100
AcDbEntity
  8
L1_120
  6
CENTER
 62
         1
100
AcDbLine
 10
1574.3842497215
 20
-297.0040898937
 30
-108.1006481766
 11
1558.6996163306
 21
-297.0040898937
 31
-108.1006481766
  0
LINE
  5
3A5
100
AcDbEntity
  8
L1_120
  6
CENTER
 62
         1
100
AcDbLine
 10
1566.6431470208
 20
-304.7797459234
 30
-110.9307555233
 11
1566.6431470208
 21
-289.2594121223
 31
-105.2818159939
  0
LINE
  5
3A6
100
AcDbEntity
  8
L1_120
  6
CENTER
 62
         1
100
AcDbLine
 10
1582.7371758624
 20
-297.0040898937
 30
-108.1006481766
 11
1598.2367046099
 21
-297.0040898937
 31
-108.1006481766
  0
LINE
  5
3A7
100
AcDbEntity
  8
L1_120
  6
CONTINUOUS
 62
         7
100
AcDbLine
 10
1584.0391326977
 20
-300.3681894761
 30
-109.3250802897
 11
1584.0391326977
 21
-293.6399903113
 31
-106.8762160635
  0
LINE
  5
3A8
100
AcDbEntity
  8
L1_120
  6
CONTINUOUS
 62
         7
100
AcDbLine
 10
1586.0391326977
 20
-300.8380357865
 30
-109.4960903614
 11
1586.0391326977
 21
-293.1701440009
 31
-106.7052059919
  0
LINE
  5
3A9
100
AcDbEntity
  8
L1_120
  6
CONTINUOUS
 62
         7
100
AcDbLine
 10
1597.0391326977
 20
-300.3681894761
 30
-109.3250802897
 11
1597.0391326977
 21
-293.6399903113
 31
-106.8762160635
  0
LINE
  5
3AA
100
AcDbEntity
  8
L1_120
  6
CONTINUOUS
 62
         7
100
AcDbLine
 10
1595.0391326977
 20
-300.8380357865
 30
-109.4960903614
 11
1595.0391326977
 21
-293.1701440009
 31
-106.7052059919
  0
LINE
  5
3AB
100
AcDbEntity
  8
L1_120
  6
CONTINUOUS
 62
         7
100
AcDbLine
 10
1584.5391326977
 20
-293.1701440009
 30
-106.7052059919
 11
1586.0391326977
 21
-293.1701440009
 31
-106.7052059919
  0
LINE
  5
3AC
100
AcDbEntity
  8
L1_120
  6
CONTINUOUS
 62
         7
100
AcDbLine
 10
1587.5141326977
 20
-291.7840973853
 30
-106.2007262805
 11
1593.5641326977
 21
-291.7840973853
 31
-106.2007262805
  0
LINE
  5
3AD
100
AcDbEntity
  8
L1_120
  6
CONTINUOUS
 62
         7
100
AcDbLine
 10
1595.0391326977
 20
-293.1701440009
 30
-106.7052059919
 11
1596.5391326977
 21
-293.1701440009
 31
-106.7052059919
  0
LINE
  5
3AE
100
AcDbEntity
  8
L1_120
  6
CONTINUOUS
 62
         7
100
AcDbLine
 10
1593.5641326977
 20
-291.7840973853
 30
-106.2007262805
 11
1595.0391326977
 21
-293.1701440009
 31
-106.7052059919
  0
LINE
  5
3AF
100
AcDbEntity
  8
L1_120
  6
CONTINUOUS
 62
         7
100
AcDbLine
 10
1587.5141326977
 20
-291.7840973853
 30
-106.2007262805
 11
1586.0391326977
 21
-293.1701440009
 31
-106.7052059919
  0
LINE
  5
3B0
100
AcDbEntity
  8
L1_120
  6
CONTINUOUS
 62
         7
100
AcDbLine
 10
1596.5391326977
 20
-293.1701440009
 30
-106.7052059919
 11
1597.0391326977
 21
-293.6399903113
 31
-106.8762160635
  0
LINE
  5
3B1
100
AcDbEntity
  8
L1_120
  6
CONTINUOUS
 62
         7
100
AcDbLine
 10
1584.5391326977
 20
-293.1701440009
 30
-106.7052059919
 11
1584.0391326977
 21
-293.6399903113
 31
-106.8762160635
  0
LINE
  5
3B2
100
AcDbEntity
  8
L1_120
  6
CONTINUOUS
 62
         7
100
AcDbLine
 10
1584.5391326977
 20
-300.8380357865
 30
-109.4960903614
 11
1584.5391326977
 21
-293.1701440009
 31
-106.7052059919
  0
LINE
  5
3B3
100
AcDbEntity
  8
L1_120
  6
CONTINUOUS
 62
         7
100
AcDbLine
 10
1596.5391326977
 20
-300.8380357865
 30
-109.4960903614
 11
1596.5391326977
 21
-293.1701440009
 31
-106.7052059919
  0
LINE
  5
3B4
100
AcDbEntity
  8
L1_120
  6
CONTINUOUS
 62
         7
100
AcDbLine
 10
1587.5141326977
 20
-302.2240824022
 30
-110.0005700728
 11
1593.5641326977
 21
-302.2240824022
 31
-110.0005700728
  0
LINE
  5
3B5
100
AcDbEntity
  8
L1_120
  6
CONTINUOUS
 62
         7
100
AcDbLine
 10
1587.5141326977
 20
-302.2240824022
 30
-110.0005700728
 11
1586.0391326977
 21
-300.8380357865
 31
-109.4960903614
  0
LINE
  5
3B6
100
AcDbEntity
  8
L1_120
  6
CONTINUOUS
 62
         7
100
AcDbLine
 10
1593.5641326977
 20
-302.2240824022
 30
-110.0005700728
 11
1595.0391326977
 21
-300.8380357865
 31
-109.4960903614
  0
LINE
  5
3B7
100
AcDbEntity
  8
L1_120
  6
CONTINUOUS
 62
         7
100
AcDbLine
 10
1595.0391326977
 20
-300.8380357865
 30
-109.4960903614
 11
1596.5391326977
 21
-300.8380357865
 31
-109.4960903614
  0
LINE
  5
3B8
100
AcDbEntity
  8
L1_120
  6
CONTINUOUS
 62
         7
100
AcDbLine
 10
1596.5391326977
 20
-300.8380357865
 30
-109.4960903614
 11
1597.0391326977
 21
-300.3681894761
 31
-109.3250802897
  0
LINE
  5
3B9
100
AcDbEntity
  8
L1_120
  6
CONTINUOUS
 62
         7
100
AcDbLine
 10
1584.5391326977
 20
-300.8380357865
 30
-109.4960903614
 11
1586.0391326977
 21
-300.8380357865
 31
-109.4960903614
  0
LINE
  5
3BA
100
AcDbEntity
  8
L1_120
  6
CONTINUOUS
 62
         7
100
AcDbLine
 10
1584.5391326977
 20
-300.8380357865
 30
-109.4960903614
 11
1584.0391326977
 21
-300.3681894761
 31
-109.3250802897
  0
CIRCLE
  5
3BB
100
AcDbEntity
  8
L1_120
  6
CONTINUOUS
 62
         7
100
AcDbCircle
 10
1566.6431470208
 20
-316.0651507993
 30
0.0
 40
4.08
210
0.0
220
-0.3420201433256687
230
0.9396926207859084
  0
CIRCLE
  5
3BC
100
AcDbEntity
  8
L1_120
  6
CONTINUOUS
 62
         7
100
AcDbCircle
 10
1566.6431470208
 20
-316.0651507993
 30
0.0
 40
5.555
210
0.0
220
-0.3420201433256687
230
0.9396926207859084
  0
LINE
  5
3BD
100
AcDbEntity
  8
L1_120
  6
CONTINUOUS
 62
         4
100
AcDbLine
 10
1586.7241326977
 20
-292.5264545557
 30
-106.4709221937
 11
1594.3541326977
 21
-292.5264545557
 31
-106.4709221937
  0
LINE
  5
3BE
100
AcDbEntity
  8
L1_120
  6
CONTINUOUS
 62
         4
100
AcDbLine
 10
1586.7241326977
 20
-301.4817252318
 30
-109.7303741596
 11
1594.3541326977
 21
-301.4817252318
 31
-109.7303741596
  0
CIRCLE
  5
3BF
100
AcDbEntity
  8
L1_120
  6
CONTINUOUS
 62
         7
100
AcDbCircle
 10
1566.6431470208
 20
-316.0651507993
 30
0.0
 40
1.5
210
0.0
220
-0.3420201433256687
230
0.9396926207859084
  0
LINE
  5
3C0
100
AcDbEntity
  8
L1_120
  6
DASHED
 62
         2
100
AcDbLine
 10
1597.0391326977
 20
-295.5945509625
 30
-107.5876179617
 11
1584.0391326977
 21
-295.5945509625
 31
-107.5876179617
  0
LINE
  5
3C1
100
AcDbEntity
  8
L1_120
  6
DASHED
 62
         2
100
AcDbLine
 10
1597.0391326977
 20
-298.4136288249
 30
-108.6136783916
 11
1584.0391326977
 21
-298.4136288249
 31
-108.6136783916
  0
LINE
  5
3C2
100
AcDbEntity
  8
L1_120
  6
CONTINUOUS
 62
         7
100
AcDbLine
 10
1567.6431470208
 20
-300.7210939141
 30
-109.4535270007
 11
1567.6431470208
 21
-298.0546981827
 31
-108.4830383217
  0
LINE
  5
3C3
100
AcDbEntity
  8
L1_120
  6
CONTINUOUS
 62
         7
100
AcDbLine
 10
1565.6431470208
 20
-300.7210939141
 30
-109.4535270007
 11
1565.6431470208
 21
-298.0546981827
 31
-108.4830383217
  0
LINE
  5
3C4
100
AcDbEntity
  8
L1_120
  6
CONTINUOUS
 62
         7
100
AcDbLine
 10
1565.6431470208
 20
-295.9534816047
 30
-107.7182580316
 11
1565.6431470208
 21
-293.2870858734
 31
-106.7477693526
  0
LINE
  5
3C5
100
AcDbEntity
  8
L1_120
  6
CONTINUOUS
 62
         7
100
AcDbLine
 10
1567.6431470208
 20
-295.9534816047
 30
-107.7182580316
 11
1567.6431470208
 21
-293.2870858734
 31
-106.7477693526
  0
DIMENSION
  5
3C8
100
AcDbEntity
  8
L1_120
  6
CONTINUOUS
 62
         4
100
AcDbDimension
  2
*D12
 10
1565.6431470208
 20
-290.2686871969
 30
-105.6491620792
 11
1565.2931470208
 21
-306.8724849607
 31
0.0
210
0.0
220
-0.3420201433256687
230
0.9396926207859084
  3
DIMSTYLE1
100
AcDbAlignedDimension
 13
1565.6431470208
 23
-293.2870858734
 33
-106.7477693526
 14
1567.6431470208
 24
-293.2870858734
 34
-106.7477693526
100
AcDbRotatedDimension
  0
DIMENSION
  5
3D8
100
AcDbEntity
  8
L1_120
  6
CONTINUOUS
 62
         4
100
AcDbDimension
  2
*D13
 10
1581.103837595
 20
-295.5945509625
 30
-107.5876179616
 11
1579.078837595
 21
-320.1550670445
 31
0.0
210
0.0
220
-0.3420201433256687
230
0.9396926207859084
  3
DIMSTYLE1
100
AcDbAlignedDimension
 13
1584.0391326977
 23
-295.5945509625
 33
-107.5876179616
 14
1584.0391326977
 24
-298.4136288249
 34
-108.6136783916
 50
90.0
100
AcDbRotatedDimension
  0
ENDSEC
  0
SECTION
  2
OBJECTS
  0
DICTIONARY
  5
19
100
AcDbDictionary
  3
ACAD_GROUP
350
1A
  3
ACAD_MLINESTYLE
350
1B
  0
DICTIONARY
  5
1A
102
{ACAD_REACTORS
330
19
102
}
100
AcDbDictionary
  0
DICTIONARY
  5
1B
102
{ACAD_REACTORS
330
19
102
}
100
AcDbDictionary
  3
STANDARD
350
1C
  0
MLINESTYLE
  5
1C
102
{ACAD_REACTORS
330
1B
102
}
100
AcDbMlineStyle
  2
STANDARD
 70
         0
  3

 62
         0
 51
90.0
 52
90.0
 71
         2
 49
0.5
 62
       256
  6
BYLAYER
 49
-0.5
 62
       256
  6
BYLAYER
  0
ENDSEC
  0
EOF
