  0
SECTION
  2
HEADER
  9
$ACADVER
  1
AC1014
  9
$ACADMAINTVER
 70
         0
  9
$DWGCODEPAGE
  3
BIG5
  9
$INSBASE
 10
0.0
 20
0.0
 30
0.0
  9
$EXTMIN
 10
1071.6391051723
 20
-405.8029285121
 30
0.0
  9
$EXTMAX
 10
1654.6344371269
 20
-121.2036662977
 30
0.0
  9
$LIMMIN
 10
0.0
 20
0.0
  9
$LIMMAX
 10
0.0
 20
0.0
  9
$ORTHOMODE
 70
         0
  9
$REGENMODE
 70
         1
  9
$FILLMODE
 70
         1
  9
$QTEXTMODE
 70
         0
  9
$MIRRTEXT
 70
         1
  9
$DRAGMODE
 70
         2
  9
$LTSCALE
 40
1.0
  9
$OSMODE
 70
         0
  9
$ATTMODE
 70
         1
  9
$TEXTSIZE
 40
1.7
  9
$TRACEWID
 40
0.05
  9
$TEXTSTYLE
  7
STANDARD
  9
$CLAYER
  8
0
  9
$CELTYPE
  6
CONTINUOUS
  9
$CECOLOR
 62
         1
  9
$CELTSCALE
 40
1.0
  9
$DELOBJ
 70
         1
  9
$DISPSILH
 70
         0
  9
$DIMSCALE
 40
1.0
  9
$DIMASZ
 40
0.18
  9
$DIMEXO
 40
0.0625
  9
$DIMDLI
 40
0.38
  9
$DIMRND
 40
0.0
  9
$DIMDLE
 40
0.0
  9
$DIMEXE
 40
0.25
  9
$DIMTP
 40
0.01
  9
$DIMTM
 40
-0.01
  9
$DIMTXT
 40
2.7
  9
$DIMCEN
 40
0.09
  9
$DIMTSZ
 40
0.0
  9
$DIMTOL
 70
         0
  9
$DIMLIM
 70
         0
  9
$DIMTIH
 70
         1
  9
$DIMTOH
 70
         1
  9
$DIMSE1
 70
         0
  9
$DIMSE2
 70
         0
  9
$DIMTAD
 70
         0
  9
$DIMZIN
 70
         0
  9
$DIMBLK
  1

  9
$DIMASO
 70
         1
  9
$DIMSHO
 70
         1
  9
$DIMPOST
  1

  9
$DIMAPOST
  1

  9
$DIMALT
 70
         0
  9
$DIMALTD
 70
         2
  9
$DIMALTF
 40
25.4
  9
$DIMLFAC
 40
1.0
  9
$DIMTOFL
 70
         0
  9
$DIMTVP
 40
0.0
  9
$DIMTIX
 70
         0
  9
$DIMSOXD
 70
         0
  9
$DIMSAH
 70
         0
  9
$DIMBLK1
  1

  9
$DIMBLK2
  1

  9
$DIMSTYLE
  2
STANDARD
  9
$DIMCLRD
 70
         0
  9
$DIMCLRE
 70
         0
  9
$DIMCLRT
 70
         1
  9
$DIMTFAC
 40
1.0
  9
$DIMGAP
 40
0.09
  9
$DIMJUST
 70
         0
  9
$DIMSD1
 70
         0
  9
$DIMSD2
 70
         0
  9
$DIMTOLJ
 70
         1
  9
$DIMTZIN
 70
         0
  9
$DIMALTZ
 70
         0
  9
$DIMALTTZ
 70
         0
  9
$DIMFIT
 70
         3
  9
$DIMUPT
 70
         0
  9
$DIMUNIT
 70
         2
  9
$DIMDEC
 70
         4
  9
$DIMTDEC
 70
         4
  9
$DIMALTU
 70
         2
  9
$DIMALTTD
 70
         2
  9
$DIMTXSTY
  7
STANDARD
  9
$DIMAUNIT
 70
         0
  9
$LUNITS
 70
         2
  9
$LUPREC
 70
        10
  9
$SKETCHINC
 40
0.1
  9
$FILLETRAD
 40
0.0
  9
$AUNITS
 70
         0
  9
$AUPREC
 70
         0
  9
$MENU
  1
acad
  9
$ELEVATION
 40
0.0
  9
$PELEVATION
 40
0.0
  9
$THICKNESS
 40
0.0
  9
$LIMCHECK
 70
         0
  9
$BLIPMODE
 70
         1
  9
$CHAMFERA
 40
0.0
  9
$CHAMFERB
 40
0.0
  9
$CHAMFERC
 40
0.0
  9
$CHAMFERD
 40
0.0
  9
$SKPOLY
 70
         0
  9
$TDCREATE
 40
0.000000000
  9
$TDUPDATE
 40
0.000000000
  9
$TDINDWG
 40
0.0000000000
  9
$TDUSRTIMER
 40
0.0000000000
  9
$USRTIMER
 70
         1
  9
$ANGBASE
 50
0.0
  9
$ANGDIR
 70
         0
  9
$PDMODE
 70
         2
  9
$PDSIZE
 40
0.0
  9
$PLINEWID
 40
0.0
  9
$COORDS
 70
         0
  9
$SPLFRAME
 70
         0
  9
$SPLINETYPE
 70
         6
  9
$SPLINESEGS
 70
         8
  9
$ATTDIA
 70
         0
  9
$ATTREQ
 70
         1
  9
$HANDLING
 70
         1
  9
$HANDSEED
  5
399
  9
$SURFTAB1
 70
         6
  9
$SURFTAB2
 70
         6
  9
$SURFTYPE
 70
         6
  9
$SURFU
 70
         6
  9
$SURFV
 70
         6
  9
$UCSNAME
  2

  9
$UCSORG
 10
0.0
 20
0.0
 30
0.0
  9
$UCSXDIR
 10
1.0
 20
0.0
 30
0.0
  9
$UCSYDIR
 10
0.0
 20
1.0
 30
0.0
  9
$PUCSNAME
  2

  9
$PUCSORG
 10
0.0
 20
0.0
 30
0.0
  9
$PUCSXDIR
 10
1.0
 20
0.0
 30
0.0
  9
$PUCSYDIR
 10
0.0
 20
1.0
 30
0.0
  9
$USERI1
 70
         0
  9
$USERI2
 70
         0
  9
$USERI3
 70
         0
  9
$USERI4
 70
         0
  9
$USERI5
 70
         0
  9
$USERR1
 40
0.0
  9
$USERR2
 40
0.0
  9
$USERR3
 40
0.0
  9
$USERR4
 40
0.0
  9
$USERR5
 40
0.0
  9
$WORLDVIEW
 70
         1
  9
$SHADEDGE
 70
         3
  9
$SHADEDIF
 70
        70
  9
$TILEMODE
 70
         1
  9
$MAXACTVP
 70
        16
  9
$PINSBASE
 10
0.0
 20
0.0
 30
0.0
  9
$PLIMCHECK
 70
         0
  9
$PEXTMIN
 10
1.0000000000E+20
 20
1.0000000000E+20
 30
1.0000000000E+20
  9
$PEXTMAX
 10
-1.0000000000E+20
 20
-1.0000000000E+20
 30
-1.0000000000E+20
  9
$PLIMMIN
 10
0.0
 20
0.0
  9
$PLIMMAX
 10
12.0
 20
9.0
  9
$UNITMODE
 70
         0
  9
$VISRETAIN
 70
         0
  9
$PLINEGEN
 70
         1
  9
$PSLTSCALE
 70
         0
  9
$TREEDEPTH
 70
      3020
  9
$PICKSTYLE
 70
         1
  9
$CMLSTYLE
  2
STANDARD
  9
$CMLJUST
 70
         0
  9
$CMLSCALE
 40
1.0
  9
$PROXYGRAPHICS
 70
         0
  9
$MEASUREMENT
 70
         0
  0
ENDSEC
  0
SECTION
  2
CLASSES
  0
CLASS
  1
LWPOLYLINE
  2
AcDbPolyline
  3
"AutoCAD"
 90
        0
280
         0
281
         1
  0
CLASS
  1
IMAGE
  2
AcDbRasterImage
  3
ISM
 90
      127
280
         0
281
         1
  0
CLASS
  1
OLE2FRAME
  2
AcDbOle2Frame
  3
""
 90
        0
280
         0
281
         1
  0
CLASS
  1
HATCH
  2
AcDbHatch
  3
"ACAD_SEDONA"
 90
        0
280
         0
281
         1
  0
CLASS
  1
DICTIONARYVAR
  2
AcDbDictionaryVar
  3
"AutoCAD"
 90
        0
280
         0
281
         0
  0
CLASS
  1
RASTERVARIABLES
  2
AcDbRasterVariables
  3
ISM
 90
        0
280
         0
281
         0
  0
CLASS
  1
IMAGEDEF
  2
AcDbRasterImageDef
  3
ISM
 90
        0
280
         0
281
         0
  0
CLASS
  1
IMAGEDEF_REACTOR
  2
AcDbRasterImageDefReactor
  3
ISM
 90
        1
280
         0
281
         0
  0
CLASS
  1
IDBUFFER
  2
AcDbIdBuffer
  3
"Acad"
 90
        0
280
         0
281
         0
  0
CLASS
  1
SPATIAL_FILTER
  2
AcDbSpatialFilter
  3
"Acad"
 90
        0
280
         0
281
         0
  0
CLASS
  1
XRECORD
  2
AcDbXrecord
  3
"<Built In>"
 90
        0
280
         0
281
         0
  0
CLASS
  1
SORTENTSTABLE
  2
AcDbSortentsTable
  3
"AutoCAD"
 90
        0
280
         0
281
         0
  0
CLASS
  1
LAYER_INDEX
  2
AcDbLayerIndex
  3
"Acad"
 90
        0
280
         0
281
         0
  0
CLASS
  1
SPATIAL_INDEX
  2
AcDbSpatialIndex
  3
"Acad"
 90
        0
280
         0
281
         0
  0
CLASS
  1
OBJECT_PTR
  2
CAseDLPNTableRecord
  3
"ASE-LPNTableRecord"
 90
        1
280
         0
281
         0
  0
CLASS
  1
LAYOUT
  2
AcDbLayout
  3
"AutoCAD 2000"
 90
        1
280
         0
281
         0
  0
CLASS
  1
PLOTSETTINGS
  2
AcDbPlotSettings
  3
"AutoCAD 2000"
 90
        1
280
         0
281
         0
  0
CLASS
  1
ACDBDICTIONARYWDFLT
  2
AcDbDictionaryWithDefault
  3
"AutoCAD 2000"
 90
        1
280
         0
281
         0
  0
CLASS
  1
ACDBPLACEHOLDER
  2
AcDbPlaceHolder
  3
"AutoCAD 2000"
 90
        1
280
         0
281
         0
  0
CLASS
  1
VBA_PROJECT
  2
AcDbVbaProject
  3
"acadvba"
 90
        1
280
         0
281
         0
  0
CLASS
  1
WIPEOUT
  2
AcDbWipeout
  3
WipeOut|AutoCAD Express Tool|expresstools@autodesk.com
 90
      127
280
         0
281
         1
  0
CLASS
  1
WIPEOUTVARIABLES
  2
AcDbWipeoutVariables
  3
WipeOut|AutoCAD Express Tool|expresstools@autodesk.com
 90
        0
280
         0
281
         0
  0
CLASS
  1
RTEXT
  2
RText
  3
RText|AutoCAD Express Tool|expresstools@autodesk.com
 90
        0
280
         0
281
         1
  0
CLASS
  1
ARCALIGNEDTEXT
  2
AcDbArcAlignedText
  3
ATEXT|AutoCAD Express Tool|expresstools@autodesk.com
 90
        0
280
         0
281
         1
  0
ENDSEC
  0
SECTION
  2
TABLES
  0
TABLE
  2
VPORT
  5
7
100
AcDbSymbolTable
 70
         1
  0
VPORT
  5
15
100
AcDbSymbolTableRecord
100
AcDbViewportTableRecord
  2
*ACTIVE
 70
         0
 10
0.0
 20
0.0
 11
1.0
 21
1.0
 12
1363.1367711496
 22
-263.5032974049
 13
0.0
 23
0.0
 14
1.0
 24
1.0
 15
0.0
 25
0.0
 16
0.0
 26
0.0
 36
1.0
 17
0.0
 27
0.0
 37
0.0
 40
284.5992622145
 41
2.0484780158
 42
50.0
 43
0.0
 44
0.0
 50
0.0
 51
0.0
 71
         0
 72
       100
 73
         1
 74
         1
 75
         0
 76
         0
 77
         0
 78
         0
  0
ENDTAB
  0
TABLE
  2
LTYPE
  5
4
100
AcDbSymbolTable
 70
         6
  0
LTYPE
  5
11
100
AcDbSymbolTableRecord
100
AcDbLinetypeTableRecord
  2
BYBLOCK
 70
        64
  3

 72
        65
 73
         0
 40
0.0
  0
LTYPE
  5
12
100
AcDbSymbolTableRecord
100
AcDbLinetypeTableRecord
  2
BYLAYER
 70
        64
  3

 72
        65
 73
         0
 40
0.0
  0
LTYPE
  5
13
100
AcDbSymbolTableRecord
100
AcDbLinetypeTableRecord
  2
CONTINUOUS
 70
        64
  3
Solid line
 72
        65
 73
         0
 40
0.0
  0
LTYPE
  5
1D
100
AcDbSymbolTableRecord
100
AcDbLinetypeTableRecord
  2
DASHED
 70
        64
  3
_ _ _ _ _ _ _ _ _ _ _ _ _ _ _ _
 72
        65
 73
         2
 40
0.2
 49
0.1
 74
         0
 49
-0.1
 74
         0
  0
LTYPE
  5
1E
100
AcDbSymbolTableRecord
100
AcDbLinetypeTableRecord
  2
CENTER
 70
        64
  3
___ _ ___ _ ___ _ ___ _ ___ _ ___ _ ___ _ ___ _
 72
        65
 73
         4
 40
0.95
 49
0.625
 74
         0
 49
-0.125
 74
         0
 49
0.075
 74
         0
 49
-0.125
 74
         0
  0
LTYPE
  5
1F
100
AcDbSymbolTableRecord
100
AcDbLinetypeTableRecord
  2
PHANTOM
 70
        64
  3
______  __  __  ______  __  __  ______  __  __  
 72
        65
 73
         6
 40
1.025
 49
0.625
 74
         0
 49
-0.125
 74
         0
 49
0.075
 74
         0
 49
-0.125
 74
         0
 49
0.075
 74
         0
 49
-0.125
 74
         0
  0
ENDTAB
  0
TABLE
  2
LAYER
  5
2
100
AcDbSymbolTable
 70
         6
  0
LAYER
  5
14
100
AcDbSymbolTableRecord
100
AcDbLayerTableRecord
  2
0
 70
         0
 62
         7
  6
CONTINUOUS
  0
LAYER
  5
21
100
AcDbSymbolTableRecord
100
AcDbLayerTableRecord
  2
_____U
 70
         1
 62
         7
  6
CONTINUOUS
  0
LAYER
  5
22
100
AcDbSymbolTableRecord
100
AcDbLayerTableRecord
  2
_____T______
 70
         1
 62
         7
  6
CONTINUOUS
  0
LAYER
  5
23
100
AcDbSymbolTableRecord
100
AcDbLayerTableRecord
  2
______L_______
 70
         1
 62
         7
  6
CONTINUOUS
  0
LAYER
  5
24
100
AcDbSymbolTableRecord
100
AcDbLayerTableRecord
  2
L1_120
 70
         0
 62
         7
  6
CONTINUOUS
  0
LAYER
  5
1AE
100
AcDbSymbolTableRecord
100
AcDbLayerTableRecord
  2
DEFPOINTS
 70
         0
 62
        -7
  6
CONTINUOUS
  0
ENDTAB
  0
TABLE
  2
STYLE
  5
3
100
AcDbSymbolTable
 70
        11
  0
STYLE
  5
17
100
AcDbSymbolTableRecord
100
AcDbTextStyleTableRecord
  2
STANDARD
 70
         0
 40
0.0
 41
1.0
 50
0.0
 71
         0
 42
0.0
  3
txt
  4

  0
STYLE
  5
1B9
100
AcDbSymbolTableRecord
100
AcDbTextStyleTableRecord
  2
BOX
 70
         0
 40
1.0
 41
1.0
 50
0.0
 71
         0
 42
0.2
  3
txt.shx
  4

  0
STYLE
  5
1D4
100
AcDbSymbolTableRecord
100
AcDbTextStyleTableRecord
  2
BOX
 70
         0
 40
1.0
 41
1.0
 50
0.0
 71
         0
 42
0.2
  3
txt.shx
  4

  0
STYLE
  5
213
100
AcDbSymbolTableRecord
100
AcDbTextStyleTableRecord
  2
BOX
 70
         0
 40
1.0
 41
1.0
 50
0.0
 71
         0
 42
0.2
  3
txt.shx
  4

  0
STYLE
  5
2BD
100
AcDbSymbolTableRecord
100
AcDbTextStyleTableRecord
  2
BOX
 70
         0
 40
1.0
 41
1.0
 50
0.0
 71
         0
 42
0.2
  3
txt.shx
  4

  0
STYLE
  5
2CB
100
AcDbSymbolTableRecord
100
AcDbTextStyleTableRecord
  2
BOX
 70
         0
 40
1.0
 41
1.0
 50
0.0
 71
         0
 42
0.2
  3
txt.shx
  4

  0
STYLE
  5
2D9
100
AcDbSymbolTableRecord
100
AcDbTextStyleTableRecord
  2
BOX
 70
         0
 40
1.0
 41
1.0
 50
0.0
 71
         0
 42
0.2
  3
txt.shx
  4

  0
STYLE
  5
2DC
100
AcDbSymbolTableRecord
100
AcDbTextStyleTableRecord
  2
BOX
 70
         0
 40
1.0
 41
1.0
 50
0.0
 71
         0
 42
0.2
  3
txt.shx
  4

  0
STYLE
  5
333
100
AcDbSymbolTableRecord
100
AcDbTextStyleTableRecord
  2
BOX
 70
         0
 40
1.0
 41
1.0
 50
0.0
 71
         0
 42
0.2
  3
txt.shx
  4

  0
STYLE
  5
344
100
AcDbSymbolTableRecord
100
AcDbTextStyleTableRecord
  2
BOX
 70
         0
 40
1.0
 41
1.0
 50
0.0
 71
         0
 42
0.2
  3
txt.shx
  4

  0
STYLE
  5
352
100
AcDbSymbolTableRecord
100
AcDbTextStyleTableRecord
  2
BOX
 70
         0
 40
1.0
 41
1.0
 50
0.0
 71
         0
 42
0.2
  3
txt.shx
  4

  0
ENDTAB
  0
TABLE
  2
VIEW
  5
5
100
AcDbSymbolTable
 70
         0
  0
ENDTAB
  0
TABLE
  2
UCS
  5
6
100
AcDbSymbolTable
 70
         1
  0
UCS
  5
20
100
AcDbSymbolTableRecord
100
AcDbUCSTableRecord
  2
CK_VIEW_1
 70
         0
 10
0.0
 20
0.0
 30
1.0
 11
1.0
 21
0.0
 31
0.0
 12
0.0
 22
1.0
 32
0.0
  0
ENDTAB
  0
TABLE
  2
APPID
  5
8
100
AcDbSymbolTable
 70
         1
  0
APPID
  5
16
100
AcDbSymbolTableRecord
100
AcDbRegAppTableRecord
  2
ACAD
 70
         0
  0
ENDTAB
  0
TABLE
  2
DIMSTYLE
  5
9
100
AcDbSymbolTable
 70
         2
  0
DIMSTYLE
105
18
100
AcDbSymbolTableRecord
100
AcDbDimStyleTableRecord
  2
STANDARD
 70
         0
  3

  4

  5

  6

  7

 40
1.0
 41
0.18
 42
0.0625
 43
0.38
 44
0.18
 45
0.0
 46
0.0
 47
0.0
 48
0.0
 71
         0
 72
         0
 73
         1
 74
         1
 75
         0
 76
         0
 77
         0
 78
         0
140
0.18
141
0.09
142
0.0
143
25.4
144
1.0
145
0.0
146
1.0
147
0.09
170
         0
171
         2
172
         0
173
         0
174
         0
175
         0
176
         0
177
         0
178
         0
270
         2
271
         4
272
         4
273
         2
274
         2
275
         0
280
         0
281
         0
282
         0
283
         1
284
         0
285
         0
286
         0
287
         0
288
         0
340
17
  0
DIMSTYLE
105
1AA
100
AcDbSymbolTableRecord
100
AcDbDimStyleTableRecord
  2
DIMSTYLE1
 70
         0
  3

  4

  5

  6

  7

 40
1.0
 41
2.7
 42
0.0625
 43
0.38
 44
2.7
 45
0.0
 46
0.0
 47
0.0
 48
0.0
 71
         0
 72
         0
 73
         1
 74
         1
 75
         0
 76
         0
 77
         0
 78
         0
140
2.7
141
0.09
142
0.0
143
25.4
144
1.0
145
0.0
146
1.0
147
0.09
170
         0
171
         2
172
         0
173
         0
174
         0
175
         0
176
         0
177
         0
178
         0
270
         2
271
         4
272
         4
273
         2
274
         2
275
         0
280
         0
281
         0
282
         0
283
         1
284
         0
285
         0
286
         0
287
         0
288
         0
340
17
  0
ENDTAB
  0
TABLE
  2
BLOCK_RECORD
  5
1
100
AcDbSymbolTable
 70
        10
  0
BLOCK_RECORD
  5
A
100
AcDbSymbolTableRecord
100
AcDbBlockTableRecord
  2
*MODEL_SPACE
  0
BLOCK_RECORD
  5
B
100
AcDbSymbolTableRecord
100
AcDbBlockTableRecord
  2
*PAPER_SPACE
  0
BLOCK_RECORD
  5
1AB
100
AcDbSymbolTableRecord
100
AcDbBlockTableRecord
  2
*D0
  0
BLOCK_RECORD
  5
1C8
100
AcDbSymbolTableRecord
100
AcDbBlockTableRecord
  2
*D1
  0
BLOCK_RECORD
  5
208
100
AcDbSymbolTableRecord
100
AcDbBlockTableRecord
  2
*D2
  0
BLOCK_RECORD
  5
260
100
AcDbSymbolTableRecord
100
AcDbBlockTableRecord
  2
*X3
  0
BLOCK_RECORD
  5
2B1
100
AcDbSymbolTableRecord
100
AcDbBlockTableRecord
  2
*D4
  0
BLOCK_RECORD
  5
2C0
100
AcDbSymbolTableRecord
100
AcDbBlockTableRecord
  2
*D5
  0
BLOCK_RECORD
  5
2CE
100
AcDbSymbolTableRecord
100
AcDbBlockTableRecord
  2
*D6
  0
BLOCK_RECORD
  5
328
100
AcDbSymbolTableRecord
100
AcDbBlockTableRecord
  2
*D7
  0
BLOCK_RECORD
  5
337
100
AcDbSymbolTableRecord
100
AcDbBlockTableRecord
  2
*D8
  0
BLOCK_RECORD
  5
347
100
AcDbSymbolTableRecord
100
AcDbBlockTableRecord
  2
*D9
  0
ENDTAB
  0
ENDSEC
  0
SECTION
  2
BLOCKS
  0
BLOCK
  5
D
100
AcDbEntity
  8
0
100
AcDbBlockBegin
  2
*MODEL_SPACE
 70
         0
 10
0.0
 20
0.0
 30
0.0
  3
*MODEL_SPACE
  1

  0
ENDBLK
  5
E
100
AcDbEntity
  8
0
100
AcDbBlockEnd
  0
BLOCK
  5
F
100
AcDbEntity
 67
         1
  8
0
100
AcDbBlockBegin
  2
*PAPER_SPACE
 70
         0
 10
0.0
 20
0.0
 30
0.0
  3
*PAPER_SPACE
  1

  0
ENDBLK
  5
10
100
AcDbEntity
 67
         1
  8
0
100
AcDbBlockEnd
  0
BLOCK
  5
1AC
100
AcDbEntity
  8
0
100
AcDbBlockBegin
  2
*D0
 70
        65
 10
0.0
 20
0.0
 30
0.0
  3
*D0
  1

  0
POINT
  5
1AF
100
AcDbEntity
  8
DEFPOINTS
  6
CONTINUOUS
 62
         0
100
AcDbPoint
 10
1447.6508425579
 20
-217.9818388344
 30
0.0
  0
POINT
  5
1B0
100
AcDbEntity
  8
DEFPOINTS
  6
CONTINUOUS
 62
         0
100
AcDbPoint
 10
1447.6508425579
 20
-230.570628052
 30
0.0
  0
POINT
  5
1B1
100
AcDbEntity
  8
DEFPOINTS
  6
CONTINUOUS
 62
         0
100
AcDbPoint
 10
1446.7847699505
 20
-231.9300897326
 30
0.0
  0
POINT
  5
1B2
100
AcDbEntity
  8
DEFPOINTS
  6
CONTINUOUS
 62
         0
100
AcDbPoint
 10
1441.6191689945
 20
-234.3388490173
 30
0.0
  0
LINE
  5
1B3
100
AcDbEntity
  8
L1_120
  6
CONTINUOUS
 62
         4
100
AcDbLine
 10
1440.395653482
 20
-234.9093836706
 30
0.0
 11
1436.6102196102
 21
-236.6745604745
 31
0.0
  0
LINE
  5
1B4
100
AcDbEntity
  8
L1_120
  6
CONTINUOUS
 62
         4
100
AcDbLine
 10
1447.6508425579
 20
-231.920628052
 30
0.0
 11
1447.6508425579
 21
-243.7082130153
 31
0.0
  0
ARC
  5
1B5
100
AcDbEntity
  8
L1_120
  6
CONTINUOUS
 62
         4
100
AcDbCircle
 10
1447.6508425579
 20
-231.5262334432
 30
0.0
 40
11.506979572
100
AcDbArc
 50
205.0
 51
237.5
  0
SOLID
  5
1B6
100
AcDbEntity
  8
L1_120
  6
CONTINUOUS
 62
         4
100
AcDbTrace
 10
1437.2219773665
 20
-236.3892931478
 30
0.0
 11
1438.9855671254
 21
-238.4734659243
 31
0.0
 12
1438.2964586931
 22
-238.8991765871
 32
0.0
 13
1437.2219773665
 23
-236.3892931478
 33
0.0
  0
ARC
  5
1B7
100
AcDbEntity
  8
L1_120
  6
CONTINUOUS
 62
         4
100
AcDbCircle
 10
1447.6508425579
 20
-231.5262334432
 30
0.0
 40
11.506979572
100
AcDbArc
 50
237.5
 51
270.0
  0
SOLID
  5
1B8
100
AcDbEntity
  8
L1_120
  6
CONTINUOUS
 62
         4
100
AcDbTrace
 10
1447.6508425579
 20
-243.0332130153
 30
0.0
 11
1444.9220202218
 21
-243.1201247982
 31
0.0
 12
1445.0166153027
 22
-242.3156673595
 32
0.0
 13
1447.6508425579
 23
-243.0332130153
 33
0.0
  0
TEXT
  5
1BA
100
AcDbEntity
  8
L1_120
  6
CONTINUOUS
 62
         4
100
AcDbText
 10
1435.4183030417
 20
-246.741718328
 30
0.0
 40
2.7
  1
65%%d
  7
BOX
100
AcDbText
  0
ENDBLK
  5
1BB
100
AcDbEntity
  8
0
  6
CONTINUOUS
100
AcDbBlockEnd
  0
BLOCK
  5
1C9
100
AcDbEntity
  8
0
100
AcDbBlockBegin
  2
*D1
 70
        65
 10
0.0
 20
0.0
 30
0.0
  3
*D1
  1

  0
POINT
  5
1CB
100
AcDbEntity
  8
DEFPOINTS
  6
CONTINUOUS
 62
         0
100
AcDbPoint
 10
1459.500447714
 20
-217.0262334432
 30
0.0
  0
POINT
  5
1CC
100
AcDbEntity
  8
DEFPOINTS
  6
CONTINUOUS
 62
         0
100
AcDbPoint
 10
1447.6508425579
 20
-217.0262334432
 30
0.0
  0
POINT
  5
1CD
100
AcDbEntity
  8
DEFPOINTS
  6
CONTINUOUS
 62
         0
100
AcDbPoint
 10
1447.6508425579
 20
-231.5262334432
 30
0.0
  0
LINE
  5
1CE
100
AcDbEntity
  8
L1_120
  6
CONTINUOUS
 62
         4
100
AcDbLine
 10
1449.0008425579
 20
-217.0262334432
 30
0.0
 11
1460.175447714
 21
-217.0262334432
 31
0.0
  0
LINE
  5
1CF
100
AcDbEntity
  8
L1_120
  6
CONTINUOUS
 62
         4
100
AcDbLine
 10
1449.0008425579
 20
-231.5262334432
 30
0.0
 11
1460.175447714
 21
-231.5262334432
 31
0.0
  0
LINE
  5
1D0
100
AcDbEntity
  8
L1_120
  6
CONTINUOUS
 62
         4
100
AcDbLine
 10
1459.500447714
 20
-217.0262334432
 30
0.0
 11
1459.500447714
 21
-231.5262334432
 31
0.0
  0
SOLID
  5
1D1
100
AcDbEntity
  8
L1_120
  6
CONTINUOUS
 62
         4
100
AcDbTrace
 10
1459.500447714
 20
-217.0262334432
 30
0.0
 11
1459.905447714
 21
-219.7262334432
 31
0.0
 12
1459.095447714
 22
-219.7262334432
 32
0.0
 13
1459.500447714
 23
-217.0262334432
 33
0.0
  0
LINE
  5
1D2
100
AcDbEntity
  8
L1_120
  6
CONTINUOUS
 62
         4
100
AcDbLine
 10
1459.500447714
 20
-217.0262334432
 30
0.0
 11
1459.500447714
 21
-194.6016674443
 31
0.0
  0
SOLID
  5
1D3
100
AcDbEntity
  8
L1_120
  6
CONTINUOUS
 62
         4
100
AcDbTrace
 10
1459.500447714
 20
-231.5262334432
 30
0.0
 11
1459.095447714
 21
-228.8262334432
 31
0.0
 12
1459.905447714
 22
-228.8262334432
 32
0.0
 13
1459.500447714
 23
-231.5262334432
 33
0.0
  0
TEXT
  5
1D5
100
AcDbEntity
  8
L1_120
  6
CONTINUOUS
 62
         4
100
AcDbText
 10
1457.475447714
 20
-212.1516674443
 30
0.0
 40
2.7
  1
崷14.5
 50
90.0
  7
BOX
100
AcDbText
  0
ENDBLK
  5
1D6
100
AcDbEntity
  8
0
  6
CONTINUOUS
100
AcDbBlockEnd
  0
BLOCK
  5
209
100
AcDbEntity
  8
0
100
AcDbBlockBegin
  2
*D2
 70
        65
 10
0.0
 20
0.0
 30
0.0
  3
*D2
  1

  0
POINT
  5
20B
100
AcDbEntity
  8
DEFPOINTS
  6
CONTINUOUS
 62
         0
100
AcDbPoint
 10
1447.6508425579
 20
-374.4141841613
 30
0.0
  0
POINT
  5
20C
100
AcDbEntity
  8
DEFPOINTS
  6
CONTINUOUS
 62
         0
100
AcDbPoint
 10
1447.6508425579
 20
-344.4630166146
 30
0.0
  0
POINT
  5
20D
100
AcDbEntity
  8
DEFPOINTS
  6
CONTINUOUS
 62
         0
100
AcDbPoint
 10
1417.6508425579
 20
-341.3436220058
 30
0.0
  0
LINE
  5
20E
100
AcDbEntity
  8
L1_120
  6
CONTINUOUS
 62
         4
100
AcDbLine
 10
1447.6508425579
 20
-345.8130166146
 30
0.0
 11
1447.6508425579
 21
-375.0891841613
 31
0.0
  0
LINE
  5
20F
100
AcDbEntity
  8
L1_120
  6
CONTINUOUS
 62
         4
100
AcDbLine
 10
1417.6508425579
 20
-342.6936220058
 30
0.0
 11
1417.6508425579
 21
-375.0891841613
 31
0.0
  0
LINE
  5
210
100
AcDbEntity
  8
L1_120
  6
CONTINUOUS
 62
         4
100
AcDbLine
 10
1447.6508425579
 20
-374.4141841613
 30
0.0
 11
1417.6508425579
 21
-374.4141841613
 31
0.0
  0
SOLID
  5
211
100
AcDbEntity
  8
L1_120
  6
CONTINUOUS
 62
         4
100
AcDbTrace
 10
1447.6508425579
 20
-374.4141841613
 30
0.0
 11
1444.9508425579
 21
-374.8191841613
 31
0.0
 12
1444.9508425579
 22
-374.0091841613
 32
0.0
 13
1447.6508425579
 23
-374.4141841613
 33
0.0
  0
SOLID
  5
212
100
AcDbEntity
  8
L1_120
  6
CONTINUOUS
 62
         4
100
AcDbTrace
 10
1417.6508425579
 20
-374.4141841613
 30
0.0
 11
1420.3508425579
 21
-374.0091841613
 31
0.0
 12
1420.3508425579
 22
-374.8191841613
 32
0.0
 13
1417.6508425579
 23
-374.4141841613
 33
0.0
  0
TEXT
  5
214
100
AcDbEntity
  8
L1_120
  6
CONTINUOUS
 62
         4
100
AcDbText
 10
1429.3815700084
 20
-372.3891841613
 30
0.0
 40
2.7
  1
30
  7
BOX
100
AcDbText
  0
ENDBLK
  5
215
100
AcDbEntity
  8
0
  6
CONTINUOUS
100
AcDbBlockEnd
  0
BLOCK
  5
261
100
AcDbEntity
  8
0
100
AcDbBlockBegin
  2
*X3
 70
        65
 10
0.0
 20
0.0
 30
0.0
  3
*X3
  1

  0
LINE
  5
262
100
AcDbEntity
  8
L1_120
  6
CONTINUOUS
 62
         4
100
AcDbLine
 10
1446.080306815
 20
-346.1509748501
 30
0.0
 11
1447.6458380894
 21
-344.5854435757
 31
0.0
  0
LINE
  5
263
100
AcDbEntity
  8
L1_120
  6
CONTINUOUS
 62
         4
100
AcDbLine
 10
1439.5700189722
 20
-348.4186220058
 30
0.0
 11
1446.5739454717
 21
-341.4146955062
 31
0.0
  0
LINE
  5
264
100
AcDbEntity
  8
L1_120
  6
CONTINUOUS
 62
         4
100
AcDbLine
 10
1436.1286104215
 20
-347.6173898694
 30
0.0
 11
1442.4023782851
 21
-341.3436220058
 31
0.0
  0
LINE
  5
265
100
AcDbEntity
  8
L1_120
  6
CONTINUOUS
 62
         4
100
AcDbLine
 10
1435.9008425579
 20
-343.6025170458
 30
0.0
 11
1438.1597375979
 21
-341.3436220058
 31
0.0
  0
LINE
  5
266
100
AcDbEntity
  8
L1_120
  6
CONTINUOUS
 62
         4
100
AcDbLine
 10
1444.6508425579
 20
-334.8525170458
 30
0.0
 11
1447.6506876705
 21
-331.8526719332
 31
0.0
  0
LINE
  5
267
100
AcDbEntity
  8
L1_120
  6
CONTINUOUS
 62
         4
100
AcDbLine
 10
1414.8070969108
 20
-360.4536220058
 30
0.0
 11
1419.2028425579
 21
-356.0578763587
 31
0.0
  0
LINE
  5
268
100
AcDbEntity
  8
L1_120
  6
CONTINUOUS
 62
         4
100
AcDbLine
 10
1426.8420969108
 20
-348.4186220058
 30
0.0
 11
1430.4008425579
 21
-344.8598763587
 31
0.0
  0
LINE
  5
269
100
AcDbEntity
  8
L1_120
  6
CONTINUOUS
 62
         4
100
AcDbLine
 10
1440.2670969108
 20
-334.9936220058
 30
0.0
 11
1445.3943272702
 21
-329.8663916464
 31
0.0
  0
LINE
  5
26A
100
AcDbEntity
  8
L1_120
  6
CONTINUOUS
 62
         4
100
AcDbLine
 10
1401.0744562235
 20
-369.9436220059
 30
0.0
 11
1403.2508425579
 21
-367.7672356716
 31
0.0
  0
LINE
  5
26B
100
AcDbEntity
  8
L1_120
  6
CONTINUOUS
 62
         4
100
AcDbLine
 10
1410.5644562237
 20
-360.4536220058
 30
0.0
 11
1419.6367039667
 21
-351.3813742627
 31
0.0
  0
LINE
  5
26C
100
AcDbEntity
  8
L1_120
  6
CONTINUOUS
 62
         4
100
AcDbLine
 10
1422.1655948148
 20
-348.8524834146
 30
0.0
 11
1429.6744562237
 21
-341.3436220058
 31
0.0
  0
LINE
  5
26D
100
AcDbEntity
  8
L1_120
  6
CONTINUOUS
 62
         4
100
AcDbLine
 10
1436.0244562237
 20
-334.9936220058
 30
0.0
 11
1442.5009094642
 21
-328.5171687652
 31
0.0
  0
LINE
  5
26E
100
AcDbEntity
  8
L1_120
  6
CONTINUOUS
 62
         4
100
AcDbLine
 10
1398.071424429
 20
-368.7040131134
 30
0.0
 11
1403.2508425579
 21
-363.5245949845
 31
0.0
  0
LINE
  5
26F
100
AcDbEntity
  8
L1_120
  6
CONTINUOUS
 62
         4
100
AcDbLine
 10
1406.3218155366
 20
-360.4536220058
 30
0.0
 11
1425.4318155366
 21
-341.3436220058
 31
0.0
  0
LINE
  5
270
100
AcDbEntity
  8
L1_120
  6
CONTINUOUS
 62
         4
100
AcDbLine
 10
1431.7818155366
 20
-334.9936220058
 30
0.0
 11
1438.515528795
 21
-328.2599087474
 31
0.0
  0
LINE
  5
271
100
AcDbEntity
  8
L1_120
  6
CONTINUOUS
 62
         4
100
AcDbLine
 10
1396.2356717637
 20
-366.2971250915
 30
0.0
 11
1421.1891748495
 21
-341.3436220058
 31
0.0
  0
LINE
  5
272
100
AcDbEntity
  8
L1_120
  6
CONTINUOUS
 62
         4
100
AcDbLine
 10
1427.5391748495
 20
-334.9936220058
 30
0.0
 11
1433.4707160704
 21
-329.0620807849
 31
0.0
  0
LINE
  5
273
100
AcDbEntity
  8
L1_120
  6
CONTINUOUS
 62
         4
100
AcDbLine
 10
1388.3465341623
 20
-369.9436220058
 30
0.0
 11
1413.1215341623
 21
-345.1686220058
 31
0.0
  0
LINE
  5
274
100
AcDbEntity
  8
L1_120
  6
CONTINUOUS
 62
         4
100
AcDbLine
 10
1423.2965341623
 20
-334.9936220058
 30
0.0
 11
1430.1575173592
 21
-328.1326388089
 31
0.0
  0
LINE
  5
275
100
AcDbEntity
  8
L1_120
  6
CONTINUOUS
 62
         4
100
AcDbLine
 10
1387.3508425579
 20
-366.6966729231
 30
0.0
 11
1408.8788934752
 21
-345.1686220058
 31
0.0
  0
LINE
  5
276
100
AcDbEntity
  8
L1_120
  6
CONTINUOUS
 62
         4
100
AcDbLine
 10
1419.0538934752
 20
-334.9936220058
 30
0.0
 11
1426.1288934752
 21
-327.9186220058
 31
0.0
  0
LINE
  5
277
100
AcDbEntity
  8
L1_120
  6
CONTINUOUS
 62
         4
100
AcDbLine
 10
1387.3508425579
 20
-362.454032236
 30
0.0
 11
1404.6362527881
 21
-345.1686220058
 31
0.0
  0
LINE
  5
278
100
AcDbEntity
  8
L1_120
  6
CONTINUOUS
 62
         4
100
AcDbLine
 10
1416.6114805658
 20
-333.1933942281
 30
0.0
 11
1422.2734886114
 21
-327.5313861824
 31
0.0
  0
LINE
  5
279
100
AcDbEntity
  8
L1_120
  6
CONTINUOUS
 62
         4
100
AcDbLine
 10
1385.0390777955
 20
-360.5231563113
 30
0.0
 11
1400.393612101
 21
-345.1686220058
 31
0.0
  0
LINE
  5
27A
100
AcDbEntity
  8
L1_120
  6
CONTINUOUS
 62
         4
100
AcDbLine
 10
1414.393612101
 20
-331.1686220058
 30
0.0
 11
1419.9747203923
 21
-325.5875137145
 31
0.0
  0
LINE
  5
27B
100
AcDbEntity
  8
L1_120
  6
CONTINUOUS
 62
         4
100
AcDbLine
 10
1381.3364095595
 20
-359.9831838602
 30
0.0
 11
1396.1509714139
 21
-345.1686220058
 31
0.0
  0
LINE
  5
27C
100
AcDbEntity
  8
L1_120
  6
CONTINUOUS
 62
         4
100
AcDbLine
 10
1410.1509714139
 20
-331.1686220058
 30
0.0
 11
1419.2028425579
 21
-322.1167508618
 31
0.0
  0
LINE
  5
27D
100
AcDbEntity
  8
L1_120
  6
CONTINUOUS
 62
         4
100
AcDbLine
 10
1377.6337413234
 20
-359.4432114091
 30
0.0
 11
1391.9083307267
 21
-345.1686220058
 31
0.0
  0
LINE
  5
27E
100
AcDbEntity
  8
L1_120
  6
CONTINUOUS
 62
         4
100
AcDbLine
 10
1405.9083307267
 20
-331.1686220058
 30
0.0
 11
1419.2028425579
 21
-317.8741101746
 31
0.0
  0
LINE
  5
27F
100
AcDbEntity
  8
L1_120
  6
CONTINUOUS
 62
         4
100
AcDbLine
 10
1373.9310730874
 20
-358.903238958
 30
0.0
 11
1387.6656900396
 21
-345.1686220058
 31
0.0
  0
LINE
  5
280
100
AcDbEntity
  8
L1_120
  6
CONTINUOUS
 62
         4
100
AcDbLine
 10
1401.6656900396
 20
-331.1686220058
 30
0.0
 11
1416.9506900396
 21
-315.8836220058
 31
0.0
  0
LINE
  5
281
100
AcDbEntity
  8
L1_120
  6
CONTINUOUS
 62
         4
100
AcDbLine
 10
1370.2284048514
 20
-358.3632665069
 30
0.0
 11
1383.4230493525
 21
-345.1686220058
 31
0.0
  0
LINE
  5
282
100
AcDbEntity
  8
L1_120
  6
CONTINUOUS
 62
         4
100
AcDbLine
 10
1397.4230493525
 20
-331.1686220058
 30
0.0
 11
1412.7080493525
 21
-315.8836220058
 31
0.0
  0
LINE
  5
283
100
AcDbEntity
  8
L1_120
  6
CONTINUOUS
 62
         4
100
AcDbLine
 10
1366.5257366153
 20
-357.8232940558
 30
0.0
 11
1379.1804086654
 21
-345.1686220058
 31
0.0
  0
LINE
  5
284
100
AcDbEntity
  8
L1_120
  6
CONTINUOUS
 62
         4
100
AcDbLine
 10
1393.1804086654
 20
-331.1686220058
 30
0.0
 11
1393.7008344905
 21
-330.6481961807
 31
0.0
  0
LINE
  5
285
100
AcDbEntity
  8
L1_120
  6
CONTINUOUS
 62
         4
100
AcDbLine
 10
1397.0008357742
 20
-327.3481948969
 30
0.0
 11
1408.4654086654
 21
-315.8836220058
 31
0.0
  0
LINE
  5
286
100
AcDbEntity
  8
L1_120
  6
CONTINUOUS
 62
         4
100
AcDbLine
 10
1362.8230683793
 20
-357.2833216047
 30
0.0
 11
1374.9377679783
 21
-345.1686220058
 31
0.0
  0
LINE
  5
287
100
AcDbEntity
  8
L1_120
  6
CONTINUOUS
 62
         4
100
AcDbLine
 10
1388.9377679783
 20
-331.1686220058
 30
0.0
 11
1393.7008361409
 21
-326.4055538431
 31
0.0
  0
LINE
  5
288
100
AcDbEntity
  8
L1_120
  6
CONTINUOUS
 62
         4
100
AcDbLine
 10
1397.0008374247
 20
-323.1055525594
 30
0.0
 11
1404.2227679783
 21
-315.8836220058
 31
0.0
  0
LINE
  5
289
100
AcDbEntity
  8
L1_120
  6
CONTINUOUS
 62
         4
100
AcDbLine
 10
1359.1204001433
 20
-356.7433491536
 30
0.0
 11
1370.6951272911
 21
-345.1686220058
 31
0.0
  0
LINE
  5
28A
100
AcDbEntity
  8
L1_120
  6
CONTINUOUS
 62
         4
100
AcDbLine
 10
1384.6951272911
 20
-331.1686220058
 30
0.0
 11
1393.7008377914
 21
-322.1629115055
 31
0.0
  0
LINE
  5
28B
100
AcDbEntity
  8
L1_120
  6
CONTINUOUS
 62
         4
100
AcDbLine
 10
1397.0008390751
 20
-318.8629102218
 30
0.0
 11
1403.2508425579
 21
-312.612906739
 31
0.0
  0
LINE
  5
28C
100
AcDbEntity
  8
L1_120
  6
CONTINUOUS
 62
         4
100
AcDbLine
 10
1355.4177319072
 20
-356.2033767025
 30
0.0
 11
1366.452486604
 21
-345.1686220058
 31
0.0
  0
LINE
  5
28D
100
AcDbEntity
  8
L1_120
  6
CONTINUOUS
 62
         4
100
AcDbLine
 10
1380.452486604
 20
-331.1686220058
 30
0.0
 11
1393.7008394419
 21
-317.9202691679
 31
0.0
  0
LINE
  5
28E
100
AcDbEntity
  8
L1_120
  6
CONTINUOUS
 62
         4
100
AcDbLine
 10
1397.0008407256
 20
-314.6202678842
 30
0.0
 11
1403.2508425579
 21
-308.3702660519
 31
0.0
  0
LINE
  5
28F
100
AcDbEntity
  8
L1_120
  6
CONTINUOUS
 62
         4
100
AcDbLine
 10
1351.7150636712
 20
-355.6634042515
 30
0.0
 11
1362.2098459169
 21
-345.1686220058
 31
0.0
  0
LINE
  5
290
100
AcDbEntity
  8
L1_120
  6
CONTINUOUS
 62
         4
100
AcDbLine
 10
1376.2098459169
 20
-331.1686220058
 30
0.0
 11
1391.3766600735
 21
-316.0018078491
 31
0.0
  0
LINE
  5
291
100
AcDbEntity
  8
L1_120
  6
CONTINUOUS
 62
         4
100
AcDbLine
 10
1397.3508425122
 20
-310.0276254104
 30
0.0
 11
1400.9848459171
 21
-306.3936220056
 31
0.0
  0
LINE
  5
292
100
AcDbEntity
  8
L1_120
  6
CONTINUOUS
 62
         4
100
AcDbLine
 10
1348.0123954352
 20
-355.1234318004
 30
0.0
 11
1357.9672052298
 21
-345.1686220058
 31
0.0
  0
LINE
  5
293
100
AcDbEntity
  8
L1_120
  6
CONTINUOUS
 62
         4
100
AcDbLine
 10
1371.9672052298
 20
-331.1686220058
 30
0.0
 11
1388.8812937187
 21
-314.2545335169
 31
0.0
  0
LINE
  5
294
100
AcDbEntity
  8
L1_120
  6
CONTINUOUS
 62
         4
100
AcDbLine
 10
1391.2507433608
 20
-311.8850838748
 30
0.0
 11
1393.3508426066
 21
-309.7849846289
 31
0.0
  0
LINE
  5
295
100
AcDbEntity
  8
L1_120
  6
CONTINUOUS
 62
         4
100
AcDbLine
 10
1344.3097271991
 20
-354.5834593493
 30
0.0
 11
1353.7245645427
 21
-345.1686220058
 31
0.0
  0
LINE
  5
296
100
AcDbEntity
  8
L1_120
  6
CONTINUOUS
 62
         4
100
AcDbLine
 10
1367.7245645427
 20
-331.1686220058
 30
0.0
 11
1382.7444682962
 21
-316.1487182523
 31
0.0
  0
LINE
  5
297
100
AcDbEntity
  8
L1_120
  6
CONTINUOUS
 62
         4
100
AcDbLine
 10
1389.0425830231
 20
-309.8506035253
 30
0.0
 11
1392.0018993133
 21
-306.8912872352
 31
0.0
  0
LINE
  5
298
100
AcDbEntity
  8
L1_120
  6
CONTINUOUS
 62
         4
100
AcDbLine
 10
1340.6070589631
 20
-354.0434868982
 30
0.0
 11
1349.4819238555
 21
-345.1686220058
 31
0.0
  0
LINE
  5
299
100
AcDbEntity
  8
L1_120
  6
CONTINUOUS
 62
         4
100
AcDbLine
 10
1363.4819238555
 20
-331.1686220058
 30
0.0
 11
1377.777474321
 21
-316.8730715403
 31
0.0
  0
LINE
  5
29A
100
AcDbEntity
  8
L1_120
  6
CONTINUOUS
 62
         4
100
AcDbLine
 10
1387.3508425579
 20
-307.2997033034
 30
0.0
 11
1388.2569238556
 21
-306.3936220058
 31
0.0
  0
LINE
  5
29B
100
AcDbEntity
  8
L1_120
  6
CONTINUOUS
 62
         4
100
AcDbLine
 10
1336.9043907271
 20
-353.5035144471
 30
0.0
 11
1345.2392831684
 21
-345.1686220058
 31
0.0
  0
LINE
  5
29C
100
AcDbEntity
  8
L1_120
  6
CONTINUOUS
 62
         4
100
AcDbLine
 10
1359.2392831684
 20
-331.1686220058
 30
0.0
 11
1372.8104803458
 21
-317.5974248284
 31
0.0
  0
LINE
  5
29D
100
AcDbEntity
  8
L1_120
  6
CONTINUOUS
 62
         4
100
AcDbLine
 10
1333.2017224911
 20
-352.963541996
 30
0.0
 11
1340.9966424813
 21
-345.1686220058
 31
0.0
  0
LINE
  5
29E
100
AcDbEntity
  8
L1_120
  6
CONTINUOUS
 62
         4
100
AcDbLine
 10
1354.9966424813
 20
-331.1686220058
 30
0.0
 11
1367.8434863707
 21
-318.3217781164
 31
0.0
  0
LINE
  5
29F
100
AcDbEntity
  8
L1_120
  6
CONTINUOUS
 62
         4
100
AcDbLine
 10
1329.499054255
 20
-352.4235695449
 30
0.0
 11
1336.7540017942
 21
-345.1686220058
 31
0.0
  0
LINE
  5
2A0
100
AcDbEntity
  8
L1_120
  6
CONTINUOUS
 62
         4
100
AcDbLine
 10
1350.7540017942
 20
-331.1686220058
 30
0.0
 11
1362.8764923955
 21
-319.0461314044
 31
0.0
  0
LINE
  5
2A1
100
AcDbEntity
  8
L1_120
  6
CONTINUOUS
 62
         4
100
AcDbLine
 10
1325.796386019
 20
-351.8835970938
 30
0.0
 11
1332.5113611071
 21
-345.1686220058
 31
0.0
  0
LINE
  5
2A2
100
AcDbEntity
  8
L1_120
  6
CONTINUOUS
 62
         4
100
AcDbLine
 10
1346.5113611071
 20
-331.1686220058
 30
0.0
 11
1357.9094984203
 21
-319.7704846925
 31
0.0
  0
LINE
  5
2A3
100
AcDbEntity
  8
L1_120
  6
CONTINUOUS
 62
         4
100
AcDbLine
 10
1322.093717783
 20
-351.3436246428
 30
0.0
 11
1328.26872042
 21
-345.1686220058
 31
0.0
  0
LINE
  5
2A4
100
AcDbEntity
  8
L1_120
  6
CONTINUOUS
 62
         4
100
AcDbLine
 10
1342.2687204199
 20
-331.1686220058
 30
0.0
 11
1352.9425044452
 21
-320.4948379805
 31
0.0
  0
LINE
  5
2A5
100
AcDbEntity
  8
L1_120
  6
CONTINUOUS
 62
         4
100
AcDbLine
 10
1318.3910495469
 20
-350.8036521917
 30
0.0
 11
1324.0260797328
 21
-345.1686220058
 31
0.0
  0
LINE
  5
2A6
100
AcDbEntity
  8
L1_120
  6
CONTINUOUS
 62
         4
100
AcDbLine
 10
1338.0260797328
 20
-331.1686220058
 30
0.0
 11
1347.97551047
 21
-321.2191912686
 31
0.0
  0
LINE
  5
2A7
100
AcDbEntity
  8
L1_120
  6
CONTINUOUS
 62
         4
100
AcDbLine
 10
1315.9008425579
 20
-349.0512184936
 30
0.0
 11
1318.6334390457
 21
-346.3186220058
 31
0.0
  0
LINE
  5
2A8
100
AcDbEntity
  8
L1_120
  6
CONTINUOUS
 62
         4
100
AcDbLine
 10
1333.7834390457
 20
-331.1686220058
 30
0.0
 11
1343.0085164949
 21
-321.9435445566
 31
0.0
  0
LINE
  5
2A9
100
AcDbEntity
  8
L1_120
  6
CONTINUOUS
 62
         4
100
AcDbLine
 10
1329.5407983586
 20
-331.1686220058
 30
0.0
 11
1338.0415225197
 21
-322.6678978447
 31
0.0
  0
LINE
  5
2AA
100
AcDbEntity
  8
L1_120
  6
CONTINUOUS
 62
         4
100
AcDbLine
 10
1325.2981576715
 20
-331.1686220058
 30
0.0
 11
1333.0745285445
 21
-323.3922511327
 31
0.0
  0
LINE
  5
2AB
100
AcDbEntity
  8
L1_120
  6
CONTINUOUS
 62
         4
100
AcDbLine
 10
1321.4296011274
 20
-330.7945378628
 30
0.0
 11
1328.1075345694
 21
-324.1166044208
 31
0.0
  0
LINE
  5
2AC
100
AcDbEntity
  8
L1_120
  6
CONTINUOUS
 62
         4
100
AcDbLine
 10
1317.9628762972
 20
-330.0186220058
 30
0.0
 11
1323.1405405942
 21
-324.8409577088
 31
0.0
  0
LINE
  5
2AD
100
AcDbEntity
  8
L1_120
  6
CONTINUOUS
 62
         4
100
AcDbLine
 10
1315.9008425579
 20
-327.838015058
 30
0.0
 11
1318.173546619
 21
-325.5653109968
 31
0.0
  0
ENDBLK
  5
2AE
100
AcDbEntity
  8
0
  6
CONTINUOUS
100
AcDbBlockEnd
  0
BLOCK
  5
2B2
100
AcDbEntity
  8
0
100
AcDbBlockBegin
  2
*D4
 70
        65
 10
0.0
 20
0.0
 30
0.0
  3
*D4
  1

  0
POINT
  5
2B4
100
AcDbEntity
  8
DEFPOINTS
  6
CONTINUOUS
 62
         0
100
AcDbPoint
 10
1468.8108157963
 20
-214.0262334432
 30
0.0
  0
POINT
  5
2B5
100
AcDbEntity
  8
DEFPOINTS
  6
CONTINUOUS
 62
         0
100
AcDbPoint
 10
1440.7739324711
 20
-214.0262334432
 30
0.0
  0
POINT
  5
2B6
100
AcDbEntity
  8
DEFPOINTS
  6
CONTINUOUS
 62
         0
100
AcDbPoint
 10
1440.7739324711
 20
-234.5262334432
 30
0.0
  0
LINE
  5
2B7
100
AcDbEntity
  8
L1_120
  6
CONTINUOUS
 62
         4
100
AcDbLine
 10
1442.1239324711
 20
-214.0262334432
 30
0.0
 11
1469.4858157963
 21
-214.0262334432
 31
0.0
  0
LINE
  5
2B8
100
AcDbEntity
  8
L1_120
  6
CONTINUOUS
 62
         4
100
AcDbLine
 10
1442.1239324711
 20
-234.5262334432
 30
0.0
 11
1469.4858157963
 21
-234.5262334432
 31
0.0
  0
LINE
  5
2B9
100
AcDbEntity
  8
L1_120
  6
CONTINUOUS
 62
         4
100
AcDbLine
 10
1468.8108157963
 20
-214.0262334432
 30
0.0
 11
1468.8108157963
 21
-234.5262334432
 31
0.0
  0
SOLID
  5
2BA
100
AcDbEntity
  8
L1_120
  6
CONTINUOUS
 62
         4
100
AcDbTrace
 10
1468.8108157963
 20
-214.0262334432
 30
0.0
 11
1469.2158157963
 21
-216.7262334432
 31
0.0
 12
1468.4058157963
 22
-216.7262334432
 32
0.0
 13
1468.8108157963
 23
-214.0262334432
 33
0.0
  0
LINE
  5
2BB
100
AcDbEntity
  8
L1_120
  6
CONTINUOUS
 62
         4
100
AcDbLine
 10
1468.8108157963
 20
-214.0262334432
 30
0.0
 11
1468.8108157963
 21
-193.7672703962
 31
0.0
  0
SOLID
  5
2BC
100
AcDbEntity
  8
L1_120
  6
CONTINUOUS
 62
         4
100
AcDbTrace
 10
1468.8108157963
 20
-234.5262334432
 30
0.0
 11
1468.4058157963
 21
-231.8262334432
 31
0.0
 12
1469.2158157963
 22
-231.8262334432
 32
0.0
 13
1468.8108157963
 23
-234.5262334432
 33
0.0
  0
TEXT
  5
2BE
100
AcDbEntity
  8
L1_120
  6
CONTINUOUS
 62
         4
100
AcDbText
 10
1465.6788157963
 20
-212.2172703962
 30
0.0
 40
2.7
  1
崷20.5
 50
90.0
  7
BOX
100
AcDbText
  0
ENDBLK
  5
2BF
100
AcDbEntity
  8
0
  6
CONTINUOUS
100
AcDbBlockEnd
  0
BLOCK
  5
2C1
100
AcDbEntity
  8
0
100
AcDbBlockBegin
  2
*D5
 70
        65
 10
0.0
 20
0.0
 30
0.0
  3
*D5
  1

  0
POINT
  5
2C3
100
AcDbEntity
  8
DEFPOINTS
  6
CONTINUOUS
 62
         0
100
AcDbPoint
 10
1384.1508425579
 20
-174.3845593132
 30
0.0
  0
POINT
  5
2C4
100
AcDbEntity
  8
DEFPOINTS
  6
CONTINUOUS
 62
         0
100
AcDbPoint
 10
1384.1508425579
 20
-202.0512334432
 30
0.0
  0
POINT
  5
2C5
100
AcDbEntity
  8
DEFPOINTS
  6
CONTINUOUS
 62
         0
100
AcDbPoint
 10
1447.6508425579
 20
-224.2762334432
 30
0.0
  0
LINE
  5
2C6
100
AcDbEntity
  8
L1_120
  6
CONTINUOUS
 62
         4
100
AcDbLine
 10
1384.1508425579
 20
-200.7012334432
 30
0.0
 11
1384.1508425579
 21
-173.7095593132
 31
0.0
  0
LINE
  5
2C7
100
AcDbEntity
  8
L1_120
  6
CONTINUOUS
 62
         4
100
AcDbLine
 10
1447.6508425579
 20
-222.9262334432
 30
0.0
 11
1447.6508425579
 21
-173.7095593132
 31
0.0
  0
LINE
  5
2C8
100
AcDbEntity
  8
L1_120
  6
CONTINUOUS
 62
         4
100
AcDbLine
 10
1384.1508425579
 20
-174.3845593132
 30
0.0
 11
1447.6508425579
 21
-174.3845593132
 31
0.0
  0
SOLID
  5
2C9
100
AcDbEntity
  8
L1_120
  6
CONTINUOUS
 62
         4
100
AcDbTrace
 10
1384.1508425579
 20
-174.3845593132
 30
0.0
 11
1386.8508425579
 21
-173.9795593132
 31
0.0
 12
1386.8508425579
 22
-174.7895593132
 32
0.0
 13
1384.1508425579
 23
-174.3845593132
 33
0.0
  0
SOLID
  5
2CA
100
AcDbEntity
  8
L1_120
  6
CONTINUOUS
 62
         4
100
AcDbTrace
 10
1447.6508425579
 20
-174.3845593132
 30
0.0
 11
1444.9508425579
 21
-174.7895593132
 31
0.0
 12
1444.9508425579
 22
-173.9795593132
 32
0.0
 13
1447.6508425579
 23
-174.3845593132
 33
0.0
  0
TEXT
  5
2CC
100
AcDbEntity
  8
L1_120
  6
CONTINUOUS
 62
         4
100
AcDbText
 10
1409.7875193949
 20
-172.3595593132
 30
0.0
 40
2.7
  1
63.5
  7
BOX
100
AcDbText
  0
ENDBLK
  5
2CD
100
AcDbEntity
  8
0
  6
CONTINUOUS
100
AcDbBlockEnd
  0
BLOCK
  5
2CF
100
AcDbEntity
  8
0
100
AcDbBlockBegin
  2
*D6
 70
        65
 10
0.0
 20
0.0
 30
0.0
  3
*D6
  1

  0
POINT
  5
2D1
100
AcDbEntity
  8
DEFPOINTS
  6
CONTINUOUS
 62
         0
100
AcDbPoint
 10
1315.9008425579
 20
-161.2356218512
 30
0.0
  0
POINT
  5
2D2
100
AcDbEntity
  8
DEFPOINTS
  6
CONTINUOUS
 62
         0
100
AcDbPoint
 10
1315.9008425579
 20
-213.0420517268
 30
0.0
  0
POINT
  5
2D3
100
AcDbEntity
  8
DEFPOINTS
  6
CONTINUOUS
 62
         0
100
AcDbPoint
 10
1447.6508425579
 20
-224.2762334432
 30
0.0
  0
LINE
  5
2D4
100
AcDbEntity
  8
L1_120
  6
CONTINUOUS
 62
         4
100
AcDbLine
 10
1315.9008425579
 20
-211.6920517268
 30
0.0
 11
1315.9008425579
 21
-160.5606218512
 31
0.0
  0
LINE
  5
2D5
100
AcDbEntity
  8
L1_120
  6
CONTINUOUS
 62
         4
100
AcDbLine
 10
1447.6508425579
 20
-222.9262334432
 30
0.0
 11
1447.6508425579
 21
-160.5606218512
 31
0.0
  0
LINE
  5
2D6
100
AcDbEntity
  8
L1_120
  6
CONTINUOUS
 62
         4
100
AcDbLine
 10
1315.9008425579
 20
-161.2356218512
 30
0.0
 11
1447.6508425579
 21
-161.2356218512
 31
0.0
  0
SOLID
  5
2D7
100
AcDbEntity
  8
L1_120
  6
CONTINUOUS
 62
         4
100
AcDbTrace
 10
1315.9008425579
 20
-161.2356218512
 30
0.0
 11
1318.6008425579
 21
-160.8306218512
 31
0.0
 12
1318.6008425579
 22
-161.6406218512
 32
0.0
 13
1315.9008425579
 23
-161.2356218512
 33
0.0
  0
SOLID
  5
2D8
100
AcDbEntity
  8
L1_120
  6
CONTINUOUS
 62
         4
100
AcDbTrace
 10
1447.6508425579
 20
-161.2356218512
 30
0.0
 11
1444.9508425579
 21
-161.6406218512
 31
0.0
 12
1444.9508425579
 22
-160.8306218512
 32
0.0
 13
1447.6508425579
 23
-161.2356218512
 33
0.0
  0
TEXT
  5
2DA
100
AcDbEntity
  8
L1_120
  6
CONTINUOUS
 62
         4
100
AcDbText
 10
1376.1875163592
 20
-159.2106218512
 30
0.0
 40
2.7
  1
131.75
  7
BOX
100
AcDbText
  0
ENDBLK
  5
2DB
100
AcDbEntity
  8
0
  6
CONTINUOUS
100
AcDbBlockEnd
  0
BLOCK
  5
329
100
AcDbEntity
  8
0
100
AcDbBlockBegin
  2
*D7
 70
        65
 10
0.0
 20
0.0
 30
0.0
  3
*D7
  1

  0
POINT
  5
32B
100
AcDbEntity
  8
DEFPOINTS
  6
CONTINUOUS
 62
         0
100
AcDbPoint
 10
1447.7951497634
 20
-294.8308449698
 30
0.0
  0
POINT
  5
32C
100
AcDbEntity
  8
DEFPOINTS
  6
CONTINUOUS
 62
         0
100
AcDbPoint
 10
1461.6562269124
 20
-294.8308449698
 30
0.0
  0
POINT
  5
32D
100
AcDbEntity
  8
DEFPOINTS
  6
CONTINUOUS
 62
         0
100
AcDbPoint
 10
1460.7672190384
 20
-302.8318609719
 30
0.0
  0
LINE
  5
32E
100
AcDbEntity
  8
L1_120
  6
CONTINUOUS
 62
         4
100
AcDbLine
 10
1460.3062269124
 20
-294.8308449698
 30
0.0
 11
1447.1201497634
 21
-294.8308449698
 31
0.0
  0
LINE
  5
32F
100
AcDbEntity
  8
L1_120
  6
CONTINUOUS
 62
         4
100
AcDbLine
 10
1459.4172190384
 20
-302.8318609719
 30
0.0
 11
1447.1201497634
 21
-302.8318609719
 31
0.0
  0
LINE
  5
330
100
AcDbEntity
  8
L1_120
  6
CONTINUOUS
 62
         4
100
AcDbLine
 10
1447.7951497634
 20
-294.8308449698
 30
0.0
 11
1447.7951497634
 21
-302.8318609719
 31
0.0
  0
SOLID
  5
331
100
AcDbEntity
  8
L1_120
  6
CONTINUOUS
 62
         4
100
AcDbTrace
 10
1447.7951497634
 20
-294.8308449698
 30
0.0
 11
1448.2001497634
 21
-297.5308449698
 31
0.0
 12
1447.3901497634
 22
-297.5308449698
 32
0.0
 13
1447.7951497634
 23
-294.8308449698
 33
0.0
  0
SOLID
  5
332
100
AcDbEntity
  8
L1_120
  6
CONTINUOUS
 62
         4
100
AcDbTrace
 10
1447.7951497634
 20
-302.8318609719
 30
0.0
 11
1447.3901497634
 21
-300.1318609719
 31
0.0
 12
1448.2001497634
 22
-300.1318609719
 32
0.0
 13
1447.7951497634
 23
-302.8318609719
 33
0.0
  0
TEXT
  5
334
100
AcDbEntity
  8
L1_120
  6
CONTINUOUS
 62
         4
100
AcDbText
 10
1445.7701497634
 20
-300.0863769293
 30
0.0
 40
2.7
  1
8
 50
90.0
  7
BOX
100
AcDbText
  0
ENDBLK
  5
335
100
AcDbEntity
  8
0
  6
CONTINUOUS
100
AcDbBlockEnd
  0
BLOCK
  5
338
100
AcDbEntity
  8
0
100
AcDbBlockBegin
  2
*D8
 70
        65
 10
0.0
 20
0.0
 30
0.0
  3
*D8
  1

  0
POINT
  5
33A
100
AcDbEntity
  8
DEFPOINTS
  6
CONTINUOUS
 62
         0
100
AcDbPoint
 10
1461.4851094038
 20
-311.8178490074
 30
0.0
  0
POINT
  5
33B
100
AcDbEntity
  8
DEFPOINTS
  6
CONTINUOUS
 62
         0
100
AcDbPoint
 10
1461.4851094038
 20
-302.8318609719
 30
0.0
  0
POINT
  5
33C
100
AcDbEntity
  8
DEFPOINTS
  6
CONTINUOUS
 62
         0
100
AcDbPoint
 10
1465.1801511266
 20
-302.8318609719
 30
0.0
  0
LINE
  5
33D
100
AcDbEntity
  8
L1_120
  6
CONTINUOUS
 62
         4
100
AcDbLine
 10
1461.4851094038
 20
-304.1818609719
 30
0.0
 11
1461.4851094038
 21
-312.4928490074
 31
0.0
  0
LINE
  5
33E
100
AcDbEntity
  8
L1_120
  6
CONTINUOUS
 62
         4
100
AcDbLine
 10
1465.1801511266
 20
-304.1818609719
 30
0.0
 11
1465.1801511266
 21
-312.4928490074
 31
0.0
  0
LINE
  5
33F
100
AcDbEntity
  8
L1_120
  6
CONTINUOUS
 62
         4
100
AcDbLine
 10
1461.4851094038
 20
-311.8178490074
 30
0.0
 11
1456.0851094038
 21
-311.8178490074
 31
0.0
  0
SOLID
  5
340
100
AcDbEntity
  8
L1_120
  6
CONTINUOUS
 62
         4
100
AcDbTrace
 10
1461.4851094038
 20
-311.8178490074
 30
0.0
 11
1458.7851094038
 21
-312.2228490074
 31
0.0
 12
1458.7851094038
 22
-311.4128490074
 32
0.0
 13
1461.4851094038
 23
-311.8178490074
 33
0.0
  0
LINE
  5
341
100
AcDbEntity
  8
L1_120
  6
CONTINUOUS
 62
         4
100
AcDbLine
 10
1465.1801511266
 20
-311.8178490074
 30
0.0
 11
1486.1343319779
 21
-311.8178490074
 31
0.0
  0
SOLID
  5
342
100
AcDbEntity
  8
L1_120
  6
CONTINUOUS
 62
         4
100
AcDbTrace
 10
1465.1801511266
 20
-311.8178490074
 30
0.0
 11
1467.8801511266
 21
-311.4128490074
 31
0.0
 12
1467.8801511266
 22
-312.2228490074
 32
0.0
 13
1465.1801511266
 23
-311.8178490074
 33
0.0
  0
LINE
  5
343
100
AcDbEntity
  8
L1_120
  6
CONTINUOUS
 62
         4
100
AcDbLine
 10
1461.4851094038
 20
-311.8178490074
 30
0.0
 11
1465.1801511266
 21
-311.8178490074
 31
0.0
  0
TEXT
  5
345
100
AcDbEntity
  8
L1_120
  6
CONTINUOUS
 62
         4
100
AcDbText
 10
1468.5843319779
 20
-309.7928490074
 30
0.0
 40
2.7
  1
3.2Hex
  7
BOX
100
AcDbText
  0
ENDBLK
  5
346
100
AcDbEntity
  8
0
  6
CONTINUOUS
100
AcDbBlockEnd
  0
BLOCK
  5
348
100
AcDbEntity
  8
0
100
AcDbBlockBegin
  2
*D9
 70
        65
 10
0.0
 20
0.0
 30
0.0
  3
*D9
  1

  0
POINT
  5
34A
100
AcDbEntity
  8
DEFPOINTS
  6
CONTINUOUS
 62
         0
100
AcDbPoint
 10
1460.1576239152
 20
-289.9315729111
 30
0.0
  0
POINT
  5
34B
100
AcDbEntity
  8
DEFPOINTS
  6
CONTINUOUS
 62
         0
100
AcDbPoint
 10
1460.1576239152
 20
-296.329447967
 30
0.0
  0
POINT
  5
34C
100
AcDbEntity
  8
DEFPOINTS
  6
CONTINUOUS
 62
         0
100
AcDbPoint
 10
1466.5076366152
 20
-296.329447967
 30
0.0
  0
LINE
  5
34D
100
AcDbEntity
  8
L1_120
  6
CONTINUOUS
 62
         4
100
AcDbLine
 10
1460.1576239152
 20
-294.979447967
 30
0.0
 11
1460.1576239152
 21
-289.2565729111
 31
0.0
  0
LINE
  5
34E
100
AcDbEntity
  8
L1_120
  6
CONTINUOUS
 62
         4
100
AcDbLine
 10
1466.5076366152
 20
-294.979447967
 30
0.0
 11
1466.5076366152
 21
-289.2565729111
 31
0.0
  0
LINE
  5
34F
100
AcDbEntity
  8
L1_120
  6
CONTINUOUS
 62
         4
100
AcDbLine
 10
1460.1576239152
 20
-289.9315729111
 30
0.0
 11
1466.5076366152
 21
-289.9315729111
 31
0.0
  0
SOLID
  5
350
100
AcDbEntity
  8
L1_120
  6
CONTINUOUS
 62
         4
100
AcDbTrace
 10
1460.1576239152
 20
-289.9315729111
 30
0.0
 11
1462.8576239152
 21
-289.5265729111
 31
0.0
 12
1462.8576239152
 22
-290.3365729111
 32
0.0
 13
1460.1576239152
 23
-289.9315729111
 33
0.0
  0
SOLID
  5
351
100
AcDbEntity
  8
L1_120
  6
CONTINUOUS
 62
         4
100
AcDbTrace
 10
1466.5076366152
 20
-289.9315729111
 30
0.0
 11
1463.8076366152
 21
-290.3365729111
 31
0.0
 12
1463.8076366152
 22
-289.5265729111
 32
0.0
 13
1466.5076366152
 23
-289.9315729111
 33
0.0
  0
TEXT
  5
353
100
AcDbEntity
  8
L1_120
  6
CONTINUOUS
 62
         4
100
AcDbText
 10
1451.5349977155
 20
-287.9065729111
 30
0.0
 40
2.7
  1
1/4"-28UNF
  7
BOX
100
AcDbText
  0
ENDBLK
  5
354
100
AcDbEntity
  8
0
  6
CONTINUOUS
100
AcDbBlockEnd
  0
ENDSEC
  0
SECTION
  2
ENTITIES
  0
LINE
  5
25
100
AcDbEntity
  8
L1_120
  6
CENTER
 62
         1
100
AcDbLine
 10
1243.1257669317
 20
-200.8729097539
 30
0.0
 11
1237.487611207
 21
-198.8207888939
 31
0.0
  0
ARC
  5
26
100
AcDbEntity
  8
L1_120
  6
CONTINUOUS
 62
         7
100
AcDbCircle
 10
1241.2202828813
 20
-200.1793702776
 30
0.0
 40
2.9722262277
100
AcDbArc
 50
141.257725858
 51
160.0
  0
ARC
  5
27
100
AcDbEntity
  8
L1_120
  6
CONTINUOUS
 62
         7
100
AcDbCircle
 10
1240.8282055258
 20
-199.8647818452
 30
0.0
 40
2.4695428935
100
AcDbArc
 50
120.6773100903
 51
141.257725858
  0
POLYLINE
  5
29
100
AcDbEntity
  8
L1_120
  6
CONTINUOUS
 62
         7
100
AcDb3dPolyline
 66
         1
 10
0.0
 20
0.0
 30
0.0
 70
         8
  0
VERTEX
  5
2B
100
AcDbEntity
  8
L1_120
  6
CONTINUOUS
 62
         7
100
AcDbVertex
100
AcDb3dPolylineVertex
 10
1239.5682389019
 20
-197.7408406479
 30
0.0
 70
        32
  0
VERTEX
  5
2D
100
AcDbEntity
  8
L1_120
  6
CONTINUOUS
 62
         7
100
AcDbVertex
100
AcDb3dPolylineVertex
 10
1239.5682389019
 20
-197.7408406479
 30
0.0
 70
        32
  0
SEQEND
  5
2F
100
AcDbEntity
  8
L1_120
  6
CONTINUOUS
 62
         7
  0
ARC
  5
30
100
AcDbEntity
  8
L1_120
  6
CONTINUOUS
 62
         7
100
AcDbCircle
 10
1240.6284669948
 20
-199.5280801526
 30
0.0
 40
2.0780540551
100
AcDbArc
 50
96.8239621528
 51
120.6773100904
  0
POLYLINE
  5
32
100
AcDbEntity
  8
L1_120
  6
CONTINUOUS
 62
         7
100
AcDb3dPolyline
 66
         1
 10
0.0
 20
0.0
 30
0.0
 70
         8
  0
VERTEX
  5
34
100
AcDbEntity
  8
L1_120
  6
CONTINUOUS
 62
         7
100
AcDbVertex
100
AcDb3dPolylineVertex
 10
1240.3815542028
 20
-197.4647472349
 30
0.0
 70
        32
  0
VERTEX
  5
36
100
AcDbEntity
  8
L1_120
  6
CONTINUOUS
 62
         7
100
AcDbVertex
100
AcDb3dPolylineVertex
 10
1240.3815542028
 20
-197.4647472349
 30
0.0
 70
        32
  0
SEQEND
  5
38
100
AcDbEntity
  8
L1_120
  6
CONTINUOUS
 62
         7
  0
ARC
  5
39
100
AcDbEntity
  8
L1_120
  6
CONTINUOUS
 62
         7
100
AcDbCircle
 10
1240.5775566661
 20
-199.1026467183
 30
0.0
 40
1.6495853065
100
AcDbArc
 50
70.0000000001
 51
96.8239621529
  0
POLYLINE
  5
3B
100
AcDbEntity
  8
L1_120
  6
CONTINUOUS
 62
         7
100
AcDb3dPolyline
 66
         1
 10
0.0
 20
0.0
 30
0.0
 70
         8
  0
VERTEX
  5
3D
100
AcDbEntity
  8
L1_120
  6
CONTINUOUS
 62
         7
100
AcDbVertex
100
AcDb3dPolylineVertex
 10
1241.141748069
 20
-197.5525435785
 30
0.0
 70
        32
  0
VERTEX
  5
3F
100
AcDbEntity
  8
L1_120
  6
CONTINUOUS
 62
         7
100
AcDbVertex
100
AcDb3dPolylineVertex
 10
1241.141748069
 20
-197.5525435785
 30
0.0
 70
        32
  0
SEQEND
  5
41
100
AcDbEntity
  8
L1_120
  6
CONTINUOUS
 62
         7
  0
ARC
  5
42
100
AcDbEntity
  8
L1_120
  6
CONTINUOUS
 62
         7
100
AcDbCircle
 10
1240.5775566661
 20
-199.1026467183
 30
0.0
 40
1.6495853065
100
AcDbArc
 50
43.1760378472
 51
70.0
  0
POLYLINE
  5
44
100
AcDbEntity
  8
L1_120
  6
CONTINUOUS
 62
         7
100
AcDb3dPolyline
 66
         1
 10
0.0
 20
0.0
 30
0.0
 70
         8
  0
VERTEX
  5
46
100
AcDbEntity
  8
L1_120
  6
CONTINUOUS
 62
         7
100
AcDbVertex
100
AcDb3dPolylineVertex
 10
1241.7805247577
 20
-197.9739308755
 30
0.0
 70
        32
  0
VERTEX
  5
48
100
AcDbEntity
  8
L1_120
  6
CONTINUOUS
 62
         7
100
AcDbVertex
100
AcDb3dPolylineVertex
 10
1241.7805247577
 20
-197.9739308755
 30
0.0
 70
        32
  0
SEQEND
  5
4A
100
AcDbEntity
  8
L1_120
  6
CONTINUOUS
 62
         7
  0
ARC
  5
4B
100
AcDbEntity
  8
L1_120
  6
CONTINUOUS
 62
         7
100
AcDbCircle
 10
1240.2650937514
 20
-199.3958231081
 30
0.0
 40
2.0780540551
100
AcDbArc
 50
19.3226899096
 51
43.1760378472
  0
POLYLINE
  5
4D
100
AcDbEntity
  8
L1_120
  6
CONTINUOUS
 62
         7
100
AcDb3dPolyline
 66
         1
 10
0.0
 20
0.0
 30
0.0
 70
         8
  0
VERTEX
  5
4F
100
AcDbEntity
  8
L1_120
  6
CONTINUOUS
 62
         7
100
AcDbVertex
100
AcDb3dPolylineVertex
 10
1242.2260909995
 20
-198.7082196985
 30
0.0
 70
        32
  0
VERTEX
  5
51
100
AcDbEntity
  8
L1_120
  6
CONTINUOUS
 62
         7
100
AcDbVertex
100
AcDb3dPolylineVertex
 10
1242.2260909995
 20
-198.7082196985
 30
0.0
 70
        32
  0
SEQEND
  5
53
100
AcDbEntity
  8
L1_120
  6
CONTINUOUS
 62
         7
  0
ARC
  5
54
100
AcDbEntity
  8
L1_120
  6
CONTINUOUS
 62
         7
100
AcDbCircle
 10
1239.8956574834
 20
-199.5253621157
 30
0.0
 40
2.4695428935
100
AcDbArc
 50
358.742274142
 51
379.3226899097
  0
POLYLINE
  5
56
100
AcDbEntity
  8
L1_120
  6
CONTINUOUS
 62
         7
100
AcDb3dPolyline
 66
         1
 10
0.0
 20
0.0
 30
0.0
 70
         8
  0
VERTEX
  5
58
100
AcDbEntity
  8
L1_120
  6
CONTINUOUS
 62
         7
100
AcDbVertex
100
AcDb3dPolylineVertex
 10
1242.3646054058
 20
-199.5795678275
 30
0.0
 70
        32
  0
VERTEX
  5
5A
100
AcDbEntity
  8
L1_120
  6
CONTINUOUS
 62
         7
100
AcDbVertex
100
AcDb3dPolylineVertex
 10
1242.3646054058
 20
-199.5795678275
 30
0.0
 70
        32
  0
SEQEND
  5
5C
100
AcDbEntity
  8
L1_120
  6
CONTINUOUS
 62
         7
  0
ARC
  5
5D
100
AcDbEntity
  8
L1_120
  6
CONTINUOUS
 62
         7
100
AcDbCircle
 10
1239.3930952575
 20
-199.5143283701
 30
0.0
 40
2.9722262277
100
AcDbArc
 50
339.9999999999
 51
358.742274142
  0
POLYLINE
  5
5F
100
AcDbEntity
  8
L1_120
  6
CONTINUOUS
 62
         7
100
AcDb3dPolyline
 66
         1
 10
0.0
 20
0.0
 30
0.0
 70
         8
  0
VERTEX
  5
61
100
AcDbEntity
  8
L1_120
  6
CONTINUOUS
 62
         7
100
AcDbVertex
100
AcDb3dPolylineVertex
 10
1242.186074311
 20
-200.5308896105
 30
0.0
 70
        32
  0
VERTEX
  5
63
100
AcDbEntity
  8
L1_120
  6
CONTINUOUS
 62
         7
100
AcDbVertex
100
AcDb3dPolylineVertex
 10
1242.186074311
 20
-200.5308896105
 30
0.0
 70
        32
  0
SEQEND
  5
65
100
AcDbEntity
  8
L1_120
  6
CONTINUOUS
 62
         7
  0
ARC
  5
66
100
AcDbEntity
  8
L1_120
  6
CONTINUOUS
 62
         7
100
AcDbCircle
 10
1239.3930952574
 20
-199.5143283701
 30
0.0
 40
2.9722262277
100
AcDbArc
 50
321.257725858
 51
340.0
  0
POLYLINE
  5
68
100
AcDbEntity
  8
L1_120
  6
CONTINUOUS
 62
         7
100
AcDb3dPolyline
 66
         1
 10
0.0
 20
0.0
 30
0.0
 70
         8
  0
VERTEX
  5
6A
100
AcDbEntity
  8
L1_120
  6
CONTINUOUS
 62
         7
100
AcDbVertex
100
AcDb3dPolylineVertex
 10
1241.7113392092
 20
-201.3744019518
 30
0.0
 70
        32
  0
VERTEX
  5
6C
100
AcDbEntity
  8
L1_120
  6
CONTINUOUS
 62
         7
100
AcDbVertex
100
AcDb3dPolylineVertex
 10
1241.7113392092
 20
-201.3744019518
 30
0.0
 70
        32
  0
SEQEND
  5
6E
100
AcDbEntity
  8
L1_120
  6
CONTINUOUS
 62
         7
  0
ARC
  5
6F
100
AcDbEntity
  8
L1_120
  6
CONTINUOUS
 62
         7
100
AcDbCircle
 10
1239.7851726129
 20
-199.8289168026
 30
0.0
 40
2.4695428935
100
AcDbArc
 50
300.6773100903
 51
321.257725858
  0
POLYLINE
  5
71
100
AcDbEntity
  8
L1_120
  6
CONTINUOUS
 62
         7
100
AcDb3dPolyline
 66
         1
 10
0.0
 20
0.0
 30
0.0
 70
         8
  0
VERTEX
  5
73
100
AcDbEntity
  8
L1_120
  6
CONTINUOUS
 62
         7
100
AcDbVertex
100
AcDb3dPolylineVertex
 10
1241.0451392368
 20
-201.9528579999
 30
0.0
 70
        32
  0
VERTEX
  5
75
100
AcDbEntity
  8
L1_120
  6
CONTINUOUS
 62
         7
100
AcDbVertex
100
AcDb3dPolylineVertex
 10
1241.0451392368
 20
-201.9528579999
 30
0.0
 70
        32
  0
SEQEND
  5
77
100
AcDbEntity
  8
L1_120
  6
CONTINUOUS
 62
         7
  0
ARC
  5
78
100
AcDbEntity
  8
L1_120
  6
CONTINUOUS
 62
         7
100
AcDbCircle
 10
1239.984911144
 20
-200.1656184952
 30
0.0
 40
2.0780540551
100
AcDbArc
 50
276.8239621528
 51
300.6773100904
  0
POLYLINE
  5
7A
100
AcDbEntity
  8
L1_120
  6
CONTINUOUS
 62
         7
100
AcDb3dPolyline
 66
         1
 10
0.0
 20
0.0
 30
0.0
 70
         8
  0
VERTEX
  5
7C
100
AcDbEntity
  8
L1_120
  6
CONTINUOUS
 62
         7
100
AcDbVertex
100
AcDb3dPolylineVertex
 10
1240.231823936
 20
-202.2289514128
 30
0.0
 70
        32
  0
VERTEX
  5
7E
100
AcDbEntity
  8
L1_120
  6
CONTINUOUS
 62
         7
100
AcDbVertex
100
AcDb3dPolylineVertex
 10
1240.231823936
 20
-202.2289514128
 30
0.0
 70
        32
  0
SEQEND
  5
80
100
AcDbEntity
  8
L1_120
  6
CONTINUOUS
 62
         7
  0
ARC
  5
81
100
AcDbEntity
  8
L1_120
  6
CONTINUOUS
 62
         7
100
AcDbCircle
 10
1240.0358214727
 20
-200.5910519294
 30
0.0
 40
1.6495853065
100
AcDbArc
 50
250.0
 51
276.8239621528
  0
POLYLINE
  5
83
100
AcDbEntity
  8
L1_120
  6
CONTINUOUS
 62
         7
100
AcDb3dPolyline
 66
         1
 10
0.0
 20
0.0
 30
0.0
 70
         8
  0
VERTEX
  5
85
100
AcDbEntity
  8
L1_120
  6
CONTINUOUS
 62
         7
100
AcDbVertex
100
AcDb3dPolylineVertex
 10
1239.4716300697
 20
-202.1411550693
 30
0.0
 70
        32
  0
VERTEX
  5
87
100
AcDbEntity
  8
L1_120
  6
CONTINUOUS
 62
         7
100
AcDbVertex
100
AcDb3dPolylineVertex
 10
1239.4716300697
 20
-202.1411550693
 30
0.0
 70
        32
  0
SEQEND
  5
89
100
AcDbEntity
  8
L1_120
  6
CONTINUOUS
 62
         7
  0
ARC
  5
8A
100
AcDbEntity
  8
L1_120
  6
CONTINUOUS
 62
         7
100
AcDbCircle
 10
1240.0358214727
 20
-200.5910519294
 30
0.0
 40
1.6495853065
100
AcDbArc
 50
223.1760378472
 51
249.9999999999
  0
POLYLINE
  5
8C
100
AcDbEntity
  8
L1_120
  6
CONTINUOUS
 62
         7
100
AcDb3dPolyline
 66
         1
 10
0.0
 20
0.0
 30
0.0
 70
         8
  0
VERTEX
  5
8E
100
AcDbEntity
  8
L1_120
  6
CONTINUOUS
 62
         7
100
AcDbVertex
100
AcDb3dPolylineVertex
 10
1238.832853381
 20
-201.7197677722
 30
0.0
 70
        32
  0
VERTEX
  5
90
100
AcDbEntity
  8
L1_120
  6
CONTINUOUS
 62
         7
100
AcDbVertex
100
AcDb3dPolylineVertex
 10
1238.832853381
 20
-201.7197677722
 30
0.0
 70
        32
  0
SEQEND
  5
92
100
AcDbEntity
  8
L1_120
  6
CONTINUOUS
 62
         7
  0
ARC
  5
93
100
AcDbEntity
  8
L1_120
  6
CONTINUOUS
 62
         7
100
AcDbCircle
 10
1240.3482843874
 20
-200.2978755397
 30
0.0
 40
2.0780540551
100
AcDbArc
 50
199.3226899097
 51
223.1760378473
  0
POLYLINE
  5
95
100
AcDbEntity
  8
L1_120
  6
CONTINUOUS
 62
         7
100
AcDb3dPolyline
 66
         1
 10
0.0
 20
0.0
 30
0.0
 70
         8
  0
VERTEX
  5
97
100
AcDbEntity
  8
L1_120
  6
CONTINUOUS
 62
         7
100
AcDbVertex
100
AcDb3dPolylineVertex
 10
1238.3872871393
 20
-200.9854789493
 30
0.0
 70
        32
  0
VERTEX
  5
99
100
AcDbEntity
  8
L1_120
  6
CONTINUOUS
 62
         7
100
AcDbVertex
100
AcDb3dPolylineVertex
 10
1238.3872871393
 20
-200.9854789493
 30
0.0
 70
        32
  0
SEQEND
  5
9B
100
AcDbEntity
  8
L1_120
  6
CONTINUOUS
 62
         7
  0
ARC
  5
9C
100
AcDbEntity
  8
L1_120
  6
CONTINUOUS
 62
         7
100
AcDbCircle
 10
1240.7177206553
 20
-200.1683365321
 30
0.0
 40
2.4695428935
100
AcDbArc
 50
178.7422741421
 51
199.3226899097
  0
POLYLINE
  5
9E
100
AcDbEntity
  8
L1_120
  6
CONTINUOUS
 62
         7
100
AcDb3dPolyline
 66
         1
 10
0.0
 20
0.0
 30
0.0
 70
         8
  0
VERTEX
  5
A0
100
AcDbEntity
  8
L1_120
  6
CONTINUOUS
 62
         7
100
AcDbVertex
100
AcDb3dPolylineVertex
 10
1238.2487727329
 20
-200.1141308202
 30
0.0
 70
        32
  0
VERTEX
  5
A2
100
AcDbEntity
  8
L1_120
  6
CONTINUOUS
 62
         7
100
AcDbVertex
100
AcDb3dPolylineVertex
 10
1238.2487727329
 20
-200.1141308202
 30
0.0
 70
        32
  0
SEQEND
  5
A4
100
AcDbEntity
  8
L1_120
  6
CONTINUOUS
 62
         7
  0
ARC
  5
A5
100
AcDbEntity
  8
L1_120
  6
CONTINUOUS
 62
         7
100
AcDbCircle
 10
1241.2202828813
 20
-200.1793702776
 30
0.0
 40
2.9722262277
100
AcDbArc
 50
160.0
 51
178.7422741421
  0
POLYLINE
  5
A7
100
AcDbEntity
  8
L1_120
  6
CONTINUOUS
 62
         7
100
AcDb3dPolyline
 66
         1
 10
0.0
 20
0.0
 30
0.0
 70
         8
  0
VERTEX
  5
A9
100
AcDbEntity
  8
L1_120
  6
CONTINUOUS
 62
         7
100
AcDbVertex
100
AcDb3dPolylineVertex
 10
1238.4273038278
 20
-199.1628090372
 30
0.0
 70
        32
  0
VERTEX
  5
AB
100
AcDbEntity
  8
L1_120
  6
CONTINUOUS
 62
         7
100
AcDbVertex
100
AcDb3dPolylineVertex
 10
1238.4273038278
 20
-199.1628090372
 30
0.0
 70
        32
  0
SEQEND
  5
AD
100
AcDbEntity
  8
L1_120
  6
CONTINUOUS
 62
         7
  0
ARC
  5
AE
100
AcDbEntity
  8
L1_120
  6
CONTINUOUS
 62
         7
100
AcDbCircle
 10
1221.7960060118
 20
-250.1392246305
 30
0.0
 40
2.0780540551
100
AcDbArc
 50
19.3226899096
 51
43.1760378472
  0
ARC
  5
AF
100
AcDbEntity
  8
L1_120
  6
CONTINUOUS
 62
         7
100
AcDbCircle
 10
1221.4265697438
 20
-250.2687636381
 30
0.0
 40
2.4695428935
100
AcDbArc
 50
358.742274142
 51
379.3226899097
  0
ARC
  5
B0
100
AcDbEntity
  8
L1_120
  6
CONTINUOUS
 62
         7
100
AcDbCircle
 10
1222.7511951417
 20
-250.9227718001
 30
0.0
 40
2.9722262277
100
AcDbArc
 50
160.0
 51
178.742274142
  0
ARC
  5
B1
100
AcDbEntity
  8
L1_120
  6
CONTINUOUS
 62
         7
100
AcDbCircle
 10
1222.2486329158
 20
-250.9117380545
 30
0.0
 40
2.4695428935
100
AcDbArc
 50
178.742274142
 51
199.3226899096
  0
ARC
  5
B2
100
AcDbEntity
  8
L1_120
  6
CONTINUOUS
 62
         7
100
AcDbCircle
 10
1221.8791966478
 20
-251.0412770621
 30
0.0
 40
2.0780540551
100
AcDbArc
 50
199.3226899096
 51
223.1760378473
  0
POLYLINE
  5
B4
100
AcDbEntity
  8
L1_120
  6
CONTINUOUS
 62
         7
100
AcDb3dPolyline
 66
         1
 10
0.0
 20
0.0
 30
0.0
 70
         8
  0
VERTEX
  5
B6
100
AcDbEntity
  8
L1_120
  6
CONTINUOUS
 62
         7
100
AcDbVertex
100
AcDb3dPolylineVertex
 10
1220.3637656414
 20
-252.4631692947
 30
0.0
 70
        32
  0
VERTEX
  5
B8
100
AcDbEntity
  8
L1_120
  6
CONTINUOUS
 62
         7
100
AcDbVertex
100
AcDb3dPolylineVertex
 10
1220.3637656414
 20
-252.4631692947
 30
0.0
 70
        32
  0
SEQEND
  5
BA
100
AcDbEntity
  8
L1_120
  6
CONTINUOUS
 62
         7
  0
ARC
  5
BB
100
AcDbEntity
  8
L1_120
  6
CONTINUOUS
 62
         7
100
AcDbCircle
 10
1221.5667337331
 20
-251.3344534519
 30
0.0
 40
1.6495853065
100
AcDbArc
 50
223.1760378472
 51
250.0
  0
POLYLINE
  5
BD
100
AcDbEntity
  8
L1_120
  6
CONTINUOUS
 62
         7
100
AcDb3dPolyline
 66
         1
 10
0.0
 20
0.0
 30
0.0
 70
         8
  0
VERTEX
  5
BF
100
AcDbEntity
  8
L1_120
  6
CONTINUOUS
 62
         7
100
AcDbVertex
100
AcDb3dPolylineVertex
 10
1221.0025423302
 20
-252.8845565917
 30
0.0
 70
        32
  0
VERTEX
  5
C1
100
AcDbEntity
  8
L1_120
  6
CONTINUOUS
 62
         7
100
AcDbVertex
100
AcDb3dPolylineVertex
 10
1221.0025423302
 20
-252.8845565917
 30
0.0
 70
        32
  0
SEQEND
  5
C3
100
AcDbEntity
  8
L1_120
  6
CONTINUOUS
 62
         7
  0
ARC
  5
C4
100
AcDbEntity
  8
L1_120
  6
CONTINUOUS
 62
         7
100
AcDbCircle
 10
1221.5667337331
 20
-251.3344534519
 30
0.0
 40
1.6495853065
100
AcDbArc
 50
250.0
 51
276.8239621528
  0
POLYLINE
  5
C6
100
AcDbEntity
  8
L1_120
  6
CONTINUOUS
 62
         7
100
AcDb3dPolyline
 66
         1
 10
0.0
 20
0.0
 30
0.0
 70
         8
  0
VERTEX
  5
C8
100
AcDbEntity
  8
L1_120
  6
CONTINUOUS
 62
         7
100
AcDbVertex
100
AcDb3dPolylineVertex
 10
1221.7627361964
 20
-252.9723529353
 30
0.0
 70
        32
  0
VERTEX
  5
CA
100
AcDbEntity
  8
L1_120
  6
CONTINUOUS
 62
         7
100
AcDbVertex
100
AcDb3dPolylineVertex
 10
1221.7627361964
 20
-252.9723529353
 30
0.0
 70
        32
  0
SEQEND
  5
CC
100
AcDbEntity
  8
L1_120
  6
CONTINUOUS
 62
         7
  0
ARC
  5
CD
100
AcDbEntity
  8
L1_120
  6
CONTINUOUS
 62
         7
100
AcDbCircle
 10
1221.5158234044
 20
-250.9090200176
 30
0.0
 40
2.0780540551
100
AcDbArc
 50
276.8239621528
 51
300.6773100903
  0
POLYLINE
  5
CF
100
AcDbEntity
  8
L1_120
  6
CONTINUOUS
 62
         7
100
AcDb3dPolyline
 66
         1
 10
0.0
 20
0.0
 30
0.0
 70
         8
  0
VERTEX
  5
D1
100
AcDbEntity
  8
L1_120
  6
CONTINUOUS
 62
         7
100
AcDbVertex
100
AcDb3dPolylineVertex
 10
1222.5760514972
 20
-252.6962595223
 30
0.0
 70
        32
  0
VERTEX
  5
D3
100
AcDbEntity
  8
L1_120
  6
CONTINUOUS
 62
         7
100
AcDbVertex
100
AcDb3dPolylineVertex
 10
1222.5760514972
 20
-252.6962595223
 30
0.0
 70
        32
  0
SEQEND
  5
D5
100
AcDbEntity
  8
L1_120
  6
CONTINUOUS
 62
         7
  0
ARC
  5
D6
100
AcDbEntity
  8
L1_120
  6
CONTINUOUS
 62
         7
100
AcDbCircle
 10
1221.3160848733
 20
-250.572318325
 30
0.0
 40
2.4695428935
100
AcDbArc
 50
300.6773100904
 51
321.2577258581
  0
POLYLINE
  5
D8
100
AcDbEntity
  8
L1_120
  6
CONTINUOUS
 62
         7
100
AcDb3dPolyline
 66
         1
 10
0.0
 20
0.0
 30
0.0
 70
         8
  0
VERTEX
  5
DA
100
AcDbEntity
  8
L1_120
  6
CONTINUOUS
 62
         7
100
AcDbVertex
100
AcDb3dPolylineVertex
 10
1223.2422514696
 20
-252.1178034742
 30
0.0
 70
        32
  0
VERTEX
  5
DC
100
AcDbEntity
  8
L1_120
  6
CONTINUOUS
 62
         7
100
AcDbVertex
100
AcDb3dPolylineVertex
 10
1223.2422514696
 20
-252.1178034742
 30
0.0
 70
        32
  0
SEQEND
  5
DE
100
AcDbEntity
  8
L1_120
  6
CONTINUOUS
 62
         7
  0
ARC
  5
DF
100
AcDbEntity
  8
L1_120
  6
CONTINUOUS
 62
         7
100
AcDbCircle
 10
1220.9240075179
 20
-250.2577298926
 30
0.0
 40
2.9722262277
100
AcDbArc
 50
321.257725858
 51
340.0
  0
POLYLINE
  5
E1
100
AcDbEntity
  8
L1_120
  6
CONTINUOUS
 62
         7
100
AcDb3dPolyline
 66
         1
 10
0.0
 20
0.0
 30
0.0
 70
         8
  0
VERTEX
  5
E3
100
AcDbEntity
  8
L1_120
  6
CONTINUOUS
 62
         7
100
AcDbVertex
100
AcDb3dPolylineVertex
 10
1223.7169865714
 20
-251.274291133
 30
0.0
 70
        32
  0
VERTEX
  5
E5
100
AcDbEntity
  8
L1_120
  6
CONTINUOUS
 62
         7
100
AcDbVertex
100
AcDb3dPolylineVertex
 10
1223.7169865714
 20
-251.274291133
 30
0.0
 70
        32
  0
SEQEND
  5
E7
100
AcDbEntity
  8
L1_120
  6
CONTINUOUS
 62
         7
  0
ARC
  5
E8
100
AcDbEntity
  8
L1_120
  6
CONTINUOUS
 62
         7
100
AcDbCircle
 10
1220.9240075179
 20
-250.2577298926
 30
0.0
 40
2.9722262277
100
AcDbArc
 50
339.9999999999
 51
358.742274142
  0
POLYLINE
  5
EA
100
AcDbEntity
  8
L1_120
  6
CONTINUOUS
 62
         7
100
AcDb3dPolyline
 66
         1
 10
0.0
 20
0.0
 30
0.0
 70
         8
  0
VERTEX
  5
EC
100
AcDbEntity
  8
L1_120
  6
CONTINUOUS
 62
         7
100
AcDbVertex
100
AcDb3dPolylineVertex
 10
1223.8955176663
 20
-250.32296935
 30
0.0
 70
        32
  0
VERTEX
  5
EE
100
AcDbEntity
  8
L1_120
  6
CONTINUOUS
 62
         7
100
AcDbVertex
100
AcDb3dPolylineVertex
 10
1223.8955176663
 20
-250.32296935
 30
0.0
 70
        32
  0
SEQEND
  5
F0
100
AcDbEntity
  8
L1_120
  6
CONTINUOUS
 62
         7
  0
POLYLINE
  5
F2
100
AcDbEntity
  8
L1_120
  6
CONTINUOUS
 62
         7
100
AcDb3dPolyline
 66
         1
 10
0.0
 20
0.0
 30
0.0
 70
         8
  0
VERTEX
  5
F4
100
AcDbEntity
  8
L1_120
  6
CONTINUOUS
 62
         7
100
AcDbVertex
100
AcDb3dPolylineVertex
 10
1223.3114370182
 20
-248.717332398
 30
0.0
 70
        32
  0
VERTEX
  5
F6
100
AcDbEntity
  8
L1_120
  6
CONTINUOUS
 62
         7
100
AcDbVertex
100
AcDb3dPolylineVertex
 10
1223.3114370182
 20
-248.717332398
 30
0.0
 70
        32
  0
SEQEND
  5
F8
100
AcDbEntity
  8
L1_120
  6
CONTINUOUS
 62
         7
  0
ARC
  5
F9
100
AcDbEntity
  8
L1_120
  6
CONTINUOUS
 62
         7
100
AcDbCircle
 10
1222.1084689265
 20
-249.8460482408
 30
0.0
 40
1.6495853065
100
AcDbArc
 50
43.1760378472
 51
70.0
  0
POLYLINE
  5
FB
100
AcDbEntity
  8
L1_120
  6
CONTINUOUS
 62
         7
100
AcDb3dPolyline
 66
         1
 10
0.0
 20
0.0
 30
0.0
 70
         8
  0
VERTEX
  5
FD
100
AcDbEntity
  8
L1_120
  6
CONTINUOUS
 62
         7
100
AcDbVertex
100
AcDb3dPolylineVertex
 10
1222.6726603294
 20
-248.2959451009
 30
0.0
 70
        32
  0
VERTEX
  5
FF
100
AcDbEntity
  8
L1_120
  6
CONTINUOUS
 62
         7
100
AcDbVertex
100
AcDb3dPolylineVertex
 10
1222.6726603294
 20
-248.2959451009
 30
0.0
 70
        32
  0
SEQEND
  5
101
100
AcDbEntity
  8
L1_120
  6
CONTINUOUS
 62
         7
  0
ARC
  5
102
100
AcDbEntity
  8
L1_120
  6
CONTINUOUS
 62
         7
100
AcDbCircle
 10
1222.1084689265
 20
-249.8460482408
 30
0.0
 40
1.6495853065
100
AcDbArc
 50
70.0
 51
96.8239621528
  0
ARC
  5
103
100
AcDbEntity
  8
L1_120
  6
CONTINUOUS
 62
         7
100
AcDbCircle
 10
1222.1593792552
 20
-250.271481675
 30
0.0
 40
2.0780540551
100
AcDbArc
 50
96.8239621528
 51
120.6773100904
  0
POLYLINE
  5
105
100
AcDbEntity
  8
L1_120
  6
CONTINUOUS
 62
         7
100
AcDb3dPolyline
 66
         1
 10
0.0
 20
0.0
 30
0.0
 70
         8
  0
VERTEX
  5
107
100
AcDbEntity
  8
L1_120
  6
CONTINUOUS
 62
         7
100
AcDbVertex
100
AcDb3dPolylineVertex
 10
1221.0991511624
 20
-248.4842421703
 30
0.0
 70
        32
  0
VERTEX
  5
109
100
AcDbEntity
  8
L1_120
  6
CONTINUOUS
 62
         7
100
AcDbVertex
100
AcDb3dPolylineVertex
 10
1221.0991511624
 20
-248.4842421703
 30
0.0
 70
        32
  0
SEQEND
  5
10B
100
AcDbEntity
  8
L1_120
  6
CONTINUOUS
 62
         7
  0
ARC
  5
10C
100
AcDbEntity
  8
L1_120
  6
CONTINUOUS
 62
         7
100
AcDbCircle
 10
1222.3591177863
 20
-250.6081833676
 30
0.0
 40
2.4695428935
100
AcDbArc
 50
120.6773100904
 51
141.257725858
  0
POLYLINE
  5
10E
100
AcDbEntity
  8
L1_120
  6
CONTINUOUS
 62
         7
100
AcDb3dPolyline
 66
         1
 10
0.0
 20
0.0
 30
0.0
 70
         8
  0
VERTEX
  5
110
100
AcDbEntity
  8
L1_120
  6
CONTINUOUS
 62
         7
100
AcDbVertex
100
AcDb3dPolylineVertex
 10
1220.43295119
 20
-249.0626982184
 30
0.0
 70
        32
  0
VERTEX
  5
112
100
AcDbEntity
  8
L1_120
  6
CONTINUOUS
 62
         7
100
AcDbVertex
100
AcDb3dPolylineVertex
 10
1220.43295119
 20
-249.0626982184
 30
0.0
 70
        32
  0
SEQEND
  5
114
100
AcDbEntity
  8
L1_120
  6
CONTINUOUS
 62
         7
  0
ARC
  5
115
100
AcDbEntity
  8
L1_120
  6
CONTINUOUS
 62
         7
100
AcDbCircle
 10
1222.7511951417
 20
-250.9227718001
 30
0.0
 40
2.9722262277
100
AcDbArc
 50
141.257725858
 51
160.0
  0
POLYLINE
  5
117
100
AcDbEntity
  8
L1_120
  6
CONTINUOUS
 62
         7
100
AcDb3dPolyline
 66
         1
 10
0.0
 20
0.0
 30
0.0
 70
         8
  0
VERTEX
  5
119
100
AcDbEntity
  8
L1_120
  6
CONTINUOUS
 62
         7
100
AcDbVertex
100
AcDb3dPolylineVertex
 10
1219.9582160882
 20
-249.9062105597
 30
0.0
 70
        32
  0
VERTEX
  5
11B
100
AcDbEntity
  8
L1_120
  6
CONTINUOUS
 62
         7
100
AcDbVertex
100
AcDb3dPolylineVertex
 10
1219.9582160882
 20
-249.9062105597
 30
0.0
 70
        32
  0
SEQEND
  5
11D
100
AcDbEntity
  8
L1_120
  6
CONTINUOUS
 62
         7
  0
LINE
  5
11E
100
AcDbEntity
  8
L1_120
  6
CENTER
 62
         1
100
AcDbLine
 10
1224.6566791922
 20
-251.6163112763
 30
0.0
 11
1219.0185234674
 21
-249.5641904163
 31
0.0
  0
ARC
  5
11F
100
AcDbEntity
  8
L1_120
  6
CONTINUOUS
 62
         7
100
AcDbCircle
 10
1231.0721451996
 20
-225.2185500851
 30
0.0
 40
31.775
100
AcDbArc
 50
195.411296411
 51
344.588703589
  0
ARC
  5
120
100
AcDbEntity
  8
L1_120
  6
CONTINUOUS
 62
         7
100
AcDbCircle
 10
1231.0721451996
 20
-225.2185500851
 30
0.0
 40
31.775
100
AcDbArc
 50
15.411296411
 51
164.588703589
  0
CIRCLE
  5
121
100
AcDbEntity
  8
L1_120
  6
CONTINUOUS
 62
         7
100
AcDbCircle
 10
1231.0721451996
 20
-225.2185500851
 30
0.0
 40
12.7165768873
  0
CIRCLE
  5
122
100
AcDbEntity
  8
L1_120
  6
CONTINUOUS
 62
         7
100
AcDbCircle
 10
1231.0721451996
 20
-225.2185500851
 30
0.0
 40
7.0
  0
ARC
  5
123
100
AcDbEntity
  8
L1_120
  6
CONTINUOUS
 62
         5
100
AcDbCircle
 10
1231.0721451996
 20
-225.2185500851
 30
0.0
 40
8.0
100
AcDbArc
 50
352.9901372228
 51
621.2264515101
  0
CIRCLE
  5
124
100
AcDbEntity
  8
L1_120
  6
CONTINUOUS
 62
         7
100
AcDbCircle
 10
1231.0721451996
 20
-225.2185500851
 30
0.0
 40
9.5
  0
CIRCLE
  5
125
100
AcDbEntity
  8
L1_120
  6
CONTINUOUS
 62
         7
100
AcDbCircle
 10
1231.0721451996
 20
-225.2185500851
 30
0.0
 40
8.5
  0
CIRCLE
  5
126
100
AcDbEntity
  8
L1_120
  6
CONTINUOUS
 62
         7
100
AcDbCircle
 10
1231.0721451996
 20
-225.2185500851
 30
0.0
 40
22.225
  0
LINE
  5
127
100
AcDbEntity
  8
L1_120
  6
CONTINUOUS
 62
         7
100
AcDbLine
 10
1261.3105271512
 20
-217.1685500851
 30
0.0
 11
1256.5721451996
 21
-217.1685500851
 31
0.0
  0
LINE
  5
128
100
AcDbEntity
  8
L1_120
  6
CONTINUOUS
 62
         7
100
AcDbLine
 10
1261.7046124323
 20
-216.7744648039
 30
0.0
 11
1261.3105271512
 21
-217.1685500851
 31
0.0
  0
LINE
  5
129
100
AcDbEntity
  8
L1_120
  6
CONTINUOUS
 62
         7
100
AcDbLine
 10
1256.0721451996
 20
-217.6685500851
 30
0.0
 11
1256.5721451996
 21
-217.1685500851
 31
0.0
  0
LINE
  5
12A
100
AcDbEntity
  8
L1_120
  6
CONTINUOUS
 62
         7
100
AcDbLine
 10
1261.7046124323
 20
-233.6626353663
 30
0.0
 11
1261.3105271512
 21
-233.2685500851
 31
0.0
  0
LINE
  5
12B
100
AcDbEntity
  8
L1_120
  6
CONTINUOUS
 62
         7
100
AcDbLine
 10
1256.0721451996
 20
-232.7685500851
 30
0.0
 11
1256.5721451996
 21
-233.2685500851
 31
0.0
  0
LINE
  5
12C
100
AcDbEntity
  8
L1_120
  6
CONTINUOUS
 62
         7
100
AcDbLine
 10
1256.0721451996
 20
-232.7685500851
 30
0.0
 11
1256.0721451996
 21
-217.6685500851
 31
0.0
  0
LINE
  5
12D
100
AcDbEntity
  8
L1_120
  6
CONTINUOUS
 62
         7
100
AcDbLine
 10
1261.3105271512
 20
-233.2685500851
 30
0.0
 11
1256.5721451996
 21
-233.2685500851
 31
0.0
  0
LINE
  5
12E
100
AcDbEntity
  8
L1_120
  6
CONTINUOUS
 62
         7
100
AcDbLine
 10
1200.4396779669
 20
-216.7744648039
 30
0.0
 11
1200.833763248
 21
-217.1685500851
 31
0.0
  0
LINE
  5
12F
100
AcDbEntity
  8
L1_120
  6
CONTINUOUS
 62
         7
100
AcDbLine
 10
1208.2721451996
 20
-217.6685500851
 30
0.0
 11
1207.7721451996
 21
-217.1685500851
 31
0.0
  0
LINE
  5
130
100
AcDbEntity
  8
L1_120
  6
CONTINUOUS
 62
         7
100
AcDbLine
 10
1207.7721451996
 20
-217.1685500851
 30
0.0
 11
1200.833763248
 21
-217.1685500851
 31
0.0
  0
LINE
  5
131
100
AcDbEntity
  8
L1_120
  6
CONTINUOUS
 62
         7
100
AcDbLine
 10
1200.4396779669
 20
-233.6626353663
 30
0.0
 11
1200.833763248
 21
-233.2685500851
 31
0.0
  0
LINE
  5
132
100
AcDbEntity
  8
L1_120
  6
CONTINUOUS
 62
         7
100
AcDbLine
 10
1207.7721451996
 20
-233.2685500851
 30
0.0
 11
1200.833763248
 21
-233.2685500851
 31
0.0
  0
LINE
  5
133
100
AcDbEntity
  8
L1_120
  6
CONTINUOUS
 62
         7
100
AcDbLine
 10
1208.2721451996
 20
-232.7685500851
 30
0.0
 11
1207.7721451996
 21
-233.2685500851
 31
0.0
  0
LINE
  5
134
100
AcDbEntity
  8
L1_120
  6
CONTINUOUS
 62
         7
100
AcDbLine
 10
1208.2721451996
 20
-232.7685500851
 30
0.0
 11
1208.2721451996
 21
-217.6685500851
 31
0.0
  0
ARC
  5
135
100
AcDbEntity
  8
L1_120
  6
CONTINUOUS
 62
         7
100
AcDbCircle
 10
1316.9008425579
 20
-329.0186220058
 30
0.0
 40
1.0
100
AcDbArc
 50
180.0
 51
270.0
  0
LINE
  5
136
100
AcDbEntity
  8
L1_120
  6
CONTINUOUS
 62
         7
100
AcDbLine
 10
1316.9008425579
 20
-330.0186220058
 30
0.0
 11
1319.6708425579
 21
-330.0186220058
 31
0.0
  0
ARC
  5
137
100
AcDbEntity
  8
L1_120
  6
CONTINUOUS
 62
         7
100
AcDbCircle
 10
1320.0703781381
 20
-330.1186220058
 30
0.0
 40
0.2
100
AcDbArc
 50
90.0
 51
105.0
  0
LINE
  5
138
100
AcDbEntity
  8
L1_120
  6
CONTINUOUS
 62
         7
100
AcDbLine
 10
1320.0186143291
 20
-329.9254368405
 30
0.0
 11
1319.6708425579
 21
-330.0186220058
 31
0.0
  0
LINE
  5
139
100
AcDbEntity
  8
L1_120
  6
CONTINUOUS
 62
         7
100
AcDbLine
 10
1320.0703781381
 20
-329.9186220058
 30
0.0
 11
1320.4708425579
 21
-329.9186220058
 31
0.0
  0
LINE
  5
13A
100
AcDbEntity
  8
L1_120
  6
CONTINUOUS
 62
         7
100
AcDbLine
 10
1320.6122639141
 20
-329.9772006495
 30
0.0
 11
1321.8036852703
 21
-331.1686220058
 31
0.0
  0
ARC
  5
13B
100
AcDbEntity
  8
L1_120
  6
CONTINUOUS
 62
         7
100
AcDbCircle
 10
1320.4708425579
 20
-330.1186220058
 30
0.0
 40
0.2
100
AcDbArc
 50
45.0000000038
 51
90.0
  0
LINE
  5
13C
100
AcDbEntity
  8
L1_120
  6
CONTINUOUS
 62
         7
100
AcDbLine
 10
1320.6708425579
 20
-330.3750991651
 30
0.0
 11
1320.6708425579
 21
-345.8473753413
 31
0.0
  0
LINE
  5
13D
100
AcDbEntity
  8
L1_120
  6
CONTINUOUS
 62
         7
100
AcDbLine
 10
1319.6708425579
 20
-330.0186220058
 30
0.0
 11
1319.6708425579
 21
-346.3186220058
 31
0.0
  0
LINE
  5
13E
100
AcDbEntity
  8
L1_120
  6
CONTINUOUS
 62
         5
100
AcDbLine
 10
1320.8036852703
 20
-330.1686220058
 30
0.0
 11
1344.3508425579
 21
-330.1686220058
 31
0.0
  0
LINE
  5
13F
100
AcDbEntity
  8
L1_120
  6
CONTINUOUS
 62
         7
100
AcDbLine
 10
1321.8036852703
 20
-331.1686220058
 30
0.0
 11
1321.8036852703
 21
-345.1686220058
 31
0.0
  0
LINE
  5
140
100
AcDbEntity
  8
L1_120
  6
CONTINUOUS
 62
         7
100
AcDbLine
 10
1320.6122639141
 20
-346.360043362
 30
0.0
 11
1321.8036852703
 21
-345.1686220058
 31
0.0
  0
ARC
  5
141
100
AcDbEntity
  8
L1_120
  6
CONTINUOUS
 62
         7
100
AcDbCircle
 10
1320.4708425579
 20
-346.2186220058
 30
0.0
 40
0.2
100
AcDbArc
 50
270.0
 51
314.9999999962
  0
LINE
  5
142
100
AcDbEntity
  8
L1_120
  6
CONTINUOUS
 62
         7
100
AcDbLine
 10
1320.0703781381
 20
-346.4186220058
 30
0.0
 11
1320.4708425579
 21
-346.4186220058
 31
0.0
  0
LINE
  5
143
100
AcDbEntity
  8
L1_120
  6
CONTINUOUS
 62
         7
100
AcDbLine
 10
1320.0186143291
 20
-346.411807171
 30
0.0
 11
1319.6708425579
 21
-346.3186220058
 31
0.0
  0
LINE
  5
144
100
AcDbEntity
  8
L1_120
  6
CONTINUOUS
 62
         7
100
AcDbLine
 10
1316.9008425579
 20
-346.3186220058
 30
0.0
 11
1319.6708425579
 21
-346.3186220058
 31
0.0
  0
ARC
  5
145
100
AcDbEntity
  8
L1_120
  6
CONTINUOUS
 62
         7
100
AcDbCircle
 10
1316.9008425579
 20
-347.3186220058
 30
0.0
 40
1.0
100
AcDbArc
 50
90.0
 51
180.0
  0
LINE
  5
146
100
AcDbEntity
  8
L1_120
  6
CONTINUOUS
 62
         5
100
AcDbLine
 10
1320.8036852703
 20
-346.1686220058
 30
0.0
 11
1344.3508425579
 21
-346.1686220058
 31
0.0
  0
LINE
  5
147
100
AcDbEntity
  8
L1_120
  6
CONTINUOUS
 62
         7
100
AcDbLine
 10
1344.3508425579
 20
-330.1686220058
 30
0.0
 11
1344.3508425579
 21
-346.1686220058
 31
0.0
  0
ARC
  5
148
100
AcDbEntity
  8
L1_120
  6
CONTINUOUS
 62
         7
100
AcDbCircle
 10
1317.1008425579
 20
-349.4028037222
 30
0.0
 40
1.2
100
AcDbArc
 50
180.0
 51
261.7028550302
  0
ARC
  5
149
100
AcDbEntity
  8
L1_120
  6
CONTINUOUS
 62
         7
100
AcDbCircle
 10
1317.1008425579
 20
-326.9344402893
 30
0.0
 40
1.2
100
AcDbArc
 50
98.2971449698
 51
180.0
  0
LINE
  5
14A
100
AcDbEntity
  8
L1_120
  6
CONTINUOUS
 62
         7
100
AcDbLine
 10
1315.9008425579
 20
-326.9344402893
 30
0.0
 11
1315.9008425579
 21
-349.4028037222
 31
0.0
  0
LINE
  5
14B
100
AcDbEntity
  8
L1_120
  6
CONTINUOUS
 62
         7
100
AcDbLine
 10
1316.7776742862
 20
-350.5683682995
 30
0.0
 11
1385.3508425583
 21
-360.5686220058
 31
0.0
  0
LINE
  5
14C
100
AcDbEntity
  8
L1_120
  6
CONTINUOUS
 62
         7
100
AcDbLine
 10
1316.7776742862
 20
-325.7688757121
 30
0.0
 11
1385.3508425579
 21
-315.7686220058
 31
0.0
  0
LINE
  5
14D
100
AcDbEntity
  8
L1_120
  6
CENTER
 62
         1
100
AcDbLine
 10
1425.2049514677
 20
-338.1686220058
 30
0.0
 11
1373.3743424247
 21
-338.1686220058
 31
0.0
  0
ARC
  5
14E
100
AcDbEntity
  8
L1_120
  6
CONTINUOUS
 62
         7
100
AcDbCircle
 10
1317.1008425579
 20
-235.5104151597
 30
0.0
 40
1.2
100
AcDbArc
 50
180.0
 51
261.7028550302
  0
ARC
  5
14F
100
AcDbEntity
  8
L1_120
  6
CONTINUOUS
 62
         7
100
AcDbCircle
 10
1317.1008425579
 20
-213.0420517268
 30
0.0
 40
1.2
100
AcDbArc
 50
98.2971449698
 51
180.0
  0
LINE
  5
150
100
AcDbEntity
  8
L1_120
  6
CONTINUOUS
 62
         7
100
AcDbLine
 10
1315.9008425579
 20
-213.0420517268
 30
0.0
 11
1315.9008425579
 21
-235.5104151597
 31
0.0
  0
LINE
  5
151
100
AcDbEntity
  8
L1_120
  6
CONTINUOUS
 62
         4
100
AcDbLine
 10
1343.5016874219
 20
-247.395472328
 30
0.0
 11
1343.8974082645
 21
-247.395472328
 31
0.0
  0
LINE
  5
152
100
AcDbEntity
  8
L1_120
  6
CONTINUOUS
 62
         7
100
AcDbLine
 10
1316.9276742862
 20
-236.6978547369
 30
0.0
 11
1385.3508425579
 21
-246.6762334432
 31
0.0
  0
LINE
  5
153
100
AcDbEntity
  8
L1_120
  6
CONTINUOUS
 62
         7
100
AcDbLine
 10
1316.9276742862
 20
-211.8546121495
 30
0.0
 11
1385.3508425579
 21
-201.8762334432
 31
0.0
  0
LINE
  5
154
100
AcDbEntity
  8
L1_120
  6
CENTER
 62
         1
100
AcDbLine
 10
1315.9008425579
 20
-224.2762334432
 30
0.0
 11
1420.5627308011
 21
-224.2762334432
 31
0.0
  0
LINE
  5
155
100
AcDbEntity
  8
L1_120
  6
CONTINUOUS
 62
         7
100
AcDbLine
 10
1315.9008425579
 20
-213.0420517268
 30
0.0
 11
1315.9008425579
 21
-235.5104151597
 31
0.0
  0
LINE
  5
156
100
AcDbEntity
  8
L1_120
  6
CENTER
 62
         1
100
AcDbLine
 10
1312.0684106267
 20
-338.1686220058
 30
0.0
 11
1439.3942236802
 21
-338.1686220058
 31
0.0
  0
LINE
  5
157
100
AcDbEntity
  8
L1_120
  6
DASHED
 62
         2
100
AcDbLine
 10
1229.0721451996
 20
-179.6406455357
 30
0.0
 11
1231.0721451996
 21
-180.795346074
 31
0.0
  0
LINE
  5
158
100
AcDbEntity
  8
L1_120
  6
CENTER
 62
         1
100
AcDbLine
 10
1231.0721451996
 20
-193.4435500851
 30
0.0
 11
1231.0721451996
 21
-256.9935500851
 31
0.0
  0
LINE
  5
159
100
AcDbEntity
  8
L1_120
  6
CENTER
 62
         1
100
AcDbLine
 10
1193.76139216
 20
-225.0406455357
 30
0.0
 11
1269.969672421
 21
-225.0406455357
 31
0.0
  0
LINE
  5
15A
100
AcDbEntity
  8
L1_120
  6
CENTER
 62
         1
100
AcDbLine
 10
1449.421735421
 20
-224.2762334432
 30
0.0
 11
1403.4678769062
 21
-224.2762334432
 31
0.0
  0
LINE
  5
15B
100
AcDbEntity
  8
L1_120
  6
CONTINUOUS
 62
         7
100
AcDbLine
 10
1387.3508425579
 20
-193.5012334432
 30
0.0
 11
1387.3508425579
 21
-255.0512334432
 31
0.0
  0
LINE
  5
15C
100
AcDbEntity
  8
L1_120
  6
CENTER
 62
         1
100
AcDbLine
 10
1384.1508425579
 20
-202.0512334432
 30
0.0
 11
1384.1508425579
 21
-246.5012334432
 31
0.0
  0
LINE
  5
15D
100
AcDbEntity
  8
L1_120
  6
CONTINUOUS
 62
         7
100
AcDbLine
 10
1386.5508425579
 20
-201.8762334432
 30
0.0
 11
1385.3508425579
 21
-201.8762334432
 31
0.0
  0
ARC
  5
15E
100
AcDbEntity
  8
L1_120
  6
CONTINUOUS
 62
         7
100
AcDbCircle
 10
1386.5508425579
 20
-201.0762334432
 30
0.0
 40
0.8
100
AcDbArc
 50
269.9999999999
 51
360.0
  0
ARC
  5
15F
100
AcDbEntity
  8
L1_120
  6
CONTINUOUS
 62
         7
100
AcDbCircle
 10
1386.5508425579
 20
-247.4762334432
 30
0.0
 40
0.8
100
AcDbArc
 50
0.0
 51
90.0000000001
  0
LINE
  5
160
100
AcDbEntity
  8
L1_120
  6
CONTINUOUS
 62
         7
100
AcDbLine
 10
1386.5508425579
 20
-246.6762334432
 30
0.0
 11
1385.3508425579
 21
-246.6762334432
 31
0.0
  0
LINE
  5
161
100
AcDbEntity
  8
L1_120
  6
CONTINUOUS
 62
         4
100
AcDbLine
 10
1418.7028425579
 20
-246.5612334432
 30
0.0
 11
1418.7028425579
 21
-201.9912334432
 31
0.0
  0
LINE
  5
162
100
AcDbEntity
  8
L1_120
  6
CONTINUOUS
 62
         4
100
AcDbLine
 10
1402.7508425579
 20
-256.0512334432
 30
0.0
 11
1402.7508425579
 21
-233.1262334432
 31
0.0
  0
LINE
  5
163
100
AcDbEntity
  8
L1_120
  6
CONTINUOUS
 62
         4
100
AcDbLine
 10
1387.8508425579
 20
-256.0512334432
 30
0.0
 11
1387.8508425579
 21
-233.1262334432
 31
0.0
  0
LINE
  5
164
100
AcDbEntity
  8
L1_120
  6
CONTINUOUS
 62
         4
100
AcDbLine
 10
1402.7508425579
 20
-215.4262334432
 30
0.0
 11
1402.7508425579
 21
-192.5012334432
 31
0.0
  0
LINE
  5
165
100
AcDbEntity
  8
L1_120
  6
CONTINUOUS
 62
         4
100
AcDbLine
 10
1387.8508425579
 20
-215.4262334432
 30
0.0
 11
1387.8508425579
 21
-192.5012334432
 31
0.0
  0
LINE
  5
166
100
AcDbEntity
  8
L1_120
  6
CONTINUOUS
 62
         7
100
AcDbLine
 10
1387.3508425579
 20
-255.5512334432
 30
0.0
 11
1387.8508425579
 21
-256.0512334432
 31
0.0
  0
LINE
  5
167
100
AcDbEntity
  8
L1_120
  6
CONTINUOUS
 62
         7
100
AcDbLine
 10
1403.2508425579
 20
-255.5512334432
 30
0.0
 11
1402.7508425579
 21
-256.0512334432
 31
0.0
  0
LINE
  5
168
100
AcDbEntity
  8
L1_120
  6
CONTINUOUS
 62
         7
100
AcDbLine
 10
1387.8508425579
 20
-256.0512334432
 30
0.0
 11
1389.3508425579
 21
-256.0512334432
 31
0.0
  0
LINE
  5
169
100
AcDbEntity
  8
L1_120
  6
CONTINUOUS
 62
         7
100
AcDbLine
 10
1401.2508425579
 20
-256.0512334432
 30
0.0
 11
1402.7508425579
 21
-256.0512334432
 31
0.0
  0
LINE
  5
16A
100
AcDbEntity
  8
L1_120
  6
CONTINUOUS
 62
         7
100
AcDbLine
 10
1387.3508425579
 20
-254.0512334432
 30
0.0
 11
1387.3508425579
 21
-255.5512334432
 31
0.0
  0
LINE
  5
16B
100
AcDbEntity
  8
L1_120
  6
CONTINUOUS
 62
         7
100
AcDbLine
 10
1403.2508425579
 20
-254.0512334432
 30
0.0
 11
1403.2508425579
 21
-255.5512334432
 31
0.0
  0
LINE
  5
16C
100
AcDbEntity
  8
L1_120
  6
CONTINUOUS
 62
         7
100
AcDbLine
 10
1402.7508425579
 20
-192.5012334432
 30
0.0
 11
1403.2508425579
 21
-193.0012334432
 31
0.0
  0
LINE
  5
16D
100
AcDbEntity
  8
L1_120
  6
CONTINUOUS
 62
         7
100
AcDbLine
 10
1387.8508425579
 20
-192.5012334432
 30
0.0
 11
1387.3508425579
 21
-193.0012334432
 31
0.0
  0
LINE
  5
16E
100
AcDbEntity
  8
L1_120
  6
CONTINUOUS
 62
         7
100
AcDbLine
 10
1403.2508425579
 20
-193.0012334432
 30
0.0
 11
1403.2508425579
 21
-194.5012334432
 31
0.0
  0
LINE
  5
16F
100
AcDbEntity
  8
L1_120
  6
CONTINUOUS
 62
         7
100
AcDbLine
 10
1401.2508425579
 20
-192.5012334432
 30
0.0
 11
1402.7508425579
 21
-192.5012334432
 31
0.0
  0
LINE
  5
170
100
AcDbEntity
  8
L1_120
  6
CONTINUOUS
 62
         7
100
AcDbLine
 10
1387.3508425579
 20
-193.0012334432
 30
0.0
 11
1387.3508425579
 21
-194.5012334432
 31
0.0
  0
LINE
  5
171
100
AcDbEntity
  8
L1_120
  6
CONTINUOUS
 62
         7
100
AcDbLine
 10
1387.8508425579
 20
-192.5012334432
 30
0.0
 11
1389.3508425579
 21
-192.5012334432
 31
0.0
  0
ARC
  5
172
100
AcDbEntity
  8
L1_120
  6
CONTINUOUS
 62
         7
100
AcDbCircle
 10
1403.7508425579
 20
-201.4912334432
 30
0.0
 40
0.5
100
AcDbArc
 50
180.0
 51
270.0
  0
ARC
  5
173
100
AcDbEntity
  8
L1_120
  6
CONTINUOUS
 62
         7
100
AcDbCircle
 10
1403.7508425579
 20
-247.0612334432
 30
0.0
 40
0.5
100
AcDbArc
 50
90.0
 51
180.0
  0
LINE
  5
174
100
AcDbEntity
  8
L1_120
  6
CONTINUOUS
 62
         7
100
AcDbLine
 10
1403.7508425579
 20
-246.5612334432
 30
0.0
 11
1418.4028425579
 21
-246.5612334432
 31
0.0
  0
LINE
  5
175
100
AcDbEntity
  8
L1_120
  6
CONTINUOUS
 62
         7
100
AcDbLine
 10
1403.2508425579
 20
-247.0612334432
 30
0.0
 11
1403.2508425579
 21
-255.0512334432
 31
0.0
  0
LINE
  5
176
100
AcDbEntity
  8
L1_120
  6
CONTINUOUS
 62
         7
100
AcDbLine
 10
1403.2508425579
 20
-193.5012334432
 30
0.0
 11
1403.2508425579
 21
-201.4912334432
 31
0.0
  0
LINE
  5
177
100
AcDbEntity
  8
L1_120
  6
CONTINUOUS
 62
         7
100
AcDbLine
 10
1391.7145721591
 20
-192.5012334432
 30
0.0
 11
1391.7145721591
 21
-215.4262334432
 31
0.0
  0
LINE
  5
178
100
AcDbEntity
  8
L1_120
  6
CONTINUOUS
 62
         7
100
AcDbLine
 10
1393.3758425579
 20
-195.378638179
 30
0.0
 11
1393.3758425579
 21
-216.2262334432
 31
0.0
  0
LINE
  5
179
100
AcDbEntity
  8
L1_120
  6
CONTINUOUS
 62
         7
100
AcDbLine
 10
1397.1258425579
 20
-195.378638179
 30
0.0
 11
1397.1258425579
 21
-216.2262334432
 31
0.0
  0
LINE
  5
17A
100
AcDbEntity
  8
L1_120
  6
CONTINUOUS
 62
         7
100
AcDbLine
 10
1398.7871129567
 20
-192.5012334432
 30
0.0
 11
1398.7871129567
 21
-215.4262334432
 31
0.0
  0
LINE
  5
17B
100
AcDbEntity
  8
L1_120
  6
CONTINUOUS
 62
         7
100
AcDbLine
 10
1402.4508425579
 20
-216.2262334432
 30
0.0
 11
1388.1508425579
 21
-216.2262334432
 31
0.0
  0
LINE
  5
17C
100
AcDbEntity
  8
L1_120
  6
CONTINUOUS
 62
         7
100
AcDbLine
 10
1402.4508425579
 20
-232.3262334432
 30
0.0
 11
1388.1508425579
 21
-232.3262334432
 31
0.0
  0
LINE
  5
17D
100
AcDbEntity
  8
L1_120
  6
CONTINUOUS
 62
         7
100
AcDbLine
 10
1391.7145721591
 20
-215.4262334432
 30
0.0
 11
1393.3758425579
 21
-216.2262334432
 31
0.0
  0
LINE
  5
17E
100
AcDbEntity
  8
L1_120
  6
CONTINUOUS
 62
         7
100
AcDbLine
 10
1391.7145721591
 20
-233.1262334432
 30
0.0
 11
1393.3758425579
 21
-232.3262334432
 31
0.0
  0
LINE
  5
17F
100
AcDbEntity
  8
L1_120
  6
CONTINUOUS
 62
         7
100
AcDbLine
 10
1388.1508425579
 20
-216.2262334432
 30
0.0
 11
1388.1508425579
 21
-232.3262334432
 31
0.0
  0
LINE
  5
180
100
AcDbEntity
  8
L1_120
  6
CONTINUOUS
 62
         7
100
AcDbLine
 10
1391.7145721591
 20
-233.1262334432
 30
0.0
 11
1387.3508425579
 21
-233.1262334432
 31
0.0
  0
LINE
  5
181
100
AcDbEntity
  8
L1_120
  6
CONTINUOUS
 62
         7
100
AcDbLine
 10
1388.1508425579
 20
-232.3262334432
 30
0.0
 11
1387.3508425579
 21
-233.1262334432
 31
0.0
  0
LINE
  5
182
100
AcDbEntity
  8
L1_120
  6
CONTINUOUS
 62
         7
100
AcDbLine
 10
1387.3508425579
 20
-215.4262334432
 30
0.0
 11
1388.1508425579
 21
-216.2262334432
 31
0.0
  0
LINE
  5
183
100
AcDbEntity
  8
L1_120
  6
CONTINUOUS
 62
         7
100
AcDbLine
 10
1391.7145721591
 20
-215.4262334432
 30
0.0
 11
1387.3508425579
 21
-215.4262334432
 31
0.0
  0
LINE
  5
184
100
AcDbEntity
  8
L1_120
  6
CONTINUOUS
 62
         7
100
AcDbLine
 10
1402.4508425579
 20
-216.2262334432
 30
0.0
 11
1402.4508425579
 21
-232.3262334432
 31
0.0
  0
LINE
  5
185
100
AcDbEntity
  8
L1_120
  6
CONTINUOUS
 62
         7
100
AcDbLine
 10
1403.2508425579
 20
-233.1262334432
 30
0.0
 11
1398.7871129567
 21
-233.1262334432
 31
0.0
  0
LINE
  5
186
100
AcDbEntity
  8
L1_120
  6
CONTINUOUS
 62
         7
100
AcDbLine
 10
1402.4508425579
 20
-232.3262334432
 30
0.0
 11
1403.2508425579
 21
-233.1262334432
 31
0.0
  0
LINE
  5
187
100
AcDbEntity
  8
L1_120
  6
CONTINUOUS
 62
         7
100
AcDbLine
 10
1397.1258425579
 20
-232.3262334432
 30
0.0
 11
1398.7871129567
 21
-233.1262334432
 31
0.0
  0
LINE
  5
188
100
AcDbEntity
  8
L1_120
  6
CONTINUOUS
 62
         7
100
AcDbLine
 10
1403.2508425579
 20
-215.4262334432
 30
0.0
 11
1402.4508425579
 21
-216.2262334432
 31
0.0
  0
LINE
  5
189
100
AcDbEntity
  8
L1_120
  6
CONTINUOUS
 62
         7
100
AcDbLine
 10
1397.1258425579
 20
-216.2262334432
 30
0.0
 11
1398.7871129567
 21
-215.4262334432
 31
0.0
  0
LINE
  5
18A
100
AcDbEntity
  8
L1_120
  6
CONTINUOUS
 62
         7
100
AcDbLine
 10
1403.2508425579
 20
-215.4262334432
 30
0.0
 11
1398.7871129567
 21
-215.4262334432
 31
0.0
  0
LINE
  5
18B
100
AcDbEntity
  8
L1_120
  6
CONTINUOUS
 62
         7
100
AcDbLine
 10
1391.7145721591
 20
-233.1262334432
 30
0.0
 11
1391.7145721591
 21
-256.0512334432
 31
0.0
  0
LINE
  5
18C
100
AcDbEntity
  8
L1_120
  6
CONTINUOUS
 62
         7
100
AcDbLine
 10
1393.3758425579
 20
-232.3262334432
 30
0.0
 11
1393.3758425579
 21
-253.1738287074
 31
0.0
  0
LINE
  5
18D
100
AcDbEntity
  8
L1_120
  6
CONTINUOUS
 62
         7
100
AcDbLine
 10
1397.1258425579
 20
-232.3262334432
 30
0.0
 11
1397.1258425579
 21
-253.1738287074
 31
0.0
  0
LINE
  5
18E
100
AcDbEntity
  8
L1_120
  6
CONTINUOUS
 62
         7
100
AcDbLine
 10
1398.7871129567
 20
-233.1262334432
 30
0.0
 11
1398.7871129567
 21
-256.0512334432
 31
0.0
  0
LINE
  5
18F
100
AcDbEntity
  8
L1_120
  6
CONTINUOUS
 62
         7
100
AcDbLine
 10
1393.3758425579
 20
-195.378638179
 30
0.0
 11
1391.7145721591
 21
-192.5012334432
 31
0.0
  0
LINE
  5
190
100
AcDbEntity
  8
L1_120
  6
CONTINUOUS
 62
         7
100
AcDbLine
 10
1393.3758425579
 20
-253.1738287074
 30
0.0
 11
1391.7145721591
 21
-256.0512334432
 31
0.0
  0
LINE
  5
191
100
AcDbEntity
  8
L1_120
  6
CONTINUOUS
 62
         7
100
AcDbLine
 10
1387.3508425579
 20
-193.5012334432
 30
0.0
 11
1387.3508425579
 21
-255.0512334432
 31
0.0
  0
LINE
  5
192
100
AcDbEntity
  8
L1_120
  6
CENTER
 62
         1
100
AcDbLine
 10
1384.1508425579
 20
-202.0512334432
 30
0.0
 11
1384.1508425579
 21
-246.5012334432
 31
0.0
  0
LINE
  5
193
100
AcDbEntity
  8
L1_120
  6
CONTINUOUS
 62
         7
100
AcDbLine
 10
1388.3508425579
 20
-256.0512334432
 30
0.0
 11
1391.7145721591
 21
-256.0512334432
 31
0.0
  0
LINE
  5
194
100
AcDbEntity
  8
L1_120
  6
CONTINUOUS
 62
         7
100
AcDbLine
 10
1388.3508425579
 20
-192.5012334432
 30
0.0
 11
1391.7145721591
 21
-192.5012334432
 31
0.0
  0
LINE
  5
195
100
AcDbEntity
  8
L1_120
  6
CONTINUOUS
 62
         7
100
AcDbLine
 10
1403.2508425579
 20
-193.5012334432
 30
0.0
 11
1403.2508425579
 21
-255.0512334432
 31
0.0
  0
LINE
  5
196
100
AcDbEntity
  8
L1_120
  6
CONTINUOUS
 62
         7
100
AcDbLine
 10
1403.2508425579
 20
-193.5012334432
 30
0.0
 11
1403.2508425579
 21
-205.2762334432
 31
0.0
  0
LINE
  5
197
100
AcDbEntity
  8
L1_120
  6
CONTINUOUS
 62
         7
100
AcDbLine
 10
1394.3496428896
 20
-252.4012334432
 30
0.0
 11
1396.1520422261
 21
-252.4012334432
 31
0.0
  0
ARC
  5
198
100
AcDbEntity
  8
L1_120
  6
CONTINUOUS
 62
         7
100
AcDbCircle
 10
1394.3496428896
 20
-253.4012334432
 30
0.0
 40
1.0
100
AcDbArc
 50
90.0
 51
166.8556743105
  0
LINE
  5
199
100
AcDbEntity
  8
L1_120
  6
CONTINUOUS
 62
         7
100
AcDbLine
 10
1397.1258425579
 20
-253.1738287074
 30
0.0
 11
1398.7871129567
 21
-256.0512334432
 31
0.0
  0
ARC
  5
19A
100
AcDbEntity
  8
L1_120
  6
CONTINUOUS
 62
         7
100
AcDbCircle
 10
1396.1520422261
 20
-253.4012334432
 30
0.0
 40
1.0
100
AcDbArc
 50
13.1443256895
 51
90.0
  0
LINE
  5
19B
100
AcDbEntity
  8
L1_120
  6
CONTINUOUS
 62
         7
100
AcDbLine
 10
1398.7871129567
 20
-256.0512334432
 30
0.0
 11
1402.2508425579
 21
-256.0512334432
 31
0.0
  0
LINE
  5
19C
100
AcDbEntity
  8
L1_120
  6
CONTINUOUS
 62
         7
100
AcDbLine
 10
1397.1258425579
 20
-195.378638179
 30
0.0
 11
1398.7871129567
 21
-192.5012334432
 31
0.0
  0
LINE
  5
19D
100
AcDbEntity
  8
L1_120
  6
CONTINUOUS
 62
         7
100
AcDbLine
 10
1398.7871129567
 20
-192.5012334432
 30
0.0
 11
1402.2508425579
 21
-192.5012334432
 31
0.0
  0
LINE
  5
19E
100
AcDbEntity
  8
L1_120
  6
CONTINUOUS
 62
         7
100
AcDbLine
 10
1394.3496428896
 20
-196.1512334432
 30
0.0
 11
1396.1520422261
 21
-196.1512334432
 31
0.0
  0
ARC
  5
19F
100
AcDbEntity
  8
L1_120
  6
CONTINUOUS
 62
         7
100
AcDbCircle
 10
1394.3496428896
 20
-195.1512334432
 30
0.0
 40
1.0
100
AcDbArc
 50
193.1443256895
 51
270.0
  0
ARC
  5
1A0
100
AcDbEntity
  8
L1_120
  6
CONTINUOUS
 62
         7
100
AcDbCircle
 10
1396.1520422261
 20
-195.1512334432
 30
0.0
 40
1.0
100
AcDbArc
 50
270.0
 51
346.8556743105
  0
LINE
  5
1A1
100
AcDbEntity
  8
L1_120
  6
CENTER
 62
         1
100
AcDbLine
 10
1380.7983511394
 20
-224.2762334432
 30
0.0
 11
1403.2508425579
 21
-224.2762334432
 31
0.0
  0
LINE
  5
1A2
100
AcDbEntity
  8
L1_120
  6
CONTINUOUS
 62
         7
100
AcDbLine
 10
1385.3508425579
 20
-246.6762334432
 30
0.0
 11
1385.3508425579
 21
-201.8762334432
 31
0.0
  0
LINE
  5
1A3
100
AcDbEntity
  8
L1_120
  6
CONTINUOUS
 62
         7
100
AcDbLine
 10
1418.7028425579
 20
-201.9912334432
 30
0.0
 11
1419.2028425579
 21
-202.4912334432
 31
0.0
  0
LINE
  5
1A4
100
AcDbEntity
  8
L1_120
  6
CONTINUOUS
 62
         7
100
AcDbLine
 10
1418.7028425579
 20
-246.5612334432
 30
0.0
 11
1417.7028425579
 21
-246.5612334432
 31
0.0
  0
LINE
  5
1A5
100
AcDbEntity
  8
L1_120
  6
CONTINUOUS
 62
         7
100
AcDbLine
 10
1419.2028425579
 20
-246.0612334432
 30
0.0
 11
1418.7028425579
 21
-246.5612334432
 31
0.0
  0
LINE
  5
1A6
100
AcDbEntity
  8
L1_120
  6
CONTINUOUS
 62
         7
100
AcDbLine
 10
1418.7028425579
 20
-201.9912334432
 30
0.0
 11
1417.7028425579
 21
-201.9912334432
 31
0.0
  0
CIRCLE
  5
1A7
100
AcDbEntity
  8
L1_120
  6
CONTINUOUS
 62
         7
100
AcDbCircle
 10
1395.2508425579
 20
-224.2762334432
 30
0.0
 40
5.0
  0
CIRCLE
  5
1A8
100
AcDbEntity
  8
L1_120
  6
CONTINUOUS
 62
         7
100
AcDbCircle
 10
1395.2508425579
 20
-211.0723457399
 30
0.0
 40
1.875
  0
CIRCLE
  5
1A9
100
AcDbEntity
  8
L1_120
  6
CONTINUOUS
 62
         7
100
AcDbCircle
 10
1395.2508425579
 20
-237.4801211466
 30
0.0
 40
1.875
  0
DIMENSION
  5
1AD
100
AcDbEntity
  8
L1_120
  6
CONTINUOUS
 62
         4
100
AcDbDimension
  2
*D0
 10
1446.7847699505
 20
-231.9300897326
 30
0.0
 11
1435.4183030417
 21
-246.741718328
 31
0.0
 70
         2
  3
DIMSTYLE1
100
AcDb2LineAngularDimension
 13
1447.6508425579
 23
-217.9818388344
 33
0.0
 14
1447.6508425579
 24
-230.570628052
 34
0.0
 15
1441.6191689945
 25
-234.3388490173
 35
0.0
 16
1437.2219773665
 26
-236.3892931478
 36
0.0
  0
LINE
  5
1BC
100
AcDbEntity
  8
L1_120
  6
CONTINUOUS
 62
         4
100
AcDbLine
 10
1441.2173217963
 20
-234.476465713
 30
0.0
 11
1441.2173217963
 21
-214.0760011734
 31
0.0
  0
ARC
  5
1BD
100
AcDbEntity
  8
L1_120
  6
CONTINUOUS
 62
         7
100
AcDbCircle
 10
1440.7739324711
 20
-232.5262334432
 30
0.0
 40
2.0
100
AcDbArc
 50
270.0
 51
295.0
  0
ARC
  5
1BE
100
AcDbEntity
  8
L1_120
  6
CONTINUOUS
 62
         7
100
AcDbCircle
 10
1440.7739324711
 20
-216.0262334432
 30
0.0
 40
2.0
100
AcDbArc
 50
65.0
 51
90.0
  0
ARC
  5
1BF
100
AcDbEntity
  8
L1_120
  6
CONTINUOUS
 62
         7
100
AcDbCircle
 10
1446.1508425579
 20
-230.570628052
 30
0.0
 40
1.5
100
AcDbArc
 50
295.0
 51
360.0
  0
ARC
  5
1C0
100
AcDbEntity
  8
L1_120
  6
CONTINUOUS
 62
         7
100
AcDbCircle
 10
1446.1508425579
 20
-217.9818388344
 30
0.0
 40
1.5
100
AcDbArc
 50
0.0
 51
65.0
  0
LINE
  5
1C1
100
AcDbEntity
  8
L1_120
  6
CONTINUOUS
 62
         7
100
AcDbLine
 10
1447.6508425579
 20
-217.9818388344
 30
0.0
 11
1447.6508425579
 21
-230.570628052
 31
0.0
  0
LINE
  5
1C2
100
AcDbEntity
  8
L1_120
  6
CONTINUOUS
 62
         7
100
AcDbLine
 10
1446.7847699505
 20
-231.9300897326
 30
0.0
 11
1441.6191689945
 21
-234.3388490173
 31
0.0
  0
LINE
  5
1C3
100
AcDbEntity
  8
L1_120
  6
CONTINUOUS
 62
         7
100
AcDbLine
 10
1446.7847699505
 20
-216.6223771539
 30
0.0
 11
1441.6191689945
 21
-214.2136178691
 31
0.0
  0
LINE
  5
1C4
100
AcDbEntity
  8
L1_120
  6
CONTINUOUS
 62
         7
100
AcDbLine
 10
1424.2028425579
 20
-214.0262334432
 30
0.0
 11
1441.2173217963
 21
-214.0262334432
 31
0.0
  0
ARC
  5
1C5
100
AcDbEntity
  8
L1_120
  6
CONTINUOUS
 62
         7
100
AcDbCircle
 10
1424.2028425579
 20
-209.0262334432
 30
0.0
 40
5.0
100
AcDbArc
 50
180.0
 51
270.0
  0
ARC
  5
1C6
100
AcDbEntity
  8
L1_120
  6
CONTINUOUS
 62
         7
100
AcDbCircle
 10
1424.2028425579
 20
-239.5262334432
 30
0.0
 40
5.0
100
AcDbArc
 50
90.0
 51
180.0
  0
LINE
  5
1C7
100
AcDbEntity
  8
L1_120
  6
CONTINUOUS
 62
         7
100
AcDbLine
 10
1424.2028425579
 20
-234.5262334432
 30
0.0
 11
1441.2173217963
 21
-234.5262334432
 31
0.0
  0
DIMENSION
  5
1CA
100
AcDbEntity
  8
L1_120
  6
CONTINUOUS
 62
         4
100
AcDbDimension
  2
*D1
 10
1459.500447714
 20
-217.0262334432
 30
0.0
 11
1457.475447714
 21
-212.1516674443
 31
0.0
  3
DIMSTYLE1
100
AcDbAlignedDimension
 13
1447.6508425579
 23
-217.0262334432
 33
0.0
 14
1447.6508425579
 24
-231.5262334432
 34
0.0
 50
90.0
100
AcDbRotatedDimension
  0
LINE
  5
1D7
100
AcDbEntity
  8
L1_120
  6
CONTINUOUS
 62
         7
100
AcDbLine
 10
1419.2028425579
 20
-202.4912334432
 30
0.0
 11
1419.2028425579
 21
-246.0612334432
 31
0.0
  0
LINE
  5
1D8
100
AcDbEntity
  8
L1_120
  6
CONTINUOUS
 62
         7
100
AcDbLine
 10
1403.7508425579
 20
-201.9912334432
 30
0.0
 11
1418.4028425579
 21
-201.9912334432
 31
0.0
  0
LINE
  5
1D9
100
AcDbEntity
  8
L1_120
  6
CENTER
 62
         1
100
AcDbLine
 10
1395.2508425579
 20
-258.9905998639
 30
0.0
 11
1395.2508425579
 21
-190.8734253935
 31
0.0
  0
ARC
  5
1DA
100
AcDbEntity
  8
L1_120
  6
CONTINUOUS
 62
         7
100
AcDbCircle
 10
1434.4748425579
 20
-319.1126220058
 30
0.0
 40
10.0
100
AcDbArc
 50
241.7148259652
 51
298.2851740348
  0
LINE
  5
1DB
100
AcDbEntity
  8
L1_120
  6
CONTINUOUS
 62
         7
100
AcDbLine
 10
1446.1508425579
 20
-341.3436220058
 30
0.0
 11
1444.6508425579
 21
-341.3436220058
 31
0.0
  0
LINE
  5
1DC
100
AcDbEntity
  8
L1_120
  6
CONTINUOUS
 62
         7
100
AcDbLine
 10
1446.1508425579
 20
-334.9936220058
 30
0.0
 11
1444.6508425579
 21
-334.9936220058
 31
0.0
  0
LINE
  5
1DD
100
AcDbEntity
  8
L1_120
  6
CENTER
 62
         1
100
AcDbLine
 10
1449.6508425579
 20
-338.1686220058
 30
0.0
 11
1409.9206616124
 21
-338.1686220058
 31
0.0
  0
LINE
  5
1DE
100
AcDbEntity
  8
L1_120
  6
CENTER
 62
         1
100
AcDbLine
 10
1452.4046056334
 20
-338.1686220058
 30
0.0
 11
1410.960000262
 21
-338.1686220058
 31
0.0
  0
LINE
  5
1DF
100
AcDbEntity
  8
L1_120
  6
CONTINUOUS
 62
         4
100
AcDbLine
 10
1442.4508425579
 20
-337.1826087086
 30
0.0
 11
1417.6508425579
 21
-337.1826087086
 31
0.0
  0
LINE
  5
1E0
100
AcDbEntity
  8
L1_120
  6
CONTINUOUS
 62
         4
100
AcDbLine
 10
1442.4508425579
 20
-339.1686220058
 30
0.0
 11
1417.6508425579
 21
-339.1686220058
 31
0.0
  0
LINE
  5
1E1
100
AcDbEntity
  8
L1_120
  6
CONTINUOUS
 62
         4
100
AcDbLine
 10
1447.6508425579
 20
-339.1686220058
 30
0.0
 11
1444.6508425579
 21
-339.1686220058
 31
0.0
  0
LINE
  5
1E2
100
AcDbEntity
  8
L1_120
  6
CONTINUOUS
 62
         4
100
AcDbLine
 10
1447.6508425579
 20
-337.1686220058
 30
0.0
 11
1444.6508425579
 21
-337.1686220058
 31
0.0
  0
ARC
  5
1E3
100
AcDbEntity
  8
L1_120
  6
CONTINUOUS
 62
         7
100
AcDbCircle
 10
1444.2508425579
 20
-333.8376220058
 30
0.0
 40
0.4
100
AcDbArc
 50
0.0
 51
90.0
  0
ARC
  5
1E4
100
AcDbEntity
  8
L1_120
  6
CONTINUOUS
 62
         7
100
AcDbCircle
 10
1442.8508425579
 20
-333.8376220058
 30
0.0
 40
0.4
100
AcDbArc
 50
90.0
 51
180.0
  0
ARC
  5
1E5
100
AcDbEntity
  8
L1_120
  6
CONTINUOUS
 62
         7
100
AcDbCircle
 10
1442.8508425579
 20
-342.4996220058
 30
0.0
 40
0.4
100
AcDbArc
 50
180.0
 51
270.0
  0
ARC
  5
1E6
100
AcDbEntity
  8
L1_120
  6
CONTINUOUS
 62
         7
100
AcDbCircle
 10
1444.2508425579
 20
-342.4996220058
 30
0.0
 40
0.4
100
AcDbArc
 50
270.0
 51
360.0
  0
LINE
  5
1E7
100
AcDbEntity
  8
L1_120
  6
CONTINUOUS
 62
         7
100
AcDbLine
 10
1444.2508425579
 20
-342.8996220058
 30
0.0
 11
1442.8508425579
 21
-342.8996220058
 31
0.0
  0
LINE
  5
1E8
100
AcDbEntity
  8
L1_120
  6
CONTINUOUS
 62
         7
100
AcDbLine
 10
1444.2508425579
 20
-333.4376220058
 30
0.0
 11
1442.8508425579
 21
-333.4376220058
 31
0.0
  0
LINE
  5
1E9
100
AcDbEntity
  8
L1_120
  6
CONTINUOUS
 62
         7
100
AcDbLine
 10
1442.4508425579
 20
-342.4996220058
 30
0.0
 11
1442.4508425579
 21
-333.8376220058
 31
0.0
  0
LINE
  5
1EA
100
AcDbEntity
  8
L1_120
  6
CONTINUOUS
 62
         7
100
AcDbLine
 10
1444.6508425579
 20
-342.4996220058
 30
0.0
 11
1444.6508425579
 21
-333.8376220058
 31
0.0
  0
LINE
  5
1EB
100
AcDbEntity
  8
L1_120
  6
CENTER
 62
         1
100
AcDbLine
 10
1395.2508425579
 20
-297.4671650943
 30
0.0
 11
1395.2508425579
 21
-331.1686220058
 31
0.0
  0
LINE
  5
1EC
100
AcDbEntity
  8
L1_120
  6
CENTER
 62
         1
100
AcDbLine
 10
1386.6402119025
 20
-310.671033064
 30
0.0
 11
1397.5941001489
 21
-318.3410281868
 31
0.0
  0
LINE
  5
1ED
100
AcDbEntity
  8
L1_120
  6
CONTINUOUS
 62
         7
100
AcDbLine
 10
1387.3508425579
 20
-308.6660340988
 30
0.0
 11
1389.6738271251
 21
-310.2926054039
 31
0.0
  0
LINE
  5
1EE
100
AcDbEntity
  8
L1_120
  6
CONTINUOUS
 62
         7
100
AcDbLine
 10
1387.3508425579
 20
-313.6101711833
 30
0.0
 11
1389.6738271251
 21
-310.2926054039
 31
0.0
  0
LINE
  5
1EF
100
AcDbEntity
  8
L1_120
  6
CONTINUOUS
 62
         4
100
AcDbLine
 10
1387.3508425579
 20
-313.6101711833
 30
0.0
 11
1391.0370267572
 21
-316.1912651469
 31
0.0
  0
LINE
  5
1F0
100
AcDbEntity
  8
L1_120
  6
CONTINUOUS
 62
         7
100
AcDbLine
 10
1387.5515943106
 20
-313.3234679678
 30
0.0
 11
1393.7008395551
 21
-317.6292158423
 31
0.0
  0
LINE
  5
1F1
100
AcDbEntity
  8
L1_120
  6
CONTINUOUS
 62
         7
100
AcDbLine
 10
1389.4443965506
 20
-310.6202662216
 30
0.0
 11
1394.6220436059
 21
-314.24569372
 31
0.0
  0
LINE
  5
1F2
100
AcDbEntity
  8
L1_120
  6
CONTINUOUS
 62
         4
100
AcDbLine
 10
1389.6451483033
 20
-310.3335630061
 30
0.0
 11
1393.3313325026
 21
-312.9146569697
 31
0.0
  0
LINE
  5
1F3
100
AcDbEntity
  8
L1_120
  6
CONTINUOUS
 62
         7
100
AcDbLine
 10
1393.3508428234
 20
-309.2277259313
 30
0.0
 11
1393.3508412176
 21
-313.3555882251
 31
0.0
  0
LINE
  5
1F4
100
AcDbEntity
  8
L1_120
  6
CONTINUOUS
 62
         7
100
AcDbLine
 10
1397.3508429582
 20
-308.8813146165
 30
0.0
 11
1397.3508409499
 21
-314.0436220058
 31
0.0
  0
LINE
  5
1F5
100
AcDbEntity
  8
L1_120
  6
CONTINUOUS
 62
         4
100
AcDbLine
 10
1397.2263409713
 20
-316.069242367
 30
0.0
 11
1395.3335387313
 21
-318.7724441131
 31
0.0
  0
LINE
  5
1F6
100
AcDbEntity
  8
L1_120
  6
CONTINUOUS
 62
         4
100
AcDbLine
 10
1396.7567941038
 20
-318.1087692334
 30
0.0
 11
1395.3335387313
 21
-318.7724441131
 31
0.0
  0
LINE
  5
1F7
100
AcDbEntity
  8
L1_120
  6
CONTINUOUS
 62
         4
100
AcDbLine
 10
1393.7239646773
 20
-317.6454082272
 30
0.0
 11
1395.1413883316
 21
-318.6378989548
 31
0.0
  0
LINE
  5
1F8
100
AcDbEntity
  8
L1_120
  6
CONTINUOUS
 62
         7
100
AcDbLine
 10
1391.0370267572
 20
-316.1912651469
 30
0.0
 11
1393.3600113244
 21
-312.8736993675
 31
0.0
  0
LINE
  5
1F9
100
AcDbEntity
  8
L1_120
  6
CONTINUOUS
 62
         4
100
AcDbLine
 10
1397.3508409499
 20
-314.0436220058
 30
0.0
 11
1394.3334536136
 21
-314.0436208319
 31
0.0
  0
LINE
  5
1FA
100
AcDbEntity
  8
L1_120
  6
CONTINUOUS
 62
         7
100
AcDbLine
 10
1397.0008408713
 20
-314.2456946454
 30
0.0
 11
1394.6220436059
 21
-314.24569372
 31
0.0
  0
LINE
  5
1FB
100
AcDbEntity
  8
L1_120
  6
CONTINUOUS
 62
         7
100
AcDbLine
 10
1397.3508409499
 20
-314.0436220058
 30
0.0
 11
1397.0008408713
 21
-314.2456946454
 31
0.0
  0
LINE
  5
1FC
100
AcDbEntity
  8
L1_120
  6
CONTINUOUS
 62
         7
100
AcDbLine
 10
1397.0008408713
 20
-314.2456946454
 30
0.0
 11
1397.0008402234
 21
-315.9113450434
 31
0.0
  0
LINE
  5
1FD
100
AcDbEntity
  8
L1_120
  6
CONTINUOUS
 62
         7
100
AcDbLine
 10
1397.0008402234
 20
-315.9113450434
 30
0.0
 11
1397.2263409713
 21
-316.069242367
 31
0.0
  0
LINE
  5
1FE
100
AcDbEntity
  8
L1_120
  6
CONTINUOUS
 62
         7
100
AcDbLine
 10
1397.2263409713
 20
-316.069242367
 30
0.0
 11
1397.0602869792
 21
-317.9672481814
 31
0.0
  0
LINE
  5
1FF
100
AcDbEntity
  8
L1_120
  6
CONTINUOUS
 62
         4
100
AcDbLine
 10
1395.3912661694
 20
-314.7843091575
 30
0.0
 11
1396.8086898237
 21
-315.7767998851
 31
0.0
  0
LINE
  5
200
100
AcDbEntity
  8
L1_120
  6
CONTINUOUS
 62
         7
100
AcDbLine
 10
1397.0008394128
 20
-317.9949690369
 30
0.0
 11
1397.000834288
 21
-331.1686220058
 31
0.0
  0
LINE
  5
201
100
AcDbEntity
  8
L1_120
  6
CONTINUOUS
 62
         7
100
AcDbLine
 10
1393.7008395551
 20
-317.6292158423
 30
0.0
 11
1393.700834288
 21
-331.1686220058
 31
0.0
  0
LINE
  5
202
100
AcDbEntity
  8
L1_120
  6
CENTER
 62
         1
100
AcDbLine
 10
1453.7049514677
 20
-338.1686220058
 30
0.0
 11
1401.8743424247
 21
-338.1686220058
 31
0.0
  0
LINE
  5
203
100
AcDbEntity
  8
L1_120
  6
CONTINUOUS
 62
         7
100
AcDbLine
 10
1417.6508425579
 20
-341.3436220058
 30
0.0
 11
1417.6508425579
 21
-334.9936220058
 31
0.0
  0
LINE
  5
204
100
AcDbEntity
  8
L1_120
  6
CONTINUOUS
 62
         7
100
AcDbLine
 10
1415.4424777782
 20
-331.1686220058
 30
0.0
 11
1417.6508425579
 21
-334.9936220058
 31
0.0
  0
LINE
  5
205
100
AcDbEntity
  8
L1_120
  6
CONTINUOUS
 62
         7
100
AcDbLine
 10
1415.4424777782
 20
-345.1686220058
 30
0.0
 11
1417.6508425579
 21
-341.3436220058
 31
0.0
  0
LINE
  5
206
100
AcDbEntity
  8
L1_120
  6
CONTINUOUS
 62
         7
100
AcDbLine
 10
1415.4424777782
 20
-345.1686220058
 30
0.0
 11
1415.4424777782
 21
-331.1686220058
 31
0.0
  0
LINE
  5
207
100
AcDbEntity
  8
L1_120
  6
CENTER
 62
         1
100
AcDbLine
 10
1434.4748425579
 20
-325.9776415681
 30
0.0
 11
1434.4748425579
 21
-331.6338640037
 31
0.0
  0
DIMENSION
  5
20A
100
AcDbEntity
  8
L1_120
  6
CONTINUOUS
 62
         4
100
AcDbDimension
  2
*D2
 10
1447.6508425579
 20
-374.4141841613
 30
0.0
 11
1429.3815700084
 21
-372.3891841613
 31
0.0
  3
DIMSTYLE1
100
AcDbAlignedDimension
 13
1447.6508425579
 23
-344.4630166146
 33
0.0
 14
1417.6508425579
 24
-341.3436220058
 34
0.0
100
AcDbRotatedDimension
  0
LINE
  5
216
100
AcDbEntity
  8
L1_120
  6
CONTINUOUS
 62
         7
100
AcDbLine
 10
1386.5508425579
 20
-315.7686220058
 30
0.0
 11
1385.3508425579
 21
-315.7686220058
 31
0.0
  0
ARC
  5
217
100
AcDbEntity
  8
L1_120
  6
CONTINUOUS
 62
         7
100
AcDbCircle
 10
1386.5508425579
 20
-314.9686220058
 30
0.0
 40
0.8
100
AcDbArc
 50
269.9999999999
 51
360.0
  0
ARC
  5
218
100
AcDbEntity
  8
L1_120
  6
CONTINUOUS
 62
         7
100
AcDbCircle
 10
1386.5508425579
 20
-361.3686220058
 30
0.0
 40
0.8
100
AcDbArc
 50
0.0
 51
90.0000000001
  0
LINE
  5
219
100
AcDbEntity
  8
L1_120
  6
CONTINUOUS
 62
         7
100
AcDbLine
 10
1386.5508425579
 20
-360.5686220058
 30
0.0
 11
1385.3508425579
 21
-360.5686220058
 31
0.0
  0
LINE
  5
21A
100
AcDbEntity
  8
L1_120
  6
CONTINUOUS
 62
         7
100
AcDbLine
 10
1402.7508425579
 20
-306.3936220058
 30
0.0
 11
1403.2508425579
 21
-306.8936220058
 31
0.0
  0
LINE
  5
21B
100
AcDbEntity
  8
L1_120
  6
CONTINUOUS
 62
         7
100
AcDbLine
 10
1387.3508425579
 20
-306.8936220058
 30
0.0
 11
1387.8508425579
 21
-306.3936220058
 31
0.0
  0
LINE
  5
21C
100
AcDbEntity
  8
L1_120
  6
CONTINUOUS
 62
         7
100
AcDbLine
 10
1387.3508425579
 20
-369.4436220058
 30
0.0
 11
1387.8508425579
 21
-369.9436220058
 31
0.0
  0
LINE
  5
21D
100
AcDbEntity
  8
L1_120
  6
CONTINUOUS
 62
         7
100
AcDbLine
 10
1403.2508425579
 20
-369.4436220058
 30
0.0
 11
1402.7508425579
 21
-369.9436220058
 31
0.0
  0
LINE
  5
21E
100
AcDbEntity
  8
L1_120
  6
CONTINUOUS
 62
         7
100
AcDbLine
 10
1387.8508425579
 20
-306.3936220058
 30
0.0
 11
1389.3508425579
 21
-306.3936220058
 31
0.0
  0
LINE
  5
21F
100
AcDbEntity
  8
L1_120
  6
CONTINUOUS
 62
         7
100
AcDbLine
 10
1387.3508425579
 20
-306.8936220058
 30
0.0
 11
1387.3508425579
 21
-308.3936220058
 31
0.0
  0
LINE
  5
220
100
AcDbEntity
  8
L1_120
  6
CONTINUOUS
 62
         7
100
AcDbLine
 10
1401.2508425579
 20
-306.3936220058
 30
0.0
 11
1402.7508425579
 21
-306.3936220058
 31
0.0
  0
LINE
  5
221
100
AcDbEntity
  8
L1_120
  6
CONTINUOUS
 62
         7
100
AcDbLine
 10
1387.8508425579
 20
-369.9436220058
 30
0.0
 11
1389.3508425579
 21
-369.9436220058
 31
0.0
  0
LINE
  5
222
100
AcDbEntity
  8
L1_120
  6
CONTINUOUS
 62
         7
100
AcDbLine
 10
1401.2508425579
 20
-369.9436220058
 30
0.0
 11
1402.7508425579
 21
-369.9436220058
 31
0.0
  0
LINE
  5
223
100
AcDbEntity
  8
L1_120
  6
CONTINUOUS
 62
         7
100
AcDbLine
 10
1403.2508425579
 20
-306.8936220058
 30
0.0
 11
1403.2508425579
 21
-308.3936220058
 31
0.0
  0
LINE
  5
224
100
AcDbEntity
  8
L1_120
  6
CONTINUOUS
 62
         7
100
AcDbLine
 10
1387.3508425579
 20
-367.9436220058
 30
0.0
 11
1387.3508425579
 21
-369.4436220058
 31
0.0
  0
LINE
  5
225
100
AcDbEntity
  8
L1_120
  6
CONTINUOUS
 62
         7
100
AcDbLine
 10
1403.2508425579
 20
-367.9436220058
 30
0.0
 11
1403.2508425579
 21
-369.4436220058
 31
0.0
  0
LINE
  5
226
100
AcDbEntity
  8
L1_120
  6
CONTINUOUS
 62
         7
100
AcDbLine
 10
1403.2508425579
 20
-360.9536220058
 30
0.0
 11
1403.2508425579
 21
-368.943622006
 31
0.0
  0
LINE
  5
227
100
AcDbEntity
  8
L1_120
  6
CONTINUOUS
 62
         7
100
AcDbLine
 10
1403.2508425579
 20
-307.3936220056
 30
0.0
 11
1403.2508425579
 21
-315.3836220058
 31
0.0
  0
LINE
  5
228
100
AcDbEntity
  8
L1_120
  6
CONTINUOUS
 62
         7
100
AcDbLine
 10
1403.7508425579
 20
-315.8836220058
 30
0.0
 11
1418.4028425579
 21
-315.8836220058
 31
0.0
  0
LINE
  5
229
100
AcDbEntity
  8
L1_120
  6
CONTINUOUS
 62
         7
100
AcDbLine
 10
1403.7508425579
 20
-360.4536220058
 30
0.0
 11
1418.4028425579
 21
-360.4536220058
 31
0.0
  0
ARC
  5
22A
100
AcDbEntity
  8
L1_120
  6
CONTINUOUS
 62
         7
100
AcDbCircle
 10
1403.7508425579
 20
-360.9536220058
 30
0.0
 40
0.5
100
AcDbArc
 50
90.0
 51
180.0
  0
ARC
  5
22B
100
AcDbEntity
  8
L1_120
  6
CONTINUOUS
 62
         7
100
AcDbCircle
 10
1403.7508425579
 20
-315.3836220058
 30
0.0
 40
0.5
100
AcDbArc
 50
180.0
 51
270.0
  0
LINE
  5
22C
100
AcDbEntity
  8
L1_120
  6
CONTINUOUS
 62
         7
100
AcDbLine
 10
1398.7871129567
 20
-369.943622006
 30
0.0
 11
1402.2508425579
 21
-369.943622006
 31
0.0
  0
LINE
  5
22D
100
AcDbEntity
  8
L1_120
  6
CONTINUOUS
 62
         7
100
AcDbLine
 10
1397.1258425579
 20
-367.06621727
 30
0.0
 11
1398.7871129567
 21
-369.9436220058
 31
0.0
  0
ARC
  5
22E
100
AcDbEntity
  8
L1_120
  6
CONTINUOUS
 62
         7
100
AcDbCircle
 10
1396.1520422261
 20
-367.293622006
 30
0.0
 40
1.0
100
AcDbArc
 50
13.1443256895
 51
90.0
  0
LINE
  5
22F
100
AcDbEntity
  8
L1_120
  6
CONTINUOUS
 62
         7
100
AcDbLine
 10
1394.3496428896
 20
-366.2936220058
 30
0.0
 11
1396.1520422261
 21
-366.2936220058
 31
0.0
  0
ARC
  5
230
100
AcDbEntity
  8
L1_120
  6
CONTINUOUS
 62
         7
100
AcDbCircle
 10
1394.3496428896
 20
-367.2936220058
 30
0.0
 40
1.0
100
AcDbArc
 50
90.0
 51
166.8556743105
  0
LINE
  5
231
100
AcDbEntity
  8
L1_120
  6
CONTINUOUS
 62
         7
100
AcDbLine
 10
1393.3758425579
 20
-367.06621727
 30
0.0
 11
1391.7145721591
 21
-369.9436220058
 31
0.0
  0
LINE
  5
232
100
AcDbEntity
  8
L1_120
  6
CONTINUOUS
 62
         7
100
AcDbLine
 10
1387.3508425579
 20
-361.3686220058
 30
0.0
 11
1387.3508425579
 21
-368.943622006
 31
0.0
  0
LINE
  5
233
100
AcDbEntity
  8
L1_120
  6
CONTINUOUS
 62
         7
100
AcDbLine
 10
1388.3508425579
 20
-369.943622006
 30
0.0
 11
1391.7145721591
 21
-369.943622006
 31
0.0
  0
LINE
  5
234
100
AcDbEntity
  8
L1_120
  6
CONTINUOUS
 62
         7
100
AcDbLine
 10
1387.3508425579
 20
-314.9686220058
 30
0.0
 11
1387.3508425579
 21
-307.3936220056
 31
0.0
  0
LINE
  5
235
100
AcDbEntity
  8
L1_120
  6
CONTINUOUS
 62
         7
100
AcDbLine
 10
1388.3508425579
 20
-306.3936220056
 30
0.0
 11
1391.7145721591
 21
-306.3936220056
 31
0.0
  0
LINE
  5
236
100
AcDbEntity
  8
L1_120
  6
CONTINUOUS
 62
         7
100
AcDbLine
 10
1393.3758425579
 20
-309.2710267416
 30
0.0
 11
1391.7145721591
 21
-306.3936220058
 31
0.0
  0
ARC
  5
237
100
AcDbEntity
  8
L1_120
  6
CONTINUOUS
 62
         7
100
AcDbCircle
 10
1394.3496428896
 20
-309.0436220056
 30
0.0
 40
1.0
100
AcDbArc
 50
193.1443256895
 51
270.0
  0
LINE
  5
238
100
AcDbEntity
  8
L1_120
  6
CONTINUOUS
 62
         7
100
AcDbLine
 10
1394.3496428896
 20
-310.0436220056
 30
0.0
 11
1396.1520422261
 21
-310.0436220056
 31
0.0
  0
ARC
  5
239
100
AcDbEntity
  8
L1_120
  6
CONTINUOUS
 62
         7
100
AcDbCircle
 10
1396.1520422261
 20
-309.0436220056
 30
0.0
 40
1.0
100
AcDbArc
 50
270.0
 51
346.8556743105
  0
LINE
  5
23A
100
AcDbEntity
  8
L1_120
  6
CONTINUOUS
 62
         7
100
AcDbLine
 10
1397.1258425579
 20
-309.2710267414
 30
0.0
 11
1398.7871129567
 21
-306.3936220056
 31
0.0
  0
LINE
  5
23B
100
AcDbEntity
  8
L1_120
  6
CONTINUOUS
 62
         7
100
AcDbLine
 10
1398.7871129567
 20
-306.3936220056
 30
0.0
 11
1402.2508425579
 21
-306.3936220056
 31
0.0
  0
LINE
  5
23C
100
AcDbEntity
  8
L1_120
  6
CONTINUOUS
 62
         7
100
AcDbLine
 10
1419.2028425579
 20
-316.3836220058
 30
0.0
 11
1419.2028425579
 21
-322.9186220058
 31
0.0
  0
LINE
  5
23D
100
AcDbEntity
  8
L1_120
  6
CONTINUOUS
 62
         7
100
AcDbLine
 10
1419.2028425579
 20
-353.4186220058
 30
0.0
 11
1419.2028425579
 21
-359.9536220058
 31
0.0
  0
LINE
  5
23E
100
AcDbEntity
  8
L1_120
  6
CONTINUOUS
 62
         7
100
AcDbLine
 10
1418.7028425579
 20
-360.4536220058
 30
0.0
 11
1417.7028425579
 21
-360.4536220058
 31
0.0
  0
LINE
  5
23F
100
AcDbEntity
  8
L1_120
  6
CONTINUOUS
 62
         7
100
AcDbLine
 10
1418.7028425579
 20
-315.8836220058
 30
0.0
 11
1417.7028425579
 21
-315.8836220058
 31
0.0
  0
LINE
  5
240
100
AcDbEntity
  8
L1_120
  6
CONTINUOUS
 62
         7
100
AcDbLine
 10
1419.2028425579
 20
-359.9536220058
 30
0.0
 11
1418.7028425579
 21
-360.4536220058
 31
0.0
  0
LINE
  5
241
100
AcDbEntity
  8
L1_120
  6
CONTINUOUS
 62
         7
100
AcDbLine
 10
1418.7028425579
 20
-315.8836220058
 30
0.0
 11
1419.2028425579
 21
-316.3836220058
 31
0.0
  0
ARC
  5
242
100
AcDbEntity
  8
L1_120
  6
CONTINUOUS
 62
         7
100
AcDbCircle
 10
1424.2028425579
 20
-322.9186220058
 30
0.0
 40
5.0
100
AcDbArc
 50
180.0
 51
270.0
  0
LINE
  5
243
100
AcDbEntity
  8
L1_120
  6
CONTINUOUS
 62
         7
100
AcDbLine
 10
1446.7847699505
 20
-330.5147657164
 30
0.0
 11
1441.6191689945
 21
-328.1060064317
 31
0.0
  0
ARC
  5
244
100
AcDbEntity
  8
L1_120
  6
CONTINUOUS
 62
         7
100
AcDbCircle
 10
1440.7739324711
 20
-329.9186220058
 30
0.0
 40
2.0
100
AcDbArc
 50
65.0
 51
90.0
  0
ARC
  5
245
100
AcDbEntity
  8
L1_120
  6
CONTINUOUS
 62
         7
100
AcDbCircle
 10
1446.1508425579
 20
-331.874227397
 30
0.0
 40
1.5
100
AcDbArc
 50
0.0
 51
65.0
  0
LINE
  5
246
100
AcDbEntity
  8
L1_120
  6
CONTINUOUS
 62
         7
100
AcDbLine
 10
1447.6508425579
 20
-331.874227397
 30
0.0
 11
1447.6508425579
 21
-344.4630166146
 31
0.0
  0
ARC
  5
247
100
AcDbEntity
  8
L1_120
  6
CONTINUOUS
 62
         7
100
AcDbCircle
 10
1446.1508425579
 20
-344.4630166146
 30
0.0
 40
1.5
100
AcDbArc
 50
295.0
 51
360.0
  0
LINE
  5
248
100
AcDbEntity
  8
L1_120
  6
CONTINUOUS
 62
         7
100
AcDbLine
 10
1446.7847699505
 20
-345.8224782951
 30
0.0
 11
1441.6191689945
 21
-348.2312375798
 31
0.0
  0
LINE
  5
249
100
AcDbEntity
  8
L1_120
  6
CONTINUOUS
 62
         7
100
AcDbLine
 10
1424.2028425579
 20
-348.4186220058
 30
0.0
 11
1441.2173217963
 21
-348.4186220058
 31
0.0
  0
ARC
  5
24A
100
AcDbEntity
  8
L1_120
  6
CONTINUOUS
 62
         7
100
AcDbCircle
 10
1440.7739324711
 20
-346.4186220058
 30
0.0
 40
2.0
100
AcDbArc
 50
270.0
 51
295.0
  0
ARC
  5
24B
100
AcDbEntity
  8
L1_120
  6
CONTINUOUS
 62
         7
100
AcDbCircle
 10
1424.2028425579
 20
-353.4186220058
 30
0.0
 40
5.0
100
AcDbArc
 50
90.0
 51
180.0
  0
ARC
  5
24C
100
AcDbEntity
  8
L1_120
  6
CONTINUOUS
 62
         7
100
AcDbCircle
 10
1446.1508425579
 20
-342.8436220058
 30
0.0
 40
1.5
100
AcDbArc
 50
0.0
 51
45.0220597071
  0
ARC
  5
24D
100
AcDbEntity
  8
L1_120
  6
CONTINUOUS
 62
         7
100
AcDbCircle
 10
1446.1508425579
 20
-342.8436220058
 30
0.0
 40
1.5
100
AcDbArc
 50
74.9779402929
 51
90.0
  0
LINE
  5
24E
100
AcDbEntity
  8
L1_120
  6
CONTINUOUS
 62
         7
100
AcDbLine
 10
1447.2110942815
 20
-341.782553543
 30
0.0
 11
1446.5396289399
 21
-341.3948828474
 31
0.0
  0
ARC
  5
24F
100
AcDbEntity
  8
L1_120
  6
CONTINUOUS
 62
         7
100
AcDbCircle
 10
1446.1508425579
 20
-333.4936220058
 30
0.0
 40
1.5
100
AcDbArc
 50
314.9779402929
 51
360.0
  0
ARC
  5
250
100
AcDbEntity
  8
L1_120
  6
CONTINUOUS
 62
         7
100
AcDbCircle
 10
1446.1508425579
 20
-333.4936220058
 30
0.0
 40
1.5
100
AcDbArc
 50
270.0
 51
285.0220597071
  0
LINE
  5
251
100
AcDbEntity
  8
L1_120
  6
CONTINUOUS
 62
         7
100
AcDbLine
 10
1447.2110942815
 20
-334.5546904685
 30
0.0
 11
1446.5396289399
 21
-334.9423611642
 31
0.0
  0
LINE
  5
252
100
AcDbEntity
  8
L1_120
  6
CONTINUOUS
 62
         4
100
AcDbLine
 10
1446.1508425579
 20
-334.9936220058
 30
0.0
 11
1446.1508425579
 21
-341.3436220058
 31
0.0
  0
LINE
  5
253
100
AcDbEntity
  8
L1_120
  6
CONTINUOUS
 62
         7
100
AcDbLine
 10
1442.4508425579
 20
-334.9936220058
 30
0.0
 11
1417.6508425579
 21
-334.9936220058
 31
0.0
  0
LINE
  5
254
100
AcDbEntity
  8
L1_120
  6
CONTINUOUS
 62
         7
100
AcDbLine
 10
1442.4508425579
 20
-341.3436220058
 30
0.0
 11
1417.6508425579
 21
-341.3436220058
 31
0.0
  0
LINE
  5
255
100
AcDbEntity
  8
L1_120
  6
CONTINUOUS
 62
         7
100
AcDbLine
 10
1429.3718425579
 20
-348.4186220058
 30
0.0
 11
1430.4008425579
 21
-347.3896220058
 31
0.0
  0
LINE
  5
256
100
AcDbEntity
  8
L1_120
  6
CONTINUOUS
 62
         7
100
AcDbLine
 10
1436.9298425579
 20
-348.4186220058
 30
0.0
 11
1435.9008425579
 21
-347.3896220058
 31
0.0
  0
LINE
  5
257
100
AcDbEntity
  8
L1_120
  6
CONTINUOUS
 62
         4
100
AcDbLine
 10
1429.9508425579
 20
-347.8396220058
 30
0.0
 11
1429.9508425579
 21
-341.3436220058
 31
0.0
  0
LINE
  5
258
100
AcDbEntity
  8
L1_120
  6
CONTINUOUS
 62
         7
100
AcDbLine
 10
1430.4008425579
 20
-347.3896220058
 30
0.0
 11
1430.4008425579
 21
-341.3436220058
 31
0.0
  0
LINE
  5
259
100
AcDbEntity
  8
L1_120
  6
CONTINUOUS
 62
         4
100
AcDbLine
 10
1436.3508425579
 20
-347.8396220058
 30
0.0
 11
1436.3508425579
 21
-341.3436220058
 31
0.0
  0
LINE
  5
25A
100
AcDbEntity
  8
L1_120
  6
CONTINUOUS
 62
         7
100
AcDbLine
 10
1435.9008425579
 20
-341.3436220058
 30
0.0
 11
1435.9008425579
 21
-347.3896220058
 31
0.0
  0
LINE
  5
25B
100
AcDbEntity
  8
L1_120
  6
CONTINUOUS
 62
         7
100
AcDbLine
 10
1435.9008425579
 20
-347.3896220058
 30
0.0
 11
1430.4008425579
 21
-347.3896220058
 31
0.0
  0
LINE
  5
25C
100
AcDbEntity
  8
L1_120
  6
CENTER
 62
         1
100
AcDbLine
 10
1433.1508425579
 20
-340.3214191325
 30
0.0
 11
1433.1508425579
 21
-351.6338640037
 31
0.0
  0
LINE
  5
25D
100
AcDbEntity
  8
L1_120
  6
CONTINUOUS
 62
         7
100
AcDbLine
 10
1321.8036852703
 20
-331.1686220058
 30
0.0
 11
1415.4424777782
 21
-331.1686220058
 31
0.0
  0
LINE
  5
25E
100
AcDbEntity
  8
L1_120
  6
CONTINUOUS
 62
         7
100
AcDbLine
 10
1321.8036852703
 20
-345.1686220058
 30
0.0
 11
1415.4424777782
 21
-345.1686220058
 31
0.0
  0
LINE
  5
25F
100
AcDbEntity
  8
L1_120
  6
CONTINUOUS
 62
         7
100
AcDbLine
 10
1424.2028425579
 20
-327.9186220058
 30
0.0
 11
1441.2173217963
 21
-327.9186220058
 31
0.0
  0
INSERT
  5
2B0
100
AcDbEntity
  8
0
  6
CONTINUOUS
100
AcDbBlockReference
  2
*X3
 10
0.0
 20
0.0
 30
0.0
  0
DIMENSION
  5
2B3
100
AcDbEntity
  8
L1_120
  6
CONTINUOUS
 62
         4
100
AcDbDimension
  2
*D4
 10
1468.8108157963
 20
-214.0262334432
 30
0.0
 11
1465.6788157963
 21
-212.2172703962
 31
0.0
  3
DIMSTYLE1
100
AcDbAlignedDimension
 13
1440.7739324711
 23
-214.0262334432
 33
0.0
 14
1440.7739324711
 24
-234.5262334432
 34
0.0
 50
90.0
100
AcDbRotatedDimension
  0
DIMENSION
  5
2C2
100
AcDbEntity
  8
L1_120
  6
CONTINUOUS
 62
         4
100
AcDbDimension
  2
*D5
 10
1384.1508425579
 20
-174.3845593132
 30
0.0
 11
1409.7875193949
 21
-172.3595593132
 31
0.0
  3
DIMSTYLE1
100
AcDbAlignedDimension
 13
1384.1508425579
 23
-202.0512334432
 33
0.0
 14
1447.6508425579
 24
-224.2762334432
 34
0.0
100
AcDbRotatedDimension
  0
DIMENSION
  5
2D0
100
AcDbEntity
  8
L1_120
  6
CONTINUOUS
 62
         4
100
AcDbDimension
  2
*D6
 10
1315.9008425579
 20
-161.2356218512
 30
0.0
 11
1376.1875163592
 21
-159.2106218512
 31
0.0
  3
DIMSTYLE1
100
AcDbAlignedDimension
 13
1315.9008425579
 23
-213.0420517268
 33
0.0
 14
1447.6508425579
 24
-224.2762334432
 34
0.0
100
AcDbRotatedDimension
  0
TEXT
  5
2DD
100
AcDbEntity
  8
L1_120
  6
CONTINUOUS
 62
         2
100
AcDbText
 10
1507.8875285018
 20
-162.7989197666
 30
0.0
 40
4.5
  1
522016
 41
0.98
  7
BOX
100
AcDbText
  0
CIRCLE
  5
2DE
100
AcDbEntity
  8
L1_120
  6
DASHED
 62
         2
100
AcDbCircle
 10
1510.3643633194
 20
-224.2762334432
 30
0.0
 40
4.731
  0
ARC
  5
2DF
100
AcDbEntity
  8
L1_120
  6
CONTINUOUS
 62
         7
100
AcDbCircle
 10
1510.3643633194
 20
-224.2762334432
 30
0.0
 40
3.175
100
AcDbArc
 50
9.0606748312
 51
170.9393251688
  0
ARC
  5
2E0
100
AcDbEntity
  8
L1_120
  6
CONTINUOUS
 62
         7
100
AcDbCircle
 10
1510.3643633194
 20
-224.2762334432
 30
0.0
 40
3.175
100
AcDbArc
 50
189.0606748312
 51
350.9393251688
  0
LINE
  5
2E1
100
AcDbEntity
  8
L1_120
  6
CONTINUOUS
 62
         7
100
AcDbLine
 10
1514.4049725177
 20
-224.4653919591
 30
0.0
 11
1513.4997460712
 21
-224.7762334432
 31
0.0
  0
ARC
  5
2E2
100
AcDbEntity
  8
L1_120
  6
CONTINUOUS
 62
         7
100
AcDbCircle
 10
1514.3400182578
 20
-224.2762334432
 30
0.0
 40
0.2
100
AcDbArc
 50
288.9517197967
 51
431.0482802033
  0
LINE
  5
2E3
100
AcDbEntity
  8
L1_120
  6
CONTINUOUS
 62
         7
100
AcDbLine
 10
1513.4997460712
 20
-223.7762334432
 30
0.0
 11
1514.4049725177
 21
-224.0870749273
 31
0.0
  0
LINE
  5
2E4
100
AcDbEntity
  8
L1_120
  6
CONTINUOUS
 62
         7
100
AcDbLine
 10
1506.3237541211
 20
-224.4653919591
 30
0.0
 11
1507.2289805676
 21
-224.7762334432
 31
0.0
  0
LINE
  5
2E5
100
AcDbEntity
  8
L1_120
  6
CONTINUOUS
 62
         7
100
AcDbLine
 10
1507.2289805676
 20
-223.7762334432
 30
0.0
 11
1506.3237541211
 21
-224.0870749273
 31
0.0
  0
ARC
  5
2E6
100
AcDbEntity
  8
L1_120
  6
CONTINUOUS
 62
         7
100
AcDbCircle
 10
1506.388708381
 20
-224.2762334432
 30
0.0
 40
0.2
100
AcDbArc
 50
108.9517197967
 51
251.0482802033
  0
LINE
  5
2E7
100
AcDbEntity
  8
L1_120
  6
DASHED
 62
         2
100
AcDbLine
 10
1511.31617504
 20
-231.7155919134
 30
0.0
 11
1516.9723501667
 21
-247.2558053544
 31
0.0
  0
LINE
  5
2E8
100
AcDbEntity
  8
L1_120
  6
DASHED
 62
         2
100
AcDbLine
 10
1514.4171606886
 20
-230.5869254405
 30
0.0
 11
1520.0733358153
 21
-246.1271388815
 31
0.0
  0
LINE
  5
2E9
100
AcDbEntity
  8
L1_120
  6
DASHED
 62
         2
100
AcDbLine
 10
1520.4022282325
 20
-246.0074318313
 30
0.0
 11
1521.8387128345
 21
-249.9541408386
 31
0.0
  0
LINE
  5
2EA
100
AcDbEntity
  8
L1_120
  6
DASHED
 62
         2
100
AcDbLine
 10
1520.4022282325
 20
-246.0074318313
 30
0.0
 11
1516.6434577494
 21
-247.3755124046
 31
0.0
  0
LINE
  5
2EB
100
AcDbEntity
  8
L1_120
  6
DASHED
 62
         2
100
AcDbLine
 10
1516.6434577494
 20
-247.3755124046
 30
0.0
 11
1518.0799423514
 21
-251.3222214119
 31
0.0
  0
LINE
  5
2EC
100
AcDbEntity
  8
L1_120
  6
DASHED
 62
         2
100
AcDbLine
 10
1504.0852688894
 20
-201.1769544819
 30
0.0
 11
1500.3264984063
 21
-202.5450350552
 31
0.0
  0
LINE
  5
2ED
100
AcDbEntity
  8
L1_120
  6
DASHED
 62
         2
100
AcDbLine
 10
1500.6553908235
 20
-202.425328005
 30
0.0
 11
1506.3115659502
 21
-217.965541446
 31
0.0
  0
LINE
  5
2EE
100
AcDbEntity
  8
L1_120
  6
DASHED
 62
         2
100
AcDbLine
 10
1503.7563764721
 20
-201.296661532
 30
0.0
 11
1509.4125515988
 21
-216.836874973
 31
0.0
  0
LINE
  5
2EF
100
AcDbEntity
  8
L1_120
  6
DASHED
 62
         2
100
AcDbLine
 10
1500.3264984063
 20
-202.5450350552
 30
0.0
 11
1498.8900138043
 21
-198.5983260479
 31
0.0
  0
LINE
  5
2F0
100
AcDbEntity
  8
L1_120
  6
DASHED
 62
         2
100
AcDbLine
 10
1504.0852688894
 20
-201.1769544819
 30
0.0
 11
1502.6487842874
 21
-197.2302454746
 31
0.0
  0
LINE
  5
2F1
100
AcDbEntity
  8
L1_120
  6
CENTER
 62
         1
100
AcDbLine
 10
1498.4706128353
 20
-191.5984225554
 30
0.0
 11
1522.4052365787
 21
-257.3582608336
 31
0.0
  0
LINE
  5
2F2
100
AcDbEntity
  8
L1_120
  6
DASHED
 62
         2
100
AcDbLine
 10
1513.1143633194
 20
-233.4969179729
 30
0.0
 11
1507.6143633194
 21
-233.4969179729
 31
0.0
  0
LINE
  5
2F3
100
AcDbEntity
  8
L1_120
  6
DASHED
 62
         2
100
AcDbLine
 10
1513.1143633194
 20
-225.8630935505
 30
0.0
 11
1513.1143633194
 21
-233.4969179729
 31
0.0
  0
LINE
  5
2F4
100
AcDbEntity
  8
L1_120
  6
DASHED
 62
         2
100
AcDbLine
 10
1513.5643633194
 20
-233.9469179729
 30
0.0
 11
1513.5643633194
 21
-224.1742029916
 31
0.0
  0
LINE
  5
2F5
100
AcDbEntity
  8
L1_120
  6
DASHED
 62
         2
100
AcDbLine
 10
1507.6143633194
 20
-233.4969179729
 30
0.0
 11
1507.6143633194
 21
-225.8630935505
 31
0.0
  0
LINE
  5
2F6
100
AcDbEntity
  8
L1_120
  6
DASHED
 62
         2
100
AcDbLine
 10
1507.1643633194
 20
-233.9469179729
 30
0.0
 11
1507.1643633194
 21
-224.1742029916
 31
0.0
  0
CIRCLE
  5
2F7
100
AcDbEntity
  8
L1_120
  6
CONTINUOUS
 62
         7
100
AcDbCircle
 10
1510.3643633194
 20
-224.2762334432
 30
0.0
 40
7.25
  0
ARC
  5
2F8
100
AcDbEntity
  8
L1_120
  6
DASHED
 62
         2
100
AcDbCircle
 10
1510.3643633194
 20
-203.9502334432
 30
0.0
 40
10.0
100
AcDbArc
 50
253.1273655092
 51
286.8726344908
  0
LINE
  5
2F9
100
AcDbEntity
  8
L1_120
  6
CENTER
 62
         1
100
AcDbLine
 10
1510.3643633194
 20
-238.7246803678
 30
0.0
 11
1510.3643633194
 21
-209.8975122535
 31
0.0
  0
LINE
  5
2FA
100
AcDbEntity
  8
L1_120
  6
CENTER
 62
         1
100
AcDbLine
 10
1525.2418008668
 20
-224.2762334432
 30
0.0
 11
1495.5820224472
 21
-224.2762334432
 31
0.0
  0
LINE
  5
2FB
100
AcDbEntity
  8
L1_120
  6
DASHED
 62
         2
100
AcDbLine
 10
1507.6143633194
 20
-233.4969179729
 30
0.0
 11
1507.1140436728
 21
-233.9972376195
 31
0.0
  0
LINE
  5
2FC
100
AcDbEntity
  8
L1_120
  6
DASHED
 62
         2
100
AcDbLine
 10
1513.1143633194
 20
-233.4969179729
 30
0.0
 11
1513.614682966
 21
-233.9972376195
 31
0.0
  0
CIRCLE
  5
2FD
100
AcDbEntity
  8
L1_120
  6
CONTINUOUS
 62
         7
100
AcDbCircle
 10
1510.3643633194
 20
-224.2762334432
 30
0.0
 40
11.176
  0
LINE
  5
2FE
100
AcDbEntity
  8
L1_120
  6
CENTER
 62
         1
100
AcDbLine
 10
1483.8719757381
 20
-224.2762334432
 30
0.0
 11
1537.8504327187
 21
-224.2762334432
 31
0.0
  0
LINE
  5
2FF
100
AcDbEntity
  8
L1_120
  6
CONTINUOUS
 62
         7
100
AcDbLine
 10
1480.1259813678
 20
-232.3262334432
 30
0.0
 11
1484.8643633194
 21
-232.3262334432
 31
0.0
  0
LINE
  5
300
100
AcDbEntity
  8
L1_120
  6
CONTINUOUS
 62
         7
100
AcDbLine
 10
1479.7318960867
 20
-232.7203187244
 30
0.0
 11
1480.1259813678
 21
-232.3262334432
 31
0.0
  0
LINE
  5
301
100
AcDbEntity
  8
L1_120
  6
CONTINUOUS
 62
         7
100
AcDbLine
 10
1485.3643633194
 20
-231.8262334432
 30
0.0
 11
1484.8643633194
 21
-232.3262334432
 31
0.0
  0
LINE
  5
302
100
AcDbEntity
  8
L1_120
  6
CONTINUOUS
 62
         7
100
AcDbLine
 10
1479.7318960867
 20
-215.8321481621
 30
0.0
 11
1480.1259813678
 21
-216.2262334432
 31
0.0
  0
LINE
  5
303
100
AcDbEntity
  8
L1_120
  6
CONTINUOUS
 62
         7
100
AcDbLine
 10
1485.3643633194
 20
-216.7262334432
 30
0.0
 11
1484.8643633194
 21
-216.2262334432
 31
0.0
  0
LINE
  5
304
100
AcDbEntity
  8
L1_120
  6
CONTINUOUS
 62
         7
100
AcDbLine
 10
1485.3643633194
 20
-216.7262334432
 30
0.0
 11
1485.3643633194
 21
-231.8262334432
 31
0.0
  0
LINE
  5
305
100
AcDbEntity
  8
L1_120
  6
CONTINUOUS
 62
         7
100
AcDbLine
 10
1480.1259813678
 20
-216.2262334432
 30
0.0
 11
1484.8643633194
 21
-216.2262334432
 31
0.0
  0
LINE
  5
306
100
AcDbEntity
  8
L1_120
  6
CONTINUOUS
 62
         7
100
AcDbLine
 10
1540.9968305521
 20
-232.7203187244
 30
0.0
 11
1540.602745271
 21
-232.3262334432
 31
0.0
  0
LINE
  5
307
100
AcDbEntity
  8
L1_120
  6
CONTINUOUS
 62
         7
100
AcDbLine
 10
1533.1643633194
 20
-231.8262334432
 30
0.0
 11
1533.6643633194
 21
-232.3262334432
 31
0.0
  0
LINE
  5
308
100
AcDbEntity
  8
L1_120
  6
CONTINUOUS
 62
         7
100
AcDbLine
 10
1533.6643633194
 20
-232.3262334432
 30
0.0
 11
1540.602745271
 21
-232.3262334432
 31
0.0
  0
LINE
  5
309
100
AcDbEntity
  8
L1_120
  6
CONTINUOUS
 62
         7
100
AcDbLine
 10
1540.9968305521
 20
-215.8321481621
 30
0.0
 11
1540.602745271
 21
-216.2262334432
 31
0.0
  0
LINE
  5
30A
100
AcDbEntity
  8
L1_120
  6
CONTINUOUS
 62
         7
100
AcDbLine
 10
1533.6643633194
 20
-216.2262334432
 30
0.0
 11
1540.602745271
 21
-216.2262334432
 31
0.0
  0
LINE
  5
30B
100
AcDbEntity
  8
L1_120
  6
CONTINUOUS
 62
         7
100
AcDbLine
 10
1533.1643633194
 20
-216.7262334432
 30
0.0
 11
1533.6643633194
 21
-216.2262334432
 31
0.0
  0
LINE
  5
30C
100
AcDbEntity
  8
L1_120
  6
CONTINUOUS
 62
         7
100
AcDbLine
 10
1533.1643633194
 20
-216.7262334432
 30
0.0
 11
1533.1643633194
 21
-231.8262334432
 31
0.0
  0
ARC
  5
30D
100
AcDbEntity
  8
L1_120
  6
DASHED
 62
         2
100
AcDbCircle
 10
1510.3643633194
 20
-224.2762334432
 30
0.0
 40
28.125
100
AcDbArc
 50
198.3406919436
 51
343.3680794645
  0
ARC
  5
30E
100
AcDbEntity
  8
L1_120
  6
DASHED
 62
         2
100
AcDbCircle
 10
1510.3643633194
 20
-224.2762334432
 30
0.0
 40
28.125
100
AcDbArc
 50
16.6319205355
 51
163.3680794645
  0
LINE
  5
30F
100
AcDbEntity
  8
L1_120
  6
CENTER
 62
         1
100
AcDbLine
 10
1510.3643633194
 20
-189.5012334432
 30
0.0
 11
1510.3643633194
 21
-259.0512334432
 31
0.0
  0
ARC
  5
310
100
AcDbEntity
  8
L1_120
  6
CONTINUOUS
 62
         7
100
AcDbCircle
 10
1510.3643633194
 20
-224.2762334432
 30
0.0
 40
31.775
100
AcDbArc
 50
15.411296411
 51
164.588703589
  0
ARC
  5
311
100
AcDbEntity
  8
L1_120
  6
CONTINUOUS
 62
         7
100
AcDbCircle
 10
1510.3643633194
 20
-224.2762334432
 30
0.0
 40
31.775
100
AcDbArc
 50
195.411296411
 51
344.588703589
  0
CIRCLE
  5
312
100
AcDbEntity
  8
L1_120
  6
CONTINUOUS
 62
         7
100
AcDbCircle
 10
1510.3643633194
 20
-224.2762334432
 30
0.0
 40
22.225
  0
LINE
  5
313
100
AcDbEntity
  8
L1_120
  6
CENTER
 62
         1
100
AcDbLine
 10
1477.0034142608
 20
-206.5379021796
 30
0.0
 11
1510.3379338491
 21
-224.2621806446
 31
0.0
  0
LINE
  5
314
100
AcDbEntity
  8
L1_120
  6
DASHED
 62
         2
100
AcDbLine
 10
1485.3643633194
 20
-229.4762334432
 30
0.0
 11
1485.5643633194
 21
-229.2762334432
 31
0.0
  0
LINE
  5
315
100
AcDbEntity
  8
L1_120
  6
DASHED
 62
         2
100
AcDbLine
 10
1485.3643633194
 20
-219.0762334432
 30
0.0
 11
1485.5643633194
 21
-219.2762334432
 31
0.0
  0
LINE
  5
316
100
AcDbEntity
  8
L1_120
  6
DASHED
 62
         2
100
AcDbLine
 10
1485.5643633194
 20
-219.2762334432
 30
0.0
 11
1485.5643633194
 21
-229.2762334432
 31
0.0
  0
ARC
  5
317
100
AcDbEntity
  8
L1_120
  6
DASHED
 62
         2
100
AcDbCircle
 10
1489.8143633194
 20
-229.0762334432
 30
0.0
 40
0.2
100
AcDbArc
 50
270.0
 51
360.0
  0
ARC
  5
318
100
AcDbEntity
  8
L1_120
  6
DASHED
 62
         2
100
AcDbCircle
 10
1489.8143633194
 20
-219.4762334432
 30
0.0
 40
0.2
100
AcDbArc
 50
0.0
 51
90.0
  0
LINE
  5
319
100
AcDbEntity
  8
L1_120
  6
DASHED
 62
         2
100
AcDbLine
 10
1490.0143633194
 20
-219.4762334432
 30
0.0
 11
1490.0143633194
 21
-229.0762334432
 31
0.0
  0
LINE
  5
31A
100
AcDbEntity
  8
L1_120
  6
DASHED
 62
         2
100
AcDbLine
 10
1485.5643633194
 20
-219.2762334432
 30
0.0
 11
1489.8143633194
 21
-219.2762334432
 31
0.0
  0
LINE
  5
31B
100
AcDbEntity
  8
L1_120
  6
DASHED
 62
         2
100
AcDbLine
 10
1485.5643633194
 20
-229.2762334432
 30
0.0
 11
1489.8143633194
 21
-229.2762334432
 31
0.0
  0
LINE
  5
31C
100
AcDbEntity
  8
L1_120
  6
CENTER
 62
         1
100
AcDbLine
 10
1477.0034142608
 20
-242.0145647068
 30
0.0
 11
1510.3379338491
 21
-224.2902862418
 31
0.0
  0
LINE
  5
31D
100
AcDbEntity
  8
L1_120
  6
DASHED
 62
         2
100
AcDbLine
 10
1484.655386106
 20
-235.6807990046
 30
0.0
 11
1491.5195074196
 21
-232.0310809621
 31
0.0
  0
LINE
  5
31E
100
AcDbEntity
  8
L1_120
  6
DASHED
 62
         2
100
AcDbLine
 10
1486.5332723572
 20
-239.212589376
 30
0.0
 11
1493.3973936707
 21
-235.5628713335
 31
0.0
  0
LINE
  5
31F
100
AcDbEntity
  8
L1_120
  6
DASHED
 62
         2
100
AcDbLine
 10
1491.5195074196
 20
-232.0310809621
 30
0.0
 11
1493.3973936707
 21
-235.5628713335
 31
0.0
  0
LINE
  5
320
100
AcDbEntity
  8
L1_120
  6
DASHED
 62
         2
100
AcDbLine
 10
1493.477990606
 20
-233.2548770815
 30
0.0
 11
1493.3973936707
 21
-235.5628713335
 31
0.0
  0
LINE
  5
321
100
AcDbEntity
  8
L1_120
  6
DASHED
 62
         2
100
AcDbLine
 10
1491.5195074196
 20
-232.0310809621
 30
0.0
 11
1493.477990606
 21
-233.2548770815
 31
0.0
  0
LINE
  5
322
100
AcDbEntity
  8
L1_120
  6
DASHED
 62
         2
100
AcDbLine
 10
1484.655386106
 20
-212.8716678819
 30
0.0
 11
1491.5195074196
 21
-216.5213859244
 31
0.0
  0
LINE
  5
323
100
AcDbEntity
  8
L1_120
  6
DASHED
 62
         2
100
AcDbLine
 10
1491.5195074196
 20
-216.5213859244
 30
0.0
 11
1493.3973936707
 21
-212.9895955529
 31
0.0
  0
LINE
  5
324
100
AcDbEntity
  8
L1_120
  6
DASHED
 62
         2
100
AcDbLine
 10
1491.5195074196
 20
-216.5213859244
 30
0.0
 11
1493.477990606
 21
-215.2975898049
 31
0.0
  0
LINE
  5
325
100
AcDbEntity
  8
L1_120
  6
DASHED
 62
         2
100
AcDbLine
 10
1493.477990606
 20
-215.2975898049
 30
0.0
 11
1493.3973936707
 21
-212.9895955529
 31
0.0
  0
LINE
  5
326
100
AcDbEntity
  8
L1_120
  6
DASHED
 62
         2
100
AcDbLine
 10
1486.5332723572
 20
-209.3398775104
 30
0.0
 11
1493.3973936707
 21
-212.9895955529
 31
0.0
  0
LINE
  5
327
100
AcDbEntity
  8
L1_120
  6
CONTINUOUS
 62
         7
100
AcDbLine
 10
1485.3643633194
 20
-219.0762334432
 30
0.0
 11
1485.3643633194
 21
-229.4762334432
 31
0.0
  0
DIMENSION
  5
32A
100
AcDbEntity
  8
L1_120
  6
CONTINUOUS
 62
         4
100
AcDbDimension
  2
*D7
 10
1447.7951497634
 20
-294.8308449698
 30
0.0
 11
1445.7701497634
 21
-300.0863769293
 31
0.0
  3
DIMSTYLE1
100
AcDbAlignedDimension
 13
1461.6562269124
 23
-294.8308449698
 33
0.0
 14
1460.7672190384
 24
-302.8318609719
 34
0.0
 50
90.0
100
AcDbRotatedDimension
  0
LINE
  5
336
100
AcDbEntity
  8
L1_120
  6
CENTER
 62
         1
100
AcDbLine
 10
1463.3326302652
 20
-305.2845494918
 30
0.0
 11
1463.3326302652
 21
-293.5818609719
 31
0.0
  0
DIMENSION
  5
339
100
AcDbEntity
  8
L1_120
  6
CONTINUOUS
 62
         4
100
AcDbDimension
  2
*D8
 10
1461.4851094038
 20
-311.8178490074
 30
0.0
 11
1468.5843319779
 21
-309.7928490074
 31
0.0
  3
DIMSTYLE1
100
AcDbAlignedDimension
 13
1461.4851094038
 23
-302.8318609719
 33
0.0
 14
1465.1801511266
 24
-302.8318609719
 34
0.0
100
AcDbRotatedDimension
  0
DIMENSION
  5
349
100
AcDbEntity
  8
L1_120
  6
CONTINUOUS
 62
         4
100
AcDbDimension
  2
*D9
 10
1460.1576239152
 20
-289.9315729111
 30
0.0
 11
1451.5349977155
 21
-287.9065729111
 31
0.0
  3
DIMSTYLE1
100
AcDbAlignedDimension
 13
1460.1576239152
 23
-296.329447967
 33
0.0
 14
1466.5076366152
 24
-296.329447967
 34
0.0
100
AcDbRotatedDimension
  0
LINE
  5
355
100
AcDbEntity
  8
L1_120
  6
DASHED
 62
         2
100
AcDbLine
 10
1464.2491756506
 20
-302.8318609719
 30
0.0
 11
1464.2491756506
 21
-299.6568546218
 31
0.0
  0
LINE
  5
356
100
AcDbEntity
  8
L1_120
  6
DASHED
 62
         2
100
AcDbLine
 10
1462.4160848798
 20
-302.8318609719
 30
0.0
 11
1462.4160848798
 21
-299.6568546218
 31
0.0
  0
LINE
  5
357
100
AcDbEntity
  8
L1_120
  6
DASHED
 62
         2
100
AcDbLine
 10
1465.1657210361
 20
-302.8318609719
 30
0.0
 11
1465.1657210361
 21
-299.6568546218
 31
0.0
  0
LINE
  5
358
100
AcDbEntity
  8
L1_120
  6
DASHED
 62
         2
100
AcDbLine
 10
1461.4995394943
 20
-302.8318609719
 30
0.0
 11
1461.4995394943
 21
-299.6568546218
 31
0.0
  0
LINE
  5
359
100
AcDbEntity
  8
L1_120
  6
DASHED
 62
         2
100
AcDbLine
 10
1461.4995394943
 20
-299.6568546218
 30
0.0
 11
1465.1657210361
 21
-299.6568546218
 31
0.0
  0
LINE
  5
35A
100
AcDbEntity
  8
L1_120
  6
CONTINUOUS
 62
         4
100
AcDbLine
 10
1465.009033618
 20
-294.8308449698
 30
0.0
 11
1466.5076366152
 21
-296.329447967
 31
0.0
  0
LINE
  5
35B
100
AcDbEntity
  8
L1_120
  6
CONTINUOUS
 62
         4
100
AcDbLine
 10
1461.6562269124
 20
-294.8308449698
 30
0.0
 11
1460.1576239152
 21
-296.329447967
 31
0.0
  0
LINE
  5
35C
100
AcDbEntity
  8
L1_120
  6
CONTINUOUS
 62
         4
100
AcDbLine
 10
1460.1576239152
 20
-296.329447967
 30
0.0
 11
1466.5076366152
 21
-296.329447967
 31
0.0
  0
LINE
  5
35D
100
AcDbEntity
  8
L1_120
  6
CONTINUOUS
 62
         4
100
AcDbLine
 10
1461.6562269124
 20
-294.8308449698
 30
0.0
 11
1465.009033618
 21
-294.8308449698
 31
0.0
  0
LINE
  5
35E
100
AcDbEntity
  8
L1_120
  6
CONTINUOUS
 62
         4
100
AcDbLine
 10
1465.898041492
 20
-296.8332156412
 30
0.0
 11
1460.7672190384
 21
-297.3369833154
 31
0.0
  0
LINE
  5
35F
100
AcDbEntity
  8
L1_120
  6
CONTINUOUS
 62
         4
100
AcDbLine
 10
1466.5076366152
 20
-296.329447967
 30
0.0
 11
1460.1576239152
 21
-296.8332156412
 31
0.0
  0
LINE
  5
360
100
AcDbEntity
  8
L1_120
  6
CONTINUOUS
 62
         4
100
AcDbLine
 10
1465.898041492
 20
-296.8332156412
 30
0.0
 11
1466.5076366152
 21
-296.329447967
 31
0.0
  0
LINE
  5
361
100
AcDbEntity
  8
L1_120
  6
CONTINUOUS
 62
         4
100
AcDbLine
 10
1466.5076366152
 20
-297.3369833154
 30
0.0
 11
1465.898041492
 21
-296.8332156412
 31
0.0
  0
LINE
  5
362
100
AcDbEntity
  8
L1_120
  6
CONTINUOUS
 62
         4
100
AcDbLine
 10
1460.1576239152
 20
-296.8332156412
 30
0.0
 11
1460.7672190384
 21
-296.329447967
 31
0.0
  0
LINE
  5
363
100
AcDbEntity
  8
L1_120
  6
CONTINUOUS
 62
         4
100
AcDbLine
 10
1460.7672190384
 20
-297.3369833154
 30
0.0
 11
1460.1576239152
 21
-296.8332156412
 31
0.0
  0
LINE
  5
364
100
AcDbEntity
  8
L1_120
  6
CONTINUOUS
 62
         4
100
AcDbLine
 10
1466.5076366152
 20
-302.3746600575
 30
0.0
 11
1461.2709867126
 21
-302.3746600575
 31
0.0
  0
LINE
  5
365
100
AcDbEntity
  8
L1_120
  6
CONTINUOUS
 62
         4
100
AcDbLine
 10
1465.898041492
 20
-301.8708923833
 30
0.0
 11
1461.2709867126
 21
-302.3746600575
 31
0.0
  0
LINE
  5
366
100
AcDbEntity
  8
L1_120
  6
CONTINUOUS
 62
         4
100
AcDbLine
 10
1466.5076366152
 20
-301.367124709
 30
0.0
 11
1460.1576239152
 21
-301.8708923833
 31
0.0
  0
LINE
  5
367
100
AcDbEntity
  8
L1_120
  6
CONTINUOUS
 62
         4
100
AcDbLine
 10
1465.898041492
 20
-301.8708923833
 30
0.0
 11
1466.5076366152
 21
-302.3746600575
 31
0.0
  0
LINE
  5
368
100
AcDbEntity
  8
L1_120
  6
CONTINUOUS
 62
         4
100
AcDbLine
 10
1466.5076366152
 20
-301.367124709
 30
0.0
 11
1465.898041492
 21
-301.8708923833
 31
0.0
  0
LINE
  5
369
100
AcDbEntity
  8
L1_120
  6
CONTINUOUS
 62
         4
100
AcDbLine
 10
1460.7672190384
 20
-301.367124709
 30
0.0
 11
1460.1576239152
 21
-301.8708923833
 31
0.0
  0
LINE
  5
36A
100
AcDbEntity
  8
L1_120
  6
CONTINUOUS
 62
         4
100
AcDbLine
 10
1465.898041492
 20
-297.8407509896
 30
0.0
 11
1460.7672190384
 21
-298.3445186638
 31
0.0
  0
LINE
  5
36B
100
AcDbEntity
  8
L1_120
  6
CONTINUOUS
 62
         4
100
AcDbLine
 10
1466.5076366152
 20
-297.3369833154
 30
0.0
 11
1460.1576239152
 21
-297.8407509896
 31
0.0
  0
LINE
  5
36C
100
AcDbEntity
  8
L1_120
  6
CONTINUOUS
 62
         4
100
AcDbLine
 10
1465.898041492
 20
-297.8407509896
 30
0.0
 11
1466.5076366152
 21
-297.3369833154
 31
0.0
  0
LINE
  5
36D
100
AcDbEntity
  8
L1_120
  6
CONTINUOUS
 62
         4
100
AcDbLine
 10
1466.5076366152
 20
-298.3445186638
 30
0.0
 11
1465.898041492
 21
-297.8407509896
 31
0.0
  0
LINE
  5
36E
100
AcDbEntity
  8
L1_120
  6
CONTINUOUS
 62
         4
100
AcDbLine
 10
1460.1576239152
 20
-297.8407509896
 30
0.0
 11
1460.7672190384
 21
-297.3369833154
 31
0.0
  0
LINE
  5
36F
100
AcDbEntity
  8
L1_120
  6
CONTINUOUS
 62
         4
100
AcDbLine
 10
1460.7672190384
 20
-298.3445186638
 30
0.0
 11
1460.1576239152
 21
-297.8407509896
 31
0.0
  0
LINE
  5
370
100
AcDbEntity
  8
L1_120
  6
CONTINUOUS
 62
         4
100
AcDbLine
 10
1466.5076366152
 20
-302.3746600575
 30
0.0
 11
1461.2709867126
 21
-302.3746600575
 31
0.0
  0
LINE
  5
371
100
AcDbEntity
  8
L1_120
  6
CONTINUOUS
 62
         4
100
AcDbLine
 10
1465.898041492
 20
-301.8708923833
 30
0.0
 11
1461.2709867126
 21
-302.3746600575
 31
0.0
  0
LINE
  5
372
100
AcDbEntity
  8
L1_120
  6
CONTINUOUS
 62
         4
100
AcDbLine
 10
1466.5076366152
 20
-301.367124709
 30
0.0
 11
1460.1576239152
 21
-301.8708923833
 31
0.0
  0
LINE
  5
373
100
AcDbEntity
  8
L1_120
  6
CONTINUOUS
 62
         4
100
AcDbLine
 10
1465.898041492
 20
-301.8708923833
 30
0.0
 11
1466.5076366152
 21
-302.3746600575
 31
0.0
  0
LINE
  5
374
100
AcDbEntity
  8
L1_120
  6
CONTINUOUS
 62
         4
100
AcDbLine
 10
1466.5076366152
 20
-301.367124709
 30
0.0
 11
1465.898041492
 21
-301.8708923833
 31
0.0
  0
LINE
  5
375
100
AcDbEntity
  8
L1_120
  6
CONTINUOUS
 62
         4
100
AcDbLine
 10
1460.7672190384
 20
-301.367124709
 30
0.0
 11
1460.1576239152
 21
-301.8708923833
 31
0.0
  0
LINE
  5
376
100
AcDbEntity
  8
L1_120
  6
CONTINUOUS
 62
         4
100
AcDbLine
 10
1465.898041492
 20
-298.848286338
 30
0.0
 11
1460.7672190384
 21
-299.3520540122
 31
0.0
  0
LINE
  5
377
100
AcDbEntity
  8
L1_120
  6
CONTINUOUS
 62
         4
100
AcDbLine
 10
1466.5076366152
 20
-298.3445186638
 30
0.0
 11
1460.1576239152
 21
-298.848286338
 31
0.0
  0
LINE
  5
378
100
AcDbEntity
  8
L1_120
  6
CONTINUOUS
 62
         4
100
AcDbLine
 10
1465.898041492
 20
-298.848286338
 30
0.0
 11
1466.5076366152
 21
-298.3445186638
 31
0.0
  0
LINE
  5
379
100
AcDbEntity
  8
L1_120
  6
CONTINUOUS
 62
         4
100
AcDbLine
 10
1466.5076366152
 20
-299.3520540122
 30
0.0
 11
1465.898041492
 21
-298.848286338
 31
0.0
  0
LINE
  5
37A
100
AcDbEntity
  8
L1_120
  6
CONTINUOUS
 62
         4
100
AcDbLine
 10
1460.1576239152
 20
-298.848286338
 30
0.0
 11
1460.7672190384
 21
-298.3445186638
 31
0.0
  0
LINE
  5
37B
100
AcDbEntity
  8
L1_120
  6
CONTINUOUS
 62
         4
100
AcDbLine
 10
1460.7672190384
 20
-299.3520540122
 30
0.0
 11
1460.1576239152
 21
-298.848286338
 31
0.0
  0
LINE
  5
37C
100
AcDbEntity
  8
L1_120
  6
CONTINUOUS
 62
         4
100
AcDbLine
 10
1466.5076366152
 20
-302.3746600575
 30
0.0
 11
1461.2709867126
 21
-302.3746600575
 31
0.0
  0
LINE
  5
37D
100
AcDbEntity
  8
L1_120
  6
CONTINUOUS
 62
         4
100
AcDbLine
 10
1465.898041492
 20
-301.8708923833
 30
0.0
 11
1461.2709867126
 21
-302.3746600575
 31
0.0
  0
LINE
  5
37E
100
AcDbEntity
  8
L1_120
  6
CONTINUOUS
 62
         4
100
AcDbLine
 10
1466.5076366152
 20
-301.367124709
 30
0.0
 11
1460.1576239152
 21
-301.8708923833
 31
0.0
  0
LINE
  5
37F
100
AcDbEntity
  8
L1_120
  6
CONTINUOUS
 62
         4
100
AcDbLine
 10
1465.898041492
 20
-301.8708923833
 30
0.0
 11
1466.5076366152
 21
-302.3746600575
 31
0.0
  0
LINE
  5
380
100
AcDbEntity
  8
L1_120
  6
CONTINUOUS
 62
         4
100
AcDbLine
 10
1466.5076366152
 20
-301.367124709
 30
0.0
 11
1465.898041492
 21
-301.8708923833
 31
0.0
  0
LINE
  5
381
100
AcDbEntity
  8
L1_120
  6
CONTINUOUS
 62
         4
100
AcDbLine
 10
1460.7672190384
 20
-301.367124709
 30
0.0
 11
1460.1576239152
 21
-301.8708923833
 31
0.0
  0
LINE
  5
382
100
AcDbEntity
  8
L1_120
  6
CONTINUOUS
 62
         4
100
AcDbLine
 10
1465.898041492
 20
-299.8558216864
 30
0.0
 11
1460.7672190384
 21
-300.3595893606
 31
0.0
  0
LINE
  5
383
100
AcDbEntity
  8
L1_120
  6
CONTINUOUS
 62
         4
100
AcDbLine
 10
1466.5076366152
 20
-299.3520540122
 30
0.0
 11
1460.1576239152
 21
-299.8558216864
 31
0.0
  0
LINE
  5
384
100
AcDbEntity
  8
L1_120
  6
CONTINUOUS
 62
         4
100
AcDbLine
 10
1465.898041492
 20
-299.8558216864
 30
0.0
 11
1466.5076366152
 21
-299.3520540122
 31
0.0
  0
LINE
  5
385
100
AcDbEntity
  8
L1_120
  6
CONTINUOUS
 62
         4
100
AcDbLine
 10
1466.5076366152
 20
-300.3595893606
 30
0.0
 11
1465.898041492
 21
-299.8558216864
 31
0.0
  0
LINE
  5
386
100
AcDbEntity
  8
L1_120
  6
CONTINUOUS
 62
         4
100
AcDbLine
 10
1460.1576239152
 20
-299.8558216864
 30
0.0
 11
1460.7672190384
 21
-299.3520540122
 31
0.0
  0
LINE
  5
387
100
AcDbEntity
  8
L1_120
  6
CONTINUOUS
 62
         4
100
AcDbLine
 10
1460.7672190384
 20
-300.3595893606
 30
0.0
 11
1460.1576239152
 21
-299.8558216864
 31
0.0
  0
LINE
  5
388
100
AcDbEntity
  8
L1_120
  6
CONTINUOUS
 62
         4
100
AcDbLine
 10
1466.5076366152
 20
-302.3746600575
 30
0.0
 11
1461.2709867126
 21
-302.3746600575
 31
0.0
  0
LINE
  5
389
100
AcDbEntity
  8
L1_120
  6
CONTINUOUS
 62
         4
100
AcDbLine
 10
1465.898041492
 20
-301.8708923833
 30
0.0
 11
1461.2709867126
 21
-302.3746600575
 31
0.0
  0
LINE
  5
38A
100
AcDbEntity
  8
L1_120
  6
CONTINUOUS
 62
         4
100
AcDbLine
 10
1466.5076366152
 20
-301.367124709
 30
0.0
 11
1460.1576239152
 21
-301.8708923833
 31
0.0
  0
LINE
  5
38B
100
AcDbEntity
  8
L1_120
  6
CONTINUOUS
 62
         4
100
AcDbLine
 10
1465.898041492
 20
-301.8708923833
 30
0.0
 11
1466.5076366152
 21
-302.3746600575
 31
0.0
  0
LINE
  5
38C
100
AcDbEntity
  8
L1_120
  6
CONTINUOUS
 62
         4
100
AcDbLine
 10
1466.5076366152
 20
-301.367124709
 30
0.0
 11
1465.898041492
 21
-301.8708923833
 31
0.0
  0
LINE
  5
38D
100
AcDbEntity
  8
L1_120
  6
CONTINUOUS
 62
         4
100
AcDbLine
 10
1460.7672190384
 20
-301.367124709
 30
0.0
 11
1460.1576239152
 21
-301.8708923833
 31
0.0
  0
LINE
  5
38E
100
AcDbEntity
  8
L1_120
  6
CONTINUOUS
 62
         4
100
AcDbLine
 10
1465.898041492
 20
-300.8633570348
 30
0.0
 11
1460.7672190384
 21
-301.367124709
 31
0.0
  0
LINE
  5
38F
100
AcDbEntity
  8
L1_120
  6
CONTINUOUS
 62
         4
100
AcDbLine
 10
1466.5076366152
 20
-300.3595893606
 30
0.0
 11
1460.1576239152
 21
-300.8633570348
 31
0.0
  0
LINE
  5
390
100
AcDbEntity
  8
L1_120
  6
CONTINUOUS
 62
         4
100
AcDbLine
 10
1465.898041492
 20
-300.8633570348
 30
0.0
 11
1466.5076366152
 21
-300.3595893606
 31
0.0
  0
LINE
  5
391
100
AcDbEntity
  8
L1_120
  6
CONTINUOUS
 62
         4
100
AcDbLine
 10
1466.5076366152
 20
-301.367124709
 30
0.0
 11
1465.898041492
 21
-300.8633570348
 31
0.0
  0
LINE
  5
392
100
AcDbEntity
  8
L1_120
  6
CONTINUOUS
 62
         4
100
AcDbLine
 10
1460.1576239152
 20
-300.8633570348
 30
0.0
 11
1460.7672190384
 21
-300.3595893606
 31
0.0
  0
LINE
  5
393
100
AcDbEntity
  8
L1_120
  6
CONTINUOUS
 62
         4
100
AcDbLine
 10
1460.7672190384
 20
-301.367124709
 30
0.0
 11
1460.1576239152
 21
-300.8633570348
 31
0.0
  0
LINE
  5
394
100
AcDbEntity
  8
L1_120
  6
CONTINUOUS
 62
         4
100
AcDbLine
 10
1460.1576239152
 20
-302.3746600575
 30
0.0
 11
1460.1576239152
 21
-301.8708923833
 31
0.0
  0
LINE
  5
395
100
AcDbEntity
  8
L1_120
  6
CONTINUOUS
 62
         4
100
AcDbLine
 10
1460.7672190384
 20
-302.8318609719
 30
0.0
 11
1460.1576239152
 21
-302.3746600575
 31
0.0
  0
LINE
  5
396
100
AcDbEntity
  8
L1_120
  6
CONTINUOUS
 62
         4
100
AcDbLine
 10
1465.898041492
 20
-302.8318609719
 30
0.0
 11
1466.5076366152
 21
-302.3746600575
 31
0.0
  0
LINE
  5
397
100
AcDbEntity
  8
L1_120
  6
CONTINUOUS
 62
         4
100
AcDbLine
 10
1466.5076366152
 20
-302.3746600575
 30
0.0
 11
1460.1576239152
 21
-302.3746600575
 31
0.0
  0
LINE
  5
398
100
AcDbEntity
  8
L1_120
  6
CONTINUOUS
 62
         4
100
AcDbLine
 10
1465.898041492
 20
-302.8318609719
 30
0.0
 11
1460.7672190384
 21
-302.8318609719
 31
0.0
  0
ENDSEC
  0
SECTION
  2
OBJECTS
  0
DICTIONARY
  5
19
100
AcDbDictionary
  3
ACAD_GROUP
350
1A
  3
ACAD_MLINESTYLE
350
1B
  0
DICTIONARY
  5
1A
102
{ACAD_REACTORS
330
19
102
}
100
AcDbDictionary
  0
DICTIONARY
  5
1B
102
{ACAD_REACTORS
330
19
102
}
100
AcDbDictionary
  3
STANDARD
350
1C
  0
MLINESTYLE
  5
1C
102
{ACAD_REACTORS
330
1B
102
}
100
AcDbMlineStyle
  2
STANDARD
 70
         0
  3

 62
         0
 51
90.0
 52
90.0
 71
         2
 49
0.5
 62
       256
  6
BYLAYER
 49
-0.5
 62
       256
  6
BYLAYER
  0
ENDSEC
  0
EOF
