  0
SECTION
  2
HEADER
  9
$ACADVER
  1
AC1014
  9
$ACADMAINTVER
 70
         0
  9
$DWGCODEPAGE
  3
BIG5
  9
$INSBASE
 10
0.0
 20
0.0
 30
0.0
  9
$EXTMIN
 10
1103.4218761065
 20
-391.7910760571
 30
0.0
  9
$EXTMAX
 10
1686.4172080611
 20
-107.1918138426
 30
0.0
  9
$LIMMIN
 10
0.0
 20
0.0
  9
$LIMMAX
 10
0.0
 20
0.0
  9
$ORTHOMODE
 70
         0
  9
$REGENMODE
 70
         1
  9
$FILLMODE
 70
         1
  9
$QTEXTMODE
 70
         0
  9
$MIRRTEXT
 70
         1
  9
$DRAGMODE
 70
         2
  9
$LTSCALE
 40
1.0
  9
$OSMODE
 70
         0
  9
$ATTMODE
 70
         1
  9
$TEXTSIZE
 40
1.7
  9
$TRACEWID
 40
0.05
  9
$TEXTSTYLE
  7
STANDARD
  9
$CLAYER
  8
0
  9
$CELTYPE
  6
CONTINUOUS
  9
$CECOLOR
 62
         1
  9
$CELTSCALE
 40
1.0
  9
$DELOBJ
 70
         1
  9
$DISPSILH
 70
         0
  9
$DIMSCALE
 40
1.0
  9
$DIMASZ
 40
0.18
  9
$DIMEXO
 40
0.0625
  9
$DIMDLI
 40
0.38
  9
$DIMRND
 40
0.0
  9
$DIMDLE
 40
0.0
  9
$DIMEXE
 40
0.25
  9
$DIMTP
 40
0.01
  9
$DIMTM
 40
-0.01
  9
$DIMTXT
 40
2.7
  9
$DIMCEN
 40
0.09
  9
$DIMTSZ
 40
0.0
  9
$DIMTOL
 70
         0
  9
$DIMLIM
 70
         0
  9
$DIMTIH
 70
         1
  9
$DIMTOH
 70
         1
  9
$DIMSE1
 70
         0
  9
$DIMSE2
 70
         0
  9
$DIMTAD
 70
         0
  9
$DIMZIN
 70
         0
  9
$DIMBLK
  1

  9
$DIMASO
 70
         1
  9
$DIMSHO
 70
         1
  9
$DIMPOST
  1

  9
$DIMAPOST
  1

  9
$DIMALT
 70
         0
  9
$DIMALTD
 70
         2
  9
$DIMALTF
 40
25.4
  9
$DIMLFAC
 40
1.0
  9
$DIMTOFL
 70
         0
  9
$DIMTVP
 40
0.0
  9
$DIMTIX
 70
         0
  9
$DIMSOXD
 70
         0
  9
$DIMSAH
 70
         0
  9
$DIMBLK1
  1

  9
$DIMBLK2
  1

  9
$DIMSTYLE
  2
STANDARD
  9
$DIMCLRD
 70
         0
  9
$DIMCLRE
 70
         0
  9
$DIMCLRT
 70
         1
  9
$DIMTFAC
 40
1.0
  9
$DIMGAP
 40
0.09
  9
$DIMJUST
 70
         0
  9
$DIMSD1
 70
         0
  9
$DIMSD2
 70
         0
  9
$DIMTOLJ
 70
         1
  9
$DIMTZIN
 70
         0
  9
$DIMALTZ
 70
         0
  9
$DIMALTTZ
 70
         0
  9
$DIMFIT
 70
         3
  9
$DIMUPT
 70
         0
  9
$DIMUNIT
 70
         2
  9
$DIMDEC
 70
         4
  9
$DIMTDEC
 70
         4
  9
$DIMALTU
 70
         2
  9
$DIMALTTD
 70
         2
  9
$DIMTXSTY
  7
STANDARD
  9
$DIMAUNIT
 70
         0
  9
$LUNITS
 70
         2
  9
$LUPREC
 70
        10
  9
$SKETCHINC
 40
0.1
  9
$FILLETRAD
 40
0.0
  9
$AUNITS
 70
         0
  9
$AUPREC
 70
         0
  9
$MENU
  1
acad
  9
$ELEVATION
 40
0.0
  9
$PELEVATION
 40
0.0
  9
$THICKNESS
 40
0.0
  9
$LIMCHECK
 70
         0
  9
$BLIPMODE
 70
         1
  9
$CHAMFERA
 40
0.0
  9
$CHAMFERB
 40
0.0
  9
$CHAMFERC
 40
0.0
  9
$CHAMFERD
 40
0.0
  9
$SKPOLY
 70
         0
  9
$TDCREATE
 40
0.000000000
  9
$TDUPDATE
 40
0.000000000
  9
$TDINDWG
 40
0.0000000000
  9
$TDUSRTIMER
 40
0.0000000000
  9
$USRTIMER
 70
         1
  9
$ANGBASE
 50
0.0
  9
$ANGDIR
 70
         0
  9
$PDMODE
 70
         2
  9
$PDSIZE
 40
0.0
  9
$PLINEWID
 40
0.0
  9
$COORDS
 70
         0
  9
$SPLFRAME
 70
         0
  9
$SPLINETYPE
 70
         6
  9
$SPLINESEGS
 70
         8
  9
$ATTDIA
 70
         0
  9
$ATTREQ
 70
         1
  9
$HANDLING
 70
         1
  9
$HANDSEED
  5
391
  9
$SURFTAB1
 70
         6
  9
$SURFTAB2
 70
         6
  9
$SURFTYPE
 70
         6
  9
$SURFU
 70
         6
  9
$SURFV
 70
         6
  9
$UCSNAME
  2

  9
$UCSORG
 10
0.0
 20
0.0
 30
0.0
  9
$UCSXDIR
 10
1.0
 20
0.0
 30
0.0
  9
$UCSYDIR
 10
0.0
 20
1.0
 30
0.0
  9
$PUCSNAME
  2

  9
$PUCSORG
 10
0.0
 20
0.0
 30
0.0
  9
$PUCSXDIR
 10
1.0
 20
0.0
 30
0.0
  9
$PUCSYDIR
 10
0.0
 20
1.0
 30
0.0
  9
$USERI1
 70
         0
  9
$USERI2
 70
         0
  9
$USERI3
 70
         0
  9
$USERI4
 70
         0
  9
$USERI5
 70
         0
  9
$USERR1
 40
0.0
  9
$USERR2
 40
0.0
  9
$USERR3
 40
0.0
  9
$USERR4
 40
0.0
  9
$USERR5
 40
0.0
  9
$WORLDVIEW
 70
         1
  9
$SHADEDGE
 70
         3
  9
$SHADEDIF
 70
        70
  9
$TILEMODE
 70
         1
  9
$MAXACTVP
 70
        16
  9
$PINSBASE
 10
0.0
 20
0.0
 30
0.0
  9
$PLIMCHECK
 70
         0
  9
$PEXTMIN
 10
1.0000000000E+20
 20
1.0000000000E+20
 30
1.0000000000E+20
  9
$PEXTMAX
 10
-1.0000000000E+20
 20
-1.0000000000E+20
 30
-1.0000000000E+20
  9
$PLIMMIN
 10
0.0
 20
0.0
  9
$PLIMMAX
 10
12.0
 20
9.0
  9
$UNITMODE
 70
         0
  9
$VISRETAIN
 70
         0
  9
$PLINEGEN
 70
         1
  9
$PSLTSCALE
 70
         0
  9
$TREEDEPTH
 70
      3020
  9
$PICKSTYLE
 70
         1
  9
$CMLSTYLE
  2
STANDARD
  9
$CMLJUST
 70
         0
  9
$CMLSCALE
 40
1.0
  9
$PROXYGRAPHICS
 70
         0
  9
$MEASUREMENT
 70
         0
  0
ENDSEC
  0
SECTION
  2
CLASSES
  0
CLASS
  1
LWPOLYLINE
  2
AcDbPolyline
  3
"AutoCAD"
 90
        0
280
         0
281
         1
  0
CLASS
  1
IMAGE
  2
AcDbRasterImage
  3
ISM
 90
      127
280
         0
281
         1
  0
CLASS
  1
OLE2FRAME
  2
AcDbOle2Frame
  3
""
 90
        0
280
         0
281
         1
  0
CLASS
  1
HATCH
  2
AcDbHatch
  3
"ACAD_SEDONA"
 90
        0
280
         0
281
         1
  0
CLASS
  1
DICTIONARYVAR
  2
AcDbDictionaryVar
  3
"AutoCAD"
 90
        0
280
         0
281
         0
  0
CLASS
  1
RASTERVARIABLES
  2
AcDbRasterVariables
  3
ISM
 90
        0
280
         0
281
         0
  0
CLASS
  1
IMAGEDEF
  2
AcDbRasterImageDef
  3
ISM
 90
        0
280
         0
281
         0
  0
CLASS
  1
IMAGEDEF_REACTOR
  2
AcDbRasterImageDefReactor
  3
ISM
 90
        1
280
         0
281
         0
  0
CLASS
  1
IDBUFFER
  2
AcDbIdBuffer
  3
"Acad"
 90
        0
280
         0
281
         0
  0
CLASS
  1
SPATIAL_FILTER
  2
AcDbSpatialFilter
  3
"Acad"
 90
        0
280
         0
281
         0
  0
CLASS
  1
XRECORD
  2
AcDbXrecord
  3
"<Built In>"
 90
        0
280
         0
281
         0
  0
CLASS
  1
SORTENTSTABLE
  2
AcDbSortentsTable
  3
"AutoCAD"
 90
        0
280
         0
281
         0
  0
CLASS
  1
LAYER_INDEX
  2
AcDbLayerIndex
  3
"Acad"
 90
        0
280
         0
281
         0
  0
CLASS
  1
SPATIAL_INDEX
  2
AcDbSpatialIndex
  3
"Acad"
 90
        0
280
         0
281
         0
  0
CLASS
  1
OBJECT_PTR
  2
CAseDLPNTableRecord
  3
"ASE-LPNTableRecord"
 90
        1
280
         0
281
         0
  0
CLASS
  1
LAYOUT
  2
AcDbLayout
  3
"AutoCAD 2000"
 90
        1
280
         0
281
         0
  0
CLASS
  1
PLOTSETTINGS
  2
AcDbPlotSettings
  3
"AutoCAD 2000"
 90
        1
280
         0
281
         0
  0
CLASS
  1
ACDBDICTIONARYWDFLT
  2
AcDbDictionaryWithDefault
  3
"AutoCAD 2000"
 90
        1
280
         0
281
         0
  0
CLASS
  1
ACDBPLACEHOLDER
  2
AcDbPlaceHolder
  3
"AutoCAD 2000"
 90
        1
280
         0
281
         0
  0
CLASS
  1
VBA_PROJECT
  2
AcDbVbaProject
  3
"acadvba"
 90
        1
280
         0
281
         0
  0
CLASS
  1
WIPEOUT
  2
AcDbWipeout
  3
WipeOut|AutoCAD Express Tool|expresstools@autodesk.com
 90
      127
280
         0
281
         1
  0
CLASS
  1
WIPEOUTVARIABLES
  2
AcDbWipeoutVariables
  3
WipeOut|AutoCAD Express Tool|expresstools@autodesk.com
 90
        0
280
         0
281
         0
  0
CLASS
  1
RTEXT
  2
RText
  3
RText|AutoCAD Express Tool|expresstools@autodesk.com
 90
        0
280
         0
281
         1
  0
CLASS
  1
ARCALIGNEDTEXT
  2
AcDbArcAlignedText
  3
ATEXT|AutoCAD Express Tool|expresstools@autodesk.com
 90
        0
280
         0
281
         1
  0
ENDSEC
  0
SECTION
  2
TABLES
  0
TABLE
  2
VPORT
  5
7
100
AcDbSymbolTable
 70
         1
  0
VPORT
  5
15
100
AcDbSymbolTableRecord
100
AcDbViewportTableRecord
  2
*ACTIVE
 70
         0
 10
0.0
 20
0.0
 11
1.0
 21
1.0
 12
1394.9195420838
 22
-249.4914449499
 13
0.0
 23
0.0
 14
1.0
 24
1.0
 15
0.0
 25
0.0
 16
0.0
 26
0.0
 36
1.0
 17
0.0
 27
0.0
 37
0.0
 40
284.5992622145
 41
2.0484780158
 42
50.0
 43
0.0
 44
0.0
 50
0.0
 51
0.0
 71
         0
 72
       100
 73
         1
 74
         1
 75
         0
 76
         0
 77
         0
 78
         0
  0
ENDTAB
  0
TABLE
  2
LTYPE
  5
4
100
AcDbSymbolTable
 70
         6
  0
LTYPE
  5
11
100
AcDbSymbolTableRecord
100
AcDbLinetypeTableRecord
  2
BYBLOCK
 70
        64
  3

 72
        65
 73
         0
 40
0.0
  0
LTYPE
  5
12
100
AcDbSymbolTableRecord
100
AcDbLinetypeTableRecord
  2
BYLAYER
 70
        64
  3

 72
        65
 73
         0
 40
0.0
  0
LTYPE
  5
13
100
AcDbSymbolTableRecord
100
AcDbLinetypeTableRecord
  2
CONTINUOUS
 70
        64
  3
Solid line
 72
        65
 73
         0
 40
0.0
  0
LTYPE
  5
1D
100
AcDbSymbolTableRecord
100
AcDbLinetypeTableRecord
  2
DASHED
 70
        64
  3
_ _ _ _ _ _ _ _ _ _ _ _ _ _ _ _
 72
        65
 73
         2
 40
0.2
 49
0.1
 74
         0
 49
-0.1
 74
         0
  0
LTYPE
  5
1E
100
AcDbSymbolTableRecord
100
AcDbLinetypeTableRecord
  2
CENTER
 70
        64
  3
___ _ ___ _ ___ _ ___ _ ___ _ ___ _ ___ _ ___ _
 72
        65
 73
         4
 40
0.95
 49
0.625
 74
         0
 49
-0.125
 74
         0
 49
0.075
 74
         0
 49
-0.125
 74
         0
  0
LTYPE
  5
1F
100
AcDbSymbolTableRecord
100
AcDbLinetypeTableRecord
  2
PHANTOM
 70
        64
  3
______  __  __  ______  __  __  ______  __  __  
 72
        65
 73
         6
 40
1.025
 49
0.625
 74
         0
 49
-0.125
 74
         0
 49
0.075
 74
         0
 49
-0.125
 74
         0
 49
0.075
 74
         0
 49
-0.125
 74
         0
  0
ENDTAB
  0
TABLE
  2
LAYER
  5
2
100
AcDbSymbolTable
 70
         6
  0
LAYER
  5
14
100
AcDbSymbolTableRecord
100
AcDbLayerTableRecord
  2
0
 70
         0
 62
         7
  6
CONTINUOUS
  0
LAYER
  5
21
100
AcDbSymbolTableRecord
100
AcDbLayerTableRecord
  2
_____U
 70
         1
 62
         7
  6
CONTINUOUS
  0
LAYER
  5
22
100
AcDbSymbolTableRecord
100
AcDbLayerTableRecord
  2
_____T______
 70
         1
 62
         7
  6
CONTINUOUS
  0
LAYER
  5
23
100
AcDbSymbolTableRecord
100
AcDbLayerTableRecord
  2
______L_______
 70
         1
 62
         7
  6
CONTINUOUS
  0
LAYER
  5
24
100
AcDbSymbolTableRecord
100
AcDbLayerTableRecord
  2
L1_120
 70
         0
 62
         7
  6
CONTINUOUS
  0
LAYER
  5
1B0
100
AcDbSymbolTableRecord
100
AcDbLayerTableRecord
  2
DEFPOINTS
 70
         0
 62
        -7
  6
CONTINUOUS
  0
ENDTAB
  0
TABLE
  2
STYLE
  5
3
100
AcDbSymbolTable
 70
        11
  0
STYLE
  5
17
100
AcDbSymbolTableRecord
100
AcDbTextStyleTableRecord
  2
STANDARD
 70
         0
 40
0.0
 41
1.0
 50
0.0
 71
         0
 42
0.0
  3
txt
  4

  0
STYLE
  5
1BA
100
AcDbSymbolTableRecord
100
AcDbTextStyleTableRecord
  2
BOX
 70
         0
 40
1.0
 41
1.0
 50
0.0
 71
         0
 42
0.2
  3
txt.shx
  4

  0
STYLE
  5
1CA
100
AcDbSymbolTableRecord
100
AcDbTextStyleTableRecord
  2
BOX
 70
         0
 40
1.0
 41
1.0
 50
0.0
 71
         0
 42
0.2
  3
txt.shx
  4

  0
STYLE
  5
1D8
100
AcDbSymbolTableRecord
100
AcDbTextStyleTableRecord
  2
BOX
 70
         0
 40
1.0
 41
1.0
 50
0.0
 71
         0
 42
0.2
  3
txt.shx
  4

  0
STYLE
  5
1E6
100
AcDbSymbolTableRecord
100
AcDbTextStyleTableRecord
  2
BOX
 70
         0
 40
1.0
 41
1.0
 50
0.0
 71
         0
 42
0.2
  3
txt.shx
  4

  0
STYLE
  5
1F4
100
AcDbSymbolTableRecord
100
AcDbTextStyleTableRecord
  2
BOX
 70
         0
 40
1.0
 41
1.0
 50
0.0
 71
         0
 42
0.2
  3
txt.shx
  4

  0
STYLE
  5
202
100
AcDbSymbolTableRecord
100
AcDbTextStyleTableRecord
  2
BOX
 70
         0
 40
1.0
 41
1.0
 50
0.0
 71
         0
 42
0.2
  3
txt.shx
  4

  0
STYLE
  5
32A
100
AcDbSymbolTableRecord
100
AcDbTextStyleTableRecord
  2
BOX
 70
         0
 40
1.0
 41
1.0
 50
0.0
 71
         0
 42
0.2
  3
txt.shx
  4

  0
STYLE
  5
371
100
AcDbSymbolTableRecord
100
AcDbTextStyleTableRecord
  2
BOX
 70
         0
 40
1.0
 41
1.0
 50
0.0
 71
         0
 42
0.2
  3
txt.shx
  4

  0
STYLE
  5
380
100
AcDbSymbolTableRecord
100
AcDbTextStyleTableRecord
  2
BOX
 70
         0
 40
1.0
 41
1.0
 50
0.0
 71
         0
 42
0.2
  3
txt.shx
  4

  0
STYLE
  5
38E
100
AcDbSymbolTableRecord
100
AcDbTextStyleTableRecord
  2
BOX
 70
         0
 40
1.0
 41
1.0
 50
0.0
 71
         0
 42
0.2
  3
txt.shx
  4

  0
ENDTAB
  0
TABLE
  2
VIEW
  5
5
100
AcDbSymbolTable
 70
         0
  0
ENDTAB
  0
TABLE
  2
UCS
  5
6
100
AcDbSymbolTable
 70
         1
  0
UCS
  5
20
100
AcDbSymbolTableRecord
100
AcDbUCSTableRecord
  2
CK_VIEW_1
 70
         0
 10
0.0
 20
0.0
 30
1.0
 11
1.0
 21
0.0
 31
0.0
 12
0.0
 22
1.0
 32
0.0
  0
ENDTAB
  0
TABLE
  2
APPID
  5
8
100
AcDbSymbolTable
 70
         1
  0
APPID
  5
16
100
AcDbSymbolTableRecord
100
AcDbRegAppTableRecord
  2
ACAD
 70
         0
  0
ENDTAB
  0
TABLE
  2
DIMSTYLE
  5
9
100
AcDbSymbolTable
 70
         3
  0
DIMSTYLE
105
18
100
AcDbSymbolTableRecord
100
AcDbDimStyleTableRecord
  2
STANDARD
 70
         0
  3

  4

  5

  6

  7

 40
1.0
 41
0.18
 42
0.0625
 43
0.38
 44
0.18
 45
0.0
 46
0.0
 47
0.0
 48
0.0
 71
         0
 72
         0
 73
         1
 74
         1
 75
         0
 76
         0
 77
         0
 78
         0
140
0.18
141
0.09
142
0.0
143
25.4
144
1.0
145
0.0
146
1.0
147
0.09
170
         0
171
         2
172
         0
173
         0
174
         0
175
         0
176
         0
177
         0
178
         0
270
         2
271
         4
272
         4
273
         2
274
         2
275
         0
280
         0
281
         0
282
         0
283
         1
284
         0
285
         0
286
         0
287
         0
288
         0
340
17
  0
DIMSTYLE
105
1AC
100
AcDbSymbolTableRecord
100
AcDbDimStyleTableRecord
  2
DIMSTYLE1
 70
         0
  3

  4

  5

  6

  7

 40
1.0
 41
2.73
 42
0.0625
 43
0.38
 44
2.73
 45
0.0
 46
0.0
 47
0.0
 48
0.0
 71
         0
 72
         0
 73
         1
 74
         1
 75
         0
 76
         0
 77
         0
 78
         0
140
2.73
141
0.09
142
0.0
143
25.4
144
1.0
145
0.0
146
1.0
147
0.09
170
         0
171
         2
172
         0
173
         0
174
         0
175
         0
176
         0
177
         0
178
         0
270
         2
271
         4
272
         4
273
         2
274
         2
275
         0
280
         0
281
         0
282
         0
283
         1
284
         0
285
         0
286
         0
287
         0
288
         0
340
17
  0
DIMSTYLE
105
1CC
100
AcDbSymbolTableRecord
100
AcDbDimStyleTableRecord
  2
DIMSTYLE2
 70
         0
  3

  4

  5

  6

  7

 40
1.0
 41
2.7
 42
0.0625
 43
0.38
 44
2.7
 45
0.0
 46
0.0
 47
0.0
 48
0.0
 71
         0
 72
         0
 73
         1
 74
         1
 75
         0
 76
         0
 77
         0
 78
         0
140
2.7
141
0.09
142
0.0
143
25.4
144
1.0
145
0.0
146
1.0
147
0.09
170
         0
171
         2
172
         0
173
         0
174
         0
175
         0
176
         0
177
         0
178
         0
270
         2
271
         4
272
         4
273
         2
274
         2
275
         0
280
         0
281
         0
282
         0
283
         1
284
         0
285
         0
286
         0
287
         0
288
         0
340
17
  0
ENDTAB
  0
TABLE
  2
BLOCK_RECORD
  5
1
100
AcDbSymbolTable
 70
        10
  0
BLOCK_RECORD
  5
A
100
AcDbSymbolTableRecord
100
AcDbBlockTableRecord
  2
*MODEL_SPACE
  0
BLOCK_RECORD
  5
B
100
AcDbSymbolTableRecord
100
AcDbBlockTableRecord
  2
*PAPER_SPACE
  0
BLOCK_RECORD
  5
1AD
100
AcDbSymbolTableRecord
100
AcDbBlockTableRecord
  2
*D0
  0
BLOCK_RECORD
  5
1CD
100
AcDbSymbolTableRecord
100
AcDbBlockTableRecord
  2
*D1
  0
BLOCK_RECORD
  5
1DB
100
AcDbSymbolTableRecord
100
AcDbBlockTableRecord
  2
*D2
  0
BLOCK_RECORD
  5
1E9
100
AcDbSymbolTableRecord
100
AcDbBlockTableRecord
  2
*D3
  0
BLOCK_RECORD
  5
1F7
100
AcDbSymbolTableRecord
100
AcDbBlockTableRecord
  2
*D4
  0
BLOCK_RECORD
  5
26B
100
AcDbSymbolTableRecord
100
AcDbBlockTableRecord
  2
*X5
  0
BLOCK_RECORD
  5
31F
100
AcDbSymbolTableRecord
100
AcDbBlockTableRecord
  2
*D6
  0
BLOCK_RECORD
  5
365
100
AcDbSymbolTableRecord
100
AcDbBlockTableRecord
  2
*D7
  0
BLOCK_RECORD
  5
375
100
AcDbSymbolTableRecord
100
AcDbBlockTableRecord
  2
*D8
  0
BLOCK_RECORD
  5
383
100
AcDbSymbolTableRecord
100
AcDbBlockTableRecord
  2
*D9
  0
ENDTAB
  0
ENDSEC
  0
SECTION
  2
BLOCKS
  0
BLOCK
  5
D
100
AcDbEntity
  8
0
100
AcDbBlockBegin
  2
*MODEL_SPACE
 70
         0
 10
0.0
 20
0.0
 30
0.0
  3
*MODEL_SPACE
  1

  0
ENDBLK
  5
E
100
AcDbEntity
  8
0
100
AcDbBlockEnd
  0
BLOCK
  5
F
100
AcDbEntity
 67
         1
  8
0
100
AcDbBlockBegin
  2
*PAPER_SPACE
 70
         0
 10
0.0
 20
0.0
 30
0.0
  3
*PAPER_SPACE
  1

  0
ENDBLK
  5
10
100
AcDbEntity
 67
         1
  8
0
100
AcDbBlockEnd
  0
BLOCK
  5
1AE
100
AcDbEntity
  8
0
100
AcDbBlockBegin
  2
*D0
 70
        65
 10
0.0
 20
0.0
 30
0.0
  3
*D0
  1

  0
POINT
  5
1B1
100
AcDbEntity
  8
DEFPOINTS
  6
CONTINUOUS
 62
         0
100
AcDbPoint
 10
1485.7508425579
 20
-198.6625082305
 30
-78.7811352126
  0
POINT
  5
1B2
100
AcDbEntity
  8
DEFPOINTS
  6
CONTINUOUS
 62
         0
100
AcDbPoint
 10
1485.7508425579
 20
-221.4005268597
 30
-82.7904613847
  0
POINT
  5
1B3
100
AcDbEntity
  8
DEFPOINTS
  6
CONTINUOUS
 62
         0
100
AcDbPoint
 10
1484.8847699505
 20
-222.7393352626
 30
-83.0265294282
  0
POINT
  5
1B4
100
AcDbEntity
  8
DEFPOINTS
  6
CONTINUOUS
 62
         0
100
AcDbPoint
 10
1475.4301551535
 20
-227.0811155874
 30
-83.7921024437
  0
LINE
  5
1B5
100
AcDbEntity
  8
L1_120
  6
CONTINUOUS
 62
         4
100
AcDbLine
 10
1485.7508425579
 20
-233.77836812
 30
-43.0868902235
 11
1485.7508425579
 21
-244.7983712731
 31
-43.0868902235
  0
ARC
  5
1B6
100
AcDbEntity
  8
L1_120
  6
CONTINUOUS
 62
         4
100
AcDbCircle
 10
1485.7508425579
 20
-233.3689735113
 30
-43.0868902235
 40
10.7468977618
100
AcDbArc
 50
205.0
 51
237.5
  0
SOLID
  5
1B7
100
AcDbEntity
  8
L1_120
  6
CONTINUOUS
 62
         4
100
AcDbTrace
 10
1476.0108454298
 20
-226.814449026
 30
-83.7450819341
 11
1477.8142224443
 21
-228.8727729959
 31
-84.108019985
 12
1477.1216307122
 22
-229.3032564394
 32
-84.1839258309
 13
1476.0108454298
 23
-226.814449026
 33
-83.7450819341
  0
ARC
  5
1B8
100
AcDbEntity
  8
L1_120
  6
CONTINUOUS
 62
         4
100
AcDbCircle
 10
1485.7508425579
 20
-233.3689735113
 30
-43.0868902235
 40
10.7468977618
100
AcDbArc
 50
237.5
 51
270.0
  0
SOLID
  5
1B9
100
AcDbEntity
  8
L1_120
  6
CONTINUOUS
 62
         4
100
AcDbTrace
 10
1485.7508425579
 20
-232.9252426944
 30
-84.8225797314
 11
1482.9909822138
 21
-232.985639044
 31
-84.8332292374
 12
1483.0944494972
 22
-232.1855437922
 32
-84.6921508573
 13
1485.7508425579
 23
-232.9252426944
 33
-84.8225797314
  0
TEXT
  5
1BB
100
AcDbEntity
  8
L1_120
  6
CONTINUOUS
 62
         4
100
AcDbText
 10
1474.8598910958
 20
-244.3578971881
 30
-43.0868902235
 40
2.73
  1
65%%d
  7
BOX
100
AcDbText
  0
ENDBLK
  5
1BC
100
AcDbEntity
  8
0
  6
CONTINUOUS
100
AcDbBlockEnd
  0
BLOCK
  5
1CE
100
AcDbEntity
  8
0
100
AcDbBlockBegin
  2
*D1
 70
        65
 10
0.0
 20
0.0
 30
0.0
  3
*D1
  1

  0
POINT
  5
1D0
100
AcDbEntity
  8
DEFPOINTS
  6
CONTINUOUS
 62
         0
100
AcDbPoint
 10
1384.1508425579
 20
-174.1256081248
 30
-30.7030427447
  0
POINT
  5
1D1
100
AcDbEntity
  8
DEFPOINTS
  6
CONTINUOUS
 62
         0
100
AcDbPoint
 10
1384.1508425579
 20
-195.626125203
 30
-34.4941640047
  0
POINT
  5
1D2
100
AcDbEntity
  8
DEFPOINTS
  6
CONTINUOUS
 62
         0
100
AcDbPoint
 10
1485.7508425579
 20
-217.5134775137
 30
-38.3534947534
  0
LINE
  5
1D3
100
AcDbEntity
  8
L1_120
  6
CONTINUOUS
 62
         4
100
AcDbLine
 10
1384.1508425579
 20
-194.2966347365
 30
-34.2597389649
 11
1384.1508425579
 21
-173.4608628915
 31
-30.5858302248
  0
LINE
  5
1D4
100
AcDbEntity
  8
L1_120
  6
CONTINUOUS
 62
         4
100
AcDbLine
 10
1485.7508425579
 20
-216.1839870472
 30
-38.1190697135
 11
1485.7508425579
 21
-173.4608628915
 31
-30.5858302248
  0
LINE
  5
1D5
100
AcDbEntity
  8
L1_120
  6
CONTINUOUS
 62
         4
100
AcDbLine
 10
1384.1508425579
 20
-174.1256081248
 30
-30.7030427447
 11
1485.7508425579
 21
-174.1256081248
 31
-30.7030427447
  0
SOLID
  5
1D6
100
AcDbEntity
  8
L1_120
  6
CONTINUOUS
 62
         4
100
AcDbTrace
 10
1384.1508425579
 20
-174.1256081248
 30
-30.7030427447
 11
1386.8508425579
 21
-173.7267609849
 31
-30.6327152327
 12
1386.8508425579
 22
-174.5244552648
 32
-30.7733702566
 13
1384.1508425579
 23
-174.1256081248
 33
-30.7030427447
  0
SOLID
  5
1D7
100
AcDbEntity
  8
L1_120
  6
CONTINUOUS
 62
         4
100
AcDbTrace
 10
1485.7508425579
 20
-174.1256081248
 30
-30.7030427447
 11
1483.0508425579
 21
-174.5244552648
 31
-30.7733702566
 12
1483.0508425579
 22
-173.7267609849
 32
-30.6327152327
 13
1485.7508425579
 23
-174.1256081248
 33
-30.7030427447
  0
TEXT
  5
1D9
100
AcDbEntity
  8
L1_120
  6
CONTINUOUS
 62
         4
100
AcDbText
 10
1428.6446308548
 20
-174.7867763007
 30
0.0
 40
2.7
  1
101
  7
BOX
210
0.0
220
-0.1736481776669303
230
0.9848077530122081
100
AcDbText
  0
ENDBLK
  5
1DA
100
AcDbEntity
  8
0
  6
CONTINUOUS
100
AcDbBlockEnd
  0
BLOCK
  5
1DC
100
AcDbEntity
  8
0
100
AcDbBlockBegin
  2
*D2
 70
        65
 10
0.0
 20
0.0
 30
0.0
  3
*D2
  1

  0
POINT
  5
1DE
100
AcDbEntity
  8
DEFPOINTS
  6
CONTINUOUS
 62
         0
100
AcDbPoint
 10
1315.9008425579
 20
-160.9267239489
 30
-28.3757233492
  0
POINT
  5
1DF
100
AcDbEntity
  8
DEFPOINTS
  6
CONTINUOUS
 62
         0
100
AcDbPoint
 10
1315.9008425579
 20
-206.4499682606
 30
-36.4026995708
  0
POINT
  5
1E0
100
AcDbEntity
  8
DEFPOINTS
  6
CONTINUOUS
 62
         0
100
AcDbPoint
 10
1485.7508425579
 20
-217.5134775137
 30
-38.3534947534
  0
LINE
  5
1E1
100
AcDbEntity
  8
L1_120
  6
CONTINUOUS
 62
         4
100
AcDbLine
 10
1315.9008425579
 20
-205.1204777941
 30
-36.1682745309
 11
1315.9008425579
 21
-160.2619787156
 31
-28.2585108293
  0
LINE
  5
1E2
100
AcDbEntity
  8
L1_120
  6
CONTINUOUS
 62
         4
100
AcDbLine
 10
1485.7508425579
 20
-216.1839870472
 30
-38.1190697135
 11
1485.7508425579
 21
-160.2619787156
 31
-28.2585108293
  0
LINE
  5
1E3
100
AcDbEntity
  8
L1_120
  6
CONTINUOUS
 62
         4
100
AcDbLine
 10
1315.9008425579
 20
-160.9267239489
 30
-28.3757233492
 11
1485.7508425579
 21
-160.9267239489
 31
-28.3757233492
  0
SOLID
  5
1E4
100
AcDbEntity
  8
L1_120
  6
CONTINUOUS
 62
         4
100
AcDbTrace
 10
1315.9008425579
 20
-160.9267239489
 30
-28.3757233492
 11
1318.6008425579
 21
-160.5278768089
 31
-28.3053958373
 12
1318.6008425579
 22
-161.3255710888
 32
-28.4460508612
 13
1315.9008425579
 23
-160.9267239489
 33
-28.3757233492
  0
SOLID
  5
1E5
100
AcDbEntity
  8
L1_120
  6
CONTINUOUS
 62
         4
100
AcDbTrace
 10
1485.7508425579
 20
-160.9267239489
 30
-28.3757233492
 11
1483.0508425579
 21
-161.3255710888
 31
-28.4460508612
 12
1483.0508425579
 22
-160.5278768089
 32
-28.3053958373
 13
1485.7508425579
 23
-160.9267239489
 33
-28.3757233492
  0
TEXT
  5
1E7
100
AcDbEntity
  8
L1_120
  6
CONTINUOUS
 62
         4
100
AcDbText
 10
1388.1905477989
 20
-161.3842780613
 30
0.0
 40
2.7
  1
169.85
  7
BOX
210
0.0
220
-0.1736481776669303
230
0.9848077530122081
100
AcDbText
  0
ENDBLK
  5
1E8
100
AcDbEntity
  8
0
  6
CONTINUOUS
100
AcDbBlockEnd
  0
BLOCK
  5
1EA
100
AcDbEntity
  8
0
100
AcDbBlockBegin
  2
*D3
 70
        65
 10
0.0
 20
0.0
 30
0.0
  3
*D3
  1

  0
POINT
  5
1EC
100
AcDbEntity
  8
DEFPOINTS
  6
CONTINUOUS
 62
         0
100
AcDbPoint
 10
1501.1468476951
 20
-205.2033806011
 30
-36.1828925326
  0
POINT
  5
1ED
100
AcDbEntity
  8
DEFPOINTS
  6
CONTINUOUS
 62
         0
100
AcDbPoint
 10
1485.7508425579
 20
-205.2033806011
 30
-36.1828925326
  0
POINT
  5
1EE
100
AcDbEntity
  8
DEFPOINTS
  6
CONTINUOUS
 62
         0
100
AcDbPoint
 10
1485.7508425579
 20
-229.8235744264
 30
-40.5240969742
  0
LINE
  5
1EF
100
AcDbEntity
  8
L1_120
  6
CONTINUOUS
 62
         4
100
AcDbLine
 10
1487.1008425579
 20
-205.2033806011
 30
-36.1828925326
 11
1501.8218476951
 21
-205.2033806011
 31
-36.1828925326
  0
LINE
  5
1F0
100
AcDbEntity
  8
L1_120
  6
CONTINUOUS
 62
         4
100
AcDbLine
 10
1487.1008425579
 20
-229.8235744264
 30
-40.5240969742
 11
1501.8218476951
 21
-229.8235744264
 31
-40.5240969742
  0
LINE
  5
1F1
100
AcDbEntity
  8
L1_120
  6
CONTINUOUS
 62
         4
100
AcDbLine
 10
1501.1468476951
 20
-205.2033806011
 30
-36.1828925326
 11
1501.1468476951
 21
-229.8235744264
 31
-40.5240969742
  0
SOLID
  5
1F2
100
AcDbEntity
  8
L1_120
  6
CONTINUOUS
 62
         4
100
AcDbTrace
 10
1501.1468476951
 20
-205.2033806011
 30
-36.1828925326
 11
1501.5518476951
 21
-207.8623615342
 31
-36.6517426123
 12
1500.7418476951
 22
-207.8623615342
 32
-36.6517426123
 13
1501.1468476951
 23
-205.2033806011
 33
-36.1828925326
  0
SOLID
  5
1F3
100
AcDbEntity
  8
L1_120
  6
CONTINUOUS
 62
         4
100
AcDbTrace
 10
1501.1468476951
 20
-229.8235744264
 30
-40.5240969742
 11
1500.7418476951
 21
-227.1645934933
 31
-40.0552468945
 12
1501.5518476951
 22
-227.1645934933
 32
-40.0552468945
 13
1501.1468476951
 23
-229.8235744264
 33
-40.5240969742
  0
TEXT
  5
1F5
100
AcDbEntity
  8
L1_120
  6
CONTINUOUS
 62
         4
100
AcDbText
 10
1499.1218476951
 20
-229.6583154842
 30
0.0
 40
2.7
  1
崷25.2
 50
90.0
  7
BOX
210
0.0
220
-0.1736481776669303
230
0.9848077530122081
100
AcDbText
  0
ENDBLK
  5
1F6
100
AcDbEntity
  8
0
  6
CONTINUOUS
100
AcDbBlockEnd
  0
BLOCK
  5
1F8
100
AcDbEntity
  8
0
100
AcDbBlockBegin
  2
*D4
 70
        65
 10
0.0
 20
0.0
 30
0.0
  3
*D4
  1

  0
POINT
  5
1FA
100
AcDbEntity
  8
DEFPOINTS
  6
CONTINUOUS
 62
         0
100
AcDbPoint
 10
1512.8826344237
 20
-200.279341836
 30
-35.3146516442
  0
POINT
  5
1FB
100
AcDbEntity
  8
DEFPOINTS
  6
CONTINUOUS
 62
         0
100
AcDbPoint
 10
1474.58491863
 20
-200.279341836
 30
-35.3146516442
  0
POINT
  5
1FC
100
AcDbEntity
  8
DEFPOINTS
  6
CONTINUOUS
 62
         0
100
AcDbPoint
 10
1474.58491863
 20
-234.7476131914
 30
-41.3923378626
  0
LINE
  5
1FD
100
AcDbEntity
  8
L1_120
  6
CONTINUOUS
 62
         4
100
AcDbLine
 10
1475.93491863
 20
-200.279341836
 30
-35.3146516442
 11
1513.5576344237
 21
-200.279341836
 31
-35.3146516442
  0
LINE
  5
1FE
100
AcDbEntity
  8
L1_120
  6
CONTINUOUS
 62
         4
100
AcDbLine
 10
1475.93491863
 20
-234.7476131914
 30
-41.3923378626
 11
1513.5576344237
 21
-234.7476131914
 31
-41.3923378626
  0
LINE
  5
1FF
100
AcDbEntity
  8
L1_120
  6
CONTINUOUS
 62
         4
100
AcDbLine
 10
1512.8826344237
 20
-200.279341836
 30
-35.3146516442
 11
1512.8826344237
 21
-234.7476131914
 31
-41.3923378626
  0
SOLID
  5
200
100
AcDbEntity
  8
L1_120
  6
CONTINUOUS
 62
         4
100
AcDbTrace
 10
1512.8826344237
 20
-200.279341836
 30
-35.3146516442
 11
1513.2876344237
 21
-202.9383227692
 31
-35.7835017239
 12
1512.4776344237
 22
-202.9383227692
 32
-35.7835017239
 13
1512.8826344237
 23
-200.279341836
 33
-35.3146516442
  0
SOLID
  5
201
100
AcDbEntity
  8
L1_120
  6
CONTINUOUS
 62
         4
100
AcDbTrace
 10
1512.8826344237
 20
-234.7476131914
 30
-41.3923378626
 11
1512.4776344237
 21
-232.0886322583
 31
-40.9234877829
 12
1513.2876344237
 22
-232.0886322583
 32
-40.9234877829
 13
1512.8826344237
 23
-234.7476131914
 33
-41.3923378626
  0
TEXT
  5
203
100
AcDbEntity
  8
L1_120
  6
CONTINUOUS
 62
         4
100
AcDbText
 10
1509.7506344237
 20
-226.0144052978
 30
0.0
 40
2.7
  1
崷35
 50
90.0
  7
BOX
210
0.0
220
-0.1736481776669303
230
0.9848077530122081
100
AcDbText
  0
ENDBLK
  5
204
100
AcDbEntity
  8
0
  6
CONTINUOUS
100
AcDbBlockEnd
  0
BLOCK
  5
26C
100
AcDbEntity
  8
0
100
AcDbBlockBegin
  2
*X5
 70
        65
 10
0.0
 20
0.0
 30
0.0
  3
*X5
  1

  0
LINE
  5
26D
100
AcDbEntity
  8
L1_120
  6
CONTINUOUS
 62
         4
100
AcDbLine
 10
1480.135221484
 20
-342.8605118416
 30
-60.4555588572
 11
1485.7508425579
 21
-337.3302046701
 31
-59.4804164913
  0
LINE
  5
26E
100
AcDbEntity
  8
L1_120
  6
CONTINUOUS
 62
         4
100
AcDbLine
 10
1473.5111879089
 20
-345.2057260207
 30
-60.8690833925
 11
1484.6160499506
 21
-334.2695717859
 31
-58.9407443357
  0
LINE
  5
26F
100
AcDbEntity
  8
L1_120
  6
CONTINUOUS
 62
         4
100
AcDbLine
 10
1469.8641948898
 20
-344.6191275791
 30
-60.7656502604
 11
1478.1285472218
 21
-336.480329329
 31
-59.3305605384
  0
LINE
  5
270
100
AcDbEntity
  8
L1_120
  6
CONTINUOUS
 62
         4
100
AcDbLine
 10
1468.3988425579
 20
-341.8840324746
 30
-60.2833791987
 11
1476.1759065347
 21
-334.2251195746
 31
-58.9329062115
  0
LINE
  5
271
100
AcDbEntity
  8
L1_120
  6
CONTINUOUS
 62
         4
100
AcDbLine
 10
1468.3988425579
 20
-337.7058470327
 30
-59.5466523749
 11
1471.9332658476
 21
-334.2251195746
 31
-58.9329062115
  0
LINE
  5
272
100
AcDbEntity
  8
L1_120
  6
CONTINUOUS
 62
         4
100
AcDbLine
 10
1484.7458581551
 20
-321.6071793339
 30
-56.7080229061
 11
1485.6810538342
 21
-320.6861913786
 31
-56.5456278807
  0
LINE
  5
273
100
AcDbEntity
  8
L1_120
  6
CONTINUOUS
 62
         4
100
AcDbLine
 10
1480.5008425579
 20
-321.6095181638
 30
-56.7084353049
 11
1485.7425479183
 21
-316.4474460859
 31
-55.7982227212
  0
LINE
  5
274
100
AcDbEntity
  8
L1_120
  6
CONTINUOUS
 62
         4
100
AcDbLine
 10
1452.2979844733
 20
-345.2057260207
 30
-60.8690833925
 11
1458.3988425579
 21
-339.197553679
 31
-59.8096805039
  0
LINE
  5
275
100
AcDbEntity
  8
L1_120
  6
CONTINUOUS
 62
         4
100
AcDbLine
 10
1476.1479844733
 20
-321.7180611113
 30
-56.7275743551
 11
1477.3008425579
 21
-320.5827175315
 31
-56.5273826497
  0
LINE
  5
276
100
AcDbEntity
  8
L1_120
  6
CONTINUOUS
 62
         4
100
AcDbLine
 10
1478.4379844733
 20
-319.4628513569
 30
-56.3299200283
 11
1483.3960447326
 21
-314.5801151737
 31
-55.4689618995
  0
LINE
  5
277
100
AcDbEntity
  8
L1_120
  6
CONTINUOUS
 62
         4
100
AcDbLine
 10
1448.0553437862
 20
-345.2057260207
 30
-60.8690833925
 11
1458.3988425579
 21
-335.0193682371
 31
-59.0729536801
  0
LINE
  5
278
100
AcDbEntity
  8
L1_120
  6
CONTINUOUS
 62
         4
100
AcDbLine
 10
1471.9053437862
 20
-321.7180611113
 30
-56.7275743551
 11
1480.5026269267
 21
-313.2513900198
 31
-55.2346718049
  0
LINE
  5
279
100
AcDbEntity
  8
L1_120
  6
CONTINUOUS
 62
         4
100
AcDbLine
 10
1443.8127030991
 20
-345.2057260207
 30
-60.8690833925
 11
1454.9627030991
 21
-334.2251195746
 31
-58.9329062115
  0
LINE
  5
27A
100
AcDbEntity
  8
L1_120
  6
CONTINUOUS
 62
         4
100
AcDbLine
 10
1467.6627030991
 20
-321.7180611113
 30
-56.7275743551
 11
1477.6092091207
 21
-311.9226648658
 31
-55.0003817103
  0
LINE
  5
27B
100
AcDbEntity
  8
L1_120
  6
CONTINUOUS
 62
         4
100
AcDbLine
 10
1439.570062412
 20
-345.2057260207
 30
-60.8690833925
 11
1450.720062412
 21
-334.2251195746
 31
-58.9329062115
  0
LINE
  5
27C
100
AcDbEntity
  8
L1_120
  6
CONTINUOUS
 62
         4
100
AcDbLine
 10
1463.420062412
 20
-321.7180611113
 30
-56.7275743551
 11
1474.570062412
 21
-310.7374546653
 31
-54.7913971742
  0
LINE
  5
27D
100
AcDbEntity
  8
L1_120
  6
CONTINUOUS
 62
         4
100
AcDbLine
 10
1435.3274217248
 20
-345.2057260207
 30
-60.8690833925
 11
1446.4774217248
 21
-334.2251195746
 31
-58.9329062115
  0
LINE
  5
27E
100
AcDbEntity
  8
L1_120
  6
CONTINUOUS
 62
         4
100
AcDbLine
 10
1459.1774217248
 20
-321.7180611113
 30
-56.7275743551
 11
1466.9165658388
 21
-314.0964919862
 31
-55.383686083
  0
LINE
  5
27F
100
AcDbEntity
  8
L1_120
  6
CONTINUOUS
 62
         4
100
AcDbLine
 10
1431.0847810377
 20
-345.2057260207
 30
-60.8690833925
 11
1440.2347810377
 21
-336.1947350806
 31
-59.2802025668
  0
LINE
  5
280
100
AcDbEntity
  8
L1_120
  6
CONTINUOUS
 62
         4
100
AcDbLine
 10
1440.7508425579
 20
-335.6865136945
 30
-59.1905894243
 11
1442.2347810377
 21
-334.2251195746
 31
-58.9329062115
  0
LINE
  5
281
100
AcDbEntity
  8
L1_120
  6
CONTINUOUS
 62
         4
100
AcDbLine
 10
1454.9347810377
 20
-321.7180611113
 30
-56.7275743551
 11
1462.1172455965
 21
-314.6447143281
 31
-55.4803524734
  0
LINE
  5
282
100
AcDbEntity
  8
L1_120
  6
CONTINUOUS
 62
         4
100
AcDbLine
 10
1426.8421403506
 20
-345.2057260207
 30
-60.8690833925
 11
1435.9921403506
 21
-336.1947350806
 31
-59.2802025668
  0
LINE
  5
283
100
AcDbEntity
  8
L1_120
  6
CONTINUOUS
 62
         4
100
AcDbLine
 10
1450.6921403506
 20
-321.7180611113
 30
-56.7275743551
 11
1458.8742762646
 21
-313.6602302271
 31
-55.3067613643
  0
LINE
  5
284
100
AcDbEntity
  8
L1_120
  6
CONTINUOUS
 62
         4
100
AcDbLine
 10
1417.8144996635
 20
-349.9180311188
 30
-61.6999899226
 11
1419.2028425579
 21
-348.5507802726
 31
-61.458906709
  0
LINE
  5
285
100
AcDbEntity
  8
L1_120
  6
CONTINUOUS
 62
         4
100
AcDbLine
 10
1422.5994996635
 20
-345.2057260207
 30
-60.8690833925
 11
1431.7494996635
 21
-336.1947350806
 31
-59.2802025668
  0
LINE
  5
286
100
AcDbEntity
  8
L1_120
  6
CONTINUOUS
 62
         4
100
AcDbLine
 10
1446.4494996635
 20
-321.7180611113
 30
-56.7275743551
 11
1456.4035045502
 21
-311.9152799254
 31
-54.9990795461
  0
LINE
  5
287
100
AcDbEntity
  8
L1_120
  6
CONTINUOUS
 62
         4
100
AcDbLine
 10
1413.5718589764
 20
-349.9180311188
 30
-61.6999899226
 11
1427.5068589764
 21
-336.1947350806
 31
-59.2802025668
  0
LINE
  5
288
100
AcDbEntity
  8
L1_120
  6
CONTINUOUS
 62
         4
100
AcDbLine
 10
1442.2068589764
 20
-321.7180611113
 30
-56.7275743551
 11
1453.3568589764
 21
-310.7374546653
 31
-54.7913971742
  0
LINE
  5
289
100
AcDbEntity
  8
L1_120
  6
CONTINUOUS
 62
         4
100
AcDbLine
 10
1399.8392182891
 20
-359.2638566951
 30
-63.3479111287
 11
1403.2508425579
 21
-355.9040626648
 31
-62.7554887916
  0
LINE
  5
28A
100
AcDbEntity
  8
L1_120
  6
CONTINUOUS
 62
         4
100
AcDbLine
 10
1409.3292182893
 20
-349.9180311188
 30
-61.6999899226
 11
1423.2642182893
 21
-336.1947350806
 31
-59.2802025668
  0
LINE
  5
28B
100
AcDbEntity
  8
L1_120
  6
CONTINUOUS
 62
         4
100
AcDbLine
 10
1439.9642182893
 20
-319.7484456053
 30
-56.3802779998
 11
1449.1142182892
 21
-310.7374546653
 31
-54.7913971742
  0
LINE
  5
28C
100
AcDbEntity
  8
L1_120
  6
CONTINUOUS
 62
         4
100
AcDbLine
 10
1397.6192959652
 20
-357.2718679688
 30
-62.996669771
 11
1403.2508425579
 21
-351.7258772229
 31
-62.0187619677
  0
LINE
  5
28D
100
AcDbEntity
  8
L1_120
  6
CONTINUOUS
 62
         4
100
AcDbLine
 10
1405.0865776021
 20
-349.9180311188
 30
-61.6999899226
 11
1420.3715776021
 21
-334.865244614
 31
-59.045777527
  0
LINE
  5
28E
100
AcDbEntity
  8
L1_120
  6
CONTINUOUS
 62
         4
100
AcDbLine
 10
1435.7215776021
 20
-319.7484456053
 30
-56.3802779998
 11
1444.8715776021
 21
-310.7374546653
 31
-54.7913971742
  0
LINE
  5
28F
100
AcDbEntity
  8
L1_120
  6
CONTINUOUS
 62
         4
100
AcDbLine
 10
1391.3539369148
 20
-359.2638566951
 30
-63.3479111287
 11
1392.207209064
 21
-358.4235476672
 31
-63.199741975
  0
LINE
  5
290
100
AcDbEntity
  8
L1_120
  6
CONTINUOUS
 62
         4
100
AcDbLine
 10
1395.003936915
 20
-355.6693083964
 30
-62.7140952802
 11
1416.128936915
 21
-334.865244614
 31
-59.045777527
  0
LINE
  5
291
100
AcDbEntity
  8
L1_120
  6
CONTINUOUS
 62
         4
100
AcDbLine
 10
1431.478936915
 20
-319.7484456053
 30
-56.3802779998
 11
1440.628936915
 21
-310.7374546653
 31
-54.7913971742
  0
LINE
  5
292
100
AcDbEntity
  8
L1_120
  6
CONTINUOUS
 62
         4
100
AcDbLine
 10
1387.4810693929
 20
-358.8997012152
 30
-63.2837006924
 11
1411.8862962279
 21
-334.865244614
 31
-59.045777527
  0
LINE
  5
293
100
AcDbEntity
  8
L1_120
  6
CONTINUOUS
 62
         4
100
AcDbLine
 10
1427.2362962279
 20
-319.7484456053
 30
-56.3802779998
 11
1436.3862962279
 21
-310.7374546653
 31
-54.7913971742
  0
LINE
  5
294
100
AcDbEntity
  8
L1_120
  6
CONTINUOUS
 62
         4
100
AcDbLine
 10
1387.3508425579
 20
-354.84976417
 30
-62.5695875212
 11
1407.6436555408
 21
-334.865244614
 31
-59.045777527
  0
LINE
  5
295
100
AcDbEntity
  8
L1_120
  6
CONTINUOUS
 62
         4
100
AcDbLine
 10
1422.9936555408
 20
-319.7484456053
 30
-56.3802779998
 11
1432.1436555408
 21
-310.7374546653
 31
-54.7913971742
  0
LINE
  5
296
100
AcDbEntity
  8
L1_120
  6
CONTINUOUS
 62
         4
100
AcDbLine
 10
1387.3388747031
 20
-350.6833647643
 30
-61.8349388936
 11
1403.4010148537
 21
-334.865244614
 31
-59.045777527
  0
LINE
  5
297
100
AcDbEntity
  8
L1_120
  6
CONTINUOUS
 62
         4
100
AcDbLine
 10
1417.9732514092
 20
-320.5143930754
 30
-56.5153352046
 11
1427.9010148536
 21
-310.7374546653
 31
-54.7913971742
  0
LINE
  5
298
100
AcDbEntity
  8
L1_120
  6
CONTINUOUS
 62
         4
100
AcDbLine
 10
1383.9610519618
 20
-349.8316853463
 30
-61.6847648333
 11
1399.1583741665
 21
-334.865244614
 31
-59.045777527
  0
LINE
  5
299
100
AcDbEntity
  8
L1_120
  6
CONTINUOUS
 62
         4
100
AcDbLine
 10
1415.4778850544
 20
-318.7936637663
 30
-56.2119242009
 11
1423.6583741665
 21
-310.7374546653
 31
-54.7913971742
  0
LINE
  5
29A
100
AcDbEntity
  8
L1_120
  6
CONTINUOUS
 62
         4
100
AcDbLine
 10
1380.2583837258
 20
-349.2999162901
 30
-61.5909996011
 11
1394.9157334794
 21
-334.865244614
 31
-59.045777527
  0
LINE
  5
29B
100
AcDbEntity
  8
L1_120
  6
CONTINUOUS
 62
         4
100
AcDbLine
 10
1408.9157334794
 20
-321.0779360719
 30
-56.6147030397
 11
1410.6130690574
 21
-319.4063868352
 31
-56.3199638096
  0
LINE
  5
29C
100
AcDbEntity
  8
L1_120
  6
CONTINUOUS
 62
         4
100
AcDbLine
 10
1412.9825186995
 20
-317.0729344573
 30
-55.9085131972
 11
1419.5537078139
 21
-310.6015764709
 31
-54.7674381824
  0
LINE
  5
29D
100
AcDbEntity
  8
L1_120
  6
CONTINUOUS
 62
         4
100
AcDbLine
 10
1376.5557154897
 20
-348.7681472338
 30
-61.497234369
 11
1390.6730927923
 21
-334.865244614
 31
-59.045777527
  0
LINE
  5
29E
100
AcDbEntity
  8
L1_120
  6
CONTINUOUS
 62
         4
100
AcDbLine
 10
1404.6730927923
 20
-321.0779360719
 30
-56.6147030397
 11
1408.1177027026
 21
-317.6856575261
 31
-56.016552806
  0
LINE
  5
29F
100
AcDbEntity
  8
L1_120
  6
CONTINUOUS
 62
         4
100
AcDbLine
 10
1410.4871523447
 20
-315.3522051482
 30
-55.6051021935
 11
1419.2028425579
 21
-306.7689258534
 31
-54.0916384709
  0
LINE
  5
2A0
100
AcDbEntity
  8
L1_120
  6
CONTINUOUS
 62
         4
100
AcDbLine
 10
1372.8530472537
 20
-348.2363781776
 30
-61.4034691369
 11
1386.4304521052
 21
-334.865244614
 31
-59.045777527
  0
LINE
  5
2A1
100
AcDbEntity
  8
L1_120
  6
CONTINUOUS
 62
         4
100
AcDbLine
 10
1400.4304521052
 20
-321.0779360719
 30
-56.6147030397
 11
1405.6223363477
 21
-315.9649282171
 31
-55.7131418023
  0
LINE
  5
2A2
100
AcDbEntity
  8
L1_120
  6
CONTINUOUS
 62
         4
100
AcDbLine
 10
1407.9917859898
 20
-313.6314758392
 30
-55.3016911899
 11
1415.7154521052
 21
-306.0251495671
 31
-53.960490644
  0
LINE
  5
2A3
100
AcDbEntity
  8
L1_120
  6
CONTINUOUS
 62
         4
100
AcDbLine
 10
1369.1503790177
 20
-347.7046091213
 30
-61.3097039048
 11
1382.1878114181
 21
-334.865244614
 31
-59.045777527
  0
LINE
  5
2A4
100
AcDbEntity
  8
L1_120
  6
CONTINUOUS
 62
         4
100
AcDbLine
 10
1396.1878114181
 20
-321.0779360719
 30
-56.6147030397
 11
1403.1269699929
 21
-314.244198908
 31
-55.4097307986
  0
LINE
  5
2A5
100
AcDbEntity
  8
L1_120
  6
CONTINUOUS
 62
         4
100
AcDbLine
 10
1405.496419635
 20
-311.9107465301
 30
-54.9982801862
 11
1411.4728114181
 21
-306.0251495671
 31
-53.960490644
  0
LINE
  5
2A6
100
AcDbEntity
  8
L1_120
  6
CONTINUOUS
 62
         4
100
AcDbLine
 10
1365.4477107816
 20
-347.1728400651
 30
-61.2159386727
 11
1377.9451707309
 21
-334.865244614
 31
-59.045777527
  0
LINE
  5
2A7
100
AcDbEntity
  8
L1_120
  6
CONTINUOUS
 62
         4
100
AcDbLine
 10
1391.9451707309
 20
-321.0779360719
 30
-56.6147030397
 11
1400.631603638
 21
-312.523469599
 31
-55.1063197949
  0
LINE
  5
2A8
100
AcDbEntity
  8
L1_120
  6
CONTINUOUS
 62
         4
100
AcDbLine
 10
1403.0010532801
 20
-310.1900172211
 30
-54.6948691825
 11
1407.2301707309
 21
-306.0251495671
 31
-53.960490644
  0
LINE
  5
2A9
100
AcDbEntity
  8
L1_120
  6
CONTINUOUS
 62
         4
100
AcDbLine
 10
1361.7450425456
 20
-346.6410710088
 30
-61.1221734405
 11
1373.7025300438
 21
-334.865244614
 31
-59.045777527
  0
LINE
  5
2AA
100
AcDbEntity
  8
L1_120
  6
CONTINUOUS
 62
         4
100
AcDbLine
 10
1387.7025300438
 20
-321.0779360719
 30
-56.6147030397
 11
1398.1362372832
 21
-310.8027402899
 31
-54.8029087912
  0
LINE
  5
2AB
100
AcDbEntity
  8
L1_120
  6
CONTINUOUS
 62
         4
100
AcDbLine
 10
1400.5056869253
 20
-308.469287912
 30
-54.3914581788
 11
1403.2910603647
 21
-305.7262305538
 31
-53.9077831569
  0
LINE
  5
2AC
100
AcDbEntity
  8
L1_120
  6
CONTINUOUS
 62
         4
100
AcDbLine
 10
1358.0423743096
 20
-346.1093019526
 30
-61.0284082084
 11
1369.4598893567
 21
-334.865244614
 31
-59.045777527
  0
LINE
  5
2AD
100
AcDbEntity
  8
L1_120
  6
CONTINUOUS
 62
         4
100
AcDbLine
 10
1383.4598893567
 20
-321.0779360719
 30
-56.6147030397
 11
1395.6408709283
 21
-309.0820109809
 31
-54.4994977876
  0
LINE
  5
2AE
100
AcDbEntity
  8
L1_120
  6
CONTINUOUS
 62
         4
100
AcDbLine
 10
1398.0103205704
 20
-306.748558603
 30
-54.0880471751
 11
1403.2508425579
 21
-301.5876519199
 31
-53.178040082
  0
LINE
  5
2AF
100
AcDbEntity
  8
L1_120
  6
CONTINUOUS
 62
         4
100
AcDbLine
 10
1354.3397060735
 20
-345.5775328963
 30
-60.9346429763
 11
1365.2172486696
 21
-334.865244614
 31
-59.045777527
  0
LINE
  5
2B0
100
AcDbEntity
  8
L1_120
  6
CONTINUOUS
 62
         4
100
AcDbLine
 10
1379.2172486696
 20
-321.0779360719
 30
-56.6147030397
 11
1393.1455045734
 21
-307.3612816718
 31
-54.1960867839
  0
LINE
  5
2B1
100
AcDbEntity
  8
L1_120
  6
CONTINUOUS
 62
         4
100
AcDbLine
 10
1395.5149542155
 20
-305.0278292939
 30
-53.7846361714
 11
1403.2508425579
 21
-297.4094664779
 31
-52.4413132582
  0
LINE
  5
2B2
100
AcDbEntity
  8
L1_120
  6
CONTINUOUS
 62
         4
100
AcDbLine
 10
1350.6370378375
 20
-345.0457638401
 30
-60.8408777442
 11
1360.9746079825
 21
-334.865244614
 31
-59.045777527
  0
LINE
  5
2B3
100
AcDbEntity
  8
L1_120
  6
CONTINUOUS
 62
         4
100
AcDbLine
 10
1374.9746079825
 20
-321.0779360719
 30
-56.6147030397
 11
1390.6501382186
 21
-305.6405523628
 31
-53.8926757802
  0
LINE
  5
2B4
100
AcDbEntity
  8
L1_120
  6
CONTINUOUS
 62
         4
100
AcDbLine
 10
1393.0195878607
 20
-303.3070999848
 30
-53.4812251678
 11
1396.0996079826
 21
-300.2738722893
 31
-52.9463852864
  0
LINE
  5
2B5
100
AcDbEntity
  8
L1_120
  6
CONTINUOUS
 62
         4
100
AcDbLine
 10
1397.4723203001
 20
-298.9220145564
 30
-52.708016294
 11
1399.7496079826
 21
-296.6793239908
 31
-52.3125694379
  0
LINE
  5
2B6
100
AcDbEntity
  8
L1_120
  6
CONTINUOUS
 62
         4
100
AcDbLine
 10
1346.9343696015
 20
-344.5139947839
 30
-60.747112512
 11
1356.7319672953
 21
-334.865244614
 31
-59.045777527
  0
LINE
  5
2B7
100
AcDbEntity
  8
L1_120
  6
CONTINUOUS
 62
         4
100
AcDbLine
 10
1370.7319672953
 20
-321.0779360719
 30
-56.6147030397
 11
1386.1319672953
 21
-305.9118966755
 31
-53.9405211036
  0
LINE
  5
2B8
100
AcDbEntity
  8
L1_120
  6
CONTINUOUS
 62
         4
100
AcDbLine
 10
1387.3508425579
 20
-304.711538867
 30
-53.7288656354
 11
1388.1547718637
 21
-303.9198230537
 31
-53.5892647765
  0
LINE
  5
2B9
100
AcDbEntity
  8
L1_120
  6
CONTINUOUS
 62
         4
100
AcDbLine
 10
1390.5242215058
 20
-301.5863706758
 30
-53.1778141641
 11
1393.1026851201
 21
-299.0470797176
 31
-52.7300686563
  0
LINE
  5
2BA
100
AcDbEntity
  8
L1_120
  6
CONTINUOUS
 62
         4
100
AcDbLine
 10
1343.2317013655
 20
-343.9822257276
 30
-60.6533472799
 11
1352.4893266082
 21
-334.865244614
 31
-59.045777527
  0
LINE
  5
2BB
100
AcDbEntity
  8
L1_120
  6
CONTINUOUS
 62
         4
100
AcDbLine
 10
1366.4893266082
 20
-321.0779360719
 30
-56.6147030397
 11
1381.2983360802
 21
-306.4939087294
 31
-54.0431455318
  0
LINE
  5
2BC
100
AcDbEntity
  8
L1_120
  6
CONTINUOUS
 62
         4
100
AcDbLine
 10
1388.3160611682
 20
-299.5827986543
 30
-52.8245303589
 11
1391.2643266084
 21
-296.6793239908
 31
-52.3125694379
  0
LINE
  5
2BD
100
AcDbEntity
  8
L1_120
  6
CONTINUOUS
 62
         4
100
AcDbLine
 10
1339.5290331294
 20
-343.4504566714
 30
-60.5595820478
 11
1348.2466859211
 21
-334.865244614
 31
-59.045777527
  0
LINE
  5
2BE
100
AcDbEntity
  8
L1_120
  6
CONTINUOUS
 62
         4
100
AcDbLine
 10
1362.2466859211
 20
-321.0779360719
 30
-56.6147030397
 11
1376.3313421051
 21
-307.2072574634
 31
-54.1689281602
  0
LINE
  5
2BF
100
AcDbEntity
  8
L1_120
  6
CONTINUOUS
 62
         4
100
AcDbLine
 10
1335.8263648934
 20
-342.9186876151
 30
-60.4658168157
 11
1344.004045234
 21
-334.865244614
 31
-59.045777527
  0
LINE
  5
2C0
100
AcDbEntity
  8
L1_120
  6
CONTINUOUS
 62
         4
100
AcDbLine
 10
1358.004045234
 20
-321.0779360719
 30
-56.6147030397
 11
1371.3643481299
 21
-307.9206061974
 31
-54.2947107887
  0
LINE
  5
2C1
100
AcDbEntity
  8
L1_120
  6
CONTINUOUS
 62
         4
100
AcDbLine
 10
1332.1236966574
 20
-342.3869185589
 30
-60.3720515836
 11
1339.7614045469
 21
-334.865244614
 31
-59.045777527
  0
LINE
  5
2C2
100
AcDbEntity
  8
L1_120
  6
CONTINUOUS
 62
         4
100
AcDbLine
 10
1353.7614045469
 20
-321.0779360719
 30
-56.6147030397
 11
1366.3973541547
 21
-308.6339549314
 31
-54.4204934172
  0
LINE
  5
2C3
100
AcDbEntity
  8
L1_120
  6
CONTINUOUS
 62
         4
100
AcDbLine
 10
1328.4210284213
 20
-341.8551495026
 30
-60.2782863514
 11
1335.5187638597
 21
-334.865244614
 31
-59.045777527
  0
LINE
  5
2C4
100
AcDbEntity
  8
L1_120
  6
CONTINUOUS
 62
         4
100
AcDbLine
 10
1349.5187638597
 20
-321.0779360719
 30
-56.6147030397
 11
1361.4303601796
 21
-309.3473036654
 31
-54.5462760456
  0
LINE
  5
2C5
100
AcDbEntity
  8
L1_120
  6
CONTINUOUS
 62
         4
100
AcDbLine
 10
1324.7183601853
 20
-341.3233804464
 30
-60.1845211193
 11
1331.2761231726
 21
-334.865244614
 31
-59.045777527
  0
LINE
  5
2C6
100
AcDbEntity
  8
L1_120
  6
CONTINUOUS
 62
         4
100
AcDbLine
 10
1345.2761231726
 20
-321.0779360719
 30
-56.6147030397
 11
1356.4633662044
 21
-310.0606523993
 31
-54.6720586741
  0
LINE
  5
2C7
100
AcDbEntity
  8
L1_120
  6
CONTINUOUS
 62
         4
100
AcDbLine
 10
1321.0156919493
 20
-340.7916113901
 30
-60.0907558872
 11
1327.0334824855
 21
-334.865244614
 31
-59.045777527
  0
LINE
  5
2C8
100
AcDbEntity
  8
L1_120
  6
CONTINUOUS
 62
         4
100
AcDbLine
 10
1341.0334824855
 20
-321.0779360719
 30
-56.6147030397
 11
1351.4963722292
 21
-310.7740011333
 31
-54.7978413025
  0
LINE
  5
2C9
100
AcDbEntity
  8
L1_120
  6
CONTINUOUS
 62
         4
100
AcDbLine
 10
1317.3130237132
 20
-340.2598423339
 30
-59.9969906551
 11
1322.7908417984
 21
-334.865244614
 31
-59.045777527
  0
LINE
  5
2CA
100
AcDbEntity
  8
L1_120
  6
CONTINUOUS
 62
         4
100
AcDbLine
 10
1336.7908417984
 20
-321.0779360719
 30
-56.6147030397
 11
1346.5293782541
 21
-311.4873498673
 31
-54.923623931
  0
LINE
  5
2CB
100
AcDbEntity
  8
L1_120
  6
CONTINUOUS
 62
         4
100
AcDbLine
 10
1315.9008425579
 20
-337.4723838424
 30
-59.5054865154
 11
1317.3982011113
 21
-335.99777353
 31
-59.2454729313
  0
LINE
  5
2CC
100
AcDbEntity
  8
L1_120
  6
CONTINUOUS
 62
         4
100
AcDbLine
 10
1332.5482011113
 20
-321.0779360719
 30
-56.6147030397
 11
1341.5623842789
 21
-312.2006986013
 31
-55.0494065594
  0
LINE
  5
2CD
100
AcDbEntity
  8
L1_120
  6
CONTINUOUS
 62
         4
100
AcDbLine
 10
1328.3055604242
 20
-321.0779360719
 30
-56.6147030397
 11
1336.5953903038
 21
-312.9140473353
 31
-55.1751891879
  0
LINE
  5
2CE
100
AcDbEntity
  8
L1_120
  6
CONTINUOUS
 62
         4
100
AcDbLine
 10
1324.062919737
 20
-321.0779360719
 30
-56.6147030397
 11
1331.6283963286
 21
-313.6273960693
 31
-55.3009718164
  0
LINE
  5
2CF
100
AcDbEntity
  8
L1_120
  6
CONTINUOUS
 62
         4
100
AcDbLine
 10
1320.8119821601
 20
-320.1012991602
 30
-56.4424956018
 11
1326.6614023534
 21
-314.3407448033
 31
-55.4267544448
  0
LINE
  5
2D0
100
AcDbEntity
  8
L1_120
  6
CONTINUOUS
 62
         4
100
AcDbLine
 10
1316.7405661849
 20
-319.9326757364
 30
-56.4127627426
 11
1321.6944083783
 21
-315.0540935372
 31
-55.5525370733
  0
LINE
  5
2D1
100
AcDbEntity
  8
L1_120
  6
CONTINUOUS
 62
         4
100
AcDbLine
 10
1315.9696317382
 20
-316.5137125147
 30
-55.8099072805
 11
1316.7003902118
 21
-315.7940559044
 31
-55.6830124033
  0
ENDBLK
  5
2D2
100
AcDbEntity
  8
0
  6
CONTINUOUS
100
AcDbBlockEnd
  0
BLOCK
  5
320
100
AcDbEntity
  8
0
100
AcDbBlockBegin
  2
*D6
 70
        65
 10
0.0
 20
0.0
 30
0.0
  3
*D6
  1

  0
POINT
  5
322
100
AcDbEntity
  8
DEFPOINTS
  6
CONTINUOUS
 62
         0
100
AcDbPoint
 10
1420.7508425579
 20
-360.1965601105
 30
-63.5123719059
  0
POINT
  5
323
100
AcDbEntity
  8
DEFPOINTS
  6
CONTINUOUS
 62
         0
100
AcDbPoint
 10
1420.7508425579
 20
-334.7175234511
 30
-59.0197303003
  0
POINT
  5
324
100
AcDbEntity
  8
DEFPOINTS
  6
CONTINUOUS
 62
         0
100
AcDbPoint
 10
1485.7508425579
 20
-337.7402870589
 30
-59.5527250807
  0
LINE
  5
325
100
AcDbEntity
  8
L1_120
  6
CONTINUOUS
 62
         4
100
AcDbLine
 10
1420.7508425579
 20
-336.0470139177
 30
-59.2541553402
 11
1420.7508425579
 21
-360.8613053438
 31
-63.6295844258
  0
LINE
  5
326
100
AcDbEntity
  8
L1_120
  6
CONTINUOUS
 62
         4
100
AcDbLine
 10
1485.7508425579
 20
-339.0697775255
 30
-59.7871501206
 11
1485.7508425579
 21
-360.8613053438
 31
-63.6295844258
  0
LINE
  5
327
100
AcDbEntity
  8
L1_120
  6
CONTINUOUS
 62
         4
100
AcDbLine
 10
1420.7508425579
 20
-360.1965601105
 30
-63.5123719059
 11
1485.7508425579
 21
-360.1965601105
 31
-63.5123719059
  0
SOLID
  5
328
100
AcDbEntity
  8
L1_120
  6
CONTINUOUS
 62
         4
100
AcDbTrace
 10
1420.7508425579
 20
-360.1965601105
 30
-63.5123719059
 11
1423.4508425579
 21
-359.7977129705
 31
-63.4420443939
 12
1423.4508425579
 22
-360.5954072505
 32
-63.5826994178
 13
1420.7508425579
 23
-360.1965601105
 33
-63.5123719059
  0
SOLID
  5
329
100
AcDbEntity
  8
L1_120
  6
CONTINUOUS
 62
         4
100
AcDbTrace
 10
1485.7508425579
 20
-360.1965601105
 30
-63.5123719059
 11
1483.0508425579
 21
-360.5954072505
 31
-63.5826994178
 12
1483.0508425579
 22
-359.7977129705
 32
-63.4420443939
 13
1485.7508425579
 23
-360.1965601105
 33
-63.5123719059
  0
TEXT
  5
32B
100
AcDbEntity
  8
L1_120
  6
CONTINUOUS
 62
         4
100
AcDbText
 10
1450.8043965808
 20
-363.7281726459
 30
0.0
 40
2.7
  1
65
  7
BOX
210
0.0
220
-0.1736481776669303
230
0.9848077530122081
100
AcDbText
  0
ENDBLK
  5
32C
100
AcDbEntity
  8
0
  6
CONTINUOUS
100
AcDbBlockEnd
  0
BLOCK
  5
366
100
AcDbEntity
  8
0
100
AcDbBlockBegin
  2
*D7
 70
        65
 10
0.0
 20
0.0
 30
0.0
  3
*D7
  1

  0
POINT
  5
368
100
AcDbEntity
  8
DEFPOINTS
  6
CONTINUOUS
 62
         0
100
AcDbPoint
 10
1516.2870136405
 20
-310.7895003268
 30
-54.8005742285
  0
POINT
  5
369
100
AcDbEntity
  8
DEFPOINTS
  6
CONTINUOUS
 62
         0
100
AcDbPoint
 10
1516.2870136405
 20
-304.4000696275
 30
-53.6739452049
  0
POINT
  5
36A
100
AcDbEntity
  8
DEFPOINTS
  6
CONTINUOUS
 62
         0
100
AcDbPoint
 10
1522.7533366555
 20
-304.4000696275
 30
-53.6739452049
  0
LINE
  5
36B
100
AcDbEntity
  8
L1_120
  6
CONTINUOUS
 62
         4
100
AcDbLine
 10
1516.2870136405
 20
-305.729560094
 30
-53.9083702447
 11
1516.2870136405
 21
-311.4542455601
 31
-54.9177867484
  0
LINE
  5
36C
100
AcDbEntity
  8
L1_120
  6
CONTINUOUS
 62
         4
100
AcDbLine
 10
1522.7533366555
 20
-305.729560094
 30
-53.9083702447
 11
1522.7533366555
 21
-311.4542455601
 31
-54.9177867484
  0
LINE
  5
36D
100
AcDbEntity
  8
L1_120
  6
CONTINUOUS
 62
         4
100
AcDbLine
 10
1516.2870136405
 20
-310.7895003268
 30
-54.8005742285
 11
1522.7533366555
 21
-310.7895003268
 31
-54.8005742285
  0
SOLID
  5
36E
100
AcDbEntity
  8
L1_120
  6
CONTINUOUS
 62
         4
100
AcDbTrace
 10
1516.2870136405
 20
-310.7895003268
 30
-54.8005742285
 11
1518.9870136405
 21
-310.3906531868
 31
-54.7302467166
 12
1518.9870136405
 22
-311.1883474668
 32
-54.8709017405
 13
1516.2870136405
 23
-310.7895003268
 33
-54.8005742285
  0
LINE
  5
36F
100
AcDbEntity
  8
L1_120
  6
CONTINUOUS
 62
         4
100
AcDbLine
 10
1522.7533366555
 20
-310.7895003268
 30
-54.8005742285
 11
1542.0244861557
 21
-310.7895003268
 31
-54.8005742285
  0
SOLID
  5
370
100
AcDbEntity
  8
L1_120
  6
CONTINUOUS
 62
         4
100
AcDbTrace
 10
1522.7533366555
 20
-310.7895003268
 30
-54.8005742285
 11
1520.0533366555
 21
-311.1883474668
 31
-54.8709017405
 12
1520.0533366555
 22
-310.3906531868
 32
-54.7302467166
 13
1522.7533366555
 23
-310.7895003268
 33
-54.8005742285
  0
TEXT
  5
372
100
AcDbEntity
  8
L1_120
  6
CONTINUOUS
 62
         4
100
AcDbText
 10
1524.4744861557
 20
-313.5589293265
 30
0.0
 40
2.7
  1
5.6Hex
  7
BOX
210
0.0
220
-0.1736481776669303
230
0.9848077530122081
100
AcDbText
  0
ENDBLK
  5
373
100
AcDbEntity
  8
0
  6
CONTINUOUS
100
AcDbBlockEnd
  0
BLOCK
  5
376
100
AcDbEntity
  8
0
100
AcDbBlockBegin
  2
*D8
 70
        65
 10
0.0
 20
0.0
 30
0.0
  3
*D8
  1

  0
POINT
  5
378
100
AcDbEntity
  8
DEFPOINTS
  6
CONTINUOUS
 62
         0
100
AcDbPoint
 10
1513.9575640228
 20
-287.97363523
 30
-50.7775216237
  0
POINT
  5
379
100
AcDbEntity
  8
DEFPOINTS
  6
CONTINUOUS
 62
         0
100
AcDbPoint
 10
1513.9575640228
 20
-296.7207203723
 30
-52.3198687369
  0
POINT
  5
37A
100
AcDbEntity
  8
DEFPOINTS
  6
CONTINUOUS
 62
         0
100
AcDbPoint
 10
1525.0827862732
 20
-296.7207203723
 30
-52.3198687369
  0
LINE
  5
37B
100
AcDbEntity
  8
L1_120
  6
CONTINUOUS
 62
         4
100
AcDbLine
 10
1513.9575640228
 20
-295.3912299058
 30
-52.085443697
 11
1513.9575640228
 21
-287.3088899967
 31
-50.6603091038
  0
LINE
  5
37C
100
AcDbEntity
  8
L1_120
  6
CONTINUOUS
 62
         4
100
AcDbLine
 10
1525.0827862732
 20
-295.3912299058
 30
-52.085443697
 11
1525.0827862732
 21
-287.3088899967
 31
-50.6603091038
  0
LINE
  5
37D
100
AcDbEntity
  8
L1_120
  6
CONTINUOUS
 62
         4
100
AcDbLine
 10
1513.9575640228
 20
-287.97363523
 30
-50.7775216237
 11
1525.0827862732
 21
-287.97363523
 31
-50.7775216237
  0
SOLID
  5
37E
100
AcDbEntity
  8
L1_120
  6
CONTINUOUS
 62
         4
100
AcDbTrace
 10
1513.9575640228
 20
-287.97363523
 30
-50.7775216237
 11
1516.6575640228
 21
-287.57478809
 31
-50.7071941118
 12
1516.6575640228
 22
-288.37248237
 32
-50.8478491357
 13
1513.9575640228
 23
-287.97363523
 33
-50.7775216237
  0
SOLID
  5
37F
100
AcDbEntity
  8
L1_120
  6
CONTINUOUS
 62
         4
100
AcDbTrace
 10
1525.0827862732
 20
-287.97363523
 30
-50.7775216237
 11
1522.3827862732
 21
-288.37248237
 31
-50.8478491357
 12
1522.3827862732
 22
-287.57478809
 32
-50.7071941118
 13
1525.0827862732
 23
-287.97363523
 33
-50.7775216237
  0
TEXT
  5
381
100
AcDbEntity
  8
L1_120
  6
CONTINUOUS
 62
         4
100
AcDbText
 10
1504.2788612236
 20
-290.391092734
 30
0.0
 40
2.7
  1
7/16"-20UNF
  7
BOX
210
0.0
220
-0.1736481776669303
230
0.9848077530122081
100
AcDbText
  0
ENDBLK
  5
382
100
AcDbEntity
  8
0
  6
CONTINUOUS
100
AcDbBlockEnd
  0
BLOCK
  5
384
100
AcDbEntity
  8
0
100
AcDbBlockBegin
  2
*D9
 70
        65
 10
0.0
 20
0.0
 30
0.0
  3
*D9
  1

  0
POINT
  5
386
100
AcDbEntity
  8
DEFPOINTS
  6
CONTINUOUS
 62
         0
100
AcDbPoint
 10
1509.0852873579
 20
-294.3944028455
 30
-51.9096761912
  0
POINT
  5
387
100
AcDbEntity
  8
DEFPOINTS
  6
CONTINUOUS
 62
         0
100
AcDbPoint
 10
1516.3197687472
 20
-294.3944028455
 30
-51.9096761912
  0
POINT
  5
388
100
AcDbEntity
  8
DEFPOINTS
  6
CONTINUOUS
 62
         0
100
AcDbPoint
 10
1514.8042239161
 20
-304.4000696275
 30
-53.6739452049
  0
LINE
  5
389
100
AcDbEntity
  8
L1_120
  6
CONTINUOUS
 62
         4
100
AcDbLine
 10
1514.9697687472
 20
-294.3944028455
 30
-51.9096761912
 11
1508.4102873579
 21
-294.3944028455
 31
-51.9096761912
  0
LINE
  5
38A
100
AcDbEntity
  8
L1_120
  6
CONTINUOUS
 62
         4
100
AcDbLine
 10
1513.4542239161
 20
-304.4000696275
 30
-53.6739452049
 11
1508.4102873579
 21
-304.4000696275
 31
-53.6739452049
  0
LINE
  5
38B
100
AcDbEntity
  8
L1_120
  6
CONTINUOUS
 62
         4
100
AcDbLine
 10
1509.0852873579
 20
-294.3944028455
 30
-51.9096761912
 11
1509.0852873579
 21
-304.4000696275
 31
-53.6739452049
  0
SOLID
  5
38C
100
AcDbEntity
  8
L1_120
  6
CONTINUOUS
 62
         4
100
AcDbTrace
 10
1509.0852873579
 20
-294.3944028455
 30
-51.9096761912
 11
1509.4902873579
 21
-297.0533837786
 31
-52.3785262709
 12
1508.6802873579
 22
-297.0533837786
 32
-52.3785262709
 13
1509.0852873579
 23
-294.3944028455
 33
-51.9096761912
  0
SOLID
  5
38D
100
AcDbEntity
  8
L1_120
  6
CONTINUOUS
 62
         4
100
AcDbTrace
 10
1509.0852873579
 20
-304.4000696275
 30
-53.6739452049
 11
1508.6802873579
 21
-301.7410886943
 31
-53.2050951252
 12
1509.4902873579
 22
-301.7410886943
 32
-53.2050951252
 13
1509.0852873579
 23
-304.4000696275
 33
-53.6739452049
  0
TEXT
  5
38F
100
AcDbEntity
  8
L1_120
  6
CONTINUOUS
 62
         4
100
AcDbText
 10
1507.0602873579
 20
-307.3839382729
 30
0.0
 40
2.7
  1
10
 50
90.0
  7
BOX
210
0.0
220
-0.1736481776669303
230
0.9848077530122081
100
AcDbText
  0
ENDBLK
  5
390
100
AcDbEntity
  8
0
  6
CONTINUOUS
100
AcDbBlockEnd
  0
ENDSEC
  0
SECTION
  2
ENTITIES
  0
ARC
  5
25
100
AcDbEntity
  8
L1_120
  6
CONTINUOUS
 62
         7
100
AcDbCircle
 10
1317.1008425579
 20
-321.7968990603
 30
58.7223649554
 40
1.2
210
0.0
220
-0.1736481776669303
230
0.9848077530122081
100
AcDbArc
 50
98.2971449698
 51
180.0
  0
LINE
  5
26
100
AcDbEntity
  8
L1_120
  6
CONTINUOUS
 62
         7
100
AcDbLine
 10
1315.9008425579
 20
-327.1051127527
 30
1.9507951826
 11
1315.9008425579
 21
-349.2321312589
 31
-1.9507951826
  0
ARC
  5
27
100
AcDbEntity
  8
L1_120
  6
CONTINUOUS
 62
         7
100
AcDbCircle
 10
1317.1008425579
 20
-344.2652624932
 30
58.7223649554
 40
1.2
210
0.0
220
-0.1736481776669303
230
0.9848077530122081
100
AcDbArc
 50
180.0
 51
261.7028550302
  0
LINE
  5
28
100
AcDbEntity
  8
L1_120
  6
CONTINUOUS
 62
         7
100
AcDbLine
 10
1316.7776742862
 20
-350.3799882912
 30
-2.1531933474
 11
1385.3508425583
 21
-360.2283156733
 31
-3.8897191798
  0
LINE
  5
29
100
AcDbEntity
  8
L1_120
  6
CONTINUOUS
 62
         7
100
AcDbLine
 10
1316.7776742862
 20
-325.9572557203
 30
2.1531933474
 11
1385.3508425579
 21
-316.1089283383
 31
3.8897191797
  0
LINE
  5
2A
100
AcDbEntity
  8
L1_120
  6
CENTER
 62
         1
100
AcDbLine
 10
1243.1257669317
 20
-200.8729097539
 30
0.0
 11
1237.487611207
 21
-198.8207888939
 31
0.0
  0
ARC
  5
2B
100
AcDbEntity
  8
L1_120
  6
CONTINUOUS
 62
         7
100
AcDbCircle
 10
1241.2202828813
 20
-200.1793702776
 30
0.0
 40
2.9722262277
100
AcDbArc
 50
141.257725858
 51
160.0
  0
ARC
  5
2C
100
AcDbEntity
  8
L1_120
  6
CONTINUOUS
 62
         7
100
AcDbCircle
 10
1240.8282055258
 20
-199.8647818452
 30
0.0
 40
2.4695428935
100
AcDbArc
 50
120.6773100903
 51
141.257725858
  0
POLYLINE
  5
2E
100
AcDbEntity
  8
L1_120
  6
CONTINUOUS
 62
         7
100
AcDb3dPolyline
 66
         1
 10
0.0
 20
0.0
 30
0.0
 70
         8
  0
VERTEX
  5
30
100
AcDbEntity
  8
L1_120
  6
CONTINUOUS
 62
         7
100
AcDbVertex
100
AcDb3dPolylineVertex
 10
1239.5682389019
 20
-197.7408406479
 30
0.0
 70
        32
  0
VERTEX
  5
32
100
AcDbEntity
  8
L1_120
  6
CONTINUOUS
 62
         7
100
AcDbVertex
100
AcDb3dPolylineVertex
 10
1239.5682389019
 20
-197.7408406479
 30
0.0
 70
        32
  0
SEQEND
  5
34
100
AcDbEntity
  8
L1_120
  6
CONTINUOUS
 62
         7
  0
ARC
  5
35
100
AcDbEntity
  8
L1_120
  6
CONTINUOUS
 62
         7
100
AcDbCircle
 10
1240.6284669948
 20
-199.5280801526
 30
0.0
 40
2.0780540551
100
AcDbArc
 50
96.8239621528
 51
120.6773100904
  0
POLYLINE
  5
37
100
AcDbEntity
  8
L1_120
  6
CONTINUOUS
 62
         7
100
AcDb3dPolyline
 66
         1
 10
0.0
 20
0.0
 30
0.0
 70
         8
  0
VERTEX
  5
39
100
AcDbEntity
  8
L1_120
  6
CONTINUOUS
 62
         7
100
AcDbVertex
100
AcDb3dPolylineVertex
 10
1240.3815542028
 20
-197.4647472349
 30
0.0
 70
        32
  0
VERTEX
  5
3B
100
AcDbEntity
  8
L1_120
  6
CONTINUOUS
 62
         7
100
AcDbVertex
100
AcDb3dPolylineVertex
 10
1240.3815542028
 20
-197.4647472349
 30
0.0
 70
        32
  0
SEQEND
  5
3D
100
AcDbEntity
  8
L1_120
  6
CONTINUOUS
 62
         7
  0
ARC
  5
3E
100
AcDbEntity
  8
L1_120
  6
CONTINUOUS
 62
         7
100
AcDbCircle
 10
1240.5775566661
 20
-199.1026467183
 30
0.0
 40
1.6495853065
100
AcDbArc
 50
70.0000000001
 51
96.8239621529
  0
POLYLINE
  5
40
100
AcDbEntity
  8
L1_120
  6
CONTINUOUS
 62
         7
100
AcDb3dPolyline
 66
         1
 10
0.0
 20
0.0
 30
0.0
 70
         8
  0
VERTEX
  5
42
100
AcDbEntity
  8
L1_120
  6
CONTINUOUS
 62
         7
100
AcDbVertex
100
AcDb3dPolylineVertex
 10
1241.141748069
 20
-197.5525435785
 30
0.0
 70
        32
  0
VERTEX
  5
44
100
AcDbEntity
  8
L1_120
  6
CONTINUOUS
 62
         7
100
AcDbVertex
100
AcDb3dPolylineVertex
 10
1241.141748069
 20
-197.5525435785
 30
0.0
 70
        32
  0
SEQEND
  5
46
100
AcDbEntity
  8
L1_120
  6
CONTINUOUS
 62
         7
  0
ARC
  5
47
100
AcDbEntity
  8
L1_120
  6
CONTINUOUS
 62
         7
100
AcDbCircle
 10
1240.5775566661
 20
-199.1026467183
 30
0.0
 40
1.6495853065
100
AcDbArc
 50
43.1760378472
 51
70.0
  0
POLYLINE
  5
49
100
AcDbEntity
  8
L1_120
  6
CONTINUOUS
 62
         7
100
AcDb3dPolyline
 66
         1
 10
0.0
 20
0.0
 30
0.0
 70
         8
  0
VERTEX
  5
4B
100
AcDbEntity
  8
L1_120
  6
CONTINUOUS
 62
         7
100
AcDbVertex
100
AcDb3dPolylineVertex
 10
1241.7805247577
 20
-197.9739308755
 30
0.0
 70
        32
  0
VERTEX
  5
4D
100
AcDbEntity
  8
L1_120
  6
CONTINUOUS
 62
         7
100
AcDbVertex
100
AcDb3dPolylineVertex
 10
1241.7805247577
 20
-197.9739308755
 30
0.0
 70
        32
  0
SEQEND
  5
4F
100
AcDbEntity
  8
L1_120
  6
CONTINUOUS
 62
         7
  0
ARC
  5
50
100
AcDbEntity
  8
L1_120
  6
CONTINUOUS
 62
         7
100
AcDbCircle
 10
1240.2650937514
 20
-199.3958231081
 30
0.0
 40
2.0780540551
100
AcDbArc
 50
19.3226899096
 51
43.1760378472
  0
POLYLINE
  5
52
100
AcDbEntity
  8
L1_120
  6
CONTINUOUS
 62
         7
100
AcDb3dPolyline
 66
         1
 10
0.0
 20
0.0
 30
0.0
 70
         8
  0
VERTEX
  5
54
100
AcDbEntity
  8
L1_120
  6
CONTINUOUS
 62
         7
100
AcDbVertex
100
AcDb3dPolylineVertex
 10
1242.2260909995
 20
-198.7082196985
 30
0.0
 70
        32
  0
VERTEX
  5
56
100
AcDbEntity
  8
L1_120
  6
CONTINUOUS
 62
         7
100
AcDbVertex
100
AcDb3dPolylineVertex
 10
1242.2260909995
 20
-198.7082196985
 30
0.0
 70
        32
  0
SEQEND
  5
58
100
AcDbEntity
  8
L1_120
  6
CONTINUOUS
 62
         7
  0
ARC
  5
59
100
AcDbEntity
  8
L1_120
  6
CONTINUOUS
 62
         7
100
AcDbCircle
 10
1239.8956574834
 20
-199.5253621157
 30
0.0
 40
2.4695428935
100
AcDbArc
 50
358.742274142
 51
379.3226899097
  0
POLYLINE
  5
5B
100
AcDbEntity
  8
L1_120
  6
CONTINUOUS
 62
         7
100
AcDb3dPolyline
 66
         1
 10
0.0
 20
0.0
 30
0.0
 70
         8
  0
VERTEX
  5
5D
100
AcDbEntity
  8
L1_120
  6
CONTINUOUS
 62
         7
100
AcDbVertex
100
AcDb3dPolylineVertex
 10
1242.3646054058
 20
-199.5795678275
 30
0.0
 70
        32
  0
VERTEX
  5
5F
100
AcDbEntity
  8
L1_120
  6
CONTINUOUS
 62
         7
100
AcDbVertex
100
AcDb3dPolylineVertex
 10
1242.3646054058
 20
-199.5795678275
 30
0.0
 70
        32
  0
SEQEND
  5
61
100
AcDbEntity
  8
L1_120
  6
CONTINUOUS
 62
         7
  0
ARC
  5
62
100
AcDbEntity
  8
L1_120
  6
CONTINUOUS
 62
         7
100
AcDbCircle
 10
1239.3930952575
 20
-199.5143283701
 30
0.0
 40
2.9722262277
100
AcDbArc
 50
339.9999999999
 51
358.742274142
  0
POLYLINE
  5
64
100
AcDbEntity
  8
L1_120
  6
CONTINUOUS
 62
         7
100
AcDb3dPolyline
 66
         1
 10
0.0
 20
0.0
 30
0.0
 70
         8
  0
VERTEX
  5
66
100
AcDbEntity
  8
L1_120
  6
CONTINUOUS
 62
         7
100
AcDbVertex
100
AcDb3dPolylineVertex
 10
1242.186074311
 20
-200.5308896105
 30
0.0
 70
        32
  0
VERTEX
  5
68
100
AcDbEntity
  8
L1_120
  6
CONTINUOUS
 62
         7
100
AcDbVertex
100
AcDb3dPolylineVertex
 10
1242.186074311
 20
-200.5308896105
 30
0.0
 70
        32
  0
SEQEND
  5
6A
100
AcDbEntity
  8
L1_120
  6
CONTINUOUS
 62
         7
  0
ARC
  5
6B
100
AcDbEntity
  8
L1_120
  6
CONTINUOUS
 62
         7
100
AcDbCircle
 10
1239.3930952574
 20
-199.5143283701
 30
0.0
 40
2.9722262277
100
AcDbArc
 50
321.257725858
 51
340.0
  0
POLYLINE
  5
6D
100
AcDbEntity
  8
L1_120
  6
CONTINUOUS
 62
         7
100
AcDb3dPolyline
 66
         1
 10
0.0
 20
0.0
 30
0.0
 70
         8
  0
VERTEX
  5
6F
100
AcDbEntity
  8
L1_120
  6
CONTINUOUS
 62
         7
100
AcDbVertex
100
AcDb3dPolylineVertex
 10
1241.7113392092
 20
-201.3744019518
 30
0.0
 70
        32
  0
VERTEX
  5
71
100
AcDbEntity
  8
L1_120
  6
CONTINUOUS
 62
         7
100
AcDbVertex
100
AcDb3dPolylineVertex
 10
1241.7113392092
 20
-201.3744019518
 30
0.0
 70
        32
  0
SEQEND
  5
73
100
AcDbEntity
  8
L1_120
  6
CONTINUOUS
 62
         7
  0
ARC
  5
74
100
AcDbEntity
  8
L1_120
  6
CONTINUOUS
 62
         7
100
AcDbCircle
 10
1239.7851726129
 20
-199.8289168026
 30
0.0
 40
2.4695428935
100
AcDbArc
 50
300.6773100903
 51
321.257725858
  0
POLYLINE
  5
76
100
AcDbEntity
  8
L1_120
  6
CONTINUOUS
 62
         7
100
AcDb3dPolyline
 66
         1
 10
0.0
 20
0.0
 30
0.0
 70
         8
  0
VERTEX
  5
78
100
AcDbEntity
  8
L1_120
  6
CONTINUOUS
 62
         7
100
AcDbVertex
100
AcDb3dPolylineVertex
 10
1241.0451392368
 20
-201.9528579999
 30
0.0
 70
        32
  0
VERTEX
  5
7A
100
AcDbEntity
  8
L1_120
  6
CONTINUOUS
 62
         7
100
AcDbVertex
100
AcDb3dPolylineVertex
 10
1241.0451392368
 20
-201.9528579999
 30
0.0
 70
        32
  0
SEQEND
  5
7C
100
AcDbEntity
  8
L1_120
  6
CONTINUOUS
 62
         7
  0
ARC
  5
7D
100
AcDbEntity
  8
L1_120
  6
CONTINUOUS
 62
         7
100
AcDbCircle
 10
1239.984911144
 20
-200.1656184952
 30
0.0
 40
2.0780540551
100
AcDbArc
 50
276.8239621528
 51
300.6773100904
  0
POLYLINE
  5
7F
100
AcDbEntity
  8
L1_120
  6
CONTINUOUS
 62
         7
100
AcDb3dPolyline
 66
         1
 10
0.0
 20
0.0
 30
0.0
 70
         8
  0
VERTEX
  5
81
100
AcDbEntity
  8
L1_120
  6
CONTINUOUS
 62
         7
100
AcDbVertex
100
AcDb3dPolylineVertex
 10
1240.231823936
 20
-202.2289514128
 30
0.0
 70
        32
  0
VERTEX
  5
83
100
AcDbEntity
  8
L1_120
  6
CONTINUOUS
 62
         7
100
AcDbVertex
100
AcDb3dPolylineVertex
 10
1240.231823936
 20
-202.2289514128
 30
0.0
 70
        32
  0
SEQEND
  5
85
100
AcDbEntity
  8
L1_120
  6
CONTINUOUS
 62
         7
  0
ARC
  5
86
100
AcDbEntity
  8
L1_120
  6
CONTINUOUS
 62
         7
100
AcDbCircle
 10
1240.0358214727
 20
-200.5910519294
 30
0.0
 40
1.6495853065
100
AcDbArc
 50
250.0
 51
276.8239621528
  0
POLYLINE
  5
88
100
AcDbEntity
  8
L1_120
  6
CONTINUOUS
 62
         7
100
AcDb3dPolyline
 66
         1
 10
0.0
 20
0.0
 30
0.0
 70
         8
  0
VERTEX
  5
8A
100
AcDbEntity
  8
L1_120
  6
CONTINUOUS
 62
         7
100
AcDbVertex
100
AcDb3dPolylineVertex
 10
1239.4716300697
 20
-202.1411550693
 30
0.0
 70
        32
  0
VERTEX
  5
8C
100
AcDbEntity
  8
L1_120
  6
CONTINUOUS
 62
         7
100
AcDbVertex
100
AcDb3dPolylineVertex
 10
1239.4716300697
 20
-202.1411550693
 30
0.0
 70
        32
  0
SEQEND
  5
8E
100
AcDbEntity
  8
L1_120
  6
CONTINUOUS
 62
         7
  0
ARC
  5
8F
100
AcDbEntity
  8
L1_120
  6
CONTINUOUS
 62
         7
100
AcDbCircle
 10
1240.0358214727
 20
-200.5910519294
 30
0.0
 40
1.6495853065
100
AcDbArc
 50
223.1760378472
 51
249.9999999999
  0
POLYLINE
  5
91
100
AcDbEntity
  8
L1_120
  6
CONTINUOUS
 62
         7
100
AcDb3dPolyline
 66
         1
 10
0.0
 20
0.0
 30
0.0
 70
         8
  0
VERTEX
  5
93
100
AcDbEntity
  8
L1_120
  6
CONTINUOUS
 62
         7
100
AcDbVertex
100
AcDb3dPolylineVertex
 10
1238.832853381
 20
-201.7197677722
 30
0.0
 70
        32
  0
VERTEX
  5
95
100
AcDbEntity
  8
L1_120
  6
CONTINUOUS
 62
         7
100
AcDbVertex
100
AcDb3dPolylineVertex
 10
1238.832853381
 20
-201.7197677722
 30
0.0
 70
        32
  0
SEQEND
  5
97
100
AcDbEntity
  8
L1_120
  6
CONTINUOUS
 62
         7
  0
ARC
  5
98
100
AcDbEntity
  8
L1_120
  6
CONTINUOUS
 62
         7
100
AcDbCircle
 10
1240.3482843874
 20
-200.2978755397
 30
0.0
 40
2.0780540551
100
AcDbArc
 50
199.3226899097
 51
223.1760378473
  0
POLYLINE
  5
9A
100
AcDbEntity
  8
L1_120
  6
CONTINUOUS
 62
         7
100
AcDb3dPolyline
 66
         1
 10
0.0
 20
0.0
 30
0.0
 70
         8
  0
VERTEX
  5
9C
100
AcDbEntity
  8
L1_120
  6
CONTINUOUS
 62
         7
100
AcDbVertex
100
AcDb3dPolylineVertex
 10
1238.3872871393
 20
-200.9854789493
 30
0.0
 70
        32
  0
VERTEX
  5
9E
100
AcDbEntity
  8
L1_120
  6
CONTINUOUS
 62
         7
100
AcDbVertex
100
AcDb3dPolylineVertex
 10
1238.3872871393
 20
-200.9854789493
 30
0.0
 70
        32
  0
SEQEND
  5
A0
100
AcDbEntity
  8
L1_120
  6
CONTINUOUS
 62
         7
  0
ARC
  5
A1
100
AcDbEntity
  8
L1_120
  6
CONTINUOUS
 62
         7
100
AcDbCircle
 10
1240.7177206553
 20
-200.1683365321
 30
0.0
 40
2.4695428935
100
AcDbArc
 50
178.7422741421
 51
199.3226899097
  0
POLYLINE
  5
A3
100
AcDbEntity
  8
L1_120
  6
CONTINUOUS
 62
         7
100
AcDb3dPolyline
 66
         1
 10
0.0
 20
0.0
 30
0.0
 70
         8
  0
VERTEX
  5
A5
100
AcDbEntity
  8
L1_120
  6
CONTINUOUS
 62
         7
100
AcDbVertex
100
AcDb3dPolylineVertex
 10
1238.2487727329
 20
-200.1141308202
 30
0.0
 70
        32
  0
VERTEX
  5
A7
100
AcDbEntity
  8
L1_120
  6
CONTINUOUS
 62
         7
100
AcDbVertex
100
AcDb3dPolylineVertex
 10
1238.2487727329
 20
-200.1141308202
 30
0.0
 70
        32
  0
SEQEND
  5
A9
100
AcDbEntity
  8
L1_120
  6
CONTINUOUS
 62
         7
  0
ARC
  5
AA
100
AcDbEntity
  8
L1_120
  6
CONTINUOUS
 62
         7
100
AcDbCircle
 10
1241.2202828813
 20
-200.1793702776
 30
0.0
 40
2.9722262277
100
AcDbArc
 50
160.0
 51
178.7422741421
  0
POLYLINE
  5
AC
100
AcDbEntity
  8
L1_120
  6
CONTINUOUS
 62
         7
100
AcDb3dPolyline
 66
         1
 10
0.0
 20
0.0
 30
0.0
 70
         8
  0
VERTEX
  5
AE
100
AcDbEntity
  8
L1_120
  6
CONTINUOUS
 62
         7
100
AcDbVertex
100
AcDb3dPolylineVertex
 10
1238.4273038278
 20
-199.1628090372
 30
0.0
 70
        32
  0
VERTEX
  5
B0
100
AcDbEntity
  8
L1_120
  6
CONTINUOUS
 62
         7
100
AcDbVertex
100
AcDb3dPolylineVertex
 10
1238.4273038278
 20
-199.1628090372
 30
0.0
 70
        32
  0
SEQEND
  5
B2
100
AcDbEntity
  8
L1_120
  6
CONTINUOUS
 62
         7
  0
ARC
  5
B3
100
AcDbEntity
  8
L1_120
  6
CONTINUOUS
 62
         7
100
AcDbCircle
 10
1221.7960060118
 20
-250.1392246305
 30
0.0
 40
2.0780540551
100
AcDbArc
 50
19.3226899096
 51
43.1760378472
  0
ARC
  5
B4
100
AcDbEntity
  8
L1_120
  6
CONTINUOUS
 62
         7
100
AcDbCircle
 10
1221.4265697438
 20
-250.2687636381
 30
0.0
 40
2.4695428935
100
AcDbArc
 50
358.742274142
 51
379.3226899097
  0
ARC
  5
B5
100
AcDbEntity
  8
L1_120
  6
CONTINUOUS
 62
         7
100
AcDbCircle
 10
1222.7511951417
 20
-250.9227718001
 30
0.0
 40
2.9722262277
100
AcDbArc
 50
160.0
 51
178.742274142
  0
ARC
  5
B6
100
AcDbEntity
  8
L1_120
  6
CONTINUOUS
 62
         7
100
AcDbCircle
 10
1222.2486329158
 20
-250.9117380545
 30
0.0
 40
2.4695428935
100
AcDbArc
 50
178.742274142
 51
199.3226899096
  0
ARC
  5
B7
100
AcDbEntity
  8
L1_120
  6
CONTINUOUS
 62
         7
100
AcDbCircle
 10
1221.8791966478
 20
-251.0412770621
 30
0.0
 40
2.0780540551
100
AcDbArc
 50
199.3226899096
 51
223.1760378473
  0
POLYLINE
  5
B9
100
AcDbEntity
  8
L1_120
  6
CONTINUOUS
 62
         7
100
AcDb3dPolyline
 66
         1
 10
0.0
 20
0.0
 30
0.0
 70
         8
  0
VERTEX
  5
BB
100
AcDbEntity
  8
L1_120
  6
CONTINUOUS
 62
         7
100
AcDbVertex
100
AcDb3dPolylineVertex
 10
1220.3637656414
 20
-252.4631692947
 30
0.0
 70
        32
  0
VERTEX
  5
BD
100
AcDbEntity
  8
L1_120
  6
CONTINUOUS
 62
         7
100
AcDbVertex
100
AcDb3dPolylineVertex
 10
1220.3637656414
 20
-252.4631692947
 30
0.0
 70
        32
  0
SEQEND
  5
BF
100
AcDbEntity
  8
L1_120
  6
CONTINUOUS
 62
         7
  0
ARC
  5
C0
100
AcDbEntity
  8
L1_120
  6
CONTINUOUS
 62
         7
100
AcDbCircle
 10
1221.5667337331
 20
-251.3344534519
 30
0.0
 40
1.6495853065
100
AcDbArc
 50
223.1760378472
 51
250.0
  0
POLYLINE
  5
C2
100
AcDbEntity
  8
L1_120
  6
CONTINUOUS
 62
         7
100
AcDb3dPolyline
 66
         1
 10
0.0
 20
0.0
 30
0.0
 70
         8
  0
VERTEX
  5
C4
100
AcDbEntity
  8
L1_120
  6
CONTINUOUS
 62
         7
100
AcDbVertex
100
AcDb3dPolylineVertex
 10
1221.0025423302
 20
-252.8845565917
 30
0.0
 70
        32
  0
VERTEX
  5
C6
100
AcDbEntity
  8
L1_120
  6
CONTINUOUS
 62
         7
100
AcDbVertex
100
AcDb3dPolylineVertex
 10
1221.0025423302
 20
-252.8845565917
 30
0.0
 70
        32
  0
SEQEND
  5
C8
100
AcDbEntity
  8
L1_120
  6
CONTINUOUS
 62
         7
  0
ARC
  5
C9
100
AcDbEntity
  8
L1_120
  6
CONTINUOUS
 62
         7
100
AcDbCircle
 10
1221.5667337331
 20
-251.3344534519
 30
0.0
 40
1.6495853065
100
AcDbArc
 50
250.0
 51
276.8239621528
  0
POLYLINE
  5
CB
100
AcDbEntity
  8
L1_120
  6
CONTINUOUS
 62
         7
100
AcDb3dPolyline
 66
         1
 10
0.0
 20
0.0
 30
0.0
 70
         8
  0
VERTEX
  5
CD
100
AcDbEntity
  8
L1_120
  6
CONTINUOUS
 62
         7
100
AcDbVertex
100
AcDb3dPolylineVertex
 10
1221.7627361964
 20
-252.9723529353
 30
0.0
 70
        32
  0
VERTEX
  5
CF
100
AcDbEntity
  8
L1_120
  6
CONTINUOUS
 62
         7
100
AcDbVertex
100
AcDb3dPolylineVertex
 10
1221.7627361964
 20
-252.9723529353
 30
0.0
 70
        32
  0
SEQEND
  5
D1
100
AcDbEntity
  8
L1_120
  6
CONTINUOUS
 62
         7
  0
ARC
  5
D2
100
AcDbEntity
  8
L1_120
  6
CONTINUOUS
 62
         7
100
AcDbCircle
 10
1221.5158234044
 20
-250.9090200176
 30
0.0
 40
2.0780540551
100
AcDbArc
 50
276.8239621528
 51
300.6773100903
  0
POLYLINE
  5
D4
100
AcDbEntity
  8
L1_120
  6
CONTINUOUS
 62
         7
100
AcDb3dPolyline
 66
         1
 10
0.0
 20
0.0
 30
0.0
 70
         8
  0
VERTEX
  5
D6
100
AcDbEntity
  8
L1_120
  6
CONTINUOUS
 62
         7
100
AcDbVertex
100
AcDb3dPolylineVertex
 10
1222.5760514972
 20
-252.6962595223
 30
0.0
 70
        32
  0
VERTEX
  5
D8
100
AcDbEntity
  8
L1_120
  6
CONTINUOUS
 62
         7
100
AcDbVertex
100
AcDb3dPolylineVertex
 10
1222.5760514972
 20
-252.6962595223
 30
0.0
 70
        32
  0
SEQEND
  5
DA
100
AcDbEntity
  8
L1_120
  6
CONTINUOUS
 62
         7
  0
ARC
  5
DB
100
AcDbEntity
  8
L1_120
  6
CONTINUOUS
 62
         7
100
AcDbCircle
 10
1221.3160848733
 20
-250.572318325
 30
0.0
 40
2.4695428935
100
AcDbArc
 50
300.6773100904
 51
321.2577258581
  0
POLYLINE
  5
DD
100
AcDbEntity
  8
L1_120
  6
CONTINUOUS
 62
         7
100
AcDb3dPolyline
 66
         1
 10
0.0
 20
0.0
 30
0.0
 70
         8
  0
VERTEX
  5
DF
100
AcDbEntity
  8
L1_120
  6
CONTINUOUS
 62
         7
100
AcDbVertex
100
AcDb3dPolylineVertex
 10
1223.2422514696
 20
-252.1178034742
 30
0.0
 70
        32
  0
VERTEX
  5
E1
100
AcDbEntity
  8
L1_120
  6
CONTINUOUS
 62
         7
100
AcDbVertex
100
AcDb3dPolylineVertex
 10
1223.2422514696
 20
-252.1178034742
 30
0.0
 70
        32
  0
SEQEND
  5
E3
100
AcDbEntity
  8
L1_120
  6
CONTINUOUS
 62
         7
  0
ARC
  5
E4
100
AcDbEntity
  8
L1_120
  6
CONTINUOUS
 62
         7
100
AcDbCircle
 10
1220.9240075179
 20
-250.2577298926
 30
0.0
 40
2.9722262277
100
AcDbArc
 50
321.257725858
 51
340.0
  0
POLYLINE
  5
E6
100
AcDbEntity
  8
L1_120
  6
CONTINUOUS
 62
         7
100
AcDb3dPolyline
 66
         1
 10
0.0
 20
0.0
 30
0.0
 70
         8
  0
VERTEX
  5
E8
100
AcDbEntity
  8
L1_120
  6
CONTINUOUS
 62
         7
100
AcDbVertex
100
AcDb3dPolylineVertex
 10
1223.7169865714
 20
-251.274291133
 30
0.0
 70
        32
  0
VERTEX
  5
EA
100
AcDbEntity
  8
L1_120
  6
CONTINUOUS
 62
         7
100
AcDbVertex
100
AcDb3dPolylineVertex
 10
1223.7169865714
 20
-251.274291133
 30
0.0
 70
        32
  0
SEQEND
  5
EC
100
AcDbEntity
  8
L1_120
  6
CONTINUOUS
 62
         7
  0
ARC
  5
ED
100
AcDbEntity
  8
L1_120
  6
CONTINUOUS
 62
         7
100
AcDbCircle
 10
1220.9240075179
 20
-250.2577298926
 30
0.0
 40
2.9722262277
100
AcDbArc
 50
339.9999999999
 51
358.742274142
  0
POLYLINE
  5
EF
100
AcDbEntity
  8
L1_120
  6
CONTINUOUS
 62
         7
100
AcDb3dPolyline
 66
         1
 10
0.0
 20
0.0
 30
0.0
 70
         8
  0
VERTEX
  5
F1
100
AcDbEntity
  8
L1_120
  6
CONTINUOUS
 62
         7
100
AcDbVertex
100
AcDb3dPolylineVertex
 10
1223.8955176663
 20
-250.32296935
 30
0.0
 70
        32
  0
VERTEX
  5
F3
100
AcDbEntity
  8
L1_120
  6
CONTINUOUS
 62
         7
100
AcDbVertex
100
AcDb3dPolylineVertex
 10
1223.8955176663
 20
-250.32296935
 30
0.0
 70
        32
  0
SEQEND
  5
F5
100
AcDbEntity
  8
L1_120
  6
CONTINUOUS
 62
         7
  0
POLYLINE
  5
F7
100
AcDbEntity
  8
L1_120
  6
CONTINUOUS
 62
         7
100
AcDb3dPolyline
 66
         1
 10
0.0
 20
0.0
 30
0.0
 70
         8
  0
VERTEX
  5
F9
100
AcDbEntity
  8
L1_120
  6
CONTINUOUS
 62
         7
100
AcDbVertex
100
AcDb3dPolylineVertex
 10
1223.3114370182
 20
-248.717332398
 30
0.0
 70
        32
  0
VERTEX
  5
FB
100
AcDbEntity
  8
L1_120
  6
CONTINUOUS
 62
         7
100
AcDbVertex
100
AcDb3dPolylineVertex
 10
1223.3114370182
 20
-248.717332398
 30
0.0
 70
        32
  0
SEQEND
  5
FD
100
AcDbEntity
  8
L1_120
  6
CONTINUOUS
 62
         7
  0
ARC
  5
FE
100
AcDbEntity
  8
L1_120
  6
CONTINUOUS
 62
         7
100
AcDbCircle
 10
1222.1084689265
 20
-249.8460482408
 30
0.0
 40
1.6495853065
100
AcDbArc
 50
43.1760378472
 51
70.0
  0
POLYLINE
  5
100
100
AcDbEntity
  8
L1_120
  6
CONTINUOUS
 62
         7
100
AcDb3dPolyline
 66
         1
 10
0.0
 20
0.0
 30
0.0
 70
         8
  0
VERTEX
  5
102
100
AcDbEntity
  8
L1_120
  6
CONTINUOUS
 62
         7
100
AcDbVertex
100
AcDb3dPolylineVertex
 10
1222.6726603294
 20
-248.2959451009
 30
0.0
 70
        32
  0
VERTEX
  5
104
100
AcDbEntity
  8
L1_120
  6
CONTINUOUS
 62
         7
100
AcDbVertex
100
AcDb3dPolylineVertex
 10
1222.6726603294
 20
-248.2959451009
 30
0.0
 70
        32
  0
SEQEND
  5
106
100
AcDbEntity
  8
L1_120
  6
CONTINUOUS
 62
         7
  0
ARC
  5
107
100
AcDbEntity
  8
L1_120
  6
CONTINUOUS
 62
         7
100
AcDbCircle
 10
1222.1084689265
 20
-249.8460482408
 30
0.0
 40
1.6495853065
100
AcDbArc
 50
70.0
 51
96.8239621528
  0
ARC
  5
108
100
AcDbEntity
  8
L1_120
  6
CONTINUOUS
 62
         7
100
AcDbCircle
 10
1222.1593792552
 20
-250.271481675
 30
0.0
 40
2.0780540551
100
AcDbArc
 50
96.8239621528
 51
120.6773100904
  0
POLYLINE
  5
10A
100
AcDbEntity
  8
L1_120
  6
CONTINUOUS
 62
         7
100
AcDb3dPolyline
 66
         1
 10
0.0
 20
0.0
 30
0.0
 70
         8
  0
VERTEX
  5
10C
100
AcDbEntity
  8
L1_120
  6
CONTINUOUS
 62
         7
100
AcDbVertex
100
AcDb3dPolylineVertex
 10
1221.0991511624
 20
-248.4842421703
 30
0.0
 70
        32
  0
VERTEX
  5
10E
100
AcDbEntity
  8
L1_120
  6
CONTINUOUS
 62
         7
100
AcDbVertex
100
AcDb3dPolylineVertex
 10
1221.0991511624
 20
-248.4842421703
 30
0.0
 70
        32
  0
SEQEND
  5
110
100
AcDbEntity
  8
L1_120
  6
CONTINUOUS
 62
         7
  0
ARC
  5
111
100
AcDbEntity
  8
L1_120
  6
CONTINUOUS
 62
         7
100
AcDbCircle
 10
1222.3591177863
 20
-250.6081833676
 30
0.0
 40
2.4695428935
100
AcDbArc
 50
120.6773100904
 51
141.257725858
  0
POLYLINE
  5
113
100
AcDbEntity
  8
L1_120
  6
CONTINUOUS
 62
         7
100
AcDb3dPolyline
 66
         1
 10
0.0
 20
0.0
 30
0.0
 70
         8
  0
VERTEX
  5
115
100
AcDbEntity
  8
L1_120
  6
CONTINUOUS
 62
         7
100
AcDbVertex
100
AcDb3dPolylineVertex
 10
1220.43295119
 20
-249.0626982184
 30
0.0
 70
        32
  0
VERTEX
  5
117
100
AcDbEntity
  8
L1_120
  6
CONTINUOUS
 62
         7
100
AcDbVertex
100
AcDb3dPolylineVertex
 10
1220.43295119
 20
-249.0626982184
 30
0.0
 70
        32
  0
SEQEND
  5
119
100
AcDbEntity
  8
L1_120
  6
CONTINUOUS
 62
         7
  0
ARC
  5
11A
100
AcDbEntity
  8
L1_120
  6
CONTINUOUS
 62
         7
100
AcDbCircle
 10
1222.7511951417
 20
-250.9227718001
 30
0.0
 40
2.9722262277
100
AcDbArc
 50
141.257725858
 51
160.0
  0
POLYLINE
  5
11C
100
AcDbEntity
  8
L1_120
  6
CONTINUOUS
 62
         7
100
AcDb3dPolyline
 66
         1
 10
0.0
 20
0.0
 30
0.0
 70
         8
  0
VERTEX
  5
11E
100
AcDbEntity
  8
L1_120
  6
CONTINUOUS
 62
         7
100
AcDbVertex
100
AcDb3dPolylineVertex
 10
1219.9582160882
 20
-249.9062105597
 30
0.0
 70
        32
  0
VERTEX
  5
120
100
AcDbEntity
  8
L1_120
  6
CONTINUOUS
 62
         7
100
AcDbVertex
100
AcDb3dPolylineVertex
 10
1219.9582160882
 20
-249.9062105597
 30
0.0
 70
        32
  0
SEQEND
  5
122
100
AcDbEntity
  8
L1_120
  6
CONTINUOUS
 62
         7
  0
LINE
  5
123
100
AcDbEntity
  8
L1_120
  6
CENTER
 62
         1
100
AcDbLine
 10
1224.6566791922
 20
-251.6163112763
 30
0.0
 11
1219.0185234674
 21
-249.5641904163
 31
0.0
  0
ARC
  5
124
100
AcDbEntity
  8
L1_120
  6
CONTINUOUS
 62
         7
100
AcDbCircle
 10
1231.0721451996
 20
-225.2185500851
 30
0.0
 40
31.775
100
AcDbArc
 50
195.411296411
 51
344.588703589
  0
ARC
  5
125
100
AcDbEntity
  8
L1_120
  6
CONTINUOUS
 62
         7
100
AcDbCircle
 10
1231.0721451996
 20
-225.2185500851
 30
0.0
 40
31.775
100
AcDbArc
 50
15.411296411
 51
164.588703589
  0
CIRCLE
  5
126
100
AcDbEntity
  8
L1_120
  6
CONTINUOUS
 62
         7
100
AcDbCircle
 10
1231.0721451996
 20
-225.2185500851
 30
0.0
 40
12.7165768873
  0
CIRCLE
  5
127
100
AcDbEntity
  8
L1_120
  6
CONTINUOUS
 62
         7
100
AcDbCircle
 10
1231.0721451996
 20
-225.2185500851
 30
0.0
 40
7.0
  0
ARC
  5
128
100
AcDbEntity
  8
L1_120
  6
CONTINUOUS
 62
         5
100
AcDbCircle
 10
1231.0721451996
 20
-225.2185500851
 30
0.0
 40
8.0
100
AcDbArc
 50
352.9901372228
 51
621.2264515101
  0
CIRCLE
  5
129
100
AcDbEntity
  8
L1_120
  6
CONTINUOUS
 62
         7
100
AcDbCircle
 10
1231.0721451996
 20
-225.2185500851
 30
0.0
 40
9.5
  0
CIRCLE
  5
12A
100
AcDbEntity
  8
L1_120
  6
CONTINUOUS
 62
         7
100
AcDbCircle
 10
1231.0721451996
 20
-225.2185500851
 30
0.0
 40
8.5
  0
CIRCLE
  5
12B
100
AcDbEntity
  8
L1_120
  6
CONTINUOUS
 62
         7
100
AcDbCircle
 10
1231.0721451996
 20
-225.2185500851
 30
0.0
 40
22.225
  0
LINE
  5
12C
100
AcDbEntity
  8
L1_120
  6
CONTINUOUS
 62
         7
100
AcDbLine
 10
1261.3105271512
 20
-217.1685500851
 30
0.0
 11
1256.5721451996
 21
-217.1685500851
 31
0.0
  0
LINE
  5
12D
100
AcDbEntity
  8
L1_120
  6
CONTINUOUS
 62
         7
100
AcDbLine
 10
1261.7046124323
 20
-216.7744648039
 30
0.0
 11
1261.3105271512
 21
-217.1685500851
 31
0.0
  0
LINE
  5
12E
100
AcDbEntity
  8
L1_120
  6
CONTINUOUS
 62
         7
100
AcDbLine
 10
1256.0721451996
 20
-217.6685500851
 30
0.0
 11
1256.5721451996
 21
-217.1685500851
 31
0.0
  0
LINE
  5
12F
100
AcDbEntity
  8
L1_120
  6
CONTINUOUS
 62
         7
100
AcDbLine
 10
1261.7046124323
 20
-233.6626353663
 30
0.0
 11
1261.3105271512
 21
-233.2685500851
 31
0.0
  0
LINE
  5
130
100
AcDbEntity
  8
L1_120
  6
CONTINUOUS
 62
         7
100
AcDbLine
 10
1256.0721451996
 20
-232.7685500851
 30
0.0
 11
1256.5721451996
 21
-233.2685500851
 31
0.0
  0
LINE
  5
131
100
AcDbEntity
  8
L1_120
  6
CONTINUOUS
 62
         7
100
AcDbLine
 10
1256.0721451996
 20
-232.7685500851
 30
0.0
 11
1256.0721451996
 21
-217.6685500851
 31
0.0
  0
LINE
  5
132
100
AcDbEntity
  8
L1_120
  6
CONTINUOUS
 62
         7
100
AcDbLine
 10
1261.3105271512
 20
-233.2685500851
 30
0.0
 11
1256.5721451996
 21
-233.2685500851
 31
0.0
  0
LINE
  5
133
100
AcDbEntity
  8
L1_120
  6
CONTINUOUS
 62
         7
100
AcDbLine
 10
1200.4396779669
 20
-216.7744648039
 30
0.0
 11
1200.833763248
 21
-217.1685500851
 31
0.0
  0
LINE
  5
134
100
AcDbEntity
  8
L1_120
  6
CONTINUOUS
 62
         7
100
AcDbLine
 10
1208.2721451996
 20
-217.6685500851
 30
0.0
 11
1207.7721451996
 21
-217.1685500851
 31
0.0
  0
LINE
  5
135
100
AcDbEntity
  8
L1_120
  6
CONTINUOUS
 62
         7
100
AcDbLine
 10
1207.7721451996
 20
-217.1685500851
 30
0.0
 11
1200.833763248
 21
-217.1685500851
 31
0.0
  0
LINE
  5
136
100
AcDbEntity
  8
L1_120
  6
CONTINUOUS
 62
         7
100
AcDbLine
 10
1200.4396779669
 20
-233.6626353663
 30
0.0
 11
1200.833763248
 21
-233.2685500851
 31
0.0
  0
LINE
  5
137
100
AcDbEntity
  8
L1_120
  6
CONTINUOUS
 62
         7
100
AcDbLine
 10
1207.7721451996
 20
-233.2685500851
 30
0.0
 11
1200.833763248
 21
-233.2685500851
 31
0.0
  0
LINE
  5
138
100
AcDbEntity
  8
L1_120
  6
CONTINUOUS
 62
         7
100
AcDbLine
 10
1208.2721451996
 20
-232.7685500851
 30
0.0
 11
1207.7721451996
 21
-233.2685500851
 31
0.0
  0
LINE
  5
139
100
AcDbEntity
  8
L1_120
  6
CONTINUOUS
 62
         7
100
AcDbLine
 10
1208.2721451996
 20
-232.7685500851
 30
0.0
 11
1208.2721451996
 21
-217.6685500851
 31
0.0
  0
ARC
  5
13A
100
AcDbEntity
  8
L1_120
  6
CONTINUOUS
 62
         7
100
AcDbCircle
 10
1316.9008425579
 20
-329.0186220058
 30
0.0
 40
1.0
100
AcDbArc
 50
180.0
 51
270.0
  0
LINE
  5
13B
100
AcDbEntity
  8
L1_120
  6
CONTINUOUS
 62
         7
100
AcDbLine
 10
1316.9008425579
 20
-330.0186220058
 30
0.0
 11
1319.6708425579
 21
-330.0186220058
 31
0.0
  0
ARC
  5
13C
100
AcDbEntity
  8
L1_120
  6
CONTINUOUS
 62
         7
100
AcDbCircle
 10
1320.0703781381
 20
-330.1186220058
 30
0.0
 40
0.2
100
AcDbArc
 50
90.0
 51
105.0
  0
LINE
  5
13D
100
AcDbEntity
  8
L1_120
  6
CONTINUOUS
 62
         7
100
AcDbLine
 10
1320.0186143291
 20
-329.9254368405
 30
0.0
 11
1319.6708425579
 21
-330.0186220058
 31
0.0
  0
LINE
  5
13E
100
AcDbEntity
  8
L1_120
  6
CONTINUOUS
 62
         7
100
AcDbLine
 10
1320.0703781381
 20
-329.9186220058
 30
0.0
 11
1320.4708425579
 21
-329.9186220058
 31
0.0
  0
LINE
  5
13F
100
AcDbEntity
  8
L1_120
  6
CONTINUOUS
 62
         7
100
AcDbLine
 10
1320.6122639141
 20
-329.9772006495
 30
0.0
 11
1321.8036852703
 21
-331.1686220058
 31
0.0
  0
ARC
  5
140
100
AcDbEntity
  8
L1_120
  6
CONTINUOUS
 62
         7
100
AcDbCircle
 10
1320.4708425579
 20
-330.1186220058
 30
0.0
 40
0.2
100
AcDbArc
 50
45.0000000038
 51
90.0
  0
LINE
  5
141
100
AcDbEntity
  8
L1_120
  6
CONTINUOUS
 62
         7
100
AcDbLine
 10
1320.6708425579
 20
-330.3750991651
 30
0.0
 11
1320.6708425579
 21
-345.8473753413
 31
0.0
  0
LINE
  5
142
100
AcDbEntity
  8
L1_120
  6
CONTINUOUS
 62
         7
100
AcDbLine
 10
1319.6708425579
 20
-330.0186220058
 30
0.0
 11
1319.6708425579
 21
-346.3186220058
 31
0.0
  0
LINE
  5
143
100
AcDbEntity
  8
L1_120
  6
CONTINUOUS
 62
         5
100
AcDbLine
 10
1320.8036852703
 20
-330.1686220058
 30
0.0
 11
1344.3508425579
 21
-330.1686220058
 31
0.0
  0
LINE
  5
144
100
AcDbEntity
  8
L1_120
  6
CONTINUOUS
 62
         7
100
AcDbLine
 10
1321.8036852703
 20
-331.1686220058
 30
0.0
 11
1321.8036852703
 21
-345.1686220058
 31
0.0
  0
LINE
  5
145
100
AcDbEntity
  8
L1_120
  6
CONTINUOUS
 62
         7
100
AcDbLine
 10
1320.6122639141
 20
-346.360043362
 30
0.0
 11
1321.8036852703
 21
-345.1686220058
 31
0.0
  0
ARC
  5
146
100
AcDbEntity
  8
L1_120
  6
CONTINUOUS
 62
         7
100
AcDbCircle
 10
1320.4708425579
 20
-346.2186220058
 30
0.0
 40
0.2
100
AcDbArc
 50
270.0
 51
314.9999999962
  0
LINE
  5
147
100
AcDbEntity
  8
L1_120
  6
CONTINUOUS
 62
         7
100
AcDbLine
 10
1320.0703781381
 20
-346.4186220058
 30
0.0
 11
1320.4708425579
 21
-346.4186220058
 31
0.0
  0
LINE
  5
148
100
AcDbEntity
  8
L1_120
  6
CONTINUOUS
 62
         7
100
AcDbLine
 10
1320.0186143291
 20
-346.411807171
 30
0.0
 11
1319.6708425579
 21
-346.3186220058
 31
0.0
  0
LINE
  5
149
100
AcDbEntity
  8
L1_120
  6
CONTINUOUS
 62
         7
100
AcDbLine
 10
1316.9008425579
 20
-346.3186220058
 30
0.0
 11
1319.6708425579
 21
-346.3186220058
 31
0.0
  0
ARC
  5
14A
100
AcDbEntity
  8
L1_120
  6
CONTINUOUS
 62
         7
100
AcDbCircle
 10
1316.9008425579
 20
-347.3186220058
 30
0.0
 40
1.0
100
AcDbArc
 50
90.0
 51
180.0
  0
LINE
  5
14B
100
AcDbEntity
  8
L1_120
  6
CONTINUOUS
 62
         5
100
AcDbLine
 10
1320.8036852703
 20
-346.1686220058
 30
0.0
 11
1344.3508425579
 21
-346.1686220058
 31
0.0
  0
LINE
  5
14C
100
AcDbEntity
  8
L1_120
  6
CONTINUOUS
 62
         7
100
AcDbLine
 10
1344.3508425579
 20
-330.1686220058
 30
0.0
 11
1344.3508425579
 21
-346.1686220058
 31
0.0
  0
ARC
  5
14D
100
AcDbEntity
  8
L1_120
  6
CONTINUOUS
 62
         7
100
AcDbCircle
 10
1317.1008425579
 20
-235.5104151597
 30
0.0
 40
1.2
100
AcDbArc
 50
180.0
 51
261.7028550302
  0
ARC
  5
14E
100
AcDbEntity
  8
L1_120
  6
CONTINUOUS
 62
         7
100
AcDbCircle
 10
1317.1008425579
 20
-213.0420517268
 30
0.0
 40
1.2
100
AcDbArc
 50
98.2971449698
 51
180.0
  0
LINE
  5
14F
100
AcDbEntity
  8
L1_120
  6
CONTINUOUS
 62
         7
100
AcDbLine
 10
1315.9008425579
 20
-213.0420517268
 30
0.0
 11
1315.9008425579
 21
-235.5104151597
 31
0.0
  0
LINE
  5
150
100
AcDbEntity
  8
L1_120
  6
CONTINUOUS
 62
         4
100
AcDbLine
 10
1343.5016874219
 20
-247.395472328
 30
0.0
 11
1343.8974082645
 21
-247.395472328
 31
0.0
  0
LINE
  5
151
100
AcDbEntity
  8
L1_120
  6
CONTINUOUS
 62
         7
100
AcDbLine
 10
1316.9276742862
 20
-236.6978547369
 30
0.0
 11
1385.3508425579
 21
-246.6762334432
 31
0.0
  0
LINE
  5
152
100
AcDbEntity
  8
L1_120
  6
CONTINUOUS
 62
         7
100
AcDbLine
 10
1316.9276742862
 20
-211.8546121495
 30
0.0
 11
1385.3508425579
 21
-201.8762334432
 31
0.0
  0
LINE
  5
153
100
AcDbEntity
  8
L1_120
  6
CENTER
 62
         1
100
AcDbLine
 10
1315.9008425579
 20
-224.2762334432
 30
0.0
 11
1419.1508425579
 21
-224.2762334432
 31
0.0
  0
LINE
  5
154
100
AcDbEntity
  8
L1_120
  6
CONTINUOUS
 62
         7
100
AcDbLine
 10
1315.9008425579
 20
-213.0420517268
 30
0.0
 11
1315.9008425579
 21
-235.5104151597
 31
0.0
  0
LINE
  5
155
100
AcDbEntity
  8
L1_120
  6
CENTER
 62
         1
100
AcDbLine
 10
1312.0684106267
 20
-338.1686220058
 30
0.0
 11
1428.6008425579
 21
-338.1686220058
 31
0.0
  0
LINE
  5
156
100
AcDbEntity
  8
L1_120
  6
DASHED
 62
         2
100
AcDbLine
 10
1229.0721451996
 20
-179.6406455357
 30
0.0
 11
1231.0721451996
 21
-180.795346074
 31
0.0
  0
LINE
  5
157
100
AcDbEntity
  8
L1_120
  6
CENTER
 62
         1
100
AcDbLine
 10
1231.0721451996
 20
-193.4435500851
 30
0.0
 11
1231.0721451996
 21
-256.9935500851
 31
0.0
  0
LINE
  5
158
100
AcDbEntity
  8
L1_120
  6
CENTER
 62
         1
100
AcDbLine
 10
1193.76139216
 20
-225.0406455357
 30
0.0
 11
1269.969672421
 21
-225.0406455357
 31
0.0
  0
ARC
  5
159
100
AcDbEntity
  8
L1_120
  6
CONTINUOUS
 62
         7
100
AcDbCircle
 10
1386.5508425579
 20
-197.6689735113
 30
38.9451592314
 40
0.8
210
0.0
220
-0.1736481776669303
230
0.9848077530122081
100
AcDbArc
 50
269.9999999999
 51
360.0
  0
LINE
  5
15A
100
AcDbEntity
  8
L1_120
  6
CONTINUOUS
 62
         7
100
AcDbLine
 10
1386.5508425579
 20
-202.2165397757
 30
3.8897191797
 11
1385.3508425579
 21
-202.2165397757
 31
3.8897191797
  0
LINE
  5
15B
100
AcDbEntity
  8
L1_120
  6
CONTINUOUS
 62
         7
100
AcDbLine
 10
1385.3508425579
 20
-246.3359271107
 30
-3.8897191797
 11
1385.3508425579
 21
-202.2165397757
 31
3.8897191797
  0
LINE
  5
15C
100
AcDbEntity
  8
L1_120
  6
CONTINUOUS
 62
         7
100
AcDbLine
 10
1386.5508425579
 20
-246.3359271107
 30
-3.8897191797
 11
1385.3508425579
 21
-246.3359271107
 31
-3.8897191797
  0
ARC
  5
15D
100
AcDbEntity
  8
L1_120
  6
CONTINUOUS
 62
         7
100
AcDbCircle
 10
1386.5508425579
 20
-244.0689735113
 30
38.9451592314
 40
0.8
210
0.0
220
-0.1736481776669303
230
0.9848077530122081
100
AcDbArc
 50
0.0
 51
90.0000000001
  0
LINE
  5
15E
100
AcDbEntity
  8
L1_120
  6
CONTINUOUS
 62
         7
100
AcDbLine
 10
1418.7028425579
 20
-246.2226742191
 30
-3.8697496393
 11
1418.7028425579
 21
-202.3297926673
 31
3.8697496393
  0
LINE
  5
15F
100
AcDbEntity
  8
L1_120
  6
CONTINUOUS
 62
         4
100
AcDbLine
 10
1402.7508425579
 20
-255.5684997952
 30
-5.5176708454
 11
1402.7508425579
 21
-232.9917820574
 31
-1.5367863724
  0
LINE
  5
160
100
AcDbEntity
  8
L1_120
  6
CONTINUOUS
 62
         4
100
AcDbLine
 10
1387.8508425579
 20
-255.5684997952
 30
-5.5176708454
 11
1387.8508425579
 21
-232.9917820574
 31
-1.5367863724
  0
LINE
  5
161
100
AcDbEntity
  8
L1_120
  6
CONTINUOUS
 62
         4
100
AcDbLine
 10
1402.7508425579
 20
-215.5606848291
 30
1.5367863724
 11
1402.7508425579
 21
-192.9839670913
 31
5.5176708454
  0
LINE
  5
162
100
AcDbEntity
  8
L1_120
  6
CONTINUOUS
 62
         4
100
AcDbLine
 10
1387.8508425579
 20
-215.5606848291
 30
1.5367863724
 11
1387.8508425579
 21
-192.9839670913
 31
5.5176708454
  0
LINE
  5
163
100
AcDbEntity
  8
L1_120
  6
CONTINUOUS
 62
         7
100
AcDbLine
 10
1387.3508425579
 20
-255.0760959187
 30
-5.4308467565
 11
1387.8508425579
 21
-255.5684997952
 31
-5.5176708454
  0
LINE
  5
164
100
AcDbEntity
  8
L1_120
  6
CONTINUOUS
 62
         7
100
AcDbLine
 10
1403.2508425579
 20
-255.0760959187
 30
-5.4308467565
 11
1402.7508425579
 21
-255.5684997952
 31
-5.5176708454
  0
LINE
  5
165
100
AcDbEntity
  8
L1_120
  6
CONTINUOUS
 62
         7
100
AcDbLine
 10
1387.8508425579
 20
-255.5684997952
 30
-5.5176708454
 11
1389.3508425579
 21
-255.5684997952
 31
-5.5176708454
  0
LINE
  5
166
100
AcDbEntity
  8
L1_120
  6
CONTINUOUS
 62
         7
100
AcDbLine
 10
1401.2508425579
 20
-255.5684997952
 30
-5.5176708454
 11
1402.7508425579
 21
-255.5684997952
 31
-5.5176708454
  0
LINE
  5
167
100
AcDbEntity
  8
L1_120
  6
CONTINUOUS
 62
         7
100
AcDbLine
 10
1387.3508425579
 20
-253.5988842892
 30
-5.17037449
 11
1387.3508425579
 21
-255.0760959187
 31
-5.4308467565
  0
LINE
  5
168
100
AcDbEntity
  8
L1_120
  6
CONTINUOUS
 62
         7
100
AcDbLine
 10
1403.2508425579
 20
-253.5988842892
 30
-5.17037449
 11
1403.2508425579
 21
-255.0760959187
 31
-5.4308467565
  0
LINE
  5
169
100
AcDbEntity
  8
L1_120
  6
CONTINUOUS
 62
         7
100
AcDbLine
 10
1402.7508425579
 20
-192.9839670913
 30
5.5176708454
 11
1403.2508425579
 21
-193.4763709678
 31
5.4308467565
  0
LINE
  5
16A
100
AcDbEntity
  8
L1_120
  6
CONTINUOUS
 62
         7
100
AcDbLine
 10
1387.8508425579
 20
-192.9839670913
 30
5.5176708454
 11
1387.3508425579
 21
-193.4763709678
 31
5.4308467565
  0
LINE
  5
16B
100
AcDbEntity
  8
L1_120
  6
CONTINUOUS
 62
         7
100
AcDbLine
 10
1403.2508425579
 20
-193.4763709678
 30
5.4308467565
 11
1403.2508425579
 21
-194.9535825973
 31
5.17037449
  0
LINE
  5
16C
100
AcDbEntity
  8
L1_120
  6
CONTINUOUS
 62
         7
100
AcDbLine
 10
1401.2508425579
 20
-192.9839670913
 30
5.5176708454
 11
1402.7508425579
 21
-192.9839670913
 31
5.5176708454
  0
LINE
  5
16D
100
AcDbEntity
  8
L1_120
  6
CONTINUOUS
 62
         7
100
AcDbLine
 10
1387.3508425579
 20
-193.4763709678
 30
5.4308467565
 11
1387.3508425579
 21
-194.9535825973
 31
5.17037449
  0
LINE
  5
16E
100
AcDbEntity
  8
L1_120
  6
CONTINUOUS
 62
         7
100
AcDbLine
 10
1387.8508425579
 20
-192.9839670913
 30
5.5176708454
 11
1389.3508425579
 21
-192.9839670913
 31
5.5176708454
  0
ARC
  5
16F
100
AcDbEntity
  8
L1_120
  6
CONTINUOUS
 62
         7
100
AcDbCircle
 10
1403.7508425579
 20
-198.0839735113
 30
38.9451592314
 40
0.5
210
0.0
220
-0.1736481776669303
230
0.9848077530122081
100
AcDbArc
 50
180.0
 51
270.0
  0
ARC
  5
170
100
AcDbEntity
  8
L1_120
  6
CONTINUOUS
 62
         7
100
AcDbCircle
 10
1403.7508425579
 20
-243.6539735113
 30
38.9451592314
 40
0.5
210
0.0
220
-0.1736481776669303
230
0.9848077530122081
100
AcDbArc
 50
90.0
 51
180.0
  0
LINE
  5
171
100
AcDbEntity
  8
L1_120
  6
CONTINUOUS
 62
         7
100
AcDbLine
 10
1403.7508425579
 20
-246.2226742191
 30
-3.8697496393
 11
1418.4028425579
 21
-246.2226742191
 31
-3.8697496393
  0
LINE
  5
172
100
AcDbEntity
  8
L1_120
  6
CONTINUOUS
 62
         7
100
AcDbLine
 10
1403.7508425579
 20
-202.3297926673
 30
3.8697496393
 11
1418.4028425579
 21
-202.3297926673
 31
3.8697496393
  0
LINE
  5
173
100
AcDbEntity
  8
L1_120
  6
CONTINUOUS
 62
         7
100
AcDbLine
 10
1403.2508425579
 20
-246.7150780956
 30
-3.9565737281
 11
1403.2508425579
 21
-254.5836920422
 31
-5.3440226677
  0
LINE
  5
174
100
AcDbEntity
  8
L1_120
  6
CONTINUOUS
 62
         7
100
AcDbLine
 10
1403.2508425579
 20
-193.9687748443
 30
5.3440226677
 11
1403.2508425579
 21
-201.8373887908
 31
3.9565737281
  0
LINE
  5
175
100
AcDbEntity
  8
L1_120
  6
CONTINUOUS
 62
         7
100
AcDbLine
 10
1391.7145721591
 20
-192.9839670913
 30
5.5176708454
 11
1391.7145721591
 21
-215.5606848291
 31
1.5367863724
  0
LINE
  5
176
100
AcDbEntity
  8
L1_120
  6
CONTINUOUS
 62
         7
100
AcDbLine
 10
1393.3758425579
 20
-195.8176575836
 30
5.0180147566
 11
1393.3758425579
 21
-216.3485310315
 31
1.3978678302
  0
LINE
  5
177
100
AcDbEntity
  8
L1_120
  6
CONTINUOUS
 62
         7
100
AcDbLine
 10
1397.1258425579
 20
-195.8176575836
 30
5.0180147566
 11
1397.1258425579
 21
-216.3485310315
 31
1.3978678302
  0
LINE
  5
178
100
AcDbEntity
  8
L1_120
  6
CONTINUOUS
 62
         7
100
AcDbLine
 10
1398.7871129567
 20
-192.9839670913
 30
5.5176708454
 11
1398.7871129567
 21
-215.5606848291
 31
1.5367863724
  0
LINE
  5
179
100
AcDbEntity
  8
L1_120
  6
CONTINUOUS
 62
         7
100
AcDbLine
 10
1402.4508425579
 20
-216.3485310315
 30
1.3978678302
 11
1388.1508425579
 21
-216.3485310315
 31
1.3978678302
  0
LINE
  5
17A
100
AcDbEntity
  8
L1_120
  6
CONTINUOUS
 62
         7
100
AcDbLine
 10
1402.4508425579
 20
-232.203935855
 30
-1.3978678302
 11
1388.1508425579
 21
-232.203935855
 31
-1.3978678302
  0
LINE
  5
17B
100
AcDbEntity
  8
L1_120
  6
CONTINUOUS
 62
         7
100
AcDbLine
 10
1391.7145721591
 20
-215.5606848291
 30
1.5367863724
 11
1393.3758425579
 21
-216.3485310315
 31
1.3978678302
  0
LINE
  5
17C
100
AcDbEntity
  8
L1_120
  6
CONTINUOUS
 62
         7
100
AcDbLine
 10
1391.7145721591
 20
-232.9917820574
 30
-1.5367863724
 11
1393.3758425579
 21
-232.203935855
 31
-1.3978678302
  0
LINE
  5
17D
100
AcDbEntity
  8
L1_120
  6
CONTINUOUS
 62
         7
100
AcDbLine
 10
1388.1508425579
 20
-216.3485310315
 30
1.3978678302
 11
1388.1508425579
 21
-232.203935855
 31
-1.3978678302
  0
LINE
  5
17E
100
AcDbEntity
  8
L1_120
  6
CONTINUOUS
 62
         7
100
AcDbLine
 10
1391.7145721591
 20
-232.9917820574
 30
-1.5367863724
 11
1387.3508425579
 21
-232.9917820574
 31
-1.5367863724
  0
LINE
  5
17F
100
AcDbEntity
  8
L1_120
  6
CONTINUOUS
 62
         7
100
AcDbLine
 10
1388.1508425579
 20
-232.203935855
 30
-1.3978678302
 11
1387.3508425579
 21
-232.9917820574
 31
-1.5367863724
  0
LINE
  5
180
100
AcDbEntity
  8
L1_120
  6
CONTINUOUS
 62
         7
100
AcDbLine
 10
1387.3508425579
 20
-215.5606848291
 30
1.5367863724
 11
1388.1508425579
 21
-216.3485310315
 31
1.3978678302
  0
LINE
  5
181
100
AcDbEntity
  8
L1_120
  6
CONTINUOUS
 62
         7
100
AcDbLine
 10
1391.7145721591
 20
-215.5606848291
 30
1.5367863724
 11
1387.3508425579
 21
-215.5606848291
 31
1.5367863724
  0
LINE
  5
182
100
AcDbEntity
  8
L1_120
  6
CONTINUOUS
 62
         7
100
AcDbLine
 10
1402.4508425579
 20
-216.3485310315
 30
1.3978678302
 11
1402.4508425579
 21
-232.203935855
 31
-1.3978678302
  0
LINE
  5
183
100
AcDbEntity
  8
L1_120
  6
CONTINUOUS
 62
         7
100
AcDbLine
 10
1403.2508425579
 20
-232.9917820574
 30
-1.5367863724
 11
1398.7871129567
 21
-232.9917820574
 31
-1.5367863724
  0
LINE
  5
184
100
AcDbEntity
  8
L1_120
  6
CONTINUOUS
 62
         7
100
AcDbLine
 10
1402.4508425579
 20
-232.203935855
 30
-1.3978678302
 11
1403.2508425579
 21
-232.9917820574
 31
-1.5367863724
  0
LINE
  5
185
100
AcDbEntity
  8
L1_120
  6
CONTINUOUS
 62
         7
100
AcDbLine
 10
1397.1258425579
 20
-232.203935855
 30
-1.3978678302
 11
1398.7871129567
 21
-232.9917820574
 31
-1.5367863724
  0
LINE
  5
186
100
AcDbEntity
  8
L1_120
  6
CONTINUOUS
 62
         7
100
AcDbLine
 10
1403.2508425579
 20
-215.5606848291
 30
1.5367863724
 11
1402.4508425579
 21
-216.3485310315
 31
1.3978678302
  0
LINE
  5
187
100
AcDbEntity
  8
L1_120
  6
CONTINUOUS
 62
         7
100
AcDbLine
 10
1397.1258425579
 20
-216.3485310315
 30
1.3978678302
 11
1398.7871129567
 21
-215.5606848291
 31
1.5367863724
  0
LINE
  5
188
100
AcDbEntity
  8
L1_120
  6
CONTINUOUS
 62
         7
100
AcDbLine
 10
1403.2508425579
 20
-215.5606848291
 30
1.5367863724
 11
1398.7871129567
 21
-215.5606848291
 31
1.5367863724
  0
LINE
  5
189
100
AcDbEntity
  8
L1_120
  6
CONTINUOUS
 62
         7
100
AcDbLine
 10
1391.7145721591
 20
-232.9917820574
 30
-1.5367863724
 11
1391.7145721591
 21
-255.5684997952
 31
-5.5176708454
  0
LINE
  5
18A
100
AcDbEntity
  8
L1_120
  6
CONTINUOUS
 62
         7
100
AcDbLine
 10
1393.3758425579
 20
-232.203935855
 30
-1.3978678302
 11
1393.3758425579
 21
-252.7348093028
 31
-5.0180147566
  0
LINE
  5
18B
100
AcDbEntity
  8
L1_120
  6
CONTINUOUS
 62
         7
100
AcDbLine
 10
1397.1258425579
 20
-232.203935855
 30
-1.3978678302
 11
1397.1258425579
 21
-252.7348093028
 31
-5.0180147566
  0
LINE
  5
18C
100
AcDbEntity
  8
L1_120
  6
CONTINUOUS
 62
         7
100
AcDbLine
 10
1398.7871129567
 20
-232.9917820574
 30
-1.5367863724
 11
1398.7871129567
 21
-255.5684997952
 31
-5.5176708454
  0
LINE
  5
18D
100
AcDbEntity
  8
L1_120
  6
CONTINUOUS
 62
         7
100
AcDbLine
 10
1393.3758425579
 20
-195.8176575836
 30
5.0180147566
 11
1391.7145721591
 21
-192.9839670913
 31
5.5176708454
  0
LINE
  5
18E
100
AcDbEntity
  8
L1_120
  6
CENTER
 62
         1
100
AcDbLine
 10
1390.9398372993
 20
-256.4302065791
 30
-5.6696130008
 11
1399.3486718677
 21
-256.4302065791
 31
-5.6696130008
  0
LINE
  5
18F
100
AcDbEntity
  8
L1_120
  6
CONTINUOUS
 62
         7
100
AcDbLine
 10
1393.3758425579
 20
-252.7348093028
 30
-5.0180147566
 11
1391.7145721591
 21
-255.5684997952
 31
-5.5176708454
  0
LINE
  5
190
100
AcDbEntity
  8
L1_120
  6
CONTINUOUS
 62
         7
100
AcDbLine
 10
1387.3508425579
 20
-193.9687748443
 30
5.3440226677
 11
1387.3508425579
 21
-254.5836920422
 31
-5.3440226677
  0
LINE
  5
191
100
AcDbEntity
  8
L1_120
  6
CENTER
 62
         1
100
AcDbLine
 10
1384.1508425579
 20
-202.3888811325
 30
3.8593307486
 11
1384.1508425579
 21
-246.1635857539
 31
-3.8593307486
  0
LINE
  5
192
100
AcDbEntity
  8
L1_120
  6
CONTINUOUS
 62
         7
100
AcDbLine
 10
1388.3508425579
 20
-255.5684997952
 30
-5.5176708454
 11
1391.7145721591
 21
-255.5684997952
 31
-5.5176708454
  0
LINE
  5
193
100
AcDbEntity
  8
L1_120
  6
CONTINUOUS
 62
         7
100
AcDbLine
 10
1388.3508425579
 20
-192.9839670913
 30
5.5176708454
 11
1391.7145721591
 21
-192.9839670913
 31
5.5176708454
  0
LINE
  5
194
100
AcDbEntity
  8
L1_120
  6
CONTINUOUS
 62
         7
100
AcDbLine
 10
1403.2508425579
 20
-193.9687748443
 30
5.3440226677
 11
1403.2508425579
 21
-254.5836920422
 31
-5.3440226677
  0
LINE
  5
195
100
AcDbEntity
  8
L1_120
  6
CONTINUOUS
 62
         7
100
AcDbLine
 10
1403.2508425579
 20
-193.9687748443
 30
5.3440226677
 11
1403.2508425579
 21
-205.564886136
 31
3.2993153757
  0
LINE
  5
196
100
AcDbEntity
  8
L1_120
  6
CONTINUOUS
 62
         7
100
AcDbLine
 10
1394.3496428896
 20
-251.9739514967
 30
-4.8838549969
 11
1396.1520422261
 21
-251.9739514967
 31
-4.8838549969
  0
ARC
  5
197
100
AcDbEntity
  8
L1_120
  6
CONTINUOUS
 62
         7
100
AcDbCircle
 10
1394.3496428896
 20
-249.9939735113
 30
38.9451592314
 40
1.0
210
0.0
220
-0.1736481776669303
230
0.9848077530122081
100
AcDbArc
 50
90.0
 51
166.8556743105
  0
LINE
  5
198
100
AcDbEntity
  8
L1_120
  6
CONTINUOUS
 62
         7
100
AcDbLine
 10
1397.1258425579
 20
-252.7348093028
 30
-5.0180147566
 11
1398.7871129567
 21
-255.5684997952
 31
-5.5176708454
  0
ARC
  5
199
100
AcDbEntity
  8
L1_120
  6
CONTINUOUS
 62
         7
100
AcDbCircle
 10
1396.1520422261
 20
-249.9939735113
 30
38.9451592314
 40
1.0
210
0.0
220
-0.1736481776669303
230
0.9848077530122081
100
AcDbArc
 50
13.1443256895
 51
90.0
  0
LINE
  5
19A
100
AcDbEntity
  8
L1_120
  6
CONTINUOUS
 62
         7
100
AcDbLine
 10
1398.7871129567
 20
-255.5684997952
 30
-5.5176708454
 11
1402.2508425579
 21
-255.5684997952
 31
-5.5176708454
  0
LINE
  5
19B
100
AcDbEntity
  8
L1_120
  6
CONTINUOUS
 62
         7
100
AcDbLine
 10
1397.1258425579
 20
-195.8176575836
 30
5.0180147566
 11
1398.7871129567
 21
-192.9839670913
 31
5.5176708454
  0
LINE
  5
19C
100
AcDbEntity
  8
L1_120
  6
CONTINUOUS
 62
         7
100
AcDbLine
 10
1398.7871129567
 20
-192.9839670913
 30
5.5176708454
 11
1402.2508425579
 21
-192.9839670913
 31
5.5176708454
  0
LINE
  5
19D
100
AcDbEntity
  8
L1_120
  6
CONTINUOUS
 62
         7
100
AcDbLine
 10
1394.3496428896
 20
-196.5785153898
 30
4.8838549969
 11
1396.1520422261
 21
-196.5785153898
 31
4.8838549969
  0
ARC
  5
19E
100
AcDbEntity
  8
L1_120
  6
CONTINUOUS
 62
         7
100
AcDbCircle
 10
1394.3496428896
 20
-191.7439735113
 30
38.9451592314
 40
1.0
210
0.0
220
-0.1736481776669303
230
0.9848077530122081
100
AcDbArc
 50
193.1443256895
 51
270.0
  0
ARC
  5
19F
100
AcDbEntity
  8
L1_120
  6
CONTINUOUS
 62
         7
100
AcDbCircle
 10
1396.1520422261
 20
-191.7439735113
 30
38.9451592314
 40
1.0
210
0.0
220
-0.1736481776669303
230
0.9848077530122081
100
AcDbArc
 50
270.0
 51
346.8556743105
  0
LINE
  5
1A0
100
AcDbEntity
  8
L1_120
  6
CENTER
 62
         1
100
AcDbLine
 10
1380.7983511394
 20
-224.2762334432
 30
0.0
 11
1403.2508425579
 21
-224.2762334432
 31
0.0
  0
LINE
  5
1A1
100
AcDbEntity
  8
L1_120
  6
CONTINUOUS
 62
         7
100
AcDbLine
 10
1419.2028425579
 20
-202.8221965438
 30
3.7829255505
 11
1419.2028425579
 21
-245.7302703426
 31
-3.7829255505
  0
LINE
  5
1A2
100
AcDbEntity
  8
L1_120
  6
CONTINUOUS
 62
         7
100
AcDbLine
 10
1418.7028425579
 20
-202.3297926673
 30
3.8697496393
 11
1419.2028425579
 21
-202.8221965438
 31
3.7829255505
  0
LINE
  5
1A3
100
AcDbEntity
  8
L1_120
  6
CONTINUOUS
 62
         7
100
AcDbLine
 10
1418.7028425579
 20
-246.2226742191
 30
-3.8697496393
 11
1417.7028425579
 21
-246.2226742191
 31
-3.8697496393
  0
LINE
  5
1A4
100
AcDbEntity
  8
L1_120
  6
CONTINUOUS
 62
         7
100
AcDbLine
 10
1419.2028425579
 20
-245.7302703426
 30
-3.7829255505
 11
1418.7028425579
 21
-246.2226742191
 31
-3.8697496393
  0
LINE
  5
1A5
100
AcDbEntity
  8
L1_120
  6
CONTINUOUS
 62
         7
100
AcDbLine
 10
1418.7028425579
 20
-202.3297926673
 30
3.8697496393
 11
1417.7028425579
 21
-202.3297926673
 31
3.8697496393
  0
CIRCLE
  5
1A6
100
AcDbEntity
  8
L1_120
  6
CONTINUOUS
 62
         7
100
AcDbCircle
 10
1395.2508425579
 20
-220.8689735113
 30
38.9451592314
 40
5.0
210
0.0
220
-0.1736481776669303
230
0.9848077530122081
  0
CIRCLE
  5
1A7
100
AcDbEntity
  8
L1_120
  6
CONTINUOUS
 62
         7
100
AcDbCircle
 10
1395.2508425579
 20
-207.6650858079
 30
38.9451592314
 40
1.875
210
0.0
220
-0.1736481776669303
230
0.9848077530122081
  0
CIRCLE
  5
1A8
100
AcDbEntity
  8
L1_120
  6
CONTINUOUS
 62
         7
100
AcDbCircle
 10
1395.2508425579
 20
-234.0728612146
 30
38.9451592314
 40
1.875
210
0.0
220
-0.1736481776669303
230
0.9848077530122081
  0
LINE
  5
1A9
100
AcDbEntity
  8
L1_120
  6
CENTER
 62
         1
100
AcDbLine
 10
1384.1508425579
 20
-202.3888811325
 30
3.8593307486
 11
1384.1508425579
 21
-246.1635857539
 31
-3.8593307486
  0
LINE
  5
1AA
100
AcDbEntity
  8
L1_120
  6
CONTINUOUS
 62
         7
100
AcDbLine
 10
1387.3508425579
 20
-193.9687748443
 30
5.3440226677
 11
1387.3508425579
 21
-254.5836920422
 31
-5.3440226677
  0
LINE
  5
1AB
100
AcDbEntity
  8
L1_120
  6
CENTER
 62
         1
100
AcDbLine
 10
1490.6054833089
 20
-224.2762334432
 30
0.0
 11
1403.2508425579
 21
-224.2762334432
 31
0.0
  0
DIMENSION
  5
1AF
100
AcDbEntity
  8
L1_120
  6
CONTINUOUS
 62
         4
100
AcDbDimension
  2
*D0
 10
1484.8847699505
 20
-230.2212952312
 30
-40.5942258829
 11
1474.8598910958
 21
-244.3578971881
 31
-43.0868902235
 70
         2
  3
DIMSTYLE1
100
AcDb2LineAngularDimension
 13
1485.7508425579
 23
-206.1444681992
 33
-36.3488316673
 14
1485.7508425579
 24
-228.8824868283
 34
-40.3581578395
 15
1475.4301551535
 25
-234.563075556
 35
-41.3597988985
 16
1476.0108454298
 26
-237.9108087625
 36
-40.3581578395
  0
LINE
  5
1BD
100
AcDbEntity
  8
L1_120
  6
CONTINUOUS
 62
         7
100
AcDbLine
 10
1484.8847699505
 20
-211.5684157257
 30
2.2407311295
 11
1475.4301551535
 21
-207.226635401
 31
3.0063041451
  0
LINE
  5
1BE
100
AcDbEntity
  8
L1_120
  6
CONTINUOUS
 62
         7
100
AcDbLine
 10
1475.4301551535
 20
-241.3258314855
 30
-3.0063041451
 11
1484.8847699505
 21
-236.9840511607
 31
-2.2407311295
  0
LINE
  5
1BF
100
AcDbEntity
  8
L1_120
  6
CONTINUOUS
 62
         7
100
AcDbLine
 10
1485.7508425579
 20
-235.6452427578
 30
-2.0046630861
 11
1485.7508425579
 21
-212.9072241287
 31
2.0046630861
  0
ARC
  5
1C0
100
AcDbEntity
  8
L1_120
  6
CONTINUOUS
 62
         7
100
AcDbCircle
 10
1474.58491863
 20
-205.3689735113
 30
38.9451592314
 40
2.0
210
0.0
220
-0.1736481776669303
230
0.9848077530122081
100
AcDbArc
 50
65.0
 51
90.0
  0
ARC
  5
1C1
100
AcDbEntity
  8
L1_120
  6
CONTINUOUS
 62
         7
100
AcDbCircle
 10
1474.58491863
 20
-236.3689735113
 30
38.9451592314
 40
2.0
210
0.0
220
-0.1736481776669303
230
0.9848077530122081
100
AcDbArc
 50
270.0
 51
295.0
  0
ARC
  5
1C2
100
AcDbEntity
  8
L1_120
  6
CONTINUOUS
 62
         7
100
AcDbCircle
 10
1484.2508425579
 20
-209.3245789025
 30
38.9451592314
 40
1.5
210
0.0
220
-0.1736481776669303
230
0.9848077530122081
100
AcDbArc
 50
0.0
 51
65.0
  0
ARC
  5
1C3
100
AcDbEntity
  8
L1_120
  6
CONTINUOUS
 62
         7
100
AcDbCircle
 10
1484.2508425579
 20
-232.41336812
 30
38.9451592314
 40
1.5
210
0.0
220
-0.1736481776669303
230
0.9848077530122081
100
AcDbArc
 50
295.0
 51
360.0
  0
LINE
  5
1C4
100
AcDbEntity
  8
L1_120
  6
CONTINUOUS
 62
         4
100
AcDbLine
 10
1475.0283079553
 20
-241.4613574744
 30
-3.0302010335
 11
1475.0283079553
 21
-207.091109412
 31
3.0302010335
  0
LINE
  5
1C5
100
AcDbEntity
  8
L1_120
  6
CONTINUOUS
 62
         7
100
AcDbLine
 10
1474.58491863
 20
-207.0420977655
 30
3.0388431092
 11
1420.0028425579
 21
-207.0420977655
 31
3.0388431092
  0
LINE
  5
1C6
100
AcDbEntity
  8
L1_120
  6
CONTINUOUS
 62
         7
100
AcDbLine
 10
1474.58491863
 20
-241.5103691209
 30
-3.0388431092
 11
1420.0028425579
 21
-241.5103691209
 31
-3.0388431092
  0
ARC
  5
1C7
100
AcDbEntity
  8
L1_120
  6
CONTINUOUS
 62
         7
100
AcDbCircle
 10
1420.0028425579
 20
-239.1689735113
 30
38.9451592314
 40
0.8
210
0.0
220
-0.1736481776669303
230
0.9848077530122081
100
AcDbArc
 50
90.0
 51
180.0
  0
ARC
  5
1C8
100
AcDbEntity
  8
L1_120
  6
CONTINUOUS
 62
         7
100
AcDbCircle
 10
1420.0028425579
 20
-202.5689735113
 30
38.9451592314
 40
0.8
210
0.0
220
-0.1736481776669303
230
0.9848077530122081
100
AcDbArc
 50
180.0
 51
270.0
  0
LINE
  5
1C9
100
AcDbEntity
  8
L1_120
  6
CENTER
 62
         1
100
AcDbLine
 10
1395.3008425579
 20
-257.5574584481
 30
-5.8683779194
 11
1395.3008425579
 21
-190.4751369164
 31
5.9600452952
  0
TEXT
  5
1CB
100
AcDbEntity
  8
L1_120
  6
CONTINUOUS
 62
         2
100
AcDbText
 10
1527.0554630543
 20
-158.1952586237
 30
0.0
 40
4.5
  1
522050
 41
0.98
  7
BOX
100
AcDbText
  0
DIMENSION
  5
1CF
100
AcDbEntity
  8
L1_120
  6
CONTINUOUS
 62
         4
100
AcDbDimension
  2
*D1
 10
1384.1508425579
 20
-174.1256081248
 30
-30.7030427447
 11
1428.6446308548
 21
-174.7867763007
 31
0.0
210
0.0
220
-0.1736481776669303
230
0.9848077530122081
  3
DIMSTYLE2
100
AcDbAlignedDimension
 13
1384.1508425579
 23
-195.626125203
 33
-34.4941640047
 14
1485.7508425579
 24
-217.5134775137
 34
-38.3534947534
100
AcDbRotatedDimension
  0
DIMENSION
  5
1DD
100
AcDbEntity
  8
L1_120
  6
CONTINUOUS
 62
         4
100
AcDbDimension
  2
*D2
 10
1315.9008425579
 20
-160.9267239489
 30
-28.3757233492
 11
1388.1905477989
 21
-161.3842780613
 31
0.0
210
0.0
220
-0.1736481776669303
230
0.9848077530122081
  3
DIMSTYLE2
100
AcDbAlignedDimension
 13
1315.9008425579
 23
-206.4499682606
 33
-36.4026995708
 14
1485.7508425579
 24
-217.5134775137
 34
-38.3534947534
100
AcDbRotatedDimension
  0
DIMENSION
  5
1EB
100
AcDbEntity
  8
L1_120
  6
CONTINUOUS
 62
         4
100
AcDbDimension
  2
*D3
 10
1501.1468476951
 20
-205.2033806011
 30
-36.1828925326
 11
1499.1218476951
 21
-229.6583154842
 31
0.0
210
0.0
220
-0.1736481776669303
230
0.9848077530122081
  3
DIMSTYLE2
100
AcDbAlignedDimension
 13
1485.7508425579
 23
-205.2033806011
 33
-36.1828925326
 14
1485.7508425579
 24
-229.8235744264
 34
-40.5240969742
 50
90.0
100
AcDbRotatedDimension
  0
DIMENSION
  5
1F9
100
AcDbEntity
  8
L1_120
  6
CONTINUOUS
 62
         4
100
AcDbDimension
  2
*D4
 10
1512.8826344237
 20
-200.279341836
 30
-35.3146516442
 11
1509.7506344237
 21
-226.0144052978
 31
0.0
210
0.0
220
-0.1736481776669303
230
0.9848077530122081
  3
DIMSTYLE2
100
AcDbAlignedDimension
 13
1474.58491863
 23
-200.279341836
 33
-35.3146516442
 14
1474.58491863
 24
-234.7476131914
 34
-41.3923378626
 50
90.0
100
AcDbRotatedDimension
  0
LINE
  5
205
100
AcDbEntity
  8
L1_120
  6
CONTINUOUS
 62
         7
100
AcDbLine
 10
1402.7508425579
 20
-306.8763556538
 30
5.5176708454
 11
1403.2508425579
 21
-307.3687595303
 31
5.4308467565
  0
LINE
  5
206
100
AcDbEntity
  8
L1_120
  6
CONTINUOUS
 62
         7
100
AcDbLine
 10
1387.3508425579
 20
-307.3687595303
 30
5.4308467565
 11
1387.8508425579
 21
-306.8763556538
 31
5.5176708454
  0
LINE
  5
207
100
AcDbEntity
  8
L1_120
  6
CONTINUOUS
 62
         7
100
AcDbLine
 10
1387.3508425579
 20
-368.9684844812
 30
-5.4308467565
 11
1387.8508425579
 21
-369.4608883577
 31
-5.5176708454
  0
LINE
  5
208
100
AcDbEntity
  8
L1_120
  6
CONTINUOUS
 62
         7
100
AcDbLine
 10
1403.2508425579
 20
-368.9684844812
 30
-5.4308467565
 11
1402.7508425579
 21
-369.4608883577
 31
-5.5176708454
  0
LINE
  5
209
100
AcDbEntity
  8
L1_120
  6
CONTINUOUS
 62
         7
100
AcDbLine
 10
1387.8508425579
 20
-306.8763556538
 30
5.5176708454
 11
1389.3508425579
 21
-306.8763556538
 31
5.5176708454
  0
LINE
  5
20A
100
AcDbEntity
  8
L1_120
  6
CONTINUOUS
 62
         7
100
AcDbLine
 10
1387.3508425579
 20
-307.3687595303
 30
5.4308467565
 11
1387.3508425579
 21
-308.8459711598
 31
5.17037449
  0
LINE
  5
20B
100
AcDbEntity
  8
L1_120
  6
CONTINUOUS
 62
         7
100
AcDbLine
 10
1401.2508425579
 20
-306.8763556538
 30
5.5176708454
 11
1402.7508425579
 21
-306.8763556538
 31
5.5176708454
  0
LINE
  5
20C
100
AcDbEntity
  8
L1_120
  6
CONTINUOUS
 62
         7
100
AcDbLine
 10
1387.8508425579
 20
-369.4608883577
 30
-5.5176708454
 11
1389.3508425579
 21
-369.4608883577
 31
-5.5176708454
  0
LINE
  5
20D
100
AcDbEntity
  8
L1_120
  6
CONTINUOUS
 62
         7
100
AcDbLine
 10
1401.2508425579
 20
-369.4608883577
 30
-5.5176708454
 11
1402.7508425579
 21
-369.4608883577
 31
-5.5176708454
  0
LINE
  5
20E
100
AcDbEntity
  8
L1_120
  6
CONTINUOUS
 62
         7
100
AcDbLine
 10
1403.2508425579
 20
-307.3687595303
 30
5.4308467565
 11
1403.2508425579
 21
-308.8459711598
 31
5.17037449
  0
LINE
  5
20F
100
AcDbEntity
  8
L1_120
  6
CONTINUOUS
 62
         7
100
AcDbLine
 10
1387.3508425579
 20
-367.4912728517
 30
-5.17037449
 11
1387.3508425579
 21
-368.9684844812
 31
-5.4308467565
  0
LINE
  5
210
100
AcDbEntity
  8
L1_120
  6
CONTINUOUS
 62
         7
100
AcDbLine
 10
1403.2508425579
 20
-367.4912728517
 30
-5.17037449
 11
1403.2508425579
 21
-368.9684844812
 31
-5.4308467565
  0
LINE
  5
211
100
AcDbEntity
  8
L1_120
  6
CONTINUOUS
 62
         7
100
AcDbLine
 10
1403.2508425579
 20
-360.6074666582
 30
-3.9565737281
 11
1403.2508425579
 21
-368.4760806049
 31
-5.3440226677
  0
LINE
  5
212
100
AcDbEntity
  8
L1_120
  6
CONTINUOUS
 62
         7
100
AcDbLine
 10
1403.2508425579
 20
-307.8611634066
 30
5.3440226677
 11
1403.2508425579
 21
-315.7297773534
 31
3.9565737281
  0
LINE
  5
213
100
AcDbEntity
  8
L1_120
  6
CONTINUOUS
 62
         7
100
AcDbLine
 10
1403.7508425579
 20
-316.2221812299
 30
3.8697496393
 11
1418.4028425579
 21
-316.2221812299
 31
3.8697496393
  0
LINE
  5
214
100
AcDbEntity
  8
L1_120
  6
CONTINUOUS
 62
         7
100
AcDbLine
 10
1403.7508425579
 20
-360.1150627816
 30
-3.8697496393
 11
1418.4028425579
 21
-360.1150627816
 31
-3.8697496393
  0
ARC
  5
215
100
AcDbEntity
  8
L1_120
  6
CONTINUOUS
 62
         7
100
AcDbCircle
 10
1403.7508425579
 20
-310.2460807767
 30
58.7223649554
 40
0.5
210
0.0
220
-0.1736481776669303
230
0.9848077530122081
100
AcDbArc
 50
180.0
 51
270.0
  0
LINE
  5
216
100
AcDbEntity
  8
L1_120
  6
CONTINUOUS
 62
         7
100
AcDbLine
 10
1398.7871129567
 20
-369.4608883579
 30
-5.5176708454
 11
1402.2508425579
 21
-369.4608883579
 31
-5.5176708454
  0
LINE
  5
217
100
AcDbEntity
  8
L1_120
  6
CONTINUOUS
 62
         7
100
AcDbLine
 10
1397.1258425579
 20
-366.6271978654
 30
-5.0180147566
 11
1398.7871129567
 21
-369.4608883577
 31
-5.5176708454
  0
ARC
  5
218
100
AcDbEntity
  8
L1_120
  6
CONTINUOUS
 62
         7
100
AcDbCircle
 10
1396.1520422261
 20
-362.1560807769
 30
58.7223649554
 40
1.0
210
0.0
220
-0.1736481776669303
230
0.9848077530122081
100
AcDbArc
 50
13.1443256895
 51
90.0
  0
LINE
  5
219
100
AcDbEntity
  8
L1_120
  6
CONTINUOUS
 62
         7
100
AcDbLine
 10
1394.3496428896
 20
-365.8663400592
 30
-4.8838549969
 11
1396.1520422261
 21
-365.8663400592
 31
-4.8838549969
  0
ARC
  5
21A
100
AcDbEntity
  8
L1_120
  6
CONTINUOUS
 62
         7
100
AcDbCircle
 10
1394.3496428896
 20
-362.1560807767
 30
58.7223649554
 40
1.0
210
0.0
220
-0.1736481776669303
230
0.9848077530122081
100
AcDbArc
 50
90.0
 51
166.8556743105
  0
LINE
  5
21B
100
AcDbEntity
  8
L1_120
  6
CONTINUOUS
 62
         7
100
AcDbLine
 10
1393.3758425579
 20
-366.6271978654
 30
-5.0180147566
 11
1391.7145721591
 21
-369.4608883577
 31
-5.5176708454
  0
LINE
  5
21C
100
AcDbEntity
  8
L1_120
  6
CONTINUOUS
 62
         7
100
AcDbLine
 10
1388.3508425579
 20
-369.4608883579
 30
-5.5176708454
 11
1391.7145721591
 21
-369.4608883579
 31
-5.5176708454
  0
LINE
  5
21D
100
AcDbEntity
  8
L1_120
  6
CONTINUOUS
 62
         7
100
AcDbLine
 10
1388.3508425579
 20
-306.8763556536
 30
5.5176708454
 11
1391.7145721591
 21
-306.8763556536
 31
5.5176708454
  0
LINE
  5
21E
100
AcDbEntity
  8
L1_120
  6
CONTINUOUS
 62
         7
100
AcDbLine
 10
1393.3758425579
 20
-309.7100461462
 30
5.0180147566
 11
1391.7145721591
 21
-306.8763556538
 31
5.5176708454
  0
ARC
  5
21F
100
AcDbEntity
  8
L1_120
  6
CONTINUOUS
 62
         7
100
AcDbCircle
 10
1394.3496428896
 20
-303.9060807766
 30
58.7223649554
 40
1.0
210
0.0
220
-0.1736481776669303
230
0.9848077530122081
100
AcDbArc
 50
193.1443256895
 51
270.0
  0
LINE
  5
220
100
AcDbEntity
  8
L1_120
  6
CONTINUOUS
 62
         7
100
AcDbLine
 10
1394.3496428896
 20
-310.4709039521
 30
4.8838549969
 11
1396.1520422261
 21
-310.4709039521
 31
4.8838549969
  0
ARC
  5
221
100
AcDbEntity
  8
L1_120
  6
CONTINUOUS
 62
         7
100
AcDbCircle
 10
1396.1520422261
 20
-303.9060807766
 30
58.7223649554
 40
1.0
210
0.0
220
-0.1736481776669303
230
0.9848077530122081
100
AcDbArc
 50
270.0
 51
346.8556743105
  0
LINE
  5
222
100
AcDbEntity
  8
L1_120
  6
CONTINUOUS
 62
         7
100
AcDbLine
 10
1397.1258425579
 20
-309.710046146
 30
5.0180147566
 11
1398.7871129567
 21
-306.8763556536
 31
5.5176708454
  0
LINE
  5
223
100
AcDbEntity
  8
L1_120
  6
CONTINUOUS
 62
         7
100
AcDbLine
 10
1398.7871129567
 20
-306.8763556536
 30
5.5176708454
 11
1402.2508425579
 21
-306.8763556536
 31
5.5176708454
  0
LINE
  5
224
100
AcDbEntity
  8
L1_120
  6
CONTINUOUS
 62
         7
100
AcDbLine
 10
1419.2028425579
 20
-316.7145851064
 30
3.7829255505
 11
1419.2028425579
 21
-320.1466401257
 31
3.1777616513
  0
LINE
  5
225
100
AcDbEntity
  8
L1_120
  6
CONTINUOUS
 62
         7
100
AcDbLine
 10
1419.2028425579
 20
-356.1906038859
 30
-3.1777616513
 11
1419.2028425579
 21
-359.6226589051
 31
-3.7829255505
  0
LINE
  5
226
100
AcDbEntity
  8
L1_120
  6
CONTINUOUS
 62
         7
100
AcDbLine
 10
1418.7028425579
 20
-360.1150627816
 30
-3.8697496393
 11
1417.7028425579
 21
-360.1150627816
 31
-3.8697496393
  0
LINE
  5
227
100
AcDbEntity
  8
L1_120
  6
CONTINUOUS
 62
         7
100
AcDbLine
 10
1418.7028425579
 20
-316.2221812299
 30
3.8697496393
 11
1417.7028425579
 21
-316.2221812299
 31
3.8697496393
  0
LINE
  5
228
100
AcDbEntity
  8
L1_120
  6
CONTINUOUS
 62
         7
100
AcDbLine
 10
1419.2028425579
 20
-359.6226589051
 30
-3.7829255505
 11
1418.7028425579
 21
-360.1150627816
 31
-3.8697496393
  0
LINE
  5
229
100
AcDbEntity
  8
L1_120
  6
CONTINUOUS
 62
         7
100
AcDbLine
 10
1418.7028425579
 20
-316.2221812299
 30
3.8697496393
 11
1419.2028425579
 21
-316.7145851064
 31
3.7829255505
  0
LINE
  5
22A
100
AcDbEntity
  8
L1_120
  6
CONTINUOUS
 62
         7
100
AcDbLine
 10
1389.4443965506
 20
-311.0387876468
 30
4.7837217796
 11
1418.7904899055
 21
-331.2749677347
 31
1.2155372437
  0
LINE
  5
22B
100
AcDbEntity
  8
L1_120
  6
CONTINUOUS
 62
         7
100
AcDbLine
 10
1387.5515943106
 20
-313.7009216844
 30
4.3143157225
 11
1413.0371154799
 21
-331.2749677347
 31
1.2155372437
  0
LINE
  5
22C
100
AcDbEntity
  8
L1_120
  6
CENTER
 62
         1
100
AcDbLine
 10
1386.6402119025
 20
-311.0887832268
 30
4.77490621
 11
1415.9138026927
 21
-331.2749677347
 31
1.2155372437
  0
LINE
  5
22D
100
AcDbEntity
  8
L1_120
  6
CONTINUOUS
 62
         7
100
AcDbLine
 10
1387.3508425579
 20
-309.1142447011
 30
5.1230706265
 11
1389.6738271251
 21
-310.7161047332
 31
4.8406194835
  0
LINE
  5
22E
100
AcDbEntity
  8
L1_120
  6
CONTINUOUS
 62
         4
100
AcDbLine
 10
1389.6451483033
 20
-310.7564400974
 30
4.8335072705
 11
1393.7409085247
 21
-313.5807527047
 31
4.3355047559
  0
LINE
  5
22F
100
AcDbEntity
  8
L1_120
  6
CONTINUOUS
 62
         7
100
AcDbLine
 10
1391.4466027793
 20
-316.8075818411
 30
3.766527717
 11
1393.7409085247
 21
-313.5807527047
 31
4.3355047559
  0
LINE
  5
230
100
AcDbEntity
  8
L1_120
  6
CONTINUOUS
 62
         4
100
AcDbLine
 10
1387.3508425579
 20
-313.9832692338
 30
4.2645302316
 11
1391.4466027793
 21
-316.8075818411
 31
3.766527717
  0
LINE
  5
231
100
AcDbEntity
  8
L1_120
  6
CONTINUOUS
 62
         7
100
AcDbLine
 10
1387.3508425579
 20
-313.9832692338
 30
4.2645302316
 11
1389.6738271251
 21
-310.7161047332
 31
4.8406194835
  0
LINE
  5
232
100
AcDbEntity
  8
L1_120
  6
CONTINUOUS
 62
         7
100
AcDbLine
 10
1456.3378425579
 20
-355.4027576835
 30
-3.0388431092
 11
1458.3988425579
 21
-353.3730689045
 31
-2.680954215
  0
LINE
  5
233
100
AcDbEntity
  8
L1_120
  6
CONTINUOUS
 62
         7
100
AcDbLine
 10
1470.4598425579
 20
-355.4027576835
 30
-3.0388431092
 11
1468.3988425579
 21
-353.3730689045
 31
-2.680954215
  0
LINE
  5
234
100
AcDbEntity
  8
L1_120
  6
CENTER
 62
         1
100
AcDbLine
 10
1490.6054833089
 20
-338.1686220058
 30
0.0
 11
1403.2508425579
 21
-338.1686220058
 31
0.0
  0
LINE
  5
235
100
AcDbEntity
  8
L1_120
  6
CONTINUOUS
 62
         7
100
AcDbLine
 10
1468.3988425579
 20
-353.3730689045
 30
-2.680954215
 11
1468.3988425579
 21
-344.4221512374
 31
-1.1026659282
  0
LINE
  5
236
100
AcDbEntity
  8
L1_120
  6
CONTINUOUS
 62
         7
100
AcDbLine
 10
1458.3988425579
 20
-353.3730689045
 30
-2.680954215
 11
1458.3988425579
 21
-344.4221512374
 31
-1.1026659282
  0
LINE
  5
237
100
AcDbEntity
  8
L1_120
  6
CENTER
 62
         1
100
AcDbLine
 10
1463.3988425579
 20
-357.8249023569
 30
-3.4659325663
 11
1463.3988425579
 21
-342.3180726308
 31
-0.7316601003
  0
LINE
  5
238
100
AcDbEntity
  8
L1_120
  6
CONTINUOUS
 62
         4
100
AcDbLine
 10
1457.8488425579
 20
-353.9147131687
 30
-2.7764607127
 11
1457.8488425579
 21
-344.4221512374
 31
-1.1026659282
  0
LINE
  5
239
100
AcDbEntity
  8
L1_120
  6
CONTINUOUS
 62
         4
100
AcDbLine
 10
1468.9488425579
 20
-344.4221512374
 30
-1.1026659282
 11
1468.9488425579
 21
-353.9147131687
 31
-2.7764607127
  0
LINE
  5
23A
100
AcDbEntity
  8
L1_120
  6
CONTINUOUS
 62
         7
100
AcDbLine
 10
1468.3988425579
 20
-353.3730689045
 30
-2.680954215
 11
1458.3988425579
 21
-353.3730689045
 31
-2.680954215
  0
ARC
  5
23B
100
AcDbEntity
  8
L1_120
  6
CONTINUOUS
 62
         7
100
AcDbCircle
 10
1463.3988425579
 20
-309.5810807767
 30
58.7223649554
 40
10.0
210
0.0
220
-0.1736481776669303
230
0.9848077530122081
100
AcDbArc
 50
216.5126320992
 51
323.4873679008
  0
LINE
  5
23C
100
AcDbEntity
  8
L1_120
  6
CONTINUOUS
 62
         7
100
AcDbLine
 10
1484.2508425579
 20
-331.9150927741
 30
1.1026659282
 11
1480.5008425579
 21
-331.9150927741
 31
1.1026659282
  0
ARC
  5
23D
100
AcDbEntity
  8
L1_120
  6
CONTINUOUS
 62
         7
100
AcDbCircle
 10
1484.2508425579
 20
-325.1810807767
 30
58.7223649554
 40
1.5
210
0.0
220
-0.1736481776669303
230
0.9848077530122081
100
AcDbArc
 50
270.0
 51
285.022059707
  0
ARC
  5
23E
100
AcDbEntity
  8
L1_120
  6
CONTINUOUS
 62
         7
100
AcDbCircle
 10
1484.2508425579
 20
-325.1810807767
 30
58.7223649554
 40
1.5
210
0.0
220
-0.1736481776669303
230
0.9848077530122081
100
AcDbArc
 50
314.9779402929
 51
360.0
  0
LINE
  5
23F
100
AcDbEntity
  8
L1_120
  6
CONTINUOUS
 62
         7
100
AcDbLine
 10
1484.6396289399
 20
-331.8646106999
 30
1.1115672799
 11
1485.3110942815
 21
-331.4828295932
 31
1.1788855898
  0
ARC
  5
240
100
AcDbEntity
  8
L1_120
  6
CONTINUOUS
 62
         7
100
AcDbCircle
 10
1484.2508425579
 20
-340.8810807767
 30
58.7223649554
 40
1.5
210
0.0
220
-0.1736481776669303
230
0.9848077530122081
100
AcDbArc
 50
74.977940293
 51
90.0
  0
ARC
  5
241
100
AcDbEntity
  8
L1_120
  6
CONTINUOUS
 62
         7
100
AcDbCircle
 10
1484.2508425579
 20
-340.8810807767
 30
58.7223649554
 40
1.5
210
0.0
220
-0.1736481776669303
230
0.9848077530122081
100
AcDbArc
 50
0.0
 51
45.022059707
  0
LINE
  5
242
100
AcDbEntity
  8
L1_120
  6
CONTINUOUS
 62
         7
100
AcDbLine
 10
1484.6396289399
 20
-344.4726333116
 30
-1.1115672799
 11
1485.3110942815
 21
-344.8544144184
 31
-1.1788855898
  0
LINE
  5
243
100
AcDbEntity
  8
L1_120
  6
CONTINUOUS
 62
         7
100
AcDbLine
 10
1440.7508425579
 20
-344.4221512374
 30
-1.1026659282
 11
1477.3008425579
 21
-344.4221512374
 31
-1.1026659282
  0
LINE
  5
244
100
AcDbEntity
  8
L1_120
  6
CONTINUOUS
 62
         7
100
AcDbLine
 10
1386.5508425579
 20
-360.2283156732
 30
-3.8897191797
 11
1385.3508425579
 21
-360.2283156732
 31
-3.8897191797
  0
ARC
  5
245
100
AcDbEntity
  8
L1_120
  6
CONTINUOUS
 62
         7
100
AcDbCircle
 10
1386.5508425579
 20
-356.2310807767
 30
58.7223649554
 40
0.8
210
0.0
220
-0.1736481776669303
230
0.9848077530122081
100
AcDbArc
 50
0.0
 51
90.0000000001
  0
LINE
  5
246
100
AcDbEntity
  8
L1_120
  6
CONTINUOUS
 62
         7
100
AcDbLine
 10
1387.3508425579
 20
-368.4760806049
 30
-5.3440226677
 11
1387.3508425579
 21
-361.0161618757
 31
-4.0286377219
  0
LINE
  5
247
100
AcDbEntity
  8
L1_120
  6
CONTINUOUS
 62
         7
100
AcDbLine
 10
1386.5508425579
 20
-316.1089283383
 30
3.8897191797
 11
1385.3508425579
 21
-316.1089283383
 31
3.8897191797
  0
ARC
  5
248
100
AcDbEntity
  8
L1_120
  6
CONTINUOUS
 62
         7
100
AcDbCircle
 10
1386.5508425579
 20
-309.8310807767
 30
58.7223649554
 40
0.8
210
0.0
220
-0.1736481776669303
230
0.9848077530122081
100
AcDbArc
 50
269.9999999999
 51
360.0
  0
LINE
  5
249
100
AcDbEntity
  8
L1_120
  6
CONTINUOUS
 62
         7
100
AcDbLine
 10
1387.3508425579
 20
-315.3210821359
 30
4.0286377219
 11
1387.3508425579
 21
-307.8611634068
 31
5.3440226677
  0
LINE
  5
24A
100
AcDbEntity
  8
L1_120
  6
CONTINUOUS
 62
         4
100
AcDbLine
 10
1440.7508425579
 20
-337.430016191
 30
0.1302361333
 11
1477.3008425579
 21
-337.430016191
 31
0.1302361333
  0
LINE
  5
24B
100
AcDbEntity
  8
L1_120
  6
CONTINUOUS
 62
         4
100
AcDbLine
 10
1440.7508425579
 20
-338.9072278205
 30
-0.1302361333
 11
1477.3008425579
 21
-338.9072278205
 31
-0.1302361333
  0
LINE
  5
24C
100
AcDbEntity
  8
L1_120
  6
CONTINUOUS
 62
         4
100
AcDbLine
 10
1480.5008425579
 20
-338.9072278205
 30
-0.1302361333
 11
1485.7508425579
 21
-338.9072278205
 31
-0.1302361333
  0
LINE
  5
24D
100
AcDbEntity
  8
L1_120
  6
CONTINUOUS
 62
         4
100
AcDbLine
 10
1480.5008425579
 20
-337.430016191
 30
0.1302361333
 11
1485.7508425579
 21
-337.430016191
 31
0.1302361333
  0
ARC
  5
24E
100
AcDbEntity
  8
L1_120
  6
CONTINUOUS
 62
         7
100
AcDbCircle
 10
1477.7008425579
 20
-341.2710807767
 30
58.7223649554
 40
0.4
210
0.0
220
-0.1736481776669303
230
0.9848077530122081
100
AcDbArc
 50
180.0
 51
270.0
  0
ARC
  5
24F
100
AcDbEntity
  8
L1_120
  6
CONTINUOUS
 62
         7
100
AcDbCircle
 10
1480.1008425579
 20
-341.2710807767
 30
58.7223649554
 40
0.4
210
0.0
220
-0.1736481776669303
230
0.9848077530122081
100
AcDbArc
 50
270.0
 51
360.0
  0
ARC
  5
250
100
AcDbEntity
  8
L1_120
  6
CONTINUOUS
 62
         7
100
AcDbCircle
 10
1480.1008425579
 20
-324.7910807767
 30
58.7223649554
 40
0.4
210
0.0
220
-0.1736481776669303
230
0.9848077530122081
100
AcDbArc
 50
0.0
 51
90.0
  0
ARC
  5
251
100
AcDbEntity
  8
L1_120
  6
CONTINUOUS
 62
         7
100
AcDbCircle
 10
1477.7008425579
 20
-324.7910807767
 30
58.7223649554
 40
0.4
210
0.0
220
-0.1736481776669303
230
0.9848077530122081
100
AcDbArc
 50
90.0
 51
180.0
  0
LINE
  5
252
100
AcDbEntity
  8
L1_120
  6
CONTINUOUS
 62
         7
100
AcDbLine
 10
1477.7008425579
 20
-346.6773609918
 30
-1.500320255
 11
1480.1008425579
 21
-346.6773609918
 31
-1.500320255
  0
LINE
  5
253
100
AcDbEntity
  8
L1_120
  6
CONTINUOUS
 62
         7
100
AcDbLine
 10
1477.7008425579
 20
-329.6598830197
 30
1.500320255
 11
1480.1008425579
 21
-329.6598830197
 31
1.500320255
  0
LINE
  5
254
100
AcDbEntity
  8
L1_120
  6
CONTINUOUS
 62
         7
100
AcDbLine
 10
1477.3008425579
 20
-330.053806121
 30
1.430860984
 11
1477.3008425579
 21
-346.2834378906
 31
-1.430860984
  0
LINE
  5
255
100
AcDbEntity
  8
L1_120
  6
CONTINUOUS
 62
         7
100
AcDbLine
 10
1480.5008425579
 20
-330.053806121
 30
1.430860984
 11
1480.5008425579
 21
-346.2834378906
 31
-1.430860984
  0
LINE
  5
256
100
AcDbEntity
  8
L1_120
  6
CONTINUOUS
 62
         7
100
AcDbLine
 10
1477.3008425579
 20
-331.9150927741
 30
1.1026659282
 11
1440.7508425579
 21
-331.9150927741
 31
1.1026659282
  0
LINE
  5
257
100
AcDbEntity
  8
L1_120
  6
CONTINUOUS
 62
         7
100
AcDbLine
 10
1480.5008425579
 20
-344.4221512374
 30
-1.1026659282
 11
1484.2508425579
 21
-344.4221512374
 31
-1.1026659282
  0
LINE
  5
258
100
AcDbEntity
  8
L1_120
  6
CONTINUOUS
 62
         7
100
AcDbLine
 10
1484.8847699505
 20
-325.4608042883
 30
2.2407311295
 11
1475.4301551535
 21
-321.1190239635
 31
3.0063041451
  0
LINE
  5
259
100
AcDbEntity
  8
L1_120
  6
CONTINUOUS
 62
         7
100
AcDbLine
 10
1475.4301551535
 20
-355.218220048
 30
-3.0063041451
 11
1484.8847699505
 21
-350.8764397233
 31
-2.2407311295
  0
LINE
  5
25A
100
AcDbEntity
  8
L1_120
  6
CONTINUOUS
 62
         7
100
AcDbLine
 10
1485.7508425579
 20
-349.5376313203
 30
-2.0046630861
 11
1485.7508425579
 21
-326.7996126912
 31
2.0046630861
  0
ARC
  5
25B
100
AcDbEntity
  8
L1_120
  6
CONTINUOUS
 62
         7
100
AcDbCircle
 10
1474.58491863
 20
-317.5310807767
 30
58.7223649554
 40
2.0
210
0.0
220
-0.1736481776669303
230
0.9848077530122081
100
AcDbArc
 50
65.0
 51
90.0
  0
ARC
  5
25C
100
AcDbEntity
  8
L1_120
  6
CONTINUOUS
 62
         7
100
AcDbCircle
 10
1474.58491863
 20
-348.5310807767
 30
58.7223649554
 40
2.0
210
0.0
220
-0.1736481776669303
230
0.9848077530122081
100
AcDbArc
 50
270.0
 51
295.0
  0
ARC
  5
25D
100
AcDbEntity
  8
L1_120
  6
CONTINUOUS
 62
         7
100
AcDbCircle
 10
1484.2508425579
 20
-321.4866861679
 30
58.7223649554
 40
1.5
210
0.0
220
-0.1736481776669303
230
0.9848077530122081
100
AcDbArc
 50
0.0
 51
65.0
  0
ARC
  5
25E
100
AcDbEntity
  8
L1_120
  6
CONTINUOUS
 62
         7
100
AcDbCircle
 10
1484.2508425579
 20
-344.5754753855
 30
58.7223649554
 40
1.5
210
0.0
220
-0.1736481776669303
230
0.9848077530122081
100
AcDbArc
 50
295.0
 51
360.0
  0
LINE
  5
25F
100
AcDbEntity
  8
L1_120
  6
CONTINUOUS
 62
         4
100
AcDbLine
 10
1475.0283079553
 20
-355.3537460369
 30
-3.0302010335
 11
1475.0283079553
 21
-320.9834979746
 31
3.0302010335
  0
ARC
  5
260
100
AcDbEntity
  8
L1_120
  6
CONTINUOUS
 62
         7
100
AcDbCircle
 10
1420.0028425579
 20
-351.3310807767
 30
58.7223649554
 40
0.8
210
0.0
220
-0.1736481776669303
230
0.9848077530122081
100
AcDbArc
 50
90.0
 51
180.0
  0
ARC
  5
261
100
AcDbEntity
  8
L1_120
  6
CONTINUOUS
 62
         7
100
AcDbCircle
 10
1420.0028425579
 20
-314.7310807767
 30
58.7223649554
 40
0.8
210
0.0
220
-0.1736481776669303
230
0.9848077530122081
100
AcDbArc
 50
180.0
 51
270.0
  0
LINE
  5
262
100
AcDbEntity
  8
L1_120
  6
CONTINUOUS
 62
         7
100
AcDbLine
 10
1474.58491863
 20
-320.9344863281
 30
3.0388431092
 11
1420.0028425579
 21
-320.9344863281
 31
3.0388431092
  0
LINE
  5
263
100
AcDbEntity
  8
L1_120
  6
CONTINUOUS
 62
         7
100
AcDbLine
 10
1474.58491863
 20
-355.4027576835
 30
-3.0388431092
 11
1420.0028425579
 21
-355.4027576835
 31
-3.0388431092
  0
LINE
  5
264
100
AcDbEntity
  8
L1_120
  6
CONTINUOUS
 62
         7
100
AcDbLine
 10
1420.7508425579
 20
-329.9454772681
 30
1.4499622835
 11
1420.7508425579
 21
-346.3917667434
 31
-1.4499622835
  0
LINE
  5
265
100
AcDbEntity
  8
L1_120
  6
CONTINUOUS
 62
         7
100
AcDbLine
 10
1440.7508425579
 20
-346.3917667434
 30
-1.4499622835
 11
1420.7508425579
 21
-346.3917667434
 31
-1.4499622835
  0
LINE
  5
266
100
AcDbEntity
  8
L1_120
  6
CONTINUOUS
 62
         7
100
AcDbLine
 10
1440.7508425579
 20
-329.9454772681
 30
1.4499622835
 11
1420.7508425579
 21
-329.9454772681
 31
1.4499622835
  0
LINE
  5
267
100
AcDbEntity
  8
L1_120
  6
CONTINUOUS
 62
         7
100
AcDbLine
 10
1440.7508425579
 20
-329.9454772681
 30
1.4499622835
 11
1440.7508425579
 21
-346.3917667434
 31
-1.4499622835
  0
LINE
  5
268
100
AcDbEntity
  8
L1_120
  6
CONTINUOUS
 62
         7
100
AcDbLine
 10
1321.8036852703
 20
-331.1686220058
 30
0.0
 11
1420.7508425579
 21
-331.1686220058
 31
0.0
  0
LINE
  5
269
100
AcDbEntity
  8
L1_120
  6
CONTINUOUS
 62
         7
100
AcDbLine
 10
1321.8036852703
 20
-345.1686220058
 30
0.0
 11
1420.7508425579
 21
-345.1686220058
 31
0.0
  0
LINE
  5
26A
100
AcDbEntity
  8
L1_120
  6
CENTER
 62
         1
100
AcDbLine
 10
1463.3988425579
 20
-331.6104245146
 30
1.1563871625
 11
1463.3988425579
 21
-316.9540430169
 31
3.7407026601
  0
INSERT
  5
2D4
100
AcDbEntity
  8
0
  6
CONTINUOUS
100
AcDbBlockReference
  2
*X5
 10
0.0
 20
0.0
 30
0.0
  0
LINE
  5
2D5
100
AcDbEntity
  8
L1_120
  6
CENTER
 62
         1
100
AcDbLine
 10
1530.9384549766
 20
-224.2762334432
 30
0.0
 11
1584.9169119571
 21
-224.2762334432
 31
0.0
  0
LINE
  5
2D6
100
AcDbEntity
  8
L1_120
  6
CONTINUOUS
 62
         7
100
AcDbLine
 10
1527.1924606063
 20
-232.203935855
 30
-1.3978678302
 11
1531.9308425579
 21
-232.203935855
 31
-1.3978678302
  0
LINE
  5
2D7
100
AcDbEntity
  8
L1_120
  6
CONTINUOUS
 62
         7
100
AcDbLine
 10
1526.7983753251
 20
-232.5920340952
 30
-1.4663000211
 11
1527.1924606063
 21
-232.203935855
 31
-1.3978678302
  0
LINE
  5
2D8
100
AcDbEntity
  8
L1_120
  6
CONTINUOUS
 62
         7
100
AcDbLine
 10
1532.4308425579
 20
-231.7115319785
 30
-1.3110437414
 11
1531.9308425579
 21
-232.203935855
 31
-1.3978678302
  0
LINE
  5
2D9
100
AcDbEntity
  8
L1_120
  6
CONTINUOUS
 62
         7
100
AcDbLine
 10
1526.7983753251
 20
-215.9604327912
 30
1.4663000211
 11
1527.1924606063
 21
-216.3485310315
 31
1.3978678302
  0
LINE
  5
2DA
100
AcDbEntity
  8
L1_120
  6
CONTINUOUS
 62
         7
100
AcDbLine
 10
1532.4308425579
 20
-216.840934908
 30
1.3110437414
 11
1531.9308425579
 21
-216.3485310315
 31
1.3978678302
  0
LINE
  5
2DB
100
AcDbEntity
  8
L1_120
  6
CONTINUOUS
 62
         7
100
AcDbLine
 10
1532.4308425579
 20
-216.840934908
 30
1.3110437414
 11
1532.4308425579
 21
-231.7115319785
 31
-1.3110437414
  0
LINE
  5
2DC
100
AcDbEntity
  8
L1_120
  6
CONTINUOUS
 62
         7
100
AcDbLine
 10
1527.1924606063
 20
-216.3485310315
 30
1.3978678302
 11
1531.9308425579
 21
-216.3485310315
 31
1.3978678302
  0
LINE
  5
2DD
100
AcDbEntity
  8
L1_120
  6
CONTINUOUS
 62
         7
100
AcDbLine
 10
1588.0633097906
 20
-232.5920340952
 30
-1.4663000211
 11
1587.6692245094
 21
-232.203935855
 31
-1.3978678302
  0
LINE
  5
2DE
100
AcDbEntity
  8
L1_120
  6
CONTINUOUS
 62
         7
100
AcDbLine
 10
1580.2308425579
 20
-231.7115319785
 30
-1.3110437414
 11
1580.7308425579
 21
-232.203935855
 31
-1.3978678302
  0
LINE
  5
2DF
100
AcDbEntity
  8
L1_120
  6
CONTINUOUS
 62
         7
100
AcDbLine
 10
1580.7308425579
 20
-232.203935855
 30
-1.3978678302
 11
1587.6692245094
 21
-232.203935855
 31
-1.3978678302
  0
LINE
  5
2E0
100
AcDbEntity
  8
L1_120
  6
CONTINUOUS
 62
         7
100
AcDbLine
 10
1588.0633097906
 20
-215.9604327912
 30
1.4663000211
 11
1587.6692245094
 21
-216.3485310315
 31
1.3978678302
  0
LINE
  5
2E1
100
AcDbEntity
  8
L1_120
  6
CONTINUOUS
 62
         7
100
AcDbLine
 10
1580.7308425579
 20
-216.3485310315
 30
1.3978678302
 11
1587.6692245094
 21
-216.3485310315
 31
1.3978678302
  0
LINE
  5
2E2
100
AcDbEntity
  8
L1_120
  6
CONTINUOUS
 62
         7
100
AcDbLine
 10
1580.2308425579
 20
-216.840934908
 30
1.3110437414
 11
1580.7308425579
 21
-216.3485310315
 31
1.3978678302
  0
LINE
  5
2E3
100
AcDbEntity
  8
L1_120
  6
CONTINUOUS
 62
         7
100
AcDbLine
 10
1580.2308425579
 20
-216.840934908
 30
1.3110437414
 11
1580.2308425579
 21
-231.7115319785
 31
-1.3110437414
  0
ARC
  5
2E4
100
AcDbEntity
  8
L1_120
  6
DASHED
 62
         2
100
AcDbCircle
 10
1557.4308425579
 20
-220.8689735113
 30
38.9451592314
 40
28.125
210
0.0
220
-0.1736481776669303
230
0.9848077530122081
100
AcDbArc
 50
198.3406919436
 51
343.3680794645
  0
ARC
  5
2E5
100
AcDbEntity
  8
L1_120
  6
DASHED
 62
         2
100
AcDbCircle
 10
1557.4308425579
 20
-220.8689735113
 30
38.9451592314
 40
28.125
210
0.0
220
-0.1736481776669303
230
0.9848077530122081
100
AcDbArc
 50
16.6319205355
 51
163.3680794645
  0
LINE
  5
2E6
100
AcDbEntity
  8
L1_120
  6
CENTER
 62
         1
100
AcDbLine
 10
1557.4308425579
 20
-190.0295438322
 30
6.0386153784
 11
1557.4308425579
 21
-258.5229230542
 31
-6.0386153784
  0
ARC
  5
2E7
100
AcDbEntity
  8
L1_120
  6
CONTINUOUS
 62
         7
100
AcDbCircle
 10
1557.4308425579
 20
-220.8689735113
 30
38.9451592314
 40
31.775
210
0.0
220
-0.1736481776669303
230
0.9848077530122081
100
AcDbArc
 50
15.411296411
 51
164.588703589
  0
ARC
  5
2E8
100
AcDbEntity
  8
L1_120
  6
CONTINUOUS
 62
         7
100
AcDbCircle
 10
1557.4308425579
 20
-220.8689735113
 30
38.9451592314
 40
31.775
210
0.0
220
-0.1736481776669303
230
0.9848077530122081
100
AcDbArc
 50
195.411296411
 51
344.588703589
  0
CIRCLE
  5
2E9
100
AcDbEntity
  8
L1_120
  6
CONTINUOUS
 62
         7
100
AcDbCircle
 10
1557.4308425579
 20
-220.8689735113
 30
38.9451592314
 40
22.225
210
0.0
220
-0.1736481776669303
230
0.9848077530122081
  0
LINE
  5
2EA
100
AcDbEntity
  8
L1_120
  6
CENTER
 62
         1
100
AcDbLine
 10
1524.0698934993
 20
-206.8073872893
 30
3.0802288988
 11
1557.4044130876
 21
-224.2623941382
 31
0.0024402429
  0
LINE
  5
2EB
100
AcDbEntity
  8
L1_120
  6
DASHED
 62
         2
100
AcDbLine
 10
1532.4308425579
 20
-229.3972337589
 30
-0.9029705239
 11
1532.6308425579
 21
-229.2002722083
 31
-0.8682408883
  0
LINE
  5
2EC
100
AcDbEntity
  8
L1_120
  6
DASHED
 62
         2
100
AcDbLine
 10
1532.4308425579
 20
-219.1552331276
 30
0.9029705239
 11
1532.6308425579
 21
-219.3521946782
 31
0.8682408883
  0
LINE
  5
2ED
100
AcDbEntity
  8
L1_120
  6
DASHED
 62
         2
100
AcDbLine
 10
1532.6308425579
 20
-219.3521946782
 30
0.8682408883
 11
1532.6308425579
 21
-229.2002722083
 31
-0.8682408883
  0
ARC
  5
2EE
100
AcDbEntity
  8
L1_120
  6
DASHED
 62
         2
100
AcDbCircle
 10
1536.8808425579
 20
-225.6689735113
 30
38.9451592314
 40
0.2
210
0.0
220
-0.1736481776669303
230
0.9848077530122081
100
AcDbArc
 50
270.0
 51
360.0
  0
ARC
  5
2EF
100
AcDbEntity
  8
L1_120
  6
DASHED
 62
         2
100
AcDbCircle
 10
1536.8808425579
 20
-216.0689735113
 30
38.9451592314
 40
0.2
210
0.0
220
-0.1736481776669303
230
0.9848077530122081
100
AcDbArc
 50
0.0
 51
90.0
  0
LINE
  5
2F0
100
AcDbEntity
  8
L1_120
  6
DASHED
 62
         2
100
AcDbLine
 10
1537.0808425579
 20
-219.5491562288
 30
0.8335112528
 11
1537.0808425579
 21
-229.0033106577
 31
-0.8335112528
  0
LINE
  5
2F1
100
AcDbEntity
  8
L1_120
  6
DASHED
 62
         2
100
AcDbLine
 10
1532.6308425579
 20
-219.3521946782
 30
0.8682408883
 11
1536.8808425579
 21
-219.3521946782
 31
0.8682408883
  0
LINE
  5
2F2
100
AcDbEntity
  8
L1_120
  6
DASHED
 62
         2
100
AcDbLine
 10
1532.6308425579
 20
-229.2002722083
 30
-0.8682408883
 11
1536.8808425579
 21
-229.2002722083
 31
-0.8682408883
  0
LINE
  5
2F3
100
AcDbEntity
  8
L1_120
  6
CENTER
 62
         1
100
AcDbLine
 10
1524.0698934993
 20
-241.7450795971
 30
-3.0802288988
 11
1557.4044130876
 21
-224.2900727483
 31
-0.0024402429
  0
LINE
  5
2F4
100
AcDbEntity
  8
L1_120
  6
DASHED
 62
         2
100
AcDbLine
 10
1531.7218653445
 20
-235.5075380278
 30
-1.9803820268
 11
1538.585986658
 21
-231.9132674032
 31
-1.3466151397
  0
LINE
  5
2F5
100
AcDbEntity
  8
L1_120
  6
DASHED
 62
         2
100
AcDbLine
 10
1533.5997515957
 20
-238.9856725676
 30
-2.5936709887
 11
1540.4638729092
 21
-235.391401943
 31
-1.9599041016
  0
LINE
  5
2F6
100
AcDbEntity
  8
L1_120
  6
DASHED
 62
         2
100
AcDbLine
 10
1538.585986658
 20
-231.9132674032
 30
-1.3466151397
 11
1540.4638729092
 21
-235.391401943
 31
-1.9599041016
  0
LINE
  5
2F7
100
AcDbEntity
  8
L1_120
  6
DASHED
 62
         2
100
AcDbLine
 10
1540.5444698444
 20
-233.1184713097
 30
-1.5591251057
 11
1540.4638729092
 21
-235.391401943
 31
-1.9599041016
  0
LINE
  5
2F8
100
AcDbEntity
  8
L1_120
  6
DASHED
 62
         2
100
AcDbLine
 10
1538.585986658
 20
-231.9132674032
 30
-1.3466151397
 11
1540.5444698444
 21
-233.1184713097
 31
-1.5591251057
  0
LINE
  5
2F9
100
AcDbEntity
  8
L1_120
  6
DASHED
 62
         2
100
AcDbLine
 10
1531.7218653445
 20
-213.0449288587
 30
1.9803820268
 11
1538.585986658
 21
-216.6391994832
 31
1.3466151397
  0
LINE
  5
2FA
100
AcDbEntity
  8
L1_120
  6
DASHED
 62
         2
100
AcDbLine
 10
1538.585986658
 20
-216.6391994832
 30
1.3466151397
 11
1540.4638729092
 21
-213.1610649434
 31
1.9599041016
  0
LINE
  5
2FB
100
AcDbEntity
  8
L1_120
  6
DASHED
 62
         2
100
AcDbLine
 10
1538.585986658
 20
-216.6391994832
 30
1.3466151397
 11
1540.5444698444
 21
-215.4339955767
 31
1.5591251057
  0
LINE
  5
2FC
100
AcDbEntity
  8
L1_120
  6
DASHED
 62
         2
100
AcDbLine
 10
1540.5444698444
 20
-215.4339955767
 30
1.5591251057
 11
1540.4638729092
 21
-213.1610649434
 31
1.9599041016
  0
LINE
  5
2FD
100
AcDbEntity
  8
L1_120
  6
DASHED
 62
         2
100
AcDbLine
 10
1533.5997515957
 20
-209.5667943189
 30
2.5936709887
 11
1540.4638729092
 21
-213.1610649434
 31
1.9599041016
  0
LINE
  5
2FE
100
AcDbEntity
  8
L1_120
  6
CONTINUOUS
 62
         7
100
AcDbLine
 10
1532.4308425579
 20
-219.1552331276
 30
0.9029705239
 11
1532.4308425579
 21
-229.3972337589
 31
-0.9029705239
  0
LINE
  5
2FF
100
AcDbEntity
  8
L1_120
  6
CENTER
 62
         1
100
AcDbLine
 10
1545.5370920737
 20
-192.0948719294
 30
5.6744423108
 11
1569.4717158171
 21
-256.8556705026
 31
-5.7446337699
  0
LINE
  5
300
100
AcDbEntity
  8
L1_120
  6
DASHED
 62
         2
100
AcDbLine
 10
1551.1517481279
 20
-201.5278844331
 30
4.0111476971
 11
1549.7152635259
 21
-197.6411348038
 31
4.696486524
  0
LINE
  5
301
100
AcDbEntity
  8
L1_120
  6
DASHED
 62
         2
100
AcDbLine
 10
1547.3929776447
 20
-202.8751807884
 30
3.7735829986
 11
1545.9564930428
 21
-198.9884311591
 31
4.4589218255
  0
LINE
  5
302
100
AcDbEntity
  8
L1_120
  6
DASHED
 62
         2
100
AcDbLine
 10
1550.8228557106
 20
-201.6457728642
 30
3.9903607859
 11
1556.8841075764
 21
-218.0459266911
 31
1.0985711785
  0
LINE
  5
303
100
AcDbEntity
  8
L1_120
  6
DASHED
 62
         2
100
AcDbLine
 10
1547.721870062
 20
-202.7572923573
 30
3.7943699097
 11
1553.7831219278
 21
-219.1574461842
 31
0.9025803023
  0
LINE
  5
304
100
AcDbEntity
  8
L1_120
  6
DASHED
 62
         2
100
AcDbLine
 10
1551.1517481279
 20
-201.5278844331
 30
4.0111476971
 11
1547.3929776447
 21
-202.8751807884
 31
3.7735829986
  0
LINE
  5
305
100
AcDbEntity
  8
L1_120
  6
DASHED
 62
         2
100
AcDbLine
 10
1563.7099369879
 20
-247.0245824534
 30
-4.0111476971
 11
1565.1464215898
 21
-250.9113320826
 31
-4.696486524
  0
LINE
  5
306
100
AcDbEntity
  8
L1_120
  6
DASHED
 62
         2
100
AcDbLine
 10
1567.468707471
 20
-245.677286098
 30
-3.7735829986
 11
1563.7099369879
 21
-247.0245824534
 31
-4.0111476971
  0
LINE
  5
307
100
AcDbEntity
  8
L1_120
  6
DASHED
 62
         2
100
AcDbLine
 10
1567.468707471
 20
-245.677286098
 30
-3.7735829986
 11
1568.905192073
 21
-249.5640357273
 31
-4.4589218255
  0
LINE
  5
308
100
AcDbEntity
  8
L1_120
  6
DASHED
 62
         2
100
AcDbLine
 10
1561.078563188
 20
-229.3950207022
 30
-0.9025803023
 11
1567.1398150537
 21
-245.7951745291
 31
-3.7943699097
  0
LINE
  5
309
100
AcDbEntity
  8
L1_120
  6
DASHED
 62
         2
100
AcDbLine
 10
1557.9775775394
 20
-230.5065401954
 30
-1.0985711785
 11
1564.0388294051
 21
-246.9066940223
 31
-3.9903607859
  0
ARC
  5
30A
100
AcDbEntity
  8
L1_120
  6
DASHED
 62
         2
100
AcDbCircle
 10
1557.4308425579
 20
-197.7939735113
 30
38.9451592314
 40
10.0
210
0.0
220
-0.1736481776669303
230
0.9848077530122081
100
AcDbArc
 50
224.9782055522
 51
315.0217944478
  0
CIRCLE
  5
30B
100
AcDbEntity
  8
L1_120
  6
CONTINUOUS
 62
         7
100
AcDbCircle
 10
1557.4308425579
 20
-220.8689735113
 30
38.9451592314
 40
17.5
210
0.0
220
-0.1736481776669303
230
0.9848077530122081
  0
CIRCLE
  5
30C
100
AcDbEntity
  8
L1_120
  6
CONTINUOUS
 62
         7
100
AcDbCircle
 10
1557.4308425579
 20
-220.8689735113
 30
38.9451592314
 40
12.5
210
0.0
220
-0.1736481776669303
230
0.9848077530122081
  0
LINE
  5
30D
100
AcDbEntity
  8
L1_120
  6
DASHED
 62
         2
100
AcDbLine
 10
1551.8758425579
 20
-240.0271878176
 30
-2.7773182281
 11
1551.8758425579
 21
-227.3059341147
 31
-0.5342179718
  0
LINE
  5
30E
100
AcDbEntity
  8
L1_120
  6
DASHED
 62
         2
100
AcDbLine
 10
1552.4308425579
 20
-239.4806195146
 30
-2.6809434895
 11
1552.4308425579
 21
-228.1311614699
 31
-0.6797278198
  0
LINE
  5
30F
100
AcDbEntity
  8
L1_120
  6
DASHED
 62
         2
100
AcDbLine
 10
1562.4308425579
 20
-239.4806195146
 30
-2.6809434895
 11
1562.4308425579
 21
-228.1311614699
 31
-0.6797278198
  0
LINE
  5
310
100
AcDbEntity
  8
L1_120
  6
DASHED
 62
         2
100
AcDbLine
 10
1562.9858425579
 20
-240.0271878176
 30
-2.7773182281
 11
1562.9858425579
 21
-227.3059341147
 31
-0.5342179718
  0
LINE
  5
311
100
AcDbEntity
  8
L1_120
  6
DASHED
 62
         2
100
AcDbLine
 10
1562.4308425579
 20
-239.4806195146
 30
-2.6809434895
 11
1552.4308425579
 21
-239.4806195146
 31
-2.6809434895
  0
LINE
  5
312
100
AcDbEntity
  8
L1_120
  6
DASHED
 62
         2
100
AcDbLine
 10
1563.4310945663
 20
-240.4656754475
 30
-2.854635428
 11
1562.4308425579
 21
-239.4806195146
 31
-2.6809434895
  0
LINE
  5
313
100
AcDbEntity
  8
L1_120
  6
DASHED
 62
         2
100
AcDbLine
 10
1551.4305905495
 20
-240.4656754475
 30
-2.854635428
 11
1552.4308425579
 21
-239.4806195146
 31
-2.6809434895
  0
LINE
  5
314
100
AcDbEntity
  8
L1_120
  6
CENTER
 62
         1
100
AcDbLine
 10
1577.1048192296
 20
-224.2762334432
 30
0.0
 11
1537.9673593191
 21
-224.2762334432
 31
0.0
  0
LINE
  5
315
100
AcDbEntity
  8
L1_120
  6
CENTER
 62
         1
100
AcDbLine
 10
1557.4308425579
 20
-243.1290071739
 30
-3.3242526699
 11
1557.4308425579
 21
-205.1855382442
 31
3.3662046441
  0
CIRCLE
  5
316
100
AcDbEntity
  8
L1_120
  6
DASHED
 62
         2
100
AcDbCircle
 10
1557.4308425579
 20
-220.8689735113
 30
38.9451592314
 40
8.64
210
0.0
220
-0.1736481776669303
230
0.9848077530122081
  0
ARC
  5
317
100
AcDbEntity
  8
L1_120
  6
CONTINUOUS
 62
         7
100
AcDbCircle
 10
1557.4308425579
 20
-220.8689735113
 30
38.9451592314
 40
6.35
210
0.0
220
-0.1736481776669303
230
0.9848077530122081
100
AcDbArc
 50
13.6635763633
 51
166.3364236367
  0
ARC
  5
318
100
AcDbEntity
  8
L1_120
  6
CONTINUOUS
 62
         7
100
AcDbCircle
 10
1557.4308425579
 20
-220.8689735113
 30
38.9451592314
 40
6.35
210
0.0
220
-0.1736481776669303
230
0.9848077530122081
100
AcDbArc
 50
193.6635763633
 51
346.3364236367
  0
LINE
  5
319
100
AcDbEntity
  8
L1_120
  6
CONTINUOUS
 62
         7
100
AcDbLine
 10
1551.2605508306
 20
-225.7534450727
 30
-0.2604722665
 11
1550.6808425579
 21
-225.7534450727
 31
-0.2604722665
  0
LINE
  5
31A
100
AcDbEntity
  8
L1_120
  6
CONTINUOUS
 62
         7
100
AcDbLine
 10
1551.2605508306
 20
-222.7990218137
 30
0.2604722665
 11
1550.6808425579
 21
-222.7990218137
 31
0.2604722665
  0
LINE
  5
31B
100
AcDbEntity
  8
L1_120
  6
CONTINUOUS
 62
         7
100
AcDbLine
 10
1563.6011342852
 20
-225.7534450727
 30
-0.2604722665
 11
1564.1808425579
 21
-225.7534450727
 31
-0.2604722665
  0
LINE
  5
31C
100
AcDbEntity
  8
L1_120
  6
CONTINUOUS
 62
         7
100
AcDbLine
 10
1563.6011342852
 20
-222.7990218137
 30
0.2604722665
 11
1564.1808425579
 21
-222.7990218137
 31
0.2604722665
  0
ARC
  5
31D
100
AcDbEntity
  8
L1_120
  6
CONTINUOUS
 62
         7
100
AcDbCircle
 10
1564.1808425579
 20
-220.8689735113
 30
38.9451592314
 40
1.5
210
0.0
220
-0.1736481776669303
230
0.9848077530122081
100
AcDbArc
 50
270.0
 51
450.0
  0
ARC
  5
31E
100
AcDbEntity
  8
L1_120
  6
CONTINUOUS
 62
         7
100
AcDbCircle
 10
1550.6808425579
 20
-220.8689735113
 30
38.9451592314
 40
1.5
210
0.0
220
-0.1736481776669303
230
0.9848077530122081
100
AcDbArc
 50
90.0
 51
270.0
  0
DIMENSION
  5
321
100
AcDbEntity
  8
L1_120
  6
CONTINUOUS
 62
         4
100
AcDbDimension
  2
*D6
 10
1420.7508425579
 20
-360.1965601105
 30
-63.5123719059
 11
1450.8043965808
 21
-363.7281726459
 31
0.0
210
0.0
220
-0.1736481776669303
230
0.9848077530122081
  3
DIMSTYLE2
100
AcDbAlignedDimension
 13
1420.7508425579
 23
-334.7175234511
 33
-59.0197303003
 14
1485.7508425579
 24
-337.7402870589
 34
-59.5527250807
100
AcDbRotatedDimension
  0
LINE
  5
32D
100
AcDbEntity
  8
L1_120
  6
CONTINUOUS
 62
         7
100
AcDbLine
 10
1524.2361263799
 20
-304.4000696275
 30
-53.6739452049
 11
1514.8042239161
 21
-304.4000696275
 31
-53.6739452049
  0
LINE
  5
32E
100
AcDbEntity
  8
L1_120
  6
CONTINUOUS
 62
         7
100
AcDbLine
 10
1525.0827862732
 20
-303.7747154536
 30
-53.5636783915
 11
1513.9575640228
 21
-303.7747154536
 31
-53.5636783915
  0
LINE
  5
32F
100
AcDbEntity
  8
L1_120
  6
CONTINUOUS
 62
         7
100
AcDbLine
 10
1524.2361263799
 20
-304.4000696275
 30
-53.6739452049
 11
1525.0827862732
 21
-303.7747154536
 31
-53.5636783915
  0
LINE
  5
330
100
AcDbEntity
  8
L1_120
  6
CONTINUOUS
 62
         7
100
AcDbLine
 10
1514.8042239161
 20
-304.4000696275
 30
-53.6739452049
 11
1513.9575640228
 21
-303.7747154536
 31
-53.5636783915
  0
LINE
  5
331
100
AcDbEntity
  8
L1_120
  6
CONTINUOUS
 62
         7
100
AcDbLine
 10
1513.9575640228
 20
-303.7747154536
 30
-53.5636783915
 11
1513.9575640228
 21
-303.0693159455
 31
-53.439297426
  0
LINE
  5
332
100
AcDbEntity
  8
L1_120
  6
CONTINUOUS
 62
         7
100
AcDbLine
 10
1514.8042239161
 20
-302.3639164373
 30
-53.3149164606
 11
1513.9575640228
 21
-301.6585169292
 31
-53.1905354951
  0
LINE
  5
333
100
AcDbEntity
  8
L1_120
  6
CONTINUOUS
 62
         7
100
AcDbLine
 10
1513.9575640228
 20
-301.6585169292
 30
-53.1905354951
 11
1514.8042239161
 21
-300.9531174211
 31
-53.0661545297
  0
LINE
  5
334
100
AcDbEntity
  8
L1_120
  6
CONTINUOUS
 62
         7
100
AcDbLine
 10
1525.0827862732
 20
-302.3639164373
 30
-53.3149164606
 11
1524.2361263799
 21
-301.6585169292
 31
-53.1905354951
  0
LINE
  5
335
100
AcDbEntity
  8
L1_120
  6
CONTINUOUS
 62
         7
100
AcDbLine
 10
1524.2361263799
 20
-301.6585169292
 30
-53.1905354951
 11
1525.0827862732
 21
-300.9531174211
 31
-53.0661545297
  0
LINE
  5
336
100
AcDbEntity
  8
L1_120
  6
CONTINUOUS
 62
         7
100
AcDbLine
 10
1525.0827862732
 20
-300.9531174211
 30
-53.0661545297
 11
1513.9575640228
 21
-301.6585169292
 31
-53.1905354951
  0
LINE
  5
337
100
AcDbEntity
  8
L1_120
  6
CONTINUOUS
 62
         7
100
AcDbLine
 10
1524.2361263799
 20
-301.6585169292
 30
-53.1905354951
 11
1514.8042239161
 21
-302.3639164373
 31
-53.3149164606
  0
LINE
  5
338
100
AcDbEntity
  8
L1_120
  6
CONTINUOUS
 62
         4
100
AcDbLine
 10
1514.8042239161
 20
-302.3639164373
 30
-53.3149164606
 11
1513.9575640228
 21
-303.0693159455
 31
-53.439297426
  0
LINE
  5
339
100
AcDbEntity
  8
L1_120
  6
CONTINUOUS
 62
         4
100
AcDbLine
 10
1525.0827862732
 20
-302.3639164373
 30
-53.3149164606
 11
1524.2361263799
 21
-303.0693159455
 31
-53.439297426
  0
LINE
  5
33A
100
AcDbEntity
  8
L1_120
  6
CONTINUOUS
 62
         4
100
AcDbLine
 10
1524.2361263799
 20
-303.0693159455
 30
-53.439297426
 11
1525.0827862732
 21
-303.7747154536
 31
-53.5636783915
  0
LINE
  5
33B
100
AcDbEntity
  8
L1_120
  6
CONTINUOUS
 62
         4
100
AcDbLine
 10
1525.0827862732
 20
-302.3639164373
 30
-53.3149164606
 11
1513.9575640228
 21
-303.0693159455
 31
-53.439297426
  0
LINE
  5
33C
100
AcDbEntity
  8
L1_120
  6
CONTINUOUS
 62
         4
100
AcDbLine
 10
1524.2361263799
 20
-303.0693159455
 30
-53.439297426
 11
1515.5205053487
 21
-303.7747154536
 31
-53.5636783915
  0
LINE
  5
33D
100
AcDbEntity
  8
L1_120
  6
CONTINUOUS
 62
         4
100
AcDbLine
 10
1525.0827862732
 20
-303.7747154536
 30
-53.5636783915
 11
1515.5205053487
 21
-303.7747154536
 31
-53.5636783915
  0
LINE
  5
33E
100
AcDbEntity
  8
L1_120
  6
CONTINUOUS
 62
         7
100
AcDbLine
 10
1514.8042239161
 20
-300.9531174211
 30
-53.0661545297
 11
1513.9575640228
 21
-300.247717913
 31
-52.9417735642
  0
LINE
  5
33F
100
AcDbEntity
  8
L1_120
  6
CONTINUOUS
 62
         7
100
AcDbLine
 10
1513.9575640228
 20
-300.247717913
 30
-52.9417735642
 11
1514.8042239161
 21
-299.5423184048
 31
-52.8173925987
  0
LINE
  5
340
100
AcDbEntity
  8
L1_120
  6
CONTINUOUS
 62
         7
100
AcDbLine
 10
1525.0827862732
 20
-300.9531174211
 30
-53.0661545297
 11
1524.2361263799
 21
-300.247717913
 31
-52.9417735642
  0
LINE
  5
341
100
AcDbEntity
  8
L1_120
  6
CONTINUOUS
 62
         7
100
AcDbLine
 10
1524.2361263799
 20
-300.247717913
 30
-52.9417735642
 11
1525.0827862732
 21
-299.5423184048
 31
-52.8173925987
  0
LINE
  5
342
100
AcDbEntity
  8
L1_120
  6
CONTINUOUS
 62
         7
100
AcDbLine
 10
1525.0827862732
 20
-299.5423184048
 30
-52.8173925987
 11
1513.9575640228
 21
-300.247717913
 31
-52.9417735642
  0
LINE
  5
343
100
AcDbEntity
  8
L1_120
  6
CONTINUOUS
 62
         7
100
AcDbLine
 10
1524.2361263799
 20
-300.247717913
 30
-52.9417735642
 11
1514.8042239161
 21
-300.9531174211
 31
-53.0661545297
  0
LINE
  5
344
100
AcDbEntity
  8
L1_120
  6
CONTINUOUS
 62
         4
100
AcDbLine
 10
1514.8042239161
 20
-302.3639164373
 30
-53.3149164606
 11
1513.9575640228
 21
-303.0693159455
 31
-53.439297426
  0
LINE
  5
345
100
AcDbEntity
  8
L1_120
  6
CONTINUOUS
 62
         4
100
AcDbLine
 10
1525.0827862732
 20
-302.3639164373
 30
-53.3149164606
 11
1524.2361263799
 21
-303.0693159455
 31
-53.439297426
  0
LINE
  5
346
100
AcDbEntity
  8
L1_120
  6
CONTINUOUS
 62
         4
100
AcDbLine
 10
1524.2361263799
 20
-303.0693159455
 30
-53.439297426
 11
1525.0827862732
 21
-303.7747154536
 31
-53.5636783915
  0
LINE
  5
347
100
AcDbEntity
  8
L1_120
  6
CONTINUOUS
 62
         4
100
AcDbLine
 10
1525.0827862732
 20
-302.3639164373
 30
-53.3149164606
 11
1513.9575640228
 21
-303.0693159455
 31
-53.439297426
  0
LINE
  5
348
100
AcDbEntity
  8
L1_120
  6
CONTINUOUS
 62
         4
100
AcDbLine
 10
1524.2361263799
 20
-303.0693159455
 30
-53.439297426
 11
1515.5205053487
 21
-303.7747154536
 31
-53.5636783915
  0
LINE
  5
349
100
AcDbEntity
  8
L1_120
  6
CONTINUOUS
 62
         4
100
AcDbLine
 10
1525.0827862732
 20
-303.7747154536
 30
-53.5636783915
 11
1515.5205053487
 21
-303.7747154536
 31
-53.5636783915
  0
LINE
  5
34A
100
AcDbEntity
  8
L1_120
  6
CONTINUOUS
 62
         7
100
AcDbLine
 10
1514.8042239161
 20
-299.5423184048
 30
-52.8173925987
 11
1513.9575640228
 21
-298.8369188967
 31
-52.6930116333
  0
LINE
  5
34B
100
AcDbEntity
  8
L1_120
  6
CONTINUOUS
 62
         7
100
AcDbLine
 10
1513.9575640228
 20
-298.8369188967
 30
-52.6930116333
 11
1514.8042239161
 21
-298.1315193886
 31
-52.5686306678
  0
LINE
  5
34C
100
AcDbEntity
  8
L1_120
  6
CONTINUOUS
 62
         7
100
AcDbLine
 10
1525.0827862732
 20
-299.5423184048
 30
-52.8173925987
 11
1524.2361263799
 21
-298.8369188967
 31
-52.6930116333
  0
LINE
  5
34D
100
AcDbEntity
  8
L1_120
  6
CONTINUOUS
 62
         7
100
AcDbLine
 10
1524.2361263799
 20
-298.8369188967
 30
-52.6930116333
 11
1525.0827862732
 21
-298.1315193886
 31
-52.5686306678
  0
LINE
  5
34E
100
AcDbEntity
  8
L1_120
  6
CONTINUOUS
 62
         7
100
AcDbLine
 10
1525.0827862732
 20
-298.1315193886
 30
-52.5686306678
 11
1513.9575640228
 21
-298.8369188967
 31
-52.6930116333
  0
LINE
  5
34F
100
AcDbEntity
  8
L1_120
  6
CONTINUOUS
 62
         7
100
AcDbLine
 10
1524.2361263799
 20
-298.8369188967
 30
-52.6930116333
 11
1514.8042239161
 21
-299.5423184048
 31
-52.8173925987
  0
LINE
  5
350
100
AcDbEntity
  8
L1_120
  6
CONTINUOUS
 62
         7
100
AcDbLine
 10
1514.8042239161
 20
-302.3639164373
 30
-53.3149164606
 11
1513.9575640228
 21
-303.0693159455
 31
-53.439297426
  0
LINE
  5
351
100
AcDbEntity
  8
L1_120
  6
CONTINUOUS
 62
         7
100
AcDbLine
 10
1525.0827862732
 20
-302.3639164373
 30
-53.3149164606
 11
1524.2361263799
 21
-303.0693159455
 31
-53.439297426
  0
LINE
  5
352
100
AcDbEntity
  8
L1_120
  6
CONTINUOUS
 62
         7
100
AcDbLine
 10
1524.2361263799
 20
-303.0693159455
 30
-53.439297426
 11
1525.0827862732
 21
-303.7747154536
 31
-53.5636783915
  0
LINE
  5
353
100
AcDbEntity
  8
L1_120
  6
CONTINUOUS
 62
         7
100
AcDbLine
 10
1525.0827862732
 20
-302.3639164373
 30
-53.3149164606
 11
1513.9575640228
 21
-303.0693159455
 31
-53.439297426
  0
LINE
  5
354
100
AcDbEntity
  8
L1_120
  6
CONTINUOUS
 62
         7
100
AcDbLine
 10
1524.2361263799
 20
-303.0693159455
 30
-53.439297426
 11
1515.5205053487
 21
-303.7747154536
 31
-53.5636783915
  0
LINE
  5
355
100
AcDbEntity
  8
L1_120
  6
CONTINUOUS
 62
         7
100
AcDbLine
 10
1525.0827862732
 20
-303.7747154536
 30
-53.5636783915
 11
1515.5205053487
 21
-303.7747154536
 31
-53.5636783915
  0
LINE
  5
356
100
AcDbEntity
  8
L1_120
  6
CONTINUOUS
 62
         7
100
AcDbLine
 10
1514.8042239161
 20
-298.1315193886
 30
-52.5686306678
 11
1513.9575640228
 21
-297.4261198804
 31
-52.4442497024
  0
LINE
  5
357
100
AcDbEntity
  8
L1_120
  6
CONTINUOUS
 62
         7
100
AcDbLine
 10
1513.9575640228
 20
-297.4261198804
 30
-52.4442497024
 11
1514.8042239161
 21
-296.7207203723
 31
-52.3198687369
  0
LINE
  5
358
100
AcDbEntity
  8
L1_120
  6
CONTINUOUS
 62
         7
100
AcDbLine
 10
1525.0827862732
 20
-298.1315193886
 30
-52.5686306678
 11
1524.2361263799
 21
-297.4261198804
 31
-52.4442497024
  0
LINE
  5
359
100
AcDbEntity
  8
L1_120
  6
CONTINUOUS
 62
         7
100
AcDbLine
 10
1524.2361263799
 20
-297.4261198804
 30
-52.4442497024
 11
1525.0827862732
 21
-296.7207203723
 31
-52.3198687369
  0
LINE
  5
35A
100
AcDbEntity
  8
L1_120
  6
CONTINUOUS
 62
         7
100
AcDbLine
 10
1525.0827862732
 20
-296.7207203723
 30
-52.3198687369
 11
1513.9575640228
 21
-297.4261198804
 31
-52.4442497024
  0
LINE
  5
35B
100
AcDbEntity
  8
L1_120
  6
CONTINUOUS
 62
         7
100
AcDbLine
 10
1524.2361263799
 20
-297.4261198804
 30
-52.4442497024
 11
1514.8042239161
 21
-298.1315193886
 31
-52.5686306678
  0
LINE
  5
35C
100
AcDbEntity
  8
L1_120
  6
CONTINUOUS
 62
         7
100
AcDbLine
 10
1516.3197687472
 20
-294.3944028455
 30
-51.9096761912
 11
1522.7205815488
 21
-294.3944028455
 31
-51.9096761912
  0
LINE
  5
35D
100
AcDbEntity
  8
L1_120
  6
CONTINUOUS
 62
         7
100
AcDbLine
 10
1513.9575640228
 20
-296.7207203723
 30
-52.3198687369
 11
1525.0827862732
 21
-296.7207203723
 31
-52.3198687369
  0
LINE
  5
35E
100
AcDbEntity
  8
L1_120
  6
CONTINUOUS
 62
         7
100
AcDbLine
 10
1516.3197687472
 20
-294.3944028455
 30
-51.9096761912
 11
1513.9575640228
 21
-296.7207203723
 31
-52.3198687369
  0
LINE
  5
35F
100
AcDbEntity
  8
L1_120
  6
CONTINUOUS
 62
         7
100
AcDbLine
 10
1522.7205815488
 20
-294.3944028455
 30
-51.9096761912
 11
1525.0827862732
 21
-296.7207203723
 31
-52.3198687369
  0
LINE
  5
360
100
AcDbEntity
  8
L1_120
  6
DASHED
 62
         2
100
AcDbLine
 10
1516.3086001175
 20
-298.9219670643
 30
-52.7080079199
 11
1522.7317501785
 21
-298.9219670643
 31
-52.7080079199
  0
LINE
  5
361
100
AcDbEntity
  8
L1_120
  6
DASHED
 62
         2
100
AcDbLine
 10
1516.3086001175
 20
-304.4000696275
 30
-53.6739452049
 11
1516.3086001175
 21
-298.9219670643
 31
-52.7080079199
  0
LINE
  5
362
100
AcDbEntity
  8
L1_120
  6
DASHED
 62
         2
100
AcDbLine
 10
1522.7317501785
 20
-304.4000696275
 30
-53.6739452049
 11
1522.7317501785
 21
-298.9219670643
 31
-52.7080079199
  0
LINE
  5
363
100
AcDbEntity
  8
L1_120
  6
DASHED
 62
         2
100
AcDbLine
 10
1517.9143876327
 20
-304.4000696275
 30
-53.6739452049
 11
1517.9143876327
 21
-298.9219670643
 31
-52.7080079199
  0
LINE
  5
364
100
AcDbEntity
  8
L1_120
  6
DASHED
 62
         2
100
AcDbLine
 10
1521.1259626633
 20
-304.4000696275
 30
-53.6739452049
 11
1521.1259626633
 21
-298.9219670643
 31
-52.7080079199
  0
DIMENSION
  5
367
100
AcDbEntity
  8
L1_120
  6
CONTINUOUS
 62
         4
100
AcDbDimension
  2
*D7
 10
1516.2870136405
 20
-310.7895003268
 30
-54.8005742285
 11
1524.4744861557
 21
-313.5589293265
 31
0.0
210
0.0
220
-0.1736481776669303
230
0.9848077530122081
  3
DIMSTYLE2
100
AcDbAlignedDimension
 13
1516.2870136405
 23
-304.4000696275
 33
-53.6739452049
 14
1522.7533366555
 24
-304.4000696275
 34
-53.6739452049
100
AcDbRotatedDimension
  0
LINE
  5
374
100
AcDbEntity
  8
L1_120
  6
CENTER
 62
         1
100
AcDbLine
 10
1519.520175148
 20
-307.1365612739
 30
-54.1564625146
 11
1519.520175148
 21
-293.3209824061
 31
-51.7204032061
  0
DIMENSION
  5
377
100
AcDbEntity
  8
L1_120
  6
CONTINUOUS
 62
         4
100
AcDbDimension
  2
*D8
 10
1513.9575640228
 20
-287.97363523
 30
-50.7775216237
 11
1504.2788612236
 21
-290.391092734
 31
0.0
210
0.0
220
-0.1736481776669303
230
0.9848077530122081
  3
DIMSTYLE2
100
AcDbAlignedDimension
 13
1513.9575640228
 23
-296.7207203723
 33
-52.3198687369
 14
1525.0827862732
 24
-296.7207203723
 34
-52.3198687369
100
AcDbRotatedDimension
  0
DIMENSION
  5
385
100
AcDbEntity
  8
L1_120
  6
CONTINUOUS
 62
         4
100
AcDbDimension
  2
*D9
 10
1509.0852873579
 20
-294.3944028455
 30
-51.9096761912
 11
1507.0602873579
 21
-307.3839382729
 31
0.0
210
0.0
220
-0.1736481776669303
230
0.9848077530122081
  3
DIMSTYLE2
100
AcDbAlignedDimension
 13
1516.3197687472
 23
-294.3944028455
 33
-51.9096761912
 14
1514.8042239161
 24
-304.4000696275
 34
-53.6739452049
 50
90.0
100
AcDbRotatedDimension
  0
ENDSEC
  0
SECTION
  2
OBJECTS
  0
DICTIONARY
  5
19
100
AcDbDictionary
  3
ACAD_GROUP
350
1A
  3
ACAD_MLINESTYLE
350
1B
  0
DICTIONARY
  5
1A
102
{ACAD_REACTORS
330
19
102
}
100
AcDbDictionary
  0
DICTIONARY
  5
1B
102
{ACAD_REACTORS
330
19
102
}
100
AcDbDictionary
  3
STANDARD
350
1C
  0
MLINESTYLE
  5
1C
102
{ACAD_REACTORS
330
1B
102
}
100
AcDbMlineStyle
  2
STANDARD
 70
         0
  3

 62
         0
 51
90.0
 52
90.0
 71
         2
 49
0.5
 62
       256
  6
BYLAYER
 49
-0.5
 62
       256
  6
BYLAYER
  0
ENDSEC
  0
EOF
