  0
SECTION
  2
HEADER
  9
$ACADVER
  1
AC1014
  9
$ACADMAINTVER
 70
         0
  9
$DWGCODEPAGE
  3
BIG5
  9
$INSBASE
 10
0.0
 20
0.0
 30
0.0
  9
$EXTMIN
 10
-11978.276168743
 20
12909.3980159438
 30
0.0
  9
$EXTMAX
 10
-11389.0800851649
 20
13206.4524060524
 30
0.0
  9
$LIMMIN
 10
0.0
 20
0.0
  9
$LIMMAX
 10
0.0
 20
0.0
  9
$ORTHOMODE
 70
         0
  9
$REGENMODE
 70
         1
  9
$FILLMODE
 70
         1
  9
$QTEXTMODE
 70
         0
  9
$MIRRTEXT
 70
         1
  9
$DRAGMODE
 70
         2
  9
$LTSCALE
 40
1.0
  9
$OSMODE
 70
         0
  9
$ATTMODE
 70
         1
  9
$TEXTSIZE
 40
1.2
  9
$TRACEWID
 40
0.05
  9
$TEXTSTYLE
  7
STANDARD
  9
$CLAYER
  8
0
  9
$CELTYPE
  6
CONTINUOUS
  9
$CECOLOR
 62
         4
  9
$CELTSCALE
 40
1.0
  9
$DELOBJ
 70
         1
  9
$DISPSILH
 70
         0
  9
$DIMSCALE
 40
1.0
  9
$DIMASZ
 40
0.18
  9
$DIMEXO
 40
0.0625
  9
$DIMDLI
 40
0.38
  9
$DIMRND
 40
0.0
  9
$DIMDLE
 40
0.0
  9
$DIMEXE
 40
0.25
  9
$DIMTP
 40
0.01
  9
$DIMTM
 40
-0.01
  9
$DIMTXT
 40
2.7
  9
$DIMCEN
 40
0.09
  9
$DIMTSZ
 40
0.0
  9
$DIMTOL
 70
         0
  9
$DIMLIM
 70
         0
  9
$DIMTIH
 70
         1
  9
$DIMTOH
 70
         1
  9
$DIMSE1
 70
         0
  9
$DIMSE2
 70
         0
  9
$DIMTAD
 70
         0
  9
$DIMZIN
 70
         0
  9
$DIMBLK
  1

  9
$DIMASO
 70
         1
  9
$DIMSHO
 70
         1
  9
$DIMPOST
  1

  9
$DIMAPOST
  1

  9
$DIMALT
 70
         0
  9
$DIMALTD
 70
         2
  9
$DIMALTF
 40
25.4
  9
$DIMLFAC
 40
1.0
  9
$DIMTOFL
 70
         0
  9
$DIMTVP
 40
0.0
  9
$DIMTIX
 70
         0
  9
$DIMSOXD
 70
         0
  9
$DIMSAH
 70
         0
  9
$DIMBLK1
  1

  9
$DIMBLK2
  1

  9
$DIMSTYLE
  2
STANDARD
  9
$DIMCLRD
 70
         0
  9
$DIMCLRE
 70
         0
  9
$DIMCLRT
 70
         4
  9
$DIMTFAC
 40
1.0
  9
$DIMGAP
 40
0.09
  9
$DIMJUST
 70
         0
  9
$DIMSD1
 70
         0
  9
$DIMSD2
 70
         0
  9
$DIMTOLJ
 70
         1
  9
$DIMTZIN
 70
         0
  9
$DIMALTZ
 70
         0
  9
$DIMALTTZ
 70
         0
  9
$DIMFIT
 70
         3
  9
$DIMUPT
 70
         0
  9
$DIMUNIT
 70
         2
  9
$DIMDEC
 70
         4
  9
$DIMTDEC
 70
         4
  9
$DIMALTU
 70
         2
  9
$DIMALTTD
 70
         2
  9
$DIMTXSTY
  7
STANDARD
  9
$DIMAUNIT
 70
         0
  9
$LUNITS
 70
         2
  9
$LUPREC
 70
        10
  9
$SKETCHINC
 40
0.1
  9
$FILLETRAD
 40
0.0
  9
$AUNITS
 70
         0
  9
$AUPREC
 70
         0
  9
$MENU
  1
acad
  9
$ELEVATION
 40
0.0
  9
$PELEVATION
 40
0.0
  9
$THICKNESS
 40
0.0
  9
$LIMCHECK
 70
         0
  9
$BLIPMODE
 70
         1
  9
$CHAMFERA
 40
0.0
  9
$CHAMFERB
 40
0.0
  9
$CHAMFERC
 40
0.0
  9
$CHAMFERD
 40
0.0
  9
$SKPOLY
 70
         0
  9
$TDCREATE
 40
0.000000000
  9
$TDUPDATE
 40
0.000000000
  9
$TDINDWG
 40
0.0000000000
  9
$TDUSRTIMER
 40
0.0000000000
  9
$USRTIMER
 70
         1
  9
$ANGBASE
 50
0.0
  9
$ANGDIR
 70
         0
  9
$PDMODE
 70
         2
  9
$PDSIZE
 40
0.0
  9
$PLINEWID
 40
0.0
  9
$COORDS
 70
         1
  9
$SPLFRAME
 70
         0
  9
$SPLINETYPE
 70
         6
  9
$SPLINESEGS
 70
         8
  9
$ATTDIA
 70
         0
  9
$ATTREQ
 70
         1
  9
$HANDLING
 70
         1
  9
$HANDSEED
  5
373
  9
$SURFTAB1
 70
         6
  9
$SURFTAB2
 70
         6
  9
$SURFTYPE
 70
         6
  9
$SURFU
 70
         6
  9
$SURFV
 70
         6
  9
$UCSNAME
  2

  9
$UCSORG
 10
0.0
 20
0.0
 30
0.0
  9
$UCSXDIR
 10
1.0
 20
0.0
 30
0.0
  9
$UCSYDIR
 10
0.0
 20
1.0
 30
0.0
  9
$PUCSNAME
  2

  9
$PUCSORG
 10
0.0
 20
0.0
 30
0.0
  9
$PUCSXDIR
 10
1.0
 20
0.0
 30
0.0
  9
$PUCSYDIR
 10
0.0
 20
1.0
 30
0.0
  9
$USERI1
 70
         0
  9
$USERI2
 70
         0
  9
$USERI3
 70
         0
  9
$USERI4
 70
         0
  9
$USERI5
 70
         0
  9
$USERR1
 40
0.0
  9
$USERR2
 40
0.0
  9
$USERR3
 40
0.0
  9
$USERR4
 40
0.0
  9
$USERR5
 40
0.0
  9
$WORLDVIEW
 70
         1
  9
$SHADEDGE
 70
         3
  9
$SHADEDIF
 70
        70
  9
$TILEMODE
 70
         1
  9
$MAXACTVP
 70
        16
  9
$PINSBASE
 10
0.0
 20
0.0
 30
0.0
  9
$PLIMCHECK
 70
         0
  9
$PEXTMIN
 10
1.0000000000E+20
 20
1.0000000000E+20
 30
1.0000000000E+20
  9
$PEXTMAX
 10
-1.0000000000E+20
 20
-1.0000000000E+20
 30
-1.0000000000E+20
  9
$PLIMMIN
 10
0.0
 20
0.0
  9
$PLIMMAX
 10
12.0
 20
9.0
  9
$UNITMODE
 70
         0
  9
$VISRETAIN
 70
         0
  9
$PLINEGEN
 70
         1
  9
$PSLTSCALE
 70
         0
  9
$TREEDEPTH
 70
      3020
  9
$PICKSTYLE
 70
         1
  9
$CMLSTYLE
  2
STANDARD
  9
$CMLJUST
 70
         0
  9
$CMLSCALE
 40
1.0
  9
$PROXYGRAPHICS
 70
         0
  9
$MEASUREMENT
 70
         0
  0
ENDSEC
  0
SECTION
  2
CLASSES
  0
CLASS
  1
LWPOLYLINE
  2
AcDbPolyline
  3
"AutoCAD"
 90
        0
280
         0
281
         1
  0
CLASS
  1
IMAGE
  2
AcDbRasterImage
  3
ISM
 90
      127
280
         0
281
         1
  0
CLASS
  1
OLE2FRAME
  2
AcDbOle2Frame
  3
""
 90
        0
280
         0
281
         1
  0
CLASS
  1
HATCH
  2
AcDbHatch
  3
"ACAD_SEDONA"
 90
        0
280
         0
281
         1
  0
CLASS
  1
DICTIONARYVAR
  2
AcDbDictionaryVar
  3
"AutoCAD"
 90
        0
280
         0
281
         0
  0
CLASS
  1
RASTERVARIABLES
  2
AcDbRasterVariables
  3
ISM
 90
        0
280
         0
281
         0
  0
CLASS
  1
IMAGEDEF
  2
AcDbRasterImageDef
  3
ISM
 90
        0
280
         0
281
         0
  0
CLASS
  1
IMAGEDEF_REACTOR
  2
AcDbRasterImageDefReactor
  3
ISM
 90
        1
280
         0
281
         0
  0
CLASS
  1
IDBUFFER
  2
AcDbIdBuffer
  3
"Acad"
 90
        0
280
         0
281
         0
  0
CLASS
  1
SPATIAL_FILTER
  2
AcDbSpatialFilter
  3
"Acad"
 90
        0
280
         0
281
         0
  0
CLASS
  1
XRECORD
  2
AcDbXrecord
  3
"<Built In>"
 90
        0
280
         0
281
         0
  0
CLASS
  1
SORTENTSTABLE
  2
AcDbSortentsTable
  3
"AutoCAD"
 90
        0
280
         0
281
         0
  0
CLASS
  1
LAYER_INDEX
  2
AcDbLayerIndex
  3
"Acad"
 90
        0
280
         0
281
         0
  0
CLASS
  1
SPATIAL_INDEX
  2
AcDbSpatialIndex
  3
"Acad"
 90
        0
280
         0
281
         0
  0
CLASS
  1
OBJECT_PTR
  2
CAseDLPNTableRecord
  3
"ASE-LPNTableRecord"
 90
        1
280
         0
281
         0
  0
CLASS
  1
LAYOUT
  2
AcDbLayout
  3
"AutoCAD 2000"
 90
        1
280
         0
281
         0
  0
CLASS
  1
PLOTSETTINGS
  2
AcDbPlotSettings
  3
"AutoCAD 2000"
 90
        1
280
         0
281
         0
  0
CLASS
  1
ACDBDICTIONARYWDFLT
  2
AcDbDictionaryWithDefault
  3
"AutoCAD 2000"
 90
        1
280
         0
281
         0
  0
CLASS
  1
ACDBPLACEHOLDER
  2
AcDbPlaceHolder
  3
"AutoCAD 2000"
 90
        1
280
         0
281
         0
  0
CLASS
  1
VBA_PROJECT
  2
AcDbVbaProject
  3
"acadvba"
 90
        1
280
         0
281
         0
  0
CLASS
  1
WIPEOUT
  2
AcDbWipeout
  3
WipeOut|AutoCAD Express Tool|expresstools@autodesk.com
 90
      127
280
         0
281
         1
  0
CLASS
  1
WIPEOUTVARIABLES
  2
AcDbWipeoutVariables
  3
WipeOut|AutoCAD Express Tool|expresstools@autodesk.com
 90
        0
280
         0
281
         0
  0
CLASS
  1
RTEXT
  2
RText
  3
RText|AutoCAD Express Tool|expresstools@autodesk.com
 90
        0
280
         0
281
         1
  0
CLASS
  1
ARCALIGNEDTEXT
  2
AcDbArcAlignedText
  3
ATEXT|AutoCAD Express Tool|expresstools@autodesk.com
 90
        0
280
         0
281
         1
  0
ENDSEC
  0
SECTION
  2
TABLES
  0
TABLE
  2
VPORT
  5
7
100
AcDbSymbolTable
 70
         1
  0
VPORT
  5
15
100
AcDbSymbolTableRecord
100
AcDbViewportTableRecord
  2
*ACTIVE
 70
         0
 10
0.0
 20
0.0
 11
1.0
 21
1.0
 12
-11683.678126954
 22
13057.9252109981
 13
0.0
 23
0.0
 14
1.0
 24
1.0
 15
0.0
 25
0.0
 16
0.0
 26
0.0
 36
1.0
 17
0.0
 27
0.0
 37
0.0
 40
297.0543901086
 41
1.9834619625
 42
50.0
 43
0.0
 44
0.0
 50
0.0
 51
0.0
 71
         0
 72
       100
 73
         1
 74
         1
 75
         0
 76
         0
 77
         0
 78
         0
  0
ENDTAB
  0
TABLE
  2
LTYPE
  5
4
100
AcDbSymbolTable
 70
         6
  0
LTYPE
  5
11
100
AcDbSymbolTableRecord
100
AcDbLinetypeTableRecord
  2
BYBLOCK
 70
        64
  3

 72
        65
 73
         0
 40
0.0
  0
LTYPE
  5
12
100
AcDbSymbolTableRecord
100
AcDbLinetypeTableRecord
  2
BYLAYER
 70
        64
  3

 72
        65
 73
         0
 40
0.0
  0
LTYPE
  5
13
100
AcDbSymbolTableRecord
100
AcDbLinetypeTableRecord
  2
CONTINUOUS
 70
        64
  3
Solid line
 72
        65
 73
         0
 40
0.0
  0
LTYPE
  5
1D
100
AcDbSymbolTableRecord
100
AcDbLinetypeTableRecord
  2
DASHED
 70
        64
  3
_ _ _ _ _ _ _ _ _ _ _ _ _ _ _ _
 72
        65
 73
         2
 40
0.2
 49
0.1
 74
         0
 49
-0.1
 74
         0
  0
LTYPE
  5
1E
100
AcDbSymbolTableRecord
100
AcDbLinetypeTableRecord
  2
CENTER
 70
        64
  3
___ _ ___ _ ___ _ ___ _ ___ _ ___ _ ___ _ ___ _
 72
        65
 73
         4
 40
0.95
 49
0.625
 74
         0
 49
-0.125
 74
         0
 49
0.075
 74
         0
 49
-0.125
 74
         0
  0
LTYPE
  5
1F
100
AcDbSymbolTableRecord
100
AcDbLinetypeTableRecord
  2
PHANTOM
 70
        64
  3
______  __  __  ______  __  __  ______  __  __  
 72
        65
 73
         6
 40
1.025
 49
0.625
 74
         0
 49
-0.125
 74
         0
 49
0.075
 74
         0
 49
-0.125
 74
         0
 49
0.075
 74
         0
 49
-0.125
 74
         0
  0
ENDTAB
  0
TABLE
  2
LAYER
  5
2
100
AcDbSymbolTable
 70
         6
  0
LAYER
  5
14
100
AcDbSymbolTableRecord
100
AcDbLayerTableRecord
  2
0
 70
         0
 62
         7
  6
CONTINUOUS
  0
LAYER
  5
21
100
AcDbSymbolTableRecord
100
AcDbLayerTableRecord
  2
_____U
 70
         1
 62
         7
  6
CONTINUOUS
  0
LAYER
  5
22
100
AcDbSymbolTableRecord
100
AcDbLayerTableRecord
  2
__________T_____
 70
         1
 62
         7
  6
CONTINUOUS
  0
LAYER
  5
23
100
AcDbSymbolTableRecord
100
AcDbLayerTableRecord
  2
_Y__________
 70
         0
 62
         7
  6
CONTINUOUS
  0
LAYER
  5
24
100
AcDbSymbolTableRecord
100
AcDbLayerTableRecord
  2
________170_H_U
 70
         0
 62
         7
  6
CONTINUOUS
  0
LAYER
  5
219
100
AcDbSymbolTableRecord
100
AcDbLayerTableRecord
  2
DEFPOINTS
 70
         0
 62
        -7
  6
CONTINUOUS
  0
ENDTAB
  0
TABLE
  2
STYLE
  5
3
100
AcDbSymbolTable
 70
        12
  0
STYLE
  5
17
100
AcDbSymbolTableRecord
100
AcDbTextStyleTableRecord
  2
STANDARD
 70
         0
 40
0.0
 41
1.0
 50
0.0
 71
         0
 42
0.0
  3
txt
  4

  0
STYLE
  5
208
100
AcDbSymbolTableRecord
100
AcDbTextStyleTableRecord
  2
BOX
 70
         0
 40
1.0
 41
1.0
 50
0.0
 71
         0
 42
0.2
  3
txt.shx
  4

  0
STYLE
  5
20A
100
AcDbSymbolTableRecord
100
AcDbTextStyleTableRecord
  2
BOX
 70
         0
 40
1.0
 41
1.0
 50
0.0
 71
         0
 42
0.2
  3
txt.shx
  4

  0
STYLE
  5
222
100
AcDbSymbolTableRecord
100
AcDbTextStyleTableRecord
  2
BOX
 70
         0
 40
1.0
 41
1.0
 50
0.0
 71
         0
 42
0.2
  3
txt.shx
  4

  0
STYLE
  5
232
100
AcDbSymbolTableRecord
100
AcDbTextStyleTableRecord
  2
BOX
 70
         0
 40
1.0
 41
1.0
 50
0.0
 71
         0
 42
0.2
  3
txt.shx
  4

  0
STYLE
  5
242
100
AcDbSymbolTableRecord
100
AcDbTextStyleTableRecord
  2
BOX
 70
         0
 40
1.0
 41
1.0
 50
0.0
 71
         0
 42
0.2
  3
txt.shx
  4

  0
STYLE
  5
2D8
100
AcDbSymbolTableRecord
100
AcDbTextStyleTableRecord
  2
BOX
 70
         0
 40
1.0
 41
1.0
 50
0.0
 71
         0
 42
0.2
  3
txt.shx
  4

  0
STYLE
  5
2E6
100
AcDbSymbolTableRecord
100
AcDbTextStyleTableRecord
  2
BOX
 70
         0
 40
1.0
 41
1.0
 50
0.0
 71
         0
 42
0.2
  3
txt.shx
  4

  0
STYLE
  5
2F4
100
AcDbSymbolTableRecord
100
AcDbTextStyleTableRecord
  2
BOX
 70
         0
 40
1.0
 41
1.0
 50
0.0
 71
         0
 42
0.2
  3
txt.shx
  4

  0
STYLE
  5
305
100
AcDbSymbolTableRecord
100
AcDbTextStyleTableRecord
  2
BOX
 70
         0
 40
1.0
 41
1.0
 50
0.0
 71
         0
 42
0.2
  3
txt.shx
  4

  0
STYLE
  5
308
100
AcDbSymbolTableRecord
100
AcDbTextStyleTableRecord
  2
BOX
 70
         0
 40
1.0
 41
1.0
 50
0.0
 71
         0
 42
0.2
  3
txt.shx
  4

  0
STYLE
  5
371
100
AcDbSymbolTableRecord
100
AcDbTextStyleTableRecord
  2
BOX
 70
         0
 40
1.0
 41
1.0
 50
0.0
 71
         0
 42
0.2
  3
txt.shx
  4

  0
ENDTAB
  0
TABLE
  2
VIEW
  5
5
100
AcDbSymbolTable
 70
         0
  0
ENDTAB
  0
TABLE
  2
UCS
  5
6
100
AcDbSymbolTable
 70
         1
  0
UCS
  5
20
100
AcDbSymbolTableRecord
100
AcDbUCSTableRecord
  2
CK_VIEW_1
 70
         0
 10
0.0
 20
0.0
 30
1.0
 11
1.0
 21
0.0
 31
0.0
 12
0.0
 22
1.0
 32
0.0
  0
ENDTAB
  0
TABLE
  2
APPID
  5
8
100
AcDbSymbolTable
 70
         1
  0
APPID
  5
16
100
AcDbSymbolTableRecord
100
AcDbRegAppTableRecord
  2
ACAD
 70
         0
  0
ENDTAB
  0
TABLE
  2
DIMSTYLE
  5
9
100
AcDbSymbolTable
 70
         2
  0
DIMSTYLE
105
18
100
AcDbSymbolTableRecord
100
AcDbDimStyleTableRecord
  2
STANDARD
 70
         0
  3

  4

  5

  6

  7

 40
1.0
 41
0.18
 42
0.0625
 43
0.38
 44
0.18
 45
0.0
 46
0.0
 47
0.0
 48
0.0
 71
         0
 72
         0
 73
         1
 74
         1
 75
         0
 76
         0
 77
         0
 78
         0
140
0.18
141
0.09
142
0.0
143
25.4
144
1.0
145
0.0
146
1.0
147
0.09
170
         0
171
         2
172
         0
173
         0
174
         0
175
         0
176
         0
177
         0
178
         0
270
         2
271
         4
272
         4
273
         2
274
         2
275
         0
280
         0
281
         0
282
         0
283
         1
284
         0
285
         0
286
         0
287
         0
288
         0
340
17
  0
DIMSTYLE
105
215
100
AcDbSymbolTableRecord
100
AcDbDimStyleTableRecord
  2
DIMSTYLE1
 70
         0
  3

  4

  5

  6

  7

 40
1.0
 41
2.7
 42
0.0625
 43
0.38
 44
2.7
 45
0.0
 46
0.0
 47
0.0
 48
0.0
 71
         0
 72
         0
 73
         1
 74
         1
 75
         0
 76
         0
 77
         0
 78
         0
140
2.7
141
0.09
142
0.0
143
25.4
144
1.0
145
0.0
146
1.0
147
0.09
170
         0
171
         2
172
         0
173
         0
174
         0
175
         0
176
         0
177
         0
178
         0
270
         2
271
         4
272
         4
273
         2
274
         2
275
         0
280
         0
281
         0
282
         0
283
         1
284
         0
285
         0
286
         0
287
         0
288
         0
340
17
  0
ENDTAB
  0
TABLE
  2
BLOCK_RECORD
  5
1
100
AcDbSymbolTable
 70
        10
  0
BLOCK_RECORD
  5
A
100
AcDbSymbolTableRecord
100
AcDbBlockTableRecord
  2
*MODEL_SPACE
  0
BLOCK_RECORD
  5
B
100
AcDbSymbolTableRecord
100
AcDbBlockTableRecord
  2
*PAPER_SPACE
  0
BLOCK_RECORD
  5
1EE
100
AcDbSymbolTableRecord
100
AcDbBlockTableRecord
  2
GENARR2
  0
BLOCK_RECORD
  5
1F5
100
AcDbSymbolTableRecord
100
AcDbBlockTableRecord
  2
GENARR3
  0
BLOCK_RECORD
  5
216
100
AcDbSymbolTableRecord
100
AcDbBlockTableRecord
  2
*D2
  0
BLOCK_RECORD
  5
225
100
AcDbSymbolTableRecord
100
AcDbBlockTableRecord
  2
*D3
  0
BLOCK_RECORD
  5
235
100
AcDbSymbolTableRecord
100
AcDbBlockTableRecord
  2
*D4
  0
BLOCK_RECORD
  5
2CD
100
AcDbSymbolTableRecord
100
AcDbBlockTableRecord
  2
*D5
  0
BLOCK_RECORD
  5
2DB
100
AcDbSymbolTableRecord
100
AcDbBlockTableRecord
  2
*D6
  0
BLOCK_RECORD
  5
2E9
100
AcDbSymbolTableRecord
100
AcDbBlockTableRecord
  2
*D7
  0
BLOCK_RECORD
  5
2FA
100
AcDbSymbolTableRecord
100
AcDbBlockTableRecord
  2
*D8
  0
BLOCK_RECORD
  5
317
100
AcDbSymbolTableRecord
100
AcDbBlockTableRecord
  2
*X9
  0
ENDTAB
  0
ENDSEC
  0
SECTION
  2
BLOCKS
  0
BLOCK
  5
D
100
AcDbEntity
  8
0
100
AcDbBlockBegin
  2
*MODEL_SPACE
 70
         0
 10
0.0
 20
0.0
 30
0.0
  3
*MODEL_SPACE
  1

  0
ENDBLK
  5
E
100
AcDbEntity
  8
0
100
AcDbBlockEnd
  0
BLOCK
  5
F
100
AcDbEntity
 67
         1
  8
0
100
AcDbBlockBegin
  2
*PAPER_SPACE
 70
         0
 10
0.0
 20
0.0
 30
0.0
  3
*PAPER_SPACE
  1

  0
ENDBLK
  5
10
100
AcDbEntity
 67
         1
  8
0
100
AcDbBlockEnd
  0
BLOCK
  5
1EF
100
AcDbEntity
  8
0
100
AcDbBlockBegin
  2
GENARR2
 70
        64
 10
0.0
 20
0.0
 30
0.0
  3
GENARR2
  1

  0
LINE
  5
1F0
100
AcDbEntity
  8
_Y__________
  6
CONTINUOUS
 62
         4
100
AcDbLine
 10
-11491.1563905521
 20
13084.7795682285
 30
0.0
 11
-11479.4902172015
 21
13084.7795682285
 31
0.0
  0
SOLID
  5
1F1
100
AcDbEntity
  8
_Y__________
  6
CONTINUOUS
 62
         4
100
AcDbTrace
 10
-11479.4902172015
 20
13084.7795682285
 30
0.0
 11
-11486.6902172015
 21
13083.6995682285
 31
0.0
 12
-11486.6902172015
 22
13085.8595682285
 32
0.0
 13
-11479.4902172015
 23
13084.7795682285
 33
0.0
  0
ENDBLK
  5
1F2
100
AcDbEntity
  8
0
  6
CONTINUOUS
100
AcDbBlockEnd
  0
BLOCK
  5
1F6
100
AcDbEntity
  8
0
100
AcDbBlockBegin
  2
GENARR3
 70
        64
 10
0.0
 20
0.0
 30
0.0
  3
GENARR3
  1

  0
LINE
  5
1F7
100
AcDbEntity
  8
_Y__________
  6
CONTINUOUS
 62
         4
100
AcDbLine
 10
-11502.7094419275
 20
13150.3001784551
 30
0.0
 11
-11491.7468249172
 21
13154.2902447365
 31
0.0
  0
SOLID
  5
1F8
100
AcDbEntity
  8
_Y__________
  6
CONTINUOUS
 62
         4
100
AcDbTrace
 10
-11491.7468249172
 20
13154.2902447365
 30
0.0
 11
-11498.1432300321
 21
13150.8128316741
 31
0.0
 12
-11498.8819935417
 22
13152.842567735
 32
0.0
 13
-11491.7468249172
 23
13154.2902447365
 33
0.0
  0
ENDBLK
  5
1F9
100
AcDbEntity
  8
0
  6
CONTINUOUS
100
AcDbBlockEnd
  0
BLOCK
  5
217
100
AcDbEntity
  8
0
100
AcDbBlockBegin
  2
*D2
 70
        65
 10
0.0
 20
0.0
 30
0.0
  3
*D2
  1

  0
POINT
  5
21A
100
AcDbEntity
  8
DEFPOINTS
  6
CONTINUOUS
 62
         0
100
AcDbPoint
 10
-11598.3759685947
 20
12967.6969778408
 30
0.0
  0
POINT
  5
21B
100
AcDbEntity
  8
DEFPOINTS
  6
CONTINUOUS
 62
         0
100
AcDbPoint
 10
-11586.2777233705
 20
12967.6969778408
 30
0.0
  0
POINT
  5
21C
100
AcDbEntity
  8
DEFPOINTS
  6
CONTINUOUS
 62
         0
100
AcDbPoint
 10
-11586.2777233705
 20
12975.6969778408
 30
0.0
  0
LINE
  5
21D
100
AcDbEntity
  8
________170_H_U
  6
CONTINUOUS
 62
         4
100
AcDbLine
 10
-11587.6277233705
 20
12967.6969778408
 30
0.0
 11
-11599.0509685947
 21
12967.6969778408
 31
0.0
  0
LINE
  5
21E
100
AcDbEntity
  8
________170_H_U
  6
CONTINUOUS
 62
         4
100
AcDbLine
 10
-11587.6277233705
 20
12975.6969778408
 30
0.0
 11
-11599.0509685947
 21
12975.6969778408
 31
0.0
  0
LINE
  5
21F
100
AcDbEntity
  8
________170_H_U
  6
CONTINUOUS
 62
         4
100
AcDbLine
 10
-11598.3759685947
 20
12967.6969778408
 30
0.0
 11
-11598.3759685947
 21
12975.6969778408
 31
0.0
  0
SOLID
  5
220
100
AcDbEntity
  8
________170_H_U
  6
CONTINUOUS
 62
         4
100
AcDbTrace
 10
-11598.3759685947
 20
12967.6969778408
 30
0.0
 11
-11598.7809685947
 21
12970.3969778408
 31
0.0
 12
-11597.9709685947
 22
12970.3969778408
 32
0.0
 13
-11598.3759685947
 23
12967.6969778408
 33
0.0
  0
SOLID
  5
221
100
AcDbEntity
  8
________170_H_U
  6
CONTINUOUS
 62
         4
100
AcDbTrace
 10
-11598.3759685947
 20
12975.6969778408
 30
0.0
 11
-11597.9709685947
 21
12972.9969778408
 31
0.0
 12
-11598.7809685947
 22
12972.9969778408
 32
0.0
 13
-11598.3759685947
 23
12975.6969778408
 33
0.0
  0
TEXT
  5
223
100
AcDbEntity
  8
________170_H_U
  6
CONTINUOUS
 62
         4
100
AcDbText
 10
-11600.4009685947
 20
12970.3469778408
 30
0.0
 40
2.7
  1
8
 50
90.0
  7
BOX
100
AcDbText
  0
ENDBLK
  5
224
100
AcDbEntity
  8
0
  6
CONTINUOUS
100
AcDbBlockEnd
  0
BLOCK
  5
226
100
AcDbEntity
  8
0
100
AcDbBlockBegin
  2
*D3
 70
        65
 10
0.0
 20
0.0
 30
0.0
  3
*D3
  1

  0
POINT
  5
228
100
AcDbEntity
  8
DEFPOINTS
  6
CONTINUOUS
 62
         0
100
AcDbPoint
 10
-11587.1127233705
 20
12984.0235929847
 30
0.0
  0
POINT
  5
229
100
AcDbEntity
  8
DEFPOINTS
  6
CONTINUOUS
 62
         0
100
AcDbPoint
 10
-11587.1127233705
 20
12974.8619778408
 30
0.0
  0
POINT
  5
22A
100
AcDbEntity
  8
DEFPOINTS
  6
CONTINUOUS
 62
         0
100
AcDbPoint
 10
-11582.9427233705
 20
12974.8619778408
 30
0.0
  0
LINE
  5
22B
100
AcDbEntity
  8
________170_H_U
  6
CONTINUOUS
 62
         4
100
AcDbLine
 10
-11587.1127233705
 20
12976.2119778408
 30
0.0
 11
-11587.1127233705
 21
12984.6985929847
 31
0.0
  0
LINE
  5
22C
100
AcDbEntity
  8
________170_H_U
  6
CONTINUOUS
 62
         4
100
AcDbLine
 10
-11582.9427233705
 20
12976.2119778408
 30
0.0
 11
-11582.9427233705
 21
12984.6985929847
 31
0.0
  0
LINE
  5
22D
100
AcDbEntity
  8
________170_H_U
  6
CONTINUOUS
 62
         4
100
AcDbLine
 10
-11587.1127233705
 20
12984.0235929847
 30
0.0
 11
-11592.5127233705
 21
12984.0235929847
 31
0.0
  0
SOLID
  5
22E
100
AcDbEntity
  8
________170_H_U
  6
CONTINUOUS
 62
         4
100
AcDbTrace
 10
-11587.1127233705
 20
12984.0235929847
 30
0.0
 11
-11589.8127233705
 21
12983.6185929847
 31
0.0
 12
-11589.8127233705
 22
12984.4285929847
 32
0.0
 13
-11587.1127233705
 23
12984.0235929847
 33
0.0
  0
LINE
  5
22F
100
AcDbEntity
  8
________170_H_U
  6
CONTINUOUS
 62
         4
100
AcDbLine
 10
-11582.9427233705
 20
12984.0235929847
 30
0.0
 11
-11577.5427233705
 21
12984.0235929847
 31
0.0
  0
SOLID
  5
230
100
AcDbEntity
  8
________170_H_U
  6
CONTINUOUS
 62
         4
100
AcDbTrace
 10
-11582.9427233705
 20
12984.0235929847
 30
0.0
 11
-11580.2427233705
 21
12984.4285929847
 31
0.0
 12
-11580.2427233705
 22
12983.6185929847
 32
0.0
 13
-11582.9427233705
 23
12984.0235929847
 33
0.0
  0
LINE
  5
231
100
AcDbEntity
  8
________170_H_U
  6
CONTINUOUS
 62
         4
100
AcDbLine
 10
-11587.1127233705
 20
12984.0235929847
 30
0.0
 11
-11582.9427233705
 21
12984.0235929847
 31
0.0
  0
TEXT
  5
233
100
AcDbEntity
  8
________170_H_U
  6
CONTINUOUS
 62
         4
100
AcDbText
 10
-11603.9277233705
 20
12986.0485929847
 30
0.0
 40
2.7
  1
NO.8-32 UNC-2B
  7
BOX
100
AcDbText
  0
ENDBLK
  5
234
100
AcDbEntity
  8
0
  6
CONTINUOUS
100
AcDbBlockEnd
  0
BLOCK
  5
236
100
AcDbEntity
  8
0
100
AcDbBlockBegin
  2
*D4
 70
        65
 10
0.0
 20
0.0
 30
0.0
  3
*D4
  1

  0
POINT
  5
238
100
AcDbEntity
  8
DEFPOINTS
  6
CONTINUOUS
 62
         0
100
AcDbPoint
 10
-11586.1824239089
 20
12958.9058212971
 30
0.0
  0
POINT
  5
239
100
AcDbEntity
  8
DEFPOINTS
  6
CONTINUOUS
 62
         0
100
AcDbPoint
 10
-11586.1824239089
 20
12967.6969778408
 30
0.0
  0
POINT
  5
23A
100
AcDbEntity
  8
DEFPOINTS
  6
CONTINUOUS
 62
         0
100
AcDbPoint
 10
-11583.8730228321
 20
12967.6969778408
 30
0.0
  0
LINE
  5
23B
100
AcDbEntity
  8
________170_H_U
  6
CONTINUOUS
 62
         4
100
AcDbLine
 10
-11586.1824239089
 20
12966.3469778408
 30
0.0
 11
-11586.1824239089
 21
12958.2308212971
 31
0.0
  0
LINE
  5
23C
100
AcDbEntity
  8
________170_H_U
  6
CONTINUOUS
 62
         4
100
AcDbLine
 10
-11583.8730228321
 20
12966.3469778408
 30
0.0
 11
-11583.8730228321
 21
12958.2308212971
 31
0.0
  0
LINE
  5
23D
100
AcDbEntity
  8
________170_H_U
  6
CONTINUOUS
 62
         4
100
AcDbLine
 10
-11586.1824239089
 20
12958.9058212971
 30
0.0
 11
-11591.5824239089
 21
12958.9058212971
 31
0.0
  0
SOLID
  5
23E
100
AcDbEntity
  8
________170_H_U
  6
CONTINUOUS
 62
         4
100
AcDbTrace
 10
-11586.1824239089
 20
12958.9058212971
 30
0.0
 11
-11588.8824239089
 21
12958.5008212971
 31
0.0
 12
-11588.8824239089
 22
12959.3108212971
 32
0.0
 13
-11586.1824239089
 23
12958.9058212971
 33
0.0
  0
LINE
  5
23F
100
AcDbEntity
  8
________170_H_U
  6
CONTINUOUS
 62
         4
100
AcDbLine
 10
-11583.8730228321
 20
12958.9058212971
 30
0.0
 11
-11568.3396536753
 21
12958.9058212971
 31
0.0
  0
SOLID
  5
240
100
AcDbEntity
  8
________170_H_U
  6
CONTINUOUS
 62
         4
100
AcDbTrace
 10
-11583.8730228321
 20
12958.9058212971
 30
0.0
 11
-11581.1730228321
 21
12959.3108212971
 31
0.0
 12
-11581.1730228321
 22
12958.5008212971
 32
0.0
 13
-11583.8730228321
 23
12958.9058212971
 33
0.0
  0
LINE
  5
241
100
AcDbEntity
  8
________170_H_U
  6
CONTINUOUS
 62
         4
100
AcDbLine
 10
-11586.1824239089
 20
12958.9058212971
 30
0.0
 11
-11583.8730228321
 21
12958.9058212971
 31
0.0
  0
TEXT
  5
243
100
AcDbEntity
  8
________170_H_U
  6
CONTINUOUS
 62
         4
100
AcDbText
 10
-11580.4896536753
 20
12960.9308212971
 30
0.0
 40
2.7
  1
2Hex
  7
BOX
100
AcDbText
  0
ENDBLK
  5
244
100
AcDbEntity
  8
0
  6
CONTINUOUS
100
AcDbBlockEnd
  0
BLOCK
  5
2CE
100
AcDbEntity
  8
0
100
AcDbBlockBegin
  2
*D5
 70
        65
 10
0.0
 20
0.0
 30
0.0
  3
*D5
  1

  0
POINT
  5
2D0
100
AcDbEntity
  8
DEFPOINTS
  6
CONTINUOUS
 62
         0
100
AcDbPoint
 10
-11624.6297023935
 20
13130.1140970959
 30
0.0
  0
POINT
  5
2D1
100
AcDbEntity
  8
DEFPOINTS
  6
CONTINUOUS
 62
         0
100
AcDbPoint
 10
-11651.4827835805
 20
13130.1140970959
 30
0.0
  0
POINT
  5
2D2
100
AcDbEntity
  8
DEFPOINTS
  6
CONTINUOUS
 62
         0
100
AcDbPoint
 10
-11651.4827835805
 20
13111.1140970959
 30
0.0
  0
LINE
  5
2D3
100
AcDbEntity
  8
________170_H_U
  6
CONTINUOUS
 62
         4
100
AcDbLine
 10
-11650.1327835805
 20
13130.1140970959
 30
0.0
 11
-11623.9547023935
 21
13130.1140970959
 31
0.0
  0
LINE
  5
2D4
100
AcDbEntity
  8
________170_H_U
  6
CONTINUOUS
 62
         4
100
AcDbLine
 10
-11650.1327835805
 20
13111.1140970959
 30
0.0
 11
-11623.9547023935
 21
13111.1140970959
 31
0.0
  0
LINE
  5
2D5
100
AcDbEntity
  8
________170_H_U
  6
CONTINUOUS
 62
         4
100
AcDbLine
 10
-11624.6297023935
 20
13130.1140970959
 30
0.0
 11
-11624.6297023935
 21
13111.1140970959
 31
0.0
  0
SOLID
  5
2D6
100
AcDbEntity
  8
________170_H_U
  6
CONTINUOUS
 62
         4
100
AcDbTrace
 10
-11624.6297023935
 20
13130.1140970959
 30
0.0
 11
-11624.2247023935
 21
13127.4140970959
 31
0.0
 12
-11625.0347023935
 22
13127.4140970959
 32
0.0
 13
-11624.6297023935
 23
13130.1140970959
 33
0.0
  0
SOLID
  5
2D7
100
AcDbEntity
  8
________170_H_U
  6
CONTINUOUS
 62
         4
100
AcDbTrace
 10
-11624.6297023935
 20
13111.1140970959
 30
0.0
 11
-11625.0347023935
 21
13113.8140970959
 31
0.0
 12
-11624.2247023935
 22
13113.8140970959
 32
0.0
 13
-11624.6297023935
 23
13111.1140970959
 33
0.0
  0
TEXT
  5
2D9
100
AcDbEntity
  8
________170_H_U
  6
CONTINUOUS
 62
         4
100
AcDbText
 10
-11626.6547023935
 20
13110.9359365025
 30
0.0
 40
2.7
  1
崷19
 50
90.0
  7
BOX
100
AcDbText
  0
ENDBLK
  5
2DA
100
AcDbEntity
  8
0
  6
CONTINUOUS
100
AcDbBlockEnd
  0
BLOCK
  5
2DC
100
AcDbEntity
  8
0
100
AcDbBlockBegin
  2
*D6
 70
        65
 10
0.0
 20
0.0
 30
0.0
  3
*D6
  1

  0
POINT
  5
2DE
100
AcDbEntity
  8
DEFPOINTS
  6
CONTINUOUS
 62
         0
100
AcDbPoint
 10
-11645.678126954
 20
13178.8998642074
 30
0.0
  0
POINT
  5
2DF
100
AcDbEntity
  8
DEFPOINTS
  6
CONTINUOUS
 62
         0
100
AcDbPoint
 10
-11645.678126954
 20
13120.6140970959
 30
0.0
  0
POINT
  5
2E0
100
AcDbEntity
  8
DEFPOINTS
  6
CONTINUOUS
 62
         0
100
AcDbPoint
 10
-11710.678126954
 20
13142.8390970959
 30
0.0
  0
LINE
  5
2E1
100
AcDbEntity
  8
________170_H_U
  6
CONTINUOUS
 62
         4
100
AcDbLine
 10
-11645.678126954
 20
13121.9640970959
 30
0.0
 11
-11645.678126954
 21
13179.5748642074
 31
0.0
  0
LINE
  5
2E2
100
AcDbEntity
  8
________170_H_U
  6
CONTINUOUS
 62
         4
100
AcDbLine
 10
-11710.678126954
 20
13144.1890970959
 30
0.0
 11
-11710.678126954
 21
13179.5748642074
 31
0.0
  0
LINE
  5
2E3
100
AcDbEntity
  8
________170_H_U
  6
CONTINUOUS
 62
         4
100
AcDbLine
 10
-11645.678126954
 20
13178.8998642074
 30
0.0
 11
-11710.678126954
 21
13178.8998642074
 31
0.0
  0
SOLID
  5
2E4
100
AcDbEntity
  8
________170_H_U
  6
CONTINUOUS
 62
         4
100
AcDbTrace
 10
-11645.678126954
 20
13178.8998642074
 30
0.0
 11
-11648.378126954
 21
13178.4948642074
 31
0.0
 12
-11648.378126954
 22
13179.3048642074
 32
0.0
 13
-11645.678126954
 23
13178.8998642074
 33
0.0
  0
SOLID
  5
2E5
100
AcDbEntity
  8
________170_H_U
  6
CONTINUOUS
 62
         4
100
AcDbTrace
 10
-11710.678126954
 20
13178.8998642074
 30
0.0
 11
-11707.978126954
 21
13179.3048642074
 31
0.0
 12
-11707.978126954
 22
13178.4948642074
 32
0.0
 13
-11710.678126954
 23
13178.8998642074
 33
0.0
  0
TEXT
  5
2E7
100
AcDbEntity
  8
________170_H_U
  6
CONTINUOUS
 62
         4
100
AcDbText
 10
-11680.8968806598
 20
13180.9248642074
 30
0.0
 40
2.7
  1
65
  7
BOX
100
AcDbText
  0
ENDBLK
  5
2E8
100
AcDbEntity
  8
0
  6
CONTINUOUS
100
AcDbBlockEnd
  0
BLOCK
  5
2EA
100
AcDbEntity
  8
0
100
AcDbBlockBegin
  2
*D7
 70
        65
 10
0.0
 20
0.0
 30
0.0
  3
*D7
  1

  0
POINT
  5
2EC
100
AcDbEntity
  8
DEFPOINTS
  6
CONTINUOUS
 62
         0
100
AcDbPoint
 10
-11776.078126954
 20
13187.7884869664
 30
0.0
  0
POINT
  5
2ED
100
AcDbEntity
  8
DEFPOINTS
  6
CONTINUOUS
 62
         0
100
AcDbPoint
 10
-11776.078126954
 20
13132.4369044293
 30
0.0
  0
POINT
  5
2EE
100
AcDbEntity
  8
DEFPOINTS
  6
CONTINUOUS
 62
         0
100
AcDbPoint
 10
-11645.678126954
 20
13120.6140970959
 30
0.0
  0
LINE
  5
2EF
100
AcDbEntity
  8
________170_H_U
  6
CONTINUOUS
 62
         4
100
AcDbLine
 10
-11776.078126954
 20
13133.7869044293
 30
0.0
 11
-11776.078126954
 21
13188.4634869664
 31
0.0
  0
LINE
  5
2F0
100
AcDbEntity
  8
________170_H_U
  6
CONTINUOUS
 62
         4
100
AcDbLine
 10
-11645.678126954
 20
13121.9640970959
 30
0.0
 11
-11645.678126954
 21
13188.4634869664
 31
0.0
  0
LINE
  5
2F1
100
AcDbEntity
  8
________170_H_U
  6
CONTINUOUS
 62
         4
100
AcDbLine
 10
-11776.078126954
 20
13187.7884869664
 30
0.0
 11
-11645.678126954
 21
13187.7884869664
 31
0.0
  0
SOLID
  5
2F2
100
AcDbEntity
  8
________170_H_U
  6
CONTINUOUS
 62
         4
100
AcDbTrace
 10
-11776.078126954
 20
13187.7884869664
 30
0.0
 11
-11773.378126954
 21
13188.1934869664
 31
0.0
 12
-11773.378126954
 22
13187.3834869664
 32
0.0
 13
-11776.078126954
 23
13187.7884869664
 33
0.0
  0
SOLID
  5
2F3
100
AcDbEntity
  8
________170_H_U
  6
CONTINUOUS
 62
         4
100
AcDbTrace
 10
-11645.678126954
 20
13187.7884869664
 30
0.0
 11
-11648.378126954
 21
13187.3834869664
 31
0.0
 12
-11648.378126954
 22
13188.1934869664
 32
0.0
 13
-11645.678126954
 23
13187.7884869664
 33
0.0
  0
TEXT
  5
2F5
100
AcDbEntity
  8
________170_H_U
  6
CONTINUOUS
 62
         4
100
AcDbText
 10
-11720.1310124141
 20
13189.8134869664
 30
0.0
 40
2.7
  1
130.4
  7
BOX
100
AcDbText
  0
ENDBLK
  5
2F6
100
AcDbEntity
  8
0
  6
CONTINUOUS
100
AcDbBlockEnd
  0
BLOCK
  5
2FB
100
AcDbEntity
  8
0
100
AcDbBlockBegin
  2
*D8
 70
        65
 10
0.0
 20
0.0
 30
0.0
  3
*D8
  1

  0
POINT
  5
2FD
100
AcDbEntity
  8
DEFPOINTS
  6
CONTINUOUS
 62
         0
100
AcDbPoint
 10
-11645.678126954
 20
12923.5754882214
 30
0.0
  0
POINT
  5
2FE
100
AcDbEntity
  8
DEFPOINTS
  6
CONTINUOUS
 62
         0
100
AcDbPoint
 10
-11645.678126954
 20
12951.441726017
 30
0.0
  0
POINT
  5
2FF
100
AcDbEntity
  8
DEFPOINTS
  6
CONTINUOUS
 62
         0
100
AcDbPoint
 10
-11660.678126954
 20
12955.8996206258
 30
0.0
  0
LINE
  5
300
100
AcDbEntity
  8
________170_H_U
  6
CONTINUOUS
 62
         4
100
AcDbLine
 10
-11645.678126954
 20
12950.091726017
 30
0.0
 11
-11645.678126954
 21
12922.9004882214
 31
0.0
  0
LINE
  5
301
100
AcDbEntity
  8
________170_H_U
  6
CONTINUOUS
 62
         4
100
AcDbLine
 10
-11660.678126954
 20
12954.5496206258
 30
0.0
 11
-11660.678126954
 21
12922.9004882214
 31
0.0
  0
LINE
  5
302
100
AcDbEntity
  8
________170_H_U
  6
CONTINUOUS
 62
         4
100
AcDbLine
 10
-11645.678126954
 20
12923.5754882214
 30
0.0
 11
-11660.678126954
 21
12923.5754882214
 31
0.0
  0
SOLID
  5
303
100
AcDbEntity
  8
________170_H_U
  6
CONTINUOUS
 62
         4
100
AcDbTrace
 10
-11645.678126954
 20
12923.5754882214
 30
0.0
 11
-11648.378126954
 21
12923.1704882214
 31
0.0
 12
-11648.378126954
 22
12923.9804882214
 32
0.0
 13
-11645.678126954
 23
12923.5754882214
 33
0.0
  0
SOLID
  5
304
100
AcDbEntity
  8
________170_H_U
  6
CONTINUOUS
 62
         4
100
AcDbTrace
 10
-11660.678126954
 20
12923.5754882214
 30
0.0
 11
-11657.978126954
 21
12923.9804882214
 31
0.0
 12
-11657.978126954
 22
12923.1704882214
 32
0.0
 13
-11660.678126954
 23
12923.5754882214
 33
0.0
  0
TEXT
  5
306
100
AcDbEntity
  8
________170_H_U
  6
CONTINUOUS
 62
         4
100
AcDbText
 10
-11658.9748485638
 20
12925.6004882214
 30
0.0
 40
2.7
  1
15
  7
BOX
100
AcDbText
  0
ENDBLK
  5
307
100
AcDbEntity
  8
0
  6
CONTINUOUS
100
AcDbBlockEnd
  0
BLOCK
  5
318
100
AcDbEntity
  8
0
100
AcDbBlockBegin
  2
*X9
 70
        65
 10
0.0
 20
0.0
 30
0.0
  3
*X9
  1

  0
LINE
  5
319
100
AcDbEntity
  8
________170_H_U
  6
CONTINUOUS
 62
         4
100
AcDbLine
 10
-11648.4189190841
 20
12949.2080682661
 30
0.0
 11
-11645.678126954
 21
12951.9488603963
 31
0.0
  0
LINE
  5
31A
100
AcDbEntity
  8
________170_H_U
  6
CONTINUOUS
 62
         4
100
AcDbLine
 10
-11653.028126954
 20
12948.8415010834
 30
0.0
 11
-11646.1388249264
 21
12955.7308031109
 31
0.0
  0
LINE
  5
31B
100
AcDbEntity
  8
________170_H_U
  6
CONTINUOUS
 62
         4
100
AcDbLine
 10
-11658.1261480987
 20
12947.9861206258
 30
0.0
 11
-11656.328126954
 21
12949.7841417705
 31
0.0
  0
LINE
  5
31C
100
AcDbEntity
  8
________170_H_U
  6
CONTINUOUS
 62
         4
100
AcDbLine
 10
-11653.028126954
 20
12953.0841417705
 30
0.0
 11
-11650.1885455988
 21
12955.9237231257
 31
0.0
  0
LINE
  5
31D
100
AcDbEntity
  8
________170_H_U
  6
CONTINUOUS
 62
         4
100
AcDbLine
 10
-11647.0637505985
 20
12959.048518126
 30
0.0
 11
-11645.678126954
 21
12960.4341417706
 31
0.0
  0
LINE
  5
31E
100
AcDbEntity
  8
________170_H_U
  6
CONTINUOUS
 62
         4
100
AcDbLine
 10
-11684.3687887857
 20
12925.9861206258
 30
0.0
 11
-11683.678126954
 21
12926.6767824576
 31
0.0
  0
LINE
  5
31F
100
AcDbEntity
  8
________170_H_U
  6
CONTINUOUS
 62
         4
100
AcDbLine
 10
-11662.3687887858
 20
12947.9861206258
 30
0.0
 11
-11656.328126954
 21
12954.0267824577
 31
0.0
  0
LINE
  5
320
100
AcDbEntity
  8
________170_H_U
  6
CONTINUOUS
 62
         4
100
AcDbLine
 10
-11651.3063912856
 20
12959.048518126
 30
0.0
 11
-11645.9554506972
 21
12964.3994587144
 31
0.0
  0
LINE
  5
321
100
AcDbEntity
  8
________170_H_U
  6
CONTINUOUS
 62
         4
100
AcDbLine
 10
-11688.6114294729
 20
12925.9861206258
 30
0.0
 11
-11683.678126954
 21
12930.9194231447
 31
0.0
  0
LINE
  5
322
100
AcDbEntity
  8
________170_H_U
  6
CONTINUOUS
 62
         4
100
AcDbLine
 10
-11666.6114294729
 20
12947.9861206258
 30
0.0
 11
-11658.6738269731
 21
12955.9237231257
 31
0.0
  0
LINE
  5
323
100
AcDbEntity
  8
________170_H_U
  6
CONTINUOUS
 62
         4
100
AcDbLine
 10
-11655.5490319728
 20
12959.048518126
 30
0.0
 11
-11648.7015732916
 21
12965.8959768071
 31
0.0
  0
LINE
  5
324
100
AcDbEntity
  8
________170_H_U
  6
CONTINUOUS
 62
         4
100
AcDbLine
 10
-11690.4601280622
 20
12928.3800627236
 30
0.0
 11
-11683.678126954
 21
12935.1620638319
 31
0.0
  0
LINE
  5
325
100
AcDbEntity
  8
________170_H_U
  6
CONTINUOUS
 62
         4
100
AcDbLine
 10
-11670.85407016
 20
12947.9861206258
 30
0.0
 11
-11665.35407016
 21
12953.4861206258
 31
0.0
  0
LINE
  5
326
100
AcDbEntity
  8
________170_H_U
  6
CONTINUOUS
 62
         4
100
AcDbLine
 10
-11659.7916726599
 20
12959.048518126
 30
0.0
 11
-11651.85407016
 21
12966.9861206258
 31
0.0
  0
LINE
  5
327
100
AcDbEntity
  8
________170_H_U
  6
CONTINUOUS
 62
         4
100
AcDbLine
 10
-11692.0967108471
 20
12930.9861206258
 30
0.0
 11
-11683.678126954
 21
12939.404704519
 31
0.0
  0
LINE
  5
328
100
AcDbEntity
  8
________170_H_U
  6
CONTINUOUS
 62
         4
100
AcDbLine
 10
-11675.0967108471
 20
12947.9861206258
 30
0.0
 11
-11669.5967108471
 21
12953.4861206258
 31
0.0
  0
LINE
  5
329
100
AcDbEntity
  8
________170_H_U
  6
CONTINUOUS
 62
         4
100
AcDbLine
 10
-11661.9065764336
 20
12961.1762550393
 30
0.0
 11
-11656.0967108471
 21
12966.9861206258
 31
0.0
  0
LINE
  5
32A
100
AcDbEntity
  8
________170_H_U
  6
CONTINUOUS
 62
         4
100
AcDbLine
 10
-11701.3393515342
 20
12925.9861206258
 30
0.0
 11
-11696.578126954
 21
12930.7473452061
 31
0.0
  0
LINE
  5
32B
100
AcDbEntity
  8
________170_H_U
  6
CONTINUOUS
 62
         4
100
AcDbLine
 10
-11696.3393515342
 20
12930.9861206258
 30
0.0
 11
-11683.678126954
 21
12943.6473452061
 31
0.0
  0
LINE
  5
32C
100
AcDbEntity
  8
________170_H_U
  6
CONTINUOUS
 62
         4
100
AcDbLine
 10
-11679.3393515342
 20
12947.9861206258
 30
0.0
 11
-11673.8393515342
 21
12953.4861206258
 31
0.0
  0
LINE
  5
32D
100
AcDbEntity
  8
________170_H_U
  6
CONTINUOUS
 62
         4
100
AcDbLine
 10
-11665.8393515343
 20
12961.4861206258
 30
0.0
 11
-11660.3393515343
 21
12966.9861206258
 31
0.0
  0
LINE
  5
32E
100
AcDbEntity
  8
________170_H_U
  6
CONTINUOUS
 62
         4
100
AcDbLine
 10
-11705.5819922213
 20
12925.9861206258
 30
0.0
 11
-11678.0819922214
 21
12953.4861206258
 31
0.0
  0
LINE
  5
32F
100
AcDbEntity
  8
________170_H_U
  6
CONTINUOUS
 62
         4
100
AcDbLine
 10
-11670.0819922214
 20
12961.4861206258
 30
0.0
 11
-11664.5819922214
 21
12966.9861206258
 31
0.0
  0
LINE
  5
330
100
AcDbEntity
  8
________170_H_U
  6
CONTINUOUS
 62
         4
100
AcDbLine
 10
-11708.678126954
 20
12927.1326265803
 30
0.0
 11
-11682.3246329085
 21
12953.4861206258
 31
0.0
  0
LINE
  5
331
100
AcDbEntity
  8
________170_H_U
  6
CONTINUOUS
 62
         4
100
AcDbLine
 10
-11674.3246329085
 20
12961.4861206258
 30
0.0
 11
-11668.8246329085
 21
12966.9861206258
 31
0.0
  0
LINE
  5
332
100
AcDbEntity
  8
________170_H_U
  6
CONTINUOUS
 62
         4
100
AcDbLine
 10
-11708.678126954
 20
12931.3752672675
 30
0.0
 11
-11689.6172735956
 21
12950.4361206258
 31
0.0
  0
LINE
  5
333
100
AcDbEntity
  8
________170_H_U
  6
CONTINUOUS
 62
         4
100
AcDbLine
 10
-11678.5672735956
 20
12961.4861206258
 30
0.0
 11
-11673.0672735956
 21
12966.9861206258
 31
0.0
  0
LINE
  5
334
100
AcDbEntity
  8
________170_H_U
  6
CONTINUOUS
 62
         4
100
AcDbLine
 10
-11708.9345042561
 20
12935.3615306524
 30
0.0
 11
-11693.8599142827
 21
12950.4361206258
 31
0.0
  0
LINE
  5
335
100
AcDbEntity
  8
________170_H_U
  6
CONTINUOUS
 62
         4
100
AcDbLine
 10
-11682.8099142827
 20
12961.4861206258
 30
0.0
 11
-11677.3099142827
 21
12966.9861206258
 31
0.0
  0
LINE
  5
336
100
AcDbEntity
  8
________170_H_U
  6
CONTINUOUS
 62
         4
100
AcDbLine
 10
-11712.9467202639
 20
12935.5919553318
 30
0.0
 11
-11698.1025549698
 21
12950.4361206258
 31
0.0
  0
LINE
  5
337
100
AcDbEntity
  8
________170_H_U
  6
CONTINUOUS
 62
         4
100
AcDbLine
 10
-11686.5863640728
 20
12961.9523115229
 30
0.0
 11
-11681.5525549698
 21
12966.9861206258
 31
0.0
  0
LINE
  5
338
100
AcDbEntity
  8
________170_H_U
  6
CONTINUOUS
 62
         4
100
AcDbLine
 10
-11716.6493910901
 20
12936.1319251927
 30
0.0
 11
-11702.3451956569
 21
12950.4361206258
 31
0.0
  0
LINE
  5
339
100
AcDbEntity
  8
________170_H_U
  6
CONTINUOUS
 62
         4
100
AcDbLine
 10
-11688.245195657
 20
12964.5361206258
 30
0.0
 11
-11683.678126954
 21
12969.1031893288
 31
0.0
  0
LINE
  5
33A
100
AcDbEntity
  8
________170_H_U
  6
CONTINUOUS
 62
         4
100
AcDbLine
 10
-11720.3520619163
 20
12936.6718950536
 30
0.0
 11
-11706.5878363441
 21
12950.4361206258
 31
0.0
  0
LINE
  5
33B
100
AcDbEntity
  8
________170_H_U
  6
CONTINUOUS
 62
         4
100
AcDbLine
 10
-11692.428126954
 20
12964.595830016
 30
0.0
 11
-11683.678126954
 21
12973.345830016
 31
0.0
  0
LINE
  5
33C
100
AcDbEntity
  8
________170_H_U
  6
CONTINUOUS
 62
         4
100
AcDbLine
 10
-11724.0547327425
 20
12937.2118649145
 30
0.0
 11
-11710.8304770312
 21
12950.4361206258
 31
0.0
  0
LINE
  5
33D
100
AcDbEntity
  8
________170_H_U
  6
CONTINUOUS
 62
         4
100
AcDbLine
 10
-11696.7304770312
 20
12964.5361206258
 30
0.0
 11
-11695.728126954
 21
12965.5384707031
 31
0.0
  0
LINE
  5
33E
100
AcDbEntity
  8
________170_H_U
  6
CONTINUOUS
 62
         4
100
AcDbLine
 10
-11692.428126954
 20
12968.8384707031
 30
0.0
 11
-11683.678126954
 21
12977.5884707031
 31
0.0
  0
LINE
  5
33F
100
AcDbEntity
  8
________170_H_U
  6
CONTINUOUS
 62
         4
100
AcDbLine
 10
-11727.7574035687
 20
12937.7518347754
 30
0.0
 11
-11715.0731177183
 21
12950.4361206258
 31
0.0
  0
LINE
  5
340
100
AcDbEntity
  8
________170_H_U
  6
CONTINUOUS
 62
         4
100
AcDbLine
 10
-11700.9731177183
 20
12964.5361206258
 30
0.0
 11
-11695.728126954
 21
12969.7811113902
 31
0.0
  0
LINE
  5
341
100
AcDbEntity
  8
________170_H_U
  6
CONTINUOUS
 62
         4
100
AcDbLine
 10
-11692.428126954
 20
12973.0811113902
 30
0.0
 11
-11683.678126954
 21
12981.8311113902
 31
0.0
  0
LINE
  5
342
100
AcDbEntity
  8
________170_H_U
  6
CONTINUOUS
 62
         4
100
AcDbLine
 10
-11731.460074395
 20
12938.2918046363
 30
0.0
 11
-11719.3157584054
 21
12950.4361206258
 31
0.0
  0
LINE
  5
343
100
AcDbEntity
  8
________170_H_U
  6
CONTINUOUS
 62
         4
100
AcDbLine
 10
-11705.2157584054
 20
12964.5361206258
 30
0.0
 11
-11696.0925513721
 21
12973.6593276592
 31
0.0
  0
LINE
  5
344
100
AcDbEntity
  8
________170_H_U
  6
CONTINUOUS
 62
         4
100
AcDbLine
 10
-11692.428126954
 20
12977.3237520773
 30
0.0
 11
-11683.678126954
 21
12986.0737520773
 31
0.0
  0
LINE
  5
345
100
AcDbEntity
  8
________170_H_U
  6
CONTINUOUS
 62
         4
100
AcDbLine
 10
-11735.1627452212
 20
12938.8317744972
 30
0.0
 11
-11723.5583990925
 21
12950.4361206258
 31
0.0
  0
LINE
  5
346
100
AcDbEntity
  8
________170_H_U
  6
CONTINUOUS
 62
         4
100
AcDbLine
 10
-11709.4583990925
 20
12964.5361206258
 30
0.0
 11
-11698.5879177269
 21
12975.4066019915
 31
0.0
  0
LINE
  5
347
100
AcDbEntity
  8
________170_H_U
  6
CONTINUOUS
 62
         4
100
AcDbLine
 10
-11696.2184680848
 20
12977.7760516336
 30
0.0
 11
-11695.728126954
 21
12978.2663927644
 31
0.0
  0
LINE
  5
348
100
AcDbEntity
  8
________170_H_U
  6
CONTINUOUS
 62
         4
100
AcDbLine
 10
-11692.078126954
 20
12981.9163927644
 30
0.0
 11
-11685.0083990926
 21
12988.9861206258
 31
0.0
  0
LINE
  5
349
100
AcDbEntity
  8
________170_H_U
  6
CONTINUOUS
 62
         4
100
AcDbLine
 10
-11738.8654160474
 20
12939.3717443581
 30
0.0
 11
-11727.8010397796
 21
12950.4361206258
 31
0.0
  0
LINE
  5
34A
100
AcDbEntity
  8
________170_H_U
  6
CONTINUOUS
 62
         4
100
AcDbLine
 10
-11713.7010397797
 20
12964.5361206258
 30
0.0
 11
-11701.0832840818
 21
12977.1538763238
 31
0.0
  0
LINE
  5
34B
100
AcDbEntity
  8
________170_H_U
  6
CONTINUOUS
 62
         4
100
AcDbLine
 10
-11698.7138344397
 20
12979.5233259659
 30
0.0
 11
-11696.078126954
 21
12982.1590334516
 31
0.0
  0
LINE
  5
34C
100
AcDbEntity
  8
________170_H_U
  6
CONTINUOUS
 62
         4
100
AcDbLine
 10
-11742.5680868736
 20
12939.911714219
 30
0.0
 11
-11732.0436804668
 21
12950.4361206258
 31
0.0
  0
LINE
  5
34D
100
AcDbEntity
  8
________170_H_U
  6
CONTINUOUS
 62
         4
100
AcDbLine
 10
-11717.9436804668
 20
12964.5361206258
 30
0.0
 11
-11703.5786504366
 21
12978.901150656
 31
0.0
  0
LINE
  5
34E
100
AcDbEntity
  8
________170_H_U
  6
CONTINUOUS
 62
         4
100
AcDbLine
 10
-11701.2092007945
 20
12981.2706002981
 30
0.0
 11
-11697.034167702
 21
12985.4456333907
 31
0.0
  0
LINE
  5
34F
100
AcDbEntity
  8
________170_H_U
  6
CONTINUOUS
 62
         4
100
AcDbLine
 10
-11746.2707576998
 20
12940.4516840798
 30
0.0
 11
-11736.2863211539
 21
12950.4361206258
 31
0.0
  0
LINE
  5
350
100
AcDbEntity
  8
________170_H_U
  6
CONTINUOUS
 62
         4
100
AcDbLine
 10
-11722.1863211539
 20
12964.5361206258
 30
0.0
 11
-11706.0740167915
 21
12980.6484249883
 31
0.0
  0
LINE
  5
351
100
AcDbEntity
  8
________170_H_U
  6
CONTINUOUS
 62
         4
100
AcDbLine
 10
-11703.7045671494
 20
12983.0178746304
 30
0.0
 11
-11698.5870819726
 21
12988.1353598072
 31
0.0
  0
LINE
  5
352
100
AcDbEntity
  8
________170_H_U
  6
CONTINUOUS
 62
         4
100
AcDbLine
 10
-11749.9734285261
 20
12940.9916539407
 30
0.0
 11
-11740.528961841
 21
12950.4361206258
 31
0.0
  0
LINE
  5
353
100
AcDbEntity
  8
________170_H_U
  6
CONTINUOUS
 62
         4
100
AcDbLine
 10
-11726.428961841
 20
12964.5361206258
 30
0.0
 11
-11711.3522744818
 21
12979.6128079851
 31
0.0
  0
LINE
  5
354
100
AcDbEntity
  8
________170_H_U
  6
CONTINUOUS
 62
         4
100
AcDbLine
 10
-11706.0997550074
 20
12984.8653274594
 30
0.0
 11
-11701.978961841
 21
12988.9861206258
 31
0.0
  0
LINE
  5
355
100
AcDbEntity
  8
________170_H_U
  6
CONTINUOUS
 62
         4
100
AcDbLine
 10
-11753.6760993523
 20
12941.5316238016
 30
0.0
 11
-11744.7716025281
 21
12950.4361206258
 31
0.0
  0
LINE
  5
356
100
AcDbEntity
  8
________170_H_U
  6
CONTINUOUS
 62
         4
100
AcDbLine
 10
-11730.6716025281
 20
12964.5361206258
 30
0.0
 11
-11716.3192637959
 21
12978.8884593581
 31
0.0
  0
LINE
  5
357
100
AcDbEntity
  8
________170_H_U
  6
CONTINUOUS
 62
         4
100
AcDbLine
 10
-11708.4080938419
 20
12986.7996293121
 30
0.0
 11
-11706.2216025282
 21
12988.9861206258
 31
0.0
  0
LINE
  5
358
100
AcDbEntity
  8
________170_H_U
  6
CONTINUOUS
 62
         4
100
AcDbLine
 10
-11757.3787701785
 20
12942.0715936625
 30
0.0
 11
-11749.0142432152
 21
12950.4361206258
 31
0.0
  0
LINE
  5
359
100
AcDbEntity
  8
________170_H_U
  6
CONTINUOUS
 62
         4
100
AcDbLine
 10
-11734.9142432152
 20
12964.5361206258
 30
0.0
 11
-11721.2862531099
 21
12978.1641107312
 31
0.0
  0
LINE
  5
35A
100
AcDbEntity
  8
________170_H_U
  6
CONTINUOUS
 62
         4
100
AcDbLine
 10
-11761.0814410047
 20
12942.6115635234
 30
0.0
 11
-11753.2568839023
 21
12950.4361206258
 31
0.0
  0
LINE
  5
35B
100
AcDbEntity
  8
________170_H_U
  6
CONTINUOUS
 62
         4
100
AcDbLine
 10
-11739.1568839024
 20
12964.5361206258
 30
0.0
 11
-11726.253242424
 21
12977.4397621042
 31
0.0
  0
LINE
  5
35C
100
AcDbEntity
  8
________170_H_U
  6
CONTINUOUS
 62
         4
100
AcDbLine
 10
-11764.7841118309
 20
12943.1515333843
 30
0.0
 11
-11757.4995245895
 21
12950.4361206258
 31
0.0
  0
LINE
  5
35D
100
AcDbEntity
  8
________170_H_U
  6
CONTINUOUS
 62
         4
100
AcDbLine
 10
-11743.3995245895
 20
12964.5361206258
 30
0.0
 11
-11731.220231738
 21
12976.7154134773
 31
0.0
  0
LINE
  5
35E
100
AcDbEntity
  8
________170_H_U
  6
CONTINUOUS
 62
         4
100
AcDbLine
 10
-11768.4867826572
 20
12943.6915032452
 30
0.0
 11
-11761.7421652766
 21
12950.4361206258
 31
0.0
  0
LINE
  5
35F
100
AcDbEntity
  8
________170_H_U
  6
CONTINUOUS
 62
         4
100
AcDbLine
 10
-11747.6421652766
 20
12964.5361206258
 30
0.0
 11
-11736.1872210521
 21
12975.9910648504
 31
0.0
  0
LINE
  5
360
100
AcDbEntity
  8
________170_H_U
  6
CONTINUOUS
 62
         4
100
AcDbLine
 10
-11772.1894534834
 20
12944.2314731061
 30
0.0
 11
-11767.6331151998
 21
12948.7878113898
 31
0.0
  0
LINE
  5
361
100
AcDbEntity
  8
________170_H_U
  6
CONTINUOUS
 62
         4
100
AcDbLine
 10
-11767.0798177179
 20
12949.3411088717
 30
0.0
 11
-11765.9848059637
 21
12950.4361206258
 31
0.0
  0
LINE
  5
362
100
AcDbEntity
  8
________170_H_U
  6
CONTINUOUS
 62
         4
100
AcDbLine
 10
-11751.8848059637
 20
12964.5361206258
 30
0.0
 11
-11741.1542103661
 21
12975.2667162234
 31
0.0
  0
LINE
  5
363
100
AcDbEntity
  8
________170_H_U
  6
CONTINUOUS
 62
         4
100
AcDbLine
 10
-11775.7452244273
 20
12944.9183428493
 30
0.0
 11
-11771.6774466508
 21
12948.9861206258
 31
0.0
  0
LINE
  5
364
100
AcDbEntity
  8
________170_H_U
  6
CONTINUOUS
 62
         4
100
AcDbLine
 10
-11756.1274466508
 20
12964.5361206258
 30
0.0
 11
-11746.1211996802
 21
12974.5423675965
 31
0.0
  0
LINE
  5
365
100
AcDbEntity
  8
________170_H_U
  6
CONTINUOUS
 62
         4
100
AcDbLine
 10
-11760.3700873379
 20
12964.5361206258
 30
0.0
 11
-11751.0881889943
 21
12973.8180189695
 31
0.0
  0
LINE
  5
366
100
AcDbEntity
  8
________170_H_U
  6
CONTINUOUS
 62
         4
100
AcDbLine
 10
-11764.6127280251
 20
12964.5361206258
 30
0.0
 11
-11756.0551783083
 21
12973.0936703426
 31
0.0
  0
LINE
  5
367
100
AcDbEntity
  8
________170_H_U
  6
CONTINUOUS
 62
         4
100
AcDbLine
 10
-11767.322281048
 20
12966.06920829
 30
0.0
 11
-11761.0221676224
 21
12972.3693217157
 31
0.0
  0
LINE
  5
368
100
AcDbEntity
  8
________170_H_U
  6
CONTINUOUS
 62
         4
100
AcDbLine
 10
-11771.6480093993
 20
12965.9861206258
 30
0.0
 11
-11765.9891569364
 21
12971.6449730887
 31
0.0
  0
LINE
  5
369
100
AcDbEntity
  8
________170_H_U
  6
CONTINUOUS
 62
         4
100
AcDbLine
 10
-11775.5408983905
 20
12966.3358723218
 30
0.0
 11
-11770.9561462505
 21
12970.9206244618
 31
0.0
  0
ENDBLK
  5
36A
100
AcDbEntity
  8
0
  6
CONTINUOUS
100
AcDbBlockEnd
  0
ENDSEC
  0
SECTION
  2
ENTITIES
  0
LINE
  5
25
100
AcDbEntity
  8
________170_H_U
  6
CONTINUOUS
 62
         5
100
AcDbLine
 10
-11745.078126954
 20
12965.4861206258
 30
0.0
 11
-11742.078126954
 21
12964.5361206258
 31
0.0
  0
LINE
  5
26
100
AcDbEntity
  8
________170_H_U
  6
CONTINUOUS
 62
         5
100
AcDbLine
 10
-11745.078126954
 20
12949.4861206258
 30
0.0
 11
-11742.078126954
 21
12950.4361206258
 31
0.0
  0
LINE
  5
27
100
AcDbEntity
  8
________170_H_U
  6
CONTINUOUS
 62
         7
100
AcDbLine
 10
-11683.678126954
 20
12945.9861206258
 30
0.0
 11
-11683.678126954
 21
12926.9861206258
 31
0.0
  0
LINE
  5
28
100
AcDbEntity
  8
________170_H_U
  6
CONTINUOUS
 62
         7
100
AcDbLine
 10
-11683.678126954
 20
12968.9861206258
 30
0.0
 11
-11683.678126954
 21
12987.9861206258
 31
0.0
  0
LINE
  5
29
100
AcDbEntity
  8
_Y__________
  6
CONTINUOUS
 62
         7
100
AcDbLine
 10
-11708.678126954
 20
12986.9887085328
 30
0.0
 11
-11705.9503506465
 21
12985.0786989997
 31
0.0
  0
LINE
  5
2A
100
AcDbEntity
  8
_Y__________
  6
CENTER
 62
         1
100
AcDbLine
 10
-11710.3164310425
 20
12985.6332734985
 30
0.0
 11
-11693.3754587049
 21
12973.7710769632
 31
0.0
  0
LINE
  5
2B
100
AcDbEntity
  8
_Y__________
  6
CONTINUOUS
 62
         7
100
AcDbLine
 10
-11705.9503506465
 20
12985.0786989997
 30
0.0
 11
-11708.3593716791
 21
12981.6382604137
 31
0.0
  0
LINE
  5
2C
100
AcDbEntity
  8
_Y__________
  6
CONTINUOUS
 62
         7
100
AcDbLine
 10
-11708.678126954
 20
12981.86145526
 30
0.0
 11
-11708.3593716791
 21
12981.6382604137
 31
0.0
  0
LINE
  5
2D
100
AcDbEntity
  8
_Y__________
  6
CONTINUOUS
 62
         7
100
AcDbLine
 10
-11706.179781221
 20
12984.751038182
 30
0.0
 11
-11695.728126954
 21
12977.4327110775
 31
0.0
  0
LINE
  5
2E
100
AcDbEntity
  8
_Y__________
  6
CONTINUOUS
 62
         4
100
AcDbLine
 10
-11705.9790294683
 20
12985.0377413975
 30
0.0
 11
-11701.8832692468
 21
12982.1698592158
 31
0.0
  0
LINE
  5
2F
100
AcDbEntity
  8
_Y__________
  6
CONTINUOUS
 62
         4
100
AcDbLine
 10
-11708.2733352137
 20
12981.7611332204
 30
0.0
 11
-11704.1775749922
 21
12978.8932510386
 31
0.0
  0
LINE
  5
30
100
AcDbEntity
  8
_Y__________
  6
CONTINUOUS
 62
         7
100
AcDbLine
 10
-11708.072583461
 20
12982.0478364359
 30
0.0
 11
-11695.728126954
 21
12973.4041549346
 31
0.0
  0
LINE
  5
31
100
AcDbEntity
  8
_Y__________
  6
CONTINUOUS
 62
         7
100
AcDbLine
 10
-11701.8832692468
 20
12982.1698592158
 30
0.0
 11
-11704.1775749922
 21
12978.8932510386
 31
0.0
  0
LINE
  5
32
100
AcDbEntity
  8
_Y__________
  6
CONTINUOUS
 62
         4
100
AcDbLine
 10
-11692.785324714
 20
12975.3721387656
 30
0.0
 11
-11692.9513787061
 21
12973.4741329511
 31
0.0
  0
LINE
  5
33
100
AcDbEntity
  8
_Y__________
  6
CONTINUOUS
 62
         4
100
AcDbLine
 10
-11694.678126954
 20
12972.6689370194
 30
0.0
 11
-11692.9513787061
 21
12973.4741329511
 31
0.0
  0
LINE
  5
34
100
AcDbEntity
  8
_Y__________
  6
CONTINUOUS
 62
         4
100
AcDbLine
 10
-11692.785324714
 20
12975.3721387656
 30
0.0
 11
-11694.678126954
 21
12972.6689370194
 31
0.0
  0
LINE
  5
35
100
AcDbEntity
  8
_Y__________
  6
CONTINUOUS
 62
         7
100
AcDbLine
 10
-11696.078126954
 20
12979.9861206258
 30
0.0
 11
-11695.728126954
 21
12979.7840480316
 31
0.0
  0
LINE
  5
36
100
AcDbEntity
  8
_Y__________
  6
CONTINUOUS
 62
         4
100
AcDbLine
 10
-11695.728126954
 20
12977.4327110775
 30
0.0
 11
-11695.728126954
 21
12973.4041549346
 31
0.0
  0
LINE
  5
37
100
AcDbEntity
  8
_Y__________
  6
CONTINUOUS
 62
         7
100
AcDbLine
 10
-11695.728126954
 20
12973.4041549346
 30
0.0
 11
-11695.728126954
 21
12964.5361206258
 31
0.0
  0
LINE
  5
38
100
AcDbEntity
  8
_Y__________
  6
CONTINUOUS
 62
         7
100
AcDbLine
 10
-11692.428126954
 20
12979.7840480316
 30
0.0
 11
-11692.428126954
 21
12964.5361206258
 31
0.0
  0
LINE
  5
39
100
AcDbEntity
  8
_Y__________
  6
CONTINUOUS
 62
         7
100
AcDbLine
 10
-11695.728126954
 20
12979.7840480316
 30
0.0
 11
-11692.428126954
 21
12979.7840480316
 31
0.0
  0
LINE
  5
3A
100
AcDbEntity
  8
_Y__________
  6
CONTINUOUS
 62
         7
100
AcDbLine
 10
-11692.078126954
 20
12979.9861206258
 30
0.0
 11
-11692.428126954
 21
12979.7840480316
 31
0.0
  0
LINE
  5
3B
100
AcDbEntity
  8
_Y__________
  6
CONTINUOUS
 62
         4
100
AcDbLine
 10
-11696.078126954
 20
12979.9861206258
 30
0.0
 11
-11692.078126954
 21
12979.9861206258
 31
0.0
  0
LINE
  5
3C
100
AcDbEntity
  8
_Y__________
  6
CONTINUOUS
 62
         7
100
AcDbLine
 10
-11695.728126954
 20
12977.4327110775
 30
0.0
 11
-11695.728126954
 21
12979.7840480316
 31
0.0
  0
LINE
  5
3D
100
AcDbEntity
  8
_Y__________
  6
CONTINUOUS
 62
         4
100
AcDbLine
 10
-11695.728126954
 20
12977.4327110775
 30
0.0
 11
-11692.785324714
 21
12975.3721387656
 31
0.0
  0
LINE
  5
3E
100
AcDbEntity
  8
_Y__________
  6
CONTINUOUS
 62
         4
100
AcDbLine
 10
-11695.728126954
 20
12973.4041549346
 30
0.0
 11
-11694.678126954
 21
12972.6689370194
 31
0.0
  0
LINE
  5
3F
100
AcDbEntity
  8
_Y__________
  6
CONTINUOUS
 62
         7
100
AcDbLine
 10
-11696.078126954
 20
12983.9861206258
 30
0.0
 11
-11696.078126954
 21
12979.9861206258
 31
0.0
  0
LINE
  5
40
100
AcDbEntity
  8
_Y__________
  6
CONTINUOUS
 62
         7
100
AcDbLine
 10
-11692.078126954
 20
12983.9861206258
 30
0.0
 11
-11692.078126954
 21
12979.9861206258
 31
0.0
  0
LINE
  5
41
100
AcDbEntity
  8
_Y__________
  6
CENTER
 62
         1
100
AcDbLine
 10
-11694.078126954
 20
12923.7576414838
 30
0.0
 11
-11694.078126954
 21
12988.1639728355
 31
0.0
  0
LINE
  5
42
100
AcDbEntity
  8
_Y__________
  6
CENTER
 62
         1
100
AcDbLine
 10
-11894.2735929614
 20
13094.2163359047
 30
0.0
 11
-11899.9117486861
 21
13096.2684567647
 31
0.0
  0
POLYLINE
  5
44
100
AcDbEntity
  8
_Y__________
  6
CONTINUOUS
 62
         7
100
AcDb3dPolyline
 66
         1
 10
0.0
 20
0.0
 30
0.0
 70
         8
  0
VERTEX
  5
46
100
AcDbEntity
  8
_Y__________
  6
CONTINUOUS
 62
         7
100
AcDbVertex
100
AcDb3dPolylineVertex
 10
-11898.9720560653
 20
13095.9264366213
 30
0.0
 70
        32
  0
VERTEX
  5
48
100
AcDbEntity
  8
_Y__________
  6
CONTINUOUS
 62
         7
100
AcDbVertex
100
AcDb3dPolylineVertex
 10
-11898.9720560653
 20
13095.9264366213
 30
0.0
 70
        32
  0
SEQEND
  5
4A
100
AcDbEntity
  8
_Y__________
  6
CONTINUOUS
 62
         7
  0
ARC
  5
4B
100
AcDbEntity
  8
_Y__________
  6
CONTINUOUS
 62
         7
100
AcDbCircle
 10
-11896.1790770118
 20
13094.9098753809
 30
0.0
 40
2.9722262277
100
AcDbArc
 50
141.257725858
 51
160.0
  0
POLYLINE
  5
4D
100
AcDbEntity
  8
_Y__________
  6
CONTINUOUS
 62
         7
100
AcDb3dPolyline
 66
         1
 10
0.0
 20
0.0
 30
0.0
 70
         8
  0
VERTEX
  5
4F
100
AcDbEntity
  8
_Y__________
  6
CONTINUOUS
 62
         7
100
AcDbVertex
100
AcDb3dPolylineVertex
 10
-11898.4973209635
 20
13096.7699489626
 30
0.0
 70
        32
  0
VERTEX
  5
51
100
AcDbEntity
  8
_Y__________
  6
CONTINUOUS
 62
         7
100
AcDbVertex
100
AcDb3dPolylineVertex
 10
-11898.4973209635
 20
13096.7699489626
 30
0.0
 70
        32
  0
SEQEND
  5
53
100
AcDbEntity
  8
_Y__________
  6
CONTINUOUS
 62
         7
  0
ARC
  5
54
100
AcDbEntity
  8
_Y__________
  6
CONTINUOUS
 62
         7
100
AcDbCircle
 10
-11896.5711543673
 20
13095.2244638134
 30
0.0
 40
2.4695428935
100
AcDbArc
 50
120.6773100903
 51
141.257725858
  0
POLYLINE
  5
56
100
AcDbEntity
  8
_Y__________
  6
CONTINUOUS
 62
         7
100
AcDb3dPolyline
 66
         1
 10
0.0
 20
0.0
 30
0.0
 70
         8
  0
VERTEX
  5
58
100
AcDbEntity
  8
_Y__________
  6
CONTINUOUS
 62
         7
100
AcDbVertex
100
AcDb3dPolylineVertex
 10
-11897.8311209912
 20
13097.3484050107
 30
0.0
 70
        32
  0
VERTEX
  5
5A
100
AcDbEntity
  8
_Y__________
  6
CONTINUOUS
 62
         7
100
AcDbVertex
100
AcDb3dPolylineVertex
 10
-11897.8311209912
 20
13097.3484050107
 30
0.0
 70
        32
  0
SEQEND
  5
5C
100
AcDbEntity
  8
_Y__________
  6
CONTINUOUS
 62
         7
  0
ARC
  5
5D
100
AcDbEntity
  8
_Y__________
  6
CONTINUOUS
 62
         7
100
AcDbCircle
 10
-11896.7708928984
 20
13095.561165506
 30
0.0
 40
2.0780540551
100
AcDbArc
 50
96.8239621528
 51
120.6773100903
  0
POLYLINE
  5
5F
100
AcDbEntity
  8
_Y__________
  6
CONTINUOUS
 62
         7
100
AcDb3dPolyline
 66
         1
 10
0.0
 20
0.0
 30
0.0
 70
         8
  0
VERTEX
  5
61
100
AcDbEntity
  8
_Y__________
  6
CONTINUOUS
 62
         7
100
AcDbVertex
100
AcDb3dPolylineVertex
 10
-11897.0178056903
 20
13097.6244984236
 30
0.0
 70
        32
  0
VERTEX
  5
63
100
AcDbEntity
  8
_Y__________
  6
CONTINUOUS
 62
         7
100
AcDbVertex
100
AcDb3dPolylineVertex
 10
-11897.0178056903
 20
13097.6244984236
 30
0.0
 70
        32
  0
SEQEND
  5
65
100
AcDbEntity
  8
_Y__________
  6
CONTINUOUS
 62
         7
  0
ARC
  5
66
100
AcDbEntity
  8
_Y__________
  6
CONTINUOUS
 62
         7
100
AcDbCircle
 10
-11896.8218032271
 20
13095.9865989402
 30
0.0
 40
1.6495853065
100
AcDbArc
 50
70.0
 51
96.8239621528
  0
POLYLINE
  5
68
100
AcDbEntity
  8
_Y__________
  6
CONTINUOUS
 62
         7
100
AcDb3dPolyline
 66
         1
 10
0.0
 20
0.0
 30
0.0
 70
         8
  0
VERTEX
  5
6A
100
AcDbEntity
  8
_Y__________
  6
CONTINUOUS
 62
         7
100
AcDbVertex
100
AcDb3dPolylineVertex
 10
-11896.2576118241
 20
13097.5367020801
 30
0.0
 70
        32
  0
VERTEX
  5
6C
100
AcDbEntity
  8
_Y__________
  6
CONTINUOUS
 62
         7
100
AcDbVertex
100
AcDb3dPolylineVertex
 10
-11896.2576118241
 20
13097.5367020801
 30
0.0
 70
        32
  0
SEQEND
  5
6E
100
AcDbEntity
  8
_Y__________
  6
CONTINUOUS
 62
         7
  0
ARC
  5
6F
100
AcDbEntity
  8
_Y__________
  6
CONTINUOUS
 62
         7
100
AcDbCircle
 10
-11896.8218032271
 20
13095.9865989402
 30
0.0
 40
1.6495853065
100
AcDbArc
 50
43.1760378472
 51
70.0
  0
POLYLINE
  5
71
100
AcDbEntity
  8
_Y__________
  6
CONTINUOUS
 62
         7
100
AcDb3dPolyline
 66
         1
 10
0.0
 20
0.0
 30
0.0
 70
         8
  0
VERTEX
  5
73
100
AcDbEntity
  8
_Y__________
  6
CONTINUOUS
 62
         7
100
AcDbVertex
100
AcDb3dPolylineVertex
 10
-11895.6188351354
 20
13097.115314783
 30
0.0
 70
        32
  0
VERTEX
  5
75
100
AcDbEntity
  8
_Y__________
  6
CONTINUOUS
 62
         7
100
AcDbVertex
100
AcDb3dPolylineVertex
 10
-11895.6188351354
 20
13097.115314783
 30
0.0
 70
        32
  0
SEQEND
  5
77
100
AcDbEntity
  8
_Y__________
  6
CONTINUOUS
 62
         7
  0
ARC
  5
78
100
AcDbEntity
  8
_Y__________
  6
CONTINUOUS
 62
         7
100
AcDbCircle
 10
-11897.1342661417
 20
13095.6934225505
 30
0.0
 40
2.0780540551
100
AcDbArc
 50
19.3226899097
 51
43.1760378473
  0
POLYLINE
  5
7A
100
AcDbEntity
  8
_Y__________
  6
CONTINUOUS
 62
         7
100
AcDb3dPolyline
 66
         1
 10
0.0
 20
0.0
 30
0.0
 70
         8
  0
VERTEX
  5
7C
100
AcDbEntity
  8
_Y__________
  6
CONTINUOUS
 62
         7
100
AcDbVertex
100
AcDb3dPolylineVertex
 10
-11895.1732688936
 20
13096.3810259601
 30
0.0
 70
        32
  0
VERTEX
  5
7E
100
AcDbEntity
  8
_Y__________
  6
CONTINUOUS
 62
         7
100
AcDbVertex
100
AcDb3dPolylineVertex
 10
-11895.1732688936
 20
13096.3810259601
 30
0.0
 70
        32
  0
SEQEND
  5
80
100
AcDbEntity
  8
_Y__________
  6
CONTINUOUS
 62
         7
  0
ARC
  5
81
100
AcDbEntity
  8
_Y__________
  6
CONTINUOUS
 62
         7
100
AcDbCircle
 10
-11897.5037024097
 20
13095.5638835429
 30
0.0
 40
2.4695428935
100
AcDbArc
 50
358.742274142
 51
379.3226899096
  0
POLYLINE
  5
83
100
AcDbEntity
  8
_Y__________
  6
CONTINUOUS
 62
         7
100
AcDb3dPolyline
 66
         1
 10
0.0
 20
0.0
 30
0.0
 70
         8
  0
VERTEX
  5
85
100
AcDbEntity
  8
_Y__________
  6
CONTINUOUS
 62
         7
100
AcDbVertex
100
AcDb3dPolylineVertex
 10
-11895.0347544873
 20
13095.509677831
 30
0.0
 70
        32
  0
VERTEX
  5
87
100
AcDbEntity
  8
_Y__________
  6
CONTINUOUS
 62
         7
100
AcDbVertex
100
AcDb3dPolylineVertex
 10
-11895.0347544873
 20
13095.509677831
 30
0.0
 70
        32
  0
SEQEND
  5
89
100
AcDbEntity
  8
_Y__________
  6
CONTINUOUS
 62
         7
  0
ARC
  5
8A
100
AcDbEntity
  8
_Y__________
  6
CONTINUOUS
 62
         7
100
AcDbCircle
 10
-11898.0062646357
 20
13095.5749172884
 30
0.0
 40
2.9722262277
100
AcDbArc
 50
339.9999999999
 51
358.7422741419
  0
POLYLINE
  5
8C
100
AcDbEntity
  8
_Y__________
  6
CONTINUOUS
 62
         7
100
AcDb3dPolyline
 66
         1
 10
0.0
 20
0.0
 30
0.0
 70
         8
  0
VERTEX
  5
8E
100
AcDbEntity
  8
_Y__________
  6
CONTINUOUS
 62
         7
100
AcDbVertex
100
AcDb3dPolylineVertex
 10
-11895.2132855822
 20
13094.558356048
 30
0.0
 70
        32
  0
VERTEX
  5
90
100
AcDbEntity
  8
_Y__________
  6
CONTINUOUS
 62
         7
100
AcDbVertex
100
AcDb3dPolylineVertex
 10
-11895.2132855822
 20
13094.558356048
 30
0.0
 70
        32
  0
SEQEND
  5
92
100
AcDbEntity
  8
_Y__________
  6
CONTINUOUS
 62
         7
  0
ARC
  5
93
100
AcDbEntity
  8
_Y__________
  6
CONTINUOUS
 62
         7
100
AcDbCircle
 10
-11898.0062646357
 20
13095.5749172884
 30
0.0
 40
2.9722262277
100
AcDbArc
 50
321.257725858
 51
340.0
  0
POLYLINE
  5
95
100
AcDbEntity
  8
_Y__________
  6
CONTINUOUS
 62
         7
100
AcDb3dPolyline
 66
         1
 10
0.0
 20
0.0
 30
0.0
 70
         8
  0
VERTEX
  5
97
100
AcDbEntity
  8
_Y__________
  6
CONTINUOUS
 62
         7
100
AcDbVertex
100
AcDb3dPolylineVertex
 10
-11895.6880206839
 20
13093.7148437068
 30
0.0
 70
        32
  0
VERTEX
  5
99
100
AcDbEntity
  8
_Y__________
  6
CONTINUOUS
 62
         7
100
AcDbVertex
100
AcDb3dPolylineVertex
 10
-11895.6880206839
 20
13093.7148437068
 30
0.0
 70
        32
  0
SEQEND
  5
9B
100
AcDbEntity
  8
_Y__________
  6
CONTINUOUS
 62
         7
  0
ARC
  5
9C
100
AcDbEntity
  8
_Y__________
  6
CONTINUOUS
 62
         7
100
AcDbCircle
 10
-11897.6141872802
 20
13095.260328856
 30
0.0
 40
2.4695428935
100
AcDbArc
 50
300.6773100904
 51
321.2577258581
  0
POLYLINE
  5
9E
100
AcDbEntity
  8
_Y__________
  6
CONTINUOUS
 62
         7
100
AcDb3dPolyline
 66
         1
 10
0.0
 20
0.0
 30
0.0
 70
         8
  0
VERTEX
  5
A0
100
AcDbEntity
  8
_Y__________
  6
CONTINUOUS
 62
         7
100
AcDbVertex
100
AcDb3dPolylineVertex
 10
-11896.3542206563
 20
13093.1363876587
 30
0.0
 70
        32
  0
VERTEX
  5
A2
100
AcDbEntity
  8
_Y__________
  6
CONTINUOUS
 62
         7
100
AcDbVertex
100
AcDb3dPolylineVertex
 10
-11896.3542206563
 20
13093.1363876587
 30
0.0
 70
        32
  0
SEQEND
  5
A4
100
AcDbEntity
  8
_Y__________
  6
CONTINUOUS
 62
         7
  0
ARC
  5
A5
100
AcDbEntity
  8
_Y__________
  6
CONTINUOUS
 62
         7
100
AcDbCircle
 10
-11897.4144487491
 20
13094.9236271634
 30
0.0
 40
2.0780540551
100
AcDbArc
 50
276.8239621528
 51
300.6773100903
  0
POLYLINE
  5
A7
100
AcDbEntity
  8
_Y__________
  6
CONTINUOUS
 62
         7
100
AcDb3dPolyline
 66
         1
 10
0.0
 20
0.0
 30
0.0
 70
         8
  0
VERTEX
  5
A9
100
AcDbEntity
  8
_Y__________
  6
CONTINUOUS
 62
         7
100
AcDbVertex
100
AcDb3dPolylineVertex
 10
-11897.1675359572
 20
13092.8602942457
 30
0.0
 70
        32
  0
VERTEX
  5
AB
100
AcDbEntity
  8
_Y__________
  6
CONTINUOUS
 62
         7
100
AcDbVertex
100
AcDb3dPolylineVertex
 10
-11897.1675359572
 20
13092.8602942457
 30
0.0
 70
        32
  0
SEQEND
  5
AD
100
AcDbEntity
  8
_Y__________
  6
CONTINUOUS
 62
         7
  0
ARC
  5
AE
100
AcDbEntity
  8
_Y__________
  6
CONTINUOUS
 62
         7
100
AcDbCircle
 10
-11897.3635384204
 20
13094.4981937291
 30
0.0
 40
1.6495853065
100
AcDbArc
 50
250.0
 51
276.8239621528
  0
POLYLINE
  5
B0
100
AcDbEntity
  8
_Y__________
  6
CONTINUOUS
 62
         7
100
AcDb3dPolyline
 66
         1
 10
0.0
 20
0.0
 30
0.0
 70
         8
  0
VERTEX
  5
B2
100
AcDbEntity
  8
_Y__________
  6
CONTINUOUS
 62
         7
100
AcDbVertex
100
AcDb3dPolylineVertex
 10
-11897.9277298234
 20
13092.9480905893
 30
0.0
 70
        32
  0
VERTEX
  5
B4
100
AcDbEntity
  8
_Y__________
  6
CONTINUOUS
 62
         7
100
AcDbVertex
100
AcDb3dPolylineVertex
 10
-11897.9277298234
 20
13092.9480905893
 30
0.0
 70
        32
  0
SEQEND
  5
B6
100
AcDbEntity
  8
_Y__________
  6
CONTINUOUS
 62
         7
  0
ARC
  5
B7
100
AcDbEntity
  8
_Y__________
  6
CONTINUOUS
 62
         7
100
AcDbCircle
 10
-11897.3635384204
 20
13094.4981937291
 30
0.0
 40
1.6495853065
100
AcDbArc
 50
223.1760378472
 51
250.0
  0
POLYLINE
  5
B9
100
AcDbEntity
  8
_Y__________
  6
CONTINUOUS
 62
         7
100
AcDb3dPolyline
 66
         1
 10
0.0
 20
0.0
 30
0.0
 70
         8
  0
VERTEX
  5
BB
100
AcDbEntity
  8
_Y__________
  6
CONTINUOUS
 62
         7
100
AcDbVertex
100
AcDb3dPolylineVertex
 10
-11898.5665065121
 20
13093.3694778863
 30
0.0
 70
        32
  0
VERTEX
  5
BD
100
AcDbEntity
  8
_Y__________
  6
CONTINUOUS
 62
         7
100
AcDbVertex
100
AcDb3dPolylineVertex
 10
-11898.5665065121
 20
13093.3694778863
 30
0.0
 70
        32
  0
SEQEND
  5
BF
100
AcDbEntity
  8
_Y__________
  6
CONTINUOUS
 62
         7
  0
ARC
  5
C0
100
AcDbEntity
  8
_Y__________
  6
CONTINUOUS
 62
         7
100
AcDbCircle
 10
-11897.0510755057
 20
13094.7913701189
 30
0.0
 40
2.0780540551
100
AcDbArc
 50
199.3226899097
 51
223.1760378473
  0
ARC
  5
C1
100
AcDbEntity
  8
_Y__________
  6
CONTINUOUS
 62
         7
100
AcDbCircle
 10
-11896.6816392378
 20
13094.9209091265
 30
0.0
 40
2.4695428935
100
AcDbArc
 50
178.742274142
 51
199.3226899096
  0
ARC
  5
C2
100
AcDbEntity
  8
_Y__________
  6
CONTINUOUS
 62
         7
100
AcDbCircle
 10
-11896.1790770118
 20
13094.9098753809
 30
0.0
 40
2.9722262277
100
AcDbArc
 50
160.0
 51
178.742274142
  0
ARC
  5
C3
100
AcDbEntity
  8
_Y__________
  6
CONTINUOUS
 62
         7
100
AcDbCircle
 10
-11878.9453610095
 20
13145.6670286858
 30
0.0
 40
2.0780540551
100
AcDbArc
 50
276.8239621528
 51
300.6773100904
  0
ARC
  5
C4
100
AcDbEntity
  8
_Y__________
  6
CONTINUOUS
 62
         7
100
AcDbCircle
 10
-11879.5371768961
 20
13146.3183188109
 30
0.0
 40
2.9722262277
100
AcDbArc
 50
321.257725858
 51
340.0
  0
POLYLINE
  5
C6
100
AcDbEntity
  8
_Y__________
  6
CONTINUOUS
 62
         7
100
AcDb3dPolyline
 66
         1
 10
0.0
 20
0.0
 30
0.0
 70
         8
  0
VERTEX
  5
C8
100
AcDbEntity
  8
_Y__________
  6
CONTINUOUS
 62
         7
100
AcDbVertex
100
AcDb3dPolylineVertex
 10
-11880.5029683257
 20
13146.6698381438
 30
0.0
 70
        32
  0
VERTEX
  5
CA
100
AcDbEntity
  8
_Y__________
  6
CONTINUOUS
 62
         7
100
AcDbVertex
100
AcDb3dPolylineVertex
 10
-11880.5029683257
 20
13146.6698381438
 30
0.0
 70
        32
  0
SEQEND
  5
CC
100
AcDbEntity
  8
_Y__________
  6
CONTINUOUS
 62
         7
  0
ARC
  5
CD
100
AcDbEntity
  8
_Y__________
  6
CONTINUOUS
 62
         7
100
AcDbCircle
 10
-11877.7099892722
 20
13145.6532769034
 30
0.0
 40
2.9722262277
100
AcDbArc
 50
160.0
 51
178.7422741421
  0
POLYLINE
  5
CF
100
AcDbEntity
  8
_Y__________
  6
CONTINUOUS
 62
         7
100
AcDb3dPolyline
 66
         1
 10
0.0
 20
0.0
 30
0.0
 70
         8
  0
VERTEX
  5
D1
100
AcDbEntity
  8
_Y__________
  6
CONTINUOUS
 62
         7
100
AcDbVertex
100
AcDb3dPolylineVertex
 10
-11880.6814994206
 20
13145.7185163608
 30
0.0
 70
        32
  0
VERTEX
  5
D3
100
AcDbEntity
  8
_Y__________
  6
CONTINUOUS
 62
         7
100
AcDbVertex
100
AcDb3dPolylineVertex
 10
-11880.6814994206
 20
13145.7185163608
 30
0.0
 70
        32
  0
SEQEND
  5
D5
100
AcDbEntity
  8
_Y__________
  6
CONTINUOUS
 62
         7
  0
ARC
  5
D6
100
AcDbEntity
  8
_Y__________
  6
CONTINUOUS
 62
         7
100
AcDbCircle
 10
-11878.2125514982
 20
13145.6643106489
 30
0.0
 40
2.4695428935
100
AcDbArc
 50
178.742274142
 51
199.3226899097
  0
POLYLINE
  5
D8
100
AcDbEntity
  8
_Y__________
  6
CONTINUOUS
 62
         7
100
AcDb3dPolyline
 66
         1
 10
0.0
 20
0.0
 30
0.0
 70
         8
  0
VERTEX
  5
DA
100
AcDbEntity
  8
_Y__________
  6
CONTINUOUS
 62
         7
100
AcDbVertex
100
AcDb3dPolylineVertex
 10
-11880.5429850143
 20
13144.8471682317
 30
0.0
 70
        32
  0
VERTEX
  5
DC
100
AcDbEntity
  8
_Y__________
  6
CONTINUOUS
 62
         7
100
AcDbVertex
100
AcDb3dPolylineVertex
 10
-11880.5429850143
 20
13144.8471682317
 30
0.0
 70
        32
  0
SEQEND
  5
DE
100
AcDbEntity
  8
_Y__________
  6
CONTINUOUS
 62
         7
  0
ARC
  5
DF
100
AcDbEntity
  8
_Y__________
  6
CONTINUOUS
 62
         7
100
AcDbCircle
 10
-11878.5819877662
 20
13145.5347716413
 30
0.0
 40
2.0780540551
100
AcDbArc
 50
199.3226899097
 51
223.1760378473
  0
POLYLINE
  5
E1
100
AcDbEntity
  8
_Y__________
  6
CONTINUOUS
 62
         7
100
AcDb3dPolyline
 66
         1
 10
0.0
 20
0.0
 30
0.0
 70
         8
  0
VERTEX
  5
E3
100
AcDbEntity
  8
_Y__________
  6
CONTINUOUS
 62
         7
100
AcDbVertex
100
AcDb3dPolylineVertex
 10
-11880.0974187725
 20
13144.1128794088
 30
0.0
 70
        32
  0
VERTEX
  5
E5
100
AcDbEntity
  8
_Y__________
  6
CONTINUOUS
 62
         7
100
AcDbVertex
100
AcDb3dPolylineVertex
 10
-11880.0974187725
 20
13144.1128794088
 30
0.0
 70
        32
  0
SEQEND
  5
E7
100
AcDbEntity
  8
_Y__________
  6
CONTINUOUS
 62
         7
  0
ARC
  5
E8
100
AcDbEntity
  8
_Y__________
  6
CONTINUOUS
 62
         7
100
AcDbCircle
 10
-11878.8944506808
 20
13145.2415952516
 30
0.0
 40
1.6495853065
100
AcDbArc
 50
223.1760378472
 51
249.9999999999
  0
POLYLINE
  5
EA
100
AcDbEntity
  8
_Y__________
  6
CONTINUOUS
 62
         7
100
AcDb3dPolyline
 66
         1
 10
0.0
 20
0.0
 30
0.0
 70
         8
  0
VERTEX
  5
EC
100
AcDbEntity
  8
_Y__________
  6
CONTINUOUS
 62
         7
100
AcDbVertex
100
AcDb3dPolylineVertex
 10
-11879.4586420838
 20
13143.6914921117
 30
0.0
 70
        32
  0
VERTEX
  5
EE
100
AcDbEntity
  8
_Y__________
  6
CONTINUOUS
 62
         7
100
AcDbVertex
100
AcDb3dPolylineVertex
 10
-11879.4586420838
 20
13143.6914921117
 30
0.0
 70
        32
  0
SEQEND
  5
F0
100
AcDbEntity
  8
_Y__________
  6
CONTINUOUS
 62
         7
  0
ARC
  5
F1
100
AcDbEntity
  8
_Y__________
  6
CONTINUOUS
 62
         7
100
AcDbCircle
 10
-11878.8944506808
 20
13145.2415952516
 30
0.0
 40
1.6495853065
100
AcDbArc
 50
250.0
 51
276.8239621528
  0
POLYLINE
  5
F3
100
AcDbEntity
  8
_Y__________
  6
CONTINUOUS
 62
         7
100
AcDb3dPolyline
 66
         1
 10
0.0
 20
0.0
 30
0.0
 70
         8
  0
VERTEX
  5
F5
100
AcDbEntity
  8
_Y__________
  6
CONTINUOUS
 62
         7
100
AcDbVertex
100
AcDb3dPolylineVertex
 10
-11878.6984482176
 20
13143.6036957682
 30
0.0
 70
        32
  0
VERTEX
  5
F7
100
AcDbEntity
  8
_Y__________
  6
CONTINUOUS
 62
         7
100
AcDbVertex
100
AcDb3dPolylineVertex
 10
-11878.6984482176
 20
13143.6036957682
 30
0.0
 70
        32
  0
SEQEND
  5
F9
100
AcDbEntity
  8
_Y__________
  6
CONTINUOUS
 62
         7
  0
POLYLINE
  5
FB
100
AcDbEntity
  8
_Y__________
  6
CONTINUOUS
 62
         7
100
AcDb3dPolyline
 66
         1
 10
0.0
 20
0.0
 30
0.0
 70
         8
  0
VERTEX
  5
FD
100
AcDbEntity
  8
_Y__________
  6
CONTINUOUS
 62
         7
100
AcDbVertex
100
AcDb3dPolylineVertex
 10
-11877.8851329167
 20
13143.8797891811
 30
0.0
 70
        32
  0
VERTEX
  5
FF
100
AcDbEntity
  8
_Y__________
  6
CONTINUOUS
 62
         7
100
AcDbVertex
100
AcDb3dPolylineVertex
 10
-11877.8851329167
 20
13143.8797891811
 30
0.0
 70
        32
  0
SEQEND
  5
101
100
AcDbEntity
  8
_Y__________
  6
CONTINUOUS
 62
         7
  0
ARC
  5
102
100
AcDbEntity
  8
_Y__________
  6
CONTINUOUS
 62
         7
100
AcDbCircle
 10
-11879.1450995406
 20
13146.0037303784
 30
0.0
 40
2.4695428935
100
AcDbArc
 50
300.6773100903
 51
321.257725858
  0
POLYLINE
  5
104
100
AcDbEntity
  8
_Y__________
  6
CONTINUOUS
 62
         7
100
AcDb3dPolyline
 66
         1
 10
0.0
 20
0.0
 30
0.0
 70
         8
  0
VERTEX
  5
106
100
AcDbEntity
  8
_Y__________
  6
CONTINUOUS
 62
         7
100
AcDbVertex
100
AcDb3dPolylineVertex
 10
-11877.2189329444
 20
13144.4582452292
 30
0.0
 70
        32
  0
VERTEX
  5
108
100
AcDbEntity
  8
_Y__________
  6
CONTINUOUS
 62
         7
100
AcDbVertex
100
AcDb3dPolylineVertex
 10
-11877.2189329444
 20
13144.4582452292
 30
0.0
 70
        32
  0
SEQEND
  5
10A
100
AcDbEntity
  8
_Y__________
  6
CONTINUOUS
 62
         7
  0
POLYLINE
  5
10C
100
AcDbEntity
  8
_Y__________
  6
CONTINUOUS
 62
         7
100
AcDb3dPolyline
 66
         1
 10
0.0
 20
0.0
 30
0.0
 70
         8
  0
VERTEX
  5
10E
100
AcDbEntity
  8
_Y__________
  6
CONTINUOUS
 62
         7
100
AcDbVertex
100
AcDb3dPolylineVertex
 10
-11876.7441978426
 20
13145.3017575705
 30
0.0
 70
        32
  0
VERTEX
  5
110
100
AcDbEntity
  8
_Y__________
  6
CONTINUOUS
 62
         7
100
AcDbVertex
100
AcDb3dPolylineVertex
 10
-11876.7441978426
 20
13145.3017575705
 30
0.0
 70
        32
  0
SEQEND
  5
112
100
AcDbEntity
  8
_Y__________
  6
CONTINUOUS
 62
         7
  0
ARC
  5
113
100
AcDbEntity
  8
_Y__________
  6
CONTINUOUS
 62
         7
100
AcDbCircle
 10
-11879.5371768961
 20
13146.3183188109
 30
0.0
 40
2.9722262277
100
AcDbArc
 50
339.9999999999
 51
358.742274142
  0
POLYLINE
  5
115
100
AcDbEntity
  8
_Y__________
  6
CONTINUOUS
 62
         7
100
AcDb3dPolyline
 66
         1
 10
0.0
 20
0.0
 30
0.0
 70
         8
  0
VERTEX
  5
117
100
AcDbEntity
  8
_Y__________
  6
CONTINUOUS
 62
         7
100
AcDbVertex
100
AcDb3dPolylineVertex
 10
-11876.5656667477
 20
13146.2530793535
 30
0.0
 70
        32
  0
VERTEX
  5
119
100
AcDbEntity
  8
_Y__________
  6
CONTINUOUS
 62
         7
100
AcDbVertex
100
AcDb3dPolylineVertex
 10
-11876.5656667477
 20
13146.2530793535
 30
0.0
 70
        32
  0
SEQEND
  5
11B
100
AcDbEntity
  8
_Y__________
  6
CONTINUOUS
 62
         7
  0
ARC
  5
11C
100
AcDbEntity
  8
_Y__________
  6
CONTINUOUS
 62
         7
100
AcDbCircle
 10
-11879.0346146701
 20
13146.3072850653
 30
0.0
 40
2.4695428935
100
AcDbArc
 50
358.742274142
 51
379.3226899097
  0
POLYLINE
  5
11E
100
AcDbEntity
  8
_Y__________
  6
CONTINUOUS
 62
         7
100
AcDb3dPolyline
 66
         1
 10
0.0
 20
0.0
 30
0.0
 70
         8
  0
VERTEX
  5
120
100
AcDbEntity
  8
_Y__________
  6
CONTINUOUS
 62
         7
100
AcDbVertex
100
AcDb3dPolylineVertex
 10
-11876.7041811541
 20
13147.1244274825
 30
0.0
 70
        32
  0
VERTEX
  5
122
100
AcDbEntity
  8
_Y__________
  6
CONTINUOUS
 62
         7
100
AcDbVertex
100
AcDb3dPolylineVertex
 10
-11876.7041811541
 20
13147.1244274825
 30
0.0
 70
        32
  0
SEQEND
  5
124
100
AcDbEntity
  8
_Y__________
  6
CONTINUOUS
 62
         7
  0
ARC
  5
125
100
AcDbEntity
  8
_Y__________
  6
CONTINUOUS
 62
         7
100
AcDbCircle
 10
-11878.6651784022
 20
13146.4368240729
 30
0.0
 40
2.0780540551
100
AcDbArc
 50
19.3226899097
 51
43.1760378472
  0
POLYLINE
  5
127
100
AcDbEntity
  8
_Y__________
  6
CONTINUOUS
 62
         7
100
AcDb3dPolyline
 66
         1
 10
0.0
 20
0.0
 30
0.0
 70
         8
  0
VERTEX
  5
129
100
AcDbEntity
  8
_Y__________
  6
CONTINUOUS
 62
         7
100
AcDbVertex
100
AcDb3dPolylineVertex
 10
-11877.1497473958
 20
13147.8587163055
 30
0.0
 70
        32
  0
VERTEX
  5
12B
100
AcDbEntity
  8
_Y__________
  6
CONTINUOUS
 62
         7
100
AcDbVertex
100
AcDb3dPolylineVertex
 10
-11877.1497473958
 20
13147.8587163055
 30
0.0
 70
        32
  0
SEQEND
  5
12D
100
AcDbEntity
  8
_Y__________
  6
CONTINUOUS
 62
         7
  0
ARC
  5
12E
100
AcDbEntity
  8
_Y__________
  6
CONTINUOUS
 62
         7
100
AcDbCircle
 10
-11878.3527154875
 20
13146.7300004627
 30
0.0
 40
1.6495853065
100
AcDbArc
 50
43.1760378472
 51
69.9999999999
  0
POLYLINE
  5
130
100
AcDbEntity
  8
_Y__________
  6
CONTINUOUS
 62
         7
100
AcDb3dPolyline
 66
         1
 10
0.0
 20
0.0
 30
0.0
 70
         8
  0
VERTEX
  5
132
100
AcDbEntity
  8
_Y__________
  6
CONTINUOUS
 62
         7
100
AcDbVertex
100
AcDb3dPolylineVertex
 10
-11877.7885240845
 20
13148.2801036025
 30
0.0
 70
        32
  0
VERTEX
  5
134
100
AcDbEntity
  8
_Y__________
  6
CONTINUOUS
 62
         7
100
AcDbVertex
100
AcDb3dPolylineVertex
 10
-11877.7885240845
 20
13148.2801036025
 30
0.0
 70
        32
  0
SEQEND
  5
136
100
AcDbEntity
  8
_Y__________
  6
CONTINUOUS
 62
         7
  0
ARC
  5
137
100
AcDbEntity
  8
_Y__________
  6
CONTINUOUS
 62
         7
100
AcDbCircle
 10
-11878.3527154875
 20
13146.7300004627
 30
0.0
 40
1.6495853065
100
AcDbArc
 50
70.0000000001
 51
96.8239621529
  0
POLYLINE
  5
139
100
AcDbEntity
  8
_Y__________
  6
CONTINUOUS
 62
         7
100
AcDb3dPolyline
 66
         1
 10
0.0
 20
0.0
 30
0.0
 70
         8
  0
VERTEX
  5
13B
100
AcDbEntity
  8
_Y__________
  6
CONTINUOUS
 62
         7
100
AcDbVertex
100
AcDb3dPolylineVertex
 10
-11878.5487179507
 20
13148.3678999461
 30
0.0
 70
        32
  0
VERTEX
  5
13D
100
AcDbEntity
  8
_Y__________
  6
CONTINUOUS
 62
         7
100
AcDbVertex
100
AcDb3dPolylineVertex
 10
-11878.5487179507
 20
13148.3678999461
 30
0.0
 70
        32
  0
SEQEND
  5
13F
100
AcDbEntity
  8
_Y__________
  6
CONTINUOUS
 62
         7
  0
ARC
  5
140
100
AcDbEntity
  8
_Y__________
  6
CONTINUOUS
 62
         7
100
AcDbCircle
 10
-11878.3018051588
 20
13146.3045670284
 30
0.0
 40
2.0780540551
100
AcDbArc
 50
96.8239621528
 51
120.6773100903
  0
POLYLINE
  5
142
100
AcDbEntity
  8
_Y__________
  6
CONTINUOUS
 62
         7
100
AcDb3dPolyline
 66
         1
 10
0.0
 20
0.0
 30
0.0
 70
         8
  0
VERTEX
  5
144
100
AcDbEntity
  8
_Y__________
  6
CONTINUOUS
 62
         7
100
AcDbVertex
100
AcDb3dPolylineVertex
 10
-11879.3620332516
 20
13148.0918065331
 30
0.0
 70
        32
  0
VERTEX
  5
146
100
AcDbEntity
  8
_Y__________
  6
CONTINUOUS
 62
         7
100
AcDbVertex
100
AcDb3dPolylineVertex
 10
-11879.3620332516
 20
13148.0918065331
 30
0.0
 70
        32
  0
SEQEND
  5
148
100
AcDbEntity
  8
_Y__________
  6
CONTINUOUS
 62
         7
  0
ARC
  5
149
100
AcDbEntity
  8
_Y__________
  6
CONTINUOUS
 62
         7
100
AcDbCircle
 10
-11878.1020666277
 20
13145.9678653358
 30
0.0
 40
2.4695428935
100
AcDbArc
 50
120.6773100903
 51
141.257725858
  0
ARC
  5
14A
100
AcDbEntity
  8
_Y__________
  6
CONTINUOUS
 62
         7
100
AcDbCircle
 10
-11877.7099892722
 20
13145.6532769034
 30
0.0
 40
2.9722262277
100
AcDbArc
 50
141.257725858
 51
160.0
  0
LINE
  5
14B
100
AcDbEntity
  8
_Y__________
  6
CENTER
 62
         1
100
AcDbLine
 10
-11875.8045052218
 20
13144.9597374271
 30
0.0
 11
-11881.4426609465
 21
13147.0118582871
 31
0.0
  0
LINE
  5
14C
100
AcDbEntity
  8
_Y__________
  6
CENTER
 62
         1
100
AcDbLine
 10
-11875.6783271593
 20
13154.0778220053
 30
0.0
 11
-11899.9084228276
 21
13087.5061812854
 31
0.0
  0
ARC
  5
14D
100
AcDbEntity
  8
_Y__________
  6
DASHED
 62
         2
100
AcDbCircle
 10
-11887.858126954
 20
13120.6140970959
 30
0.0
 40
26.5
100
AcDbArc
 50
197.6843950498
 51
342.3156049502
  0
ARC
  5
14E
100
AcDbEntity
  8
_Y__________
  6
DASHED
 62
         2
100
AcDbCircle
 10
-11887.858126954
 20
13120.6140970959
 30
0.0
 40
26.5
100
AcDbArc
 50
17.6843950498
 51
162.3156049502
  0
LINE
  5
14F
100
AcDbEntity
  8
_Y__________
  6
CONTINUOUS
 62
         7
100
AcDbLine
 10
-11865.258126954
 20
13127.8640970959
 30
0.0
 11
-11865.258126954
 21
13113.3640970959
 31
0.0
  0
LINE
  5
150
100
AcDbEntity
  8
_Y__________
  6
CONTINUOUS
 62
         7
100
AcDbLine
 10
-11857.9041042312
 20
13128.6640970959
 30
0.0
 11
-11864.458126954
 21
13128.6640970959
 31
0.0
  0
LINE
  5
151
100
AcDbEntity
  8
_Y__________
  6
CONTINUOUS
 62
         7
100
AcDbLine
 10
-11857.9041042312
 20
13112.5640970959
 30
0.0
 11
-11864.458126954
 21
13112.5640970959
 31
0.0
  0
LINE
  5
152
100
AcDbEntity
  8
_Y__________
  6
CONTINUOUS
 62
         7
100
AcDbLine
 10
-11857.9041042312
 20
13128.6640970959
 30
0.0
 11
-11857.5107953544
 21
13129.0574059726
 31
0.0
  0
LINE
  5
153
100
AcDbEntity
  8
_Y__________
  6
CONTINUOUS
 62
         7
100
AcDbLine
 10
-11857.9041042312
 20
13112.5640970959
 30
0.0
 11
-11857.5107953544
 21
13112.1707882192
 31
0.0
  0
LINE
  5
154
100
AcDbEntity
  8
_Y__________
  6
CONTINUOUS
 62
         7
100
AcDbLine
 10
-11865.258126954
 20
13113.3640970959
 30
0.0
 11
-11864.458126954
 21
13112.5640970959
 31
0.0
  0
LINE
  5
155
100
AcDbEntity
  8
_Y__________
  6
CONTINUOUS
 62
         7
100
AcDbLine
 10
-11865.258126954
 20
13127.8640970959
 30
0.0
 11
-11864.458126954
 21
13128.6640970959
 31
0.0
  0
LINE
  5
156
100
AcDbEntity
  8
_Y__________
  6
CONTINUOUS
 62
         7
100
AcDbLine
 10
-11917.8121496767
 20
13112.5640970959
 30
0.0
 11
-11911.258126954
 21
13112.5640970959
 31
0.0
  0
LINE
  5
157
100
AcDbEntity
  8
_Y__________
  6
CONTINUOUS
 62
         7
100
AcDbLine
 10
-11917.8121496767
 20
13128.6640970959
 30
0.0
 11
-11911.258126954
 21
13128.6640970959
 31
0.0
  0
LINE
  5
158
100
AcDbEntity
  8
_Y__________
  6
CONTINUOUS
 62
         7
100
AcDbLine
 10
-11910.458126954
 20
13127.8640970959
 30
0.0
 11
-11910.458126954
 21
13113.3640970959
 31
0.0
  0
LINE
  5
159
100
AcDbEntity
  8
_Y__________
  6
CONTINUOUS
 62
         7
100
AcDbLine
 10
-11917.8121496767
 20
13128.6640970959
 30
0.0
 11
-11918.2054585535
 21
13129.0574059726
 31
0.0
  0
LINE
  5
15A
100
AcDbEntity
  8
_Y__________
  6
CONTINUOUS
 62
         7
100
AcDbLine
 10
-11917.8121496767
 20
13112.5640970959
 30
0.0
 11
-11918.2054585535
 21
13112.1707882192
 31
0.0
  0
LINE
  5
15B
100
AcDbEntity
  8
_Y__________
  6
CONTINUOUS
 62
         7
100
AcDbLine
 10
-11911.258126954
 20
13128.6640970959
 30
0.0
 11
-11910.458126954
 21
13127.8640970959
 31
0.0
  0
LINE
  5
15C
100
AcDbEntity
  8
_Y__________
  6
CONTINUOUS
 62
         7
100
AcDbLine
 10
-11910.458126954
 20
13113.3640970959
 30
0.0
 11
-11911.258126954
 21
13112.5640970959
 31
0.0
  0
LINE
  5
15D
100
AcDbEntity
  8
_Y__________
  6
CENTER
 62
         1
100
AcDbLine
 10
-11922.358126954
 20
13120.6140970959
 30
0.0
 11
-11853.358126954
 21
13120.6140970959
 31
0.0
  0
CIRCLE
  5
15E
100
AcDbEntity
  8
_Y__________
  6
CONTINUOUS
 62
         7
100
AcDbCircle
 10
-11887.858126954
 20
13120.6140970959
 30
0.0
 40
31.5
  0
LINE
  5
15F
100
AcDbEntity
  8
_Y__________
  6
CENTER
 62
         1
100
AcDbLine
 10
-11887.858126954
 20
13155.1140970959
 30
0.0
 11
-11887.858126954
 21
13086.1140970959
 31
0.0
  0
CIRCLE
  5
160
100
AcDbEntity
  8
_Y__________
  6
CONTINUOUS
 62
         7
100
AcDbCircle
 10
-11887.858126954
 20
13120.6140970959
 30
0.0
 40
12.6875524223
  0
CIRCLE
  5
161
100
AcDbEntity
  8
_Y__________
  6
CONTINUOUS
 62
         7
100
AcDbCircle
 10
-11887.858126954
 20
13120.6140970959
 30
0.0
 40
22.2979162659
  0
CIRCLE
  5
162
100
AcDbEntity
  8
_Y__________
  6
CONTINUOUS
 62
         7
100
AcDbCircle
 10
-11887.858126954
 20
13120.6140970959
 30
0.0
 40
7.0
  0
CIRCLE
  5
163
100
AcDbEntity
  8
_Y__________
  6
CONTINUOUS
 62
         7
100
AcDbCircle
 10
-11887.858126954
 20
13120.6140970959
 30
0.0
 40
8.5
  0
ARC
  5
164
100
AcDbEntity
  8
_Y__________
  6
CONTINUOUS
 62
         4
100
AcDbCircle
 10
-11887.858126954
 20
13120.6140970959
 30
0.0
 40
8.0
100
AcDbArc
 50
265.563559301
 51
540.0
  0
LINE
  5
165
100
AcDbEntity
  8
_Y__________
  6
CONTINUOUS
 62
         7
100
AcDbLine
 10
-11689.078126954
 20
13114.196932613
 30
0.0
 11
-11689.078126954
 21
13089.1140970959
 31
0.0
  0
LINE
  5
166
100
AcDbEntity
  8
_Y__________
  6
CONTINUOUS
 62
         7
100
AcDbLine
 10
-11691.578126954
 20
13113.2059934249
 30
0.0
 11
-11691.578126954
 21
13093.444470077
 31
0.0
  0
LINE
  5
167
100
AcDbEntity
  8
_Y__________
  6
CONTINUOUS
 62
         7
100
AcDbLine
 10
-11696.578126954
 20
13112.5640970959
 30
0.0
 11
-11696.578126954
 21
13093.444470077
 31
0.0
  0
LINE
  5
168
100
AcDbEntity
  8
_Y__________
  6
CONTINUOUS
 62
         7
100
AcDbLine
 10
-11699.078126954
 20
13112.0640970959
 30
0.0
 11
-11699.078126954
 21
13089.1140970959
 31
0.0
  0
LINE
  5
169
100
AcDbEntity
  8
_Y__________
  6
CONTINUOUS
 62
         4
100
AcDbLine
 10
-11708.678126954
 20
13112.0640970959
 30
0.0
 11
-11699.078126954
 21
13112.0640970959
 31
0.0
  0
LINE
  5
16A
100
AcDbEntity
  8
_Y__________
  6
CONTINUOUS
 62
         7
100
AcDbLine
 10
-11708.678126954
 20
13112.5640970959
 30
0.0
 11
-11694.728126954
 21
13112.5640970959
 31
0.0
  0
LINE
  5
16B
100
AcDbEntity
  8
_Y__________
  6
CONTINUOUS
 62
         7
100
AcDbLine
 10
-11708.678126954
 20
13128.6640970959
 30
0.0
 11
-11694.728126954
 21
13128.6640970959
 31
0.0
  0
ARC
  5
16C
100
AcDbEntity
  8
_Y__________
  6
CONTINUOUS
 62
         7
100
AcDbCircle
 10
-11694.728126954
 20
13120.6140970959
 30
0.0
 40
8.05
100
AcDbArc
 50
270.0
 51
450.0
  0
ARC
  5
16D
100
AcDbEntity
  8
_Y__________
  6
CONTINUOUS
 62
         4
100
AcDbCircle
 10
-11694.728126954
 20
13120.6140970959
 30
0.0
 40
8.55
100
AcDbArc
 50
311.3623424579
 51
408.6376575421
  0
LINE
  5
16E
100
AcDbEntity
  8
_Y__________
  6
CONTINUOUS
 62
         4
100
AcDbLine
 10
-11691.578126954
 20
13128.0222007669
 30
0.0
 11
-11689.078126954
 21
13127.0312615788
 31
0.0
  0
LINE
  5
16F
100
AcDbEntity
  8
_Y__________
  6
CONTINUOUS
 62
         4
100
AcDbLine
 10
-11691.578126954
 20
13113.2059934249
 30
0.0
 11
-11689.078126954
 21
13114.196932613
 31
0.0
  0
LINE
  5
170
100
AcDbEntity
  8
_Y__________
  6
CONTINUOUS
 62
         4
100
AcDbLine
 10
-11699.078126954
 20
13112.0640970959
 30
0.0
 11
-11696.578126954
 21
13112.5640970959
 31
0.0
  0
LINE
  5
171
100
AcDbEntity
  8
_Y__________
  6
CONTINUOUS
 62
         4
100
AcDbLine
 10
-11699.078126954
 20
13129.1640970959
 30
0.0
 11
-11696.578126954
 21
13128.6640970959
 31
0.0
  0
LINE
  5
172
100
AcDbEntity
  8
_Y__________
  6
CONTINUOUS
 62
         7
100
AcDbLine
 10
-11689.078126954
 20
13152.1140970959
 30
0.0
 11
-11689.078126954
 21
13127.0312615788
 31
0.0
  0
LINE
  5
173
100
AcDbEntity
  8
_Y__________
  6
CONTINUOUS
 62
         7
100
AcDbLine
 10
-11691.578126954
 20
13147.7837241148
 30
0.0
 11
-11691.578126954
 21
13128.0222007669
 31
0.0
  0
LINE
  5
174
100
AcDbEntity
  8
_Y__________
  6
CONTINUOUS
 62
         7
100
AcDbLine
 10
-11696.578126954
 20
13147.7837241148
 30
0.0
 11
-11696.578126954
 21
13128.6640970959
 31
0.0
  0
LINE
  5
175
100
AcDbEntity
  8
_Y__________
  6
CONTINUOUS
 62
         7
100
AcDbLine
 10
-11699.078126954
 20
13152.1140970959
 30
0.0
 11
-11699.078126954
 21
13129.1640970959
 31
0.0
  0
LINE
  5
176
100
AcDbEntity
  8
_Y__________
  6
CONTINUOUS
 62
         4
100
AcDbLine
 10
-11708.678126954
 20
13129.1640970959
 30
0.0
 11
-11699.078126954
 21
13129.1640970959
 31
0.0
  0
LINE
  5
177
100
AcDbEntity
  8
_Y__________
  6
DASHED
 62
         2
100
AcDbLine
 10
-11509.4521496767
 20
13112.5640970959
 30
0.0
 11
-11502.898126954
 21
13112.5640970959
 31
0.0
  0
LINE
  5
178
100
AcDbEntity
  8
_Y__________
  6
DASHED
 62
         2
100
AcDbLine
 10
-11509.4521496767
 20
13128.6640970959
 30
0.0
 11
-11502.898126954
 21
13128.6640970959
 31
0.0
  0
LINE
  5
179
100
AcDbEntity
  8
_Y__________
  6
DASHED
 62
         2
100
AcDbLine
 10
-11502.098126954
 20
13127.8640970959
 30
0.0
 11
-11502.098126954
 21
13113.3640970959
 31
0.0
  0
LINE
  5
17A
100
AcDbEntity
  8
_Y__________
  6
DASHED
 62
         2
100
AcDbLine
 10
-11509.4521496767
 20
13128.6640970959
 30
0.0
 11
-11509.8454585535
 21
13129.0574059726
 31
0.0
  0
LINE
  5
17B
100
AcDbEntity
  8
_Y__________
  6
DASHED
 62
         2
100
AcDbLine
 10
-11509.4521496767
 20
13112.5640970959
 30
0.0
 11
-11509.8454585535
 21
13112.1707882192
 31
0.0
  0
LINE
  5
17C
100
AcDbEntity
  8
_Y__________
  6
DASHED
 62
         2
100
AcDbLine
 10
-11502.098126954
 20
13113.3640970959
 30
0.0
 11
-11502.898126954
 21
13112.5640970959
 31
0.0
  0
LINE
  5
17D
100
AcDbEntity
  8
_Y__________
  6
DASHED
 62
         2
100
AcDbLine
 10
-11502.098126954
 20
13127.8640970959
 30
0.0
 11
-11502.898126954
 21
13128.6640970959
 31
0.0
  0
LINE
  5
17E
100
AcDbEntity
  8
_Y__________
  6
DASHED
 62
         2
100
AcDbLine
 10
-11456.898126954
 20
13127.8640970959
 30
0.0
 11
-11456.898126954
 21
13113.3640970959
 31
0.0
  0
LINE
  5
17F
100
AcDbEntity
  8
_Y__________
  6
DASHED
 62
         2
100
AcDbLine
 10
-11449.5441042312
 20
13128.6640970959
 30
0.0
 11
-11456.098126954
 21
13128.6640970959
 31
0.0
  0
LINE
  5
180
100
AcDbEntity
  8
_Y__________
  6
DASHED
 62
         2
100
AcDbLine
 10
-11449.5441042312
 20
13112.5640970959
 30
0.0
 11
-11456.098126954
 21
13112.5640970959
 31
0.0
  0
LINE
  5
181
100
AcDbEntity
  8
_Y__________
  6
DASHED
 62
         2
100
AcDbLine
 10
-11449.5441042312
 20
13128.6640970959
 30
0.0
 11
-11449.1507953544
 21
13129.0574059726
 31
0.0
  0
LINE
  5
182
100
AcDbEntity
  8
_Y__________
  6
DASHED
 62
         2
100
AcDbLine
 10
-11449.5441042312
 20
13112.5640970959
 30
0.0
 11
-11449.1507953544
 21
13112.1707882192
 31
0.0
  0
LINE
  5
183
100
AcDbEntity
  8
_Y__________
  6
DASHED
 62
         2
100
AcDbLine
 10
-11456.098126954
 20
13128.6640970959
 30
0.0
 11
-11456.898126954
 21
13127.8640970959
 31
0.0
  0
LINE
  5
184
100
AcDbEntity
  8
_Y__________
  6
DASHED
 62
         2
100
AcDbLine
 10
-11456.898126954
 20
13113.3640970959
 30
0.0
 11
-11456.098126954
 21
13112.5640970959
 31
0.0
  0
ARC
  5
185
100
AcDbEntity
  8
_Y__________
  6
DASHED
 62
         2
100
AcDbCircle
 10
-11479.498126954
 20
13120.6140970959
 30
0.0
 40
26.5
100
AcDbArc
 50
197.6843950498
 51
342.3156049502
  0
ARC
  5
186
100
AcDbEntity
  8
_Y__________
  6
DASHED
 62
         2
100
AcDbCircle
 10
-11479.498126954
 20
13120.6140970959
 30
0.0
 40
26.5
100
AcDbArc
 50
17.6843950498
 51
162.3156049502
  0
LINE
  5
187
100
AcDbEntity
  8
_Y__________
  6
CENTER
 62
         1
100
AcDbLine
 10
-11513.998126954
 20
13120.6140970959
 30
0.0
 11
-11444.998126954
 21
13120.6140970959
 31
0.0
  0
CIRCLE
  5
188
100
AcDbEntity
  8
_Y__________
  6
CONTINUOUS
 62
         7
100
AcDbCircle
 10
-11479.498126954
 20
13120.6140970959
 30
0.0
 40
31.5
  0
LINE
  5
189
100
AcDbEntity
  8
_Y__________
  6
CENTER
 62
         1
100
AcDbLine
 10
-11479.498126954
 20
13155.1140970959
 30
0.0
 11
-11479.498126954
 21
13082.1069640003
 31
0.0
  0
ARC
  5
18A
100
AcDbEntity
  8
_Y__________
  6
CONTINUOUS
 62
         7
100
AcDbCircle
 10
-11707.678126954
 20
13151.1140970959
 30
0.0
 40
1.0
100
AcDbArc
 50
90.0
 51
180.0
  0
ARC
  5
18B
100
AcDbEntity
  8
_Y__________
  6
CONTINUOUS
 62
         7
100
AcDbCircle
 10
-11684.678126954
 20
13151.1140970959
 30
0.0
 40
1.0
100
AcDbArc
 50
0.0
 51
90.0
  0
LINE
  5
18C
100
AcDbEntity
  8
_Y__________
  6
CONTINUOUS
 62
         7
100
AcDbLine
 10
-11685.678126954
 20
13152.1140970959
 30
0.0
 11
-11684.678126954
 21
13152.1140970959
 31
0.0
  0
LINE
  5
18D
100
AcDbEntity
  8
_Y__________
  6
CONTINUOUS
 62
         7
100
AcDbLine
 10
-11683.678126954
 20
13091.1140970959
 30
0.0
 11
-11683.678126954
 21
13090.1140970959
 31
0.0
  0
LINE
  5
18E
100
AcDbEntity
  8
_Y__________
  6
CONTINUOUS
 62
         7
100
AcDbLine
 10
-11707.678126954
 20
13152.1140970959
 30
0.0
 11
-11706.678126954
 21
13152.1140970959
 31
0.0
  0
LINE
  5
18F
100
AcDbEntity
  8
_Y__________
  6
CONTINUOUS
 62
         7
100
AcDbLine
 10
-11708.678126954
 20
13091.1140970959
 30
0.0
 11
-11708.678126954
 21
13090.1140970959
 31
0.0
  0
ARC
  5
190
100
AcDbEntity
  8
_Y__________
  6
CONTINUOUS
 62
         7
100
AcDbCircle
 10
-11707.678126954
 20
13090.1140970959
 30
0.0
 40
1.0
100
AcDbArc
 50
180.0
 51
270.0
  0
LINE
  5
191
100
AcDbEntity
  8
_Y__________
  6
CONTINUOUS
 62
         7
100
AcDbLine
 10
-11707.678126954
 20
13089.1140970959
 30
0.0
 11
-11706.678126954
 21
13089.1140970959
 31
0.0
  0
LINE
  5
192
100
AcDbEntity
  8
_Y__________
  6
CONTINUOUS
 62
         7
100
AcDbLine
 10
-11685.678126954
 20
13089.1140970959
 30
0.0
 11
-11684.678126954
 21
13089.1140970959
 31
0.0
  0
ARC
  5
193
100
AcDbEntity
  8
_Y__________
  6
CONTINUOUS
 62
         7
100
AcDbCircle
 10
-11684.678126954
 20
13090.1140970959
 30
0.0
 40
1.0
100
AcDbArc
 50
270.0
 51
360.0
  0
LINE
  5
194
100
AcDbEntity
  8
_Y__________
  6
CONTINUOUS
 62
         7
100
AcDbLine
 10
-11683.678126954
 20
13150.1140970959
 30
0.0
 11
-11683.678126954
 21
13151.1140970959
 31
0.0
  0
LINE
  5
195
100
AcDbEntity
  8
_Y__________
  6
CONTINUOUS
 62
         7
100
AcDbLine
 10
-11708.678126954
 20
13150.1140970959
 30
0.0
 11
-11708.678126954
 21
13151.1140970959
 31
0.0
  0
LINE
  5
196
100
AcDbEntity
  8
_Y__________
  6
CONTINUOUS
 62
         7
100
AcDbLine
 10
-11708.678126954
 20
12986.9861206258
 30
0.0
 11
-11708.678126954
 21
12987.9861206258
 31
0.0
  0
LINE
  5
197
100
AcDbEntity
  8
_Y__________
  6
CONTINUOUS
 62
         7
100
AcDbLine
 10
-11683.678126954
 20
12968.9861206258
 30
0.0
 11
-11683.678126954
 21
12987.9861206258
 31
0.0
  0
ARC
  5
198
100
AcDbEntity
  8
_Y__________
  6
CONTINUOUS
 62
         7
100
AcDbCircle
 10
-11684.678126954
 20
12926.9861206258
 30
0.0
 40
1.0
100
AcDbArc
 50
270.0
 51
360.0
  0
LINE
  5
199
100
AcDbEntity
  8
_Y__________
  6
CONTINUOUS
 62
         7
100
AcDbLine
 10
-11685.678126954
 20
12925.9861206258
 30
0.0
 11
-11684.678126954
 21
12925.9861206258
 31
0.0
  0
LINE
  5
19A
100
AcDbEntity
  8
_Y__________
  6
CONTINUOUS
 62
         7
100
AcDbLine
 10
-11707.678126954
 20
12925.9861206258
 30
0.0
 11
-11706.678126954
 21
12925.9861206258
 31
0.0
  0
ARC
  5
19B
100
AcDbEntity
  8
_Y__________
  6
CONTINUOUS
 62
         7
100
AcDbCircle
 10
-11707.678126954
 20
12926.9861206258
 30
0.0
 40
1.0
100
AcDbArc
 50
180.0
 51
270.0
  0
LINE
  5
19C
100
AcDbEntity
  8
_Y__________
  6
CONTINUOUS
 62
         7
100
AcDbLine
 10
-11708.678126954
 20
12927.9861206258
 30
0.0
 11
-11708.678126954
 21
12926.9861206258
 31
0.0
  0
LINE
  5
19D
100
AcDbEntity
  8
_Y__________
  6
CONTINUOUS
 62
         7
100
AcDbLine
 10
-11707.678126954
 20
12988.9861206258
 30
0.0
 11
-11706.678126954
 21
12988.9861206258
 31
0.0
  0
LINE
  5
19E
100
AcDbEntity
  8
_Y__________
  6
CONTINUOUS
 62
         7
100
AcDbLine
 10
-11683.678126954
 20
12945.9861206258
 30
0.0
 11
-11683.678126954
 21
12926.9861206258
 31
0.0
  0
LINE
  5
19F
100
AcDbEntity
  8
_Y__________
  6
CONTINUOUS
 62
         7
100
AcDbLine
 10
-11685.678126954
 20
12988.9861206258
 30
0.0
 11
-11684.678126954
 21
12988.9861206258
 31
0.0
  0
ARC
  5
1A0
100
AcDbEntity
  8
_Y__________
  6
CONTINUOUS
 62
         7
100
AcDbCircle
 10
-11684.678126954
 20
12987.9861206258
 30
0.0
 40
1.0
100
AcDbArc
 50
0.0
 51
90.0
  0
ARC
  5
1A1
100
AcDbEntity
  8
_Y__________
  6
CONTINUOUS
 62
         7
100
AcDbCircle
 10
-11707.678126954
 20
12987.9861206258
 30
0.0
 40
1.0
100
AcDbArc
 50
90.0
 51
180.0
  0
LINE
  5
1A2
100
AcDbEntity
  8
_Y__________
  6
CONTINUOUS
 62
         7
100
AcDbLine
 10
-11696.578126954
 20
13094.1140970959
 30
0.0
 11
-11691.578126954
 21
13094.1140970959
 31
0.0
  0
LINE
  5
1A3
100
AcDbEntity
  8
_Y__________
  6
CONTINUOUS
 62
         7
100
AcDbLine
 10
-11696.578126954
 20
13147.1140970959
 30
0.0
 11
-11691.578126954
 21
13147.1140970959
 31
0.0
  0
LINE
  5
1A4
100
AcDbEntity
  8
_Y__________
  6
CENTER
 62
         1
100
AcDbLine
 10
-11722.2395762662
 20
13120.6140970959
 30
0.0
 11
-11683.678126954
 21
13120.6140970959
 31
0.0
  0
LINE
  5
1A5
100
AcDbEntity
  8
_Y__________
  6
CENTER
 62
         1
100
AcDbLine
 10
-11781.5869451914
 20
13120.6140970959
 30
0.0
 11
-11735.0150027854
 21
13120.6140970959
 31
0.0
  0
LINE
  5
1A6
100
AcDbEntity
  8
_Y__________
  6
CONTINUOUS
 62
         7
100
AcDbLine
 10
-11696.578126954
 20
13147.7837241148
 30
0.0
 11
-11699.0782689603
 21
13152.1140970959
 31
0.0
  0
LINE
  5
1A7
100
AcDbEntity
  8
_Y__________
  6
CONTINUOUS
 62
         7
100
AcDbLine
 10
-11691.578126954
 20
13147.7837241148
 30
0.0
 11
-11689.0779849476
 21
13152.1140970959
 31
0.0
  0
LINE
  5
1A8
100
AcDbEntity
  8
_Y__________
  6
CONTINUOUS
 62
         7
100
AcDbLine
 10
-11689.0779849476
 20
13152.1140970959
 30
0.0
 11
-11684.678126954
 21
13152.1140970959
 31
0.0
  0
LINE
  5
1A9
100
AcDbEntity
  8
_Y__________
  6
CONTINUOUS
 62
         7
100
AcDbLine
 10
-11707.678126954
 20
13152.1140970959
 30
0.0
 11
-11699.0782689603
 21
13152.1140970959
 31
0.0
  0
LINE
  5
1AA
100
AcDbEntity
  8
_Y__________
  6
CONTINUOUS
 62
         7
100
AcDbLine
 10
-11689.0779849476
 20
13089.1140970959
 30
0.0
 11
-11684.678126954
 21
13089.1140970959
 31
0.0
  0
LINE
  5
1AB
100
AcDbEntity
  8
_Y__________
  6
CONTINUOUS
 62
         7
100
AcDbLine
 10
-11696.578126954
 20
13093.444470077
 30
0.0
 11
-11699.0782689603
 21
13089.1140970959
 31
0.0
  0
LINE
  5
1AC
100
AcDbEntity
  8
_Y__________
  6
CONTINUOUS
 62
         7
100
AcDbLine
 10
-11691.578126954
 20
13093.444470077
 30
0.0
 11
-11689.0779849476
 21
13089.1140970959
 31
0.0
  0
LINE
  5
1AD
100
AcDbEntity
  8
_Y__________
  6
CONTINUOUS
 62
         7
100
AcDbLine
 10
-11710.178126954
 20
13142.9120133618
 30
0.0
 11
-11709.4317167924
 21
13142.7120133618
 31
0.0
  0
LINE
  5
1AE
100
AcDbEntity
  8
_Y__________
  6
CONTINUOUS
 62
         7
100
AcDbLine
 10
-11709.4317167924
 20
13142.7120133618
 30
0.0
 11
-11709.078126954
 21
13142.7120133618
 31
0.0
  0
ARC
  5
1AF
100
AcDbEntity
  8
_Y__________
  6
CONTINUOUS
 62
         7
100
AcDbCircle
 10
-11709.078126954
 20
13143.1120133618
 30
0.0
 40
0.4
100
AcDbArc
 50
270.0
 51
360.0
  0
LINE
  5
1B0
100
AcDbEntity
  8
_Y__________
  6
CONTINUOUS
 62
         7
100
AcDbLine
 10
-11710.178126954
 20
13098.31618083
 30
0.0
 11
-11709.4317167924
 21
13098.51618083
 31
0.0
  0
ARC
  5
1B1
100
AcDbEntity
  8
_Y__________
  6
CONTINUOUS
 62
         7
100
AcDbCircle
 10
-11709.078126954
 20
13098.11618083
 30
0.0
 40
0.4
100
AcDbArc
 50
0.0
 51
90.0
  0
LINE
  5
1B2
100
AcDbEntity
  8
_Y__________
  6
CONTINUOUS
 62
         7
100
AcDbLine
 10
-11709.4317167924
 20
13098.51618083
 30
0.0
 11
-11709.078126954
 21
13098.51618083
 31
0.0
  0
LINE
  5
1B3
100
AcDbEntity
  8
_Y__________
  6
CONTINUOUS
 62
         7
100
AcDbLine
 10
-11710.178126954
 20
13142.9120133618
 30
0.0
 11
-11710.178126954
 21
13098.31618083
 31
0.0
  0
LINE
  5
1B4
100
AcDbEntity
  8
_Y__________
  6
CENTER
 62
         1
100
AcDbLine
 10
-11710.678126954
 20
13142.8390970959
 30
0.0
 11
-11710.678126954
 21
13098.3890970959
 31
0.0
  0
LINE
  5
1B5
100
AcDbEntity
  8
_Y__________
  6
CONTINUOUS
 62
         7
100
AcDbLine
 10
-11707.678126954
 20
13089.1140970959
 30
0.0
 11
-11699.0782689603
 21
13089.1140970959
 31
0.0
  0
LINE
  5
1B6
100
AcDbEntity
  8
_Y__________
  6
CONTINUOUS
 62
         7
100
AcDbLine
 10
-11776.078126954
 20
13132.4369044293
 30
0.0
 11
-11776.078126954
 21
13108.7912897625
 31
0.0
  0
ARC
  5
1B7
100
AcDbEntity
  8
_Y__________
  6
CONTINUOUS
 62
         7
100
AcDbCircle
 10
-11775.078126954
 20
13108.7912897625
 30
0.0
 40
1.0
100
AcDbArc
 50
180.0
 51
261.7029
  0
ARC
  5
1B8
100
AcDbEntity
  8
_Y__________
  6
CONTINUOUS
 62
         7
100
AcDbCircle
 10
-11775.078126954
 20
13132.4369044293
 30
0.0
 40
1.0
100
AcDbArc
 50
98.2971
 51
180.0
  0
LINE
  5
1B9
100
AcDbEntity
  8
_Y__________
  6
CONTINUOUS
 62
         7
100
AcDbLine
 10
-11775.2224330704
 20
13107.8017566682
 30
0.0
 11
-11710.178126954
 21
13098.31618083
 31
0.0
  0
LINE
  5
1BA
100
AcDbEntity
  8
_Y__________
  6
CONTINUOUS
 62
         7
100
AcDbLine
 10
-11775.2224330704
 20
13133.4264375236
 30
0.0
 11
-11710.178126954
 21
13142.9120133618
 31
0.0
  0
LINE
  5
1BB
100
AcDbEntity
  8
_Y__________
  6
CONTINUOUS
 62
         7
100
AcDbLine
 10
-11708.678126954
 20
13151.1140970959
 30
0.0
 11
-11708.678126954
 21
13090.1140970959
 31
0.0
  0
LINE
  5
1BC
100
AcDbEntity
  8
_Y__________
  6
CONTINUOUS
 62
         7
100
AcDbLine
 10
-11683.678126954
 20
13151.1140970959
 30
0.0
 11
-11683.678126954
 21
13090.1140970959
 31
0.0
  0
LINE
  5
1BD
100
AcDbEntity
  8
_Y__________
  6
CENTER
 62
         1
100
AcDbLine
 10
-11694.078126954
 20
13152.1140970959
 30
0.0
 11
-11694.078126954
 21
13089.1140970959
 31
0.0
  0
LINE
  5
1BE
100
AcDbEntity
  8
_Y__________
  6
CENTER
 62
         1
100
AcDbLine
 10
-11778.9950575414
 20
12957.4861206258
 30
0.0
 11
-11683.678126954
 21
12957.4861206258
 31
0.0
  0
LINE
  5
1BF
100
AcDbEntity
  8
_Y__________
  6
CONTINUOUS
 62
         5
100
AcDbLine
 10
-11767.078126954
 20
12965.4861206258
 30
0.0
 11
-11745.078126954
 21
12965.4861206258
 31
0.0
  0
LINE
  5
1C0
100
AcDbEntity
  8
_Y__________
  6
CONTINUOUS
 62
         5
100
AcDbLine
 10
-11767.078126954
 20
12949.4861206258
 30
0.0
 11
-11745.078126954
 21
12949.4861206258
 31
0.0
  0
ARC
  5
1C1
100
AcDbEntity
  8
_Y__________
  6
CONTINUOUS
 62
         7
100
AcDbCircle
 10
-11774.578126954
 20
12947.4861206258
 30
0.0
 40
1.5
100
AcDbArc
 50
90.0
 51
180.0
  0
ARC
  5
1C2
100
AcDbEntity
  8
_Y__________
  6
CONTINUOUS
 62
         7
100
AcDbCircle
 10
-11768.2527252939
 20
12949.3861206258
 30
0.0
 40
0.6
100
AcDbArc
 50
255.0
 51
270.0
  0
LINE
  5
1C3
100
AcDbEntity
  8
_Y__________
  6
CONTINUOUS
 62
         7
100
AcDbLine
 10
-11769.078126954
 20
12948.9861206258
 30
0.0
 11
-11768.4080167209
 21
12948.8065651301
 31
0.0
  0
LINE
  5
1C4
100
AcDbEntity
  8
_Y__________
  6
CONTINUOUS
 62
         7
100
AcDbLine
 10
-11774.578126954
 20
12948.9861206258
 30
0.0
 11
-11769.078126954
 21
12948.9861206258
 31
0.0
  0
LINE
  5
1C5
100
AcDbEntity
  8
_Y__________
  6
CONTINUOUS
 62
         7
100
AcDbLine
 10
-11768.2527252939
 20
12948.7861206258
 30
0.0
 11
-11767.678126954
 21
12948.7861206258
 31
0.0
  0
ARC
  5
1C6
100
AcDbEntity
  8
_Y__________
  6
CONTINUOUS
 62
         7
100
AcDbCircle
 10
-11767.678126954
 20
12949.3861206258
 30
0.0
 40
0.6
100
AcDbArc
 50
270.0
 51
360.0
  0
LINE
  5
1C7
100
AcDbEntity
  8
_Y__________
  6
CONTINUOUS
 62
         7
100
AcDbLine
 10
-11769.078126954
 20
12965.9861206258
 30
0.0
 11
-11769.078126954
 21
12948.9861206258
 31
0.0
  0
ARC
  5
1C8
100
AcDbEntity
  8
_Y__________
  6
CONTINUOUS
 62
         7
100
AcDbCircle
 10
-11774.578126954
 20
12967.4861206258
 30
0.0
 40
1.5
100
AcDbArc
 50
180.0
 51
270.0
  0
LINE
  5
1C9
100
AcDbEntity
  8
_Y__________
  6
CONTINUOUS
 62
         7
100
AcDbLine
 10
-11774.578126954
 20
12965.9861206258
 30
0.0
 11
-11769.078126954
 21
12965.9861206258
 31
0.0
  0
LINE
  5
1CA
100
AcDbEntity
  8
_Y__________
  6
CONTINUOUS
 62
         7
100
AcDbLine
 10
-11769.078126954
 20
12965.9861206258
 30
0.0
 11
-11768.4080167209
 21
12966.1656761216
 31
0.0
  0
ARC
  5
1CB
100
AcDbEntity
  8
_Y__________
  6
CONTINUOUS
 62
         7
100
AcDbCircle
 10
-11768.2527252939
 20
12965.5861206258
 30
0.0
 40
0.6
100
AcDbArc
 50
90.0
 51
105.0
  0
LINE
  5
1CC
100
AcDbEntity
  8
_Y__________
  6
CONTINUOUS
 62
         7
100
AcDbLine
 10
-11768.2527252939
 20
12966.1861206258
 30
0.0
 11
-11767.678126954
 21
12966.1861206258
 31
0.0
  0
ARC
  5
1CD
100
AcDbEntity
  8
_Y__________
  6
CONTINUOUS
 62
         7
100
AcDbCircle
 10
-11767.678126954
 20
12965.5861206258
 30
0.0
 40
0.6
100
AcDbArc
 50
0.0
 51
90.0
  0
LINE
  5
1CE
100
AcDbEntity
  8
_Y__________
  6
CONTINUOUS
 62
         7
100
AcDbLine
 10
-11767.078126954
 20
12965.5861206258
 30
0.0
 11
-11767.078126954
 21
12949.3861206258
 31
0.0
  0
LINE
  5
1CF
100
AcDbEntity
  8
_Y__________
  6
CONTINUOUS
 62
         7
100
AcDbLine
 10
-11767.078126954
 20
12950.4361206258
 30
0.0
 11
-11745.078126954
 21
12950.4361206258
 31
0.0
  0
LINE
  5
1D0
100
AcDbEntity
  8
_Y__________
  6
CONTINUOUS
 62
         7
100
AcDbLine
 10
-11767.078126954
 20
12964.5361206258
 30
0.0
 11
-11745.078126954
 21
12964.5361206258
 31
0.0
  0
LINE
  5
1D1
100
AcDbEntity
  8
_Y__________
  6
CONTINUOUS
 62
         7
100
AcDbLine
 10
-11689.0779849476
 20
12925.9861206258
 30
0.0
 11
-11684.678126954
 21
12925.9861206258
 31
0.0
  0
LINE
  5
1D2
100
AcDbEntity
  8
_Y__________
  6
CONTINUOUS
 62
         7
100
AcDbLine
 10
-11691.578126954
 20
12930.3164936069
 30
0.0
 11
-11689.0779849476
 21
12925.9861206258
 31
0.0
  0
LINE
  5
1D3
100
AcDbEntity
  8
_Y__________
  6
CONTINUOUS
 62
         7
100
AcDbLine
 10
-11691.578126954
 20
12930.9861206258
 30
0.0
 11
-11691.578126954
 21
12930.3164936069
 31
0.0
  0
LINE
  5
1D4
100
AcDbEntity
  8
_Y__________
  6
CONTINUOUS
 62
         7
100
AcDbLine
 10
-11696.578126954
 20
12930.9861206258
 30
0.0
 11
-11691.578126954
 21
12930.9861206258
 31
0.0
  0
LINE
  5
1D5
100
AcDbEntity
  8
_Y__________
  6
CONTINUOUS
 62
         7
100
AcDbLine
 10
-11696.578126954
 20
12930.9861206258
 30
0.0
 11
-11696.578126954
 21
12930.3164936069
 31
0.0
  0
LINE
  5
1D6
100
AcDbEntity
  8
_Y__________
  6
CONTINUOUS
 62
         7
100
AcDbLine
 10
-11696.578126954
 20
12930.3164936069
 30
0.0
 11
-11699.0782689603
 21
12925.9861206258
 31
0.0
  0
LINE
  5
1D7
100
AcDbEntity
  8
_Y__________
  6
CONTINUOUS
 62
         7
100
AcDbLine
 10
-11707.678126954
 20
12925.9861206258
 30
0.0
 11
-11699.0782689603
 21
12925.9861206258
 31
0.0
  0
LINE
  5
1D8
100
AcDbEntity
  8
_Y__________
  6
CONTINUOUS
 62
         7
100
AcDbLine
 10
-11708.678126954
 20
12934.98820436
 30
0.0
 11
-11708.678126954
 21
12926.9861206258
 31
0.0
  0
ARC
  5
1D9
100
AcDbEntity
  8
_Y__________
  6
CONTINUOUS
 62
         7
100
AcDbCircle
 10
-11709.078126954
 20
12934.98820436
 30
0.0
 40
0.4
100
AcDbArc
 50
0.0
 51
90.0
  0
LINE
  5
1DA
100
AcDbEntity
  8
_Y__________
  6
CONTINUOUS
 62
         7
100
AcDbLine
 10
-11709.4317167924
 20
12935.38820436
 30
0.0
 11
-11709.078126954
 21
12935.38820436
 31
0.0
  0
LINE
  5
1DB
100
AcDbEntity
  8
_Y__________
  6
CONTINUOUS
 62
         7
100
AcDbLine
 10
-11710.178126954
 20
12935.18820436
 30
0.0
 11
-11709.4317167924
 21
12935.38820436
 31
0.0
  0
LINE
  5
1DC
100
AcDbEntity
  8
_Y__________
  6
CONTINUOUS
 62
         7
100
AcDbLine
 10
-11775.2224330704
 20
12944.6737801981
 30
0.0
 11
-11710.178126954
 21
12935.18820436
 31
0.0
  0
ARC
  5
1DD
100
AcDbEntity
  8
_Y__________
  6
CONTINUOUS
 62
         7
100
AcDbCircle
 10
-11775.078126954
 20
12945.6633132924
 30
0.0
 40
1.0
100
AcDbArc
 50
180.0
 51
261.7029
  0
LINE
  5
1DE
100
AcDbEntity
  8
_Y__________
  6
CONTINUOUS
 62
         7
100
AcDbLine
 10
-11776.078126954
 20
12969.3089279592
 30
0.0
 11
-11776.078126954
 21
12945.6633132924
 31
0.0
  0
ARC
  5
1DF
100
AcDbEntity
  8
_Y__________
  6
CONTINUOUS
 62
         7
100
AcDbCircle
 10
-11775.078126954
 20
12969.3089279592
 30
0.0
 40
1.0
100
AcDbArc
 50
98.2971
 51
180.0
  0
LINE
  5
1E0
100
AcDbEntity
  8
_Y__________
  6
CONTINUOUS
 62
         7
100
AcDbLine
 10
-11775.2224330704
 20
12970.2984610536
 30
0.0
 11
-11710.178126954
 21
12979.7840368917
 31
0.0
  0
LINE
  5
1E1
100
AcDbEntity
  8
_Y__________
  6
CONTINUOUS
 62
         7
100
AcDbLine
 10
-11710.178126954
 20
12979.7840368917
 30
0.0
 11
-11709.4317167924
 21
12979.5840368917
 31
0.0
  0
LINE
  5
1E2
100
AcDbEntity
  8
_Y__________
  6
CONTINUOUS
 62
         7
100
AcDbLine
 10
-11709.4317167924
 20
12979.5840368917
 30
0.0
 11
-11709.078126954
 21
12979.5840368917
 31
0.0
  0
ARC
  5
1E3
100
AcDbEntity
  8
_Y__________
  6
CONTINUOUS
 62
         7
100
AcDbCircle
 10
-11709.078126954
 20
12979.9840368917
 30
0.0
 40
0.4
100
AcDbArc
 50
270.0
 51
360.0
  0
LINE
  5
1E4
100
AcDbEntity
  8
_Y__________
  6
CONTINUOUS
 62
         7
100
AcDbLine
 10
-11708.678126954
 20
12987.9861206258
 30
0.0
 11
-11708.678126954
 21
12979.9840368917
 31
0.0
  0
LINE
  5
1E5
100
AcDbEntity
  8
_Y__________
  6
CONTINUOUS
 62
         7
100
AcDbLine
 10
-11707.678126954
 20
12988.9861206258
 30
0.0
 11
-11699.0782689603
 21
12988.9861206258
 31
0.0
  0
LINE
  5
1E6
100
AcDbEntity
  8
_Y__________
  6
CONTINUOUS
 62
         7
100
AcDbLine
 10
-11696.578126954
 20
12984.6557476448
 30
0.0
 11
-11699.0782689603
 21
12988.9861206258
 31
0.0
  0
LINE
  5
1E7
100
AcDbEntity
  8
_Y__________
  6
CONTINUOUS
 62
         7
100
AcDbLine
 10
-11696.578126954
 20
12984.6557476448
 30
0.0
 11
-11696.578126954
 21
12983.9861206258
 31
0.0
  0
LINE
  5
1E8
100
AcDbEntity
  8
_Y__________
  6
CONTINUOUS
 62
         7
100
AcDbLine
 10
-11696.578126954
 20
12983.9861206258
 30
0.0
 11
-11691.578126954
 21
12983.9861206258
 31
0.0
  0
LINE
  5
1E9
100
AcDbEntity
  8
_Y__________
  6
CONTINUOUS
 62
         7
100
AcDbLine
 10
-11691.578126954
 20
12984.6557476448
 30
0.0
 11
-11691.578126954
 21
12983.9861206258
 31
0.0
  0
LINE
  5
1EA
100
AcDbEntity
  8
_Y__________
  6
CONTINUOUS
 62
         7
100
AcDbLine
 10
-11691.578126954
 20
12984.6557476448
 30
0.0
 11
-11689.0779849476
 21
12988.9861206258
 31
0.0
  0
LINE
  5
1EB
100
AcDbEntity
  8
_Y__________
  6
CONTINUOUS
 62
         7
100
AcDbLine
 10
-11689.0779849476
 20
12988.9861206258
 30
0.0
 11
-11684.678126954
 21
12988.9861206258
 31
0.0
  0
LINE
  5
1EC
100
AcDbEntity
  8
_Y__________
  6
CONTINUOUS
 62
         7
100
AcDbLine
 10
-11745.078126954
 20
12965.4861206258
 30
0.0
 11
-11745.078126954
 21
12949.4861206258
 31
0.0
  0
LINE
  5
1ED
100
AcDbEntity
  8
_Y__________
  6
CONTINUOUS
 62
         6
100
AcDbLine
 10
-11479.498126954
 20
13082.877380904
 30
0.0
 11
-11479.498126954
 21
13086.6948728597
 31
0.0
  0
INSERT
  5
1F4
100
AcDbEntity
  8
0
  6
CONTINUOUS
100
AcDbBlockReference
  2
GENARR2
 10
0.0
 20
0.0
 30
0.0
  0
INSERT
  5
1FB
100
AcDbEntity
  8
0
  6
CONTINUOUS
100
AcDbBlockReference
  2
GENARR3
 10
0.0
 20
0.0
 30
0.0
  0
LINE
  5
1FC
100
AcDbEntity
  8
_Y__________
  6
CONTINUOUS
 62
         6
100
AcDbLine
 10
-11492.4048440345
 20
13156.0750108341
 30
0.0
 11
-11491.0991848887
 21
13152.4877418135
 31
0.0
  0
LINE
  5
1FD
100
AcDbEntity
  8
_Y__________
  6
DASHED
 62
         2
100
AcDbLine
 10
-11473.6820589707
 20
13098.7869728416
 30
0.0
 11
-11469.9232884876
 21
13100.1550534149
 31
0.0
  0
LINE
  5
1FE
100
AcDbEntity
  8
_Y__________
  6
DASHED
 62
         2
100
AcDbLine
 10
-11468.5810576177
 20
13096.4673044081
 30
0.0
 11
-11469.9232884876
 21
13100.1550534149
 31
0.0
  0
LINE
  5
1FF
100
AcDbEntity
  8
_Y__________
  6
DASHED
 62
         2
100
AcDbLine
 10
-11472.3398281008
 20
13095.0992238348
 30
0.0
 11
-11473.6820589707
 21
13098.7869728416
 31
0.0
  0
LINE
  5
200
100
AcDbEntity
  8
_Y__________
  6
DASHED
 62
         2
100
AcDbLine
 10
-11470.2521809048
 20
13100.0353463647
 30
0.0
 11
-11475.6033611014
 21
13114.7375931221
 31
0.0
  0
LINE
  5
201
100
AcDbEntity
  8
_Y__________
  6
DASHED
 62
         2
100
AcDbLine
 10
-11473.3531665534
 20
13098.9066798917
 30
0.0
 11
-11478.70434675
 21
13113.6089266492
 31
0.0
  0
LINE
  5
202
100
AcDbEntity
  8
_Y__________
  6
DASHED
 62
         2
100
AcDbLine
 10
-11485.3141949372
 20
13142.4412213502
 30
0.0
 11
-11489.0729654204
 21
13141.0731407769
 31
0.0
  0
LINE
  5
203
100
AcDbEntity
  8
_Y__________
  6
DASHED
 62
         2
100
AcDbLine
 10
-11485.6223672412
 20
13142.2645862567
 30
0.0
 11
-11480.2919071579
 21
13127.6192675426
 31
0.0
  0
LINE
  5
204
100
AcDbEntity
  8
_Y__________
  6
DASHED
 62
         2
100
AcDbLine
 10
-11488.7233528898
 20
13141.1359197838
 30
0.0
 11
-11483.3928928065
 21
13126.4906010697
 31
0.0
  0
LINE
  5
205
100
AcDbEntity
  8
_Y__________
  6
DASHED
 62
         2
100
AcDbLine
 10
-11490.4151962903
 20
13144.7608897837
 30
0.0
 11
-11489.0729654204
 21
13141.0731407769
 31
0.0
  0
LINE
  5
206
100
AcDbEntity
  8
_Y__________
  6
DASHED
 62
         2
100
AcDbLine
 10
-11486.6564258071
 20
13146.128970357
 30
0.0
 11
-11485.3141949372
 21
13142.4412213502
 31
0.0
  0
LINE
  5
207
100
AcDbEntity
  8
_Y__________
  6
CENTER
 62
         1
100
AcDbLine
 10
-11491.2978218987
 20
13153.033492513
 30
0.0
 11
-11466.3279117735
 21
13084.4292282783
 31
0.0
  0
TEXT
  5
209
100
AcDbEntity
  8
_Y__________
  6
CONTINUOUS
 62
         4
100
AcDbText
 10
-11502.4902947747
 20
13154.3064811516
 30
0.0
 40
6.0
  1
A
 50
20.0
  7
BOX
100
AcDbText
  0
TEXT
  5
20B
100
AcDbEntity
  8
_Y__________
  6
CONTINUOUS
 62
         4
100
AcDbText
 10
-11491.387844278
 20
13073.5032768825
 30
0.0
 40
6.0
  1
A
  7
BOX
100
AcDbText
  0
LINE
  5
20C
100
AcDbEntity
  8
________170_H_U
  6
CONTINUOUS
 62
         7
100
AcDbLine
 10
-11646.678126954
 20
12955.9237231257
 30
0.2754928339
 11
-11660.678126954
 21
12955.9237231257
 31
0.2754928339
  0
LINE
  5
20D
100
AcDbEntity
  8
________170_H_U
  6
CONTINUOUS
 62
         7
100
AcDbLine
 10
-11646.678126954
 20
12959.048518126
 30
-0.2754928339
 11
-11660.678126954
 21
12959.048518126
 31
-0.2754928339
  0
LINE
  5
20E
100
AcDbEntity
  8
________170_H_U
  6
CONTINUOUS
 62
         7
100
AcDbLine
 10
-11660.678126954
 20
12955.9237231257
 30
0.2754928339
 11
-11660.678126954
 21
12959.048518126
 31
-0.2754928339
  0
ARC
  5
20F
100
AcDbEntity
  8
________170_H_U
  6
CONTINUOUS
 62
         7
100
AcDbCircle
 10
11646.678126954
 20
-12763.2192911404
 30
2250.0438519912
 40
1.0
210
0.0
220
0.1736481776669304
230
0.9848077530122081
100
AcDbArc
 50
134.9779402929
 51
180.0
  0
LINE
  5
210
100
AcDbEntity
  8
________170_H_U
  6
CONTINUOUS
 62
         7
100
AcDbLine
 10
-11645.9712924715
 20
12959.33669358
 30
-0.3263059416
 11
-11646.4189360326
 21
12959.0821728421
 31
-0.2814270684
  0
ARC
  5
211
100
AcDbEntity
  8
________170_H_U
  6
CONTINUOUS
 62
         7
100
AcDbCircle
 10
11646.678126954
 20
-12763.2192911404
 30
2250.0438519912
 40
1.0
210
0.0
220
0.1736481776669304
230
0.9848077530122081
100
AcDbArc
 50
90.0
 51
105.0220597071
  0
ARC
  5
212
100
AcDbEntity
  8
________170_H_U
  6
CONTINUOUS
 62
         7
100
AcDbCircle
 10
11646.678126954
 20
-12758.0462911404
 30
2250.0438519912
 40
1.0
210
0.0
220
0.1736481776669304
230
0.9848077530122081
100
AcDbArc
 50
254.9779402929
 51
270.0
  0
LINE
  5
213
100
AcDbEntity
  8
________170_H_U
  6
CONTINUOUS
 62
         7
100
AcDbLine
 10
-11645.9712924715
 20
12955.6355476717
 30
0.3263059416
 11
-11646.4189360326
 21
12955.8900684095
 31
0.2814270684
  0
ARC
  5
214
100
AcDbEntity
  8
________170_H_U
  6
CONTINUOUS
 62
         7
100
AcDbCircle
 10
11646.678126954
 20
-12758.0462911404
 30
2250.0438519912
 40
1.0
210
0.0
220
0.1736481776669304
230
0.9848077530122081
100
AcDbArc
 50
180.0
 51
225.0220597071
  0
DIMENSION
  5
218
100
AcDbEntity
  8
________170_H_U
  6
CONTINUOUS
 62
         4
100
AcDbDimension
  2
*D2
 10
-11598.3759685947
 20
12967.6969778408
 30
0.0
 11
-11600.4009685947
 21
12970.3469778408
 31
0.0
  3
DIMSTYLE1
100
AcDbAlignedDimension
 13
-11586.2777233705
 23
12967.6969778408
 33
0.0
 14
-11586.2777233705
 24
12975.6969778408
 34
0.0
 50
90.0
100
AcDbRotatedDimension
  0
DIMENSION
  5
227
100
AcDbEntity
  8
________170_H_U
  6
CONTINUOUS
 62
         4
100
AcDbDimension
  2
*D3
 10
-11587.1127233705
 20
12984.0235929847
 30
0.0
 11
-11603.9277233705
 21
12986.0485929847
 31
0.0
  3
DIMSTYLE1
100
AcDbAlignedDimension
 13
-11587.1127233705
 23
12974.8619778408
 33
0.0
 14
-11582.9427233705
 24
12974.8619778408
 34
0.0
100
AcDbRotatedDimension
  0
DIMENSION
  5
237
100
AcDbEntity
  8
________170_H_U
  6
CONTINUOUS
 62
         4
100
AcDbDimension
  2
*D4
 10
-11586.1824239089
 20
12958.9058212971
 30
0.0
 11
-11580.4896536753
 21
12960.9308212971
 31
0.0
  3
DIMSTYLE1
100
AcDbAlignedDimension
 13
-11586.1824239089
 23
12967.6969778408
 33
0.0
 14
-11583.8730228321
 24
12967.6969778408
 34
0.0
100
AcDbRotatedDimension
  0
LINE
  5
245
100
AcDbEntity
  8
________170_H_U
  6
CENTER
 62
         1
100
AcDbLine
 10
-11585.0277233705
 20
12977.6119778408
 30
0.0
 11
-11585.0277233705
 21
12963.7341003752
 31
0.0
  0
LINE
  5
246
100
AcDbEntity
  8
________170_H_U
  6
DASHED
 62
         2
100
AcDbLine
 10
-11584.3384812407
 20
12967.6959618387
 30
0.0
 11
-11584.3384812407
 21
12970.2359669187
 31
0.0
  0
LINE
  5
247
100
AcDbEntity
  8
________170_H_U
  6
DASHED
 62
         2
100
AcDbLine
 10
-11585.7169655003
 20
12967.6959618387
 30
0.0
 11
-11585.7169655003
 21
12970.2359669187
 31
0.0
  0
LINE
  5
248
100
AcDbEntity
  8
________170_H_U
  6
DASHED
 62
         2
100
AcDbLine
 10
-11583.6492391108
 20
12967.6959618387
 30
0.0
 11
-11583.6492391108
 21
12970.2359669187
 31
0.0
  0
LINE
  5
249
100
AcDbEntity
  8
________170_H_U
  6
DASHED
 62
         2
100
AcDbLine
 10
-11586.4062076302
 20
12967.6959618387
 30
0.0
 11
-11586.4062076302
 21
12970.2359669187
 31
0.0
  0
LINE
  5
24A
100
AcDbEntity
  8
________170_H_U
  6
DASHED
 62
         2
100
AcDbLine
 10
-11586.4062076302
 20
12970.2359669187
 30
0.0
 11
-11583.6492391108
 21
12970.2359669187
 31
0.0
  0
LINE
  5
24B
100
AcDbEntity
  8
________170_H_U
  6
CONTINUOUS
 62
         4
100
AcDbLine
 10
-11583.7323207797
 20
12975.6969778408
 30
0.0
 11
-11582.6147185445
 21
12974.5793756055
 31
0.0
  0
LINE
  5
24C
100
AcDbEntity
  8
________170_H_U
  6
CONTINUOUS
 62
         4
100
AcDbLine
 10
-11586.3231259613
 20
12975.6969778408
 30
0.0
 11
-11587.4407281965
 21
12974.5793756055
 31
0.0
  0
LINE
  5
24D
100
AcDbEntity
  8
________170_H_U
  6
CONTINUOUS
 62
         4
100
AcDbLine
 10
-11587.4407281965
 20
12974.5793756055
 30
0.0
 11
-11582.6147185445
 21
12974.5793756055
 31
0.0
  0
LINE
  5
24E
100
AcDbEntity
  8
________170_H_U
  6
CONTINUOUS
 62
         4
100
AcDbLine
 10
-11586.3231259613
 20
12975.6969778408
 30
0.0
 11
-11583.7323207797
 21
12975.6969778408
 31
0.0
  0
LINE
  5
24F
100
AcDbEntity
  8
________170_H_U
  6
CONTINUOUS
 62
         4
100
AcDbLine
 10
-11583.1396476783
 20
12974.1737685443
 30
0.0
 11
-11586.9157990626
 21
12973.7681614831
 31
0.0
  0
LINE
  5
250
100
AcDbEntity
  8
________170_H_U
  6
CONTINUOUS
 62
         4
100
AcDbLine
 10
-11582.6147185445
 20
12974.5793756055
 30
0.0
 11
-11587.4407281965
 21
12974.1737685443
 31
0.0
  0
LINE
  5
251
100
AcDbEntity
  8
________170_H_U
  6
CONTINUOUS
 62
         4
100
AcDbLine
 10
-11583.1396476783
 20
12974.1737685443
 30
0.0
 11
-11582.6147185445
 21
12974.5793756055
 31
0.0
  0
LINE
  5
252
100
AcDbEntity
  8
________170_H_U
  6
CONTINUOUS
 62
         4
100
AcDbLine
 10
-11582.6147185445
 20
12973.7681614831
 30
0.0
 11
-11583.1396476783
 21
12974.1737685443
 31
0.0
  0
LINE
  5
253
100
AcDbEntity
  8
________170_H_U
  6
CONTINUOUS
 62
         4
100
AcDbLine
 10
-11587.4407281965
 20
12974.1737685443
 30
0.0
 11
-11586.9157990626
 21
12974.5793756055
 31
0.0
  0
LINE
  5
254
100
AcDbEntity
  8
________170_H_U
  6
CONTINUOUS
 62
         4
100
AcDbLine
 10
-11586.9157990626
 20
12973.7681614831
 30
0.0
 11
-11587.4407281965
 21
12974.1737685443
 31
0.0
  0
LINE
  5
255
100
AcDbEntity
  8
________170_H_U
  6
CONTINUOUS
 62
         4
100
AcDbLine
 10
-11582.6147185445
 20
12968.0896626261
 30
0.0
 11
-11586.5101920014
 21
12968.0896626261
 31
0.0
  0
LINE
  5
256
100
AcDbEntity
  8
________170_H_U
  6
CONTINUOUS
 62
         4
100
AcDbLine
 10
-11583.1396476783
 20
12968.4952696873
 30
0.0
 11
-11586.5101920014
 21
12968.0896626261
 31
0.0
  0
LINE
  5
257
100
AcDbEntity
  8
________170_H_U
  6
CONTINUOUS
 62
         4
100
AcDbLine
 10
-11582.6147185445
 20
12968.9008767485
 30
0.0
 11
-11587.4407281965
 21
12968.4952696873
 31
0.0
  0
LINE
  5
258
100
AcDbEntity
  8
________170_H_U
  6
CONTINUOUS
 62
         4
100
AcDbLine
 10
-11583.1396476783
 20
12968.4952696873
 30
0.0
 11
-11582.6147185445
 21
12968.0896626261
 31
0.0
  0
LINE
  5
259
100
AcDbEntity
  8
________170_H_U
  6
CONTINUOUS
 62
         4
100
AcDbLine
 10
-11582.6147185445
 20
12968.9008767485
 30
0.0
 11
-11583.1396476783
 21
12968.4952696873
 31
0.0
  0
LINE
  5
25A
100
AcDbEntity
  8
________170_H_U
  6
CONTINUOUS
 62
         4
100
AcDbLine
 10
-11586.9157990626
 20
12968.9008767485
 30
0.0
 11
-11587.4407281965
 21
12968.4952696873
 31
0.0
  0
LINE
  5
25B
100
AcDbEntity
  8
________170_H_U
  6
CONTINUOUS
 62
         4
100
AcDbLine
 10
-11583.1396476783
 20
12973.3625544219
 30
0.0
 11
-11586.9157990626
 21
12972.9569473607
 31
0.0
  0
LINE
  5
25C
100
AcDbEntity
  8
________170_H_U
  6
CONTINUOUS
 62
         4
100
AcDbLine
 10
-11582.6147185445
 20
12973.7681614831
 30
0.0
 11
-11587.4407281965
 21
12973.3625544219
 31
0.0
  0
LINE
  5
25D
100
AcDbEntity
  8
________170_H_U
  6
CONTINUOUS
 62
         4
100
AcDbLine
 10
-11583.1396476783
 20
12973.3625544219
 30
0.0
 11
-11582.6147185445
 21
12973.7681614831
 31
0.0
  0
LINE
  5
25E
100
AcDbEntity
  8
________170_H_U
  6
CONTINUOUS
 62
         4
100
AcDbLine
 10
-11582.6147185445
 20
12972.9569473607
 30
0.0
 11
-11583.1396476783
 21
12973.3625544219
 31
0.0
  0
LINE
  5
25F
100
AcDbEntity
  8
________170_H_U
  6
CONTINUOUS
 62
         4
100
AcDbLine
 10
-11587.4407281965
 20
12973.3625544219
 30
0.0
 11
-11586.9157990626
 21
12973.7681614831
 31
0.0
  0
LINE
  5
260
100
AcDbEntity
  8
________170_H_U
  6
CONTINUOUS
 62
         4
100
AcDbLine
 10
-11586.9157990626
 20
12972.9569473607
 30
0.0
 11
-11587.4407281965
 21
12973.3625544219
 31
0.0
  0
LINE
  5
261
100
AcDbEntity
  8
________170_H_U
  6
CONTINUOUS
 62
         4
100
AcDbLine
 10
-11582.6147185445
 20
12968.0896626261
 30
0.0
 11
-11586.5101920014
 21
12968.0896626261
 31
0.0
  0
LINE
  5
262
100
AcDbEntity
  8
________170_H_U
  6
CONTINUOUS
 62
         4
100
AcDbLine
 10
-11583.1396476783
 20
12968.4952696873
 30
0.0
 11
-11586.5101920014
 21
12968.0896626261
 31
0.0
  0
LINE
  5
263
100
AcDbEntity
  8
________170_H_U
  6
CONTINUOUS
 62
         4
100
AcDbLine
 10
-11582.6147185445
 20
12968.9008767485
 30
0.0
 11
-11587.4407281965
 21
12968.4952696873
 31
0.0
  0
LINE
  5
264
100
AcDbEntity
  8
________170_H_U
  6
CONTINUOUS
 62
         4
100
AcDbLine
 10
-11583.1396476783
 20
12968.4952696873
 30
0.0
 11
-11582.6147185445
 21
12968.0896626261
 31
0.0
  0
LINE
  5
265
100
AcDbEntity
  8
________170_H_U
  6
CONTINUOUS
 62
         4
100
AcDbLine
 10
-11582.6147185445
 20
12968.9008767485
 30
0.0
 11
-11583.1396476783
 21
12968.4952696873
 31
0.0
  0
LINE
  5
266
100
AcDbEntity
  8
________170_H_U
  6
CONTINUOUS
 62
         4
100
AcDbLine
 10
-11586.9157990626
 20
12968.9008767485
 30
0.0
 11
-11587.4407281965
 21
12968.4952696873
 31
0.0
  0
LINE
  5
267
100
AcDbEntity
  8
________170_H_U
  6
CONTINUOUS
 62
         4
100
AcDbLine
 10
-11583.1396476783
 20
12972.5513402995
 30
0.0
 11
-11586.9157990626
 21
12972.1457332383
 31
0.0
  0
LINE
  5
268
100
AcDbEntity
  8
________170_H_U
  6
CONTINUOUS
 62
         4
100
AcDbLine
 10
-11582.6147185445
 20
12972.9569473607
 30
0.0
 11
-11587.4407281965
 21
12972.5513402995
 31
0.0
  0
LINE
  5
269
100
AcDbEntity
  8
________170_H_U
  6
CONTINUOUS
 62
         4
100
AcDbLine
 10
-11583.1396476783
 20
12972.5513402995
 30
0.0
 11
-11582.6147185445
 21
12972.9569473607
 31
0.0
  0
LINE
  5
26A
100
AcDbEntity
  8
________170_H_U
  6
CONTINUOUS
 62
         4
100
AcDbLine
 10
-11582.6147185445
 20
12972.1457332383
 30
0.0
 11
-11583.1396476783
 21
12972.5513402995
 31
0.0
  0
LINE
  5
26B
100
AcDbEntity
  8
________170_H_U
  6
CONTINUOUS
 62
         4
100
AcDbLine
 10
-11587.4407281965
 20
12972.5513402995
 30
0.0
 11
-11586.9157990626
 21
12972.9569473607
 31
0.0
  0
LINE
  5
26C
100
AcDbEntity
  8
________170_H_U
  6
CONTINUOUS
 62
         4
100
AcDbLine
 10
-11586.9157990626
 20
12972.1457332383
 30
0.0
 11
-11587.4407281965
 21
12972.5513402995
 31
0.0
  0
LINE
  5
26D
100
AcDbEntity
  8
________170_H_U
  6
CONTINUOUS
 62
         4
100
AcDbLine
 10
-11582.6147185445
 20
12968.0896626261
 30
0.0
 11
-11586.5101920014
 21
12968.0896626261
 31
0.0
  0
LINE
  5
26E
100
AcDbEntity
  8
________170_H_U
  6
CONTINUOUS
 62
         4
100
AcDbLine
 10
-11583.1396476783
 20
12968.4952696873
 30
0.0
 11
-11586.5101920014
 21
12968.0896626261
 31
0.0
  0
LINE
  5
26F
100
AcDbEntity
  8
________170_H_U
  6
CONTINUOUS
 62
         4
100
AcDbLine
 10
-11582.6147185445
 20
12968.9008767485
 30
0.0
 11
-11587.4407281965
 21
12968.4952696873
 31
0.0
  0
LINE
  5
270
100
AcDbEntity
  8
________170_H_U
  6
CONTINUOUS
 62
         4
100
AcDbLine
 10
-11583.1396476783
 20
12968.4952696873
 30
0.0
 11
-11582.6147185445
 21
12968.0896626261
 31
0.0
  0
LINE
  5
271
100
AcDbEntity
  8
________170_H_U
  6
CONTINUOUS
 62
         4
100
AcDbLine
 10
-11582.6147185445
 20
12968.9008767485
 30
0.0
 11
-11583.1396476783
 21
12968.4952696873
 31
0.0
  0
LINE
  5
272
100
AcDbEntity
  8
________170_H_U
  6
CONTINUOUS
 62
         4
100
AcDbLine
 10
-11586.9157990626
 20
12968.9008767485
 30
0.0
 11
-11587.4407281965
 21
12968.4952696873
 31
0.0
  0
LINE
  5
273
100
AcDbEntity
  8
________170_H_U
  6
CONTINUOUS
 62
         4
100
AcDbLine
 10
-11583.1396476783
 20
12971.740126177
 30
0.0
 11
-11586.9157990626
 21
12971.3345191158
 31
0.0
  0
LINE
  5
274
100
AcDbEntity
  8
________170_H_U
  6
CONTINUOUS
 62
         4
100
AcDbLine
 10
-11582.6147185445
 20
12972.1457332383
 30
0.0
 11
-11587.4407281965
 21
12971.740126177
 31
0.0
  0
LINE
  5
275
100
AcDbEntity
  8
________170_H_U
  6
CONTINUOUS
 62
         4
100
AcDbLine
 10
-11583.1396476783
 20
12971.740126177
 30
0.0
 11
-11582.6147185445
 21
12972.1457332383
 31
0.0
  0
LINE
  5
276
100
AcDbEntity
  8
________170_H_U
  6
CONTINUOUS
 62
         4
100
AcDbLine
 10
-11582.6147185445
 20
12971.3345191158
 30
0.0
 11
-11583.1396476783
 21
12971.740126177
 31
0.0
  0
LINE
  5
277
100
AcDbEntity
  8
________170_H_U
  6
CONTINUOUS
 62
         4
100
AcDbLine
 10
-11587.4407281965
 20
12971.740126177
 30
0.0
 11
-11586.9157990626
 21
12972.1457332383
 31
0.0
  0
LINE
  5
278
100
AcDbEntity
  8
________170_H_U
  6
CONTINUOUS
 62
         4
100
AcDbLine
 10
-11586.9157990626
 20
12971.3345191158
 30
0.0
 11
-11587.4407281965
 21
12971.740126177
 31
0.0
  0
LINE
  5
279
100
AcDbEntity
  8
________170_H_U
  6
CONTINUOUS
 62
         4
100
AcDbLine
 10
-11582.6147185445
 20
12968.0896626261
 30
0.0
 11
-11586.5101920014
 21
12968.0896626261
 31
0.0
  0
LINE
  5
27A
100
AcDbEntity
  8
________170_H_U
  6
CONTINUOUS
 62
         4
100
AcDbLine
 10
-11583.1396476783
 20
12968.4952696873
 30
0.0
 11
-11586.5101920014
 21
12968.0896626261
 31
0.0
  0
LINE
  5
27B
100
AcDbEntity
  8
________170_H_U
  6
CONTINUOUS
 62
         4
100
AcDbLine
 10
-11582.6147185445
 20
12968.9008767485
 30
0.0
 11
-11587.4407281965
 21
12968.4952696873
 31
0.0
  0
LINE
  5
27C
100
AcDbEntity
  8
________170_H_U
  6
CONTINUOUS
 62
         4
100
AcDbLine
 10
-11583.1396476783
 20
12968.4952696873
 30
0.0
 11
-11582.6147185445
 21
12968.0896626261
 31
0.0
  0
LINE
  5
27D
100
AcDbEntity
  8
________170_H_U
  6
CONTINUOUS
 62
         4
100
AcDbLine
 10
-11582.6147185445
 20
12968.9008767485
 30
0.0
 11
-11583.1396476783
 21
12968.4952696873
 31
0.0
  0
LINE
  5
27E
100
AcDbEntity
  8
________170_H_U
  6
CONTINUOUS
 62
         4
100
AcDbLine
 10
-11586.9157990626
 20
12968.9008767485
 30
0.0
 11
-11587.4407281965
 21
12968.4952696873
 31
0.0
  0
LINE
  5
27F
100
AcDbEntity
  8
________170_H_U
  6
CONTINUOUS
 62
         4
100
AcDbLine
 10
-11583.1396476783
 20
12970.9289120546
 30
0.0
 11
-11586.9157990626
 21
12970.5233049934
 31
0.0
  0
LINE
  5
280
100
AcDbEntity
  8
________170_H_U
  6
CONTINUOUS
 62
         4
100
AcDbLine
 10
-11582.6147185445
 20
12971.3345191158
 30
0.0
 11
-11587.4407281965
 21
12970.9289120546
 31
0.0
  0
LINE
  5
281
100
AcDbEntity
  8
________170_H_U
  6
CONTINUOUS
 62
         4
100
AcDbLine
 10
-11583.1396476783
 20
12970.9289120546
 30
0.0
 11
-11582.6147185445
 21
12971.3345191158
 31
0.0
  0
LINE
  5
282
100
AcDbEntity
  8
________170_H_U
  6
CONTINUOUS
 62
         4
100
AcDbLine
 10
-11582.6147185445
 20
12970.5233049934
 30
0.0
 11
-11583.1396476783
 21
12970.9289120546
 31
0.0
  0
LINE
  5
283
100
AcDbEntity
  8
________170_H_U
  6
CONTINUOUS
 62
         4
100
AcDbLine
 10
-11587.4407281965
 20
12970.9289120546
 30
0.0
 11
-11586.9157990626
 21
12971.3345191158
 31
0.0
  0
LINE
  5
284
100
AcDbEntity
  8
________170_H_U
  6
CONTINUOUS
 62
         4
100
AcDbLine
 10
-11586.9157990626
 20
12970.5233049934
 30
0.0
 11
-11587.4407281965
 21
12970.9289120546
 31
0.0
  0
LINE
  5
285
100
AcDbEntity
  8
________170_H_U
  6
CONTINUOUS
 62
         4
100
AcDbLine
 10
-11582.6147185445
 20
12968.0896626261
 30
0.0
 11
-11586.5101920014
 21
12968.0896626261
 31
0.0
  0
LINE
  5
286
100
AcDbEntity
  8
________170_H_U
  6
CONTINUOUS
 62
         4
100
AcDbLine
 10
-11583.1396476783
 20
12968.4952696873
 30
0.0
 11
-11586.5101920014
 21
12968.0896626261
 31
0.0
  0
LINE
  5
287
100
AcDbEntity
  8
________170_H_U
  6
CONTINUOUS
 62
         4
100
AcDbLine
 10
-11582.6147185445
 20
12968.9008767485
 30
0.0
 11
-11587.4407281965
 21
12968.4952696873
 31
0.0
  0
LINE
  5
288
100
AcDbEntity
  8
________170_H_U
  6
CONTINUOUS
 62
         4
100
AcDbLine
 10
-11583.1396476783
 20
12968.4952696873
 30
0.0
 11
-11582.6147185445
 21
12968.0896626261
 31
0.0
  0
LINE
  5
289
100
AcDbEntity
  8
________170_H_U
  6
CONTINUOUS
 62
         4
100
AcDbLine
 10
-11582.6147185445
 20
12968.9008767485
 30
0.0
 11
-11583.1396476783
 21
12968.4952696873
 31
0.0
  0
LINE
  5
28A
100
AcDbEntity
  8
________170_H_U
  6
CONTINUOUS
 62
         4
100
AcDbLine
 10
-11586.9157990626
 20
12968.9008767485
 30
0.0
 11
-11587.4407281965
 21
12968.4952696873
 31
0.0
  0
LINE
  5
28B
100
AcDbEntity
  8
________170_H_U
  6
CONTINUOUS
 62
         4
100
AcDbLine
 10
-11583.1396476783
 20
12970.1176979322
 30
0.0
 11
-11586.9157990626
 21
12969.712090871
 31
0.0
  0
LINE
  5
28C
100
AcDbEntity
  8
________170_H_U
  6
CONTINUOUS
 62
         4
100
AcDbLine
 10
-11582.6147185445
 20
12970.5233049934
 30
0.0
 11
-11587.4407281965
 21
12970.1176979322
 31
0.0
  0
LINE
  5
28D
100
AcDbEntity
  8
________170_H_U
  6
CONTINUOUS
 62
         4
100
AcDbLine
 10
-11583.1396476783
 20
12970.1176979322
 30
0.0
 11
-11582.6147185445
 21
12970.5233049934
 31
0.0
  0
LINE
  5
28E
100
AcDbEntity
  8
________170_H_U
  6
CONTINUOUS
 62
         4
100
AcDbLine
 10
-11582.6147185445
 20
12969.712090871
 30
0.0
 11
-11583.1396476783
 21
12970.1176979322
 31
0.0
  0
LINE
  5
28F
100
AcDbEntity
  8
________170_H_U
  6
CONTINUOUS
 62
         4
100
AcDbLine
 10
-11587.4407281965
 20
12970.1176979322
 30
0.0
 11
-11586.9157990626
 21
12970.5233049934
 31
0.0
  0
LINE
  5
290
100
AcDbEntity
  8
________170_H_U
  6
CONTINUOUS
 62
         4
100
AcDbLine
 10
-11586.9157990626
 20
12969.712090871
 30
0.0
 11
-11587.4407281965
 21
12970.1176979322
 31
0.0
  0
LINE
  5
291
100
AcDbEntity
  8
________170_H_U
  6
CONTINUOUS
 62
         4
100
AcDbLine
 10
-11582.6147185445
 20
12968.0896626261
 30
0.0
 11
-11586.5101920014
 21
12968.0896626261
 31
0.0
  0
LINE
  5
292
100
AcDbEntity
  8
________170_H_U
  6
CONTINUOUS
 62
         4
100
AcDbLine
 10
-11583.1396476783
 20
12968.4952696873
 30
0.0
 11
-11586.5101920014
 21
12968.0896626261
 31
0.0
  0
LINE
  5
293
100
AcDbEntity
  8
________170_H_U
  6
CONTINUOUS
 62
         4
100
AcDbLine
 10
-11582.6147185445
 20
12968.9008767485
 30
0.0
 11
-11587.4407281965
 21
12968.4952696873
 31
0.0
  0
LINE
  5
294
100
AcDbEntity
  8
________170_H_U
  6
CONTINUOUS
 62
         4
100
AcDbLine
 10
-11583.1396476783
 20
12968.4952696873
 30
0.0
 11
-11582.6147185445
 21
12968.0896626261
 31
0.0
  0
LINE
  5
295
100
AcDbEntity
  8
________170_H_U
  6
CONTINUOUS
 62
         4
100
AcDbLine
 10
-11582.6147185445
 20
12968.9008767485
 30
0.0
 11
-11583.1396476783
 21
12968.4952696873
 31
0.0
  0
LINE
  5
296
100
AcDbEntity
  8
________170_H_U
  6
CONTINUOUS
 62
         4
100
AcDbLine
 10
-11586.9157990626
 20
12968.9008767485
 30
0.0
 11
-11587.4407281965
 21
12968.4952696873
 31
0.0
  0
LINE
  5
297
100
AcDbEntity
  8
________170_H_U
  6
CONTINUOUS
 62
         4
100
AcDbLine
 10
-11583.1396476783
 20
12969.3064838098
 30
0.0
 11
-11586.9157990626
 21
12968.9008767485
 31
0.0
  0
LINE
  5
298
100
AcDbEntity
  8
________170_H_U
  6
CONTINUOUS
 62
         4
100
AcDbLine
 10
-11582.6147185445
 20
12969.712090871
 30
0.0
 11
-11587.4407281965
 21
12969.3064838098
 31
0.0
  0
LINE
  5
299
100
AcDbEntity
  8
________170_H_U
  6
CONTINUOUS
 62
         4
100
AcDbLine
 10
-11583.1396476783
 20
12969.3064838098
 30
0.0
 11
-11582.6147185445
 21
12969.712090871
 31
0.0
  0
LINE
  5
29A
100
AcDbEntity
  8
________170_H_U
  6
CONTINUOUS
 62
         4
100
AcDbLine
 10
-11582.6147185445
 20
12968.9008767485
 30
0.0
 11
-11583.1396476783
 21
12969.3064838098
 31
0.0
  0
LINE
  5
29B
100
AcDbEntity
  8
________170_H_U
  6
CONTINUOUS
 62
         4
100
AcDbLine
 10
-11587.4407281965
 20
12969.3064838098
 30
0.0
 11
-11586.9157990626
 21
12969.712090871
 31
0.0
  0
LINE
  5
29C
100
AcDbEntity
  8
________170_H_U
  6
CONTINUOUS
 62
         4
100
AcDbLine
 10
-11586.9157990626
 20
12968.9008767485
 30
0.0
 11
-11587.4407281965
 21
12969.3064838098
 31
0.0
  0
LINE
  5
29D
100
AcDbEntity
  8
________170_H_U
  6
CONTINUOUS
 62
         4
100
AcDbLine
 10
-11587.4407281965
 20
12968.0896626261
 30
0.0
 11
-11587.4407281965
 21
12968.4952696873
 31
0.0
  0
LINE
  5
29E
100
AcDbEntity
  8
________170_H_U
  6
CONTINUOUS
 62
         4
100
AcDbLine
 10
-11586.9157990626
 20
12967.6959618387
 30
0.0
 11
-11587.4407281965
 21
12968.0896626261
 31
0.0
  0
LINE
  5
29F
100
AcDbEntity
  8
________170_H_U
  6
CONTINUOUS
 62
         4
100
AcDbLine
 10
-11583.1396476783
 20
12967.6959618387
 30
0.0
 11
-11582.6147185445
 21
12968.0896626261
 31
0.0
  0
LINE
  5
2A0
100
AcDbEntity
  8
________170_H_U
  6
CONTINUOUS
 62
         4
100
AcDbLine
 10
-11582.6147185445
 20
12968.0896626261
 30
0.0
 11
-11587.4407281965
 21
12968.0896626261
 31
0.0
  0
LINE
  5
2A1
100
AcDbEntity
  8
________170_H_U
  6
CONTINUOUS
 62
         4
100
AcDbLine
 10
-11583.1396476783
 20
12967.6959618387
 30
0.0
 11
-11586.9157990626
 21
12967.6959618387
 31
0.0
  0
LINE
  5
2A2
100
AcDbEntity
  8
________170_H_U
  6
CENTER
 62
         1
100
AcDbLine
 10
-11644.9993335616
 20
12957.4861206258
 30
0.0
 11
-11683.678126954
 21
12957.4861206258
 31
0.0
  0
ARC
  5
2A3
100
AcDbEntity
  8
________170_H_U
  6
CONTINUOUS
 62
         7
100
AcDbCircle
 10
-11651.4827835805
 20
12964.9861206258
 30
0.0
 40
2.0
100
AcDbArc
 50
65.0
 51
90.0
  0
ARC
  5
2A4
100
AcDbEntity
  8
________170_H_U
  6
CONTINUOUS
 62
         7
100
AcDbCircle
 10
-11651.4827835805
 20
12949.9861206258
 30
0.0
 40
2.0
100
AcDbArc
 50
270.0
 51
295.0
  0
LINE
  5
2A5
100
AcDbEntity
  8
________170_H_U
  6
CONTINUOUS
 62
         7
100
AcDbLine
 10
-11646.5441995613
 20
12950.0822643365
 30
0.0
 11
-11650.637547057
 21
12948.1735050518
 31
0.0
  0
ARC
  5
2A6
100
AcDbEntity
  8
________170_H_U
  6
CONTINUOUS
 62
         7
100
AcDbCircle
 10
-11647.178126954
 20
12951.441726017
 30
0.0
 40
1.5
100
AcDbArc
 50
295.0
 51
360.0
  0
LINE
  5
2A7
100
AcDbEntity
  8
________170_H_U
  6
CONTINUOUS
 62
         7
100
AcDbLine
 10
-11645.678126954
 20
12951.441726017
 30
0.0
 11
-11645.678126954
 21
12963.5305152346
 31
0.0
  0
LINE
  5
2A8
100
AcDbEntity
  8
________170_H_U
  6
CONTINUOUS
 62
         7
100
AcDbLine
 10
-11650.637547057
 20
12966.7987361999
 30
0.0
 11
-11646.5441995613
 21
12964.8899769152
 31
0.0
  0
ARC
  5
2A9
100
AcDbEntity
  8
________170_H_U
  6
CONTINUOUS
 62
         7
100
AcDbCircle
 10
-11647.178126954
 20
12963.5305152346
 30
0.0
 40
1.5
100
AcDbArc
 50
0.0
 51
65.0
  0
LINE
  5
2AA
100
AcDbEntity
  8
________170_H_U
  6
CONTINUOUS
 62
         7
100
AcDbLine
 10
-11651.4827835805
 20
12966.9861206258
 30
0.0
 11
-11681.678126954
 21
12966.9861206258
 31
0.0
  0
LINE
  5
2AB
100
AcDbEntity
  8
________170_H_U
  6
CONTINUOUS
 62
         7
100
AcDbLine
 10
-11651.4827835805
 20
12947.9861206258
 30
0.0
 11
-11681.678126954
 21
12947.9861206258
 31
0.0
  0
LINE
  5
2AC
100
AcDbEntity
  8
________170_H_U
  6
CENTER
 62
         1
100
AcDbLine
 10
-11654.678126954
 20
12946.575995876
 30
0.0
 11
-11654.678126954
 21
12956.8856152486
 31
0.0
  0
LINE
  5
2AD
100
AcDbEntity
  8
________170_H_U
  6
CONTINUOUS
 62
         7
100
AcDbLine
 10
-11653.028126954
 20
12948.6361206258
 30
0.0
 11
-11653.028126954
 21
12955.8996206258
 31
0.0
  0
LINE
  5
2AE
100
AcDbEntity
  8
________170_H_U
  6
CONTINUOUS
 62
         7
100
AcDbLine
 10
-11656.328126954
 20
12948.6361206258
 30
0.0
 11
-11656.328126954
 21
12955.8996206258
 31
0.0
  0
LINE
  5
2AF
100
AcDbEntity
  8
________170_H_U
  6
CONTINUOUS
 62
         4
100
AcDbLine
 10
-11652.578126954
 20
12948.1861206258
 30
0.0
 11
-11652.578126954
 21
12955.8996206258
 31
0.0
  0
LINE
  5
2B0
100
AcDbEntity
  8
________170_H_U
  6
CONTINUOUS
 62
         4
100
AcDbLine
 10
-11656.778126954
 20
12948.1861206258
 30
0.0
 11
-11656.778126954
 21
12955.8996206258
 31
0.0
  0
LINE
  5
2B1
100
AcDbEntity
  8
________170_H_U
  6
CONTINUOUS
 62
         7
100
AcDbLine
 10
-11653.028126954
 20
12948.6361206258
 30
0.0
 11
-11656.328126954
 21
12948.6361206258
 31
0.0
  0
LINE
  5
2B2
100
AcDbEntity
  8
________170_H_U
  6
CONTINUOUS
 62
         7
100
AcDbLine
 10
-11656.328126954
 20
12948.6361206258
 30
0.0
 11
-11656.978126954
 21
12947.9861206258
 31
0.0
  0
LINE
  5
2B3
100
AcDbEntity
  8
________170_H_U
  6
CONTINUOUS
 62
         7
100
AcDbLine
 10
-11652.378126954
 20
12947.9861206258
 30
0.0
 11
-11653.028126954
 21
12948.6361206258
 31
0.0
  0
CIRCLE
  5
2B4
100
AcDbEntity
  8
________170_H_U
  6
CONTINUOUS
 62
         7
100
AcDbCircle
 10
-11479.498126954
 20
13120.6140970959
 30
0.0
 40
9.5
  0
CIRCLE
  5
2B5
100
AcDbEntity
  8
________170_H_U
  6
CONTINUOUS
 62
         7
100
AcDbCircle
 10
-11479.498126954
 20
13120.6140970959
 30
0.0
 40
7.0
  0
CIRCLE
  5
2B6
100
AcDbEntity
  8
________170_H_U
  6
CONTINUOUS
 62
         7
100
AcDbCircle
 10
-11479.498126954
 20
13120.6140970959
 30
0.0
 40
1.5865
  0
LINE
  5
2B7
100
AcDbEntity
  8
________170_H_U
  6
DASHED
 62
         2
100
AcDbLine
 10
-11477.398126954
 20
13111.3491092384
 30
0.0
 11
-11477.398126954
 21
13119.0275970959
 31
0.0
  0
LINE
  5
2B8
100
AcDbEntity
  8
________170_H_U
  6
DASHED
 62
         2
100
AcDbLine
 10
-11481.598126954
 20
13111.3491092384
 30
0.0
 11
-11481.598126954
 21
13119.0275970959
 31
0.0
  0
LINE
  5
2B9
100
AcDbEntity
  8
________170_H_U
  6
DASHED
 62
         2
100
AcDbLine
 10
-11477.848126954
 20
13111.7584838076
 30
0.0
 11
-11477.848126954
 21
13119.4775970959
 31
0.0
  0
LINE
  5
2BA
100
AcDbEntity
  8
________170_H_U
  6
DASHED
 62
         2
100
AcDbLine
 10
-11481.148126954
 20
13111.7584838076
 30
0.0
 11
-11481.148126954
 21
13119.4775970959
 31
0.0
  0
LINE
  5
2BB
100
AcDbEntity
  8
________170_H_U
  6
DASHED
 62
         2
100
AcDbLine
 10
-11477.398126954
 20
13119.0275970959
 30
0.0
 11
-11481.598126954
 21
13119.0275970959
 31
0.0
  0
LINE
  5
2BC
100
AcDbEntity
  8
________170_H_U
  6
DASHED
 62
         2
100
AcDbLine
 10
-11481.148126954
 20
13119.4775970959
 30
0.0
 11
-11481.598126954
 21
13119.0275970959
 31
0.0
  0
LINE
  5
2BD
100
AcDbEntity
  8
________170_H_U
  6
DASHED
 62
         2
100
AcDbLine
 10
-11477.398126954
 20
13119.0275970959
 30
0.0
 11
-11477.848126954
 21
13119.4775970959
 31
0.0
  0
LINE
  5
2BE
100
AcDbEntity
  8
________170_H_U
  6
DASHED
 62
         2
100
AcDbLine
 10
-11481.148126954
 20
13119.4775970959
 30
0.0
 11
-11477.848126954
 21
13119.4775970959
 31
0.0
  0
LINE
  5
2BF
100
AcDbEntity
  8
________170_H_U
  6
DASHED
 62
         2
100
AcDbLine
 10
-11477.848126954
 20
13111.7584838076
 30
0.0
 11
-11481.148126954
 21
13111.7584838076
 31
0.0
  0
LINE
  5
2C0
100
AcDbEntity
  8
________170_H_U
  6
DASHED
 62
         2
100
AcDbLine
 10
-11481.5649573604
 20
13111.3416534012
 30
0.0
 11
-11481.148126954
 21
13111.7584838076
 31
0.0
  0
LINE
  5
2C1
100
AcDbEntity
  8
________170_H_U
  6
DASHED
 62
         2
100
AcDbLine
 10
-11477.848126954
 20
13111.7584838076
 30
0.0
 11
-11477.4312965476
 21
13111.3416534012
 31
0.0
  0
LINE
  5
2C2
100
AcDbEntity
  8
________170_H_U
  6
CENTER
 62
         1
100
AcDbLine
 10
-11640.5255759441
 20
13120.6140970959
 30
0.0
 11
-11684.174452178
 21
13120.6140970959
 31
0.0
  0
LINE
  5
2C3
100
AcDbEntity
  8
________170_H_U
  6
CONTINUOUS
 62
         7
100
AcDbLine
 10
-11651.4827835805
 20
13130.1140970959
 30
0.0
 11
-11681.678126954
 21
13130.1140970959
 31
0.0
  0
LINE
  5
2C4
100
AcDbEntity
  8
________170_H_U
  6
CONTINUOUS
 62
         7
100
AcDbLine
 10
-11651.4827835805
 20
13111.1140970959
 30
0.0
 11
-11681.678126954
 21
13111.1140970959
 31
0.0
  0
LINE
  5
2C5
100
AcDbEntity
  8
________170_H_U
  6
CONTINUOUS
 62
         7
100
AcDbLine
 10
-11645.678126954
 20
13114.5697024871
 30
0.0
 11
-11645.678126954
 21
13126.6584917047
 31
0.0
  0
LINE
  5
2C6
100
AcDbEntity
  8
________170_H_U
  6
CONTINUOUS
 62
         7
100
AcDbLine
 10
-11650.637547057
 20
13129.92671267
 30
0.0
 11
-11646.5441995613
 21
13128.0179533852
 31
0.0
  0
LINE
  5
2C7
100
AcDbEntity
  8
________170_H_U
  6
CONTINUOUS
 62
         7
100
AcDbLine
 10
-11646.5441995613
 20
13113.2102408066
 30
0.0
 11
-11650.637547057
 21
13111.3014815218
 31
0.0
  0
ARC
  5
2C8
100
AcDbEntity
  8
________170_H_U
  6
CONTINUOUS
 62
         7
100
AcDbCircle
 10
-11651.4827835805
 20
13128.1140970959
 30
0.0
 40
2.0
100
AcDbArc
 50
65.0
 51
90.0
  0
ARC
  5
2C9
100
AcDbEntity
  8
________170_H_U
  6
CONTINUOUS
 62
         7
100
AcDbCircle
 10
-11651.4827835805
 20
13113.1140970959
 30
0.0
 40
2.0
100
AcDbArc
 50
270.0
 51
295.0
  0
ARC
  5
2CA
100
AcDbEntity
  8
________170_H_U
  6
CONTINUOUS
 62
         7
100
AcDbCircle
 10
-11647.178126954
 20
13114.5697024871
 30
0.0
 40
1.5
100
AcDbArc
 50
295.0
 51
360.0
  0
ARC
  5
2CB
100
AcDbEntity
  8
________170_H_U
  6
CONTINUOUS
 62
         7
100
AcDbCircle
 10
-11647.178126954
 20
13126.6584917047
 30
0.0
 40
1.5
100
AcDbArc
 50
0.0
 51
65.0
  0
LINE
  5
2CC
100
AcDbEntity
  8
________170_H_U
  6
CONTINUOUS
 62
         4
100
AcDbLine
 10
-11651.0393942552
 20
13111.1140970959
 30
0.0
 11
-11651.0393942552
 21
13130.1140970959
 31
0.0
  0
DIMENSION
  5
2CF
100
AcDbEntity
  8
________170_H_U
  6
CONTINUOUS
 62
         4
100
AcDbDimension
  2
*D5
 10
-11624.6297023935
 20
13130.1140970959
 30
0.0
 11
-11626.6547023935
 21
13110.9359365025
 31
0.0
  3
DIMSTYLE1
100
AcDbAlignedDimension
 13
-11651.4827835805
 23
13130.1140970959
 33
0.0
 14
-11651.4827835805
 24
13111.1140970959
 34
0.0
 50
90.0
100
AcDbRotatedDimension
  0
DIMENSION
  5
2DD
100
AcDbEntity
  8
________170_H_U
  6
CONTINUOUS
 62
         4
100
AcDbDimension
  2
*D6
 10
-11645.678126954
 20
13178.8998642074
 30
0.0
 11
-11680.8968806598
 21
13180.9248642074
 31
0.0
  3
DIMSTYLE1
100
AcDbAlignedDimension
 13
-11645.678126954
 23
13120.6140970959
 33
0.0
 14
-11710.678126954
 24
13142.8390970959
 34
0.0
100
AcDbRotatedDimension
  0
DIMENSION
  5
2EB
100
AcDbEntity
  8
________170_H_U
  6
CONTINUOUS
 62
         4
100
AcDbDimension
  2
*D7
 10
-11776.078126954
 20
13187.7884869664
 30
0.0
 11
-11720.1310124141
 21
13189.8134869664
 31
0.0
  3
DIMSTYLE1
100
AcDbAlignedDimension
 13
-11776.078126954
 23
13132.4369044293
 33
0.0
 14
-11645.678126954
 24
13120.6140970959
 34
0.0
100
AcDbRotatedDimension
  0
LINE
  5
2F7
100
AcDbEntity
  8
________170_H_U
  6
CONTINUOUS
 62
         7
100
AcDbLine
 10
-11708.678126954
 20
13151.1140970959
 30
0.0
 11
-11708.678126954
 21
13090.1140970959
 31
0.0
  0
LINE
  5
2F8
100
AcDbEntity
  8
________170_H_U
  6
CENTER
 62
         1
100
AcDbLine
 10
-11710.678126954
 20
13142.8390970959
 30
0.0
 11
-11710.678126954
 21
13098.3890970959
 31
0.0
  0
LINE
  5
2F9
100
AcDbEntity
  8
________170_H_U
  6
CONTINUOUS
 62
         7
100
AcDbLine
 10
-11776.078126954
 20
13132.4369044293
 30
0.0
 11
-11776.078126954
 21
13108.7912897625
 31
0.0
  0
DIMENSION
  5
2FC
100
AcDbEntity
  8
________170_H_U
  6
CONTINUOUS
 62
         4
100
AcDbDimension
  2
*D8
 10
-11645.678126954
 20
12923.5754882214
 30
0.0
 11
-11658.9748485638
 21
12925.6004882214
 31
0.0
  3
DIMSTYLE1
100
AcDbAlignedDimension
 13
-11645.678126954
 23
12951.441726017
 33
0.0
 14
-11660.678126954
 24
12955.8996206258
 34
0.0
100
AcDbRotatedDimension
  0
TEXT
  5
309
100
AcDbEntity
  8
________170_H_U
  6
CONTINUOUS
 62
         4
100
AcDbText
 10
-11652.462594568
 20
12926.3294280316
 30
0.0
 40
1.7
  1
%%p 1
  7
BOX
100
AcDbText
  0
ARC
  5
30A
100
AcDbEntity
  8
________170_H_U
  6
CONTINUOUS
 62
         7
100
AcDbCircle
 10
-11681.678126954
 20
13132.1140970959
 30
0.0
 40
2.0
100
AcDbArc
 50
180.0
 51
270.0
  0
ARC
  5
30B
100
AcDbEntity
  8
________170_H_U
  6
CONTINUOUS
 62
         7
100
AcDbCircle
 10
-11681.678126954
 20
13109.1140970959
 30
0.0
 40
2.0
100
AcDbArc
 50
90.0
 51
180.0
  0
ARC
  5
30C
100
AcDbEntity
  8
________170_H_U
  6
CONTINUOUS
 62
         7
100
AcDbCircle
 10
-11681.678126954
 20
12968.9861206258
 30
0.0
 40
2.0
100
AcDbArc
 50
180.0
 51
270.0
  0
ARC
  5
30D
100
AcDbEntity
  8
________170_H_U
  6
CONTINUOUS
 62
         7
100
AcDbCircle
 10
-11681.678126954
 20
12945.9861206258
 30
0.0
 40
2.0
100
AcDbArc
 50
90.0
 51
180.0
  0
LINE
  5
30E
100
AcDbEntity
  8
________170_H_U
  6
CONTINUOUS
 62
         7
100
AcDbLine
 10
-11662.0854774134
 20
12961.4861206258
 30
-0.2754928339
 11
-11660.678126954
 21
12959.048518126
 31
-0.2754928339
  0
LINE
  5
30F
100
AcDbEntity
  8
________170_H_U
  6
CONTINUOUS
 62
         7
100
AcDbLine
 10
-11662.0854774134
 20
12953.4861206258
 30
0.2754928339
 11
-11660.678126954
 21
12955.9237231257
 31
0.2754928339
  0
LINE
  5
310
100
AcDbEntity
  8
________170_H_U
  6
CONTINUOUS
 62
         7
100
AcDbLine
 10
-11662.0854774134
 20
12961.4861206258
 30
0.0
 11
-11686.3172086329
 21
12961.4861206258
 31
0.0
  0
LINE
  5
311
100
AcDbEntity
  8
________170_H_U
  6
CONTINUOUS
 62
         7
100
AcDbLine
 10
-11662.0854774134
 20
12953.4861206258
 30
0.0
 11
-11686.3172086329
 21
12953.4861206258
 31
0.0
  0
LINE
  5
312
100
AcDbEntity
  8
________170_H_U
  6
CONTINUOUS
 62
         7
100
AcDbLine
 10
-11688.078126954
 20
12964.5361206258
 30
0.0
 11
-11686.3172086329
 21
12961.4861206258
 31
0.0
  0
LINE
  5
313
100
AcDbEntity
  8
________170_H_U
  6
CONTINUOUS
 62
         7
100
AcDbLine
 10
-11688.078126954
 20
12950.4361206258
 30
0.0
 11
-11686.3172086329
 21
12953.4861206258
 31
0.0
  0
LINE
  5
314
100
AcDbEntity
  8
________170_H_U
  6
CONTINUOUS
 62
         7
100
AcDbLine
 10
-11662.0854774134
 20
12953.4861206258
 30
0.0
 11
-11662.0854774134
 21
12961.4861206258
 31
0.0
  0
LINE
  5
315
100
AcDbEntity
  8
________170_H_U
  6
CONTINUOUS
 62
         7
100
AcDbLine
 10
-11688.078126954
 20
12950.4361206258
 30
0.0
 11
-11688.078126954
 21
12964.5361206258
 31
0.0
  0
LINE
  5
316
100
AcDbEntity
  8
________170_H_U
  6
CONTINUOUS
 62
         7
100
AcDbLine
 10
-11686.3172086329
 20
12953.4861206258
 30
0.0
 11
-11686.3172086329
 21
12961.4861206258
 31
0.0
  0
INSERT
  5
36C
100
AcDbEntity
  8
0
  6
CONTINUOUS
100
AcDbBlockReference
  2
*X9
 10
0.0
 20
0.0
 30
0.0
  0
CIRCLE
  5
36D
100
AcDbEntity
  8
________170_H_U
  6
DASHED
 62
         2
100
AcDbCircle
 10
-11479.498126954
 20
13120.6140970959
 30
0.0
 40
7.05
  0
CIRCLE
  5
36E
100
AcDbEntity
  8
________170_H_U
  6
DASHED
 62
         2
100
AcDbCircle
 10
-11479.498126954
 20
13120.6140970959
 30
0.0
 40
4.0
  0
LINE
  5
36F
100
AcDbEntity
  8
________170_H_U
  6
CONTINUOUS
 62
         7
100
AcDbLine
 10
-11745.078126954
 20
12964.5361206258
 30
0.0
 11
-11688.078126954
 21
12964.5361206258
 31
0.0
  0
LINE
  5
370
100
AcDbEntity
  8
________170_H_U
  6
CONTINUOUS
 62
         7
100
AcDbLine
 10
-11745.078126954
 20
12950.4361206258
 30
0.0
 11
-11688.078126954
 21
12950.4361206258
 31
0.0
  0
TEXT
  5
372
100
AcDbEntity
  8
________170_H_U
  6
CONTINUOUS
 62
         2
100
AcDbText
 10
-11494.9263491713
 20
13188.4499337747
 30
0.0
 40
4.5
  1
531021
 41
0.98
  7
BOX
100
AcDbText
  0
ENDSEC
  0
SECTION
  2
OBJECTS
  0
DICTIONARY
  5
19
100
AcDbDictionary
  3
ACAD_GROUP
350
1A
  3
ACAD_MLINESTYLE
350
1B
  0
DICTIONARY
  5
1A
102
{ACAD_REACTORS
330
19
102
}
100
AcDbDictionary
  0
DICTIONARY
  5
1B
102
{ACAD_REACTORS
330
19
102
}
100
AcDbDictionary
  3
STANDARD
350
1C
  0
MLINESTYLE
  5
1C
102
{ACAD_REACTORS
330
1B
102
}
100
AcDbMlineStyle
  2
STANDARD
 70
         0
  3

 62
         0
 51
90.0
 52
90.0
 71
         2
 49
0.5
 62
       256
  6
BYLAYER
 49
-0.5
 62
       256
  6
BYLAYER
  0
ENDSEC
  0
EOF
