  0
SECTION
  2
HEADER
  9
$ACADVER
  1
AC1014
  9
$ACADMAINTVER
 70
         0
  9
$DWGCODEPAGE
  3
BIG5
  9
$INSBASE
 10
0.0
 20
0.0
 30
0.0
  9
$EXTMIN
 10
1120.1274378849
 20
-72.3554281103
 30
0.0
  9
$EXTMAX
 10
1746.0485240502
 20
243.2145691948
 30
0.0
  9
$LIMMIN
 10
0.0
 20
0.0
  9
$LIMMAX
 10
0.0
 20
0.0
  9
$ORTHOMODE
 70
         0
  9
$REGENMODE
 70
         1
  9
$FILLMODE
 70
         1
  9
$QTEXTMODE
 70
         0
  9
$MIRRTEXT
 70
         1
  9
$DRAGMODE
 70
         2
  9
$LTSCALE
 40
1.0
  9
$OSMODE
 70
         0
  9
$ATTMODE
 70
         1
  9
$TEXTSIZE
 40
6.0
  9
$TRACEWID
 40
0.05
  9
$TEXTSTYLE
  7
STANDARD
  9
$CLAYER
  8
0
  9
$CELTYPE
  6
CONTINUOUS
  9
$CECOLOR
 62
         4
  9
$CELTSCALE
 40
1.0
  9
$DELOBJ
 70
         1
  9
$DISPSILH
 70
         0
  9
$DIMSCALE
 40
1.0
  9
$DIMASZ
 40
0.18
  9
$DIMEXO
 40
0.0625
  9
$DIMDLI
 40
0.38
  9
$DIMRND
 40
0.0
  9
$DIMDLE
 40
0.0
  9
$DIMEXE
 40
0.25
  9
$DIMTP
 40
0.01
  9
$DIMTM
 40
-0.01
  9
$DIMTXT
 40
2.7
  9
$DIMCEN
 40
0.09
  9
$DIMTSZ
 40
0.0
  9
$DIMTOL
 70
         0
  9
$DIMLIM
 70
         0
  9
$DIMTIH
 70
         1
  9
$DIMTOH
 70
         1
  9
$DIMSE1
 70
         0
  9
$DIMSE2
 70
         0
  9
$DIMTAD
 70
         0
  9
$DIMZIN
 70
         0
  9
$DIMBLK
  1

  9
$DIMASO
 70
         1
  9
$DIMSHO
 70
         1
  9
$DIMPOST
  1

  9
$DIMAPOST
  1

  9
$DIMALT
 70
         0
  9
$DIMALTD
 70
         2
  9
$DIMALTF
 40
25.4
  9
$DIMLFAC
 40
1.0
  9
$DIMTOFL
 70
         0
  9
$DIMTVP
 40
0.0
  9
$DIMTIX
 70
         0
  9
$DIMSOXD
 70
         0
  9
$DIMSAH
 70
         0
  9
$DIMBLK1
  1

  9
$DIMBLK2
  1

  9
$DIMSTYLE
  2
STANDARD
  9
$DIMCLRD
 70
         0
  9
$DIMCLRE
 70
         0
  9
$DIMCLRT
 70
         4
  9
$DIMTFAC
 40
1.0
  9
$DIMGAP
 40
0.09
  9
$DIMJUST
 70
         0
  9
$DIMSD1
 70
         0
  9
$DIMSD2
 70
         0
  9
$DIMTOLJ
 70
         1
  9
$DIMTZIN
 70
         0
  9
$DIMALTZ
 70
         0
  9
$DIMALTTZ
 70
         0
  9
$DIMFIT
 70
         3
  9
$DIMUPT
 70
         0
  9
$DIMUNIT
 70
         2
  9
$DIMDEC
 70
         4
  9
$DIMTDEC
 70
         4
  9
$DIMALTU
 70
         2
  9
$DIMALTTD
 70
         2
  9
$DIMTXSTY
  7
STANDARD
  9
$DIMAUNIT
 70
         0
  9
$LUNITS
 70
         2
  9
$LUPREC
 70
        10
  9
$SKETCHINC
 40
0.1
  9
$FILLETRAD
 40
0.0
  9
$AUNITS
 70
         0
  9
$AUPREC
 70
         0
  9
$MENU
  1
acad
  9
$ELEVATION
 40
0.0
  9
$PELEVATION
 40
0.0
  9
$THICKNESS
 40
0.0
  9
$LIMCHECK
 70
         0
  9
$BLIPMODE
 70
         1
  9
$CHAMFERA
 40
0.0
  9
$CHAMFERB
 40
0.0
  9
$CHAMFERC
 40
0.0
  9
$CHAMFERD
 40
0.0
  9
$SKPOLY
 70
         0
  9
$TDCREATE
 40
0.000000000
  9
$TDUPDATE
 40
0.000000000
  9
$TDINDWG
 40
0.0000000000
  9
$TDUSRTIMER
 40
0.0000000000
  9
$USRTIMER
 70
         1
  9
$ANGBASE
 50
0.0
  9
$ANGDIR
 70
         0
  9
$PDMODE
 70
         2
  9
$PDSIZE
 40
0.0
  9
$PLINEWID
 40
0.0
  9
$COORDS
 70
         1
  9
$SPLFRAME
 70
         0
  9
$SPLINETYPE
 70
         6
  9
$SPLINESEGS
 70
         8
  9
$ATTDIA
 70
         0
  9
$ATTREQ
 70
         1
  9
$HANDLING
 70
         1
  9
$HANDSEED
  5
352
  9
$SURFTAB1
 70
         6
  9
$SURFTAB2
 70
         6
  9
$SURFTYPE
 70
         6
  9
$SURFU
 70
         6
  9
$SURFV
 70
         6
  9
$UCSNAME
  2

  9
$UCSORG
 10
0.0
 20
0.0
 30
0.0
  9
$UCSXDIR
 10
1.0
 20
0.0
 30
0.0
  9
$UCSYDIR
 10
0.0
 20
1.0
 30
0.0
  9
$PUCSNAME
  2

  9
$PUCSORG
 10
0.0
 20
0.0
 30
0.0
  9
$PUCSXDIR
 10
1.0
 20
0.0
 30
0.0
  9
$PUCSYDIR
 10
0.0
 20
1.0
 30
0.0
  9
$USERI1
 70
         0
  9
$USERI2
 70
         0
  9
$USERI3
 70
         0
  9
$USERI4
 70
         0
  9
$USERI5
 70
         0
  9
$USERR1
 40
0.0
  9
$USERR2
 40
0.0
  9
$USERR3
 40
0.0
  9
$USERR4
 40
0.0
  9
$USERR5
 40
0.0
  9
$WORLDVIEW
 70
         1
  9
$SHADEDGE
 70
         3
  9
$SHADEDIF
 70
        70
  9
$TILEMODE
 70
         1
  9
$MAXACTVP
 70
        16
  9
$PINSBASE
 10
0.0
 20
0.0
 30
0.0
  9
$PLIMCHECK
 70
         0
  9
$PEXTMIN
 10
1.0000000000E+20
 20
1.0000000000E+20
 30
1.0000000000E+20
  9
$PEXTMAX
 10
-1.0000000000E+20
 20
-1.0000000000E+20
 30
-1.0000000000E+20
  9
$PLIMMIN
 10
0.0
 20
0.0
  9
$PLIMMAX
 10
12.0
 20
9.0
  9
$UNITMODE
 70
         0
  9
$VISRETAIN
 70
         0
  9
$PLINEGEN
 70
         1
  9
$PSLTSCALE
 70
         0
  9
$TREEDEPTH
 70
      3020
  9
$PICKSTYLE
 70
         1
  9
$CMLSTYLE
  2
STANDARD
  9
$CMLJUST
 70
         0
  9
$CMLSCALE
 40
1.0
  9
$PROXYGRAPHICS
 70
         0
  9
$MEASUREMENT
 70
         0
  0
ENDSEC
  0
SECTION
  2
CLASSES
  0
CLASS
  1
LWPOLYLINE
  2
AcDbPolyline
  3
"AutoCAD"
 90
        0
280
         0
281
         1
  0
CLASS
  1
IMAGE
  2
AcDbRasterImage
  3
ISM
 90
      127
280
         0
281
         1
  0
CLASS
  1
OLE2FRAME
  2
AcDbOle2Frame
  3
""
 90
        0
280
         0
281
         1
  0
CLASS
  1
HATCH
  2
AcDbHatch
  3
"ACAD_SEDONA"
 90
        0
280
         0
281
         1
  0
CLASS
  1
DICTIONARYVAR
  2
AcDbDictionaryVar
  3
"AutoCAD"
 90
        0
280
         0
281
         0
  0
CLASS
  1
RASTERVARIABLES
  2
AcDbRasterVariables
  3
ISM
 90
        0
280
         0
281
         0
  0
CLASS
  1
IMAGEDEF
  2
AcDbRasterImageDef
  3
ISM
 90
        0
280
         0
281
         0
  0
CLASS
  1
IMAGEDEF_REACTOR
  2
AcDbRasterImageDefReactor
  3
ISM
 90
        1
280
         0
281
         0
  0
CLASS
  1
IDBUFFER
  2
AcDbIdBuffer
  3
"Acad"
 90
        0
280
         0
281
         0
  0
CLASS
  1
SPATIAL_FILTER
  2
AcDbSpatialFilter
  3
"Acad"
 90
        0
280
         0
281
         0
  0
CLASS
  1
XRECORD
  2
AcDbXrecord
  3
"<Built In>"
 90
        0
280
         0
281
         0
  0
CLASS
  1
SORTENTSTABLE
  2
AcDbSortentsTable
  3
"AutoCAD"
 90
        0
280
         0
281
         0
  0
CLASS
  1
LAYER_INDEX
  2
AcDbLayerIndex
  3
"Acad"
 90
        0
280
         0
281
         0
  0
CLASS
  1
SPATIAL_INDEX
  2
AcDbSpatialIndex
  3
"Acad"
 90
        0
280
         0
281
         0
  0
CLASS
  1
OBJECT_PTR
  2
CAseDLPNTableRecord
  3
"ASE-LPNTableRecord"
 90
        1
280
         0
281
         0
  0
CLASS
  1
LAYOUT
  2
AcDbLayout
  3
"AutoCAD 2000"
 90
        1
280
         0
281
         0
  0
CLASS
  1
PLOTSETTINGS
  2
AcDbPlotSettings
  3
"AutoCAD 2000"
 90
        1
280
         0
281
         0
  0
CLASS
  1
ACDBDICTIONARYWDFLT
  2
AcDbDictionaryWithDefault
  3
"AutoCAD 2000"
 90
        1
280
         0
281
         0
  0
CLASS
  1
ACDBPLACEHOLDER
  2
AcDbPlaceHolder
  3
"AutoCAD 2000"
 90
        1
280
         0
281
         0
  0
CLASS
  1
VBA_PROJECT
  2
AcDbVbaProject
  3
"acadvba"
 90
        1
280
         0
281
         0
  0
CLASS
  1
WIPEOUT
  2
AcDbWipeout
  3
WipeOut|AutoCAD Express Tool|expresstools@autodesk.com
 90
      127
280
         0
281
         1
  0
CLASS
  1
WIPEOUTVARIABLES
  2
AcDbWipeoutVariables
  3
WipeOut|AutoCAD Express Tool|expresstools@autodesk.com
 90
        0
280
         0
281
         0
  0
CLASS
  1
RTEXT
  2
RText
  3
RText|AutoCAD Express Tool|expresstools@autodesk.com
 90
        0
280
         0
281
         1
  0
CLASS
  1
ARCALIGNEDTEXT
  2
AcDbArcAlignedText
  3
ATEXT|AutoCAD Express Tool|expresstools@autodesk.com
 90
        0
280
         0
281
         1
  0
ENDSEC
  0
SECTION
  2
TABLES
  0
TABLE
  2
VPORT
  5
7
100
AcDbSymbolTable
 70
         1
  0
VPORT
  5
15
100
AcDbSymbolTableRecord
100
AcDbViewportTableRecord
  2
*ACTIVE
 70
         0
 10
0.0
 20
0.0
 11
1.0
 21
1.0
 12
1433.0879809675
 22
85.4295705422
 13
0.0
 23
0.0
 14
1.0
 24
1.0
 15
0.0
 25
0.0
 16
0.0
 26
0.0
 36
1.0
 17
0.0
 27
0.0
 37
0.0
 40
315.5699973051
 41
1.9834619625
 42
50.0
 43
0.0
 44
0.0
 50
0.0
 51
0.0
 71
         0
 72
       100
 73
         1
 74
         1
 75
         0
 76
         0
 77
         0
 78
         0
  0
ENDTAB
  0
TABLE
  2
LTYPE
  5
4
100
AcDbSymbolTable
 70
         6
  0
LTYPE
  5
11
100
AcDbSymbolTableRecord
100
AcDbLinetypeTableRecord
  2
BYBLOCK
 70
        64
  3

 72
        65
 73
         0
 40
0.0
  0
LTYPE
  5
12
100
AcDbSymbolTableRecord
100
AcDbLinetypeTableRecord
  2
BYLAYER
 70
        64
  3

 72
        65
 73
         0
 40
0.0
  0
LTYPE
  5
13
100
AcDbSymbolTableRecord
100
AcDbLinetypeTableRecord
  2
CONTINUOUS
 70
        64
  3
Solid line
 72
        65
 73
         0
 40
0.0
  0
LTYPE
  5
1D
100
AcDbSymbolTableRecord
100
AcDbLinetypeTableRecord
  2
DASHED
 70
        64
  3
_ _ _ _ _ _ _ _ _ _ _ _ _ _ _ _
 72
        65
 73
         2
 40
0.2
 49
0.1
 74
         0
 49
-0.1
 74
         0
  0
LTYPE
  5
1E
100
AcDbSymbolTableRecord
100
AcDbLinetypeTableRecord
  2
CENTER
 70
        64
  3
___ _ ___ _ ___ _ ___ _ ___ _ ___ _ ___ _ ___ _
 72
        65
 73
         4
 40
0.95
 49
0.625
 74
         0
 49
-0.125
 74
         0
 49
0.075
 74
         0
 49
-0.125
 74
         0
  0
LTYPE
  5
1F
100
AcDbSymbolTableRecord
100
AcDbLinetypeTableRecord
  2
PHANTOM
 70
        64
  3
______  __  __  ______  __  __  ______  __  __  
 72
        65
 73
         6
 40
1.025
 49
0.625
 74
         0
 49
-0.125
 74
         0
 49
0.075
 74
         0
 49
-0.125
 74
         0
 49
0.075
 74
         0
 49
-0.125
 74
         0
  0
ENDTAB
  0
TABLE
  2
LAYER
  5
2
100
AcDbSymbolTable
 70
         8
  0
LAYER
  5
14
100
AcDbSymbolTableRecord
100
AcDbLayerTableRecord
  2
0
 70
         0
 62
         7
  6
CONTINUOUS
  0
LAYER
  5
21
100
AcDbSymbolTableRecord
100
AcDbLayerTableRecord
  2
_____U
 70
         1
 62
         7
  6
CONTINUOUS
  0
LAYER
  5
22
100
AcDbSymbolTableRecord
100
AcDbLayerTableRecord
  2
_____T______
 70
         1
 62
         7
  6
CONTINUOUS
  0
LAYER
  5
23
100
AcDbSymbolTableRecord
100
AcDbLayerTableRecord
  2
______L_______
 70
         1
 62
         7
  6
CONTINUOUS
  0
LAYER
  5
24
100
AcDbSymbolTableRecord
100
AcDbLayerTableRecord
  2
_Y__________
 70
         0
 62
         7
  6
CONTINUOUS
  0
LAYER
  5
25
100
AcDbSymbolTableRecord
100
AcDbLayerTableRecord
  2
_X______
 70
         0
 62
         7
  6
CONTINUOUS
  0
LAYER
  5
26
100
AcDbSymbolTableRecord
100
AcDbLayerTableRecord
  2
L1_65
 70
         0
 62
         7
  6
CONTINUOUS
  0
LAYER
  5
2B
100
AcDbSymbolTableRecord
100
AcDbLayerTableRecord
  2
DEFPOINTS
 70
         0
 62
        -7
  6
CONTINUOUS
  0
ENDTAB
  0
TABLE
  2
STYLE
  5
3
100
AcDbSymbolTable
 70
        10
  0
STYLE
  5
17
100
AcDbSymbolTableRecord
100
AcDbTextStyleTableRecord
  2
STANDARD
 70
         0
 40
0.0
 41
1.0
 50
0.0
 71
         0
 42
0.0
  3
txt
  4

  0
STYLE
  5
34
100
AcDbSymbolTableRecord
100
AcDbTextStyleTableRecord
  2
BOX
 70
         0
 40
1.0
 41
1.0
 50
0.0
 71
         0
 42
0.2
  3
txt.shx
  4

  0
STYLE
  5
112
100
AcDbSymbolTableRecord
100
AcDbTextStyleTableRecord
  2
BOX
 70
         0
 40
1.0
 41
1.0
 50
0.0
 71
         0
 42
0.2
  3
txt.shx
  4

  0
STYLE
  5
120
100
AcDbSymbolTableRecord
100
AcDbTextStyleTableRecord
  2
BOX
 70
         0
 40
1.0
 41
1.0
 50
0.0
 71
         0
 42
0.2
  3
txt.shx
  4

  0
STYLE
  5
142
100
AcDbSymbolTableRecord
100
AcDbTextStyleTableRecord
  2
BOX
 70
         0
 40
1.0
 41
1.0
 50
0.0
 71
         0
 42
0.2
  3
txt.shx
  4

  0
STYLE
  5
173
100
AcDbSymbolTableRecord
100
AcDbTextStyleTableRecord
  2
BOX
 70
         0
 40
1.0
 41
1.0
 50
0.0
 71
         0
 42
0.2
  3
txt.shx
  4

  0
STYLE
  5
2A2
100
AcDbSymbolTableRecord
100
AcDbTextStyleTableRecord
  2
BOX
 70
         0
 40
1.0
 41
1.0
 50
0.0
 71
         0
 42
0.2
  3
txt.shx
  4

  0
STYLE
  5
2B0
100
AcDbSymbolTableRecord
100
AcDbTextStyleTableRecord
  2
BOX
 70
         0
 40
1.0
 41
1.0
 50
0.0
 71
         0
 42
0.2
  3
txt.shx
  4

  0
STYLE
  5
2C0
100
AcDbSymbolTableRecord
100
AcDbTextStyleTableRecord
  2
BOX
 70
         0
 40
1.0
 41
1.0
 50
0.0
 71
         0
 42
0.2
  3
txt.shx
  4

  0
STYLE
  5
350
100
AcDbSymbolTableRecord
100
AcDbTextStyleTableRecord
  2
BOX
 70
         0
 40
1.0
 41
1.0
 50
0.0
 71
         0
 42
0.2
  3
txt.shx
  4

  0
ENDTAB
  0
TABLE
  2
VIEW
  5
5
100
AcDbSymbolTable
 70
         0
  0
ENDTAB
  0
TABLE
  2
UCS
  5
6
100
AcDbSymbolTable
 70
         1
  0
UCS
  5
20
100
AcDbSymbolTableRecord
100
AcDbUCSTableRecord
  2
CK_VIEW_1
 70
         0
 10
0.0
 20
0.0
 30
1.0
 11
1.0
 21
0.0
 31
0.0
 12
0.0
 22
1.0
 32
0.0
  0
ENDTAB
  0
TABLE
  2
APPID
  5
8
100
AcDbSymbolTable
 70
         1
  0
APPID
  5
16
100
AcDbSymbolTableRecord
100
AcDbRegAppTableRecord
  2
ACAD
 70
         0
  0
ENDTAB
  0
TABLE
  2
DIMSTYLE
  5
9
100
AcDbSymbolTable
 70
         2
  0
DIMSTYLE
105
18
100
AcDbSymbolTableRecord
100
AcDbDimStyleTableRecord
  2
STANDARD
 70
         0
  3

  4

  5

  6

  7

 40
1.0
 41
0.18
 42
0.0625
 43
0.38
 44
0.18
 45
0.0
 46
0.0
 47
0.0
 48
0.0
 71
         0
 72
         0
 73
         1
 74
         1
 75
         0
 76
         0
 77
         0
 78
         0
140
0.18
141
0.09
142
0.0
143
25.4
144
1.0
145
0.0
146
1.0
147
0.09
170
         0
171
         2
172
         0
173
         0
174
         0
175
         0
176
         0
177
         0
178
         0
270
         2
271
         4
272
         4
273
         2
274
         2
275
         0
280
         0
281
         0
282
         0
283
         1
284
         0
285
         0
286
         0
287
         0
288
         0
340
17
  0
DIMSTYLE
105
27
100
AcDbSymbolTableRecord
100
AcDbDimStyleTableRecord
  2
DIMSTYLE1
 70
         0
  3

  4

  5

  6

  7

 40
1.0
 41
2.7
 42
0.0625
 43
0.38
 44
2.7
 45
0.0
 46
0.0
 47
0.0
 48
0.0
 71
         0
 72
         0
 73
         1
 74
         1
 75
         0
 76
         0
 77
         0
 78
         0
140
2.7
141
0.09
142
0.0
143
25.4
144
1.0
145
0.0
146
1.0
147
0.09
170
         0
171
         2
172
         0
173
         0
174
         0
175
         0
176
         0
177
         0
178
         0
270
         2
271
         4
272
         4
273
         2
274
         2
275
         0
280
         0
281
         0
282
         0
283
         1
284
         0
285
         0
286
         0
287
         0
288
         0
340
17
  0
ENDTAB
  0
TABLE
  2
BLOCK_RECORD
  5
1
100
AcDbSymbolTable
 70
         9
  0
BLOCK_RECORD
  5
A
100
AcDbSymbolTableRecord
100
AcDbBlockTableRecord
  2
*MODEL_SPACE
  0
BLOCK_RECORD
  5
B
100
AcDbSymbolTableRecord
100
AcDbBlockTableRecord
  2
*PAPER_SPACE
  0
BLOCK_RECORD
  5
28
100
AcDbSymbolTableRecord
100
AcDbBlockTableRecord
  2
*D0
  0
BLOCK_RECORD
  5
107
100
AcDbSymbolTableRecord
100
AcDbBlockTableRecord
  2
*D1
  0
BLOCK_RECORD
  5
115
100
AcDbSymbolTableRecord
100
AcDbBlockTableRecord
  2
*D2
  0
BLOCK_RECORD
  5
137
100
AcDbSymbolTableRecord
100
AcDbBlockTableRecord
  2
*D3
  0
BLOCK_RECORD
  5
168
100
AcDbSymbolTableRecord
100
AcDbBlockTableRecord
  2
*D4
  0
BLOCK_RECORD
  5
297
100
AcDbSymbolTableRecord
100
AcDbBlockTableRecord
  2
*D5
  0
BLOCK_RECORD
  5
2A5
100
AcDbSymbolTableRecord
100
AcDbBlockTableRecord
  2
*D6
  0
BLOCK_RECORD
  5
2B4
100
AcDbSymbolTableRecord
100
AcDbBlockTableRecord
  2
*D7
  0
BLOCK_RECORD
  5
2FD
100
AcDbSymbolTableRecord
100
AcDbBlockTableRecord
  2
*X8
  0
ENDTAB
  0
ENDSEC
  0
SECTION
  2
BLOCKS
  0
BLOCK
  5
D
100
AcDbEntity
  8
0
100
AcDbBlockBegin
  2
*MODEL_SPACE
 70
         0
 10
0.0
 20
0.0
 30
0.0
  3
*MODEL_SPACE
  1

  0
ENDBLK
  5
E
100
AcDbEntity
  8
0
100
AcDbBlockEnd
  0
BLOCK
  5
F
100
AcDbEntity
 67
         1
  8
0
100
AcDbBlockBegin
  2
*PAPER_SPACE
 70
         0
 10
0.0
 20
0.0
 30
0.0
  3
*PAPER_SPACE
  1

  0
ENDBLK
  5
10
100
AcDbEntity
 67
         1
  8
0
100
AcDbBlockEnd
  0
BLOCK
  5
29
100
AcDbEntity
  8
0
100
AcDbBlockBegin
  2
*D0
 70
        65
 10
0.0
 20
0.0
 30
0.0
  3
*D0
  1

  0
POINT
  5
2C
100
AcDbEntity
  8
DEFPOINTS
  6
CONTINUOUS
 62
         0
100
AcDbPoint
 10
1485.2258602537
 20
163.0884980187
 30
0.0
  0
POINT
  5
2D
100
AcDbEntity
  8
DEFPOINTS
  6
CONTINUOUS
 62
         0
100
AcDbPoint
 10
1464.1372677689
 20
163.0884980187
 30
0.0
  0
POINT
  5
2E
100
AcDbEntity
  8
DEFPOINTS
  6
CONTINUOUS
 62
         0
100
AcDbPoint
 10
1464.1372677689
 20
137.28078544
 30
0.0
  0
LINE
  5
2F
100
AcDbEntity
  8
L1_65
  6
CONTINUOUS
 62
         4
100
AcDbLine
 10
1465.4872677689
 20
163.0884980187
 30
0.0
 11
1485.9008602537
 21
163.0884980187
 31
0.0
  0
LINE
  5
30
100
AcDbEntity
  8
L1_65
  6
CONTINUOUS
 62
         4
100
AcDbLine
 10
1465.4872677689
 20
137.28078544
 30
0.0
 11
1485.9008602537
 21
137.28078544
 31
0.0
  0
LINE
  5
31
100
AcDbEntity
  8
L1_65
  6
CONTINUOUS
 62
         4
100
AcDbLine
 10
1485.2258602537
 20
163.0884980187
 30
0.0
 11
1485.2258602537
 21
137.28078544
 31
0.0
  0
SOLID
  5
32
100
AcDbEntity
  8
L1_65
  6
CONTINUOUS
 62
         4
100
AcDbTrace
 10
1485.2258602537
 20
163.0884980187
 30
0.0
 11
1485.6308602537
 21
160.3884980187
 31
0.0
 12
1484.8208602537
 22
160.3884980187
 32
0.0
 13
1485.2258602537
 23
163.0884980187
 33
0.0
  0
SOLID
  5
33
100
AcDbEntity
  8
L1_65
  6
CONTINUOUS
 62
         4
100
AcDbTrace
 10
1485.2258602537
 20
137.28078544
 30
0.0
 11
1484.8208602537
 21
139.98078544
 31
0.0
 12
1485.6308602537
 22
139.98078544
 32
0.0
 13
1485.2258602537
 23
137.28078544
 33
0.0
  0
TEXT
  5
35
100
AcDbEntity
  8
L1_65
  6
CONTINUOUS
 62
         4
100
AcDbText
 10
1483.2008602537
 20
144.7846417294
 30
0.0
 40
2.7
  1
崷25
 50
90.0
  7
BOX
100
AcDbText
  0
ENDBLK
  5
36
100
AcDbEntity
  8
0
  6
CONTINUOUS
100
AcDbBlockEnd
  0
BLOCK
  5
108
100
AcDbEntity
  8
0
100
AcDbBlockBegin
  2
*D1
 70
        65
 10
0.0
 20
0.0
 30
0.0
  3
*D1
  1

  0
POINT
  5
10A
100
AcDbEntity
  8
DEFPOINTS
  6
CONTINUOUS
 62
         0
100
AcDbPoint
 10
1331.7533403763
 20
221.9520692454
 30
0.0
  0
POINT
  5
10B
100
AcDbEntity
  8
DEFPOINTS
  6
CONTINUOUS
 62
         0
100
AcDbPoint
 10
1331.7533403763
 20
161.4188234458
 30
0.0
  0
POINT
  5
10C
100
AcDbEntity
  8
DEFPOINTS
  6
CONTINUOUS
 62
         0
100
AcDbPoint
 10
1465.0033403763
 20
150.1846417294
 30
0.0
  0
LINE
  5
10D
100
AcDbEntity
  8
L1_65
  6
CONTINUOUS
 62
         4
100
AcDbLine
 10
1331.7533403763
 20
162.7688234458
 30
0.0
 11
1331.7533403763
 21
222.6270692454
 31
0.0
  0
LINE
  5
10E
100
AcDbEntity
  8
L1_65
  6
CONTINUOUS
 62
         4
100
AcDbLine
 10
1465.0033403763
 20
151.5346417294
 30
0.0
 11
1465.0033403763
 21
222.6270692454
 31
0.0
  0
LINE
  5
10F
100
AcDbEntity
  8
L1_65
  6
CONTINUOUS
 62
         4
100
AcDbLine
 10
1331.7533403763
 20
221.9520692454
 30
0.0
 11
1465.0033403763
 21
221.9520692454
 31
0.0
  0
SOLID
  5
110
100
AcDbEntity
  8
L1_65
  6
CONTINUOUS
 62
         4
100
AcDbTrace
 10
1331.7533403763
 20
221.9520692454
 30
0.0
 11
1334.4533403763
 21
222.3570692454
 31
0.0
 12
1334.4533403763
 22
221.5470692454
 32
0.0
 13
1331.7533403763
 23
221.9520692454
 33
0.0
  0
SOLID
  5
111
100
AcDbEntity
  8
L1_65
  6
CONTINUOUS
 62
         4
100
AcDbTrace
 10
1465.0033403763
 20
221.9520692454
 30
0.0
 11
1462.3033403763
 21
221.5470692454
 31
0.0
 12
1462.3033403763
 22
222.3570692454
 32
0.0
 13
1465.0033403763
 23
221.9520692454
 33
0.0
  0
TEXT
  5
113
100
AcDbEntity
  8
L1_65
  6
CONTINUOUS
 62
         4
100
AcDbText
 10
1389.1483198782
 20
223.9770692454
 30
0.0
 40
2.7
  1
133.25
  7
BOX
100
AcDbText
  0
ENDBLK
  5
114
100
AcDbEntity
  8
0
  6
CONTINUOUS
100
AcDbBlockEnd
  0
BLOCK
  5
116
100
AcDbEntity
  8
0
100
AcDbBlockBegin
  2
*D2
 70
        65
 10
0.0
 20
0.0
 30
0.0
  3
*D2
  1

  0
POINT
  5
118
100
AcDbEntity
  8
DEFPOINTS
  6
CONTINUOUS
 62
         0
100
AcDbPoint
 10
1400.0033403763
 20
215.6241382036
 30
0.0
  0
POINT
  5
119
100
AcDbEntity
  8
DEFPOINTS
  6
CONTINUOUS
 62
         0
100
AcDbPoint
 10
1400.0033403763
 20
172.4096417294
 30
0.0
  0
POINT
  5
11A
100
AcDbEntity
  8
DEFPOINTS
  6
CONTINUOUS
 62
         0
100
AcDbPoint
 10
1465.0033403763
 20
150.1846417294
 30
0.0
  0
LINE
  5
11B
100
AcDbEntity
  8
L1_65
  6
CONTINUOUS
 62
         4
100
AcDbLine
 10
1400.0033403763
 20
173.7596417294
 30
0.0
 11
1400.0033403763
 21
216.2991382036
 31
0.0
  0
LINE
  5
11C
100
AcDbEntity
  8
L1_65
  6
CONTINUOUS
 62
         4
100
AcDbLine
 10
1465.0033403763
 20
151.5346417294
 30
0.0
 11
1465.0033403763
 21
216.2991382036
 31
0.0
  0
LINE
  5
11D
100
AcDbEntity
  8
L1_65
  6
CONTINUOUS
 62
         4
100
AcDbLine
 10
1400.0033403763
 20
215.6241382036
 30
0.0
 11
1465.0033403763
 21
215.6241382036
 31
0.0
  0
SOLID
  5
11E
100
AcDbEntity
  8
L1_65
  6
CONTINUOUS
 62
         4
100
AcDbTrace
 10
1400.0033403763
 20
215.6241382036
 30
0.0
 11
1402.7033403763
 21
216.0291382036
 31
0.0
 12
1402.7033403763
 22
215.2191382036
 32
0.0
 13
1400.0033403763
 23
215.6241382036
 33
0.0
  0
SOLID
  5
11F
100
AcDbEntity
  8
L1_65
  6
CONTINUOUS
 62
         4
100
AcDbTrace
 10
1465.0033403763
 20
215.6241382036
 30
0.0
 11
1462.3033403763
 21
215.2191382036
 31
0.0
 12
1462.3033403763
 22
216.0291382036
 32
0.0
 13
1465.0033403763
 23
215.6241382036
 33
0.0
  0
TEXT
  5
121
100
AcDbEntity
  8
L1_65
  6
CONTINUOUS
 62
         4
100
AcDbText
 10
1430.195664747
 20
217.6491382036
 30
0.0
 40
2.7
  1
65
  7
BOX
100
AcDbText
  0
ENDBLK
  5
122
100
AcDbEntity
  8
0
  6
CONTINUOUS
100
AcDbBlockEnd
  0
BLOCK
  5
138
100
AcDbEntity
  8
0
100
AcDbBlockBegin
  2
*D3
 70
        65
 10
0.0
 20
0.0
 30
0.0
  3
*D3
  1

  0
POINT
  5
13A
100
AcDbEntity
  8
DEFPOINTS
  6
CONTINUOUS
 62
         0
100
AcDbPoint
 10
1499.2769873341
 20
167.6846417294
 30
0.0
  0
POINT
  5
13B
100
AcDbEntity
  8
DEFPOINTS
  6
CONTINUOUS
 62
         0
100
AcDbPoint
 10
1453.8374164484
 20
167.6846417294
 30
0.0
  0
POINT
  5
13C
100
AcDbEntity
  8
DEFPOINTS
  6
CONTINUOUS
 62
         0
100
AcDbPoint
 10
1453.8374164484
 20
132.6846417294
 30
0.0
  0
LINE
  5
13D
100
AcDbEntity
  8
L1_65
  6
CONTINUOUS
 62
         4
100
AcDbLine
 10
1455.1874164484
 20
167.6846417294
 30
0.0
 11
1499.9519873341
 21
167.6846417294
 31
0.0
  0
LINE
  5
13E
100
AcDbEntity
  8
L1_65
  6
CONTINUOUS
 62
         4
100
AcDbLine
 10
1455.1874164484
 20
132.6846417294
 30
0.0
 11
1499.9519873341
 21
132.6846417294
 31
0.0
  0
LINE
  5
13F
100
AcDbEntity
  8
L1_65
  6
CONTINUOUS
 62
         4
100
AcDbLine
 10
1499.2769873341
 20
167.6846417294
 30
0.0
 11
1499.2769873341
 21
132.6846417294
 31
0.0
  0
SOLID
  5
140
100
AcDbEntity
  8
L1_65
  6
CONTINUOUS
 62
         4
100
AcDbTrace
 10
1499.2769873341
 20
167.6846417294
 30
0.0
 11
1499.6819873341
 21
164.9846417294
 31
0.0
 12
1498.8719873341
 22
164.9846417294
 32
0.0
 13
1499.2769873341
 23
167.6846417294
 33
0.0
  0
SOLID
  5
141
100
AcDbEntity
  8
L1_65
  6
CONTINUOUS
 62
         4
100
AcDbTrace
 10
1499.2769873341
 20
132.6846417294
 30
0.0
 11
1498.8719873341
 21
135.3846417294
 31
0.0
 12
1499.6819873341
 22
135.3846417294
 32
0.0
 13
1499.2769873341
 23
132.6846417294
 33
0.0
  0
TEXT
  5
143
100
AcDbEntity
  8
L1_65
  6
CONTINUOUS
 62
         4
100
AcDbText
 10
1496.1449873341
 20
144.2426330848
 30
0.0
 40
2.7
  1
崷35
 50
90.0
  7
BOX
100
AcDbText
  0
ENDBLK
  5
144
100
AcDbEntity
  8
0
  6
CONTINUOUS
100
AcDbBlockEnd
  0
BLOCK
  5
169
100
AcDbEntity
  8
0
100
AcDbBlockBegin
  2
*D4
 70
        65
 10
0.0
 20
0.0
 30
0.0
  3
*D4
  1

  0
POINT
  5
16B
100
AcDbEntity
  8
DEFPOINTS
  6
CONTINUOUS
 62
         0
100
AcDbPoint
 10
1400.0033403763
 20
-57.3363373237
 30
0.0
  0
POINT
  5
16C
100
AcDbEntity
  8
DEFPOINTS
  6
CONTINUOUS
 62
         0
100
AcDbPoint
 10
1400.0033403763
 20
-19.7933347407
 30
0.0
  0
POINT
  5
16D
100
AcDbEntity
  8
DEFPOINTS
  6
CONTINUOUS
 62
         0
100
AcDbPoint
 10
1465.0033403763
 20
-24.4877293495
 30
0.0
  0
LINE
  5
16E
100
AcDbEntity
  8
L1_65
  6
CONTINUOUS
 62
         4
100
AcDbLine
 10
1400.0033403763
 20
-21.1433347407
 30
0.0
 11
1400.0033403763
 21
-58.0113373237
 31
0.0
  0
LINE
  5
16F
100
AcDbEntity
  8
L1_65
  6
CONTINUOUS
 62
         4
100
AcDbLine
 10
1465.0033403763
 20
-25.8377293495
 30
0.0
 11
1465.0033403763
 21
-58.0113373237
 31
0.0
  0
LINE
  5
170
100
AcDbEntity
  8
L1_65
  6
CONTINUOUS
 62
         4
100
AcDbLine
 10
1400.0033403763
 20
-57.3363373237
 30
0.0
 11
1465.0033403763
 21
-57.3363373237
 31
0.0
  0
SOLID
  5
171
100
AcDbEntity
  8
L1_65
  6
CONTINUOUS
 62
         4
100
AcDbTrace
 10
1400.0033403763
 20
-57.3363373237
 30
0.0
 11
1402.7033403763
 21
-56.9313373237
 31
0.0
 12
1402.7033403763
 22
-57.7413373237
 32
0.0
 13
1400.0033403763
 23
-57.3363373237
 33
0.0
  0
SOLID
  5
172
100
AcDbEntity
  8
L1_65
  6
CONTINUOUS
 62
         4
100
AcDbTrace
 10
1465.0033403763
 20
-57.3363373237
 30
0.0
 11
1462.3033403763
 21
-57.7413373237
 31
0.0
 12
1462.3033403763
 22
-56.9313373237
 32
0.0
 13
1465.0033403763
 23
-57.3363373237
 33
0.0
  0
TEXT
  5
174
100
AcDbEntity
  8
L1_65
  6
CONTINUOUS
 62
         4
100
AcDbText
 10
1430.5746757487
 20
-55.3113373237
 30
0.0
 40
2.7
  1
65
  7
BOX
100
AcDbText
  0
ENDBLK
  5
175
100
AcDbEntity
  8
0
  6
CONTINUOUS
100
AcDbBlockEnd
  0
BLOCK
  5
298
100
AcDbEntity
  8
0
100
AcDbBlockBegin
  2
*D5
 70
        65
 10
0.0
 20
0.0
 30
0.0
  3
*D5
  1

  0
POINT
  5
29A
100
AcDbEntity
  8
DEFPOINTS
  6
CONTINUOUS
 62
         0
100
AcDbPoint
 10
1650.088422761
 20
61.8174943846
 30
0.0
  0
POINT
  5
29B
100
AcDbEntity
  8
DEFPOINTS
  6
CONTINUOUS
 62
         0
100
AcDbPoint
 10
1657.3229041503
 20
61.8174943846
 30
0.0
  0
POINT
  5
29C
100
AcDbEntity
  8
DEFPOINTS
  6
CONTINUOUS
 62
         0
100
AcDbPoint
 10
1655.8073593192
 20
51.6574740646
 30
0.0
  0
LINE
  5
29D
100
AcDbEntity
  8
L1_65
  6
CONTINUOUS
 62
         4
100
AcDbLine
 10
1655.9729041503
 20
61.8174943846
 30
0.0
 11
1649.413422761
 21
61.8174943846
 31
0.0
  0
LINE
  5
29E
100
AcDbEntity
  8
L1_65
  6
CONTINUOUS
 62
         4
100
AcDbLine
 10
1654.4573593192
 20
51.6574740646
 30
0.0
 11
1649.413422761
 21
51.6574740646
 31
0.0
  0
LINE
  5
29F
100
AcDbEntity
  8
L1_65
  6
CONTINUOUS
 62
         4
100
AcDbLine
 10
1650.088422761
 20
61.8174943846
 30
0.0
 11
1650.088422761
 21
51.6574740646
 31
0.0
  0
SOLID
  5
2A0
100
AcDbEntity
  8
L1_65
  6
CONTINUOUS
 62
         4
100
AcDbTrace
 10
1650.088422761
 20
61.8174943846
 30
0.0
 11
1650.493422761
 21
59.1174943846
 31
0.0
 12
1649.683422761
 22
59.1174943846
 32
0.0
 13
1650.088422761
 23
61.8174943846
 33
0.0
  0
SOLID
  5
2A1
100
AcDbEntity
  8
L1_65
  6
CONTINUOUS
 62
         4
100
AcDbTrace
 10
1650.088422761
 20
51.6574740646
 30
0.0
 11
1649.683422761
 21
54.3574740646
 31
0.0
 12
1650.493422761
 22
54.3574740646
 32
0.0
 13
1650.088422761
 23
51.6574740646
 33
0.0
  0
TEXT
  5
2A3
100
AcDbEntity
  8
L1_65
  6
CONTINUOUS
 62
         4
100
AcDbText
 10
1648.063422761
 20
53.3694671513
 30
0.0
 40
2.7
  1
10
 50
90.0
  7
BOX
100
AcDbText
  0
ENDBLK
  5
2A4
100
AcDbEntity
  8
0
  6
CONTINUOUS
100
AcDbBlockEnd
  0
BLOCK
  5
2A6
100
AcDbEntity
  8
0
100
AcDbBlockBegin
  2
*D6
 70
        65
 10
0.0
 20
0.0
 30
0.0
  3
*D6
  1

  0
POINT
  5
2A8
100
AcDbEntity
  8
DEFPOINTS
  6
CONTINUOUS
 62
         0
100
AcDbPoint
 10
1654.9606994259
 20
68.3373126901
 30
0.0
  0
POINT
  5
2A9
100
AcDbEntity
  8
DEFPOINTS
  6
CONTINUOUS
 62
         0
100
AcDbPoint
 10
1654.9606994259
 20
59.4552896602
 30
0.0
  0
POINT
  5
2AA
100
AcDbEntity
  8
DEFPOINTS
  6
CONTINUOUS
 62
         0
100
AcDbPoint
 10
1666.0859216763
 20
59.4552896602
 30
0.0
  0
LINE
  5
2AB
100
AcDbEntity
  8
L1_65
  6
CONTINUOUS
 62
         4
100
AcDbLine
 10
1654.9606994259
 20
60.8052896602
 30
0.0
 11
1654.9606994259
 21
69.0123126901
 31
0.0
  0
LINE
  5
2AC
100
AcDbEntity
  8
L1_65
  6
CONTINUOUS
 62
         4
100
AcDbLine
 10
1666.0859216763
 20
60.8052896602
 30
0.0
 11
1666.0859216763
 21
69.0123126901
 31
0.0
  0
LINE
  5
2AD
100
AcDbEntity
  8
L1_65
  6
CONTINUOUS
 62
         4
100
AcDbLine
 10
1654.9606994259
 20
68.3373126901
 30
0.0
 11
1666.0859216763
 21
68.3373126901
 31
0.0
  0
SOLID
  5
2AE
100
AcDbEntity
  8
L1_65
  6
CONTINUOUS
 62
         4
100
AcDbTrace
 10
1654.9606994259
 20
68.3373126901
 30
0.0
 11
1657.6606994259
 21
68.7423126901
 31
0.0
 12
1657.6606994259
 22
67.9323126901
 32
0.0
 13
1654.9606994259
 23
68.3373126901
 33
0.0
  0
SOLID
  5
2AF
100
AcDbEntity
  8
L1_65
  6
CONTINUOUS
 62
         4
100
AcDbTrace
 10
1666.0859216763
 20
68.3373126901
 30
0.0
 11
1663.3859216763
 21
67.9323126901
 31
0.0
 12
1663.3859216763
 22
68.7423126901
 32
0.0
 13
1666.0859216763
 23
68.3373126901
 33
0.0
  0
TEXT
  5
2B1
100
AcDbEntity
  8
L1_65
  6
CONTINUOUS
 62
         4
100
AcDbText
 10
1645.2819966267
 20
70.3623126901
 30
0.0
 40
2.7
  1
7/16"-20UNF
  7
BOX
100
AcDbText
  0
ENDBLK
  5
2B2
100
AcDbEntity
  8
0
  6
CONTINUOUS
100
AcDbBlockEnd
  0
BLOCK
  5
2B5
100
AcDbEntity
  8
0
100
AcDbBlockBegin
  2
*D7
 70
        65
 10
0.0
 20
0.0
 30
0.0
  3
*D7
  1

  0
POINT
  5
2B7
100
AcDbEntity
  8
DEFPOINTS
  6
CONTINUOUS
 62
         0
100
AcDbPoint
 10
1657.2901490436
 20
45.1694760977
 30
0.0
  0
POINT
  5
2B8
100
AcDbEntity
  8
DEFPOINTS
  6
CONTINUOUS
 62
         0
100
AcDbPoint
 10
1657.2901490436
 20
51.6574740646
 30
0.0
  0
POINT
  5
2B9
100
AcDbEntity
  8
DEFPOINTS
  6
CONTINUOUS
 62
         0
100
AcDbPoint
 10
1663.7564720585
 20
51.6574740646
 30
0.0
  0
LINE
  5
2BA
100
AcDbEntity
  8
L1_65
  6
CONTINUOUS
 62
         4
100
AcDbLine
 10
1657.2901490436
 20
50.3074740646
 30
0.0
 11
1657.2901490436
 21
44.4944760977
 31
0.0
  0
LINE
  5
2BB
100
AcDbEntity
  8
L1_65
  6
CONTINUOUS
 62
         4
100
AcDbLine
 10
1663.7564720585
 20
50.3074740646
 30
0.0
 11
1663.7564720585
 21
44.4944760977
 31
0.0
  0
LINE
  5
2BC
100
AcDbEntity
  8
L1_65
  6
CONTINUOUS
 62
         4
100
AcDbLine
 10
1657.2901490436
 20
45.1694760977
 30
0.0
 11
1663.7564720585
 21
45.1694760977
 31
0.0
  0
SOLID
  5
2BD
100
AcDbEntity
  8
L1_65
  6
CONTINUOUS
 62
         4
100
AcDbTrace
 10
1657.2901490436
 20
45.1694760977
 30
0.0
 11
1659.9901490436
 21
45.5744760977
 31
0.0
 12
1659.9901490436
 22
44.7644760977
 32
0.0
 13
1657.2901490436
 23
45.1694760977
 33
0.0
  0
LINE
  5
2BE
100
AcDbEntity
  8
L1_65
  6
CONTINUOUS
 62
         4
100
AcDbLine
 10
1663.7564720585
 20
45.1694760977
 30
0.0
 11
1683.0276215588
 21
45.1694760977
 31
0.0
  0
SOLID
  5
2BF
100
AcDbEntity
  8
L1_65
  6
CONTINUOUS
 62
         4
100
AcDbTrace
 10
1663.7564720585
 20
45.1694760977
 30
0.0
 11
1661.0564720585
 21
44.7644760977
 31
0.0
 12
1661.0564720585
 22
45.5744760977
 32
0.0
 13
1663.7564720585
 23
45.1694760977
 33
0.0
  0
TEXT
  5
2C1
100
AcDbEntity
  8
L1_65
  6
CONTINUOUS
 62
         4
100
AcDbText
 10
1665.4776215588
 20
47.1944760977
 30
0.0
 40
2.7
  1
5.6Hex
  7
BOX
100
AcDbText
  0
ENDBLK
  5
2C2
100
AcDbEntity
  8
0
  6
CONTINUOUS
100
AcDbBlockEnd
  0
BLOCK
  5
2FE
100
AcDbEntity
  8
0
100
AcDbBlockBegin
  2
*X8
 70
        65
 10
0.0
 20
0.0
 30
0.0
  3
*X8
  1

  0
LINE
  5
2FF
100
AcDbEntity
  8
L1_65
  6
CONTINUOUS
 62
         4
100
AcDbLine
 10
1459.1537785282
 20
-28.1710302273
 30
0.0
 11
1465.0033403763
 21
-22.3214683792
 31
0.0
  0
LINE
  5
300
100
AcDbEntity
  8
L1_65
  6
CONTINUOUS
 62
         4
100
AcDbLine
 10
1452.6388333277
 20
-30.4433347407
 30
0.0
 11
1463.7657092742
 21
-19.3164587942
 31
0.0
  0
LINE
  5
301
100
AcDbEntity
  8
L1_65
  6
CONTINUOUS
 62
         4
100
AcDbLine
 10
1449.2302665084
 20
-29.6092608728
 30
0.0
 11
1459.5461926406
 21
-19.2933347407
 31
0.0
  0
LINE
  5
302
100
AcDbEntity
  8
L1_65
  6
CONTINUOUS
 62
         4
100
AcDbLine
 10
1448.0033403763
 20
-26.5935463179
 30
0.0
 11
1455.3035519534
 21
-19.2933347407
 31
0.0
  0
LINE
  5
303
100
AcDbEntity
  8
L1_65
  6
CONTINUOUS
 62
         4
100
AcDbLine
 10
1448.0033403763
 20
-22.3509056307
 30
0.0
 11
1451.0609112663
 21
-19.2933347407
 31
0.0
  0
LINE
  5
304
100
AcDbEntity
  8
L1_65
  6
CONTINUOUS
 62
         4
100
AcDbLine
 10
1463.7882098831
 20
-6.5660361239
 30
0.0
 11
1464.9760417594
 21
-5.3782042475
 31
0.0
  0
LINE
  5
305
100
AcDbEntity
  8
L1_65
  6
CONTINUOUS
 62
         4
100
AcDbLine
 10
1430.8832705792
 20
-35.2283347407
 30
0.0
 11
1435.0853578264
 21
-31.0262474935
 31
0.0
  0
LINE
  5
306
100
AcDbEntity
  8
L1_65
  6
CONTINUOUS
 62
         4
100
AcDbLine
 10
1435.6382531291
 20
-30.4733521908
 30
0.0
 11
1438.0033403763
 21
-28.1082649436
 31
0.0
  0
LINE
  5
307
100
AcDbEntity
  8
L1_65
  6
CONTINUOUS
 62
         4
100
AcDbLine
 10
1459.5182705792
 20
-6.5933347407
 30
0.0
 11
1464.9794288403
 21
-1.1321764795
 31
0.0
  0
LINE
  5
308
100
AcDbEntity
  8
L1_65
  6
CONTINUOUS
 62
         4
100
AcDbLine
 10
1417.1506298919
 20
-44.7183347409
 30
0.0
 11
1419.1033403763
 21
-42.7656242565
 31
0.0
  0
LINE
  5
309
100
AcDbEntity
  8
L1_65
  6
CONTINUOUS
 62
         4
100
AcDbLine
 10
1426.6406298921
 20
-35.2283347407
 30
0.0
 11
1438.0033403763
 21
-23.8656242565
 31
0.0
  0
LINE
  5
30A
100
AcDbEntity
  8
L1_65
  6
CONTINUOUS
 62
         4
100
AcDbLine
 10
1455.2756298921
 20
-6.5933347407
 30
0.0
 11
1462.5633950726
 21
0.6944304399
 31
0.0
  0
LINE
  5
30B
100
AcDbEntity
  8
L1_65
  6
CONTINUOUS
 62
         4
100
AcDbLine
 10
1414.0057932906
 20
-43.620530655
 30
0.0
 11
1419.1033403763
 21
-38.5229835694
 31
0.0
  0
LINE
  5
30C
100
AcDbEntity
  8
L1_65
  6
CONTINUOUS
 62
         4
100
AcDbLine
 10
1422.397989205
 20
-35.2283347407
 30
0.0
 11
1438.0033403763
 21
-19.6229835694
 31
0.0
  0
LINE
  5
30D
100
AcDbEntity
  8
L1_65
  6
CONTINUOUS
 62
         4
100
AcDbLine
 10
1451.032989205
 20
-6.5933347407
 30
0.0
 11
1459.6699772667
 21
2.043653321
 31
0.0
  0
LINE
  5
30E
100
AcDbEntity
  8
L1_65
  6
CONTINUOUS
 62
         4
100
AcDbLine
 10
1412.2774017775
 20
-41.1062814811
 30
0.0
 11
1434.0903485178
 21
-19.2933347407
 31
0.0
  0
LINE
  5
30F
100
AcDbEntity
  8
L1_65
  6
CONTINUOUS
 62
         4
100
AcDbLine
 10
1446.7903485178
 20
-6.5933347407
 30
0.0
 11
1456.7765594607
 21
3.3928762022
 31
0.0
  0
LINE
  5
310
100
AcDbEntity
  8
L1_65
  6
CONTINUOUS
 62
         4
100
AcDbLine
 10
1404.4227078305
 20
-44.7183347409
 30
0.0
 11
1429.8477078307
 21
-19.2933347407
 31
0.0
  0
LINE
  5
311
100
AcDbEntity
  8
L1_65
  6
CONTINUOUS
 62
         4
100
AcDbLine
 10
1442.5477078307
 20
-6.5933347407
 30
0.0
 11
1453.6977078307
 21
4.5566652593
 31
0.0
  0
LINE
  5
312
100
AcDbEntity
  8
L1_65
  6
CONTINUOUS
 62
         4
100
AcDbLine
 10
1403.2033403763
 20
-41.695061508
 30
0.0
 11
1425.6050671436
 21
-19.2933347407
 31
0.0
  0
LINE
  5
313
100
AcDbEntity
  8
L1_65
  6
CONTINUOUS
 62
         4
100
AcDbLine
 10
1438.3050671436
 20
-6.5933347407
 30
0.0
 11
1445.0447332082
 21
0.1463313239
 31
0.0
  0
LINE
  5
314
100
AcDbEntity
  8
L1_65
  6
CONTINUOUS
 62
         4
100
AcDbLine
 10
1403.2033403763
 20
-37.4524208209
 30
0.0
 11
1421.3624264565
 21
-19.2933347407
 31
0.0
  0
LINE
  5
315
100
AcDbEntity
  8
L1_65
  6
CONTINUOUS
 62
         4
100
AcDbLine
 10
1434.0624264565
 20
-6.5933347407
 30
0.0
 11
1441.3107511828
 21
0.6549899857
 31
0.0
  0
LINE
  5
316
100
AcDbEntity
  8
L1_65
  6
CONTINUOUS
 62
         4
100
AcDbLine
 10
1401.0867836284
 20
-35.3263368816
 30
0.0
 11
1416.6197857694
 21
-19.7933347407
 31
0.0
  0
LINE
  5
317
100
AcDbEntity
  8
L1_65
  6
CONTINUOUS
 62
         4
100
AcDbLine
 10
1429.8197857694
 20
-6.5933347407
 30
0.0
 11
1438.5270547709
 21
2.1139342609
 31
0.0
  0
LINE
  5
318
100
AcDbEntity
  8
L1_65
  6
CONTINUOUS
 62
         4
100
AcDbLine
 10
1397.3841153924
 20
-34.7863644305
 30
0.0
 11
1412.3771450822
 21
-19.7933347407
 31
0.0
  0
LINE
  5
319
100
AcDbEntity
  8
L1_65
  6
CONTINUOUS
 62
         4
100
AcDbLine
 10
1425.5771450822
 20
-6.5933347407
 30
0.0
 11
1436.4178529793
 21
4.2473731563
 31
0.0
  0
LINE
  5
31A
100
AcDbEntity
  8
L1_65
  6
CONTINUOUS
 62
         4
100
AcDbLine
 10
1393.6814471564
 20
-34.2463919794
 30
0.0
 11
1408.1345043951
 21
-19.7933347407
 31
0.0
  0
LINE
  5
31B
100
AcDbEntity
  8
L1_65
  6
CONTINUOUS
 62
         4
100
AcDbLine
 10
1421.3345043951
 20
-6.5933347407
 30
0.0
 11
1435.0553403763
 21
7.1275012405
 31
0.0
  0
LINE
  5
31C
100
AcDbEntity
  8
L1_65
  6
CONTINUOUS
 62
         4
100
AcDbLine
 10
1389.9787789203
 20
-33.7064195284
 30
0.0
 11
1403.891863708
 21
-19.7933347407
 31
0.0
  0
LINE
  5
31D
100
AcDbEntity
  8
L1_65
  6
CONTINUOUS
 62
         4
100
AcDbLine
 10
1417.591863708
 20
-6.0933347407
 30
0.0
 11
1433.026863708
 21
9.3416652593
 31
0.0
  0
LINE
  5
31E
100
AcDbEntity
  8
L1_65
  6
CONTINUOUS
 62
         4
100
AcDbLine
 10
1386.2761106843
 20
-33.1664470773
 30
0.0
 11
1399.4992230209
 21
-19.9433347407
 31
0.0
  0
LINE
  5
31F
100
AcDbEntity
  8
L1_65
  6
CONTINUOUS
 62
         4
100
AcDbLine
 10
1413.3492230209
 20
-6.0933347407
 30
0.0
 11
1428.7842230209
 21
9.3416652593
 31
0.0
  0
LINE
  5
320
100
AcDbEntity
  8
L1_65
  6
CONTINUOUS
 62
         4
100
AcDbLine
 10
1382.5734424483
 20
-32.6264746262
 30
0.0
 11
1395.2565823338
 21
-19.9433347407
 31
0.0
  0
LINE
  5
321
100
AcDbEntity
  8
L1_65
  6
CONTINUOUS
 62
         4
100
AcDbLine
 10
1409.1065823338
 20
-6.0933347407
 30
0.0
 11
1409.5533322218
 21
-5.6465848526
 31
0.0
  0
LINE
  5
322
100
AcDbEntity
  8
L1_65
  6
CONTINUOUS
 62
         4
100
AcDbLine
 10
1412.8533335056
 20
-2.3465835689
 30
0.0
 11
1424.5415823338
 21
9.3416652593
 31
0.0
  0
LINE
  5
323
100
AcDbEntity
  8
L1_65
  6
CONTINUOUS
 62
         4
100
AcDbLine
 10
1378.8707742122
 20
-32.0865021751
 30
0.0
 11
1391.0139416466
 21
-19.9433347407
 31
0.0
  0
LINE
  5
324
100
AcDbEntity
  8
L1_65
  6
CONTINUOUS
 62
         4
100
AcDbLine
 10
1404.8639416466
 20
-6.0933347407
 30
0.0
 11
1409.5533338723
 21
-1.403942515
 31
0.0
  0
LINE
  5
325
100
AcDbEntity
  8
L1_65
  6
CONTINUOUS
 62
         4
100
AcDbLine
 10
1412.853335156
 20
1.8960587687
 30
0.0
 11
1420.2989416467
 21
9.3416652593
 31
0.0
  0
LINE
  5
326
100
AcDbEntity
  8
L1_65
  6
CONTINUOUS
 62
         4
100
AcDbLine
 10
1375.1681059762
 20
-31.546529724
 30
0.0
 11
1386.7713009595
 21
-19.9433347407
 31
0.0
  0
LINE
  5
327
100
AcDbEntity
  8
L1_65
  6
CONTINUOUS
 62
         4
100
AcDbLine
 10
1400.6213009595
 20
-6.0933347407
 30
0.0
 11
1409.5533355228
 21
2.8386998226
 31
0.0
  0
LINE
  5
328
100
AcDbEntity
  8
L1_65
  6
CONTINUOUS
 62
         4
100
AcDbLine
 10
1412.8533368065
 20
6.1387011063
 30
0.0
 11
1419.1033403763
 21
12.388704676
 31
0.0
  0
LINE
  5
329
100
AcDbEntity
  8
L1_65
  6
CONTINUOUS
 62
         4
100
AcDbLine
 10
1371.4654377402
 20
-31.0065572729
 30
0.0
 11
1382.5286602724
 21
-19.9433347407
 31
0.0
  0
LINE
  5
32A
100
AcDbEntity
  8
L1_65
  6
CONTINUOUS
 62
         4
100
AcDbLine
 10
1396.5286602724
 20
-5.9433347407
 30
0.0
 11
1409.5533371732
 21
7.0813421601
 31
0.0
  0
LINE
  5
32B
100
AcDbEntity
  8
L1_65
  6
CONTINUOUS
 62
         4
100
AcDbLine
 10
1412.853338457
 20
10.3813434439
 30
0.0
 11
1419.1033403763
 21
16.6313453632
 31
0.0
  0
LINE
  5
32C
100
AcDbEntity
  8
L1_65
  6
CONTINUOUS
 62
         4
100
AcDbLine
 10
1367.7627695041
 20
-30.4665848218
 30
0.0
 11
1378.2860195853
 21
-19.9433347407
 31
0.0
  0
LINE
  5
32D
100
AcDbEntity
  8
L1_65
  6
CONTINUOUS
 62
         4
100
AcDbLine
 10
1392.2860195853
 20
-5.9433347407
 30
0.0
 11
1407.3607158606
 21
9.1313615346
 31
0.0
  0
LINE
  5
32E
100
AcDbEntity
  8
L1_65
  6
CONTINUOUS
 62
         4
100
AcDbLine
 10
1413.2033402436
 20
14.9739859176
 30
0.0
 11
1417.0610195855
 21
18.8316652595
 31
0.0
  0
LINE
  5
32F
100
AcDbEntity
  8
L1_65
  6
CONTINUOUS
 62
         4
100
AcDbLine
 10
1364.0601012681
 20
-29.9266123707
 30
0.0
 11
1374.0433788982
 21
-19.9433347407
 31
0.0
  0
LINE
  5
330
100
AcDbEntity
  8
L1_65
  6
CONTINUOUS
 62
         4
100
AcDbLine
 10
1388.0433788982
 20
-5.9433347407
 30
0.0
 11
1404.8653495057
 21
10.8786358669
 31
0.0
  0
LINE
  5
331
100
AcDbEntity
  8
L1_65
  6
CONTINUOUS
 62
         4
100
AcDbLine
 10
1407.2347991478
 20
13.248085509
 30
0.0
 11
1409.203340338
 21
15.2166266992
 31
0.0
  0
LINE
  5
332
100
AcDbEntity
  8
L1_65
  6
CONTINUOUS
 62
         4
100
AcDbLine
 10
1360.3574330321
 20
-29.3866399196
 30
0.0
 11
1369.8007382111
 21
-19.9433347407
 31
0.0
  0
LINE
  5
333
100
AcDbEntity
  8
L1_65
  6
CONTINUOUS
 62
         4
100
AcDbLine
 10
1383.8007382111
 20
-5.9433347407
 30
0.0
 11
1398.8588305243
 21
9.1147575726
 31
0.0
  0
LINE
  5
334
100
AcDbEntity
  8
L1_65
  6
CONTINUOUS
 62
         4
100
AcDbLine
 10
1405.0266388102
 20
15.2825658584
 30
0.0
 11
1407.9362681749
 21
18.1921952232
 31
0.0
  0
LINE
  5
335
100
AcDbEntity
  8
L1_65
  6
CONTINUOUS
 62
         4
100
AcDbLine
 10
1356.654764796
 20
-28.8466674686
 30
0.0
 11
1365.5580975239
 21
-19.9433347407
 31
0.0
  0
LINE
  5
336
100
AcDbEntity
  8
L1_65
  6
CONTINUOUS
 62
         4
100
AcDbLine
 10
1379.5580975239
 20
-5.9433347407
 30
0.0
 11
1393.8918365491
 21
8.3904042845
 31
0.0
  0
LINE
  5
337
100
AcDbEntity
  8
L1_65
  6
CONTINUOUS
 62
         4
100
AcDbLine
 10
1403.2033403763
 20
17.7019081116
 30
0.0
 11
1404.3330975241
 21
18.8316652595
 31
0.0
  0
LINE
  5
338
100
AcDbEntity
  8
L1_65
  6
CONTINUOUS
 62
         4
100
AcDbLine
 10
1352.95209656
 20
-28.3066950175
 30
0.0
 11
1361.3154568368
 21
-19.9433347407
 31
0.0
  0
LINE
  5
339
100
AcDbEntity
  8
L1_65
  6
CONTINUOUS
 62
         4
100
AcDbLine
 10
1375.3154568368
 20
-5.9433347407
 30
0.0
 11
1388.924842574
 21
7.6660509965
 31
0.0
  0
LINE
  5
33A
100
AcDbEntity
  8
L1_65
  6
CONTINUOUS
 62
         4
100
AcDbLine
 10
1349.249428324
 20
-27.7667225664
 30
0.0
 11
1357.0728161497
 21
-19.9433347407
 31
0.0
  0
LINE
  5
33B
100
AcDbEntity
  8
L1_65
  6
CONTINUOUS
 62
         4
100
AcDbLine
 10
1371.0728161497
 20
-5.9433347407
 30
0.0
 11
1383.9578485988
 21
6.9416977085
 31
0.0
  0
LINE
  5
33C
100
AcDbEntity
  8
L1_65
  6
CONTINUOUS
 62
         4
100
AcDbLine
 10
1345.546760088
 20
-27.2267501153
 30
0.0
 11
1352.8301754626
 21
-19.9433347407
 31
0.0
  0
LINE
  5
33D
100
AcDbEntity
  8
L1_65
  6
CONTINUOUS
 62
         4
100
AcDbLine
 10
1366.8301754626
 20
-5.9433347407
 30
0.0
 11
1378.9908546237
 21
6.2173444204
 31
0.0
  0
LINE
  5
33E
100
AcDbEntity
  8
L1_65
  6
CONTINUOUS
 62
         4
100
AcDbLine
 10
1341.8440918519
 20
-26.6867776642
 30
0.0
 11
1348.5875347755
 21
-19.9433347407
 31
0.0
  0
LINE
  5
33F
100
AcDbEntity
  8
L1_65
  6
CONTINUOUS
 62
         4
100
AcDbLine
 10
1362.5875347755
 20
-5.9433347407
 30
0.0
 11
1374.0238606485
 21
5.4929911324
 31
0.0
  0
LINE
  5
340
100
AcDbEntity
  8
L1_65
  6
CONTINUOUS
 62
         4
100
AcDbLine
 10
1338.1414236159
 20
-26.1468052131
 30
0.0
 11
1344.3448940883
 21
-19.9433347407
 31
0.0
  0
LINE
  5
341
100
AcDbEntity
  8
L1_65
  6
CONTINUOUS
 62
         4
100
AcDbLine
 10
1358.3448940883
 20
-5.9433347407
 30
0.0
 11
1369.0568666733
 21
4.7686378443
 31
0.0
  0
LINE
  5
342
100
AcDbEntity
  8
L1_65
  6
CONTINUOUS
 62
         4
100
AcDbLine
 10
1334.4387553799
 20
-25.606832762
 30
0.0
 11
1340.1022534012
 21
-19.9433347407
 31
0.0
  0
LINE
  5
343
100
AcDbEntity
  8
L1_65
  6
CONTINUOUS
 62
         4
100
AcDbLine
 10
1354.1022534012
 20
-5.9433347407
 30
0.0
 11
1364.0898726982
 21
4.0442845563
 31
0.0
  0
LINE
  5
344
100
AcDbEntity
  8
L1_65
  6
CONTINUOUS
 62
         4
100
AcDbLine
 10
1331.7533403763
 20
-24.0496070785
 30
0.0
 11
1334.7096127141
 21
-21.0933347407
 31
0.0
  0
LINE
  5
345
100
AcDbEntity
  8
L1_65
  6
CONTINUOUS
 62
         4
100
AcDbLine
 10
1349.8596127141
 20
-5.9433347407
 30
0.0
 11
1359.122878723
 21
3.3199312682
 31
0.0
  0
LINE
  5
346
100
AcDbEntity
  8
L1_65
  6
CONTINUOUS
 62
         4
100
AcDbLine
 10
1345.616972027
 20
-5.9433347407
 30
0.0
 11
1354.1558847478
 21
2.5955779802
 31
0.0
  0
LINE
  5
347
100
AcDbEntity
  8
L1_65
  6
CONTINUOUS
 62
         4
100
AcDbLine
 10
1341.3743313399
 20
-5.9433347407
 30
0.0
 11
1349.1888907727
 21
1.8712246921
 31
0.0
  0
LINE
  5
348
100
AcDbEntity
  8
L1_65
  6
CONTINUOUS
 62
         4
100
AcDbLine
 10
1337.3939368707
 20
-5.6810885227
 30
0.0
 11
1344.2218967975
 21
1.1468714041
 31
0.0
  0
LINE
  5
349
100
AcDbEntity
  8
L1_65
  6
CONTINUOUS
 62
         4
100
AcDbLine
 10
1334.0390499656
 20
-4.7933347407
 30
0.0
 11
1339.2549028223
 21
0.422518116
 31
0.0
  0
LINE
  5
34A
100
AcDbEntity
  8
L1_65
  6
CONTINUOUS
 62
         4
100
AcDbLine
 10
1331.7533403763
 20
-2.8364036429
 30
0.0
 11
1334.2879088472
 21
-0.301835172
 31
0.0
  0
ENDBLK
  5
34B
100
AcDbEntity
  8
0
  6
CONTINUOUS
100
AcDbBlockEnd
  0
ENDSEC
  0
SECTION
  2
ENTITIES
  0
DIMENSION
  5
2A
100
AcDbEntity
  8
L1_65
  6
CONTINUOUS
 62
         4
100
AcDbDimension
  2
*D0
 10
1485.2258602537
 20
163.0884980187
 30
0.0
 11
1483.2008602537
 21
144.7846417294
 31
0.0
  3
DIMSTYLE1
100
AcDbAlignedDimension
 13
1464.1372677689
 23
163.0884980187
 33
0.0
 14
1464.1372677689
 24
137.28078544
 34
0.0
 50
90.0
100
AcDbRotatedDimension
  0
ARC
  5
37
100
AcDbEntity
  8
_Y__________
  6
CONTINUOUS
 62
         7
100
AcDbCircle
 10
1332.7533403763
 20
-3.7933347407
 30
0.0
 40
1.0
100
AcDbArc
 50
180.0
 51
270.0
  0
LINE
  5
38
100
AcDbEntity
  8
_Y__________
  6
CONTINUOUS
 62
         7
100
AcDbLine
 10
1332.7533403763
 20
-4.7933347407
 30
0.0
 11
1335.5233403763
 21
-4.7933347407
 31
0.0
  0
ARC
  5
39
100
AcDbEntity
  8
_Y__________
  6
CONTINUOUS
 62
         7
100
AcDbCircle
 10
1335.9228759565
 20
-4.8933347407
 30
0.0
 40
0.2
100
AcDbArc
 50
90.0
 51
105.0
  0
LINE
  5
3A
100
AcDbEntity
  8
_Y__________
  6
CONTINUOUS
 62
         7
100
AcDbLine
 10
1335.8711121475
 20
-4.7001495754
 30
0.0
 11
1335.5233403763
 21
-4.7933347407
 31
0.0
  0
LINE
  5
3B
100
AcDbEntity
  8
_Y__________
  6
CONTINUOUS
 62
         7
100
AcDbLine
 10
1335.9228759565
 20
-4.6933347407
 30
0.0
 11
1336.3233403763
 21
-4.6933347407
 31
0.0
  0
LINE
  5
3C
100
AcDbEntity
  8
_Y__________
  6
CONTINUOUS
 62
         7
100
AcDbLine
 10
1336.4647617325
 20
-4.7519133844
 30
0.0
 11
1337.6561830887
 21
-5.9433347407
 31
0.0
  0
ARC
  5
3D
100
AcDbEntity
  8
_Y__________
  6
CONTINUOUS
 62
         7
100
AcDbCircle
 10
1336.3233403763
 20
-4.8933347407
 30
0.0
 40
0.2
100
AcDbArc
 50
45.0000000038
 51
90.0
  0
LINE
  5
3E
100
AcDbEntity
  8
_Y__________
  6
CONTINUOUS
 62
         7
100
AcDbLine
 10
1336.5233403763
 20
-5.1498119
 30
0.0
 11
1336.5233403763
 21
-20.6220880762
 31
0.0
  0
LINE
  5
3F
100
AcDbEntity
  8
_Y__________
  6
CONTINUOUS
 62
         7
100
AcDbLine
 10
1335.5233403763
 20
-4.7933347407
 30
0.0
 11
1335.5233403763
 21
-21.0933347407
 31
0.0
  0
LINE
  5
40
100
AcDbEntity
  8
_Y__________
  6
CONTINUOUS
 62
         5
100
AcDbLine
 10
1336.6561830887
 20
-4.9433347407
 30
0.0
 11
1360.2033403763
 21
-4.9433347407
 31
0.0
  0
LINE
  5
41
100
AcDbEntity
  8
_Y__________
  6
CONTINUOUS
 62
         7
100
AcDbLine
 10
1337.6561830887
 20
-5.9433347407
 30
0.0
 11
1360.2033403763
 21
-5.9433347407
 31
0.0
  0
LINE
  5
42
100
AcDbEntity
  8
_Y__________
  6
CONTINUOUS
 62
         7
100
AcDbLine
 10
1337.6561830887
 20
-5.9433347407
 30
0.0
 11
1337.6561830887
 21
-19.9433347407
 31
0.0
  0
LINE
  5
43
100
AcDbEntity
  8
_Y__________
  6
CONTINUOUS
 62
         7
100
AcDbLine
 10
1337.6561830887
 20
-19.9433347407
 30
0.0
 11
1360.2033403763
 21
-19.9433347407
 31
0.0
  0
LINE
  5
44
100
AcDbEntity
  8
_Y__________
  6
CONTINUOUS
 62
         7
100
AcDbLine
 10
1336.4647617325
 20
-21.1347560969
 30
0.0
 11
1337.6561830887
 21
-19.9433347407
 31
0.0
  0
ARC
  5
45
100
AcDbEntity
  8
_Y__________
  6
CONTINUOUS
 62
         7
100
AcDbCircle
 10
1336.3233403763
 20
-20.9933347407
 30
0.0
 40
0.2
100
AcDbArc
 50
270.0
 51
314.9999999962
  0
LINE
  5
46
100
AcDbEntity
  8
_Y__________
  6
CONTINUOUS
 62
         7
100
AcDbLine
 10
1335.9228759565
 20
-21.1933347407
 30
0.0
 11
1336.3233403763
 21
-21.1933347407
 31
0.0
  0
LINE
  5
47
100
AcDbEntity
  8
_Y__________
  6
CONTINUOUS
 62
         7
100
AcDbLine
 10
1335.8711121475
 20
-21.1865199059
 30
0.0
 11
1335.5233403763
 21
-21.0933347407
 31
0.0
  0
LINE
  5
48
100
AcDbEntity
  8
_Y__________
  6
CONTINUOUS
 62
         7
100
AcDbLine
 10
1332.7533403763
 20
-21.0933347407
 30
0.0
 11
1335.5233403763
 21
-21.0933347407
 31
0.0
  0
ARC
  5
49
100
AcDbEntity
  8
_Y__________
  6
CONTINUOUS
 62
         7
100
AcDbCircle
 10
1332.7533403763
 20
-22.0933347407
 30
0.0
 40
1.0
100
AcDbArc
 50
90.0
 51
180.0
  0
LINE
  5
4A
100
AcDbEntity
  8
_Y__________
  6
CONTINUOUS
 62
         5
100
AcDbLine
 10
1336.6561830887
 20
-20.9433347407
 30
0.0
 11
1360.2033403763
 21
-20.9433347407
 31
0.0
  0
LINE
  5
4B
100
AcDbEntity
  8
_Y__________
  6
CONTINUOUS
 62
         7
100
AcDbLine
 10
1360.2033403763
 20
-4.9433347407
 30
0.0
 11
1360.2033403763
 21
-20.9433347407
 31
0.0
  0
ARC
  5
4C
100
AcDbEntity
  8
_Y__________
  6
CONTINUOUS
 62
         7
100
AcDbCircle
 10
1332.9533403763
 20
-24.1775164571
 30
0.0
 40
1.2
100
AcDbArc
 50
180.0
 51
261.7028550302
  0
ARC
  5
4D
100
AcDbEntity
  8
_Y__________
  6
CONTINUOUS
 62
         7
100
AcDbCircle
 10
1332.9533403763
 20
-1.7091530242
 30
0.0
 40
1.2
100
AcDbArc
 50
98.2971449698
 51
180.0
  0
LINE
  5
4E
100
AcDbEntity
  8
_Y__________
  6
CONTINUOUS
 62
         7
100
AcDbLine
 10
1331.7533403763
 20
-1.7091530242
 30
0.0
 11
1331.7533403763
 21
-24.1775164571
 31
0.0
  0
ARC
  5
4F
100
AcDbEntity
  8
_Y__________
  6
CONTINUOUS
 62
         7
100
AcDbCircle
 10
1332.9533403763
 20
138.9504600129
 30
0.0
 40
1.2
100
AcDbArc
 50
180.0
 51
261.7028550302
  0
ARC
  5
50
100
AcDbEntity
  8
_Y__________
  6
CONTINUOUS
 62
         7
100
AcDbCircle
 10
1332.9533403763
 20
161.4188234458
 30
0.0
 40
1.2
100
AcDbArc
 50
98.2971449698
 51
180.0
  0
LINE
  5
51
100
AcDbEntity
  8
_Y__________
  6
CONTINUOUS
 62
         7
100
AcDbLine
 10
1331.7533403763
 20
161.4188234458
 30
0.0
 11
1331.7533403763
 21
138.9504600129
 31
0.0
  0
LINE
  5
52
100
AcDbEntity
  8
_Y__________
  6
CONTINUOUS
 62
         7
100
AcDbLine
 10
1192.1233403763
 20
142.6346417294
 30
0.0
 11
1192.1233403763
 21
157.7346417294
 31
0.0
  0
LINE
  5
53
100
AcDbEntity
  8
_Y__________
  6
CONTINUOUS
 62
         7
100
AcDbLine
 10
1192.1233403763
 20
142.6346417294
 30
0.0
 11
1191.6233403763
 21
142.1346417294
 31
0.0
  0
LINE
  5
54
100
AcDbEntity
  8
_Y__________
  6
CONTINUOUS
 62
         7
100
AcDbLine
 10
1191.6233403763
 20
142.1346417294
 30
0.0
 11
1184.6849584247
 21
142.1346417294
 31
0.0
  0
LINE
  5
55
100
AcDbEntity
  8
_Y__________
  6
CONTINUOUS
 62
         7
100
AcDbLine
 10
1184.2908731435
 20
141.7405564482
 30
0.0
 11
1184.6849584247
 21
142.1346417294
 31
0.0
  0
LINE
  5
56
100
AcDbEntity
  8
_Y__________
  6
CONTINUOUS
 62
         7
100
AcDbLine
 10
1191.6233403763
 20
158.2346417294
 30
0.0
 11
1184.6849584247
 21
158.2346417294
 31
0.0
  0
LINE
  5
57
100
AcDbEntity
  8
_Y__________
  6
CONTINUOUS
 62
         7
100
AcDbLine
 10
1192.1233403763
 20
157.7346417294
 30
0.0
 11
1191.6233403763
 21
158.2346417294
 31
0.0
  0
LINE
  5
58
100
AcDbEntity
  8
_Y__________
  6
CONTINUOUS
 62
         7
100
AcDbLine
 10
1184.2908731435
 20
158.6287270106
 30
0.0
 11
1184.6849584247
 21
158.2346417294
 31
0.0
  0
LINE
  5
59
100
AcDbEntity
  8
_Y__________
  6
CONTINUOUS
 62
         7
100
AcDbLine
 10
1245.1617223278
 20
142.1346417294
 30
0.0
 11
1240.4233403763
 21
142.1346417294
 31
0.0
  0
LINE
  5
5A
100
AcDbEntity
  8
_Y__________
  6
CONTINUOUS
 62
         7
100
AcDbLine
 10
1239.9233403763
 20
142.6346417294
 30
0.0
 11
1239.9233403763
 21
157.7346417294
 31
0.0
  0
LINE
  5
5B
100
AcDbEntity
  8
_Y__________
  6
CONTINUOUS
 62
         7
100
AcDbLine
 10
1239.9233403763
 20
142.6346417294
 30
0.0
 11
1240.4233403763
 21
142.1346417294
 31
0.0
  0
LINE
  5
5C
100
AcDbEntity
  8
_Y__________
  6
CONTINUOUS
 62
         7
100
AcDbLine
 10
1245.555807609
 20
141.7405564482
 30
0.0
 11
1245.1617223278
 21
142.1346417294
 31
0.0
  0
LINE
  5
5D
100
AcDbEntity
  8
_Y__________
  6
CONTINUOUS
 62
         7
100
AcDbLine
 10
1239.9233403763
 20
157.7346417294
 30
0.0
 11
1240.4233403763
 21
158.2346417294
 31
0.0
  0
LINE
  5
5E
100
AcDbEntity
  8
_Y__________
  6
CONTINUOUS
 62
         7
100
AcDbLine
 10
1245.555807609
 20
158.6287270106
 30
0.0
 11
1245.1617223278
 21
158.2346417294
 31
0.0
  0
LINE
  5
5F
100
AcDbEntity
  8
_Y__________
  6
CONTINUOUS
 62
         7
100
AcDbLine
 10
1245.1617223278
 20
158.2346417294
 30
0.0
 11
1240.4233403763
 21
158.2346417294
 31
0.0
  0
CIRCLE
  5
60
100
AcDbEntity
  8
_Y__________
  6
CONTINUOUS
 62
         7
100
AcDbCircle
 10
1214.9233403763
 20
150.1846417294
 30
0.0
 40
22.225
  0
CIRCLE
  5
61
100
AcDbEntity
  8
_Y__________
  6
CONTINUOUS
 62
         7
100
AcDbCircle
 10
1214.9233403763
 20
150.1846417294
 30
0.0
 40
8.5
  0
CIRCLE
  5
62
100
AcDbEntity
  8
_Y__________
  6
CONTINUOUS
 62
         7
100
AcDbCircle
 10
1214.9233403763
 20
150.1846417294
 30
0.0
 40
9.5
  0
ARC
  5
63
100
AcDbEntity
  8
_Y__________
  6
CONTINUOUS
 62
         5
100
AcDbCircle
 10
1214.9233403763
 20
150.1846417294
 30
0.0
 40
8.0
100
AcDbArc
 50
352.9901372228
 51
621.2264515101
  0
CIRCLE
  5
64
100
AcDbEntity
  8
_Y__________
  6
CONTINUOUS
 62
         7
100
AcDbCircle
 10
1214.9233403763
 20
150.1846417294
 30
0.0
 40
7.0
  0
CIRCLE
  5
65
100
AcDbEntity
  8
_Y__________
  6
CONTINUOUS
 62
         7
100
AcDbCircle
 10
1214.9233403763
 20
150.1846417294
 30
0.0
 40
12.7165768873
  0
LINE
  5
66
100
AcDbEntity
  8
_Y__________
  6
CENTER
 62
         1
100
AcDbLine
 10
1214.9233403763
 20
114.5732894966
 30
0.0
 11
1214.9233403763
 21
185.4173498279
 31
0.0
  0
ARC
  5
67
100
AcDbEntity
  8
_Y__________
  6
CONTINUOUS
 62
         7
100
AcDbCircle
 10
1214.9233403763
 20
150.1846417294
 30
0.0
 40
31.775
100
AcDbArc
 50
15.411296411
 51
164.588703589
  0
ARC
  5
68
100
AcDbEntity
  8
_Y__________
  6
CONTINUOUS
 62
         7
100
AcDbCircle
 10
1214.9233403763
 20
150.1846417294
 30
0.0
 40
31.775
100
AcDbArc
 50
195.411296411
 51
344.588703589
  0
LINE
  5
69
100
AcDbEntity
  8
_Y__________
  6
CENTER
 62
         1
100
AcDbLine
 10
1183.1483403763
 20
150.1846417294
 30
0.0
 11
1246.6983403763
 21
150.1846417294
 31
0.0
  0
LINE
  5
6A
100
AcDbEntity
  8
_Y__________
  6
CENTER
 62
         1
100
AcDbLine
 10
1596.790952795
 20
150.1846417294
 30
0.0
 11
1650.7694097755
 21
150.1846417294
 31
0.0
  0
LINE
  5
6B
100
AcDbEntity
  8
_Y__________
  6
CONTINUOUS
 62
         7
100
AcDbLine
 10
1593.0449584247
 20
142.1346417294
 30
0.0
 11
1597.7833403762
 21
142.1346417294
 31
0.0
  0
LINE
  5
6C
100
AcDbEntity
  8
_Y__________
  6
CONTINUOUS
 62
         7
100
AcDbLine
 10
1592.6508731435
 20
141.7405564482
 30
0.0
 11
1593.0449584247
 21
142.1346417294
 31
0.0
  0
LINE
  5
6D
100
AcDbEntity
  8
_Y__________
  6
CONTINUOUS
 62
         7
100
AcDbLine
 10
1598.2833403762
 20
142.6346417294
 30
0.0
 11
1597.7833403762
 21
142.1346417294
 31
0.0
  0
LINE
  5
6E
100
AcDbEntity
  8
_Y__________
  6
CONTINUOUS
 62
         7
100
AcDbLine
 10
1592.6508731435
 20
158.6287270106
 30
0.0
 11
1593.0449584247
 21
158.2346417294
 31
0.0
  0
LINE
  5
6F
100
AcDbEntity
  8
_Y__________
  6
CONTINUOUS
 62
         7
100
AcDbLine
 10
1598.2833403762
 20
157.7346417294
 30
0.0
 11
1597.7833403762
 21
158.2346417294
 31
0.0
  0
LINE
  5
70
100
AcDbEntity
  8
_Y__________
  6
CONTINUOUS
 62
         7
100
AcDbLine
 10
1598.2833403762
 20
157.7346417294
 30
0.0
 11
1598.2833403762
 21
142.6346417294
 31
0.0
  0
LINE
  5
71
100
AcDbEntity
  8
_Y__________
  6
CONTINUOUS
 62
         7
100
AcDbLine
 10
1593.0449584247
 20
158.2346417294
 30
0.0
 11
1597.7833403762
 21
158.2346417294
 31
0.0
  0
LINE
  5
72
100
AcDbEntity
  8
_Y__________
  6
CONTINUOUS
 62
         7
100
AcDbLine
 10
1653.915807609
 20
141.7405564482
 30
0.0
 11
1653.5217223278
 21
142.1346417294
 31
0.0
  0
LINE
  5
73
100
AcDbEntity
  8
_Y__________
  6
CONTINUOUS
 62
         7
100
AcDbLine
 10
1646.0833403763
 20
142.6346417294
 30
0.0
 11
1646.5833403763
 21
142.1346417294
 31
0.0
  0
LINE
  5
74
100
AcDbEntity
  8
_Y__________
  6
CONTINUOUS
 62
         7
100
AcDbLine
 10
1646.5833403763
 20
142.1346417294
 30
0.0
 11
1653.5217223278
 21
142.1346417294
 31
0.0
  0
LINE
  5
75
100
AcDbEntity
  8
_Y__________
  6
CONTINUOUS
 62
         7
100
AcDbLine
 10
1653.915807609
 20
158.6287270106
 30
0.0
 11
1653.5217223278
 21
158.2346417294
 31
0.0
  0
LINE
  5
76
100
AcDbEntity
  8
_Y__________
  6
CONTINUOUS
 62
         7
100
AcDbLine
 10
1646.5833403763
 20
158.2346417294
 30
0.0
 11
1653.5217223278
 21
158.2346417294
 31
0.0
  0
LINE
  5
77
100
AcDbEntity
  8
_Y__________
  6
CONTINUOUS
 62
         7
100
AcDbLine
 10
1646.0833403763
 20
157.7346417294
 30
0.0
 11
1646.5833403763
 21
158.2346417294
 31
0.0
  0
LINE
  5
78
100
AcDbEntity
  8
_Y__________
  6
CONTINUOUS
 62
         7
100
AcDbLine
 10
1646.0833403763
 20
157.7346417294
 30
0.0
 11
1646.0833403763
 21
142.6346417294
 31
0.0
  0
ARC
  5
79
100
AcDbEntity
  8
_Y__________
  6
DASHED
 62
         2
100
AcDbCircle
 10
1623.2833403763
 20
150.1846417294
 30
0.0
 40
28.125
100
AcDbArc
 50
198.3406919436
 51
343.3680794645
  0
ARC
  5
7A
100
AcDbEntity
  8
_Y__________
  6
DASHED
 62
         2
100
AcDbCircle
 10
1623.2833403763
 20
150.1846417294
 30
0.0
 40
28.125
100
AcDbArc
 50
16.6319205355
 51
163.3680794645
  0
LINE
  5
7B
100
AcDbEntity
  8
_Y__________
  6
CENTER
 62
         1
100
AcDbLine
 10
1623.2833403763
 20
184.9596417294
 30
0.0
 11
1623.2833403763
 21
115.4096417294
 31
0.0
  0
ARC
  5
7C
100
AcDbEntity
  8
_Y__________
  6
CONTINUOUS
 62
         7
100
AcDbCircle
 10
1623.2833403763
 20
150.1846417294
 30
0.0
 40
31.775
100
AcDbArc
 50
15.411296411
 51
164.588703589
  0
ARC
  5
7D
100
AcDbEntity
  8
_Y__________
  6
CONTINUOUS
 62
         7
100
AcDbCircle
 10
1623.2833403763
 20
150.1846417294
 30
0.0
 40
31.775
100
AcDbArc
 50
195.411296411
 51
344.588703589
  0
LINE
  5
7E
100
AcDbEntity
  8
_Y__________
  6
CONTINUOUS
 62
         7
100
AcDbLine
 10
1407.5670699775
 20
181.9596417294
 30
0.0
 11
1407.5670699775
 21
159.0346417294
 31
0.0
  0
LINE
  5
7F
100
AcDbEntity
  8
_Y__________
  6
CONTINUOUS
 62
         7
100
AcDbLine
 10
1409.2283403763
 20
179.0822369936
 30
0.0
 11
1409.2283403763
 21
158.2346417294
 31
0.0
  0
LINE
  5
80
100
AcDbEntity
  8
_Y__________
  6
CONTINUOUS
 62
         7
100
AcDbLine
 10
1412.9783403763
 20
179.0822369936
 30
0.0
 11
1412.9783403763
 21
158.2346417294
 31
0.0
  0
LINE
  5
81
100
AcDbEntity
  8
_Y__________
  6
CONTINUOUS
 62
         7
100
AcDbLine
 10
1414.639610775
 20
181.9596417294
 30
0.0
 11
1414.639610775
 21
159.0346417294
 31
0.0
  0
LINE
  5
82
100
AcDbEntity
  8
_Y__________
  6
CONTINUOUS
 62
         7
100
AcDbLine
 10
1418.3033403763
 20
158.2346417294
 30
0.0
 11
1404.0033403763
 21
158.2346417294
 31
0.0
  0
LINE
  5
83
100
AcDbEntity
  8
_Y__________
  6
CONTINUOUS
 62
         7
100
AcDbLine
 10
1418.3033403763
 20
142.1346417294
 30
0.0
 11
1404.0033403763
 21
142.1346417294
 31
0.0
  0
LINE
  5
84
100
AcDbEntity
  8
_Y__________
  6
CONTINUOUS
 62
         7
100
AcDbLine
 10
1407.5670699775
 20
159.0346417294
 30
0.0
 11
1409.2283403763
 21
158.2346417294
 31
0.0
  0
LINE
  5
85
100
AcDbEntity
  8
_Y__________
  6
CONTINUOUS
 62
         7
100
AcDbLine
 10
1407.5670699775
 20
141.3346417294
 30
0.0
 11
1409.2283403763
 21
142.1346417294
 31
0.0
  0
LINE
  5
86
100
AcDbEntity
  8
_Y__________
  6
CONTINUOUS
 62
         7
100
AcDbLine
 10
1404.0033403763
 20
158.2346417294
 30
0.0
 11
1404.0033403763
 21
142.1346417294
 31
0.0
  0
LINE
  5
87
100
AcDbEntity
  8
_Y__________
  6
CONTINUOUS
 62
         7
100
AcDbLine
 10
1407.5670699775
 20
141.3346417294
 30
0.0
 11
1403.2033403763
 21
141.3346417294
 31
0.0
  0
LINE
  5
88
100
AcDbEntity
  8
_Y__________
  6
CONTINUOUS
 62
         7
100
AcDbLine
 10
1404.0033403763
 20
142.1346417294
 30
0.0
 11
1403.2033403763
 21
141.3346417294
 31
0.0
  0
LINE
  5
89
100
AcDbEntity
  8
_Y__________
  6
CONTINUOUS
 62
         7
100
AcDbLine
 10
1403.2033403763
 20
159.0346417294
 30
0.0
 11
1404.0033403763
 21
158.2346417294
 31
0.0
  0
LINE
  5
8A
100
AcDbEntity
  8
_Y__________
  6
CONTINUOUS
 62
         7
100
AcDbLine
 10
1407.5670699775
 20
159.0346417294
 30
0.0
 11
1403.2033403763
 21
159.0346417294
 31
0.0
  0
LINE
  5
8B
100
AcDbEntity
  8
_Y__________
  6
CONTINUOUS
 62
         7
100
AcDbLine
 10
1418.3033403763
 20
158.2346417294
 30
0.0
 11
1418.3033403763
 21
142.1346417294
 31
0.0
  0
LINE
  5
8C
100
AcDbEntity
  8
_Y__________
  6
CONTINUOUS
 62
         7
100
AcDbLine
 10
1419.1033403763
 20
141.3346417294
 30
0.0
 11
1414.639610775
 21
141.3346417294
 31
0.0
  0
LINE
  5
8D
100
AcDbEntity
  8
_Y__________
  6
CONTINUOUS
 62
         7
100
AcDbLine
 10
1418.3033403763
 20
142.1346417294
 30
0.0
 11
1419.1033403763
 21
141.3346417294
 31
0.0
  0
LINE
  5
8E
100
AcDbEntity
  8
_Y__________
  6
CONTINUOUS
 62
         7
100
AcDbLine
 10
1412.9783403763
 20
142.1346417294
 30
0.0
 11
1414.639610775
 21
141.3346417294
 31
0.0
  0
LINE
  5
8F
100
AcDbEntity
  8
_Y__________
  6
CONTINUOUS
 62
         7
100
AcDbLine
 10
1419.1033403763
 20
159.0346417294
 30
0.0
 11
1418.3033403763
 21
158.2346417294
 31
0.0
  0
LINE
  5
90
100
AcDbEntity
  8
_Y__________
  6
CONTINUOUS
 62
         7
100
AcDbLine
 10
1412.9783403763
 20
158.2346417294
 30
0.0
 11
1414.639610775
 21
159.0346417294
 31
0.0
  0
LINE
  5
91
100
AcDbEntity
  8
_Y__________
  6
CONTINUOUS
 62
         7
100
AcDbLine
 10
1419.1033403763
 20
159.0346417294
 30
0.0
 11
1414.639610775
 21
159.0346417294
 31
0.0
  0
LINE
  5
92
100
AcDbEntity
  8
_Y__________
  6
CONTINUOUS
 62
         7
100
AcDbLine
 10
1407.5670699775
 20
141.3346417294
 30
0.0
 11
1407.5670699775
 21
118.4096417294
 31
0.0
  0
LINE
  5
93
100
AcDbEntity
  8
_Y__________
  6
CONTINUOUS
 62
         7
100
AcDbLine
 10
1409.2283403763
 20
142.1346417294
 30
0.0
 11
1409.2283403763
 21
121.2870464652
 31
0.0
  0
LINE
  5
94
100
AcDbEntity
  8
_Y__________
  6
CONTINUOUS
 62
         7
100
AcDbLine
 10
1412.9783403763
 20
142.1346417294
 30
0.0
 11
1412.9783403763
 21
121.2870464652
 31
0.0
  0
LINE
  5
95
100
AcDbEntity
  8
_Y__________
  6
CONTINUOUS
 62
         7
100
AcDbLine
 10
1414.639610775
 20
141.3346417294
 30
0.0
 11
1414.639610775
 21
118.4096417294
 31
0.0
  0
CIRCLE
  5
96
100
AcDbEntity
  8
_Y__________
  6
CONTINUOUS
 62
         7
100
AcDbCircle
 10
1623.2833403763
 20
150.1846417294
 30
0.0
 40
22.225
  0
LINE
  5
97
100
AcDbEntity
  8
_Y__________
  6
CONTINUOUS
 62
         7
100
AcDbLine
 10
1414.639610775
 20
-44.7183347409
 30
0.0
 11
1418.1033403763
 21
-44.7183347409
 31
0.0
  0
LINE
  5
98
100
AcDbEntity
  8
_Y__________
  6
CONTINUOUS
 62
         7
100
AcDbLine
 10
1412.9783403763
 20
-41.8409300049
 30
0.0
 11
1414.639610775
 21
-44.7183347407
 31
0.0
  0
ARC
  5
99
100
AcDbEntity
  8
_Y__________
  6
CONTINUOUS
 62
         7
100
AcDbCircle
 10
1412.0045400445
 20
-42.0683347409
 30
0.0
 40
1.0
100
AcDbArc
 50
13.1443256895
 51
90.0
  0
LINE
  5
9A
100
AcDbEntity
  8
_Y__________
  6
CONTINUOUS
 62
         7
100
AcDbLine
 10
1410.202140708
 20
-41.0683347407
 30
0.0
 11
1412.0045400445
 21
-41.0683347407
 31
0.0
  0
ARC
  5
9B
100
AcDbEntity
  8
_Y__________
  6
CONTINUOUS
 62
         7
100
AcDbCircle
 10
1410.202140708
 20
-42.0683347407
 30
0.0
 40
1.0
100
AcDbArc
 50
90.0
 51
166.8556743105
  0
LINE
  5
9C
100
AcDbEntity
  8
_Y__________
  6
CONTINUOUS
 62
         7
100
AcDbLine
 10
1409.2283403763
 20
-41.8409300049
 30
0.0
 11
1407.5670699775
 21
-44.7183347407
 31
0.0
  0
LINE
  5
9D
100
AcDbEntity
  8
_Y__________
  6
CONTINUOUS
 62
         7
100
AcDbLine
 10
1403.2033403763
 20
-35.7433347409
 30
0.0
 11
1403.2033403763
 21
-43.7183347409
 31
0.0
  0
LINE
  5
9E
100
AcDbEntity
  8
_Y__________
  6
CONTINUOUS
 62
         7
100
AcDbLine
 10
1404.2033403763
 20
-44.7183347409
 30
0.0
 11
1407.5670699775
 21
-44.7183347409
 31
0.0
  0
ARC
  5
9F
100
AcDbEntity
  8
_Y__________
  6
CONTINUOUS
 62
         7
100
AcDbCircle
 10
1402.6033403763
 20
-35.7433347407
 30
0.0
 40
0.6
100
AcDbArc
 50
0.0
 51
90.0
  0
LINE
  5
A0
100
AcDbEntity
  8
_Y__________
  6
CONTINUOUS
 62
         7
100
AcDbLine
 10
1401.9497505378
 20
-35.1433347407
 30
0.0
 11
1402.6033403763
 21
-35.1433347407
 31
0.0
  0
LINE
  5
A1
100
AcDbEntity
  8
_Y__________
  6
CONTINUOUS
 62
         7
100
AcDbLine
 10
1401.2033403763
 20
-35.3433347409
 30
0.0
 11
1401.9497505378
 21
-35.1433347409
 31
0.0
  0
LINE
  5
A2
100
AcDbEntity
  8
_Y__________
  6
CENTER
 62
         1
100
AcDbLine
 10
1328.5556074009
 20
-12.9433347407
 30
0.0
 11
1419.1033403763
 21
-12.9433347407
 31
0.0
  0
LINE
  5
A3
100
AcDbEntity
  8
_Y__________
  6
CONTINUOUS
 62
         7
100
AcDbLine
 10
1332.6301721046
 20
-25.3430810344
 30
0.0
 11
1401.2033403767
 21
-35.3433347407
 31
0.0
  0
LINE
  5
A4
100
AcDbEntity
  8
_Y__________
  6
CONTINUOUS
 62
         7
100
AcDbLine
 10
1401.2033403763
 20
9.4566652593
 30
0.0
 11
1401.9497505378
 21
9.2566652593
 31
0.0
  0
LINE
  5
A5
100
AcDbEntity
  8
_Y__________
  6
CONTINUOUS
 62
         7
100
AcDbLine
 10
1332.6301721046
 20
-0.543588447
 30
0.0
 11
1401.2033403763
 21
9.4566652593
 31
0.0
  0
LINE
  5
A6
100
AcDbEntity
  8
_Y__________
  6
CONTINUOUS
 62
         7
100
AcDbLine
 10
1401.9497505378
 20
9.2566652593
 30
0.0
 11
1402.6033403763
 21
9.2566652593
 31
0.0
  0
ARC
  5
A7
100
AcDbEntity
  8
_Y__________
  6
CONTINUOUS
 62
         7
100
AcDbCircle
 10
1402.6033403763
 20
9.8566652593
 30
0.0
 40
0.6
100
AcDbArc
 50
270.0
 51
360.0
  0
LINE
  5
A8
100
AcDbEntity
  8
_Y__________
  6
CONTINUOUS
 62
         7
100
AcDbLine
 10
1403.2033403763
 20
9.8566652593
 30
0.0
 11
1403.2033403763
 21
17.8316652595
 31
0.0
  0
LINE
  5
A9
100
AcDbEntity
  8
_Y__________
  6
CONTINUOUS
 62
         7
100
AcDbLine
 10
1404.2033403763
 20
18.8316652595
 30
0.0
 11
1407.5670699775
 21
18.8316652595
 31
0.0
  0
LINE
  5
AA
100
AcDbEntity
  8
_Y__________
  6
CONTINUOUS
 62
         7
100
AcDbLine
 10
1409.2283403763
 20
15.9542605235
 30
0.0
 11
1407.5670699775
 21
18.8316652593
 31
0.0
  0
ARC
  5
AB
100
AcDbEntity
  8
_Y__________
  6
CONTINUOUS
 62
         7
100
AcDbCircle
 10
1410.202140708
 20
16.1816652595
 30
0.0
 40
1.0
100
AcDbArc
 50
193.1443256895
 51
270.0
  0
LINE
  5
AC
100
AcDbEntity
  8
_Y__________
  6
CONTINUOUS
 62
         7
100
AcDbLine
 10
1410.202140708
 20
15.1816652595
 30
0.0
 11
1412.0045400445
 21
15.1816652595
 31
0.0
  0
ARC
  5
AD
100
AcDbEntity
  8
_Y__________
  6
CONTINUOUS
 62
         7
100
AcDbCircle
 10
1412.0045400445
 20
16.1816652595
 30
0.0
 40
1.0
100
AcDbArc
 50
270.0
 51
346.8556743105
  0
LINE
  5
AE
100
AcDbEntity
  8
_Y__________
  6
CONTINUOUS
 62
         7
100
AcDbLine
 10
1412.9783403763
 20
15.9542605237
 30
0.0
 11
1414.639610775
 21
18.8316652595
 31
0.0
  0
LINE
  5
AF
100
AcDbEntity
  8
_Y__________
  6
CONTINUOUS
 62
         7
100
AcDbLine
 10
1414.639610775
 20
18.8316652595
 30
0.0
 11
1418.1033403763
 21
18.8316652595
 31
0.0
  0
LINE
  5
B0
100
AcDbEntity
  8
_Y__________
  6
CONTINUOUS
 62
         7
100
AcDbLine
 10
1409.2283403763
 20
179.0822369936
 30
0.0
 11
1407.5670699775
 21
181.9596417294
 31
0.0
  0
LINE
  5
B1
100
AcDbEntity
  8
_Y__________
  6
CONTINUOUS
 62
         7
100
AcDbLine
 10
1409.2283403763
 20
121.2870464652
 30
0.0
 11
1407.5670699775
 21
118.4096417294
 31
0.0
  0
LINE
  5
B2
100
AcDbEntity
  8
_Y__________
  6
CONTINUOUS
 62
         7
100
AcDbLine
 10
1403.2033403763
 20
180.9596417294
 30
0.0
 11
1403.2033403763
 21
119.4096417294
 31
0.0
  0
LINE
  5
B3
100
AcDbEntity
  8
_Y__________
  6
CENTER
 62
         1
100
AcDbLine
 10
1400.0033403763
 20
172.4096417294
 30
0.0
 11
1400.0033403763
 21
127.9596417294
 31
0.0
  0
LINE
  5
B4
100
AcDbEntity
  8
_Y__________
  6
CONTINUOUS
 62
         7
100
AcDbLine
 10
1404.2033403763
 20
118.4096417294
 30
0.0
 11
1407.5670699775
 21
118.4096417294
 31
0.0
  0
LINE
  5
B5
100
AcDbEntity
  8
_Y__________
  6
CONTINUOUS
 62
         7
100
AcDbLine
 10
1404.2033403763
 20
181.9596417294
 30
0.0
 11
1407.5670699775
 21
181.9596417294
 31
0.0
  0
LINE
  5
B6
100
AcDbEntity
  8
_Y__________
  6
CONTINUOUS
 62
         7
100
AcDbLine
 10
1419.1033403763
 20
180.9596417294
 30
0.0
 11
1419.1033403763
 21
119.4096417294
 31
0.0
  0
LINE
  5
B7
100
AcDbEntity
  8
_Y__________
  6
CONTINUOUS
 62
         7
100
AcDbLine
 10
1419.1033403763
 20
180.9596417294
 30
0.0
 11
1419.1033403763
 21
169.1846417294
 31
0.0
  0
LINE
  5
B8
100
AcDbEntity
  8
_Y__________
  6
CONTINUOUS
 62
         7
100
AcDbLine
 10
1410.202140708
 20
122.0596417294
 30
0.0
 11
1412.0045400445
 21
122.0596417294
 31
0.0
  0
ARC
  5
B9
100
AcDbEntity
  8
_Y__________
  6
CONTINUOUS
 62
         7
100
AcDbCircle
 10
1410.202140708
 20
121.0596417294
 30
0.0
 40
1.0
100
AcDbArc
 50
90.0
 51
166.8556743105
  0
LINE
  5
BA
100
AcDbEntity
  8
_Y__________
  6
CONTINUOUS
 62
         7
100
AcDbLine
 10
1412.9783403763
 20
121.2870464652
 30
0.0
 11
1414.639610775
 21
118.4096417294
 31
0.0
  0
ARC
  5
BB
100
AcDbEntity
  8
_Y__________
  6
CONTINUOUS
 62
         7
100
AcDbCircle
 10
1412.0045400445
 20
121.0596417294
 30
0.0
 40
1.0
100
AcDbArc
 50
13.1443256895
 51
90.0
  0
LINE
  5
BC
100
AcDbEntity
  8
_Y__________
  6
CONTINUOUS
 62
         7
100
AcDbLine
 10
1414.639610775
 20
118.4096417294
 30
0.0
 11
1418.1033403763
 21
118.4096417294
 31
0.0
  0
LINE
  5
BD
100
AcDbEntity
  8
_Y__________
  6
CONTINUOUS
 62
         7
100
AcDbLine
 10
1412.9783403763
 20
179.0822369936
 30
0.0
 11
1414.639610775
 21
181.9596417294
 31
0.0
  0
LINE
  5
BE
100
AcDbEntity
  8
_Y__________
  6
CONTINUOUS
 62
         7
100
AcDbLine
 10
1414.639610775
 20
181.9596417294
 30
0.0
 11
1418.1033403763
 21
181.9596417294
 31
0.0
  0
LINE
  5
BF
100
AcDbEntity
  8
_Y__________
  6
CONTINUOUS
 62
         7
100
AcDbLine
 10
1410.202140708
 20
178.3096417294
 30
0.0
 11
1412.0045400445
 21
178.3096417294
 31
0.0
  0
ARC
  5
C0
100
AcDbEntity
  8
_Y__________
  6
CONTINUOUS
 62
         7
100
AcDbCircle
 10
1410.202140708
 20
179.3096417294
 30
0.0
 40
1.0
100
AcDbArc
 50
193.1443256895
 51
270.0
  0
ARC
  5
C1
100
AcDbEntity
  8
_Y__________
  6
CONTINUOUS
 62
         7
100
AcDbCircle
 10
1412.0045400445
 20
179.3096417294
 30
0.0
 40
1.0
100
AcDbArc
 50
270.0
 51
346.8556743105
  0
LINE
  5
C2
100
AcDbEntity
  8
_Y__________
  6
CENTER
 62
         1
100
AcDbLine
 10
1411.1033403763
 20
187.6899050302
 30
0.0
 11
1411.1033403763
 21
112.6870854784
 31
0.0
  0
LINE
  5
C3
100
AcDbEntity
  8
_Y__________
  6
CONTINUOUS
 62
         7
100
AcDbLine
 10
1332.7801721046
 20
137.7630204357
 30
0.0
 11
1401.2033403763
 21
127.7846417294
 31
0.0
  0
LINE
  5
C4
100
AcDbEntity
  8
_Y__________
  6
CENTER
 62
         1
100
AcDbLine
 10
1329.3598386453
 20
150.1846417294
 30
0.0
 11
1378.4659535144
 21
150.1846417294
 31
0.0
  0
LINE
  5
C5
100
AcDbEntity
  8
_Y__________
  6
CONTINUOUS
 62
         7
100
AcDbLine
 10
1332.7801721046
 20
162.6062630231
 30
0.0
 11
1401.2033403763
 21
172.5846417294
 31
0.0
  0
LINE
  5
C6
100
AcDbEntity
  8
_Y__________
  6
CENTER
 62
         1
100
AcDbLine
 10
1396.6508489578
 20
150.1846417294
 30
0.0
 11
1419.1033403763
 21
150.1846417294
 31
0.0
  0
LINE
  5
C7
100
AcDbEntity
  8
_Y__________
  6
CONTINUOUS
 62
         7
100
AcDbLine
 10
1401.9497505378
 20
127.9846417294
 30
0.0
 11
1402.6033403763
 21
127.9846417294
 31
0.0
  0
LINE
  5
C8
100
AcDbEntity
  8
_Y__________
  6
CONTINUOUS
 62
         7
100
AcDbLine
 10
1401.2033403763
 20
127.7846417294
 30
0.0
 11
1401.9497505378
 21
127.9846417294
 31
0.0
  0
ARC
  5
C9
100
AcDbEntity
  8
_Y__________
  6
CONTINUOUS
 62
         7
100
AcDbCircle
 10
1402.6033403763
 20
127.3846417294
 30
0.0
 40
0.6
100
AcDbArc
 50
0.0
 51
90.0
  0
LINE
  5
CA
100
AcDbEntity
  8
_Y__________
  6
CONTINUOUS
 62
         7
100
AcDbLine
 10
1401.9497505378
 20
127.9846417294
 30
0.0
 11
1401.9497505378
 21
172.3846417294
 31
0.0
  0
LINE
  5
CB
100
AcDbEntity
  8
_Y__________
  6
CONTINUOUS
 62
         7
100
AcDbLine
 10
1401.2033403763
 20
127.7846417294
 30
0.0
 11
1401.2033403763
 21
172.5846417294
 31
0.0
  0
LINE
  5
CC
100
AcDbEntity
  8
_Y__________
  6
CONTINUOUS
 62
         7
100
AcDbLine
 10
1401.9497505378
 20
172.3846417294
 30
0.0
 11
1402.6033403763
 21
172.3846417294
 31
0.0
  0
LINE
  5
CD
100
AcDbEntity
  8
_Y__________
  6
CONTINUOUS
 62
         7
100
AcDbLine
 10
1401.2033403763
 20
172.5846417294
 30
0.0
 11
1401.9497505378
 21
172.3846417294
 31
0.0
  0
ARC
  5
CE
100
AcDbEntity
  8
_Y__________
  6
CONTINUOUS
 62
         7
100
AcDbCircle
 10
1402.6033403763
 20
172.9846417294
 30
0.0
 40
0.6
100
AcDbArc
 50
270.0
 51
360.0
  0
CIRCLE
  5
CF
100
AcDbEntity
  8
_Y__________
  6
CONTINUOUS
 62
         7
100
AcDbCircle
 10
1411.1033403763
 20
150.1846417294
 30
0.0
 40
5.0
  0
LINE
  5
D0
100
AcDbEntity
  8
_Y__________
  6
DASHED
 62
         2
100
AcDbLine
 10
1598.7833403762
 20
145.1846417294
 30
0.0
 11
1598.2833403762
 21
144.6846417294
 31
0.0
  0
LINE
  5
D1
100
AcDbEntity
  8
_Y__________
  6
DASHED
 62
         2
100
AcDbLine
 10
1598.7833403762
 20
155.1846417294
 30
0.0
 11
1598.2833403762
 21
155.6846417294
 31
0.0
  0
LINE
  5
D2
100
AcDbEntity
  8
_Y__________
  6
DASHED
 62
         2
100
AcDbLine
 10
1598.7833403762
 20
155.1846417294
 30
0.0
 11
1598.7833403762
 21
145.1846417294
 31
0.0
  0
LINE
  5
D3
100
AcDbEntity
  8
_Y__________
  6
DASHED
 62
         2
100
AcDbLine
 10
1598.7833403762
 20
145.1846417294
 30
0.0
 11
1604.9573403762
 21
145.1846417294
 31
0.0
  0
LINE
  5
D4
100
AcDbEntity
  8
_Y__________
  6
DASHED
 62
         2
100
AcDbLine
 10
1607.8440917222
 20
150.1846417294
 30
0.0
 11
1604.9573403762
 21
145.1846417294
 31
0.0
  0
LINE
  5
D5
100
AcDbEntity
  8
_Y__________
  6
DASHED
 62
         2
100
AcDbLine
 10
1604.9573403762
 20
155.1846417294
 30
0.0
 11
1607.8440917222
 21
150.1846417294
 31
0.0
  0
LINE
  5
D6
100
AcDbEntity
  8
_Y__________
  6
DASHED
 62
         2
100
AcDbLine
 10
1604.9573403762
 20
155.1846417294
 30
0.0
 11
1604.9573403762
 21
145.1846417294
 31
0.0
  0
LINE
  5
D7
100
AcDbEntity
  8
_Y__________
  6
DASHED
 62
         2
100
AcDbLine
 10
1598.7833403762
 20
155.1846417294
 30
0.0
 11
1604.9573403762
 21
155.1846417294
 31
0.0
  0
LINE
  5
D8
100
AcDbEntity
  8
_Y__________
  6
CONTINUOUS
 62
         7
100
AcDbLine
 10
1598.2833403762
 20
155.6846417294
 30
0.0
 11
1598.2833403762
 21
144.6846417294
 31
0.0
  0
LINE
  5
D9
100
AcDbEntity
  8
_Y__________
  6
CONTINUOUS
 62
         7
100
AcDbLine
 10
1435.0553403763
 20
-33.4283347407
 30
0.0
 11
1435.0553403763
 21
-34.4283347407
 31
0.0
  0
ARC
  5
DA
100
AcDbEntity
  8
_Y__________
  6
CONTINUOUS
 62
         7
100
AcDbCircle
 10
1434.2553403763
 20
-34.4283347407
 30
0.0
 40
0.8
100
AcDbArc
 50
269.9999999999
 51
360.0
  0
LINE
  5
DB
100
AcDbEntity
  8
_Y__________
  6
CONTINUOUS
 62
         7
100
AcDbLine
 10
1435.0553403763
 20
8.5416652593
 30
0.0
 11
1435.0553403763
 21
7.5416652593
 31
0.0
  0
ARC
  5
DC
100
AcDbEntity
  8
_Y__________
  6
CONTINUOUS
 62
         7
100
AcDbCircle
 10
1434.2553403763
 20
8.5416652593
 30
0.0
 40
0.8
100
AcDbArc
 50
0.0
 51
90.0000000003
  0
LINE
  5
DD
100
AcDbEntity
  8
_Y__________
  6
CONTINUOUS
 62
         7
100
AcDbLine
 10
1419.6033403763
 20
127.8996417294
 30
0.0
 11
1434.2553403763
 21
127.8996417294
 31
0.0
  0
ARC
  5
DE
100
AcDbEntity
  8
_Y__________
  6
CONTINUOUS
 62
         7
100
AcDbCircle
 10
1434.2553403763
 20
128.6996417294
 30
0.0
 40
0.8
100
AcDbArc
 50
269.9999999999
 51
360.0
  0
ARC
  5
DF
100
AcDbEntity
  8
_Y__________
  6
CONTINUOUS
 62
         7
100
AcDbCircle
 10
1434.2553403763
 20
171.6696417294
 30
0.0
 40
0.8
100
AcDbArc
 50
0.0
 51
90.0000000003
  0
LINE
  5
E0
100
AcDbEntity
  8
_Y__________
  6
CONTINUOUS
 62
         7
100
AcDbLine
 10
1419.1033403763
 20
-35.7283347407
 30
0.0
 11
1419.1033403763
 21
-43.7183347409
 31
0.0
  0
LINE
  5
E1
100
AcDbEntity
  8
_Y__________
  6
CONTINUOUS
 62
         7
100
AcDbLine
 10
1419.1033403763
 20
17.8316652595
 30
0.0
 11
1419.1033403763
 21
9.8416652593
 31
0.0
  0
ARC
  5
E2
100
AcDbEntity
  8
_Y__________
  6
CONTINUOUS
 62
         7
100
AcDbCircle
 10
1419.6033403763
 20
172.9696417294
 30
0.0
 40
0.5
100
AcDbArc
 50
180.0
 51
270.0
  0
ARC
  5
E3
100
AcDbEntity
  8
_Y__________
  6
CONTINUOUS
 62
         7
100
AcDbCircle
 10
1419.6033403763
 20
127.3996417294
 30
0.0
 40
0.5
100
AcDbArc
 50
90.0
 51
180.0
  0
LINE
  5
E4
100
AcDbEntity
  8
_Y__________
  6
CONTINUOUS
 62
         7
100
AcDbLine
 10
1419.6033403763
 20
172.4696417294
 30
0.0
 11
1434.2553403763
 21
172.4696417294
 31
0.0
  0
LINE
  5
E5
100
AcDbEntity
  8
_Y__________
  6
CONTINUOUS
 62
         7
100
AcDbLine
 10
1435.0553403763
 20
171.6696417294
 30
0.0
 11
1435.0553403763
 21
128.6996417294
 31
0.0
  0
ARC
  5
E6
100
AcDbEntity
  8
_Y__________
  6
CONTINUOUS
 62
         7
100
AcDbCircle
 10
1404.2033403763
 20
17.8316652593
 30
0.0
 40
1.0
100
AcDbArc
 50
90.0
 51
180.0
  0
LINE
  5
E7
100
AcDbEntity
  8
_Y__________
  6
CONTINUOUS
 62
         7
100
AcDbLine
 10
1404.2033403763
 20
18.8316652593
 30
0.0
 11
1405.2033403763
 21
18.8316652593
 31
0.0
  0
LINE
  5
E8
100
AcDbEntity
  8
_Y__________
  6
CONTINUOUS
 62
         7
100
AcDbLine
 10
1403.2033403763
 20
17.8316652593
 30
0.0
 11
1403.2033403763
 21
16.8316652593
 31
0.0
  0
LINE
  5
E9
100
AcDbEntity
  8
_Y__________
  6
CONTINUOUS
 62
         7
100
AcDbLine
 10
1417.1033403763
 20
18.8316652593
 30
0.0
 11
1418.1033403763
 21
18.8316652593
 31
0.0
  0
ARC
  5
EA
100
AcDbEntity
  8
_Y__________
  6
CONTINUOUS
 62
         7
100
AcDbCircle
 10
1418.1033403763
 20
17.8316652593
 30
0.0
 40
1.0
100
AcDbArc
 50
0.0
 51
90.0
  0
ARC
  5
EB
100
AcDbEntity
  8
_Y__________
  6
CONTINUOUS
 62
         7
100
AcDbCircle
 10
1404.2033403763
 20
-43.7183347407
 30
0.0
 40
1.0
100
AcDbArc
 50
180.0
 51
270.0
  0
LINE
  5
EC
100
AcDbEntity
  8
_Y__________
  6
CONTINUOUS
 62
         7
100
AcDbLine
 10
1404.2033403763
 20
-44.7183347407
 30
0.0
 11
1405.2033403763
 21
-44.7183347407
 31
0.0
  0
LINE
  5
ED
100
AcDbEntity
  8
_Y__________
  6
CONTINUOUS
 62
         7
100
AcDbLine
 10
1417.1033403763
 20
-44.7183347407
 30
0.0
 11
1418.1033403763
 21
-44.7183347407
 31
0.0
  0
ARC
  5
EE
100
AcDbEntity
  8
_Y__________
  6
CONTINUOUS
 62
         7
100
AcDbCircle
 10
1418.1033403763
 20
-43.7183347407
 30
0.0
 40
1.0
100
AcDbArc
 50
270.0
 51
360.0
  0
LINE
  5
EF
100
AcDbEntity
  8
_Y__________
  6
CONTINUOUS
 62
         7
100
AcDbLine
 10
1419.1033403763
 20
17.8316652593
 30
0.0
 11
1419.1033403763
 21
16.8316652593
 31
0.0
  0
LINE
  5
F0
100
AcDbEntity
  8
_Y__________
  6
CONTINUOUS
 62
         7
100
AcDbLine
 10
1403.2033403763
 20
-42.7183347407
 30
0.0
 11
1403.2033403763
 21
-43.7183347407
 31
0.0
  0
LINE
  5
F1
100
AcDbEntity
  8
_Y__________
  6
CONTINUOUS
 62
         7
100
AcDbLine
 10
1419.1033403763
 20
-42.7183347407
 30
0.0
 11
1419.1033403763
 21
-43.7183347407
 31
0.0
  0
LINE
  5
F2
100
AcDbEntity
  8
_Y__________
  6
CONTINUOUS
 62
         7
100
AcDbLine
 10
1419.1033403763
 20
127.3996417294
 30
0.0
 11
1419.1033403763
 21
119.4096417294
 31
0.0
  0
LINE
  5
F3
100
AcDbEntity
  8
_Y__________
  6
CONTINUOUS
 62
         7
100
AcDbLine
 10
1403.2033403763
 20
120.4096417294
 30
0.0
 11
1403.2033403763
 21
119.4096417294
 31
0.0
  0
LINE
  5
F4
100
AcDbEntity
  8
_Y__________
  6
CONTINUOUS
 62
         7
100
AcDbLine
 10
1419.1033403763
 20
180.9596417294
 30
0.0
 11
1419.1033403763
 21
172.9696417294
 31
0.0
  0
ARC
  5
F5
100
AcDbEntity
  8
_Y__________
  6
CONTINUOUS
 62
         7
100
AcDbCircle
 10
1418.1033403763
 20
119.4096417294
 30
0.0
 40
1.0
100
AcDbArc
 50
270.0
 51
360.0
  0
LINE
  5
F6
100
AcDbEntity
  8
_Y__________
  6
CONTINUOUS
 62
         7
100
AcDbLine
 10
1417.1033403763
 20
118.4096417294
 30
0.0
 11
1418.1033403763
 21
118.4096417294
 31
0.0
  0
LINE
  5
F7
100
AcDbEntity
  8
_Y__________
  6
CONTINUOUS
 62
         7
100
AcDbLine
 10
1404.2033403763
 20
118.4096417294
 30
0.0
 11
1405.2033403763
 21
118.4096417294
 31
0.0
  0
ARC
  5
F8
100
AcDbEntity
  8
_Y__________
  6
CONTINUOUS
 62
         7
100
AcDbCircle
 10
1404.2033403763
 20
119.4096417294
 30
0.0
 40
1.0
100
AcDbArc
 50
180.0
 51
270.0
  0
ARC
  5
F9
100
AcDbEntity
  8
_Y__________
  6
CONTINUOUS
 62
         7
100
AcDbCircle
 10
1418.1033403763
 20
180.9596417294
 30
0.0
 40
1.0
100
AcDbArc
 50
0.0
 51
90.0
  0
LINE
  5
FA
100
AcDbEntity
  8
_Y__________
  6
CONTINUOUS
 62
         7
100
AcDbLine
 10
1417.1033403763
 20
181.9596417294
 30
0.0
 11
1418.1033403763
 21
181.9596417294
 31
0.0
  0
LINE
  5
FB
100
AcDbEntity
  8
_Y__________
  6
CONTINUOUS
 62
         7
100
AcDbLine
 10
1403.2033403763
 20
180.9596417294
 30
0.0
 11
1403.2033403763
 21
179.9596417294
 31
0.0
  0
LINE
  5
FC
100
AcDbEntity
  8
_Y__________
  6
CONTINUOUS
 62
         7
100
AcDbLine
 10
1404.2033403763
 20
181.9596417294
 30
0.0
 11
1405.2033403763
 21
181.9596417294
 31
0.0
  0
ARC
  5
FD
100
AcDbEntity
  8
_Y__________
  6
CONTINUOUS
 62
         7
100
AcDbCircle
 10
1404.2033403763
 20
180.9596417294
 30
0.0
 40
1.0
100
AcDbArc
 50
90.0
 51
180.0
  0
LINE
  5
FE
100
AcDbEntity
  8
_Y__________
  6
CONTINUOUS
 62
         7
100
AcDbLine
 10
1419.6033403763
 20
9.3416652593
 30
0.0
 11
1434.2553403763
 21
9.3416652593
 31
0.0
  0
LINE
  5
FF
100
AcDbEntity
  8
_Y__________
  6
CONTINUOUS
 62
         7
100
AcDbLine
 10
1419.6033403763
 20
-35.2283347407
 30
0.0
 11
1434.2553403763
 21
-35.2283347407
 31
0.0
  0
ARC
  5
100
100
AcDbEntity
  8
_Y__________
  6
CONTINUOUS
 62
         7
100
AcDbCircle
 10
1419.6033403763
 20
-35.7283347407
 30
0.0
 40
0.5
100
AcDbArc
 50
90.0
 51
180.0
  0
ARC
  5
101
100
AcDbEntity
  8
_Y__________
  6
CONTINUOUS
 62
         7
100
AcDbCircle
 10
1419.6033403763
 20
9.8416652593
 30
0.0
 40
0.5
100
AcDbArc
 50
180.0
 51
270.0
  0
LINE
  5
102
100
AcDbEntity
  8
_Y__________
  6
CONTINUOUS
 62
         7
100
AcDbLine
 10
1419.1033403763
 20
120.4096417294
 30
0.0
 11
1419.1033403763
 21
119.4096417294
 31
0.0
  0
LINE
  5
103
100
AcDbEntity
  8
_Y__________
  6
CONTINUOUS
 62
         7
100
AcDbLine
 10
1419.1033403763
 20
180.9596417294
 30
0.0
 11
1419.1033403763
 21
179.9596417294
 31
0.0
  0
LINE
  5
104
100
AcDbEntity
  8
L1_65
  6
CONTINUOUS
 62
         7
100
AcDbLine
 10
1331.7533403763
 20
161.4188234458
 30
0.0
 11
1331.7533403763
 21
138.9504600129
 31
0.0
  0
LINE
  5
105
100
AcDbEntity
  8
L1_65
  6
CENTER
 62
         1
100
AcDbLine
 10
1400.0033403763
 20
172.4096417294
 30
0.0
 11
1400.0033403763
 21
127.9596417294
 31
0.0
  0
LINE
  5
106
100
AcDbEntity
  8
L1_65
  6
CONTINUOUS
 62
         7
100
AcDbLine
 10
1403.2033403763
 20
180.9596417294
 30
0.0
 11
1403.2033403763
 21
119.4096417294
 31
0.0
  0
DIMENSION
  5
109
100
AcDbEntity
  8
L1_65
  6
CONTINUOUS
 62
         4
100
AcDbDimension
  2
*D1
 10
1331.7533403763
 20
221.9520692454
 30
0.0
 11
1389.1483198782
 21
223.9770692454
 31
0.0
  3
DIMSTYLE1
100
AcDbAlignedDimension
 13
1331.7533403763
 23
161.4188234458
 33
0.0
 14
1465.0033403763
 24
150.1846417294
 34
0.0
100
AcDbRotatedDimension
  0
DIMENSION
  5
117
100
AcDbEntity
  8
L1_65
  6
CONTINUOUS
 62
         4
100
AcDbDimension
  2
*D2
 10
1400.0033403763
 20
215.6241382036
 30
0.0
 11
1430.195664747
 21
217.6491382036
 31
0.0
  3
DIMSTYLE1
100
AcDbAlignedDimension
 13
1400.0033403763
 23
172.4096417294
 33
0.0
 14
1465.0033403763
 24
150.1846417294
 34
0.0
100
AcDbRotatedDimension
  0
ARC
  5
123
100
AcDbEntity
  8
L1_65
  6
DASHED
 62
         2
100
AcDbCircle
 10
1623.2833403763
 20
173.2596417294
 30
0.0
 40
10.0
100
AcDbArc
 50
224.9782055522
 51
315.0217944478
  0
CIRCLE
  5
124
100
AcDbEntity
  8
L1_65
  6
CONTINUOUS
 62
         7
100
AcDbCircle
 10
1623.2833403763
 20
150.1846417294
 30
0.0
 40
17.5
  0
CIRCLE
  5
125
100
AcDbEntity
  8
L1_65
  6
CONTINUOUS
 62
         7
100
AcDbCircle
 10
1623.2833403763
 20
150.1846417294
 30
0.0
 40
12.5
  0
CIRCLE
  5
126
100
AcDbEntity
  8
L1_65
  6
CONTINUOUS
 62
         7
100
AcDbCircle
 10
1623.2833403763
 20
150.1846417294
 30
0.0
 40
6.35
  0
LINE
  5
127
100
AcDbEntity
  8
L1_65
  6
DASHED
 62
         2
100
AcDbLine
 10
1617.7283403763
 20
134.1907034951
 30
0.0
 11
1617.7283403763
 21
147.1082030416
 31
0.0
  0
LINE
  5
128
100
AcDbEntity
  8
L1_65
  6
DASHED
 62
         2
100
AcDbLine
 10
1618.2833403763
 20
134.7457034951
 30
0.0
 11
1618.2833403763
 21
146.2702452242
 31
0.0
  0
LINE
  5
129
100
AcDbEntity
  8
L1_65
  6
DASHED
 62
         2
100
AcDbLine
 10
1628.2833403763
 20
134.7457034951
 30
0.0
 11
1628.2833403763
 21
146.2702452242
 31
0.0
  0
LINE
  5
12A
100
AcDbEntity
  8
L1_65
  6
DASHED
 62
         2
100
AcDbLine
 10
1628.8383403763
 20
134.1907034951
 30
0.0
 11
1628.8383403763
 21
147.1082030416
 31
0.0
  0
LINE
  5
12B
100
AcDbEntity
  8
L1_65
  6
DASHED
 62
         2
100
AcDbLine
 10
1628.2833403763
 20
134.7457034951
 30
0.0
 11
1618.2833403763
 21
134.7457034951
 31
0.0
  0
LINE
  5
12C
100
AcDbEntity
  8
L1_65
  6
DASHED
 62
         2
100
AcDbLine
 10
1629.2835923847
 20
133.7454514867
 30
0.0
 11
1628.2833403763
 21
134.7457034951
 31
0.0
  0
LINE
  5
12D
100
AcDbEntity
  8
L1_65
  6
DASHED
 62
         2
100
AcDbLine
 10
1617.2830883678
 20
133.7454514867
 30
0.0
 11
1618.2833403763
 21
134.7457034951
 31
0.0
  0
LINE
  5
12E
100
AcDbEntity
  8
L1_65
  6
CENTER
 62
         1
100
AcDbLine
 10
1469.8579811273
 20
150.1846417294
 30
0.0
 11
1419.1033403763
 21
150.1846417294
 31
0.0
  0
LINE
  5
12F
100
AcDbEntity
  8
L1_65
  6
CONTINUOUS
 62
         4
100
AcDbLine
 10
1454.2808057737
 20
132.7344094596
 30
0.0
 11
1454.2808057737
 21
167.6348739992
 31
0.0
  0
ARC
  5
130
100
AcDbEntity
  8
L1_65
  6
CONTINUOUS
 62
         7
100
AcDbCircle
 10
1463.5033403763
 20
138.6402471206
 30
0.0
 40
1.5
100
AcDbArc
 50
295.0
 51
360.0
  0
ARC
  5
131
100
AcDbEntity
  8
L1_65
  6
CONTINUOUS
 62
         7
100
AcDbCircle
 10
1463.5033403763
 20
161.7290363382
 30
0.0
 40
1.5
100
AcDbArc
 50
0.0
 51
65.0
  0
ARC
  5
132
100
AcDbEntity
  8
L1_65
  6
CONTINUOUS
 62
         7
100
AcDbCircle
 10
1453.8374164484
 20
134.6846417294
 30
0.0
 40
2.0
100
AcDbArc
 50
270.0
 51
295.0
  0
ARC
  5
133
100
AcDbEntity
  8
L1_65
  6
CONTINUOUS
 62
         7
100
AcDbCircle
 10
1453.8374164484
 20
165.6846417294
 30
0.0
 40
2.0
100
AcDbArc
 50
65.0
 51
90.0
  0
LINE
  5
134
100
AcDbEntity
  8
L1_65
  6
CONTINUOUS
 62
         7
100
AcDbLine
 10
1465.0033403763
 20
138.6402471206
 30
0.0
 11
1465.0033403763
 21
161.7290363382
 31
0.0
  0
LINE
  5
135
100
AcDbEntity
  8
L1_65
  6
CONTINUOUS
 62
         7
100
AcDbLine
 10
1454.6826529719
 20
132.8720261553
 30
0.0
 11
1464.1372677689
 21
137.28078544
 31
0.0
  0
LINE
  5
136
100
AcDbEntity
  8
L1_65
  6
CONTINUOUS
 62
         7
100
AcDbLine
 10
1464.1372677689
 20
163.0884980187
 30
0.0
 11
1454.6826529719
 21
167.4972573035
 31
0.0
  0
DIMENSION
  5
139
100
AcDbEntity
  8
L1_65
  6
CONTINUOUS
 62
         4
100
AcDbDimension
  2
*D3
 10
1499.2769873341
 20
167.6846417294
 30
0.0
 11
1496.1449873341
 21
144.2426330848
 31
0.0
  3
DIMSTYLE1
100
AcDbAlignedDimension
 13
1453.8374164484
 23
167.6846417294
 33
0.0
 14
1453.8374164484
 24
132.6846417294
 34
0.0
 50
90.0
100
AcDbRotatedDimension
  0
LINE
  5
145
100
AcDbEntity
  8
L1_65
  6
CONTINUOUS
 62
         7
100
AcDbLine
 10
1453.8374164484
 20
167.6846417294
 30
0.0
 11
1435.8553403763
 21
167.6846417294
 31
0.0
  0
LINE
  5
146
100
AcDbEntity
  8
L1_65
  6
CONTINUOUS
 62
         7
100
AcDbLine
 10
1453.8374164484
 20
132.6846417294
 30
0.0
 11
1435.8553403763
 21
132.6846417294
 31
0.0
  0
LINE
  5
147
100
AcDbEntity
  8
L1_65
  6
CONTINUOUS
 62
         7
100
AcDbLine
 10
1435.9423403763
 20
-30.4433347407
 30
0.0
 11
1438.0033403763
 21
-28.3823347407
 31
0.0
  0
LINE
  5
148
100
AcDbEntity
  8
L1_65
  6
CONTINUOUS
 62
         7
100
AcDbLine
 10
1450.0643403763
 20
-30.4433347407
 30
0.0
 11
1448.0033403763
 21
-28.3823347407
 31
0.0
  0
LINE
  5
149
100
AcDbEntity
  8
L1_65
  6
CENTER
 62
         1
100
AcDbLine
 10
1469.8579811273
 20
-12.9433347407
 30
0.0
 11
1419.1033403763
 21
-12.9433347407
 31
0.0
  0
LINE
  5
14A
100
AcDbEntity
  8
L1_65
  6
CONTINUOUS
 62
         7
100
AcDbLine
 10
1448.0033403763
 20
-28.3823347407
 30
0.0
 11
1448.0033403763
 21
-19.2933347407
 31
0.0
  0
LINE
  5
14B
100
AcDbEntity
  8
L1_65
  6
CONTINUOUS
 62
         7
100
AcDbLine
 10
1438.0033403763
 20
-28.3823347407
 30
0.0
 11
1438.0033403763
 21
-19.2933347407
 31
0.0
  0
LINE
  5
14C
100
AcDbEntity
  8
L1_65
  6
CENTER
 62
         1
100
AcDbLine
 10
1443.0033403763
 20
-32.9028448999
 30
0.0
 11
1443.0033403763
 21
-17.1567973301
 31
0.0
  0
LINE
  5
14D
100
AcDbEntity
  8
L1_65
  6
CONTINUOUS
 62
         7
100
AcDbLine
 10
1453.8374164484
 20
4.5566652593
 30
0.0
 11
1435.8553403763
 21
4.5566652593
 31
0.0
  0
LINE
  5
14E
100
AcDbEntity
  8
L1_65
  6
CONTINUOUS
 62
         7
100
AcDbLine
 10
1453.8374164484
 20
-30.4433347407
 30
0.0
 11
1435.8553403763
 21
-30.4433347407
 31
0.0
  0
ARC
  5
14F
100
AcDbEntity
  8
L1_65
  6
CONTINUOUS
 62
         7
100
AcDbCircle
 10
1463.5033403763
 20
-24.4877293495
 30
0.0
 40
1.5
100
AcDbArc
 50
295.0
 51
360.0
  0
LINE
  5
150
100
AcDbEntity
  8
L1_65
  6
CONTINUOUS
 62
         7
100
AcDbLine
 10
1454.6826529719
 20
-30.2559503147
 30
0.0
 11
1464.1372677689
 21
-25.84719103
 31
0.0
  0
LINE
  5
151
100
AcDbEntity
  8
L1_65
  6
CONTINUOUS
 62
         7
100
AcDbLine
 10
1465.0033403763
 20
-24.4877293495
 30
0.0
 11
1465.0033403763
 21
-1.3989401319
 31
0.0
  0
ARC
  5
152
100
AcDbEntity
  8
L1_65
  6
CONTINUOUS
 62
         7
100
AcDbCircle
 10
1463.5033403763
 20
-1.3989401319
 30
0.0
 40
1.5
100
AcDbArc
 50
0.0
 51
65.0
  0
LINE
  5
153
100
AcDbEntity
  8
L1_65
  6
CONTINUOUS
 62
         7
100
AcDbLine
 10
1464.1372677689
 20
-0.0394784513
 30
0.0
 11
1454.6826529719
 21
4.3692808334
 31
0.0
  0
ARC
  5
154
100
AcDbEntity
  8
L1_65
  6
CONTINUOUS
 62
         7
100
AcDbCircle
 10
1453.8374164484
 20
-28.4433347407
 30
0.0
 40
2.0
100
AcDbArc
 50
270.0
 51
295.0
  0
ARC
  5
155
100
AcDbEntity
  8
L1_65
  6
CONTINUOUS
 62
         7
100
AcDbCircle
 10
1453.8374164484
 20
2.5566652593
 30
0.0
 40
2.0
100
AcDbArc
 50
65.0
 51
90.0
  0
LINE
  5
156
100
AcDbEntity
  8
L1_65
  6
CONTINUOUS
 62
         4
100
AcDbLine
 10
1437.4533403763
 20
-28.9323347407
 30
0.0
 11
1437.4533403763
 21
-19.2933347407
 31
0.0
  0
LINE
  5
157
100
AcDbEntity
  8
L1_65
  6
CONTINUOUS
 62
         4
100
AcDbLine
 10
1448.5533403763
 20
-19.2933347407
 30
0.0
 11
1448.5533403763
 21
-28.9323347407
 31
0.0
  0
LINE
  5
158
100
AcDbEntity
  8
L1_65
  6
CONTINUOUS
 62
         7
100
AcDbLine
 10
1448.0033403763
 20
-28.3823347407
 30
0.0
 11
1438.0033403763
 21
-28.3823347407
 31
0.0
  0
ARC
  5
159
100
AcDbEntity
  8
L1_65
  6
CONTINUOUS
 62
         7
100
AcDbCircle
 10
1444.5033403763
 20
10.1316652593
 30
0.0
 40
10.0
100
AcDbArc
 50
213.883081796
 51
326.116918204
  0
LINE
  5
15A
100
AcDbEntity
  8
L1_65
  6
CENTER
 62
         1
100
AcDbLine
 10
1444.5033403763
 20
-8.2839664822
 30
0.0
 11
1444.5033403763
 21
8.2235133246
 31
0.0
  0
LINE
  5
15B
100
AcDbEntity
  8
L1_65
  6
CONTINUOUS
 62
         7
100
AcDbLine
 10
1420.0033403763
 20
-6.0933347407
 30
0.0
 11
1420.0033403763
 21
-19.7933347407
 31
0.0
  0
LINE
  5
15C
100
AcDbEntity
  8
L1_65
  6
CONTINUOUS
 62
         7
100
AcDbLine
 10
1463.5033403763
 20
-6.5933347407
 30
0.0
 11
1420.0033403763
 21
-6.5933347407
 31
0.0
  0
ARC
  5
15D
100
AcDbEntity
  8
L1_65
  6
CONTINUOUS
 62
         7
100
AcDbCircle
 10
1463.5033403763
 20
-5.0933347407
 30
0.0
 40
1.5
100
AcDbArc
 50
270.0
 51
285.022059707
  0
ARC
  5
15E
100
AcDbEntity
  8
L1_65
  6
CONTINUOUS
 62
         7
100
AcDbCircle
 10
1463.5033403763
 20
-5.0933347407
 30
0.0
 40
1.5
100
AcDbArc
 50
314.9779402929
 51
360.0
  0
LINE
  5
15F
100
AcDbEntity
  8
L1_65
  6
CONTINUOUS
 62
         7
100
AcDbLine
 10
1463.8921267583
 20
-6.5420738991
 30
0.0
 11
1464.5635920999
 21
-6.1544032034
 31
0.0
  0
ARC
  5
160
100
AcDbEntity
  8
L1_65
  6
CONTINUOUS
 62
         7
100
AcDbCircle
 10
1463.5033403763
 20
-20.7933347407
 30
0.0
 40
1.5
100
AcDbArc
 50
74.977940293
 51
90.0
  0
ARC
  5
161
100
AcDbEntity
  8
L1_65
  6
CONTINUOUS
 62
         7
100
AcDbCircle
 10
1463.5033403763
 20
-20.7933347407
 30
0.0
 40
1.5
100
AcDbArc
 50
0.0
 51
45.022059707
  0
LINE
  5
162
100
AcDbEntity
  8
L1_65
  6
CONTINUOUS
 62
         7
100
AcDbLine
 10
1463.8921267583
 20
-19.3445955823
 30
0.0
 11
1464.5635920999
 21
-19.732266278
 31
0.0
  0
LINE
  5
163
100
AcDbEntity
  8
L1_65
  6
CONTINUOUS
 62
         7
100
AcDbLine
 10
1420.0033403763
 20
-19.2933347407
 30
0.0
 11
1463.5033403763
 21
-19.2933347407
 31
0.0
  0
LINE
  5
164
100
AcDbEntity
  8
L1_65
  6
CONTINUOUS
 62
         4
100
AcDbLine
 10
1463.8921267583
 20
-19.2933347407
 30
0.0
 11
1463.8921267583
 21
-6.5933347407
 31
0.0
  0
LINE
  5
165
100
AcDbEntity
  8
L1_65
  6
CONTINUOUS
 62
         7
100
AcDbLine
 10
1420.0033403763
 20
-6.0933347407
 30
0.0
 11
1400.0033403763
 21
-6.0933347407
 31
0.0
  0
LINE
  5
166
100
AcDbEntity
  8
L1_65
  6
CONTINUOUS
 62
         7
100
AcDbLine
 10
1420.0033403763
 20
-19.7933347407
 30
0.0
 11
1400.0033403763
 21
-19.7933347407
 31
0.0
  0
LINE
  5
167
100
AcDbEntity
  8
L1_65
  6
CONTINUOUS
 62
         7
100
AcDbLine
 10
1400.0033403763
 20
-5.9433347407
 30
0.0
 11
1400.0033403763
 21
-19.9433347407
 31
0.0
  0
DIMENSION
  5
16A
100
AcDbEntity
  8
L1_65
  6
CONTINUOUS
 62
         4
100
AcDbDimension
  2
*D4
 10
1400.0033403763
 20
-57.3363373237
 30
0.0
 11
1430.5746757487
 21
-55.3113373237
 31
0.0
  3
DIMSTYLE1
100
AcDbAlignedDimension
 13
1400.0033403763
 23
-19.7933347407
 33
0.0
 14
1465.0033403763
 24
-24.4877293495
 34
0.0
100
AcDbRotatedDimension
  0
LINE
  5
176
100
AcDbEntity
  8
_X______
  6
CENTER
 62
         1
100
AcDbLine
 10
1411.1033403763
 20
27.7581221708
 30
0.0
 11
1411.1033403763
 21
-11.0333634957
 31
0.0
  0
LINE
  5
177
100
AcDbEntity
  8
_X______
  6
CENTER
 62
         1
100
AcDbLine
 10
1402.4927097209
 20
14.5542542011
 30
0.0
 11
1413.4465979673
 21
6.8842590783
 31
0.0
  0
LINE
  5
178
100
AcDbEntity
  8
_X______
  6
CONTINUOUS
 62
         7
100
AcDbLine
 10
1403.2033403763
 20
16.5592531663
 30
0.0
 11
1405.5263249435
 21
14.9326818612
 31
0.0
  0
LINE
  5
179
100
AcDbEntity
  8
_X______
  6
CONTINUOUS
 62
         7
100
AcDbLine
 10
1403.2033403763
 20
11.6151160818
 30
0.0
 11
1405.5263249435
 21
14.9326818612
 31
0.0
  0
LINE
  5
17A
100
AcDbEntity
  8
_X______
  6
CONTINUOUS
 62
         4
100
AcDbLine
 10
1403.2033403763
 20
11.6151160818
 30
0.0
 11
1406.8895245756
 21
9.0340221182
 31
0.0
  0
LINE
  5
17B
100
AcDbEntity
  8
_X______
  6
CONTINUOUS
 62
         7
100
AcDbLine
 10
1403.404092129
 20
11.9018192973
 30
0.0
 11
1409.5533373735
 21
7.5960714228
 31
0.0
  0
LINE
  5
17C
100
AcDbEntity
  8
_X______
  6
CONTINUOUS
 62
         7
100
AcDbLine
 10
1405.2968943689
 20
14.6050210435
 30
0.0
 11
1410.4745414243
 21
10.9795935451
 31
0.0
  0
LINE
  5
17D
100
AcDbEntity
  8
_X______
  6
CONTINUOUS
 62
         4
100
AcDbLine
 10
1405.4976461217
 20
14.891724259
 30
0.0
 11
1409.183830321
 21
12.3106302954
 31
0.0
  0
LINE
  5
17E
100
AcDbEntity
  8
_X______
  6
CONTINUOUS
 62
         7
100
AcDbLine
 10
1409.2033406418
 20
15.9975613338
 30
0.0
 11
1409.203339036
 21
11.86969904
 31
0.0
  0
LINE
  5
17F
100
AcDbEntity
  8
_X______
  6
CONTINUOUS
 62
         7
100
AcDbLine
 10
1413.2033407766
 20
16.3439726486
 30
0.0
 11
1413.2033387683
 21
11.1816652593
 31
0.0
  0
LINE
  5
180
100
AcDbEntity
  8
_X______
  6
CONTINUOUS
 62
         4
100
AcDbLine
 10
1413.0788387897
 20
9.1560448981
 30
0.0
 11
1411.1860365497
 21
6.452843152
 31
0.0
  0
LINE
  5
181
100
AcDbEntity
  8
_X______
  6
CONTINUOUS
 62
         4
100
AcDbLine
 10
1412.6092919222
 20
7.1165180317
 30
0.0
 11
1411.1860365497
 21
6.452843152
 31
0.0
  0
LINE
  5
182
100
AcDbEntity
  8
_X______
  6
CONTINUOUS
 62
         4
100
AcDbLine
 10
1409.5764624957
 20
7.5798790379
 30
0.0
 11
1410.99388615
 21
6.5873883103
 31
0.0
  0
LINE
  5
183
100
AcDbEntity
  8
_X______
  6
CONTINUOUS
 62
         7
100
AcDbLine
 10
1406.8895245756
 20
9.0340221182
 30
0.0
 11
1409.2125091428
 21
12.3515878976
 31
0.0
  0
LINE
  5
184
100
AcDbEntity
  8
_X______
  6
CONTINUOUS
 62
         4
100
AcDbLine
 10
1413.2033387683
 20
11.1816652593
 30
0.0
 11
1410.185951432
 21
11.1816664331
 31
0.0
  0
LINE
  5
185
100
AcDbEntity
  8
_X______
  6
CONTINUOUS
 62
         7
100
AcDbLine
 10
1412.8533386897
 20
10.9795926197
 30
0.0
 11
1410.4745414243
 21
10.9795935451
 31
0.0
  0
LINE
  5
186
100
AcDbEntity
  8
_X______
  6
CONTINUOUS
 62
         7
100
AcDbLine
 10
1413.2033387683
 20
11.1816652593
 30
0.0
 11
1412.8533386897
 21
10.9795926197
 31
0.0
  0
LINE
  5
187
100
AcDbEntity
  8
_X______
  6
CONTINUOUS
 62
         7
100
AcDbLine
 10
1412.8533386897
 20
10.9795926197
 30
0.0
 11
1412.8533380417
 21
9.3139422217
 31
0.0
  0
LINE
  5
188
100
AcDbEntity
  8
_X______
  6
CONTINUOUS
 62
         7
100
AcDbLine
 10
1412.8533380417
 20
9.3139422217
 30
0.0
 11
1413.0788387897
 21
9.1560448981
 31
0.0
  0
LINE
  5
189
100
AcDbEntity
  8
_X______
  6
CONTINUOUS
 62
         7
100
AcDbLine
 10
1413.0788387897
 20
9.1560448981
 30
0.0
 11
1412.9127847976
 21
7.2580390837
 31
0.0
  0
LINE
  5
18A
100
AcDbEntity
  8
_X______
  6
CONTINUOUS
 62
         4
100
AcDbLine
 10
1411.2437639877
 20
10.4409781076
 30
0.0
 11
1412.661187642
 21
9.44848738
 31
0.0
  0
LINE
  5
18B
100
AcDbEntity
  8
_X______
  6
CONTINUOUS
 62
         7
100
AcDbLine
 10
1412.8533372312
 20
7.2303182282
 30
0.0
 11
1412.8533321064
 21
-5.9433347407
 31
0.0
  0
LINE
  5
18C
100
AcDbEntity
  8
_X______
  6
CONTINUOUS
 62
         7
100
AcDbLine
 10
1409.5533373735
 20
7.5960714228
 30
0.0
 11
1409.5533321064
 21
-5.9433347407
 31
0.0
  0
LINE
  5
18D
100
AcDbEntity
  8
_X______
  6
CENTER
 62
         1
100
AcDbLine
 10
1208.5078743688
 20
123.7868805382
 30
0.0
 11
1202.8697186441
 21
125.8390013981
 31
0.0
  0
POLYLINE
  5
18F
100
AcDbEntity
  8
_X______
  6
CONTINUOUS
 62
         7
100
AcDb3dPolyline
 66
         1
 10
0.0
 20
0.0
 30
0.0
 70
         8
  0
VERTEX
  5
191
100
AcDbEntity
  8
_X______
  6
CONTINUOUS
 62
         7
100
AcDbVertex
100
AcDb3dPolylineVertex
 10
1203.8094112649
 20
125.4969812548
 30
0.0
 70
        32
  0
VERTEX
  5
193
100
AcDbEntity
  8
_X______
  6
CONTINUOUS
 62
         7
100
AcDbVertex
100
AcDb3dPolylineVertex
 10
1203.8094112649
 20
125.4969812548
 30
0.0
 70
        32
  0
SEQEND
  5
195
100
AcDbEntity
  8
_X______
  6
CONTINUOUS
 62
         7
  0
ARC
  5
196
100
AcDbEntity
  8
_X______
  6
CONTINUOUS
 62
         7
100
AcDbCircle
 10
1206.6023903184
 20
124.4804200144
 30
0.0
 40
2.9722262277
100
AcDbArc
 50
141.257725858
 51
160.0
  0
POLYLINE
  5
198
100
AcDbEntity
  8
_X______
  6
CONTINUOUS
 62
         7
100
AcDb3dPolyline
 66
         1
 10
0.0
 20
0.0
 30
0.0
 70
         8
  0
VERTEX
  5
19A
100
AcDbEntity
  8
_X______
  6
CONTINUOUS
 62
         7
100
AcDbVertex
100
AcDb3dPolylineVertex
 10
1204.2841463667
 20
126.340493596
 30
0.0
 70
        32
  0
VERTEX
  5
19C
100
AcDbEntity
  8
_X______
  6
CONTINUOUS
 62
         7
100
AcDbVertex
100
AcDb3dPolylineVertex
 10
1204.2841463667
 20
126.340493596
 30
0.0
 70
        32
  0
SEQEND
  5
19E
100
AcDbEntity
  8
_X______
  6
CONTINUOUS
 62
         7
  0
ARC
  5
19F
100
AcDbEntity
  8
_X______
  6
CONTINUOUS
 62
         7
100
AcDbCircle
 10
1206.2103129629
 20
124.7950084469
 30
0.0
 40
2.4695428935
100
AcDbArc
 50
120.6773100904
 51
141.257725858
  0
POLYLINE
  5
1A1
100
AcDbEntity
  8
_X______
  6
CONTINUOUS
 62
         7
100
AcDb3dPolyline
 66
         1
 10
0.0
 20
0.0
 30
0.0
 70
         8
  0
VERTEX
  5
1A3
100
AcDbEntity
  8
_X______
  6
CONTINUOUS
 62
         7
100
AcDbVertex
100
AcDb3dPolylineVertex
 10
1204.950346339
 20
126.9189496442
 30
0.0
 70
        32
  0
VERTEX
  5
1A5
100
AcDbEntity
  8
_X______
  6
CONTINUOUS
 62
         7
100
AcDbVertex
100
AcDb3dPolylineVertex
 10
1204.950346339
 20
126.9189496442
 30
0.0
 70
        32
  0
SEQEND
  5
1A7
100
AcDbEntity
  8
_X______
  6
CONTINUOUS
 62
         7
  0
ARC
  5
1A8
100
AcDbEntity
  8
_X______
  6
CONTINUOUS
 62
         7
100
AcDbCircle
 10
1206.0105744318
 20
125.1317101395
 30
0.0
 40
2.0780540551
100
AcDbArc
 50
96.8239621528
 51
120.6773100904
  0
ARC
  5
1A9
100
AcDbEntity
  8
_X______
  6
CONTINUOUS
 62
         7
100
AcDbCircle
 10
1205.9596641031
 20
125.5571435737
 30
0.0
 40
1.6495853065
100
AcDbArc
 50
70.0
 51
96.8239621528
  0
POLYLINE
  5
1AB
100
AcDbEntity
  8
_X______
  6
CONTINUOUS
 62
         7
100
AcDb3dPolyline
 66
         1
 10
0.0
 20
0.0
 30
0.0
 70
         8
  0
VERTEX
  5
1AD
100
AcDbEntity
  8
_X______
  6
CONTINUOUS
 62
         7
100
AcDbVertex
100
AcDb3dPolylineVertex
 10
1206.5238555061
 20
127.1072467136
 30
0.0
 70
        32
  0
VERTEX
  5
1AF
100
AcDbEntity
  8
_X______
  6
CONTINUOUS
 62
         7
100
AcDbVertex
100
AcDb3dPolylineVertex
 10
1206.5238555061
 20
127.1072467136
 30
0.0
 70
        32
  0
SEQEND
  5
1B1
100
AcDbEntity
  8
_X______
  6
CONTINUOUS
 62
         7
  0
ARC
  5
1B2
100
AcDbEntity
  8
_X______
  6
CONTINUOUS
 62
         7
100
AcDbCircle
 10
1205.9596641031
 20
125.5571435737
 30
0.0
 40
1.6495853065
100
AcDbArc
 50
43.1760378472
 51
70.0
  0
POLYLINE
  5
1B4
100
AcDbEntity
  8
_X______
  6
CONTINUOUS
 62
         7
100
AcDb3dPolyline
 66
         1
 10
0.0
 20
0.0
 30
0.0
 70
         8
  0
VERTEX
  5
1B6
100
AcDbEntity
  8
_X______
  6
CONTINUOUS
 62
         7
100
AcDbVertex
100
AcDb3dPolylineVertex
 10
1207.1626321948
 20
126.6858594165
 30
0.0
 70
        32
  0
VERTEX
  5
1B8
100
AcDbEntity
  8
_X______
  6
CONTINUOUS
 62
         7
100
AcDbVertex
100
AcDb3dPolylineVertex
 10
1207.1626321948
 20
126.6858594165
 30
0.0
 70
        32
  0
SEQEND
  5
1BA
100
AcDbEntity
  8
_X______
  6
CONTINUOUS
 62
         7
  0
POLYLINE
  5
1BC
100
AcDbEntity
  8
_X______
  6
CONTINUOUS
 62
         7
100
AcDb3dPolyline
 66
         1
 10
0.0
 20
0.0
 30
0.0
 70
         8
  0
VERTEX
  5
1BE
100
AcDbEntity
  8
_X______
  6
CONTINUOUS
 62
         7
100
AcDbVertex
100
AcDb3dPolylineVertex
 10
1207.7467128429
 20
125.0802224645
 30
0.0
 70
        32
  0
VERTEX
  5
1C0
100
AcDbEntity
  8
_X______
  6
CONTINUOUS
 62
         7
100
AcDbVertex
100
AcDb3dPolylineVertex
 10
1207.7467128429
 20
125.0802224645
 30
0.0
 70
        32
  0
SEQEND
  5
1C2
100
AcDbEntity
  8
_X______
  6
CONTINUOUS
 62
         7
  0
ARC
  5
1C3
100
AcDbEntity
  8
_X______
  6
CONTINUOUS
 62
         7
100
AcDbCircle
 10
1204.7752026945
 20
125.1454619219
 30
0.0
 40
2.9722262277
100
AcDbArc
 50
339.9999999999
 51
358.742274142
  0
POLYLINE
  5
1C5
100
AcDbEntity
  8
_X______
  6
CONTINUOUS
 62
         7
100
AcDb3dPolyline
 66
         1
 10
0.0
 20
0.0
 30
0.0
 70
         8
  0
VERTEX
  5
1C7
100
AcDbEntity
  8
_X______
  6
CONTINUOUS
 62
         7
100
AcDbVertex
100
AcDb3dPolylineVertex
 10
1207.568181748
 20
124.1289006815
 30
0.0
 70
        32
  0
VERTEX
  5
1C9
100
AcDbEntity
  8
_X______
  6
CONTINUOUS
 62
         7
100
AcDbVertex
100
AcDb3dPolylineVertex
 10
1207.568181748
 20
124.1289006815
 30
0.0
 70
        32
  0
SEQEND
  5
1CB
100
AcDbEntity
  8
_X______
  6
CONTINUOUS
 62
         7
  0
ARC
  5
1CC
100
AcDbEntity
  8
_X______
  6
CONTINUOUS
 62
         7
100
AcDbCircle
 10
1204.7752026945
 20
125.1454619219
 30
0.0
 40
2.9722262277
100
AcDbArc
 50
321.257725858
 51
340.0
  0
POLYLINE
  5
1CE
100
AcDbEntity
  8
_X______
  6
CONTINUOUS
 62
         7
100
AcDb3dPolyline
 66
         1
 10
0.0
 20
0.0
 30
0.0
 70
         8
  0
VERTEX
  5
1D0
100
AcDbEntity
  8
_X______
  6
CONTINUOUS
 62
         7
100
AcDbVertex
100
AcDb3dPolylineVertex
 10
1207.0934466463
 20
123.2853883403
 30
0.0
 70
        32
  0
VERTEX
  5
1D2
100
AcDbEntity
  8
_X______
  6
CONTINUOUS
 62
         7
100
AcDbVertex
100
AcDb3dPolylineVertex
 10
1207.0934466463
 20
123.2853883403
 30
0.0
 70
        32
  0
SEQEND
  5
1D4
100
AcDbEntity
  8
_X______
  6
CONTINUOUS
 62
         7
  0
ARC
  5
1D5
100
AcDbEntity
  8
_X______
  6
CONTINUOUS
 62
         7
100
AcDbCircle
 10
1205.16728005
 20
124.8308734895
 30
0.0
 40
2.4695428935
100
AcDbArc
 50
300.6773100904
 51
321.2577258581
  0
POLYLINE
  5
1D7
100
AcDbEntity
  8
_X______
  6
CONTINUOUS
 62
         7
100
AcDb3dPolyline
 66
         1
 10
0.0
 20
0.0
 30
0.0
 70
         8
  0
VERTEX
  5
1D9
100
AcDbEntity
  8
_X______
  6
CONTINUOUS
 62
         7
100
AcDbVertex
100
AcDb3dPolylineVertex
 10
1206.4272466739
 20
122.7069322922
 30
0.0
 70
        32
  0
VERTEX
  5
1DB
100
AcDbEntity
  8
_X______
  6
CONTINUOUS
 62
         7
100
AcDbVertex
100
AcDb3dPolylineVertex
 10
1206.4272466739
 20
122.7069322922
 30
0.0
 70
        32
  0
SEQEND
  5
1DD
100
AcDbEntity
  8
_X______
  6
CONTINUOUS
 62
         7
  0
ARC
  5
1DE
100
AcDbEntity
  8
_X______
  6
CONTINUOUS
 62
         7
100
AcDbCircle
 10
1205.3670185811
 20
124.4941717969
 30
0.0
 40
2.0780540551
100
AcDbArc
 50
276.8239621528
 51
300.6773100903
  0
POLYLINE
  5
1E0
100
AcDbEntity
  8
_X______
  6
CONTINUOUS
 62
         7
100
AcDb3dPolyline
 66
         1
 10
0.0
 20
0.0
 30
0.0
 70
         8
  0
VERTEX
  5
1E2
100
AcDbEntity
  8
_X______
  6
CONTINUOUS
 62
         7
100
AcDbVertex
100
AcDb3dPolylineVertex
 10
1205.6139313731
 20
122.4308388792
 30
0.0
 70
        32
  0
VERTEX
  5
1E4
100
AcDbEntity
  8
_X______
  6
CONTINUOUS
 62
         7
100
AcDbVertex
100
AcDb3dPolylineVertex
 10
1205.6139313731
 20
122.4308388792
 30
0.0
 70
        32
  0
SEQEND
  5
1E6
100
AcDbEntity
  8
_X______
  6
CONTINUOUS
 62
         7
  0
ARC
  5
1E7
100
AcDbEntity
  8
_X______
  6
CONTINUOUS
 62
         7
100
AcDbCircle
 10
1205.4179289098
 20
124.0687383626
 30
0.0
 40
1.6495853065
100
AcDbArc
 50
250.0
 51
276.8239621528
  0
POLYLINE
  5
1E9
100
AcDbEntity
  8
_X______
  6
CONTINUOUS
 62
         7
100
AcDb3dPolyline
 66
         1
 10
0.0
 20
0.0
 30
0.0
 70
         8
  0
VERTEX
  5
1EB
100
AcDbEntity
  8
_X______
  6
CONTINUOUS
 62
         7
100
AcDbVertex
100
AcDb3dPolylineVertex
 10
1204.8537375068
 20
122.5186352228
 30
0.0
 70
        32
  0
VERTEX
  5
1ED
100
AcDbEntity
  8
_X______
  6
CONTINUOUS
 62
         7
100
AcDbVertex
100
AcDb3dPolylineVertex
 10
1204.8537375068
 20
122.5186352228
 30
0.0
 70
        32
  0
SEQEND
  5
1EF
100
AcDbEntity
  8
_X______
  6
CONTINUOUS
 62
         7
  0
ARC
  5
1F0
100
AcDbEntity
  8
_X______
  6
CONTINUOUS
 62
         7
100
AcDbCircle
 10
1205.4179289098
 20
124.0687383626
 30
0.0
 40
1.6495853065
100
AcDbArc
 50
223.1760378472
 51
250.0
  0
POLYLINE
  5
1F2
100
AcDbEntity
  8
_X______
  6
CONTINUOUS
 62
         7
100
AcDb3dPolyline
 66
         1
 10
0.0
 20
0.0
 30
0.0
 70
         8
  0
VERTEX
  5
1F4
100
AcDbEntity
  8
_X______
  6
CONTINUOUS
 62
         7
100
AcDbVertex
100
AcDb3dPolylineVertex
 10
1204.2149608181
 20
122.9400225198
 30
0.0
 70
        32
  0
VERTEX
  5
1F6
100
AcDbEntity
  8
_X______
  6
CONTINUOUS
 62
         7
100
AcDbVertex
100
AcDb3dPolylineVertex
 10
1204.2149608181
 20
122.9400225198
 30
0.0
 70
        32
  0
SEQEND
  5
1F8
100
AcDbEntity
  8
_X______
  6
CONTINUOUS
 62
         7
  0
ARC
  5
1F9
100
AcDbEntity
  8
_X______
  6
CONTINUOUS
 62
         7
100
AcDbCircle
 10
1205.7303918245
 20
124.3619147524
 30
0.0
 40
2.0780540551
100
AcDbArc
 50
199.3226899096
 51
223.1760378473
  0
ARC
  5
1FA
100
AcDbEntity
  8
_X______
  6
CONTINUOUS
 62
         7
100
AcDbCircle
 10
1206.0998280924
 20
124.49145376
 30
0.0
 40
2.4695428935
100
AcDbArc
 50
178.742274142
 51
199.3226899096
  0
ARC
  5
1FB
100
AcDbEntity
  8
_X______
  6
CONTINUOUS
 62
         7
100
AcDbCircle
 10
1206.6023903184
 20
124.4804200144
 30
0.0
 40
2.9722262277
100
AcDbArc
 50
160.0
 51
178.742274142
  0
ARC
  5
1FC
100
AcDbEntity
  8
_X______
  6
CONTINUOUS
 62
         7
100
AcDbCircle
 10
1205.2777649205
 20
125.1344281764
 30
0.0
 40
2.4695428935
100
AcDbArc
 50
358.742274142
 51
379.3226899097
  0
ARC
  5
1FD
100
AcDbEntity
  8
_X______
  6
CONTINUOUS
 62
         7
100
AcDbCircle
 10
1205.6472011885
 20
125.263967184
 30
0.0
 40
2.0780540551
100
AcDbArc
 50
19.3226899096
 51
43.1760378472
  0
POLYLINE
  5
1FF
100
AcDbEntity
  8
_X______
  6
CONTINUOUS
 62
         7
100
AcDb3dPolyline
 66
         1
 10
0.0
 20
0.0
 30
0.0
 70
         8
  0
VERTEX
  5
201
100
AcDbEntity
  8
_X______
  6
CONTINUOUS
 62
         7
100
AcDbVertex
100
AcDb3dPolylineVertex
 10
1222.2784990045
 20
176.2403827773
 30
0.0
 70
        32
  0
VERTEX
  5
203
100
AcDbEntity
  8
_X______
  6
CONTINUOUS
 62
         7
100
AcDbVertex
100
AcDb3dPolylineVertex
 10
1222.2784990045
 20
176.2403827773
 30
0.0
 70
        32
  0
SEQEND
  5
205
100
AcDbEntity
  8
_X______
  6
CONTINUOUS
 62
         7
  0
ARC
  5
206
100
AcDbEntity
  8
_X______
  6
CONTINUOUS
 62
         7
100
AcDbCircle
 10
1225.071478058
 20
175.2238215369
 30
0.0
 40
2.9722262277
100
AcDbArc
 50
160.0
 51
178.7422741421
  0
POLYLINE
  5
208
100
AcDbEntity
  8
_X______
  6
CONTINUOUS
 62
         7
100
AcDb3dPolyline
 66
         1
 10
0.0
 20
0.0
 30
0.0
 70
         8
  0
VERTEX
  5
20A
100
AcDbEntity
  8
_X______
  6
CONTINUOUS
 62
         7
100
AcDbVertex
100
AcDb3dPolylineVertex
 10
1222.0999679096
 20
175.2890609943
 30
0.0
 70
        32
  0
VERTEX
  5
20C
100
AcDbEntity
  8
_X______
  6
CONTINUOUS
 62
         7
100
AcDbVertex
100
AcDb3dPolylineVertex
 10
1222.0999679096
 20
175.2890609943
 30
0.0
 70
        32
  0
SEQEND
  5
20E
100
AcDbEntity
  8
_X______
  6
CONTINUOUS
 62
         7
  0
ARC
  5
20F
100
AcDbEntity
  8
_X______
  6
CONTINUOUS
 62
         7
100
AcDbCircle
 10
1224.568915832
 20
175.2348552824
 30
0.0
 40
2.4695428935
100
AcDbArc
 50
178.7422741421
 51
199.3226899097
  0
POLYLINE
  5
211
100
AcDbEntity
  8
_X______
  6
CONTINUOUS
 62
         7
100
AcDb3dPolyline
 66
         1
 10
0.0
 20
0.0
 30
0.0
 70
         8
  0
VERTEX
  5
213
100
AcDbEntity
  8
_X______
  6
CONTINUOUS
 62
         7
100
AcDbVertex
100
AcDb3dPolylineVertex
 10
1222.2384823159
 20
174.4177128652
 30
0.0
 70
        32
  0
VERTEX
  5
215
100
AcDbEntity
  8
_X______
  6
CONTINUOUS
 62
         7
100
AcDbVertex
100
AcDb3dPolylineVertex
 10
1222.2384823159
 20
174.4177128652
 30
0.0
 70
        32
  0
SEQEND
  5
217
100
AcDbEntity
  8
_X______
  6
CONTINUOUS
 62
         7
  0
ARC
  5
218
100
AcDbEntity
  8
_X______
  6
CONTINUOUS
 62
         7
100
AcDbCircle
 10
1224.199479564
 20
175.1053162748
 30
0.0
 40
2.0780540551
100
AcDbArc
 50
199.3226899097
 51
223.1760378473
  0
POLYLINE
  5
21A
100
AcDbEntity
  8
_X______
  6
CONTINUOUS
 62
         7
100
AcDb3dPolyline
 66
         1
 10
0.0
 20
0.0
 30
0.0
 70
         8
  0
VERTEX
  5
21C
100
AcDbEntity
  8
_X______
  6
CONTINUOUS
 62
         7
100
AcDbVertex
100
AcDb3dPolylineVertex
 10
1222.6840485577
 20
173.6834240423
 30
0.0
 70
        32
  0
VERTEX
  5
21E
100
AcDbEntity
  8
_X______
  6
CONTINUOUS
 62
         7
100
AcDbVertex
100
AcDb3dPolylineVertex
 10
1222.6840485577
 20
173.6834240423
 30
0.0
 70
        32
  0
SEQEND
  5
220
100
AcDbEntity
  8
_X______
  6
CONTINUOUS
 62
         7
  0
ARC
  5
221
100
AcDbEntity
  8
_X______
  6
CONTINUOUS
 62
         7
100
AcDbCircle
 10
1223.8870166494
 20
174.8121398851
 30
0.0
 40
1.6495853065
100
AcDbArc
 50
223.1760378472
 51
249.9999999999
  0
POLYLINE
  5
223
100
AcDbEntity
  8
_X______
  6
CONTINUOUS
 62
         7
100
AcDb3dPolyline
 66
         1
 10
0.0
 20
0.0
 30
0.0
 70
         8
  0
VERTEX
  5
225
100
AcDbEntity
  8
_X______
  6
CONTINUOUS
 62
         7
100
AcDbVertex
100
AcDb3dPolylineVertex
 10
1223.3228252464
 20
173.2620367452
 30
0.0
 70
        32
  0
VERTEX
  5
227
100
AcDbEntity
  8
_X______
  6
CONTINUOUS
 62
         7
100
AcDbVertex
100
AcDb3dPolylineVertex
 10
1223.3228252464
 20
173.2620367452
 30
0.0
 70
        32
  0
SEQEND
  5
229
100
AcDbEntity
  8
_X______
  6
CONTINUOUS
 62
         7
  0
ARC
  5
22A
100
AcDbEntity
  8
_X______
  6
CONTINUOUS
 62
         7
100
AcDbCircle
 10
1223.8870166494
 20
174.8121398851
 30
0.0
 40
1.6495853065
100
AcDbArc
 50
250.0
 51
276.8239621528
  0
POLYLINE
  5
22C
100
AcDbEntity
  8
_X______
  6
CONTINUOUS
 62
         7
100
AcDb3dPolyline
 66
         1
 10
0.0
 20
0.0
 30
0.0
 70
         8
  0
VERTEX
  5
22E
100
AcDbEntity
  8
_X______
  6
CONTINUOUS
 62
         7
100
AcDbVertex
100
AcDb3dPolylineVertex
 10
1224.0830191126
 20
173.1742404017
 30
0.0
 70
        32
  0
VERTEX
  5
230
100
AcDbEntity
  8
_X______
  6
CONTINUOUS
 62
         7
100
AcDbVertex
100
AcDb3dPolylineVertex
 10
1224.0830191126
 20
173.1742404017
 30
0.0
 70
        32
  0
SEQEND
  5
232
100
AcDbEntity
  8
_X______
  6
CONTINUOUS
 62
         7
  0
ARC
  5
233
100
AcDbEntity
  8
_X______
  6
CONTINUOUS
 62
         7
100
AcDbCircle
 10
1223.8361063207
 20
175.2375733193
 30
0.0
 40
2.0780540551
100
AcDbArc
 50
276.8239621528
 51
300.6773100904
  0
POLYLINE
  5
235
100
AcDbEntity
  8
_X______
  6
CONTINUOUS
 62
         7
100
AcDb3dPolyline
 66
         1
 10
0.0
 20
0.0
 30
0.0
 70
         8
  0
VERTEX
  5
237
100
AcDbEntity
  8
_X______
  6
CONTINUOUS
 62
         7
100
AcDbVertex
100
AcDb3dPolylineVertex
 10
1224.8963344135
 20
173.4503338146
 30
0.0
 70
        32
  0
VERTEX
  5
239
100
AcDbEntity
  8
_X______
  6
CONTINUOUS
 62
         7
100
AcDbVertex
100
AcDb3dPolylineVertex
 10
1224.8963344135
 20
173.4503338146
 30
0.0
 70
        32
  0
SEQEND
  5
23B
100
AcDbEntity
  8
_X______
  6
CONTINUOUS
 62
         7
  0
ARC
  5
23C
100
AcDbEntity
  8
_X______
  6
CONTINUOUS
 62
         7
100
AcDbCircle
 10
1223.6363677896
 20
175.5742750119
 30
0.0
 40
2.4695428935
100
AcDbArc
 50
300.6773100903
 51
321.257725858
  0
POLYLINE
  5
23E
100
AcDbEntity
  8
_X______
  6
CONTINUOUS
 62
         7
100
AcDb3dPolyline
 66
         1
 10
0.0
 20
0.0
 30
0.0
 70
         8
  0
VERTEX
  5
240
100
AcDbEntity
  8
_X______
  6
CONTINUOUS
 62
         7
100
AcDbVertex
100
AcDb3dPolylineVertex
 10
1225.5625343858
 20
174.0287898627
 30
0.0
 70
        32
  0
VERTEX
  5
242
100
AcDbEntity
  8
_X______
  6
CONTINUOUS
 62
         7
100
AcDbVertex
100
AcDb3dPolylineVertex
 10
1225.5625343858
 20
174.0287898627
 30
0.0
 70
        32
  0
SEQEND
  5
244
100
AcDbEntity
  8
_X______
  6
CONTINUOUS
 62
         7
  0
ARC
  5
245
100
AcDbEntity
  8
_X______
  6
CONTINUOUS
 62
         7
100
AcDbCircle
 10
1223.2442904341
 20
175.8888634444
 30
0.0
 40
2.9722262277
100
AcDbArc
 50
321.257725858
 51
340.0
  0
POLYLINE
  5
247
100
AcDbEntity
  8
_X______
  6
CONTINUOUS
 62
         7
100
AcDb3dPolyline
 66
         1
 10
0.0
 20
0.0
 30
0.0
 70
         8
  0
VERTEX
  5
249
100
AcDbEntity
  8
_X______
  6
CONTINUOUS
 62
         7
100
AcDbVertex
100
AcDb3dPolylineVertex
 10
1226.0372694876
 20
174.872302204
 30
0.0
 70
        32
  0
VERTEX
  5
24B
100
AcDbEntity
  8
_X______
  6
CONTINUOUS
 62
         7
100
AcDbVertex
100
AcDb3dPolylineVertex
 10
1226.0372694876
 20
174.872302204
 30
0.0
 70
        32
  0
SEQEND
  5
24D
100
AcDbEntity
  8
_X______
  6
CONTINUOUS
 62
         7
  0
ARC
  5
24E
100
AcDbEntity
  8
_X______
  6
CONTINUOUS
 62
         7
100
AcDbCircle
 10
1223.2442904341
 20
175.8888634444
 30
0.0
 40
2.9722262277
100
AcDbArc
 50
339.9999999999
 51
358.742274142
  0
POLYLINE
  5
250
100
AcDbEntity
  8
_X______
  6
CONTINUOUS
 62
         7
100
AcDb3dPolyline
 66
         1
 10
0.0
 20
0.0
 30
0.0
 70
         8
  0
VERTEX
  5
252
100
AcDbEntity
  8
_X______
  6
CONTINUOUS
 62
         7
100
AcDbVertex
100
AcDb3dPolylineVertex
 10
1226.2158005825
 20
175.823623987
 30
0.0
 70
        32
  0
VERTEX
  5
254
100
AcDbEntity
  8
_X______
  6
CONTINUOUS
 62
         7
100
AcDbVertex
100
AcDb3dPolylineVertex
 10
1226.2158005825
 20
175.823623987
 30
0.0
 70
        32
  0
SEQEND
  5
256
100
AcDbEntity
  8
_X______
  6
CONTINUOUS
 62
         7
  0
ARC
  5
257
100
AcDbEntity
  8
_X______
  6
CONTINUOUS
 62
         7
100
AcDbCircle
 10
1223.7468526601
 20
175.8778296988
 30
0.0
 40
2.4695428935
100
AcDbArc
 50
358.742274142
 51
379.3226899097
  0
POLYLINE
  5
259
100
AcDbEntity
  8
_X______
  6
CONTINUOUS
 62
         7
100
AcDb3dPolyline
 66
         1
 10
0.0
 20
0.0
 30
0.0
 70
         8
  0
VERTEX
  5
25B
100
AcDbEntity
  8
_X______
  6
CONTINUOUS
 62
         7
100
AcDbVertex
100
AcDb3dPolylineVertex
 10
1226.0772861762
 20
176.694972116
 30
0.0
 70
        32
  0
VERTEX
  5
25D
100
AcDbEntity
  8
_X______
  6
CONTINUOUS
 62
         7
100
AcDbVertex
100
AcDb3dPolylineVertex
 10
1226.0772861762
 20
176.694972116
 30
0.0
 70
        32
  0
SEQEND
  5
25F
100
AcDbEntity
  8
_X______
  6
CONTINUOUS
 62
         7
  0
ARC
  5
260
100
AcDbEntity
  8
_X______
  6
CONTINUOUS
 62
         7
100
AcDbCircle
 10
1224.1162889281
 20
176.0073687064
 30
0.0
 40
2.0780540551
100
AcDbArc
 50
19.3226899096
 51
43.1760378472
  0
POLYLINE
  5
262
100
AcDbEntity
  8
_X______
  6
CONTINUOUS
 62
         7
100
AcDb3dPolyline
 66
         1
 10
0.0
 20
0.0
 30
0.0
 70
         8
  0
VERTEX
  5
264
100
AcDbEntity
  8
_X______
  6
CONTINUOUS
 62
         7
100
AcDbVertex
100
AcDb3dPolylineVertex
 10
1225.6317199344
 20
177.429260939
 30
0.0
 70
        32
  0
VERTEX
  5
266
100
AcDbEntity
  8
_X______
  6
CONTINUOUS
 62
         7
100
AcDbVertex
100
AcDb3dPolylineVertex
 10
1225.6317199344
 20
177.429260939
 30
0.0
 70
        32
  0
SEQEND
  5
268
100
AcDbEntity
  8
_X______
  6
CONTINUOUS
 62
         7
  0
ARC
  5
269
100
AcDbEntity
  8
_X______
  6
CONTINUOUS
 62
         7
100
AcDbCircle
 10
1224.4287518427
 20
176.3005450962
 30
0.0
 40
1.6495853065
100
AcDbArc
 50
43.1760378472
 51
70.0
  0
POLYLINE
  5
26B
100
AcDbEntity
  8
_X______
  6
CONTINUOUS
 62
         7
100
AcDb3dPolyline
 66
         1
 10
0.0
 20
0.0
 30
0.0
 70
         8
  0
VERTEX
  5
26D
100
AcDbEntity
  8
_X______
  6
CONTINUOUS
 62
         7
100
AcDbVertex
100
AcDb3dPolylineVertex
 10
1224.9929432457
 20
177.850648236
 30
0.0
 70
        32
  0
VERTEX
  5
26F
100
AcDbEntity
  8
_X______
  6
CONTINUOUS
 62
         7
100
AcDbVertex
100
AcDb3dPolylineVertex
 10
1224.9929432457
 20
177.850648236
 30
0.0
 70
        32
  0
SEQEND
  5
271
100
AcDbEntity
  8
_X______
  6
CONTINUOUS
 62
         7
  0
ARC
  5
272
100
AcDbEntity
  8
_X______
  6
CONTINUOUS
 62
         7
100
AcDbCircle
 10
1224.4287518427
 20
176.3005450962
 30
0.0
 40
1.6495853065
100
AcDbArc
 50
70.0000000001
 51
96.8239621529
  0
POLYLINE
  5
274
100
AcDbEntity
  8
_X______
  6
CONTINUOUS
 62
         7
100
AcDb3dPolyline
 66
         1
 10
0.0
 20
0.0
 30
0.0
 70
         8
  0
VERTEX
  5
276
100
AcDbEntity
  8
_X______
  6
CONTINUOUS
 62
         7
100
AcDbVertex
100
AcDb3dPolylineVertex
 10
1224.2327493795
 20
177.9384445796
 30
0.0
 70
        32
  0
VERTEX
  5
278
100
AcDbEntity
  8
_X______
  6
CONTINUOUS
 62
         7
100
AcDbVertex
100
AcDb3dPolylineVertex
 10
1224.2327493795
 20
177.9384445796
 30
0.0
 70
        32
  0
SEQEND
  5
27A
100
AcDbEntity
  8
_X______
  6
CONTINUOUS
 62
         7
  0
ARC
  5
27B
100
AcDbEntity
  8
_X______
  6
CONTINUOUS
 62
         7
100
AcDbCircle
 10
1224.4796621714
 20
175.8751116619
 30
0.0
 40
2.0780540551
100
AcDbArc
 50
96.8239621528
 51
120.6773100904
  0
POLYLINE
  5
27D
100
AcDbEntity
  8
_X______
  6
CONTINUOUS
 62
         7
100
AcDb3dPolyline
 66
         1
 10
0.0
 20
0.0
 30
0.0
 70
         8
  0
VERTEX
  5
27F
100
AcDbEntity
  8
_X______
  6
CONTINUOUS
 62
         7
100
AcDbVertex
100
AcDb3dPolylineVertex
 10
1223.4194340786
 20
177.6623511666
 30
0.0
 70
        32
  0
VERTEX
  5
281
100
AcDbEntity
  8
_X______
  6
CONTINUOUS
 62
         7
100
AcDbVertex
100
AcDb3dPolylineVertex
 10
1223.4194340786
 20
177.6623511666
 30
0.0
 70
        32
  0
SEQEND
  5
283
100
AcDbEntity
  8
_X______
  6
CONTINUOUS
 62
         7
  0
ARC
  5
284
100
AcDbEntity
  8
_X______
  6
CONTINUOUS
 62
         7
100
AcDbCircle
 10
1224.6794007025
 20
175.5384099693
 30
0.0
 40
2.4695428935
100
AcDbArc
 50
120.6773100903
 51
141.257725858
  0
ARC
  5
285
100
AcDbEntity
  8
_X______
  6
CONTINUOUS
 62
         7
100
AcDbCircle
 10
1225.071478058
 20
175.2238215369
 30
0.0
 40
2.9722262277
100
AcDbArc
 50
141.257725858
 51
160.0
  0
LINE
  5
286
100
AcDbEntity
  8
_X______
  6
CENTER
 62
         1
100
AcDbLine
 10
1226.9769621084
 20
174.5302820606
 30
0.0
 11
1221.3388063837
 21
176.5824029206
 31
0.0
  0
LINE
  5
287
100
AcDbEntity
  8
_X______
  6
DASHED
 62
         2
100
AcDbLine
 10
1623.8300753577
 20
143.858222453
 30
0.0
 11
1629.8913272235
 21
127.2050698182
 31
0.0
  0
LINE
  5
288
100
AcDbEntity
  8
_X______
  6
DASHED
 62
         2
100
AcDbLine
 10
1626.9310610063
 20
144.986888926
 30
0.0
 11
1632.9923128721
 21
128.3337362912
 31
0.0
  0
LINE
  5
289
100
AcDbEntity
  8
_X______
  6
DASHED
 62
         2
100
AcDbLine
 10
1633.3212052894
 20
128.4534433413
 30
0.0
 11
1634.7576898914
 21
124.506734334
 31
0.0
  0
LINE
  5
28A
100
AcDbEntity
  8
_X______
  6
DASHED
 62
         2
100
AcDbLine
 10
1633.3212052894
 20
128.4534433413
 30
0.0
 11
1629.5624348063
 21
127.085362768
 31
0.0
  0
LINE
  5
28B
100
AcDbEntity
  8
_X______
  6
DASHED
 62
         2
100
AcDbLine
 10
1629.5624348063
 20
127.085362768
 30
0.0
 11
1630.9989194082
 21
123.1386537607
 31
0.0
  0
LINE
  5
28C
100
AcDbEntity
  8
_X______
  6
DASHED
 62
         2
100
AcDbLine
 10
1617.0042459463
 20
173.2839206908
 30
0.0
 11
1613.2454754631
 21
171.9158401175
 31
0.0
  0
LINE
  5
28D
100
AcDbEntity
  8
_X______
  6
DASHED
 62
         2
100
AcDbLine
 10
1613.5743678804
 20
172.0355471676
 30
0.0
 11
1619.6356197462
 21
155.3823945328
 31
0.0
  0
LINE
  5
28E
100
AcDbEntity
  8
_X______
  6
DASHED
 62
         2
100
AcDbLine
 10
1616.675353529
 20
173.1642136406
 30
0.0
 11
1622.7366053948
 21
156.5110610057
 31
0.0
  0
LINE
  5
28F
100
AcDbEntity
  8
_X______
  6
DASHED
 62
         2
100
AcDbLine
 10
1613.2454754631
 20
171.9158401175
 30
0.0
 11
1611.8089908611
 21
175.8625491248
 31
0.0
  0
LINE
  5
290
100
AcDbEntity
  8
_X______
  6
DASHED
 62
         2
100
AcDbLine
 10
1617.0042459463
 20
173.2839206908
 30
0.0
 11
1615.5677613443
 21
177.2306296981
 31
0.0
  0
LINE
  5
291
100
AcDbEntity
  8
_X______
  6
CENTER
 62
         1
100
AcDbLine
 10
1611.3895898921
 20
182.8624526172
 30
0.0
 11
1635.3242136355
 21
117.102614339
 31
0.0
  0
LINE
  5
292
100
AcDbEntity
  8
_X______
  6
CENTER
 62
         1
100
AcDbLine
 10
1227.1031401709
 20
183.6483666388
 30
0.0
 11
1202.8730445027
 21
117.0767259189
 31
0.0
  0
LINE
  5
293
100
AcDbEntity
  8
L1_65
  6
CONTINUOUS
 62
         7
100
AcDbLine
 10
1435.0553403763
 20
8.5416652593
 30
0.0
 11
1435.0553403763
 21
5.3566652593
 31
0.0
  0
LINE
  5
294
100
AcDbEntity
  8
L1_65
  6
CONTINUOUS
 62
         7
100
AcDbLine
 10
1435.0553403763
 20
-31.2433347407
 30
0.0
 11
1435.0553403763
 21
-34.4283347407
 31
0.0
  0
ARC
  5
295
100
AcDbEntity
  8
L1_65
  6
CONTINUOUS
 62
         7
100
AcDbCircle
 10
1435.8553403763
 20
5.3566652593
 30
0.0
 40
0.8
100
AcDbArc
 50
180.0
 51
270.0
  0
ARC
  5
296
100
AcDbEntity
  8
L1_65
  6
CONTINUOUS
 62
         7
100
AcDbCircle
 10
1435.8553403763
 20
-31.2433347407
 30
0.0
 40
0.8
100
AcDbArc
 50
90.0
 51
180.0
  0
DIMENSION
  5
299
100
AcDbEntity
  8
L1_65
  6
CONTINUOUS
 62
         4
100
AcDbDimension
  2
*D5
 10
1650.088422761
 20
61.8174943846
 30
0.0
 11
1648.063422761
 21
53.3694671513
 31
0.0
  3
DIMSTYLE1
100
AcDbAlignedDimension
 13
1657.3229041503
 23
61.8174943846
 33
0.0
 14
1655.8073593192
 24
51.6574740646
 34
0.0
 50
90.0
100
AcDbRotatedDimension
  0
DIMENSION
  5
2A7
100
AcDbEntity
  8
L1_65
  6
CONTINUOUS
 62
         4
100
AcDbDimension
  2
*D6
 10
1654.9606994259
 20
68.3373126901
 30
0.0
 11
1645.2819966267
 21
70.3623126901
 31
0.0
  3
DIMSTYLE1
100
AcDbAlignedDimension
 13
1654.9606994259
 23
59.4552896602
 33
0.0
 14
1666.0859216763
 24
59.4552896602
 34
0.0
100
AcDbRotatedDimension
  0
LINE
  5
2B3
100
AcDbEntity
  8
L1_65
  6
CENTER
 62
         1
100
AcDbLine
 10
1660.5233105511
 20
48.8787676236
 30
0.0
 11
1660.5233105511
 21
62.9074740646
 31
0.0
  0
DIMENSION
  5
2B6
100
AcDbEntity
  8
L1_65
  6
CONTINUOUS
 62
         4
100
AcDbDimension
  2
*D7
 10
1657.2901490436
 20
45.1694760977
 30
0.0
 11
1665.4776215588
 21
47.1944760977
 31
0.0
  3
DIMSTYLE1
100
AcDbAlignedDimension
 13
1657.2901490436
 23
51.6574740646
 33
0.0
 14
1663.7564720585
 24
51.6574740646
 34
0.0
100
AcDbRotatedDimension
  0
LINE
  5
2C3
100
AcDbEntity
  8
L1_65
  6
DASHED
 62
         2
100
AcDbLine
 10
1662.1290980664
 20
51.6574740646
 30
0.0
 11
1662.1290980664
 21
57.2200851898
 31
0.0
  0
LINE
  5
2C4
100
AcDbEntity
  8
L1_65
  6
DASHED
 62
         2
100
AcDbLine
 10
1658.9175230358
 20
51.6574740646
 30
0.0
 11
1658.9175230358
 21
57.2200851898
 31
0.0
  0
LINE
  5
2C5
100
AcDbEntity
  8
L1_65
  6
DASHED
 62
         2
100
AcDbLine
 10
1663.7348855816
 20
51.6574740646
 30
0.0
 11
1663.7348855816
 21
57.2200851898
 31
0.0
  0
LINE
  5
2C6
100
AcDbEntity
  8
L1_65
  6
DASHED
 62
         2
100
AcDbLine
 10
1657.3117355205
 20
51.6574740646
 30
0.0
 11
1657.3117355205
 21
57.2200851898
 31
0.0
  0
LINE
  5
2C7
100
AcDbEntity
  8
L1_65
  6
DASHED
 62
         2
100
AcDbLine
 10
1657.3117355205
 20
57.2200851898
 30
0.0
 11
1663.7348855816
 21
57.2200851898
 31
0.0
  0
LINE
  5
2C8
100
AcDbEntity
  8
L1_65
  6
CONTINUOUS
 62
         7
100
AcDbLine
 10
1663.7237169519
 20
61.8174943846
 30
0.0
 11
1666.0859216763
 21
59.4552896602
 31
0.0
  0
LINE
  5
2C9
100
AcDbEntity
  8
L1_65
  6
CONTINUOUS
 62
         7
100
AcDbLine
 10
1657.3229041503
 20
61.8174943846
 30
0.0
 11
1654.9606994259
 21
59.4552896602
 31
0.0
  0
LINE
  5
2CA
100
AcDbEntity
  8
L1_65
  6
CONTINUOUS
 62
         7
100
AcDbLine
 10
1654.9606994259
 20
59.4552896602
 30
0.0
 11
1666.0859216763
 21
59.4552896602
 31
0.0
  0
LINE
  5
2CB
100
AcDbEntity
  8
L1_65
  6
CONTINUOUS
 62
         7
100
AcDbLine
 10
1657.3229041503
 20
61.8174943846
 30
0.0
 11
1663.7237169519
 21
61.8174943846
 31
0.0
  0
LINE
  5
2CC
100
AcDbEntity
  8
L1_65
  6
CONTINUOUS
 62
         7
100
AcDbLine
 10
1665.239261783
 20
58.7390082276
 30
0.0
 11
1655.8073593192
 21
58.0227267951
 31
0.0
  0
LINE
  5
2CD
100
AcDbEntity
  8
L1_65
  6
CONTINUOUS
 62
         7
100
AcDbLine
 10
1666.0859216763
 20
59.4552896602
 30
0.0
 11
1654.9606994259
 21
58.7390082276
 31
0.0
  0
LINE
  5
2CE
100
AcDbEntity
  8
L1_65
  6
CONTINUOUS
 62
         7
100
AcDbLine
 10
1665.239261783
 20
58.7390082276
 30
0.0
 11
1666.0859216763
 21
59.4552896602
 31
0.0
  0
LINE
  5
2CF
100
AcDbEntity
  8
L1_65
  6
CONTINUOUS
 62
         7
100
AcDbLine
 10
1666.0859216763
 20
58.0227267951
 30
0.0
 11
1665.239261783
 21
58.7390082276
 31
0.0
  0
LINE
  5
2D0
100
AcDbEntity
  8
L1_65
  6
CONTINUOUS
 62
         7
100
AcDbLine
 10
1654.9606994259
 20
58.7390082276
 30
0.0
 11
1655.8073593192
 21
59.4552896602
 31
0.0
  0
LINE
  5
2D1
100
AcDbEntity
  8
L1_65
  6
CONTINUOUS
 62
         7
100
AcDbLine
 10
1655.8073593192
 20
58.0227267951
 30
0.0
 11
1654.9606994259
 21
58.7390082276
 31
0.0
  0
LINE
  5
2D2
100
AcDbEntity
  8
L1_65
  6
CONTINUOUS
 62
         7
100
AcDbLine
 10
1666.0859216763
 20
52.2924753346
 30
0.0
 11
1656.5236407517
 21
52.2924753346
 31
0.0
  0
LINE
  5
2D3
100
AcDbEntity
  8
L1_65
  6
CONTINUOUS
 62
         7
100
AcDbLine
 10
1665.239261783
 20
53.0087567671
 30
0.0
 11
1656.5236407517
 21
52.2924753346
 31
0.0
  0
LINE
  5
2D4
100
AcDbEntity
  8
L1_65
  6
CONTINUOUS
 62
         7
100
AcDbLine
 10
1666.0859216763
 20
53.7250381997
 30
0.0
 11
1654.9606994259
 21
53.0087567671
 31
0.0
  0
LINE
  5
2D5
100
AcDbEntity
  8
L1_65
  6
CONTINUOUS
 62
         7
100
AcDbLine
 10
1665.239261783
 20
53.0087567671
 30
0.0
 11
1666.0859216763
 21
52.2924753346
 31
0.0
  0
LINE
  5
2D6
100
AcDbEntity
  8
L1_65
  6
CONTINUOUS
 62
         7
100
AcDbLine
 10
1666.0859216763
 20
53.7250381997
 30
0.0
 11
1665.239261783
 21
53.0087567671
 31
0.0
  0
LINE
  5
2D7
100
AcDbEntity
  8
L1_65
  6
CONTINUOUS
 62
         7
100
AcDbLine
 10
1655.8073593192
 20
53.7250381997
 30
0.0
 11
1654.9606994259
 21
53.0087567671
 31
0.0
  0
LINE
  5
2D8
100
AcDbEntity
  8
L1_65
  6
CONTINUOUS
 62
         7
100
AcDbLine
 10
1665.239261783
 20
57.3064453625
 30
0.0
 11
1655.8073593192
 21
56.59016393
 31
0.0
  0
LINE
  5
2D9
100
AcDbEntity
  8
L1_65
  6
CONTINUOUS
 62
         7
100
AcDbLine
 10
1666.0859216763
 20
58.0227267951
 30
0.0
 11
1654.9606994259
 21
57.3064453625
 31
0.0
  0
LINE
  5
2DA
100
AcDbEntity
  8
L1_65
  6
CONTINUOUS
 62
         7
100
AcDbLine
 10
1665.239261783
 20
57.3064453625
 30
0.0
 11
1666.0859216763
 21
58.0227267951
 31
0.0
  0
LINE
  5
2DB
100
AcDbEntity
  8
L1_65
  6
CONTINUOUS
 62
         7
100
AcDbLine
 10
1666.0859216763
 20
56.59016393
 30
0.0
 11
1665.239261783
 21
57.3064453625
 31
0.0
  0
LINE
  5
2DC
100
AcDbEntity
  8
L1_65
  6
CONTINUOUS
 62
         7
100
AcDbLine
 10
1654.9606994259
 20
57.3064453625
 30
0.0
 11
1655.8073593192
 21
58.0227267951
 31
0.0
  0
LINE
  5
2DD
100
AcDbEntity
  8
L1_65
  6
CONTINUOUS
 62
         7
100
AcDbLine
 10
1655.8073593192
 20
56.59016393
 30
0.0
 11
1654.9606994259
 21
57.3064453625
 31
0.0
  0
LINE
  5
2DE
100
AcDbEntity
  8
L1_65
  6
CONTINUOUS
 62
         4
100
AcDbLine
 10
1666.0859216763
 20
52.2924753346
 30
0.0
 11
1656.5236407517
 21
52.2924753346
 31
0.0
  0
LINE
  5
2DF
100
AcDbEntity
  8
L1_65
  6
CONTINUOUS
 62
         4
100
AcDbLine
 10
1665.239261783
 20
53.0087567671
 30
0.0
 11
1656.5236407517
 21
52.2924753346
 31
0.0
  0
LINE
  5
2E0
100
AcDbEntity
  8
L1_65
  6
CONTINUOUS
 62
         4
100
AcDbLine
 10
1666.0859216763
 20
53.7250381997
 30
0.0
 11
1654.9606994259
 21
53.0087567671
 31
0.0
  0
LINE
  5
2E1
100
AcDbEntity
  8
L1_65
  6
CONTINUOUS
 62
         4
100
AcDbLine
 10
1665.239261783
 20
53.0087567671
 30
0.0
 11
1666.0859216763
 21
52.2924753346
 31
0.0
  0
LINE
  5
2E2
100
AcDbEntity
  8
L1_65
  6
CONTINUOUS
 62
         4
100
AcDbLine
 10
1666.0859216763
 20
53.7250381997
 30
0.0
 11
1665.239261783
 21
53.0087567671
 31
0.0
  0
LINE
  5
2E3
100
AcDbEntity
  8
L1_65
  6
CONTINUOUS
 62
         4
100
AcDbLine
 10
1655.8073593192
 20
53.7250381997
 30
0.0
 11
1654.9606994259
 21
53.0087567671
 31
0.0
  0
LINE
  5
2E4
100
AcDbEntity
  8
L1_65
  6
CONTINUOUS
 62
         7
100
AcDbLine
 10
1665.239261783
 20
55.8738824974
 30
0.0
 11
1655.8073593192
 21
55.1576010648
 31
0.0
  0
LINE
  5
2E5
100
AcDbEntity
  8
L1_65
  6
CONTINUOUS
 62
         7
100
AcDbLine
 10
1666.0859216763
 20
56.59016393
 30
0.0
 11
1654.9606994259
 21
55.8738824974
 31
0.0
  0
LINE
  5
2E6
100
AcDbEntity
  8
L1_65
  6
CONTINUOUS
 62
         7
100
AcDbLine
 10
1665.239261783
 20
55.8738824974
 30
0.0
 11
1666.0859216763
 21
56.59016393
 31
0.0
  0
LINE
  5
2E7
100
AcDbEntity
  8
L1_65
  6
CONTINUOUS
 62
         7
100
AcDbLine
 10
1666.0859216763
 20
55.1576010648
 30
0.0
 11
1665.239261783
 21
55.8738824974
 31
0.0
  0
LINE
  5
2E8
100
AcDbEntity
  8
L1_65
  6
CONTINUOUS
 62
         7
100
AcDbLine
 10
1654.9606994259
 20
55.8738824974
 30
0.0
 11
1655.8073593192
 21
56.59016393
 31
0.0
  0
LINE
  5
2E9
100
AcDbEntity
  8
L1_65
  6
CONTINUOUS
 62
         7
100
AcDbLine
 10
1655.8073593192
 20
55.1576010648
 30
0.0
 11
1654.9606994259
 21
55.8738824974
 31
0.0
  0
LINE
  5
2EA
100
AcDbEntity
  8
L1_65
  6
CONTINUOUS
 62
         4
100
AcDbLine
 10
1666.0859216763
 20
52.2924753346
 30
0.0
 11
1656.5236407517
 21
52.2924753346
 31
0.0
  0
LINE
  5
2EB
100
AcDbEntity
  8
L1_65
  6
CONTINUOUS
 62
         4
100
AcDbLine
 10
1665.239261783
 20
53.0087567671
 30
0.0
 11
1656.5236407517
 21
52.2924753346
 31
0.0
  0
LINE
  5
2EC
100
AcDbEntity
  8
L1_65
  6
CONTINUOUS
 62
         4
100
AcDbLine
 10
1666.0859216763
 20
53.7250381997
 30
0.0
 11
1654.9606994259
 21
53.0087567671
 31
0.0
  0
LINE
  5
2ED
100
AcDbEntity
  8
L1_65
  6
CONTINUOUS
 62
         4
100
AcDbLine
 10
1665.239261783
 20
53.0087567671
 30
0.0
 11
1666.0859216763
 21
52.2924753346
 31
0.0
  0
LINE
  5
2EE
100
AcDbEntity
  8
L1_65
  6
CONTINUOUS
 62
         4
100
AcDbLine
 10
1666.0859216763
 20
53.7250381997
 30
0.0
 11
1665.239261783
 21
53.0087567671
 31
0.0
  0
LINE
  5
2EF
100
AcDbEntity
  8
L1_65
  6
CONTINUOUS
 62
         4
100
AcDbLine
 10
1655.8073593192
 20
53.7250381997
 30
0.0
 11
1654.9606994259
 21
53.0087567671
 31
0.0
  0
LINE
  5
2F0
100
AcDbEntity
  8
L1_65
  6
CONTINUOUS
 62
         7
100
AcDbLine
 10
1665.239261783
 20
54.4413196323
 30
0.0
 11
1655.8073593192
 21
53.7250381997
 31
0.0
  0
LINE
  5
2F1
100
AcDbEntity
  8
L1_65
  6
CONTINUOUS
 62
         7
100
AcDbLine
 10
1666.0859216763
 20
55.1576010648
 30
0.0
 11
1654.9606994259
 21
54.4413196323
 31
0.0
  0
LINE
  5
2F2
100
AcDbEntity
  8
L1_65
  6
CONTINUOUS
 62
         7
100
AcDbLine
 10
1665.239261783
 20
54.4413196323
 30
0.0
 11
1666.0859216763
 21
55.1576010648
 31
0.0
  0
LINE
  5
2F3
100
AcDbEntity
  8
L1_65
  6
CONTINUOUS
 62
         7
100
AcDbLine
 10
1666.0859216763
 20
53.7250381997
 30
0.0
 11
1665.239261783
 21
54.4413196323
 31
0.0
  0
LINE
  5
2F4
100
AcDbEntity
  8
L1_65
  6
CONTINUOUS
 62
         7
100
AcDbLine
 10
1654.9606994259
 20
54.4413196323
 30
0.0
 11
1655.8073593192
 21
55.1576010648
 31
0.0
  0
LINE
  5
2F5
100
AcDbEntity
  8
L1_65
  6
CONTINUOUS
 62
         7
100
AcDbLine
 10
1655.8073593192
 20
53.7250381997
 30
0.0
 11
1654.9606994259
 21
54.4413196323
 31
0.0
  0
LINE
  5
2F6
100
AcDbEntity
  8
L1_65
  6
CONTINUOUS
 62
         7
100
AcDbLine
 10
1654.9606994259
 20
52.2924753346
 30
0.0
 11
1654.9606994259
 21
53.0087567671
 31
0.0
  0
LINE
  5
2F7
100
AcDbEntity
  8
L1_65
  6
CONTINUOUS
 62
         7
100
AcDbLine
 10
1655.8073593192
 20
51.6574740646
 30
0.0
 11
1654.9606994259
 21
52.2924753346
 31
0.0
  0
LINE
  5
2F8
100
AcDbEntity
  8
L1_65
  6
CONTINUOUS
 62
         7
100
AcDbLine
 10
1665.239261783
 20
51.6574740646
 30
0.0
 11
1666.0859216763
 21
52.2924753346
 31
0.0
  0
LINE
  5
2F9
100
AcDbEntity
  8
L1_65
  6
CONTINUOUS
 62
         7
100
AcDbLine
 10
1666.0859216763
 20
52.2924753346
 30
0.0
 11
1654.9606994259
 21
52.2924753346
 31
0.0
  0
LINE
  5
2FA
100
AcDbEntity
  8
L1_65
  6
CONTINUOUS
 62
         7
100
AcDbLine
 10
1665.239261783
 20
51.6574740646
 30
0.0
 11
1655.8073593192
 21
51.6574740646
 31
0.0
  0
LINE
  5
2FB
100
AcDbEntity
  8
L1_65
  6
CONTINUOUS
 62
         7
100
AcDbLine
 10
1400.0033403763
 20
-19.9433347407
 30
0.0
 11
1360.2033403763
 21
-19.9433347407
 31
0.0
  0
LINE
  5
2FC
100
AcDbEntity
  8
L1_65
  6
CONTINUOUS
 62
         7
100
AcDbLine
 10
1400.0033403763
 20
-5.9433347407
 30
0.0
 11
1360.2033403763
 21
-5.9433347407
 31
0.0
  0
INSERT
  5
34D
100
AcDbEntity
  8
0
  6
CONTINUOUS
100
AcDbBlockReference
  2
*X8
 10
0.0
 20
0.0
 30
0.0
  0
ARC
  5
34E
100
AcDbEntity
  8
L1_65
  6
CONTINUOUS
 62
         7
100
AcDbCircle
 10
1435.8553403763
 20
168.4846417294
 30
0.0
 40
0.8
100
AcDbArc
 50
180.0
 51
270.0
  0
ARC
  5
34F
100
AcDbEntity
  8
L1_65
  6
CONTINUOUS
 62
         7
100
AcDbCircle
 10
1435.8553403763
 20
131.8846417294
 30
0.0
 40
0.8
100
AcDbArc
 50
90.0
 51
180.0
  0
TEXT
  5
351
100
AcDbEntity
  8
L1_65
  6
CONTINUOUS
 62
         2
100
AcDbText
 10
1607.8551181589
 20
224.3704784082
 30
0.0
 40
4.5
  1
531026
 41
0.98
  7
BOX
100
AcDbText
  0
ENDSEC
  0
SECTION
  2
OBJECTS
  0
DICTIONARY
  5
19
100
AcDbDictionary
  3
ACAD_GROUP
350
1A
  3
ACAD_MLINESTYLE
350
1B
  0
DICTIONARY
  5
1A
102
{ACAD_REACTORS
330
19
102
}
100
AcDbDictionary
  0
DICTIONARY
  5
1B
102
{ACAD_REACTORS
330
19
102
}
100
AcDbDictionary
  3
STANDARD
350
1C
  0
MLINESTYLE
  5
1C
102
{ACAD_REACTORS
330
1B
102
}
100
AcDbMlineStyle
  2
STANDARD
 70
         0
  3

 62
         0
 51
90.0
 52
90.0
 71
         2
 49
0.5
 62
       256
  6
BYLAYER
 49
-0.5
 62
       256
  6
BYLAYER
  0
ENDSEC
  0
EOF
