  0
SECTION
  2
HEADER
  9
$ACADVER
  1
AC1014
  9
$ACADMAINTVER
 70
         0
  9
$DWGCODEPAGE
  3
BIG5
  9
$INSBASE
 10
0.0
 20
0.0
 30
0.0
  9
$EXTMIN
 10
1117.1738926195
 20
-208.2214200269
 30
0.0
  9
$EXTMAX
 10
2007.0035224357
 20
240.4030792745
 30
0.0
  9
$LIMMIN
 10
0.0
 20
0.0
  9
$LIMMAX
 10
0.0
 20
0.0
  9
$ORTHOMODE
 70
         0
  9
$REGENMODE
 70
         1
  9
$FILLMODE
 70
         1
  9
$QTEXTMODE
 70
         0
  9
$MIRRTEXT
 70
         1
  9
$DRAGMODE
 70
         2
  9
$LTSCALE
 40
1.0
  9
$OSMODE
 70
         0
  9
$ATTMODE
 70
         1
  9
$TEXTSIZE
 40
1.7
  9
$TRACEWID
 40
0.05
  9
$TEXTSTYLE
  7
STANDARD
  9
$CLAYER
  8
0
  9
$CELTYPE
  6
CONTINUOUS
  9
$CECOLOR
 62
         4
  9
$CELTSCALE
 40
1.0
  9
$DELOBJ
 70
         1
  9
$DISPSILH
 70
         0
  9
$DIMSCALE
 40
1.0
  9
$DIMASZ
 40
0.18
  9
$DIMEXO
 40
0.0625
  9
$DIMDLI
 40
0.38
  9
$DIMRND
 40
0.0
  9
$DIMDLE
 40
0.0
  9
$DIMEXE
 40
0.25
  9
$DIMTP
 40
0.01
  9
$DIMTM
 40
-0.01
  9
$DIMTXT
 40
3.5
  9
$DIMCEN
 40
0.09
  9
$DIMTSZ
 40
0.0
  9
$DIMTOL
 70
         0
  9
$DIMLIM
 70
         0
  9
$DIMTIH
 70
         1
  9
$DIMTOH
 70
         1
  9
$DIMSE1
 70
         0
  9
$DIMSE2
 70
         0
  9
$DIMTAD
 70
         0
  9
$DIMZIN
 70
         0
  9
$DIMBLK
  1

  9
$DIMASO
 70
         1
  9
$DIMSHO
 70
         1
  9
$DIMPOST
  1

  9
$DIMAPOST
  1

  9
$DIMALT
 70
         0
  9
$DIMALTD
 70
         2
  9
$DIMALTF
 40
25.4
  9
$DIMLFAC
 40
1.0
  9
$DIMTOFL
 70
         0
  9
$DIMTVP
 40
0.0
  9
$DIMTIX
 70
         0
  9
$DIMSOXD
 70
         0
  9
$DIMSAH
 70
         0
  9
$DIMBLK1
  1

  9
$DIMBLK2
  1

  9
$DIMSTYLE
  2
STANDARD
  9
$DIMCLRD
 70
         0
  9
$DIMCLRE
 70
         0
  9
$DIMCLRT
 70
         4
  9
$DIMTFAC
 40
1.0
  9
$DIMGAP
 40
0.09
  9
$DIMJUST
 70
         0
  9
$DIMSD1
 70
         0
  9
$DIMSD2
 70
         0
  9
$DIMTOLJ
 70
         1
  9
$DIMTZIN
 70
         0
  9
$DIMALTZ
 70
         0
  9
$DIMALTTZ
 70
         0
  9
$DIMFIT
 70
         3
  9
$DIMUPT
 70
         0
  9
$DIMUNIT
 70
         2
  9
$DIMDEC
 70
         4
  9
$DIMTDEC
 70
         4
  9
$DIMALTU
 70
         2
  9
$DIMALTTD
 70
         2
  9
$DIMTXSTY
  7
STANDARD
  9
$DIMAUNIT
 70
         0
  9
$LUNITS
 70
         2
  9
$LUPREC
 70
        10
  9
$SKETCHINC
 40
0.1
  9
$FILLETRAD
 40
0.0
  9
$AUNITS
 70
         0
  9
$AUPREC
 70
         0
  9
$MENU
  1
acad
  9
$ELEVATION
 40
0.0
  9
$PELEVATION
 40
0.0
  9
$THICKNESS
 40
0.0
  9
$LIMCHECK
 70
         0
  9
$BLIPMODE
 70
         1
  9
$CHAMFERA
 40
0.0
  9
$CHAMFERB
 40
0.0
  9
$CHAMFERC
 40
0.0
  9
$CHAMFERD
 40
0.0
  9
$SKPOLY
 70
         0
  9
$TDCREATE
 40
0.000000000
  9
$TDUPDATE
 40
0.000000000
  9
$TDINDWG
 40
0.0000000000
  9
$TDUSRTIMER
 40
0.0000000000
  9
$USRTIMER
 70
         1
  9
$ANGBASE
 50
0.0
  9
$ANGDIR
 70
         0
  9
$PDMODE
 70
         2
  9
$PDSIZE
 40
0.0
  9
$PLINEWID
 40
0.0
  9
$COORDS
 70
         1
  9
$SPLFRAME
 70
         0
  9
$SPLINETYPE
 70
         6
  9
$SPLINESEGS
 70
         8
  9
$ATTDIA
 70
         0
  9
$ATTREQ
 70
         1
  9
$HANDLING
 70
         1
  9
$HANDSEED
  5
612
  9
$SURFTAB1
 70
         6
  9
$SURFTAB2
 70
         6
  9
$SURFTYPE
 70
         6
  9
$SURFU
 70
         6
  9
$SURFV
 70
         6
  9
$UCSNAME
  2

  9
$UCSORG
 10
0.0
 20
0.0
 30
0.0
  9
$UCSXDIR
 10
1.0
 20
0.0
 30
0.0
  9
$UCSYDIR
 10
0.0
 20
1.0
 30
0.0
  9
$PUCSNAME
  2

  9
$PUCSORG
 10
0.0
 20
0.0
 30
0.0
  9
$PUCSXDIR
 10
1.0
 20
0.0
 30
0.0
  9
$PUCSYDIR
 10
0.0
 20
1.0
 30
0.0
  9
$USERI1
 70
         0
  9
$USERI2
 70
         0
  9
$USERI3
 70
         0
  9
$USERI4
 70
         0
  9
$USERI5
 70
         0
  9
$USERR1
 40
0.0
  9
$USERR2
 40
0.0
  9
$USERR3
 40
0.0
  9
$USERR4
 40
0.0
  9
$USERR5
 40
0.0
  9
$WORLDVIEW
 70
         1
  9
$SHADEDGE
 70
         3
  9
$SHADEDIF
 70
        70
  9
$TILEMODE
 70
         1
  9
$MAXACTVP
 70
        16
  9
$PINSBASE
 10
0.0
 20
0.0
 30
0.0
  9
$PLIMCHECK
 70
         0
  9
$PEXTMIN
 10
1.0000000000E+20
 20
1.0000000000E+20
 30
1.0000000000E+20
  9
$PEXTMAX
 10
-1.0000000000E+20
 20
-1.0000000000E+20
 30
-1.0000000000E+20
  9
$PLIMMIN
 10
0.0
 20
0.0
  9
$PLIMMAX
 10
12.0
 20
9.0
  9
$UNITMODE
 70
         0
  9
$VISRETAIN
 70
         0
  9
$PLINEGEN
 70
         1
  9
$PSLTSCALE
 70
         0
  9
$TREEDEPTH
 70
      3020
  9
$PICKSTYLE
 70
         1
  9
$CMLSTYLE
  2
STANDARD
  9
$CMLJUST
 70
         0
  9
$CMLSCALE
 40
1.0
  9
$PROXYGRAPHICS
 70
         0
  9
$MEASUREMENT
 70
         0
  0
ENDSEC
  0
SECTION
  2
CLASSES
  0
CLASS
  1
LWPOLYLINE
  2
AcDbPolyline
  3
"AutoCAD"
 90
        0
280
         0
281
         1
  0
CLASS
  1
IMAGE
  2
AcDbRasterImage
  3
ISM
 90
      127
280
         0
281
         1
  0
CLASS
  1
OLE2FRAME
  2
AcDbOle2Frame
  3
""
 90
        0
280
         0
281
         1
  0
CLASS
  1
HATCH
  2
AcDbHatch
  3
"ACAD_SEDONA"
 90
        0
280
         0
281
         1
  0
CLASS
  1
DICTIONARYVAR
  2
AcDbDictionaryVar
  3
"AutoCAD"
 90
        0
280
         0
281
         0
  0
CLASS
  1
RASTERVARIABLES
  2
AcDbRasterVariables
  3
ISM
 90
        0
280
         0
281
         0
  0
CLASS
  1
IMAGEDEF
  2
AcDbRasterImageDef
  3
ISM
 90
        0
280
         0
281
         0
  0
CLASS
  1
IMAGEDEF_REACTOR
  2
AcDbRasterImageDefReactor
  3
ISM
 90
        1
280
         0
281
         0
  0
CLASS
  1
IDBUFFER
  2
AcDbIdBuffer
  3
"Acad"
 90
        0
280
         0
281
         0
  0
CLASS
  1
SPATIAL_FILTER
  2
AcDbSpatialFilter
  3
"Acad"
 90
        0
280
         0
281
         0
  0
CLASS
  1
XRECORD
  2
AcDbXrecord
  3
"<Built In>"
 90
        0
280
         0
281
         0
  0
CLASS
  1
SORTENTSTABLE
  2
AcDbSortentsTable
  3
"AutoCAD"
 90
        0
280
         0
281
         0
  0
CLASS
  1
LAYER_INDEX
  2
AcDbLayerIndex
  3
"Acad"
 90
        0
280
         0
281
         0
  0
CLASS
  1
SPATIAL_INDEX
  2
AcDbSpatialIndex
  3
"Acad"
 90
        0
280
         0
281
         0
  0
CLASS
  1
OBJECT_PTR
  2
CAseDLPNTableRecord
  3
"ASE-LPNTableRecord"
 90
        1
280
         0
281
         0
  0
CLASS
  1
LAYOUT
  2
AcDbLayout
  3
"AutoCAD 2000"
 90
        1
280
         0
281
         0
  0
CLASS
  1
PLOTSETTINGS
  2
AcDbPlotSettings
  3
"AutoCAD 2000"
 90
        1
280
         0
281
         0
  0
CLASS
  1
ACDBDICTIONARYWDFLT
  2
AcDbDictionaryWithDefault
  3
"AutoCAD 2000"
 90
        1
280
         0
281
         0
  0
CLASS
  1
ACDBPLACEHOLDER
  2
AcDbPlaceHolder
  3
"AutoCAD 2000"
 90
        1
280
         0
281
         0
  0
CLASS
  1
VBA_PROJECT
  2
AcDbVbaProject
  3
"acadvba"
 90
        1
280
         0
281
         0
  0
CLASS
  1
WIPEOUT
  2
AcDbWipeout
  3
WipeOut|AutoCAD Express Tool|expresstools@autodesk.com
 90
      127
280
         0
281
         1
  0
CLASS
  1
WIPEOUTVARIABLES
  2
AcDbWipeoutVariables
  3
WipeOut|AutoCAD Express Tool|expresstools@autodesk.com
 90
        0
280
         0
281
         0
  0
CLASS
  1
RTEXT
  2
RText
  3
RText|AutoCAD Express Tool|expresstools@autodesk.com
 90
        0
280
         0
281
         1
  0
CLASS
  1
ARCALIGNEDTEXT
  2
AcDbArcAlignedText
  3
ATEXT|AutoCAD Express Tool|expresstools@autodesk.com
 90
        0
280
         0
281
         1
  0
ENDSEC
  0
SECTION
  2
TABLES
  0
TABLE
  2
VPORT
  5
7
100
AcDbSymbolTable
 70
         1
  0
VPORT
  5
15
100
AcDbSymbolTableRecord
100
AcDbViewportTableRecord
  2
*ACTIVE
 70
         0
 10
0.0
 20
0.0
 11
1.0
 21
1.0
 12
1562.0887075276
 22
16.0908296238
 13
0.0
 23
0.0
 14
1.0
 24
1.0
 15
0.0
 25
0.0
 16
0.0
 26
0.0
 36
1.0
 17
0.0
 27
0.0
 37
0.0
 40
448.6244993014
 41
1.9834619625
 42
50.0
 43
0.0
 44
0.0
 50
0.0
 51
0.0
 71
         0
 72
       100
 73
         1
 74
         1
 75
         0
 76
         0
 77
         0
 78
         0
  0
ENDTAB
  0
TABLE
  2
LTYPE
  5
4
100
AcDbSymbolTable
 70
         6
  0
LTYPE
  5
11
100
AcDbSymbolTableRecord
100
AcDbLinetypeTableRecord
  2
BYBLOCK
 70
        64
  3

 72
        65
 73
         0
 40
0.0
  0
LTYPE
  5
12
100
AcDbSymbolTableRecord
100
AcDbLinetypeTableRecord
  2
BYLAYER
 70
        64
  3

 72
        65
 73
         0
 40
0.0
  0
LTYPE
  5
13
100
AcDbSymbolTableRecord
100
AcDbLinetypeTableRecord
  2
CONTINUOUS
 70
        64
  3
Solid line
 72
        65
 73
         0
 40
0.0
  0
LTYPE
  5
1D
100
AcDbSymbolTableRecord
100
AcDbLinetypeTableRecord
  2
DASHED
 70
        64
  3
_ _ _ _ _ _ _ _ _ _ _ _ _ _ _ _
 72
        65
 73
         2
 40
0.2
 49
0.1
 74
         0
 49
-0.1
 74
         0
  0
LTYPE
  5
1E
100
AcDbSymbolTableRecord
100
AcDbLinetypeTableRecord
  2
CENTER
 70
        64
  3
___ _ ___ _ ___ _ ___ _ ___ _ ___ _ ___ _ ___ _
 72
        65
 73
         4
 40
0.95
 49
0.625
 74
         0
 49
-0.125
 74
         0
 49
0.075
 74
         0
 49
-0.125
 74
         0
  0
LTYPE
  5
1F
100
AcDbSymbolTableRecord
100
AcDbLinetypeTableRecord
  2
PHANTOM
 70
        64
  3
______  __  __  ______  __  __  ______  __  __  
 72
        65
 73
         6
 40
1.025
 49
0.625
 74
         0
 49
-0.125
 74
         0
 49
0.075
 74
         0
 49
-0.125
 74
         0
 49
0.075
 74
         0
 49
-0.125
 74
         0
  0
ENDTAB
  0
TABLE
  2
LAYER
  5
2
100
AcDbSymbolTable
 70
        11
  0
LAYER
  5
14
100
AcDbSymbolTableRecord
100
AcDbLayerTableRecord
  2
0
 70
         0
 62
         7
  6
CONTINUOUS
  0
LAYER
  5
21
100
AcDbSymbolTableRecord
100
AcDbLayerTableRecord
  2
_____U
 70
         1
 62
         7
  6
CONTINUOUS
  0
LAYER
  5
22
100
AcDbSymbolTableRecord
100
AcDbLayerTableRecord
  2
___T______
 70
         1
 62
         7
  6
CONTINUOUS
  0
LAYER
  5
23
100
AcDbSymbolTableRecord
100
AcDbLayerTableRecord
  2
_____T______
 70
         1
 62
         7
  6
CONTINUOUS
  0
LAYER
  5
24
100
AcDbSymbolTableRecord
100
AcDbLayerTableRecord
  2
______L_______
 70
         1
 62
         7
  6
CONTINUOUS
  0
LAYER
  5
25
100
AcDbSymbolTableRecord
100
AcDbLayerTableRecord
  2
ERTGDAOZ____
 70
         1
 62
         7
  6
CONTINUOUS
  0
LAYER
  5
26
100
AcDbSymbolTableRecord
100
AcDbLayerTableRecord
  2
___L_W______
 70
         1
 62
         7
  6
CONTINUOUS
  0
LAYER
  5
27
100
AcDbSymbolTableRecord
100
AcDbLayerTableRecord
  2
_Y__________
 70
         0
 62
         7
  6
CONTINUOUS
  0
LAYER
  5
28
100
AcDbSymbolTableRecord
100
AcDbLayerTableRecord
  2
_X______
 70
         0
 62
         7
  6
CONTINUOUS
  0
LAYER
  5
29
100
AcDbSymbolTableRecord
100
AcDbLayerTableRecord
  2
L1_150
 70
         0
 62
         7
  6
CONTINUOUS
  0
LAYER
  5
10E
100
AcDbSymbolTableRecord
100
AcDbLayerTableRecord
  2
DEFPOINTS
 70
         0
 62
        -7
  6
CONTINUOUS
  0
ENDTAB
  0
TABLE
  2
STYLE
  5
3
100
AcDbSymbolTable
 70
        36
  0
STYLE
  5
17
100
AcDbSymbolTableRecord
100
AcDbTextStyleTableRecord
  2
STANDARD
 70
         0
 40
0.0
 41
1.0
 50
0.0
 71
         0
 42
0.0
  3
txt
  4

  0
STYLE
  5
117
100
AcDbSymbolTableRecord
100
AcDbTextStyleTableRecord
  2
BOX
 70
         0
 40
1.0
 41
1.0
 50
0.0
 71
         0
 42
0.2
  3
txt.shx
  4

  0
STYLE
  5
12D
100
AcDbSymbolTableRecord
100
AcDbTextStyleTableRecord
  2
BOX
 70
         0
 40
1.0
 41
1.0
 50
0.0
 71
         0
 42
0.2
  3
txt.shx
  4

  0
STYLE
  5
156
100
AcDbSymbolTableRecord
100
AcDbTextStyleTableRecord
  2
BOX
 70
         0
 40
1.0
 41
1.0
 50
0.0
 71
         0
 42
0.2
  3
txt.shx
  4

  0
STYLE
  5
166
100
AcDbSymbolTableRecord
100
AcDbTextStyleTableRecord
  2
BOX
 70
         0
 40
1.0
 41
1.0
 50
0.0
 71
         0
 42
0.2
  3
txt.shx
  4

  0
STYLE
  5
176
100
AcDbSymbolTableRecord
100
AcDbTextStyleTableRecord
  2
BOX
 70
         0
 40
1.0
 41
1.0
 50
0.0
 71
         0
 42
0.2
  3
txt.shx
  4

  0
STYLE
  5
186
100
AcDbSymbolTableRecord
100
AcDbTextStyleTableRecord
  2
BOX
 70
         0
 40
1.0
 41
1.0
 50
0.0
 71
         0
 42
0.2
  3
txt.shx
  4

  0
STYLE
  5
194
100
AcDbSymbolTableRecord
100
AcDbTextStyleTableRecord
  2
BOX
 70
         0
 40
1.0
 41
1.0
 50
0.0
 71
         0
 42
0.2
  3
txt.shx
  4

  0
STYLE
  5
1B4
100
AcDbSymbolTableRecord
100
AcDbTextStyleTableRecord
  2
BOX
 70
         0
 40
1.0
 41
1.0
 50
0.0
 71
         0
 42
0.2
  3
txt.shx
  4

  0
STYLE
  5
1C4
100
AcDbSymbolTableRecord
100
AcDbTextStyleTableRecord
  2
BOX
 70
         0
 40
1.0
 41
1.0
 50
0.0
 71
         0
 42
0.2
  3
txt.shx
  4

  0
STYLE
  5
1D8
100
AcDbSymbolTableRecord
100
AcDbTextStyleTableRecord
  2
BOX
 70
         0
 40
1.0
 41
1.0
 50
0.0
 71
         0
 42
0.2
  3
txt.shx
  4

  0
STYLE
  5
213
100
AcDbSymbolTableRecord
100
AcDbTextStyleTableRecord
  2
BOX
 70
         0
 40
1.0
 41
1.0
 50
0.0
 71
         0
 42
0.2
  3
txt.shx
  4

  0
STYLE
  5
221
100
AcDbSymbolTableRecord
100
AcDbTextStyleTableRecord
  2
BOX
 70
         0
 40
1.0
 41
1.0
 50
0.0
 71
         0
 42
0.2
  3
txt.shx
  4

  0
STYLE
  5
231
100
AcDbSymbolTableRecord
100
AcDbTextStyleTableRecord
  2
BOX
 70
         0
 40
1.0
 41
1.0
 50
0.0
 71
         0
 42
0.2
  3
txt.shx
  4

  0
STYLE
  5
241
100
AcDbSymbolTableRecord
100
AcDbTextStyleTableRecord
  2
BOX
 70
         0
 40
1.0
 41
1.0
 50
0.0
 71
         0
 42
0.2
  3
txt.shx
  4

  0
STYLE
  5
263
100
AcDbSymbolTableRecord
100
AcDbTextStyleTableRecord
  2
BOX
 70
         0
 40
1.0
 41
1.0
 50
0.0
 71
         0
 42
0.2
  3
txt.shx
  4

  0
STYLE
  5
271
100
AcDbSymbolTableRecord
100
AcDbTextStyleTableRecord
  2
BOX
 70
         0
 40
1.0
 41
1.0
 50
0.0
 71
         0
 42
0.2
  3
txt.shx
  4

  0
STYLE
  5
280
100
AcDbSymbolTableRecord
100
AcDbTextStyleTableRecord
  2
BOX
 70
         0
 40
1.0
 41
1.0
 50
0.0
 71
         0
 42
0.2
  3
txt.shx
  4

  0
STYLE
  5
292
100
AcDbSymbolTableRecord
100
AcDbTextStyleTableRecord
  2
BOX
 70
         0
 40
1.0
 41
1.0
 50
0.0
 71
         0
 42
0.2
  3
txt.shx
  4

  0
STYLE
  5
2A0
100
AcDbSymbolTableRecord
100
AcDbTextStyleTableRecord
  2
BOX
 70
         0
 40
1.0
 41
1.0
 50
0.0
 71
         0
 42
0.2
  3
txt.shx
  4

  0
STYLE
  5
2B7
100
AcDbSymbolTableRecord
100
AcDbTextStyleTableRecord
  2
BOX
 70
         0
 40
1.0
 41
1.0
 50
0.0
 71
         0
 42
0.2
  3
txt.shx
  4

  0
STYLE
  5
2C7
100
AcDbSymbolTableRecord
100
AcDbTextStyleTableRecord
  2
BOX
 70
         0
 40
1.0
 41
1.0
 50
0.0
 71
         0
 42
0.2
  3
txt.shx
  4

  0
STYLE
  5
2D5
100
AcDbSymbolTableRecord
100
AcDbTextStyleTableRecord
  2
BOX
 70
         0
 40
1.0
 41
1.0
 50
0.0
 71
         0
 42
0.2
  3
txt.shx
  4

  0
STYLE
  5
2E3
100
AcDbSymbolTableRecord
100
AcDbTextStyleTableRecord
  2
BOX
 70
         0
 40
1.0
 41
1.0
 50
0.0
 71
         0
 42
0.2
  3
txt.shx
  4

  0
STYLE
  5
305
100
AcDbSymbolTableRecord
100
AcDbTextStyleTableRecord
  2
BOX
 70
         0
 40
1.0
 41
1.0
 50
0.0
 71
         0
 42
0.2
  3
txt.shx
  4

  0
STYLE
  5
315
100
AcDbSymbolTableRecord
100
AcDbTextStyleTableRecord
  2
BOX
 70
         0
 40
1.0
 41
1.0
 50
0.0
 71
         0
 42
0.2
  3
txt.shx
  4

  0
STYLE
  5
323
100
AcDbSymbolTableRecord
100
AcDbTextStyleTableRecord
  2
BOX
 70
         0
 40
1.0
 41
1.0
 50
0.0
 71
         0
 42
0.2
  3
txt.shx
  4

  0
STYLE
  5
34E
100
AcDbSymbolTableRecord
100
AcDbTextStyleTableRecord
  2
BOX
 70
         0
 40
1.0
 41
1.0
 50
0.0
 71
         0
 42
0.2
  3
txt.shx
  4

  0
STYLE
  5
362
100
AcDbSymbolTableRecord
100
AcDbTextStyleTableRecord
  2
BOX
 70
         0
 40
1.0
 41
1.0
 50
0.0
 71
         0
 42
0.2
  3
txt.shx
  4

  0
STYLE
  5
371
100
AcDbSymbolTableRecord
100
AcDbTextStyleTableRecord
  2
BOX
 70
         0
 40
1.0
 41
1.0
 50
0.0
 71
         0
 42
0.2
  3
txt.shx
  4

  0
STYLE
  5
389
100
AcDbSymbolTableRecord
100
AcDbTextStyleTableRecord
  2
BOX
 70
         0
 40
1.0
 41
1.0
 50
0.0
 71
         0
 42
0.2
  3
txt.shx
  4

  0
STYLE
  5
397
100
AcDbSymbolTableRecord
100
AcDbTextStyleTableRecord
  2
BOX
 70
         0
 40
1.0
 41
1.0
 50
0.0
 71
         0
 42
0.2
  3
txt.shx
  4

  0
STYLE
  5
3A7
100
AcDbSymbolTableRecord
100
AcDbTextStyleTableRecord
  2
BOX
 70
         0
 40
1.0
 41
1.0
 50
0.0
 71
         0
 42
0.2
  3
txt.shx
  4

  0
STYLE
  5
5FF
100
AcDbSymbolTableRecord
100
AcDbTextStyleTableRecord
  2
BOX
 70
         0
 40
1.0
 41
1.0
 50
0.0
 71
         0
 42
0.2
  3
txt.shx
  4

  0
STYLE
  5
60D
100
AcDbSymbolTableRecord
100
AcDbTextStyleTableRecord
  2
BOX
 70
         0
 40
1.0
 41
1.0
 50
0.0
 71
         0
 42
0.2
  3
txt.shx
  4

  0
STYLE
  5
610
100
AcDbSymbolTableRecord
100
AcDbTextStyleTableRecord
  2
BOX
 70
         0
 40
1.0
 41
1.0
 50
0.0
 71
         0
 42
0.2
  3
txt.shx
  4

  0
ENDTAB
  0
TABLE
  2
VIEW
  5
5
100
AcDbSymbolTable
 70
         0
  0
ENDTAB
  0
TABLE
  2
UCS
  5
6
100
AcDbSymbolTable
 70
         1
  0
UCS
  5
20
100
AcDbSymbolTableRecord
100
AcDbUCSTableRecord
  2
CK_VIEW_1
 70
         0
 10
0.0
 20
0.0
 30
1.0
 11
1.0
 21
0.0
 31
0.0
 12
0.0
 22
1.0
 32
0.0
  0
ENDTAB
  0
TABLE
  2
APPID
  5
8
100
AcDbSymbolTable
 70
         1
  0
APPID
  5
16
100
AcDbSymbolTableRecord
100
AcDbRegAppTableRecord
  2
ACAD
 70
         0
  0
ENDTAB
  0
TABLE
  2
DIMSTYLE
  5
9
100
AcDbSymbolTable
 70
         2
  0
DIMSTYLE
105
18
100
AcDbSymbolTableRecord
100
AcDbDimStyleTableRecord
  2
STANDARD
 70
         0
  3

  4

  5

  6

  7

 40
1.0
 41
0.18
 42
0.0625
 43
0.38
 44
0.18
 45
0.0
 46
0.0
 47
0.0
 48
0.0
 71
         0
 72
         0
 73
         1
 74
         1
 75
         0
 76
         0
 77
         0
 78
         0
140
0.18
141
0.09
142
0.0
143
25.4
144
1.0
145
0.0
146
1.0
147
0.09
170
         0
171
         2
172
         0
173
         0
174
         0
175
         0
176
         0
177
         0
178
         0
270
         2
271
         4
272
         4
273
         2
274
         2
275
         0
280
         0
281
         0
282
         0
283
         1
284
         0
285
         0
286
         0
287
         0
288
         0
340
17
  0
DIMSTYLE
105
10A
100
AcDbSymbolTableRecord
100
AcDbDimStyleTableRecord
  2
DIMSTYLE1
 70
         0
  3

  4

  5

  6

  7

 40
1.0
 41
3.5
 42
0.0625
 43
0.38
 44
3.5
 45
0.0
 46
0.0
 47
0.0
 48
0.0
 71
         0
 72
         0
 73
         1
 74
         1
 75
         0
 76
         0
 77
         0
 78
         0
140
3.5
141
0.09
142
0.0
143
25.4
144
1.0
145
0.0
146
1.0
147
0.09
170
         0
171
         2
172
         0
173
         0
174
         0
175
         0
176
         0
177
         0
178
         0
270
         2
271
         4
272
         4
273
         2
274
         2
275
         0
280
         0
281
         0
282
         0
283
         1
284
         0
285
         0
286
         0
287
         0
288
         0
340
17
  0
ENDTAB
  0
TABLE
  2
BLOCK_RECORD
  5
1
100
AcDbSymbolTable
 70
        37
  0
BLOCK_RECORD
  5
A
100
AcDbSymbolTableRecord
100
AcDbBlockTableRecord
  2
*MODEL_SPACE
  0
BLOCK_RECORD
  5
B
100
AcDbSymbolTableRecord
100
AcDbBlockTableRecord
  2
*PAPER_SPACE
  0
BLOCK_RECORD
  5
2A
100
AcDbSymbolTableRecord
100
AcDbBlockTableRecord
  2
*X0
  0
BLOCK_RECORD
  5
10B
100
AcDbSymbolTableRecord
100
AcDbBlockTableRecord
  2
*D1
  0
BLOCK_RECORD
  5
120
100
AcDbSymbolTableRecord
100
AcDbBlockTableRecord
  2
*D2
  0
BLOCK_RECORD
  5
14A
100
AcDbSymbolTableRecord
100
AcDbBlockTableRecord
  2
*D3
  0
BLOCK_RECORD
  5
159
100
AcDbSymbolTableRecord
100
AcDbBlockTableRecord
  2
*D4
  0
BLOCK_RECORD
  5
169
100
AcDbSymbolTableRecord
100
AcDbBlockTableRecord
  2
*D5
  0
BLOCK_RECORD
  5
179
100
AcDbSymbolTableRecord
100
AcDbBlockTableRecord
  2
*D6
  0
BLOCK_RECORD
  5
189
100
AcDbSymbolTableRecord
100
AcDbBlockTableRecord
  2
*D7
  0
BLOCK_RECORD
  5
197
100
AcDbSymbolTableRecord
100
AcDbBlockTableRecord
  2
*X8
  0
BLOCK_RECORD
  5
19F
100
AcDbSymbolTableRecord
100
AcDbBlockTableRecord
  2
*X9
  0
BLOCK_RECORD
  5
1A9
100
AcDbSymbolTableRecord
100
AcDbBlockTableRecord
  2
*D10
  0
BLOCK_RECORD
  5
1B7
100
AcDbSymbolTableRecord
100
AcDbBlockTableRecord
  2
*D11
  0
BLOCK_RECORD
  5
1CB
100
AcDbSymbolTableRecord
100
AcDbBlockTableRecord
  2
*D12
  0
BLOCK_RECORD
  5
207
100
AcDbSymbolTableRecord
100
AcDbBlockTableRecord
  2
*D13
  0
BLOCK_RECORD
  5
216
100
AcDbSymbolTableRecord
100
AcDbBlockTableRecord
  2
*D14
  0
BLOCK_RECORD
  5
224
100
AcDbSymbolTableRecord
100
AcDbBlockTableRecord
  2
*D15
  0
BLOCK_RECORD
  5
234
100
AcDbSymbolTableRecord
100
AcDbBlockTableRecord
  2
*D16
  0
BLOCK_RECORD
  5
258
100
AcDbSymbolTableRecord
100
AcDbBlockTableRecord
  2
*D17
  0
BLOCK_RECORD
  5
266
100
AcDbSymbolTableRecord
100
AcDbBlockTableRecord
  2
*D18
  0
BLOCK_RECORD
  5
274
100
AcDbSymbolTableRecord
100
AcDbBlockTableRecord
  2
*D19
  0
BLOCK_RECORD
  5
285
100
AcDbSymbolTableRecord
100
AcDbBlockTableRecord
  2
*D20
  0
BLOCK_RECORD
  5
295
100
AcDbSymbolTableRecord
100
AcDbBlockTableRecord
  2
*D21
  0
BLOCK_RECORD
  5
2AC
100
AcDbSymbolTableRecord
100
AcDbBlockTableRecord
  2
*D22
  0
BLOCK_RECORD
  5
2BA
100
AcDbSymbolTableRecord
100
AcDbBlockTableRecord
  2
*D23
  0
BLOCK_RECORD
  5
2CA
100
AcDbSymbolTableRecord
100
AcDbBlockTableRecord
  2
*D24
  0
BLOCK_RECORD
  5
2D8
100
AcDbSymbolTableRecord
100
AcDbBlockTableRecord
  2
*D25
  0
BLOCK_RECORD
  5
2F8
100
AcDbSymbolTableRecord
100
AcDbBlockTableRecord
  2
*D26
  0
BLOCK_RECORD
  5
308
100
AcDbSymbolTableRecord
100
AcDbBlockTableRecord
  2
*D27
  0
BLOCK_RECORD
  5
318
100
AcDbSymbolTableRecord
100
AcDbBlockTableRecord
  2
*D28
  0
BLOCK_RECORD
  5
343
100
AcDbSymbolTableRecord
100
AcDbBlockTableRecord
  2
*D29
  0
BLOCK_RECORD
  5
357
100
AcDbSymbolTableRecord
100
AcDbBlockTableRecord
  2
*D30
  0
BLOCK_RECORD
  5
366
100
AcDbSymbolTableRecord
100
AcDbBlockTableRecord
  2
*D31
  0
BLOCK_RECORD
  5
37E
100
AcDbSymbolTableRecord
100
AcDbBlockTableRecord
  2
*D32
  0
BLOCK_RECORD
  5
38C
100
AcDbSymbolTableRecord
100
AcDbBlockTableRecord
  2
*D33
  0
BLOCK_RECORD
  5
39A
100
AcDbSymbolTableRecord
100
AcDbBlockTableRecord
  2
*D34
  0
BLOCK_RECORD
  5
5F4
100
AcDbSymbolTableRecord
100
AcDbBlockTableRecord
  2
*D35
  0
BLOCK_RECORD
  5
602
100
AcDbSymbolTableRecord
100
AcDbBlockTableRecord
  2
*D36
  0
ENDTAB
  0
ENDSEC
  0
SECTION
  2
BLOCKS
  0
BLOCK
  5
D
100
AcDbEntity
  8
0
100
AcDbBlockBegin
  2
*MODEL_SPACE
 70
         0
 10
0.0
 20
0.0
 30
0.0
  3
*MODEL_SPACE
  1

  0
ENDBLK
  5
E
100
AcDbEntity
  8
0
100
AcDbBlockEnd
  0
BLOCK
  5
F
100
AcDbEntity
 67
         1
  8
0
100
AcDbBlockBegin
  2
*PAPER_SPACE
 70
         0
 10
0.0
 20
0.0
 30
0.0
  3
*PAPER_SPACE
  1

  0
ENDBLK
  5
10
100
AcDbEntity
 67
         1
  8
0
100
AcDbBlockEnd
  0
BLOCK
  5
2B
100
AcDbEntity
  8
0
100
AcDbBlockBegin
  2
*X0
 70
        65
 10
0.0
 20
0.0
 30
0.0
  3
*X0
  1

  0
LINE
  5
2C
100
AcDbEntity
  8
L1_150
  6
CONTINUOUS
 62
         4
100
AcDbLine
 10
1740.240819219
 20
-139.4400166132
 30
0.0
 11
1741.2786999334
 21
-138.4021358988
 31
0.0
  0
LINE
  5
2D
100
AcDbEntity
  8
L1_150
  6
CONTINUOUS
 62
         4
100
AcDbLine
 10
1718.6981785318
 20
-156.7400166132
 30
0.0
 11
1719.2786999334
 21
-156.1594952116
 31
0.0
  0
LINE
  5
2E
100
AcDbEntity
  8
L1_150
  6
CONTINUOUS
 62
         4
100
AcDbLine
 10
1735.9981785318
 20
-139.4400166132
 30
0.0
 11
1739.6612512486
 21
-135.7769438965
 31
0.0
  0
LINE
  5
2F
100
AcDbEntity
  8
L1_150
  6
CONTINUOUS
 62
         4
100
AcDbLine
 10
1714.4555378447
 20
-156.7400166132
 30
0.0
 11
1719.2786999334
 21
-151.9168545245
 31
0.0
  0
LINE
  5
30
100
AcDbEntity
  8
L1_150
  6
CONTINUOUS
 62
         4
100
AcDbLine
 10
1731.7555378447
 20
-139.4400166132
 30
0.0
 11
1735.9774016975
 21
-135.2181527604
 31
0.0
  0
LINE
  5
31
100
AcDbEntity
  8
L1_150
  6
CONTINUOUS
 62
         4
100
AcDbLine
 10
1710.2128971576
 20
-156.7400166132
 30
0.0
 11
1715.5628971576
 21
-151.3900166132
 31
0.0
  0
LINE
  5
32
100
AcDbEntity
  8
L1_150
  6
CONTINUOUS
 62
         4
100
AcDbLine
 10
1718.8628971576
 20
-148.0900166132
 30
0.0
 11
1719.2786999334
 21
-147.6742138374
 31
0.0
  0
LINE
  5
33
100
AcDbEntity
  8
L1_150
  6
CONTINUOUS
 62
         4
100
AcDbLine
 10
1722.2128971576
 20
-144.7400166132
 30
0.0
 11
1723.7786999334
 21
-143.1742138374
 31
0.0
  0
LINE
  5
34
100
AcDbEntity
  8
L1_150
  6
CONTINUOUS
 62
         4
100
AcDbLine
 10
1727.5128971576
 20
-139.4400166132
 30
0.0
 11
1734.4128971576
 21
-132.5400166132
 31
0.0
  0
LINE
  5
35
100
AcDbEntity
  8
L1_150
  6
CONTINUOUS
 62
         4
100
AcDbLine
 10
1705.9702564705
 20
-156.7400166132
 30
0.0
 11
1711.3202564705
 21
-151.3900166132
 31
0.0
  0
LINE
  5
36
100
AcDbEntity
  8
L1_150
  6
CONTINUOUS
 62
         4
100
AcDbLine
 10
1714.6202564705
 20
-148.0900166132
 30
0.0
 11
1730.1702564705
 21
-132.5400166132
 31
0.0
  0
LINE
  5
37
100
AcDbEntity
  8
L1_150
  6
CONTINUOUS
 62
         4
100
AcDbLine
 10
1701.7276157834
 20
-156.7400166132
 30
0.0
 11
1707.0776157834
 21
-151.3900166132
 31
0.0
  0
LINE
  5
38
100
AcDbEntity
  8
L1_150
  6
CONTINUOUS
 62
         4
100
AcDbLine
 10
1710.3776157834
 20
-148.0900166132
 30
0.0
 11
1725.9276157834
 21
-132.5400166132
 31
0.0
  0
LINE
  5
39
100
AcDbEntity
  8
L1_150
  6
CONTINUOUS
 62
         4
100
AcDbLine
 10
1697.4849750962
 20
-156.7400166132
 30
0.0
 11
1703.7502599669
 21
-150.4747317425
 31
0.0
  0
LINE
  5
3A
100
AcDbEntity
  8
L1_150
  6
CONTINUOUS
 62
         4
100
AcDbLine
 10
1706.1349750962
 20
-148.0900166132
 30
0.0
 11
1721.6849750962
 21
-132.5400166132
 31
0.0
  0
LINE
  5
3B
100
AcDbEntity
  8
L1_150
  6
CONTINUOUS
 62
         4
100
AcDbLine
 10
1733.2849750962
 20
-120.9400166132
 30
0.0
 11
1734.77872172
 21
-119.4462699894
 31
0.0
  0
LINE
  5
3C
100
AcDbEntity
  8
L1_150
  6
CONTINUOUS
 62
         4
100
AcDbLine
 10
1738.5799750962
 20
-115.6450166132
 30
0.0
 11
1740.1849750962
 21
-114.0400166132
 31
0.0
  0
LINE
  5
3D
100
AcDbEntity
  8
L1_150
  6
CONTINUOUS
 62
         4
100
AcDbLine
 10
1693.2423344091
 20
-156.7400166132
 30
0.0
 11
1717.4423344091
 21
-132.5400166132
 31
0.0
  0
LINE
  5
3E
100
AcDbEntity
  8
L1_150
  6
CONTINUOUS
 62
         4
100
AcDbLine
 10
1729.0423344091
 20
-120.9400166132
 30
0.0
 11
1731.1373344091
 21
-118.8450166132
 31
0.0
  0
LINE
  5
3F
100
AcDbEntity
  8
L1_150
  6
CONTINUOUS
 62
         4
100
AcDbLine
 10
1734.3373344091
 20
-115.6450166132
 30
0.0
 11
1735.9423344091
 21
-114.0400166132
 31
0.0
  0
LINE
  5
40
100
AcDbEntity
  8
L1_150
  6
CONTINUOUS
 62
         4
100
AcDbLine
 10
1688.999693722
 20
-156.7400166132
 30
0.0
 11
1713.199693722
 21
-132.5400166132
 31
0.0
  0
LINE
  5
41
100
AcDbEntity
  8
L1_150
  6
CONTINUOUS
 62
         4
100
AcDbLine
 10
1724.799693722
 20
-120.9400166132
 30
0.0
 11
1726.894693722
 21
-118.8450166132
 31
0.0
  0
LINE
  5
42
100
AcDbEntity
  8
L1_150
  6
CONTINUOUS
 62
         4
100
AcDbLine
 10
1730.094693722
 20
-115.6450166132
 30
0.0
 11
1731.699693722
 21
-114.0400166132
 31
0.0
  0
LINE
  5
43
100
AcDbEntity
  8
L1_150
  6
CONTINUOUS
 62
         4
100
AcDbLine
 10
1684.7570530349
 20
-156.7400166132
 30
0.0
 11
1708.9570530349
 21
-132.5400166132
 31
0.0
  0
LINE
  5
44
100
AcDbEntity
  8
L1_150
  6
CONTINUOUS
 62
         4
100
AcDbLine
 10
1720.5570530349
 20
-120.9400166132
 30
0.0
 11
1722.6520530349
 21
-118.8450166132
 31
0.0
  0
LINE
  5
45
100
AcDbEntity
  8
L1_150
  6
CONTINUOUS
 62
         4
100
AcDbLine
 10
1725.8520530349
 20
-115.6450166132
 30
0.0
 11
1727.4570530349
 21
-114.0400166132
 31
0.0
  0
LINE
  5
46
100
AcDbEntity
  8
L1_150
  6
CONTINUOUS
 62
         4
100
AcDbLine
 10
1680.5144123478
 20
-156.7400166132
 30
0.0
 11
1704.7144123478
 21
-132.5400166132
 31
0.0
  0
LINE
  5
47
100
AcDbEntity
  8
L1_150
  6
CONTINUOUS
 62
         4
100
AcDbLine
 10
1716.3144123478
 20
-120.9400166132
 30
0.0
 11
1718.4094123478
 21
-118.8450166132
 31
0.0
  0
LINE
  5
48
100
AcDbEntity
  8
L1_150
  6
CONTINUOUS
 62
         4
100
AcDbLine
 10
1721.6094123478
 20
-115.6450166132
 30
0.0
 11
1723.6727140727
 21
-113.5817148882
 31
0.0
  0
LINE
  5
49
100
AcDbEntity
  8
L1_150
  6
CONTINUOUS
 62
         4
100
AcDbLine
 10
1676.2717716606
 20
-156.7400166132
 30
0.0
 11
1700.4717716606
 21
-132.5400166132
 31
0.0
  0
LINE
  5
4A
100
AcDbEntity
  8
L1_150
  6
CONTINUOUS
 62
         4
100
AcDbLine
 10
1712.0717716606
 20
-120.9400166132
 30
0.0
 11
1714.1667716606
 21
-118.8450166132
 31
0.0
  0
LINE
  5
4B
100
AcDbEntity
  8
L1_150
  6
CONTINUOUS
 62
         4
100
AcDbLine
 10
1717.3667716606
 20
-115.6450166132
 30
0.0
 11
1723.7786999334
 21
-109.2330883404
 31
0.0
  0
LINE
  5
4C
100
AcDbEntity
  8
L1_150
  6
CONTINUOUS
 62
         4
100
AcDbLine
 10
1672.0291309735
 20
-156.7400166132
 30
0.0
 11
1691.6327895101
 21
-137.1363580766
 31
0.0
  0
LINE
  5
4D
100
AcDbEntity
  8
L1_150
  6
CONTINUOUS
 62
         4
100
AcDbLine
 10
1707.8291309735
 20
-120.9400166132
 30
0.0
 11
1709.9241309735
 21
-118.8450166132
 31
0.0
  0
LINE
  5
4E
100
AcDbEntity
  8
L1_150
  6
CONTINUOUS
 62
         4
100
AcDbLine
 10
1713.1241309735
 20
-115.6450166132
 30
0.0
 11
1723.7786999334
 21
-104.9904476533
 31
0.0
  0
LINE
  5
4F
100
AcDbEntity
  8
L1_150
  6
CONTINUOUS
 62
         4
100
AcDbLine
 10
1667.7864902864
 20
-156.7400166132
 30
0.0
 11
1687.390148823
 21
-137.1363580766
 31
0.0
  0
LINE
  5
50
100
AcDbEntity
  8
L1_150
  6
CONTINUOUS
 62
         4
100
AcDbLine
 10
1703.5864902864
 20
-120.9400166132
 30
0.0
 11
1705.6814902864
 21
-118.8450166132
 31
0.0
  0
LINE
  5
51
100
AcDbEntity
  8
L1_150
  6
CONTINUOUS
 62
         4
100
AcDbLine
 10
1708.8814902864
 20
-115.6450166132
 30
0.0
 11
1723.7786999334
 21
-100.7478069662
 31
0.0
  0
LINE
  5
52
100
AcDbEntity
  8
L1_150
  6
CONTINUOUS
 62
         4
100
AcDbLine
 10
1663.5438495993
 20
-156.7400166132
 30
0.0
 11
1683.1475081359
 21
-137.1363580766
 31
0.0
  0
LINE
  5
53
100
AcDbEntity
  8
L1_150
  6
CONTINUOUS
 62
         4
100
AcDbLine
 10
1699.3438495993
 20
-120.9400166132
 30
0.0
 11
1701.4388495993
 21
-118.8450166132
 31
0.0
  0
LINE
  5
54
100
AcDbEntity
  8
L1_150
  6
CONTINUOUS
 62
         4
100
AcDbLine
 10
1704.6388495993
 20
-115.6450166132
 30
0.0
 11
1723.4689650043
 21
-96.8149012082
 31
0.0
  0
LINE
  5
55
100
AcDbEntity
  8
L1_150
  6
CONTINUOUS
 62
         4
100
AcDbLine
 10
1659.3012089122
 20
-156.7400166132
 30
0.0
 11
1678.9048674488
 21
-137.1363580766
 31
0.0
  0
LINE
  5
56
100
AcDbEntity
  8
L1_150
  6
CONTINUOUS
 62
         4
100
AcDbLine
 10
1695.8477083069
 20
-120.1935172185
 30
0.0
 11
1697.1962089122
 21
-118.8450166132
 31
0.0
  0
LINE
  5
57
100
AcDbEntity
  8
L1_150
  6
CONTINUOUS
 62
         4
100
AcDbLine
 10
1700.3962089122
 20
-115.6450166132
 30
0.0
 11
1719.3012089122
 21
-96.7400166132
 31
0.0
  0
LINE
  5
58
100
AcDbEntity
  8
L1_150
  6
CONTINUOUS
 62
         4
100
AcDbLine
 10
1655.0585682251
 20
-156.7400166132
 30
0.0
 11
1674.6622267616
 21
-137.1363580766
 31
0.0
  0
LINE
  5
59
100
AcDbEntity
  8
L1_150
  6
CONTINUOUS
 62
         4
100
AcDbLine
 10
1696.1535682251
 20
-115.6450166132
 30
0.0
 11
1715.058568225
 21
-96.7400166132
 31
0.0
  0
LINE
  5
5A
100
AcDbEntity
  8
L1_150
  6
CONTINUOUS
 62
         4
100
AcDbLine
 10
1650.8159275379
 20
-156.7400166132
 30
0.0
 11
1670.4195860745
 21
-137.1363580766
 31
0.0
  0
LINE
  5
5B
100
AcDbEntity
  8
L1_150
  6
CONTINUOUS
 62
         4
100
AcDbLine
 10
1691.9109275379
 20
-115.6450166132
 30
0.0
 11
1710.8159275379
 21
-96.7400166132
 31
0.0
  0
LINE
  5
5C
100
AcDbEntity
  8
L1_150
  6
CONTINUOUS
 62
         4
100
AcDbLine
 10
1646.5732868508
 20
-156.7400166132
 30
0.0
 11
1666.1769453874
 21
-137.1363580766
 31
0.0
  0
LINE
  5
5D
100
AcDbEntity
  8
L1_150
  6
CONTINUOUS
 62
         4
100
AcDbLine
 10
1686.9696283142
 20
-116.3436751498
 30
0.0
 11
1706.5732868508
 21
-96.7400166132
 31
0.0
  0
LINE
  5
5E
100
AcDbEntity
  8
L1_150
  6
CONTINUOUS
 62
         4
100
AcDbLine
 10
1642.3306461637
 20
-156.7400166132
 30
0.0
 11
1661.9343047003
 21
-137.1363580766
 31
0.0
  0
LINE
  5
5F
100
AcDbEntity
  8
L1_150
  6
CONTINUOUS
 62
         4
100
AcDbLine
 10
1682.7269876271
 20
-116.3436751498
 30
0.0
 11
1702.3306461637
 21
-96.7400166132
 31
0.0
  0
LINE
  5
60
100
AcDbEntity
  8
L1_150
  6
CONTINUOUS
 62
         4
100
AcDbLine
 10
1638.0880054766
 20
-156.7400166132
 30
0.0
 11
1657.6916640132
 21
-137.1363580766
 31
0.0
  0
LINE
  5
61
100
AcDbEntity
  8
L1_150
  6
CONTINUOUS
 62
         4
100
AcDbLine
 10
1678.48434694
 20
-116.3436751498
 30
0.0
 11
1698.0880054766
 21
-96.7400166132
 31
0.0
  0
LINE
  5
62
100
AcDbEntity
  8
L1_150
  6
CONTINUOUS
 62
         4
100
AcDbLine
 10
1633.8453647895
 20
-156.7400166132
 30
0.0
 11
1653.449023326
 21
-137.1363580766
 31
0.0
  0
LINE
  5
63
100
AcDbEntity
  8
L1_150
  6
CONTINUOUS
 62
         4
100
AcDbLine
 10
1674.2417062529
 20
-116.3436751498
 30
0.0
 11
1693.8453647895
 21
-96.7400166132
 31
0.0
  0
LINE
  5
64
100
AcDbEntity
  8
L1_150
  6
CONTINUOUS
 62
         4
100
AcDbLine
 10
1629.6027241023
 20
-156.7400166132
 30
0.0
 11
1649.2063826389
 21
-137.1363580766
 31
0.0
  0
LINE
  5
65
100
AcDbEntity
  8
L1_150
  6
CONTINUOUS
 62
         4
100
AcDbLine
 10
1669.9990655657
 20
-116.3436751498
 30
0.0
 11
1689.6027241023
 21
-96.7400166132
 31
0.0
  0
LINE
  5
66
100
AcDbEntity
  8
L1_150
  6
CONTINUOUS
 62
         4
100
AcDbLine
 10
1625.3600834152
 20
-156.7400166132
 30
0.0
 11
1644.9637419518
 21
-137.1363580766
 31
0.0
  0
LINE
  5
67
100
AcDbEntity
  8
L1_150
  6
CONTINUOUS
 62
         4
100
AcDbLine
 10
1665.7564248786
 20
-116.3436751498
 30
0.0
 11
1685.3600834152
 21
-96.7400166132
 31
0.0
  0
LINE
  5
68
100
AcDbEntity
  8
L1_150
  6
CONTINUOUS
 62
         4
100
AcDbLine
 10
1621.1174427281
 20
-156.7400166132
 30
0.0
 11
1640.7211012647
 21
-137.1363580766
 31
0.0
  0
LINE
  5
69
100
AcDbEntity
  8
L1_150
  6
CONTINUOUS
 62
         4
100
AcDbLine
 10
1661.5137841915
 20
-116.3436751498
 30
0.0
 11
1681.1174427281
 21
-96.7400166132
 31
0.0
  0
LINE
  5
6A
100
AcDbEntity
  8
L1_150
  6
CONTINUOUS
 62
         4
100
AcDbLine
 10
1616.874802041
 20
-156.7400166132
 30
0.0
 11
1636.4784605776
 21
-137.1363580766
 31
0.0
  0
LINE
  5
6B
100
AcDbEntity
  8
L1_150
  6
CONTINUOUS
 62
         4
100
AcDbLine
 10
1657.2711435044
 20
-116.3436751498
 30
0.0
 11
1676.874802041
 21
-96.7400166132
 31
0.0
  0
LINE
  5
6C
100
AcDbEntity
  8
L1_150
  6
CONTINUOUS
 62
         4
100
AcDbLine
 10
1612.6321613539
 20
-156.7400166132
 30
0.0
 11
1632.2358198904
 21
-137.1363580766
 31
0.0
  0
LINE
  5
6D
100
AcDbEntity
  8
L1_150
  6
CONTINUOUS
 62
         4
100
AcDbLine
 10
1653.0285028173
 20
-116.3436751498
 30
0.0
 11
1672.6321613539
 21
-96.7400166132
 31
0.0
  0
LINE
  5
6E
100
AcDbEntity
  8
L1_150
  6
CONTINUOUS
 62
         4
100
AcDbLine
 10
1608.3895206667
 20
-156.7400166132
 30
0.0
 11
1627.9931792033
 21
-137.1363580766
 31
0.0
  0
LINE
  5
6F
100
AcDbEntity
  8
L1_150
  6
CONTINUOUS
 62
         4
100
AcDbLine
 10
1648.7858621302
 20
-116.3436751498
 30
0.0
 11
1668.3895206667
 21
-96.7400166132
 31
0.0
  0
LINE
  5
70
100
AcDbEntity
  8
L1_150
  6
CONTINUOUS
 62
         4
100
AcDbLine
 10
1604.1468799796
 20
-156.7400166132
 30
0.0
 11
1623.7505385162
 21
-137.1363580766
 31
0.0
  0
LINE
  5
71
100
AcDbEntity
  8
L1_150
  6
CONTINUOUS
 62
         4
100
AcDbLine
 10
1644.543221443
 20
-116.3436751498
 30
0.0
 11
1664.1468799796
 21
-96.7400166132
 31
0.0
  0
LINE
  5
72
100
AcDbEntity
  8
L1_150
  6
CONTINUOUS
 62
         4
100
AcDbLine
 10
1599.9042392925
 20
-156.7400166132
 30
0.0
 11
1619.5078978291
 21
-137.1363580766
 31
0.0
  0
LINE
  5
73
100
AcDbEntity
  8
L1_150
  6
CONTINUOUS
 62
         4
100
AcDbLine
 10
1640.3005807559
 20
-116.3436751498
 30
0.0
 11
1659.9042392925
 21
-96.7400166132
 31
0.0
  0
LINE
  5
74
100
AcDbEntity
  8
L1_150
  6
CONTINUOUS
 62
         4
100
AcDbLine
 10
1595.6615986054
 20
-156.7400166132
 30
0.0
 11
1615.265257142
 21
-137.1363580766
 31
0.0
  0
LINE
  5
75
100
AcDbEntity
  8
L1_150
  6
CONTINUOUS
 62
         4
100
AcDbLine
 10
1636.0579400688
 20
-116.3436751498
 30
0.0
 11
1655.6615986054
 21
-96.7400166132
 31
0.0
  0
LINE
  5
76
100
AcDbEntity
  8
L1_150
  6
CONTINUOUS
 62
         4
100
AcDbLine
 10
1591.4189579183
 20
-156.7400166132
 30
0.0
 11
1611.0226164548
 21
-137.1363580766
 31
0.0
  0
LINE
  5
77
100
AcDbEntity
  8
L1_150
  6
CONTINUOUS
 62
         4
100
AcDbLine
 10
1631.8152993817
 20
-116.3436751498
 30
0.0
 11
1651.4189579183
 21
-96.7400166132
 31
0.0
  0
LINE
  5
78
100
AcDbEntity
  8
L1_150
  6
CONTINUOUS
 62
         4
100
AcDbLine
 10
1587.1763172311
 20
-156.7400166132
 30
0.0
 11
1606.7799757677
 21
-137.1363580766
 31
0.0
  0
LINE
  5
79
100
AcDbEntity
  8
L1_150
  6
CONTINUOUS
 62
         4
100
AcDbLine
 10
1627.5726586946
 20
-116.3436751498
 30
0.0
 11
1647.1763172311
 21
-96.7400166132
 31
0.0
  0
LINE
  5
7A
100
AcDbEntity
  8
L1_150
  6
CONTINUOUS
 62
         4
100
AcDbLine
 10
1582.933676544
 20
-156.7400166132
 30
0.0
 11
1602.5373350806
 21
-137.1363580766
 31
0.0
  0
LINE
  5
7B
100
AcDbEntity
  8
L1_150
  6
CONTINUOUS
 62
         4
100
AcDbLine
 10
1623.3300180074
 20
-116.3436751498
 30
0.0
 11
1642.933676544
 21
-96.7400166132
 31
0.0
  0
LINE
  5
7C
100
AcDbEntity
  8
L1_150
  6
CONTINUOUS
 62
         4
100
AcDbLine
 10
1578.6910358569
 20
-156.7400166132
 30
0.0
 11
1598.2946943935
 21
-137.1363580766
 31
0.0
  0
LINE
  5
7D
100
AcDbEntity
  8
L1_150
  6
CONTINUOUS
 62
         4
100
AcDbLine
 10
1619.0873773203
 20
-116.3436751498
 30
0.0
 11
1638.6910358569
 21
-96.7400166132
 31
0.0
  0
LINE
  5
7E
100
AcDbEntity
  8
L1_150
  6
CONTINUOUS
 62
         4
100
AcDbLine
 10
1574.4483951698
 20
-156.7400166132
 30
0.0
 11
1594.0520537064
 21
-137.1363580766
 31
0.0
  0
LINE
  5
7F
100
AcDbEntity
  8
L1_150
  6
CONTINUOUS
 62
         4
100
AcDbLine
 10
1614.8447366332
 20
-116.3436751498
 30
0.0
 11
1634.4483951698
 21
-96.7400166132
 31
0.0
  0
LINE
  5
80
100
AcDbEntity
  8
L1_150
  6
CONTINUOUS
 62
         4
100
AcDbLine
 10
1570.2057544827
 20
-156.7400166132
 30
0.0
 11
1589.8094130193
 21
-137.1363580766
 31
0.0
  0
LINE
  5
81
100
AcDbEntity
  8
L1_150
  6
CONTINUOUS
 62
         4
100
AcDbLine
 10
1610.6020959461
 20
-116.3436751498
 30
0.0
 11
1630.2057544827
 21
-96.7400166132
 31
0.0
  0
LINE
  5
82
100
AcDbEntity
  8
L1_150
  6
CONTINUOUS
 62
         4
100
AcDbLine
 10
1565.9631137956
 20
-156.7400166132
 30
0.0
 11
1585.5667723321
 21
-137.1363580766
 31
0.0
  0
LINE
  5
83
100
AcDbEntity
  8
L1_150
  6
CONTINUOUS
 62
         4
100
AcDbLine
 10
1606.359455259
 20
-116.3436751498
 30
0.0
 11
1625.9631137955
 21
-96.7400166132
 31
0.0
  0
LINE
  5
84
100
AcDbEntity
  8
L1_150
  6
CONTINUOUS
 62
         4
100
AcDbLine
 10
1556.7954731084
 20
-161.6650166132
 30
0.0
 11
1558.8306999334
 21
-159.6297897882
 31
0.0
  0
LINE
  5
85
100
AcDbEntity
  8
L1_150
  6
CONTINUOUS
 62
         4
100
AcDbLine
 10
1561.7204731084
 20
-156.7400166132
 30
0.0
 11
1581.324131645
 21
-137.1363580766
 31
0.0
  0
LINE
  5
86
100
AcDbEntity
  8
L1_150
  6
CONTINUOUS
 62
         4
100
AcDbLine
 10
1602.1168145718
 20
-116.3436751498
 30
0.0
 11
1621.7204731084
 21
-96.7400166132
 31
0.0
  0
LINE
  5
87
100
AcDbEntity
  8
L1_150
  6
CONTINUOUS
 62
         4
100
AcDbLine
 10
1538.7278324213
 20
-175.4900166132
 30
0.0
 11
1542.8786999334
 21
-171.3391491011
 31
0.0
  0
LINE
  5
88
100
AcDbEntity
  8
L1_150
  6
CONTINUOUS
 62
         4
100
AcDbLine
 10
1552.5528324213
 20
-161.6650166132
 30
0.0
 11
1577.0814909579
 21
-137.1363580766
 31
0.0
  0
LINE
  5
89
100
AcDbEntity
  8
L1_150
  6
CONTINUOUS
 62
         4
100
AcDbLine
 10
1597.8741738847
 20
-116.3436751498
 30
0.0
 11
1617.4778324213
 21
-96.7400166132
 31
0.0
  0
LINE
  5
8A
100
AcDbEntity
  8
L1_150
  6
CONTINUOUS
 62
         4
100
AcDbLine
 10
1536.9765715341
 20
-172.9986368133
 30
0.0
 11
1542.8786999334
 21
-167.096508414
 31
0.0
  0
LINE
  5
8B
100
AcDbEntity
  8
L1_150
  6
CONTINUOUS
 62
         4
100
AcDbLine
 10
1548.3101917342
 20
-161.6650166132
 30
0.0
 11
1572.8388502708
 21
-137.1363580766
 31
0.0
  0
LINE
  5
8C
100
AcDbEntity
  8
L1_150
  6
CONTINUOUS
 62
         4
100
AcDbLine
 10
1593.6315331976
 20
-116.3436751498
 30
0.0
 11
1613.2351917342
 21
-96.7400166132
 31
0.0
  0
LINE
  5
8D
100
AcDbEntity
  8
L1_150
  6
CONTINUOUS
 62
         4
100
AcDbLine
 10
1530.2425510471
 20
-175.4900166132
 30
0.0
 11
1532.8448914897
 21
-172.8876761706
 31
0.0
  0
LINE
  5
8E
100
AcDbEntity
  8
L1_150
  6
CONTINUOUS
 62
         4
100
AcDbLine
 10
1533.3621706473
 20
-172.370397013
 30
0.0
 11
1542.8786999334
 21
-162.8538677269
 31
0.0
  0
LINE
  5
8F
100
AcDbEntity
  8
L1_150
  6
CONTINUOUS
 62
         4
100
AcDbLine
 10
1544.0675510471
 20
-161.6650166132
 30
0.0
 11
1568.5962095837
 21
-137.1363580766
 31
0.0
  0
LINE
  5
90
100
AcDbEntity
  8
L1_150
  6
CONTINUOUS
 62
         4
100
AcDbLine
 10
1589.3888925105
 20
-116.3436751498
 30
0.0
 11
1608.9925510471
 21
-96.7400166132
 31
0.0
  0
LINE
  5
91
100
AcDbEntity
  8
L1_150
  6
CONTINUOUS
 62
         4
100
AcDbLine
 10
1527.0482989072
 20
-174.441628066
 30
0.0
 11
1564.3535688965
 21
-137.1363580766
 31
0.0
  0
LINE
  5
92
100
AcDbEntity
  8
L1_150
  6
CONTINUOUS
 62
         4
100
AcDbLine
 10
1585.1462518234
 20
-116.3436751498
 30
0.0
 11
1604.74991036
 21
-96.7400166132
 31
0.0
  0
LINE
  5
93
100
AcDbEntity
  8
L1_150
  6
CONTINUOUS
 62
         4
100
AcDbLine
 10
1526.9786999334
 20
-170.2685863526
 30
0.0
 11
1560.1109282094
 21
-137.1363580766
 31
0.0
  0
LINE
  5
94
100
AcDbEntity
  8
L1_150
  6
CONTINUOUS
 62
         4
100
AcDbLine
 10
1580.9036111362
 20
-116.3436751498
 30
0.0
 11
1600.5072696728
 21
-96.7400166132
 31
0.0
  0
LINE
  5
95
100
AcDbEntity
  8
L1_150
  6
CONTINUOUS
 62
         4
100
AcDbLine
 10
1526.9786999334
 20
-166.0259456655
 30
0.0
 11
1555.8682875223
 21
-137.1363580766
 31
0.0
  0
LINE
  5
96
100
AcDbEntity
  8
L1_150
  6
CONTINUOUS
 62
         4
100
AcDbLine
 10
1576.6609704491
 20
-116.3436751498
 30
0.0
 11
1596.2646289857
 21
-96.7400166132
 31
0.0
  0
LINE
  5
97
100
AcDbEntity
  8
L1_150
  6
CONTINUOUS
 62
         4
100
AcDbLine
 10
1526.9786999334
 20
-161.7833049784
 30
0.0
 11
1551.6256468352
 21
-137.1363580766
 31
0.0
  0
LINE
  5
98
100
AcDbEntity
  8
L1_150
  6
CONTINUOUS
 62
         4
100
AcDbLine
 10
1572.418329762
 20
-116.3436751498
 30
0.0
 11
1592.0219882986
 21
-96.7400166132
 31
0.0
  0
LINE
  5
99
100
AcDbEntity
  8
L1_150
  6
CONTINUOUS
 62
         4
100
AcDbLine
 10
1522.9719934191
 20
-161.5473708056
 30
0.0
 11
1547.3830061481
 21
-137.1363580766
 31
0.0
  0
LINE
  5
9A
100
AcDbEntity
  8
L1_150
  6
CONTINUOUS
 62
         4
100
AcDbLine
 10
1568.1756890749
 20
-116.3436751498
 30
0.0
 11
1587.7793476115
 21
-96.7400166132
 31
0.0
  0
LINE
  5
9B
100
AcDbEntity
  8
L1_150
  6
CONTINUOUS
 62
         4
100
AcDbLine
 10
1519.2693296199
 20
-161.0073939177
 30
0.0
 11
1543.1403654609
 21
-137.1363580766
 31
0.0
  0
LINE
  5
9C
100
AcDbEntity
  8
L1_150
  6
CONTINUOUS
 62
         4
100
AcDbLine
 10
1563.9330483878
 20
-116.3436751498
 30
0.0
 11
1583.5367069244
 21
-96.7400166132
 31
0.0
  0
LINE
  5
9D
100
AcDbEntity
  8
L1_150
  6
CONTINUOUS
 62
         4
100
AcDbLine
 10
1515.5666658207
 20
-160.4674170298
 30
0.0
 11
1538.8977247738
 21
-137.1363580766
 31
0.0
  0
LINE
  5
9E
100
AcDbEntity
  8
L1_150
  6
CONTINUOUS
 62
         4
100
AcDbLine
 10
1559.6904077007
 20
-116.3436751498
 30
0.0
 11
1579.2940662372
 21
-96.7400166132
 31
0.0
  0
LINE
  5
9F
100
AcDbEntity
  8
L1_150
  6
CONTINUOUS
 62
         4
100
AcDbLine
 10
1511.8640020214
 20
-159.9274401419
 30
0.0
 11
1534.6550840867
 21
-137.1363580766
 31
0.0
  0
LINE
  5
A0
100
AcDbEntity
  8
L1_150
  6
CONTINUOUS
 62
         4
100
AcDbLine
 10
1555.4477670135
 20
-116.3436751498
 30
0.0
 11
1575.0514255501
 21
-96.7400166132
 31
0.0
  0
LINE
  5
A1
100
AcDbEntity
  8
L1_150
  6
CONTINUOUS
 62
         4
100
AcDbLine
 10
1508.1613382222
 20
-159.387463254
 30
0.0
 11
1530.4124433996
 21
-137.1363580766
 31
0.0
  0
LINE
  5
A2
100
AcDbEntity
  8
L1_150
  6
CONTINUOUS
 62
         4
100
AcDbLine
 10
1551.2051263264
 20
-116.3436751498
 30
0.0
 11
1570.808784863
 21
-96.7400166132
 31
0.0
  0
LINE
  5
A3
100
AcDbEntity
  8
L1_150
  6
CONTINUOUS
 62
         4
100
AcDbLine
 10
1504.458674423
 20
-158.8474863661
 30
0.0
 11
1526.1698027125
 21
-137.1363580766
 31
0.0
  0
LINE
  5
A4
100
AcDbEntity
  8
L1_150
  6
CONTINUOUS
 62
         4
100
AcDbLine
 10
1546.9624856393
 20
-116.3436751498
 30
0.0
 11
1566.5661441759
 21
-96.7400166132
 31
0.0
  0
LINE
  5
A5
100
AcDbEntity
  8
L1_150
  6
CONTINUOUS
 62
         4
100
AcDbLine
 10
1500.7560106238
 20
-158.3075094782
 30
0.0
 11
1521.9271620253
 21
-137.1363580766
 31
0.0
  0
LINE
  5
A6
100
AcDbEntity
  8
L1_150
  6
CONTINUOUS
 62
         4
100
AcDbLine
 10
1542.7198449522
 20
-116.3436751498
 30
0.0
 11
1562.3235034888
 21
-96.7400166132
 31
0.0
  0
LINE
  5
A7
100
AcDbEntity
  8
L1_150
  6
CONTINUOUS
 62
         4
100
AcDbLine
 10
1497.0533468245
 20
-157.7675325903
 30
0.0
 11
1517.6845213382
 21
-137.1363580766
 31
0.0
  0
LINE
  5
A8
100
AcDbEntity
  8
L1_150
  6
CONTINUOUS
 62
         4
100
AcDbLine
 10
1538.4772042651
 20
-116.3436751498
 30
0.0
 11
1558.8306999334
 21
-95.9901794814
 31
0.0
  0
LINE
  5
A9
100
AcDbEntity
  8
L1_150
  6
CONTINUOUS
 62
         4
100
AcDbLine
 10
1493.3506830253
 20
-157.2275557024
 30
0.0
 11
1513.4418806511
 21
-137.1363580766
 31
0.0
  0
LINE
  5
AA
100
AcDbEntity
  8
L1_150
  6
CONTINUOUS
 62
         4
100
AcDbLine
 10
1536.5286999334
 20
-114.0495387943
 30
0.0
 11
1558.5616394156
 21
-92.0165993121
 31
0.0
  0
LINE
  5
AB
100
AcDbEntity
  8
L1_150
  6
CONTINUOUS
 62
         4
100
AcDbLine
 10
1489.6480192261
 20
-156.6875788145
 30
0.0
 11
1509.199239964
 21
-137.1363580766
 31
0.0
  0
LINE
  5
AC
100
AcDbEntity
  8
L1_150
  6
CONTINUOUS
 62
         4
100
AcDbLine
 10
1529.9919228908
 20
-116.3436751498
 30
0.0
 11
1533.2286999334
 21
-113.1068981072
 31
0.0
  0
LINE
  5
AD
100
AcDbEntity
  8
L1_150
  6
CONTINUOUS
 62
         4
100
AcDbLine
 10
1536.5286999334
 20
-109.8068981072
 30
0.0
 11
1554.5205814274
 21
-91.8150166132
 31
0.0
  0
LINE
  5
AE
100
AcDbEntity
  8
L1_150
  6
CONTINUOUS
 62
         4
100
AcDbLine
 10
1485.9453554269
 20
-156.1476019266
 30
0.0
 11
1504.9565992769
 21
-137.1363580766
 31
0.0
  0
LINE
  5
AF
100
AcDbEntity
  8
L1_150
  6
CONTINUOUS
 62
         4
100
AcDbLine
 10
1525.7492822037
 20
-116.3436751498
 30
0.0
 11
1533.2286999334
 21
-108.8642574201
 31
0.0
  0
LINE
  5
B0
100
AcDbEntity
  8
L1_150
  6
CONTINUOUS
 62
         4
100
AcDbLine
 10
1536.5286999334
 20
-105.5642574201
 30
0.0
 11
1550.2779407403
 21
-91.8150166132
 31
0.0
  0
LINE
  5
B1
100
AcDbEntity
  8
L1_150
  6
CONTINUOUS
 62
         4
100
AcDbLine
 10
1482.2426916276
 20
-155.6076250387
 30
0.0
 11
1500.7139585898
 21
-137.1363580766
 31
0.0
  0
LINE
  5
B2
100
AcDbEntity
  8
L1_150
  6
CONTINUOUS
 62
         4
100
AcDbLine
 10
1521.5066415166
 20
-116.3436751498
 30
0.0
 11
1533.2286999334
 21
-104.621616733
 31
0.0
  0
LINE
  5
B3
100
AcDbEntity
  8
L1_150
  6
CONTINUOUS
 62
         4
100
AcDbLine
 10
1536.5286999334
 20
-101.321616733
 30
0.0
 11
1546.0353000532
 21
-91.8150166132
 31
0.0
  0
LINE
  5
B4
100
AcDbEntity
  8
L1_150
  6
CONTINUOUS
 62
         4
100
AcDbLine
 10
1478.5400278284
 20
-155.0676481508
 30
0.0
 11
1496.4713179026
 21
-137.1363580766
 31
0.0
  0
LINE
  5
B5
100
AcDbEntity
  8
L1_150
  6
CONTINUOUS
 62
         4
100
AcDbLine
 10
1517.2640008295
 20
-116.3436751498
 30
0.0
 11
1533.2286999334
 21
-100.3789760458
 31
0.0
  0
LINE
  5
B6
100
AcDbEntity
  8
L1_150
  6
CONTINUOUS
 62
         4
100
AcDbLine
 10
1536.5286999334
 20
-97.0789760458
 30
0.0
 11
1542.8786999334
 21
-90.7289760458
 31
0.0
  0
LINE
  5
B7
100
AcDbEntity
  8
L1_150
  6
CONTINUOUS
 62
         4
100
AcDbLine
 10
1474.8373640292
 20
-154.5276712629
 30
0.0
 11
1492.2286772155
 21
-137.1363580766
 31
0.0
  0
LINE
  5
B8
100
AcDbEntity
  8
L1_150
  6
CONTINUOUS
 62
         4
100
AcDbLine
 10
1513.0213601423
 20
-116.3436751498
 30
0.0
 11
1533.2286999334
 21
-96.1363353587
 31
0.0
  0
LINE
  5
B9
100
AcDbEntity
  8
L1_150
  6
CONTINUOUS
 62
         4
100
AcDbLine
 10
1539.1526579663
 20
-90.2123773258
 30
0.0
 11
1542.8786999334
 21
-86.4863353587
 31
0.0
  0
LINE
  5
BA
100
AcDbEntity
  8
L1_150
  6
CONTINUOUS
 62
         4
100
AcDbLine
 10
1471.13470023
 20
-153.987694375
 30
0.0
 11
1487.9860365284
 21
-137.1363580766
 31
0.0
  0
LINE
  5
BB
100
AcDbEntity
  8
L1_150
  6
CONTINUOUS
 62
         4
100
AcDbLine
 10
1508.7787194552
 20
-116.3436751498
 30
0.0
 11
1533.0672163962
 21
-92.0551782088
 31
0.0
  0
LINE
  5
BC
100
AcDbEntity
  8
L1_150
  6
CONTINUOUS
 62
         4
100
AcDbLine
 10
1536.6572916115
 20
-88.4651029935
 30
0.0
 11
1542.8786999334
 21
-82.2436946716
 31
0.0
  0
LINE
  5
BD
100
AcDbEntity
  8
L1_150
  6
CONTINUOUS
 62
         4
100
AcDbLine
 10
1467.4320364307
 20
-153.4477174871
 30
0.0
 11
1483.7433958413
 21
-137.1363580766
 31
0.0
  0
LINE
  5
BE
100
AcDbEntity
  8
L1_150
  6
CONTINUOUS
 62
         4
100
AcDbLine
 10
1504.5360787681
 20
-116.3436751498
 30
0.0
 11
1530.5718500413
 21
-90.3079038766
 31
0.0
  0
LINE
  5
BF
100
AcDbEntity
  8
L1_150
  6
CONTINUOUS
 62
         4
100
AcDbLine
 10
1536.8786999334
 20
-84.0010539845
 30
0.0
 11
1542.4448644337
 21
-78.4348894842
 31
0.0
  0
LINE
  5
C0
100
AcDbEntity
  8
L1_150
  6
CONTINUOUS
 62
         4
100
AcDbLine
 10
1463.7293726315
 20
-152.9077405993
 30
0.0
 11
1479.5007551542
 21
-137.1363580766
 31
0.0
  0
LINE
  5
C1
100
AcDbEntity
  8
L1_150
  6
CONTINUOUS
 62
         4
100
AcDbLine
 10
1500.293438081
 20
-116.3436751498
 30
0.0
 11
1524.6088460555
 21
-92.0282671753
 31
0.0
  0
LINE
  5
C2
100
AcDbEntity
  8
L1_150
  6
CONTINUOUS
 62
         4
100
AcDbLine
 10
1526.9786999334
 20
-89.6584132974
 30
0.0
 11
1528.0764836865
 21
-88.5606295443
 31
0.0
  0
LINE
  5
C3
100
AcDbEntity
  8
L1_150
  6
CONTINUOUS
 62
         4
100
AcDbLine
 10
1531.6665589018
 20
-84.970554329
 30
0.0
 11
1532.8786999334
 21
-83.7584132974
 31
0.0
  0
LINE
  5
C4
100
AcDbEntity
  8
L1_150
  6
CONTINUOUS
 62
         4
100
AcDbLine
 10
1538.0978799295
 20
-78.5392333013
 30
0.0
 11
1538.6470966176
 21
-77.9900166132
 31
0.0
  0
LINE
  5
C5
100
AcDbEntity
  8
L1_150
  6
CONTINUOUS
 62
         4
100
AcDbLine
 10
1460.0267088323
 20
-152.3677637114
 30
0.0
 11
1475.258114467
 21
-137.1363580766
 31
0.0
  0
LINE
  5
C6
100
AcDbEntity
  8
L1_150
  6
CONTINUOUS
 62
         4
100
AcDbLine
 10
1496.0507973939
 20
-116.3436751498
 30
0.0
 11
1520.0332375191
 21
-92.3612350246
 31
0.0
  0
LINE
  5
C7
100
AcDbEntity
  8
L1_150
  6
CONTINUOUS
 62
         4
100
AcDbLine
 10
1529.5661008206
 20
-82.8283717231
 30
0.0
 11
1532.4632089825
 21
-79.9312635611
 31
0.0
  0
LINE
  5
C8
100
AcDbEntity
  8
L1_150
  6
CONTINUOUS
 62
         4
100
AcDbLine
 10
1456.3240450331
 20
-151.8277868235
 30
0.0
 11
1471.0154737799
 21
-137.1363580766
 31
0.0
  0
LINE
  5
C9
100
AcDbEntity
  8
L1_150
  6
CONTINUOUS
 62
         4
100
AcDbLine
 10
1491.8081567067
 20
-116.3436751498
 30
0.0
 11
1515.0662355598
 21
-93.0855962968
 31
0.0
  0
LINE
  5
CA
100
AcDbEntity
  8
L1_150
  6
CONTINUOUS
 62
         4
100
AcDbLine
 10
1527.0707344657
 20
-81.0810973908
 30
0.0
 11
1530.1618152433
 21
-77.9900166132
 31
0.0
  0
LINE
  5
CB
100
AcDbEntity
  8
L1_150
  6
CONTINUOUS
 62
         4
100
AcDbLine
 10
1452.6213812338
 20
-151.2878099356
 30
0.0
 11
1466.7728330928
 21
-137.1363580766
 31
0.0
  0
LINE
  5
CC
100
AcDbEntity
  8
L1_150
  6
CONTINUOUS
 62
         4
100
AcDbLine
 10
1487.5655160196
 20
-116.3436751498
 30
0.0
 11
1510.0992336004
 21
-93.809957569
 31
0.0
  0
LINE
  5
CD
100
AcDbEntity
  8
L1_150
  6
CONTINUOUS
 62
         4
100
AcDbLine
 10
1448.9187174346
 20
-150.7478330477
 30
0.0
 11
1462.5301924057
 21
-137.1363580766
 31
0.0
  0
LINE
  5
CE
100
AcDbEntity
  8
L1_150
  6
CONTINUOUS
 62
         4
100
AcDbLine
 10
1483.3228753325
 20
-116.3436751498
 30
0.0
 11
1505.1322316411
 21
-94.5343188412
 31
0.0
  0
LINE
  5
CF
100
AcDbEntity
  8
L1_150
  6
CONTINUOUS
 62
         4
100
AcDbLine
 10
1445.2160536354
 20
-150.2078561598
 30
0.0
 11
1458.2875517186
 21
-137.1363580766
 31
0.0
  0
LINE
  5
D0
100
AcDbEntity
  8
L1_150
  6
CONTINUOUS
 62
         4
100
AcDbLine
 10
1479.0802346454
 20
-116.3436751498
 30
0.0
 11
1500.1652296818
 21
-95.2586801134
 31
0.0
  0
LINE
  5
D1
100
AcDbEntity
  8
L1_150
  6
CONTINUOUS
 62
         4
100
AcDbLine
 10
1441.5133898362
 20
-149.6678792719
 30
0.0
 11
1454.0449110314
 21
-137.1363580766
 31
0.0
  0
LINE
  5
D2
100
AcDbEntity
  8
L1_150
  6
CONTINUOUS
 62
         4
100
AcDbLine
 10
1474.8375939583
 20
-116.3436751498
 30
0.0
 11
1495.1982277225
 21
-95.9830413856
 31
0.0
  0
LINE
  5
D3
100
AcDbEntity
  8
L1_150
  6
CONTINUOUS
 62
         4
100
AcDbLine
 10
1437.8107260369
 20
-149.127902384
 30
0.0
 11
1449.8022703443
 21
-137.1363580766
 31
0.0
  0
LINE
  5
D4
100
AcDbEntity
  8
L1_150
  6
CONTINUOUS
 62
         4
100
AcDbLine
 10
1470.5949532711
 20
-116.3436751498
 30
0.0
 11
1490.2312257631
 21
-96.7074026578
 31
0.0
  0
LINE
  5
D5
100
AcDbEntity
  8
L1_150
  6
CONTINUOUS
 62
         4
100
AcDbLine
 10
1434.1080622377
 20
-148.5879254961
 30
0.0
 11
1445.5596296572
 21
-137.1363580766
 31
0.0
  0
LINE
  5
D6
100
AcDbEntity
  8
L1_150
  6
CONTINUOUS
 62
         4
100
AcDbLine
 10
1466.352312584
 20
-116.3436751498
 30
0.0
 11
1485.2642238038
 21
-97.43176393
 31
0.0
  0
LINE
  5
D7
100
AcDbEntity
  8
L1_150
  6
CONTINUOUS
 62
         4
100
AcDbLine
 10
1430.4053984385
 20
-148.0479486082
 30
0.0
 11
1441.3169889701
 21
-137.1363580766
 31
0.0
  0
LINE
  5
D8
100
AcDbEntity
  8
L1_150
  6
CONTINUOUS
 62
         4
100
AcDbLine
 10
1462.1096718969
 20
-116.3436751498
 30
0.0
 11
1480.2972218445
 21
-98.1561252022
 31
0.0
  0
LINE
  5
D9
100
AcDbEntity
  8
L1_150
  6
CONTINUOUS
 62
         4
100
AcDbLine
 10
1426.7027346393
 20
-147.5079717203
 30
0.0
 11
1437.074348283
 21
-137.1363580766
 31
0.0
  0
LINE
  5
DA
100
AcDbEntity
  8
L1_150
  6
CONTINUOUS
 62
         4
100
AcDbLine
 10
1457.8670312098
 20
-116.3436751498
 30
0.0
 11
1475.3302198851
 21
-98.8804864744
 31
0.0
  0
LINE
  5
DB
100
AcDbEntity
  8
L1_150
  6
CONTINUOUS
 62
         4
100
AcDbLine
 10
1423.2383416019
 20
-146.7297240705
 30
0.0
 11
1432.8317075958
 21
-137.1363580766
 31
0.0
  0
LINE
  5
DC
100
AcDbEntity
  8
L1_150
  6
CONTINUOUS
 62
         4
100
AcDbLine
 10
1453.6243905227
 20
-116.3436751498
 30
0.0
 11
1470.3632179258
 21
-99.6048477466
 31
0.0
  0
LINE
  5
DD
100
AcDbEntity
  8
L1_150
  6
CONTINUOUS
 62
         4
100
AcDbLine
 10
1422.1786999334
 20
-143.5467250519
 30
0.0
 11
1426.4628582257
 21
-139.2625667597
 31
0.0
  0
LINE
  5
DE
100
AcDbEntity
  8
L1_150
  6
CONTINUOUS
 62
         4
100
AcDbLine
 10
1449.3817498356
 20
-116.3436751498
 30
0.0
 11
1465.3962159665
 21
-100.3292090188
 31
0.0
  0
LINE
  5
DF
100
AcDbEntity
  8
L1_150
  6
CONTINUOUS
 62
         4
100
AcDbLine
 10
1445.1391091484
 20
-116.3436751498
 30
0.0
 11
1460.4292140072
 21
-101.0535702911
 31
0.0
  0
LINE
  5
E0
100
AcDbEntity
  8
L1_150
  6
CONTINUOUS
 62
         4
100
AcDbLine
 10
1440.8964684613
 20
-116.3436751498
 30
0.0
 11
1455.4622120478
 21
-101.7779315633
 31
0.0
  0
LINE
  5
E1
100
AcDbEntity
  8
L1_150
  6
CONTINUOUS
 62
         4
100
AcDbLine
 10
1436.6538277742
 20
-116.3436751498
 30
0.0
 11
1450.4952100885
 21
-102.5022928355
 31
0.0
  0
LINE
  5
E2
100
AcDbEntity
  8
L1_150
  6
CONTINUOUS
 62
         4
100
AcDbLine
 10
1432.4111870871
 20
-116.3436751498
 30
0.0
 11
1445.5282081292
 21
-103.2266541077
 31
0.0
  0
LINE
  5
E3
100
AcDbEntity
  8
L1_150
  6
CONTINUOUS
 62
         4
100
AcDbLine
 10
1429.3082951474
 20
-115.2039264023
 30
0.0
 11
1440.5612061699
 21
-103.9510153799
 31
0.0
  0
LINE
  5
E4
100
AcDbEntity
  8
L1_150
  6
CONTINUOUS
 62
         4
100
AcDbLine
 10
1426.0295642494
 20
-114.2400166132
 30
0.0
 11
1435.5942042105
 21
-104.6753766521
 31
0.0
  0
LINE
  5
E5
100
AcDbEntity
  8
L1_150
  6
CONTINUOUS
 62
         4
100
AcDbLine
 10
1422.3540631789
 20
-113.6728769966
 30
0.0
 11
1430.6272022512
 21
-105.3997379243
 31
0.0
  0
LINE
  5
E6
100
AcDbEntity
  8
L1_150
  6
CONTINUOUS
 62
         4
100
AcDbLine
 10
1422.1786999334
 20
-109.605599555
 30
0.0
 11
1425.6602002919
 21
-106.1240991965
 31
0.0
  0
ENDBLK
  5
E7
100
AcDbEntity
  8
0
  6
CONTINUOUS
100
AcDbBlockEnd
  0
BLOCK
  5
10C
100
AcDbEntity
  8
0
100
AcDbBlockBegin
  2
*D1
 70
        65
 10
0.0
 20
0.0
 30
0.0
  3
*D1
  1

  0
POINT
  5
10F
100
AcDbEntity
  8
DEFPOINTS
  6
CONTINUOUS
 62
         0
100
AcDbPoint
 10
1864.1654488803
 20
-136.4666243149
 30
0.0
  0
POINT
  5
110
100
AcDbEntity
  8
DEFPOINTS
  6
CONTINUOUS
 62
         0
100
AcDbPoint
 10
1842.540540492
 20
-136.4666243149
 30
0.0
  0
POINT
  5
111
100
AcDbEntity
  8
DEFPOINTS
  6
CONTINUOUS
 62
         0
100
AcDbPoint
 10
1842.540540492
 20
-147.4666243149
 30
0.0
  0
LINE
  5
112
100
AcDbEntity
  8
L1_150
  6
CONTINUOUS
 62
         4
100
AcDbLine
 10
1844.290540492
 20
-136.4666243149
 30
0.0
 11
1865.0404488803
 21
-136.4666243149
 31
0.0
  0
LINE
  5
113
100
AcDbEntity
  8
L1_150
  6
CONTINUOUS
 62
         4
100
AcDbLine
 10
1844.290540492
 20
-147.4666243149
 30
0.0
 11
1865.0404488803
 21
-147.4666243149
 31
0.0
  0
LINE
  5
114
100
AcDbEntity
  8
L1_150
  6
CONTINUOUS
 62
         4
100
AcDbLine
 10
1864.1654488803
 20
-136.4666243149
 30
0.0
 11
1864.1654488803
 21
-147.4666243149
 31
0.0
  0
SOLID
  5
115
100
AcDbEntity
  8
L1_150
  6
CONTINUOUS
 62
         4
100
AcDbTrace
 10
1864.1654488803
 20
-136.4666243149
 30
0.0
 11
1864.6904488803
 21
-139.9666243149
 31
0.0
 12
1863.6404488803
 22
-139.9666243149
 32
0.0
 13
1864.1654488803
 23
-136.4666243149
 33
0.0
  0
SOLID
  5
116
100
AcDbEntity
  8
L1_150
  6
CONTINUOUS
 62
         4
100
AcDbTrace
 10
1864.1654488803
 20
-147.4666243149
 30
0.0
 11
1863.6404488803
 21
-143.9666243149
 31
0.0
 12
1864.6904488803
 22
-143.9666243149
 32
0.0
 13
1864.1654488803
 23
-147.4666243149
 33
0.0
  0
TEXT
  5
118
100
AcDbEntity
  8
L1_150
  6
CONTINUOUS
 62
         4
100
AcDbText
 10
1861.5404488803
 20
-145.40108219
 30
0.0
 40
3.5
  1
11
 50
90.0
  7
BOX
100
AcDbText
  0
ENDBLK
  5
119
100
AcDbEntity
  8
0
  6
CONTINUOUS
100
AcDbBlockEnd
  0
BLOCK
  5
121
100
AcDbEntity
  8
0
100
AcDbBlockBegin
  2
*D2
 70
        65
 10
0.0
 20
0.0
 30
0.0
  3
*D2
  1

  0
POINT
  5
123
100
AcDbEntity
  8
DEFPOINTS
  6
CONTINUOUS
 62
         0
100
AcDbPoint
 10
1854.6429689155
 20
-147.4666243149
 30
0.0
  0
POINT
  5
124
100
AcDbEntity
  8
DEFPOINTS
  6
CONTINUOUS
 62
         0
100
AcDbPoint
 10
1842.540540492
 20
-147.4666243149
 30
0.0
  0
POINT
  5
125
100
AcDbEntity
  8
DEFPOINTS
  6
CONTINUOUS
 62
         0
100
AcDbPoint
 10
1842.540540492
 20
-142.4666243149
 30
0.0
  0
LINE
  5
126
100
AcDbEntity
  8
L1_150
  6
CONTINUOUS
 62
         4
100
AcDbLine
 10
1844.290540492
 20
-147.4666243149
 30
0.0
 11
1855.5179689155
 21
-147.4666243149
 31
0.0
  0
LINE
  5
127
100
AcDbEntity
  8
L1_150
  6
CONTINUOUS
 62
         4
100
AcDbLine
 10
1844.290540492
 20
-142.4666243149
 30
0.0
 11
1855.5179689155
 21
-142.4666243149
 31
0.0
  0
LINE
  5
128
100
AcDbEntity
  8
L1_150
  6
CONTINUOUS
 62
         4
100
AcDbLine
 10
1854.6429689155
 20
-147.4666243149
 30
0.0
 11
1854.6429689155
 21
-154.4666243149
 31
0.0
  0
SOLID
  5
129
100
AcDbEntity
  8
L1_150
  6
CONTINUOUS
 62
         4
100
AcDbTrace
 10
1854.6429689155
 20
-147.4666243149
 30
0.0
 11
1855.1679689155
 21
-150.9666243149
 31
0.0
 12
1854.1179689155
 22
-150.9666243149
 32
0.0
 13
1854.6429689155
 23
-147.4666243149
 33
0.0
  0
LINE
  5
12A
100
AcDbEntity
  8
L1_150
  6
CONTINUOUS
 62
         4
100
AcDbLine
 10
1854.6429689155
 20
-142.4666243149
 30
0.0
 11
1854.6429689155
 21
-135.4666243149
 31
0.0
  0
SOLID
  5
12B
100
AcDbEntity
  8
L1_150
  6
CONTINUOUS
 62
         4
100
AcDbTrace
 10
1854.6429689155
 20
-142.4666243149
 30
0.0
 11
1854.1179689155
 21
-138.9666243149
 31
0.0
 12
1855.1679689155
 22
-138.9666243149
 32
0.0
 13
1854.6429689155
 23
-142.4666243149
 33
0.0
  0
LINE
  5
12C
100
AcDbEntity
  8
L1_150
  6
CONTINUOUS
 62
         4
100
AcDbLine
 10
1854.6429689155
 20
-147.4666243149
 30
0.0
 11
1854.6429689155
 21
-142.4666243149
 31
0.0
  0
TEXT
  5
12E
100
AcDbEntity
  8
L1_150
  6
CONTINUOUS
 62
         4
100
AcDbText
 10
1852.0179689155
 20
-146.7166243149
 30
0.0
 40
3.5
  1
5
 50
90.0
  7
BOX
100
AcDbText
  0
ENDBLK
  5
12F
100
AcDbEntity
  8
0
  6
CONTINUOUS
100
AcDbBlockEnd
  0
BLOCK
  5
14B
100
AcDbEntity
  8
0
100
AcDbBlockBegin
  2
*D3
 70
        65
 10
0.0
 20
0.0
 30
0.0
  3
*D3
  1

  0
POINT
  5
14D
100
AcDbEntity
  8
DEFPOINTS
  6
CONTINUOUS
 62
         0
100
AcDbPoint
 10
1826.6849233924
 20
-156.9711872832
 30
0.0
  0
POINT
  5
14E
100
AcDbEntity
  8
DEFPOINTS
  6
CONTINUOUS
 62
         0
100
AcDbPoint
 10
1826.6849233924
 20
-146.4666243149
 30
0.0
  0
POINT
  5
14F
100
AcDbEntity
  8
DEFPOINTS
  6
CONTINUOUS
 62
         0
100
AcDbPoint
 10
1817.4849233924
 20
-146.6666243149
 30
0.0
  0
LINE
  5
150
100
AcDbEntity
  8
L1_150
  6
CONTINUOUS
 62
         4
100
AcDbLine
 10
1826.6849233924
 20
-148.2166243149
 30
0.0
 11
1826.6849233924
 21
-157.8461872832
 31
0.0
  0
LINE
  5
151
100
AcDbEntity
  8
L1_150
  6
CONTINUOUS
 62
         4
100
AcDbLine
 10
1817.4849233924
 20
-148.4166243149
 30
0.0
 11
1817.4849233924
 21
-157.8461872832
 31
0.0
  0
LINE
  5
152
100
AcDbEntity
  8
L1_150
  6
CONTINUOUS
 62
         4
100
AcDbLine
 10
1826.6849233924
 20
-156.9711872832
 30
0.0
 11
1817.4849233924
 21
-156.9711872832
 31
0.0
  0
SOLID
  5
153
100
AcDbEntity
  8
L1_150
  6
CONTINUOUS
 62
         4
100
AcDbTrace
 10
1826.6849233924
 20
-156.9711872832
 30
0.0
 11
1823.1849233924
 21
-157.4961872832
 31
0.0
 12
1823.1849233924
 22
-156.4461872832
 32
0.0
 13
1826.6849233924
 23
-156.9711872832
 33
0.0
  0
LINE
  5
154
100
AcDbEntity
  8
L1_150
  6
CONTINUOUS
 62
         4
100
AcDbLine
 10
1826.6849233924
 20
-156.9711872832
 30
0.0
 11
1841.0238508626
 21
-156.9711872832
 31
0.0
  0
SOLID
  5
155
100
AcDbEntity
  8
L1_150
  6
CONTINUOUS
 62
         4
100
AcDbTrace
 10
1817.4849233924
 20
-156.9711872832
 30
0.0
 11
1820.9849233924
 21
-156.4461872832
 31
0.0
 12
1820.9849233924
 22
-157.4961872832
 32
0.0
 13
1817.4849233924
 23
-156.9711872832
 33
0.0
  0
TEXT
  5
157
100
AcDbEntity
  8
L1_150
  6
CONTINUOUS
 62
         4
100
AcDbText
 10
1828.7738508626
 20
-154.3461872832
 30
0.0
 40
3.5
  1
9.2
  7
BOX
100
AcDbText
  0
ENDBLK
  5
158
100
AcDbEntity
  8
0
  6
CONTINUOUS
100
AcDbBlockEnd
  0
BLOCK
  5
15A
100
AcDbEntity
  8
0
100
AcDbBlockBegin
  2
*D4
 70
        65
 10
0.0
 20
0.0
 30
0.0
  3
*D4
  1

  0
POINT
  5
15C
100
AcDbEntity
  8
DEFPOINTS
  6
CONTINUOUS
 62
         0
100
AcDbPoint
 10
1822.0849233924
 20
-130.4178229138
 30
0.0
  0
POINT
  5
15D
100
AcDbEntity
  8
DEFPOINTS
  6
CONTINUOUS
 62
         0
100
AcDbPoint
 10
1822.0849233924
 20
-137.2666243149
 30
0.0
  0
POINT
  5
15E
100
AcDbEntity
  8
DEFPOINTS
  6
CONTINUOUS
 62
         0
100
AcDbPoint
 10
1826.4849233924
 20
-136.7666243149
 30
0.0
  0
LINE
  5
15F
100
AcDbEntity
  8
L1_150
  6
CONTINUOUS
 62
         4
100
AcDbLine
 10
1822.0849233924
 20
-135.5166243149
 30
0.0
 11
1822.0849233924
 21
-129.5428229138
 31
0.0
  0
LINE
  5
160
100
AcDbEntity
  8
L1_150
  6
CONTINUOUS
 62
         4
100
AcDbLine
 10
1826.4849233924
 20
-135.0166243149
 30
0.0
 11
1826.4849233924
 21
-129.5428229138
 31
0.0
  0
LINE
  5
161
100
AcDbEntity
  8
L1_150
  6
CONTINUOUS
 62
         4
100
AcDbLine
 10
1822.0849233924
 20
-130.4178229138
 30
0.0
 11
1815.0849233924
 21
-130.4178229138
 31
0.0
  0
SOLID
  5
162
100
AcDbEntity
  8
L1_150
  6
CONTINUOUS
 62
         4
100
AcDbTrace
 10
1822.0849233924
 20
-130.4178229138
 30
0.0
 11
1818.5849233924
 21
-130.9428229138
 31
0.0
 12
1818.5849233924
 22
-129.8928229138
 32
0.0
 13
1822.0849233924
 23
-130.4178229138
 33
0.0
  0
LINE
  5
163
100
AcDbEntity
  8
L1_150
  6
CONTINUOUS
 62
         4
100
AcDbLine
 10
1826.4849233924
 20
-130.4178229138
 30
0.0
 11
1833.4849233924
 21
-130.4178229138
 31
0.0
  0
SOLID
  5
164
100
AcDbEntity
  8
L1_150
  6
CONTINUOUS
 62
         4
100
AcDbTrace
 10
1826.4849233924
 20
-130.4178229138
 30
0.0
 11
1829.9849233924
 21
-129.8928229138
 31
0.0
 12
1829.9849233924
 22
-130.9428229138
 32
0.0
 13
1826.4849233924
 23
-130.4178229138
 33
0.0
  0
LINE
  5
165
100
AcDbEntity
  8
L1_150
  6
CONTINUOUS
 62
         4
100
AcDbLine
 10
1822.0849233924
 20
-130.4178229138
 30
0.0
 11
1826.4849233924
 21
-130.4178229138
 31
0.0
  0
TEXT
  5
167
100
AcDbEntity
  8
L1_150
  6
CONTINUOUS
 62
         4
100
AcDbText
 10
1819.2343088485
 20
-127.7928229138
 30
0.0
 40
3.5
  1
4.4
  7
BOX
100
AcDbText
  0
ENDBLK
  5
168
100
AcDbEntity
  8
0
  6
CONTINUOUS
100
AcDbBlockEnd
  0
BLOCK
  5
16A
100
AcDbEntity
  8
0
100
AcDbBlockBegin
  2
*D5
 70
        65
 10
0.0
 20
0.0
 30
0.0
  3
*D5
  1

  0
POINT
  5
16C
100
AcDbEntity
  8
DEFPOINTS
  6
CONTINUOUS
 62
         0
100
AcDbPoint
 10
1814.1074397544
 20
-140.2166243149
 30
0.0
  0
POINT
  5
16D
100
AcDbEntity
  8
DEFPOINTS
  6
CONTINUOUS
 62
         0
100
AcDbPoint
 10
1817.9849233924
 20
-140.2166243149
 30
0.0
  0
POINT
  5
16E
100
AcDbEntity
  8
DEFPOINTS
  6
CONTINUOUS
 62
         0
100
AcDbPoint
 10
1817.9849233924
 20
-144.7166243149
 30
0.0
  0
LINE
  5
16F
100
AcDbEntity
  8
L1_150
  6
CONTINUOUS
 62
         4
100
AcDbLine
 10
1816.2349233924
 20
-140.2166243149
 30
0.0
 11
1813.2324397544
 21
-140.2166243149
 31
0.0
  0
LINE
  5
170
100
AcDbEntity
  8
L1_150
  6
CONTINUOUS
 62
         4
100
AcDbLine
 10
1816.2349233924
 20
-144.7166243149
 30
0.0
 11
1813.2324397544
 21
-144.7166243149
 31
0.0
  0
LINE
  5
171
100
AcDbEntity
  8
L1_150
  6
CONTINUOUS
 62
         4
100
AcDbLine
 10
1814.1074397544
 20
-140.2166243149
 30
0.0
 11
1814.1074397544
 21
-133.2166243149
 31
0.0
  0
SOLID
  5
172
100
AcDbEntity
  8
L1_150
  6
CONTINUOUS
 62
         4
100
AcDbTrace
 10
1814.1074397544
 20
-140.2166243149
 30
0.0
 11
1813.5824397544
 21
-136.7166243149
 31
0.0
 12
1814.6324397544
 22
-136.7166243149
 32
0.0
 13
1814.1074397544
 23
-140.2166243149
 33
0.0
  0
LINE
  5
173
100
AcDbEntity
  8
L1_150
  6
CONTINUOUS
 62
         4
100
AcDbLine
 10
1814.1074397544
 20
-144.7166243149
 30
0.0
 11
1814.1074397544
 21
-167.8905447388
 31
0.0
  0
SOLID
  5
174
100
AcDbEntity
  8
L1_150
  6
CONTINUOUS
 62
         4
100
AcDbTrace
 10
1814.1074397544
 20
-144.7166243149
 30
0.0
 11
1814.6324397544
 21
-148.2166243149
 31
0.0
 12
1813.5824397544
 22
-148.2166243149
 32
0.0
 13
1814.1074397544
 23
-144.7166243149
 33
0.0
  0
LINE
  5
175
100
AcDbEntity
  8
L1_150
  6
CONTINUOUS
 62
         4
100
AcDbLine
 10
1814.1074397544
 20
-140.2166243149
 30
0.0
 11
1814.1074397544
 21
-144.7166243149
 31
0.0
  0
TEXT
  5
177
100
AcDbEntity
  8
L1_150
  6
CONTINUOUS
 62
         4
100
AcDbText
 10
1811.4824397544
 20
-166.1405447388
 30
0.0
 40
3.5
  1
崷4.5
 50
90.0
  7
BOX
100
AcDbText
  0
ENDBLK
  5
178
100
AcDbEntity
  8
0
  6
CONTINUOUS
100
AcDbBlockEnd
  0
BLOCK
  5
17A
100
AcDbEntity
  8
0
100
AcDbBlockBegin
  2
*D6
 70
        65
 10
0.0
 20
0.0
 30
0.0
  3
*D6
  1

  0
POINT
  5
17C
100
AcDbEntity
  8
DEFPOINTS
  6
CONTINUOUS
 62
         0
100
AcDbPoint
 10
1804.5678977402
 20
-138.4666243149
 30
0.0
  0
POINT
  5
17D
100
AcDbEntity
  8
DEFPOINTS
  6
CONTINUOUS
 62
         0
100
AcDbPoint
 10
1822.0849233924
 20
-138.4666243149
 30
0.0
  0
POINT
  5
17E
100
AcDbEntity
  8
DEFPOINTS
  6
CONTINUOUS
 62
         0
100
AcDbPoint
 10
1822.0849233924
 20
-146.4666243149
 30
0.0
  0
LINE
  5
17F
100
AcDbEntity
  8
L1_150
  6
CONTINUOUS
 62
         4
100
AcDbLine
 10
1820.3349233924
 20
-138.4666243149
 30
0.0
 11
1803.6928977402
 21
-138.4666243149
 31
0.0
  0
LINE
  5
180
100
AcDbEntity
  8
L1_150
  6
CONTINUOUS
 62
         4
100
AcDbLine
 10
1820.3349233924
 20
-146.4666243149
 30
0.0
 11
1803.6928977402
 21
-146.4666243149
 31
0.0
  0
LINE
  5
181
100
AcDbEntity
  8
L1_150
  6
CONTINUOUS
 62
         4
100
AcDbLine
 10
1804.5678977402
 20
-138.4666243149
 30
0.0
 11
1804.5678977402
 21
-131.4666243149
 31
0.0
  0
SOLID
  5
182
100
AcDbEntity
  8
L1_150
  6
CONTINUOUS
 62
         4
100
AcDbTrace
 10
1804.5678977402
 20
-138.4666243149
 30
0.0
 11
1804.0428977402
 21
-134.9666243149
 31
0.0
 12
1805.0928977402
 22
-134.9666243149
 32
0.0
 13
1804.5678977402
 23
-138.4666243149
 33
0.0
  0
LINE
  5
183
100
AcDbEntity
  8
L1_150
  6
CONTINUOUS
 62
         4
100
AcDbLine
 10
1804.5678977402
 20
-146.4666243149
 30
0.0
 11
1804.5678977402
 21
-153.4666243149
 31
0.0
  0
SOLID
  5
184
100
AcDbEntity
  8
L1_150
  6
CONTINUOUS
 62
         4
100
AcDbTrace
 10
1804.5678977402
 20
-146.4666243149
 30
0.0
 11
1805.0928977402
 21
-149.9666243149
 31
0.0
 12
1804.0428977402
 22
-149.9666243149
 32
0.0
 13
1804.5678977402
 23
-146.4666243149
 33
0.0
  0
LINE
  5
185
100
AcDbEntity
  8
L1_150
  6
CONTINUOUS
 62
         4
100
AcDbLine
 10
1804.5678977402
 20
-138.4666243149
 30
0.0
 11
1804.5678977402
 21
-146.4666243149
 31
0.0
  0
TEXT
  5
187
100
AcDbEntity
  8
L1_150
  6
CONTINUOUS
 62
         4
100
AcDbText
 10
1801.9428977402
 20
-147.2432813718
 30
0.0
 40
3.5
  1
崷8
 50
90.0
  7
BOX
100
AcDbText
  0
ENDBLK
  5
188
100
AcDbEntity
  8
0
  6
CONTINUOUS
100
AcDbBlockEnd
  0
BLOCK
  5
18A
100
AcDbEntity
  8
0
100
AcDbBlockBegin
  2
*D7
 70
        65
 10
0.0
 20
0.0
 30
0.0
  3
*D7
  1

  0
POINT
  5
18C
100
AcDbEntity
  8
DEFPOINTS
  6
CONTINUOUS
 62
         0
100
AcDbPoint
 10
1837.840540492
 20
-131.432013914
 30
0.0
  0
POINT
  5
18D
100
AcDbEntity
  8
DEFPOINTS
  6
CONTINUOUS
 62
         0
100
AcDbPoint
 10
1837.840540492
 20
-136.8666243149
 30
0.0
  0
POINT
  5
18E
100
AcDbEntity
  8
DEFPOINTS
  6
CONTINUOUS
 62
         0
100
AcDbPoint
 10
1847.240540492
 20
-136.8666243149
 30
0.0
  0
LINE
  5
18F
100
AcDbEntity
  8
L1_150
  6
CONTINUOUS
 62
         4
100
AcDbLine
 10
1837.840540492
 20
-135.1166243149
 30
0.0
 11
1837.840540492
 21
-130.557013914
 31
0.0
  0
LINE
  5
190
100
AcDbEntity
  8
L1_150
  6
CONTINUOUS
 62
         4
100
AcDbLine
 10
1847.240540492
 20
-135.1166243149
 30
0.0
 11
1847.240540492
 21
-130.557013914
 31
0.0
  0
LINE
  5
191
100
AcDbEntity
  8
L1_150
  6
CONTINUOUS
 62
         4
100
AcDbLine
 10
1837.840540492
 20
-131.432013914
 30
0.0
 11
1847.240540492
 21
-131.432013914
 31
0.0
  0
SOLID
  5
192
100
AcDbEntity
  8
L1_150
  6
CONTINUOUS
 62
         4
100
AcDbTrace
 10
1837.840540492
 20
-131.432013914
 30
0.0
 11
1841.340540492
 21
-130.907013914
 31
0.0
 12
1841.340540492
 22
-131.957013914
 32
0.0
 13
1837.840540492
 23
-131.432013914
 33
0.0
  0
SOLID
  5
193
100
AcDbEntity
  8
L1_150
  6
CONTINUOUS
 62
         4
100
AcDbTrace
 10
1847.240540492
 20
-131.432013914
 30
0.0
 11
1843.740540492
 21
-131.957013914
 31
0.0
 12
1843.740540492
 22
-130.907013914
 32
0.0
 13
1847.240540492
 23
-131.432013914
 33
0.0
  0
TEXT
  5
195
100
AcDbEntity
  8
L1_150
  6
CONTINUOUS
 62
         4
100
AcDbText
 10
1837.1332433493
 20
-128.807013914
 30
0.0
 40
3.5
  1
9.4
  7
BOX
100
AcDbText
  0
ENDBLK
  5
196
100
AcDbEntity
  8
0
  6
CONTINUOUS
100
AcDbBlockEnd
  0
BLOCK
  5
198
100
AcDbEntity
  8
0
100
AcDbBlockBegin
  2
*X8
 70
        65
 10
0.0
 20
0.0
 30
0.0
  3
*X8
  1

  0
LINE
  5
199
100
AcDbEntity
  8
L1_150
  6
CONTINUOUS
 62
         4
100
AcDbLine
 10
1823.0828480664
 20
-147.4666243149
 30
0.0
 11
1824.0828480664
 21
-146.4666243149
 31
0.0
  0
LINE
  5
19A
100
AcDbEntity
  8
L1_150
  6
CONTINUOUS
 62
         4
100
AcDbLine
 10
1820.2544209416
 20
-147.4666243149
 30
0.0
 11
1822.0849233924
 21
-145.6361218642
 31
0.0
  0
LINE
  5
19B
100
AcDbEntity
  8
L1_150
  6
CONTINUOUS
 62
         4
100
AcDbLine
 10
1817.8554586046
 20
-147.0371595272
 30
0.0
 11
1820.1759938169
 21
-144.7166243149
 31
0.0
  0
ENDBLK
  5
19C
100
AcDbEntity
  8
0
  6
CONTINUOUS
100
AcDbBlockEnd
  0
BLOCK
  5
1A0
100
AcDbEntity
  8
0
100
AcDbBlockBegin
  2
*X9
 70
        65
 10
0.0
 20
0.0
 30
0.0
  3
*X9
  1

  0
LINE
  5
1A1
100
AcDbEntity
  8
L1_150
  6
CONTINUOUS
 62
         4
100
AcDbLine
 10
1820.4333531298
 20
-140.2166243149
 30
0.0
 11
1822.0849233924
 21
-138.5650540523
 31
0.0
  0
LINE
  5
1A2
100
AcDbEntity
  8
L1_150
  6
CONTINUOUS
 62
         4
100
AcDbLine
 10
1822.1833531298
 20
-138.4666243149
 30
0.0
 11
1824.1833531298
 21
-136.4666243149
 31
0.0
  0
LINE
  5
1A3
100
AcDbEntity
  8
L1_150
  6
CONTINUOUS
 62
         4
100
AcDbLine
 10
1817.4849233924
 20
-138.9224133652
 30
0.0
 11
1819.9407124427
 21
-136.4666243149
 31
0.0
  0
ENDBLK
  5
1A4
100
AcDbEntity
  8
0
  6
CONTINUOUS
100
AcDbBlockEnd
  0
BLOCK
  5
1AA
100
AcDbEntity
  8
0
100
AcDbBlockBegin
  2
*D10
 70
        65
 10
0.0
 20
0.0
 30
0.0
  3
*D10
  1

  0
POINT
  5
1AC
100
AcDbEntity
  8
DEFPOINTS
  6
CONTINUOUS
 62
         0
100
AcDbPoint
 10
1741.2786999334
 20
-92.28463846
 30
0.0
  0
POINT
  5
1AD
100
AcDbEntity
  8
DEFPOINTS
  6
CONTINUOUS
 62
         0
100
AcDbPoint
 10
1741.2786999334
 20
-114.6400166132
 30
0.0
  0
POINT
  5
1AE
100
AcDbEntity
  8
DEFPOINTS
  6
CONTINUOUS
 62
         0
100
AcDbPoint
 10
1705.2786999334
 20
-120.3900166132
 30
0.0
  0
LINE
  5
1AF
100
AcDbEntity
  8
L1_150
  6
CONTINUOUS
 62
         4
100
AcDbLine
 10
1741.2786999334
 20
-112.8900166132
 30
0.0
 11
1741.2786999334
 21
-91.40963846
 31
0.0
  0
LINE
  5
1B0
100
AcDbEntity
  8
L1_150
  6
CONTINUOUS
 62
         4
100
AcDbLine
 10
1705.2786999334
 20
-118.6400166132
 30
0.0
 11
1705.2786999334
 21
-91.40963846
 31
0.0
  0
LINE
  5
1B1
100
AcDbEntity
  8
L1_150
  6
CONTINUOUS
 62
         4
100
AcDbLine
 10
1741.2786999334
 20
-92.28463846
 30
0.0
 11
1705.2786999334
 21
-92.28463846
 31
0.0
  0
SOLID
  5
1B2
100
AcDbEntity
  8
L1_150
  6
CONTINUOUS
 62
         4
100
AcDbTrace
 10
1741.2786999334
 20
-92.28463846
 30
0.0
 11
1737.7786999334
 21
-92.80963846
 31
0.0
 12
1737.7786999334
 22
-91.75963846
 32
0.0
 13
1741.2786999334
 23
-92.28463846
 33
0.0
  0
SOLID
  5
1B3
100
AcDbEntity
  8
L1_150
  6
CONTINUOUS
 62
         4
100
AcDbTrace
 10
1705.2786999334
 20
-92.28463846
 30
0.0
 11
1708.7786999334
 21
-91.75963846
 31
0.0
 12
1708.7786999334
 22
-92.80963846
 32
0.0
 13
1705.2786999334
 23
-92.28463846
 33
0.0
  0
TEXT
  5
1B5
100
AcDbEntity
  8
L1_150
  6
CONTINUOUS
 62
         4
100
AcDbText
 10
1717.3065000415
 20
-89.65963846
 30
0.0
 40
3.5
  1
36
  7
BOX
100
AcDbText
  0
ENDBLK
  5
1B6
100
AcDbEntity
  8
0
  6
CONTINUOUS
100
AcDbBlockEnd
  0
BLOCK
  5
1B8
100
AcDbEntity
  8
0
100
AcDbBlockBegin
  2
*D11
 70
        65
 10
0.0
 20
0.0
 30
0.0
  3
*D11
  1

  0
POINT
  5
1BA
100
AcDbEntity
  8
DEFPOINTS
  6
CONTINUOUS
 62
         0
100
AcDbPoint
 10
1741.2786999334
 20
-107.5745884144
 30
0.0
  0
POINT
  5
1BB
100
AcDbEntity
  8
DEFPOINTS
  6
CONTINUOUS
 62
         0
100
AcDbPoint
 10
1741.2786999334
 20
-114.6400166132
 30
0.0
  0
POINT
  5
1BC
100
AcDbEntity
  8
DEFPOINTS
  6
CONTINUOUS
 62
         0
100
AcDbPoint
 10
1736.2786999334
 20
-118.7400166132
 30
0.0
  0
LINE
  5
1BD
100
AcDbEntity
  8
L1_150
  6
CONTINUOUS
 62
         4
100
AcDbLine
 10
1741.2786999334
 20
-112.8900166132
 30
0.0
 11
1741.2786999334
 21
-106.6995884144
 31
0.0
  0
LINE
  5
1BE
100
AcDbEntity
  8
L1_150
  6
CONTINUOUS
 62
         4
100
AcDbLine
 10
1736.2786999334
 20
-116.9900166132
 30
0.0
 11
1736.2786999334
 21
-106.6995884144
 31
0.0
  0
LINE
  5
1BF
100
AcDbEntity
  8
L1_150
  6
CONTINUOUS
 62
         4
100
AcDbLine
 10
1741.2786999334
 20
-107.5745884144
 30
0.0
 11
1748.2786999334
 21
-107.5745884144
 31
0.0
  0
SOLID
  5
1C0
100
AcDbEntity
  8
L1_150
  6
CONTINUOUS
 62
         4
100
AcDbTrace
 10
1741.2786999334
 20
-107.5745884144
 30
0.0
 11
1744.7786999334
 21
-107.0495884144
 31
0.0
 12
1744.7786999334
 22
-108.0995884144
 32
0.0
 13
1741.2786999334
 23
-107.5745884144
 33
0.0
  0
LINE
  5
1C1
100
AcDbEntity
  8
L1_150
  6
CONTINUOUS
 62
         4
100
AcDbLine
 10
1736.2786999334
 20
-107.5745884144
 30
0.0
 11
1729.2786999334
 21
-107.5745884144
 31
0.0
  0
SOLID
  5
1C2
100
AcDbEntity
  8
L1_150
  6
CONTINUOUS
 62
         4
100
AcDbTrace
 10
1736.2786999334
 20
-107.5745884144
 30
0.0
 11
1732.7786999334
 21
-108.0995884144
 31
0.0
 12
1732.7786999334
 22
-107.0495884144
 32
0.0
 13
1736.2786999334
 23
-107.5745884144
 33
0.0
  0
LINE
  5
1C3
100
AcDbEntity
  8
L1_150
  6
CONTINUOUS
 62
         4
100
AcDbLine
 10
1741.2786999334
 20
-107.5745884144
 30
0.0
 11
1736.2786999334
 21
-107.5745884144
 31
0.0
  0
TEXT
  5
1C5
100
AcDbEntity
  8
L1_150
  6
CONTINUOUS
 62
         4
100
AcDbText
 10
1737.4044399869
 20
-104.9495884144
 30
0.0
 40
3.5
  1
5
  7
BOX
100
AcDbText
  0
ENDBLK
  5
1C6
100
AcDbEntity
  8
0
  6
CONTINUOUS
100
AcDbBlockEnd
  0
BLOCK
  5
1CC
100
AcDbEntity
  8
0
100
AcDbBlockBegin
  2
*D12
 70
        65
 10
0.0
 20
0.0
 30
0.0
  3
*D12
  1

  0
POINT
  5
1CE
100
AcDbEntity
  8
DEFPOINTS
  6
CONTINUOUS
 62
         0
100
AcDbPoint
 10
1719.2786999334
 20
-185.9672034819
 30
0.0
  0
POINT
  5
1CF
100
AcDbEntity
  8
DEFPOINTS
  6
CONTINUOUS
 62
         0
100
AcDbPoint
 10
1719.2786999334
 20
-157.5000166132
 30
0.0
  0
POINT
  5
1D0
100
AcDbEntity
  8
DEFPOINTS
  6
CONTINUOUS
 62
         0
100
AcDbPoint
 10
1723.7786999334
 20
-156.1400166132
 30
0.0
  0
LINE
  5
1D1
100
AcDbEntity
  8
L1_150
  6
CONTINUOUS
 62
         4
100
AcDbLine
 10
1719.2786999334
 20
-159.2500166132
 30
0.0
 11
1719.2786999334
 21
-186.8422034819
 31
0.0
  0
LINE
  5
1D2
100
AcDbEntity
  8
L1_150
  6
CONTINUOUS
 62
         4
100
AcDbLine
 10
1723.7786999334
 20
-157.8900166132
 30
0.0
 11
1723.7786999334
 21
-186.8422034819
 31
0.0
  0
LINE
  5
1D3
100
AcDbEntity
  8
L1_150
  6
CONTINUOUS
 62
         4
100
AcDbLine
 10
1719.2786999334
 20
-185.9672034819
 30
0.0
 11
1712.2786999334
 21
-185.9672034819
 31
0.0
  0
SOLID
  5
1D4
100
AcDbEntity
  8
L1_150
  6
CONTINUOUS
 62
         4
100
AcDbTrace
 10
1719.2786999334
 20
-185.9672034819
 30
0.0
 11
1715.7786999334
 21
-186.4922034819
 31
0.0
 12
1715.7786999334
 22
-185.4422034819
 32
0.0
 13
1719.2786999334
 23
-185.9672034819
 33
0.0
  0
LINE
  5
1D5
100
AcDbEntity
  8
L1_150
  6
CONTINUOUS
 62
         4
100
AcDbLine
 10
1723.7786999334
 20
-185.9672034819
 30
0.0
 11
1736.4378193978
 21
-185.9672034819
 31
0.0
  0
SOLID
  5
1D6
100
AcDbEntity
  8
L1_150
  6
CONTINUOUS
 62
         4
100
AcDbTrace
 10
1723.7786999334
 20
-185.9672034819
 30
0.0
 11
1727.2786999334
 21
-185.4422034819
 31
0.0
 12
1727.2786999334
 22
-186.4922034819
 32
0.0
 13
1723.7786999334
 23
-185.9672034819
 33
0.0
  0
LINE
  5
1D7
100
AcDbEntity
  8
L1_150
  6
CONTINUOUS
 62
         4
100
AcDbLine
 10
1719.2786999334
 20
-185.9672034819
 30
0.0
 11
1723.7786999334
 21
-185.9672034819
 31
0.0
  0
TEXT
  5
1D9
100
AcDbEntity
  8
L1_150
  6
CONTINUOUS
 62
         4
100
AcDbText
 10
1724.1878193978
 20
-183.3422034819
 30
0.0
 40
3.5
  1
4.5
  7
BOX
100
AcDbText
  0
ENDBLK
  5
1DA
100
AcDbEntity
  8
0
  6
CONTINUOUS
100
AcDbBlockEnd
  0
BLOCK
  5
208
100
AcDbEntity
  8
0
100
AcDbBlockBegin
  2
*D13
 70
        65
 10
0.0
 20
0.0
 30
0.0
  3
*D13
  1

  0
POINT
  5
20A
100
AcDbEntity
  8
DEFPOINTS
  6
CONTINUOUS
 62
         0
100
AcDbPoint
 10
1765.6059374252
 20
-120.3900166132
 30
0.0
  0
POINT
  5
20B
100
AcDbEntity
  8
DEFPOINTS
  6
CONTINUOUS
 62
         0
100
AcDbPoint
 10
1734.74872172
 20
-120.3900166132
 30
0.0
  0
POINT
  5
20C
100
AcDbEntity
  8
DEFPOINTS
  6
CONTINUOUS
 62
         0
100
AcDbPoint
 10
1734.74872172
 20
-133.0900166132
 30
0.0
  0
LINE
  5
20D
100
AcDbEntity
  8
L1_150
  6
CONTINUOUS
 62
         4
100
AcDbLine
 10
1736.49872172
 20
-120.3900166132
 30
0.0
 11
1766.4809374252
 21
-120.3900166132
 31
0.0
  0
LINE
  5
20E
100
AcDbEntity
  8
L1_150
  6
CONTINUOUS
 62
         4
100
AcDbLine
 10
1736.49872172
 20
-133.0900166132
 30
0.0
 11
1766.4809374252
 21
-133.0900166132
 31
0.0
  0
LINE
  5
20F
100
AcDbEntity
  8
L1_150
  6
CONTINUOUS
 62
         4
100
AcDbLine
 10
1765.6059374252
 20
-120.3900166132
 30
0.0
 11
1765.6059374252
 21
-133.0900166132
 31
0.0
  0
SOLID
  5
210
100
AcDbEntity
  8
L1_150
  6
CONTINUOUS
 62
         4
100
AcDbTrace
 10
1765.6059374252
 20
-120.3900166132
 30
0.0
 11
1766.1309374252
 21
-123.8900166132
 31
0.0
 12
1765.0809374252
 22
-123.8900166132
 32
0.0
 13
1765.6059374252
 23
-120.3900166132
 33
0.0
  0
LINE
  5
211
100
AcDbEntity
  8
L1_150
  6
CONTINUOUS
 62
         4
100
AcDbLine
 10
1765.6059374252
 20
-133.0900166132
 30
0.0
 11
1765.6059374252
 21
-187.8293973314
 31
0.0
  0
SOLID
  5
212
100
AcDbEntity
  8
L1_150
  6
CONTINUOUS
 62
         4
100
AcDbTrace
 10
1765.6059374252
 20
-133.0900166132
 30
0.0
 11
1765.0809374252
 21
-129.5900166132
 31
0.0
 12
1766.1309374252
 22
-129.5900166132
 32
0.0
 13
1765.6059374252
 23
-133.0900166132
 33
0.0
  0
TEXT
  5
214
100
AcDbEntity
  8
L1_150
  6
CONTINUOUS
 62
         4
100
AcDbText
 10
1762.9809374252
 20
-186.0793973314
 30
0.0
 40
3.5
  1
1/2"-20 UNF-2B
 50
90.0
  7
BOX
100
AcDbText
  0
ENDBLK
  5
215
100
AcDbEntity
  8
0
  6
CONTINUOUS
100
AcDbBlockEnd
  0
BLOCK
  5
217
100
AcDbEntity
  8
0
100
AcDbBlockBegin
  2
*D14
 70
        65
 10
0.0
 20
0.0
 30
0.0
  3
*D14
  1

  0
POINT
  5
219
100
AcDbEntity
  8
DEFPOINTS
  6
CONTINUOUS
 62
         0
100
AcDbPoint
 10
1776.5574167314
 20
-117.7400166132
 30
0.0
  0
POINT
  5
21A
100
AcDbEntity
  8
DEFPOINTS
  6
CONTINUOUS
 62
         0
100
AcDbPoint
 10
1739.2786999334
 20
-117.7400166132
 30
0.0
  0
POINT
  5
21B
100
AcDbEntity
  8
DEFPOINTS
  6
CONTINUOUS
 62
         0
100
AcDbPoint
 10
1739.2786999334
 20
-135.7400166132
 30
0.0
  0
LINE
  5
21C
100
AcDbEntity
  8
L1_150
  6
CONTINUOUS
 62
         4
100
AcDbLine
 10
1741.0286999334
 20
-117.7400166132
 30
0.0
 11
1777.4324167314
 21
-117.7400166132
 31
0.0
  0
LINE
  5
21D
100
AcDbEntity
  8
L1_150
  6
CONTINUOUS
 62
         4
100
AcDbLine
 10
1741.0286999334
 20
-135.7400166132
 30
0.0
 11
1777.4324167314
 21
-135.7400166132
 31
0.0
  0
LINE
  5
21E
100
AcDbEntity
  8
L1_150
  6
CONTINUOUS
 62
         4
100
AcDbLine
 10
1776.5574167314
 20
-117.7400166132
 30
0.0
 11
1776.5574167314
 21
-135.7400166132
 31
0.0
  0
SOLID
  5
21F
100
AcDbEntity
  8
L1_150
  6
CONTINUOUS
 62
         4
100
AcDbTrace
 10
1776.5574167314
 20
-117.7400166132
 30
0.0
 11
1777.0824167314
 21
-121.2400166132
 31
0.0
 12
1776.0324167314
 22
-121.2400166132
 32
0.0
 13
1776.5574167314
 23
-117.7400166132
 33
0.0
  0
SOLID
  5
220
100
AcDbEntity
  8
L1_150
  6
CONTINUOUS
 62
         4
100
AcDbTrace
 10
1776.5574167314
 20
-135.7400166132
 30
0.0
 11
1776.0324167314
 21
-132.2400166132
 31
0.0
 12
1777.0824167314
 22
-132.2400166132
 32
0.0
 13
1776.5574167314
 23
-135.7400166132
 33
0.0
  0
TEXT
  5
222
100
AcDbEntity
  8
L1_150
  6
CONTINUOUS
 62
         4
100
AcDbText
 10
1773.9324167314
 20
-133.1976949575
 30
0.0
 40
3.5
  1
崷18
 50
90.0
  7
BOX
100
AcDbText
  0
ENDBLK
  5
223
100
AcDbEntity
  8
0
  6
CONTINUOUS
100
AcDbBlockEnd
  0
BLOCK
  5
225
100
AcDbEntity
  8
0
100
AcDbBlockBegin
  2
*D15
 70
        65
 10
0.0
 20
0.0
 30
0.0
  3
*D15
  1

  0
POINT
  5
227
100
AcDbEntity
  8
DEFPOINTS
  6
CONTINUOUS
 62
         0
100
AcDbPoint
 10
1850.5990594905
 20
177.1204203447
 30
0.0
  0
POINT
  5
228
100
AcDbEntity
  8
DEFPOINTS
  6
CONTINUOUS
 62
         0
100
AcDbPoint
 10
1850.5990594905
 20
140.4273217143
 30
0.0
  0
POINT
  5
229
100
AcDbEntity
  8
DEFPOINTS
  6
CONTINUOUS
 62
         0
100
AcDbPoint
 10
1851.7469964159
 20
131.3198532445
 30
0.0
  0
LINE
  5
22A
100
AcDbEntity
  8
L1_150
  6
CONTINUOUS
 62
         4
100
AcDbLine
 10
1850.5990594905
 20
142.1773217143
 30
0.0
 11
1850.5990594905
 21
177.9954203447
 31
0.0
  0
LINE
  5
22B
100
AcDbEntity
  8
L1_150
  6
CONTINUOUS
 62
         4
100
AcDbLine
 10
1851.7469964159
 20
133.0698532445
 30
0.0
 11
1851.7469964159
 21
177.9954203447
 31
0.0
  0
LINE
  5
22C
100
AcDbEntity
  8
L1_150
  6
CONTINUOUS
 62
         4
100
AcDbLine
 10
1850.5990594905
 20
177.1204203447
 30
0.0
 11
1843.5990594905
 21
177.1204203447
 31
0.0
  0
SOLID
  5
22D
100
AcDbEntity
  8
L1_150
  6
CONTINUOUS
 62
         4
100
AcDbTrace
 10
1850.5990594905
 20
177.1204203447
 30
0.0
 11
1847.0990594905
 21
176.5954203447
 31
0.0
 12
1847.0990594905
 22
177.6454203447
 32
0.0
 13
1850.5990594905
 23
177.1204203447
 33
0.0
  0
LINE
  5
22E
100
AcDbEntity
  8
L1_150
  6
CONTINUOUS
 62
         4
100
AcDbLine
 10
1851.7469964159
 20
177.1204203447
 30
0.0
 11
1874.2681910925
 21
177.1204203447
 31
0.0
  0
SOLID
  5
22F
100
AcDbEntity
  8
L1_150
  6
CONTINUOUS
 62
         4
100
AcDbTrace
 10
1851.7469964159
 20
177.1204203447
 30
0.0
 11
1855.2469964159
 21
177.6454203447
 31
0.0
 12
1855.2469964159
 22
176.5954203447
 32
0.0
 13
1851.7469964159
 23
177.1204203447
 33
0.0
  0
LINE
  5
230
100
AcDbEntity
  8
L1_150
  6
CONTINUOUS
 62
         4
100
AcDbLine
 10
1850.5990594905
 20
177.1204203447
 30
0.0
 11
1851.7469964159
 21
177.1204203447
 31
0.0
  0
TEXT
  5
232
100
AcDbEntity
  8
L1_150
  6
CONTINUOUS
 62
         4
100
AcDbText
 10
1858.5181910925
 20
179.7454203447
 30
0.0
 40
3.5
  1
1.15
  7
BOX
100
AcDbText
  0
ENDBLK
  5
233
100
AcDbEntity
  8
0
  6
CONTINUOUS
100
AcDbBlockEnd
  0
BLOCK
  5
235
100
AcDbEntity
  8
0
100
AcDbBlockBegin
  2
*D16
 70
        65
 10
0.0
 20
0.0
 30
0.0
  3
*D16
  1

  0
POINT
  5
237
100
AcDbEntity
  8
DEFPOINTS
  6
CONTINUOUS
 62
         0
100
AcDbPoint
 10
1841.0690594905
 20
177.1204203447
 30
0.0
  0
POINT
  5
238
100
AcDbEntity
  8
DEFPOINTS
  6
CONTINUOUS
 62
         0
100
AcDbPoint
 10
1841.0690594905
 20
140.4273217143
 30
0.0
  0
POINT
  5
239
100
AcDbEntity
  8
DEFPOINTS
  6
CONTINUOUS
 62
         0
100
AcDbPoint
 10
1839.9211225651
 20
131.3198532445
 30
0.0
  0
LINE
  5
23A
100
AcDbEntity
  8
L1_150
  6
CONTINUOUS
 62
         4
100
AcDbLine
 10
1841.0690594905
 20
142.1773217143
 30
0.0
 11
1841.0690594905
 21
177.9954203447
 31
0.0
  0
LINE
  5
23B
100
AcDbEntity
  8
L1_150
  6
CONTINUOUS
 62
         4
100
AcDbLine
 10
1839.9211225651
 20
133.0698532445
 30
0.0
 11
1839.9211225651
 21
177.9954203447
 31
0.0
  0
LINE
  5
23C
100
AcDbEntity
  8
L1_150
  6
CONTINUOUS
 62
         4
100
AcDbLine
 10
1841.0690594905
 20
177.1204203447
 30
0.0
 11
1848.0690594905
 21
177.1204203447
 31
0.0
  0
SOLID
  5
23D
100
AcDbEntity
  8
L1_150
  6
CONTINUOUS
 62
         4
100
AcDbTrace
 10
1841.0690594905
 20
177.1204203447
 30
0.0
 11
1844.5690594905
 21
177.6454203447
 31
0.0
 12
1844.5690594905
 22
176.5954203447
 32
0.0
 13
1841.0690594905
 23
177.1204203447
 33
0.0
  0
LINE
  5
23E
100
AcDbEntity
  8
L1_150
  6
CONTINUOUS
 62
         4
100
AcDbLine
 10
1839.9211225651
 20
177.1204203447
 30
0.0
 11
1819.372038329
 21
177.1204203447
 31
0.0
  0
SOLID
  5
23F
100
AcDbEntity
  8
L1_150
  6
CONTINUOUS
 62
         4
100
AcDbTrace
 10
1839.9211225651
 20
177.1204203447
 30
0.0
 11
1836.4211225651
 21
176.5954203447
 31
0.0
 12
1836.4211225651
 22
177.6454203447
 32
0.0
 13
1839.9211225651
 23
177.1204203447
 33
0.0
  0
LINE
  5
240
100
AcDbEntity
  8
L1_150
  6
CONTINUOUS
 62
         4
100
AcDbLine
 10
1841.0690594905
 20
177.1204203447
 30
0.0
 11
1839.9211225651
 21
177.1204203447
 31
0.0
  0
TEXT
  5
242
100
AcDbEntity
  8
L1_150
  6
CONTINUOUS
 62
         4
100
AcDbText
 10
1821.122038329
 20
179.7454203447
 30
0.0
 40
3.5
  1
1.15
  7
BOX
100
AcDbText
  0
ENDBLK
  5
243
100
AcDbEntity
  8
0
  6
CONTINUOUS
100
AcDbBlockEnd
  0
BLOCK
  5
259
100
AcDbEntity
  8
0
100
AcDbBlockBegin
  2
*D17
 70
        65
 10
0.0
 20
0.0
 30
0.0
  3
*D17
  1

  0
POINT
  5
25B
100
AcDbEntity
  8
DEFPOINTS
  6
CONTINUOUS
 62
         0
100
AcDbPoint
 10
1932.0751660365
 20
135.2524144385
 30
0.0
  0
POINT
  5
25C
100
AcDbEntity
  8
DEFPOINTS
  6
CONTINUOUS
 62
         0
100
AcDbPoint
 10
1845.8340594905
 20
135.2524144385
 30
0.0
  0
POINT
  5
25D
100
AcDbEntity
  8
DEFPOINTS
  6
CONTINUOUS
 62
         0
100
AcDbPoint
 10
1845.8340594905
 20
89.2524144385
 30
0.0
  0
LINE
  5
25E
100
AcDbEntity
  8
L1_150
  6
CONTINUOUS
 62
         4
100
AcDbLine
 10
1847.5840594905
 20
135.2524144385
 30
0.0
 11
1932.9501660365
 21
135.2524144385
 31
0.0
  0
LINE
  5
25F
100
AcDbEntity
  8
L1_150
  6
CONTINUOUS
 62
         4
100
AcDbLine
 10
1847.5840594905
 20
89.2524144385
 30
0.0
 11
1932.9501660365
 21
89.2524144385
 31
0.0
  0
LINE
  5
260
100
AcDbEntity
  8
L1_150
  6
CONTINUOUS
 62
         4
100
AcDbLine
 10
1932.0751660365
 20
135.2524144385
 30
0.0
 11
1932.0751660365
 21
89.2524144385
 31
0.0
  0
SOLID
  5
261
100
AcDbEntity
  8
L1_150
  6
CONTINUOUS
 62
         4
100
AcDbTrace
 10
1932.0751660365
 20
135.2524144385
 30
0.0
 11
1932.6001660365
 21
131.7524144385
 31
0.0
 12
1931.5501660365
 22
131.7524144385
 32
0.0
 13
1932.0751660365
 23
135.2524144385
 33
0.0
  0
SOLID
  5
262
100
AcDbEntity
  8
L1_150
  6
CONTINUOUS
 62
         4
100
AcDbTrace
 10
1932.0751660365
 20
89.2524144385
 30
0.0
 11
1931.5501660365
 21
92.7524144385
 31
0.0
 12
1932.6001660365
 22
92.7524144385
 32
0.0
 13
1932.0751660365
 23
89.2524144385
 33
0.0
  0
TEXT
  5
264
100
AcDbEntity
  8
L1_150
  6
CONTINUOUS
 62
         4
100
AcDbText
 10
1929.4501660365
 20
103.88798622
 30
0.0
 40
3.5
  1
46
 50
90.0
  7
BOX
100
AcDbText
  0
ENDBLK
  5
265
100
AcDbEntity
  8
0
  6
CONTINUOUS
100
AcDbBlockEnd
  0
BLOCK
  5
267
100
AcDbEntity
  8
0
100
AcDbBlockBegin
  2
*D18
 70
        65
 10
0.0
 20
0.0
 30
0.0
  3
*D18
  1

  0
POINT
  5
269
100
AcDbEntity
  8
DEFPOINTS
  6
CONTINUOUS
 62
         0
100
AcDbPoint
 10
1923.378386324
 20
130.2524144385
 30
0.0
  0
POINT
  5
26A
100
AcDbEntity
  8
DEFPOINTS
  6
CONTINUOUS
 62
         0
100
AcDbPoint
 10
1845.8340594905
 20
130.2524144385
 30
0.0
  0
POINT
  5
26B
100
AcDbEntity
  8
DEFPOINTS
  6
CONTINUOUS
 62
         0
100
AcDbPoint
 10
1845.8340594905
 20
94.2524144385
 30
0.0
  0
LINE
  5
26C
100
AcDbEntity
  8
L1_150
  6
CONTINUOUS
 62
         4
100
AcDbLine
 10
1847.5840594905
 20
130.2524144385
 30
0.0
 11
1924.253386324
 21
130.2524144385
 31
0.0
  0
LINE
  5
26D
100
AcDbEntity
  8
L1_150
  6
CONTINUOUS
 62
         4
100
AcDbLine
 10
1847.5840594905
 20
94.2524144385
 30
0.0
 11
1924.253386324
 21
94.2524144385
 31
0.0
  0
LINE
  5
26E
100
AcDbEntity
  8
L1_150
  6
CONTINUOUS
 62
         4
100
AcDbLine
 10
1923.378386324
 20
130.2524144385
 30
0.0
 11
1923.378386324
 21
94.2524144385
 31
0.0
  0
SOLID
  5
26F
100
AcDbEntity
  8
L1_150
  6
CONTINUOUS
 62
         4
100
AcDbTrace
 10
1923.378386324
 20
130.2524144385
 30
0.0
 11
1923.903386324
 21
126.7524144385
 31
0.0
 12
1922.853386324
 22
126.7524144385
 32
0.0
 13
1923.378386324
 23
130.2524144385
 33
0.0
  0
SOLID
  5
270
100
AcDbEntity
  8
L1_150
  6
CONTINUOUS
 62
         4
100
AcDbTrace
 10
1923.378386324
 20
94.2524144385
 30
0.0
 11
1922.853386324
 21
97.7524144385
 31
0.0
 12
1923.903386324
 22
97.7524144385
 32
0.0
 13
1923.378386324
 23
94.2524144385
 33
0.0
  0
TEXT
  5
272
100
AcDbEntity
  8
L1_150
  6
CONTINUOUS
 62
         4
100
AcDbText
 10
1920.753386324
 20
104.7576641912
 30
0.0
 40
3.5
  1
36
 50
90.0
  7
BOX
100
AcDbText
  0
ENDBLK
  5
273
100
AcDbEntity
  8
0
  6
CONTINUOUS
100
AcDbBlockEnd
  0
BLOCK
  5
275
100
AcDbEntity
  8
0
100
AcDbBlockBegin
  2
*D19
 70
        65
 10
0.0
 20
0.0
 30
0.0
  3
*D19
  1

  0
POINT
  5
277
100
AcDbEntity
  8
DEFPOINTS
  6
CONTINUOUS
 62
         0
100
AcDbPoint
 10
1850.5990594905
 20
190.1655899133
 30
0.0
  0
POINT
  5
278
100
AcDbEntity
  8
DEFPOINTS
  6
CONTINUOUS
 62
         0
100
AcDbPoint
 10
1850.5990594905
 20
140.4273217143
 30
0.0
  0
POINT
  5
279
100
AcDbEntity
  8
DEFPOINTS
  6
CONTINUOUS
 62
         0
100
AcDbPoint
 10
1841.0690594905
 20
140.4273217143
 30
0.0
  0
LINE
  5
27A
100
AcDbEntity
  8
L1_150
  6
CONTINUOUS
 62
         4
100
AcDbLine
 10
1850.5990594905
 20
142.1773217143
 30
0.0
 11
1850.5990594905
 21
191.0405899133
 31
0.0
  0
LINE
  5
27B
100
AcDbEntity
  8
L1_150
  6
CONTINUOUS
 62
         4
100
AcDbLine
 10
1841.0690594905
 20
142.1773217143
 30
0.0
 11
1841.0690594905
 21
191.0405899133
 31
0.0
  0
LINE
  5
27C
100
AcDbEntity
  8
L1_150
  6
CONTINUOUS
 62
         4
100
AcDbLine
 10
1850.5990594905
 20
190.1655899133
 30
0.0
 11
1841.0690594905
 21
190.1655899133
 31
0.0
  0
SOLID
  5
27D
100
AcDbEntity
  8
L1_150
  6
CONTINUOUS
 62
         4
100
AcDbTrace
 10
1850.5990594905
 20
190.1655899133
 30
0.0
 11
1847.0990594905
 21
189.6405899133
 31
0.0
 12
1847.0990594905
 22
190.6905899133
 32
0.0
 13
1850.5990594905
 23
190.1655899133
 33
0.0
  0
LINE
  5
27E
100
AcDbEntity
  8
L1_150
  6
CONTINUOUS
 62
         4
100
AcDbLine
 10
1850.5990594905
 20
190.1655899133
 30
0.0
 11
1845.4623774663
 21
190.1655899133
 31
0.0
  0
SOLID
  5
27F
100
AcDbEntity
  8
L1_150
  6
CONTINUOUS
 62
         4
100
AcDbTrace
 10
1841.0690594905
 20
190.1655899133
 30
0.0
 11
1844.5690594905
 21
190.6905899133
 31
0.0
 12
1844.5690594905
 22
189.6405899133
 32
0.0
 13
1841.0690594905
 23
190.1655899133
 33
0.0
  0
TEXT
  5
281
100
AcDbEntity
  8
L1_150
  6
CONTINUOUS
 62
         4
100
AcDbText
 10
1847.2123774663
 20
192.7905899133
 30
0.0
 40
3.5
  1
9.53
  7
BOX
100
AcDbText
  0
ENDBLK
  5
282
100
AcDbEntity
  8
0
  6
CONTINUOUS
100
AcDbBlockEnd
  0
BLOCK
  5
286
100
AcDbEntity
  8
0
100
AcDbBlockBegin
  2
*D20
 70
        65
 10
0.0
 20
0.0
 30
0.0
  3
*D20
  1

  0
POINT
  5
288
100
AcDbEntity
  8
DEFPOINTS
  6
CONTINUOUS
 62
         0
100
AcDbPoint
 10
1769.7768436112
 20
19.4674742522
 30
0.0
  0
POINT
  5
289
100
AcDbEntity
  8
DEFPOINTS
  6
CONTINUOUS
 62
         0
100
AcDbPoint
 10
1769.7768436112
 20
7.915596929
 30
0.0
  0
POINT
  5
28A
100
AcDbEntity
  8
DEFPOINTS
  6
CONTINUOUS
 62
         0
100
AcDbPoint
 10
1762.7768436112
 20
-0.5302934814
 30
0.0
  0
LINE
  5
28B
100
AcDbEntity
  8
L1_150
  6
CONTINUOUS
 62
         4
100
AcDbLine
 10
1769.7768436112
 20
9.665596929
 30
0.0
 11
1769.7768436112
 21
20.3424742522
 31
0.0
  0
LINE
  5
28C
100
AcDbEntity
  8
L1_150
  6
CONTINUOUS
 62
         4
100
AcDbLine
 10
1762.7768436112
 20
1.2197065186
 30
0.0
 11
1762.7768436112
 21
20.3424742522
 31
0.0
  0
LINE
  5
28D
100
AcDbEntity
  8
L1_150
  6
CONTINUOUS
 62
         4
100
AcDbLine
 10
1769.7768436112
 20
19.4674742522
 30
0.0
 11
1776.7768436112
 21
19.4674742522
 31
0.0
  0
SOLID
  5
28E
100
AcDbEntity
  8
L1_150
  6
CONTINUOUS
 62
         4
100
AcDbTrace
 10
1769.7768436112
 20
19.4674742522
 30
0.0
 11
1773.2768436112
 21
19.9924742522
 31
0.0
 12
1773.2768436112
 22
18.9424742522
 32
0.0
 13
1769.7768436112
 23
19.4674742522
 33
0.0
  0
LINE
  5
28F
100
AcDbEntity
  8
L1_150
  6
CONTINUOUS
 62
         4
100
AcDbLine
 10
1762.7768436112
 20
19.4674742522
 30
0.0
 11
1755.7768436112
 21
19.4674742522
 31
0.0
  0
SOLID
  5
290
100
AcDbEntity
  8
L1_150
  6
CONTINUOUS
 62
         4
100
AcDbTrace
 10
1762.7768436112
 20
19.4674742522
 30
0.0
 11
1759.2768436112
 21
18.9424742522
 31
0.0
 12
1759.2768436112
 22
19.9924742522
 32
0.0
 13
1762.7768436112
 23
19.4674742522
 33
0.0
  0
LINE
  5
291
100
AcDbEntity
  8
L1_150
  6
CONTINUOUS
 62
         4
100
AcDbLine
 10
1769.7768436112
 20
19.4674742522
 30
0.0
 11
1762.7768436112
 21
19.4674742522
 31
0.0
  0
TEXT
  5
293
100
AcDbEntity
  8
L1_150
  6
CONTINUOUS
 62
         4
100
AcDbText
 10
1765.5080815032
 20
22.0924742522
 30
0.0
 40
3.5
  1
7
  7
BOX
100
AcDbText
  0
ENDBLK
  5
294
100
AcDbEntity
  8
0
  6
CONTINUOUS
100
AcDbBlockEnd
  0
BLOCK
  5
296
100
AcDbEntity
  8
0
100
AcDbBlockBegin
  2
*D21
 70
        65
 10
0.0
 20
0.0
 30
0.0
  3
*D21
  1

  0
POINT
  5
298
100
AcDbEntity
  8
DEFPOINTS
  6
CONTINUOUS
 62
         0
100
AcDbPoint
 10
1817.6157414735
 20
12.2001175067
 30
0.0
  0
POINT
  5
299
100
AcDbEntity
  8
DEFPOINTS
  6
CONTINUOUS
 62
         0
100
AcDbPoint
 10
1817.6157414735
 20
-3.3073482762
 30
0.0
  0
POINT
  5
29A
100
AcDbEntity
  8
DEFPOINTS
  6
CONTINUOUS
 62
         0
100
AcDbPoint
 10
1827.2357414735
 20
-3.3073482762
 30
0.0
  0
LINE
  5
29B
100
AcDbEntity
  8
L1_150
  6
CONTINUOUS
 62
         4
100
AcDbLine
 10
1817.6157414735
 20
-1.5573482762
 30
0.0
 11
1817.6157414735
 21
13.0751175067
 31
0.0
  0
LINE
  5
29C
100
AcDbEntity
  8
L1_150
  6
CONTINUOUS
 62
         4
100
AcDbLine
 10
1827.2357414735
 20
-1.5573482762
 30
0.0
 11
1827.2357414735
 21
13.0751175067
 31
0.0
  0
LINE
  5
29D
100
AcDbEntity
  8
L1_150
  6
CONTINUOUS
 62
         4
100
AcDbLine
 10
1817.6157414735
 20
12.2001175067
 30
0.0
 11
1827.2357414735
 21
12.2001175067
 31
0.0
  0
SOLID
  5
29E
100
AcDbEntity
  8
L1_150
  6
CONTINUOUS
 62
         4
100
AcDbTrace
 10
1817.6157414735
 20
12.2001175067
 30
0.0
 11
1821.1157414735
 21
12.7251175067
 31
0.0
 12
1821.1157414735
 22
11.6751175067
 32
0.0
 13
1817.6157414735
 23
12.2001175067
 33
0.0
  0
SOLID
  5
29F
100
AcDbEntity
  8
L1_150
  6
CONTINUOUS
 62
         4
100
AcDbTrace
 10
1827.2357414735
 20
12.2001175067
 30
0.0
 11
1823.7357414735
 21
11.6751175067
 31
0.0
 12
1823.7357414735
 22
12.7251175067
 32
0.0
 13
1827.2357414735
 23
12.2001175067
 33
0.0
  0
TEXT
  5
2A1
100
AcDbEntity
  8
L1_150
  6
CONTINUOUS
 62
         4
100
AcDbText
 10
1815.4257414735
 20
14.8251175067
 30
0.0
 40
3.5
  1
9.62
  7
BOX
100
AcDbText
  0
ENDBLK
  5
2A2
100
AcDbEntity
  8
0
  6
CONTINUOUS
100
AcDbBlockEnd
  0
BLOCK
  5
2AD
100
AcDbEntity
  8
0
100
AcDbBlockBegin
  2
*D22
 70
        65
 10
0.0
 20
0.0
 30
0.0
  3
*D22
  1

  0
POINT
  5
2AF
100
AcDbEntity
  8
DEFPOINTS
  6
CONTINUOUS
 62
         0
100
AcDbPoint
 10
1719.3575542898
 20
0.265609629
 30
0.0
  0
POINT
  5
2B0
100
AcDbEntity
  8
DEFPOINTS
  6
CONTINUOUS
 62
         0
100
AcDbPoint
 10
1727.6235035046
 20
0.265609629
 30
0.0
  0
POINT
  5
2B1
100
AcDbEntity
  8
DEFPOINTS
  6
CONTINUOUS
 62
         0
100
AcDbPoint
 10
1727.6235035046
 20
-12.4344157711
 30
0.0
  0
LINE
  5
2B2
100
AcDbEntity
  8
L1_150
  6
CONTINUOUS
 62
         4
100
AcDbLine
 10
1725.8735035046
 20
0.265609629
 30
0.0
 11
1718.4825542898
 21
0.265609629
 31
0.0
  0
LINE
  5
2B3
100
AcDbEntity
  8
L1_150
  6
CONTINUOUS
 62
         4
100
AcDbLine
 10
1725.8735035046
 20
-12.4344157711
 30
0.0
 11
1718.4825542898
 21
-12.4344157711
 31
0.0
  0
LINE
  5
2B4
100
AcDbEntity
  8
L1_150
  6
CONTINUOUS
 62
         4
100
AcDbLine
 10
1719.3575542898
 20
0.265609629
 30
0.0
 11
1719.3575542898
 21
-12.4344157711
 31
0.0
  0
SOLID
  5
2B5
100
AcDbEntity
  8
L1_150
  6
CONTINUOUS
 62
         4
100
AcDbTrace
 10
1719.3575542898
 20
0.265609629
 30
0.0
 11
1719.8825542898
 21
-3.234390371
 31
0.0
 12
1718.8325542898
 22
-3.234390371
 32
0.0
 13
1719.3575542898
 23
0.265609629
 33
0.0
  0
SOLID
  5
2B6
100
AcDbEntity
  8
L1_150
  6
CONTINUOUS
 62
         4
100
AcDbTrace
 10
1719.3575542898
 20
-12.4344157711
 30
0.0
 11
1718.8325542898
 21
-8.9344157711
 31
0.0
 12
1719.8825542898
 22
-8.9344157711
 32
0.0
 13
1719.3575542898
 23
-12.4344157711
 33
0.0
  0
TEXT
  5
2B8
100
AcDbEntity
  8
L1_150
  6
CONTINUOUS
 62
         4
100
AcDbText
 10
1716.7325542898
 20
-30.584403071
 30
0.0
 40
3.5
  1
1/2"-20 UNF-2A
 50
90.0
  7
BOX
100
AcDbText
  0
ENDBLK
  5
2B9
100
AcDbEntity
  8
0
  6
CONTINUOUS
100
AcDbBlockEnd
  0
BLOCK
  5
2BB
100
AcDbEntity
  8
0
100
AcDbBlockBegin
  2
*D23
 70
        65
 10
0.0
 20
0.0
 30
0.0
  3
*D23
  1

  0
POINT
  5
2BD
100
AcDbEntity
  8
DEFPOINTS
  6
CONTINUOUS
 62
         0
100
AcDbPoint
 10
1758.7768436112
 20
11.5238505062
 30
0.0
  0
POINT
  5
2BE
100
AcDbEntity
  8
DEFPOINTS
  6
CONTINUOUS
 62
         0
100
AcDbPoint
 10
1758.7768436112
 20
7.915596929
 30
0.0
  0
POINT
  5
2BF
100
AcDbEntity
  8
DEFPOINTS
  6
CONTINUOUS
 62
         0
100
AcDbPoint
 10
1754.7768436112
 20
1.915596929
 30
0.0
  0
LINE
  5
2C0
100
AcDbEntity
  8
L1_150
  6
CONTINUOUS
 62
         4
100
AcDbLine
 10
1758.7768436112
 20
9.665596929
 30
0.0
 11
1758.7768436112
 21
12.3988505062
 31
0.0
  0
LINE
  5
2C1
100
AcDbEntity
  8
L1_150
  6
CONTINUOUS
 62
         4
100
AcDbLine
 10
1754.7768436112
 20
3.665596929
 30
0.0
 11
1754.7768436112
 21
12.3988505062
 31
0.0
  0
LINE
  5
2C2
100
AcDbEntity
  8
L1_150
  6
CONTINUOUS
 62
         4
100
AcDbLine
 10
1758.7768436112
 20
11.5238505062
 30
0.0
 11
1765.7768436112
 21
11.5238505062
 31
0.0
  0
SOLID
  5
2C3
100
AcDbEntity
  8
L1_150
  6
CONTINUOUS
 62
         4
100
AcDbTrace
 10
1758.7768436112
 20
11.5238505062
 30
0.0
 11
1762.2768436112
 21
12.0488505062
 31
0.0
 12
1762.2768436112
 22
10.9988505062
 32
0.0
 13
1758.7768436112
 23
11.5238505062
 33
0.0
  0
LINE
  5
2C4
100
AcDbEntity
  8
L1_150
  6
CONTINUOUS
 62
         4
100
AcDbLine
 10
1754.7768436112
 20
11.5238505062
 30
0.0
 11
1747.7768436112
 21
11.5238505062
 31
0.0
  0
SOLID
  5
2C5
100
AcDbEntity
  8
L1_150
  6
CONTINUOUS
 62
         4
100
AcDbTrace
 10
1754.7768436112
 20
11.5238505062
 30
0.0
 11
1751.2768436112
 21
10.9988505062
 31
0.0
 12
1751.2768436112
 22
12.0488505062
 32
0.0
 13
1754.7768436112
 23
11.5238505062
 33
0.0
  0
LINE
  5
2C6
100
AcDbEntity
  8
L1_150
  6
CONTINUOUS
 62
         4
100
AcDbLine
 10
1758.7768436112
 20
11.5238505062
 30
0.0
 11
1754.7768436112
 21
11.5238505062
 31
0.0
  0
TEXT
  5
2C8
100
AcDbEntity
  8
L1_150
  6
CONTINUOUS
 62
         4
100
AcDbText
 10
1754.6139689372
 20
14.1488505062
 30
0.0
 40
3.5
  1
4
  7
BOX
100
AcDbText
  0
ENDBLK
  5
2C9
100
AcDbEntity
  8
0
  6
CONTINUOUS
100
AcDbBlockEnd
  0
BLOCK
  5
2CB
100
AcDbEntity
  8
0
100
AcDbBlockBegin
  2
*D24
 70
        65
 10
0.0
 20
0.0
 30
0.0
  3
*D24
  1

  0
POINT
  5
2CD
100
AcDbEntity
  8
DEFPOINTS
  6
CONTINUOUS
 62
         0
100
AcDbPoint
 10
1726.7768436112
 20
-33.7115540116
 30
0.0
  0
POINT
  5
2CE
100
AcDbEntity
  8
DEFPOINTS
  6
CONTINUOUS
 62
         0
100
AcDbPoint
 10
1726.7768436112
 20
-11.5877558777
 30
0.0
  0
POINT
  5
2CF
100
AcDbEntity
  8
DEFPOINTS
  6
CONTINUOUS
 62
         0
100
AcDbPoint
 10
1769.7768436112
 20
-20.084403071
 30
0.0
  0
LINE
  5
2D0
100
AcDbEntity
  8
L1_150
  6
CONTINUOUS
 62
         4
100
AcDbLine
 10
1726.7768436112
 20
-13.3377558777
 30
0.0
 11
1726.7768436112
 21
-34.5865540116
 31
0.0
  0
LINE
  5
2D1
100
AcDbEntity
  8
L1_150
  6
CONTINUOUS
 62
         4
100
AcDbLine
 10
1769.7768436112
 20
-21.834403071
 30
0.0
 11
1769.7768436112
 21
-34.5865540116
 31
0.0
  0
LINE
  5
2D2
100
AcDbEntity
  8
L1_150
  6
CONTINUOUS
 62
         4
100
AcDbLine
 10
1726.7768436112
 20
-33.7115540116
 30
0.0
 11
1769.7768436112
 21
-33.7115540116
 31
0.0
  0
SOLID
  5
2D3
100
AcDbEntity
  8
L1_150
  6
CONTINUOUS
 62
         4
100
AcDbTrace
 10
1726.7768436112
 20
-33.7115540116
 30
0.0
 11
1730.2768436112
 21
-33.1865540116
 31
0.0
 12
1730.2768436112
 22
-34.2365540116
 32
0.0
 13
1726.7768436112
 23
-33.7115540116
 33
0.0
  0
SOLID
  5
2D4
100
AcDbEntity
  8
L1_150
  6
CONTINUOUS
 62
         4
100
AcDbTrace
 10
1769.7768436112
 20
-33.7115540116
 30
0.0
 11
1766.2768436112
 21
-34.2365540116
 31
0.0
 12
1766.2768436112
 22
-33.1865540116
 32
0.0
 13
1769.7768436112
 23
-33.7115540116
 33
0.0
  0
TEXT
  5
2D6
100
AcDbEntity
  8
L1_150
  6
CONTINUOUS
 62
         4
100
AcDbText
 10
1744.7768436112
 20
-31.0865540116
 30
0.0
 40
3.5
  1
43
  7
BOX
100
AcDbText
  0
ENDBLK
  5
2D7
100
AcDbEntity
  8
0
  6
CONTINUOUS
100
AcDbBlockEnd
  0
BLOCK
  5
2D9
100
AcDbEntity
  8
0
100
AcDbBlockBegin
  2
*D25
 70
        65
 10
0.0
 20
0.0
 30
0.0
  3
*D25
  1

  0
POINT
  5
2DB
100
AcDbEntity
  8
DEFPOINTS
  6
CONTINUOUS
 62
         0
100
AcDbPoint
 10
1726.7768436112
 20
-24.9919568361
 30
0.0
  0
POINT
  5
2DC
100
AcDbEntity
  8
DEFPOINTS
  6
CONTINUOUS
 62
         0
100
AcDbPoint
 10
1726.7768436112
 20
-11.5877558777
 30
0.0
  0
POINT
  5
2DD
100
AcDbEntity
  8
DEFPOINTS
  6
CONTINUOUS
 62
         0
100
AcDbPoint
 10
1758.7768436112
 20
-20.084403071
 30
0.0
  0
LINE
  5
2DE
100
AcDbEntity
  8
L1_150
  6
CONTINUOUS
 62
         4
100
AcDbLine
 10
1726.7768436112
 20
-13.3377558777
 30
0.0
 11
1726.7768436112
 21
-25.8669568361
 31
0.0
  0
LINE
  5
2DF
100
AcDbEntity
  8
L1_150
  6
CONTINUOUS
 62
         4
100
AcDbLine
 10
1758.7768436112
 20
-21.834403071
 30
0.0
 11
1758.7768436112
 21
-25.8669568361
 31
0.0
  0
LINE
  5
2E0
100
AcDbEntity
  8
L1_150
  6
CONTINUOUS
 62
         4
100
AcDbLine
 10
1726.7768436112
 20
-24.9919568361
 30
0.0
 11
1758.7768436112
 21
-24.9919568361
 31
0.0
  0
SOLID
  5
2E1
100
AcDbEntity
  8
L1_150
  6
CONTINUOUS
 62
         4
100
AcDbTrace
 10
1726.7768436112
 20
-24.9919568361
 30
0.0
 11
1730.2768436112
 21
-24.4669568361
 31
0.0
 12
1730.2768436112
 22
-25.5169568361
 32
0.0
 13
1726.7768436112
 23
-24.9919568361
 33
0.0
  0
SOLID
  5
2E2
100
AcDbEntity
  8
L1_150
  6
CONTINUOUS
 62
         4
100
AcDbTrace
 10
1758.7768436112
 20
-24.9919568361
 30
0.0
 11
1755.2768436112
 21
-25.5169568361
 31
0.0
 12
1755.2768436112
 22
-24.4669568361
 32
0.0
 13
1758.7768436112
 23
-24.9919568361
 33
0.0
  0
TEXT
  5
2E4
100
AcDbEntity
  8
L1_150
  6
CONTINUOUS
 62
         4
100
AcDbText
 10
1739.2768436112
 20
-22.3669568361
 30
0.0
 40
3.5
  1
32
  7
BOX
100
AcDbText
  0
ENDBLK
  5
2E5
100
AcDbEntity
  8
0
  6
CONTINUOUS
100
AcDbBlockEnd
  0
BLOCK
  5
2F9
100
AcDbEntity
  8
0
100
AcDbBlockBegin
  2
*D26
 70
        65
 10
0.0
 20
0.0
 30
0.0
  3
*D26
  1

  0
POINT
  5
2FB
100
AcDbEntity
  8
DEFPOINTS
  6
CONTINUOUS
 62
         0
100
AcDbPoint
 10
1820.5648128899
 20
-56.4045082569
 30
0.0
  0
POINT
  5
2FC
100
AcDbEntity
  8
DEFPOINTS
  6
CONTINUOUS
 62
         0
100
AcDbPoint
 10
1813.2283372779
 20
-56.4045082569
 30
0.0
  0
POINT
  5
2FD
100
AcDbEntity
  8
DEFPOINTS
  6
CONTINUOUS
 62
         0
100
AcDbPoint
 10
1813.2283372779
 20
-63.4045082569
 30
0.0
  0
LINE
  5
2FE
100
AcDbEntity
  8
L1_150
  6
CONTINUOUS
 62
         4
100
AcDbLine
 10
1814.9783372779
 20
-56.4045082569
 30
0.0
 11
1821.4398128899
 21
-56.4045082569
 31
0.0
  0
LINE
  5
2FF
100
AcDbEntity
  8
L1_150
  6
CONTINUOUS
 62
         4
100
AcDbLine
 10
1814.9783372779
 20
-63.4045082569
 30
0.0
 11
1821.4398128899
 21
-63.4045082569
 31
0.0
  0
LINE
  5
300
100
AcDbEntity
  8
L1_150
  6
CONTINUOUS
 62
         4
100
AcDbLine
 10
1820.5648128899
 20
-56.4045082569
 30
0.0
 11
1820.5648128899
 21
-49.4045082569
 31
0.0
  0
SOLID
  5
301
100
AcDbEntity
  8
L1_150
  6
CONTINUOUS
 62
         4
100
AcDbTrace
 10
1820.5648128899
 20
-56.4045082569
 30
0.0
 11
1820.0398128899
 21
-52.9045082569
 31
0.0
 12
1821.0898128899
 22
-52.9045082569
 32
0.0
 13
1820.5648128899
 23
-56.4045082569
 33
0.0
  0
LINE
  5
302
100
AcDbEntity
  8
L1_150
  6
CONTINUOUS
 62
         4
100
AcDbLine
 10
1820.5648128899
 20
-63.4045082569
 30
0.0
 11
1820.5648128899
 21
-77.1850529558
 31
0.0
  0
SOLID
  5
303
100
AcDbEntity
  8
L1_150
  6
CONTINUOUS
 62
         4
100
AcDbTrace
 10
1820.5648128899
 20
-63.4045082569
 30
0.0
 11
1821.0898128899
 21
-66.9045082569
 31
0.0
 12
1820.0398128899
 22
-66.9045082569
 32
0.0
 13
1820.5648128899
 23
-63.4045082569
 33
0.0
  0
LINE
  5
304
100
AcDbEntity
  8
L1_150
  6
CONTINUOUS
 62
         4
100
AcDbLine
 10
1820.5648128899
 20
-56.4045082569
 30
0.0
 11
1820.5648128899
 21
-63.4045082569
 31
0.0
  0
TEXT
  5
306
100
AcDbEntity
  8
L1_150
  6
CONTINUOUS
 62
         4
100
AcDbText
 10
1817.9398128899
 20
-75.4350529558
 30
0.0
 40
3.5
  1
崷7
 50
90.0
  7
BOX
100
AcDbText
  0
ENDBLK
  5
307
100
AcDbEntity
  8
0
  6
CONTINUOUS
100
AcDbBlockEnd
  0
BLOCK
  5
309
100
AcDbEntity
  8
0
100
AcDbBlockBegin
  2
*D27
 70
        65
 10
0.0
 20
0.0
 30
0.0
  3
*D27
  1

  0
POINT
  5
30B
100
AcDbEntity
  8
DEFPOINTS
  6
CONTINUOUS
 62
         0
100
AcDbPoint
 10
1794.211635276
 20
-57.9045082569
 30
0.0
  0
POINT
  5
30C
100
AcDbEntity
  8
DEFPOINTS
  6
CONTINUOUS
 62
         0
100
AcDbPoint
 10
1798.0949992779
 20
-57.9045082569
 30
0.0
  0
POINT
  5
30D
100
AcDbEntity
  8
DEFPOINTS
  6
CONTINUOUS
 62
         0
100
AcDbPoint
 10
1798.0949992779
 20
-61.9045082569
 30
0.0
  0
LINE
  5
30E
100
AcDbEntity
  8
L1_150
  6
CONTINUOUS
 62
         4
100
AcDbLine
 10
1796.3449992779
 20
-57.9045082569
 30
0.0
 11
1793.336635276
 21
-57.9045082569
 31
0.0
  0
LINE
  5
30F
100
AcDbEntity
  8
L1_150
  6
CONTINUOUS
 62
         4
100
AcDbLine
 10
1796.3449992779
 20
-61.9045082569
 30
0.0
 11
1793.336635276
 21
-61.9045082569
 31
0.0
  0
LINE
  5
310
100
AcDbEntity
  8
L1_150
  6
CONTINUOUS
 62
         4
100
AcDbLine
 10
1794.211635276
 20
-57.9045082569
 30
0.0
 11
1794.211635276
 21
-50.9045082569
 31
0.0
  0
SOLID
  5
311
100
AcDbEntity
  8
L1_150
  6
CONTINUOUS
 62
         4
100
AcDbTrace
 10
1794.211635276
 20
-57.9045082569
 30
0.0
 11
1793.686635276
 21
-54.4045082569
 31
0.0
 12
1794.736635276
 22
-54.4045082569
 32
0.0
 13
1794.211635276
 23
-57.9045082569
 33
0.0
  0
LINE
  5
312
100
AcDbEntity
  8
L1_150
  6
CONTINUOUS
 62
         4
100
AcDbLine
 10
1794.211635276
 20
-61.9045082569
 30
0.0
 11
1794.211635276
 21
-68.9045082569
 31
0.0
  0
SOLID
  5
313
100
AcDbEntity
  8
L1_150
  6
CONTINUOUS
 62
         4
100
AcDbTrace
 10
1794.211635276
 20
-61.9045082569
 30
0.0
 11
1794.736635276
 21
-65.4045082569
 31
0.0
 12
1793.686635276
 22
-65.4045082569
 32
0.0
 13
1794.211635276
 23
-61.9045082569
 33
0.0
  0
LINE
  5
314
100
AcDbEntity
  8
L1_150
  6
CONTINUOUS
 62
         4
100
AcDbLine
 10
1794.211635276
 20
-57.9045082569
 30
0.0
 11
1794.211635276
 21
-61.9045082569
 31
0.0
  0
TEXT
  5
316
100
AcDbEntity
  8
L1_150
  6
CONTINUOUS
 62
         4
100
AcDbText
 10
1791.586635276
 20
-72.1545082569
 30
0.0
 40
3.5
  1
M4xP0.7
 50
90.0
  7
BOX
100
AcDbText
  0
ENDBLK
  5
317
100
AcDbEntity
  8
0
  6
CONTINUOUS
100
AcDbBlockEnd
  0
BLOCK
  5
319
100
AcDbEntity
  8
0
100
AcDbBlockBegin
  2
*D28
 70
        65
 10
0.0
 20
0.0
 30
0.0
  3
*D28
  1

  0
POINT
  5
31B
100
AcDbEntity
  8
DEFPOINTS
  6
CONTINUOUS
 62
         0
100
AcDbPoint
 10
1797.6283372779
 20
-71.5984489177
 30
0.0
  0
POINT
  5
31C
100
AcDbEntity
  8
DEFPOINTS
  6
CONTINUOUS
 62
         0
100
AcDbPoint
 10
1797.6283372779
 20
-61.4378462569
 30
0.0
  0
POINT
  5
31D
100
AcDbEntity
  8
DEFPOINTS
  6
CONTINUOUS
 62
         0
100
AcDbPoint
 10
1809.6283372779
 20
-63.4045082569
 30
0.0
  0
LINE
  5
31E
100
AcDbEntity
  8
L1_150
  6
CONTINUOUS
 62
         4
100
AcDbLine
 10
1797.6283372779
 20
-63.1878462569
 30
0.0
 11
1797.6283372779
 21
-72.4734489177
 31
0.0
  0
LINE
  5
31F
100
AcDbEntity
  8
L1_150
  6
CONTINUOUS
 62
         4
100
AcDbLine
 10
1809.6283372779
 20
-65.1545082569
 30
0.0
 11
1809.6283372779
 21
-72.4734489177
 31
0.0
  0
LINE
  5
320
100
AcDbEntity
  8
L1_150
  6
CONTINUOUS
 62
         4
100
AcDbLine
 10
1797.6283372779
 20
-71.5984489177
 30
0.0
 11
1809.6283372779
 21
-71.5984489177
 31
0.0
  0
SOLID
  5
321
100
AcDbEntity
  8
L1_150
  6
CONTINUOUS
 62
         4
100
AcDbTrace
 10
1797.6283372779
 20
-71.5984489177
 30
0.0
 11
1801.1283372779
 21
-71.0734489177
 31
0.0
 12
1801.1283372779
 22
-72.1234489177
 32
0.0
 13
1797.6283372779
 23
-71.5984489177
 33
0.0
  0
SOLID
  5
322
100
AcDbEntity
  8
L1_150
  6
CONTINUOUS
 62
         4
100
AcDbTrace
 10
1809.6283372779
 20
-71.5984489177
 30
0.0
 11
1806.1283372779
 21
-72.1234489177
 31
0.0
 12
1806.1283372779
 22
-71.0734489177
 32
0.0
 13
1809.6283372779
 23
-71.5984489177
 33
0.0
  0
TEXT
  5
324
100
AcDbEntity
  8
L1_150
  6
CONTINUOUS
 62
         4
100
AcDbText
 10
1800.1283372779
 20
-68.9734489177
 30
0.0
 40
3.5
  1
12
  7
BOX
100
AcDbText
  0
ENDBLK
  5
325
100
AcDbEntity
  8
0
  6
CONTINUOUS
100
AcDbBlockEnd
  0
BLOCK
  5
344
100
AcDbEntity
  8
0
100
AcDbBlockBegin
  2
*D29
 70
        65
 10
0.0
 20
0.0
 30
0.0
  3
*D29
  1

  0
POINT
  5
346
100
AcDbEntity
  8
DEFPOINTS
  6
CONTINUOUS
 62
         0
100
AcDbPoint
 10
1766.8495908723
 20
142.2524144385
 30
0.0
  0
POINT
  5
347
100
AcDbEntity
  8
DEFPOINTS
  6
CONTINUOUS
 62
         0
100
AcDbPoint
 10
1722.7786999334
 20
142.2524144385
 30
0.0
  0
POINT
  5
348
100
AcDbEntity
  8
DEFPOINTS
  6
CONTINUOUS
 62
         0
100
AcDbPoint
 10
1722.7786999334
 20
82.2524144385
 30
0.0
  0
LINE
  5
349
100
AcDbEntity
  8
L1_150
  6
CONTINUOUS
 62
         4
100
AcDbLine
 10
1724.5286999334
 20
142.2524144385
 30
0.0
 11
1767.7245908723
 21
142.2524144385
 31
0.0
  0
LINE
  5
34A
100
AcDbEntity
  8
L1_150
  6
CONTINUOUS
 62
         4
100
AcDbLine
 10
1724.5286999334
 20
82.2524144385
 30
0.0
 11
1767.7245908723
 21
82.2524144385
 31
0.0
  0
LINE
  5
34B
100
AcDbEntity
  8
L1_150
  6
CONTINUOUS
 62
         4
100
AcDbLine
 10
1766.8495908723
 20
142.2524144385
 30
0.0
 11
1766.8495908723
 21
82.2524144385
 31
0.0
  0
SOLID
  5
34C
100
AcDbEntity
  8
L1_150
  6
CONTINUOUS
 62
         4
100
AcDbTrace
 10
1766.8495908723
 20
142.2524144385
 30
0.0
 11
1767.3745908723
 21
138.7524144385
 31
0.0
 12
1766.3245908723
 22
138.7524144385
 32
0.0
 13
1766.8495908723
 23
142.2524144385
 33
0.0
  0
SOLID
  5
34D
100
AcDbEntity
  8
L1_150
  6
CONTINUOUS
 62
         4
100
AcDbTrace
 10
1766.8495908723
 20
82.2524144385
 30
0.0
 11
1766.3245908723
 21
85.7524144385
 31
0.0
 12
1767.3745908723
 22
85.7524144385
 32
0.0
 13
1766.8495908723
 23
82.2524144385
 33
0.0
  0
TEXT
  5
34F
100
AcDbEntity
  8
L1_150
  6
CONTINUOUS
 62
         4
100
AcDbText
 10
1764.2245908723
 20
105.2677916729
 30
0.0
 40
3.5
  1
崷60
 50
90.0
  7
BOX
100
AcDbText
  0
ENDBLK
  5
350
100
AcDbEntity
  8
0
  6
CONTINUOUS
100
AcDbBlockEnd
  0
BLOCK
  5
358
100
AcDbEntity
  8
0
100
AcDbBlockBegin
  2
*D30
 70
        65
 10
0.0
 20
0.0
 30
0.0
  3
*D30
  1

  0
POINT
  5
35A
100
AcDbEntity
  8
DEFPOINTS
  6
CONTINUOUS
 62
         0
100
AcDbPoint
 10
1755.6457535178
 20
124.9524144385
 30
0.0
  0
POINT
  5
35B
100
AcDbEntity
  8
DEFPOINTS
  6
CONTINUOUS
 62
         0
100
AcDbPoint
 10
1740.6786999334
 20
124.9524144385
 30
0.0
  0
POINT
  5
35C
100
AcDbEntity
  8
DEFPOINTS
  6
CONTINUOUS
 62
         0
100
AcDbPoint
 10
1740.6786999334
 20
99.5524144385
 30
0.0
  0
LINE
  5
35D
100
AcDbEntity
  8
L1_150
  6
CONTINUOUS
 62
         4
100
AcDbLine
 10
1742.4286999334
 20
124.9524144385
 30
0.0
 11
1756.5207535178
 21
124.9524144385
 31
0.0
  0
LINE
  5
35E
100
AcDbEntity
  8
L1_150
  6
CONTINUOUS
 62
         4
100
AcDbLine
 10
1742.4286999334
 20
99.5524144385
 30
0.0
 11
1756.5207535178
 21
99.5524144385
 31
0.0
  0
LINE
  5
35F
100
AcDbEntity
  8
L1_150
  6
CONTINUOUS
 62
         4
100
AcDbLine
 10
1755.6457535178
 20
124.9524144385
 30
0.0
 11
1755.6457535178
 21
99.5524144385
 31
0.0
  0
SOLID
  5
360
100
AcDbEntity
  8
L1_150
  6
CONTINUOUS
 62
         4
100
AcDbTrace
 10
1755.6457535178
 20
124.9524144385
 30
0.0
 11
1756.1707535178
 21
121.4524144385
 31
0.0
 12
1755.1207535178
 22
121.4524144385
 32
0.0
 13
1755.6457535178
 23
124.9524144385
 33
0.0
  0
SOLID
  5
361
100
AcDbEntity
  8
L1_150
  6
CONTINUOUS
 62
         4
100
AcDbTrace
 10
1755.6457535178
 20
99.5524144385
 30
0.0
 11
1755.1207535178
 21
103.0524144385
 31
0.0
 12
1756.1707535178
 22
103.0524144385
 32
0.0
 13
1755.6457535178
 23
99.5524144385
 33
0.0
  0
TEXT
  5
363
100
AcDbEntity
  8
L1_150
  6
CONTINUOUS
 62
         4
100
AcDbText
 10
1753.0207535178
 20
98.7430235905
 30
0.0
 40
3.5
  1
崷25.4
 50
90.0
  7
BOX
100
AcDbText
  0
ENDBLK
  5
364
100
AcDbEntity
  8
0
  6
CONTINUOUS
100
AcDbBlockEnd
  0
BLOCK
  5
367
100
AcDbEntity
  8
0
100
AcDbBlockBegin
  2
*D31
 70
        65
 10
0.0
 20
0.0
 30
0.0
  3
*D31
  1

  0
POINT
  5
369
100
AcDbEntity
  8
DEFPOINTS
  6
CONTINUOUS
 62
         0
100
AcDbPoint
 10
1741.2786999334
 20
166.6190588419
 30
0.0
  0
POINT
  5
36A
100
AcDbEntity
  8
DEFPOINTS
  6
CONTINUOUS
 62
         0
100
AcDbPoint
 10
1741.2786999334
 20
124.3524144385
 30
0.0
  0
POINT
  5
36B
100
AcDbEntity
  8
DEFPOINTS
  6
CONTINUOUS
 62
         0
100
AcDbPoint
 10
1723.7786999334
 20
141.6524144385
 30
0.0
  0
LINE
  5
36C
100
AcDbEntity
  8
L1_150
  6
CONTINUOUS
 62
         4
100
AcDbLine
 10
1741.2786999334
 20
126.1024144385
 30
0.0
 11
1741.2786999334
 21
167.4940588419
 31
0.0
  0
LINE
  5
36D
100
AcDbEntity
  8
L1_150
  6
CONTINUOUS
 62
         4
100
AcDbLine
 10
1723.7786999334
 20
143.4024144385
 30
0.0
 11
1723.7786999334
 21
167.4940588419
 31
0.0
  0
LINE
  5
36E
100
AcDbEntity
  8
L1_150
  6
CONTINUOUS
 62
         4
100
AcDbLine
 10
1741.2786999334
 20
166.6190588419
 30
0.0
 11
1723.7786999334
 21
166.6190588419
 31
0.0
  0
SOLID
  5
36F
100
AcDbEntity
  8
L1_150
  6
CONTINUOUS
 62
         4
100
AcDbTrace
 10
1741.2786999334
 20
166.6190588419
 30
0.0
 11
1737.7786999334
 21
166.0940588419
 31
0.0
 12
1737.7786999334
 22
167.1440588419
 32
0.0
 13
1741.2786999334
 23
166.6190588419
 33
0.0
  0
SOLID
  5
370
100
AcDbEntity
  8
L1_150
  6
CONTINUOUS
 62
         4
100
AcDbTrace
 10
1723.7786999334
 20
166.6190588419
 30
0.0
 11
1727.2786999334
 21
167.1440588419
 31
0.0
 12
1727.2786999334
 22
166.0940588419
 32
0.0
 13
1723.7786999334
 23
166.6190588419
 33
0.0
  0
TEXT
  5
372
100
AcDbEntity
  8
L1_150
  6
CONTINUOUS
 62
         4
100
AcDbText
 10
1726.2585212277
 20
169.2440588419
 30
0.0
 40
3.5
  1
17.5
  7
BOX
100
AcDbText
  0
ENDBLK
  5
373
100
AcDbEntity
  8
0
  6
CONTINUOUS
100
AcDbBlockEnd
  0
BLOCK
  5
37F
100
AcDbEntity
  8
0
100
AcDbBlockBegin
  2
*D32
 70
        65
 10
0.0
 20
0.0
 30
0.0
  3
*D32
  1

  0
POINT
  5
381
100
AcDbEntity
  8
DEFPOINTS
  6
CONTINUOUS
 62
         0
100
AcDbPoint
 10
1788.7812216533
 20
8.915596929
 30
0.0
  0
POINT
  5
382
100
AcDbEntity
  8
DEFPOINTS
  6
CONTINUOUS
 62
         0
100
AcDbPoint
 10
1768.7768436112
 20
8.915596929
 30
0.0
  0
POINT
  5
383
100
AcDbEntity
  8
DEFPOINTS
  6
CONTINUOUS
 62
         0
100
AcDbPoint
 10
1768.7768436112
 20
-21.084403071
 30
0.0
  0
LINE
  5
384
100
AcDbEntity
  8
L1_150
  6
CONTINUOUS
 62
         4
100
AcDbLine
 10
1770.5268436112
 20
8.915596929
 30
0.0
 11
1789.6562216533
 21
8.915596929
 31
0.0
  0
LINE
  5
385
100
AcDbEntity
  8
L1_150
  6
CONTINUOUS
 62
         4
100
AcDbLine
 10
1770.5268436112
 20
-21.084403071
 30
0.0
 11
1789.6562216533
 21
-21.084403071
 31
0.0
  0
LINE
  5
386
100
AcDbEntity
  8
L1_150
  6
CONTINUOUS
 62
         4
100
AcDbLine
 10
1788.7812216533
 20
8.915596929
 30
0.0
 11
1788.7812216533
 21
-21.084403071
 31
0.0
  0
SOLID
  5
387
100
AcDbEntity
  8
L1_150
  6
CONTINUOUS
 62
         4
100
AcDbTrace
 10
1788.7812216533
 20
8.915596929
 30
0.0
 11
1789.3062216533
 21
5.415596929
 31
0.0
 12
1788.2562216533
 22
5.415596929
 32
0.0
 13
1788.7812216533
 23
8.915596929
 33
0.0
  0
SOLID
  5
388
100
AcDbEntity
  8
L1_150
  6
CONTINUOUS
 62
         4
100
AcDbTrace
 10
1788.7812216533
 20
-21.084403071
 30
0.0
 11
1788.2562216533
 21
-17.584403071
 31
0.0
 12
1789.3062216533
 22
-17.584403071
 32
0.0
 13
1788.7812216533
 23
-21.084403071
 33
0.0
  0
TEXT
  5
38A
100
AcDbEntity
  8
L1_150
  6
CONTINUOUS
 62
         4
100
AcDbText
 10
1786.1562216533
 20
-13.0406817447
 30
0.0
 40
3.5
  1
崷30
 50
90.0
  7
BOX
100
AcDbText
  0
ENDBLK
  5
38B
100
AcDbEntity
  8
0
  6
CONTINUOUS
100
AcDbBlockEnd
  0
BLOCK
  5
38D
100
AcDbEntity
  8
0
100
AcDbBlockBegin
  2
*D33
 70
        65
 10
0.0
 20
0.0
 30
0.0
  3
*D33
  1

  0
POINT
  5
38F
100
AcDbEntity
  8
DEFPOINTS
  6
CONTINUOUS
 62
         0
100
AcDbPoint
 10
1779.5227379948
 20
2.415596929
 30
0.0
  0
POINT
  5
390
100
AcDbEntity
  8
DEFPOINTS
  6
CONTINUOUS
 62
         0
100
AcDbPoint
 10
1758.7768436112
 20
2.415596929
 30
0.0
  0
POINT
  5
391
100
AcDbEntity
  8
DEFPOINTS
  6
CONTINUOUS
 62
         0
100
AcDbPoint
 10
1758.7768436112
 20
-14.584403071
 30
0.0
  0
LINE
  5
392
100
AcDbEntity
  8
L1_150
  6
CONTINUOUS
 62
         4
100
AcDbLine
 10
1760.5268436112
 20
2.415596929
 30
0.0
 11
1780.3977379948
 21
2.415596929
 31
0.0
  0
LINE
  5
393
100
AcDbEntity
  8
L1_150
  6
CONTINUOUS
 62
         4
100
AcDbLine
 10
1760.5268436112
 20
-14.584403071
 30
0.0
 11
1780.3977379948
 21
-14.584403071
 31
0.0
  0
LINE
  5
394
100
AcDbEntity
  8
L1_150
  6
CONTINUOUS
 62
         4
100
AcDbLine
 10
1779.5227379948
 20
2.415596929
 30
0.0
 11
1779.5227379948
 21
-14.584403071
 31
0.0
  0
SOLID
  5
395
100
AcDbEntity
  8
L1_150
  6
CONTINUOUS
 62
         4
100
AcDbTrace
 10
1779.5227379948
 20
2.415596929
 30
0.0
 11
1780.0477379948
 21
-1.084403071
 31
0.0
 12
1778.9977379948
 22
-1.084403071
 32
0.0
 13
1779.5227379948
 23
2.415596929
 33
0.0
  0
SOLID
  5
396
100
AcDbEntity
  8
L1_150
  6
CONTINUOUS
 62
         4
100
AcDbTrace
 10
1779.5227379948
 20
-14.584403071
 30
0.0
 11
1778.9977379948
 21
-11.084403071
 31
0.0
 12
1780.0477379948
 22
-11.084403071
 32
0.0
 13
1779.5227379948
 23
-14.584403071
 33
0.0
  0
TEXT
  5
398
100
AcDbEntity
  8
L1_150
  6
CONTINUOUS
 62
         4
100
AcDbText
 10
1776.8977379948
 20
-13.084403071
 30
0.0
 40
3.5
  1
崷17
 50
90.0
  7
BOX
100
AcDbText
  0
ENDBLK
  5
399
100
AcDbEntity
  8
0
  6
CONTINUOUS
100
AcDbBlockEnd
  0
BLOCK
  5
39B
100
AcDbEntity
  8
0
100
AcDbBlockBegin
  2
*D34
 70
        65
 10
0.0
 20
0.0
 30
0.0
  3
*D34
  1

  0
POINT
  5
39D
100
AcDbEntity
  8
DEFPOINTS
  6
CONTINUOUS
 62
         0
100
AcDbPoint
 10
1734.77872172
 20
-99.293033939
 30
0.0
  0
POINT
  5
39E
100
AcDbEntity
  8
DEFPOINTS
  6
CONTINUOUS
 62
         0
100
AcDbPoint
 10
1734.77872172
 20
-116.2150166132
 30
0.0
  0
POINT
  5
39F
100
AcDbEntity
  8
DEFPOINTS
  6
CONTINUOUS
 62
         0
100
AcDbPoint
 10
1741.2786999334
 20
-114.6400166132
 30
0.0
  0
LINE
  5
3A0
100
AcDbEntity
  8
L1_150
  6
CONTINUOUS
 62
         4
100
AcDbLine
 10
1734.77872172
 20
-114.4650166132
 30
0.0
 11
1734.77872172
 21
-98.418033939
 31
0.0
  0
LINE
  5
3A1
100
AcDbEntity
  8
L1_150
  6
CONTINUOUS
 62
         4
100
AcDbLine
 10
1741.2786999334
 20
-112.8900166132
 30
0.0
 11
1741.2786999334
 21
-98.418033939
 31
0.0
  0
LINE
  5
3A2
100
AcDbEntity
  8
L1_150
  6
CONTINUOUS
 62
         4
100
AcDbLine
 10
1734.77872172
 20
-99.293033939
 30
0.0
 11
1725.5363172735
 21
-99.293033939
 31
0.0
  0
SOLID
  5
3A3
100
AcDbEntity
  8
L1_150
  6
CONTINUOUS
 62
         4
100
AcDbTrace
 10
1734.77872172
 20
-99.293033939
 30
0.0
 11
1731.27872172
 21
-99.818033939
 31
0.0
 12
1731.27872172
 22
-98.768033939
 32
0.0
 13
1734.77872172
 23
-99.293033939
 33
0.0
  0
LINE
  5
3A4
100
AcDbEntity
  8
L1_150
  6
CONTINUOUS
 62
         4
100
AcDbLine
 10
1741.2786999334
 20
-99.293033939
 30
0.0
 11
1748.2786999334
 21
-99.293033939
 31
0.0
  0
SOLID
  5
3A5
100
AcDbEntity
  8
L1_150
  6
CONTINUOUS
 62
         4
100
AcDbTrace
 10
1741.2786999334
 20
-99.293033939
 30
0.0
 11
1744.7786999334
 21
-98.768033939
 31
0.0
 12
1744.7786999334
 22
-99.818033939
 32
0.0
 13
1741.2786999334
 23
-99.293033939
 33
0.0
  0
LINE
  5
3A6
100
AcDbEntity
  8
L1_150
  6
CONTINUOUS
 62
         4
100
AcDbLine
 10
1734.77872172
 20
-99.293033939
 30
0.0
 11
1741.2786999334
 21
-99.293033939
 31
0.0
  0
TEXT
  5
3A8
100
AcDbEntity
  8
L1_150
  6
CONTINUOUS
 62
         4
100
AcDbText
 10
1727.2863172735
 20
-96.668033939
 30
0.0
 40
3.5
  1
6.5
  7
BOX
100
AcDbText
  0
ENDBLK
  5
3A9
100
AcDbEntity
  8
0
  6
CONTINUOUS
100
AcDbBlockEnd
  0
BLOCK
  5
5F5
100
AcDbEntity
  8
0
100
AcDbBlockBegin
  2
*D35
 70
        65
 10
0.0
 20
0.0
 30
0.0
  3
*D35
  1

  0
POINT
  5
5F7
100
AcDbEntity
  8
DEFPOINTS
  6
CONTINUOUS
 62
         0
100
AcDbPoint
 10
1422.1786999334
 20
213.886056579
 30
0.0
  0
POINT
  5
5F8
100
AcDbEntity
  8
DEFPOINTS
  6
CONTINUOUS
 62
         0
100
AcDbPoint
 10
1422.1786999334
 20
130.1987502026
 30
0.0
  0
POINT
  5
5F9
100
AcDbEntity
  8
DEFPOINTS
  6
CONTINUOUS
 62
         0
100
AcDbPoint
 10
1741.2786999334
 20
112.2524144385
 30
0.0
  0
LINE
  5
5FA
100
AcDbEntity
  8
L1_150
  6
CONTINUOUS
 62
         4
100
AcDbLine
 10
1422.1786999334
 20
131.9487502026
 30
0.0
 11
1422.1786999334
 21
214.761056579
 31
0.0
  0
LINE
  5
5FB
100
AcDbEntity
  8
L1_150
  6
CONTINUOUS
 62
         4
100
AcDbLine
 10
1741.2786999334
 20
114.0024144385
 30
0.0
 11
1741.2786999334
 21
214.761056579
 31
0.0
  0
LINE
  5
5FC
100
AcDbEntity
  8
L1_150
  6
CONTINUOUS
 62
         4
100
AcDbLine
 10
1422.1786999334
 20
213.886056579
 30
0.0
 11
1741.2786999334
 21
213.886056579
 31
0.0
  0
SOLID
  5
5FD
100
AcDbEntity
  8
L1_150
  6
CONTINUOUS
 62
         4
100
AcDbTrace
 10
1422.1786999334
 20
213.886056579
 30
0.0
 11
1425.6786999334
 21
214.411056579
 31
0.0
 12
1425.6786999334
 22
213.361056579
 32
0.0
 13
1422.1786999334
 23
213.886056579
 33
0.0
  0
SOLID
  5
5FE
100
AcDbEntity
  8
L1_150
  6
CONTINUOUS
 62
         4
100
AcDbTrace
 10
1741.2786999334
 20
213.886056579
 30
0.0
 11
1737.7786999334
 21
213.361056579
 31
0.0
 12
1737.7786999334
 22
214.411056579
 32
0.0
 13
1741.2786999334
 23
213.886056579
 33
0.0
  0
TEXT
  5
600
100
AcDbEntity
  8
L1_150
  6
CONTINUOUS
 62
         4
100
AcDbText
 10
1519.985396728
 20
216.511056579
 30
0.0
 40
3.5
  1
319.1
  7
BOX
100
AcDbText
  0
ENDBLK
  5
601
100
AcDbEntity
  8
0
  6
CONTINUOUS
100
AcDbBlockEnd
  0
BLOCK
  5
603
100
AcDbEntity
  8
0
100
AcDbBlockBegin
  2
*D36
 70
        65
 10
0.0
 20
0.0
 30
0.0
  3
*D36
  1

  0
POINT
  5
605
100
AcDbEntity
  8
DEFPOINTS
  6
CONTINUOUS
 62
         0
100
AcDbPoint
 10
1523.7786999334
 20
206.0589548378
 30
0.0
  0
POINT
  5
606
100
AcDbEntity
  8
DEFPOINTS
  6
CONTINUOUS
 62
         0
100
AcDbPoint
 10
1523.7786999334
 20
151.9774144385
 30
0.0
  0
POINT
  5
607
100
AcDbEntity
  8
DEFPOINTS
  6
CONTINUOUS
 62
         0
100
AcDbPoint
 10
1723.7786999334
 20
141.2524144385
 30
0.0
  0
LINE
  5
608
100
AcDbEntity
  8
L1_150
  6
CONTINUOUS
 62
         4
100
AcDbLine
 10
1523.7786999334
 20
153.7274144385
 30
0.0
 11
1523.7786999334
 21
206.9339548378
 31
0.0
  0
LINE
  5
609
100
AcDbEntity
  8
L1_150
  6
CONTINUOUS
 62
         4
100
AcDbLine
 10
1723.7786999334
 20
143.0024144385
 30
0.0
 11
1723.7786999334
 21
206.9339548378
 31
0.0
  0
LINE
  5
60A
100
AcDbEntity
  8
L1_150
  6
CONTINUOUS
 62
         4
100
AcDbLine
 10
1523.7786999334
 20
206.0589548378
 30
0.0
 11
1723.7786999334
 21
206.0589548378
 31
0.0
  0
SOLID
  5
60B
100
AcDbEntity
  8
L1_150
  6
CONTINUOUS
 62
         4
100
AcDbTrace
 10
1523.7786999334
 20
206.0589548378
 30
0.0
 11
1527.2786999334
 21
206.5839548378
 31
0.0
 12
1527.2786999334
 22
205.5339548378
 32
0.0
 13
1523.7786999334
 23
206.0589548378
 33
0.0
  0
SOLID
  5
60C
100
AcDbEntity
  8
L1_150
  6
CONTINUOUS
 62
         4
100
AcDbTrace
 10
1723.7786999334
 20
206.0589548378
 30
0.0
 11
1720.2786999334
 21
205.5339548378
 31
0.0
 12
1720.2786999334
 22
206.5839548378
 32
0.0
 13
1723.7786999334
 23
206.0589548378
 33
0.0
  0
TEXT
  5
60E
100
AcDbEntity
  8
L1_150
  6
CONTINUOUS
 62
         4
100
AcDbText
 10
1618.5286999334
 20
208.6839548378
 30
0.0
 40
3.5
  1
200
  7
BOX
100
AcDbText
  0
ENDBLK
  5
60F
100
AcDbEntity
  8
0
  6
CONTINUOUS
100
AcDbBlockEnd
  0
ENDSEC
  0
SECTION
  2
ENTITIES
  0
INSERT
  5
E9
100
AcDbEntity
  8
0
  6
CONTINUOUS
100
AcDbBlockReference
  2
*X0
 10
0.0
 20
0.0
 30
0.0
  0
ARC
  5
EA
100
AcDbEntity
  8
L1_150
  6
CONTINUOUS
 62
         7
100
AcDbCircle
 10
1559.3306999334
 20
-157.2400166132
 30
0.0
 40
0.5
100
AcDbArc
 50
90.0
 51
180.0
  0
ARC
  5
EB
100
AcDbEntity
  8
L1_150
  6
CONTINUOUS
 62
         7
100
AcDbCircle
 10
1559.3306999334
 20
-96.2400166132
 30
0.0
 40
0.5
100
AcDbArc
 50
180.0
 51
270.0
  0
LINE
  5
EC
100
AcDbEntity
  8
L1_150
  6
CONTINUOUS
 62
         7
100
AcDbLine
 10
1558.8306999334
 20
-96.2400166132
 30
0.0
 11
1558.8306999334
 21
-92.6150166132
 31
0.0
  0
LINE
  5
ED
100
AcDbEntity
  8
L1_150
  6
CONTINUOUS
 62
         7
100
AcDbLine
 10
1558.8306999334
 20
-160.8650166132
 30
0.0
 11
1558.8306999334
 21
-157.2400166132
 31
0.0
  0
LINE
  5
EE
100
AcDbEntity
  8
L1_150
  6
CONTINUOUS
 62
         7
100
AcDbLine
 10
1691.2786999334
 20
-115.6450166132
 30
0.0
 11
1690.8753292392
 21
-116.3436751498
 31
0.0
  0
LINE
  5
EF
100
AcDbEntity
  8
L1_150
  6
CONTINUOUS
 62
         7
100
AcDbLine
 10
1691.2786999334
 20
-116.3436751498
 30
0.0
 11
1691.2786999334
 21
-115.6450166132
 31
0.0
  0
LINE
  5
F0
100
AcDbEntity
  8
L1_150
  6
CENTER
 62
         1
100
AcDbLine
 10
1691.2786999334
 20
-118.8450166132
 30
0.0
 11
1695.0691511194
 21
-118.8450166132
 31
0.0
  0
LINE
  5
F1
100
AcDbEntity
  8
L1_150
  6
CENTER
 62
         1
100
AcDbLine
 10
1691.2786999334
 20
-118.1463580766
 30
0.0
 11
1691.2786999334
 21
-118.8450166132
 31
0.0
  0
LINE
  5
F2
100
AcDbEntity
  8
L1_150
  6
CENTER
 62
         1
100
AcDbLine
 10
1691.2786999334
 20
-118.8450166132
 30
0.0
 11
1690.3549395027
 21
-117.2450166132
 31
0.0
  0
LINE
  5
F3
100
AcDbEntity
  8
L1_150
  6
DASHED
 62
         2
100
AcDbLine
 10
1691.2786999334
 20
-137.1363580766
 30
0.0
 11
1691.2786999334
 21
-137.8350166132
 31
0.0
  0
LINE
  5
F4
100
AcDbEntity
  8
L1_150
  6
DASHED
 62
         2
100
AcDbLine
 10
1691.2786999334
 20
-137.8350166132
 30
0.0
 11
1690.8753292392
 21
-137.1363580766
 31
0.0
  0
LINE
  5
F5
100
AcDbEntity
  8
L1_150
  6
CENTER
 62
         1
100
AcDbLine
 10
1690.8753292392
 20
-116.3436751498
 30
0.0
 11
1690.3549395027
 21
-117.2450166132
 31
0.0
  0
LINE
  5
F6
100
AcDbEntity
  8
L1_150
  6
CENTER
 62
         1
100
AcDbLine
 10
1691.2786999334
 20
-118.4956873449
 30
0.0
 11
1691.2786999334
 21
-116.3436751498
 31
0.0
  0
LINE
  5
F7
100
AcDbEntity
  8
L1_150
  6
CONTINUOUS
 62
         7
100
AcDbLine
 10
1693.6250009522
 20
-116.3436751498
 30
0.0
 11
1693.6250009522
 21
-137.1363580766
 31
0.0
  0
LINE
  5
F8
100
AcDbEntity
  8
L1_150
  6
CONTINUOUS
 62
         7
100
AcDbLine
 10
1693.6250009522
 20
-137.1363580766
 30
0.0
 11
1454.1296156758
 21
-137.1363580766
 31
0.0
  0
LINE
  5
F9
100
AcDbEntity
  8
L1_150
  6
CONTINUOUS
 62
         7
100
AcDbLine
 10
1693.6250009522
 20
-116.3436751498
 30
0.0
 11
1454.1296156758
 21
-116.3436751498
 31
0.0
  0
ARC
  5
FA
100
AcDbEntity
  8
L1_150
  6
CONTINUOUS
 62
         7
100
AcDbCircle
 10
1559.3306999334
 20
81.7524144385
 30
0.0
 40
0.5
100
AcDbArc
 50
90.0
 51
180.0
  0
ARC
  5
FB
100
AcDbEntity
  8
L1_150
  6
CONTINUOUS
 62
         7
100
AcDbCircle
 10
1559.3306999334
 20
142.7524144385
 30
0.0
 40
0.5
100
AcDbArc
 50
180.0
 51
270.0
  0
LINE
  5
FC
100
AcDbEntity
  8
L1_150
  6
DASHED
 62
         2
100
AcDbLine
 10
1704.2786999334
 20
-102.0900166132
 30
0.0
 11
1704.2786999334
 21
-105.3900166132
 31
0.0
  0
LINE
  5
FD
100
AcDbEntity
  8
L1_150
  6
DASHED
 62
         2
100
AcDbLine
 10
1704.2786999334
 20
-105.3900166132
 30
0.0
 11
1703.3260719892
 21
-103.7400166132
 31
0.0
  0
LINE
  5
FE
100
AcDbEntity
  8
L1_150
  6
DASHED
 62
         2
100
AcDbLine
 10
1704.2786999334
 20
-102.0900166132
 30
0.0
 11
1703.3260719892
 21
-103.7400166132
 31
0.0
  0
LINE
  5
FF
100
AcDbEntity
  8
L1_150
  6
DASHED
 62
         2
100
AcDbLine
 10
1709.2786999334
 20
-101.7400166132
 30
0.0
 11
1709.2786999334
 21
-105.7400166132
 31
0.0
  0
LINE
  5
100
100
AcDbEntity
  8
L1_150
  6
DASHED
 62
         2
100
AcDbLine
 10
1719.2786999334
 20
-102.0900166132
 30
0.0
 11
1704.2786999334
 21
-102.0900166132
 31
0.0
  0
LINE
  5
101
100
AcDbEntity
  8
L1_150
  6
DASHED
 62
         2
100
AcDbLine
 10
1719.2786999334
 20
-101.7400166132
 30
0.0
 11
1709.2786999334
 21
-101.7400166132
 31
0.0
  0
LINE
  5
102
100
AcDbEntity
  8
L1_150
  6
DASHED
 62
         2
100
AcDbLine
 10
1719.2786999334
 20
-105.3900166132
 30
0.0
 11
1704.2786999334
 21
-105.3900166132
 31
0.0
  0
LINE
  5
103
100
AcDbEntity
  8
L1_150
  6
DASHED
 62
         2
100
AcDbLine
 10
1719.2786999334
 20
-105.7400166132
 30
0.0
 11
1709.2786999334
 21
-105.7400166132
 31
0.0
  0
LINE
  5
104
100
AcDbEntity
  8
L1_150
  6
CENTER
 62
         1
100
AcDbLine
 10
1719.9484044573
 20
-103.7400166132
 30
0.0
 11
1702.6875191927
 21
-103.7400166132
 31
0.0
  0
LINE
  5
105
100
AcDbEntity
  8
L1_150
  6
DASHED
 62
         2
100
AcDbLine
 10
1719.2786999334
 20
-108.7400166132
 30
0.0
 11
1723.7786999334
 21
-108.7400166132
 31
0.0
  0
LINE
  5
106
100
AcDbEntity
  8
L1_150
  6
DASHED
 62
         2
100
AcDbLine
 10
1719.2786999334
 20
-108.7400166132
 30
0.0
 11
1719.2786999334
 21
-96.7400166132
 31
0.0
  0
LINE
  5
107
100
AcDbEntity
  8
L1_150
  6
CENTER
 62
         1
100
AcDbLine
 10
1523.7786999334
 20
151.9774144385
 30
0.0
 11
1523.7786999334
 21
73.981360093
 31
0.0
  0
LINE
  5
108
100
AcDbEntity
  8
L1_150
  6
CONTINUOUS
 62
         7
100
AcDbLine
 10
1526.9786999334
 20
159.5024144385
 30
0.0
 11
1526.9786999334
 21
65.0024144385
 31
0.0
  0
LINE
  5
109
100
AcDbEntity
  8
L1_150
  6
CONTINUOUS
 62
         7
100
AcDbLine
 10
1422.1786999334
 20
130.1987502026
 30
0.0
 11
1422.1786999334
 21
94.3060786745
 31
0.0
  0
DIMENSION
  5
10D
100
AcDbEntity
  8
L1_150
  6
CONTINUOUS
 62
         4
100
AcDbDimension
  2
*D1
 10
1864.1654488803
 20
-136.4666243149
 30
0.0
 11
1861.5404488803
 21
-145.40108219
 31
0.0
  3
DIMSTYLE1
100
AcDbAlignedDimension
 13
1842.540540492
 23
-136.4666243149
 33
0.0
 14
1842.540540492
 24
-147.4666243149
 34
0.0
 50
90.0
100
AcDbRotatedDimension
  0
LINE
  5
11A
100
AcDbEntity
  8
L1_150
  6
CONTINUOUS
 62
         7
100
AcDbLine
 10
1825.6849233924
 20
-136.4666243149
 30
0.0
 11
1826.4849233924
 21
-137.2666243149
 31
0.0
  0
LINE
  5
11B
100
AcDbEntity
  8
L1_150
  6
CONTINUOUS
 62
         7
100
AcDbLine
 10
1818.2849233924
 20
-136.4666243149
 30
0.0
 11
1817.4849233924
 21
-137.2666243149
 31
0.0
  0
LINE
  5
11C
100
AcDbEntity
  8
L1_150
  6
CONTINUOUS
 62
         7
100
AcDbLine
 10
1825.6849233924
 20
-136.4666243149
 30
0.0
 11
1818.2849233924
 21
-136.4666243149
 31
0.0
  0
LINE
  5
11D
100
AcDbEntity
  8
L1_150
  6
CONTINUOUS
 62
         7
100
AcDbLine
 10
1846.440540492
 20
-136.4666243149
 30
0.0
 11
1847.240540492
 21
-137.2666243149
 31
0.0
  0
LINE
  5
11E
100
AcDbEntity
  8
L1_150
  6
CONTINUOUS
 62
         7
100
AcDbLine
 10
1838.640540492
 20
-136.4666243149
 30
0.0
 11
1837.840540492
 21
-137.2666243149
 31
0.0
  0
LINE
  5
11F
100
AcDbEntity
  8
L1_150
  6
CONTINUOUS
 62
         7
100
AcDbLine
 10
1846.440540492
 20
-136.4666243149
 30
0.0
 11
1838.640540492
 21
-136.4666243149
 31
0.0
  0
DIMENSION
  5
122
100
AcDbEntity
  8
L1_150
  6
CONTINUOUS
 62
         4
100
AcDbDimension
  2
*D2
 10
1854.6429689155
 20
-147.4666243149
 30
0.0
 11
1852.0179689155
 21
-146.7166243149
 31
0.0
  3
DIMSTYLE1
100
AcDbAlignedDimension
 13
1842.540540492
 23
-147.4666243149
 33
0.0
 14
1842.540540492
 24
-142.4666243149
 34
0.0
 50
90.0
100
AcDbRotatedDimension
  0
LINE
  5
130
100
AcDbEntity
  8
L1_150
  6
CONTINUOUS
 62
         7
100
AcDbLine
 10
1846.440540492
 20
-147.4666243149
 30
0.0
 11
1838.640540492
 21
-147.4666243149
 31
0.0
  0
LINE
  5
131
100
AcDbEntity
  8
L1_150
  6
CENTER
 62
         1
100
AcDbLine
 10
1842.540540492
 20
-149.4261226199
 30
0.0
 11
1842.540540492
 21
-134.8932017154
 31
0.0
  0
LINE
  5
132
100
AcDbEntity
  8
L1_150
  6
CONTINUOUS
 62
         7
100
AcDbLine
 10
1847.240540492
 20
-146.6666243149
 30
0.0
 11
1847.240540492
 21
-137.2666243149
 31
0.0
  0
LINE
  5
133
100
AcDbEntity
  8
L1_150
  6
CONTINUOUS
 62
         7
100
AcDbLine
 10
1837.840540492
 20
-146.6666243149
 30
0.0
 11
1837.840540492
 21
-137.2666243149
 31
0.0
  0
LINE
  5
134
100
AcDbEntity
  8
L1_150
  6
CONTINUOUS
 62
         7
100
AcDbLine
 10
1837.840540492
 20
-146.6666243149
 30
0.0
 11
1838.640540492
 21
-147.4666243149
 31
0.0
  0
LINE
  5
135
100
AcDbEntity
  8
L1_150
  6
CONTINUOUS
 62
         7
100
AcDbLine
 10
1847.240540492
 20
-146.6666243149
 30
0.0
 11
1846.440540492
 21
-147.4666243149
 31
0.0
  0
LINE
  5
136
100
AcDbEntity
  8
L1_150
  6
CENTER
 62
         1
100
AcDbLine
 10
1846.440540492
 20
-142.4666243149
 30
0.0
 11
1838.640540492
 21
-142.4666243149
 31
0.0
  0
CIRCLE
  5
137
100
AcDbEntity
  8
L1_150
  6
CONTINUOUS
 62
         7
100
AcDbCircle
 10
1842.540540492
 20
-142.4666243149
 30
0.0
 40
2.25
  0
CIRCLE
  5
138
100
AcDbEntity
  8
L1_150
  6
CONTINUOUS
 62
         7
100
AcDbCircle
 10
1842.540540492
 20
-142.4666243149
 30
0.0
 40
4.0
  0
LINE
  5
139
100
AcDbEntity
  8
L1_150
  6
CONTINUOUS
 62
         7
100
AcDbLine
 10
1825.6849233924
 20
-147.4666243149
 30
0.0
 11
1818.2849233924
 21
-147.4666243149
 31
0.0
  0
LINE
  5
13A
100
AcDbEntity
  8
L1_150
  6
CONTINUOUS
 62
         7
100
AcDbLine
 10
1826.4849233924
 20
-146.6666243149
 30
0.0
 11
1826.4849233924
 21
-137.2666243149
 31
0.0
  0
LINE
  5
13B
100
AcDbEntity
  8
L1_150
  6
CONTINUOUS
 62
         7
100
AcDbLine
 10
1817.4849233924
 20
-146.6666243149
 30
0.0
 11
1817.4849233924
 21
-137.2666243149
 31
0.0
  0
LINE
  5
13C
100
AcDbEntity
  8
L1_150
  6
CENTER
 62
         1
100
AcDbLine
 10
1828.1724112295
 20
-142.4666243149
 30
0.0
 11
1815.315361042
 21
-142.4666243149
 31
0.0
  0
LINE
  5
13D
100
AcDbEntity
  8
L1_150
  6
CONTINUOUS
 62
         7
100
AcDbLine
 10
1822.0849233924
 20
-140.2166243149
 30
0.0
 11
1817.9849233924
 21
-140.2166243149
 31
0.0
  0
LINE
  5
13E
100
AcDbEntity
  8
L1_150
  6
CONTINUOUS
 62
         7
100
AcDbLine
 10
1825.9849233924
 20
-138.4666243149
 30
0.0
 11
1822.0849233924
 21
-138.4666243149
 31
0.0
  0
LINE
  5
13F
100
AcDbEntity
  8
L1_150
  6
CONTINUOUS
 62
         7
100
AcDbLine
 10
1822.0849233924
 20
-144.7166243149
 30
0.0
 11
1817.9849233924
 21
-144.7166243149
 31
0.0
  0
LINE
  5
140
100
AcDbEntity
  8
L1_150
  6
CONTINUOUS
 62
         7
100
AcDbLine
 10
1825.9849233924
 20
-146.4666243149
 30
0.0
 11
1822.0849233924
 21
-146.4666243149
 31
0.0
  0
LINE
  5
141
100
AcDbEntity
  8
L1_150
  6
CONTINUOUS
 62
         7
100
AcDbLine
 10
1822.0849233924
 20
-146.4666243149
 30
0.0
 11
1822.0849233924
 21
-138.4666243149
 31
0.0
  0
LINE
  5
142
100
AcDbEntity
  8
L1_150
  6
CONTINUOUS
 62
         7
100
AcDbLine
 10
1826.4849233924
 20
-146.6666243149
 30
0.0
 11
1825.6849233924
 21
-147.4666243149
 31
0.0
  0
LINE
  5
143
100
AcDbEntity
  8
L1_150
  6
CONTINUOUS
 62
         7
100
AcDbLine
 10
1817.4849233924
 20
-146.6666243149
 30
0.0
 11
1818.2849233924
 21
-147.4666243149
 31
0.0
  0
LINE
  5
144
100
AcDbEntity
  8
L1_150
  6
CONTINUOUS
 62
         7
100
AcDbLine
 10
1825.9849233924
 20
-146.4666243149
 30
0.0
 11
1825.9849233924
 21
-138.4666243149
 31
0.0
  0
LINE
  5
145
100
AcDbEntity
  8
L1_150
  6
CONTINUOUS
 62
         7
100
AcDbLine
 10
1817.9849233924
 20
-144.7166243149
 30
0.0
 11
1817.9849233924
 21
-140.2166243149
 31
0.0
  0
LINE
  5
146
100
AcDbEntity
  8
L1_150
  6
CONTINUOUS
 62
         7
100
AcDbLine
 10
1817.4849233924
 20
-145.2166243149
 30
0.0
 11
1817.9849233924
 21
-144.7166243149
 31
0.0
  0
LINE
  5
147
100
AcDbEntity
  8
L1_150
  6
CONTINUOUS
 62
         7
100
AcDbLine
 10
1817.4849233924
 20
-139.7166243149
 30
0.0
 11
1817.9849233924
 21
-140.2166243149
 31
0.0
  0
LINE
  5
148
100
AcDbEntity
  8
L1_150
  6
CONTINUOUS
 62
         7
100
AcDbLine
 10
1825.9849233924
 20
-138.4666243149
 30
0.0
 11
1826.4849233924
 21
-137.9666243149
 31
0.0
  0
LINE
  5
149
100
AcDbEntity
  8
L1_150
  6
CONTINUOUS
 62
         7
100
AcDbLine
 10
1825.9849233924
 20
-146.4666243149
 30
0.0
 11
1826.3349233924
 21
-146.8166243149
 31
0.0
  0
DIMENSION
  5
14C
100
AcDbEntity
  8
L1_150
  6
CONTINUOUS
 62
         4
100
AcDbDimension
  2
*D3
 10
1826.6849233924
 20
-156.9711872832
 30
0.0
 11
1828.7738508626
 21
-154.3461872832
 31
0.0
  3
DIMSTYLE1
100
AcDbAlignedDimension
 13
1826.6849233924
 23
-146.4666243149
 33
0.0
 14
1817.4849233924
 24
-146.6666243149
 34
0.0
100
AcDbRotatedDimension
  0
DIMENSION
  5
15B
100
AcDbEntity
  8
L1_150
  6
CONTINUOUS
 62
         4
100
AcDbDimension
  2
*D4
 10
1822.0849233924
 20
-130.4178229138
 30
0.0
 11
1819.2343088485
 21
-127.7928229138
 31
0.0
  3
DIMSTYLE1
100
AcDbAlignedDimension
 13
1822.0849233924
 23
-137.2666243149
 33
0.0
 14
1826.4849233924
 24
-136.7666243149
 34
0.0
100
AcDbRotatedDimension
  0
DIMENSION
  5
16B
100
AcDbEntity
  8
L1_150
  6
CONTINUOUS
 62
         4
100
AcDbDimension
  2
*D5
 10
1814.1074397544
 20
-140.2166243149
 30
0.0
 11
1811.4824397544
 21
-166.1405447388
 31
0.0
  3
DIMSTYLE1
100
AcDbAlignedDimension
 13
1817.9849233924
 23
-140.2166243149
 33
0.0
 14
1817.9849233924
 24
-144.7166243149
 34
0.0
 50
90.0
100
AcDbRotatedDimension
  0
DIMENSION
  5
17B
100
AcDbEntity
  8
L1_150
  6
CONTINUOUS
 62
         4
100
AcDbDimension
  2
*D6
 10
1804.5678977402
 20
-138.4666243149
 30
0.0
 11
1801.9428977402
 21
-147.2432813718
 31
0.0
  3
DIMSTYLE1
100
AcDbAlignedDimension
 13
1822.0849233924
 23
-138.4666243149
 33
0.0
 14
1822.0849233924
 24
-146.4666243149
 34
0.0
 50
90.0
100
AcDbRotatedDimension
  0
DIMENSION
  5
18B
100
AcDbEntity
  8
L1_150
  6
CONTINUOUS
 62
         4
100
AcDbDimension
  2
*D7
 10
1837.840540492
 20
-131.432013914
 30
0.0
 11
1837.1332433493
 21
-128.807013914
 31
0.0
  3
DIMSTYLE1
100
AcDbAlignedDimension
 13
1837.840540492
 23
-136.8666243149
 33
0.0
 14
1847.240540492
 24
-136.8666243149
 34
0.0
100
AcDbRotatedDimension
  0
INSERT
  5
19E
100
AcDbEntity
  8
0
  6
CONTINUOUS
100
AcDbBlockReference
  2
*X8
 10
0.0
 20
0.0
 30
0.0
  0
INSERT
  5
1A6
100
AcDbEntity
  8
0
  6
CONTINUOUS
100
AcDbBlockReference
  2
*X9
 10
0.0
 20
0.0
 30
0.0
  0
ARC
  5
1A7
100
AcDbEntity
  8
L1_150
  6
CONTINUOUS
 62
         7
100
AcDbCircle
 10
1739.2786999334
 20
-137.7400166132
 30
0.0
 40
2.0
100
AcDbArc
 50
0.0
 51
90.0
  0
ARC
  5
1A8
100
AcDbEntity
  8
L1_150
  6
CONTINUOUS
 62
         7
100
AcDbCircle
 10
1739.2786999334
 20
-115.7400166132
 30
0.0
 40
2.0
100
AcDbArc
 50
270.0
 51
360.0
  0
DIMENSION
  5
1AB
100
AcDbEntity
  8
L1_150
  6
CONTINUOUS
 62
         4
100
AcDbDimension
  2
*D10
 10
1741.2786999334
 20
-92.28463846
 30
0.0
 11
1717.3065000415
 21
-89.65963846
 31
0.0
  3
DIMSTYLE1
100
AcDbAlignedDimension
 13
1741.2786999334
 23
-114.6400166132
 33
0.0
 14
1705.2786999334
 24
-120.3900166132
 34
0.0
100
AcDbRotatedDimension
  0
DIMENSION
  5
1B9
100
AcDbEntity
  8
L1_150
  6
CONTINUOUS
 62
         4
100
AcDbDimension
  2
*D11
 10
1741.2786999334
 20
-107.5745884144
 30
0.0
 11
1737.4044399869
 21
-104.9495884144
 31
0.0
  3
DIMSTYLE1
100
AcDbAlignedDimension
 13
1741.2786999334
 23
-114.6400166132
 33
0.0
 14
1736.2786999334
 24
-118.7400166132
 34
0.0
100
AcDbRotatedDimension
  0
ARC
  5
1C7
100
AcDbEntity
  8
L1_150
  6
CONTINUOUS
 62
         7
100
AcDbCircle
 10
1723.1786999334
 20
-97.3400166132
 30
0.0
 40
0.6
100
AcDbArc
 50
0.0
 51
90.0
  0
LINE
  5
1C8
100
AcDbEntity
  8
L1_150
  6
CENTER
 62
         1
100
AcDbLine
 10
1742.8951004521
 20
-126.7400166132
 30
0.0
 11
1565.7550784861
 21
-126.7400166132
 31
0.0
  0
LINE
  5
1C9
100
AcDbEntity
  8
L1_150
  6
CONTINUOUS
 62
         7
100
AcDbLine
 10
1741.2786999334
 20
-138.8400166132
 30
0.0
 11
1741.2786999334
 21
-114.6400166132
 31
0.0
  0
LINE
  5
1CA
100
AcDbEntity
  8
L1_150
  6
CONTINUOUS
 62
         7
100
AcDbLine
 10
1734.431179072
 20
-120.9400166132
 30
0.0
 11
1696.2786999334
 21
-120.9400166132
 31
0.0
  0
DIMENSION
  5
1CD
100
AcDbEntity
  8
L1_150
  6
CONTINUOUS
 62
         4
100
AcDbDimension
  2
*D12
 10
1719.2786999334
 20
-185.9672034819
 30
0.0
 11
1724.1878193978
 21
-183.3422034819
 31
0.0
  3
DIMSTYLE1
100
AcDbAlignedDimension
 13
1719.2786999334
 23
-157.5000166132
 33
0.0
 14
1723.7786999334
 24
-156.1400166132
 34
0.0
100
AcDbRotatedDimension
  0
LINE
  5
1DB
100
AcDbEntity
  8
L1_150
  6
CONTINUOUS
 62
         7
100
AcDbLine
 10
1696.2786999334
 20
-132.5400166132
 30
0.0
 11
1693.6250009522
 21
-137.1363580766
 31
0.0
  0
LINE
  5
1DC
100
AcDbEntity
  8
L1_150
  6
CONTINUOUS
 62
         7
100
AcDbLine
 10
1696.2786999334
 20
-120.9400166132
 30
0.0
 11
1693.6250009522
 21
-116.3436751498
 31
0.0
  0
LINE
  5
1DD
100
AcDbEntity
  8
L1_150
  6
CONTINUOUS
 62
         7
100
AcDbLine
 10
1740.6786999334
 20
-139.4400166132
 30
0.0
 11
1726.1251100949
 21
-139.4400166132
 31
0.0
  0
LINE
  5
1DE
100
AcDbEntity
  8
L1_150
  6
CONTINUOUS
 62
         7
100
AcDbLine
 10
1723.7786999334
 20
-140.1895120971
 30
0.0
 11
1723.7786999334
 21
-156.1400166132
 31
0.0
  0
ARC
  5
1DF
100
AcDbEntity
  8
L1_150
  6
CONTINUOUS
 62
         7
100
AcDbCircle
 10
1725.6715202564
 20
-139.6400166132
 30
0.0
 40
0.4
100
AcDbArc
 50
60.0
 51
90.0
  0
LINE
  5
1E0
100
AcDbEntity
  8
L1_150
  6
CONTINUOUS
 62
         7
100
AcDbLine
 10
1725.6715202564
 20
-139.2400166132
 30
0.0
 11
1723.9786999334
 21
-139.2400166132
 31
0.0
  0
LINE
  5
1E1
100
AcDbEntity
  8
L1_150
  6
CONTINUOUS
 62
         7
100
AcDbLine
 10
1725.8715202564
 20
-139.2936064517
 30
0.0
 11
1726.1251100949
 21
-139.4400166132
 31
0.0
  0
LINE
  5
1E2
100
AcDbEntity
  8
L1_150
  6
CONTINUOUS
 62
         7
100
AcDbLine
 10
1723.7786999334
 20
-140.1895120971
 30
0.0
 11
1723.5786999334
 21
-139.6400166132
 31
0.0
  0
ARC
  5
1E3
100
AcDbEntity
  8
L1_150
  6
CONTINUOUS
 62
         7
100
AcDbCircle
 10
1723.9786999334
 20
-139.6400166132
 30
0.0
 40
0.4
100
AcDbArc
 50
90.0
 51
180.0
  0
LINE
  5
1E4
100
AcDbEntity
  8
L1_150
  6
CONTINUOUS
 62
         7
100
AcDbLine
 10
1723.7786999334
 20
-97.3400166132
 30
0.0
 11
1723.7786999334
 21
-113.2905211293
 31
0.0
  0
ARC
  5
1E5
100
AcDbEntity
  8
L1_150
  6
CONTINUOUS
 62
         7
100
AcDbCircle
 10
1725.6715202564
 20
-113.8400166132
 30
0.0
 40
0.4
100
AcDbArc
 50
270.0
 51
300.0
  0
LINE
  5
1E6
100
AcDbEntity
  8
L1_150
  6
CONTINUOUS
 62
         7
100
AcDbLine
 10
1725.6715202564
 20
-114.2400166132
 30
0.0
 11
1723.9786999334
 21
-114.2400166132
 31
0.0
  0
LINE
  5
1E7
100
AcDbEntity
  8
L1_150
  6
CONTINUOUS
 62
         7
100
AcDbLine
 10
1725.8715202564
 20
-114.1864267747
 30
0.0
 11
1726.1251100949
 21
-114.0400166132
 31
0.0
  0
LINE
  5
1E8
100
AcDbEntity
  8
L1_150
  6
CONTINUOUS
 62
         7
100
AcDbLine
 10
1726.1251100949
 20
-114.0400166132
 30
0.0
 11
1740.6786999334
 21
-114.0400166132
 31
0.0
  0
LINE
  5
1E9
100
AcDbEntity
  8
L1_150
  6
CONTINUOUS
 62
         7
100
AcDbLine
 10
1723.7786999334
 20
-113.2905211293
 30
0.0
 11
1723.5786999334
 21
-113.8400166132
 31
0.0
  0
ARC
  5
1EA
100
AcDbEntity
  8
L1_150
  6
CONTINUOUS
 62
         7
100
AcDbCircle
 10
1723.9786999334
 20
-113.8400166132
 30
0.0
 40
0.4
100
AcDbArc
 50
180.0
 51
270.0
  0
LINE
  5
1EB
100
AcDbEntity
  8
L1_150
  6
CENTER
 62
         1
100
AcDbLine
 10
1719.9484044573
 20
-149.7400166132
 30
0.0
 11
1702.6875191927
 21
-149.7400166132
 31
0.0
  0
LINE
  5
1EC
100
AcDbEntity
  8
L1_150
  6
CONTINUOUS
 62
         7
100
AcDbLine
 10
1709.2786999334
 20
-151.7400166132
 30
0.0
 11
1709.2786999334
 21
-147.7400166132
 31
0.0
  0
LINE
  5
1ED
100
AcDbEntity
  8
L1_150
  6
CONTINUOUS
 62
         4
100
AcDbLine
 10
1719.2786999334
 20
-147.7400166132
 30
0.0
 11
1709.2786999334
 21
-147.7400166132
 31
0.0
  0
LINE
  5
1EE
100
AcDbEntity
  8
L1_150
  6
CONTINUOUS
 62
         4
100
AcDbLine
 10
1719.2786999334
 20
-151.7400166132
 30
0.0
 11
1709.2786999334
 21
-151.7400166132
 31
0.0
  0
LINE
  5
1EF
100
AcDbEntity
  8
L1_150
  6
CONTINUOUS
 62
         7
100
AcDbLine
 10
1704.2786999334
 20
-151.3900166132
 30
0.0
 11
1703.3260719892
 21
-149.7400166132
 31
0.0
  0
LINE
  5
1F0
100
AcDbEntity
  8
L1_150
  6
CONTINUOUS
 62
         7
100
AcDbLine
 10
1704.2786999334
 20
-148.0900166132
 30
0.0
 11
1703.3260719892
 21
-149.7400166132
 31
0.0
  0
LINE
  5
1F1
100
AcDbEntity
  8
L1_150
  6
CONTINUOUS
 62
         7
100
AcDbLine
 10
1704.2786999334
 20
-151.3900166132
 30
0.0
 11
1704.2786999334
 21
-148.0900166132
 31
0.0
  0
LINE
  5
1F2
100
AcDbEntity
  8
L1_150
  6
CONTINUOUS
 62
         7
100
AcDbLine
 10
1719.2786999334
 20
-148.0900166132
 30
0.0
 11
1704.2786999334
 21
-148.0900166132
 31
0.0
  0
LINE
  5
1F3
100
AcDbEntity
  8
L1_150
  6
CONTINUOUS
 62
         7
100
AcDbLine
 10
1719.2786999334
 20
-151.3900166132
 30
0.0
 11
1704.2786999334
 21
-151.3900166132
 31
0.0
  0
LINE
  5
1F4
100
AcDbEntity
  8
L1_150
  6
CONTINUOUS
 62
         7
100
AcDbLine
 10
1719.2786999334
 20
-144.7400166132
 30
0.0
 11
1723.7786999334
 21
-144.7400166132
 31
0.0
  0
LINE
  5
1F5
100
AcDbEntity
  8
L1_150
  6
CONTINUOUS
 62
         7
100
AcDbLine
 10
1719.2786999334
 20
-144.7400166132
 30
0.0
 11
1719.2786999334
 21
-156.7400166132
 31
0.0
  0
LINE
  5
1F6
100
AcDbEntity
  8
L1_150
  6
CONTINUOUS
 62
         7
100
AcDbLine
 10
1723.1786999334
 20
-96.7400166132
 30
0.0
 11
1559.3306999334
 21
-96.7400166132
 31
0.0
  0
LINE
  5
1F7
100
AcDbEntity
  8
L1_150
  6
CONTINUOUS
 62
         7
100
AcDbLine
 10
1723.1786999334
 20
-156.7400166132
 30
0.0
 11
1559.3306999334
 21
-156.7400166132
 31
0.0
  0
LINE
  5
1F8
100
AcDbEntity
  8
L1_150
  6
CONTINUOUS
 62
         7
100
AcDbLine
 10
1739.2786999334
 20
-117.7400166132
 30
0.0
 11
1736.2786999334
 21
-117.7400166132
 31
0.0
  0
LINE
  5
1F9
100
AcDbEntity
  8
L1_150
  6
CONTINUOUS
 62
         7
100
AcDbLine
 10
1739.2786999334
 20
-135.7400166132
 30
0.0
 11
1736.2786999334
 21
-135.7400166132
 31
0.0
  0
LINE
  5
1FA
100
AcDbEntity
  8
L1_150
  6
CONTINUOUS
 62
         7
100
AcDbLine
 10
1736.2786999334
 20
-135.7400166132
 30
0.0
 11
1736.2786999334
 21
-117.7400166132
 31
0.0
  0
LINE
  5
1FB
100
AcDbEntity
  8
L1_150
  6
CONTINUOUS
 62
         7
100
AcDbLine
 10
1734.431179072
 20
-132.5400166132
 30
0.0
 11
1696.2786999334
 21
-132.5400166132
 31
0.0
  0
LINE
  5
1FC
100
AcDbEntity
  8
L1_150
  6
CONTINUOUS
 62
         7
100
AcDbLine
 10
1734.431179072
 20
-132.5400166132
 30
0.0
 11
1736.2786999334
 21
-135.7400166132
 31
0.0
  0
LINE
  5
1FD
100
AcDbEntity
  8
L1_150
  6
CONTINUOUS
 62
         7
100
AcDbLine
 10
1736.2786999334
 20
-117.7400166132
 30
0.0
 11
1734.431179072
 21
-120.9400166132
 31
0.0
  0
LINE
  5
1FE
100
AcDbEntity
  8
L1_150
  6
CONTINUOUS
 62
         4
100
AcDbLine
 10
1734.74872172
 20
-120.3900166132
 30
0.0
 11
1705.2786999334
 21
-120.3900166132
 31
0.0
  0
LINE
  5
1FF
100
AcDbEntity
  8
L1_150
  6
CONTINUOUS
 62
         4
100
AcDbLine
 10
1734.74872172
 20
-133.0900166132
 30
0.0
 11
1705.2786999334
 21
-133.0900166132
 31
0.0
  0
LINE
  5
200
100
AcDbEntity
  8
L1_150
  6
CONTINUOUS
 62
         7
100
AcDbLine
 10
1705.2786999334
 20
-133.0900166132
 30
0.0
 11
1705.2786999334
 21
-120.3900166132
 31
0.0
  0
LINE
  5
201
100
AcDbEntity
  8
L1_150
  6
CONTINUOUS
 62
         7
100
AcDbLine
 10
1696.2786999334
 20
-120.9400166132
 30
0.0
 11
1696.2786999334
 21
-132.5400166132
 31
0.0
  0
ARC
  5
202
100
AcDbEntity
  8
L1_150
  6
CONTINUOUS
 62
         7
100
AcDbCircle
 10
1740.6786999334
 20
-114.6400166132
 30
0.0
 40
0.6
100
AcDbArc
 50
0.0
 51
90.0
  0
ARC
  5
203
100
AcDbEntity
  8
L1_150
  6
CONTINUOUS
 62
         7
100
AcDbCircle
 10
1740.6786999334
 20
-138.8400166132
 30
0.0
 40
0.6
100
AcDbArc
 50
270.0
 51
360.0
  0
ARC
  5
204
100
AcDbEntity
  8
L1_150
  6
CONTINUOUS
 62
         7
100
AcDbCircle
 10
1723.1786999334
 20
-156.1400166132
 30
0.0
 40
0.6
100
AcDbArc
 50
270.0
 51
360.0
  0
LINE
  5
205
100
AcDbEntity
  8
L1_150
  6
CONTINUOUS
 62
         4
100
AcDbLine
 10
1739.2786999334
 20
-117.7400166132
 30
0.0
 11
1739.2786999334
 21
-135.7400166132
 31
0.0
  0
LINE
  5
206
100
AcDbEntity
  8
L1_150
  6
CONTINUOUS
 62
         7
100
AcDbLine
 10
1734.431179072
 20
-120.9400166132
 30
0.0
 11
1734.431179072
 21
-132.5400166132
 31
0.0
  0
DIMENSION
  5
209
100
AcDbEntity
  8
L1_150
  6
CONTINUOUS
 62
         4
100
AcDbDimension
  2
*D13
 10
1765.6059374252
 20
-120.3900166132
 30
0.0
 11
1762.9809374252
 21
-186.0793973314
 31
0.0
  3
DIMSTYLE1
100
AcDbAlignedDimension
 13
1734.74872172
 23
-120.3900166132
 33
0.0
 14
1734.74872172
 24
-133.0900166132
 34
0.0
 50
90.0
100
AcDbRotatedDimension
  0
DIMENSION
  5
218
100
AcDbEntity
  8
L1_150
  6
CONTINUOUS
 62
         4
100
AcDbDimension
  2
*D14
 10
1776.5574167314
 20
-117.7400166132
 30
0.0
 11
1773.9324167314
 21
-133.1976949575
 31
0.0
  3
DIMSTYLE1
100
AcDbAlignedDimension
 13
1739.2786999334
 23
-117.7400166132
 33
0.0
 14
1739.2786999334
 24
-135.7400166132
 34
0.0
 50
90.0
100
AcDbRotatedDimension
  0
DIMENSION
  5
226
100
AcDbEntity
  8
L1_150
  6
CONTINUOUS
 62
         4
100
AcDbDimension
  2
*D15
 10
1850.5990594905
 20
177.1204203447
 30
0.0
 11
1858.5181910925
 21
179.7454203447
 31
0.0
  3
DIMSTYLE1
100
AcDbAlignedDimension
 13
1850.5990594905
 23
140.4273217143
 33
0.0
 14
1851.7469964159
 24
131.3198532445
 34
0.0
100
AcDbRotatedDimension
  0
DIMENSION
  5
236
100
AcDbEntity
  8
L1_150
  6
CONTINUOUS
 62
         4
100
AcDbDimension
  2
*D16
 10
1841.0690594905
 20
177.1204203447
 30
0.0
 11
1821.122038329
 21
179.7454203447
 31
0.0
  3
DIMSTYLE1
100
AcDbAlignedDimension
 13
1841.0690594905
 23
140.4273217143
 33
0.0
 14
1839.9211225651
 24
131.3198532445
 34
0.0
100
AcDbRotatedDimension
  0
LINE
  5
244
100
AcDbEntity
  8
L1_150
  6
CENTER
 62
         1
100
AcDbLine
 10
1813.7110249605
 20
112.2524144385
 30
0.0
 11
1878.4345421788
 21
112.2524144385
 31
0.0
  0
ARC
  5
245
100
AcDbEntity
  8
L1_150
  6
CONTINUOUS
 62
         7
100
AcDbCircle
 10
1841.9211225651
 20
93.1849756325
 30
0.0
 40
2.0
100
AcDbArc
 50
32.2571060952
 51
244.7840261582
  0
ARC
  5
246
100
AcDbEntity
  8
L1_150
  6
CONTINUOUS
 62
         7
100
AcDbCircle
 10
1849.7469964159
 20
93.1849756325
 30
0.0
 40
2.0
100
AcDbArc
 50
295.2159738418
 51
507.7428939048
  0
LINE
  5
247
100
AcDbEntity
  8
L1_150
  6
CONTINUOUS
 62
         7
100
AcDbLine
 10
1848.0556731484
 20
94.2524144385
 30
0.0
 11
1843.6124458327
 21
94.2524144385
 31
0.0
  0
ARC
  5
248
100
AcDbEntity
  8
L1_150
  6
CONTINUOUS
 62
         7
100
AcDbCircle
 10
1849.7469964159
 20
131.3198532445
 30
0.0
 40
2.0
100
AcDbArc
 50
212.2571060952
 51
424.7840261582
  0
ARC
  5
249
100
AcDbEntity
  8
L1_150
  6
CONTINUOUS
 62
         7
100
AcDbCircle
 10
1841.9211225651
 20
131.3198532445
 30
0.0
 40
2.0
100
AcDbArc
 50
115.2159738418
 51
327.7428939048
  0
CIRCLE
  5
24A
100
AcDbEntity
  8
L1_150
  6
CONTINUOUS
 62
         7
100
AcDbCircle
 10
1845.8340594905
 20
112.2524144385
 30
0.0
 40
12.7
  0
CIRCLE
  5
24B
100
AcDbEntity
  8
L1_150
  6
CONTINUOUS
 62
         7
100
AcDbCircle
 10
1845.8340594905
 20
112.2524144385
 30
0.0
 40
5.8
  0
ARC
  5
24C
100
AcDbEntity
  8
L1_150
  6
CONTINUOUS
 62
         4
100
AcDbCircle
 10
1845.8340594905
 20
112.2524144385
 30
0.0
 40
6.35
100
AcDbArc
 50
180.0
 51
450.0
  0
LINE
  5
24D
100
AcDbEntity
  8
L1_150
  6
CENTER
 62
         1
100
AcDbLine
 10
1848.7114230522
 20
89.2524144385
 30
0.0
 11
1842.7169753118
 21
89.2524144385
 31
0.0
  0
LINE
  5
24E
100
AcDbEntity
  8
L1_150
  6
CONTINUOUS
 62
         7
100
AcDbLine
 10
1850.5990594905
 20
91.3755590092
 30
0.0
 11
1850.5990594905
 21
82.6332521445
 31
0.0
  0
LINE
  5
24F
100
AcDbEntity
  8
L1_150
  6
CONTINUOUS
 62
         7
100
AcDbLine
 10
1841.0690594905
 20
91.3755590092
 30
0.0
 11
1841.0690594905
 21
82.6332521445
 31
0.0
  0
ARC
  5
250
100
AcDbEntity
  8
L1_150
  6
CONTINUOUS
 62
         4
100
AcDbCircle
 10
1845.8340594905
 20
89.2524144385
 30
0.0
 40
2.0
100
AcDbArc
 50
270.0
 51
540.0
  0
CIRCLE
  5
251
100
AcDbEntity
  8
L1_150
  6
CONTINUOUS
 62
         7
100
AcDbCircle
 10
1845.8340594905
 20
89.2524144385
 30
0.0
 40
1.65
  0
ARC
  5
252
100
AcDbEntity
  8
L1_150
  6
CONTINUOUS
 62
         4
100
AcDbCircle
 10
1845.8340594905
 20
135.2524144385
 30
0.0
 40
2.0
100
AcDbArc
 50
180.0
 51
450.0
  0
CIRCLE
  5
253
100
AcDbEntity
  8
L1_150
  6
CONTINUOUS
 62
         7
100
AcDbCircle
 10
1845.8340594905
 20
135.2524144385
 30
0.0
 40
1.65
  0
LINE
  5
254
100
AcDbEntity
  8
L1_150
  6
CENTER
 62
         1
100
AcDbLine
 10
1848.7114230522
 20
135.2524144385
 30
0.0
 11
1842.7169753118
 21
135.2524144385
 31
0.0
  0
LINE
  5
255
100
AcDbEntity
  8
L1_150
  6
CONTINUOUS
 62
         7
100
AcDbLine
 10
1848.0556731484
 20
130.2524144385
 30
0.0
 11
1843.6124458327
 21
130.2524144385
 31
0.0
  0
LINE
  5
256
100
AcDbEntity
  8
L1_150
  6
CONTINUOUS
 62
         7
100
AcDbLine
 10
1850.5990594905
 20
133.1292698679
 30
0.0
 11
1850.5990594905
 21
141.8715767326
 31
0.0
  0
LINE
  5
257
100
AcDbEntity
  8
L1_150
  6
CONTINUOUS
 62
         7
100
AcDbLine
 10
1841.0690594905
 20
133.1292698679
 30
0.0
 11
1841.0690594905
 21
141.8715767326
 31
0.0
  0
DIMENSION
  5
25A
100
AcDbEntity
  8
L1_150
  6
CONTINUOUS
 62
         4
100
AcDbDimension
  2
*D17
 10
1932.0751660365
 20
135.2524144385
 30
0.0
 11
1929.4501660365
 21
103.88798622
 31
0.0
  3
DIMSTYLE1
100
AcDbAlignedDimension
 13
1845.8340594905
 23
135.2524144385
 33
0.0
 14
1845.8340594905
 24
89.2524144385
 34
0.0
 50
90.0
100
AcDbRotatedDimension
  0
DIMENSION
  5
268
100
AcDbEntity
  8
L1_150
  6
CONTINUOUS
 62
         4
100
AcDbDimension
  2
*D18
 10
1923.378386324
 20
130.2524144385
 30
0.0
 11
1920.753386324
 21
104.7576641912
 31
0.0
  3
DIMSTYLE1
100
AcDbAlignedDimension
 13
1845.8340594905
 23
130.2524144385
 33
0.0
 14
1845.8340594905
 24
94.2524144385
 34
0.0
 50
90.0
100
AcDbRotatedDimension
  0
DIMENSION
  5
276
100
AcDbEntity
  8
L1_150
  6
CONTINUOUS
 62
         4
100
AcDbDimension
  2
*D19
 10
1850.5990594905
 20
190.1655899133
 30
0.0
 11
1847.2123774663
 21
192.7905899133
 31
0.0
  3
DIMSTYLE1
100
AcDbAlignedDimension
 13
1850.5990594905
 23
140.4273217143
 33
0.0
 14
1841.0690594905
 24
140.4273217143
 34
0.0
100
AcDbRotatedDimension
  0
LINE
  5
283
100
AcDbEntity
  8
L1_150
  6
CENTER
 62
         1
100
AcDbLine
 10
1845.8340594905
 20
143.7254410863
 30
0.0
 11
1845.8340594905
 21
80.6360855197
 31
0.0
  0
CIRCLE
  5
284
100
AcDbEntity
  8
L1_150
  6
CONTINUOUS
 62
         7
100
AcDbCircle
 10
1845.8340594905
 20
112.2524144385
 30
0.0
 40
30.0
  0
DIMENSION
  5
287
100
AcDbEntity
  8
L1_150
  6
CONTINUOUS
 62
         4
100
AcDbDimension
  2
*D20
 10
1769.7768436112
 20
19.4674742522
 30
0.0
 11
1765.5080815032
 21
22.0924742522
 31
0.0
  3
DIMSTYLE1
100
AcDbAlignedDimension
 13
1769.7768436112
 23
7.915596929
 33
0.0
 14
1762.7768436112
 24
-0.5302934814
 34
0.0
100
AcDbRotatedDimension
  0
DIMENSION
  5
297
100
AcDbEntity
  8
L1_150
  6
CONTINUOUS
 62
         4
100
AcDbDimension
  2
*D21
 10
1817.6157414735
 20
12.2001175067
 30
0.0
 11
1815.4257414735
 21
14.8251175067
 31
0.0
  3
DIMSTYLE1
100
AcDbAlignedDimension
 13
1817.6157414735
 23
-3.3073482762
 33
0.0
 14
1827.2357414735
 24
-3.3073482762
 34
0.0
100
AcDbRotatedDimension
  0
LINE
  5
2A3
100
AcDbEntity
  8
L1_150
  6
CONTINUOUS
 62
         7
100
AcDbLine
 10
1822.4257414735
 20
-0.5302934814
 30
0.0
 11
1817.6157414735
 21
-3.3073482762
 31
0.0
  0
LINE
  5
2A4
100
AcDbEntity
  8
L1_150
  6
CONTINUOUS
 62
         7
100
AcDbLine
 10
1827.2357414735
 20
-8.8614578658
 30
0.0
 11
1822.4257414735
 21
-11.6385126606
 31
0.0
  0
LINE
  5
2A5
100
AcDbEntity
  8
L1_150
  6
CONTINUOUS
 62
         7
100
AcDbLine
 10
1827.2357414735
 20
-3.3073482762
 30
0.0
 11
1822.4257414735
 21
-0.5302934814
 31
0.0
  0
LINE
  5
2A6
100
AcDbEntity
  8
L1_150
  6
CONTINUOUS
 62
         7
100
AcDbLine
 10
1822.4257414735
 20
-11.6385126606
 30
0.0
 11
1817.6157414735
 21
-8.8614578658
 31
0.0
  0
LINE
  5
2A7
100
AcDbEntity
  8
L1_150
  6
CONTINUOUS
 62
         7
100
AcDbLine
 10
1827.2357414735
 20
-8.8614578658
 30
0.0
 11
1827.2357414735
 21
-3.3073482762
 31
0.0
  0
LINE
  5
2A8
100
AcDbEntity
  8
L1_150
  6
CONTINUOUS
 62
         7
100
AcDbLine
 10
1817.6157414735
 20
-8.8614578658
 30
0.0
 11
1817.6157414735
 21
-3.3073482762
 31
0.0
  0
CIRCLE
  5
2A9
100
AcDbEntity
  8
L1_150
  6
CONTINUOUS
 62
         7
100
AcDbCircle
 10
1822.4257414735
 20
-6.084403071
 30
0.0
 40
15.0
  0
LINE
  5
2AA
100
AcDbEntity
  8
L1_150
  6
CENTER
 62
         1
100
AcDbLine
 10
1822.4257414735
 20
-23.7742366861
 30
0.0
 11
1822.4257414735
 21
10.7639966199
 31
0.0
  0
LINE
  5
2AB
100
AcDbEntity
  8
L1_150
  6
CENTER
 62
         1
100
AcDbLine
 10
1839.1339777618
 20
-6.084403071
 30
0.0
 11
1805.7956050923
 21
-6.084403071
 31
0.0
  0
DIMENSION
  5
2AE
100
AcDbEntity
  8
L1_150
  6
CONTINUOUS
 62
         4
100
AcDbDimension
  2
*D22
 10
1719.3575542898
 20
0.265609629
 30
0.0
 11
1716.7325542898
 21
-30.584403071
 31
0.0
  3
DIMSTYLE1
100
AcDbAlignedDimension
 13
1727.6235035046
 23
0.265609629
 33
0.0
 14
1727.6235035046
 24
-12.4344157711
 34
0.0
 50
90.0
100
AcDbRotatedDimension
  0
DIMENSION
  5
2BC
100
AcDbEntity
  8
L1_150
  6
CONTINUOUS
 62
         4
100
AcDbDimension
  2
*D23
 10
1758.7768436112
 20
11.5238505062
 30
0.0
 11
1754.6139689372
 21
14.1488505062
 31
0.0
  3
DIMSTYLE1
100
AcDbAlignedDimension
 13
1758.7768436112
 23
7.915596929
 33
0.0
 14
1754.7768436112
 24
1.915596929
 34
0.0
100
AcDbRotatedDimension
  0
DIMENSION
  5
2CC
100
AcDbEntity
  8
L1_150
  6
CONTINUOUS
 62
         4
100
AcDbDimension
  2
*D24
 10
1726.7768436112
 20
-33.7115540116
 30
0.0
 11
1744.7768436112
 21
-31.0865540116
 31
0.0
  3
DIMSTYLE1
100
AcDbAlignedDimension
 13
1726.7768436112
 23
-11.5877558777
 33
0.0
 14
1769.7768436112
 24
-20.084403071
 34
0.0
100
AcDbRotatedDimension
  0
DIMENSION
  5
2DA
100
AcDbEntity
  8
L1_150
  6
CONTINUOUS
 62
         4
100
AcDbDimension
  2
*D25
 10
1726.7768436112
 20
-24.9919568361
 30
0.0
 11
1739.2768436112
 21
-22.3669568361
 31
0.0
  3
DIMSTYLE1
100
AcDbAlignedDimension
 13
1726.7768436112
 23
-11.5877558777
 33
0.0
 14
1758.7768436112
 24
-20.084403071
 34
0.0
100
AcDbRotatedDimension
  0
LINE
  5
2E6
100
AcDbEntity
  8
L1_150
  6
CONTINUOUS
 62
         4
100
AcDbLine
 10
1768.7768436112
 20
8.915596929
 30
0.0
 11
1768.7768436112
 21
-21.084403071
 31
0.0
  0
LINE
  5
2E7
100
AcDbEntity
  8
L1_150
  6
CONTINUOUS
 62
         4
100
AcDbLine
 10
1759.7768436112
 20
8.915596929
 30
0.0
 11
1759.7768436112
 21
-21.084403071
 31
0.0
  0
LINE
  5
2E8
100
AcDbEntity
  8
L1_150
  6
CONTINUOUS
 62
         4
100
AcDbLine
 10
1755.2768436112
 20
2.415596929
 30
0.0
 11
1755.2768436112
 21
-14.584403071
 31
0.0
  0
LINE
  5
2E9
100
AcDbEntity
  8
L1_150
  6
CONTINUOUS
 62
         7
100
AcDbLine
 10
1769.7768436112
 20
-20.084403071
 30
0.0
 11
1768.7768436112
 21
-21.084403071
 31
0.0
  0
LINE
  5
2EA
100
AcDbEntity
  8
L1_150
  6
CONTINUOUS
 62
         7
100
AcDbLine
 10
1768.7768436112
 20
8.915596929
 30
0.0
 11
1769.7768436112
 21
7.915596929
 31
0.0
  0
LINE
  5
2EB
100
AcDbEntity
  8
L1_150
  6
CONTINUOUS
 62
         7
100
AcDbLine
 10
1769.7768436112
 20
-20.084403071
 30
0.0
 11
1769.7768436112
 21
7.915596929
 31
0.0
  0
LINE
  5
2EC
100
AcDbEntity
  8
L1_150
  6
CONTINUOUS
 62
         7
100
AcDbLine
 10
1758.7768436112
 20
-20.084403071
 30
0.0
 11
1759.7768436112
 21
-21.084403071
 31
0.0
  0
LINE
  5
2ED
100
AcDbEntity
  8
L1_150
  6
CONTINUOUS
 62
         7
100
AcDbLine
 10
1758.7768436112
 20
7.915596929
 30
0.0
 11
1759.7768436112
 21
8.915596929
 31
0.0
  0
LINE
  5
2EE
100
AcDbEntity
  8
L1_150
  6
CONTINUOUS
 62
         7
100
AcDbLine
 10
1754.7768436112
 20
-14.084403071
 30
0.0
 11
1755.2768436112
 21
-14.584403071
 31
0.0
  0
LINE
  5
2EF
100
AcDbEntity
  8
L1_150
  6
CONTINUOUS
 62
         7
100
AcDbLine
 10
1754.7768436112
 20
1.915596929
 30
0.0
 11
1755.2768436112
 21
2.415596929
 31
0.0
  0
LINE
  5
2F0
100
AcDbEntity
  8
L1_150
  6
CONTINUOUS
 62
         7
100
AcDbLine
 10
1768.7768436112
 20
-21.084403071
 30
0.0
 11
1759.7768436112
 21
-21.084403071
 31
0.0
  0
LINE
  5
2F1
100
AcDbEntity
  8
L1_150
  6
CONTINUOUS
 62
         7
100
AcDbLine
 10
1768.7768436112
 20
8.915596929
 30
0.0
 11
1759.7768436112
 21
8.915596929
 31
0.0
  0
LINE
  5
2F2
100
AcDbEntity
  8
L1_150
  6
CONTINUOUS
 62
         7
100
AcDbLine
 10
1754.7768436112
 20
-14.084403071
 30
0.0
 11
1754.7768436112
 21
1.915596929
 31
0.0
  0
LINE
  5
2F3
100
AcDbEntity
  8
L1_150
  6
CONTINUOUS
 62
         7
100
AcDbLine
 10
1758.7768436112
 20
-14.584403071
 30
0.0
 11
1755.2768436112
 21
-14.584403071
 31
0.0
  0
LINE
  5
2F4
100
AcDbEntity
  8
L1_150
  6
CONTINUOUS
 62
         7
100
AcDbLine
 10
1758.7768436112
 20
2.415596929
 30
0.0
 11
1755.2768436112
 21
2.415596929
 31
0.0
  0
LINE
  5
2F5
100
AcDbEntity
  8
L1_150
  6
CENTER
 62
         1
100
AcDbLine
 10
1771.2950234732
 20
-6.084403071
 30
0.0
 11
1725.3821019757
 21
-6.084403071
 31
0.0
  0
LINE
  5
2F6
100
AcDbEntity
  8
L1_150
  6
CONTINUOUS
 62
         4
100
AcDbLine
 10
1754.7768436112
 20
-11.5877558777
 30
0.0
 11
1726.7768436112
 21
-11.5877558777
 31
0.0
  0
LINE
  5
2F7
100
AcDbEntity
  8
L1_150
  6
CONTINUOUS
 62
         4
100
AcDbLine
 10
1754.7768436112
 20
-0.5810502643
 30
0.0
 11
1726.7768436112
 21
-0.5810502643
 31
0.0
  0
DIMENSION
  5
2FA
100
AcDbEntity
  8
L1_150
  6
CONTINUOUS
 62
         4
100
AcDbDimension
  2
*D26
 10
1820.5648128899
 20
-56.4045082569
 30
0.0
 11
1817.9398128899
 21
-75.4350529558
 31
0.0
  3
DIMSTYLE1
100
AcDbAlignedDimension
 13
1813.2283372779
 23
-56.4045082569
 33
0.0
 14
1813.2283372779
 24
-63.4045082569
 34
0.0
 50
90.0
100
AcDbRotatedDimension
  0
DIMENSION
  5
30A
100
AcDbEntity
  8
L1_150
  6
CONTINUOUS
 62
         4
100
AcDbDimension
  2
*D27
 10
1794.211635276
 20
-57.9045082569
 30
0.0
 11
1791.586635276
 21
-72.1545082569
 31
0.0
  3
DIMSTYLE1
100
AcDbAlignedDimension
 13
1798.0949992779
 23
-57.9045082569
 33
0.0
 14
1798.0949992779
 24
-61.9045082569
 34
0.0
 50
90.0
100
AcDbRotatedDimension
  0
DIMENSION
  5
31A
100
AcDbEntity
  8
L1_150
  6
CONTINUOUS
 62
         4
100
AcDbDimension
  2
*D28
 10
1797.6283372779
 20
-71.5984489177
 30
0.0
 11
1800.1283372779
 21
-68.9734489177
 31
0.0
  3
DIMSTYLE1
100
AcDbAlignedDimension
 13
1797.6283372779
 23
-61.4378462569
 33
0.0
 14
1809.6283372779
 24
-63.4045082569
 34
0.0
100
AcDbRotatedDimension
  0
LINE
  5
326
100
AcDbEntity
  8
L1_150
  6
CENTER
 62
         1
100
AcDbLine
 10
1814.1530146372
 20
-59.9045082569
 30
0.0
 11
1797.138411775
 21
-59.9045082569
 31
0.0
  0
LINE
  5
327
100
AcDbEntity
  8
L1_150
  6
CONTINUOUS
 62
         7
100
AcDbLine
 10
1807.5283372779
 20
-57.9045082569
 30
0.0
 11
1807.5283372779
 21
-61.9045082569
 31
0.0
  0
LINE
  5
328
100
AcDbEntity
  8
L1_150
  6
CONTINUOUS
 62
         7
100
AcDbLine
 10
1797.6283372779
 20
-58.3711702569
 30
0.0
 11
1797.6283372779
 21
-61.4378462569
 31
0.0
  0
LINE
  5
329
100
AcDbEntity
  8
L1_150
  6
CONTINUOUS
 62
         7
100
AcDbLine
 10
1798.0949992779
 20
-61.9045082569
 30
0.0
 11
1809.6283372779
 21
-61.9045082569
 31
0.0
  0
LINE
  5
32A
100
AcDbEntity
  8
L1_150
  6
CONTINUOUS
 62
         7
100
AcDbLine
 10
1798.0949992779
 20
-57.9045082569
 30
0.0
 11
1809.6283372779
 21
-57.9045082569
 31
0.0
  0
LINE
  5
32B
100
AcDbEntity
  8
L1_150
  6
CONTINUOUS
 62
         4
100
AcDbLine
 10
1797.6283372779
 20
-58.3711702569
 30
0.0
 11
1807.5283372779
 21
-58.3711702569
 31
0.0
  0
LINE
  5
32C
100
AcDbEntity
  8
L1_150
  6
CONTINUOUS
 62
         4
100
AcDbLine
 10
1797.6283372779
 20
-61.4378462569
 30
0.0
 11
1807.5283372779
 21
-61.4378462569
 31
0.0
  0
LINE
  5
32D
100
AcDbEntity
  8
L1_150
  6
CONTINUOUS
 62
         7
100
AcDbLine
 10
1797.6283372779
 20
-61.4378462569
 30
0.0
 11
1798.0949992779
 21
-61.9045082569
 31
0.0
  0
LINE
  5
32E
100
AcDbEntity
  8
L1_150
  6
CONTINUOUS
 62
         7
100
AcDbLine
 10
1797.6283372779
 20
-58.3711702569
 30
0.0
 11
1798.0949992779
 21
-57.9045082569
 31
0.0
  0
LINE
  5
32F
100
AcDbEntity
  8
L1_150
  6
CONTINUOUS
 62
         7
100
AcDbLine
 10
1798.0949992779
 20
-57.9045082569
 30
0.0
 11
1798.0949992779
 21
-61.9045082569
 31
0.0
  0
LINE
  5
330
100
AcDbEntity
  8
L1_150
  6
DASHED
 62
         2
100
AcDbLine
 10
1813.6283372779
 20
-59.0384828531
 30
0.0
 11
1811.6283372779
 21
-59.0384828531
 31
0.0
  0
LINE
  5
331
100
AcDbEntity
  8
L1_150
  6
DASHED
 62
         2
100
AcDbLine
 10
1813.6283372779
 20
-60.7705336607
 30
0.0
 11
1811.6283372779
 21
-60.7705336607
 31
0.0
  0
LINE
  5
332
100
AcDbEntity
  8
L1_150
  6
DASHED
 62
         2
100
AcDbLine
 10
1813.6283372779
 20
-58.1724574493
 30
0.0
 11
1811.6283372779
 21
-58.1724574493
 31
0.0
  0
LINE
  5
333
100
AcDbEntity
  8
L1_150
  6
DASHED
 62
         2
100
AcDbLine
 10
1813.6283372779
 20
-61.6365590645
 30
0.0
 11
1811.6283372779
 21
-61.6365590645
 31
0.0
  0
LINE
  5
334
100
AcDbEntity
  8
L1_150
  6
DASHED
 62
         2
100
AcDbLine
 10
1811.6283372779
 20
-61.6365590645
 30
0.0
 11
1811.6283372779
 21
-58.1724574493
 31
0.0
  0
LINE
  5
335
100
AcDbEntity
  8
L1_150
  6
CONTINUOUS
 62
         7
100
AcDbLine
 10
1813.2283372779
 20
-56.4045082569
 30
0.0
 11
1813.6283372779
 21
-56.9701936818
 31
0.0
  0
LINE
  5
336
100
AcDbEntity
  8
L1_150
  6
CONTINUOUS
 62
         7
100
AcDbLine
 10
1813.2283372779
 20
-63.4045082569
 30
0.0
 11
1813.6283372779
 21
-62.8388228319
 31
0.0
  0
LINE
  5
337
100
AcDbEntity
  8
L1_150
  6
CONTINUOUS
 62
         7
100
AcDbLine
 10
1809.6283372779
 20
-56.4045082569
 30
0.0
 11
1813.2283372779
 21
-56.4045082569
 31
0.0
  0
LINE
  5
338
100
AcDbEntity
  8
L1_150
  6
CONTINUOUS
 62
         7
100
AcDbLine
 10
1809.6283372779
 20
-63.4045082569
 30
0.0
 11
1813.2283372779
 21
-63.4045082569
 31
0.0
  0
LINE
  5
339
100
AcDbEntity
  8
L1_150
  6
CONTINUOUS
 62
         7
100
AcDbLine
 10
1813.6283372779
 20
-62.8388228319
 30
0.0
 11
1813.6283372779
 21
-56.9701936818
 31
0.0
  0
LINE
  5
33A
100
AcDbEntity
  8
L1_150
  6
CONTINUOUS
 62
         7
100
AcDbLine
 10
1813.2283372779
 20
-63.4045082569
 30
0.0
 11
1813.2283372779
 21
-56.4045082569
 31
0.0
  0
LINE
  5
33B
100
AcDbEntity
  8
L1_150
  6
CONTINUOUS
 62
         7
100
AcDbLine
 10
1809.6283372779
 20
-63.4045082569
 30
0.0
 11
1809.6283372779
 21
-56.4045082569
 31
0.0
  0
LINE
  5
33C
100
AcDbEntity
  8
L1_150
  6
CONTINUOUS
 62
         7
100
AcDbLine
 10
1726.7768436112
 20
-0.5810502643
 30
0.0
 11
1726.7768436112
 21
-11.5877558777
 31
0.0
  0
LINE
  5
33D
100
AcDbEntity
  8
L1_150
  6
CONTINUOUS
 62
         7
100
AcDbLine
 10
1727.6235035046
 20
-12.4344157711
 30
0.0
 11
1754.7768436112
 21
-12.4344157711
 31
0.0
  0
LINE
  5
33E
100
AcDbEntity
  8
L1_150
  6
CONTINUOUS
 62
         7
100
AcDbLine
 10
1727.6235035046
 20
0.265609629
 30
0.0
 11
1754.7768436112
 21
0.265609629
 31
0.0
  0
LINE
  5
33F
100
AcDbEntity
  8
L1_150
  6
CONTINUOUS
 62
         7
100
AcDbLine
 10
1726.7768436112
 20
-11.5877558777
 30
0.0
 11
1727.6235035046
 21
-12.4344157711
 31
0.0
  0
LINE
  5
340
100
AcDbEntity
  8
L1_150
  6
CONTINUOUS
 62
         7
100
AcDbLine
 10
1726.7768436112
 20
-0.5810502643
 30
0.0
 11
1727.6235035046
 21
0.265609629
 31
0.0
  0
LINE
  5
341
100
AcDbEntity
  8
L1_150
  6
CONTINUOUS
 62
         7
100
AcDbLine
 10
1727.6235035046
 20
0.265609629
 30
0.0
 11
1727.6235035046
 21
-12.4344157711
 31
0.0
  0
LINE
  5
342
100
AcDbEntity
  8
L1_150
  6
CONTINUOUS
 62
         7
100
AcDbLine
 10
1758.7768436112
 20
-20.084403071
 30
0.0
 11
1758.7768436112
 21
7.915596929
 31
0.0
  0
DIMENSION
  5
345
100
AcDbEntity
  8
L1_150
  6
CONTINUOUS
 62
         4
100
AcDbDimension
  2
*D29
 10
1766.8495908723
 20
142.2524144385
 30
0.0
 11
1764.2245908723
 21
105.2677916729
 31
0.0
  3
DIMSTYLE1
100
AcDbAlignedDimension
 13
1722.7786999334
 23
142.2524144385
 33
0.0
 14
1722.7786999334
 24
82.2524144385
 34
0.0
 50
90.0
100
AcDbRotatedDimension
  0
LINE
  5
351
100
AcDbEntity
  8
L1_150
  6
CONTINUOUS
 62
         7
100
AcDbLine
 10
1722.7786999334
 20
142.2524144385
 30
0.0
 11
1559.3306999334
 21
142.2524144385
 31
0.0
  0
LINE
  5
352
100
AcDbEntity
  8
L1_150
  6
CONTINUOUS
 62
         7
100
AcDbLine
 10
1722.7786999334
 20
82.2524144385
 30
0.0
 11
1559.3306999334
 21
82.2524144385
 31
0.0
  0
LINE
  5
353
100
AcDbEntity
  8
L1_150
  6
CONTINUOUS
 62
         7
100
AcDbLine
 10
1723.7786999334
 20
124.9524144385
 30
0.0
 11
1740.2786999334
 21
124.9524144385
 31
0.0
  0
LINE
  5
354
100
AcDbEntity
  8
L1_150
  6
CONTINUOUS
 62
         7
100
AcDbLine
 10
1740.2786999334
 20
99.5524144385
 30
0.0
 11
1723.7786999334
 21
99.5524144385
 31
0.0
  0
LINE
  5
355
100
AcDbEntity
  8
L1_150
  6
CONTINUOUS
 62
         7
100
AcDbLine
 10
1741.2786999334
 20
100.5524144385
 30
0.0
 11
1741.2786999334
 21
123.9524144385
 31
0.0
  0
LINE
  5
356
100
AcDbEntity
  8
L1_150
  6
CONTINUOUS
 62
         7
100
AcDbLine
 10
1725.7786999334
 20
124.9524144385
 30
0.0
 11
1725.7786999334
 21
99.5524144385
 31
0.0
  0
DIMENSION
  5
359
100
AcDbEntity
  8
L1_150
  6
CONTINUOUS
 62
         4
100
AcDbDimension
  2
*D30
 10
1755.6457535178
 20
124.9524144385
 30
0.0
 11
1753.0207535178
 21
98.7430235905
 31
0.0
  3
DIMSTYLE1
100
AcDbAlignedDimension
 13
1740.6786999334
 23
124.9524144385
 33
0.0
 14
1740.6786999334
 24
99.5524144385
 34
0.0
 50
90.0
100
AcDbRotatedDimension
  0
LINE
  5
365
100
AcDbEntity
  8
L1_150
  6
CONTINUOUS
 62
         7
100
AcDbLine
 10
1723.7786999334
 20
141.2524144385
 30
0.0
 11
1723.7786999334
 21
83.2524144385
 31
0.0
  0
DIMENSION
  5
368
100
AcDbEntity
  8
L1_150
  6
CONTINUOUS
 62
         4
100
AcDbDimension
  2
*D31
 10
1741.2786999334
 20
166.6190588419
 30
0.0
 11
1726.2585212277
 21
169.2440588419
 31
0.0
  3
DIMSTYLE1
100
AcDbAlignedDimension
 13
1741.2786999334
 23
124.3524144385
 33
0.0
 14
1723.7786999334
 24
141.6524144385
 34
0.0
100
AcDbRotatedDimension
  0
ARC
  5
374
100
AcDbEntity
  8
L1_150
  6
CONTINUOUS
 62
         7
100
AcDbCircle
 10
1722.7786999334
 20
83.2524144385
 30
0.0
 40
1.0
100
AcDbArc
 50
270.0
 51
360.0
  0
ARC
  5
375
100
AcDbEntity
  8
L1_150
  6
CONTINUOUS
 62
         7
100
AcDbCircle
 10
1722.7786999334
 20
141.2524144385
 30
0.0
 40
1.0
100
AcDbArc
 50
0.0
 51
90.0
  0
ARC
  5
376
100
AcDbEntity
  8
L1_150
  6
CONTINUOUS
 62
         7
100
AcDbCircle
 10
1740.2786999334
 20
123.9524144385
 30
0.0
 40
1.0
100
AcDbArc
 50
0.0
 51
90.0
  0
ARC
  5
377
100
AcDbEntity
  8
L1_150
  6
CONTINUOUS
 62
         7
100
AcDbCircle
 10
1740.2786999334
 20
100.5524144385
 30
0.0
 40
1.0
100
AcDbArc
 50
270.0
 51
360.0
  0
LINE
  5
378
100
AcDbEntity
  8
L1_150
  6
CENTER
 62
         1
100
AcDbLine
 10
1745.6778871933
 20
112.2524144385
 30
0.0
 11
1571.7497397202
 21
112.2524144385
 31
0.0
  0
LINE
  5
379
100
AcDbEntity
  8
L1_150
  6
DASHED
 62
         2
100
AcDbLine
 10
1769.7768436112
 20
-0.5302934814
 30
0.0
 11
1762.7768436112
 21
-0.5302934814
 31
0.0
  0
LINE
  5
37A
100
AcDbEntity
  8
L1_150
  6
DASHED
 62
         2
100
AcDbLine
 10
1769.7768436112
 20
-3.3073482762
 30
0.0
 11
1762.7768436112
 21
-3.3073482762
 31
0.0
  0
LINE
  5
37B
100
AcDbEntity
  8
L1_150
  6
DASHED
 62
         2
100
AcDbLine
 10
1769.7768436112
 20
-8.8614578658
 30
0.0
 11
1762.7768436112
 21
-8.8614578658
 31
0.0
  0
LINE
  5
37C
100
AcDbEntity
  8
L1_150
  6
DASHED
 62
         2
100
AcDbLine
 10
1769.7768436112
 20
-11.6385126606
 30
0.0
 11
1762.7768436112
 21
-11.6385126606
 31
0.0
  0
LINE
  5
37D
100
AcDbEntity
  8
L1_150
  6
DASHED
 62
         2
100
AcDbLine
 10
1762.7768436112
 20
-11.6385126606
 30
0.0
 11
1762.7768436112
 21
-0.5302934814
 31
0.0
  0
DIMENSION
  5
380
100
AcDbEntity
  8
L1_150
  6
CONTINUOUS
 62
         4
100
AcDbDimension
  2
*D32
 10
1788.7812216533
 20
8.915596929
 30
0.0
 11
1786.1562216533
 21
-13.0406817447
 31
0.0
  3
DIMSTYLE1
100
AcDbAlignedDimension
 13
1768.7768436112
 23
8.915596929
 33
0.0
 14
1768.7768436112
 24
-21.084403071
 34
0.0
 50
90.0
100
AcDbRotatedDimension
  0
DIMENSION
  5
38E
100
AcDbEntity
  8
L1_150
  6
CONTINUOUS
 62
         4
100
AcDbDimension
  2
*D33
 10
1779.5227379948
 20
2.415596929
 30
0.0
 11
1776.8977379948
 21
-13.084403071
 31
0.0
  3
DIMSTYLE1
100
AcDbAlignedDimension
 13
1758.7768436112
 23
2.415596929
 33
0.0
 14
1758.7768436112
 24
-14.584403071
 34
0.0
 50
90.0
100
AcDbRotatedDimension
  0
DIMENSION
  5
39C
100
AcDbEntity
  8
L1_150
  6
CONTINUOUS
 62
         4
100
AcDbDimension
  2
*D34
 10
1734.77872172
 20
-99.293033939
 30
0.0
 11
1727.2863172735
 21
-96.668033939
 31
0.0
  3
DIMSTYLE1
100
AcDbAlignedDimension
 13
1734.77872172
 23
-116.2150166132
 33
0.0
 14
1741.2786999334
 24
-114.6400166132
 34
0.0
100
AcDbRotatedDimension
  0
LINE
  5
3AA
100
AcDbEntity
  8
L1_150
  6
CONTINUOUS
 62
         7
100
AcDbLine
 10
1741.2786999334
 20
-115.6450166132
 30
0.0
 11
1691.2786999334
 21
-115.6450166132
 31
0.0
  0
LINE
  5
3AB
100
AcDbEntity
  8
L1_150
  6
CONTINUOUS
 62
         7
100
AcDbLine
 10
1734.77872172
 20
-118.8450166132
 30
0.0
 11
1695.0691511194
 21
-118.8450166132
 31
0.0
  0
LINE
  5
3AC
100
AcDbEntity
  8
L1_150
  6
CENTER
 62
         1
100
AcDbLine
 10
1741.2786999334
 20
-117.2450166132
 30
0.0
 11
1690.4871155353
 21
-117.2450166132
 31
0.0
  0
LINE
  5
3AD
100
AcDbEntity
  8
L1_150
  6
CONTINUOUS
 62
         7
100
AcDbLine
 10
1734.77872172
 20
-120.338055089
 30
0.0
 11
1734.77872172
 21
-115.6450166132
 31
0.0
  0
LINE
  5
3AE
100
AcDbEntity
  8
L1_150
  6
DASHED
 62
         2
100
AcDbLine
 10
1734.77872172
 20
-134.6350166132
 30
0.0
 11
1695.0691511194
 21
-134.6350166132
 31
0.0
  0
LINE
  5
3AF
100
AcDbEntity
  8
L1_150
  6
CENTER
 62
         1
100
AcDbLine
 10
1741.2786999334
 20
-136.2350166132
 30
0.0
 11
1694.1453906887
 21
-136.2350166132
 31
0.0
  0
LINE
  5
3B0
100
AcDbEntity
  8
L1_150
  6
DASHED
 62
         2
100
AcDbLine
 10
1741.2786999334
 20
-137.8350166132
 30
0.0
 11
1691.2786999334
 21
-137.8350166132
 31
0.0
  0
LINE
  5
3B1
100
AcDbEntity
  8
L1_150
  6
DASHED
 62
         2
100
AcDbLine
 10
1734.77872172
 20
-133.1419781374
 30
0.0
 11
1734.77872172
 21
-137.8350166132
 31
0.0
  0
LINE
  5
3B2
100
AcDbEntity
  8
L1_150
  6
CENTER
 62
         1
100
AcDbLine
 10
1856.7531665185
 20
82.2524144385
 30
0.0
 11
1835.1753360853
 21
141.5370163146
 31
0.0
  0
CIRCLE
  5
3B3
100
AcDbEntity
  8
L1_150
  6
CONTINUOUS
 62
         7
100
AcDbCircle
 10
1842.5848681289
 20
121.179494336
 30
0.0
 40
1.6
  0
ARC
  5
3B4
100
AcDbEntity
  8
L1_150
  6
CONTINUOUS
 62
         7
100
AcDbCircle
 10
1843.4057164729
 20
118.9242320461
 30
0.0
 40
4.0
100
AcDbArc
 50
34.8841942863
 51
185.1158057137
  0
ARC
  5
3B5
100
AcDbEntity
  8
L1_150
  6
CONTINUOUS
 62
         7
100
AcDbCircle
 10
1848.2635507222
 20
105.5810150447
 30
0.0
 40
4.0
100
AcDbArc
 50
214.8940586297
 51
365.1256641247
  0
LINE
  5
3B6
100
AcDbEntity
  8
L1_150
  6
CENTER
 62
         1
100
AcDbLine
 10
1841.3660816169
 20
120.7358923237
 30
0.0
 11
1843.824617858
 21
121.6307263353
 31
0.0
  0
LINE
  5
3B7
100
AcDbEntity
  8
L1_150
  6
CENTER
 62
         1
100
AcDbLine
 10
1847.9827389335
 20
102.9247809602
 30
0.0
 11
1850.1860593905
 21
103.7267240231
 31
0.0
  0
CIRCLE
  5
3B8
100
AcDbEntity
  8
L1_150
  6
CONTINUOUS
 62
         7
100
AcDbCircle
 10
1849.084399162
 20
103.3257524917
 30
0.0
 40
1.6
  0
ARC
  5
3B9
100
AcDbEntity
  8
L1_150
  6
CONTINUOUS
 62
         7
100
AcDbCircle
 10
1845.8340594905
 20
112.2524144385
 30
0.0
 40
9.0
100
AcDbArc
 50
299.4357195132
 51
460.5716503686
  0
ARC
  5
3BA
100
AcDbEntity
  8
L1_150
  6
CONTINUOUS
 62
         7
100
AcDbCircle
 10
1845.8340594905
 20
112.2524144385
 30
0.0
 40
9.0
100
AcDbArc
 50
119.4283496314
 51
280.5790206501
  0
LINE
  5
3BB
100
AcDbEntity
  8
_Y__________
  6
CONTINUOUS
 62
         7
100
AcDbLine
 10
1542.8786999334
 20
98.4024144385
 30
0.0
 11
1538.4149703322
 21
98.4024144385
 31
0.0
  0
LINE
  5
3BC
100
AcDbEntity
  8
_Y__________
  6
CONTINUOUS
 62
         7
100
AcDbLine
 10
1531.3424295346
 20
98.4024144385
 30
0.0
 11
1526.9786999334
 21
98.4024144385
 31
0.0
  0
LINE
  5
3BD
100
AcDbEntity
  8
_Y__________
  6
CONTINUOUS
 62
         7
100
AcDbLine
 10
1526.9786999334
 20
98.4024144385
 30
0.0
 11
1527.9987940983
 21
99.4225086035
 31
0.0
  0
LINE
  5
3BE
100
AcDbEntity
  8
_Y__________
  6
CONTINUOUS
 62
         7
100
AcDbLine
 10
1531.3424295346
 20
98.4024144385
 30
0.0
 11
1533.0036999334
 21
99.4225086035
 31
0.0
  0
LINE
  5
3BF
100
AcDbEntity
  8
_Y__________
  6
CONTINUOUS
 62
         7
100
AcDbLine
 10
1541.7586057685
 20
99.4225086035
 30
0.0
 11
1527.9987940983
 21
99.4225086035
 31
0.0
  0
LINE
  5
3C0
100
AcDbEntity
  8
_Y__________
  6
CONTINUOUS
 62
         7
100
AcDbLine
 10
1541.7586057685
 20
99.4225086035
 30
0.0
 11
1527.9987940983
 21
99.4225086035
 31
0.0
  0
LINE
  5
3C1
100
AcDbEntity
  8
_Y__________
  6
CONTINUOUS
 62
         7
100
AcDbLine
 10
1536.7536999334
 20
99.4225086035
 30
0.0
 11
1538.4149703322
 21
98.4024144385
 31
0.0
  0
LINE
  5
3C2
100
AcDbEntity
  8
_Y__________
  6
CONTINUOUS
 62
         7
100
AcDbLine
 10
1542.7786999334
 20
98.4024144385
 30
0.0
 11
1541.7586057685
 21
99.4225086035
 31
0.0
  0
LINE
  5
3C3
100
AcDbEntity
  8
_Y__________
  6
CONTINUOUS
 62
         7
100
AcDbLine
 10
1538.4149703322
 20
98.4024144385
 30
0.0
 11
1538.4149703322
 21
63.5024144385
 31
0.0
  0
LINE
  5
3C4
100
AcDbEntity
  8
_Y__________
  6
CONTINUOUS
 62
         7
100
AcDbLine
 10
1536.7536999334
 20
99.4225086035
 30
0.0
 11
1536.7536999334
 21
66.3798039001
 31
0.0
  0
LINE
  5
3C5
100
AcDbEntity
  8
_Y__________
  6
CONTINUOUS
 62
         7
100
AcDbLine
 10
1533.0036999334
 20
99.4225086035
 30
0.0
 11
1533.0036999334
 21
66.3798039001
 31
0.0
  0
LINE
  5
3C6
100
AcDbEntity
  8
_Y__________
  6
CONTINUOUS
 62
         7
100
AcDbLine
 10
1531.3424295346
 20
98.4024144385
 30
0.0
 11
1531.3424295346
 21
63.5024144385
 31
0.0
  0
LINE
  5
3C7
100
AcDbEntity
  8
_Y__________
  6
CONTINUOUS
 62
         7
100
AcDbLine
 10
1542.8786999334
 20
126.1024144385
 30
0.0
 11
1538.4149703322
 21
126.1024144385
 31
0.0
  0
LINE
  5
3C8
100
AcDbEntity
  8
_Y__________
  6
CONTINUOUS
 62
         7
100
AcDbLine
 10
1531.3424295346
 20
126.1024144385
 30
0.0
 11
1533.0036999334
 21
125.0823202736
 31
0.0
  0
LINE
  5
3C9
100
AcDbEntity
  8
_Y__________
  6
CONTINUOUS
 62
         7
100
AcDbLine
 10
1526.9786999334
 20
126.1024144385
 30
0.0
 11
1527.9987940983
 21
125.0823202736
 31
0.0
  0
LINE
  5
3CA
100
AcDbEntity
  8
_Y__________
  6
CONTINUOUS
 62
         7
100
AcDbLine
 10
1531.3424295346
 20
126.1024144385
 30
0.0
 11
1526.9786999334
 21
126.1024144385
 31
0.0
  0
LINE
  5
3CB
100
AcDbEntity
  8
_Y__________
  6
CONTINUOUS
 62
         7
100
AcDbLine
 10
1541.7586057685
 20
125.0823202736
 30
0.0
 11
1527.9987940983
 21
125.0823202736
 31
0.0
  0
LINE
  5
3CC
100
AcDbEntity
  8
_Y__________
  6
CONTINUOUS
 62
         7
100
AcDbLine
 10
1541.7586057685
 20
125.0823202736
 30
0.0
 11
1527.9987940983
 21
125.0823202736
 31
0.0
  0
LINE
  5
3CD
100
AcDbEntity
  8
_Y__________
  6
CONTINUOUS
 62
         7
100
AcDbLine
 10
1536.7536999334
 20
125.0823202736
 30
0.0
 11
1538.4149703322
 21
126.1024144385
 31
0.0
  0
LINE
  5
3CE
100
AcDbEntity
  8
_Y__________
  6
CONTINUOUS
 62
         7
100
AcDbLine
 10
1542.7786999334
 20
126.1024144385
 30
0.0
 11
1541.7586057685
 21
125.0823202736
 31
0.0
  0
LINE
  5
3CF
100
AcDbEntity
  8
_Y__________
  6
CONTINUOUS
 62
         7
100
AcDbLine
 10
1538.4149703322
 20
161.0024144385
 30
0.0
 11
1538.4149703322
 21
126.1024144385
 31
0.0
  0
LINE
  5
3D0
100
AcDbEntity
  8
_Y__________
  6
CONTINUOUS
 62
         7
100
AcDbLine
 10
1536.7536999334
 20
158.125024977
 30
0.0
 11
1536.7536999334
 21
125.0823202736
 31
0.0
  0
LINE
  5
3D1
100
AcDbEntity
  8
_Y__________
  6
CONTINUOUS
 62
         7
100
AcDbLine
 10
1533.0036999334
 20
158.125024977
 30
0.0
 11
1533.0036999334
 21
125.0823202736
 31
0.0
  0
LINE
  5
3D2
100
AcDbEntity
  8
_Y__________
  6
CONTINUOUS
 62
         7
100
AcDbLine
 10
1531.3424295346
 20
161.0024144385
 30
0.0
 11
1531.3424295346
 21
126.1024144385
 31
0.0
  0
ARC
  5
3D3
100
AcDbEntity
  8
_Y__________
  6
DASHED
 62
         2
100
AcDbCircle
 10
1845.8340594905
 20
112.2524144385
 30
0.0
 40
45.625
100
AcDbArc
 50
197.6716498685
 51
343.6416615206
  0
ARC
  5
3D4
100
AcDbEntity
  8
_Y__________
  6
CONTINUOUS
 62
         7
100
AcDbCircle
 10
1845.8340594905
 20
112.2524144385
 30
0.0
 40
48.75
100
AcDbArc
 50
16.5052120024
 51
163.4947879976
  0
ARC
  5
3D5
100
AcDbEntity
  8
_Y__________
  6
DASHED
 62
         2
100
AcDbCircle
 10
1845.8340594905
 20
112.2524144385
 30
0.0
 40
45.625
100
AcDbArc
 50
16.3583384794
 51
163.6416615206
  0
ARC
  5
3D6
100
AcDbEntity
  8
_Y__________
  6
CONTINUOUS
 62
         7
100
AcDbCircle
 10
1845.8340594905
 20
112.2524144385
 30
0.0
 40
48.75
100
AcDbArc
 50
196.5052120024
 51
343.4947879976
  0
LINE
  5
3D7
100
AcDbEntity
  8
_Y__________
  6
CENTER
 62
         1
100
AcDbLine
 10
1791.0840594905
 20
112.2524144385
 30
0.0
 11
1900.5840594905
 21
112.2524144385
 31
0.0
  0
LINE
  5
3D8
100
AcDbEntity
  8
_Y__________
  6
CENTER
 62
         1
100
AcDbLine
 10
1845.8340594905
 20
57.5024144385
 30
0.0
 11
1845.8340594905
 21
164.4170373134
 31
0.0
  0
LINE
  5
3D9
100
AcDbEntity
  8
_Y__________
  6
CONTINUOUS
 62
         7
100
AcDbLine
 10
1881.3340594905
 20
124.6024144385
 30
0.0
 11
1881.3340594905
 21
99.9024144385
 31
0.0
  0
LINE
  5
3DA
100
AcDbEntity
  8
_Y__________
  6
CONTINUOUS
 62
         7
100
AcDbLine
 10
1891.5752618713
 20
125.1024144385
 30
0.0
 11
1881.8340594905
 21
125.1024144385
 31
0.0
  0
LINE
  5
3DB
100
AcDbEntity
  8
_Y__________
  6
CONTINUOUS
 62
         7
100
AcDbLine
 10
1892.5752618713
 20
126.1024144385
 30
0.0
 11
1891.5752618713
 21
125.1024144385
 31
0.0
  0
LINE
  5
3DC
100
AcDbEntity
  8
_Y__________
  6
CONTINUOUS
 62
         7
100
AcDbLine
 10
1892.5752618713
 20
98.4024144385
 30
0.0
 11
1891.5752618713
 21
99.4024144385
 31
0.0
  0
LINE
  5
3DD
100
AcDbEntity
  8
_Y__________
  6
CONTINUOUS
 62
         7
100
AcDbLine
 10
1891.5752618713
 20
99.4024144385
 30
0.0
 11
1881.8340594905
 21
99.4024144385
 31
0.0
  0
LINE
  5
3DE
100
AcDbEntity
  8
_Y__________
  6
CONTINUOUS
 62
         7
100
AcDbLine
 10
1881.3340594905
 20
124.6024144385
 30
0.0
 11
1881.8340594905
 21
125.1024144385
 31
0.0
  0
LINE
  5
3DF
100
AcDbEntity
  8
_Y__________
  6
CONTINUOUS
 62
         7
100
AcDbLine
 10
1881.3340594905
 20
99.9024144385
 30
0.0
 11
1881.8340594905
 21
99.4024144385
 31
0.0
  0
LINE
  5
3E0
100
AcDbEntity
  8
_Y__________
  6
CONTINUOUS
 62
         7
100
AcDbLine
 10
1808.1340594905
 20
99.9024144385
 30
0.0
 11
1807.6340594905
 21
99.4024144385
 31
0.0
  0
LINE
  5
3E1
100
AcDbEntity
  8
_Y__________
  6
CONTINUOUS
 62
         7
100
AcDbLine
 10
1807.6340594905
 20
125.1024144385
 30
0.0
 11
1808.1340594905
 21
124.6024144385
 31
0.0
  0
LINE
  5
3E2
100
AcDbEntity
  8
_Y__________
  6
CONTINUOUS
 62
         7
100
AcDbLine
 10
1808.1340594905
 20
124.6024144385
 30
0.0
 11
1808.1340594905
 21
99.9024144385
 31
0.0
  0
LINE
  5
3E3
100
AcDbEntity
  8
_Y__________
  6
CONTINUOUS
 62
         7
100
AcDbLine
 10
1799.0928571098
 20
126.1024144385
 30
0.0
 11
1800.0928571098
 21
125.1024144385
 31
0.0
  0
LINE
  5
3E4
100
AcDbEntity
  8
_Y__________
  6
CONTINUOUS
 62
         7
100
AcDbLine
 10
1800.0928571098
 20
125.1024144385
 30
0.0
 11
1807.6340594905
 21
125.1024144385
 31
0.0
  0
LINE
  5
3E5
100
AcDbEntity
  8
_Y__________
  6
CONTINUOUS
 62
         7
100
AcDbLine
 10
1799.0928571098
 20
98.4024144385
 30
0.0
 11
1800.0928571098
 21
99.4024144385
 31
0.0
  0
LINE
  5
3E6
100
AcDbEntity
  8
_Y__________
  6
CONTINUOUS
 62
         7
100
AcDbLine
 10
1800.0928571098
 20
99.4024144385
 30
0.0
 11
1807.6340594905
 21
99.4024144385
 31
0.0
  0
LINE
  5
3E7
100
AcDbEntity
  8
_Y__________
  6
CENTER
 62
         1
100
AcDbLine
 10
1239.9233403763
 20
165.6922817905
 30
0.0
 11
1239.9233403763
 21
50.6023837096
 31
0.0
  0
ARC
  5
3E8
100
AcDbEntity
  8
_Y__________
  6
CONTINUOUS
 62
         7
100
AcDbCircle
 10
1239.9233403763
 20
112.2524144385
 30
0.0
 40
48.75
100
AcDbArc
 50
16.5052120024
 51
163.4947879976
  0
LINE
  5
3E9
100
AcDbEntity
  8
_Y__________
  6
CENTER
 62
         1
100
AcDbLine
 10
1283.2887501132
 20
112.2524144385
 30
0.0
 11
1193.3587947809
 21
112.2524144385
 31
0.0
  0
ARC
  5
3EA
100
AcDbEntity
  8
_Y__________
  6
CONTINUOUS
 62
         7
100
AcDbCircle
 10
1239.9233403763
 20
112.2524144385
 30
0.0
 40
48.75
100
AcDbArc
 50
196.5052120024
 51
343.4947879976
  0
CIRCLE
  5
3EB
100
AcDbEntity
  8
_Y__________
  6
CONTINUOUS
 62
         7
100
AcDbCircle
 10
1239.9233403763
 20
112.2524144385
 30
0.0
 40
34.925
  0
CIRCLE
  5
3EC
100
AcDbEntity
  8
_Y__________
  6
CONTINUOUS
 62
         7
100
AcDbCircle
 10
1239.9233403763
 20
112.2524144385
 30
0.0
 40
20.3982925257
  0
CIRCLE
  5
3ED
100
AcDbEntity
  8
_Y__________
  6
CONTINUOUS
 62
         7
100
AcDbCircle
 10
1239.9233403763
 20
112.2524144385
 30
0.0
 40
10.3963414634
  0
CIRCLE
  5
3EE
100
AcDbEntity
  8
_Y__________
  6
CONTINUOUS
 62
         7
100
AcDbCircle
 10
1239.9233403763
 20
112.2524144385
 30
0.0
 40
12.6589889012
  0
LINE
  5
3EF
100
AcDbEntity
  8
_Y__________
  6
CONTINUOUS
 62
         7
100
AcDbLine
 10
1203.9233403763
 20
99.9024144385
 30
0.0
 11
1203.9233403763
 21
124.6024144385
 31
0.0
  0
LINE
  5
3F0
100
AcDbEntity
  8
_Y__________
  6
CONTINUOUS
 62
         7
100
AcDbLine
 10
1194.1821379955
 20
99.4024144385
 30
0.0
 11
1203.4233403763
 21
99.4024144385
 31
0.0
  0
LINE
  5
3F1
100
AcDbEntity
  8
_Y__________
  6
CONTINUOUS
 62
         7
100
AcDbLine
 10
1193.1821379955
 20
98.4024144385
 30
0.0
 11
1194.1821379955
 21
99.4024144385
 31
0.0
  0
LINE
  5
3F2
100
AcDbEntity
  8
_Y__________
  6
CONTINUOUS
 62
         7
100
AcDbLine
 10
1193.1821379955
 20
126.1024144385
 30
0.0
 11
1194.1821379955
 21
125.1024144385
 31
0.0
  0
LINE
  5
3F3
100
AcDbEntity
  8
_Y__________
  6
CONTINUOUS
 62
         7
100
AcDbLine
 10
1194.1821379955
 20
125.1024144385
 30
0.0
 11
1203.4233403763
 21
125.1024144385
 31
0.0
  0
LINE
  5
3F4
100
AcDbEntity
  8
_Y__________
  6
CONTINUOUS
 62
         7
100
AcDbLine
 10
1277.6233403763
 20
99.9024144385
 30
0.0
 11
1277.6233403763
 21
124.6024144385
 31
0.0
  0
LINE
  5
3F5
100
AcDbEntity
  8
_Y__________
  6
CONTINUOUS
 62
         7
100
AcDbLine
 10
1285.664542757
 20
125.1024144385
 30
0.0
 11
1278.1233403763
 21
125.1024144385
 31
0.0
  0
LINE
  5
3F6
100
AcDbEntity
  8
_Y__________
  6
CONTINUOUS
 62
         7
100
AcDbLine
 10
1286.664542757
 20
126.1024144385
 30
0.0
 11
1285.664542757
 21
125.1024144385
 31
0.0
  0
LINE
  5
3F7
100
AcDbEntity
  8
_Y__________
  6
CONTINUOUS
 62
         7
100
AcDbLine
 10
1285.664542757
 20
99.4024144385
 30
0.0
 11
1278.1233403763
 21
99.4024144385
 31
0.0
  0
LINE
  5
3F8
100
AcDbEntity
  8
_Y__________
  6
CONTINUOUS
 62
         7
100
AcDbLine
 10
1286.664542757
 20
98.4024144385
 30
0.0
 11
1285.664542757
 21
99.4024144385
 31
0.0
  0
LINE
  5
3F9
100
AcDbEntity
  8
_Y__________
  6
CONTINUOUS
 62
         7
100
AcDbLine
 10
1203.4233403763
 20
99.4024144385
 30
0.0
 11
1203.9233403763
 21
99.9024144385
 31
0.0
  0
LINE
  5
3FA
100
AcDbEntity
  8
_Y__________
  6
CONTINUOUS
 62
         7
100
AcDbLine
 10
1203.9233403763
 20
124.6024144385
 30
0.0
 11
1203.4233403763
 21
125.1024144385
 31
0.0
  0
LINE
  5
3FB
100
AcDbEntity
  8
_Y__________
  6
CONTINUOUS
 62
         7
100
AcDbLine
 10
1278.1233403763
 20
125.1024144385
 30
0.0
 11
1277.6233403763
 21
124.6024144385
 31
0.0
  0
LINE
  5
3FC
100
AcDbEntity
  8
_Y__________
  6
CONTINUOUS
 62
         7
100
AcDbLine
 10
1277.6233403763
 20
99.9024144385
 30
0.0
 11
1278.1233403763
 21
99.4024144385
 31
0.0
  0
CIRCLE
  5
3FD
100
AcDbEntity
  8
_Y__________
  6
CONTINUOUS
 62
         7
100
AcDbCircle
 10
1845.8340594905
 20
112.2524144385
 30
0.0
 40
34.925
  0
LINE
  5
3FE
100
AcDbEntity
  8
_Y__________
  6
DASHED
 62
         2
100
AcDbLine
 10
1808.6340594905
 20
117.2524144385
 30
0.0
 11
1808.6340594905
 21
107.2524144385
 31
0.0
  0
LINE
  5
3FF
100
AcDbEntity
  8
_Y__________
  6
DASHED
 62
         2
100
AcDbLine
 10
1808.6340594905
 20
117.2524144385
 30
0.0
 11
1808.1340594905
 21
117.7524144385
 31
0.0
  0
LINE
  5
400
100
AcDbEntity
  8
_Y__________
  6
DASHED
 62
         2
100
AcDbLine
 10
1808.6340594905
 20
107.2524144385
 30
0.0
 11
1808.1340594905
 21
106.7524144385
 31
0.0
  0
LINE
  5
401
100
AcDbEntity
  8
_Y__________
  6
DASHED
 62
         2
100
AcDbLine
 10
1821.8480594905
 20
117.2524144385
 30
0.0
 11
1824.7348108365
 21
112.2524144385
 31
0.0
  0
LINE
  5
402
100
AcDbEntity
  8
_Y__________
  6
DASHED
 62
         2
100
AcDbLine
 10
1824.7348108365
 20
112.2524144385
 30
0.0
 11
1821.8480594905
 21
107.2524144385
 31
0.0
  0
LINE
  5
403
100
AcDbEntity
  8
_Y__________
  6
DASHED
 62
         2
100
AcDbLine
 10
1821.8480594905
 20
117.2524144385
 30
0.0
 11
1821.8480594905
 21
107.2524144385
 31
0.0
  0
LINE
  5
404
100
AcDbEntity
  8
_Y__________
  6
DASHED
 62
         2
100
AcDbLine
 10
1808.6340594905
 20
107.2524144385
 30
0.0
 11
1821.8480594905
 21
107.2524144385
 31
0.0
  0
LINE
  5
405
100
AcDbEntity
  8
_Y__________
  6
DASHED
 62
         2
100
AcDbLine
 10
1808.6340594905
 20
117.2524144385
 30
0.0
 11
1821.8480594905
 21
117.2524144385
 31
0.0
  0
CIRCLE
  5
406
100
AcDbEntity
  8
_Y__________
  6
CONTINUOUS
 62
         7
100
AcDbCircle
 10
1534.8786999334
 20
112.2562679634
 30
0.0
 40
4.76
  0
LINE
  5
407
100
AcDbEntity
  8
_Y__________
  6
CONTINUOUS
 62
         7
100
AcDbLine
 10
1558.0306999334
 20
-161.6650166132
 30
0.0
 11
1557.0306999334
 21
-161.6650166132
 31
0.0
  0
LINE
  5
408
100
AcDbEntity
  8
_Y__________
  6
CONTINUOUS
 62
         7
100
AcDbLine
 10
1558.0306999334
 20
-91.8150166132
 30
0.0
 11
1557.0306999334
 21
-91.8150166132
 31
0.0
  0
LINE
  5
409
100
AcDbEntity
  8
_Y__________
  6
CONTINUOUS
 62
         7
100
AcDbLine
 10
1558.8306999334
 20
-92.6150166132
 30
0.0
 11
1558.8306999334
 21
-93.6150166132
 31
0.0
  0
ARC
  5
40A
100
AcDbEntity
  8
_Y__________
  6
CONTINUOUS
 62
         7
100
AcDbCircle
 10
1558.0306999334
 20
-92.6150166132
 30
0.0
 40
0.8
100
AcDbArc
 50
0.0
 51
90.0000000003
  0
ARC
  5
40B
100
AcDbEntity
  8
_Y__________
  6
CONTINUOUS
 62
         7
100
AcDbCircle
 10
1558.0306999334
 20
-160.8650166132
 30
0.0
 40
0.8
100
AcDbArc
 50
269.9999999999
 51
360.0
  0
LINE
  5
40C
100
AcDbEntity
  8
_Y__________
  6
CONTINUOUS
 62
         7
100
AcDbLine
 10
1558.8306999334
 20
-159.8650166132
 30
0.0
 11
1558.8306999334
 21
-160.8650166132
 31
0.0
  0
LINE
  5
40D
100
AcDbEntity
  8
_Y__________
  6
CONTINUOUS
 62
         7
100
AcDbLine
 10
1558.0306999334
 20
77.3274144385
 30
0.0
 11
1557.0306999334
 21
77.3274144385
 31
0.0
  0
LINE
  5
40E
100
AcDbEntity
  8
_Y__________
  6
CONTINUOUS
 62
         7
100
AcDbLine
 10
1558.0306999334
 20
147.1774144385
 30
0.0
 11
1557.0306999334
 21
147.1774144385
 31
0.0
  0
ARC
  5
40F
100
AcDbEntity
  8
_Y__________
  6
CONTINUOUS
 62
         7
100
AcDbCircle
 10
1558.0306999334
 20
78.1274144385
 30
0.0
 40
0.8
100
AcDbArc
 50
269.9999999999
 51
360.0
  0
ARC
  5
410
100
AcDbEntity
  8
_Y__________
  6
CONTINUOUS
 62
         7
100
AcDbCircle
 10
1558.0306999334
 20
146.3774144385
 30
0.0
 40
0.8
100
AcDbArc
 50
0.0
 51
90.0000000003
  0
LINE
  5
411
100
AcDbEntity
  8
_Y__________
  6
CONTINUOUS
 62
         7
100
AcDbLine
 10
1558.8306999334
 20
146.3774144385
 30
0.0
 11
1558.8306999334
 21
78.1274144385
 31
0.0
  0
LINE
  5
412
100
AcDbEntity
  8
_Y__________
  6
CONTINUOUS
 62
         7
100
AcDbLine
 10
1526.9786999334
 20
66.0024144385
 30
0.0
 11
1526.9786999334
 21
65.0024144385
 31
0.0
  0
LINE
  5
413
100
AcDbEntity
  8
_Y__________
  6
CONTINUOUS
 62
         7
100
AcDbLine
 10
1542.8786999334
 20
76.8274144385
 30
0.0
 11
1542.8786999334
 21
65.0024144385
 31
0.0
  0
ARC
  5
414
100
AcDbEntity
  8
_Y__________
  6
CONTINUOUS
 62
         7
100
AcDbCircle
 10
1528.4786999334
 20
65.0024144385
 30
0.0
 40
1.5
100
AcDbArc
 50
180.0
 51
270.0
  0
ARC
  5
415
100
AcDbEntity
  8
_Y__________
  6
CONTINUOUS
 62
         7
100
AcDbCircle
 10
1541.3786999334
 20
65.0024144385
 30
0.0
 40
1.5
100
AcDbArc
 50
270.0
 51
360.0
  0
ARC
  5
416
100
AcDbEntity
  8
_Y__________
  6
CONTINUOUS
 62
         7
100
AcDbCircle
 10
1528.4786999334
 20
159.5024144385
 30
0.0
 40
1.5
100
AcDbArc
 50
90.0
 51
180.0
  0
ARC
  5
417
100
AcDbEntity
  8
_Y__________
  6
CONTINUOUS
 62
         7
100
AcDbCircle
 10
1541.3786999334
 20
159.5024144385
 30
0.0
 40
1.5
100
AcDbArc
 50
0.0
 51
90.0
  0
LINE
  5
418
100
AcDbEntity
  8
_Y__________
  6
CONTINUOUS
 62
         7
100
AcDbLine
 10
1540.3786999334
 20
63.5024144385
 30
0.0
 11
1541.3786999334
 21
63.5024144385
 31
0.0
  0
LINE
  5
419
100
AcDbEntity
  8
_Y__________
  6
CONTINUOUS
 62
         7
100
AcDbLine
 10
1528.4786999334
 20
63.5024144385
 30
0.0
 11
1529.4786999334
 21
63.5024144385
 31
0.0
  0
LINE
  5
41A
100
AcDbEntity
  8
_Y__________
  6
CONTINUOUS
 62
         7
100
AcDbLine
 10
1542.8786999334
 20
159.5024144385
 30
0.0
 11
1542.8786999334
 21
147.6774144385
 31
0.0
  0
LINE
  5
41B
100
AcDbEntity
  8
_Y__________
  6
CONTINUOUS
 62
         7
100
AcDbLine
 10
1540.3786999334
 20
161.0024144385
 30
0.0
 11
1541.3786999334
 21
161.0024144385
 31
0.0
  0
LINE
  5
41C
100
AcDbEntity
  8
_Y__________
  6
CONTINUOUS
 62
         7
100
AcDbLine
 10
1528.4786999334
 20
161.0024144385
 30
0.0
 11
1529.4786999334
 21
161.0024144385
 31
0.0
  0
LINE
  5
41D
100
AcDbEntity
  8
_Y__________
  6
CONTINUOUS
 62
         7
100
AcDbLine
 10
1526.9786999334
 20
159.5024144385
 30
0.0
 11
1526.9786999334
 21
158.5024144385
 31
0.0
  0
ARC
  5
41E
100
AcDbEntity
  8
_Y__________
  6
CONTINUOUS
 62
         7
100
AcDbCircle
 10
1543.3786999334
 20
147.6774144385
 30
0.0
 40
0.5
100
AcDbArc
 50
180.0
 51
270.0
  0
LINE
  5
41F
100
AcDbEntity
  8
_Y__________
  6
CONTINUOUS
 62
         7
100
AcDbLine
 10
1543.3786999334
 20
147.1774144385
 30
0.0
 11
1558.0306999334
 21
147.1774144385
 31
0.0
  0
LINE
  5
420
100
AcDbEntity
  8
_Y__________
  6
CONTINUOUS
 62
         7
100
AcDbLine
 10
1543.3786999334
 20
77.3274144385
 30
0.0
 11
1558.0306999334
 21
77.3274144385
 31
0.0
  0
ARC
  5
421
100
AcDbEntity
  8
_Y__________
  6
CONTINUOUS
 62
         7
100
AcDbCircle
 10
1543.3786999334
 20
76.8274144385
 30
0.0
 40
0.5
100
AcDbArc
 50
90.0
 51
180.0
  0
ARC
  5
422
100
AcDbEntity
  8
_Y__________
  6
CONTINUOUS
 62
         7
100
AcDbCircle
 10
1543.3786999334
 20
-162.1650166132
 30
0.0
 40
0.5
100
AcDbArc
 50
90.0
 51
180.0
  0
ARC
  5
423
100
AcDbEntity
  8
_Y__________
  6
CONTINUOUS
 62
         7
100
AcDbCircle
 10
1543.3786999334
 20
-91.3150166132
 30
0.0
 40
0.5
100
AcDbArc
 50
180.0
 51
270.0
  0
LINE
  5
424
100
AcDbEntity
  8
_Y__________
  6
CONTINUOUS
 62
         7
100
AcDbLine
 10
1526.9786999334
 20
-79.4900166132
 30
0.0
 11
1526.9786999334
 21
-80.4900166132
 31
0.0
  0
LINE
  5
425
100
AcDbEntity
  8
_Y__________
  6
CONTINUOUS
 62
         7
100
AcDbLine
 10
1528.4786999334
 20
-77.9900166132
 30
0.0
 11
1529.4786999334
 21
-77.9900166132
 31
0.0
  0
LINE
  5
426
100
AcDbEntity
  8
_Y__________
  6
CONTINUOUS
 62
         7
100
AcDbLine
 10
1540.3786999334
 20
-77.9900166132
 30
0.0
 11
1541.3786999334
 21
-77.9900166132
 31
0.0
  0
LINE
  5
427
100
AcDbEntity
  8
_Y__________
  6
CONTINUOUS
 62
         7
100
AcDbLine
 10
1542.8786999334
 20
-79.4900166132
 30
0.0
 11
1542.8786999334
 21
-91.3150166132
 31
0.0
  0
LINE
  5
428
100
AcDbEntity
  8
_Y__________
  6
CONTINUOUS
 62
         7
100
AcDbLine
 10
1528.4786999334
 20
-175.4900166132
 30
0.0
 11
1529.4786999334
 21
-175.4900166132
 31
0.0
  0
LINE
  5
429
100
AcDbEntity
  8
_Y__________
  6
CONTINUOUS
 62
         7
100
AcDbLine
 10
1540.3786999334
 20
-175.4900166132
 30
0.0
 11
1541.3786999334
 21
-175.4900166132
 31
0.0
  0
ARC
  5
42A
100
AcDbEntity
  8
_Y__________
  6
CONTINUOUS
 62
         7
100
AcDbCircle
 10
1541.3786999334
 20
-79.4900166132
 30
0.0
 40
1.5
100
AcDbArc
 50
0.0
 51
90.0
  0
ARC
  5
42B
100
AcDbEntity
  8
_Y__________
  6
CONTINUOUS
 62
         7
100
AcDbCircle
 10
1528.4786999334
 20
-79.4900166132
 30
0.0
 40
1.5
100
AcDbArc
 50
90.0
 51
180.0
  0
ARC
  5
42C
100
AcDbEntity
  8
_Y__________
  6
CONTINUOUS
 62
         7
100
AcDbCircle
 10
1541.3786999334
 20
-173.9900166132
 30
0.0
 40
1.5
100
AcDbArc
 50
270.0
 51
360.0
  0
ARC
  5
42D
100
AcDbEntity
  8
_Y__________
  6
CONTINUOUS
 62
         7
100
AcDbCircle
 10
1528.4786999334
 20
-173.9900166132
 30
0.0
 40
1.5
100
AcDbArc
 50
180.0
 51
270.0
  0
LINE
  5
42E
100
AcDbEntity
  8
_Y__________
  6
CONTINUOUS
 62
         7
100
AcDbLine
 10
1542.8786999334
 20
-162.1650166132
 30
0.0
 11
1542.8786999334
 21
-173.9900166132
 31
0.0
  0
LINE
  5
42F
100
AcDbEntity
  8
_Y__________
  6
CONTINUOUS
 62
         7
100
AcDbLine
 10
1526.9786999334
 20
-172.9900166132
 30
0.0
 11
1526.9786999334
 21
-173.9900166132
 31
0.0
  0
LINE
  5
430
100
AcDbEntity
  8
_Y__________
  6
CONTINUOUS
 62
         7
100
AcDbLine
 10
1543.3786999334
 20
-91.8150166132
 30
0.0
 11
1558.0306999334
 21
-91.8150166132
 31
0.0
  0
LINE
  5
431
100
AcDbEntity
  8
_Y__________
  6
CONTINUOUS
 62
         7
100
AcDbLine
 10
1543.3786999334
 20
-161.6650166132
 30
0.0
 11
1558.0306999334
 21
-161.6650166132
 31
0.0
  0
ARC
  5
432
100
AcDbEntity
  8
_Y__________
  6
CONTINUOUS
 62
         7
100
AcDbCircle
 10
1424.6786999334
 20
-144.6863523772
 30
0.0
 40
2.5
100
AcDbArc
 50
180.0
 51
261.702778
  0
LINE
  5
433
100
AcDbEntity
  8
_Y__________
  6
CONTINUOUS
 62
         7
100
AcDbLine
 10
1422.1786999334
 20
-108.7936808492
 30
0.0
 11
1422.1786999334
 21
-144.6863523772
 31
0.0
  0
ARC
  5
434
100
AcDbEntity
  8
_Y__________
  6
CONTINUOUS
 62
         7
100
AcDbCircle
 10
1424.6786999334
 20
-108.7936808492
 30
0.0
 40
2.5
100
AcDbArc
 50
98.297222
 51
180.0
  0
ARC
  5
435
100
AcDbEntity
  8
_Y__________
  6
CONTINUOUS
 62
         7
100
AcDbCircle
 10
1424.6786999334
 20
94.3060786745
 30
0.0
 40
2.5
100
AcDbArc
 50
180.0
 51
261.702778
  0
ARC
  5
436
100
AcDbEntity
  8
_Y__________
  6
CONTINUOUS
 62
         7
100
AcDbCircle
 10
1424.6786999334
 20
130.1987502026
 30
0.0
 40
2.5
100
AcDbArc
 50
98.297222
 51
180.0
  0
LINE
  5
437
100
AcDbEntity
  8
_Y__________
  6
CONTINUOUS
 62
         7
100
AcDbLine
 10
1422.1786999334
 20
130.1987502026
 30
0.0
 11
1422.1786999334
 21
94.3060786745
 31
0.0
  0
LINE
  5
438
100
AcDbEntity
  8
_Y__________
  6
CONTINUOUS
 62
         7
100
AcDbLine
 10
1523.7786999334
 20
-91.8150166132
 30
0.0
 11
1525.7251100949
 21
-92.3150166132
 31
0.0
  0
ARC
  5
439
100
AcDbEntity
  8
_Y__________
  6
CONTINUOUS
 62
         7
100
AcDbCircle
 10
1536.3220756064
 20
-80.6150166132
 30
0.0
 40
0.5
100
AcDbArc
 50
270.0
 51
330.0
  0
ARC
  5
43A
100
AcDbEntity
  8
_Y__________
  6
CONTINUOUS
 62
         7
100
AcDbCircle
 10
1533.4353242604
 20
-80.6150166132
 30
0.0
 40
0.5
100
AcDbArc
 50
210.0
 51
270.0
  0
ARC
  5
43B
100
AcDbEntity
  8
_Y__________
  6
CONTINUOUS
 62
         7
100
AcDbCircle
 10
1526.3786999334
 20
-91.7150166132
 30
0.0
 40
0.6
100
AcDbArc
 50
270.0
 51
360.0
  0
LINE
  5
43C
100
AcDbEntity
  8
_Y__________
  6
CONTINUOUS
 62
         7
100
AcDbLine
 10
1525.7251100949
 20
-92.3150166132
 30
0.0
 11
1526.3786999334
 21
-92.3150166132
 31
0.0
  0
LINE
  5
43D
100
AcDbEntity
  8
_Y__________
  6
CONTINUOUS
 62
         7
100
AcDbLine
 10
1526.9786999334
 20
-79.4900166132
 30
0.0
 11
1526.9786999334
 21
-91.7150166132
 31
0.0
  0
LINE
  5
43E
100
AcDbEntity
  8
_Y__________
  6
CONTINUOUS
 62
         7
100
AcDbLine
 10
1533.4353242604
 20
-81.1150166132
 30
0.0
 11
1536.3220756064
 21
-81.1150166132
 31
0.0
  0
LINE
  5
43F
100
AcDbEntity
  8
_Y__________
  6
CONTINUOUS
 62
         7
100
AcDbLine
 10
1536.7550883083
 20
-80.8650166132
 30
0.0
 11
1538.4149703322
 21
-77.9900166132
 31
0.0
  0
LINE
  5
440
100
AcDbEntity
  8
_Y__________
  6
CONTINUOUS
 62
         7
100
AcDbLine
 10
1528.4786999334
 20
-77.9900166132
 30
0.0
 11
1531.3424295346
 21
-77.9900166132
 31
0.0
  0
LINE
  5
441
100
AcDbEntity
  8
_Y__________
  6
CONTINUOUS
 62
         7
100
AcDbLine
 10
1533.4353242604
 20
-81.1150166132
 30
0.0
 11
1536.3220756064
 21
-81.1150166132
 31
0.0
  0
LINE
  5
442
100
AcDbEntity
  8
_Y__________
  6
CONTINUOUS
 62
         7
100
AcDbLine
 10
1526.9786999334
 20
-79.4900166132
 30
0.0
 11
1526.9786999334
 21
-91.7150166132
 31
0.0
  0
LINE
  5
443
100
AcDbEntity
  8
_Y__________
  6
CONTINUOUS
 62
         7
100
AcDbLine
 10
1525.7251100949
 20
-92.3150166132
 30
0.0
 11
1526.3786999334
 21
-92.3150166132
 31
0.0
  0
ARC
  5
444
100
AcDbEntity
  8
_Y__________
  6
CONTINUOUS
 62
         7
100
AcDbCircle
 10
1526.3786999334
 20
-91.7150166132
 30
0.0
 40
0.6
100
AcDbArc
 50
270.0
 51
360.0
  0
ARC
  5
445
100
AcDbEntity
  8
_Y__________
  6
CONTINUOUS
 62
         7
100
AcDbCircle
 10
1533.4353242604
 20
-80.6150166132
 30
0.0
 40
0.5
100
AcDbArc
 50
210.0
 51
270.0
  0
ARC
  5
446
100
AcDbEntity
  8
_Y__________
  6
CONTINUOUS
 62
         7
100
AcDbCircle
 10
1536.3220756064
 20
-80.6150166132
 30
0.0
 40
0.5
100
AcDbArc
 50
270.0
 51
330.0
  0
LINE
  5
447
100
AcDbEntity
  8
_Y__________
  6
CONTINUOUS
 62
         7
100
AcDbLine
 10
1533.0023115585
 20
-80.8650166132
 30
0.0
 11
1531.3424295346
 21
-77.9900166132
 31
0.0
  0
LINE
  5
448
100
AcDbEntity
  8
_Y__________
  6
CONTINUOUS
 62
         7
100
AcDbLine
 10
1538.4149703322
 20
-77.9900166132
 30
0.0
 11
1541.3786999334
 21
-77.9900166132
 31
0.0
  0
LINE
  5
449
100
AcDbEntity
  8
_Y__________
  6
CONTINUOUS
 62
         7
100
AcDbLine
 10
1536.8994258756
 20
-172.8650166132
 30
0.0
 11
1538.4149703322
 21
-175.4900166132
 31
0.0
  0
LINE
  5
44A
100
AcDbEntity
  8
_Y__________
  6
CONTINUOUS
 62
         7
100
AcDbLine
 10
1526.9786999334
 20
-161.7650166132
 30
0.0
 11
1526.9786999334
 21
-173.9900166132
 31
0.0
  0
LINE
  5
44B
100
AcDbEntity
  8
_Y__________
  6
CONTINUOUS
 62
         7
100
AcDbLine
 10
1533.4353242604
 20
-172.3650166132
 30
0.0
 11
1536.0334004718
 21
-172.3650166132
 31
0.0
  0
LINE
  5
44C
100
AcDbEntity
  8
_Y__________
  6
CONTINUOUS
 62
         7
100
AcDbLine
 10
1528.4786999334
 20
-175.4900166132
 30
0.0
 11
1531.3424295346
 21
-175.4900166132
 31
0.0
  0
LINE
  5
44D
100
AcDbEntity
  8
_Y__________
  6
CONTINUOUS
 62
         7
100
AcDbLine
 10
1533.0023115585
 20
-172.6150166132
 30
0.0
 11
1531.3424295346
 21
-175.4900166132
 31
0.0
  0
ARC
  5
44E
100
AcDbEntity
  8
_Y__________
  6
CONTINUOUS
 62
         7
100
AcDbCircle
 10
1533.4353242604
 20
-172.8650166132
 30
0.0
 40
0.5
100
AcDbArc
 50
90.0
 51
150.0
  0
LINE
  5
44F
100
AcDbEntity
  8
_Y__________
  6
CONTINUOUS
 62
         7
100
AcDbLine
 10
1525.7251100949
 20
-161.1650166132
 30
0.0
 11
1526.3786999334
 21
-161.1650166132
 31
0.0
  0
ARC
  5
450
100
AcDbEntity
  8
_Y__________
  6
CONTINUOUS
 62
         7
100
AcDbCircle
 10
1526.3786999334
 20
-161.7650166132
 30
0.0
 40
0.6
100
AcDbArc
 50
0.0
 51
90.0
  0
LINE
  5
451
100
AcDbEntity
  8
_Y__________
  6
CONTINUOUS
 62
         7
100
AcDbLine
 10
1538.4149703322
 20
-175.4900166132
 30
0.0
 11
1541.3786999334
 21
-175.4900166132
 31
0.0
  0
LINE
  5
452
100
AcDbEntity
  8
_Y__________
  6
CONTINUOUS
 62
         7
100
AcDbLine
 10
1466.6786999334
 20
-114.7400166132
 30
0.0
 11
1466.6786999334
 21
-138.7400166132
 31
0.0
  0
LINE
  5
453
100
AcDbEntity
  8
_Y__________
  6
CONTINUOUS
 62
         7
100
AcDbLine
 10
1423.5286999334
 20
-114.2400166132
 30
0.0
 11
1426.3786999334
 21
-114.2400166132
 31
0.0
  0
LINE
  5
454
100
AcDbEntity
  8
_Y__________
  6
CONTINUOUS
 62
         7
100
AcDbLine
 10
1523.7786999334
 20
-161.6650166132
 30
0.0
 11
1424.1679293748
 21
-147.1383091389
 31
0.0
  0
LINE
  5
455
100
AcDbEntity
  8
_Y__________
  6
CONTINUOUS
 62
         7
100
AcDbLine
 10
1430.4480438949
 20
-137.1363580766
 30
0.0
 11
1466.6786999334
 21
-137.1363580766
 31
0.0
  0
LINE
  5
456
100
AcDbEntity
  8
_Y__________
  6
CONTINUOUS
 62
         5
100
AcDbLine
 10
1428.8443853584
 20
-138.7400166132
 30
0.0
 11
1466.6786999334
 21
-138.7400166132
 31
0.0
  0
LINE
  5
457
100
AcDbEntity
  8
_Y__________
  6
CONTINUOUS
 62
         7
100
AcDbLine
 10
1523.7786999334
 20
-91.8150166132
 30
0.0
 11
1424.1679293748
 21
-106.3417240875
 31
0.0
  0
LINE
  5
458
100
AcDbEntity
  8
_Y__________
  6
CONTINUOUS
 62
         7
100
AcDbLine
 10
1430.4480438949
 20
-116.3436751498
 30
0.0
 11
1466.6786999334
 21
-116.3436751498
 31
0.0
  0
LINE
  5
459
100
AcDbEntity
  8
_Y__________
  6
CONTINUOUS
 62
         5
100
AcDbLine
 10
1428.8443853584
 20
-114.7400166132
 30
0.0
 11
1466.6786999334
 21
-114.7400166132
 31
0.0
  0
LINE
  5
45A
100
AcDbEntity
  8
_Y__________
  6
CONTINUOUS
 62
         7
100
AcDbLine
 10
1523.7786999334
 20
-161.6650166132
 30
0.0
 11
1525.7251100949
 21
-161.1650166132
 31
0.0
  0
LINE
  5
45B
100
AcDbEntity
  8
_Y__________
  6
CONTINUOUS
 62
         7
100
AcDbLine
 10
1523.7786999334
 20
-91.8150166132
 30
0.0
 11
1525.7251100949
 21
-92.3150166132
 31
0.0
  0
LINE
  5
45C
100
AcDbEntity
  8
_Y__________
  6
CENTER
 62
         1
100
AcDbLine
 10
1422.0286999334
 20
-126.7400166132
 30
0.0
 11
1587.1058144546
 21
-126.7400166132
 31
0.0
  0
ARC
  5
45D
100
AcDbEntity
  8
_Y__________
  6
CONTINUOUS
 62
         7
100
AcDbCircle
 10
1536.0334004718
 20
-173.3650166132
 30
0.0
 40
1.0
100
AcDbArc
 50
30.0
 51
90.0
  0
LINE
  5
45E
100
AcDbEntity
  8
_Y__________
  6
CONTINUOUS
 62
         7
100
AcDbLine
 10
1428.3786999334
 20
-139.2057020382
 30
0.0
 11
1428.3786999334
 21
-114.2743311882
 31
0.0
  0
LINE
  5
45F
100
AcDbEntity
  8
_Y__________
  6
CONTINUOUS
 62
         7
100
AcDbLine
 10
1427.1251100949
 20
-114.0400166132
 30
0.0
 11
1427.9786999334
 21
-114.0400166132
 31
0.0
  0
LINE
  5
460
100
AcDbEntity
  8
_Y__________
  6
CONTINUOUS
 62
         7
100
AcDbLine
 10
1426.3786999334
 20
-139.2400166132
 30
0.0
 11
1426.3786999334
 21
-114.2400166132
 31
0.0
  0
ARC
  5
461
100
AcDbEntity
  8
_Y__________
  6
CONTINUOUS
 62
         7
100
AcDbCircle
 10
1427.9786999334
 20
-114.4400166132
 30
0.0
 40
0.4
100
AcDbArc
 50
45.0
 51
90.0
  0
LINE
  5
462
100
AcDbEntity
  8
_Y__________
  6
CONTINUOUS
 62
         7
100
AcDbLine
 10
1427.1251100949
 20
-114.0400166132
 30
0.0
 11
1426.3786999334
 21
-114.2400166132
 31
0.0
  0
ARC
  5
463
100
AcDbEntity
  8
_Y__________
  6
CONTINUOUS
 62
         7
100
AcDbCircle
 10
1423.5286999334
 20
-112.7400166132
 30
0.0
 40
1.5
100
AcDbArc
 50
205.8419327625
 51
270.0
  0
LINE
  5
464
100
AcDbEntity
  8
_Y__________
  6
CONTINUOUS
 62
         7
100
AcDbLine
 10
1428.2615426459
 20
-114.1571739007
 30
0.0
 11
1430.4480438949
 21
-116.3436751498
 31
0.0
  0
LINE
  5
465
100
AcDbEntity
  8
_Y__________
  6
CONTINUOUS
 62
         7
100
AcDbLine
 10
1423.5286999334
 20
-139.2400166132
 30
0.0
 11
1426.3786999334
 21
-139.2400166132
 31
0.0
  0
LINE
  5
466
100
AcDbEntity
  8
_Y__________
  6
CONTINUOUS
 62
         7
100
AcDbLine
 10
1427.1251100949
 20
-139.4400166132
 30
0.0
 11
1427.9786999334
 21
-139.4400166132
 31
0.0
  0
LINE
  5
467
100
AcDbEntity
  8
_Y__________
  6
CONTINUOUS
 62
         7
100
AcDbLine
 10
1427.1251100949
 20
-139.4400166132
 30
0.0
 11
1426.3786999334
 21
-139.2400166132
 31
0.0
  0
ARC
  5
468
100
AcDbEntity
  8
_Y__________
  6
CONTINUOUS
 62
         7
100
AcDbCircle
 10
1423.5286999334
 20
-140.7400166132
 30
0.0
 40
1.5
100
AcDbArc
 50
90.0
 51
154.1580672375
  0
ARC
  5
469
100
AcDbEntity
  8
_Y__________
  6
CONTINUOUS
 62
         7
100
AcDbCircle
 10
1427.9786999334
 20
-139.0400166132
 30
0.0
 40
0.4
100
AcDbArc
 50
270.0
 51
315.0
  0
LINE
  5
46A
100
AcDbEntity
  8
_Y__________
  6
CONTINUOUS
 62
         7
100
AcDbLine
 10
1428.2615426459
 20
-139.3228593257
 30
0.0
 11
1430.4480438949
 21
-137.1363580766
 31
0.0
  0
LINE
  5
46B
100
AcDbEntity
  8
_Y__________
  6
CONTINUOUS
 62
         7
100
AcDbLine
 10
1430.4480438949
 20
-137.1363580766
 30
0.0
 11
1430.4480438949
 21
-116.3436751498
 31
0.0
  0
LINE
  5
46C
100
AcDbEntity
  8
_Y__________
  6
CONTINUOUS
 62
         4
100
AcDbLine
 10
1423.5286999334
 20
-139.2400166132
 30
0.0
 11
1423.5286999334
 21
-114.2400166132
 31
0.0
  0
LINE
  5
46D
100
AcDbEntity
  8
_Y__________
  6
CONTINUOUS
 62
         7
100
AcDbLine
 10
1542.8786999334
 20
159.5024144385
 30
0.0
 11
1542.8786999334
 21
65.0024144385
 31
0.0
  0
LINE
  5
46E
100
AcDbEntity
  8
_Y__________
  6
CONTINUOUS
 62
         7
100
AcDbLine
 10
1536.7550883083
 20
158.1274144385
 30
0.0
 11
1538.4149703322
 21
161.0024144385
 31
0.0
  0
LINE
  5
46F
100
AcDbEntity
  8
_Y__________
  6
CONTINUOUS
 62
         7
100
AcDbLine
 10
1533.4353242604
 20
157.8774144385
 30
0.0
 11
1536.3220756064
 21
157.8774144385
 31
0.0
  0
LINE
  5
470
100
AcDbEntity
  8
_Y__________
  6
CONTINUOUS
 62
         7
100
AcDbLine
 10
1528.4786999334
 20
161.0024144385
 30
0.0
 11
1531.3424295346
 21
161.0024144385
 31
0.0
  0
ARC
  5
471
100
AcDbEntity
  8
_Y__________
  6
CONTINUOUS
 62
         7
100
AcDbCircle
 10
1533.4353242604
 20
158.3774144385
 30
0.0
 40
0.5
100
AcDbArc
 50
210.0
 51
270.0
  0
LINE
  5
472
100
AcDbEntity
  8
_Y__________
  6
CONTINUOUS
 62
         7
100
AcDbLine
 10
1525.7251100949
 20
146.6774144385
 30
0.0
 11
1526.3786999334
 21
146.6774144385
 31
0.0
  0
ARC
  5
473
100
AcDbEntity
  8
_Y__________
  6
CONTINUOUS
 62
         7
100
AcDbCircle
 10
1526.3786999334
 20
147.2774144385
 30
0.0
 40
0.6
100
AcDbArc
 50
270.0
 51
360.0
  0
LINE
  5
474
100
AcDbEntity
  8
_Y__________
  6
CONTINUOUS
 62
         7
100
AcDbLine
 10
1533.0023115585
 20
158.1274144385
 30
0.0
 11
1531.3424295346
 21
161.0024144385
 31
0.0
  0
ARC
  5
475
100
AcDbEntity
  8
_Y__________
  6
CONTINUOUS
 62
         7
100
AcDbCircle
 10
1536.3220756064
 20
158.3774144385
 30
0.0
 40
0.5
100
AcDbArc
 50
270.0
 51
330.0
  0
LINE
  5
476
100
AcDbEntity
  8
_Y__________
  6
CONTINUOUS
 62
         7
100
AcDbLine
 10
1538.4149703322
 20
161.0024144385
 30
0.0
 11
1541.3786999334
 21
161.0024144385
 31
0.0
  0
LINE
  5
477
100
AcDbEntity
  8
_Y__________
  6
CONTINUOUS
 62
         7
100
AcDbLine
 10
1536.7550883083
 20
66.3774144385
 30
0.0
 11
1538.4149703322
 21
63.5024144385
 31
0.0
  0
LINE
  5
478
100
AcDbEntity
  8
_Y__________
  6
CONTINUOUS
 62
         7
100
AcDbLine
 10
1533.4353242604
 20
66.6274144385
 30
0.0
 11
1536.3220756064
 21
66.6274144385
 31
0.0
  0
ARC
  5
479
100
AcDbEntity
  8
_Y__________
  6
CONTINUOUS
 62
         7
100
AcDbCircle
 10
1533.4353242604
 20
66.1274144385
 30
0.0
 40
0.5
100
AcDbArc
 50
90.0
 51
150.0
  0
LINE
  5
47A
100
AcDbEntity
  8
_Y__________
  6
CONTINUOUS
 62
         7
100
AcDbLine
 10
1528.4786999334
 20
63.5024144385
 30
0.0
 11
1531.3424295346
 21
63.5024144385
 31
0.0
  0
LINE
  5
47B
100
AcDbEntity
  8
_Y__________
  6
CONTINUOUS
 62
         7
100
AcDbLine
 10
1533.0023115585
 20
66.3774144385
 30
0.0
 11
1531.3424295346
 21
63.5024144385
 31
0.0
  0
ARC
  5
47C
100
AcDbEntity
  8
_Y__________
  6
CONTINUOUS
 62
         7
100
AcDbCircle
 10
1536.3220756064
 20
66.1274144385
 30
0.0
 40
0.5
100
AcDbArc
 50
30.0
 51
90.0
  0
ARC
  5
47D
100
AcDbEntity
  8
_Y__________
  6
CONTINUOUS
 62
         7
100
AcDbCircle
 10
1526.3786999334
 20
77.2274144385
 30
0.0
 40
0.6
100
AcDbArc
 50
0.0
 51
90.0
  0
LINE
  5
47E
100
AcDbEntity
  8
_Y__________
  6
CONTINUOUS
 62
         7
100
AcDbLine
 10
1525.7251100949
 20
77.8274144385
 30
0.0
 11
1526.3786999334
 21
77.8274144385
 31
0.0
  0
ARC
  5
47F
100
AcDbEntity
  8
_Y__________
  6
CONTINUOUS
 62
         7
100
AcDbCircle
 10
1526.3786999334
 20
77.2274144385
 30
0.0
 40
0.6
100
AcDbArc
 50
0.0
 51
90.0
  0
LINE
  5
480
100
AcDbEntity
  8
_Y__________
  6
CONTINUOUS
 62
         7
100
AcDbLine
 10
1538.4149703322
 20
63.5024144385
 30
0.0
 11
1541.3786999334
 21
63.5024144385
 31
0.0
  0
LINE
  5
481
100
AcDbEntity
  8
_Y__________
  6
CENTER
 62
         1
100
AcDbLine
 10
1534.8786999334
 20
167.2576777393
 30
0.0
 11
1534.8786999334
 21
57.2548581875
 31
0.0
  0
LINE
  5
482
100
AcDbEntity
  8
_Y__________
  6
CONTINUOUS
 62
         7
100
AcDbLine
 10
1526.9786999334
 20
159.5024144385
 30
0.0
 11
1526.9786999334
 21
65.0024144385
 31
0.0
  0
LINE
  5
483
100
AcDbEntity
  8
_Y__________
  6
CONTINUOUS
 62
         7
100
AcDbLine
 10
1525.7251100949
 20
146.6774144385
 30
0.0
 11
1525.7251100949
 21
77.8274144385
 31
0.0
  0
LINE
  5
484
100
AcDbEntity
  8
_Y__________
  6
CENTER
 62
         1
100
AcDbLine
 10
1523.7786999334
 20
151.9774144385
 30
0.0
 11
1523.7786999334
 21
73.981360093
 31
0.0
  0
LINE
  5
485
100
AcDbEntity
  8
_Y__________
  6
CONTINUOUS
 62
         7
100
AcDbLine
 10
1524.9786999334
 20
146.8691546422
 30
0.0
 11
1524.9786999334
 21
77.6356742349
 31
0.0
  0
LINE
  5
486
100
AcDbEntity
  8
_Y__________
  6
CONTINUOUS
 62
         7
100
AcDbLine
 10
1523.7786999334
 20
77.3274144385
 30
0.0
 11
1424.3179293748
 21
91.8322467069
 31
0.0
  0
LINE
  5
487
100
AcDbEntity
  8
_Y__________
  6
CONTINUOUS
 62
         7
100
AcDbLine
 10
1523.7786999334
 20
147.1774144385
 30
0.0
 11
1424.3179293748
 21
132.6725821702
 31
0.0
  0
LINE
  5
488
100
AcDbEntity
  8
_Y__________
  6
CENTER
 62
         1
100
AcDbLine
 10
1417.2325573653
 20
112.2524144385
 30
0.0
 11
1491.1537903612
 21
112.2524144385
 31
0.0
  0
LINE
  5
489
100
AcDbEntity
  8
_Y__________
  6
CENTER
 62
         1
100
AcDbLine
 10
1513.0227673053
 20
112.2524144385
 30
0.0
 11
1589.6466706681
 21
112.2524144385
 31
0.0
  0
LINE
  5
48A
100
AcDbEntity
  8
_Y__________
  6
CONTINUOUS
 62
         7
100
AcDbLine
 10
1523.7786999334
 20
77.3274144385
 30
0.0
 11
1525.7251100949
 21
77.8274144385
 31
0.0
  0
LINE
  5
48B
100
AcDbEntity
  8
_Y__________
  6
CONTINUOUS
 62
         7
100
AcDbLine
 10
1523.7786999334
 20
147.1774144385
 30
0.0
 11
1525.7251100949
 21
146.6774144385
 31
0.0
  0
LINE
  5
48C
100
AcDbEntity
  8
_X______
  6
DASHED
 62
         2
100
AcDbLine
 10
1833.2313677506
 20
151.7023026785
 30
0.0
 11
1843.2223100039
 21
124.2524144385
 31
0.0
  0
LINE
  5
48D
100
AcDbEntity
  8
_X______
  6
DASHED
 62
         2
100
AcDbLine
 10
1829.8014896848
 20
150.4539291554
 30
0.0
 11
1833.5602601679
 21
151.8220097287
 31
0.0
  0
LINE
  5
48E
100
AcDbEntity
  8
_X______
  6
DASHED
 62
         2
100
AcDbLine
 10
1832.1237755659
 20
155.768718736
 30
0.0
 11
1833.5602601679
 21
151.8220097287
 31
0.0
  0
LINE
  5
48F
100
AcDbEntity
  8
_X______
  6
DASHED
 62
         2
100
AcDbLine
 10
1830.130382102
 20
150.5736362055
 30
0.0
 11
1839.7105233548
 21
124.2524144385
 31
0.0
  0
LINE
  5
490
100
AcDbEntity
  8
_X______
  6
DASHED
 62
         2
100
AcDbLine
 10
1828.3650050828
 20
154.4006381627
 30
0.0
 11
1829.8014896848
 21
150.4539291554
 31
0.0
  0
LINE
  5
491
100
AcDbEntity
  8
_X______
  6
DASHED
 62
         2
100
AcDbLine
 10
1851.9575956263
 20
100.2524144385
 30
0.0
 11
1861.537736879
 21
73.9311926715
 31
0.0
  0
LINE
  5
492
100
AcDbEntity
  8
_X______
  6
DASHED
 62
         2
100
AcDbLine
 10
1863.3031138983
 20
70.1041907144
 30
0.0
 11
1861.8666292963
 21
74.0508997217
 31
0.0
  0
LINE
  5
493
100
AcDbEntity
  8
_X______
  6
DASHED
 62
         2
100
AcDbLine
 10
1861.8666292963
 20
74.0508997217
 30
0.0
 11
1858.1078588132
 21
72.6828191484
 31
0.0
  0
LINE
  5
494
100
AcDbEntity
  8
_X______
  6
DASHED
 62
         2
100
AcDbLine
 10
1859.5443434151
 20
68.7361101411
 30
0.0
 11
1858.1078588132
 21
72.6828191484
 31
0.0
  0
LINE
  5
495
100
AcDbEntity
  8
_X______
  6
DASHED
 62
         2
100
AcDbLine
 10
1848.4458089771
 20
100.2524144385
 30
0.0
 11
1858.4367512304
 21
72.8025261986
 31
0.0
  0
LINE
  5
496
100
AcDbEntity
  8
_X______
  6
CENTER
 62
         1
100
AcDbLine
 10
1827.5565483995
 20
162.469463445
 30
0.0
 11
1866.9196118365
 21
54.3203354914
 31
0.0
  0
POLYLINE
  5
498
100
AcDbEntity
  8
_X______
  6
CONTINUOUS
 62
         7
100
AcDb2dPolyline
 66
         1
 10
0.0
 20
0.0
 30
0.0
 70
         2
  0
VERTEX
  5
49A
100
AcDbEntity
  8
_X______
  6
CONTINUOUS
 62
         7
100
AcDbVertex
100
AcDb2dVertex
 10
1255.177553735
 20
154.0562283904
 30
0.0
 70
         1
  0
VERTEX
  5
49C
100
AcDbEntity
  8
_X______
  6
CONTINUOUS
 62
         7
100
AcDbVertex
100
AcDb2dVertex
 10
1254.7975526703
 20
154.1491997353
 30
0.0
 70
         1
  0
VERTEX
  5
49E
100
AcDbEntity
  8
_X______
  6
CONTINUOUS
 62
         7
100
AcDbVertex
100
AcDb2dVertex
 10
1254.620484003
 20
154.1642012332
 30
0.0
 70
         1
  0
VERTEX
  5
4A0
100
AcDbEntity
  8
_X______
  6
CONTINUOUS
 62
         7
100
AcDbVertex
100
AcDb2dVertex
 10
1254.4358567329
 20
154.1623680937
 30
0.0
 70
         1
  0
VERTEX
  5
4A2
100
AcDbEntity
  8
_X______
  6
CONTINUOUS
 62
         7
100
AcDbVertex
100
AcDb2dVertex
 10
1254.2448498832
 20
154.1425310426
 30
0.0
 70
         1
  0
VERTEX
  5
4A4
100
AcDbEntity
  8
_X______
  6
CONTINUOUS
 62
         7
100
AcDbVertex
100
AcDb2dVertex
 10
1254.0488651555
 20
154.1037747713
 30
0.0
 70
         1
  0
VERTEX
  5
4A6
100
AcDbEntity
  8
_X______
  6
CONTINUOUS
 62
         7
100
AcDbVertex
100
AcDb2dVertex
 10
1253.8495025235
 20
154.0454929121
 30
0.0
 70
         1
  0
VERTEX
  5
4A8
100
AcDbEntity
  8
_X______
  6
CONTINUOUS
 62
         7
100
AcDbVertex
100
AcDb2dVertex
 10
1253.6485232911
 20
153.9674335516
 30
0.0
 70
         1
  0
VERTEX
  5
4AA
100
AcDbEntity
  8
_X______
  6
CONTINUOUS
 62
         7
100
AcDbVertex
100
AcDb2dVertex
 10
1253.4478017643
 20
153.8697309892
 30
0.0
 70
         1
  0
VERTEX
  5
4AC
100
AcDbEntity
  8
_X______
  6
CONTINUOUS
 62
         7
100
AcDbVertex
100
AcDb2dVertex
 10
1253.2492678944
 20
153.7529202326
 30
0.0
 70
         1
  0
VERTEX
  5
4AE
100
AcDbEntity
  8
_X______
  6
CONTINUOUS
 62
         7
100
AcDbVertex
100
AcDb2dVertex
 10
1253.0548443148
 20
153.6179320192
 30
0.0
 70
         1
  0
VERTEX
  5
4B0
100
AcDbEntity
  8
_X______
  6
CONTINUOUS
 62
         7
100
AcDbVertex
100
AcDb2dVertex
 10
1252.8663819441
 20
153.4660678363
 30
0.0
 70
         1
  0
VERTEX
  5
4B2
100
AcDbEntity
  8
_X______
  6
CONTINUOUS
 62
         7
100
AcDbVertex
100
AcDb2dVertex
 10
1252.6260531437
 20
153.2388852857
 30
0.0
 70
         1
  0
VERTEX
  5
4B4
100
AcDbEntity
  8
_X______
  6
CONTINUOUS
 62
         7
100
AcDbVertex
100
AcDb2dVertex
 10
1252.403093064
 20
152.9889766095
 30
0.0
 70
         1
  0
VERTEX
  5
4B6
100
AcDbEntity
  8
_X______
  6
CONTINUOUS
 62
         7
100
AcDbVertex
100
AcDb2dVertex
 10
1252.2003147098
 20
152.7215394974
 30
0.0
 70
         1
  0
VERTEX
  5
4B8
100
AcDbEntity
  8
_X______
  6
CONTINUOUS
 62
         7
100
AcDbVertex
100
AcDb2dVertex
 10
1252.0196551425
 20
152.4419925623
 30
0.0
 70
         1
  0
VERTEX
  5
4BA
100
AcDbEntity
  8
_X______
  6
CONTINUOUS
 62
         7
100
AcDbVertex
100
AcDb2dVertex
 10
1251.8621578683
 20
152.1556600525
 30
0.0
 70
         1
  0
VERTEX
  5
4BC
100
AcDbEntity
  8
_X______
  6
CONTINUOUS
 62
         7
100
AcDbVertex
100
AcDb2dVertex
 10
1251.7280275733
 20
151.8675052179
 30
0.0
 70
         1
  0
VERTEX
  5
4BE
100
AcDbEntity
  8
_X______
  6
CONTINUOUS
 62
         7
100
AcDbVertex
100
AcDb2dVertex
 10
1251.5836285106
 20
151.485222542
 30
0.0
 70
         1
  0
VERTEX
  5
4C0
100
AcDbEntity
  8
_X______
  6
CONTINUOUS
 62
         7
100
AcDbVertex
100
AcDb2dVertex
 10
1251.477505685
 20
151.1162279315
 30
0.0
 70
         1
  0
VERTEX
  5
4C2
100
AcDbEntity
  8
_X______
  6
CONTINUOUS
 62
         7
100
AcDbVertex
100
AcDb2dVertex
 10
1251.4055585637
 20
150.7668648911
 30
0.0
 70
         1
  0
VERTEX
  5
4C4
100
AcDbEntity
  8
_X______
  6
CONTINUOUS
 62
         7
100
AcDbVertex
100
AcDb2dVertex
 10
1251.3630640199
 20
150.4412378531
 30
0.0
 70
         1
  0
VERTEX
  5
4C6
100
AcDbEntity
  8
_X______
  6
CONTINUOUS
 62
         7
100
AcDbVertex
100
AcDb2dVertex
 10
1251.345169897
 20
150.1415340596
 30
0.0
 70
         1
  0
VERTEX
  5
4C8
100
AcDbEntity
  8
_X______
  6
CONTINUOUS
 62
         7
100
AcDbVertex
100
AcDb2dVertex
 10
1251.3472427386
 20
149.8684264459
 30
0.0
 70
         1
  0
VERTEX
  5
4CA
100
AcDbEntity
  8
_X______
  6
CONTINUOUS
 62
         7
100
AcDbVertex
100
AcDb2dVertex
 10
1251.3742560107
 20
149.5417785942
 30
0.0
 70
         1
  0
VERTEX
  5
4CC
100
AcDbEntity
  8
_X______
  6
CONTINUOUS
 62
         7
100
AcDbVertex
100
AcDb2dVertex
 10
1251.4212060226
 20
149.2593941461
 30
0.0
 70
         1
  0
VERTEX
  5
4CE
100
AcDbEntity
  8
_X______
  6
CONTINUOUS
 62
         7
100
AcDbVertex
100
AcDb2dVertex
 10
1251.4811885758
 20
149.0169156255
 30
0.0
 70
         1
  0
VERTEX
  5
4D0
100
AcDbEntity
  8
_X______
  6
CONTINUOUS
 62
         7
100
AcDbVertex
100
AcDb2dVertex
 10
1251.5738569938
 20
148.7441130432
 30
0.0
 70
         1
  0
VERTEX
  5
4D2
100
AcDbEntity
  8
_X______
  6
CONTINUOUS
 62
         7
100
AcDbVertex
100
AcDb2dVertex
 10
1251.6718116667
 20
148.5239606999
 30
0.0
 70
         1
  0
VERTEX
  5
4D4
100
AcDbEntity
  8
_X______
  6
CONTINUOUS
 62
         7
100
AcDbVertex
100
AcDb2dVertex
 10
1251.7693332906
 20
148.346272975
 30
0.0
 70
         1
  0
VERTEX
  5
4D6
100
AcDbEntity
  8
_X______
  6
CONTINUOUS
 62
         7
100
AcDbVertex
100
AcDb2dVertex
 10
1251.8952723859
 20
148.1579045175
 30
0.0
 70
         1
  0
VERTEX
  5
4D8
100
AcDbEntity
  8
_X______
  6
CONTINUOUS
 62
         7
100
AcDbVertex
100
AcDb2dVertex
 10
1252.0492108225
 20
147.9722975776
 30
0.0
 70
         1
  0
VERTEX
  5
4DA
100
AcDbEntity
  8
_X______
  6
CONTINUOUS
 62
         7
100
AcDbVertex
100
AcDb2dVertex
 10
1252.1798356651
 20
147.8436382679
 30
0.0
 70
         1
  0
VERTEX
  5
4DC
100
AcDbEntity
  8
_X______
  6
CONTINUOUS
 62
         7
100
AcDbVertex
100
AcDb2dVertex
 10
1252.3248621636
 20
147.7252706189
 30
0.0
 70
         1
  0
VERTEX
  5
4DE
100
AcDbEntity
  8
_X______
  6
CONTINUOUS
 62
         7
100
AcDbVertex
100
AcDb2dVertex
 10
1252.4723220883
 20
147.6268529333
 30
0.0
 70
         1
  0
VERTEX
  5
4E0
100
AcDbEntity
  8
_X______
  6
CONTINUOUS
 62
         7
100
AcDbVertex
100
AcDb2dVertex
 10
1252.6491077801
 20
147.5335392838
 30
0.0
 70
         1
  0
VERTEX
  5
4E2
100
AcDbEntity
  8
_X______
  6
CONTINUOUS
 62
         7
100
AcDbVertex
100
AcDb2dVertex
 10
1252.7834127318
 20
147.4783800449
 30
0.0
 70
         1
  0
VERTEX
  5
4E4
100
AcDbEntity
  8
_X______
  6
CONTINUOUS
 62
         7
100
AcDbVertex
100
AcDb2dVertex
 10
1252.7834127318
 20
147.4783800449
 30
0.0
 70
         1
  0
VERTEX
  5
4E6
100
AcDbEntity
  8
_X______
  6
CONTINUOUS
 62
         7
100
AcDbVertex
100
AcDb2dVertex
 10
1253.1634137965
 20
147.3854086999
 30
0.0
 70
         1
  0
VERTEX
  5
4E8
100
AcDbEntity
  8
_X______
  6
CONTINUOUS
 62
         7
100
AcDbVertex
100
AcDb2dVertex
 10
1253.3404824638
 20
147.3704072021
 30
0.0
 70
         1
  0
VERTEX
  5
4EA
100
AcDbEntity
  8
_X______
  6
CONTINUOUS
 62
         7
100
AcDbVertex
100
AcDb2dVertex
 10
1253.5251097339
 20
147.3722403415
 30
0.0
 70
         1
  0
VERTEX
  5
4EC
100
AcDbEntity
  8
_X______
  6
CONTINUOUS
 62
         7
100
AcDbVertex
100
AcDb2dVertex
 10
1253.7161165836
 20
147.3920773926
 30
0.0
 70
         1
  0
VERTEX
  5
4EE
100
AcDbEntity
  8
_X______
  6
CONTINUOUS
 62
         7
100
AcDbVertex
100
AcDb2dVertex
 10
1253.9121013113
 20
147.4308336639
 30
0.0
 70
         1
  0
VERTEX
  5
4F0
100
AcDbEntity
  8
_X______
  6
CONTINUOUS
 62
         7
100
AcDbVertex
100
AcDb2dVertex
 10
1254.1114639433
 20
147.4891155231
 30
0.0
 70
         1
  0
VERTEX
  5
4F2
100
AcDbEntity
  8
_X______
  6
CONTINUOUS
 62
         7
100
AcDbVertex
100
AcDb2dVertex
 10
1254.3124431757
 20
147.5671748836
 30
0.0
 70
         1
  0
VERTEX
  5
4F4
100
AcDbEntity
  8
_X______
  6
CONTINUOUS
 62
         7
100
AcDbVertex
100
AcDb2dVertex
 10
1254.5131647025
 20
147.664877446
 30
0.0
 70
         1
  0
VERTEX
  5
4F6
100
AcDbEntity
  8
_X______
  6
CONTINUOUS
 62
         7
100
AcDbVertex
100
AcDb2dVertex
 10
1254.7116985724
 20
147.7816882026
 30
0.0
 70
         1
  0
VERTEX
  5
4F8
100
AcDbEntity
  8
_X______
  6
CONTINUOUS
 62
         7
100
AcDbVertex
100
AcDb2dVertex
 10
1254.906122152
 20
147.9166764161
 30
0.0
 70
         1
  0
VERTEX
  5
4FA
100
AcDbEntity
  8
_X______
  6
CONTINUOUS
 62
         7
100
AcDbVertex
100
AcDb2dVertex
 10
1255.0945845227
 20
148.068540599
 30
0.0
 70
         1
  0
VERTEX
  5
4FC
100
AcDbEntity
  8
_X______
  6
CONTINUOUS
 62
         7
100
AcDbVertex
100
AcDb2dVertex
 10
1255.3349133231
 20
148.2957231496
 30
0.0
 70
         1
  0
VERTEX
  5
4FE
100
AcDbEntity
  8
_X______
  6
CONTINUOUS
 62
         7
100
AcDbVertex
100
AcDb2dVertex
 10
1255.5578734028
 20
148.5456318257
 30
0.0
 70
         1
  0
VERTEX
  5
500
100
AcDbEntity
  8
_X______
  6
CONTINUOUS
 62
         7
100
AcDbVertex
100
AcDb2dVertex
 10
1255.760651757
 20
148.8130689378
 30
0.0
 70
         1
  0
VERTEX
  5
502
100
AcDbEntity
  8
_X______
  6
CONTINUOUS
 62
         7
100
AcDbVertex
100
AcDb2dVertex
 10
1255.9413113243
 20
149.0926158729
 30
0.0
 70
         1
  0
VERTEX
  5
504
100
AcDbEntity
  8
_X______
  6
CONTINUOUS
 62
         7
100
AcDbVertex
100
AcDb2dVertex
 10
1256.0988085985
 20
149.3789483828
 30
0.0
 70
         1
  0
VERTEX
  5
506
100
AcDbEntity
  8
_X______
  6
CONTINUOUS
 62
         7
100
AcDbVertex
100
AcDb2dVertex
 10
1256.2329388935
 20
149.6671032173
 30
0.0
 70
         1
  0
VERTEX
  5
508
100
AcDbEntity
  8
_X______
  6
CONTINUOUS
 62
         7
100
AcDbVertex
100
AcDb2dVertex
 10
1256.3773379562
 20
150.0493858933
 30
0.0
 70
         1
  0
VERTEX
  5
50A
100
AcDbEntity
  8
_X______
  6
CONTINUOUS
 62
         7
100
AcDbVertex
100
AcDb2dVertex
 10
1256.4834607818
 20
150.4183805037
 30
0.0
 70
         1
  0
VERTEX
  5
50C
100
AcDbEntity
  8
_X______
  6
CONTINUOUS
 62
         7
100
AcDbVertex
100
AcDb2dVertex
 10
1256.5554079031
 20
150.7677435441
 30
0.0
 70
         1
  0
VERTEX
  5
50E
100
AcDbEntity
  8
_X______
  6
CONTINUOUS
 62
         7
100
AcDbVertex
100
AcDb2dVertex
 10
1256.5979024469
 20
151.0933705821
 30
0.0
 70
         1
  0
VERTEX
  5
510
100
AcDbEntity
  8
_X______
  6
CONTINUOUS
 62
         7
100
AcDbVertex
100
AcDb2dVertex
 10
1256.6157965698
 20
151.3930743756
 30
0.0
 70
         1
  0
VERTEX
  5
512
100
AcDbEntity
  8
_X______
  6
CONTINUOUS
 62
         7
100
AcDbVertex
100
AcDb2dVertex
 10
1256.6137237282
 20
151.6661819893
 30
0.0
 70
         1
  0
VERTEX
  5
514
100
AcDbEntity
  8
_X______
  6
CONTINUOUS
 62
         7
100
AcDbVertex
100
AcDb2dVertex
 10
1256.5867104561
 20
151.992829841
 30
0.0
 70
         1
  0
VERTEX
  5
516
100
AcDbEntity
  8
_X______
  6
CONTINUOUS
 62
         7
100
AcDbVertex
100
AcDb2dVertex
 10
1256.5397604442
 20
152.2752142891
 30
0.0
 70
         1
  0
VERTEX
  5
518
100
AcDbEntity
  8
_X______
  6
CONTINUOUS
 62
         7
100
AcDbVertex
100
AcDb2dVertex
 10
1256.479777891
 20
152.5176928097
 30
0.0
 70
         1
  0
VERTEX
  5
51A
100
AcDbEntity
  8
_X______
  6
CONTINUOUS
 62
         7
100
AcDbVertex
100
AcDb2dVertex
 10
1256.387109473
 20
152.790495392
 30
0.0
 70
         1
  0
VERTEX
  5
51C
100
AcDbEntity
  8
_X______
  6
CONTINUOUS
 62
         7
100
AcDbVertex
100
AcDb2dVertex
 10
1256.2891548001
 20
153.0106477353
 30
0.0
 70
         1
  0
VERTEX
  5
51E
100
AcDbEntity
  8
_X______
  6
CONTINUOUS
 62
         7
100
AcDbVertex
100
AcDb2dVertex
 10
1256.1916331762
 20
153.1883354603
 30
0.0
 70
         1
  0
VERTEX
  5
520
100
AcDbEntity
  8
_X______
  6
CONTINUOUS
 62
         7
100
AcDbVertex
100
AcDb2dVertex
 10
1256.0656940809
 20
153.3767039178
 30
0.0
 70
         1
  0
VERTEX
  5
522
100
AcDbEntity
  8
_X______
  6
CONTINUOUS
 62
         7
100
AcDbVertex
100
AcDb2dVertex
 10
1255.9117556443
 20
153.5623108576
 30
0.0
 70
         1
  0
VERTEX
  5
524
100
AcDbEntity
  8
_X______
  6
CONTINUOUS
 62
         7
100
AcDbVertex
100
AcDb2dVertex
 10
1255.7811308017
 20
153.6909701673
 30
0.0
 70
         1
  0
VERTEX
  5
526
100
AcDbEntity
  8
_X______
  6
CONTINUOUS
 62
         7
100
AcDbVertex
100
AcDb2dVertex
 10
1255.6361043032
 20
153.8093378163
 30
0.0
 70
         1
  0
VERTEX
  5
528
100
AcDbEntity
  8
_X______
  6
CONTINUOUS
 62
         7
100
AcDbVertex
100
AcDb2dVertex
 10
1255.4886443785
 20
153.9077555019
 30
0.0
 70
         1
  0
VERTEX
  5
52A
100
AcDbEntity
  8
_X______
  6
CONTINUOUS
 62
         7
100
AcDbVertex
100
AcDb2dVertex
 10
1255.3118586867
 20
154.0010691514
 30
0.0
 70
         1
  0
VERTEX
  5
52C
100
AcDbEntity
  8
_X______
  6
CONTINUOUS
 62
         7
100
AcDbVertex
100
AcDb2dVertex
 10
1255.177553735
 20
154.0562283904
 30
0.0
 70
         1
  0
SEQEND
  5
52E
100
AcDbEntity
  8
_X______
  6
CONTINUOUS
 62
         7
  0
LINE
  5
52F
100
AcDbEntity
  8
_X______
  6
CENTER
 62
         1
100
AcDbLine
 10
1258.6789463373
 20
149.057203501
 30
0.0
 11
1249.2820201295
 21
152.4774049342
 31
0.0
  0
POLYLINE
  5
531
100
AcDbEntity
  8
_X______
  6
CONTINUOUS
 62
         7
100
AcDb3dPolyline
 66
         1
 10
0.0
 20
0.0
 30
0.0
 70
         8
  0
VERTEX
  5
533
100
AcDbEntity
  8
_X______
  6
CONTINUOUS
 62
         7
100
AcDbVertex
100
AcDb3dPolylineVertex
 10
1253.1887669199
 20
153.3129273476
 30
0.0
 70
        32
  0
VERTEX
  5
535
100
AcDbEntity
  8
_X______
  6
CONTINUOUS
 62
         7
100
AcDbVertex
100
AcDb3dPolylineVertex
 10
1253.1887669199
 20
153.3129273476
 30
0.0
 70
        32
  0
SEQEND
  5
537
100
AcDbEntity
  8
_X______
  6
CONTINUOUS
 62
         7
  0
POLYLINE
  5
539
100
AcDbEntity
  8
_X______
  6
CONTINUOUS
 62
         7
100
AcDb2dPolyline
 66
         1
 10
0.0
 20
0.0
 30
0.0
 70
         2
  0
VERTEX
  5
53B
100
AcDbEntity
  8
_X______
  6
CONTINUOUS
 62
         7
100
AcDbVertex
100
AcDb2dVertex
 10
1227.0632680208
 20
77.0264488322
 30
0.0
 70
         1
  0
VERTEX
  5
53D
100
AcDbEntity
  8
_X______
  6
CONTINUOUS
 62
         7
100
AcDbVertex
100
AcDb2dVertex
 10
1226.683266956
 20
77.1194201772
 30
0.0
 70
         1
  0
VERTEX
  5
53F
100
AcDbEntity
  8
_X______
  6
CONTINUOUS
 62
         7
100
AcDbVertex
100
AcDb2dVertex
 10
1226.5061982887
 20
77.134421675
 30
0.0
 70
         1
  0
VERTEX
  5
541
100
AcDbEntity
  8
_X______
  6
CONTINUOUS
 62
         7
100
AcDbVertex
100
AcDb2dVertex
 10
1226.3215710186
 20
77.1325885356
 30
0.0
 70
         1
  0
VERTEX
  5
543
100
AcDbEntity
  8
_X______
  6
CONTINUOUS
 62
         7
100
AcDbVertex
100
AcDb2dVertex
 10
1226.130564169
 20
77.1127514845
 30
0.0
 70
         1
  0
VERTEX
  5
545
100
AcDbEntity
  8
_X______
  6
CONTINUOUS
 62
         7
100
AcDbVertex
100
AcDb2dVertex
 10
1225.9345794412
 20
77.0739952132
 30
0.0
 70
         1
  0
VERTEX
  5
547
100
AcDbEntity
  8
_X______
  6
CONTINUOUS
 62
         7
100
AcDbVertex
100
AcDb2dVertex
 10
1225.7352168092
 20
77.015713354
 30
0.0
 70
         1
  0
VERTEX
  5
549
100
AcDbEntity
  8
_X______
  6
CONTINUOUS
 62
         7
100
AcDbVertex
100
AcDb2dVertex
 10
1225.5342375768
 20
76.9376539934
 30
0.0
 70
         1
  0
VERTEX
  5
54B
100
AcDbEntity
  8
_X______
  6
CONTINUOUS
 62
         7
100
AcDbVertex
100
AcDb2dVertex
 10
1225.33351605
 20
76.8399514311
 30
0.0
 70
         1
  0
VERTEX
  5
54D
100
AcDbEntity
  8
_X______
  6
CONTINUOUS
 62
         7
100
AcDbVertex
100
AcDb2dVertex
 10
1225.1349821801
 20
76.7231406745
 30
0.0
 70
         1
  0
VERTEX
  5
54F
100
AcDbEntity
  8
_X______
  6
CONTINUOUS
 62
         7
100
AcDbVertex
100
AcDb2dVertex
 10
1224.9405586005
 20
76.588152461
 30
0.0
 70
         1
  0
VERTEX
  5
551
100
AcDbEntity
  8
_X______
  6
CONTINUOUS
 62
         7
100
AcDbVertex
100
AcDb2dVertex
 10
1224.7520962298
 20
76.4362882781
 30
0.0
 70
         1
  0
VERTEX
  5
553
100
AcDbEntity
  8
_X______
  6
CONTINUOUS
 62
         7
100
AcDbVertex
100
AcDb2dVertex
 10
1224.5117674294
 20
76.2091057275
 30
0.0
 70
         1
  0
VERTEX
  5
555
100
AcDbEntity
  8
_X______
  6
CONTINUOUS
 62
         7
100
AcDbVertex
100
AcDb2dVertex
 10
1224.2888073497
 20
75.9591970514
 30
0.0
 70
         1
  0
VERTEX
  5
557
100
AcDbEntity
  8
_X______
  6
CONTINUOUS
 62
         7
100
AcDbVertex
100
AcDb2dVertex
 10
1224.0860289955
 20
75.6917599393
 30
0.0
 70
         1
  0
VERTEX
  5
559
100
AcDbEntity
  8
_X______
  6
CONTINUOUS
 62
         7
100
AcDbVertex
100
AcDb2dVertex
 10
1223.9053694283
 20
75.4122130042
 30
0.0
 70
         1
  0
VERTEX
  5
55B
100
AcDbEntity
  8
_X______
  6
CONTINUOUS
 62
         7
100
AcDbVertex
100
AcDb2dVertex
 10
1223.747872154
 20
75.1258804943
 30
0.0
 70
         1
  0
VERTEX
  5
55D
100
AcDbEntity
  8
_X______
  6
CONTINUOUS
 62
         7
100
AcDbVertex
100
AcDb2dVertex
 10
1223.613741859
 20
74.8377256597
 30
0.0
 70
         1
  0
VERTEX
  5
55F
100
AcDbEntity
  8
_X______
  6
CONTINUOUS
 62
         7
100
AcDbVertex
100
AcDb2dVertex
 10
1223.4693427963
 20
74.4554429838
 30
0.0
 70
         1
  0
VERTEX
  5
561
100
AcDbEntity
  8
_X______
  6
CONTINUOUS
 62
         7
100
AcDbVertex
100
AcDb2dVertex
 10
1223.3632199707
 20
74.0864483734
 30
0.0
 70
         1
  0
VERTEX
  5
563
100
AcDbEntity
  8
_X______
  6
CONTINUOUS
 62
         7
100
AcDbVertex
100
AcDb2dVertex
 10
1223.2912728494
 20
73.737085333
 30
0.0
 70
         1
  0
VERTEX
  5
565
100
AcDbEntity
  8
_X______
  6
CONTINUOUS
 62
         7
100
AcDbVertex
100
AcDb2dVertex
 10
1223.2487783056
 20
73.411458295
 30
0.0
 70
         1
  0
VERTEX
  5
567
100
AcDbEntity
  8
_X______
  6
CONTINUOUS
 62
         7
100
AcDbVertex
100
AcDb2dVertex
 10
1223.2308841827
 20
73.1117545015
 30
0.0
 70
         1
  0
VERTEX
  5
569
100
AcDbEntity
  8
_X______
  6
CONTINUOUS
 62
         7
100
AcDbVertex
100
AcDb2dVertex
 10
1223.2329570243
 20
72.8386468878
 30
0.0
 70
         1
  0
VERTEX
  5
56B
100
AcDbEntity
  8
_X______
  6
CONTINUOUS
 62
         7
100
AcDbVertex
100
AcDb2dVertex
 10
1223.2599702964
 20
72.5119990361
 30
0.0
 70
         1
  0
VERTEX
  5
56D
100
AcDbEntity
  8
_X______
  6
CONTINUOUS
 62
         7
100
AcDbVertex
100
AcDb2dVertex
 10
1223.3069203083
 20
72.229614588
 30
0.0
 70
         1
  0
VERTEX
  5
56F
100
AcDbEntity
  8
_X______
  6
CONTINUOUS
 62
         7
100
AcDbVertex
100
AcDb2dVertex
 10
1223.3669028615
 20
71.9871360674
 30
0.0
 70
         1
  0
VERTEX
  5
571
100
AcDbEntity
  8
_X______
  6
CONTINUOUS
 62
         7
100
AcDbVertex
100
AcDb2dVertex
 10
1223.4595712795
 20
71.7143334851
 30
0.0
 70
         1
  0
VERTEX
  5
573
100
AcDbEntity
  8
_X______
  6
CONTINUOUS
 62
         7
100
AcDbVertex
100
AcDb2dVertex
 10
1223.5575259524
 20
71.4941811418
 30
0.0
 70
         1
  0
VERTEX
  5
575
100
AcDbEntity
  8
_X______
  6
CONTINUOUS
 62
         7
100
AcDbVertex
100
AcDb2dVertex
 10
1223.6550475763
 20
71.3164934168
 30
0.0
 70
         1
  0
VERTEX
  5
577
100
AcDbEntity
  8
_X______
  6
CONTINUOUS
 62
         7
100
AcDbVertex
100
AcDb2dVertex
 10
1223.7809866716
 20
71.1281249593
 30
0.0
 70
         1
  0
VERTEX
  5
579
100
AcDbEntity
  8
_X______
  6
CONTINUOUS
 62
         7
100
AcDbVertex
100
AcDb2dVertex
 10
1223.9349251082
 20
70.9425180195
 30
0.0
 70
         1
  0
VERTEX
  5
57B
100
AcDbEntity
  8
_X______
  6
CONTINUOUS
 62
         7
100
AcDbVertex
100
AcDb2dVertex
 10
1224.0655499508
 20
70.8138587098
 30
0.0
 70
         1
  0
VERTEX
  5
57D
100
AcDbEntity
  8
_X______
  6
CONTINUOUS
 62
         7
100
AcDbVertex
100
AcDb2dVertex
 10
1224.2105764493
 20
70.6954910608
 30
0.0
 70
         1
  0
VERTEX
  5
57F
100
AcDbEntity
  8
_X______
  6
CONTINUOUS
 62
         7
100
AcDbVertex
100
AcDb2dVertex
 10
1224.358036374
 20
70.5970733752
 30
0.0
 70
         1
  0
VERTEX
  5
581
100
AcDbEntity
  8
_X______
  6
CONTINUOUS
 62
         7
100
AcDbVertex
100
AcDb2dVertex
 10
1224.5348220658
 20
70.5037597257
 30
0.0
 70
         1
  0
VERTEX
  5
583
100
AcDbEntity
  8
_X______
  6
CONTINUOUS
 62
         7
100
AcDbVertex
100
AcDb2dVertex
 10
1224.6691270175
 20
70.4486004867
 30
0.0
 70
         1
  0
VERTEX
  5
585
100
AcDbEntity
  8
_X______
  6
CONTINUOUS
 62
         7
100
AcDbVertex
100
AcDb2dVertex
 10
1224.6691270175
 20
70.4486004867
 30
0.0
 70
         1
  0
VERTEX
  5
587
100
AcDbEntity
  8
_X______
  6
CONTINUOUS
 62
         7
100
AcDbVertex
100
AcDb2dVertex
 10
1225.0491280822
 20
70.3556291418
 30
0.0
 70
         1
  0
VERTEX
  5
589
100
AcDbEntity
  8
_X______
  6
CONTINUOUS
 62
         7
100
AcDbVertex
100
AcDb2dVertex
 10
1225.2261967495
 20
70.3406276439
 30
0.0
 70
         1
  0
VERTEX
  5
58B
100
AcDbEntity
  8
_X______
  6
CONTINUOUS
 62
         7
100
AcDbVertex
100
AcDb2dVertex
 10
1225.4108240196
 20
70.3424607834
 30
0.0
 70
         1
  0
VERTEX
  5
58D
100
AcDbEntity
  8
_X______
  6
CONTINUOUS
 62
         7
100
AcDbVertex
100
AcDb2dVertex
 10
1225.6018308693
 20
70.3622978345
 30
0.0
 70
         1
  0
VERTEX
  5
58F
100
AcDbEntity
  8
_X______
  6
CONTINUOUS
 62
         7
100
AcDbVertex
100
AcDb2dVertex
 10
1225.797815597
 20
70.4010541058
 30
0.0
 70
         1
  0
VERTEX
  5
591
100
AcDbEntity
  8
_X______
  6
CONTINUOUS
 62
         7
100
AcDbVertex
100
AcDb2dVertex
 10
1225.997178229
 20
70.459335965
 30
0.0
 70
         1
  0
VERTEX
  5
593
100
AcDbEntity
  8
_X______
  6
CONTINUOUS
 62
         7
100
AcDbVertex
100
AcDb2dVertex
 10
1226.1981574615
 20
70.5373953255
 30
0.0
 70
         1
  0
VERTEX
  5
595
100
AcDbEntity
  8
_X______
  6
CONTINUOUS
 62
         7
100
AcDbVertex
100
AcDb2dVertex
 10
1226.3988789882
 20
70.6350978879
 30
0.0
 70
         1
  0
VERTEX
  5
597
100
AcDbEntity
  8
_X______
  6
CONTINUOUS
 62
         7
100
AcDbVertex
100
AcDb2dVertex
 10
1226.5974128582
 20
70.7519086445
 30
0.0
 70
         1
  0
VERTEX
  5
599
100
AcDbEntity
  8
_X______
  6
CONTINUOUS
 62
         7
100
AcDbVertex
100
AcDb2dVertex
 10
1226.7918364377
 20
70.8868968579
 30
0.0
 70
         1
  0
VERTEX
  5
59B
100
AcDbEntity
  8
_X______
  6
CONTINUOUS
 62
         7
100
AcDbVertex
100
AcDb2dVertex
 10
1226.9802988084
 20
71.0387610408
 30
0.0
 70
         1
  0
VERTEX
  5
59D
100
AcDbEntity
  8
_X______
  6
CONTINUOUS
 62
         7
100
AcDbVertex
100
AcDb2dVertex
 10
1227.2206276088
 20
71.2659435914
 30
0.0
 70
         1
  0
VERTEX
  5
59F
100
AcDbEntity
  8
_X______
  6
CONTINUOUS
 62
         7
100
AcDbVertex
100
AcDb2dVertex
 10
1227.4435876885
 20
71.5158522676
 30
0.0
 70
         1
  0
VERTEX
  5
5A1
100
AcDbEntity
  8
_X______
  6
CONTINUOUS
 62
         7
100
AcDbVertex
100
AcDb2dVertex
 10
1227.6463660427
 20
71.7832893797
 30
0.0
 70
         1
  0
VERTEX
  5
5A3
100
AcDbEntity
  8
_X______
  6
CONTINUOUS
 62
         7
100
AcDbVertex
100
AcDb2dVertex
 10
1227.82702561
 20
72.0628363148
 30
0.0
 70
         1
  0
VERTEX
  5
5A5
100
AcDbEntity
  8
_X______
  6
CONTINUOUS
 62
         7
100
AcDbVertex
100
AcDb2dVertex
 10
1227.9845228842
 20
72.3491688246
 30
0.0
 70
         1
  0
VERTEX
  5
5A7
100
AcDbEntity
  8
_X______
  6
CONTINUOUS
 62
         7
100
AcDbVertex
100
AcDb2dVertex
 10
1228.1186531792
 20
72.6373236592
 30
0.0
 70
         1
  0
VERTEX
  5
5A9
100
AcDbEntity
  8
_X______
  6
CONTINUOUS
 62
         7
100
AcDbVertex
100
AcDb2dVertex
 10
1228.2630522419
 20
73.0196063351
 30
0.0
 70
         1
  0
VERTEX
  5
5AB
100
AcDbEntity
  8
_X______
  6
CONTINUOUS
 62
         7
100
AcDbVertex
100
AcDb2dVertex
 10
1228.3691750675
 20
73.3886009455
 30
0.0
 70
         1
  0
VERTEX
  5
5AD
100
AcDbEntity
  8
_X______
  6
CONTINUOUS
 62
         7
100
AcDbVertex
100
AcDb2dVertex
 10
1228.4411221888
 20
73.737963986
 30
0.0
 70
         1
  0
VERTEX
  5
5AF
100
AcDbEntity
  8
_X______
  6
CONTINUOUS
 62
         7
100
AcDbVertex
100
AcDb2dVertex
 10
1228.4836167326
 20
74.063591024
 30
0.0
 70
         1
  0
VERTEX
  5
5B1
100
AcDbEntity
  8
_X______
  6
CONTINUOUS
 62
         7
100
AcDbVertex
100
AcDb2dVertex
 10
1228.5015108555
 20
74.3632948174
 30
0.0
 70
         1
  0
VERTEX
  5
5B3
100
AcDbEntity
  8
_X______
  6
CONTINUOUS
 62
         7
100
AcDbVertex
100
AcDb2dVertex
 10
1228.4994380139
 20
74.6364024311
 30
0.0
 70
         1
  0
VERTEX
  5
5B5
100
AcDbEntity
  8
_X______
  6
CONTINUOUS
 62
         7
100
AcDbVertex
100
AcDb2dVertex
 10
1228.4724247418
 20
74.9630502829
 30
0.0
 70
         1
  0
VERTEX
  5
5B7
100
AcDbEntity
  8
_X______
  6
CONTINUOUS
 62
         7
100
AcDbVertex
100
AcDb2dVertex
 10
1228.4254747299
 20
75.245434731
 30
0.0
 70
         1
  0
VERTEX
  5
5B9
100
AcDbEntity
  8
_X______
  6
CONTINUOUS
 62
         7
100
AcDbVertex
100
AcDb2dVertex
 10
1228.3654921767
 20
75.4879132515
 30
0.0
 70
         1
  0
VERTEX
  5
5BB
100
AcDbEntity
  8
_X______
  6
CONTINUOUS
 62
         7
100
AcDbVertex
100
AcDb2dVertex
 10
1228.2728237587
 20
75.7607158339
 30
0.0
 70
         1
  0
VERTEX
  5
5BD
100
AcDbEntity
  8
_X______
  6
CONTINUOUS
 62
         7
100
AcDbVertex
100
AcDb2dVertex
 10
1228.1748690858
 20
75.9808681771
 30
0.0
 70
         1
  0
VERTEX
  5
5BF
100
AcDbEntity
  8
_X______
  6
CONTINUOUS
 62
         7
100
AcDbVertex
100
AcDb2dVertex
 10
1228.0773474619
 20
76.1585559021
 30
0.0
 70
         1
  0
VERTEX
  5
5C1
100
AcDbEntity
  8
_X______
  6
CONTINUOUS
 62
         7
100
AcDbVertex
100
AcDb2dVertex
 10
1227.9514083666
 20
76.3469243596
 30
0.0
 70
         1
  0
VERTEX
  5
5C3
100
AcDbEntity
  8
_X______
  6
CONTINUOUS
 62
         7
100
AcDbVertex
100
AcDb2dVertex
 10
1227.79746993
 20
76.5325312995
 30
0.0
 70
         1
  0
VERTEX
  5
5C5
100
AcDbEntity
  8
_X______
  6
CONTINUOUS
 62
         7
100
AcDbVertex
100
AcDb2dVertex
 10
1227.6668450875
 20
76.6611906092
 30
0.0
 70
         1
  0
VERTEX
  5
5C7
100
AcDbEntity
  8
_X______
  6
CONTINUOUS
 62
         7
100
AcDbVertex
100
AcDb2dVertex
 10
1227.521818589
 20
76.7795582582
 30
0.0
 70
         1
  0
VERTEX
  5
5C9
100
AcDbEntity
  8
_X______
  6
CONTINUOUS
 62
         7
100
AcDbVertex
100
AcDb2dVertex
 10
1227.3743586643
 20
76.8779759438
 30
0.0
 70
         1
  0
VERTEX
  5
5CB
100
AcDbEntity
  8
_X______
  6
CONTINUOUS
 62
         7
100
AcDbVertex
100
AcDb2dVertex
 10
1227.1975729724
 20
76.9712895933
 30
0.0
 70
         1
  0
VERTEX
  5
5CD
100
AcDbEntity
  8
_X______
  6
CONTINUOUS
 62
         7
100
AcDbVertex
100
AcDb2dVertex
 10
1227.0632680208
 20
77.0264488322
 30
0.0
 70
         1
  0
SEQEND
  5
5CF
100
AcDbEntity
  8
_X______
  6
CONTINUOUS
 62
         7
  0
LINE
  5
5D0
100
AcDbEntity
  8
_X______
  6
CENTER
 62
         1
100
AcDbLine
 10
1230.564660623
 20
72.0274239428
 30
0.0
 11
1221.1677344152
 21
75.4476253761
 31
0.0
  0
LINE
  5
5D1
100
AcDbEntity
  8
_X______
  6
CENTER
 62
         1
100
AcDbLine
 10
1257.3639808204
 20
160.1701802397
 30
0.0
 11
1219.8166451685
 21
57.0097233753
 31
0.0
  0
LINE
  5
5D2
100
AcDbEntity
  8
_X______
  6
CENTER
 62
         1
100
AcDbLine
 10
1534.8786999334
 20
-78.7087953246
 30
0.0
 11
1534.8786999334
 21
-117.6751988301
 31
0.0
  0
LINE
  5
5D3
100
AcDbEntity
  8
_X______
  6
CONTINUOUS
 62
         7
100
AcDbLine
 10
1536.5286999334
 20
-94.2177984316
 30
0.0
 11
1536.5286999334
 21
-116.3436751498
 31
0.0
  0
LINE
  5
5D4
100
AcDbEntity
  8
_X______
  6
CONTINUOUS
 62
         7
100
AcDbLine
 10
1533.2286999334
 20
-116.3436751498
 30
0.0
 11
1533.2286999334
 21
-92.1682501989
 31
0.0
  0
LINE
  5
5D5
100
AcDbEntity
  8
_X______
  6
CONTINUOUS
 62
         7
100
AcDbLine
 10
1533.2286999334
 20
-85.4539899607
 30
0.0
 11
1534.5445975948
 21
-86.3753914227
 31
0.0
  0
LINE
  5
5D6
100
AcDbEntity
  8
_X______
  6
CONTINUOUS
 62
         7
100
AcDbLine
 10
1533.2286999334
 20
-86.0643772551
 30
0.0
 11
1533.2286999334
 21
-85.4539899607
 31
0.0
  0
LINE
  5
5D7
100
AcDbEntity
  8
_X______
  6
CONTINUOUS
 62
         7
100
AcDbLine
 10
1531.3899271948
 20
-90.8807276663
 30
0.0
 11
1533.2286999334
 21
-88.2546880449
 31
0.0
  0
LINE
  5
5D8
100
AcDbEntity
  8
_X______
  6
CONTINUOUS
 62
         7
100
AcDbLine
 10
1533.2286999334
 20
-86.0643772551
 30
0.0
 11
1530.1620491551
 21
-83.9170852631
 31
0.0
  0
LINE
  5
5D9
100
AcDbEntity
  8
_X______
  6
CONTINUOUS
 62
         7
100
AcDbLine
 10
1536.5286999334
 20
-94.0024803964
 30
0.0
 11
1539.1727216423
 21
-90.226426063
 31
0.0
  0
LINE
  5
5DA
100
AcDbEntity
  8
_X______
  6
CONTINUOUS
 62
         7
100
AcDbLine
 10
1538.9211246846
 20
-93.1021924485
 30
0.0
 11
1536.5286999334
 21
-94.2177984316
 31
0.0
  0
LINE
  5
5DB
100
AcDbEntity
  8
_X______
  6
CONTINUOUS
 62
         7
100
AcDbLine
 10
1538.9211246846
 20
-93.1021924485
 30
0.0
 11
1539.1727216423
 21
-90.226426063
 31
0.0
  0
LINE
  5
5DC
100
AcDbEntity
  8
_X______
  6
CONTINUOUS
 62
         4
100
AcDbLine
 10
1530.4488373733
 20
-83.507509241
 30
0.0
 11
1533.2286999334
 21
-85.4539899607
 31
0.0
  0
LINE
  5
5DD
100
AcDbEntity
  8
_X______
  6
CONTINUOUS
 62
         7
100
AcDbLine
 10
1531.1031389767
 20
-91.2903036885
 30
0.0
 11
1531.3899271948
 21
-90.8807276663
 31
0.0
  0
LINE
  5
5DE
100
AcDbEntity
  8
_X______
  6
CONTINUOUS
 62
         7
100
AcDbLine
 10
1530.4488373733
 20
-83.507509241
 30
0.0
 11
1530.4775161951
 21
-83.4665516388
 31
0.0
  0
LINE
  5
5DF
100
AcDbEntity
  8
_X______
  6
CONTINUOUS
 62
         4
100
AcDbLine
 10
1532.8786999334
 20
-85.1150166132
 30
0.0
 11
1536.8786999334
 21
-85.1150166132
 31
0.0
  0
LINE
  5
5E0
100
AcDbEntity
  8
_X______
  6
CONTINUOUS
 62
         7
100
AcDbLine
 10
1532.8786999334
 20
-85.1150166132
 30
0.0
 11
1533.2286999334
 21
-85.3170892074
 31
0.0
  0
LINE
  5
5E1
100
AcDbEntity
  8
_X______
  6
CONTINUOUS
 62
         7
100
AcDbLine
 10
1533.2286999334
 20
-85.3170892074
 30
0.0
 11
1536.5286999334
 21
-85.3170892074
 31
0.0
  0
LINE
  5
5E2
100
AcDbEntity
  8
_X______
  6
CONTINUOUS
 62
         7
100
AcDbLine
 10
1536.8786999334
 20
-85.1150166132
 30
0.0
 11
1536.5286999334
 21
-85.3170892074
 31
0.0
  0
LINE
  5
5E3
100
AcDbEntity
  8
_X______
  6
CONTINUOUS
 62
         7
100
AcDbLine
 10
1536.5286999334
 20
-85.3170892074
 30
0.0
 11
1536.5286999334
 21
-88.3750621312
 31
0.0
  0
LINE
  5
5E4
100
AcDbEntity
  8
_X______
  6
CONTINUOUS
 62
         7
100
AcDbLine
 10
1539.1727216423
 20
-90.226426063
 30
0.0
 11
1536.5286999334
 21
-88.3750621312
 31
0.0
  0
LINE
  5
5E5
100
AcDbEntity
  8
_X______
  6
CONTINUOUS
 62
         4
100
AcDbLine
 10
1536.5286999334
 20
-88.3750621312
 30
0.0
 11
1533.2286999334
 21
-86.0643772551
 31
0.0
  0
LINE
  5
5E6
100
AcDbEntity
  8
_X______
  6
CONTINUOUS
 62
         4
100
AcDbLine
 10
1536.3048394606
 20
-94.3221862844
 30
0.0
 11
1533.2286999334
 21
-92.1682501989
 31
0.0
  0
LINE
  5
5E7
100
AcDbEntity
  8
_X______
  6
CONTINUOUS
 62
         4
100
AcDbLine
 10
1536.3048394606
 20
-94.3221862844
 30
0.0
 11
1536.5286999334
 21
-94.0024803964
 31
0.0
  0
LINE
  5
5E8
100
AcDbEntity
  8
_X______
  6
CONTINUOUS
 62
         4
100
AcDbLine
 10
1536.5286999334
 20
-94.2177984316
 30
0.0
 11
1536.3048394606
 21
-94.3221862844
 31
0.0
  0
LINE
  5
5E9
100
AcDbEntity
  8
_X______
  6
CONTINUOUS
 62
         4
100
AcDbLine
 10
1533.2286999334
 20
-88.2546880449
 30
0.0
 11
1534.5445975948
 21
-86.3753914227
 31
0.0
  0
LINE
  5
5EA
100
AcDbEntity
  8
_X______
  6
CONTINUOUS
 62
         7
100
AcDbLine
 10
1533.2286999334
 20
-85.4539899607
 30
0.0
 11
1533.2286999334
 21
-85.3170892074
 31
0.0
  0
LINE
  5
5EB
100
AcDbEntity
  8
_X______
  6
CONTINUOUS
 62
         4
100
AcDbLine
 10
1536.5286999334
 20
-88.3750621312
 30
0.0
 11
1536.5286999334
 21
-94.2177984316
 31
0.0
  0
LINE
  5
5EC
100
AcDbEntity
  8
_X______
  6
CONTINUOUS
 62
         4
100
AcDbLine
 10
1533.2286999334
 20
-86.0643772551
 30
0.0
 11
1533.2286999334
 21
-92.1682501989
 31
0.0
  0
LINE
  5
5ED
100
AcDbEntity
  8
_X______
  6
CENTER
 62
         1
100
AcDbLine
 10
1539.0645187937
 20
-92.8974044374
 30
0.0
 11
1527.1220940425
 21
-84.5352286021
 31
0.0
  0
LINE
  5
5EE
100
AcDbEntity
  8
_X______
  6
CONTINUOUS
 62
         7
100
AcDbLine
 10
1536.8786999334
 20
-80.6509149981
 30
0.0
 11
1536.8786999334
 21
-85.1150166132
 31
0.0
  0
LINE
  5
5EF
100
AcDbEntity
  8
_X______
  6
CONTINUOUS
 62
         7
100
AcDbLine
 10
1532.8786999334
 20
-80.6509149981
 30
0.0
 11
1532.8786999334
 21
-85.1150166132
 31
0.0
  0
LINE
  5
5F0
100
AcDbEntity
  8
_X______
  6
CONTINUOUS
 62
         7
100
AcDbLine
 10
1530.4775161951
 20
-83.4665516388
 30
0.0
 11
1526.9786999334
 21
-81.0166541175
 31
0.0
  0
LINE
  5
5F1
100
AcDbEntity
  8
_X______
  6
CONTINUOUS
 62
         7
100
AcDbLine
 10
1527.0073787552
 20
-88.4224215067
 30
0.0
 11
1530.4488373733
 21
-83.507509241
 31
0.0
  0
LINE
  5
5F2
100
AcDbEntity
  8
_X______
  6
CONTINUOUS
 62
         7
100
AcDbLine
 10
1533.2286999334
 20
-92.1682501989
 30
0.0
 11
1527.2941669734
 21
-88.0128454846
 31
0.0
  0
LINE
  5
5F3
100
AcDbEntity
  8
_X______
  6
CONTINUOUS
 62
         4
100
AcDbLine
 10
1531.1031389767
 20
-91.2903036885
 30
0.0
 11
1527.0073787552
 21
-88.4224215067
 31
0.0
  0
DIMENSION
  5
5F6
100
AcDbEntity
  8
L1_150
  6
CONTINUOUS
 62
         4
100
AcDbDimension
  2
*D35
 10
1422.1786999334
 20
213.886056579
 30
0.0
 11
1519.985396728
 21
216.511056579
 31
0.0
  3
DIMSTYLE1
100
AcDbAlignedDimension
 13
1422.1786999334
 23
130.1987502026
 33
0.0
 14
1741.2786999334
 24
112.2524144385
 34
0.0
100
AcDbRotatedDimension
  0
DIMENSION
  5
604
100
AcDbEntity
  8
L1_150
  6
CONTINUOUS
 62
         4
100
AcDbDimension
  2
*D36
 10
1523.7786999334
 20
206.0589548378
 30
0.0
 11
1618.5286999334
 21
208.6839548378
 31
0.0
  3
DIMSTYLE1
100
AcDbAlignedDimension
 13
1523.7786999334
 23
151.9774144385
 33
0.0
 14
1723.7786999334
 24
141.2524144385
 34
0.0
100
AcDbRotatedDimension
  0
TEXT
  5
611
100
AcDbEntity
  8
L1_150
  6
CONTINUOUS
 62
         2
100
AcDbText
 10
1831.8200508356
 20
208.024037555
 30
0.0
 40
4.5
  1
531222
 41
0.98
  7
BOX
100
AcDbText
  0
ENDSEC
  0
SECTION
  2
OBJECTS
  0
DICTIONARY
  5
19
100
AcDbDictionary
  3
ACAD_GROUP
350
1A
  3
ACAD_MLINESTYLE
350
1B
  0
DICTIONARY
  5
1A
102
{ACAD_REACTORS
330
19
102
}
100
AcDbDictionary
  0
DICTIONARY
  5
1B
102
{ACAD_REACTORS
330
19
102
}
100
AcDbDictionary
  3
STANDARD
350
1C
  0
MLINESTYLE
  5
1C
102
{ACAD_REACTORS
330
1B
102
}
100
AcDbMlineStyle
  2
STANDARD
 70
         0
  3

 62
         0
 51
90.0
 52
90.0
 71
         2
 49
0.5
 62
       256
  6
BYLAYER
 49
-0.5
 62
       256
  6
BYLAYER
  0
ENDSEC
  0
EOF
