  0
SECTION
  2
HEADER
  9
$ACADVER
  1
AC1014
  9
$ACADMAINTVER
 70
         0
  9
$DWGCODEPAGE
  3
BIG5
  9
$INSBASE
 10
0.0
 20
0.0
 30
0.0
  9
$EXTMIN
 10
1108.5750286881
 20
-67.7125214597
 30
0.0
  9
$EXTMAX
 10
1728.4891192972
 20
244.8289350063
 30
0.0
  9
$LIMMIN
 10
0.0
 20
0.0
  9
$LIMMAX
 10
0.0
 20
0.0
  9
$ORTHOMODE
 70
         0
  9
$REGENMODE
 70
         1
  9
$FILLMODE
 70
         1
  9
$QTEXTMODE
 70
         0
  9
$MIRRTEXT
 70
         1
  9
$DRAGMODE
 70
         2
  9
$LTSCALE
 40
1.0
  9
$OSMODE
 70
         0
  9
$ATTMODE
 70
         1
  9
$TEXTSIZE
 40
1.4
  9
$TRACEWID
 40
0.05
  9
$TEXTSTYLE
  7
STANDARD
  9
$CLAYER
  8
0
  9
$CELTYPE
  6
CONTINUOUS
  9
$CECOLOR
 62
         4
  9
$CELTSCALE
 40
1.0
  9
$DELOBJ
 70
         1
  9
$DISPSILH
 70
         0
  9
$DIMSCALE
 40
1.0
  9
$DIMASZ
 40
0.18
  9
$DIMEXO
 40
0.0625
  9
$DIMDLI
 40
0.38
  9
$DIMRND
 40
0.0
  9
$DIMDLE
 40
0.0
  9
$DIMEXE
 40
0.25
  9
$DIMTP
 40
0.01
  9
$DIMTM
 40
-0.01
  9
$DIMTXT
 40
2.7
  9
$DIMCEN
 40
0.09
  9
$DIMTSZ
 40
0.0
  9
$DIMTOL
 70
         0
  9
$DIMLIM
 70
         0
  9
$DIMTIH
 70
         1
  9
$DIMTOH
 70
         1
  9
$DIMSE1
 70
         0
  9
$DIMSE2
 70
         0
  9
$DIMTAD
 70
         0
  9
$DIMZIN
 70
         0
  9
$DIMBLK
  1

  9
$DIMASO
 70
         1
  9
$DIMSHO
 70
         1
  9
$DIMPOST
  1

  9
$DIMAPOST
  1

  9
$DIMALT
 70
         0
  9
$DIMALTD
 70
         2
  9
$DIMALTF
 40
25.4
  9
$DIMLFAC
 40
1.0
  9
$DIMTOFL
 70
         0
  9
$DIMTVP
 40
0.0
  9
$DIMTIX
 70
         0
  9
$DIMSOXD
 70
         0
  9
$DIMSAH
 70
         0
  9
$DIMBLK1
  1

  9
$DIMBLK2
  1

  9
$DIMSTYLE
  2
STANDARD
  9
$DIMCLRD
 70
         0
  9
$DIMCLRE
 70
         0
  9
$DIMCLRT
 70
         4
  9
$DIMTFAC
 40
1.0
  9
$DIMGAP
 40
0.09
  9
$DIMJUST
 70
         0
  9
$DIMSD1
 70
         0
  9
$DIMSD2
 70
         0
  9
$DIMTOLJ
 70
         1
  9
$DIMTZIN
 70
         0
  9
$DIMALTZ
 70
         0
  9
$DIMALTTZ
 70
         0
  9
$DIMFIT
 70
         3
  9
$DIMUPT
 70
         0
  9
$DIMUNIT
 70
         2
  9
$DIMDEC
 70
         4
  9
$DIMTDEC
 70
         4
  9
$DIMALTU
 70
         2
  9
$DIMALTTD
 70
         2
  9
$DIMTXSTY
  7
STANDARD
  9
$DIMAUNIT
 70
         0
  9
$LUNITS
 70
         2
  9
$LUPREC
 70
        10
  9
$SKETCHINC
 40
0.1
  9
$FILLETRAD
 40
0.0
  9
$AUNITS
 70
         0
  9
$AUPREC
 70
         0
  9
$MENU
  1
acad
  9
$ELEVATION
 40
0.0
  9
$PELEVATION
 40
0.0
  9
$THICKNESS
 40
0.0
  9
$LIMCHECK
 70
         0
  9
$BLIPMODE
 70
         1
  9
$CHAMFERA
 40
0.0
  9
$CHAMFERB
 40
0.0
  9
$CHAMFERC
 40
0.0
  9
$CHAMFERD
 40
0.0
  9
$SKPOLY
 70
         0
  9
$TDCREATE
 40
0.000000000
  9
$TDUPDATE
 40
0.000000000
  9
$TDINDWG
 40
0.0000000000
  9
$TDUSRTIMER
 40
0.0000000000
  9
$USRTIMER
 70
         1
  9
$ANGBASE
 50
0.0
  9
$ANGDIR
 70
         0
  9
$PDMODE
 70
         2
  9
$PDSIZE
 40
0.0
  9
$PLINEWID
 40
0.0
  9
$COORDS
 70
         1
  9
$SPLFRAME
 70
         0
  9
$SPLINETYPE
 70
         6
  9
$SPLINESEGS
 70
         8
  9
$ATTDIA
 70
         0
  9
$ATTREQ
 70
         1
  9
$HANDLING
 70
         1
  9
$HANDSEED
  5
4B0
  9
$SURFTAB1
 70
         6
  9
$SURFTAB2
 70
         6
  9
$SURFTYPE
 70
         6
  9
$SURFU
 70
         6
  9
$SURFV
 70
         6
  9
$UCSNAME
  2

  9
$UCSORG
 10
0.0
 20
0.0
 30
0.0
  9
$UCSXDIR
 10
1.0
 20
0.0
 30
0.0
  9
$UCSYDIR
 10
0.0
 20
1.0
 30
0.0
  9
$PUCSNAME
  2

  9
$PUCSORG
 10
0.0
 20
0.0
 30
0.0
  9
$PUCSXDIR
 10
1.0
 20
0.0
 30
0.0
  9
$PUCSYDIR
 10
0.0
 20
1.0
 30
0.0
  9
$USERI1
 70
         0
  9
$USERI2
 70
         0
  9
$USERI3
 70
         0
  9
$USERI4
 70
         0
  9
$USERI5
 70
         0
  9
$USERR1
 40
0.0
  9
$USERR2
 40
0.0
  9
$USERR3
 40
0.0
  9
$USERR4
 40
0.0
  9
$USERR5
 40
0.0
  9
$WORLDVIEW
 70
         1
  9
$SHADEDGE
 70
         3
  9
$SHADEDIF
 70
        70
  9
$TILEMODE
 70
         1
  9
$MAXACTVP
 70
        16
  9
$PINSBASE
 10
0.0
 20
0.0
 30
0.0
  9
$PLIMCHECK
 70
         0
  9
$PEXTMIN
 10
1.0000000000E+20
 20
1.0000000000E+20
 30
1.0000000000E+20
  9
$PEXTMAX
 10
-1.0000000000E+20
 20
-1.0000000000E+20
 30
-1.0000000000E+20
  9
$PLIMMIN
 10
0.0
 20
0.0
  9
$PLIMMAX
 10
12.0
 20
9.0
  9
$UNITMODE
 70
         0
  9
$VISRETAIN
 70
         0
  9
$PLINEGEN
 70
         1
  9
$PSLTSCALE
 70
         0
  9
$TREEDEPTH
 70
      3020
  9
$PICKSTYLE
 70
         1
  9
$CMLSTYLE
  2
STANDARD
  9
$CMLJUST
 70
         0
  9
$CMLSCALE
 40
1.0
  9
$PROXYGRAPHICS
 70
         0
  9
$MEASUREMENT
 70
         0
  0
ENDSEC
  0
SECTION
  2
CLASSES
  0
CLASS
  1
LWPOLYLINE
  2
AcDbPolyline
  3
"AutoCAD"
 90
        0
280
         0
281
         1
  0
CLASS
  1
IMAGE
  2
AcDbRasterImage
  3
ISM
 90
      127
280
         0
281
         1
  0
CLASS
  1
OLE2FRAME
  2
AcDbOle2Frame
  3
""
 90
        0
280
         0
281
         1
  0
CLASS
  1
HATCH
  2
AcDbHatch
  3
"ACAD_SEDONA"
 90
        0
280
         0
281
         1
  0
CLASS
  1
DICTIONARYVAR
  2
AcDbDictionaryVar
  3
"AutoCAD"
 90
        0
280
         0
281
         0
  0
CLASS
  1
RASTERVARIABLES
  2
AcDbRasterVariables
  3
ISM
 90
        0
280
         0
281
         0
  0
CLASS
  1
IMAGEDEF
  2
AcDbRasterImageDef
  3
ISM
 90
        0
280
         0
281
         0
  0
CLASS
  1
IMAGEDEF_REACTOR
  2
AcDbRasterImageDefReactor
  3
ISM
 90
        1
280
         0
281
         0
  0
CLASS
  1
IDBUFFER
  2
AcDbIdBuffer
  3
"Acad"
 90
        0
280
         0
281
         0
  0
CLASS
  1
SPATIAL_FILTER
  2
AcDbSpatialFilter
  3
"Acad"
 90
        0
280
         0
281
         0
  0
CLASS
  1
XRECORD
  2
AcDbXrecord
  3
"<Built In>"
 90
        0
280
         0
281
         0
  0
CLASS
  1
SORTENTSTABLE
  2
AcDbSortentsTable
  3
"AutoCAD"
 90
        0
280
         0
281
         0
  0
CLASS
  1
LAYER_INDEX
  2
AcDbLayerIndex
  3
"Acad"
 90
        0
280
         0
281
         0
  0
CLASS
  1
SPATIAL_INDEX
  2
AcDbSpatialIndex
  3
"Acad"
 90
        0
280
         0
281
         0
  0
CLASS
  1
OBJECT_PTR
  2
CAseDLPNTableRecord
  3
"ASE-LPNTableRecord"
 90
        1
280
         0
281
         0
  0
CLASS
  1
LAYOUT
  2
AcDbLayout
  3
"AutoCAD 2000"
 90
        1
280
         0
281
         0
  0
CLASS
  1
PLOTSETTINGS
  2
AcDbPlotSettings
  3
"AutoCAD 2000"
 90
        1
280
         0
281
         0
  0
CLASS
  1
ACDBDICTIONARYWDFLT
  2
AcDbDictionaryWithDefault
  3
"AutoCAD 2000"
 90
        1
280
         0
281
         0
  0
CLASS
  1
ACDBPLACEHOLDER
  2
AcDbPlaceHolder
  3
"AutoCAD 2000"
 90
        1
280
         0
281
         0
  0
CLASS
  1
VBA_PROJECT
  2
AcDbVbaProject
  3
"acadvba"
 90
        1
280
         0
281
         0
  0
CLASS
  1
WIPEOUT
  2
AcDbWipeout
  3
WipeOut|AutoCAD Express Tool|expresstools@autodesk.com
 90
      127
280
         0
281
         1
  0
CLASS
  1
WIPEOUTVARIABLES
  2
AcDbWipeoutVariables
  3
WipeOut|AutoCAD Express Tool|expresstools@autodesk.com
 90
        0
280
         0
281
         0
  0
CLASS
  1
RTEXT
  2
RText
  3
RText|AutoCAD Express Tool|expresstools@autodesk.com
 90
        0
280
         0
281
         1
  0
CLASS
  1
ARCALIGNEDTEXT
  2
AcDbArcAlignedText
  3
ATEXT|AutoCAD Express Tool|expresstools@autodesk.com
 90
        0
280
         0
281
         1
  0
ENDSEC
  0
SECTION
  2
TABLES
  0
TABLE
  2
VPORT
  5
7
100
AcDbSymbolTable
 70
         1
  0
VPORT
  5
15
100
AcDbSymbolTableRecord
100
AcDbViewportTableRecord
  2
*ACTIVE
 70
         0
 10
0.0
 20
0.0
 11
1.0
 21
1.0
 12
1418.5320739926
 22
88.5582067733
 13
0.0
 23
0.0
 14
1.0
 24
1.0
 15
0.0
 25
0.0
 16
0.0
 26
0.0
 36
1.0
 17
0.0
 27
0.0
 37
0.0
 40
312.5414564661
 41
1.9834619625
 42
50.0
 43
0.0
 44
0.0
 50
0.0
 51
0.0
 71
         0
 72
       100
 73
         1
 74
         1
 75
         0
 76
         0
 77
         0
 78
         0
  0
ENDTAB
  0
TABLE
  2
LTYPE
  5
4
100
AcDbSymbolTable
 70
         6
  0
LTYPE
  5
11
100
AcDbSymbolTableRecord
100
AcDbLinetypeTableRecord
  2
BYBLOCK
 70
        64
  3

 72
        65
 73
         0
 40
0.0
  0
LTYPE
  5
12
100
AcDbSymbolTableRecord
100
AcDbLinetypeTableRecord
  2
BYLAYER
 70
        64
  3

 72
        65
 73
         0
 40
0.0
  0
LTYPE
  5
13
100
AcDbSymbolTableRecord
100
AcDbLinetypeTableRecord
  2
CONTINUOUS
 70
        64
  3
Solid line
 72
        65
 73
         0
 40
0.0
  0
LTYPE
  5
1D
100
AcDbSymbolTableRecord
100
AcDbLinetypeTableRecord
  2
DASHED
 70
        64
  3
_ _ _ _ _ _ _ _ _ _ _ _ _ _ _ _
 72
        65
 73
         2
 40
0.2
 49
0.1
 74
         0
 49
-0.1
 74
         0
  0
LTYPE
  5
1E
100
AcDbSymbolTableRecord
100
AcDbLinetypeTableRecord
  2
CENTER
 70
        64
  3
___ _ ___ _ ___ _ ___ _ ___ _ ___ _ ___ _ ___ _
 72
        65
 73
         4
 40
0.95
 49
0.625
 74
         0
 49
-0.125
 74
         0
 49
0.075
 74
         0
 49
-0.125
 74
         0
  0
LTYPE
  5
1F
100
AcDbSymbolTableRecord
100
AcDbLinetypeTableRecord
  2
PHANTOM
 70
        64
  3
______  __  __  ______  __  __  ______  __  __  
 72
        65
 73
         6
 40
1.025
 49
0.625
 74
         0
 49
-0.125
 74
         0
 49
0.075
 74
         0
 49
-0.125
 74
         0
 49
0.075
 74
         0
 49
-0.125
 74
         0
  0
ENDTAB
  0
TABLE
  2
LAYER
  5
2
100
AcDbSymbolTable
 70
         8
  0
LAYER
  5
14
100
AcDbSymbolTableRecord
100
AcDbLayerTableRecord
  2
0
 70
         0
 62
         7
  6
CONTINUOUS
  0
LAYER
  5
21
100
AcDbSymbolTableRecord
100
AcDbLayerTableRecord
  2
_____U
 70
         1
 62
         7
  6
CONTINUOUS
  0
LAYER
  5
22
100
AcDbSymbolTableRecord
100
AcDbLayerTableRecord
  2
_____T______
 70
         1
 62
         7
  6
CONTINUOUS
  0
LAYER
  5
23
100
AcDbSymbolTableRecord
100
AcDbLayerTableRecord
  2
______L_______
 70
         1
 62
         7
  6
CONTINUOUS
  0
LAYER
  5
24
100
AcDbSymbolTableRecord
100
AcDbLayerTableRecord
  2
_Y__________
 70
         0
 62
         7
  6
CONTINUOUS
  0
LAYER
  5
25
100
AcDbSymbolTableRecord
100
AcDbLayerTableRecord
  2
_X______
 70
         0
 62
         7
  6
CONTINUOUS
  0
LAYER
  5
26
100
AcDbSymbolTableRecord
100
AcDbLayerTableRecord
  2
L1_90
 70
         0
 62
         7
  6
CONTINUOUS
  0
LAYER
  5
2B
100
AcDbSymbolTableRecord
100
AcDbLayerTableRecord
  2
DEFPOINTS
 70
         0
 62
        -7
  6
CONTINUOUS
  0
ENDTAB
  0
TABLE
  2
STYLE
  5
3
100
AcDbSymbolTable
 70
        20
  0
STYLE
  5
17
100
AcDbSymbolTableRecord
100
AcDbTextStyleTableRecord
  2
STANDARD
 70
         0
 40
0.0
 41
1.0
 50
0.0
 71
         0
 42
0.0
  3
txt
  4

  0
STYLE
  5
34
100
AcDbSymbolTableRecord
100
AcDbTextStyleTableRecord
  2
BOX
 70
         0
 40
1.0
 41
1.0
 50
0.0
 71
         0
 42
0.2
  3
txt.shx
  4

  0
STYLE
  5
42
100
AcDbSymbolTableRecord
100
AcDbTextStyleTableRecord
  2
BOX
 70
         0
 40
1.0
 41
1.0
 50
0.0
 71
         0
 42
0.2
  3
txt.shx
  4

  0
STYLE
  5
C6
100
AcDbSymbolTableRecord
100
AcDbTextStyleTableRecord
  2
BOX
 70
         0
 40
1.0
 41
1.0
 50
0.0
 71
         0
 42
0.2
  3
txt.shx
  4

  0
STYLE
  5
134
100
AcDbSymbolTableRecord
100
AcDbTextStyleTableRecord
  2
BOX
 70
         0
 40
1.0
 41
1.0
 50
0.0
 71
         0
 42
0.2
  3
txt.shx
  4

  0
STYLE
  5
147
100
AcDbSymbolTableRecord
100
AcDbTextStyleTableRecord
  2
BOX
 70
         0
 40
1.0
 41
1.0
 50
0.0
 71
         0
 42
0.2
  3
txt.shx
  4

  0
STYLE
  5
178
100
AcDbSymbolTableRecord
100
AcDbTextStyleTableRecord
  2
BOX
 70
         0
 40
1.0
 41
1.0
 50
0.0
 71
         0
 42
0.2
  3
txt.shx
  4

  0
STYLE
  5
18E
100
AcDbSymbolTableRecord
100
AcDbTextStyleTableRecord
  2
BOX
 70
         0
 40
1.0
 41
1.0
 50
0.0
 71
         0
 42
0.2
  3
txt.shx
  4

  0
STYLE
  5
1A0
100
AcDbSymbolTableRecord
100
AcDbTextStyleTableRecord
  2
BOX
 70
         0
 40
1.0
 41
1.0
 50
0.0
 71
         0
 42
0.2
  3
txt.shx
  4

  0
STYLE
  5
1B1
100
AcDbSymbolTableRecord
100
AcDbTextStyleTableRecord
  2
BOX
 70
         0
 40
1.0
 41
1.0
 50
0.0
 71
         0
 42
0.2
  3
txt.shx
  4

  0
STYLE
  5
1CA
100
AcDbSymbolTableRecord
100
AcDbTextStyleTableRecord
  2
BOX
 70
         0
 40
1.0
 41
1.0
 50
0.0
 71
         0
 42
0.2
  3
txt.shx
  4

  0
STYLE
  5
239
100
AcDbSymbolTableRecord
100
AcDbTextStyleTableRecord
  2
BOX
 70
         0
 40
1.0
 41
1.0
 50
0.0
 71
         0
 42
0.2
  3
txt.shx
  4

  0
STYLE
  5
247
100
AcDbSymbolTableRecord
100
AcDbTextStyleTableRecord
  2
BOX
 70
         0
 40
1.0
 41
1.0
 50
0.0
 71
         0
 42
0.2
  3
txt.shx
  4

  0
STYLE
  5
377
100
AcDbSymbolTableRecord
100
AcDbTextStyleTableRecord
  2
BOX
 70
         0
 40
1.0
 41
1.0
 50
0.0
 71
         0
 42
0.2
  3
txt.shx
  4

  0
STYLE
  5
385
100
AcDbSymbolTableRecord
100
AcDbTextStyleTableRecord
  2
BOX
 70
         0
 40
1.0
 41
1.0
 50
0.0
 71
         0
 42
0.2
  3
txt.shx
  4

  0
STYLE
  5
393
100
AcDbSymbolTableRecord
100
AcDbTextStyleTableRecord
  2
BOX
 70
         0
 40
1.0
 41
1.0
 50
0.0
 71
         0
 42
0.2
  3
txt.shx
  4

  0
STYLE
  5
3A6
100
AcDbSymbolTableRecord
100
AcDbTextStyleTableRecord
  2
BOX
 70
         0
 40
1.0
 41
1.0
 50
0.0
 71
         0
 42
0.2
  3
txt.shx
  4

  0
STYLE
  5
3BC
100
AcDbSymbolTableRecord
100
AcDbTextStyleTableRecord
  2
BOX
 70
         0
 40
1.0
 41
1.0
 50
0.0
 71
         0
 42
0.2
  3
txt.shx
  4

  0
STYLE
  5
4AB
100
AcDbSymbolTableRecord
100
AcDbTextStyleTableRecord
  2
BOX
 70
         0
 40
1.0
 41
1.0
 50
0.0
 71
         0
 42
0.2
  3
txt.shx
  4

  0
STYLE
  5
4AE
100
AcDbSymbolTableRecord
100
AcDbTextStyleTableRecord
  2
BOX
 70
         0
 40
1.0
 41
1.0
 50
0.0
 71
         0
 42
0.2
  3
txt.shx
  4

  0
ENDTAB
  0
TABLE
  2
VIEW
  5
5
100
AcDbSymbolTable
 70
         0
  0
ENDTAB
  0
TABLE
  2
UCS
  5
6
100
AcDbSymbolTable
 70
         1
  0
UCS
  5
20
100
AcDbSymbolTableRecord
100
AcDbUCSTableRecord
  2
CK_VIEW_1
 70
         0
 10
0.0
 20
0.0
 30
1.0
 11
1.0
 21
0.0
 31
0.0
 12
0.0
 22
1.0
 32
0.0
  0
ENDTAB
  0
TABLE
  2
APPID
  5
8
100
AcDbSymbolTable
 70
         1
  0
APPID
  5
16
100
AcDbSymbolTableRecord
100
AcDbRegAppTableRecord
  2
ACAD
 70
         0
  0
ENDTAB
  0
TABLE
  2
DIMSTYLE
  5
9
100
AcDbSymbolTable
 70
         3
  0
DIMSTYLE
105
18
100
AcDbSymbolTableRecord
100
AcDbDimStyleTableRecord
  2
STANDARD
 70
         0
  3

  4

  5

  6

  7

 40
1.0
 41
0.18
 42
0.0625
 43
0.38
 44
0.18
 45
0.0
 46
0.0
 47
0.0
 48
0.0
 71
         0
 72
         0
 73
         1
 74
         1
 75
         0
 76
         0
 77
         0
 78
         0
140
0.18
141
0.09
142
0.0
143
25.4
144
1.0
145
0.0
146
1.0
147
0.09
170
         0
171
         2
172
         0
173
         0
174
         0
175
         0
176
         0
177
         0
178
         0
270
         2
271
         4
272
         4
273
         2
274
         2
275
         0
280
         0
281
         0
282
         0
283
         1
284
         0
285
         0
286
         0
287
         0
288
         0
340
17
  0
DIMSTYLE
105
27
100
AcDbSymbolTableRecord
100
AcDbDimStyleTableRecord
  2
DIMSTYLE1
 70
         0
  3

  4

  5

  6

  7

 40
1.0
 41
2.7
 42
0.0625
 43
0.38
 44
2.7
 45
0.0
 46
0.0
 47
0.0
 48
0.0
 71
         0
 72
         0
 73
         1
 74
         1
 75
         0
 76
         0
 77
         0
 78
         0
140
2.7
141
0.09
142
0.0
143
25.4
144
1.0
145
0.0
146
1.0
147
0.09
170
         0
171
         2
172
         0
173
         0
174
         0
175
         0
176
         0
177
         0
178
         0
270
         2
271
         4
272
         4
273
         2
274
         2
275
         0
280
         0
281
         0
282
         0
283
         1
284
         0
285
         0
286
         0
287
         0
288
         0
340
17
  0
DIMSTYLE
105
1A5
100
AcDbSymbolTableRecord
100
AcDbDimStyleTableRecord
  2
DIMSTYLE2
 70
         0
  3

  4

  5

  6

  7

 40
1.0
 41
3.5
 42
0.0625
 43
0.38
 44
3.5
 45
0.0
 46
0.0
 47
0.0
 48
0.0
 71
         0
 72
         0
 73
         1
 74
         1
 75
         0
 76
         0
 77
         0
 78
         0
140
3.5
141
0.09
142
0.0
143
25.4
144
1.0
145
0.0
146
1.0
147
0.09
170
         0
171
         2
172
         0
173
         0
174
         0
175
         0
176
         0
177
         0
178
         0
270
         2
271
         4
272
         4
273
         2
274
         2
275
         0
280
         0
281
         0
282
         0
283
         1
284
         0
285
         0
286
         0
287
         0
288
         0
340
17
  0
ENDTAB
  0
TABLE
  2
BLOCK_RECORD
  5
1
100
AcDbSymbolTable
 70
        29
  0
BLOCK_RECORD
  5
A
100
AcDbSymbolTableRecord
100
AcDbBlockTableRecord
  2
*MODEL_SPACE
  0
BLOCK_RECORD
  5
B
100
AcDbSymbolTableRecord
100
AcDbBlockTableRecord
  2
*PAPER_SPACE
  0
BLOCK_RECORD
  5
28
100
AcDbSymbolTableRecord
100
AcDbBlockTableRecord
  2
*D0
  0
BLOCK_RECORD
  5
37
100
AcDbSymbolTableRecord
100
AcDbBlockTableRecord
  2
*D1
  0
BLOCK_RECORD
  5
72
100
AcDbSymbolTableRecord
100
AcDbBlockTableRecord
  2
*X2
  0
BLOCK_RECORD
  5
81
100
AcDbSymbolTableRecord
100
AcDbBlockTableRecord
  2
*X3
  0
BLOCK_RECORD
  5
92
100
AcDbSymbolTableRecord
100
AcDbBlockTableRecord
  2
*X4
  0
BLOCK_RECORD
  5
9A
100
AcDbSymbolTableRecord
100
AcDbBlockTableRecord
  2
*X5
  0
BLOCK_RECORD
  5
A1
100
AcDbSymbolTableRecord
100
AcDbBlockTableRecord
  2
*X6
  0
BLOCK_RECORD
  5
BB
100
AcDbSymbolTableRecord
100
AcDbBlockTableRecord
  2
*D7
  0
BLOCK_RECORD
  5
C9
100
AcDbSymbolTableRecord
100
AcDbBlockTableRecord
  2
*X8
  0
BLOCK_RECORD
  5
127
100
AcDbSymbolTableRecord
100
AcDbBlockTableRecord
  2
*D9
  0
BLOCK_RECORD
  5
13C
100
AcDbSymbolTableRecord
100
AcDbBlockTableRecord
  2
*D10
  0
BLOCK_RECORD
  5
16C
100
AcDbSymbolTableRecord
100
AcDbBlockTableRecord
  2
*D11
  0
BLOCK_RECORD
  5
183
100
AcDbSymbolTableRecord
100
AcDbBlockTableRecord
  2
*D12
  0
BLOCK_RECORD
  5
195
100
AcDbSymbolTableRecord
100
AcDbBlockTableRecord
  2
*D13
  0
BLOCK_RECORD
  5
1A6
100
AcDbSymbolTableRecord
100
AcDbBlockTableRecord
  2
*D14
  0
BLOCK_RECORD
  5
1BF
100
AcDbSymbolTableRecord
100
AcDbBlockTableRecord
  2
*D15
  0
BLOCK_RECORD
  5
1F6
100
AcDbSymbolTableRecord
100
AcDbBlockTableRecord
  2
*X16
  0
BLOCK_RECORD
  5
207
100
AcDbSymbolTableRecord
100
AcDbBlockTableRecord
  2
*X17
  0
BLOCK_RECORD
  5
210
100
AcDbSymbolTableRecord
100
AcDbBlockTableRecord
  2
*X18
  0
BLOCK_RECORD
  5
21F
100
AcDbSymbolTableRecord
100
AcDbBlockTableRecord
  2
*X19
  0
BLOCK_RECORD
  5
227
100
AcDbSymbolTableRecord
100
AcDbBlockTableRecord
  2
*X20
  0
BLOCK_RECORD
  5
22E
100
AcDbSymbolTableRecord
100
AcDbBlockTableRecord
  2
*D21
  0
BLOCK_RECORD
  5
23C
100
AcDbSymbolTableRecord
100
AcDbBlockTableRecord
  2
*D22
  0
BLOCK_RECORD
  5
36C
100
AcDbSymbolTableRecord
100
AcDbBlockTableRecord
  2
*D23
  0
BLOCK_RECORD
  5
37A
100
AcDbSymbolTableRecord
100
AcDbBlockTableRecord
  2
*D24
  0
BLOCK_RECORD
  5
388
100
AcDbSymbolTableRecord
100
AcDbBlockTableRecord
  2
*D25
  0
BLOCK_RECORD
  5
39B
100
AcDbSymbolTableRecord
100
AcDbBlockTableRecord
  2
*D26
  0
BLOCK_RECORD
  5
3B1
100
AcDbSymbolTableRecord
100
AcDbBlockTableRecord
  2
*D27
  0
BLOCK_RECORD
  5
4A0
100
AcDbSymbolTableRecord
100
AcDbBlockTableRecord
  2
*D28
  0
ENDTAB
  0
ENDSEC
  0
SECTION
  2
BLOCKS
  0
BLOCK
  5
D
100
AcDbEntity
  8
0
100
AcDbBlockBegin
  2
*MODEL_SPACE
 70
         0
 10
0.0
 20
0.0
 30
0.0
  3
*MODEL_SPACE
  1

  0
ENDBLK
  5
E
100
AcDbEntity
  8
0
100
AcDbBlockEnd
  0
BLOCK
  5
F
100
AcDbEntity
 67
         1
  8
0
100
AcDbBlockBegin
  2
*PAPER_SPACE
 70
         0
 10
0.0
 20
0.0
 30
0.0
  3
*PAPER_SPACE
  1

  0
ENDBLK
  5
10
100
AcDbEntity
 67
         1
  8
0
100
AcDbBlockEnd
  0
BLOCK
  5
29
100
AcDbEntity
  8
0
100
AcDbBlockBegin
  2
*D0
 70
        65
 10
0.0
 20
0.0
 30
0.0
  3
*D0
  1

  0
POINT
  5
2C
100
AcDbEntity
  8
DEFPOINTS
  6
CONTINUOUS
 62
         0
100
AcDbPoint
 10
1331.7533403763
 20
225.897505167
 30
0.0
  0
POINT
  5
2D
100
AcDbEntity
  8
DEFPOINTS
  6
CONTINUOUS
 62
         0
100
AcDbPoint
 10
1331.7533403763
 20
161.4188234458
 30
0.0
  0
POINT
  5
2E
100
AcDbEntity
  8
DEFPOINTS
  6
CONTINUOUS
 62
         0
100
AcDbPoint
 10
1489.4033403763
 20
159.6846417294
 30
0.0
  0
LINE
  5
2F
100
AcDbEntity
  8
L1_90
  6
CONTINUOUS
 62
         4
100
AcDbLine
 10
1331.7533403763
 20
162.7688234458
 30
0.0
 11
1331.7533403763
 21
226.572505167
 31
0.0
  0
LINE
  5
30
100
AcDbEntity
  8
L1_90
  6
CONTINUOUS
 62
         4
100
AcDbLine
 10
1489.4033403763
 20
161.0346417294
 30
0.0
 11
1489.4033403763
 21
226.572505167
 31
0.0
  0
LINE
  5
31
100
AcDbEntity
  8
L1_90
  6
CONTINUOUS
 62
         4
100
AcDbLine
 10
1331.7533403763
 20
225.897505167
 30
0.0
 11
1489.4033403763
 21
225.897505167
 31
0.0
  0
SOLID
  5
32
100
AcDbEntity
  8
L1_90
  6
CONTINUOUS
 62
         4
100
AcDbTrace
 10
1331.7533403763
 20
225.897505167
 30
0.0
 11
1334.4533403763
 21
226.302505167
 31
0.0
 12
1334.4533403763
 22
225.492505167
 32
0.0
 13
1331.7533403763
 23
225.897505167
 33
0.0
  0
SOLID
  5
33
100
AcDbEntity
  8
L1_90
  6
CONTINUOUS
 62
         4
100
AcDbTrace
 10
1489.4033403763
 20
225.897505167
 30
0.0
 11
1486.7033403763
 21
225.492505167
 31
0.0
 12
1486.7033403763
 22
226.302505167
 32
0.0
 13
1489.4033403763
 23
225.897505167
 33
0.0
  0
TEXT
  5
35
100
AcDbEntity
  8
L1_90
  6
CONTINUOUS
 62
         4
100
AcDbText
 10
1401.5711495894
 20
227.922505167
 30
0.0
 40
2.7
  1
157.65
  7
BOX
100
AcDbText
  0
ENDBLK
  5
36
100
AcDbEntity
  8
0
  6
CONTINUOUS
100
AcDbBlockEnd
  0
BLOCK
  5
38
100
AcDbEntity
  8
0
100
AcDbBlockBegin
  2
*D1
 70
        65
 10
0.0
 20
0.0
 30
0.0
  3
*D1
  1

  0
POINT
  5
3A
100
AcDbEntity
  8
DEFPOINTS
  6
CONTINUOUS
 62
         0
100
AcDbPoint
 10
1400.0033403763
 20
214.696000994
 30
0.0
  0
POINT
  5
3B
100
AcDbEntity
  8
DEFPOINTS
  6
CONTINUOUS
 62
         0
100
AcDbPoint
 10
1400.0033403763
 20
172.4096417294
 30
0.0
  0
POINT
  5
3C
100
AcDbEntity
  8
DEFPOINTS
  6
CONTINUOUS
 62
         0
100
AcDbPoint
 10
1489.4033403763
 20
159.6846417294
 30
0.0
  0
LINE
  5
3D
100
AcDbEntity
  8
L1_90
  6
CONTINUOUS
 62
         4
100
AcDbLine
 10
1400.0033403763
 20
173.7596417294
 30
0.0
 11
1400.0033403763
 21
215.371000994
 31
0.0
  0
LINE
  5
3E
100
AcDbEntity
  8
L1_90
  6
CONTINUOUS
 62
         4
100
AcDbLine
 10
1489.4033403763
 20
161.0346417294
 30
0.0
 11
1489.4033403763
 21
215.371000994
 31
0.0
  0
LINE
  5
3F
100
AcDbEntity
  8
L1_90
  6
CONTINUOUS
 62
         4
100
AcDbLine
 10
1400.0033403763
 20
214.696000994
 30
0.0
 11
1489.4033403763
 21
214.696000994
 31
0.0
  0
SOLID
  5
40
100
AcDbEntity
  8
L1_90
  6
CONTINUOUS
 62
         4
100
AcDbTrace
 10
1400.0033403763
 20
214.696000994
 30
0.0
 11
1402.7033403763
 21
215.101000994
 31
0.0
 12
1402.7033403763
 22
214.291000994
 32
0.0
 13
1400.0033403763
 23
214.696000994
 33
0.0
  0
SOLID
  5
41
100
AcDbEntity
  8
L1_90
  6
CONTINUOUS
 62
         4
100
AcDbTrace
 10
1489.4033403763
 20
214.696000994
 30
0.0
 11
1486.7033403763
 21
214.291000994
 31
0.0
 12
1486.7033403763
 22
215.101000994
 32
0.0
 13
1489.4033403763
 23
214.696000994
 33
0.0
  0
TEXT
  5
43
100
AcDbEntity
  8
L1_90
  6
CONTINUOUS
 62
         4
100
AcDbText
 10
1435.6353612737
 20
216.721000994
 30
0.0
 40
2.7
  1
89.4
  7
BOX
100
AcDbText
  0
ENDBLK
  5
44
100
AcDbEntity
  8
0
  6
CONTINUOUS
100
AcDbBlockEnd
  0
BLOCK
  5
73
100
AcDbEntity
  8
0
100
AcDbBlockBegin
  2
*X2
 70
        65
 10
0.0
 20
0.0
 30
0.0
  3
*X2
  1

  0
LINE
  5
74
100
AcDbEntity
  8
L1_90
  6
CONTINUOUS
 62
         1
100
AcDbLine
 10
1485.3708401358
 20
164.1846417294
 30
0.0
 11
1482.5463482732
 21
161.3601498668
 31
0.0
  0
LINE
  5
75
100
AcDbEntity
  8
L1_90
  6
CONTINUOUS
 62
         1
100
AcDbLine
 10
1487.4921604793
 20
164.1846417294
 30
0.0
 11
1484.4921604793
 21
161.1846417294
 31
0.0
  0
LINE
  5
76
100
AcDbEntity
  8
L1_90
  6
CONTINUOUS
 62
         1
100
AcDbLine
 10
1488.3279251116
 20
162.8990860181
 30
0.0
 11
1486.6134808229
 21
161.1846417294
 31
0.0
  0
LINE
  5
77
100
AcDbEntity
  8
L1_90
  6
CONTINUOUS
 62
         1
100
AcDbLine
 10
1490.2348011664
 20
162.6846417294
 30
0.0
 11
1488.7348011664
 21
161.1846417294
 31
0.0
  0
LINE
  5
78
100
AcDbEntity
  8
L1_90
  6
CONTINUOUS
 62
         1
100
AcDbLine
 10
1492.35612151
 20
162.6846417294
 30
0.0
 11
1491.35612151
 21
161.6846417294
 31
0.0
  0
LINE
  5
79
100
AcDbEntity
  8
L1_90
  6
CONTINUOUS
 62
         1
100
AcDbLine
 10
1494.4774418536
 20
162.6846417294
 30
0.0
 11
1493.4472418657
 21
161.6544417415
 31
0.0
  0
LINE
  5
7A
100
AcDbEntity
  8
L1_90
  6
CONTINUOUS
 62
         1
100
AcDbLine
 10
1496.5987621971
 20
162.6846417294
 30
0.0
 11
1494.2033403763
 21
160.2892199085
 31
0.0
  0
LINE
  5
7B
100
AcDbEntity
  8
L1_90
  6
CONTINUOUS
 62
         1
100
AcDbLine
 10
1498.7200825407
 20
162.6846417294
 30
0.0
 11
1496.0200825407
 21
159.9846417294
 31
0.0
  0
LINE
  5
7C
100
AcDbEntity
  8
L1_90
  6
CONTINUOUS
 62
         1
100
AcDbLine
 10
1499.8500547999
 20
161.6932936451
 30
0.0
 11
1496.5034939154
 21
158.3467327605
 31
0.0
  0
LINE
  5
7D
100
AcDbEntity
  8
L1_90
  6
CONTINUOUS
 62
         1
100
AcDbLine
 10
1500.0033403763
 20
159.7252588778
 30
0.0
 11
1498.601037191
 21
158.3229556926
 31
0.0
  0
ENDBLK
  5
7E
100
AcDbEntity
  8
0
  6
CONTINUOUS
100
AcDbBlockEnd
  0
BLOCK
  5
82
100
AcDbEntity
  8
0
100
AcDbBlockBegin
  2
*X3
 70
        65
 10
0.0
 20
0.0
 30
0.0
  3
*X3
  1

  0
LINE
  5
83
100
AcDbEntity
  8
L1_90
  6
CONTINUOUS
 62
         1
100
AcDbLine
 10
1483.7053639149
 20
139.1846417294
 30
0.0
 11
1482.5033403763
 21
137.9826181907
 31
0.0
  0
LINE
  5
84
100
AcDbEntity
  8
L1_90
  6
CONTINUOUS
 62
         1
100
AcDbLine
 10
1485.8266842585
 20
139.1846417294
 30
0.0
 11
1483.1167460423
 21
136.4747035132
 31
0.0
  0
LINE
  5
85
100
AcDbEntity
  8
L1_90
  6
CONTINUOUS
 62
         1
100
AcDbLine
 10
1487.948004602
 20
139.1846417294
 30
0.0
 11
1484.948004602
 21
136.1846417294
 31
0.0
  0
LINE
  5
86
100
AcDbEntity
  8
L1_90
  6
CONTINUOUS
 62
         1
100
AcDbLine
 10
1490.0693249456
 20
139.1846417294
 30
0.0
 11
1488.4183278176
 21
137.5336446014
 31
0.0
  0
LINE
  5
87
100
AcDbEntity
  8
L1_90
  6
CONTINUOUS
 62
         1
100
AcDbLine
 10
1488.0977131772
 20
137.213029961
 30
0.0
 11
1487.0693249456
 21
136.1846417294
 31
0.0
  0
LINE
  5
88
100
AcDbEntity
  8
L1_90
  6
CONTINUOUS
 62
         1
100
AcDbLine
 10
1495.3033403763
 20
142.2973368165
 30
0.0
 11
1494.2033403763
 21
141.1973368165
 31
0.0
  0
LINE
  5
89
100
AcDbEntity
  8
L1_90
  6
CONTINUOUS
 62
         1
100
AcDbLine
 10
1491.6906452892
 20
138.6846417294
 30
0.0
 11
1490.6906452892
 21
137.6846417294
 31
0.0
  0
LINE
  5
8A
100
AcDbEntity
  8
L1_90
  6
CONTINUOUS
 62
         1
100
AcDbLine
 10
1498.0328470395
 20
142.9055231362
 30
0.0
 11
1496.3033403763
 21
141.1760164729
 31
0.0
  0
LINE
  5
8B
100
AcDbEntity
  8
L1_90
  6
CONTINUOUS
 62
         1
100
AcDbLine
 10
1495.5119656327
 20
140.3846417294
 30
0.0
 11
1492.8119656327
 21
137.6846417294
 31
0.0
  0
LINE
  5
8C
100
AcDbEntity
  8
L1_90
  6
CONTINUOUS
 62
         1
100
AcDbLine
 10
1500.0033403763
 20
142.7546961294
 30
0.0
 11
1494.9332859763
 21
137.6846417294
 31
0.0
  0
LINE
  5
8D
100
AcDbEntity
  8
L1_90
  6
CONTINUOUS
 62
         1
100
AcDbLine
 10
1500.0033403763
 20
140.6333757858
 30
0.0
 11
1497.0546063198
 21
137.6846417294
 31
0.0
  0
LINE
  5
8E
100
AcDbEntity
  8
L1_90
  6
CONTINUOUS
 62
         1
100
AcDbLine
 10
1499.4260767727
 20
137.9347918387
 30
0.0
 11
1499.1759266634
 21
137.6846417294
 31
0.0
  0
ENDBLK
  5
8F
100
AcDbEntity
  8
0
  6
CONTINUOUS
100
AcDbBlockEnd
  0
BLOCK
  5
93
100
AcDbEntity
  8
0
100
AcDbBlockBegin
  2
*X4
 70
        65
 10
0.0
 20
0.0
 30
0.0
  3
*X4
  1

  0
LINE
  5
94
100
AcDbEntity
  8
L1_90
  6
CONTINUOUS
 62
         1
100
AcDbLine
 10
1484.4921604793
 20
161.1846417294
 30
0.0
 11
1483.6801604793
 21
160.3726417294
 31
0.0
  0
LINE
  5
95
100
AcDbEntity
  8
L1_90
  6
CONTINUOUS
 62
         1
100
AcDbLine
 10
1486.6134808229
 20
161.1846417294
 30
0.0
 11
1485.8014808229
 21
160.3726417294
 31
0.0
  0
LINE
  5
96
100
AcDbEntity
  8
L1_90
  6
CONTINUOUS
 62
         1
100
AcDbLine
 10
1488.7348011664
 20
161.1846417294
 30
0.0
 11
1487.9228011664
 21
160.3726417294
 31
0.0
  0
ENDBLK
  5
97
100
AcDbEntity
  8
0
  6
CONTINUOUS
100
AcDbBlockEnd
  0
BLOCK
  5
9B
100
AcDbEntity
  8
0
100
AcDbBlockBegin
  2
*X5
 70
        65
 10
0.0
 20
0.0
 30
0.0
  3
*X5
  1

  0
LINE
  5
9C
100
AcDbEntity
  8
L1_90
  6
CONTINUOUS
 62
         1
100
AcDbLine
 10
1498.601037191
 20
158.3229556926
 30
0.0
 11
1497.8483571236
 21
157.5702756252
 31
0.0
  0
LINE
  5
9D
100
AcDbEntity
  8
L1_90
  6
CONTINUOUS
 62
         1
100
AcDbLine
 10
1500.0033403763
 20
157.6039385343
 30
0.0
 11
1499.1932203319
 21
156.7938184899
 31
0.0
  0
ENDBLK
  5
9E
100
AcDbEntity
  8
0
  6
CONTINUOUS
100
AcDbBlockEnd
  0
BLOCK
  5
A2
100
AcDbEntity
  8
0
100
AcDbBlockBegin
  2
*X6
 70
        65
 10
0.0
 20
0.0
 30
0.0
  3
*X6
  1

  0
LINE
  5
A3
100
AcDbEntity
  8
L1_90
  6
CONTINUOUS
 62
         1
100
AcDbLine
 10
1484.5173639149
 20
139.9966417294
 30
0.0
 11
1483.7053639149
 21
139.1846417294
 31
0.0
  0
LINE
  5
A4
100
AcDbEntity
  8
L1_90
  6
CONTINUOUS
 62
         1
100
AcDbLine
 10
1486.6386842585
 20
139.9966417294
 30
0.0
 11
1485.8266842585
 21
139.1846417294
 31
0.0
  0
LINE
  5
A5
100
AcDbEntity
  8
L1_90
  6
CONTINUOUS
 62
         1
100
AcDbLine
 10
1488.760004602
 20
139.9966417294
 30
0.0
 11
1487.948004602
 21
139.1846417294
 31
0.0
  0
LINE
  5
A6
100
AcDbEntity
  8
L1_90
  6
CONTINUOUS
 62
         1
100
AcDbLine
 10
1490.3863326609
 20
139.5016494447
 30
0.0
 11
1490.0693249456
 21
139.1846417294
 31
0.0
  0
ENDBLK
  5
A7
100
AcDbEntity
  8
0
  6
CONTINUOUS
100
AcDbBlockEnd
  0
BLOCK
  5
BC
100
AcDbEntity
  8
0
100
AcDbBlockBegin
  2
*D7
 70
        65
 10
0.0
 20
0.0
 30
0.0
  3
*D7
  1

  0
POINT
  5
BE
100
AcDbEntity
  8
DEFPOINTS
  6
CONTINUOUS
 62
         0
100
AcDbPoint
 10
1513.4740622753
 20
164.1846417294
 30
0.0
  0
POINT
  5
BF
100
AcDbEntity
  8
DEFPOINTS
  6
CONTINUOUS
 62
         0
100
AcDbPoint
 10
1471.564838823
 20
164.1846417294
 30
0.0
  0
POINT
  5
C0
100
AcDbEntity
  8
DEFPOINTS
  6
CONTINUOUS
 62
         0
100
AcDbPoint
 10
1471.564838823
 20
136.1846417294
 30
0.0
  0
LINE
  5
C1
100
AcDbEntity
  8
L1_90
  6
CONTINUOUS
 62
         4
100
AcDbLine
 10
1472.914838823
 20
164.1846417294
 30
0.0
 11
1514.1490622753
 21
164.1846417294
 31
0.0
  0
LINE
  5
C2
100
AcDbEntity
  8
L1_90
  6
CONTINUOUS
 62
         4
100
AcDbLine
 10
1472.914838823
 20
136.1846417294
 30
0.0
 11
1514.1490622753
 21
136.1846417294
 31
0.0
  0
LINE
  5
C3
100
AcDbEntity
  8
L1_90
  6
CONTINUOUS
 62
         4
100
AcDbLine
 10
1513.4740622753
 20
164.1846417294
 30
0.0
 11
1513.4740622753
 21
136.1846417294
 31
0.0
  0
SOLID
  5
C4
100
AcDbEntity
  8
L1_90
  6
CONTINUOUS
 62
         4
100
AcDbTrace
 10
1513.4740622753
 20
164.1846417294
 30
0.0
 11
1513.8790622753
 21
161.4846417294
 31
0.0
 12
1513.0690622753
 22
161.4846417294
 32
0.0
 13
1513.4740622753
 23
164.1846417294
 33
0.0
  0
SOLID
  5
C5
100
AcDbEntity
  8
L1_90
  6
CONTINUOUS
 62
         4
100
AcDbTrace
 10
1513.4740622753
 20
136.1846417294
 30
0.0
 11
1513.0690622753
 21
138.8846417294
 31
0.0
 12
1513.8790622753
 22
138.8846417294
 32
0.0
 13
1513.4740622753
 23
136.1846417294
 33
0.0
  0
TEXT
  5
C7
100
AcDbEntity
  8
L1_90
  6
CONTINUOUS
 62
         4
100
AcDbText
 10
1511.4490622753
 20
141.838922774
 30
0.0
 40
2.7
  1
崷28
 50
90.0
  7
BOX
100
AcDbText
  0
ENDBLK
  5
C8
100
AcDbEntity
  8
0
  6
CONTINUOUS
100
AcDbBlockEnd
  0
BLOCK
  5
CA
100
AcDbEntity
  8
0
100
AcDbBlockBegin
  2
*X8
 70
        65
 10
0.0
 20
0.0
 30
0.0
  3
*X8
  1

  0
LINE
  5
CB
100
AcDbEntity
  8
L1_90
  6
CONTINUOUS
 62
         4
100
AcDbLine
 10
1484.7749991731
 20
-23.9433347407
 30
0.0
 11
1487.9753114195
 21
-20.7430224942
 31
0.0
  0
LINE
  5
CC
100
AcDbEntity
  8
L1_90
  6
CONTINUOUS
 62
         4
100
AcDbLine
 10
1480.532358486
 20
-23.9433347407
 30
0.0
 11
1484.2554615395
 21
-20.2202316871
 31
0.0
  0
LINE
  5
CD
100
AcDbEntity
  8
L1_90
  6
CONTINUOUS
 62
         4
100
AcDbLine
 10
1476.2897177988
 20
-23.9433347407
 30
0.0
 11
1480.5356116595
 21
-19.69744088
 31
0.0
  0
LINE
  5
CE
100
AcDbEntity
  8
L1_90
  6
CONTINUOUS
 62
         4
100
AcDbLine
 10
1469.0470771117
 20
-26.9433347407
 30
0.0
 11
1476.8157617795
 21
-19.1746500729
 31
0.0
  0
LINE
  5
CF
100
AcDbEntity
  8
L1_90
  6
CONTINUOUS
 62
         4
100
AcDbLine
 10
1464.8044364246
 20
-26.9433347407
 30
0.0
 11
1473.0959118994
 21
-18.6518592658
 31
0.0
  0
LINE
  5
D0
100
AcDbEntity
  8
L1_90
  6
CONTINUOUS
 62
         4
100
AcDbLine
 10
1486.3799043348
 20
-5.3678668305
 30
0.0
 11
1489.1454163597
 21
-2.6023548055
 31
0.0
  0
LINE
  5
D1
100
AcDbEntity
  8
L1_90
  6
CONTINUOUS
 62
         4
100
AcDbLine
 10
1460.5617957375
 20
-26.9433347407
 30
0.0
 11
1468.9567957375
 21
-18.5483347407
 31
0.0
  0
LINE
  5
D2
100
AcDbEntity
  8
L1_90
  6
CONTINUOUS
 62
         4
100
AcDbLine
 10
1481.4434968143
 20
-6.0616336638
 30
0.0
 11
1485.5617957375
 21
-1.9433347407
 31
0.0
  0
LINE
  5
D3
100
AcDbEntity
  8
L1_90
  6
CONTINUOUS
 62
         4
100
AcDbLine
 10
1456.3191550504
 20
-26.9433347407
 30
0.0
 11
1465.2441550504
 21
-18.0183347407
 31
0.0
  0
LINE
  5
D4
100
AcDbEntity
  8
L1_90
  6
CONTINUOUS
 62
         4
100
AcDbLine
 10
1476.5070892938
 20
-6.7554004972
 30
0.0
 11
1481.3191550504
 21
-1.9433347407
 31
0.0
  0
LINE
  5
D5
100
AcDbEntity
  8
L1_90
  6
CONTINUOUS
 62
         4
100
AcDbLine
 10
1452.0765143632
 20
-26.9433347407
 30
0.0
 11
1461.0015143632
 21
-18.0183347407
 31
0.0
  0
LINE
  5
D6
100
AcDbEntity
  8
L1_90
  6
CONTINUOUS
 62
         4
100
AcDbLine
 10
1471.6815143632
 20
-7.3383347407
 30
0.0
 11
1477.0765143632
 21
-1.9433347407
 31
0.0
  0
LINE
  5
D7
100
AcDbEntity
  8
L1_90
  6
CONTINUOUS
 62
         4
100
AcDbLine
 10
1447.8338736761
 20
-26.9433347407
 30
0.0
 11
1456.7588736761
 21
-18.0183347407
 31
0.0
  0
LINE
  5
D8
100
AcDbEntity
  8
L1_90
  6
CONTINUOUS
 62
         4
100
AcDbLine
 10
1466.9088736761
 20
-7.8683347407
 30
0.0
 11
1467.4033403763
 21
-7.3738680405
 31
0.0
  0
LINE
  5
D9
100
AcDbEntity
  8
L1_90
  6
CONTINUOUS
 62
         4
100
AcDbLine
 10
1467.4388736761
 20
-7.3383347407
 30
0.0
 11
1473.6773354698
 21
-1.099872947
 31
0.0
  0
LINE
  5
DA
100
AcDbEntity
  8
L1_90
  6
CONTINUOUS
 62
         4
100
AcDbLine
 10
1443.591232989
 20
-26.9433347407
 30
0.0
 11
1452.516232989
 21
-18.0183347407
 31
0.0
  0
LINE
  5
DB
100
AcDbEntity
  8
L1_90
  6
CONTINUOUS
 62
         4
100
AcDbLine
 10
1462.666232989
 20
-7.8683347407
 30
0.0
 11
1471.5910610799
 21
1.0564933502
 31
0.0
  0
LINE
  5
DC
100
AcDbEntity
  8
L1_90
  6
CONTINUOUS
 62
         4
100
AcDbLine
 10
1431.0635923019
 20
-35.2283347407
 30
0.0
 11
1435.0553403763
 21
-31.2365866663
 31
0.0
  0
LINE
  5
DD
100
AcDbEntity
  8
L1_90
  6
CONTINUOUS
 62
         4
100
AcDbLine
 10
1439.3485923019
 20
-26.9433347407
 30
0.0
 11
1448.2735923019
 21
-18.0183347407
 31
0.0
  0
LINE
  5
DE
100
AcDbEntity
  8
L1_90
  6
CONTINUOUS
 62
         4
100
AcDbLine
 10
1458.4235923019
 20
-7.8683347407
 30
0.0
 11
1467.3485923019
 21
1.0566652593
 31
0.0
  0
LINE
  5
DF
100
AcDbEntity
  8
L1_90
  6
CONTINUOUS
 62
         4
100
AcDbLine
 10
1417.3309516148
 20
-44.7183347407
 30
0.0
 11
1419.1033403763
 21
-42.9459459792
 31
0.0
  0
LINE
  5
E0
100
AcDbEntity
  8
L1_90
  6
CONTINUOUS
 62
         4
100
AcDbLine
 10
1426.8209516148
 20
-35.2283347407
 30
0.0
 11
1444.0309516148
 21
-18.0183347407
 31
0.0
  0
LINE
  5
E1
100
AcDbEntity
  8
L1_90
  6
CONTINUOUS
 62
         4
100
AcDbLine
 10
1454.1809516148
 20
-7.8683347407
 30
0.0
 11
1463.1059516148
 21
1.0566652593
 31
0.0
  0
LINE
  5
E2
100
AcDbEntity
  8
L1_90
  6
CONTINUOUS
 62
         4
100
AcDbLine
 10
1414.071795622
 20
-43.7348500463
 30
0.0
 11
1419.1033403763
 21
-38.7033052921
 31
0.0
  0
LINE
  5
E3
100
AcDbEntity
  8
L1_90
  6
CONTINUOUS
 62
         4
100
AcDbLine
 10
1422.5783109276
 20
-35.2283347407
 30
0.0
 11
1439.7883109276
 21
-18.0183347407
 31
0.0
  0
LINE
  5
E4
100
AcDbEntity
  8
L1_90
  6
CONTINUOUS
 62
         4
100
AcDbLine
 10
1449.9383109276
 20
-7.8683347407
 30
0.0
 11
1458.8633109276
 21
1.0566652593
 31
0.0
  0
LINE
  5
E5
100
AcDbEntity
  8
L1_90
  6
CONTINUOUS
 62
         4
100
AcDbLine
 10
1412.4098496995
 20
-41.1541552817
 30
0.0
 11
1435.5456702405
 21
-18.0183347407
 31
0.0
  0
LINE
  5
E6
100
AcDbEntity
  8
L1_90
  6
CONTINUOUS
 62
         4
100
AcDbLine
 10
1445.6956702405
 20
-7.8683347407
 30
0.0
 11
1454.6206702405
 21
1.0566652593
 31
0.0
  0
LINE
  5
E7
100
AcDbEntity
  8
L1_90
  6
CONTINUOUS
 62
         4
100
AcDbLine
 10
1404.6030295534
 20
-44.7183347407
 30
0.0
 11
1431.3030295534
 21
-18.0183347407
 31
0.0
  0
LINE
  5
E8
100
AcDbEntity
  8
L1_90
  6
CONTINUOUS
 62
         4
100
AcDbLine
 10
1441.4530295534
 20
-7.8683347407
 30
0.0
 11
1450.3780295534
 21
1.0566652593
 31
0.0
  0
LINE
  5
E9
100
AcDbEntity
  8
L1_90
  6
CONTINUOUS
 62
         4
100
AcDbLine
 10
1403.2033403763
 20
-41.8753832307
 30
0.0
 11
1427.0603888663
 21
-18.0183347407
 31
0.0
  0
LINE
  5
EA
100
AcDbEntity
  8
L1_90
  6
CONTINUOUS
 62
         4
100
AcDbLine
 10
1437.2103888663
 20
-7.8683347407
 30
0.0
 11
1446.1353888663
 21
1.0566652593
 31
0.0
  0
LINE
  5
EB
100
AcDbEntity
  8
L1_90
  6
CONTINUOUS
 62
         4
100
AcDbLine
 10
1403.2033403763
 20
-37.6327425436
 30
0.0
 11
1422.8177481792
 21
-18.0183347407
 31
0.0
  0
LINE
  5
EC
100
AcDbEntity
  8
L1_90
  6
CONTINUOUS
 62
         4
100
AcDbLine
 10
1432.9677481792
 20
-7.8683347407
 30
0.0
 11
1441.8927481792
 21
1.0566652593
 31
0.0
  0
LINE
  5
ED
100
AcDbEntity
  8
L1_90
  6
CONTINUOUS
 62
         4
100
AcDbLine
 10
1401.2672254442
 20
-35.3262167885
 30
0.0
 11
1418.575107492
 21
-18.0183347407
 31
0.0
  0
LINE
  5
EE
100
AcDbEntity
  8
L1_90
  6
CONTINUOUS
 62
         4
100
AcDbLine
 10
1428.725107492
 20
-7.8683347407
 30
0.0
 11
1437.6743926487
 21
1.080950416
 31
0.0
  0
LINE
  5
EF
100
AcDbEntity
  8
L1_90
  6
CONTINUOUS
 62
         4
100
AcDbLine
 10
1397.5414870776
 20
-34.809314468
 30
0.0
 11
1414.3324668049
 21
-18.0183347407
 31
0.0
  0
LINE
  5
F0
100
AcDbEntity
  8
L1_90
  6
CONTINUOUS
 62
         4
100
AcDbLine
 10
1424.4824668049
 20
-7.8683347407
 30
0.0
 11
1435.2766329715
 21
2.9258314259
 31
0.0
  0
LINE
  5
F1
100
AcDbEntity
  8
L1_90
  6
CONTINUOUS
 62
         4
100
AcDbLine
 10
1393.8388188416
 20
-34.2693420169
 30
0.0
 11
1410.0898261178
 21
-18.0183347407
 31
0.0
  0
LINE
  5
F2
100
AcDbEntity
  8
L1_90
  6
CONTINUOUS
 62
         4
100
AcDbLine
 10
1420.2398261178
 20
-7.8683347407
 30
0.0
 11
1435.0553403763
 21
6.9471795178
 31
0.0
  0
LINE
  5
F3
100
AcDbEntity
  8
L1_90
  6
CONTINUOUS
 62
         4
100
AcDbLine
 10
1390.1361506056
 20
-33.7293695658
 30
0.0
 11
1405.8471854307
 21
-18.0183347407
 31
0.0
  0
LINE
  5
F4
100
AcDbEntity
  8
L1_90
  6
CONTINUOUS
 62
         4
100
AcDbLine
 10
1415.9971854307
 20
-7.8683347407
 30
0.0
 11
1433.2071854307
 21
9.3416652593
 31
0.0
  0
LINE
  5
F5
100
AcDbEntity
  8
L1_90
  6
CONTINUOUS
 62
         4
100
AcDbLine
 10
1386.4334823695
 20
-33.1893971147
 30
0.0
 11
1399.6795447436
 21
-19.9433347407
 31
0.0
  0
LINE
  5
F6
100
AcDbEntity
  8
L1_90
  6
CONTINUOUS
 62
         4
100
AcDbLine
 10
1412.853331785
 20
-6.7695476993
 30
0.0
 11
1428.9645447436
 21
9.3416652593
 31
0.0
  0
LINE
  5
F7
100
AcDbEntity
  8
L1_90
  6
CONTINUOUS
 62
         4
100
AcDbLine
 10
1382.7308141335
 20
-32.6494246636
 30
0.0
 11
1395.4369040564
 21
-19.9433347407
 31
0.0
  0
LINE
  5
F8
100
AcDbEntity
  8
L1_90
  6
CONTINUOUS
 62
         4
100
AcDbLine
 10
1407.5119040564
 20
-7.8683347407
 30
0.0
 11
1409.5533321517
 21
-5.8269066454
 31
0.0
  0
LINE
  5
F9
100
AcDbEntity
  8
L1_90
  6
CONTINUOUS
 62
         4
100
AcDbLine
 10
1412.8533334354
 20
-2.5269053617
 30
0.0
 11
1424.7219040564
 21
9.3416652593
 31
0.0
  0
LINE
  5
FA
100
AcDbEntity
  8
L1_90
  6
CONTINUOUS
 62
         4
100
AcDbLine
 10
1379.0281458975
 20
-32.1094522125
 30
0.0
 11
1391.1942633693
 21
-19.9433347407
 31
0.0
  0
LINE
  5
FB
100
AcDbEntity
  8
L1_90
  6
CONTINUOUS
 62
         4
100
AcDbLine
 10
1404.1181784002
 20
-7.0194197098
 30
0.0
 11
1409.5533338021
 21
-1.5842643079
 31
0.0
  0
LINE
  5
FC
100
AcDbEntity
  8
L1_90
  6
CONTINUOUS
 62
         4
100
AcDbLine
 10
1412.8533350859
 20
1.7157369759
 30
0.0
 11
1420.4792633693
 21
9.3416652593
 31
0.0
  0
LINE
  5
FD
100
AcDbEntity
  8
L1_90
  6
CONTINUOUS
 62
         4
100
AcDbLine
 10
1375.3254776614
 20
-31.5694797614
 30
0.0
 11
1386.9516226822
 21
-19.9433347407
 31
0.0
  0
LINE
  5
FE
100
AcDbEntity
  8
L1_90
  6
CONTINUOUS
 62
         4
100
AcDbLine
 10
1400.9516226822
 20
-5.9433347407
 30
0.0
 11
1409.5533354526
 21
2.6583780297
 31
0.0
  0
LINE
  5
FF
100
AcDbEntity
  8
L1_90
  6
CONTINUOUS
 62
         4
100
AcDbLine
 10
1412.8533367364
 20
5.9583793135
 30
0.0
 11
1419.1033403763
 21
12.2083829534
 31
0.0
  0
LINE
  5
100
100
AcDbEntity
  8
L1_90
  6
CONTINUOUS
 62
         4
100
AcDbLine
 10
1371.6228094254
 20
-31.0295073103
 30
0.0
 11
1382.7089819951
 21
-19.9433347407
 31
0.0
  0
LINE
  5
101
100
AcDbEntity
  8
L1_90
  6
CONTINUOUS
 62
         4
100
AcDbLine
 10
1396.7089819951
 20
-5.9433347407
 30
0.0
 11
1409.5533371031
 21
6.9010203673
 31
0.0
  0
LINE
  5
102
100
AcDbEntity
  8
L1_90
  6
CONTINUOUS
 62
         4
100
AcDbLine
 10
1412.8533383868
 20
10.2010216511
 30
0.0
 11
1419.1033403763
 21
16.4510236405
 31
0.0
  0
LINE
  5
103
100
AcDbEntity
  8
L1_90
  6
CONTINUOUS
 62
         4
100
AcDbLine
 10
1367.9201411894
 20
-30.4895348593
 30
0.0
 11
1378.466341308
 21
-19.9433347407
 31
0.0
  0
LINE
  5
104
100
AcDbEntity
  8
L1_90
  6
CONTINUOUS
 62
         4
100
AcDbLine
 10
1392.466341308
 20
-5.9433347407
 30
0.0
 11
1407.4667745144
 21
9.0570984657
 31
0.0
  0
LINE
  5
105
100
AcDbEntity
  8
L1_90
  6
CONTINUOUS
 62
         4
100
AcDbLine
 10
1413.2033401735
 20
14.7936641248
 30
0.0
 11
1417.2413413082
 21
18.8316652595
 31
0.0
  0
LINE
  5
106
100
AcDbEntity
  8
L1_90
  6
CONTINUOUS
 62
         4
100
AcDbLine
 10
1364.2174729534
 20
-29.9495624082
 30
0.0
 11
1374.2237006208
 21
-19.9433347407
 31
0.0
  0
LINE
  5
107
100
AcDbEntity
  8
L1_90
  6
CONTINUOUS
 62
         4
100
AcDbLine
 10
1388.2237006208
 20
-5.9433347407
 30
0.0
 11
1404.9714081595
 21
10.804372798
 31
0.0
  0
LINE
  5
108
100
AcDbEntity
  8
L1_90
  6
CONTINUOUS
 62
         4
100
AcDbLine
 10
1407.3408578016
 20
13.1738224401
 30
0.0
 11
1409.2033402679
 21
15.0363049063
 31
0.0
  0
LINE
  5
109
100
AcDbEntity
  8
L1_90
  6
CONTINUOUS
 62
         4
100
AcDbLine
 10
1360.5148047173
 20
-29.4095899571
 30
0.0
 11
1369.9810599337
 21
-19.9433347407
 31
0.0
  0
LINE
  5
10A
100
AcDbEntity
  8
L1_90
  6
CONTINUOUS
 62
         4
100
AcDbLine
 10
1383.9810599337
 20
-5.9433347407
 30
0.0
 11
1399.0699388826
 21
9.1455442082
 31
0.0
  0
LINE
  5
10B
100
AcDbEntity
  8
L1_90
  6
CONTINUOUS
 62
         4
100
AcDbLine
 10
1405.132697464
 20
15.2083027896
 30
0.0
 11
1408.0022705063
 21
18.0778758319
 31
0.0
  0
LINE
  5
10C
100
AcDbEntity
  8
L1_90
  6
CONTINUOUS
 62
         4
100
AcDbLine
 10
1356.8121364813
 20
-28.869617506
 30
0.0
 11
1365.7384192466
 21
-19.9433347407
 31
0.0
  0
LINE
  5
10D
100
AcDbEntity
  8
L1_90
  6
CONTINUOUS
 62
         4
100
AcDbLine
 10
1379.7384192466
 20
-5.9433347407
 30
0.0
 11
1394.1029449074
 21
8.4211909201
 31
0.0
  0
LINE
  5
10E
100
AcDbEntity
  8
L1_90
  6
CONTINUOUS
 62
         4
100
AcDbLine
 10
1403.2033403763
 20
17.521586389
 30
0.0
 11
1404.5134192466
 21
18.8316652593
 31
0.0
  0
LINE
  5
10F
100
AcDbEntity
  8
L1_90
  6
CONTINUOUS
 62
         4
100
AcDbLine
 10
1353.1094682453
 20
-28.3296450549
 30
0.0
 11
1361.4957785595
 21
-19.9433347407
 31
0.0
  0
LINE
  5
110
100
AcDbEntity
  8
L1_90
  6
CONTINUOUS
 62
         4
100
AcDbLine
 10
1375.4957785595
 20
-5.9433347407
 30
0.0
 11
1389.1359509322
 21
7.6968376321
 31
0.0
  0
LINE
  5
111
100
AcDbEntity
  8
L1_90
  6
CONTINUOUS
 62
         4
100
AcDbLine
 10
1349.4068000092
 20
-27.7896726038
 30
0.0
 11
1357.2531378724
 21
-19.9433347407
 31
0.0
  0
LINE
  5
112
100
AcDbEntity
  8
L1_90
  6
CONTINUOUS
 62
         4
100
AcDbLine
 10
1371.2531378724
 20
-5.9433347407
 30
0.0
 11
1384.1689569571
 21
6.972484344
 31
0.0
  0
LINE
  5
113
100
AcDbEntity
  8
L1_90
  6
CONTINUOUS
 62
         4
100
AcDbLine
 10
1345.7041317732
 20
-27.2497001527
 30
0.0
 11
1353.0104971853
 21
-19.9433347407
 31
0.0
  0
LINE
  5
114
100
AcDbEntity
  8
L1_90
  6
CONTINUOUS
 62
         4
100
AcDbLine
 10
1367.0104971853
 20
-5.9433347407
 30
0.0
 11
1379.2019629819
 21
6.248131056
 31
0.0
  0
LINE
  5
115
100
AcDbEntity
  8
L1_90
  6
CONTINUOUS
 62
         4
100
AcDbLine
 10
1342.0014635372
 20
-26.7097277016
 30
0.0
 11
1348.7678564981
 21
-19.9433347407
 31
0.0
  0
LINE
  5
116
100
AcDbEntity
  8
L1_90
  6
CONTINUOUS
 62
         4
100
AcDbLine
 10
1362.7678564981
 20
-5.9433347407
 30
0.0
 11
1374.2349690067
 21
5.5237777679
 31
0.0
  0
LINE
  5
117
100
AcDbEntity
  8
L1_90
  6
CONTINUOUS
 62
         4
100
AcDbLine
 10
1338.2987953011
 20
-26.1697552506
 30
0.0
 11
1344.525215811
 21
-19.9433347407
 31
0.0
  0
LINE
  5
118
100
AcDbEntity
  8
L1_90
  6
CONTINUOUS
 62
         4
100
AcDbLine
 10
1358.525215811
 20
-5.9433347407
 30
0.0
 11
1369.2679750316
 21
4.7994244799
 31
0.0
  0
LINE
  5
119
100
AcDbEntity
  8
L1_90
  6
CONTINUOUS
 62
         4
100
AcDbLine
 10
1334.5961270651
 20
-25.6297827995
 30
0.0
 11
1340.2825751239
 21
-19.9433347407
 31
0.0
  0
LINE
  5
11A
100
AcDbEntity
  8
L1_90
  6
CONTINUOUS
 62
         4
100
AcDbLine
 10
1354.2825751239
 20
-5.9433347407
 30
0.0
 11
1364.3009810564
 21
4.0750711919
 31
0.0
  0
LINE
  5
11B
100
AcDbEntity
  8
L1_90
  6
CONTINUOUS
 62
         4
100
AcDbLine
 10
1331.7544380433
 20
-24.2288311341
 30
0.0
 11
1334.8899344368
 21
-21.0933347407
 31
0.0
  0
LINE
  5
11C
100
AcDbEntity
  8
L1_90
  6
CONTINUOUS
 62
         4
100
AcDbLine
 10
1350.0399344368
 20
-5.9433347407
 30
0.0
 11
1359.3339870813
 21
3.3507179038
 31
0.0
  0
LINE
  5
11D
100
AcDbEntity
  8
L1_90
  6
CONTINUOUS
 62
         4
100
AcDbLine
 10
1345.7972937497
 20
-5.9433347407
 30
0.0
 11
1354.3669931061
 21
2.6263646158
 31
0.0
  0
LINE
  5
11E
100
AcDbEntity
  8
L1_90
  6
CONTINUOUS
 62
         4
100
AcDbLine
 10
1341.5546530625
 20
-5.9433347407
 30
0.0
 11
1349.3999991309
 21
1.9020113277
 31
0.0
  0
LINE
  5
11F
100
AcDbEntity
  8
L1_90
  6
CONTINUOUS
 62
         4
100
AcDbLine
 10
1337.4840977321
 20
-5.771249384
 30
0.0
 11
1344.4330051558
 21
1.1776580397
 31
0.0
  0
LINE
  5
120
100
AcDbEntity
  8
L1_90
  6
CONTINUOUS
 62
         4
100
AcDbLine
 10
1334.2193716883
 20
-4.7933347407
 30
0.0
 11
1339.4660111806
 21
0.4533047516
 31
0.0
  0
LINE
  5
121
100
AcDbEntity
  8
L1_90
  6
CONTINUOUS
 62
         4
100
AcDbLine
 10
1331.7533403763
 20
-3.0167253656
 30
0.0
 11
1334.4990172054
 21
-0.2710485364
 31
0.0
  0
ENDBLK
  5
122
100
AcDbEntity
  8
0
  6
CONTINUOUS
100
AcDbBlockEnd
  0
BLOCK
  5
128
100
AcDbEntity
  8
0
100
AcDbBlockBegin
  2
*D9
 70
        65
 10
0.0
 20
0.0
 30
0.0
  3
*D9
  1

  0
POINT
  5
12A
100
AcDbEntity
  8
DEFPOINTS
  6
CONTINUOUS
 62
         0
100
AcDbPoint
 10
1370.1798140024
 20
68.3708172516
 30
0.0
  0
POINT
  5
12B
100
AcDbEntity
  8
DEFPOINTS
  6
CONTINUOUS
 62
         0
100
AcDbPoint
 10
1370.1798140024
 20
60.7350849837
 30
0.0
  0
POINT
  5
12C
100
AcDbEntity
  8
DEFPOINTS
  6
CONTINUOUS
 62
         0
100
AcDbPoint
 10
1372.1798140024
 20
60.7350849837
 30
0.0
  0
LINE
  5
12D
100
AcDbEntity
  8
L1_90
  6
CONTINUOUS
 62
         4
100
AcDbLine
 10
1370.1798140024
 20
62.0850849837
 30
0.0
 11
1370.1798140024
 21
69.0458172516
 31
0.0
  0
LINE
  5
12E
100
AcDbEntity
  8
L1_90
  6
CONTINUOUS
 62
         4
100
AcDbLine
 10
1372.1798140024
 20
62.0850849837
 30
0.0
 11
1372.1798140024
 21
69.0458172516
 31
0.0
  0
LINE
  5
12F
100
AcDbEntity
  8
L1_90
  6
CONTINUOUS
 62
         4
100
AcDbLine
 10
1370.1798140024
 20
68.3708172516
 30
0.0
 11
1364.7798140024
 21
68.3708172516
 31
0.0
  0
SOLID
  5
130
100
AcDbEntity
  8
L1_90
  6
CONTINUOUS
 62
         4
100
AcDbTrace
 10
1370.1798140024
 20
68.3708172516
 30
0.0
 11
1367.4798140024
 21
67.9658172516
 31
0.0
 12
1367.4798140024
 22
68.7758172516
 32
0.0
 13
1370.1798140024
 23
68.3708172516
 33
0.0
  0
LINE
  5
131
100
AcDbEntity
  8
L1_90
  6
CONTINUOUS
 62
         4
100
AcDbLine
 10
1372.1798140024
 20
68.3708172516
 30
0.0
 11
1377.5798140024
 21
68.3708172516
 31
0.0
  0
SOLID
  5
132
100
AcDbEntity
  8
L1_90
  6
CONTINUOUS
 62
         4
100
AcDbTrace
 10
1372.1798140024
 20
68.3708172516
 30
0.0
 11
1374.8798140024
 21
68.7758172516
 31
0.0
 12
1374.8798140024
 22
67.9658172516
 32
0.0
 13
1372.1798140024
 23
68.3708172516
 33
0.0
  0
LINE
  5
133
100
AcDbEntity
  8
L1_90
  6
CONTINUOUS
 62
         4
100
AcDbLine
 10
1370.1798140024
 20
68.3708172516
 30
0.0
 11
1372.1798140024
 21
68.3708172516
 31
0.0
  0
TEXT
  5
135
100
AcDbEntity
  8
L1_90
  6
CONTINUOUS
 62
         4
100
AcDbText
 10
1369.8298140024
 20
70.3958172516
 30
0.0
 40
2.7
  1
2
  7
BOX
100
AcDbText
  0
ENDBLK
  5
136
100
AcDbEntity
  8
0
  6
CONTINUOUS
100
AcDbBlockEnd
  0
BLOCK
  5
13D
100
AcDbEntity
  8
0
100
AcDbBlockBegin
  2
*D10
 70
        65
 10
0.0
 20
0.0
 30
0.0
  3
*D10
  1

  0
POINT
  5
13F
100
AcDbEntity
  8
DEFPOINTS
  6
CONTINUOUS
 62
         0
100
AcDbPoint
 10
1388.5757996793
 20
66.9442365759
 30
0.0
  0
POINT
  5
140
100
AcDbEntity
  8
DEFPOINTS
  6
CONTINUOUS
 62
         0
100
AcDbPoint
 10
1388.5757996793
 20
58.8508352639
 30
0.0
  0
POINT
  5
141
100
AcDbEntity
  8
DEFPOINTS
  6
CONTINUOUS
 62
         0
100
AcDbPoint
 10
1401.5757996793
 20
58.8508352639
 30
0.0
  0
LINE
  5
142
100
AcDbEntity
  8
L1_90
  6
CONTINUOUS
 62
         4
100
AcDbLine
 10
1388.5757996793
 20
60.2008352639
 30
0.0
 11
1388.5757996793
 21
67.6192365759
 31
0.0
  0
LINE
  5
143
100
AcDbEntity
  8
L1_90
  6
CONTINUOUS
 62
         4
100
AcDbLine
 10
1401.5757996793
 20
60.2008352639
 30
0.0
 11
1401.5757996793
 21
67.6192365759
 31
0.0
  0
LINE
  5
144
100
AcDbEntity
  8
L1_90
  6
CONTINUOUS
 62
         4
100
AcDbLine
 10
1388.5757996793
 20
66.9442365759
 30
0.0
 11
1401.5757996793
 21
66.9442365759
 31
0.0
  0
SOLID
  5
145
100
AcDbEntity
  8
L1_90
  6
CONTINUOUS
 62
         4
100
AcDbTrace
 10
1388.5757996793
 20
66.9442365759
 30
0.0
 11
1391.2757996793
 21
67.3492365759
 31
0.0
 12
1391.2757996793
 22
66.5392365759
 32
0.0
 13
1388.5757996793
 23
66.9442365759
 33
0.0
  0
SOLID
  5
146
100
AcDbEntity
  8
L1_90
  6
CONTINUOUS
 62
         4
100
AcDbTrace
 10
1401.5757996793
 20
66.9442365759
 30
0.0
 11
1398.8757996793
 21
66.5392365759
 31
0.0
 12
1398.8757996793
 22
67.3492365759
 32
0.0
 13
1401.5757996793
 23
66.9442365759
 33
0.0
  0
TEXT
  5
148
100
AcDbEntity
  8
L1_90
  6
CONTINUOUS
 62
         4
100
AcDbText
 10
1392.3757996793
 20
68.9692365759
 30
0.0
 40
2.7
  1
13
  7
BOX
100
AcDbText
  0
ENDBLK
  5
149
100
AcDbEntity
  8
0
  6
CONTINUOUS
100
AcDbBlockEnd
  0
BLOCK
  5
16D
100
AcDbEntity
  8
0
100
AcDbBlockBegin
  2
*D11
 70
        65
 10
0.0
 20
0.0
 30
0.0
  3
*D11
  1

  0
POINT
  5
16F
100
AcDbEntity
  8
DEFPOINTS
  6
CONTINUOUS
 62
         0
100
AcDbPoint
 10
1412.5884664211
 20
60.8258352639
 30
0.0
  0
POINT
  5
170
100
AcDbEntity
  8
DEFPOINTS
  6
CONTINUOUS
 62
         0
100
AcDbPoint
 10
1398.1007996793
 20
60.8258352639
 30
0.0
  0
POINT
  5
171
100
AcDbEntity
  8
DEFPOINTS
  6
CONTINUOUS
 62
         0
100
AcDbPoint
 10
1398.1007996793
 20
49.7158352639
 30
0.0
  0
LINE
  5
172
100
AcDbEntity
  8
L1_90
  6
CONTINUOUS
 62
         4
100
AcDbLine
 10
1399.4507996793
 20
60.8258352639
 30
0.0
 11
1413.2634664211
 21
60.8258352639
 31
0.0
  0
LINE
  5
173
100
AcDbEntity
  8
L1_90
  6
CONTINUOUS
 62
         4
100
AcDbLine
 10
1399.4507996793
 20
49.7158352639
 30
0.0
 11
1413.2634664211
 21
49.7158352639
 31
0.0
  0
LINE
  5
174
100
AcDbEntity
  8
L1_90
  6
CONTINUOUS
 62
         4
100
AcDbLine
 10
1412.5884664211
 20
60.8258352639
 30
0.0
 11
1412.5884664211
 21
49.7158352639
 31
0.0
  0
SOLID
  5
175
100
AcDbEntity
  8
L1_90
  6
CONTINUOUS
 62
         4
100
AcDbTrace
 10
1412.5884664211
 20
60.8258352639
 30
0.0
 11
1412.9934664211
 21
58.1258352639
 31
0.0
 12
1412.1834664211
 22
58.1258352639
 32
0.0
 13
1412.5884664211
 23
60.8258352639
 33
0.0
  0
LINE
  5
176
100
AcDbEntity
  8
L1_90
  6
CONTINUOUS
 62
         4
100
AcDbLine
 10
1412.5884664211
 20
60.8258352639
 30
0.0
 11
1412.5884664211
 21
94.4796342268
 31
0.0
  0
SOLID
  5
177
100
AcDbEntity
  8
L1_90
  6
CONTINUOUS
 62
         4
100
AcDbTrace
 10
1412.5884664211
 20
49.7158352639
 30
0.0
 11
1412.1834664211
 21
52.4158352639
 31
0.0
 12
1412.9934664211
 22
52.4158352639
 32
0.0
 13
1412.5884664211
 23
49.7158352639
 33
0.0
  0
TEXT
  5
179
100
AcDbEntity
  8
L1_90
  6
CONTINUOUS
 62
         4
100
AcDbText
 10
1410.5634664211
 20
63.4296342268
 30
0.0
 40
2.7
  1
7/16"-20UNF
 50
90.0
  7
BOX
100
AcDbText
  0
ENDBLK
  5
17A
100
AcDbEntity
  8
0
  6
CONTINUOUS
100
AcDbBlockEnd
  0
BLOCK
  5
184
100
AcDbEntity
  8
0
100
AcDbBlockBegin
  2
*D12
 70
        65
 10
0.0
 20
0.0
 30
0.0
  3
*D12
  1

  0
POINT
  5
186
100
AcDbEntity
  8
DEFPOINTS
  6
CONTINUOUS
 62
         0
100
AcDbPoint
 10
1472.3592966277
 20
-40.6605251296
 30
0.0
  0
POINT
  5
187
100
AcDbEntity
  8
DEFPOINTS
  6
CONTINUOUS
 62
         0
100
AcDbPoint
 10
1472.3592966277
 20
-18.5483347407
 30
0.0
  0
POINT
  5
188
100
AcDbEntity
  8
DEFPOINTS
  6
CONTINUOUS
 62
         0
100
AcDbPoint
 10
1489.4033403763
 20
-22.2476489825
 30
0.0
  0
LINE
  5
189
100
AcDbEntity
  8
L1_90
  6
CONTINUOUS
 62
         4
100
AcDbLine
 10
1472.3592966277
 20
-19.8983347407
 30
0.0
 11
1472.3592966277
 21
-41.3355251296
 31
0.0
  0
LINE
  5
18A
100
AcDbEntity
  8
L1_90
  6
CONTINUOUS
 62
         4
100
AcDbLine
 10
1489.4033403763
 20
-23.5976489825
 30
0.0
 11
1489.4033403763
 21
-41.3355251296
 31
0.0
  0
LINE
  5
18B
100
AcDbEntity
  8
L1_90
  6
CONTINUOUS
 62
         4
100
AcDbLine
 10
1472.3592966277
 20
-40.6605251296
 30
0.0
 11
1489.4033403763
 21
-40.6605251296
 31
0.0
  0
SOLID
  5
18C
100
AcDbEntity
  8
L1_90
  6
CONTINUOUS
 62
         4
100
AcDbTrace
 10
1472.3592966277
 20
-40.6605251296
 30
0.0
 11
1475.0592966277
 21
-40.2555251296
 31
0.0
 12
1475.0592966277
 22
-41.0655251296
 32
0.0
 13
1472.3592966277
 23
-40.6605251296
 33
0.0
  0
SOLID
  5
18D
100
AcDbEntity
  8
L1_90
  6
CONTINUOUS
 62
         4
100
AcDbTrace
 10
1489.4033403763
 20
-40.6605251296
 30
0.0
 11
1486.7033403763
 21
-41.0655251296
 31
0.0
 12
1486.7033403763
 22
-40.2555251296
 32
0.0
 13
1489.4033403763
 23
-40.6605251296
 33
0.0
  0
TEXT
  5
18F
100
AcDbEntity
  8
L1_90
  6
CONTINUOUS
 62
         4
100
AcDbText
 10
1478.6848147462
 20
-38.6355251296
 30
0.0
 40
2.7
  1
17.04
  7
BOX
100
AcDbText
  0
ENDBLK
  5
190
100
AcDbEntity
  8
0
  6
CONTINUOUS
100
AcDbBlockEnd
  0
BLOCK
  5
196
100
AcDbEntity
  8
0
100
AcDbBlockBegin
  2
*D13
 70
        65
 10
0.0
 20
0.0
 30
0.0
  3
*D13
  1

  0
POINT
  5
198
100
AcDbEntity
  8
DEFPOINTS
  6
CONTINUOUS
 62
         0
100
AcDbPoint
 10
1507.4959462662
 20
-7.3383347407
 30
0.0
  0
POINT
  5
199
100
AcDbEntity
  8
DEFPOINTS
  6
CONTINUOUS
 62
         0
100
AcDbPoint
 10
1472.3592966277
 20
-7.3383347407
 30
0.0
  0
POINT
  5
19A
100
AcDbEntity
  8
DEFPOINTS
  6
CONTINUOUS
 62
         0
100
AcDbPoint
 10
1472.3592966277
 20
-18.5483347407
 30
0.0
  0
LINE
  5
19B
100
AcDbEntity
  8
L1_90
  6
CONTINUOUS
 62
         4
100
AcDbLine
 10
1473.7092966277
 20
-7.3383347407
 30
0.0
 11
1508.1709462662
 21
-7.3383347407
 31
0.0
  0
LINE
  5
19C
100
AcDbEntity
  8
L1_90
  6
CONTINUOUS
 62
         4
100
AcDbLine
 10
1473.7092966277
 20
-18.5483347407
 30
0.0
 11
1508.1709462662
 21
-18.5483347407
 31
0.0
  0
LINE
  5
19D
100
AcDbEntity
  8
L1_90
  6
CONTINUOUS
 62
         4
100
AcDbLine
 10
1507.4959462662
 20
-7.3383347407
 30
0.0
 11
1507.4959462662
 21
-18.5483347407
 31
0.0
  0
SOLID
  5
19E
100
AcDbEntity
  8
L1_90
  6
CONTINUOUS
 62
         4
100
AcDbTrace
 10
1507.4959462662
 20
-7.3383347407
 30
0.0
 11
1507.9009462662
 21
-10.0383347407
 31
0.0
 12
1507.0909462662
 22
-10.0383347407
 32
0.0
 13
1507.4959462662
 23
-7.3383347407
 33
0.0
  0
SOLID
  5
19F
100
AcDbEntity
  8
L1_90
  6
CONTINUOUS
 62
         4
100
AcDbTrace
 10
1507.4959462662
 20
-18.5483347407
 30
0.0
 11
1507.0909462662
 21
-15.8483347407
 31
0.0
 12
1507.9009462662
 22
-15.8483347407
 32
0.0
 13
1507.4959462662
 23
-18.5483347407
 33
0.0
  0
TEXT
  5
1A1
100
AcDbEntity
  8
L1_90
  6
CONTINUOUS
 62
         4
100
AcDbText
 10
1505.4709462662
 20
-18.185350553
 30
0.0
 40
2.7
  1
崷11.21
 50
90.0
  7
BOX
100
AcDbText
  0
ENDBLK
  5
1A2
100
AcDbEntity
  8
0
  6
CONTINUOUS
100
AcDbBlockEnd
  0
BLOCK
  5
1A7
100
AcDbEntity
  8
0
100
AcDbBlockBegin
  2
*D14
 70
        65
 10
0.0
 20
0.0
 30
0.0
  3
*D14
  1

  0
POINT
  5
1A9
100
AcDbEntity
  8
DEFPOINTS
  6
CONTINUOUS
 62
         0
100
AcDbPoint
 10
1491.8642987168
 20
77.1964100581
 30
0.0
  0
POINT
  5
1AA
100
AcDbEntity
  8
DEFPOINTS
  6
CONTINUOUS
 62
         0
100
AcDbPoint
 10
1504.4237021944
 20
77.1964100581
 30
0.0
  0
POINT
  5
1AB
100
AcDbEntity
  8
DEFPOINTS
  6
CONTINUOUS
 62
         0
100
AcDbPoint
 10
1504.4237021944
 20
52.1964100581
 30
0.0
  0
LINE
  5
1AC
100
AcDbEntity
  8
L1_90
  6
CONTINUOUS
 62
         4
100
AcDbLine
 10
1502.6737021944
 20
77.1964100581
 30
0.0
 11
1490.9892987168
 21
77.1964100581
 31
0.0
  0
LINE
  5
1AD
100
AcDbEntity
  8
L1_90
  6
CONTINUOUS
 62
         4
100
AcDbLine
 10
1502.6737021944
 20
52.1964100581
 30
0.0
 11
1490.9892987168
 21
52.1964100581
 31
0.0
  0
LINE
  5
1AE
100
AcDbEntity
  8
L1_90
  6
CONTINUOUS
 62
         4
100
AcDbLine
 10
1491.8642987168
 20
77.1964100581
 30
0.0
 11
1491.8642987168
 21
52.1964100581
 31
0.0
  0
SOLID
  5
1AF
100
AcDbEntity
  8
L1_90
  6
CONTINUOUS
 62
         4
100
AcDbTrace
 10
1491.8642987168
 20
77.1964100581
 30
0.0
 11
1492.3892987168
 21
73.6964100581
 31
0.0
 12
1491.3392987168
 22
73.6964100581
 32
0.0
 13
1491.8642987168
 23
77.1964100581
 33
0.0
  0
SOLID
  5
1B0
100
AcDbEntity
  8
L1_90
  6
CONTINUOUS
 62
         4
100
AcDbTrace
 10
1491.8642987168
 20
52.1964100581
 30
0.0
 11
1491.3392987168
 21
55.6964100581
 31
0.0
 12
1492.3892987168
 22
55.6964100581
 32
0.0
 13
1491.8642987168
 23
52.1964100581
 33
0.0
  0
TEXT
  5
1B2
100
AcDbEntity
  8
L1_90
  6
CONTINUOUS
 62
         4
100
AcDbText
 10
1489.2392987168
 20
55.9464100581
 30
0.0
 40
3.5
  1
25Hex
 50
90.0
  7
BOX
100
AcDbText
  0
ENDBLK
  5
1B3
100
AcDbEntity
  8
0
  6
CONTINUOUS
100
AcDbBlockEnd
  0
BLOCK
  5
1C0
100
AcDbEntity
  8
0
100
AcDbBlockBegin
  2
*D15
 70
        65
 10
0.0
 20
0.0
 30
0.0
  3
*D15
  1

  0
POINT
  5
1C2
100
AcDbEntity
  8
DEFPOINTS
  6
CONTINUOUS
 62
         0
100
AcDbPoint
 10
1567.4121216697
 20
53.6964100581
 30
0.0
  0
POINT
  5
1C3
100
AcDbEntity
  8
DEFPOINTS
  6
CONTINUOUS
 62
         0
100
AcDbPoint
 10
1554.2440119293
 20
53.6964100581
 30
0.0
  0
POINT
  5
1C4
100
AcDbEntity
  8
DEFPOINTS
  6
CONTINUOUS
 62
         0
100
AcDbPoint
 10
1546.1883494966
 20
75.6964100581
 30
0.0
  0
LINE
  5
1C5
100
AcDbEntity
  8
L1_90
  6
CONTINUOUS
 62
         4
100
AcDbLine
 10
1555.9940119293
 20
53.6964100581
 30
0.0
 11
1568.2871216697
 21
53.6964100581
 31
0.0
  0
LINE
  5
1C6
100
AcDbEntity
  8
L1_90
  6
CONTINUOUS
 62
         4
100
AcDbLine
 10
1547.9383494966
 20
75.6964100581
 30
0.0
 11
1568.2871216697
 21
75.6964100581
 31
0.0
  0
LINE
  5
1C7
100
AcDbEntity
  8
L1_90
  6
CONTINUOUS
 62
         4
100
AcDbLine
 10
1567.4121216697
 20
53.6964100581
 30
0.0
 11
1567.4121216697
 21
75.6964100581
 31
0.0
  0
SOLID
  5
1C8
100
AcDbEntity
  8
L1_90
  6
CONTINUOUS
 62
         4
100
AcDbTrace
 10
1567.4121216697
 20
53.6964100581
 30
0.0
 11
1566.8871216697
 21
57.1964100581
 31
0.0
 12
1567.9371216697
 22
57.1964100581
 32
0.0
 13
1567.4121216697
 23
53.6964100581
 33
0.0
  0
SOLID
  5
1C9
100
AcDbEntity
  8
L1_90
  6
CONTINUOUS
 62
         4
100
AcDbTrace
 10
1567.4121216697
 20
75.6964100581
 30
0.0
 11
1567.9371216697
 21
72.1964100581
 31
0.0
 12
1566.8871216697
 22
72.1964100581
 32
0.0
 13
1567.4121216697
 23
75.6964100581
 33
0.0
  0
TEXT
  5
1CB
100
AcDbEntity
  8
L1_90
  6
CONTINUOUS
 62
         4
100
AcDbText
 10
1564.7871216697
 20
54.8589517177
 30
0.0
 40
3.5
  1
M22xP1.5-5H
 50
90.0
  7
BOX
100
AcDbText
  0
ENDBLK
  5
1CC
100
AcDbEntity
  8
0
  6
CONTINUOUS
100
AcDbBlockEnd
  0
BLOCK
  5
1F7
100
AcDbEntity
  8
0
100
AcDbBlockBegin
  2
*X16
 70
        65
 10
0.0
 20
0.0
 30
0.0
  3
*X16
  1

  0
LINE
  5
1F8
100
AcDbEntity
  8
L1_90
  6
CONTINUOUS
 62
         4
100
AcDbLine
 10
1553.1863259579
 20
75.6964100581
 30
0.0
 11
1554.3883494966
 21
76.8984335968
 31
0.0
  0
LINE
  5
1F9
100
AcDbEntity
  8
L1_90
  6
CONTINUOUS
 62
         4
100
AcDbLine
 10
1551.0650056143
 20
75.6964100581
 30
0.0
 11
1553.7749438305
 21
78.4063482743
 31
0.0
  0
LINE
  5
1FA
100
AcDbEntity
  8
L1_90
  6
CONTINUOUS
 62
         4
100
AcDbLine
 10
1548.9436852708
 20
75.6964100581
 30
0.0
 11
1551.9436852708
 21
78.6964100581
 31
0.0
  0
LINE
  5
1FB
100
AcDbEntity
  8
L1_90
  6
CONTINUOUS
 62
         4
100
AcDbLine
 10
1546.8223649272
 20
75.6964100581
 30
0.0
 11
1548.4733620552
 21
77.3474071861
 31
0.0
  0
LINE
  5
1FC
100
AcDbEntity
  8
L1_90
  6
CONTINUOUS
 62
         4
100
AcDbLine
 10
1548.7939766956
 20
77.6680218265
 30
0.0
 11
1549.8223649272
 21
78.6964100581
 31
0.0
  0
LINE
  5
1FD
100
AcDbEntity
  8
L1_90
  6
CONTINUOUS
 62
         4
100
AcDbLine
 10
1541.5883494966
 20
72.583714971
 30
0.0
 11
1542.6883494966
 21
73.683714971
 31
0.0
  0
LINE
  5
1FE
100
AcDbEntity
  8
L1_90
  6
CONTINUOUS
 62
         4
100
AcDbLine
 10
1545.2010445837
 20
76.1964100581
 30
0.0
 11
1546.2010445837
 21
77.1964100581
 31
0.0
  0
LINE
  5
1FF
100
AcDbEntity
  8
L1_90
  6
CONTINUOUS
 62
         4
100
AcDbLine
 10
1538.8588428333
 20
71.9755286513
 30
0.0
 11
1540.5883494966
 21
73.7050353146
 31
0.0
  0
LINE
  5
200
100
AcDbEntity
  8
L1_90
  6
CONTINUOUS
 62
         4
100
AcDbLine
 10
1541.3797242401
 20
74.4964100581
 30
0.0
 11
1544.0797242401
 21
77.1964100581
 31
0.0
  0
LINE
  5
201
100
AcDbEntity
  8
L1_90
  6
CONTINUOUS
 62
         4
100
AcDbLine
 10
1536.8883494966
 20
72.1263556581
 30
0.0
 11
1541.9584038965
 21
77.1964100581
 31
0.0
  0
LINE
  5
202
100
AcDbEntity
  8
L1_90
  6
CONTINUOUS
 62
         4
100
AcDbLine
 10
1536.8883494966
 20
74.2476760017
 30
0.0
 11
1539.837083553
 21
77.1964100581
 31
0.0
  0
LINE
  5
203
100
AcDbEntity
  8
L1_90
  6
CONTINUOUS
 62
         4
100
AcDbLine
 10
1537.4656131001
 20
76.9462599488
 30
0.0
 11
1537.7157632094
 21
77.1964100581
 31
0.0
  0
ENDBLK
  5
204
100
AcDbEntity
  8
0
  6
CONTINUOUS
100
AcDbBlockEnd
  0
BLOCK
  5
208
100
AcDbEntity
  8
0
100
AcDbBlockBegin
  2
*X17
 70
        65
 10
0.0
 20
0.0
 30
0.0
  3
*X17
  1

  0
LINE
  5
209
100
AcDbEntity
  8
L1_90
  6
CONTINUOUS
 62
         4
100
AcDbLine
 10
1552.3743259579
 20
74.8844100581
 30
0.0
 11
1553.1863259579
 21
75.6964100581
 31
0.0
  0
LINE
  5
20A
100
AcDbEntity
  8
L1_90
  6
CONTINUOUS
 62
         4
100
AcDbLine
 10
1550.2530056143
 20
74.8844100581
 30
0.0
 11
1551.0650056143
 21
75.6964100581
 31
0.0
  0
LINE
  5
20B
100
AcDbEntity
  8
L1_90
  6
CONTINUOUS
 62
         4
100
AcDbLine
 10
1548.1316852708
 20
74.8844100581
 30
0.0
 11
1548.9436852708
 21
75.6964100581
 31
0.0
  0
LINE
  5
20C
100
AcDbEntity
  8
L1_90
  6
CONTINUOUS
 62
         4
100
AcDbLine
 10
1546.5053572119
 20
75.3794023428
 30
0.0
 11
1546.8223649272
 21
75.6964100581
 31
0.0
  0
ENDBLK
  5
20D
100
AcDbEntity
  8
0
  6
CONTINUOUS
100
AcDbBlockEnd
  0
BLOCK
  5
211
100
AcDbEntity
  8
0
100
AcDbBlockBegin
  2
*X18
 70
        65
 10
0.0
 20
0.0
 30
0.0
  3
*X18
  1

  0
LINE
  5
212
100
AcDbEntity
  8
L1_90
  6
CONTINUOUS
 62
         4
100
AcDbLine
 10
1551.5208497371
 20
50.6964100581
 30
0.0
 11
1554.3453415997
 21
53.5209019207
 31
0.0
  0
LINE
  5
213
100
AcDbEntity
  8
L1_90
  6
CONTINUOUS
 62
         4
100
AcDbLine
 10
1549.3995293935
 20
50.6964100581
 30
0.0
 11
1552.3995293935
 21
53.6964100581
 31
0.0
  0
LINE
  5
214
100
AcDbEntity
  8
L1_90
  6
CONTINUOUS
 62
         4
100
AcDbLine
 10
1548.5637647612
 20
51.9819657694
 30
0.0
 11
1550.2782090499
 21
53.6964100581
 31
0.0
  0
LINE
  5
215
100
AcDbEntity
  8
L1_90
  6
CONTINUOUS
 62
         4
100
AcDbLine
 10
1546.6568887064
 20
52.1964100581
 30
0.0
 11
1548.1568887064
 21
53.6964100581
 31
0.0
  0
LINE
  5
216
100
AcDbEntity
  8
L1_90
  6
CONTINUOUS
 62
         4
100
AcDbLine
 10
1544.5355683628
 20
52.1964100581
 30
0.0
 11
1545.5355683628
 21
53.1964100581
 31
0.0
  0
LINE
  5
217
100
AcDbEntity
  8
L1_90
  6
CONTINUOUS
 62
         4
100
AcDbLine
 10
1542.4142480193
 20
52.1964100581
 30
0.0
 11
1543.4444480072
 21
53.226610046
 31
0.0
  0
LINE
  5
218
100
AcDbEntity
  8
L1_90
  6
CONTINUOUS
 62
         4
100
AcDbLine
 10
1540.2929276757
 20
52.1964100581
 30
0.0
 11
1542.6883494966
 21
54.591831879
 31
0.0
  0
LINE
  5
219
100
AcDbEntity
  8
L1_90
  6
CONTINUOUS
 62
         4
100
AcDbLine
 10
1538.1716073321
 20
52.1964100581
 30
0.0
 11
1540.8716073321
 21
54.8964100581
 31
0.0
  0
LINE
  5
21A
100
AcDbEntity
  8
L1_90
  6
CONTINUOUS
 62
         4
100
AcDbLine
 10
1537.0416350729
 20
53.1877581424
 30
0.0
 11
1540.3881959575
 21
56.534319027
 31
0.0
  0
LINE
  5
21B
100
AcDbEntity
  8
L1_90
  6
CONTINUOUS
 62
         4
100
AcDbLine
 10
1536.8883494966
 20
55.1557929096
 30
0.0
 11
1538.2906526818
 21
56.5580960949
 31
0.0
  0
ENDBLK
  5
21C
100
AcDbEntity
  8
0
  6
CONTINUOUS
100
AcDbBlockEnd
  0
BLOCK
  5
220
100
AcDbEntity
  8
0
100
AcDbBlockBegin
  2
*X19
 70
        65
 10
0.0
 20
0.0
 30
0.0
  3
*X19
  1

  0
LINE
  5
221
100
AcDbEntity
  8
L1_90
  6
CONTINUOUS
 62
         4
100
AcDbLine
 10
1552.3995293935
 20
53.6964100581
 30
0.0
 11
1553.2115293935
 21
54.5084100581
 31
0.0
  0
LINE
  5
222
100
AcDbEntity
  8
L1_90
  6
CONTINUOUS
 62
         4
100
AcDbLine
 10
1550.2782090499
 20
53.6964100581
 30
0.0
 11
1551.0902090499
 21
54.5084100581
 31
0.0
  0
LINE
  5
223
100
AcDbEntity
  8
L1_90
  6
CONTINUOUS
 62
         4
100
AcDbLine
 10
1548.1568887064
 20
53.6964100581
 30
0.0
 11
1548.9688887064
 21
54.5084100581
 31
0.0
  0
ENDBLK
  5
224
100
AcDbEntity
  8
0
  6
CONTINUOUS
100
AcDbBlockEnd
  0
BLOCK
  5
228
100
AcDbEntity
  8
0
100
AcDbBlockBegin
  2
*X20
 70
        65
 10
0.0
 20
0.0
 30
0.0
  3
*X20
  1

  0
LINE
  5
229
100
AcDbEntity
  8
L1_90
  6
CONTINUOUS
 62
         4
100
AcDbLine
 10
1538.2906526818
 20
56.5580960949
 30
0.0
 11
1539.0433327492
 21
57.3107761623
 31
0.0
  0
LINE
  5
22A
100
AcDbEntity
  8
L1_90
  6
CONTINUOUS
 62
         4
100
AcDbLine
 10
1536.8883494966
 20
57.2771132532
 30
0.0
 11
1537.698469541
 21
58.0872332976
 31
0.0
  0
ENDBLK
  5
22B
100
AcDbEntity
  8
0
  6
CONTINUOUS
100
AcDbBlockEnd
  0
BLOCK
  5
22F
100
AcDbEntity
  8
0
100
AcDbBlockBegin
  2
*D21
 70
        65
 10
0.0
 20
0.0
 30
0.0
  3
*D21
  1

  0
POINT
  5
231
100
AcDbEntity
  8
DEFPOINTS
  6
CONTINUOUS
 62
         0
100
AcDbPoint
 10
1554.3883494966
 20
85.86236692
 30
0.0
  0
POINT
  5
232
100
AcDbEntity
  8
DEFPOINTS
  6
CONTINUOUS
 62
         0
100
AcDbPoint
 10
1554.3883494966
 20
77.1964100581
 30
0.0
  0
POINT
  5
233
100
AcDbEntity
  8
DEFPOINTS
  6
CONTINUOUS
 62
         0
100
AcDbPoint
 10
1536.8883494966
 20
75.5444862694
 30
0.0
  0
LINE
  5
234
100
AcDbEntity
  8
L1_90
  6
CONTINUOUS
 62
         4
100
AcDbLine
 10
1554.3883494966
 20
78.9464100581
 30
0.0
 11
1554.3883494966
 21
86.73736692
 31
0.0
  0
LINE
  5
235
100
AcDbEntity
  8
L1_90
  6
CONTINUOUS
 62
         4
100
AcDbLine
 10
1536.8883494966
 20
77.2944862694
 30
0.0
 11
1536.8883494966
 21
86.73736692
 31
0.0
  0
LINE
  5
236
100
AcDbEntity
  8
L1_90
  6
CONTINUOUS
 62
         4
100
AcDbLine
 10
1554.3883494966
 20
85.86236692
 30
0.0
 11
1536.8883494966
 21
85.86236692
 31
0.0
  0
SOLID
  5
237
100
AcDbEntity
  8
L1_90
  6
CONTINUOUS
 62
         4
100
AcDbTrace
 10
1554.3883494966
 20
85.86236692
 30
0.0
 11
1550.8883494966
 21
85.33736692
 31
0.0
 12
1550.8883494966
 22
86.38736692
 32
0.0
 13
1554.3883494966
 23
85.86236692
 33
0.0
  0
SOLID
  5
238
100
AcDbEntity
  8
L1_90
  6
CONTINUOUS
 62
         4
100
AcDbTrace
 10
1536.8883494966
 20
85.86236692
 30
0.0
 11
1540.3883494966
 21
86.38736692
 31
0.0
 12
1540.3883494966
 22
85.33736692
 32
0.0
 13
1536.8883494966
 23
85.86236692
 33
0.0
  0
TEXT
  5
23A
100
AcDbEntity
  8
L1_90
  6
CONTINUOUS
 62
         4
100
AcDbText
 10
1538.6383494966
 20
88.48736692
 30
0.0
 40
3.5
  1
17.5
  7
BOX
100
AcDbText
  0
ENDBLK
  5
23B
100
AcDbEntity
  8
0
  6
CONTINUOUS
100
AcDbBlockEnd
  0
BLOCK
  5
23D
100
AcDbEntity
  8
0
100
AcDbBlockBegin
  2
*D22
 70
        65
 10
0.0
 20
0.0
 30
0.0
  3
*D22
  1

  0
POINT
  5
23F
100
AcDbEntity
  8
DEFPOINTS
  6
CONTINUOUS
 62
         0
100
AcDbPoint
 10
1576.4485818152
 20
78.6964100581
 30
0.0
  0
POINT
  5
240
100
AcDbEntity
  8
DEFPOINTS
  6
CONTINUOUS
 62
         0
100
AcDbPoint
 10
1552.8883494966
 20
78.6964100581
 30
0.0
  0
POINT
  5
241
100
AcDbEntity
  8
DEFPOINTS
  6
CONTINUOUS
 62
         0
100
AcDbPoint
 10
1552.8883494966
 20
50.6964100581
 30
0.0
  0
LINE
  5
242
100
AcDbEntity
  8
L1_90
  6
CONTINUOUS
 62
         4
100
AcDbLine
 10
1554.6383494966
 20
78.6964100581
 30
0.0
 11
1577.3235818152
 21
78.6964100581
 31
0.0
  0
LINE
  5
243
100
AcDbEntity
  8
L1_90
  6
CONTINUOUS
 62
         4
100
AcDbLine
 10
1554.6383494966
 20
50.6964100581
 30
0.0
 11
1577.3235818152
 21
50.6964100581
 31
0.0
  0
LINE
  5
244
100
AcDbEntity
  8
L1_90
  6
CONTINUOUS
 62
         4
100
AcDbLine
 10
1576.4485818152
 20
78.6964100581
 30
0.0
 11
1576.4485818152
 21
50.6964100581
 31
0.0
  0
SOLID
  5
245
100
AcDbEntity
  8
L1_90
  6
CONTINUOUS
 62
         4
100
AcDbTrace
 10
1576.4485818152
 20
78.6964100581
 30
0.0
 11
1576.9735818152
 21
75.1964100581
 31
0.0
 12
1575.9235818152
 22
75.1964100581
 32
0.0
 13
1576.4485818152
 23
78.6964100581
 33
0.0
  0
SOLID
  5
246
100
AcDbEntity
  8
L1_90
  6
CONTINUOUS
 62
         4
100
AcDbTrace
 10
1576.4485818152
 20
50.6964100581
 30
0.0
 11
1575.9235818152
 21
54.1964100581
 31
0.0
 12
1576.9735818152
 22
54.1964100581
 32
0.0
 13
1576.4485818152
 23
50.6964100581
 33
0.0
  0
TEXT
  5
248
100
AcDbEntity
  8
L1_90
  6
CONTINUOUS
 62
         4
100
AcDbText
 10
1573.8235818152
 20
56.4382381416
 30
0.0
 40
3.5
  1
崷28
 50
90.0
  7
BOX
100
AcDbText
  0
ENDBLK
  5
249
100
AcDbEntity
  8
0
  6
CONTINUOUS
100
AcDbBlockEnd
  0
BLOCK
  5
36D
100
AcDbEntity
  8
0
100
AcDbBlockBegin
  2
*D23
 70
        65
 10
0.0
 20
0.0
 30
0.0
  3
*D23
  1

  0
POINT
  5
36F
100
AcDbEntity
  8
DEFPOINTS
  6
CONTINUOUS
 62
         0
100
AcDbPoint
 10
1414.4033403763
 20
-52.8310916204
 30
0.0
  0
POINT
  5
370
100
AcDbEntity
  8
DEFPOINTS
  6
CONTINUOUS
 62
         0
100
AcDbPoint
 10
1414.4033403763
 20
-17.9433347407
 30
0.0
  0
POINT
  5
371
100
AcDbEntity
  8
DEFPOINTS
  6
CONTINUOUS
 62
         0
100
AcDbPoint
 10
1489.4033403763
 20
-22.9433347407
 30
0.0
  0
LINE
  5
372
100
AcDbEntity
  8
L1_90
  6
CONTINUOUS
 62
         4
100
AcDbLine
 10
1414.4033403763
 20
-19.2933347407
 30
0.0
 11
1414.4033403763
 21
-53.5060916204
 31
0.0
  0
LINE
  5
373
100
AcDbEntity
  8
L1_90
  6
CONTINUOUS
 62
         4
100
AcDbLine
 10
1489.4033403763
 20
-24.2933347407
 30
0.0
 11
1489.4033403763
 21
-53.5060916204
 31
0.0
  0
LINE
  5
374
100
AcDbEntity
  8
L1_90
  6
CONTINUOUS
 62
         4
100
AcDbLine
 10
1414.4033403763
 20
-52.8310916204
 30
0.0
 11
1489.4033403763
 21
-52.8310916204
 31
0.0
  0
SOLID
  5
375
100
AcDbEntity
  8
L1_90
  6
CONTINUOUS
 62
         4
100
AcDbTrace
 10
1414.4033403763
 20
-52.8310916204
 30
0.0
 11
1417.1033403763
 21
-52.4260916204
 31
0.0
 12
1417.1033403763
 22
-53.2360916204
 32
0.0
 13
1414.4033403763
 23
-52.8310916204
 33
0.0
  0
SOLID
  5
376
100
AcDbEntity
  8
L1_90
  6
CONTINUOUS
 62
         4
100
AcDbTrace
 10
1489.4033403763
 20
-52.8310916204
 30
0.0
 11
1486.7033403763
 21
-53.2360916204
 31
0.0
 12
1486.7033403763
 22
-52.4260916204
 32
0.0
 13
1489.4033403763
 23
-52.8310916204
 33
0.0
  0
TEXT
  5
378
100
AcDbEntity
  8
L1_90
  6
CONTINUOUS
 62
         4
100
AcDbText
 10
1449.0252885434
 20
-50.8060916204
 30
0.0
 40
2.7
  1
75
  7
BOX
100
AcDbText
  0
ENDBLK
  5
379
100
AcDbEntity
  8
0
  6
CONTINUOUS
100
AcDbBlockEnd
  0
BLOCK
  5
37B
100
AcDbEntity
  8
0
100
AcDbBlockBegin
  2
*D24
 70
        65
 10
0.0
 20
0.0
 30
0.0
  3
*D24
  1

  0
POINT
  5
37D
100
AcDbEntity
  8
DEFPOINTS
  6
CONTINUOUS
 62
         0
100
AcDbPoint
 10
1467.4033403763
 20
-47.682144484
 30
0.0
  0
POINT
  5
37E
100
AcDbEntity
  8
DEFPOINTS
  6
CONTINUOUS
 62
         0
100
AcDbPoint
 10
1467.4033403763
 20
-18.7933347407
 30
0.0
  0
POINT
  5
37F
100
AcDbEntity
  8
DEFPOINTS
  6
CONTINUOUS
 62
         0
100
AcDbPoint
 10
1489.4033403763
 20
-22.9433347407
 30
0.0
  0
LINE
  5
380
100
AcDbEntity
  8
L1_90
  6
CONTINUOUS
 62
         4
100
AcDbLine
 10
1467.4033403763
 20
-20.1433347407
 30
0.0
 11
1467.4033403763
 21
-48.357144484
 31
0.0
  0
LINE
  5
381
100
AcDbEntity
  8
L1_90
  6
CONTINUOUS
 62
         4
100
AcDbLine
 10
1489.4033403763
 20
-24.2933347407
 30
0.0
 11
1489.4033403763
 21
-48.357144484
 31
0.0
  0
LINE
  5
382
100
AcDbEntity
  8
L1_90
  6
CONTINUOUS
 62
         4
100
AcDbLine
 10
1467.4033403763
 20
-47.682144484
 30
0.0
 11
1489.4033403763
 21
-47.682144484
 31
0.0
  0
SOLID
  5
383
100
AcDbEntity
  8
L1_90
  6
CONTINUOUS
 62
         4
100
AcDbTrace
 10
1467.4033403763
 20
-47.682144484
 30
0.0
 11
1470.1033403763
 21
-47.277144484
 31
0.0
 12
1470.1033403763
 22
-48.087144484
 32
0.0
 13
1467.4033403763
 23
-47.682144484
 33
0.0
  0
SOLID
  5
384
100
AcDbEntity
  8
L1_90
  6
CONTINUOUS
 62
         4
100
AcDbTrace
 10
1489.4033403763
 20
-47.682144484
 30
0.0
 11
1486.7033403763
 21
-48.087144484
 31
0.0
 12
1486.7033403763
 22
-47.277144484
 32
0.0
 13
1489.4033403763
 23
-47.682144484
 33
0.0
  0
TEXT
  5
386
100
AcDbEntity
  8
L1_90
  6
CONTINUOUS
 62
         4
100
AcDbText
 10
1474.6394698155
 20
-45.657144484
 30
0.0
 40
2.7
  1
22
  7
BOX
100
AcDbText
  0
ENDBLK
  5
387
100
AcDbEntity
  8
0
  6
CONTINUOUS
100
AcDbBlockEnd
  0
BLOCK
  5
389
100
AcDbEntity
  8
0
100
AcDbBlockBegin
  2
*D25
 70
        65
 10
0.0
 20
0.0
 30
0.0
  3
*D25
  1

  0
POINT
  5
38B
100
AcDbEntity
  8
DEFPOINTS
  6
CONTINUOUS
 62
         0
100
AcDbPoint
 10
1514.6872478705
 20
-20.7622468794
 30
0.0
  0
POINT
  5
38C
100
AcDbEntity
  8
DEFPOINTS
  6
CONTINUOUS
 62
         0
100
AcDbPoint
 10
1488.1121000277
 20
-20.7622468794
 30
0.0
  0
POINT
  5
38D
100
AcDbEntity
  8
DEFPOINTS
  6
CONTINUOUS
 62
         0
100
AcDbPoint
 10
1488.1121000277
 20
-5.1244226019
 30
0.0
  0
LINE
  5
38E
100
AcDbEntity
  8
L1_90
  6
CONTINUOUS
 62
         4
100
AcDbLine
 10
1489.4621000277
 20
-20.7622468794
 30
0.0
 11
1515.3622478705
 21
-20.7622468794
 31
0.0
  0
LINE
  5
38F
100
AcDbEntity
  8
L1_90
  6
CONTINUOUS
 62
         4
100
AcDbLine
 10
1489.4621000277
 20
-5.1244226019
 30
0.0
 11
1515.3622478705
 21
-5.1244226019
 31
0.0
  0
LINE
  5
390
100
AcDbEntity
  8
L1_90
  6
CONTINUOUS
 62
         4
100
AcDbLine
 10
1514.6872478705
 20
-20.7622468794
 30
0.0
 11
1514.6872478705
 21
-5.1244226019
 31
0.0
  0
SOLID
  5
391
100
AcDbEntity
  8
L1_90
  6
CONTINUOUS
 62
         4
100
AcDbTrace
 10
1514.6872478705
 20
-20.7622468794
 30
0.0
 11
1514.2822478705
 21
-18.0622468794
 31
0.0
 12
1515.0922478705
 22
-18.0622468794
 32
0.0
 13
1514.6872478705
 23
-20.7622468794
 33
0.0
  0
SOLID
  5
392
100
AcDbEntity
  8
L1_90
  6
CONTINUOUS
 62
         4
100
AcDbTrace
 10
1514.6872478705
 20
-5.1244226019
 30
0.0
 11
1515.0922478705
 21
-7.8244226019
 31
0.0
 12
1514.2822478705
 22
-7.8244226019
 32
0.0
 13
1514.6872478705
 23
-5.1244226019
 33
0.0
  0
TEXT
  5
394
100
AcDbEntity
  8
L1_90
  6
CONTINUOUS
 62
         4
100
AcDbText
 10
1512.6622478705
 20
-24.1517029961
 30
0.0
 40
2.7
  1
崷16.05
 50
90.0
  7
BOX
100
AcDbText
  0
ENDBLK
  5
395
100
AcDbEntity
  8
0
  6
CONTINUOUS
100
AcDbBlockEnd
  0
BLOCK
  5
39C
100
AcDbEntity
  8
0
100
AcDbBlockBegin
  2
*D26
 70
        65
 10
0.0
 20
0.0
 30
0.0
  3
*D26
  1

  0
POINT
  5
39E
100
AcDbEntity
  8
DEFPOINTS
  6
CONTINUOUS
 62
         0
100
AcDbPoint
 10
1476.4033403763
 20
-33.5925545654
 30
0.0
  0
POINT
  5
39F
100
AcDbEntity
  8
DEFPOINTS
  6
CONTINUOUS
 62
         0
100
AcDbPoint
 10
1476.4033403763
 20
-22.9433347407
 30
0.0
  0
POINT
  5
3A0
100
AcDbEntity
  8
DEFPOINTS
  6
CONTINUOUS
 62
         0
100
AcDbPoint
 10
1489.4033403763
 20
-22.9433347407
 30
0.0
  0
LINE
  5
3A1
100
AcDbEntity
  8
L1_90
  6
CONTINUOUS
 62
         4
100
AcDbLine
 10
1476.4033403763
 20
-24.2933347407
 30
0.0
 11
1476.4033403763
 21
-34.2675545654
 31
0.0
  0
LINE
  5
3A2
100
AcDbEntity
  8
L1_90
  6
CONTINUOUS
 62
         4
100
AcDbLine
 10
1489.4033403763
 20
-24.2933347407
 30
0.0
 11
1489.4033403763
 21
-34.2675545654
 31
0.0
  0
LINE
  5
3A3
100
AcDbEntity
  8
L1_90
  6
CONTINUOUS
 62
         4
100
AcDbLine
 10
1476.4033403763
 20
-33.5925545654
 30
0.0
 11
1489.4033403763
 21
-33.5925545654
 31
0.0
  0
SOLID
  5
3A4
100
AcDbEntity
  8
L1_90
  6
CONTINUOUS
 62
         4
100
AcDbTrace
 10
1476.4033403763
 20
-33.5925545654
 30
0.0
 11
1479.1033403763
 21
-33.1875545654
 31
0.0
 12
1479.1033403763
 22
-33.9975545654
 32
0.0
 13
1476.4033403763
 23
-33.5925545654
 33
0.0
  0
SOLID
  5
3A5
100
AcDbEntity
  8
L1_90
  6
CONTINUOUS
 62
         4
100
AcDbTrace
 10
1489.4033403763
 20
-33.5925545654
 30
0.0
 11
1486.7033403763
 21
-33.9975545654
 31
0.0
 12
1486.7033403763
 22
-33.1875545654
 32
0.0
 13
1489.4033403763
 23
-33.5925545654
 33
0.0
  0
TEXT
  5
3A7
100
AcDbEntity
  8
L1_90
  6
CONTINUOUS
 62
         4
100
AcDbText
 10
1477.3269185369
 20
-31.5675545654
 30
0.0
 40
2.7
  1
13
  7
BOX
100
AcDbText
  0
ENDBLK
  5
3A8
100
AcDbEntity
  8
0
  6
CONTINUOUS
100
AcDbBlockEnd
  0
BLOCK
  5
3B2
100
AcDbEntity
  8
0
100
AcDbBlockBegin
  2
*D27
 70
        65
 10
0.0
 20
0.0
 30
0.0
  3
*D27
  1

  0
POINT
  5
3B4
100
AcDbEntity
  8
DEFPOINTS
  6
CONTINUOUS
 62
         0
100
AcDbPoint
 10
1473.9033403763
 20
7.8534567654
 30
0.0
  0
POINT
  5
3B5
100
AcDbEntity
  8
DEFPOINTS
  6
CONTINUOUS
 62
         0
100
AcDbPoint
 10
1473.9033403763
 20
-1.5845907687
 30
0.0
  0
POINT
  5
3B6
100
AcDbEntity
  8
DEFPOINTS
  6
CONTINUOUS
 62
         0
100
AcDbPoint
 10
1489.4033403763
 20
-2.9433347407
 30
0.0
  0
LINE
  5
3B7
100
AcDbEntity
  8
L1_90
  6
CONTINUOUS
 62
         4
100
AcDbLine
 10
1473.9033403763
 20
-0.2345907687
 30
0.0
 11
1473.9033403763
 21
8.5284567654
 31
0.0
  0
LINE
  5
3B8
100
AcDbEntity
  8
L1_90
  6
CONTINUOUS
 62
         4
100
AcDbLine
 10
1489.4033403763
 20
-1.5933347407
 30
0.0
 11
1489.4033403763
 21
8.5284567654
 31
0.0
  0
LINE
  5
3B9
100
AcDbEntity
  8
L1_90
  6
CONTINUOUS
 62
         4
100
AcDbLine
 10
1473.9033403763
 20
7.8534567654
 30
0.0
 11
1489.4033403763
 21
7.8534567654
 31
0.0
  0
SOLID
  5
3BA
100
AcDbEntity
  8
L1_90
  6
CONTINUOUS
 62
         4
100
AcDbTrace
 10
1473.9033403763
 20
7.8534567654
 30
0.0
 11
1476.6033403763
 21
8.2584567654
 31
0.0
 12
1476.6033403763
 22
7.4484567654
 32
0.0
 13
1473.9033403763
 23
7.8534567654
 33
0.0
  0
SOLID
  5
3BB
100
AcDbEntity
  8
L1_90
  6
CONTINUOUS
 62
         4
100
AcDbTrace
 10
1489.4033403763
 20
7.8534567654
 30
0.0
 11
1486.7033403763
 21
7.4484567654
 31
0.0
 12
1486.7033403763
 22
8.2584567654
 32
0.0
 13
1489.4033403763
 23
7.8534567654
 33
0.0
  0
TEXT
  5
3BD
100
AcDbEntity
  8
L1_90
  6
CONTINUOUS
 62
         4
100
AcDbText
 10
1474.4727185581
 20
9.8784567654
 30
0.0
 40
2.7
  1
15.5
  7
BOX
100
AcDbText
  0
ENDBLK
  5
3BE
100
AcDbEntity
  8
0
  6
CONTINUOUS
100
AcDbBlockEnd
  0
BLOCK
  5
4A1
100
AcDbEntity
  8
0
100
AcDbBlockBegin
  2
*D28
 70
        65
 10
0.0
 20
0.0
 30
0.0
  3
*D28
  1

  0
POINT
  5
4A3
100
AcDbEntity
  8
DEFPOINTS
  6
CONTINUOUS
 62
         0
100
AcDbPoint
 10
1400.0033403763
 20
219.9767101041
 30
0.0
  0
POINT
  5
4A4
100
AcDbEntity
  8
DEFPOINTS
  6
CONTINUOUS
 62
         0
100
AcDbPoint
 10
1400.0033403763
 20
172.4096417294
 30
0.0
  0
POINT
  5
4A5
100
AcDbEntity
  8
DEFPOINTS
  6
CONTINUOUS
 62
         0
100
AcDbPoint
 10
1500.0033403763
 20
161.0327179407
 30
0.0
  0
LINE
  5
4A6
100
AcDbEntity
  8
L1_90
  6
CONTINUOUS
 62
         4
100
AcDbLine
 10
1400.0033403763
 20
173.7596417294
 30
0.0
 11
1400.0033403763
 21
220.6517101041
 31
0.0
  0
LINE
  5
4A7
100
AcDbEntity
  8
L1_90
  6
CONTINUOUS
 62
         4
100
AcDbLine
 10
1500.0033403763
 20
162.3827179407
 30
0.0
 11
1500.0033403763
 21
220.6517101041
 31
0.0
  0
LINE
  5
4A8
100
AcDbEntity
  8
L1_90
  6
CONTINUOUS
 62
         4
100
AcDbLine
 10
1400.0033403763
 20
219.9767101041
 30
0.0
 11
1500.0033403763
 21
219.9767101041
 31
0.0
  0
SOLID
  5
4A9
100
AcDbEntity
  8
L1_90
  6
CONTINUOUS
 62
         4
100
AcDbTrace
 10
1400.0033403763
 20
219.9767101041
 30
0.0
 11
1402.7033403763
 21
220.3817101041
 31
0.0
 12
1402.7033403763
 22
219.5717101041
 32
0.0
 13
1400.0033403763
 23
219.9767101041
 33
0.0
  0
SOLID
  5
4AA
100
AcDbEntity
  8
L1_90
  6
CONTINUOUS
 62
         4
100
AcDbTrace
 10
1500.0033403763
 20
219.9767101041
 30
0.0
 11
1497.3033403763
 21
219.5717101041
 31
0.0
 12
1497.3033403763
 22
220.3817101041
 32
0.0
 13
1500.0033403763
 23
219.9767101041
 33
0.0
  0
TEXT
  5
4AC
100
AcDbEntity
  8
L1_90
  6
CONTINUOUS
 62
         4
100
AcDbText
 10
1448.6669299112
 20
222.0017101041
 30
0.0
 40
2.7
  1
100
  7
BOX
100
AcDbText
  0
ENDBLK
  5
4AD
100
AcDbEntity
  8
0
  6
CONTINUOUS
100
AcDbBlockEnd
  0
ENDSEC
  0
SECTION
  2
ENTITIES
  0
DIMENSION
  5
2A
100
AcDbEntity
  8
L1_90
  6
CONTINUOUS
 62
         4
100
AcDbDimension
  2
*D0
 10
1331.7533403763
 20
225.897505167
 30
0.0
 11
1401.5711495894
 21
227.922505167
 31
0.0
  3
DIMSTYLE1
100
AcDbAlignedDimension
 13
1331.7533403763
 23
161.4188234458
 33
0.0
 14
1489.4033403763
 24
159.6846417294
 34
0.0
100
AcDbRotatedDimension
  0
DIMENSION
  5
39
100
AcDbEntity
  8
L1_90
  6
CONTINUOUS
 62
         4
100
AcDbDimension
  2
*D1
 10
1400.0033403763
 20
214.696000994
 30
0.0
 11
1435.6353612737
 21
216.721000994
 31
0.0
  3
DIMSTYLE1
100
AcDbAlignedDimension
 13
1400.0033403763
 23
172.4096417294
 33
0.0
 14
1489.4033403763
 24
159.6846417294
 34
0.0
100
AcDbRotatedDimension
  0
LINE
  5
45
100
AcDbEntity
  8
L1_90
  6
CONTINUOUS
 62
         7
100
AcDbLine
 10
1473.9047415379
 20
-26.4433347407
 30
0.0
 11
1473.4047415379
 21
-26.9433347407
 31
0.0
  0
LINE
  5
46
100
AcDbEntity
  8
L1_90
  6
CONTINUOUS
 62
         7
100
AcDbLine
 10
1473.9047415379
 20
0.5566652593
 30
0.0
 11
1473.4047415379
 21
1.0566652593
 31
0.0
  0
LINE
  5
47
100
AcDbEntity
  8
L1_90
  6
CONTINUOUS
 62
         7
100
AcDbLine
 10
1473.9047415379
 20
-26.4433347407
 30
0.0
 11
1473.9047415379
 21
-24.6845156956
 31
0.0
  0
ARC
  5
48
100
AcDbEntity
  8
L1_90
  6
CONTINUOUS
 62
         7
100
AcDbCircle
 10
1474.8706673642
 20
-0.9433347407
 30
0.0
 40
1.0
100
AcDbArc
 50
195.0
 51
270.0
  0
ARC
  5
49
100
AcDbEntity
  8
L1_90
  6
CONTINUOUS
 62
         7
100
AcDbCircle
 10
1474.8706673642
 20
-24.9433347407
 30
0.0
 40
1.0
100
AcDbArc
 50
90.0
 51
165.0
  0
LINE
  5
4A
100
AcDbEntity
  8
L1_90
  6
CONTINUOUS
 62
         7
100
AcDbLine
 10
1473.9047415379
 20
-1.2021537858
 30
0.0
 11
1473.9047415379
 21
0.5566652593
 31
0.0
  0
LINE
  5
4B
100
AcDbEntity
  8
L1_90
  6
CENTER
 62
         1
100
AcDbLine
 10
1491.2033403763
 20
138.6846417294
 30
0.0
 11
1489.8913403763
 21
139.9966417294
 31
0.0
  0
ARC
  5
4C
100
AcDbEntity
  8
L1_90
  6
CENTER
 62
         1
100
AcDbCircle
 10
1488.9467160492
 20
163.6846417294
 30
0.0
 40
1.0
100
AcDbArc
 50
210.0
 51
270.0
  0
ARC
  5
4D
100
AcDbEntity
  8
L1_90
  6
CENTER
 62
         1
100
AcDbCircle
 10
1488.9467160492
 20
136.6846417294
 30
0.0
 40
1.0
100
AcDbArc
 50
90.0
 51
150.0
  0
LINE
  5
4E
100
AcDbEntity
  8
L1_90
  6
CENTER
 62
         1
100
AcDbLine
 10
1482.5033403763
 20
137.6846417294
 30
0.0
 11
1482.5033403763
 21
162.6846417294
 31
0.0
  0
LINE
  5
4F
100
AcDbEntity
  8
L1_90
  6
CENTER
 62
         1
100
AcDbLine
 10
1500.0033403763
 20
139.336565518
 30
0.0
 11
1500.0033403763
 21
161.0327179407
 31
0.0
  0
LINE
  5
50
100
AcDbEntity
  8
L1_90
  6
CENTER
 62
         1
100
AcDbLine
 10
1495.3033403763
 20
142.9846417294
 30
0.0
 11
1495.3033403763
 21
159.9846417294
 31
0.0
  0
LINE
  5
51
100
AcDbEntity
  8
L1_90
  6
CENTER
 62
         1
100
AcDbLine
 10
1494.2033403763
 20
139.6846417294
 30
0.0
 11
1494.2033403763
 21
160.6846417294
 31
0.0
  0
LINE
  5
52
100
AcDbEntity
  8
L1_90
  6
CENTER
 62
         1
100
AcDbLine
 10
1496.3033403763
 20
141.9069919986
 30
0.0
 11
1500.0033403763
 21
144.0431879946
 31
0.0
  0
LINE
  5
53
100
AcDbEntity
  8
L1_90
  6
CENTER
 62
         1
100
AcDbLine
 10
1496.3033403763
 20
158.4622914602
 30
0.0
 11
1500.0033403763
 21
156.3260954642
 31
0.0
  0
LINE
  5
54
100
AcDbEntity
  8
L1_90
  6
CENTER
 62
         1
100
AcDbLine
 10
1495.3033403763
 20
142.9846417294
 30
0.0
 11
1494.2033403763
 21
142.9846417294
 31
0.0
  0
LINE
  5
55
100
AcDbEntity
  8
L1_90
  6
CENTER
 62
         1
100
AcDbLine
 10
1489.8913403763
 20
139.9966417294
 30
0.0
 11
1483.1164863621
 21
139.9966417294
 31
0.0
  0
LINE
  5
56
100
AcDbEntity
  8
L1_90
  6
CENTER
 62
         1
100
AcDbLine
 10
1489.8913403763
 20
160.3726417294
 30
0.0
 11
1483.1164863621
 21
160.3726417294
 31
0.0
  0
LINE
  5
57
100
AcDbEntity
  8
L1_90
  6
CENTER
 62
         1
100
AcDbLine
 10
1491.2033403763
 20
138.6846417294
 30
0.0
 11
1491.2033403763
 21
161.6846417294
 31
0.0
  0
LINE
  5
58
100
AcDbEntity
  8
L1_90
  6
CENTER
 62
         1
100
AcDbLine
 10
1493.2033403763
 20
138.6846417294
 30
0.0
 11
1491.2033403763
 21
138.6846417294
 31
0.0
  0
LINE
  5
59
100
AcDbEntity
  8
L1_90
  6
CENTER
 62
         1
100
AcDbLine
 10
1493.2033403763
 20
161.6846417294
 30
0.0
 11
1491.2033403763
 21
161.6846417294
 31
0.0
  0
LINE
  5
5A
100
AcDbEntity
  8
L1_90
  6
CENTER
 62
         1
100
AcDbLine
 10
1496.3033403763
 20
140.3846417294
 30
0.0
 11
1496.3033403763
 21
159.9846417294
 31
0.0
  0
LINE
  5
5B
100
AcDbEntity
  8
L1_90
  6
CENTER
 62
         1
100
AcDbLine
 10
1496.3033403763
 20
159.9846417294
 30
0.0
 11
1494.2033403763
 21
159.9846417294
 31
0.0
  0
LINE
  5
5C
100
AcDbEntity
  8
L1_90
  6
CENTER
 62
         1
100
AcDbLine
 10
1496.3033403763
 20
140.3846417294
 30
0.0
 11
1495.3033403763
 21
140.3846417294
 31
0.0
  0
ARC
  5
5D
100
AcDbEntity
  8
L1_90
  6
CENTER
 62
         1
100
AcDbCircle
 10
1493.2033403763
 20
160.6846417294
 30
0.0
 40
1.0
100
AcDbArc
 50
0.0
 51
90.0
  0
ARC
  5
5E
100
AcDbEntity
  8
L1_90
  6
CENTER
 62
         1
100
AcDbCircle
 10
1493.2033403763
 20
139.6846417294
 30
0.0
 40
1.0
100
AcDbArc
 50
270.0
 51
360.0
  0
LINE
  5
5F
100
AcDbEntity
  8
L1_90
  6
CENTER
 62
         1
100
AcDbLine
 10
1491.2033403763
 20
161.6846417294
 30
0.0
 11
1489.8913403763
 21
160.3726417294
 31
0.0
  0
LINE
  5
60
100
AcDbEntity
  8
L1_90
  6
CENTER
 62
         1
100
AcDbLine
 10
1499.8023784819
 20
138.586565518
 30
0.0
 11
1499.2816525398
 21
137.6846417294
 31
0.0
  0
ARC
  5
61
100
AcDbEntity
  8
L1_90
  6
CENTER
 62
         1
100
AcDbCircle
 10
1498.5033403763
 20
139.336565518
 30
0.0
 40
1.5
100
AcDbArc
 50
330.0
 51
360.0
  0
LINE
  5
62
100
AcDbEntity
  8
L1_90
  6
CENTER
 62
         1
100
AcDbLine
 10
1487.5033403763
 20
136.1846417294
 30
0.0
 11
1484.0033403763
 21
136.1846417294
 31
0.0
  0
ARC
  5
63
100
AcDbEntity
  8
L1_90
  6
CENTER
 62
         1
100
AcDbCircle
 10
1484.0033403763
 20
137.6846417294
 30
0.0
 40
1.5
100
AcDbArc
 50
180.0
 51
270.0
  0
ARC
  5
64
100
AcDbEntity
  8
L1_90
  6
CENTER
 62
         1
100
AcDbCircle
 10
1484.0033403763
 20
162.6846417294
 30
0.0
 40
1.5
100
AcDbArc
 50
90.0
 51
180.0
  0
LINE
  5
65
100
AcDbEntity
  8
L1_90
  6
CENTER
 62
         1
100
AcDbLine
 10
1499.8023784819
 20
161.7827179407
 30
0.0
 11
1499.2816525398
 21
162.6846417294
 31
0.0
  0
ARC
  5
66
100
AcDbEntity
  8
L1_90
  6
CENTER
 62
         1
100
AcDbCircle
 10
1498.5033403763
 20
161.0327179407
 30
0.0
 40
1.5
100
AcDbArc
 50
0.0
 51
30.0
  0
LINE
  5
67
100
AcDbEntity
  8
L1_90
  6
CENTER
 62
         1
100
AcDbLine
 10
1487.5033403762
 20
164.1846417294
 30
0.0
 11
1484.0033403763
 21
164.1846417294
 31
0.0
  0
LINE
  5
68
100
AcDbEntity
  8
L1_90
  6
CENTER
 62
         1
100
AcDbLine
 10
1499.2816525398
 20
137.6846417294
 30
0.0
 11
1488.9467160492
 21
137.6846417294
 31
0.0
  0
LINE
  5
69
100
AcDbEntity
  8
L1_90
  6
CENTER
 62
         1
100
AcDbLine
 10
1487.5033403763
 20
136.1846417294
 30
0.0
 11
1488.0806906454
 21
137.1846417294
 31
0.0
  0
LINE
  5
6A
100
AcDbEntity
  8
L1_90
  6
CENTER
 62
         1
100
AcDbLine
 10
1487.5033403762
 20
164.1846417294
 30
0.0
 11
1488.0806906454
 21
163.1846417294
 31
0.0
  0
LINE
  5
6B
100
AcDbEntity
  8
L1_90
  6
CENTER
 62
         1
100
AcDbLine
 10
1499.2816525398
 20
162.6846417294
 30
0.0
 11
1488.9467160492
 21
162.6846417294
 31
0.0
  0
LINE
  5
6C
100
AcDbEntity
  8
L1_90
  6
CENTER
 62
         1
100
AcDbLine
 10
1482.5033403763
 20
138.9346417294
 30
0.0
 11
1483.1164863621
 21
139.9966417294
 31
0.0
  0
LINE
  5
6D
100
AcDbEntity
  8
L1_90
  6
CENTER
 62
         1
100
AcDbLine
 10
1482.5033403763
 20
161.4346417294
 30
0.0
 11
1483.1164863621
 21
160.3726417294
 31
0.0
  0
LINE
  5
6E
100
AcDbEntity
  8
L1_90
  6
CENTER
 62
         1
100
AcDbLine
 10
1483.1164863621
 20
160.3726417294
 30
0.0
 11
1483.1164863621
 21
139.9966417294
 31
0.0
  0
LINE
  5
6F
100
AcDbEntity
  8
L1_90
  6
CENTER
 62
         1
100
AcDbLine
 10
1495.3033403763
 20
140.3846417294
 30
0.0
 11
1495.3033403763
 21
142.9846417294
 31
0.0
  0
LINE
  5
70
100
AcDbEntity
  8
L1_90
  6
CENTER
 62
         1
100
AcDbLine
 10
1490.7033403763
 20
161.1846417294
 30
0.0
 11
1482.6476779435
 21
161.1846417294
 31
0.0
  0
LINE
  5
71
100
AcDbEntity
  8
L1_90
  6
CENTER
 62
         1
100
AcDbLine
 10
1490.7033403763
 20
139.1846417294
 30
0.0
 11
1482.6476779435
 21
139.1846417294
 31
0.0
  0
INSERT
  5
80
100
AcDbEntity
  8
0
  6
CONTINUOUS
100
AcDbBlockReference
  2
*X2
 10
0.0
 20
0.0
 30
0.0
  0
INSERT
  5
91
100
AcDbEntity
  8
0
  6
CONTINUOUS
100
AcDbBlockReference
  2
*X3
 10
0.0
 20
0.0
 30
0.0
  0
INSERT
  5
99
100
AcDbEntity
  8
0
  6
CONTINUOUS
100
AcDbBlockReference
  2
*X4
 10
0.0
 20
0.0
 30
0.0
  0
INSERT
  5
A0
100
AcDbEntity
  8
0
  6
CONTINUOUS
100
AcDbBlockReference
  2
*X5
 10
0.0
 20
0.0
 30
0.0
  0
INSERT
  5
A9
100
AcDbEntity
  8
0
  6
CONTINUOUS
100
AcDbBlockReference
  2
*X6
 10
0.0
 20
0.0
 30
0.0
  0
LINE
  5
AA
100
AcDbEntity
  8
L1_90
  6
CONTINUOUS
 62
         7
100
AcDbLine
 10
1489.4033403763
 20
159.6846417294
 30
0.0
 11
1489.4033403763
 21
140.6846417294
 31
0.0
  0
ARC
  5
AB
100
AcDbEntity
  8
L1_90
  6
CONTINUOUS
 62
         7
100
AcDbCircle
 10
1487.9033403763
 20
159.6846417294
 30
0.0
 40
1.5
100
AcDbArc
 50
0.0
 51
90.0
  0
ARC
  5
AC
100
AcDbEntity
  8
L1_90
  6
CONTINUOUS
 62
         7
100
AcDbCircle
 10
1487.9033403763
 20
140.6846417294
 30
0.0
 40
1.5
100
AcDbArc
 50
270.0
 51
360.0
  0
LINE
  5
AD
100
AcDbEntity
  8
L1_90
  6
CONTINUOUS
 62
         4
100
AcDbLine
 10
1473.1706673642
 20
136.1846417294
 30
0.0
 11
1473.1706673642
 21
164.1846417294
 31
0.0
  0
LINE
  5
AE
100
AcDbEntity
  8
L1_90
  6
CONTINUOUS
 62
         7
100
AcDbLine
 10
1473.1706673642
 20
136.1846417294
 30
0.0
 11
1473.6706673642
 21
136.6846417294
 31
0.0
  0
LINE
  5
AF
100
AcDbEntity
  8
L1_90
  6
CONTINUOUS
 62
         7
100
AcDbLine
 10
1473.6706673642
 20
163.6846417294
 30
0.0
 11
1473.1706673642
 21
164.1846417294
 31
0.0
  0
LINE
  5
B0
100
AcDbEntity
  8
L1_90
  6
CONTINUOUS
 62
         7
100
AcDbLine
 10
1473.6706673642
 20
136.6846417294
 30
0.0
 11
1473.6706673642
 21
163.6846417294
 31
0.0
  0
LINE
  5
B1
100
AcDbEntity
  8
L1_90
  6
CONTINUOUS
 62
         7
100
AcDbLine
 10
1489.4033403763
 20
159.6846417294
 30
0.0
 11
1489.4033403763
 21
140.6846417294
 31
0.0
  0
LINE
  5
B2
100
AcDbEntity
  8
L1_90
  6
CONTINUOUS
 62
         7
100
AcDbLine
 10
1474.6706673642
 20
139.1846417294
 30
0.0
 11
1487.9033403763
 21
139.1846417294
 31
0.0
  0
LINE
  5
B3
100
AcDbEntity
  8
L1_90
  6
CONTINUOUS
 62
         7
100
AcDbLine
 10
1474.6706673642
 20
161.1846417294
 30
0.0
 11
1487.9033403763
 21
161.1846417294
 31
0.0
  0
LINE
  5
B4
100
AcDbEntity
  8
L1_90
  6
CONTINUOUS
 62
         4
100
AcDbLine
 10
1489.3175539386
 20
160.1846417294
 30
0.0
 11
1476.4033403763
 21
160.1846417294
 31
0.0
  0
LINE
  5
B5
100
AcDbEntity
  8
L1_90
  6
CONTINUOUS
 62
         4
100
AcDbLine
 10
1489.3175539386
 20
140.1846417294
 30
0.0
 11
1476.4033403763
 21
140.1846417294
 31
0.0
  0
LINE
  5
B6
100
AcDbEntity
  8
L1_90
  6
CONTINUOUS
 62
         7
100
AcDbLine
 10
1476.4033403763
 20
161.1846417294
 30
0.0
 11
1476.4033403763
 21
139.1846417294
 31
0.0
  0
ARC
  5
B7
100
AcDbEntity
  8
L1_90
  6
CONTINUOUS
 62
         7
100
AcDbCircle
 10
1474.6706673642
 20
162.1846417294
 30
0.0
 40
1.0
100
AcDbArc
 50
195.0
 51
270.0
  0
ARC
  5
B8
100
AcDbEntity
  8
L1_90
  6
CONTINUOUS
 62
         7
100
AcDbCircle
 10
1474.6706673642
 20
138.1846417294
 30
0.0
 40
1.0
100
AcDbArc
 50
90.0
 51
165.0
  0
ARC
  5
B9
100
AcDbEntity
  8
L1_90
  6
CONTINUOUS
 62
         7
100
AcDbCircle
 10
1487.9033403763
 20
159.6846417294
 30
0.0
 40
1.5
100
AcDbArc
 50
0.0
 51
90.0
  0
ARC
  5
BA
100
AcDbEntity
  8
L1_90
  6
CONTINUOUS
 62
         7
100
AcDbCircle
 10
1487.9033403763
 20
140.6846417294
 30
0.0
 40
1.5
100
AcDbArc
 50
270.0
 51
360.0
  0
DIMENSION
  5
BD
100
AcDbEntity
  8
L1_90
  6
CONTINUOUS
 62
         4
100
AcDbDimension
  2
*D7
 10
1513.4740622753
 20
164.1846417294
 30
0.0
 11
1511.4490622753
 21
141.838922774
 31
0.0
  3
DIMSTYLE1
100
AcDbAlignedDimension
 13
1471.564838823
 23
164.1846417294
 33
0.0
 14
1471.564838823
 24
136.1846417294
 34
0.0
 50
90.0
100
AcDbRotatedDimension
  0
INSERT
  5
124
100
AcDbEntity
  8
0
  6
CONTINUOUS
100
AcDbBlockReference
  2
*X8
 10
0.0
 20
0.0
 30
0.0
  0
ARC
  5
125
100
AcDbEntity
  8
L1_90
  6
CONTINUOUS
 62
         7
100
AcDbCircle
 10
1371.1798140024
 20
55.2708352639
 30
0.0
 40
4.08
100
AcDbArc
 50
270.0
 51
450.0
  0
ARC
  5
126
100
AcDbEntity
  8
L1_90
  6
CONTINUOUS
 62
         7
100
AcDbCircle
 10
1371.1798140024
 20
55.2708352639
 30
0.0
 40
3.7
100
AcDbArc
 50
285.6803501348
 51
434.3196498652
  0
DIMENSION
  5
129
100
AcDbEntity
  8
L1_90
  6
CONTINUOUS
 62
         4
100
AcDbDimension
  2
*D9
 10
1370.1798140024
 20
68.3708172516
 30
0.0
 11
1369.8298140024
 21
70.3958172516
 31
0.0
  3
DIMSTYLE1
100
AcDbAlignedDimension
 13
1370.1798140024
 23
60.7350849837
 33
0.0
 14
1372.1798140024
 24
60.7350849837
 34
0.0
100
AcDbRotatedDimension
  0
CIRCLE
  5
137
100
AcDbEntity
  8
L1_90
  6
CONTINUOUS
 62
         7
100
AcDbCircle
 10
1371.1798140024
 20
55.2708352639
 30
0.0
 40
1.5
  0
LINE
  5
138
100
AcDbEntity
  8
L1_90
  6
CONTINUOUS
 62
         7
100
AcDbLine
 10
1370.1798140024
 20
51.3152822052
 30
0.0
 11
1370.1798140024
 21
54.1528012751
 31
0.0
  0
LINE
  5
139
100
AcDbEntity
  8
L1_90
  6
CONTINUOUS
 62
         7
100
AcDbLine
 10
1372.1798140024
 20
51.3152822052
 30
0.0
 11
1372.1798140024
 21
54.1528012751
 31
0.0
  0
LINE
  5
13A
100
AcDbEntity
  8
L1_90
  6
CONTINUOUS
 62
         7
100
AcDbLine
 10
1370.1798140024
 20
56.3888692526
 30
0.0
 11
1370.1798140024
 21
59.2263883226
 31
0.0
  0
LINE
  5
13B
100
AcDbEntity
  8
L1_90
  6
CONTINUOUS
 62
         7
100
AcDbLine
 10
1372.1798140024
 20
56.3888692526
 30
0.0
 11
1372.1798140024
 21
59.2263883226
 31
0.0
  0
DIMENSION
  5
13E
100
AcDbEntity
  8
L1_90
  6
CONTINUOUS
 62
         4
100
AcDbDimension
  2
*D10
 10
1388.5757996793
 20
66.9442365759
 30
0.0
 11
1392.3757996793
 21
68.9692365759
 31
0.0
  3
DIMSTYLE1
100
AcDbAlignedDimension
 13
1388.5757996793
 23
58.8508352639
 33
0.0
 14
1401.5757996793
 24
58.8508352639
 34
0.0
100
AcDbRotatedDimension
  0
LINE
  5
14A
100
AcDbEntity
  8
L1_90
  6
DASHED
 62
         2
100
AcDbLine
 10
1399.7757996793
 20
53.6831220236
 30
0.0
 11
1390.3757996793
 21
53.6831220236
 31
0.0
  0
LINE
  5
14B
100
AcDbEntity
  8
L1_90
  6
DASHED
 62
         2
100
AcDbLine
 10
1399.7757996793
 20
56.8585485042
 30
0.0
 11
1390.3757996793
 21
56.8585485042
 31
0.0
  0
LINE
  5
14C
100
AcDbEntity
  8
L1_90
  6
DASHED
 62
         2
100
AcDbLine
 10
1399.7757996793
 20
52.0954087833
 30
0.0
 11
1390.3757996793
 21
52.0954087833
 31
0.0
  0
LINE
  5
14D
100
AcDbEntity
  8
L1_90
  6
DASHED
 62
         2
100
AcDbLine
 10
1399.7757996793
 20
58.4462617444
 30
0.0
 11
1390.3757996793
 21
58.4462617444
 31
0.0
  0
ARC
  5
14E
100
AcDbEntity
  8
L1_90
  6
CONTINUOUS
 62
         7
100
AcDbCircle
 10
1371.1798140024
 20
55.2708352639
 30
0.0
 40
3.7
100
AcDbArc
 50
105.6803501348
 51
254.3196498652
  0
LINE
  5
14F
100
AcDbEntity
  8
L1_90
  6
CONTINUOUS
 62
         4
100
AcDbLine
 10
1391.2607996793
 20
50.5058352639
 30
0.0
 11
1398.8907996793
 21
50.5058352639
 31
0.0
  0
LINE
  5
150
100
AcDbEntity
  8
L1_90
  6
CONTINUOUS
 62
         4
100
AcDbLine
 10
1391.2607996793
 20
60.0358352639
 30
0.0
 11
1398.8907996793
 21
60.0358352639
 31
0.0
  0
CIRCLE
  5
151
100
AcDbEntity
  8
L1_90
  6
CONTINUOUS
 62
         7
100
AcDbCircle
 10
1371.1798140024
 20
55.2708352639
 30
0.0
 40
5.555
  0
ARC
  5
152
100
AcDbEntity
  8
L1_90
  6
CONTINUOUS
 62
         7
100
AcDbCircle
 10
1371.1798140024
 20
55.2708352639
 30
0.0
 40
4.08
100
AcDbArc
 50
90.0
 51
270.0
  0
LINE
  5
153
100
AcDbEntity
  8
L1_90
  6
DASHED
 62
         2
100
AcDbLine
 10
1390.3757996793
 20
51.1908352639
 30
0.0
 11
1390.3757996793
 21
59.3508352639
 31
0.0
  0
LINE
  5
154
100
AcDbEntity
  8
L1_90
  6
DASHED
 62
         2
100
AcDbLine
 10
1399.7757996793
 20
51.1908352639
 30
0.0
 11
1399.7757996793
 21
59.3508352639
 31
0.0
  0
LINE
  5
155
100
AcDbEntity
  8
L1_90
  6
CONTINUOUS
 62
         7
100
AcDbLine
 10
1389.0757996793
 20
51.1908352639
 30
0.0
 11
1388.5757996793
 21
51.6908352639
 31
0.0
  0
LINE
  5
156
100
AcDbEntity
  8
L1_90
  6
CONTINUOUS
 62
         7
100
AcDbLine
 10
1389.0757996793
 20
51.1908352639
 30
0.0
 11
1390.5757996793
 21
51.1908352639
 31
0.0
  0
LINE
  5
157
100
AcDbEntity
  8
L1_90
  6
CONTINUOUS
 62
         7
100
AcDbLine
 10
1401.0757996793
 20
51.1908352639
 30
0.0
 11
1401.5757996793
 21
51.6908352639
 31
0.0
  0
LINE
  5
158
100
AcDbEntity
  8
L1_90
  6
CONTINUOUS
 62
         7
100
AcDbLine
 10
1399.5757996793
 20
51.1908352639
 30
0.0
 11
1401.0757996793
 21
51.1908352639
 31
0.0
  0
LINE
  5
159
100
AcDbEntity
  8
L1_90
  6
CONTINUOUS
 62
         7
100
AcDbLine
 10
1398.1007996793
 20
49.7158352639
 30
0.0
 11
1399.5757996793
 21
51.1908352639
 31
0.0
  0
LINE
  5
15A
100
AcDbEntity
  8
L1_90
  6
CONTINUOUS
 62
         7
100
AcDbLine
 10
1392.0507996793
 20
49.7158352639
 30
0.0
 11
1390.5757996793
 21
51.1908352639
 31
0.0
  0
LINE
  5
15B
100
AcDbEntity
  8
L1_90
  6
CONTINUOUS
 62
         7
100
AcDbLine
 10
1392.0507996793
 20
49.7158352639
 30
0.0
 11
1398.1007996793
 21
49.7158352639
 31
0.0
  0
LINE
  5
15C
100
AcDbEntity
  8
L1_90
  6
CONTINUOUS
 62
         7
100
AcDbLine
 10
1401.0757996793
 20
51.1908352639
 30
0.0
 11
1401.0757996793
 21
59.3508352639
 31
0.0
  0
LINE
  5
15D
100
AcDbEntity
  8
L1_90
  6
CONTINUOUS
 62
         7
100
AcDbLine
 10
1389.0757996793
 20
51.1908352639
 30
0.0
 11
1389.0757996793
 21
59.3508352639
 31
0.0
  0
LINE
  5
15E
100
AcDbEntity
  8
L1_90
  6
CONTINUOUS
 62
         7
100
AcDbLine
 10
1389.0757996793
 20
59.3508352639
 30
0.0
 11
1388.5757996793
 21
58.8508352639
 31
0.0
  0
LINE
  5
15F
100
AcDbEntity
  8
L1_90
  6
CONTINUOUS
 62
         7
100
AcDbLine
 10
1401.0757996793
 20
59.3508352639
 30
0.0
 11
1401.5757996793
 21
58.8508352639
 31
0.0
  0
LINE
  5
160
100
AcDbEntity
  8
L1_90
  6
CONTINUOUS
 62
         7
100
AcDbLine
 10
1392.0507996793
 20
60.8258352639
 30
0.0
 11
1390.5757996793
 21
59.3508352639
 31
0.0
  0
LINE
  5
161
100
AcDbEntity
  8
L1_90
  6
CONTINUOUS
 62
         7
100
AcDbLine
 10
1398.1007996793
 20
60.8258352639
 30
0.0
 11
1399.5757996793
 21
59.3508352639
 31
0.0
  0
LINE
  5
162
100
AcDbEntity
  8
L1_90
  6
CONTINUOUS
 62
         7
100
AcDbLine
 10
1399.5757996793
 20
59.3508352639
 30
0.0
 11
1401.0757996793
 21
59.3508352639
 31
0.0
  0
LINE
  5
163
100
AcDbEntity
  8
L1_90
  6
CONTINUOUS
 62
         7
100
AcDbLine
 10
1392.0507996793
 20
60.8258352639
 30
0.0
 11
1398.1007996793
 21
60.8258352639
 31
0.0
  0
LINE
  5
164
100
AcDbEntity
  8
L1_90
  6
CONTINUOUS
 62
         7
100
AcDbLine
 10
1389.0757996793
 20
59.3508352639
 30
0.0
 11
1390.5757996793
 21
59.3508352639
 31
0.0
  0
LINE
  5
165
100
AcDbEntity
  8
L1_90
  6
CONTINUOUS
 62
         7
100
AcDbLine
 10
1399.5757996793
 20
51.1908352639
 30
0.0
 11
1399.5757996793
 21
59.3508352639
 31
0.0
  0
LINE
  5
166
100
AcDbEntity
  8
L1_90
  6
CONTINUOUS
 62
         7
100
AcDbLine
 10
1401.5757996793
 20
51.6908352639
 30
0.0
 11
1401.5757996793
 21
58.8508352639
 31
0.0
  0
LINE
  5
167
100
AcDbEntity
  8
L1_90
  6
CONTINUOUS
 62
         7
100
AcDbLine
 10
1390.5757996793
 20
51.1908352639
 30
0.0
 11
1390.5757996793
 21
59.3508352639
 31
0.0
  0
LINE
  5
168
100
AcDbEntity
  8
L1_90
  6
CONTINUOUS
 62
         7
100
AcDbLine
 10
1388.5757996793
 20
51.6908352639
 30
0.0
 11
1388.5757996793
 21
58.8508352639
 31
0.0
  0
LINE
  5
169
100
AcDbEntity
  8
L1_90
  6
CENTER
 62
         1
100
AcDbLine
 10
1387.2738428439
 20
55.2708352639
 30
0.0
 11
1402.7733715914
 21
55.2708352639
 31
0.0
  0
LINE
  5
16A
100
AcDbEntity
  8
L1_90
  6
CENTER
 62
         1
100
AcDbLine
 10
1371.1798140024
 20
46.9961549507
 30
0.0
 11
1371.1798140024
 21
63.5125492032
 31
0.0
  0
LINE
  5
16B
100
AcDbEntity
  8
L1_90
  6
CENTER
 62
         1
100
AcDbLine
 10
1378.920916703
 20
55.2708352639
 30
0.0
 11
1363.2362833121
 21
55.2708352639
 31
0.0
  0
DIMENSION
  5
16E
100
AcDbEntity
  8
L1_90
  6
CONTINUOUS
 62
         4
100
AcDbDimension
  2
*D11
 10
1412.5884664211
 20
60.8258352639
 30
0.0
 11
1410.5634664211
 21
63.4296342268
 31
0.0
  3
DIMSTYLE1
100
AcDbAlignedDimension
 13
1398.1007996793
 23
60.8258352639
 33
0.0
 14
1398.1007996793
 24
49.7158352639
 34
0.0
 50
90.0
100
AcDbRotatedDimension
  0
LINE
  5
17B
100
AcDbEntity
  8
L1_90
  6
CONTINUOUS
 62
         7
100
AcDbLine
 10
1412.8533372312
 20
7.2303182282
 30
0.0
 11
1412.8533313575
 21
-7.8683347407
 31
0.0
  0
LINE
  5
17C
100
AcDbEntity
  8
L1_90
  6
CONTINUOUS
 62
         7
100
AcDbLine
 10
1412.8533380417
 20
9.3139422217
 30
0.0
 11
1413.0788387897
 21
9.1560448981
 31
0.0
  0
LINE
  5
17D
100
AcDbEntity
  8
L1_90
  6
CONTINUOUS
 62
         7
100
AcDbLine
 10
1412.8533386897
 20
10.9795926197
 30
0.0
 11
1412.8533380417
 21
9.3139422217
 31
0.0
  0
LINE
  5
17E
100
AcDbEntity
  8
L1_90
  6
CONTINUOUS
 62
         7
100
AcDbLine
 10
1413.0788387897
 20
9.1560448981
 30
0.0
 11
1412.9127847976
 21
7.2580390837
 31
0.0
  0
LINE
  5
17F
100
AcDbEntity
  8
L1_90
  6
CONTINUOUS
 62
         7
100
AcDbLine
 10
1413.0788387897
 20
9.1560448983
 30
0.0
 11
1412.9127847976
 21
7.2580390839
 31
0.0
  0
LINE
  5
180
100
AcDbEntity
  8
L1_90
  6
CONTINUOUS
 62
         7
100
AcDbLine
 10
1404.6082997218
 20
-7.8683347407
 30
0.0
 11
1404.6082997218
 21
-18.0183347407
 31
0.0
  0
LINE
  5
181
100
AcDbEntity
  8
L1_90
  6
CONTINUOUS
 62
         7
100
AcDbLine
 10
1467.4033403763
 20
-7.8683347407
 30
0.0
 11
1404.6082997218
 21
-7.8683347407
 31
0.0
  0
LINE
  5
182
100
AcDbEntity
  8
L1_90
  6
CONTINUOUS
 62
         7
100
AcDbLine
 10
1467.4033403763
 20
-18.0183347407
 30
0.0
 11
1404.6082997218
 21
-18.0183347407
 31
0.0
  0
DIMENSION
  5
185
100
AcDbEntity
  8
L1_90
  6
CONTINUOUS
 62
         4
100
AcDbDimension
  2
*D12
 10
1472.3592966277
 20
-40.6605251296
 30
0.0
 11
1478.6848147462
 21
-38.6355251296
 31
0.0
  3
DIMSTYLE1
100
AcDbAlignedDimension
 13
1472.3592966277
 23
-18.5483347407
 33
0.0
 14
1489.4033403763
 24
-22.2476489825
 34
0.0
100
AcDbRotatedDimension
  0
LINE
  5
191
100
AcDbEntity
  8
L1_90
  6
CONTINUOUS
 62
         7
100
AcDbLine
 10
1472.3592966277
 20
-7.3383347407
 30
0.0
 11
1472.3592966277
 21
-18.5483347407
 31
0.0
  0
LINE
  5
192
100
AcDbEntity
  8
L1_90
  6
CONTINUOUS
 62
         7
100
AcDbLine
 10
1472.3592966277
 20
-18.5483347407
 30
0.0
 11
1467.4033403763
 21
-18.5483347407
 31
0.0
  0
LINE
  5
193
100
AcDbEntity
  8
L1_90
  6
CONTINUOUS
 62
         7
100
AcDbLine
 10
1467.4033403763
 20
-7.3383347407
 30
0.0
 11
1467.4033403763
 21
-18.5483347407
 31
0.0
  0
LINE
  5
194
100
AcDbEntity
  8
L1_90
  6
CONTINUOUS
 62
         7
100
AcDbLine
 10
1472.3592966277
 20
-7.3383347407
 30
0.0
 11
1467.4033403763
 21
-7.3383347407
 31
0.0
  0
DIMENSION
  5
197
100
AcDbEntity
  8
L1_90
  6
CONTINUOUS
 62
         4
100
AcDbDimension
  2
*D13
 10
1507.4959462662
 20
-7.3383347407
 30
0.0
 11
1505.4709462662
 21
-18.185350553
 31
0.0
  3
DIMSTYLE1
100
AcDbAlignedDimension
 13
1472.3592966277
 23
-7.3383347407
 33
0.0
 14
1472.3592966277
 24
-18.5483347407
 34
0.0
 50
90.0
100
AcDbRotatedDimension
  0
LINE
  5
1A3
100
AcDbEntity
  8
L1_90
  6
CONTINUOUS
 62
         4
100
AcDbLine
 10
1467.4033403763
 20
-7.3883347407
 30
0.0
 11
1414.4033403763
 21
-7.3883347407
 31
0.0
  0
LINE
  5
1A4
100
AcDbEntity
  8
L1_90
  6
CONTINUOUS
 62
         4
100
AcDbLine
 10
1467.4033403763
 20
-18.4983347407
 30
0.0
 11
1414.4033403763
 21
-18.4983347407
 31
0.0
  0
DIMENSION
  5
1A8
100
AcDbEntity
  8
L1_90
  6
CONTINUOUS
 62
         4
100
AcDbDimension
  2
*D14
 10
1491.8642987168
 20
77.1964100581
 30
0.0
 11
1489.2392987168
 21
55.9464100581
 31
0.0
  3
DIMSTYLE2
100
AcDbAlignedDimension
 13
1504.4237021944
 23
77.1964100581
 33
0.0
 14
1504.4237021944
 24
52.1964100581
 34
0.0
 50
90.0
100
AcDbRotatedDimension
  0
LINE
  5
1B4
100
AcDbEntity
  8
L1_90
  6
CONTINUOUS
 62
         7
100
AcDbLine
 10
1496.7507647003
 20
63.906492475
 30
0.0
 11
1503.0555248068
 21
52.9863276411
 31
0.0
  0
LINE
  5
1B5
100
AcDbEntity
  8
L1_90
  6
CONTINUOUS
 62
         7
100
AcDbLine
 10
1517.0332224073
 20
52.1964100581
 30
0.0
 11
1504.4237021944
 21
52.1964100581
 31
0.0
  0
LINE
  5
1B6
100
AcDbEntity
  8
L1_90
  6
CONTINUOUS
 62
         7
100
AcDbLine
 10
1524.7061599014
 20
63.9064924751
 30
0.0
 11
1518.4013997949
 21
52.9863276411
 31
0.0
  0
LINE
  5
1B7
100
AcDbEntity
  8
L1_90
  6
CONTINUOUS
 62
         7
100
AcDbLine
 10
1518.4013997949
 20
76.4064924751
 30
0.0
 11
1524.7061599014
 21
65.4863276411
 31
0.0
  0
LINE
  5
1B8
100
AcDbEntity
  8
L1_90
  6
CONTINUOUS
 62
         7
100
AcDbLine
 10
1517.0332224073
 20
77.1964100581
 30
0.0
 11
1504.4237021944
 21
77.1964100581
 31
0.0
  0
LINE
  5
1B9
100
AcDbEntity
  8
L1_90
  6
CONTINUOUS
 62
         7
100
AcDbLine
 10
1503.0555248068
 20
76.4064924751
 30
0.0
 11
1496.7507647003
 21
65.4863276411
 31
0.0
  0
CIRCLE
  5
1BA
100
AcDbEntity
  8
L1_90
  6
CONTINUOUS
 62
         7
100
AcDbCircle
 10
1510.7284623009
 20
64.6964100581
 30
0.0
 40
11.0
  0
CIRCLE
  5
1BB
100
AcDbEntity
  8
L1_90
  6
CONTINUOUS
 62
         7
100
AcDbCircle
 10
1510.7284623009
 20
64.6964100581
 30
0.0
 40
6.1414537348
  0
CIRCLE
  5
1BC
100
AcDbEntity
  8
L1_90
  6
CONTINUOUS
 62
         7
100
AcDbCircle
 10
1510.7284623009
 20
64.6964100581
 30
0.0
 40
14.0
  0
LINE
  5
1BD
100
AcDbEntity
  8
L1_90
  6
CENTER
 62
         1
100
AcDbLine
 10
1527.7722225342
 20
64.6964100581
 30
0.0
 11
1492.9293735625
 21
64.6964100581
 31
0.0
  0
LINE
  5
1BE
100
AcDbEntity
  8
L1_90
  6
CENTER
 62
         1
100
AcDbLine
 10
1510.7284623009
 20
82.059176549
 30
0.0
 11
1510.7284623009
 21
47.8029075264
 31
0.0
  0
DIMENSION
  5
1C1
100
AcDbEntity
  8
L1_90
  6
CONTINUOUS
 62
         4
100
AcDbDimension
  2
*D15
 10
1567.4121216697
 20
53.6964100581
 30
0.0
 11
1564.7871216697
 21
54.8589517177
 31
0.0
  3
DIMSTYLE2
100
AcDbAlignedDimension
 13
1554.2440119293
 23
53.6964100581
 33
0.0
 14
1546.1883494966
 24
75.6964100581
 34
0.0
 50
90.0
100
AcDbRotatedDimension
  0
LINE
  5
1CD
100
AcDbEntity
  8
L1_90
  6
CONTINUOUS
 62
         7
100
AcDbLine
 10
1541.5883494966
 20
74.4964100581
 30
0.0
 11
1541.5883494966
 21
71.8964100581
 31
0.0
  0
LINE
  5
1CE
100
AcDbEntity
  8
L1_90
  6
CONTINUOUS
 62
         7
100
AcDbLine
 10
1553.7752035107
 20
54.5084100581
 30
0.0
 11
1553.7752035107
 21
74.8844100581
 31
0.0
  0
LINE
  5
1CF
100
AcDbEntity
  8
L1_90
  6
CONTINUOUS
 62
         7
100
AcDbLine
 10
1554.3883494966
 20
53.4464100581
 30
0.0
 11
1553.7752035107
 21
54.5084100581
 31
0.0
  0
LINE
  5
1D0
100
AcDbEntity
  8
L1_90
  6
CONTINUOUS
 62
         7
100
AcDbLine
 10
1554.3883494966
 20
75.9464100581
 30
0.0
 11
1553.7752035107
 21
74.8844100581
 31
0.0
  0
LINE
  5
1D1
100
AcDbEntity
  8
L1_90
  6
CONTINUOUS
 62
         7
100
AcDbLine
 10
1537.6100373331
 20
52.1964100581
 30
0.0
 11
1547.9449738236
 21
52.1964100581
 31
0.0
  0
LINE
  5
1D2
100
AcDbEntity
  8
L1_90
  6
CONTINUOUS
 62
         7
100
AcDbLine
 10
1549.3883494966
 20
50.6964100581
 30
0.0
 11
1548.8109992274
 21
51.6964100581
 31
0.0
  0
LINE
  5
1D3
100
AcDbEntity
  8
L1_90
  6
CONTINUOUS
 62
         7
100
AcDbLine
 10
1549.3883494966
 20
78.6964100581
 30
0.0
 11
1548.8109992274
 21
77.6964100581
 31
0.0
  0
LINE
  5
1D4
100
AcDbEntity
  8
L1_90
  6
CONTINUOUS
 62
         7
100
AcDbLine
 10
1537.6100373331
 20
77.1964100581
 30
0.0
 11
1547.9449738236
 21
77.1964100581
 31
0.0
  0
LINE
  5
1D5
100
AcDbEntity
  8
L1_90
  6
CONTINUOUS
 62
         7
100
AcDbLine
 10
1549.3883494966
 20
50.6964100581
 30
0.0
 11
1552.8883494966
 21
50.6964100581
 31
0.0
  0
ARC
  5
1D6
100
AcDbEntity
  8
L1_90
  6
CONTINUOUS
 62
         7
100
AcDbCircle
 10
1538.3883494966
 20
53.8483338467
 30
0.0
 40
1.5
100
AcDbArc
 50
180.0
 51
210.0
  0
LINE
  5
1D7
100
AcDbEntity
  8
L1_90
  6
CONTINUOUS
 62
         7
100
AcDbLine
 10
1537.0893113909
 20
53.0983338467
 30
0.0
 11
1537.6100373331
 21
52.1964100581
 31
0.0
  0
ARC
  5
1D8
100
AcDbEntity
  8
L1_90
  6
CONTINUOUS
 62
         7
100
AcDbCircle
 10
1552.8883494966
 20
52.1964100581
 30
0.0
 40
1.5
100
AcDbArc
 50
270.0
 51
360.0
  0
ARC
  5
1D9
100
AcDbEntity
  8
L1_90
  6
CONTINUOUS
 62
         7
100
AcDbCircle
 10
1552.8883494966
 20
77.1964100581
 30
0.0
 40
1.5
100
AcDbArc
 50
0.0
 51
90.0
  0
LINE
  5
1DA
100
AcDbEntity
  8
L1_90
  6
CONTINUOUS
 62
         7
100
AcDbLine
 10
1549.3883494966
 20
78.6964100581
 30
0.0
 11
1552.8883494966
 21
78.6964100581
 31
0.0
  0
ARC
  5
1DB
100
AcDbEntity
  8
L1_90
  6
CONTINUOUS
 62
         7
100
AcDbCircle
 10
1538.3883494966
 20
75.5444862694
 30
0.0
 40
1.5
100
AcDbArc
 50
150.0
 51
180.0
  0
LINE
  5
1DC
100
AcDbEntity
  8
L1_90
  6
CONTINUOUS
 62
         7
100
AcDbLine
 10
1537.0893113909
 20
76.2944862694
 30
0.0
 11
1537.6100373331
 21
77.1964100581
 31
0.0
  0
LINE
  5
1DD
100
AcDbEntity
  8
L1_90
  6
CONTINUOUS
 62
         7
100
AcDbLine
 10
1545.6883494966
 20
53.1964100581
 30
0.0
 11
1547.0003494966
 21
54.5084100581
 31
0.0
  0
ARC
  5
1DE
100
AcDbEntity
  8
L1_90
  6
CONTINUOUS
 62
         7
100
AcDbCircle
 10
1543.6883494966
 20
75.1964100581
 30
0.0
 40
1.0
100
AcDbArc
 50
90.0
 51
180.0
  0
ARC
  5
1DF
100
AcDbEntity
  8
L1_90
  6
CONTINUOUS
 62
         7
100
AcDbCircle
 10
1543.6883494966
 20
54.1964100581
 30
0.0
 40
1.0
100
AcDbArc
 50
180.0
 51
270.0
  0
LINE
  5
1E0
100
AcDbEntity
  8
L1_90
  6
CONTINUOUS
 62
         7
100
AcDbLine
 10
1540.5883494966
 20
74.4964100581
 30
0.0
 11
1541.5883494966
 21
74.4964100581
 31
0.0
  0
LINE
  5
1E1
100
AcDbEntity
  8
L1_90
  6
CONTINUOUS
 62
         7
100
AcDbLine
 10
1540.5883494966
 20
54.8964100581
 30
0.0
 11
1542.6883494966
 21
54.8964100581
 31
0.0
  0
LINE
  5
1E2
100
AcDbEntity
  8
L1_90
  6
CONTINUOUS
 62
         7
100
AcDbLine
 10
1540.5883494966
 20
74.4964100581
 30
0.0
 11
1540.5883494966
 21
54.8964100581
 31
0.0
  0
LINE
  5
1E3
100
AcDbEntity
  8
L1_90
  6
CONTINUOUS
 62
         7
100
AcDbLine
 10
1543.6883494966
 20
53.1964100581
 30
0.0
 11
1545.6883494966
 21
53.1964100581
 31
0.0
  0
LINE
  5
1E4
100
AcDbEntity
  8
L1_90
  6
CONTINUOUS
 62
         7
100
AcDbLine
 10
1543.6883494966
 20
76.1964100581
 30
0.0
 11
1545.6883494966
 21
76.1964100581
 31
0.0
  0
LINE
  5
1E5
100
AcDbEntity
  8
L1_90
  6
CONTINUOUS
 62
         7
100
AcDbLine
 10
1545.6883494966
 20
76.1964100581
 30
0.0
 11
1545.6883494966
 21
53.1964100581
 31
0.0
  0
LINE
  5
1E6
100
AcDbEntity
  8
L1_90
  6
CONTINUOUS
 62
         4
100
AcDbLine
 10
1546.1883494966
 20
53.6964100581
 30
0.0
 11
1554.2440119293
 21
53.6964100581
 31
0.0
  0
LINE
  5
1E7
100
AcDbEntity
  8
L1_90
  6
CONTINUOUS
 62
         4
100
AcDbLine
 10
1546.1883494966
 20
75.6964100581
 30
0.0
 11
1554.2440119293
 21
75.6964100581
 31
0.0
  0
LINE
  5
1E8
100
AcDbEntity
  8
L1_90
  6
CONTINUOUS
 62
         7
100
AcDbLine
 10
1547.0003494966
 20
54.5084100581
 30
0.0
 11
1553.7752035107
 21
54.5084100581
 31
0.0
  0
LINE
  5
1E9
100
AcDbEntity
  8
L1_90
  6
CONTINUOUS
 62
         7
100
AcDbLine
 10
1547.0003494966
 20
74.8844100581
 30
0.0
 11
1553.7752035107
 21
74.8844100581
 31
0.0
  0
LINE
  5
1EA
100
AcDbEntity
  8
L1_90
  6
CONTINUOUS
 62
         7
100
AcDbLine
 10
1541.5883494966
 20
71.8964100581
 30
0.0
 11
1542.6883494966
 21
71.8964100581
 31
0.0
  0
LINE
  5
1EB
100
AcDbEntity
  8
L1_90
  6
CONTINUOUS
 62
         7
100
AcDbLine
 10
1540.5883494966
 20
56.4187603273
 30
0.0
 11
1536.8883494966
 21
58.5549563233
 31
0.0
  0
LINE
  5
1EC
100
AcDbEntity
  8
L1_90
  6
CONTINUOUS
 62
         7
100
AcDbLine
 10
1540.5883494966
 20
72.9740597889
 30
0.0
 11
1536.8883494966
 21
70.8378637929
 31
0.0
  0
LINE
  5
1ED
100
AcDbEntity
  8
L1_90
  6
CONTINUOUS
 62
         7
100
AcDbLine
 10
1542.6883494966
 20
75.1964100581
 30
0.0
 11
1542.6883494966
 21
54.1964100581
 31
0.0
  0
LINE
  5
1EE
100
AcDbEntity
  8
L1_90
  6
CONTINUOUS
 62
         7
100
AcDbLine
 10
1541.5883494966
 20
71.8964100581
 30
0.0
 11
1541.5883494966
 21
54.8964100581
 31
0.0
  0
LINE
  5
1EF
100
AcDbEntity
  8
L1_90
  6
CONTINUOUS
 62
         7
100
AcDbLine
 10
1536.8883494966
 20
75.5444862694
 30
0.0
 11
1536.8883494966
 21
53.8483338467
 31
0.0
  0
LINE
  5
1F0
100
AcDbEntity
  8
L1_90
  6
CENTER
 62
         1
100
AcDbLine
 10
1535.2969609237
 20
64.6964100581
 30
0.0
 11
1556.1239316031
 21
64.6964100581
 31
0.0
  0
LINE
  5
1F1
100
AcDbEntity
  8
L1_90
  6
CONTINUOUS
 62
         7
100
AcDbLine
 10
1554.3883494966
 20
77.1964100581
 30
0.0
 11
1554.3883494966
 21
52.1964100581
 31
0.0
  0
ARC
  5
1F2
100
AcDbEntity
  8
L1_90
  6
CONTINUOUS
 62
         7
100
AcDbCircle
 10
1547.9449738236
 20
78.1964100581
 30
0.0
 40
1.0
100
AcDbArc
 50
270.0
 51
330.0
  0
ARC
  5
1F3
100
AcDbEntity
  8
L1_90
  6
CONTINUOUS
 62
         7
100
AcDbCircle
 10
1547.9449738236
 20
51.1964100581
 30
0.0
 40
1.0
100
AcDbArc
 50
30.0
 51
90.0
  0
LINE
  5
1F4
100
AcDbEntity
  8
L1_90
  6
CONTINUOUS
 62
         7
100
AcDbLine
 10
1547.0003494966
 20
54.5084100581
 30
0.0
 11
1547.0003494966
 21
74.8844100581
 31
0.0
  0
LINE
  5
1F5
100
AcDbEntity
  8
L1_90
  6
CONTINUOUS
 62
         7
100
AcDbLine
 10
1545.6883494966
 20
76.1964100581
 30
0.0
 11
1547.0003494966
 21
74.8844100581
 31
0.0
  0
INSERT
  5
206
100
AcDbEntity
  8
0
  6
CONTINUOUS
100
AcDbBlockReference
  2
*X16
 10
0.0
 20
0.0
 30
0.0
  0
INSERT
  5
20F
100
AcDbEntity
  8
0
  6
CONTINUOUS
100
AcDbBlockReference
  2
*X17
 10
0.0
 20
0.0
 30
0.0
  0
INSERT
  5
21E
100
AcDbEntity
  8
0
  6
CONTINUOUS
100
AcDbBlockReference
  2
*X18
 10
0.0
 20
0.0
 30
0.0
  0
INSERT
  5
226
100
AcDbEntity
  8
0
  6
CONTINUOUS
100
AcDbBlockReference
  2
*X19
 10
0.0
 20
0.0
 30
0.0
  0
INSERT
  5
22D
100
AcDbEntity
  8
0
  6
CONTINUOUS
100
AcDbBlockReference
  2
*X20
 10
0.0
 20
0.0
 30
0.0
  0
DIMENSION
  5
230
100
AcDbEntity
  8
L1_90
  6
CONTINUOUS
 62
         4
100
AcDbDimension
  2
*D21
 10
1554.3883494966
 20
85.86236692
 30
0.0
 11
1538.6383494966
 21
88.48736692
 31
0.0
  3
DIMSTYLE2
100
AcDbAlignedDimension
 13
1554.3883494966
 23
77.1964100581
 33
0.0
 14
1536.8883494966
 24
75.5444862694
 34
0.0
100
AcDbRotatedDimension
  0
DIMENSION
  5
23E
100
AcDbEntity
  8
L1_90
  6
CONTINUOUS
 62
         4
100
AcDbDimension
  2
*D22
 10
1576.4485818152
 20
78.6964100581
 30
0.0
 11
1573.8235818152
 21
56.4382381416
 31
0.0
  3
DIMSTYLE2
100
AcDbAlignedDimension
 13
1552.8883494966
 23
78.6964100581
 33
0.0
 14
1552.8883494966
 24
50.6964100581
 34
0.0
 50
90.0
100
AcDbRotatedDimension
  0
ARC
  5
24A
100
AcDbEntity
  8
L1_90
  6
CONTINUOUS
 62
         7
100
AcDbCircle
 10
1438.0553403763
 20
-29.9433347407
 30
0.0
 40
3.0
100
AcDbArc
 50
90.0
 51
180.0
  0
ARC
  5
24B
100
AcDbEntity
  8
L1_90
  6
CONTINUOUS
 62
         7
100
AcDbCircle
 10
1438.0553403763
 20
4.0566652593
 30
0.0
 40
3.0
100
AcDbArc
 50
180.0
 51
270.0
  0
ARC
  5
24C
100
AcDbEntity
  8
L1_90
  6
CONTINUOUS
 62
         7
100
AcDbCircle
 10
1438.0553403763
 20
133.1846417294
 30
0.0
 40
3.0
100
AcDbArc
 50
90.0
 51
180.0
  0
ARC
  5
24D
100
AcDbEntity
  8
L1_90
  6
CONTINUOUS
 62
         7
100
AcDbCircle
 10
1438.0553403763
 20
167.1846417294
 30
0.0
 40
3.0
100
AcDbArc
 50
180.0
 51
270.0
  0
LINE
  5
24E
100
AcDbEntity
  8
_X______
  6
CENTER
 62
         1
100
AcDbLine
 10
1411.1033403763
 20
27.7581221708
 30
0.0
 11
1411.1033403763
 21
-11.0333634957
 31
0.0
  0
LINE
  5
24F
100
AcDbEntity
  8
_X______
  6
CENTER
 62
         1
100
AcDbLine
 10
1402.4927097209
 20
14.5542542011
 30
0.0
 11
1413.4465979673
 21
6.8842590783
 31
0.0
  0
LINE
  5
250
100
AcDbEntity
  8
_X______
  6
CONTINUOUS
 62
         7
100
AcDbLine
 10
1403.2033403763
 20
16.5592531663
 30
0.0
 11
1405.5263249435
 21
14.9326818612
 31
0.0
  0
LINE
  5
251
100
AcDbEntity
  8
_X______
  6
CONTINUOUS
 62
         7
100
AcDbLine
 10
1403.2033403763
 20
11.6151160818
 30
0.0
 11
1405.5263249435
 21
14.9326818612
 31
0.0
  0
LINE
  5
252
100
AcDbEntity
  8
_X______
  6
CONTINUOUS
 62
         4
100
AcDbLine
 10
1403.2033403763
 20
11.6151160818
 30
0.0
 11
1406.8895245756
 21
9.0340221182
 31
0.0
  0
LINE
  5
253
100
AcDbEntity
  8
_X______
  6
CONTINUOUS
 62
         7
100
AcDbLine
 10
1403.404092129
 20
11.9018192973
 30
0.0
 11
1409.5533373735
 21
7.5960714228
 31
0.0
  0
LINE
  5
254
100
AcDbEntity
  8
_X______
  6
CONTINUOUS
 62
         7
100
AcDbLine
 10
1405.2968943689
 20
14.6050210435
 30
0.0
 11
1410.4745414243
 21
10.9795935451
 31
0.0
  0
LINE
  5
255
100
AcDbEntity
  8
_X______
  6
CONTINUOUS
 62
         4
100
AcDbLine
 10
1405.4976461217
 20
14.891724259
 30
0.0
 11
1409.183830321
 21
12.3106302954
 31
0.0
  0
LINE
  5
256
100
AcDbEntity
  8
_X______
  6
CONTINUOUS
 62
         7
100
AcDbLine
 10
1409.2033406418
 20
15.9975613338
 30
0.0
 11
1409.203339036
 21
11.86969904
 31
0.0
  0
LINE
  5
257
100
AcDbEntity
  8
_X______
  6
CONTINUOUS
 62
         7
100
AcDbLine
 10
1413.2033407766
 20
16.3439726486
 30
0.0
 11
1413.2033387683
 21
11.1816652593
 31
0.0
  0
LINE
  5
258
100
AcDbEntity
  8
_X______
  6
CONTINUOUS
 62
         4
100
AcDbLine
 10
1413.0788387897
 20
9.1560448981
 30
0.0
 11
1411.1860365497
 21
6.452843152
 31
0.0
  0
LINE
  5
259
100
AcDbEntity
  8
_X______
  6
CONTINUOUS
 62
         4
100
AcDbLine
 10
1412.6092919222
 20
7.1165180317
 30
0.0
 11
1411.1860365497
 21
6.452843152
 31
0.0
  0
LINE
  5
25A
100
AcDbEntity
  8
_X______
  6
CONTINUOUS
 62
         4
100
AcDbLine
 10
1409.5764624957
 20
7.5798790379
 30
0.0
 11
1410.99388615
 21
6.5873883103
 31
0.0
  0
LINE
  5
25B
100
AcDbEntity
  8
_X______
  6
CONTINUOUS
 62
         7
100
AcDbLine
 10
1406.8895245756
 20
9.0340221182
 30
0.0
 11
1409.2125091428
 21
12.3515878976
 31
0.0
  0
LINE
  5
25C
100
AcDbEntity
  8
_X______
  6
CONTINUOUS
 62
         4
100
AcDbLine
 10
1413.2033387683
 20
11.1816652593
 30
0.0
 11
1410.185951432
 21
11.1816664331
 31
0.0
  0
LINE
  5
25D
100
AcDbEntity
  8
_X______
  6
CONTINUOUS
 62
         7
100
AcDbLine
 10
1412.8533386897
 20
10.9795926197
 30
0.0
 11
1410.4745414243
 21
10.9795935451
 31
0.0
  0
LINE
  5
25E
100
AcDbEntity
  8
_X______
  6
CONTINUOUS
 62
         7
100
AcDbLine
 10
1413.2033387683
 20
11.1816652593
 30
0.0
 11
1412.8533386897
 21
10.9795926197
 31
0.0
  0
LINE
  5
25F
100
AcDbEntity
  8
_X______
  6
CONTINUOUS
 62
         7
100
AcDbLine
 10
1412.8533380417
 20
9.3139422217
 30
0.0
 11
1413.0788387897
 21
9.1560448981
 31
0.0
  0
LINE
  5
260
100
AcDbEntity
  8
_X______
  6
CONTINUOUS
 62
         4
100
AcDbLine
 10
1411.2437639877
 20
10.4409781076
 30
0.0
 11
1412.661187642
 21
9.44848738
 31
0.0
  0
LINE
  5
261
100
AcDbEntity
  8
_X______
  6
CONTINUOUS
 62
         7
100
AcDbLine
 10
1409.5533373735
 20
7.5960714228
 30
0.0
 11
1409.5533313575
 21
-7.8683347407
 31
0.0
  0
LINE
  5
262
100
AcDbEntity
  8
_X______
  6
CENTER
 62
         1
100
AcDbLine
 10
1208.5078743688
 20
123.7868805382
 30
0.0
 11
1202.8697186441
 21
125.8390013981
 31
0.0
  0
POLYLINE
  5
264
100
AcDbEntity
  8
_X______
  6
CONTINUOUS
 62
         7
100
AcDb3dPolyline
 66
         1
 10
0.0
 20
0.0
 30
0.0
 70
         8
  0
VERTEX
  5
266
100
AcDbEntity
  8
_X______
  6
CONTINUOUS
 62
         7
100
AcDbVertex
100
AcDb3dPolylineVertex
 10
1203.8094112649
 20
125.4969812548
 30
0.0
 70
        32
  0
VERTEX
  5
268
100
AcDbEntity
  8
_X______
  6
CONTINUOUS
 62
         7
100
AcDbVertex
100
AcDb3dPolylineVertex
 10
1203.8094112649
 20
125.4969812548
 30
0.0
 70
        32
  0
SEQEND
  5
26A
100
AcDbEntity
  8
_X______
  6
CONTINUOUS
 62
         7
  0
ARC
  5
26B
100
AcDbEntity
  8
_X______
  6
CONTINUOUS
 62
         7
100
AcDbCircle
 10
1206.6023903184
 20
124.4804200144
 30
0.0
 40
2.9722262277
100
AcDbArc
 50
141.257725858
 51
160.0
  0
POLYLINE
  5
26D
100
AcDbEntity
  8
_X______
  6
CONTINUOUS
 62
         7
100
AcDb3dPolyline
 66
         1
 10
0.0
 20
0.0
 30
0.0
 70
         8
  0
VERTEX
  5
26F
100
AcDbEntity
  8
_X______
  6
CONTINUOUS
 62
         7
100
AcDbVertex
100
AcDb3dPolylineVertex
 10
1204.2841463667
 20
126.340493596
 30
0.0
 70
        32
  0
VERTEX
  5
271
100
AcDbEntity
  8
_X______
  6
CONTINUOUS
 62
         7
100
AcDbVertex
100
AcDb3dPolylineVertex
 10
1204.2841463667
 20
126.340493596
 30
0.0
 70
        32
  0
SEQEND
  5
273
100
AcDbEntity
  8
_X______
  6
CONTINUOUS
 62
         7
  0
ARC
  5
274
100
AcDbEntity
  8
_X______
  6
CONTINUOUS
 62
         7
100
AcDbCircle
 10
1206.2103129629
 20
124.7950084469
 30
0.0
 40
2.4695428935
100
AcDbArc
 50
120.6773100904
 51
141.257725858
  0
POLYLINE
  5
276
100
AcDbEntity
  8
_X______
  6
CONTINUOUS
 62
         7
100
AcDb3dPolyline
 66
         1
 10
0.0
 20
0.0
 30
0.0
 70
         8
  0
VERTEX
  5
278
100
AcDbEntity
  8
_X______
  6
CONTINUOUS
 62
         7
100
AcDbVertex
100
AcDb3dPolylineVertex
 10
1204.950346339
 20
126.9189496442
 30
0.0
 70
        32
  0
VERTEX
  5
27A
100
AcDbEntity
  8
_X______
  6
CONTINUOUS
 62
         7
100
AcDbVertex
100
AcDb3dPolylineVertex
 10
1204.950346339
 20
126.9189496442
 30
0.0
 70
        32
  0
SEQEND
  5
27C
100
AcDbEntity
  8
_X______
  6
CONTINUOUS
 62
         7
  0
ARC
  5
27D
100
AcDbEntity
  8
_X______
  6
CONTINUOUS
 62
         7
100
AcDbCircle
 10
1206.0105744318
 20
125.1317101395
 30
0.0
 40
2.0780540551
100
AcDbArc
 50
96.8239621528
 51
120.6773100904
  0
ARC
  5
27E
100
AcDbEntity
  8
_X______
  6
CONTINUOUS
 62
         7
100
AcDbCircle
 10
1205.9596641031
 20
125.5571435737
 30
0.0
 40
1.6495853065
100
AcDbArc
 50
70.0
 51
96.8239621528
  0
POLYLINE
  5
280
100
AcDbEntity
  8
_X______
  6
CONTINUOUS
 62
         7
100
AcDb3dPolyline
 66
         1
 10
0.0
 20
0.0
 30
0.0
 70
         8
  0
VERTEX
  5
282
100
AcDbEntity
  8
_X______
  6
CONTINUOUS
 62
         7
100
AcDbVertex
100
AcDb3dPolylineVertex
 10
1206.5238555061
 20
127.1072467136
 30
0.0
 70
        32
  0
VERTEX
  5
284
100
AcDbEntity
  8
_X______
  6
CONTINUOUS
 62
         7
100
AcDbVertex
100
AcDb3dPolylineVertex
 10
1206.5238555061
 20
127.1072467136
 30
0.0
 70
        32
  0
SEQEND
  5
286
100
AcDbEntity
  8
_X______
  6
CONTINUOUS
 62
         7
  0
ARC
  5
287
100
AcDbEntity
  8
_X______
  6
CONTINUOUS
 62
         7
100
AcDbCircle
 10
1205.9596641031
 20
125.5571435737
 30
0.0
 40
1.6495853065
100
AcDbArc
 50
43.1760378472
 51
70.0
  0
POLYLINE
  5
289
100
AcDbEntity
  8
_X______
  6
CONTINUOUS
 62
         7
100
AcDb3dPolyline
 66
         1
 10
0.0
 20
0.0
 30
0.0
 70
         8
  0
VERTEX
  5
28B
100
AcDbEntity
  8
_X______
  6
CONTINUOUS
 62
         7
100
AcDbVertex
100
AcDb3dPolylineVertex
 10
1207.1626321948
 20
126.6858594165
 30
0.0
 70
        32
  0
VERTEX
  5
28D
100
AcDbEntity
  8
_X______
  6
CONTINUOUS
 62
         7
100
AcDbVertex
100
AcDb3dPolylineVertex
 10
1207.1626321948
 20
126.6858594165
 30
0.0
 70
        32
  0
SEQEND
  5
28F
100
AcDbEntity
  8
_X______
  6
CONTINUOUS
 62
         7
  0
POLYLINE
  5
291
100
AcDbEntity
  8
_X______
  6
CONTINUOUS
 62
         7
100
AcDb3dPolyline
 66
         1
 10
0.0
 20
0.0
 30
0.0
 70
         8
  0
VERTEX
  5
293
100
AcDbEntity
  8
_X______
  6
CONTINUOUS
 62
         7
100
AcDbVertex
100
AcDb3dPolylineVertex
 10
1207.7467128429
 20
125.0802224645
 30
0.0
 70
        32
  0
VERTEX
  5
295
100
AcDbEntity
  8
_X______
  6
CONTINUOUS
 62
         7
100
AcDbVertex
100
AcDb3dPolylineVertex
 10
1207.7467128429
 20
125.0802224645
 30
0.0
 70
        32
  0
SEQEND
  5
297
100
AcDbEntity
  8
_X______
  6
CONTINUOUS
 62
         7
  0
ARC
  5
298
100
AcDbEntity
  8
_X______
  6
CONTINUOUS
 62
         7
100
AcDbCircle
 10
1204.7752026945
 20
125.1454619219
 30
0.0
 40
2.9722262277
100
AcDbArc
 50
339.9999999999
 51
358.742274142
  0
POLYLINE
  5
29A
100
AcDbEntity
  8
_X______
  6
CONTINUOUS
 62
         7
100
AcDb3dPolyline
 66
         1
 10
0.0
 20
0.0
 30
0.0
 70
         8
  0
VERTEX
  5
29C
100
AcDbEntity
  8
_X______
  6
CONTINUOUS
 62
         7
100
AcDbVertex
100
AcDb3dPolylineVertex
 10
1207.568181748
 20
124.1289006815
 30
0.0
 70
        32
  0
VERTEX
  5
29E
100
AcDbEntity
  8
_X______
  6
CONTINUOUS
 62
         7
100
AcDbVertex
100
AcDb3dPolylineVertex
 10
1207.568181748
 20
124.1289006815
 30
0.0
 70
        32
  0
SEQEND
  5
2A0
100
AcDbEntity
  8
_X______
  6
CONTINUOUS
 62
         7
  0
ARC
  5
2A1
100
AcDbEntity
  8
_X______
  6
CONTINUOUS
 62
         7
100
AcDbCircle
 10
1204.7752026945
 20
125.1454619219
 30
0.0
 40
2.9722262277
100
AcDbArc
 50
321.257725858
 51
340.0
  0
POLYLINE
  5
2A3
100
AcDbEntity
  8
_X______
  6
CONTINUOUS
 62
         7
100
AcDb3dPolyline
 66
         1
 10
0.0
 20
0.0
 30
0.0
 70
         8
  0
VERTEX
  5
2A5
100
AcDbEntity
  8
_X______
  6
CONTINUOUS
 62
         7
100
AcDbVertex
100
AcDb3dPolylineVertex
 10
1207.0934466463
 20
123.2853883403
 30
0.0
 70
        32
  0
VERTEX
  5
2A7
100
AcDbEntity
  8
_X______
  6
CONTINUOUS
 62
         7
100
AcDbVertex
100
AcDb3dPolylineVertex
 10
1207.0934466463
 20
123.2853883403
 30
0.0
 70
        32
  0
SEQEND
  5
2A9
100
AcDbEntity
  8
_X______
  6
CONTINUOUS
 62
         7
  0
ARC
  5
2AA
100
AcDbEntity
  8
_X______
  6
CONTINUOUS
 62
         7
100
AcDbCircle
 10
1205.16728005
 20
124.8308734895
 30
0.0
 40
2.4695428935
100
AcDbArc
 50
300.6773100904
 51
321.2577258581
  0
POLYLINE
  5
2AC
100
AcDbEntity
  8
_X______
  6
CONTINUOUS
 62
         7
100
AcDb3dPolyline
 66
         1
 10
0.0
 20
0.0
 30
0.0
 70
         8
  0
VERTEX
  5
2AE
100
AcDbEntity
  8
_X______
  6
CONTINUOUS
 62
         7
100
AcDbVertex
100
AcDb3dPolylineVertex
 10
1206.4272466739
 20
122.7069322922
 30
0.0
 70
        32
  0
VERTEX
  5
2B0
100
AcDbEntity
  8
_X______
  6
CONTINUOUS
 62
         7
100
AcDbVertex
100
AcDb3dPolylineVertex
 10
1206.4272466739
 20
122.7069322922
 30
0.0
 70
        32
  0
SEQEND
  5
2B2
100
AcDbEntity
  8
_X______
  6
CONTINUOUS
 62
         7
  0
ARC
  5
2B3
100
AcDbEntity
  8
_X______
  6
CONTINUOUS
 62
         7
100
AcDbCircle
 10
1205.3670185811
 20
124.4941717969
 30
0.0
 40
2.0780540551
100
AcDbArc
 50
276.8239621528
 51
300.6773100903
  0
POLYLINE
  5
2B5
100
AcDbEntity
  8
_X______
  6
CONTINUOUS
 62
         7
100
AcDb3dPolyline
 66
         1
 10
0.0
 20
0.0
 30
0.0
 70
         8
  0
VERTEX
  5
2B7
100
AcDbEntity
  8
_X______
  6
CONTINUOUS
 62
         7
100
AcDbVertex
100
AcDb3dPolylineVertex
 10
1205.6139313731
 20
122.4308388792
 30
0.0
 70
        32
  0
VERTEX
  5
2B9
100
AcDbEntity
  8
_X______
  6
CONTINUOUS
 62
         7
100
AcDbVertex
100
AcDb3dPolylineVertex
 10
1205.6139313731
 20
122.4308388792
 30
0.0
 70
        32
  0
SEQEND
  5
2BB
100
AcDbEntity
  8
_X______
  6
CONTINUOUS
 62
         7
  0
ARC
  5
2BC
100
AcDbEntity
  8
_X______
  6
CONTINUOUS
 62
         7
100
AcDbCircle
 10
1205.4179289098
 20
124.0687383626
 30
0.0
 40
1.6495853065
100
AcDbArc
 50
250.0
 51
276.8239621528
  0
POLYLINE
  5
2BE
100
AcDbEntity
  8
_X______
  6
CONTINUOUS
 62
         7
100
AcDb3dPolyline
 66
         1
 10
0.0
 20
0.0
 30
0.0
 70
         8
  0
VERTEX
  5
2C0
100
AcDbEntity
  8
_X______
  6
CONTINUOUS
 62
         7
100
AcDbVertex
100
AcDb3dPolylineVertex
 10
1204.8537375068
 20
122.5186352228
 30
0.0
 70
        32
  0
VERTEX
  5
2C2
100
AcDbEntity
  8
_X______
  6
CONTINUOUS
 62
         7
100
AcDbVertex
100
AcDb3dPolylineVertex
 10
1204.8537375068
 20
122.5186352228
 30
0.0
 70
        32
  0
SEQEND
  5
2C4
100
AcDbEntity
  8
_X______
  6
CONTINUOUS
 62
         7
  0
ARC
  5
2C5
100
AcDbEntity
  8
_X______
  6
CONTINUOUS
 62
         7
100
AcDbCircle
 10
1205.4179289098
 20
124.0687383626
 30
0.0
 40
1.6495853065
100
AcDbArc
 50
223.1760378472
 51
250.0
  0
POLYLINE
  5
2C7
100
AcDbEntity
  8
_X______
  6
CONTINUOUS
 62
         7
100
AcDb3dPolyline
 66
         1
 10
0.0
 20
0.0
 30
0.0
 70
         8
  0
VERTEX
  5
2C9
100
AcDbEntity
  8
_X______
  6
CONTINUOUS
 62
         7
100
AcDbVertex
100
AcDb3dPolylineVertex
 10
1204.2149608181
 20
122.9400225198
 30
0.0
 70
        32
  0
VERTEX
  5
2CB
100
AcDbEntity
  8
_X______
  6
CONTINUOUS
 62
         7
100
AcDbVertex
100
AcDb3dPolylineVertex
 10
1204.2149608181
 20
122.9400225198
 30
0.0
 70
        32
  0
SEQEND
  5
2CD
100
AcDbEntity
  8
_X______
  6
CONTINUOUS
 62
         7
  0
ARC
  5
2CE
100
AcDbEntity
  8
_X______
  6
CONTINUOUS
 62
         7
100
AcDbCircle
 10
1205.7303918245
 20
124.3619147524
 30
0.0
 40
2.0780540551
100
AcDbArc
 50
199.3226899096
 51
223.1760378473
  0
ARC
  5
2CF
100
AcDbEntity
  8
_X______
  6
CONTINUOUS
 62
         7
100
AcDbCircle
 10
1206.0998280924
 20
124.49145376
 30
0.0
 40
2.4695428935
100
AcDbArc
 50
178.742274142
 51
199.3226899096
  0
ARC
  5
2D0
100
AcDbEntity
  8
_X______
  6
CONTINUOUS
 62
         7
100
AcDbCircle
 10
1206.6023903184
 20
124.4804200144
 30
0.0
 40
2.9722262277
100
AcDbArc
 50
160.0
 51
178.742274142
  0
ARC
  5
2D1
100
AcDbEntity
  8
_X______
  6
CONTINUOUS
 62
         7
100
AcDbCircle
 10
1205.2777649205
 20
125.1344281764
 30
0.0
 40
2.4695428935
100
AcDbArc
 50
358.742274142
 51
379.3226899097
  0
ARC
  5
2D2
100
AcDbEntity
  8
_X______
  6
CONTINUOUS
 62
         7
100
AcDbCircle
 10
1205.6472011885
 20
125.263967184
 30
0.0
 40
2.0780540551
100
AcDbArc
 50
19.3226899096
 51
43.1760378472
  0
POLYLINE
  5
2D4
100
AcDbEntity
  8
_X______
  6
CONTINUOUS
 62
         7
100
AcDb3dPolyline
 66
         1
 10
0.0
 20
0.0
 30
0.0
 70
         8
  0
VERTEX
  5
2D6
100
AcDbEntity
  8
_X______
  6
CONTINUOUS
 62
         7
100
AcDbVertex
100
AcDb3dPolylineVertex
 10
1222.2784990045
 20
176.2403827773
 30
0.0
 70
        32
  0
VERTEX
  5
2D8
100
AcDbEntity
  8
_X______
  6
CONTINUOUS
 62
         7
100
AcDbVertex
100
AcDb3dPolylineVertex
 10
1222.2784990045
 20
176.2403827773
 30
0.0
 70
        32
  0
SEQEND
  5
2DA
100
AcDbEntity
  8
_X______
  6
CONTINUOUS
 62
         7
  0
ARC
  5
2DB
100
AcDbEntity
  8
_X______
  6
CONTINUOUS
 62
         7
100
AcDbCircle
 10
1225.071478058
 20
175.2238215369
 30
0.0
 40
2.9722262277
100
AcDbArc
 50
160.0
 51
178.7422741421
  0
POLYLINE
  5
2DD
100
AcDbEntity
  8
_X______
  6
CONTINUOUS
 62
         7
100
AcDb3dPolyline
 66
         1
 10
0.0
 20
0.0
 30
0.0
 70
         8
  0
VERTEX
  5
2DF
100
AcDbEntity
  8
_X______
  6
CONTINUOUS
 62
         7
100
AcDbVertex
100
AcDb3dPolylineVertex
 10
1222.0999679096
 20
175.2890609943
 30
0.0
 70
        32
  0
VERTEX
  5
2E1
100
AcDbEntity
  8
_X______
  6
CONTINUOUS
 62
         7
100
AcDbVertex
100
AcDb3dPolylineVertex
 10
1222.0999679096
 20
175.2890609943
 30
0.0
 70
        32
  0
SEQEND
  5
2E3
100
AcDbEntity
  8
_X______
  6
CONTINUOUS
 62
         7
  0
ARC
  5
2E4
100
AcDbEntity
  8
_X______
  6
CONTINUOUS
 62
         7
100
AcDbCircle
 10
1224.568915832
 20
175.2348552824
 30
0.0
 40
2.4695428935
100
AcDbArc
 50
178.7422741421
 51
199.3226899097
  0
POLYLINE
  5
2E6
100
AcDbEntity
  8
_X______
  6
CONTINUOUS
 62
         7
100
AcDb3dPolyline
 66
         1
 10
0.0
 20
0.0
 30
0.0
 70
         8
  0
VERTEX
  5
2E8
100
AcDbEntity
  8
_X______
  6
CONTINUOUS
 62
         7
100
AcDbVertex
100
AcDb3dPolylineVertex
 10
1222.2384823159
 20
174.4177128652
 30
0.0
 70
        32
  0
VERTEX
  5
2EA
100
AcDbEntity
  8
_X______
  6
CONTINUOUS
 62
         7
100
AcDbVertex
100
AcDb3dPolylineVertex
 10
1222.2384823159
 20
174.4177128652
 30
0.0
 70
        32
  0
SEQEND
  5
2EC
100
AcDbEntity
  8
_X______
  6
CONTINUOUS
 62
         7
  0
ARC
  5
2ED
100
AcDbEntity
  8
_X______
  6
CONTINUOUS
 62
         7
100
AcDbCircle
 10
1224.199479564
 20
175.1053162748
 30
0.0
 40
2.0780540551
100
AcDbArc
 50
199.3226899097
 51
223.1760378473
  0
POLYLINE
  5
2EF
100
AcDbEntity
  8
_X______
  6
CONTINUOUS
 62
         7
100
AcDb3dPolyline
 66
         1
 10
0.0
 20
0.0
 30
0.0
 70
         8
  0
VERTEX
  5
2F1
100
AcDbEntity
  8
_X______
  6
CONTINUOUS
 62
         7
100
AcDbVertex
100
AcDb3dPolylineVertex
 10
1222.6840485577
 20
173.6834240423
 30
0.0
 70
        32
  0
VERTEX
  5
2F3
100
AcDbEntity
  8
_X______
  6
CONTINUOUS
 62
         7
100
AcDbVertex
100
AcDb3dPolylineVertex
 10
1222.6840485577
 20
173.6834240423
 30
0.0
 70
        32
  0
SEQEND
  5
2F5
100
AcDbEntity
  8
_X______
  6
CONTINUOUS
 62
         7
  0
ARC
  5
2F6
100
AcDbEntity
  8
_X______
  6
CONTINUOUS
 62
         7
100
AcDbCircle
 10
1223.8870166494
 20
174.8121398851
 30
0.0
 40
1.6495853065
100
AcDbArc
 50
223.1760378472
 51
249.9999999999
  0
POLYLINE
  5
2F8
100
AcDbEntity
  8
_X______
  6
CONTINUOUS
 62
         7
100
AcDb3dPolyline
 66
         1
 10
0.0
 20
0.0
 30
0.0
 70
         8
  0
VERTEX
  5
2FA
100
AcDbEntity
  8
_X______
  6
CONTINUOUS
 62
         7
100
AcDbVertex
100
AcDb3dPolylineVertex
 10
1223.3228252464
 20
173.2620367452
 30
0.0
 70
        32
  0
VERTEX
  5
2FC
100
AcDbEntity
  8
_X______
  6
CONTINUOUS
 62
         7
100
AcDbVertex
100
AcDb3dPolylineVertex
 10
1223.3228252464
 20
173.2620367452
 30
0.0
 70
        32
  0
SEQEND
  5
2FE
100
AcDbEntity
  8
_X______
  6
CONTINUOUS
 62
         7
  0
ARC
  5
2FF
100
AcDbEntity
  8
_X______
  6
CONTINUOUS
 62
         7
100
AcDbCircle
 10
1223.8870166494
 20
174.8121398851
 30
0.0
 40
1.6495853065
100
AcDbArc
 50
250.0
 51
276.8239621528
  0
POLYLINE
  5
301
100
AcDbEntity
  8
_X______
  6
CONTINUOUS
 62
         7
100
AcDb3dPolyline
 66
         1
 10
0.0
 20
0.0
 30
0.0
 70
         8
  0
VERTEX
  5
303
100
AcDbEntity
  8
_X______
  6
CONTINUOUS
 62
         7
100
AcDbVertex
100
AcDb3dPolylineVertex
 10
1224.0830191126
 20
173.1742404017
 30
0.0
 70
        32
  0
VERTEX
  5
305
100
AcDbEntity
  8
_X______
  6
CONTINUOUS
 62
         7
100
AcDbVertex
100
AcDb3dPolylineVertex
 10
1224.0830191126
 20
173.1742404017
 30
0.0
 70
        32
  0
SEQEND
  5
307
100
AcDbEntity
  8
_X______
  6
CONTINUOUS
 62
         7
  0
ARC
  5
308
100
AcDbEntity
  8
_X______
  6
CONTINUOUS
 62
         7
100
AcDbCircle
 10
1223.8361063207
 20
175.2375733193
 30
0.0
 40
2.0780540551
100
AcDbArc
 50
276.8239621528
 51
300.6773100904
  0
POLYLINE
  5
30A
100
AcDbEntity
  8
_X______
  6
CONTINUOUS
 62
         7
100
AcDb3dPolyline
 66
         1
 10
0.0
 20
0.0
 30
0.0
 70
         8
  0
VERTEX
  5
30C
100
AcDbEntity
  8
_X______
  6
CONTINUOUS
 62
         7
100
AcDbVertex
100
AcDb3dPolylineVertex
 10
1224.8963344135
 20
173.4503338146
 30
0.0
 70
        32
  0
VERTEX
  5
30E
100
AcDbEntity
  8
_X______
  6
CONTINUOUS
 62
         7
100
AcDbVertex
100
AcDb3dPolylineVertex
 10
1224.8963344135
 20
173.4503338146
 30
0.0
 70
        32
  0
SEQEND
  5
310
100
AcDbEntity
  8
_X______
  6
CONTINUOUS
 62
         7
  0
ARC
  5
311
100
AcDbEntity
  8
_X______
  6
CONTINUOUS
 62
         7
100
AcDbCircle
 10
1223.6363677896
 20
175.5742750119
 30
0.0
 40
2.4695428935
100
AcDbArc
 50
300.6773100903
 51
321.257725858
  0
POLYLINE
  5
313
100
AcDbEntity
  8
_X______
  6
CONTINUOUS
 62
         7
100
AcDb3dPolyline
 66
         1
 10
0.0
 20
0.0
 30
0.0
 70
         8
  0
VERTEX
  5
315
100
AcDbEntity
  8
_X______
  6
CONTINUOUS
 62
         7
100
AcDbVertex
100
AcDb3dPolylineVertex
 10
1225.5625343858
 20
174.0287898627
 30
0.0
 70
        32
  0
VERTEX
  5
317
100
AcDbEntity
  8
_X______
  6
CONTINUOUS
 62
         7
100
AcDbVertex
100
AcDb3dPolylineVertex
 10
1225.5625343858
 20
174.0287898627
 30
0.0
 70
        32
  0
SEQEND
  5
319
100
AcDbEntity
  8
_X______
  6
CONTINUOUS
 62
         7
  0
ARC
  5
31A
100
AcDbEntity
  8
_X______
  6
CONTINUOUS
 62
         7
100
AcDbCircle
 10
1223.2442904341
 20
175.8888634444
 30
0.0
 40
2.9722262277
100
AcDbArc
 50
321.257725858
 51
340.0
  0
POLYLINE
  5
31C
100
AcDbEntity
  8
_X______
  6
CONTINUOUS
 62
         7
100
AcDb3dPolyline
 66
         1
 10
0.0
 20
0.0
 30
0.0
 70
         8
  0
VERTEX
  5
31E
100
AcDbEntity
  8
_X______
  6
CONTINUOUS
 62
         7
100
AcDbVertex
100
AcDb3dPolylineVertex
 10
1226.0372694876
 20
174.872302204
 30
0.0
 70
        32
  0
VERTEX
  5
320
100
AcDbEntity
  8
_X______
  6
CONTINUOUS
 62
         7
100
AcDbVertex
100
AcDb3dPolylineVertex
 10
1226.0372694876
 20
174.872302204
 30
0.0
 70
        32
  0
SEQEND
  5
322
100
AcDbEntity
  8
_X______
  6
CONTINUOUS
 62
         7
  0
ARC
  5
323
100
AcDbEntity
  8
_X______
  6
CONTINUOUS
 62
         7
100
AcDbCircle
 10
1223.2442904341
 20
175.8888634444
 30
0.0
 40
2.9722262277
100
AcDbArc
 50
339.9999999999
 51
358.742274142
  0
POLYLINE
  5
325
100
AcDbEntity
  8
_X______
  6
CONTINUOUS
 62
         7
100
AcDb3dPolyline
 66
         1
 10
0.0
 20
0.0
 30
0.0
 70
         8
  0
VERTEX
  5
327
100
AcDbEntity
  8
_X______
  6
CONTINUOUS
 62
         7
100
AcDbVertex
100
AcDb3dPolylineVertex
 10
1226.2158005825
 20
175.823623987
 30
0.0
 70
        32
  0
VERTEX
  5
329
100
AcDbEntity
  8
_X______
  6
CONTINUOUS
 62
         7
100
AcDbVertex
100
AcDb3dPolylineVertex
 10
1226.2158005825
 20
175.823623987
 30
0.0
 70
        32
  0
SEQEND
  5
32B
100
AcDbEntity
  8
_X______
  6
CONTINUOUS
 62
         7
  0
ARC
  5
32C
100
AcDbEntity
  8
_X______
  6
CONTINUOUS
 62
         7
100
AcDbCircle
 10
1223.7468526601
 20
175.8778296988
 30
0.0
 40
2.4695428935
100
AcDbArc
 50
358.742274142
 51
379.3226899097
  0
POLYLINE
  5
32E
100
AcDbEntity
  8
_X______
  6
CONTINUOUS
 62
         7
100
AcDb3dPolyline
 66
         1
 10
0.0
 20
0.0
 30
0.0
 70
         8
  0
VERTEX
  5
330
100
AcDbEntity
  8
_X______
  6
CONTINUOUS
 62
         7
100
AcDbVertex
100
AcDb3dPolylineVertex
 10
1226.0772861762
 20
176.694972116
 30
0.0
 70
        32
  0
VERTEX
  5
332
100
AcDbEntity
  8
_X______
  6
CONTINUOUS
 62
         7
100
AcDbVertex
100
AcDb3dPolylineVertex
 10
1226.0772861762
 20
176.694972116
 30
0.0
 70
        32
  0
SEQEND
  5
334
100
AcDbEntity
  8
_X______
  6
CONTINUOUS
 62
         7
  0
ARC
  5
335
100
AcDbEntity
  8
_X______
  6
CONTINUOUS
 62
         7
100
AcDbCircle
 10
1224.1162889281
 20
176.0073687064
 30
0.0
 40
2.0780540551
100
AcDbArc
 50
19.3226899096
 51
43.1760378472
  0
POLYLINE
  5
337
100
AcDbEntity
  8
_X______
  6
CONTINUOUS
 62
         7
100
AcDb3dPolyline
 66
         1
 10
0.0
 20
0.0
 30
0.0
 70
         8
  0
VERTEX
  5
339
100
AcDbEntity
  8
_X______
  6
CONTINUOUS
 62
         7
100
AcDbVertex
100
AcDb3dPolylineVertex
 10
1225.6317199344
 20
177.429260939
 30
0.0
 70
        32
  0
VERTEX
  5
33B
100
AcDbEntity
  8
_X______
  6
CONTINUOUS
 62
         7
100
AcDbVertex
100
AcDb3dPolylineVertex
 10
1225.6317199344
 20
177.429260939
 30
0.0
 70
        32
  0
SEQEND
  5
33D
100
AcDbEntity
  8
_X______
  6
CONTINUOUS
 62
         7
  0
ARC
  5
33E
100
AcDbEntity
  8
_X______
  6
CONTINUOUS
 62
         7
100
AcDbCircle
 10
1224.4287518427
 20
176.3005450962
 30
0.0
 40
1.6495853065
100
AcDbArc
 50
43.1760378472
 51
70.0
  0
POLYLINE
  5
340
100
AcDbEntity
  8
_X______
  6
CONTINUOUS
 62
         7
100
AcDb3dPolyline
 66
         1
 10
0.0
 20
0.0
 30
0.0
 70
         8
  0
VERTEX
  5
342
100
AcDbEntity
  8
_X______
  6
CONTINUOUS
 62
         7
100
AcDbVertex
100
AcDb3dPolylineVertex
 10
1224.9929432457
 20
177.850648236
 30
0.0
 70
        32
  0
VERTEX
  5
344
100
AcDbEntity
  8
_X______
  6
CONTINUOUS
 62
         7
100
AcDbVertex
100
AcDb3dPolylineVertex
 10
1224.9929432457
 20
177.850648236
 30
0.0
 70
        32
  0
SEQEND
  5
346
100
AcDbEntity
  8
_X______
  6
CONTINUOUS
 62
         7
  0
ARC
  5
347
100
AcDbEntity
  8
_X______
  6
CONTINUOUS
 62
         7
100
AcDbCircle
 10
1224.4287518427
 20
176.3005450962
 30
0.0
 40
1.6495853065
100
AcDbArc
 50
70.0000000001
 51
96.8239621529
  0
POLYLINE
  5
349
100
AcDbEntity
  8
_X______
  6
CONTINUOUS
 62
         7
100
AcDb3dPolyline
 66
         1
 10
0.0
 20
0.0
 30
0.0
 70
         8
  0
VERTEX
  5
34B
100
AcDbEntity
  8
_X______
  6
CONTINUOUS
 62
         7
100
AcDbVertex
100
AcDb3dPolylineVertex
 10
1224.2327493795
 20
177.9384445796
 30
0.0
 70
        32
  0
VERTEX
  5
34D
100
AcDbEntity
  8
_X______
  6
CONTINUOUS
 62
         7
100
AcDbVertex
100
AcDb3dPolylineVertex
 10
1224.2327493795
 20
177.9384445796
 30
0.0
 70
        32
  0
SEQEND
  5
34F
100
AcDbEntity
  8
_X______
  6
CONTINUOUS
 62
         7
  0
ARC
  5
350
100
AcDbEntity
  8
_X______
  6
CONTINUOUS
 62
         7
100
AcDbCircle
 10
1224.4796621714
 20
175.8751116619
 30
0.0
 40
2.0780540551
100
AcDbArc
 50
96.8239621528
 51
120.6773100904
  0
POLYLINE
  5
352
100
AcDbEntity
  8
_X______
  6
CONTINUOUS
 62
         7
100
AcDb3dPolyline
 66
         1
 10
0.0
 20
0.0
 30
0.0
 70
         8
  0
VERTEX
  5
354
100
AcDbEntity
  8
_X______
  6
CONTINUOUS
 62
         7
100
AcDbVertex
100
AcDb3dPolylineVertex
 10
1223.4194340786
 20
177.6623511666
 30
0.0
 70
        32
  0
VERTEX
  5
356
100
AcDbEntity
  8
_X______
  6
CONTINUOUS
 62
         7
100
AcDbVertex
100
AcDb3dPolylineVertex
 10
1223.4194340786
 20
177.6623511666
 30
0.0
 70
        32
  0
SEQEND
  5
358
100
AcDbEntity
  8
_X______
  6
CONTINUOUS
 62
         7
  0
ARC
  5
359
100
AcDbEntity
  8
_X______
  6
CONTINUOUS
 62
         7
100
AcDbCircle
 10
1224.6794007025
 20
175.5384099693
 30
0.0
 40
2.4695428935
100
AcDbArc
 50
120.6773100903
 51
141.257725858
  0
ARC
  5
35A
100
AcDbEntity
  8
_X______
  6
CONTINUOUS
 62
         7
100
AcDbCircle
 10
1225.071478058
 20
175.2238215369
 30
0.0
 40
2.9722262277
100
AcDbArc
 50
141.257725858
 51
160.0
  0
LINE
  5
35B
100
AcDbEntity
  8
_X______
  6
CENTER
 62
         1
100
AcDbLine
 10
1226.9769621084
 20
174.5302820606
 30
0.0
 11
1221.3388063837
 21
176.5824029206
 31
0.0
  0
LINE
  5
35C
100
AcDbEntity
  8
_X______
  6
DASHED
 62
         2
100
AcDbLine
 10
1624.2351520969
 20
142.7452832592
 30
0.0
 11
1629.8913272235
 21
127.2050698182
 31
0.0
  0
LINE
  5
35D
100
AcDbEntity
  8
_X______
  6
DASHED
 62
         2
100
AcDbLine
 10
1627.3361377455
 20
143.8739497321
 30
0.0
 11
1632.9923128721
 21
128.3337362912
 31
0.0
  0
LINE
  5
35E
100
AcDbEntity
  8
_X______
  6
DASHED
 62
         2
100
AcDbLine
 10
1633.3212052894
 20
128.4534433413
 30
0.0
 11
1634.7576898914
 21
124.506734334
 31
0.0
  0
LINE
  5
35F
100
AcDbEntity
  8
_X______
  6
DASHED
 62
         2
100
AcDbLine
 10
1633.3212052894
 20
128.4534433413
 30
0.0
 11
1629.5624348063
 21
127.085362768
 31
0.0
  0
LINE
  5
360
100
AcDbEntity
  8
_X______
  6
DASHED
 62
         2
100
AcDbLine
 10
1629.5624348063
 20
127.085362768
 30
0.0
 11
1630.9989194082
 21
123.1386537607
 31
0.0
  0
LINE
  5
361
100
AcDbEntity
  8
_X______
  6
DASHED
 62
         2
100
AcDbLine
 10
1617.0042459463
 20
173.2839206908
 30
0.0
 11
1613.2454754631
 21
171.9158401175
 31
0.0
  0
LINE
  5
362
100
AcDbEntity
  8
_X______
  6
DASHED
 62
         2
100
AcDbLine
 10
1613.5743678804
 20
172.0355471676
 30
0.0
 11
1619.2305430071
 21
156.4953337266
 31
0.0
  0
LINE
  5
363
100
AcDbEntity
  8
_X______
  6
DASHED
 62
         2
100
AcDbLine
 10
1616.675353529
 20
173.1642136406
 30
0.0
 11
1622.3315286556
 21
157.6240001996
 31
0.0
  0
LINE
  5
364
100
AcDbEntity
  8
_X______
  6
DASHED
 62
         2
100
AcDbLine
 10
1613.2454754631
 20
171.9158401175
 30
0.0
 11
1611.8089908611
 21
175.8625491248
 31
0.0
  0
LINE
  5
365
100
AcDbEntity
  8
_X______
  6
DASHED
 62
         2
100
AcDbLine
 10
1617.0042459463
 20
173.2839206908
 30
0.0
 11
1615.5677613443
 21
177.2306296981
 31
0.0
  0
LINE
  5
366
100
AcDbEntity
  8
_X______
  6
CENTER
 62
         1
100
AcDbLine
 10
1611.3895898921
 20
182.8624526172
 30
0.0
 11
1635.3242136355
 21
117.102614339
 31
0.0
  0
LINE
  5
367
100
AcDbEntity
  8
_X______
  6
CENTER
 62
         1
100
AcDbLine
 10
1227.1031401709
 20
183.6483666388
 30
0.0
 11
1202.8730445027
 21
117.0767259189
 31
0.0
  0
LINE
  5
368
100
AcDbEntity
  8
L1_90
  6
CONTINUOUS
 62
         7
100
AcDbLine
 10
1403.2033403763
 20
180.9596417294
 30
0.0
 11
1403.2033403763
 21
119.4096417294
 31
0.0
  0
LINE
  5
369
100
AcDbEntity
  8
L1_90
  6
CENTER
 62
         1
100
AcDbLine
 10
1400.0033403763
 20
172.4096417294
 30
0.0
 11
1400.0033403763
 21
127.9596417294
 31
0.0
  0
LINE
  5
36A
100
AcDbEntity
  8
L1_90
  6
CONTINUOUS
 62
         7
100
AcDbLine
 10
1331.7533403763
 20
161.4188234458
 30
0.0
 11
1331.7533403763
 21
138.9504600129
 31
0.0
  0
LINE
  5
36B
100
AcDbEntity
  8
L1_90
  6
CONTINUOUS
 62
         7
100
AcDbLine
 10
1414.4033403763
 20
-7.3883347407
 30
0.0
 11
1414.4033403763
 21
-18.4983347407
 31
0.0
  0
DIMENSION
  5
36E
100
AcDbEntity
  8
L1_90
  6
CONTINUOUS
 62
         4
100
AcDbDimension
  2
*D23
 10
1414.4033403763
 20
-52.8310916204
 30
0.0
 11
1449.0252885434
 21
-50.8060916204
 31
0.0
  3
DIMSTYLE2
100
AcDbAlignedDimension
 13
1414.4033403763
 23
-17.9433347407
 33
0.0
 14
1489.4033403763
 24
-22.9433347407
 34
0.0
100
AcDbRotatedDimension
  0
DIMENSION
  5
37C
100
AcDbEntity
  8
L1_90
  6
CONTINUOUS
 62
         4
100
AcDbDimension
  2
*D24
 10
1467.4033403763
 20
-47.682144484
 30
0.0
 11
1474.6394698155
 21
-45.657144484
 31
0.0
  3
DIMSTYLE2
100
AcDbAlignedDimension
 13
1467.4033403763
 23
-18.7933347407
 33
0.0
 14
1489.4033403763
 24
-22.9433347407
 34
0.0
100
AcDbRotatedDimension
  0
DIMENSION
  5
38A
100
AcDbEntity
  8
L1_90
  6
CONTINUOUS
 62
         4
100
AcDbDimension
  2
*D25
 10
1514.6872478705
 20
-20.7622468794
 30
0.0
 11
1512.6622478705
 21
-24.1517029961
 31
0.0
  3
DIMSTYLE2
100
AcDbAlignedDimension
 13
1488.1121000277
 23
-20.7622468794
 33
0.0
 14
1488.1121000277
 24
-5.1244226019
 34
0.0
 50
90.0
100
AcDbRotatedDimension
  0
LINE
  5
396
100
AcDbEntity
  8
L1_90
  6
CONTINUOUS
 62
         7
100
AcDbLine
 10
1472.3592966277
 20
-7.3383347407
 30
0.0
 11
1488.1121000277
 21
-5.1244226019
 31
0.0
  0
ARC
  5
397
100
AcDbEntity
  8
L1_90
  6
CONTINUOUS
 62
         7
100
AcDbCircle
 10
1487.9033403763
 20
-3.6390204988
 30
0.0
 40
1.5
100
AcDbArc
 50
278.0
 51
360.0
  0
LINE
  5
398
100
AcDbEntity
  8
L1_90
  6
CONTINUOUS
 62
         7
100
AcDbLine
 10
1472.3592966277
 20
-18.5483347407
 30
0.0
 11
1488.1121000277
 21
-20.7622468794
 31
0.0
  0
ARC
  5
399
100
AcDbEntity
  8
L1_90
  6
CONTINUOUS
 62
         7
100
AcDbCircle
 10
1487.9033403763
 20
-22.2476489825
 30
0.0
 40
1.5
100
AcDbArc
 50
0.0
 51
82.0
  0
LINE
  5
39A
100
AcDbEntity
  8
L1_90
  6
CENTER
 62
         1
100
AcDbLine
 10
1419.1033403763
 20
150.1846417294
 30
0.0
 11
1491.2033403763
 21
150.1846417294
 31
0.0
  0
DIMENSION
  5
39D
100
AcDbEntity
  8
L1_90
  6
CONTINUOUS
 62
         4
100
AcDbDimension
  2
*D26
 10
1476.4033403763
 20
-33.5925545654
 30
0.0
 11
1477.3269185369
 21
-31.5675545654
 31
0.0
  3
DIMSTYLE2
100
AcDbAlignedDimension
 13
1476.4033403763
 23
-22.9433347407
 33
0.0
 14
1489.4033403763
 24
-22.9433347407
 34
0.0
100
AcDbRotatedDimension
  0
LINE
  5
3A9
100
AcDbEntity
  8
L1_90
  6
CENTER
 62
         1
100
AcDbLine
 10
1419.1033403763
 20
-12.9433347407
 30
0.0
 11
1490.7770515294
 21
-12.9433347407
 31
0.0
  0
LINE
  5
3AA
100
AcDbEntity
  8
L1_90
  6
CONTINUOUS
 62
         7
100
AcDbLine
 10
1474.6706673642
 20
-23.9433347407
 30
0.0
 11
1487.9033403763
 21
-23.9433347407
 31
0.0
  0
LINE
  5
3AB
100
AcDbEntity
  8
L1_90
  6
CONTINUOUS
 62
         7
100
AcDbLine
 10
1474.6706673642
 20
-1.9433347407
 30
0.0
 11
1487.9033403763
 21
-1.9433347407
 31
0.0
  0
LINE
  5
3AC
100
AcDbEntity
  8
L1_90
  6
CONTINUOUS
 62
         7
100
AcDbLine
 10
1489.4033403763
 20
-3.4433347407
 30
0.0
 11
1489.4033403763
 21
-22.4433347407
 31
0.0
  0
LINE
  5
3AD
100
AcDbEntity
  8
L1_90
  6
CONTINUOUS
 62
         4
100
AcDbLine
 10
1489.2322577273
 20
-2.9433347407
 30
0.0
 11
1476.4033403763
 21
-2.9433347407
 31
0.0
  0
LINE
  5
3AE
100
AcDbEntity
  8
L1_90
  6
CONTINUOUS
 62
         7
100
AcDbLine
 10
1476.4033403763
 20
-1.9433347407
 30
0.0
 11
1476.4033403763
 21
-2.9433347407
 31
0.0
  0
LINE
  5
3AF
100
AcDbEntity
  8
L1_90
  6
CONTINUOUS
 62
         4
100
AcDbLine
 10
1489.3175539386
 20
-22.9433347407
 30
0.0
 11
1476.4033403763
 21
-22.9433347407
 31
0.0
  0
LINE
  5
3B0
100
AcDbEntity
  8
L1_90
  6
CONTINUOUS
 62
         7
100
AcDbLine
 10
1476.4033403763
 20
-22.9433347407
 30
0.0
 11
1476.4033403763
 21
-23.9433347407
 31
0.0
  0
DIMENSION
  5
3B3
100
AcDbEntity
  8
L1_90
  6
CONTINUOUS
 62
         4
100
AcDbDimension
  2
*D27
 10
1473.9033403763
 20
7.8534567654
 30
0.0
 11
1474.4727185581
 21
9.8784567654
 31
0.0
  3
DIMSTYLE2
100
AcDbAlignedDimension
 13
1473.9033403763
 23
-1.5845907687
 33
0.0
 14
1489.4033403763
 24
-2.9433347407
 34
0.0
100
AcDbRotatedDimension
  0
ARC
  5
3BF
100
AcDbEntity
  8
L1_90
  6
CONTINUOUS
 62
         7
100
AcDbCircle
 10
1487.9033403763
 20
-3.4433347407
 30
0.0
 40
1.5
100
AcDbArc
 50
0.0
 51
90.0
  0
ARC
  5
3C0
100
AcDbEntity
  8
L1_90
  6
CONTINUOUS
 62
         7
100
AcDbCircle
 10
1487.9033403763
 20
-22.4433347407
 30
0.0
 40
1.5
100
AcDbArc
 50
270.0
 51
360.0
  0
LINE
  5
3C1
100
AcDbEntity
  8
L1_90
  6
CONTINUOUS
 62
         7
100
AcDbLine
 10
1435.0553403763
 20
-34.4283347407
 30
0.0
 11
1435.0553403763
 21
-29.9433347407
 31
0.0
  0
LINE
  5
3C2
100
AcDbEntity
  8
L1_90
  6
CONTINUOUS
 62
         7
100
AcDbLine
 10
1435.0553403763
 20
4.0566652593
 30
0.0
 11
1435.0553403763
 21
8.5416652593
 31
0.0
  0
LINE
  5
3C3
100
AcDbEntity
  8
L1_90
  6
CONTINUOUS
 62
         7
100
AcDbLine
 10
1403.4969004536
 20
-5.9433347407
 30
0.0
 11
1404.6082997218
 21
-7.8683347407
 31
0.0
  0
LINE
  5
3C4
100
AcDbEntity
  8
L1_90
  6
CONTINUOUS
 62
         7
100
AcDbLine
 10
1403.4969004536
 20
-5.9433347407
 30
0.0
 11
1337.6561830887
 21
-5.9433347407
 31
0.0
  0
LINE
  5
3C5
100
AcDbEntity
  8
L1_90
  6
CONTINUOUS
 62
         7
100
AcDbLine
 10
1403.4969004536
 20
-19.9433347407
 30
0.0
 11
1337.6561830887
 21
-19.9433347407
 31
0.0
  0
LINE
  5
3C6
100
AcDbEntity
  8
L1_90
  6
CONTINUOUS
 62
         7
100
AcDbLine
 10
1403.4969004536
 20
-19.9433347407
 30
0.0
 11
1404.6082997218
 21
-18.0183347407
 31
0.0
  0
LINE
  5
3C7
100
AcDbEntity
  8
L1_90
  6
CONTINUOUS
 62
         7
100
AcDbLine
 10
1403.4969004536
 20
-5.9433347407
 30
0.0
 11
1403.4969004536
 21
-19.9433347407
 31
0.0
  0
LINE
  5
3C8
100
AcDbEntity
  8
L1_90
  6
CONTINUOUS
 62
         7
100
AcDbLine
 10
1438.0553403763
 20
136.1846417294
 30
0.0
 11
1473.1706673642
 21
136.1846417294
 31
0.0
  0
LINE
  5
3C9
100
AcDbEntity
  8
L1_90
  6
CONTINUOUS
 62
         7
100
AcDbLine
 10
1438.0553403763
 20
164.1846417294
 30
0.0
 11
1473.1706673642
 21
164.1846417294
 31
0.0
  0
LINE
  5
3CA
100
AcDbEntity
  8
L1_90
  6
CONTINUOUS
 62
         7
100
AcDbLine
 10
1438.0553403763
 20
1.0566652593
 30
0.0
 11
1473.4047415379
 21
1.0566652593
 31
0.0
  0
LINE
  5
3CB
100
AcDbEntity
  8
L1_90
  6
CONTINUOUS
 62
         7
100
AcDbLine
 10
1438.0553403763
 20
-26.9433347407
 30
0.0
 11
1473.4047415379
 21
-26.9433347407
 31
0.0
  0
CIRCLE
  5
3CC
100
AcDbEntity
  8
L1_90
  6
CONTINUOUS
 62
         7
100
AcDbCircle
 10
1623.2833403763
 20
150.1846417294
 30
0.0
 40
14.0
  0
CIRCLE
  5
3CD
100
AcDbEntity
  8
L1_90
  6
CONTINUOUS
 62
         7
100
AcDbCircle
 10
1623.2833403763
 20
150.1846417294
 30
0.0
 40
8.0
  0
CIRCLE
  5
3CE
100
AcDbEntity
  8
L1_90
  6
CONTINUOUS
 62
         7
100
AcDbCircle
 10
1623.2833403763
 20
150.1846417294
 30
0.0
 40
11.0
  0
ARC
  5
3CF
100
AcDbEntity
  8
L1_90
  6
CONTINUOUS
 62
         4
100
AcDbCircle
 10
1623.2833403763
 20
150.1846417294
 30
0.0
 40
10.0
100
AcDbArc
 50
250.2170796992
 51
556.8024117489
  0
CIRCLE
  5
3D0
100
AcDbEntity
  8
L1_90
  6
CONTINUOUS
 62
         7
100
AcDbCircle
 10
1623.2833403763
 20
150.1846417294
 30
0.0
 40
5.75
  0
CIRCLE
  5
3D1
100
AcDbEntity
  8
L1_90
  6
CONTINUOUS
 62
         7
100
AcDbCircle
 10
1623.2833403763
 20
150.1846417294
 30
0.0
 40
4.97
  0
ARC
  5
3D2
100
AcDbEntity
  8
L1_90
  6
CONTINUOUS
 62
         4
100
AcDbCircle
 10
1623.2833403763
 20
150.1846417294
 30
0.0
 40
5.4
100
AcDbArc
 50
180.0
 51
450.0
  0
LINE
  5
3D3
100
AcDbEntity
  8
_Y__________
  6
CONTINUOUS
 62
         7
100
AcDbLine
 10
1419.1033403763
 20
180.9596417294
 30
0.0
 11
1419.1033403763
 21
179.9596417294
 31
0.0
  0
LINE
  5
3D4
100
AcDbEntity
  8
_Y__________
  6
CONTINUOUS
 62
         7
100
AcDbLine
 10
1419.1033403763
 20
120.4096417294
 30
0.0
 11
1419.1033403763
 21
119.4096417294
 31
0.0
  0
ARC
  5
3D5
100
AcDbEntity
  8
_Y__________
  6
CONTINUOUS
 62
         7
100
AcDbCircle
 10
1419.6033403763
 20
9.8416652593
 30
0.0
 40
0.5
100
AcDbArc
 50
180.0
 51
270.0
  0
ARC
  5
3D6
100
AcDbEntity
  8
_Y__________
  6
CONTINUOUS
 62
         7
100
AcDbCircle
 10
1419.6033403763
 20
-35.7283347407
 30
0.0
 40
0.5
100
AcDbArc
 50
90.0
 51
180.0
  0
LINE
  5
3D7
100
AcDbEntity
  8
_Y__________
  6
CONTINUOUS
 62
         7
100
AcDbLine
 10
1419.6033403763
 20
-35.2283347407
 30
0.0
 11
1434.2553403763
 21
-35.2283347407
 31
0.0
  0
LINE
  5
3D8
100
AcDbEntity
  8
_Y__________
  6
CONTINUOUS
 62
         7
100
AcDbLine
 10
1419.6033403763
 20
9.3416652593
 30
0.0
 11
1434.2553403763
 21
9.3416652593
 31
0.0
  0
ARC
  5
3D9
100
AcDbEntity
  8
_Y__________
  6
CONTINUOUS
 62
         7
100
AcDbCircle
 10
1404.2033403763
 20
180.9596417294
 30
0.0
 40
1.0
100
AcDbArc
 50
90.0
 51
180.0
  0
LINE
  5
3DA
100
AcDbEntity
  8
_Y__________
  6
CONTINUOUS
 62
         7
100
AcDbLine
 10
1404.2033403763
 20
181.9596417294
 30
0.0
 11
1405.2033403763
 21
181.9596417294
 31
0.0
  0
LINE
  5
3DB
100
AcDbEntity
  8
_Y__________
  6
CONTINUOUS
 62
         7
100
AcDbLine
 10
1403.2033403763
 20
180.9596417294
 30
0.0
 11
1403.2033403763
 21
179.9596417294
 31
0.0
  0
LINE
  5
3DC
100
AcDbEntity
  8
_Y__________
  6
CONTINUOUS
 62
         7
100
AcDbLine
 10
1417.1033403763
 20
181.9596417294
 30
0.0
 11
1418.1033403763
 21
181.9596417294
 31
0.0
  0
ARC
  5
3DD
100
AcDbEntity
  8
_Y__________
  6
CONTINUOUS
 62
         7
100
AcDbCircle
 10
1418.1033403763
 20
180.9596417294
 30
0.0
 40
1.0
100
AcDbArc
 50
0.0
 51
90.0
  0
ARC
  5
3DE
100
AcDbEntity
  8
_Y__________
  6
CONTINUOUS
 62
         7
100
AcDbCircle
 10
1404.2033403763
 20
119.4096417294
 30
0.0
 40
1.0
100
AcDbArc
 50
180.0
 51
270.0
  0
LINE
  5
3DF
100
AcDbEntity
  8
_Y__________
  6
CONTINUOUS
 62
         7
100
AcDbLine
 10
1404.2033403763
 20
118.4096417294
 30
0.0
 11
1405.2033403763
 21
118.4096417294
 31
0.0
  0
LINE
  5
3E0
100
AcDbEntity
  8
_Y__________
  6
CONTINUOUS
 62
         7
100
AcDbLine
 10
1417.1033403763
 20
118.4096417294
 30
0.0
 11
1418.1033403763
 21
118.4096417294
 31
0.0
  0
ARC
  5
3E1
100
AcDbEntity
  8
_Y__________
  6
CONTINUOUS
 62
         7
100
AcDbCircle
 10
1418.1033403763
 20
119.4096417294
 30
0.0
 40
1.0
100
AcDbArc
 50
270.0
 51
360.0
  0
LINE
  5
3E2
100
AcDbEntity
  8
_Y__________
  6
CONTINUOUS
 62
         7
100
AcDbLine
 10
1419.1033403763
 20
180.9596417294
 30
0.0
 11
1419.1033403763
 21
172.9696417294
 31
0.0
  0
LINE
  5
3E3
100
AcDbEntity
  8
_Y__________
  6
CONTINUOUS
 62
         7
100
AcDbLine
 10
1403.2033403763
 20
120.4096417294
 30
0.0
 11
1403.2033403763
 21
119.4096417294
 31
0.0
  0
LINE
  5
3E4
100
AcDbEntity
  8
_Y__________
  6
CONTINUOUS
 62
         7
100
AcDbLine
 10
1419.1033403763
 20
127.3996417294
 30
0.0
 11
1419.1033403763
 21
119.4096417294
 31
0.0
  0
LINE
  5
3E5
100
AcDbEntity
  8
_Y__________
  6
CONTINUOUS
 62
         7
100
AcDbLine
 10
1419.1033403763
 20
-42.7183347407
 30
0.0
 11
1419.1033403763
 21
-43.7183347407
 31
0.0
  0
LINE
  5
3E6
100
AcDbEntity
  8
_Y__________
  6
CONTINUOUS
 62
         7
100
AcDbLine
 10
1403.2033403763
 20
-42.7183347407
 30
0.0
 11
1403.2033403763
 21
-43.7183347407
 31
0.0
  0
LINE
  5
3E7
100
AcDbEntity
  8
_Y__________
  6
CONTINUOUS
 62
         7
100
AcDbLine
 10
1419.1033403763
 20
17.8316652593
 30
0.0
 11
1419.1033403763
 21
16.8316652593
 31
0.0
  0
ARC
  5
3E8
100
AcDbEntity
  8
_Y__________
  6
CONTINUOUS
 62
         7
100
AcDbCircle
 10
1418.1033403763
 20
-43.7183347407
 30
0.0
 40
1.0
100
AcDbArc
 50
270.0
 51
360.0
  0
LINE
  5
3E9
100
AcDbEntity
  8
_Y__________
  6
CONTINUOUS
 62
         7
100
AcDbLine
 10
1417.1033403763
 20
-44.7183347407
 30
0.0
 11
1418.1033403763
 21
-44.7183347407
 31
0.0
  0
LINE
  5
3EA
100
AcDbEntity
  8
_Y__________
  6
CONTINUOUS
 62
         7
100
AcDbLine
 10
1404.2033403763
 20
-44.7183347407
 30
0.0
 11
1405.2033403763
 21
-44.7183347407
 31
0.0
  0
ARC
  5
3EB
100
AcDbEntity
  8
_Y__________
  6
CONTINUOUS
 62
         7
100
AcDbCircle
 10
1404.2033403763
 20
-43.7183347407
 30
0.0
 40
1.0
100
AcDbArc
 50
180.0
 51
270.0
  0
ARC
  5
3EC
100
AcDbEntity
  8
_Y__________
  6
CONTINUOUS
 62
         7
100
AcDbCircle
 10
1418.1033403763
 20
17.8316652593
 30
0.0
 40
1.0
100
AcDbArc
 50
0.0
 51
90.0
  0
LINE
  5
3ED
100
AcDbEntity
  8
_Y__________
  6
CONTINUOUS
 62
         7
100
AcDbLine
 10
1417.1033403763
 20
18.8316652593
 30
0.0
 11
1418.1033403763
 21
18.8316652593
 31
0.0
  0
LINE
  5
3EE
100
AcDbEntity
  8
_Y__________
  6
CONTINUOUS
 62
         7
100
AcDbLine
 10
1403.2033403763
 20
17.8316652593
 30
0.0
 11
1403.2033403763
 21
16.8316652593
 31
0.0
  0
LINE
  5
3EF
100
AcDbEntity
  8
_Y__________
  6
CONTINUOUS
 62
         7
100
AcDbLine
 10
1404.2033403763
 20
18.8316652593
 30
0.0
 11
1405.2033403763
 21
18.8316652593
 31
0.0
  0
ARC
  5
3F0
100
AcDbEntity
  8
_Y__________
  6
CONTINUOUS
 62
         7
100
AcDbCircle
 10
1404.2033403763
 20
17.8316652593
 30
0.0
 40
1.0
100
AcDbArc
 50
90.0
 51
180.0
  0
LINE
  5
3F1
100
AcDbEntity
  8
_Y__________
  6
CONTINUOUS
 62
         7
100
AcDbLine
 10
1435.0553403763
 20
171.6696417294
 30
0.0
 11
1435.0553403763
 21
128.6996417294
 31
0.0
  0
LINE
  5
3F2
100
AcDbEntity
  8
_Y__________
  6
CONTINUOUS
 62
         7
100
AcDbLine
 10
1419.6033403763
 20
172.4696417294
 30
0.0
 11
1434.2553403763
 21
172.4696417294
 31
0.0
  0
ARC
  5
3F3
100
AcDbEntity
  8
_Y__________
  6
CONTINUOUS
 62
         7
100
AcDbCircle
 10
1419.6033403763
 20
127.3996417294
 30
0.0
 40
0.5
100
AcDbArc
 50
90.0
 51
180.0
  0
ARC
  5
3F4
100
AcDbEntity
  8
_Y__________
  6
CONTINUOUS
 62
         7
100
AcDbCircle
 10
1419.6033403763
 20
172.9696417294
 30
0.0
 40
0.5
100
AcDbArc
 50
180.0
 51
270.0
  0
LINE
  5
3F5
100
AcDbEntity
  8
_Y__________
  6
CONTINUOUS
 62
         7
100
AcDbLine
 10
1419.1033403763
 20
17.8316652595
 30
0.0
 11
1419.1033403763
 21
9.8416652593
 31
0.0
  0
LINE
  5
3F6
100
AcDbEntity
  8
_Y__________
  6
CONTINUOUS
 62
         7
100
AcDbLine
 10
1419.1033403763
 20
-35.7283347407
 30
0.0
 11
1419.1033403763
 21
-43.7183347409
 31
0.0
  0
ARC
  5
3F7
100
AcDbEntity
  8
_Y__________
  6
CONTINUOUS
 62
         7
100
AcDbCircle
 10
1434.2553403763
 20
171.6696417294
 30
0.0
 40
0.8
100
AcDbArc
 50
0.0
 51
90.0000000003
  0
ARC
  5
3F8
100
AcDbEntity
  8
_Y__________
  6
CONTINUOUS
 62
         7
100
AcDbCircle
 10
1434.2553403763
 20
128.6996417294
 30
0.0
 40
0.8
100
AcDbArc
 50
269.9999999999
 51
360.0
  0
LINE
  5
3F9
100
AcDbEntity
  8
_Y__________
  6
CONTINUOUS
 62
         7
100
AcDbLine
 10
1419.6033403763
 20
127.8996417294
 30
0.0
 11
1434.2553403763
 21
127.8996417294
 31
0.0
  0
ARC
  5
3FA
100
AcDbEntity
  8
_Y__________
  6
CONTINUOUS
 62
         7
100
AcDbCircle
 10
1434.2553403763
 20
8.5416652593
 30
0.0
 40
0.8
100
AcDbArc
 50
0.0
 51
90.0000000003
  0
LINE
  5
3FB
100
AcDbEntity
  8
_Y__________
  6
CONTINUOUS
 62
         7
100
AcDbLine
 10
1435.0553403763
 20
8.5416652593
 30
0.0
 11
1435.0553403763
 21
7.5416652593
 31
0.0
  0
ARC
  5
3FC
100
AcDbEntity
  8
_Y__________
  6
CONTINUOUS
 62
         7
100
AcDbCircle
 10
1434.2553403763
 20
-34.4283347407
 30
0.0
 40
0.8
100
AcDbArc
 50
269.9999999999
 51
360.0
  0
LINE
  5
3FD
100
AcDbEntity
  8
_Y__________
  6
CONTINUOUS
 62
         7
100
AcDbLine
 10
1435.0553403763
 20
-33.4283347407
 30
0.0
 11
1435.0553403763
 21
-34.4283347407
 31
0.0
  0
LINE
  5
3FE
100
AcDbEntity
  8
_Y__________
  6
CONTINUOUS
 62
         7
100
AcDbLine
 10
1598.2833403762
 20
155.6846417294
 30
0.0
 11
1598.2833403762
 21
144.6846417294
 31
0.0
  0
LINE
  5
3FF
100
AcDbEntity
  8
_Y__________
  6
DASHED
 62
         2
100
AcDbLine
 10
1598.7833403762
 20
155.1846417294
 30
0.0
 11
1604.9573403762
 21
155.1846417294
 31
0.0
  0
LINE
  5
400
100
AcDbEntity
  8
_Y__________
  6
DASHED
 62
         2
100
AcDbLine
 10
1604.9573403762
 20
155.1846417294
 30
0.0
 11
1604.9573403762
 21
145.1846417294
 31
0.0
  0
LINE
  5
401
100
AcDbEntity
  8
_Y__________
  6
DASHED
 62
         2
100
AcDbLine
 10
1604.9573403762
 20
155.1846417294
 30
0.0
 11
1607.8440917222
 21
150.1846417294
 31
0.0
  0
LINE
  5
402
100
AcDbEntity
  8
_Y__________
  6
DASHED
 62
         2
100
AcDbLine
 10
1607.8440917222
 20
150.1846417294
 30
0.0
 11
1604.9573403762
 21
145.1846417294
 31
0.0
  0
LINE
  5
403
100
AcDbEntity
  8
_Y__________
  6
DASHED
 62
         2
100
AcDbLine
 10
1598.7833403762
 20
145.1846417294
 30
0.0
 11
1604.9573403762
 21
145.1846417294
 31
0.0
  0
LINE
  5
404
100
AcDbEntity
  8
_Y__________
  6
DASHED
 62
         2
100
AcDbLine
 10
1598.7833403762
 20
155.1846417294
 30
0.0
 11
1598.7833403762
 21
145.1846417294
 31
0.0
  0
LINE
  5
405
100
AcDbEntity
  8
_Y__________
  6
DASHED
 62
         2
100
AcDbLine
 10
1598.7833403762
 20
155.1846417294
 30
0.0
 11
1598.2833403762
 21
155.6846417294
 31
0.0
  0
LINE
  5
406
100
AcDbEntity
  8
_Y__________
  6
DASHED
 62
         2
100
AcDbLine
 10
1598.7833403762
 20
145.1846417294
 30
0.0
 11
1598.2833403762
 21
144.6846417294
 31
0.0
  0
CIRCLE
  5
407
100
AcDbEntity
  8
_Y__________
  6
CONTINUOUS
 62
         7
100
AcDbCircle
 10
1411.1033403763
 20
150.1846417294
 30
0.0
 40
5.0
  0
ARC
  5
408
100
AcDbEntity
  8
_Y__________
  6
CONTINUOUS
 62
         7
100
AcDbCircle
 10
1402.6033403763
 20
172.9846417294
 30
0.0
 40
0.6
100
AcDbArc
 50
270.0
 51
360.0
  0
LINE
  5
409
100
AcDbEntity
  8
_Y__________
  6
CONTINUOUS
 62
         7
100
AcDbLine
 10
1401.2033403763
 20
172.5846417294
 30
0.0
 11
1401.9497505378
 21
172.3846417294
 31
0.0
  0
LINE
  5
40A
100
AcDbEntity
  8
_Y__________
  6
CONTINUOUS
 62
         7
100
AcDbLine
 10
1401.9497505378
 20
172.3846417294
 30
0.0
 11
1402.6033403763
 21
172.3846417294
 31
0.0
  0
LINE
  5
40B
100
AcDbEntity
  8
_Y__________
  6
CONTINUOUS
 62
         7
100
AcDbLine
 10
1401.2033403763
 20
127.7846417294
 30
0.0
 11
1401.2033403763
 21
172.5846417294
 31
0.0
  0
LINE
  5
40C
100
AcDbEntity
  8
_Y__________
  6
CONTINUOUS
 62
         7
100
AcDbLine
 10
1401.9497505378
 20
127.9846417294
 30
0.0
 11
1401.9497505378
 21
172.3846417294
 31
0.0
  0
ARC
  5
40D
100
AcDbEntity
  8
_Y__________
  6
CONTINUOUS
 62
         7
100
AcDbCircle
 10
1402.6033403763
 20
127.3846417294
 30
0.0
 40
0.6
100
AcDbArc
 50
0.0
 51
90.0
  0
LINE
  5
40E
100
AcDbEntity
  8
_Y__________
  6
CONTINUOUS
 62
         7
100
AcDbLine
 10
1401.2033403763
 20
127.7846417294
 30
0.0
 11
1401.9497505378
 21
127.9846417294
 31
0.0
  0
LINE
  5
40F
100
AcDbEntity
  8
_Y__________
  6
CONTINUOUS
 62
         7
100
AcDbLine
 10
1401.9497505378
 20
127.9846417294
 30
0.0
 11
1402.6033403763
 21
127.9846417294
 31
0.0
  0
LINE
  5
410
100
AcDbEntity
  8
_Y__________
  6
CENTER
 62
         1
100
AcDbLine
 10
1396.6508489578
 20
150.1846417294
 30
0.0
 11
1419.1033403763
 21
150.1846417294
 31
0.0
  0
LINE
  5
411
100
AcDbEntity
  8
_Y__________
  6
CONTINUOUS
 62
         7
100
AcDbLine
 10
1332.7801721046
 20
162.6062630231
 30
0.0
 11
1401.2033403763
 21
172.5846417294
 31
0.0
  0
LINE
  5
412
100
AcDbEntity
  8
_Y__________
  6
CENTER
 62
         1
100
AcDbLine
 10
1329.3598386453
 20
150.1846417294
 30
0.0
 11
1378.4659535144
 21
150.1846417294
 31
0.0
  0
LINE
  5
413
100
AcDbEntity
  8
_Y__________
  6
CONTINUOUS
 62
         7
100
AcDbLine
 10
1332.7801721046
 20
137.7630204357
 30
0.0
 11
1401.2033403763
 21
127.7846417294
 31
0.0
  0
LINE
  5
414
100
AcDbEntity
  8
_Y__________
  6
CENTER
 62
         1
100
AcDbLine
 10
1411.1033403763
 20
187.6899050302
 30
0.0
 11
1411.1033403763
 21
112.6870854784
 31
0.0
  0
ARC
  5
415
100
AcDbEntity
  8
_Y__________
  6
CONTINUOUS
 62
         7
100
AcDbCircle
 10
1412.0045400445
 20
179.3096417294
 30
0.0
 40
1.0
100
AcDbArc
 50
270.0
 51
346.8556743105
  0
ARC
  5
416
100
AcDbEntity
  8
_Y__________
  6
CONTINUOUS
 62
         7
100
AcDbCircle
 10
1410.202140708
 20
179.3096417294
 30
0.0
 40
1.0
100
AcDbArc
 50
193.1443256895
 51
270.0
  0
LINE
  5
417
100
AcDbEntity
  8
_Y__________
  6
CONTINUOUS
 62
         7
100
AcDbLine
 10
1410.202140708
 20
178.3096417294
 30
0.0
 11
1412.0045400445
 21
178.3096417294
 31
0.0
  0
LINE
  5
418
100
AcDbEntity
  8
_Y__________
  6
CONTINUOUS
 62
         7
100
AcDbLine
 10
1414.639610775
 20
181.9596417294
 30
0.0
 11
1418.1033403763
 21
181.9596417294
 31
0.0
  0
LINE
  5
419
100
AcDbEntity
  8
_Y__________
  6
CONTINUOUS
 62
         7
100
AcDbLine
 10
1412.9783403763
 20
179.0822369936
 30
0.0
 11
1414.639610775
 21
181.9596417294
 31
0.0
  0
LINE
  5
41A
100
AcDbEntity
  8
_Y__________
  6
CONTINUOUS
 62
         7
100
AcDbLine
 10
1414.639610775
 20
118.4096417294
 30
0.0
 11
1418.1033403763
 21
118.4096417294
 31
0.0
  0
ARC
  5
41B
100
AcDbEntity
  8
_Y__________
  6
CONTINUOUS
 62
         7
100
AcDbCircle
 10
1412.0045400445
 20
121.0596417294
 30
0.0
 40
1.0
100
AcDbArc
 50
13.1443256895
 51
90.0
  0
LINE
  5
41C
100
AcDbEntity
  8
_Y__________
  6
CONTINUOUS
 62
         7
100
AcDbLine
 10
1412.9783403763
 20
121.2870464652
 30
0.0
 11
1414.639610775
 21
118.4096417294
 31
0.0
  0
ARC
  5
41D
100
AcDbEntity
  8
_Y__________
  6
CONTINUOUS
 62
         7
100
AcDbCircle
 10
1410.202140708
 20
121.0596417294
 30
0.0
 40
1.0
100
AcDbArc
 50
90.0
 51
166.8556743105
  0
LINE
  5
41E
100
AcDbEntity
  8
_Y__________
  6
CONTINUOUS
 62
         7
100
AcDbLine
 10
1410.202140708
 20
122.0596417294
 30
0.0
 11
1412.0045400445
 21
122.0596417294
 31
0.0
  0
LINE
  5
41F
100
AcDbEntity
  8
_Y__________
  6
CONTINUOUS
 62
         7
100
AcDbLine
 10
1419.1033403763
 20
180.9596417294
 30
0.0
 11
1419.1033403763
 21
169.1846417294
 31
0.0
  0
LINE
  5
420
100
AcDbEntity
  8
_Y__________
  6
CONTINUOUS
 62
         7
100
AcDbLine
 10
1419.1033403763
 20
180.9596417294
 30
0.0
 11
1419.1033403763
 21
119.4096417294
 31
0.0
  0
LINE
  5
421
100
AcDbEntity
  8
_Y__________
  6
CONTINUOUS
 62
         7
100
AcDbLine
 10
1404.2033403763
 20
181.9596417294
 30
0.0
 11
1407.5670699775
 21
181.9596417294
 31
0.0
  0
LINE
  5
422
100
AcDbEntity
  8
_Y__________
  6
CONTINUOUS
 62
         7
100
AcDbLine
 10
1404.2033403763
 20
118.4096417294
 30
0.0
 11
1407.5670699775
 21
118.4096417294
 31
0.0
  0
LINE
  5
423
100
AcDbEntity
  8
_Y__________
  6
CENTER
 62
         1
100
AcDbLine
 10
1400.0033403763
 20
172.4096417294
 30
0.0
 11
1400.0033403763
 21
127.9596417294
 31
0.0
  0
LINE
  5
424
100
AcDbEntity
  8
_Y__________
  6
CONTINUOUS
 62
         7
100
AcDbLine
 10
1403.2033403763
 20
180.9596417294
 30
0.0
 11
1403.2033403763
 21
119.4096417294
 31
0.0
  0
LINE
  5
425
100
AcDbEntity
  8
_Y__________
  6
CONTINUOUS
 62
         7
100
AcDbLine
 10
1409.2283403763
 20
121.2870464652
 30
0.0
 11
1407.5670699775
 21
118.4096417294
 31
0.0
  0
LINE
  5
426
100
AcDbEntity
  8
_Y__________
  6
CONTINUOUS
 62
         7
100
AcDbLine
 10
1409.2283403763
 20
179.0822369936
 30
0.0
 11
1407.5670699775
 21
181.9596417294
 31
0.0
  0
LINE
  5
427
100
AcDbEntity
  8
_Y__________
  6
CONTINUOUS
 62
         7
100
AcDbLine
 10
1414.639610775
 20
18.8316652595
 30
0.0
 11
1418.1033403763
 21
18.8316652595
 31
0.0
  0
LINE
  5
428
100
AcDbEntity
  8
_Y__________
  6
CONTINUOUS
 62
         7
100
AcDbLine
 10
1412.9783403763
 20
15.9542605237
 30
0.0
 11
1414.639610775
 21
18.8316652595
 31
0.0
  0
ARC
  5
429
100
AcDbEntity
  8
_Y__________
  6
CONTINUOUS
 62
         7
100
AcDbCircle
 10
1412.0045400445
 20
16.1816652595
 30
0.0
 40
1.0
100
AcDbArc
 50
270.0
 51
346.8556743105
  0
LINE
  5
42A
100
AcDbEntity
  8
_Y__________
  6
CONTINUOUS
 62
         7
100
AcDbLine
 10
1410.202140708
 20
15.1816652595
 30
0.0
 11
1412.0045400445
 21
15.1816652595
 31
0.0
  0
ARC
  5
42B
100
AcDbEntity
  8
_Y__________
  6
CONTINUOUS
 62
         7
100
AcDbCircle
 10
1410.202140708
 20
16.1816652595
 30
0.0
 40
1.0
100
AcDbArc
 50
193.1443256895
 51
270.0
  0
LINE
  5
42C
100
AcDbEntity
  8
_Y__________
  6
CONTINUOUS
 62
         7
100
AcDbLine
 10
1409.2283403763
 20
15.9542605235
 30
0.0
 11
1407.5670699775
 21
18.8316652593
 31
0.0
  0
LINE
  5
42D
100
AcDbEntity
  8
_Y__________
  6
CONTINUOUS
 62
         7
100
AcDbLine
 10
1404.2033403763
 20
18.8316652595
 30
0.0
 11
1407.5670699775
 21
18.8316652595
 31
0.0
  0
LINE
  5
42E
100
AcDbEntity
  8
_Y__________
  6
CONTINUOUS
 62
         7
100
AcDbLine
 10
1403.2033403763
 20
9.8566652593
 30
0.0
 11
1403.2033403763
 21
17.8316652595
 31
0.0
  0
ARC
  5
42F
100
AcDbEntity
  8
_Y__________
  6
CONTINUOUS
 62
         7
100
AcDbCircle
 10
1402.6033403763
 20
9.8566652593
 30
0.0
 40
0.6
100
AcDbArc
 50
270.0
 51
360.0
  0
LINE
  5
430
100
AcDbEntity
  8
_Y__________
  6
CONTINUOUS
 62
         7
100
AcDbLine
 10
1401.9497505378
 20
9.2566652593
 30
0.0
 11
1402.6033403763
 21
9.2566652593
 31
0.0
  0
LINE
  5
431
100
AcDbEntity
  8
_Y__________
  6
CONTINUOUS
 62
         7
100
AcDbLine
 10
1332.6301721046
 20
-0.543588447
 30
0.0
 11
1401.2033403763
 21
9.4566652593
 31
0.0
  0
LINE
  5
432
100
AcDbEntity
  8
_Y__________
  6
CONTINUOUS
 62
         7
100
AcDbLine
 10
1401.2033403763
 20
9.4566652593
 30
0.0
 11
1401.9497505378
 21
9.2566652593
 31
0.0
  0
LINE
  5
433
100
AcDbEntity
  8
_Y__________
  6
CONTINUOUS
 62
         7
100
AcDbLine
 10
1332.6301721046
 20
-25.3430810344
 30
0.0
 11
1401.2033403767
 21
-35.3433347407
 31
0.0
  0
LINE
  5
434
100
AcDbEntity
  8
_Y__________
  6
CENTER
 62
         1
100
AcDbLine
 10
1328.5556074009
 20
-12.9433347407
 30
0.0
 11
1419.1033403763
 21
-12.9433347407
 31
0.0
  0
LINE
  5
435
100
AcDbEntity
  8
_Y__________
  6
CONTINUOUS
 62
         7
100
AcDbLine
 10
1401.2033403763
 20
-35.3433347409
 30
0.0
 11
1401.9497505378
 21
-35.1433347409
 31
0.0
  0
LINE
  5
436
100
AcDbEntity
  8
_Y__________
  6
CONTINUOUS
 62
         7
100
AcDbLine
 10
1401.9497505378
 20
-35.1433347407
 30
0.0
 11
1402.6033403763
 21
-35.1433347407
 31
0.0
  0
ARC
  5
437
100
AcDbEntity
  8
_Y__________
  6
CONTINUOUS
 62
         7
100
AcDbCircle
 10
1402.6033403763
 20
-35.7433347407
 30
0.0
 40
0.6
100
AcDbArc
 50
0.0
 51
90.0
  0
LINE
  5
438
100
AcDbEntity
  8
_Y__________
  6
CONTINUOUS
 62
         7
100
AcDbLine
 10
1404.2033403763
 20
-44.7183347409
 30
0.0
 11
1407.5670699775
 21
-44.7183347409
 31
0.0
  0
LINE
  5
439
100
AcDbEntity
  8
_Y__________
  6
CONTINUOUS
 62
         7
100
AcDbLine
 10
1403.2033403763
 20
-35.7433347409
 30
0.0
 11
1403.2033403763
 21
-43.7183347409
 31
0.0
  0
LINE
  5
43A
100
AcDbEntity
  8
_Y__________
  6
CONTINUOUS
 62
         7
100
AcDbLine
 10
1409.2283403763
 20
-41.8409300049
 30
0.0
 11
1407.5670699775
 21
-44.7183347407
 31
0.0
  0
ARC
  5
43B
100
AcDbEntity
  8
_Y__________
  6
CONTINUOUS
 62
         7
100
AcDbCircle
 10
1410.202140708
 20
-42.0683347407
 30
0.0
 40
1.0
100
AcDbArc
 50
90.0
 51
166.8556743105
  0
LINE
  5
43C
100
AcDbEntity
  8
_Y__________
  6
CONTINUOUS
 62
         7
100
AcDbLine
 10
1410.202140708
 20
-41.0683347407
 30
0.0
 11
1412.0045400445
 21
-41.0683347407
 31
0.0
  0
ARC
  5
43D
100
AcDbEntity
  8
_Y__________
  6
CONTINUOUS
 62
         7
100
AcDbCircle
 10
1412.0045400445
 20
-42.0683347409
 30
0.0
 40
1.0
100
AcDbArc
 50
13.1443256895
 51
90.0
  0
LINE
  5
43E
100
AcDbEntity
  8
_Y__________
  6
CONTINUOUS
 62
         7
100
AcDbLine
 10
1412.9783403763
 20
-41.8409300049
 30
0.0
 11
1414.639610775
 21
-44.7183347407
 31
0.0
  0
LINE
  5
43F
100
AcDbEntity
  8
_Y__________
  6
CONTINUOUS
 62
         7
100
AcDbLine
 10
1414.639610775
 20
-44.7183347409
 30
0.0
 11
1418.1033403763
 21
-44.7183347409
 31
0.0
  0
CIRCLE
  5
440
100
AcDbEntity
  8
_Y__________
  6
CONTINUOUS
 62
         7
100
AcDbCircle
 10
1623.2833403763
 20
150.1846417294
 30
0.0
 40
22.225
  0
LINE
  5
441
100
AcDbEntity
  8
_Y__________
  6
CONTINUOUS
 62
         7
100
AcDbLine
 10
1414.639610775
 20
141.3346417294
 30
0.0
 11
1414.639610775
 21
118.4096417294
 31
0.0
  0
LINE
  5
442
100
AcDbEntity
  8
_Y__________
  6
CONTINUOUS
 62
         7
100
AcDbLine
 10
1412.9783403763
 20
142.1346417294
 30
0.0
 11
1412.9783403763
 21
121.2870464652
 31
0.0
  0
LINE
  5
443
100
AcDbEntity
  8
_Y__________
  6
CONTINUOUS
 62
         7
100
AcDbLine
 10
1409.2283403763
 20
142.1346417294
 30
0.0
 11
1409.2283403763
 21
121.2870464652
 31
0.0
  0
LINE
  5
444
100
AcDbEntity
  8
_Y__________
  6
CONTINUOUS
 62
         7
100
AcDbLine
 10
1407.5670699775
 20
141.3346417294
 30
0.0
 11
1407.5670699775
 21
118.4096417294
 31
0.0
  0
LINE
  5
445
100
AcDbEntity
  8
_Y__________
  6
CONTINUOUS
 62
         7
100
AcDbLine
 10
1419.1033403763
 20
159.0346417294
 30
0.0
 11
1414.639610775
 21
159.0346417294
 31
0.0
  0
LINE
  5
446
100
AcDbEntity
  8
_Y__________
  6
CONTINUOUS
 62
         7
100
AcDbLine
 10
1412.9783403763
 20
158.2346417294
 30
0.0
 11
1414.639610775
 21
159.0346417294
 31
0.0
  0
LINE
  5
447
100
AcDbEntity
  8
_Y__________
  6
CONTINUOUS
 62
         7
100
AcDbLine
 10
1419.1033403763
 20
159.0346417294
 30
0.0
 11
1418.3033403763
 21
158.2346417294
 31
0.0
  0
LINE
  5
448
100
AcDbEntity
  8
_Y__________
  6
CONTINUOUS
 62
         7
100
AcDbLine
 10
1412.9783403763
 20
142.1346417294
 30
0.0
 11
1414.639610775
 21
141.3346417294
 31
0.0
  0
LINE
  5
449
100
AcDbEntity
  8
_Y__________
  6
CONTINUOUS
 62
         7
100
AcDbLine
 10
1418.3033403763
 20
142.1346417294
 30
0.0
 11
1419.1033403763
 21
141.3346417294
 31
0.0
  0
LINE
  5
44A
100
AcDbEntity
  8
_Y__________
  6
CONTINUOUS
 62
         7
100
AcDbLine
 10
1419.1033403763
 20
141.3346417294
 30
0.0
 11
1414.639610775
 21
141.3346417294
 31
0.0
  0
LINE
  5
44B
100
AcDbEntity
  8
_Y__________
  6
CONTINUOUS
 62
         7
100
AcDbLine
 10
1418.3033403763
 20
158.2346417294
 30
0.0
 11
1418.3033403763
 21
142.1346417294
 31
0.0
  0
LINE
  5
44C
100
AcDbEntity
  8
_Y__________
  6
CONTINUOUS
 62
         7
100
AcDbLine
 10
1407.5670699775
 20
159.0346417294
 30
0.0
 11
1403.2033403763
 21
159.0346417294
 31
0.0
  0
LINE
  5
44D
100
AcDbEntity
  8
_Y__________
  6
CONTINUOUS
 62
         7
100
AcDbLine
 10
1403.2033403763
 20
159.0346417294
 30
0.0
 11
1404.0033403763
 21
158.2346417294
 31
0.0
  0
LINE
  5
44E
100
AcDbEntity
  8
_Y__________
  6
CONTINUOUS
 62
         7
100
AcDbLine
 10
1404.0033403763
 20
142.1346417294
 30
0.0
 11
1403.2033403763
 21
141.3346417294
 31
0.0
  0
LINE
  5
44F
100
AcDbEntity
  8
_Y__________
  6
CONTINUOUS
 62
         7
100
AcDbLine
 10
1407.5670699775
 20
141.3346417294
 30
0.0
 11
1403.2033403763
 21
141.3346417294
 31
0.0
  0
LINE
  5
450
100
AcDbEntity
  8
_Y__________
  6
CONTINUOUS
 62
         7
100
AcDbLine
 10
1404.0033403763
 20
158.2346417294
 30
0.0
 11
1404.0033403763
 21
142.1346417294
 31
0.0
  0
LINE
  5
451
100
AcDbEntity
  8
_Y__________
  6
CONTINUOUS
 62
         7
100
AcDbLine
 10
1407.5670699775
 20
141.3346417294
 30
0.0
 11
1409.2283403763
 21
142.1346417294
 31
0.0
  0
LINE
  5
452
100
AcDbEntity
  8
_Y__________
  6
CONTINUOUS
 62
         7
100
AcDbLine
 10
1407.5670699775
 20
159.0346417294
 30
0.0
 11
1409.2283403763
 21
158.2346417294
 31
0.0
  0
LINE
  5
453
100
AcDbEntity
  8
_Y__________
  6
CONTINUOUS
 62
         7
100
AcDbLine
 10
1418.3033403763
 20
142.1346417294
 30
0.0
 11
1404.0033403763
 21
142.1346417294
 31
0.0
  0
LINE
  5
454
100
AcDbEntity
  8
_Y__________
  6
CONTINUOUS
 62
         7
100
AcDbLine
 10
1418.3033403763
 20
158.2346417294
 30
0.0
 11
1404.0033403763
 21
158.2346417294
 31
0.0
  0
LINE
  5
455
100
AcDbEntity
  8
_Y__________
  6
CONTINUOUS
 62
         7
100
AcDbLine
 10
1414.639610775
 20
181.9596417294
 30
0.0
 11
1414.639610775
 21
159.0346417294
 31
0.0
  0
LINE
  5
456
100
AcDbEntity
  8
_Y__________
  6
CONTINUOUS
 62
         7
100
AcDbLine
 10
1412.9783403763
 20
179.0822369936
 30
0.0
 11
1412.9783403763
 21
158.2346417294
 31
0.0
  0
LINE
  5
457
100
AcDbEntity
  8
_Y__________
  6
CONTINUOUS
 62
         7
100
AcDbLine
 10
1409.2283403763
 20
179.0822369936
 30
0.0
 11
1409.2283403763
 21
158.2346417294
 31
0.0
  0
LINE
  5
458
100
AcDbEntity
  8
_Y__________
  6
CONTINUOUS
 62
         7
100
AcDbLine
 10
1407.5670699775
 20
181.9596417294
 30
0.0
 11
1407.5670699775
 21
159.0346417294
 31
0.0
  0
ARC
  5
459
100
AcDbEntity
  8
_Y__________
  6
CONTINUOUS
 62
         7
100
AcDbCircle
 10
1623.2833403763
 20
150.1846417294
 30
0.0
 40
31.775
100
AcDbArc
 50
195.411296411
 51
344.588703589
  0
ARC
  5
45A
100
AcDbEntity
  8
_Y__________
  6
CONTINUOUS
 62
         7
100
AcDbCircle
 10
1623.2833403763
 20
150.1846417294
 30
0.0
 40
31.775
100
AcDbArc
 50
15.411296411
 51
164.588703589
  0
LINE
  5
45B
100
AcDbEntity
  8
_Y__________
  6
CENTER
 62
         1
100
AcDbLine
 10
1623.2833403763
 20
184.9596417294
 30
0.0
 11
1623.2833403763
 21
115.4096417294
 31
0.0
  0
ARC
  5
45C
100
AcDbEntity
  8
_Y__________
  6
DASHED
 62
         2
100
AcDbCircle
 10
1623.2833403763
 20
150.1846417294
 30
0.0
 40
28.125
100
AcDbArc
 50
16.6319205355
 51
163.3680794645
  0
ARC
  5
45D
100
AcDbEntity
  8
_Y__________
  6
DASHED
 62
         2
100
AcDbCircle
 10
1623.2833403763
 20
150.1846417294
 30
0.0
 40
28.125
100
AcDbArc
 50
198.3406919436
 51
343.3680794645
  0
LINE
  5
45E
100
AcDbEntity
  8
_Y__________
  6
CONTINUOUS
 62
         7
100
AcDbLine
 10
1646.0833403763
 20
157.7346417294
 30
0.0
 11
1646.0833403763
 21
142.6346417294
 31
0.0
  0
LINE
  5
45F
100
AcDbEntity
  8
_Y__________
  6
CONTINUOUS
 62
         7
100
AcDbLine
 10
1646.0833403763
 20
157.7346417294
 30
0.0
 11
1646.5833403763
 21
158.2346417294
 31
0.0
  0
LINE
  5
460
100
AcDbEntity
  8
_Y__________
  6
CONTINUOUS
 62
         7
100
AcDbLine
 10
1646.5833403763
 20
158.2346417294
 30
0.0
 11
1653.5217223278
 21
158.2346417294
 31
0.0
  0
LINE
  5
461
100
AcDbEntity
  8
_Y__________
  6
CONTINUOUS
 62
         7
100
AcDbLine
 10
1653.915807609
 20
158.6287270106
 30
0.0
 11
1653.5217223278
 21
158.2346417294
 31
0.0
  0
LINE
  5
462
100
AcDbEntity
  8
_Y__________
  6
CONTINUOUS
 62
         7
100
AcDbLine
 10
1646.5833403763
 20
142.1346417294
 30
0.0
 11
1653.5217223278
 21
142.1346417294
 31
0.0
  0
LINE
  5
463
100
AcDbEntity
  8
_Y__________
  6
CONTINUOUS
 62
         7
100
AcDbLine
 10
1646.0833403763
 20
142.6346417294
 30
0.0
 11
1646.5833403763
 21
142.1346417294
 31
0.0
  0
LINE
  5
464
100
AcDbEntity
  8
_Y__________
  6
CONTINUOUS
 62
         7
100
AcDbLine
 10
1653.915807609
 20
141.7405564482
 30
0.0
 11
1653.5217223278
 21
142.1346417294
 31
0.0
  0
LINE
  5
465
100
AcDbEntity
  8
_Y__________
  6
CONTINUOUS
 62
         7
100
AcDbLine
 10
1593.0449584247
 20
158.2346417294
 30
0.0
 11
1597.7833403762
 21
158.2346417294
 31
0.0
  0
LINE
  5
466
100
AcDbEntity
  8
_Y__________
  6
CONTINUOUS
 62
         7
100
AcDbLine
 10
1598.2833403762
 20
157.7346417294
 30
0.0
 11
1598.2833403762
 21
142.6346417294
 31
0.0
  0
LINE
  5
467
100
AcDbEntity
  8
_Y__________
  6
CONTINUOUS
 62
         7
100
AcDbLine
 10
1598.2833403762
 20
157.7346417294
 30
0.0
 11
1597.7833403762
 21
158.2346417294
 31
0.0
  0
LINE
  5
468
100
AcDbEntity
  8
_Y__________
  6
CONTINUOUS
 62
         7
100
AcDbLine
 10
1592.6508731435
 20
158.6287270106
 30
0.0
 11
1593.0449584247
 21
158.2346417294
 31
0.0
  0
LINE
  5
469
100
AcDbEntity
  8
_Y__________
  6
CONTINUOUS
 62
         7
100
AcDbLine
 10
1598.2833403762
 20
142.6346417294
 30
0.0
 11
1597.7833403762
 21
142.1346417294
 31
0.0
  0
LINE
  5
46A
100
AcDbEntity
  8
_Y__________
  6
CONTINUOUS
 62
         7
100
AcDbLine
 10
1592.6508731435
 20
141.7405564482
 30
0.0
 11
1593.0449584247
 21
142.1346417294
 31
0.0
  0
LINE
  5
46B
100
AcDbEntity
  8
_Y__________
  6
CONTINUOUS
 62
         7
100
AcDbLine
 10
1593.0449584247
 20
142.1346417294
 30
0.0
 11
1597.7833403762
 21
142.1346417294
 31
0.0
  0
LINE
  5
46C
100
AcDbEntity
  8
_Y__________
  6
CENTER
 62
         1
100
AcDbLine
 10
1596.790952795
 20
150.1846417294
 30
0.0
 11
1650.7694097755
 21
150.1846417294
 31
0.0
  0
LINE
  5
46D
100
AcDbEntity
  8
_Y__________
  6
CENTER
 62
         1
100
AcDbLine
 10
1183.1483403763
 20
150.1846417294
 30
0.0
 11
1246.6983403763
 21
150.1846417294
 31
0.0
  0
ARC
  5
46E
100
AcDbEntity
  8
_Y__________
  6
CONTINUOUS
 62
         7
100
AcDbCircle
 10
1214.9233403763
 20
150.1846417294
 30
0.0
 40
31.775
100
AcDbArc
 50
195.411296411
 51
344.588703589
  0
ARC
  5
46F
100
AcDbEntity
  8
_Y__________
  6
CONTINUOUS
 62
         7
100
AcDbCircle
 10
1214.9233403763
 20
150.1846417294
 30
0.0
 40
31.775
100
AcDbArc
 50
15.411296411
 51
164.588703589
  0
LINE
  5
470
100
AcDbEntity
  8
_Y__________
  6
CENTER
 62
         1
100
AcDbLine
 10
1214.9233403763
 20
114.5732894966
 30
0.0
 11
1214.9233403763
 21
185.4173498279
 31
0.0
  0
CIRCLE
  5
471
100
AcDbEntity
  8
_Y__________
  6
CONTINUOUS
 62
         7
100
AcDbCircle
 10
1214.9233403763
 20
150.1846417294
 30
0.0
 40
12.7165768873
  0
CIRCLE
  5
472
100
AcDbEntity
  8
_Y__________
  6
CONTINUOUS
 62
         7
100
AcDbCircle
 10
1214.9233403763
 20
150.1846417294
 30
0.0
 40
7.0
  0
ARC
  5
473
100
AcDbEntity
  8
_Y__________
  6
CONTINUOUS
 62
         5
100
AcDbCircle
 10
1214.9233403763
 20
150.1846417294
 30
0.0
 40
8.0
100
AcDbArc
 50
352.9901372228
 51
621.2264515101
  0
CIRCLE
  5
474
100
AcDbEntity
  8
_Y__________
  6
CONTINUOUS
 62
         7
100
AcDbCircle
 10
1214.9233403763
 20
150.1846417294
 30
0.0
 40
9.5
  0
CIRCLE
  5
475
100
AcDbEntity
  8
_Y__________
  6
CONTINUOUS
 62
         7
100
AcDbCircle
 10
1214.9233403763
 20
150.1846417294
 30
0.0
 40
8.5
  0
CIRCLE
  5
476
100
AcDbEntity
  8
_Y__________
  6
CONTINUOUS
 62
         7
100
AcDbCircle
 10
1214.9233403763
 20
150.1846417294
 30
0.0
 40
22.225
  0
LINE
  5
477
100
AcDbEntity
  8
_Y__________
  6
CONTINUOUS
 62
         7
100
AcDbLine
 10
1245.1617223278
 20
158.2346417294
 30
0.0
 11
1240.4233403763
 21
158.2346417294
 31
0.0
  0
LINE
  5
478
100
AcDbEntity
  8
_Y__________
  6
CONTINUOUS
 62
         7
100
AcDbLine
 10
1245.555807609
 20
158.6287270106
 30
0.0
 11
1245.1617223278
 21
158.2346417294
 31
0.0
  0
LINE
  5
479
100
AcDbEntity
  8
_Y__________
  6
CONTINUOUS
 62
         7
100
AcDbLine
 10
1239.9233403763
 20
157.7346417294
 30
0.0
 11
1240.4233403763
 21
158.2346417294
 31
0.0
  0
LINE
  5
47A
100
AcDbEntity
  8
_Y__________
  6
CONTINUOUS
 62
         7
100
AcDbLine
 10
1245.555807609
 20
141.7405564482
 30
0.0
 11
1245.1617223278
 21
142.1346417294
 31
0.0
  0
LINE
  5
47B
100
AcDbEntity
  8
_Y__________
  6
CONTINUOUS
 62
         7
100
AcDbLine
 10
1239.9233403763
 20
142.6346417294
 30
0.0
 11
1240.4233403763
 21
142.1346417294
 31
0.0
  0
LINE
  5
47C
100
AcDbEntity
  8
_Y__________
  6
CONTINUOUS
 62
         7
100
AcDbLine
 10
1239.9233403763
 20
142.6346417294
 30
0.0
 11
1239.9233403763
 21
157.7346417294
 31
0.0
  0
LINE
  5
47D
100
AcDbEntity
  8
_Y__________
  6
CONTINUOUS
 62
         7
100
AcDbLine
 10
1245.1617223278
 20
142.1346417294
 30
0.0
 11
1240.4233403763
 21
142.1346417294
 31
0.0
  0
LINE
  5
47E
100
AcDbEntity
  8
_Y__________
  6
CONTINUOUS
 62
         7
100
AcDbLine
 10
1184.2908731435
 20
158.6287270106
 30
0.0
 11
1184.6849584247
 21
158.2346417294
 31
0.0
  0
LINE
  5
47F
100
AcDbEntity
  8
_Y__________
  6
CONTINUOUS
 62
         7
100
AcDbLine
 10
1192.1233403763
 20
157.7346417294
 30
0.0
 11
1191.6233403763
 21
158.2346417294
 31
0.0
  0
LINE
  5
480
100
AcDbEntity
  8
_Y__________
  6
CONTINUOUS
 62
         7
100
AcDbLine
 10
1191.6233403763
 20
158.2346417294
 30
0.0
 11
1184.6849584247
 21
158.2346417294
 31
0.0
  0
LINE
  5
481
100
AcDbEntity
  8
_Y__________
  6
CONTINUOUS
 62
         7
100
AcDbLine
 10
1184.2908731435
 20
141.7405564482
 30
0.0
 11
1184.6849584247
 21
142.1346417294
 31
0.0
  0
LINE
  5
482
100
AcDbEntity
  8
_Y__________
  6
CONTINUOUS
 62
         7
100
AcDbLine
 10
1191.6233403763
 20
142.1346417294
 30
0.0
 11
1184.6849584247
 21
142.1346417294
 31
0.0
  0
LINE
  5
483
100
AcDbEntity
  8
_Y__________
  6
CONTINUOUS
 62
         7
100
AcDbLine
 10
1192.1233403763
 20
142.6346417294
 30
0.0
 11
1191.6233403763
 21
142.1346417294
 31
0.0
  0
LINE
  5
484
100
AcDbEntity
  8
_Y__________
  6
CONTINUOUS
 62
         7
100
AcDbLine
 10
1192.1233403763
 20
142.6346417294
 30
0.0
 11
1192.1233403763
 21
157.7346417294
 31
0.0
  0
LINE
  5
485
100
AcDbEntity
  8
_Y__________
  6
CONTINUOUS
 62
         7
100
AcDbLine
 10
1331.7533403763
 20
161.4188234458
 30
0.0
 11
1331.7533403763
 21
138.9504600129
 31
0.0
  0
ARC
  5
486
100
AcDbEntity
  8
_Y__________
  6
CONTINUOUS
 62
         7
100
AcDbCircle
 10
1332.9533403763
 20
161.4188234458
 30
0.0
 40
1.2
100
AcDbArc
 50
98.2971449698
 51
180.0
  0
ARC
  5
487
100
AcDbEntity
  8
_Y__________
  6
CONTINUOUS
 62
         7
100
AcDbCircle
 10
1332.9533403763
 20
138.9504600129
 30
0.0
 40
1.2
100
AcDbArc
 50
180.0
 51
261.7028550302
  0
LINE
  5
488
100
AcDbEntity
  8
_Y__________
  6
CONTINUOUS
 62
         7
100
AcDbLine
 10
1331.7533403763
 20
-1.7091530242
 30
0.0
 11
1331.7533403763
 21
-24.1775164571
 31
0.0
  0
ARC
  5
489
100
AcDbEntity
  8
_Y__________
  6
CONTINUOUS
 62
         7
100
AcDbCircle
 10
1332.9533403763
 20
-1.7091530242
 30
0.0
 40
1.2
100
AcDbArc
 50
98.2971449698
 51
180.0
  0
ARC
  5
48A
100
AcDbEntity
  8
_Y__________
  6
CONTINUOUS
 62
         7
100
AcDbCircle
 10
1332.9533403763
 20
-24.1775164571
 30
0.0
 40
1.2
100
AcDbArc
 50
180.0
 51
261.7028550302
  0
LINE
  5
48B
100
AcDbEntity
  8
_Y__________
  6
CONTINUOUS
 62
         7
100
AcDbLine
 10
1360.2033403763
 20
-4.9433347407
 30
0.0
 11
1360.2033403763
 21
-20.9433347407
 31
0.0
  0
LINE
  5
48C
100
AcDbEntity
  8
_Y__________
  6
CONTINUOUS
 62
         5
100
AcDbLine
 10
1336.6561830887
 20
-20.9433347407
 30
0.0
 11
1360.2033403763
 21
-20.9433347407
 31
0.0
  0
ARC
  5
48D
100
AcDbEntity
  8
_Y__________
  6
CONTINUOUS
 62
         7
100
AcDbCircle
 10
1332.7533403763
 20
-22.0933347407
 30
0.0
 40
1.0
100
AcDbArc
 50
90.0
 51
180.0
  0
LINE
  5
48E
100
AcDbEntity
  8
_Y__________
  6
CONTINUOUS
 62
         7
100
AcDbLine
 10
1332.7533403763
 20
-21.0933347407
 30
0.0
 11
1335.5233403763
 21
-21.0933347407
 31
0.0
  0
LINE
  5
48F
100
AcDbEntity
  8
_Y__________
  6
CONTINUOUS
 62
         7
100
AcDbLine
 10
1335.8711121475
 20
-21.1865199059
 30
0.0
 11
1335.5233403763
 21
-21.0933347407
 31
0.0
  0
LINE
  5
490
100
AcDbEntity
  8
_Y__________
  6
CONTINUOUS
 62
         7
100
AcDbLine
 10
1335.9228759565
 20
-21.1933347407
 30
0.0
 11
1336.3233403763
 21
-21.1933347407
 31
0.0
  0
ARC
  5
491
100
AcDbEntity
  8
_Y__________
  6
CONTINUOUS
 62
         7
100
AcDbCircle
 10
1336.3233403763
 20
-20.9933347407
 30
0.0
 40
0.2
100
AcDbArc
 50
270.0
 51
314.9999999962
  0
LINE
  5
492
100
AcDbEntity
  8
_Y__________
  6
CONTINUOUS
 62
         7
100
AcDbLine
 10
1336.4647617325
 20
-21.1347560969
 30
0.0
 11
1337.6561830887
 21
-19.9433347407
 31
0.0
  0
LINE
  5
493
100
AcDbEntity
  8
_Y__________
  6
CONTINUOUS
 62
         7
100
AcDbLine
 10
1337.6561830887
 20
-19.9433347407
 30
0.0
 11
1360.2033403763
 21
-19.9433347407
 31
0.0
  0
LINE
  5
494
100
AcDbEntity
  8
_Y__________
  6
CONTINUOUS
 62
         7
100
AcDbLine
 10
1337.6561830887
 20
-5.9433347407
 30
0.0
 11
1337.6561830887
 21
-19.9433347407
 31
0.0
  0
LINE
  5
495
100
AcDbEntity
  8
_Y__________
  6
CONTINUOUS
 62
         7
100
AcDbLine
 10
1337.6561830887
 20
-5.9433347407
 30
0.0
 11
1360.2033403763
 21
-5.9433347407
 31
0.0
  0
LINE
  5
496
100
AcDbEntity
  8
_Y__________
  6
CONTINUOUS
 62
         5
100
AcDbLine
 10
1336.6561830887
 20
-4.9433347407
 30
0.0
 11
1360.2033403763
 21
-4.9433347407
 31
0.0
  0
LINE
  5
497
100
AcDbEntity
  8
_Y__________
  6
CONTINUOUS
 62
         7
100
AcDbLine
 10
1335.5233403763
 20
-4.7933347407
 30
0.0
 11
1335.5233403763
 21
-21.0933347407
 31
0.0
  0
LINE
  5
498
100
AcDbEntity
  8
_Y__________
  6
CONTINUOUS
 62
         7
100
AcDbLine
 10
1336.5233403763
 20
-5.1498119
 30
0.0
 11
1336.5233403763
 21
-20.6220880762
 31
0.0
  0
ARC
  5
499
100
AcDbEntity
  8
_Y__________
  6
CONTINUOUS
 62
         7
100
AcDbCircle
 10
1336.3233403763
 20
-4.8933347407
 30
0.0
 40
0.2
100
AcDbArc
 50
45.0000000038
 51
90.0
  0
LINE
  5
49A
100
AcDbEntity
  8
_Y__________
  6
CONTINUOUS
 62
         7
100
AcDbLine
 10
1336.4647617325
 20
-4.7519133844
 30
0.0
 11
1337.6561830887
 21
-5.9433347407
 31
0.0
  0
LINE
  5
49B
100
AcDbEntity
  8
_Y__________
  6
CONTINUOUS
 62
         7
100
AcDbLine
 10
1335.9228759565
 20
-4.6933347407
 30
0.0
 11
1336.3233403763
 21
-4.6933347407
 31
0.0
  0
LINE
  5
49C
100
AcDbEntity
  8
_Y__________
  6
CONTINUOUS
 62
         7
100
AcDbLine
 10
1335.8711121475
 20
-4.7001495754
 30
0.0
 11
1335.5233403763
 21
-4.7933347407
 31
0.0
  0
ARC
  5
49D
100
AcDbEntity
  8
_Y__________
  6
CONTINUOUS
 62
         7
100
AcDbCircle
 10
1335.9228759565
 20
-4.8933347407
 30
0.0
 40
0.2
100
AcDbArc
 50
90.0
 51
105.0
  0
LINE
  5
49E
100
AcDbEntity
  8
_Y__________
  6
CONTINUOUS
 62
         7
100
AcDbLine
 10
1332.7533403763
 20
-4.7933347407
 30
0.0
 11
1335.5233403763
 21
-4.7933347407
 31
0.0
  0
ARC
  5
49F
100
AcDbEntity
  8
_Y__________
  6
CONTINUOUS
 62
         7
100
AcDbCircle
 10
1332.7533403763
 20
-3.7933347407
 30
0.0
 40
1.0
100
AcDbArc
 50
180.0
 51
270.0
  0
DIMENSION
  5
4A2
100
AcDbEntity
  8
L1_90
  6
CONTINUOUS
 62
         4
100
AcDbDimension
  2
*D28
 10
1400.0033403763
 20
219.9767101041
 30
0.0
 11
1448.6669299112
 21
222.0017101041
 31
0.0
  3
DIMSTYLE2
100
AcDbAlignedDimension
 13
1400.0033403763
 23
172.4096417294
 33
0.0
 14
1500.0033403763
 24
161.0327179407
 34
0.0
100
AcDbRotatedDimension
  0
TEXT
  5
4AF
100
AcDbEntity
  8
L1_90
  6
CONTINUOUS
 62
         2
100
AcDbText
 10
1607.8551181589
 20
224.3704784082
 30
0.0
 40
4.5
  1
531405
 41
0.98
  7
BOX
100
AcDbText
  0
ENDSEC
  0
SECTION
  2
OBJECTS
  0
DICTIONARY
  5
19
100
AcDbDictionary
  3
ACAD_GROUP
350
1A
  3
ACAD_MLINESTYLE
350
1B
  0
DICTIONARY
  5
1A
102
{ACAD_REACTORS
330
19
102
}
100
AcDbDictionary
  0
DICTIONARY
  5
1B
102
{ACAD_REACTORS
330
19
102
}
100
AcDbDictionary
  3
STANDARD
350
1C
  0
MLINESTYLE
  5
1C
102
{ACAD_REACTORS
330
1B
102
}
100
AcDbMlineStyle
  2
STANDARD
 70
         0
  3

 62
         0
 51
90.0
 52
90.0
 71
         2
 49
0.5
 62
       256
  6
BYLAYER
 49
-0.5
 62
       256
  6
BYLAYER
  0
ENDSEC
  0
EOF
