  0
SECTION
  2
HEADER
  9
$ACADVER
  1
AC1014
  9
$ACADMAINTVER
 70
         0
  9
$DWGCODEPAGE
  3
BIG5
  9
$INSBASE
 10
0.0
 20
0.0
 30
0.0
  9
$EXTMIN
 10
1915.8907425182
 20
429.7377569326
 30
0.0
  9
$EXTMAX
 10
2475.1655001498
 20
711.7067425757
 30
0.0
  9
$LIMMIN
 10
0.0
 20
0.0
  9
$LIMMAX
 10
0.0
 20
0.0
  9
$ORTHOMODE
 70
         0
  9
$REGENMODE
 70
         1
  9
$FILLMODE
 70
         1
  9
$QTEXTMODE
 70
         0
  9
$MIRRTEXT
 70
         1
  9
$DRAGMODE
 70
         2
  9
$LTSCALE
 40
1.0
  9
$OSMODE
 70
         0
  9
$ATTMODE
 70
         1
  9
$TEXTSIZE
 40
1.5
  9
$TRACEWID
 40
0.05
  9
$TEXTSTYLE
  7
STANDARD
  9
$CLAYER
  8
0
  9
$CELTYPE
  6
CONTINUOUS
  9
$CECOLOR
 62
         6
  9
$CELTSCALE
 40
1.0
  9
$DELOBJ
 70
         1
  9
$DISPSILH
 70
         0
  9
$DIMSCALE
 40
1.0
  9
$DIMASZ
 40
0.18
  9
$DIMEXO
 40
0.0625
  9
$DIMDLI
 40
0.38
  9
$DIMRND
 40
0.0
  9
$DIMDLE
 40
0.0
  9
$DIMEXE
 40
0.25
  9
$DIMTP
 40
0.01
  9
$DIMTM
 40
-0.01
  9
$DIMTXT
 40
2.7
  9
$DIMCEN
 40
0.09
  9
$DIMTSZ
 40
0.0
  9
$DIMTOL
 70
         0
  9
$DIMLIM
 70
         0
  9
$DIMTIH
 70
         1
  9
$DIMTOH
 70
         1
  9
$DIMSE1
 70
         0
  9
$DIMSE2
 70
         0
  9
$DIMTAD
 70
         0
  9
$DIMZIN
 70
         0
  9
$DIMBLK
  1

  9
$DIMASO
 70
         1
  9
$DIMSHO
 70
         1
  9
$DIMPOST
  1

  9
$DIMAPOST
  1

  9
$DIMALT
 70
         0
  9
$DIMALTD
 70
         2
  9
$DIMALTF
 40
25.4
  9
$DIMLFAC
 40
1.0
  9
$DIMTOFL
 70
         0
  9
$DIMTVP
 40
0.0
  9
$DIMTIX
 70
         0
  9
$DIMSOXD
 70
         0
  9
$DIMSAH
 70
         0
  9
$DIMBLK1
  1

  9
$DIMBLK2
  1

  9
$DIMSTYLE
  2
STANDARD
  9
$DIMCLRD
 70
         0
  9
$DIMCLRE
 70
         0
  9
$DIMCLRT
 70
         6
  9
$DIMTFAC
 40
1.0
  9
$DIMGAP
 40
0.09
  9
$DIMJUST
 70
         0
  9
$DIMSD1
 70
         0
  9
$DIMSD2
 70
         0
  9
$DIMTOLJ
 70
         1
  9
$DIMTZIN
 70
         0
  9
$DIMALTZ
 70
         0
  9
$DIMALTTZ
 70
         0
  9
$DIMFIT
 70
         3
  9
$DIMUPT
 70
         0
  9
$DIMUNIT
 70
         2
  9
$DIMDEC
 70
         4
  9
$DIMTDEC
 70
         4
  9
$DIMALTU
 70
         2
  9
$DIMALTTD
 70
         2
  9
$DIMTXSTY
  7
STANDARD
  9
$DIMAUNIT
 70
         0
  9
$LUNITS
 70
         2
  9
$LUPREC
 70
        10
  9
$SKETCHINC
 40
0.1
  9
$FILLETRAD
 40
0.0
  9
$AUNITS
 70
         0
  9
$AUPREC
 70
         0
  9
$MENU
  1
acad
  9
$ELEVATION
 40
0.0
  9
$PELEVATION
 40
0.0
  9
$THICKNESS
 40
0.0
  9
$LIMCHECK
 70
         0
  9
$BLIPMODE
 70
         1
  9
$CHAMFERA
 40
0.0
  9
$CHAMFERB
 40
0.0
  9
$CHAMFERC
 40
0.0
  9
$CHAMFERD
 40
0.0
  9
$SKPOLY
 70
         0
  9
$TDCREATE
 40
0.000000000
  9
$TDUPDATE
 40
0.000000000
  9
$TDINDWG
 40
0.0000000000
  9
$TDUSRTIMER
 40
0.0000000000
  9
$USRTIMER
 70
         1
  9
$ANGBASE
 50
0.0
  9
$ANGDIR
 70
         0
  9
$PDMODE
 70
         2
  9
$PDSIZE
 40
0.0
  9
$PLINEWID
 40
0.0
  9
$COORDS
 70
         1
  9
$SPLFRAME
 70
         0
  9
$SPLINETYPE
 70
         6
  9
$SPLINESEGS
 70
         8
  9
$ATTDIA
 70
         0
  9
$ATTREQ
 70
         1
  9
$HANDLING
 70
         1
  9
$HANDSEED
  5
1E8
  9
$SURFTAB1
 70
         6
  9
$SURFTAB2
 70
         6
  9
$SURFTYPE
 70
         6
  9
$SURFU
 70
         6
  9
$SURFV
 70
         6
  9
$UCSNAME
  2

  9
$UCSORG
 10
0.0
 20
0.0
 30
0.0
  9
$UCSXDIR
 10
1.0
 20
0.0
 30
0.0
  9
$UCSYDIR
 10
0.0
 20
1.0
 30
0.0
  9
$PUCSNAME
  2

  9
$PUCSORG
 10
0.0
 20
0.0
 30
0.0
  9
$PUCSXDIR
 10
1.0
 20
0.0
 30
0.0
  9
$PUCSYDIR
 10
0.0
 20
1.0
 30
0.0
  9
$USERI1
 70
         0
  9
$USERI2
 70
         0
  9
$USERI3
 70
         0
  9
$USERI4
 70
         0
  9
$USERI5
 70
         0
  9
$USERR1
 40
0.0
  9
$USERR2
 40
0.0
  9
$USERR3
 40
0.0
  9
$USERR4
 40
0.0
  9
$USERR5
 40
0.0
  9
$WORLDVIEW
 70
         1
  9
$SHADEDGE
 70
         3
  9
$SHADEDIF
 70
        70
  9
$TILEMODE
 70
         1
  9
$MAXACTVP
 70
        16
  9
$PINSBASE
 10
0.0
 20
0.0
 30
0.0
  9
$PLIMCHECK
 70
         0
  9
$PEXTMIN
 10
1.0000000000E+20
 20
1.0000000000E+20
 30
1.0000000000E+20
  9
$PEXTMAX
 10
-1.0000000000E+20
 20
-1.0000000000E+20
 30
-1.0000000000E+20
  9
$PLIMMIN
 10
0.0
 20
0.0
  9
$PLIMMAX
 10
12.0
 20
9.0
  9
$UNITMODE
 70
         0
  9
$VISRETAIN
 70
         0
  9
$PLINEGEN
 70
         1
  9
$PSLTSCALE
 70
         0
  9
$TREEDEPTH
 70
      3020
  9
$PICKSTYLE
 70
         1
  9
$CMLSTYLE
  2
STANDARD
  9
$CMLJUST
 70
         0
  9
$CMLSCALE
 40
1.0
  9
$PROXYGRAPHICS
 70
         0
  9
$MEASUREMENT
 70
         0
  0
ENDSEC
  0
SECTION
  2
CLASSES
  0
CLASS
  1
LWPOLYLINE
  2
AcDbPolyline
  3
"AutoCAD"
 90
        0
280
         0
281
         1
  0
CLASS
  1
IMAGE
  2
AcDbRasterImage
  3
ISM
 90
      127
280
         0
281
         1
  0
CLASS
  1
OLE2FRAME
  2
AcDbOle2Frame
  3
""
 90
        0
280
         0
281
         1
  0
CLASS
  1
HATCH
  2
AcDbHatch
  3
"ACAD_SEDONA"
 90
        0
280
         0
281
         1
  0
CLASS
  1
DICTIONARYVAR
  2
AcDbDictionaryVar
  3
"AutoCAD"
 90
        0
280
         0
281
         0
  0
CLASS
  1
RASTERVARIABLES
  2
AcDbRasterVariables
  3
ISM
 90
        0
280
         0
281
         0
  0
CLASS
  1
IMAGEDEF
  2
AcDbRasterImageDef
  3
ISM
 90
        0
280
         0
281
         0
  0
CLASS
  1
IMAGEDEF_REACTOR
  2
AcDbRasterImageDefReactor
  3
ISM
 90
        1
280
         0
281
         0
  0
CLASS
  1
IDBUFFER
  2
AcDbIdBuffer
  3
"Acad"
 90
        0
280
         0
281
         0
  0
CLASS
  1
SPATIAL_FILTER
  2
AcDbSpatialFilter
  3
"Acad"
 90
        0
280
         0
281
         0
  0
CLASS
  1
XRECORD
  2
AcDbXrecord
  3
"<Built In>"
 90
        0
280
         0
281
         0
  0
CLASS
  1
SORTENTSTABLE
  2
AcDbSortentsTable
  3
"AutoCAD"
 90
        0
280
         0
281
         0
  0
CLASS
  1
LAYER_INDEX
  2
AcDbLayerIndex
  3
"Acad"
 90
        0
280
         0
281
         0
  0
CLASS
  1
SPATIAL_INDEX
  2
AcDbSpatialIndex
  3
"Acad"
 90
        0
280
         0
281
         0
  0
CLASS
  1
OBJECT_PTR
  2
CAseDLPNTableRecord
  3
"ASE-LPNTableRecord"
 90
        1
280
         0
281
         0
  0
CLASS
  1
LAYOUT
  2
AcDbLayout
  3
"AutoCAD 2000"
 90
        1
280
         0
281
         0
  0
CLASS
  1
PLOTSETTINGS
  2
AcDbPlotSettings
  3
"AutoCAD 2000"
 90
        1
280
         0
281
         0
  0
CLASS
  1
ACDBDICTIONARYWDFLT
  2
AcDbDictionaryWithDefault
  3
"AutoCAD 2000"
 90
        1
280
         0
281
         0
  0
CLASS
  1
ACDBPLACEHOLDER
  2
AcDbPlaceHolder
  3
"AutoCAD 2000"
 90
        1
280
         0
281
         0
  0
CLASS
  1
VBA_PROJECT
  2
AcDbVbaProject
  3
"acadvba"
 90
        1
280
         0
281
         0
  0
CLASS
  1
WIPEOUT
  2
AcDbWipeout
  3
WipeOut|AutoCAD Express Tool|expresstools@autodesk.com
 90
      127
280
         0
281
         1
  0
CLASS
  1
WIPEOUTVARIABLES
  2
AcDbWipeoutVariables
  3
WipeOut|AutoCAD Express Tool|expresstools@autodesk.com
 90
        0
280
         0
281
         0
  0
CLASS
  1
RTEXT
  2
RText
  3
RText|AutoCAD Express Tool|expresstools@autodesk.com
 90
        0
280
         0
281
         1
  0
CLASS
  1
ARCALIGNEDTEXT
  2
AcDbArcAlignedText
  3
ATEXT|AutoCAD Express Tool|expresstools@autodesk.com
 90
        0
280
         0
281
         1
  0
ENDSEC
  0
SECTION
  2
TABLES
  0
TABLE
  2
VPORT
  5
7
100
AcDbSymbolTable
 70
         1
  0
VPORT
  5
15
100
AcDbSymbolTableRecord
100
AcDbViewportTableRecord
  2
*ACTIVE
 70
         0
 10
0.0
 20
0.0
 11
1.0
 21
1.0
 12
2195.528121334
 22
570.7222497542
 13
0.0
 23
0.0
 14
1.0
 24
1.0
 15
0.0
 25
0.0
 16
0.0
 26
0.0
 36
1.0
 17
0.0
 27
0.0
 37
0.0
 40
281.9689856431
 41
1.9834619625
 42
50.0
 43
0.0
 44
0.0
 50
0.0
 51
0.0
 71
         0
 72
       100
 73
         1
 74
         1
 75
         0
 76
         0
 77
         0
 78
         0
  0
ENDTAB
  0
TABLE
  2
LTYPE
  5
4
100
AcDbSymbolTable
 70
         6
  0
LTYPE
  5
11
100
AcDbSymbolTableRecord
100
AcDbLinetypeTableRecord
  2
BYBLOCK
 70
        64
  3

 72
        65
 73
         0
 40
0.0
  0
LTYPE
  5
12
100
AcDbSymbolTableRecord
100
AcDbLinetypeTableRecord
  2
BYLAYER
 70
        64
  3

 72
        65
 73
         0
 40
0.0
  0
LTYPE
  5
13
100
AcDbSymbolTableRecord
100
AcDbLinetypeTableRecord
  2
CONTINUOUS
 70
        64
  3
Solid line
 72
        65
 73
         0
 40
0.0
  0
LTYPE
  5
1D
100
AcDbSymbolTableRecord
100
AcDbLinetypeTableRecord
  2
DASHED
 70
        64
  3
_ _ _ _ _ _ _ _ _ _ _ _ _ _ _ _
 72
        65
 73
         2
 40
0.2
 49
0.1
 74
         0
 49
-0.1
 74
         0
  0
LTYPE
  5
1E
100
AcDbSymbolTableRecord
100
AcDbLinetypeTableRecord
  2
CENTER
 70
        64
  3
___ _ ___ _ ___ _ ___ _ ___ _ ___ _ ___ _ ___ _
 72
        65
 73
         4
 40
0.95
 49
0.625
 74
         0
 49
-0.125
 74
         0
 49
0.075
 74
         0
 49
-0.125
 74
         0
  0
LTYPE
  5
1F
100
AcDbSymbolTableRecord
100
AcDbLinetypeTableRecord
  2
PHANTOM
 70
        64
  3
______  __  __  ______  __  __  ______  __  __  
 72
        65
 73
         6
 40
1.025
 49
0.625
 74
         0
 49
-0.125
 74
         0
 49
0.075
 74
         0
 49
-0.125
 74
         0
 49
0.075
 74
         0
 49
-0.125
 74
         0
  0
ENDTAB
  0
TABLE
  2
LAYER
  5
2
100
AcDbSymbolTable
 70
        11
  0
LAYER
  5
14
100
AcDbSymbolTableRecord
100
AcDbLayerTableRecord
  2
0
 70
         0
 62
         7
  6
CONTINUOUS
  0
LAYER
  5
21
100
AcDbSymbolTableRecord
100
AcDbLayerTableRecord
  2
____
 70
         0
 62
         7
  6
CONTINUOUS
  0
LAYER
  5
22
100
AcDbSymbolTableRecord
100
AcDbLayerTableRecord
  2
____
 70
         1
 62
         7
  6
CONTINUOUS
  0
LAYER
  5
23
100
AcDbSymbolTableRecord
100
AcDbLayerTableRecord
  2
____
 70
         1
 62
         7
  6
CONTINUOUS
  0
LAYER
  5
24
100
AcDbSymbolTableRecord
100
AcDbLayerTableRecord
  2
____
 70
         1
 62
         7
  6
CONTINUOUS
  0
LAYER
  5
25
100
AcDbSymbolTableRecord
100
AcDbLayerTableRecord
  2
___G__
 70
         1
 62
         7
  6
CONTINUOUS
  0
LAYER
  5
26
100
AcDbSymbolTableRecord
100
AcDbLayerTableRecord
  2
______
 70
         1
 62
         7
  6
CONTINUOUS
  0
LAYER
  5
27
100
AcDbSymbolTableRecord
100
AcDbLayerTableRecord
  2
______
 70
         1
 62
         7
  6
CONTINUOUS
  0
LAYER
  5
28
100
AcDbSymbolTableRecord
100
AcDbLayerTableRecord
  2
______
 70
         1
 62
         7
  6
CONTINUOUS
  0
LAYER
  5
29
100
AcDbSymbolTableRecord
100
AcDbLayerTableRecord
  2
___T__
 70
         1
 62
         7
  6
CONTINUOUS
  0
LAYER
  5
122
100
AcDbSymbolTableRecord
100
AcDbLayerTableRecord
  2
DEFPOINTS
 70
         0
 62
        -7
  6
CONTINUOUS
  0
ENDTAB
  0
TABLE
  2
STYLE
  5
3
100
AcDbSymbolTable
 70
         8
  0
STYLE
  5
17
100
AcDbSymbolTableRecord
100
AcDbTextStyleTableRecord
  2
STANDARD
 70
         0
 40
0.0
 41
1.0
 50
0.0
 71
         0
 42
0.0
  3
txt
  4

  0
STYLE
  5
12B
100
AcDbSymbolTableRecord
100
AcDbTextStyleTableRecord
  2
BOX
 70
         0
 40
1.0
 41
1.0
 50
0.0
 71
         0
 42
0.2
  3
txt.shx
  4

  0
STYLE
  5
139
100
AcDbSymbolTableRecord
100
AcDbTextStyleTableRecord
  2
BOX
 70
         0
 40
1.0
 41
1.0
 50
0.0
 71
         0
 42
0.2
  3
txt.shx
  4

  0
STYLE
  5
147
100
AcDbSymbolTableRecord
100
AcDbTextStyleTableRecord
  2
BOX
 70
         0
 40
1.0
 41
1.0
 50
0.0
 71
         0
 42
0.2
  3
txt.shx
  4

  0
STYLE
  5
181
100
AcDbSymbolTableRecord
100
AcDbTextStyleTableRecord
  2
BOX
 70
         0
 40
1.0
 41
1.0
 50
0.0
 71
         0
 42
0.2
  3
txt.shx
  4

  0
STYLE
  5
18F
100
AcDbSymbolTableRecord
100
AcDbTextStyleTableRecord
  2
BOX
 70
         0
 40
1.0
 41
1.0
 50
0.0
 71
         0
 42
0.2
  3
txt.shx
  4

  0
STYLE
  5
1E3
100
AcDbSymbolTableRecord
100
AcDbTextStyleTableRecord
  2
BOX
 70
         0
 40
1.0
 41
1.0
 50
0.0
 71
         0
 42
0.2
  3
txt.shx
  4

  0
STYLE
  5
1E6
100
AcDbSymbolTableRecord
100
AcDbTextStyleTableRecord
  2
BOX
 70
         0
 40
1.0
 41
1.0
 50
0.0
 71
         0
 42
0.2
  3
txt.shx
  4

  0
ENDTAB
  0
TABLE
  2
VIEW
  5
5
100
AcDbSymbolTable
 70
         0
  0
ENDTAB
  0
TABLE
  2
UCS
  5
6
100
AcDbSymbolTable
 70
         1
  0
UCS
  5
20
100
AcDbSymbolTableRecord
100
AcDbUCSTableRecord
  2
CK_VIEW_1
 70
         0
 10
0.0
 20
0.0
 30
1.0
 11
1.0
 21
0.0
 31
0.0
 12
0.0
 22
1.0
 32
0.0
  0
ENDTAB
  0
TABLE
  2
APPID
  5
8
100
AcDbSymbolTable
 70
         1
  0
APPID
  5
16
100
AcDbSymbolTableRecord
100
AcDbRegAppTableRecord
  2
ACAD
 70
         0
  0
ENDTAB
  0
TABLE
  2
DIMSTYLE
  5
9
100
AcDbSymbolTable
 70
         2
  0
DIMSTYLE
105
18
100
AcDbSymbolTableRecord
100
AcDbDimStyleTableRecord
  2
STANDARD
 70
         0
  3

  4

  5

  6

  7

 40
1.0
 41
0.18
 42
0.0625
 43
0.38
 44
0.18
 45
0.0
 46
0.0
 47
0.0
 48
0.0
 71
         0
 72
         0
 73
         1
 74
         1
 75
         0
 76
         0
 77
         0
 78
         0
140
0.18
141
0.09
142
0.0
143
25.4
144
1.0
145
0.0
146
1.0
147
0.09
170
         0
171
         2
172
         0
173
         0
174
         0
175
         0
176
         0
177
         0
178
         0
270
         2
271
         4
272
         4
273
         2
274
         2
275
         0
280
         0
281
         0
282
         0
283
         1
284
         0
285
         0
286
         0
287
         0
288
         0
340
17
  0
DIMSTYLE
105
11E
100
AcDbSymbolTableRecord
100
AcDbDimStyleTableRecord
  2
DIMSTYLE1
 70
         0
  3

  4

  5

  6

  7

 40
1.0
 41
2.7
 42
0.0625
 43
0.38
 44
2.7
 45
0.0
 46
0.0
 47
0.0
 48
0.0
 71
         0
 72
         0
 73
         1
 74
         1
 75
         0
 76
         0
 77
         0
 78
         0
140
2.7
141
0.09
142
0.0
143
25.4
144
1.0
145
0.0
146
1.0
147
0.09
170
         0
171
         2
172
         0
173
         0
174
         0
175
         0
176
         0
177
         0
178
         0
270
         2
271
         4
272
         4
273
         2
274
         2
275
         0
280
         0
281
         0
282
         0
283
         1
284
         0
285
         0
286
         0
287
         0
288
         0
340
17
  0
ENDTAB
  0
TABLE
  2
BLOCK_RECORD
  5
1
100
AcDbSymbolTable
 70
         7
  0
BLOCK_RECORD
  5
A
100
AcDbSymbolTableRecord
100
AcDbBlockTableRecord
  2
*MODEL_SPACE
  0
BLOCK_RECORD
  5
B
100
AcDbSymbolTableRecord
100
AcDbBlockTableRecord
  2
*PAPER_SPACE
  0
BLOCK_RECORD
  5
11F
100
AcDbSymbolTableRecord
100
AcDbBlockTableRecord
  2
*D0
  0
BLOCK_RECORD
  5
12E
100
AcDbSymbolTableRecord
100
AcDbBlockTableRecord
  2
*D1
  0
BLOCK_RECORD
  5
13C
100
AcDbSymbolTableRecord
100
AcDbBlockTableRecord
  2
*D2
  0
BLOCK_RECORD
  5
176
100
AcDbSymbolTableRecord
100
AcDbBlockTableRecord
  2
*D3
  0
BLOCK_RECORD
  5
184
100
AcDbSymbolTableRecord
100
AcDbBlockTableRecord
  2
*D4
  0
BLOCK_RECORD
  5
195
100
AcDbSymbolTableRecord
100
AcDbBlockTableRecord
  2
*X5
  0
BLOCK_RECORD
  5
1D8
100
AcDbSymbolTableRecord
100
AcDbBlockTableRecord
  2
*D6
  0
ENDTAB
  0
ENDSEC
  0
SECTION
  2
BLOCKS
  0
BLOCK
  5
D
100
AcDbEntity
  8
0
100
AcDbBlockBegin
  2
*MODEL_SPACE
 70
         0
 10
0.0
 20
0.0
 30
0.0
  3
*MODEL_SPACE
  1

  0
ENDBLK
  5
E
100
AcDbEntity
  8
0
100
AcDbBlockEnd
  0
BLOCK
  5
F
100
AcDbEntity
 67
         1
  8
0
100
AcDbBlockBegin
  2
*PAPER_SPACE
 70
         0
 10
0.0
 20
0.0
 30
0.0
  3
*PAPER_SPACE
  1

  0
ENDBLK
  5
10
100
AcDbEntity
 67
         1
  8
0
100
AcDbBlockEnd
  0
BLOCK
  5
120
100
AcDbEntity
  8
0
100
AcDbBlockBegin
  2
*D0
 70
        65
 10
0.0
 20
0.0
 30
0.0
  3
*D0
  1

  0
POINT
  5
123
100
AcDbEntity
  8
DEFPOINTS
  6
CONTINUOUS
 62
         0
100
AcDbPoint
 10
2237.25882146
 20
614.3031748259
 30
0.0
  0
POINT
  5
124
100
AcDbEntity
  8
DEFPOINTS
  6
CONTINUOUS
 62
         0
100
AcDbPoint
 10
2192.9247098488
 20
614.3031748259
 30
0.0
  0
POINT
  5
125
100
AcDbEntity
  8
DEFPOINTS
  6
CONTINUOUS
 62
         0
100
AcDbPoint
 10
2192.9247098488
 20
576.2031748259
 30
0.0
  0
LINE
  5
126
100
AcDbEntity
  8
____
  6
CONTINUOUS
 62
         4
100
AcDbLine
 10
2194.2747098488
 20
614.3031748259
 30
0.0
 11
2237.93382146
 21
614.3031748259
 31
0.0
  0
LINE
  5
127
100
AcDbEntity
  8
____
  6
CONTINUOUS
 62
         4
100
AcDbLine
 10
2194.2747098488
 20
576.2031748259
 30
0.0
 11
2237.93382146
 21
576.2031748259
 31
0.0
  0
LINE
  5
128
100
AcDbEntity
  8
____
  6
CONTINUOUS
 62
         4
100
AcDbLine
 10
2237.25882146
 20
614.3031748259
 30
0.0
 11
2237.25882146
 21
576.2031748259
 31
0.0
  0
SOLID
  5
129
100
AcDbEntity
  8
____
  6
CONTINUOUS
 62
         4
100
AcDbTrace
 10
2237.25882146
 20
614.3031748259
 30
0.0
 11
2237.66382146
 21
611.6031748259
 31
0.0
 12
2236.85382146
 22
611.6031748259
 32
0.0
 13
2237.25882146
 23
614.3031748259
 33
0.0
  0
SOLID
  5
12A
100
AcDbEntity
  8
____
  6
CONTINUOUS
 62
         4
100
AcDbTrace
 10
2237.25882146
 20
576.2031748259
 30
0.0
 11
2236.85382146
 21
578.9031748259
 31
0.0
 12
2237.66382146
 22
578.9031748259
 32
0.0
 13
2237.25882146
 23
576.2031748259
 33
0.0
  0
TEXT
  5
12C
100
AcDbEntity
  8
____
  6
CONTINUOUS
 62
         4
100
AcDbText
 10
2235.23382146
 20
578.0313139519
 30
0.0
 40
2.7
  1
1-1/2"-18UNEF
 50
90.0
  7
BOX
100
AcDbText
  0
ENDBLK
  5
12D
100
AcDbEntity
  8
0
  6
CONTINUOUS
100
AcDbBlockEnd
  0
BLOCK
  5
12F
100
AcDbEntity
  8
0
100
AcDbBlockBegin
  2
*D1
 70
        65
 10
0.0
 20
0.0
 30
0.0
  3
*D1
  1

  0
POINT
  5
131
100
AcDbEntity
  8
DEFPOINTS
  6
CONTINUOUS
 62
         0
100
AcDbPoint
 10
2184.7447098488
 20
544.9204618129
 30
0.0
  0
POINT
  5
132
100
AcDbEntity
  8
DEFPOINTS
  6
CONTINUOUS
 62
         0
100
AcDbPoint
 10
2184.7447098488
 20
576.2031748259
 30
0.0
  0
POINT
  5
133
100
AcDbEntity
  8
DEFPOINTS
  6
CONTINUOUS
 62
         0
100
AcDbPoint
 10
2180.7447098488
 20
558.6611748259
 30
0.0
  0
LINE
  5
134
100
AcDbEntity
  8
____
  6
CONTINUOUS
 62
         4
100
AcDbLine
 10
2184.7447098488
 20
574.8531748259
 30
0.0
 11
2184.7447098488
 21
544.2454618129
 31
0.0
  0
LINE
  5
135
100
AcDbEntity
  8
____
  6
CONTINUOUS
 62
         4
100
AcDbLine
 10
2180.7447098488
 20
557.3111748259
 30
0.0
 11
2180.7447098488
 21
544.2454618129
 31
0.0
  0
LINE
  5
136
100
AcDbEntity
  8
____
  6
CONTINUOUS
 62
         4
100
AcDbLine
 10
2184.7447098488
 20
544.9204618129
 30
0.0
 11
2180.7447098488
 21
544.9204618129
 31
0.0
  0
SOLID
  5
137
100
AcDbEntity
  8
____
  6
CONTINUOUS
 62
         4
100
AcDbTrace
 10
2184.7447098488
 20
544.9204618129
 30
0.0
 11
2182.0447098488
 21
544.5154618129
 31
0.0
 12
2182.0447098488
 22
545.3254618129
 32
0.0
 13
2184.7447098488
 23
544.9204618129
 33
0.0
  0
SOLID
  5
138
100
AcDbEntity
  8
____
  6
CONTINUOUS
 62
         4
100
AcDbTrace
 10
2180.7447098488
 20
544.9204618129
 30
0.0
 11
2183.4447098488
 21
545.3254618129
 31
0.0
 12
2183.4447098488
 22
544.5154618129
 32
0.0
 13
2180.7447098488
 23
544.9204618129
 33
0.0
  0
TEXT
  5
13A
100
AcDbEntity
  8
____
  6
CONTINUOUS
 62
         4
100
AcDbText
 10
2181.3947098488
 20
546.9454618129
 30
0.0
 40
2.7
  1
4
  7
BOX
100
AcDbText
  0
ENDBLK
  5
13B
100
AcDbEntity
  8
0
  6
CONTINUOUS
100
AcDbBlockEnd
  0
BLOCK
  5
13D
100
AcDbEntity
  8
0
100
AcDbBlockBegin
  2
*D2
 70
        65
 10
0.0
 20
0.0
 30
0.0
  3
*D2
  1

  0
POINT
  5
13F
100
AcDbEntity
  8
DEFPOINTS
  6
CONTINUOUS
 62
         0
100
AcDbPoint
 10
2223.4942064715
 20
613.2531748259
 30
0.0
  0
POINT
  5
140
100
AcDbEntity
  8
DEFPOINTS
  6
CONTINUOUS
 62
         0
100
AcDbPoint
 10
2184.7447098488
 20
613.2531748259
 30
0.0
  0
POINT
  5
141
100
AcDbEntity
  8
DEFPOINTS
  6
CONTINUOUS
 62
         0
100
AcDbPoint
 10
2184.7447098488
 20
577.2531748259
 30
0.0
  0
LINE
  5
142
100
AcDbEntity
  8
____
  6
CONTINUOUS
 62
         4
100
AcDbLine
 10
2186.0947098488
 20
613.2531748259
 30
0.0
 11
2224.1692064715
 21
613.2531748259
 31
0.0
  0
LINE
  5
143
100
AcDbEntity
  8
____
  6
CONTINUOUS
 62
         4
100
AcDbLine
 10
2186.0947098488
 20
577.2531748259
 30
0.0
 11
2224.1692064715
 21
577.2531748259
 31
0.0
  0
LINE
  5
144
100
AcDbEntity
  8
____
  6
CONTINUOUS
 62
         4
100
AcDbLine
 10
2223.4942064715
 20
613.2531748259
 30
0.0
 11
2223.4942064715
 21
577.2531748259
 31
0.0
  0
SOLID
  5
145
100
AcDbEntity
  8
____
  6
CONTINUOUS
 62
         4
100
AcDbTrace
 10
2223.4942064715
 20
613.2531748259
 30
0.0
 11
2223.8992064715
 21
610.5531748259
 31
0.0
 12
2223.0892064715
 22
610.5531748259
 32
0.0
 13
2223.4942064715
 23
613.2531748259
 33
0.0
  0
SOLID
  5
146
100
AcDbEntity
  8
____
  6
CONTINUOUS
 62
         4
100
AcDbTrace
 10
2223.4942064715
 20
577.2531748259
 30
0.0
 11
2223.0892064715
 21
579.9531748259
 31
0.0
 12
2223.8992064715
 22
579.9531748259
 32
0.0
 13
2223.4942064715
 23
577.2531748259
 33
0.0
  0
TEXT
  5
148
100
AcDbEntity
  8
____
  6
CONTINUOUS
 62
         4
100
AcDbText
 10
2221.4692064715
 20
588.9667891
 30
0.0
 40
2.7
  1
崷36
 50
90.0
  7
BOX
100
AcDbText
  0
ENDBLK
  5
149
100
AcDbEntity
  8
0
  6
CONTINUOUS
100
AcDbBlockEnd
  0
BLOCK
  5
177
100
AcDbEntity
  8
0
100
AcDbBlockBegin
  2
*D3
 70
        65
 10
0.0
 20
0.0
 30
0.0
  3
*D3
  1

  0
POINT
  5
179
100
AcDbEntity
  8
DEFPOINTS
  6
CONTINUOUS
 62
         0
100
AcDbPoint
 10
2180.7447098488
 20
684.5212577256
 30
0.0
  0
POINT
  5
17A
100
AcDbEntity
  8
DEFPOINTS
  6
CONTINUOUS
 62
         0
100
AcDbPoint
 10
2180.7447098488
 20
631.8451748259
 30
0.0
  0
POINT
  5
17B
100
AcDbEntity
  8
DEFPOINTS
  6
CONTINUOUS
 62
         0
100
AcDbPoint
 10
2135.9747098488
 20
617.4781748259
 30
0.0
  0
LINE
  5
17C
100
AcDbEntity
  8
____
  6
CONTINUOUS
 62
         4
100
AcDbLine
 10
2180.7447098488
 20
633.1951748259
 30
0.0
 11
2180.7447098488
 21
685.1962577256
 31
0.0
  0
LINE
  5
17D
100
AcDbEntity
  8
____
  6
CONTINUOUS
 62
         4
100
AcDbLine
 10
2135.9747098488
 20
618.8281748259
 30
0.0
 11
2135.9747098488
 21
685.1962577256
 31
0.0
  0
LINE
  5
17E
100
AcDbEntity
  8
____
  6
CONTINUOUS
 62
         4
100
AcDbLine
 10
2180.7447098488
 20
684.5212577256
 30
0.0
 11
2135.9747098488
 21
684.5212577256
 31
0.0
  0
SOLID
  5
17F
100
AcDbEntity
  8
____
  6
CONTINUOUS
 62
         4
100
AcDbTrace
 10
2180.7447098488
 20
684.5212577256
 30
0.0
 11
2178.0447098488
 21
684.1162577256
 31
0.0
 12
2178.0447098488
 22
684.9262577256
 32
0.0
 13
2180.7447098488
 23
684.5212577256
 33
0.0
  0
SOLID
  5
180
100
AcDbEntity
  8
____
  6
CONTINUOUS
 62
         4
100
AcDbTrace
 10
2135.9747098488
 20
684.5212577256
 30
0.0
 11
2138.6747098488
 21
684.9262577256
 31
0.0
 12
2138.6747098488
 22
684.1162577256
 32
0.0
 13
2135.9747098488
 23
684.5212577256
 33
0.0
  0
TEXT
  5
182
100
AcDbEntity
  8
____
  6
CONTINUOUS
 62
         4
100
AcDbText
 10
2155.6597098488
 20
686.5462577256
 30
0.0
 40
2.7
  1
45
  7
BOX
100
AcDbText
  0
ENDBLK
  5
183
100
AcDbEntity
  8
0
  6
CONTINUOUS
100
AcDbBlockEnd
  0
BLOCK
  5
185
100
AcDbEntity
  8
0
100
AcDbBlockBegin
  2
*D4
 70
        65
 10
0.0
 20
0.0
 30
0.0
  3
*D4
  1

  0
POINT
  5
187
100
AcDbEntity
  8
DEFPOINTS
  6
CONTINUOUS
 62
         0
100
AcDbPoint
 10
2193.5247098488
 20
694.164970501
 30
0.0
  0
POINT
  5
188
100
AcDbEntity
  8
DEFPOINTS
  6
CONTINUOUS
 62
         0
100
AcDbPoint
 10
2193.5247098488
 20
613.3031748259
 30
0.0
  0
POINT
  5
189
100
AcDbEntity
  8
DEFPOINTS
  6
CONTINUOUS
 62
         0
100
AcDbPoint
 10
2067.5747098488
 20
606.4654815423
 30
0.0
  0
LINE
  5
18A
100
AcDbEntity
  8
____
  6
CONTINUOUS
 62
         4
100
AcDbLine
 10
2193.5247098488
 20
614.6531748259
 30
0.0
 11
2193.5247098488
 21
694.839970501
 31
0.0
  0
LINE
  5
18B
100
AcDbEntity
  8
____
  6
CONTINUOUS
 62
         4
100
AcDbLine
 10
2067.5747098488
 20
607.8154815423
 30
0.0
 11
2067.5747098488
 21
694.839970501
 31
0.0
  0
LINE
  5
18C
100
AcDbEntity
  8
____
  6
CONTINUOUS
 62
         4
100
AcDbLine
 10
2193.5247098488
 20
694.164970501
 30
0.0
 11
2067.5747098488
 21
694.164970501
 31
0.0
  0
SOLID
  5
18D
100
AcDbEntity
  8
____
  6
CONTINUOUS
 62
         4
100
AcDbTrace
 10
2193.5247098488
 20
694.164970501
 30
0.0
 11
2190.8247098488
 21
693.759970501
 31
0.0
 12
2190.8247098488
 22
694.569970501
 32
0.0
 13
2193.5247098488
 23
694.164970501
 33
0.0
  0
SOLID
  5
18E
100
AcDbEntity
  8
____
  6
CONTINUOUS
 62
         4
100
AcDbTrace
 10
2067.5747098488
 20
694.164970501
 30
0.0
 11
2070.2747098488
 21
694.569970501
 31
0.0
 12
2070.2747098488
 22
693.759970501
 32
0.0
 13
2067.5747098488
 23
694.164970501
 33
0.0
  0
TEXT
  5
190
100
AcDbEntity
  8
____
  6
CONTINUOUS
 62
         4
100
AcDbText
 10
2121.4376969851
 20
696.189970501
 30
0.0
 40
2.7
  1
125.95
  7
BOX
100
AcDbText
  0
ENDBLK
  5
191
100
AcDbEntity
  8
0
  6
CONTINUOUS
100
AcDbBlockEnd
  0
BLOCK
  5
196
100
AcDbEntity
  8
0
100
AcDbBlockBegin
  2
*X5
 70
        65
 10
0.0
 20
0.0
 30
0.0
  3
*X5
  1

  0
LINE
  5
197
100
AcDbEntity
  8
____
  6
CONTINUOUS
 62
         4
100
AcDbLine
 10
2179.0142496949
 20
442.5545290073
 30
0.0
 11
2180.7447098488
 21
444.2849891613
 31
0.0
  0
LINE
  5
198
100
AcDbEntity
  8
____
  6
CONTINUOUS
 62
         4
100
AcDbLine
 10
2174.7716090078
 20
442.5545290073
 30
0.0
 11
2180.7447098488
 21
448.5276298484
 31
0.0
  0
LINE
  5
199
100
AcDbEntity
  8
____
  6
CONTINUOUS
 62
         4
100
AcDbLine
 10
2171.1159755468
 20
443.1415362335
 30
0.0
 11
2180.7447098488
 21
452.7702705355
 31
0.0
  0
LINE
  5
19A
100
AcDbEntity
  8
____
  6
CONTINUOUS
 62
         4
100
AcDbLine
 10
2189.0709683206
 20
461.0965290073
 30
0.0
 11
2193.5247098488
 21
465.5502705355
 31
0.0
  0
LINE
  5
19B
100
AcDbEntity
  8
____
  6
CONTINUOUS
 62
         4
100
AcDbLine
 10
2171.0267098488
 20
447.2949112226
 30
0.0
 11
2180.7447098488
 21
457.0129112226
 31
0.0
  0
LINE
  5
19C
100
AcDbEntity
  8
____
  6
CONTINUOUS
 62
         4
100
AcDbLine
 10
2184.8283276335
 20
461.0965290073
 30
0.0
 11
2193.5247098488
 21
469.7929112226
 31
0.0
  0
LINE
  5
19D
100
AcDbEntity
  8
____
  6
CONTINUOUS
 62
         4
100
AcDbLine
 10
2171.0267098488
 20
451.5375519097
 30
0.0
 11
2180.2447098488
 21
460.7555519097
 31
0.0
  0
LINE
  5
19E
100
AcDbEntity
  8
____
  6
CONTINUOUS
 62
         4
100
AcDbLine
 10
2181.6356869464
 20
462.1465290073
 30
0.0
 11
2193.5247098488
 21
474.0355519097
 31
0.0
  0
LINE
  5
19F
100
AcDbEntity
  8
____
  6
CONTINUOUS
 62
         4
100
AcDbLine
 10
2171.0267098488
 20
455.7801925968
 30
0.0
 11
2193.3619916533
 21
478.1154744013
 31
0.0
  0
LINE
  5
1A0
100
AcDbEntity
  8
____
  6
CONTINUOUS
 62
         4
100
AcDbLine
 10
2168.9254055722
 20
457.9215290073
 30
0.0
 11
2190.3099481612
 21
479.3060715964
 31
0.0
  0
LINE
  5
1A1
100
AcDbEntity
  8
____
  6
CONTINUOUS
 62
         4
100
AcDbLine
 10
2192.934849597
 20
481.9309730321
 30
0.0
 11
2193.5247098488
 21
482.520833284
 31
0.0
  0
LINE
  5
1A2
100
AcDbEntity
  8
____
  6
CONTINUOUS
 62
         4
100
AcDbLine
 10
2164.682764885
 20
457.9215290073
 30
0.0
 11
2193.5247098488
 21
486.7634739711
 31
0.0
  0
LINE
  5
1A3
100
AcDbEntity
  8
____
  6
CONTINUOUS
 62
         4
100
AcDbLine
 10
2150.8901241977
 20
448.3715290071
 30
0.0
 11
2155.0747098488
 21
452.5561146582
 31
0.0
  0
LINE
  5
1A4
100
AcDbEntity
  8
____
  6
CONTINUOUS
 62
         4
100
AcDbLine
 10
2160.4401241979
 20
457.9215290073
 30
0.0
 11
2193.5247098488
 21
491.0061146582
 31
0.0
  0
LINE
  5
1A5
100
AcDbEntity
  8
____
  6
CONTINUOUS
 62
         4
100
AcDbLine
 10
2149.1602397541
 20
450.8842852506
 30
0.0
 11
2155.0747098488
 21
456.7987553453
 31
0.0
  0
LINE
  5
1A6
100
AcDbEntity
  8
____
  6
CONTINUOUS
 62
         4
100
AcDbLine
 10
2156.1974835108
 20
457.9215290073
 30
0.0
 11
2193.5247098488
 21
495.2487553453
 31
0.0
  0
LINE
  5
1A7
100
AcDbEntity
  8
____
  6
CONTINUOUS
 62
         4
100
AcDbLine
 10
2142.4048428235
 20
448.3715290071
 30
0.0
 11
2145.0869612392
 21
451.0536474229
 31
0.0
  0
LINE
  5
1A8
100
AcDbEntity
  8
____
  6
CONTINUOUS
 62
         4
100
AcDbLine
 10
2146.0467800575
 20
452.0134662412
 30
0.0
 11
2193.0688422112
 21
499.0355283948
 31
0.0
  0
LINE
  5
1A9
100
AcDbEntity
  8
____
  6
CONTINUOUS
 62
         4
100
AcDbLine
 10
2139.1747098488
 20
449.3840367196
 30
0.0
 11
2188.9872021366
 21
499.1965290073
 31
0.0
  0
LINE
  5
1AA
100
AcDbEntity
  8
____
  6
CONTINUOUS
 62
         4
100
AcDbLine
 10
2139.1747098488
 20
453.6266774067
 30
0.0
 11
2183.6945614494
 21
498.1465290073
 31
0.0
  0
LINE
  5
1AB
100
AcDbEntity
  8
____
  6
CONTINUOUS
 62
         4
100
AcDbLine
 10
2139.0358192922
 20
457.7304275372
 30
0.0
 11
2180.2447098488
 21
498.9393180938
 31
0.0
  0
LINE
  5
1AC
100
AcDbEntity
  8
____
  6
CONTINUOUS
 62
         4
100
AcDbLine
 10
2135.1103347737
 20
458.0475837058
 30
0.0
 11
2180.7447098488
 21
503.6819587809
 31
0.0
  0
LINE
  5
1AD
100
AcDbEntity
  8
____
  6
CONTINUOUS
 62
         4
100
AcDbLine
 10
2131.4076665376
 20
458.5875561569
 30
0.0
 11
2180.7447098488
 21
507.924599468
 31
0.0
  0
LINE
  5
1AE
100
AcDbEntity
  8
____
  6
CONTINUOUS
 62
         4
100
AcDbLine
 10
2127.7049983016
 20
459.127528608
 30
0.0
 11
2180.7447098488
 21
512.1672401552
 31
0.0
  0
LINE
  5
1AF
100
AcDbEntity
  8
____
  6
CONTINUOUS
 62
         4
100
AcDbLine
 10
2124.0023300656
 20
459.667501059
 30
0.0
 11
2166.7063580138
 21
502.3715290073
 31
0.0
  0
LINE
  5
1B0
100
AcDbEntity
  8
____
  6
CONTINUOUS
 62
         4
100
AcDbLine
 10
2171.0267098488
 20
506.6918808423
 30
0.0
 11
2180.7447098488
 21
516.4098808423
 31
0.0
  0
LINE
  5
1B1
100
AcDbEntity
  8
____
  6
CONTINUOUS
 62
         4
100
AcDbLine
 10
2120.2996618295
 20
460.2074735101
 30
0.0
 11
2162.4637173267
 21
502.3715290073
 31
0.0
  0
LINE
  5
1B2
100
AcDbEntity
  8
____
  6
CONTINUOUS
 62
         4
100
AcDbLine
 10
2171.0267098488
 20
510.9345215294
 30
0.0
 11
2177.8307173267
 21
517.7385290073
 31
0.0
  0
LINE
  5
1B3
100
AcDbEntity
  8
____
  6
CONTINUOUS
 62
         4
100
AcDbLine
 10
2116.5969935935
 20
460.7474459612
 30
0.0
 11
2158.2210766396
 21
502.3715290073
 31
0.0
  0
LINE
  5
1B4
100
AcDbEntity
  8
____
  6
CONTINUOUS
 62
         4
100
AcDbLine
 10
2171.0267098488
 20
515.1771622165
 30
0.0
 11
2173.5880766396
 21
517.7385290073
 31
0.0
  0
LINE
  5
1B5
100
AcDbEntity
  8
____
  6
CONTINUOUS
 62
         4
100
AcDbLine
 10
2112.8943253575
 20
461.2874184123
 30
0.0
 11
2155.0747098488
 21
503.4678029036
 31
0.0
  0
LINE
  5
1B6
100
AcDbEntity
  8
____
  6
CONTINUOUS
 62
         4
100
AcDbLine
 10
2109.1916571214
 20
461.8273908634
 30
0.0
 11
2155.0747098488
 21
507.7104435908
 31
0.0
  0
LINE
  5
1B7
100
AcDbEntity
  8
____
  6
CONTINUOUS
 62
         4
100
AcDbLine
 10
2105.4889888854
 20
462.3673633145
 30
0.0
 11
2154.7658629501
 21
511.6442373792
 31
0.0
  0
LINE
  5
1B8
100
AcDbEntity
  8
____
  6
CONTINUOUS
 62
         4
100
AcDbLine
 10
2101.7863206494
 20
462.9073357656
 30
0.0
 11
2147.1505138913
 21
508.2715290075
 31
0.0
  0
LINE
  5
1B9
100
AcDbEntity
  8
____
  6
CONTINUOUS
 62
         4
100
AcDbLine
 10
2150.3520724754
 20
511.4730875916
 30
0.0
 11
2150.8005138913
 21
511.9215290075
 31
0.0
  0
LINE
  5
1BA
100
AcDbEntity
  8
____
  6
CONTINUOUS
 62
         4
100
AcDbLine
 10
2098.0836524133
 20
463.4473082167
 30
0.0
 11
2137.1811480841
 21
502.5448038874
 31
0.0
  0
LINE
  5
1BB
100
AcDbEntity
  8
____
  6
CONTINUOUS
 62
         4
100
AcDbLine
 10
2139.1747098488
 20
504.5383656521
 30
0.0
 11
2144.643628909
 21
510.0072847123
 31
0.0
  0
LINE
  5
1BC
100
AcDbEntity
  8
____
  6
CONTINUOUS
 62
         4
100
AcDbLine
 10
2094.3809841773
 20
463.9872806677
 30
0.0
 11
2103.5402325169
 21
473.1465290073
 31
0.0
  0
LINE
  5
1BD
100
AcDbEntity
  8
____
  6
CONTINUOUS
 62
         4
100
AcDbLine
 10
2111.2223443073
 20
480.8286407977
 30
0.0
 11
2132.2172729724
 21
501.8235694628
 31
0.0
  0
LINE
  5
1BE
100
AcDbEntity
  8
____
  6
CONTINUOUS
 62
         4
100
AcDbLine
 10
2139.1747098488
 20
508.7810063392
 30
0.0
 11
2142.3152325171
 21
511.9215290075
 31
0.0
  0
LINE
  5
1BF
100
AcDbEntity
  8
____
  6
CONTINUOUS
 62
         4
100
AcDbLine
 10
2090.6783159413
 20
464.5272531188
 30
0.0
 11
2099.2975918298
 21
473.1465290073
 31
0.0
  0
LINE
  5
1C0
100
AcDbEntity
  8
____
  6
CONTINUOUS
 62
         4
100
AcDbLine
 10
2109.6694300367
 20
483.5183672142
 30
0.0
 11
2127.2502789973
 21
501.0992161748
 31
0.0
  0
LINE
  5
1C1
100
AcDbEntity
  8
____
  6
CONTINUOUS
 62
         4
100
AcDbLine
 10
2086.9756477052
 20
465.0672255699
 30
0.0
 11
2095.0549511426
 21
473.1465290073
 31
0.0
  0
LINE
  5
1C2
100
AcDbEntity
  8
____
  6
CONTINUOUS
 62
         4
100
AcDbLine
 10
2108.1165157661
 20
486.2080936307
 30
0.0
 11
2122.2832850221
 21
500.3748628868
 31
0.0
  0
LINE
  5
1C3
100
AcDbEntity
  8
____
  6
CONTINUOUS
 62
         4
100
AcDbLine
 10
2083.2729794692
 20
465.607198021
 30
0.0
 11
2090.8123104555
 21
473.1465290073
 31
0.0
  0
LINE
  5
1C4
100
AcDbEntity
  8
____
  6
CONTINUOUS
 62
         4
100
AcDbLine
 10
2104.8123104555
 20
487.1465290073
 30
0.0
 11
2117.3162910469
 21
499.6505095987
 31
0.0
  0
LINE
  5
1C5
100
AcDbEntity
  8
____
  6
CONTINUOUS
 62
         4
100
AcDbLine
 10
2079.5703112332
 20
466.1471704721
 30
0.0
 11
2086.5696697684
 21
473.1465290073
 31
0.0
  0
LINE
  5
1C6
100
AcDbEntity
  8
____
  6
CONTINUOUS
 62
         4
100
AcDbLine
 10
2100.5696697684
 20
487.1465290073
 30
0.0
 11
2112.3492970718
 21
498.9261563107
 31
0.0
  0
LINE
  5
1C7
100
AcDbEntity
  8
____
  6
CONTINUOUS
 62
         4
100
AcDbLine
 10
2075.8676429972
 20
466.6871429232
 30
0.0
 11
2082.3270290813
 21
473.1465290073
 31
0.0
  0
LINE
  5
1C8
100
AcDbEntity
  8
____
  6
CONTINUOUS
 62
         4
100
AcDbLine
 10
2096.3270290813
 20
487.1465290073
 30
0.0
 11
2107.3823030966
 21
498.2018030226
 31
0.0
  0
LINE
  5
1C9
100
AcDbEntity
  8
____
  6
CONTINUOUS
 62
         4
100
AcDbLine
 10
2072.1649747611
 20
467.2271153743
 30
0.0
 11
2078.0843883942
 21
473.1465290073
 31
0.0
  0
LINE
  5
1CA
100
AcDbEntity
  8
____
  6
CONTINUOUS
 62
         4
100
AcDbLine
 10
2092.0843883942
 20
487.1465290073
 30
0.0
 11
2102.4153091214
 21
497.4774497346
 31
0.0
  0
LINE
  5
1CB
100
AcDbEntity
  8
____
  6
CONTINUOUS
 62
         4
100
AcDbLine
 10
2068.4690278982
 20
467.7738091985
 30
0.0
 11
2073.8417477071
 21
473.1465290073
 31
0.0
  0
LINE
  5
1CC
100
AcDbEntity
  8
____
  6
CONTINUOUS
 62
         4
100
AcDbLine
 10
2087.8417477071
 20
487.1465290073
 30
0.0
 11
2097.4483151463
 21
496.7530964465
 31
0.0
  0
LINE
  5
1CD
100
AcDbEntity
  8
____
  6
CONTINUOUS
 62
         4
100
AcDbLine
 10
2067.5838260032
 20
471.1312479905
 30
0.0
 11
2068.4399908656
 21
471.987412853
 31
0.0
  0
LINE
  5
1CE
100
AcDbEntity
  8
____
  6
CONTINUOUS
 62
         4
100
AcDbLine
 10
2083.5991070199
 20
487.1465290073
 30
0.0
 11
2092.4813211711
 21
496.0287431585
 31
0.0
  0
LINE
  5
1CF
100
AcDbEntity
  8
____
  6
CONTINUOUS
 62
         4
100
AcDbLine
 10
2079.3564663328
 20
487.1465290073
 30
0.0
 11
2087.5143271959
 21
495.3043898704
 31
0.0
  0
LINE
  5
1D0
100
AcDbEntity
  8
____
  6
CONTINUOUS
 62
         4
100
AcDbLine
 10
2075.1138256457
 20
487.1465290073
 30
0.0
 11
2082.5473332208
 21
494.5800365824
 31
0.0
  0
LINE
  5
1D1
100
AcDbEntity
  8
____
  6
CONTINUOUS
 62
         4
100
AcDbLine
 10
2072.1211849586
 20
488.3965290073
 30
0.0
 11
2077.5803392456
 21
493.8556832944
 31
0.0
  0
LINE
  5
1D2
100
AcDbEntity
  8
____
  6
CONTINUOUS
 62
         4
100
AcDbLine
 10
2067.9769036276
 20
488.4948883635
 30
0.0
 11
2072.6133452704
 21
493.1313300063
 31
0.0
  0
ENDBLK
  5
1D3
100
AcDbEntity
  8
0
  6
CONTINUOUS
100
AcDbBlockEnd
  0
BLOCK
  5
1D9
100
AcDbEntity
  8
0
100
AcDbBlockBegin
  2
*D6
 70
        65
 10
0.0
 20
0.0
 30
0.0
  3
*D6
  1

  0
POINT
  5
1DB
100
AcDbEntity
  8
DEFPOINTS
  6
CONTINUOUS
 62
         0
100
AcDbPoint
 10
2135.9747098488
 20
642.9986839596
 30
0.0
  0
POINT
  5
1DC
100
AcDbEntity
  8
DEFPOINTS
  6
CONTINUOUS
 62
         0
100
AcDbPoint
 10
2135.9747098488
 20
595.2531748259
 30
0.0
  0
POINT
  5
1DD
100
AcDbEntity
  8
DEFPOINTS
  6
CONTINUOUS
 62
         0
100
AcDbPoint
 10
2193.5247098488
 20
595.2531748259
 30
0.0
  0
LINE
  5
1DE
100
AcDbEntity
  8
____
  6
CONTINUOUS
 62
         6
100
AcDbLine
 10
2135.9747098488
 20
596.6031748259
 30
0.0
 11
2135.9747098488
 21
643.6736839596
 31
0.0
  0
LINE
  5
1DF
100
AcDbEntity
  8
____
  6
CONTINUOUS
 62
         6
100
AcDbLine
 10
2193.5247098488
 20
596.6031748259
 30
0.0
 11
2193.5247098488
 21
643.6736839596
 31
0.0
  0
LINE
  5
1E0
100
AcDbEntity
  8
____
  6
CONTINUOUS
 62
         6
100
AcDbLine
 10
2135.9747098488
 20
642.9986839596
 30
0.0
 11
2193.5247098488
 21
642.9986839596
 31
0.0
  0
SOLID
  5
1E1
100
AcDbEntity
  8
____
  6
CONTINUOUS
 62
         6
100
AcDbTrace
 10
2135.9747098488
 20
642.9986839596
 30
0.0
 11
2138.6747098488
 21
643.4036839596
 31
0.0
 12
2138.6747098488
 22
642.5936839596
 32
0.0
 13
2135.9747098488
 23
642.9986839596
 33
0.0
  0
SOLID
  5
1E2
100
AcDbEntity
  8
____
  6
CONTINUOUS
 62
         6
100
AcDbTrace
 10
2193.5247098488
 20
642.9986839596
 30
0.0
 11
2190.8247098488
 21
642.5936839596
 31
0.0
 12
2190.8247098488
 22
643.4036839596
 32
0.0
 13
2193.5247098488
 23
642.9986839596
 33
0.0
  0
TEXT
  5
1E4
100
AcDbEntity
  8
____
  6
CONTINUOUS
 62
         6
100
AcDbText
 10
2157.9997098488
 20
645.0236839596
 30
0.0
 40
2.7
  1
57.55
  7
BOX
100
AcDbText
  0
ENDBLK
  5
1E5
100
AcDbEntity
  8
0
  6
CONTINUOUS
100
AcDbBlockEnd
  0
ENDSEC
  0
SECTION
  2
ENTITIES
  0
LINE
  5
2A
100
AcDbEntity
  8
____
  6
CONTINUOUS
 62
         4
100
AcDbLine
 10
2154.0747098488
 20
586.4031748259
 30
0.0
 11
2154.0747098488
 21
563.4781748259
 31
0.0
  0
ARC
  5
2B
100
AcDbEntity
  8
____
  6
CONTINUOUS
 62
         7
100
AcDbCircle
 10
2154.0747098488
 20
564.4781748259
 30
0.0
 40
1.0
100
AcDbArc
 50
270.0
 51
360.0
  0
LINE
  5
2C
100
AcDbEntity
  8
____
  6
CONTINUOUS
 62
         4
100
AcDbLine
 10
2140.1747098488
 20
586.4031748259
 30
0.0
 11
2140.1747098488
 21
563.4781748259
 31
0.0
  0
ARC
  5
2D
100
AcDbEntity
  8
____
  6
CONTINUOUS
 62
         7
100
AcDbCircle
 10
2140.1747098488
 20
564.4781748259
 30
0.0
 40
1.0
100
AcDbArc
 50
180.0
 51
270.0
  0
ARC
  5
2E
100
AcDbEntity
  8
____
  6
CONTINUOUS
 62
         7
100
AcDbCircle
 10
2154.0747098488
 20
626.0281748259
 30
0.0
 40
1.0
100
AcDbArc
 50
0.0
 51
90.0
  0
LINE
  5
2F
100
AcDbEntity
  8
____
  6
CONTINUOUS
 62
         4
100
AcDbLine
 10
2154.0747098488
 20
627.0281748259
 30
0.0
 11
2154.0747098488
 21
604.1031748259
 31
0.0
  0
ARC
  5
30
100
AcDbEntity
  8
____
  6
CONTINUOUS
 62
         7
100
AcDbCircle
 10
2140.1747098488
 20
626.0281748259
 30
0.0
 40
1.0
100
AcDbArc
 50
90.0
 51
180.0
  0
LINE
  5
31
100
AcDbEntity
  8
____
  6
CONTINUOUS
 62
         4
100
AcDbLine
 10
2140.1747098488
 20
627.0281748259
 30
0.0
 11
2140.1747098488
 21
604.1031748259
 31
0.0
  0
ARC
  5
32
100
AcDbEntity
  8
____
  6
CONTINUOUS
 62
         7
100
AcDbCircle
 10
2140.1747098488
 20
449.3715290071
 30
0.0
 40
1.0
100
AcDbArc
 50
180.0
 51
270.0
  0
ARC
  5
33
100
AcDbEntity
  8
____
  6
CONTINUOUS
 62
         7
100
AcDbCircle
 10
2154.0747098488
 20
449.3715290071
 30
0.0
 40
1.0
100
AcDbArc
 50
270.0
 51
360.0
  0
ARC
  5
34
100
AcDbEntity
  8
____
  6
CONTINUOUS
 62
         7
100
AcDbCircle
 10
2154.0747098488
 20
510.9215290075
 30
0.0
 40
1.0
100
AcDbArc
 50
0.0
 51
90.0
  0
ARC
  5
35
100
AcDbEntity
  8
____
  6
CONTINUOUS
 62
         7
100
AcDbCircle
 10
2140.1747098488
 20
510.9215290075
 30
0.0
 40
1.0
100
AcDbArc
 50
90.0
 51
180.0
  0
ARC
  5
36
100
AcDbEntity
  8
____
  6
CONTINUOUS
 62
         7
100
AcDbCircle
 10
2005.3312081178
 20
595.2531748259
 30
0.0
 40
31.775
100
AcDbArc
 50
195.411296411
 51
344.588703589
  0
LINE
  5
37
100
AcDbEntity
  8
____
  6
CENTER
 62
         1
100
AcDbLine
 10
1977.1373463099
 20
595.2531748259
 30
0.0
 11
2034.4778603312
 21
595.2531748259
 31
0.0
  0
ARC
  5
38
100
AcDbEntity
  8
____
  6
CONTINUOUS
 62
         7
100
AcDbCircle
 10
2005.3312081178
 20
595.2531748259
 30
0.0
 40
31.775
100
AcDbArc
 50
15.411296411
 51
164.588703589
  0
LINE
  5
39
100
AcDbEntity
  8
____
  6
CENTER
 62
         1
100
AcDbLine
 10
2005.3312081178
 20
559.6418225931
 30
0.0
 11
2005.3312081178
 21
630.4858829244
 31
0.0
  0
CIRCLE
  5
3A
100
AcDbEntity
  8
____
  6
CONTINUOUS
 62
         7
100
AcDbCircle
 10
2005.3312081178
 20
595.2531748259
 30
0.0
 40
12.7165768873
  0
CIRCLE
  5
3B
100
AcDbEntity
  8
____
  6
CONTINUOUS
 62
         7
100
AcDbCircle
 10
2005.3312081178
 20
595.2531748259
 30
0.0
 40
7.0
  0
ARC
  5
3C
100
AcDbEntity
  8
____
  6
CONTINUOUS
 62
         5
100
AcDbCircle
 10
2005.3312081178
 20
595.2531748259
 30
0.0
 40
8.0
100
AcDbArc
 50
352.9901372228
 51
621.2264515101
  0
CIRCLE
  5
3D
100
AcDbEntity
  8
____
  6
CONTINUOUS
 62
         7
100
AcDbCircle
 10
2005.3312081178
 20
595.2531748259
 30
0.0
 40
9.5
  0
CIRCLE
  5
3E
100
AcDbEntity
  8
____
  6
CONTINUOUS
 62
         7
100
AcDbCircle
 10
2005.3312081178
 20
595.2531748259
 30
0.0
 40
8.5
  0
CIRCLE
  5
3F
100
AcDbEntity
  8
____
  6
CONTINUOUS
 62
         7
100
AcDbCircle
 10
2005.3312081178
 20
595.2531748259
 30
0.0
 40
22.225
  0
LINE
  5
40
100
AcDbEntity
  8
____
  6
CONTINUOUS
 62
         7
100
AcDbLine
 10
2029.9312081178
 20
603.1972601071
 30
0.0
 11
2030.4312081178
 21
603.6972601071
 31
0.0
  0
LINE
  5
41
100
AcDbEntity
  8
____
  6
CONTINUOUS
 62
         7
100
AcDbLine
 10
2035.9636753506
 20
603.6972601071
 30
0.0
 11
2030.4312081178
 21
603.6972601071
 31
0.0
  0
LINE
  5
42
100
AcDbEntity
  8
____
  6
CONTINUOUS
 62
         7
100
AcDbLine
 10
2035.5695900694
 20
603.3031748259
 30
0.0
 11
2030.8312081178
 21
603.3031748259
 31
0.0
  0
LINE
  5
43
100
AcDbEntity
  8
____
  6
CONTINUOUS
 62
         7
100
AcDbLine
 10
2035.9636753506
 20
603.6972601071
 30
0.0
 11
2035.5695900694
 21
603.3031748259
 31
0.0
  0
LINE
  5
44
100
AcDbEntity
  8
____
  6
CONTINUOUS
 62
         7
100
AcDbLine
 10
2030.3312081178
 20
602.8031748259
 30
0.0
 11
2030.8312081178
 21
603.3031748259
 31
0.0
  0
LINE
  5
45
100
AcDbEntity
  8
____
  6
CONTINUOUS
 62
         7
100
AcDbLine
 10
2029.9312081178
 20
587.3090895447
 30
0.0
 11
2030.4312081178
 21
586.8090895447
 31
0.0
  0
LINE
  5
46
100
AcDbEntity
  8
____
  6
CONTINUOUS
 62
         7
100
AcDbLine
 10
2035.9636753506
 20
586.8090895447
 30
0.0
 11
2035.5695900694
 21
587.2031748259
 31
0.0
  0
LINE
  5
47
100
AcDbEntity
  8
____
  6
CONTINUOUS
 62
         7
100
AcDbLine
 10
2030.3312081178
 20
587.7031748259
 30
0.0
 11
2030.8312081178
 21
587.2031748259
 31
0.0
  0
LINE
  5
48
100
AcDbEntity
  8
____
  6
CONTINUOUS
 62
         7
100
AcDbLine
 10
2030.3312081178
 20
587.7031748259
 30
0.0
 11
2030.3312081178
 21
602.8031748259
 31
0.0
  0
LINE
  5
49
100
AcDbEntity
  8
____
  6
CONTINUOUS
 62
         7
100
AcDbLine
 10
2035.5695900694
 20
587.2031748259
 30
0.0
 11
2030.8312081178
 21
587.2031748259
 31
0.0
  0
LINE
  5
4A
100
AcDbEntity
  8
____
  6
CONTINUOUS
 62
         7
100
AcDbLine
 10
2035.9636753506
 20
586.8090895447
 30
0.0
 11
2030.4312081178
 21
586.8090895447
 31
0.0
  0
LINE
  5
4B
100
AcDbEntity
  8
____
  6
CONTINUOUS
 62
         7
100
AcDbLine
 10
1982.9312081178
 20
587.3090895447
 30
0.0
 11
1982.4312081178
 21
586.8090895447
 31
0.0
  0
LINE
  5
4C
100
AcDbEntity
  8
____
  6
CONTINUOUS
 62
         7
100
AcDbLine
 10
1982.9312081178
 20
603.1972601071
 30
0.0
 11
1982.4312081178
 21
603.6972601071
 31
0.0
  0
LINE
  5
4D
100
AcDbEntity
  8
____
  6
CONTINUOUS
 62
         7
100
AcDbLine
 10
1974.6987408851
 20
603.6972601071
 30
0.0
 11
1975.0928261663
 21
603.3031748259
 31
0.0
  0
LINE
  5
4E
100
AcDbEntity
  8
____
  6
CONTINUOUS
 62
         7
100
AcDbLine
 10
1982.5312081178
 20
602.8031748259
 30
0.0
 11
1982.0312081178
 21
603.3031748259
 31
0.0
  0
LINE
  5
4F
100
AcDbEntity
  8
____
  6
CONTINUOUS
 62
         7
100
AcDbLine
 10
1982.0312081178
 20
603.3031748259
 30
0.0
 11
1975.0928261663
 21
603.3031748259
 31
0.0
  0
LINE
  5
50
100
AcDbEntity
  8
____
  6
CONTINUOUS
 62
         7
100
AcDbLine
 10
1974.6987408851
 20
603.6972601071
 30
0.0
 11
1982.4312081178
 21
603.6972601071
 31
0.0
  0
LINE
  5
51
100
AcDbEntity
  8
____
  6
CONTINUOUS
 62
         7
100
AcDbLine
 10
1982.9312081178
 20
587.3090895447
 30
0.0
 11
1982.9312081178
 21
603.1972601071
 31
0.0
  0
LINE
  5
52
100
AcDbEntity
  8
____
  6
CONTINUOUS
 62
         7
100
AcDbLine
 10
1974.6987408851
 20
586.8090895447
 30
0.0
 11
1975.0928261663
 21
587.2031748259
 31
0.0
  0
LINE
  5
53
100
AcDbEntity
  8
____
  6
CONTINUOUS
 62
         7
100
AcDbLine
 10
1982.0312081178
 20
587.2031748259
 30
0.0
 11
1975.0928261663
 21
587.2031748259
 31
0.0
  0
LINE
  5
54
100
AcDbEntity
  8
____
  6
CONTINUOUS
 62
         7
100
AcDbLine
 10
1974.6987408851
 20
586.8090895447
 30
0.0
 11
1982.4312081178
 21
586.8090895447
 31
0.0
  0
LINE
  5
55
100
AcDbEntity
  8
____
  6
CONTINUOUS
 62
         7
100
AcDbLine
 10
1982.5312081178
 20
587.7031748259
 30
0.0
 11
1982.0312081178
 21
587.2031748259
 31
0.0
  0
LINE
  5
56
100
AcDbEntity
  8
____
  6
CONTINUOUS
 62
         7
100
AcDbLine
 10
1982.5312081178
 20
587.7031748259
 30
0.0
 11
1982.5312081178
 21
602.8031748259
 31
0.0
  0
LINE
  5
57
100
AcDbEntity
  8
____
  6
CONTINUOUS
 62
         7
100
AcDbLine
 10
2029.9312081178
 20
587.3090895447
 30
0.0
 11
2029.9312081178
 21
603.1972601071
 31
0.0
  0
LINE
  5
58
100
AcDbEntity
  8
____
  6
CONTINUOUS
 62
         7
100
AcDbLine
 10
2171.0267098488
 20
516.7385290073
 30
0.0
 11
2171.0267098488
 21
503.1715290073
 31
0.0
  0
LINE
  5
59
100
AcDbEntity
  8
____
  6
CONTINUOUS
 62
         7
100
AcDbLine
 10
2155.8747098488
 20
502.3715290073
 30
0.0
 11
2170.2267098488
 21
502.3715290073
 31
0.0
  0
ARC
  5
5A
100
AcDbEntity
  8
____
  6
CONTINUOUS
 62
         7
100
AcDbCircle
 10
2155.8747098488
 20
503.1715290073
 30
0.0
 40
0.8
100
AcDbArc
 50
180.0
 51
270.0
  0
LINE
  5
5B
100
AcDbEntity
  8
____
  6
CONTINUOUS
 62
         7
100
AcDbLine
 10
2150.6109802476
 20
511.9215290075
 30
0.0
 11
2154.0747098488
 21
511.9215290075
 31
0.0
  0
LINE
  5
5C
100
AcDbEntity
  8
____
  6
CONTINUOUS
 62
         7
100
AcDbLine
 10
2155.0747098488
 20
510.9215290075
 30
0.0
 11
2155.0747098488
 21
503.1715290073
 31
0.0
  0
LINE
  5
5D
100
AcDbEntity
  8
____
  6
CONTINUOUS
 62
         7
100
AcDbLine
 10
2148.9497098488
 20
509.0441242717
 30
0.0
 11
2150.6109802476
 21
511.9215290075
 31
0.0
  0
ARC
  5
5E
100
AcDbEntity
  8
____
  6
CONTINUOUS
 62
         7
100
AcDbCircle
 10
2147.975909517
 20
509.2715290075
 30
0.0
 40
1.0
100
AcDbArc
 50
270.0
 51
346.8556743105
  0
LINE
  5
5F
100
AcDbEntity
  8
____
  6
CONTINUOUS
 62
         7
100
AcDbLine
 10
2146.1735101806
 20
508.2715290075
 30
0.0
 11
2147.975909517
 21
508.2715290075
 31
0.0
  0
ARC
  5
60
100
AcDbEntity
  8
____
  6
CONTINUOUS
 62
         7
100
AcDbCircle
 10
2146.1735101806
 20
509.2715290075
 30
0.0
 40
1.0
100
AcDbArc
 50
193.1443256895
 51
270.0
  0
LINE
  5
61
100
AcDbEntity
  8
____
  6
CONTINUOUS
 62
         7
100
AcDbLine
 10
2145.1997098488
 20
509.0441242715
 30
0.0
 11
2143.53843945
 21
511.9215290073
 31
0.0
  0
LINE
  5
62
100
AcDbEntity
  8
____
  6
CONTINUOUS
 62
         7
100
AcDbLine
 10
2140.1747098488
 20
511.9215290075
 30
0.0
 11
2143.53843945
 21
511.9215290075
 31
0.0
  0
LINE
  5
63
100
AcDbEntity
  8
____
  6
CONTINUOUS
 62
         7
100
AcDbLine
 10
2139.1747098488
 20
502.9465290073
 30
0.0
 11
2139.1747098488
 21
510.9215290075
 31
0.0
  0
ARC
  5
64
100
AcDbEntity
  8
____
  6
CONTINUOUS
 62
         7
100
AcDbCircle
 10
2138.5747098488
 20
502.9465290073
 30
0.0
 40
0.6
100
AcDbArc
 50
270.0
 51
360.0
  0
LINE
  5
65
100
AcDbEntity
  8
____
  6
CONTINUOUS
 62
         7
100
AcDbLine
 10
2137.9211200103
 20
502.3465290073
 30
0.0
 11
2138.5747098488
 21
502.3465290073
 31
0.0
  0
LINE
  5
66
100
AcDbEntity
  8
____
  6
CONTINUOUS
 62
         7
100
AcDbLine
 10
2068.6015415771
 20
492.546275301
 30
0.0
 11
2137.1747098488
 21
502.5465290073
 31
0.0
  0
LINE
  5
67
100
AcDbEntity
  8
____
  6
CONTINUOUS
 62
         7
100
AcDbLine
 10
2137.1747098488
 20
502.5465290073
 30
0.0
 11
2137.9211200103
 21
502.3465290073
 31
0.0
  0
ARC
  5
68
100
AcDbEntity
  8
____
  6
CONTINUOUS
 62
         7
100
AcDbCircle
 10
2068.7747098488
 20
491.3588357238
 30
0.0
 40
1.2
100
AcDbArc
 50
98.2971449698
 51
180.0
  0
LINE
  5
69
100
AcDbEntity
  8
____
  6
CONTINUOUS
 62
         7
100
AcDbLine
 10
2067.5747098488
 20
491.3588357238
 30
0.0
 11
2067.5747098488
 21
468.9342222909
 31
0.0
  0
ARC
  5
6A
100
AcDbEntity
  8
____
  6
CONTINUOUS
 62
         7
100
AcDbCircle
 10
2068.5747098488
 20
489.2965290073
 30
0.0
 40
1.0
100
AcDbArc
 50
180.0
 51
270.0
  0
LINE
  5
6B
100
AcDbEntity
  8
____
  6
CONTINUOUS
 62
         7
100
AcDbLine
 10
2068.5747098488
 20
488.2965290073
 30
0.0
 11
2071.3447098488
 21
488.2965290073
 31
0.0
  0
ARC
  5
6C
100
AcDbEntity
  8
____
  6
CONTINUOUS
 62
         7
100
AcDbCircle
 10
2071.7442454291
 20
488.1965290073
 30
0.0
 40
0.2
100
AcDbArc
 50
90.0
 51
105.0
  0
LINE
  5
6D
100
AcDbEntity
  8
____
  6
CONTINUOUS
 62
         7
100
AcDbLine
 10
2071.6924816201
 20
488.3897141726
 30
0.0
 11
2071.3447098488
 21
488.2965290073
 31
0.0
  0
LINE
  5
6E
100
AcDbEntity
  8
____
  6
CONTINUOUS
 62
         7
100
AcDbLine
 10
2071.7442454291
 20
488.3965290073
 30
0.0
 11
2072.1447098488
 21
488.3965290073
 31
0.0
  0
LINE
  5
6F
100
AcDbEntity
  8
____
  6
CONTINUOUS
 62
         7
100
AcDbLine
 10
2072.286131205
 20
488.3379503636
 30
0.0
 11
2073.4775525613
 21
487.1465290073
 31
0.0
  0
ARC
  5
70
100
AcDbEntity
  8
____
  6
CONTINUOUS
 62
         7
100
AcDbCircle
 10
2072.1447098488
 20
488.1965290073
 30
0.0
 40
0.2
100
AcDbArc
 50
45.0000000038
 51
90.0
  0
LINE
  5
71
100
AcDbEntity
  8
____
  6
CONTINUOUS
 62
         7
100
AcDbLine
 10
2072.3447098488
 20
487.940051848
 30
0.0
 11
2072.3447098488
 21
472.4677756718
 31
0.0
  0
LINE
  5
72
100
AcDbEntity
  8
____
  6
CONTINUOUS
 62
         7
100
AcDbLine
 10
2071.3447098488
 20
488.2965290073
 30
0.0
 11
2071.3447098488
 21
471.9965290073
 31
0.0
  0
LINE
  5
73
100
AcDbEntity
  8
____
  6
CONTINUOUS
 62
         5
100
AcDbLine
 10
2072.4775525613
 20
488.1465290073
 30
0.0
 11
2096.0247098488
 21
488.1465290073
 31
0.0
  0
LINE
  5
74
100
AcDbEntity
  8
____
  6
CONTINUOUS
 62
         7
100
AcDbLine
 10
2073.4775525613
 20
487.1465290073
 30
0.0
 11
2107.5747098488
 21
487.1465290073
 31
0.0
  0
LINE
  5
75
100
AcDbEntity
  8
____
  6
CONTINUOUS
 62
         7
100
AcDbLine
 10
2073.4775525613
 20
487.1465290073
 30
0.0
 11
2073.4775525613
 21
473.1465290073
 31
0.0
  0
LINE
  5
76
100
AcDbEntity
  8
____
  6
CONTINUOUS
 62
         7
100
AcDbLine
 10
2073.4775525613
 20
473.1465290073
 30
0.0
 11
2107.5747098488
 21
473.1465290073
 31
0.0
  0
LINE
  5
77
100
AcDbEntity
  8
____
  6
CONTINUOUS
 62
         7
100
AcDbLine
 10
2072.286131205
 20
471.9551076511
 30
0.0
 11
2073.4775525613
 21
473.1465290073
 31
0.0
  0
ARC
  5
78
100
AcDbEntity
  8
____
  6
CONTINUOUS
 62
         7
100
AcDbCircle
 10
2072.1447098488
 20
472.0965290073
 30
0.0
 40
0.2
100
AcDbArc
 50
270.0
 51
314.9999999962
  0
LINE
  5
79
100
AcDbEntity
  8
____
  6
CONTINUOUS
 62
         7
100
AcDbLine
 10
2071.7442454291
 20
471.8965290073
 30
0.0
 11
2072.1447098488
 21
471.8965290073
 31
0.0
  0
LINE
  5
7A
100
AcDbEntity
  8
____
  6
CONTINUOUS
 62
         7
100
AcDbLine
 10
2071.6924816201
 20
471.9033438421
 30
0.0
 11
2071.3447098488
 21
471.9965290073
 31
0.0
  0
LINE
  5
7B
100
AcDbEntity
  8
____
  6
CONTINUOUS
 62
         7
100
AcDbLine
 10
2068.5747098488
 20
471.9965290073
 30
0.0
 11
2071.3447098488
 21
471.9965290073
 31
0.0
  0
ARC
  5
7C
100
AcDbEntity
  8
____
  6
CONTINUOUS
 62
         7
100
AcDbCircle
 10
2068.5747098488
 20
470.9965290073
 30
0.0
 40
1.0
100
AcDbArc
 50
90.0
 51
180.0
  0
ARC
  5
7D
100
AcDbEntity
  8
____
  6
CONTINUOUS
 62
         7
100
AcDbCircle
 10
2068.7747098488
 20
468.9342222909
 30
0.0
 40
1.2
100
AcDbArc
 50
180.0
 51
261.7028550302
  0
LINE
  5
7E
100
AcDbEntity
  8
____
  6
CONTINUOUS
 62
         7
100
AcDbLine
 10
2068.6015415771
 20
467.7467827136
 30
0.0
 11
2137.1747098492
 21
457.7465290073
 31
0.0
  0
LINE
  5
7F
100
AcDbEntity
  8
____
  6
CONTINUOUS
 62
         5
100
AcDbLine
 10
2072.4775525613
 20
472.1465290073
 30
0.0
 11
2096.0247098488
 21
472.1465290073
 31
0.0
  0
LINE
  5
80
100
AcDbEntity
  8
____
  6
CONTINUOUS
 62
         7
100
AcDbLine
 10
2096.0247098488
 20
488.1465290073
 30
0.0
 11
2096.0247098488
 21
472.1465290073
 31
0.0
  0
LINE
  5
81
100
AcDbEntity
  8
____
  6
CENTER
 62
         1
100
AcDbLine
 10
2064.5269768734
 20
480.1465290073
 30
0.0
 11
2201.4063987571
 21
480.1465290073
 31
0.0
  0
LINE
  5
82
100
AcDbEntity
  8
____
  6
CONTINUOUS
 62
         7
100
AcDbLine
 10
2137.1747098488
 20
457.7465290071
 30
0.0
 11
2137.9211200103
 21
457.9465290071
 31
0.0
  0
LINE
  5
83
100
AcDbEntity
  8
____
  6
CONTINUOUS
 62
         7
100
AcDbLine
 10
2137.9211200103
 20
457.9465290073
 30
0.0
 11
2138.5747098488
 21
457.9465290073
 31
0.0
  0
ARC
  5
84
100
AcDbEntity
  8
____
  6
CONTINUOUS
 62
         7
100
AcDbCircle
 10
2138.5747098488
 20
457.3465290073
 30
0.0
 40
0.6
100
AcDbArc
 50
0.0
 51
90.0
  0
LINE
  5
85
100
AcDbEntity
  8
____
  6
CONTINUOUS
 62
         7
100
AcDbLine
 10
2140.1747098488
 20
448.3715290071
 30
0.0
 11
2143.53843945
 21
448.3715290071
 31
0.0
  0
LINE
  5
86
100
AcDbEntity
  8
____
  6
CONTINUOUS
 62
         7
100
AcDbLine
 10
2139.1747098488
 20
457.3465290071
 30
0.0
 11
2139.1747098488
 21
449.3715290071
 31
0.0
  0
LINE
  5
87
100
AcDbEntity
  8
____
  6
CONTINUOUS
 62
         7
100
AcDbLine
 10
2145.1997098488
 20
451.2489337431
 30
0.0
 11
2143.53843945
 21
448.3715290073
 31
0.0
  0
ARC
  5
88
100
AcDbEntity
  8
____
  6
CONTINUOUS
 62
         7
100
AcDbCircle
 10
2146.1735101806
 20
451.0215290073
 30
0.0
 40
1.0
100
AcDbArc
 50
90.0
 51
166.8556743105
  0
LINE
  5
89
100
AcDbEntity
  8
____
  6
CONTINUOUS
 62
         7
100
AcDbLine
 10
2146.1735101806
 20
452.0215290073
 30
0.0
 11
2147.975909517
 21
452.0215290073
 31
0.0
  0
ARC
  5
8A
100
AcDbEntity
  8
____
  6
CONTINUOUS
 62
         7
100
AcDbCircle
 10
2147.975909517
 20
451.0215290071
 30
0.0
 40
1.0
100
AcDbArc
 50
13.1443256895
 51
90.0
  0
LINE
  5
8B
100
AcDbEntity
  8
____
  6
CONTINUOUS
 62
         7
100
AcDbLine
 10
2148.9497098488
 20
451.2489337431
 30
0.0
 11
2150.6109802476
 21
448.3715290073
 31
0.0
  0
LINE
  5
8C
100
AcDbEntity
  8
____
  6
CONTINUOUS
 62
         7
100
AcDbLine
 10
2150.6109802476
 20
448.3715290071
 30
0.0
 11
2154.0747098488
 21
448.3715290071
 31
0.0
  0
LINE
  5
8D
100
AcDbEntity
  8
____
  6
CONTINUOUS
 62
         7
100
AcDbLine
 10
2155.0747098488
 20
457.1215290073
 30
0.0
 11
2155.0747098488
 21
449.3715290071
 31
0.0
  0
ARC
  5
8E
100
AcDbEntity
  8
____
  6
CONTINUOUS
 62
         7
100
AcDbCircle
 10
2155.8747098488
 20
457.1215290073
 30
0.0
 40
0.8
100
AcDbArc
 50
90.0
 51
180.0
  0
LINE
  5
8F
100
AcDbEntity
  8
____
  6
CONTINUOUS
 62
         7
100
AcDbLine
 10
2155.8747098488
 20
457.9215290073
 30
0.0
 11
2170.2267098488
 21
457.9215290073
 31
0.0
  0
CIRCLE
  5
90
100
AcDbEntity
  8
____
  6
CONTINUOUS
 62
         7
100
AcDbCircle
 10
2147.0747098488
 20
595.2531748259
 30
0.0
 40
5.0
  0
ARC
  5
91
100
AcDbEntity
  8
____
  6
CONTINUOUS
 62
         7
100
AcDbCircle
 10
2138.5747098488
 20
618.0531748259
 30
0.0
 40
0.6
100
AcDbArc
 50
270.0
 51
360.0
  0
LINE
  5
92
100
AcDbEntity
  8
____
  6
CONTINUOUS
 62
         7
100
AcDbLine
 10
2137.1747098488
 20
617.6531748259
 30
0.0
 11
2137.9211200103
 21
617.4531748259
 31
0.0
  0
LINE
  5
93
100
AcDbEntity
  8
____
  6
CONTINUOUS
 62
         7
100
AcDbLine
 10
2137.9211200103
 20
617.4531748259
 30
0.0
 11
2138.5747098488
 21
617.4531748259
 31
0.0
  0
LINE
  5
94
100
AcDbEntity
  8
____
  6
CONTINUOUS
 62
         7
100
AcDbLine
 10
2137.1747098488
 20
572.8531748259
 30
0.0
 11
2137.1747098488
 21
617.6531748259
 31
0.0
  0
LINE
  5
95
100
AcDbEntity
  8
____
  6
CONTINUOUS
 62
         7
100
AcDbLine
 10
2137.9211200103
 20
573.0531748259
 30
0.0
 11
2137.9211200103
 21
617.4531748259
 31
0.0
  0
ARC
  5
96
100
AcDbEntity
  8
____
  6
CONTINUOUS
 62
         7
100
AcDbCircle
 10
2138.5747098488
 20
572.4531748259
 30
0.0
 40
0.6
100
AcDbArc
 50
0.0
 51
90.0
  0
LINE
  5
97
100
AcDbEntity
  8
____
  6
CONTINUOUS
 62
         7
100
AcDbLine
 10
2137.1747098488
 20
572.8531748259
 30
0.0
 11
2137.9211200103
 21
573.0531748259
 31
0.0
  0
LINE
  5
98
100
AcDbEntity
  8
____
  6
CONTINUOUS
 62
         7
100
AcDbLine
 10
2137.9211200103
 20
573.0531748259
 30
0.0
 11
2138.5747098488
 21
573.0531748259
 31
0.0
  0
ARC
  5
99
100
AcDbEntity
  8
____
  6
DASHED
 62
         2
100
AcDbCircle
 10
2378.7655017829
 20
595.2531748259
 30
0.0
 40
31.775
100
AcDbArc
 50
195.411296411
 51
344.588703589
  0
LINE
  5
9A
100
AcDbEntity
  8
____
  6
CENTER
 62
         1
100
AcDbLine
 10
2132.6222184304
 20
595.2531748259
 30
0.0
 11
2201.4063987571
 21
595.2531748259
 31
0.0
  0
LINE
  5
9B
100
AcDbEntity
  8
____
  6
CONTINUOUS
 62
         7
100
AcDbLine
 10
2068.6015415771
 20
607.6529211196
 30
0.0
 11
2137.1747098488
 21
617.6531748259
 31
0.0
  0
LINE
  5
9C
100
AcDbEntity
  8
____
  6
CENTER
 62
         1
100
AcDbLine
 10
2065.3312081178
 20
595.2531748259
 30
0.0
 11
2114.4373229869
 21
595.2531748259
 31
0.0
  0
LINE
  5
9D
100
AcDbEntity
  8
____
  6
CONTINUOUS
 62
         7
100
AcDbLine
 10
2068.6015415771
 20
582.8534285322
 30
0.0
 11
2137.1747098488
 21
572.8531748259
 31
0.0
  0
ARC
  5
9E
100
AcDbEntity
  8
____
  6
CONTINUOUS
 62
         7
100
AcDbCircle
 10
2068.7747098488
 20
606.4654815423
 30
0.0
 40
1.2
100
AcDbArc
 50
98.2971449698
 51
180.0
  0
ARC
  5
9F
100
AcDbEntity
  8
____
  6
CONTINUOUS
 62
         7
100
AcDbCircle
 10
2068.7747098488
 20
584.0408681094
 30
0.0
 40
1.2
100
AcDbArc
 50
180.0
 51
261.7028550302
  0
LINE
  5
A0
100
AcDbEntity
  8
____
  6
CONTINUOUS
 62
         7
100
AcDbLine
 10
2067.5747098488
 20
606.4654815423
 30
0.0
 11
2067.5747098488
 21
584.0408681094
 31
0.0
  0
LINE
  5
A1
100
AcDbEntity
  8
____
  6
CENTER
 62
         1
100
AcDbLine
 10
2147.0747098488
 20
632.7584381267
 30
0.0
 11
2147.0747098488
 21
557.7556185749
 31
0.0
  0
LINE
  5
A2
100
AcDbEntity
  8
____
  6
CONTINUOUS
 62
         7
100
AcDbLine
 10
2145.1997098488
 20
624.1507700901
 30
0.0
 11
2145.1997098488
 21
603.3031748259
 31
0.0
  0
LINE
  5
A3
100
AcDbEntity
  8
____
  6
CONTINUOUS
 62
         7
100
AcDbLine
 10
2150.6109802476
 20
627.0281748259
 30
0.0
 11
2150.6109802476
 21
604.1031748259
 31
0.0
  0
LINE
  5
A4
100
AcDbEntity
  8
____
  6
CONTINUOUS
 62
         7
100
AcDbLine
 10
2148.9497098488
 20
624.1507700901
 30
0.0
 11
2148.9497098488
 21
603.3031748259
 31
0.0
  0
LINE
  5
A5
100
AcDbEntity
  8
____
  6
CONTINUOUS
 62
         7
100
AcDbLine
 10
2155.0747098488
 20
604.1031748259
 30
0.0
 11
2150.6109802476
 21
604.1031748259
 31
0.0
  0
LINE
  5
A6
100
AcDbEntity
  8
____
  6
CONTINUOUS
 62
         7
100
AcDbLine
 10
2148.9497098488
 20
603.3031748259
 30
0.0
 11
2150.6109802476
 21
604.1031748259
 31
0.0
  0
LINE
  5
A7
100
AcDbEntity
  8
____
  6
CONTINUOUS
 62
         7
100
AcDbLine
 10
2155.0747098488
 20
604.1031748259
 30
0.0
 11
2154.2747098488
 21
603.3031748259
 31
0.0
  0
ARC
  5
A8
100
AcDbEntity
  8
____
  6
CONTINUOUS
 62
         7
100
AcDbCircle
 10
2147.975909517
 20
624.3781748259
 30
0.0
 40
1.0
100
AcDbArc
 50
270.0
 51
346.8556743105
  0
ARC
  5
A9
100
AcDbEntity
  8
____
  6
CONTINUOUS
 62
         7
100
AcDbCircle
 10
2146.1735101806
 20
624.3781748259
 30
0.0
 40
1.0
100
AcDbArc
 50
193.1443256895
 51
270.0
  0
LINE
  5
AA
100
AcDbEntity
  8
____
  6
CONTINUOUS
 62
         7
100
AcDbLine
 10
2146.1735101806
 20
623.3781748259
 30
0.0
 11
2147.975909517
 21
623.3781748259
 31
0.0
  0
LINE
  5
AB
100
AcDbEntity
  8
____
  6
CONTINUOUS
 62
         7
100
AcDbLine
 10
2150.6109802476
 20
627.0281748259
 30
0.0
 11
2154.0747098488
 21
627.0281748259
 31
0.0
  0
LINE
  5
AC
100
AcDbEntity
  8
____
  6
CONTINUOUS
 62
         7
100
AcDbLine
 10
2148.9497098488
 20
624.1507700901
 30
0.0
 11
2150.6109802476
 21
627.0281748259
 31
0.0
  0
LINE
  5
AD
100
AcDbEntity
  8
____
  6
CONTINUOUS
 62
         7
100
AcDbLine
 10
2148.9497098488
 20
587.2031748259
 30
0.0
 11
2150.6109802476
 21
586.4031748259
 31
0.0
  0
LINE
  5
AE
100
AcDbEntity
  8
____
  6
CONTINUOUS
 62
         7
100
AcDbLine
 10
2154.2747098488
 20
587.2031748259
 30
0.0
 11
2155.0747098488
 21
586.4031748259
 31
0.0
  0
LINE
  5
AF
100
AcDbEntity
  8
____
  6
CONTINUOUS
 62
         7
100
AcDbLine
 10
2155.0747098488
 20
586.4031748259
 30
0.0
 11
2150.6109802476
 21
586.4031748259
 31
0.0
  0
LINE
  5
B0
100
AcDbEntity
  8
____
  6
CONTINUOUS
 62
         7
100
AcDbLine
 10
2150.6109802476
 20
563.4781748259
 30
0.0
 11
2154.0747098488
 21
563.4781748259
 31
0.0
  0
ARC
  5
B1
100
AcDbEntity
  8
____
  6
CONTINUOUS
 62
         7
100
AcDbCircle
 10
2147.975909517
 20
566.1281748259
 30
0.0
 40
1.0
100
AcDbArc
 50
13.1443256895
 51
90.0
  0
LINE
  5
B2
100
AcDbEntity
  8
____
  6
CONTINUOUS
 62
         7
100
AcDbLine
 10
2148.9497098488
 20
566.3555795617
 30
0.0
 11
2150.6109802476
 21
563.4781748259
 31
0.0
  0
ARC
  5
B3
100
AcDbEntity
  8
____
  6
CONTINUOUS
 62
         7
100
AcDbCircle
 10
2146.1735101806
 20
566.1281748259
 30
0.0
 40
1.0
100
AcDbArc
 50
90.0
 51
166.8556743105
  0
LINE
  5
B4
100
AcDbEntity
  8
____
  6
CONTINUOUS
 62
         7
100
AcDbLine
 10
2146.1735101806
 20
567.1281748259
 30
0.0
 11
2147.975909517
 21
567.1281748259
 31
0.0
  0
LINE
  5
B5
100
AcDbEntity
  8
____
  6
CONTINUOUS
 62
         7
100
AcDbLine
 10
2145.1997098488
 20
587.2031748259
 30
0.0
 11
2145.1997098488
 21
566.3555795617
 31
0.0
  0
LINE
  5
B6
100
AcDbEntity
  8
____
  6
CONTINUOUS
 62
         7
100
AcDbLine
 10
2148.9497098488
 20
587.2031748259
 30
0.0
 11
2148.9497098488
 21
566.3555795617
 31
0.0
  0
LINE
  5
B7
100
AcDbEntity
  8
____
  6
CONTINUOUS
 62
         7
100
AcDbLine
 10
2150.6109802476
 20
586.4031748259
 30
0.0
 11
2150.6109802476
 21
563.4781748259
 31
0.0
  0
LINE
  5
B8
100
AcDbEntity
  8
____
  6
CONTINUOUS
 62
         7
100
AcDbLine
 10
2155.0747098488
 20
626.0281748259
 30
0.0
 11
2155.0747098488
 21
614.2531748259
 31
0.0
  0
LINE
  5
B9
100
AcDbEntity
  8
____
  6
CONTINUOUS
 62
         7
100
AcDbLine
 10
2155.0747098488
 20
626.0281748259
 30
0.0
 11
2155.0747098488
 21
564.4781748259
 31
0.0
  0
LINE
  5
BA
100
AcDbEntity
  8
____
  6
CONTINUOUS
 62
         7
100
AcDbLine
 10
2154.2747098488
 20
603.3031748259
 30
0.0
 11
2154.2747098488
 21
587.2031748259
 31
0.0
  0
LINE
  5
BB
100
AcDbEntity
  8
____
  6
CONTINUOUS
 62
         7
100
AcDbLine
 10
2143.53843945
 20
627.0281748259
 30
0.0
 11
2143.53843945
 21
604.1031748259
 31
0.0
  0
LINE
  5
BC
100
AcDbEntity
  8
____
  6
CONTINUOUS
 62
         7
100
AcDbLine
 10
2143.53843945
 20
604.1031748259
 30
0.0
 11
2139.1747098488
 21
604.1031748259
 31
0.0
  0
LINE
  5
BD
100
AcDbEntity
  8
____
  6
CONTINUOUS
 62
         7
100
AcDbLine
 10
2139.1747098488
 20
604.1031748259
 30
0.0
 11
2139.9747098488
 21
603.3031748259
 31
0.0
  0
LINE
  5
BE
100
AcDbEntity
  8
____
  6
CONTINUOUS
 62
         7
100
AcDbLine
 10
2140.1747098488
 20
627.0281748259
 30
0.0
 11
2143.53843945
 21
627.0281748259
 31
0.0
  0
LINE
  5
BF
100
AcDbEntity
  8
____
  6
CONTINUOUS
 62
         7
100
AcDbLine
 10
2139.9747098488
 20
587.2031748259
 30
0.0
 11
2139.1747098488
 21
586.4031748259
 31
0.0
  0
LINE
  5
C0
100
AcDbEntity
  8
____
  6
CONTINUOUS
 62
         7
100
AcDbLine
 10
2143.53843945
 20
586.4031748259
 30
0.0
 11
2139.1747098488
 21
586.4031748259
 31
0.0
  0
LINE
  5
C1
100
AcDbEntity
  8
____
  6
CONTINUOUS
 62
         7
100
AcDbLine
 10
2140.1747098488
 20
563.4781748259
 30
0.0
 11
2143.53843945
 21
563.4781748259
 31
0.0
  0
LINE
  5
C2
100
AcDbEntity
  8
____
  6
CONTINUOUS
 62
         7
100
AcDbLine
 10
2143.53843945
 20
586.4031748259
 30
0.0
 11
2143.53843945
 21
563.4781748259
 31
0.0
  0
LINE
  5
C3
100
AcDbEntity
  8
____
  6
CENTER
 62
         1
100
AcDbLine
 10
2135.9747098488
 20
617.4781748259
 30
0.0
 11
2135.9747098488
 21
573.0281748259
 31
0.0
  0
LINE
  5
C4
100
AcDbEntity
  8
____
  6
CONTINUOUS
 62
         7
100
AcDbLine
 10
2139.1747098488
 20
626.0281748259
 30
0.0
 11
2139.1747098488
 21
564.4781748259
 31
0.0
  0
LINE
  5
C5
100
AcDbEntity
  8
____
  6
CONTINUOUS
 62
         7
100
AcDbLine
 10
2139.9747098488
 20
603.3031748259
 30
0.0
 11
2139.9747098488
 21
587.2031748259
 31
0.0
  0
LINE
  5
C6
100
AcDbEntity
  8
____
  6
CONTINUOUS
 62
         7
100
AcDbLine
 10
2143.53843945
 20
586.4031748259
 30
0.0
 11
2145.1997098488
 21
587.2031748259
 31
0.0
  0
LINE
  5
C7
100
AcDbEntity
  8
____
  6
CONTINUOUS
 62
         7
100
AcDbLine
 10
2145.1997098488
 20
566.3555795617
 30
0.0
 11
2143.53843945
 21
563.4781748259
 31
0.0
  0
LINE
  5
C8
100
AcDbEntity
  8
____
  6
CONTINUOUS
 62
         7
100
AcDbLine
 10
2143.53843945
 20
604.1031748259
 30
0.0
 11
2145.1997098488
 21
603.3031748259
 31
0.0
  0
LINE
  5
C9
100
AcDbEntity
  8
____
  6
CONTINUOUS
 62
         7
100
AcDbLine
 10
2154.2747098488
 20
587.2031748259
 30
0.0
 11
2139.9747098488
 21
587.2031748259
 31
0.0
  0
LINE
  5
CA
100
AcDbEntity
  8
____
  6
CONTINUOUS
 62
         7
100
AcDbLine
 10
2154.2747098488
 20
603.3031748259
 30
0.0
 11
2139.9747098488
 21
603.3031748259
 31
0.0
  0
LINE
  5
CB
100
AcDbEntity
  8
____
  6
CONTINUOUS
 62
         7
100
AcDbLine
 10
2145.1997098488
 20
624.1507700901
 30
0.0
 11
2143.53843945
 21
627.0281748259
 31
0.0
  0
ARC
  5
CC
100
AcDbEntity
  8
____
  6
DASHED
 62
         2
100
AcDbCircle
 10
2378.7655017829
 20
595.2531748259
 30
0.0
 40
30.775
100
AcDbArc
 50
15.9251485826
 51
164.0748514174
  0
ARC
  5
CD
100
AcDbEntity
  8
____
  6
DASHED
 62
         2
100
AcDbCircle
 10
2378.7655017829
 20
595.2531748259
 30
0.0
 40
31.775
100
AcDbArc
 50
15.411296411
 51
164.588703589
  0
ARC
  5
CE
100
AcDbEntity
  8
____
  6
DASHED
 62
         2
100
AcDbCircle
 10
2378.7655017829
 20
595.2531748259
 30
0.0
 40
30.775
100
AcDbArc
 50
195.9251485826
 51
344.0748514174
  0
LINE
  5
CF
100
AcDbEntity
  8
____
  6
CENTER
 62
         1
100
AcDbLine
 10
2378.7655017829
 20
630.0281748259
 30
0.0
 11
2378.7655017829
 21
560.4781748259
 31
0.0
  0
ARC
  5
D0
100
AcDbEntity
  8
____
  6
DASHED
 62
         2
100
AcDbCircle
 10
2378.7655017829
 20
595.2531748259
 30
0.0
 40
28.125
100
AcDbArc
 50
16.6319205355
 51
163.3680794645
  0
ARC
  5
D1
100
AcDbEntity
  8
____
  6
DASHED
 62
         2
100
AcDbCircle
 10
2378.7655017829
 20
595.2531748259
 30
0.0
 40
28.125
100
AcDbArc
 50
198.3406919436
 51
343.3680794645
  0
LINE
  5
D2
100
AcDbEntity
  8
____
  6
DASHED
 62
         2
100
AcDbLine
 10
2354.1655017829
 20
603.1972601071
 30
0.0
 11
2354.1655017829
 21
587.3090895447
 31
0.0
  0
LINE
  5
D3
100
AcDbEntity
  8
____
  6
DASHED
 62
         2
100
AcDbLine
 10
2401.5655017829
 20
602.8031748259
 30
0.0
 11
2401.5655017829
 21
587.7031748259
 31
0.0
  0
LINE
  5
D4
100
AcDbEntity
  8
____
  6
DASHED
 62
         2
100
AcDbLine
 10
2401.5655017829
 20
602.8031748259
 30
0.0
 11
2402.0655017829
 21
603.3031748259
 31
0.0
  0
LINE
  5
D5
100
AcDbEntity
  8
____
  6
DASHED
 62
         2
100
AcDbLine
 10
2409.3979690156
 20
603.697260107
 30
0.0
 11
2401.6655017829
 21
603.697260107
 31
0.0
  0
LINE
  5
D6
100
AcDbEntity
  8
____
  6
DASHED
 62
         2
100
AcDbLine
 10
2402.0655017829
 20
603.3031748259
 30
0.0
 11
2409.0038837344
 21
603.3031748259
 31
0.0
  0
LINE
  5
D7
100
AcDbEntity
  8
____
  6
DASHED
 62
         2
100
AcDbLine
 10
2409.3979690156
 20
603.697260107
 30
0.0
 11
2409.0038837344
 21
603.3031748259
 31
0.0
  0
LINE
  5
D8
100
AcDbEntity
  8
____
  6
DASHED
 62
         2
100
AcDbLine
 10
2401.1655017829
 20
603.197260107
 30
0.0
 11
2401.1655017829
 21
587.3090895447
 31
0.0
  0
LINE
  5
D9
100
AcDbEntity
  8
____
  6
DASHED
 62
         2
100
AcDbLine
 10
2409.3979690156
 20
586.8090895447
 30
0.0
 11
2401.6655017829
 21
586.8090895447
 31
0.0
  0
LINE
  5
DA
100
AcDbEntity
  8
____
  6
DASHED
 62
         2
100
AcDbLine
 10
2402.0655017829
 20
587.2031748259
 30
0.0
 11
2409.0038837344
 21
587.2031748259
 31
0.0
  0
LINE
  5
DB
100
AcDbEntity
  8
____
  6
DASHED
 62
         2
100
AcDbLine
 10
2401.5655017829
 20
587.7031748259
 30
0.0
 11
2402.0655017829
 21
587.2031748259
 31
0.0
  0
LINE
  5
DC
100
AcDbEntity
  8
____
  6
DASHED
 62
         2
100
AcDbLine
 10
2409.3979690156
 20
586.8090895447
 30
0.0
 11
2409.0038837344
 21
587.2031748259
 31
0.0
  0
LINE
  5
DD
100
AcDbEntity
  8
____
  6
DASHED
 62
         2
100
AcDbLine
 10
2401.1655017829
 20
587.3090895447
 30
0.0
 11
2401.6655017829
 21
586.8090895447
 31
0.0
  0
LINE
  5
DE
100
AcDbEntity
  8
____
  6
DASHED
 62
         2
100
AcDbLine
 10
2401.1655017829
 20
603.197260107
 30
0.0
 11
2401.6655017829
 21
603.697260107
 31
0.0
  0
LINE
  5
DF
100
AcDbEntity
  8
____
  6
DASHED
 62
         2
100
AcDbLine
 10
2348.1330345501
 20
603.6972601071
 30
0.0
 11
2353.6655017829
 21
603.6972601071
 31
0.0
  0
LINE
  5
E0
100
AcDbEntity
  8
____
  6
DASHED
 62
         2
100
AcDbLine
 10
2348.5271198313
 20
603.3031748259
 30
0.0
 11
2353.2655017829
 21
603.3031748259
 31
0.0
  0
LINE
  5
E1
100
AcDbEntity
  8
____
  6
DASHED
 62
         2
100
AcDbLine
 10
2353.7655017829
 20
602.8031748259
 30
0.0
 11
2353.7655017829
 21
587.7031748259
 31
0.0
  0
LINE
  5
E2
100
AcDbEntity
  8
____
  6
DASHED
 62
         2
100
AcDbLine
 10
2353.7655017829
 20
602.8031748259
 30
0.0
 11
2353.2655017829
 21
603.3031748259
 31
0.0
  0
LINE
  5
E3
100
AcDbEntity
  8
____
  6
DASHED
 62
         2
100
AcDbLine
 10
2348.1330345501
 20
603.6972601071
 30
0.0
 11
2348.5271198313
 21
603.3031748259
 31
0.0
  0
LINE
  5
E4
100
AcDbEntity
  8
____
  6
DASHED
 62
         2
100
AcDbLine
 10
2354.1655017829
 20
603.1972601071
 30
0.0
 11
2353.6655017829
 21
603.6972601071
 31
0.0
  0
LINE
  5
E5
100
AcDbEntity
  8
____
  6
DASHED
 62
         2
100
AcDbLine
 10
2353.7655017829
 20
587.7031748259
 30
0.0
 11
2353.2655017829
 21
587.2031748259
 31
0.0
  0
LINE
  5
E6
100
AcDbEntity
  8
____
  6
DASHED
 62
         2
100
AcDbLine
 10
2348.1330345501
 20
586.8090895447
 30
0.0
 11
2348.5271198313
 21
587.2031748259
 31
0.0
  0
LINE
  5
E7
100
AcDbEntity
  8
____
  6
DASHED
 62
         2
100
AcDbLine
 10
2348.5271198313
 20
587.2031748259
 30
0.0
 11
2353.2655017829
 21
587.2031748259
 31
0.0
  0
LINE
  5
E8
100
AcDbEntity
  8
____
  6
DASHED
 62
         2
100
AcDbLine
 10
2348.1330345501
 20
586.8090895447
 30
0.0
 11
2353.6655017829
 21
586.8090895447
 31
0.0
  0
LINE
  5
E9
100
AcDbEntity
  8
____
  6
DASHED
 62
         2
100
AcDbLine
 10
2354.1655017829
 20
587.3090895447
 30
0.0
 11
2353.6655017829
 21
586.8090895447
 31
0.0
  0
LINE
  5
EA
100
AcDbEntity
  8
____
  6
CENTER
 62
         1
100
AcDbLine
 10
2352.2731142016
 20
595.2531748259
 30
0.0
 11
2406.2515711821
 21
595.2531748259
 31
0.0
  0
LINE
  5
EB
100
AcDbEntity
  8
____
  6
CONTINUOUS
 62
         7
100
AcDbLine
 10
2155.5747098488
 20
617.5381748259
 30
0.0
 11
2170.2267098488
 21
617.5381748259
 31
0.0
  0
LINE
  5
EC
100
AcDbEntity
  8
____
  6
CONTINUOUS
 62
         7
100
AcDbLine
 10
2155.5747098488
 20
572.9681748259
 30
0.0
 11
2170.2267098488
 21
572.9681748259
 31
0.0
  0
ARC
  5
ED
100
AcDbEntity
  8
____
  6
CONTINUOUS
 62
         7
100
AcDbCircle
 10
2155.5747098488
 20
572.4681748259
 30
0.0
 40
0.5
100
AcDbArc
 50
90.0
 51
180.0
  0
ARC
  5
EE
100
AcDbEntity
  8
____
  6
CONTINUOUS
 62
         7
100
AcDbCircle
 10
2155.5747098488
 20
618.0381748259
 30
0.0
 40
0.5
100
AcDbArc
 50
180.0
 51
270.0
  0
LINE
  5
EF
100
AcDbEntity
  8
____
  6
DASHED
 62
         2
100
AcDbLine
 10
2354.2655017829
 20
600.2531748259
 30
0.0
 11
2360.4395017829
 21
600.2531748259
 31
0.0
  0
LINE
  5
F0
100
AcDbEntity
  8
____
  6
DASHED
 62
         2
100
AcDbLine
 10
2360.4395017829
 20
600.2531748259
 30
0.0
 11
2360.4395017829
 21
590.2531748259
 31
0.0
  0
LINE
  5
F1
100
AcDbEntity
  8
____
  6
DASHED
 62
         2
100
AcDbLine
 10
2360.4395017829
 20
600.2531748259
 30
0.0
 11
2363.3262531288
 21
595.2531748259
 31
0.0
  0
LINE
  5
F2
100
AcDbEntity
  8
____
  6
DASHED
 62
         2
100
AcDbLine
 10
2363.3262531288
 20
595.2531748259
 30
0.0
 11
2360.4395017829
 21
590.2531748259
 31
0.0
  0
LINE
  5
F3
100
AcDbEntity
  8
____
  6
DASHED
 62
         2
100
AcDbLine
 10
2354.2655017829
 20
590.2531748259
 30
0.0
 11
2360.4395017829
 21
590.2531748259
 31
0.0
  0
LINE
  5
F4
100
AcDbEntity
  8
____
  6
DASHED
 62
         2
100
AcDbLine
 10
2354.2655017829
 20
600.2531748259
 30
0.0
 11
2354.2655017829
 21
590.2531748259
 31
0.0
  0
LINE
  5
F5
100
AcDbEntity
  8
____
  6
DASHED
 62
         2
100
AcDbLine
 10
2354.2655017829
 20
600.2531748259
 30
0.0
 11
2353.7655017829
 21
600.7531748259
 31
0.0
  0
LINE
  5
F6
100
AcDbEntity
  8
____
  6
DASHED
 62
         2
100
AcDbLine
 10
2354.2655017829
 20
590.2531748259
 30
0.0
 11
2353.7655017829
 21
589.7531748259
 31
0.0
  0
CIRCLE
  5
F7
100
AcDbEntity
  8
____
  6
CONTINUOUS
 62
         7
100
AcDbCircle
 10
2378.7655017829
 20
595.2531748259
 30
0.0
 40
0.8
  0
CIRCLE
  5
F8
100
AcDbEntity
  8
____
  6
CONTINUOUS
 62
         7
100
AcDbCircle
 10
2378.7655017829
 20
595.2531748259
 30
0.0
 40
1.95
  0
ARC
  5
F9
100
AcDbEntity
  8
____
  6
CONTINUOUS
 62
         4
100
AcDbCircle
 10
2378.7655017829
 20
595.2531748259
 30
0.0
 40
18.25
100
AcDbArc
 50
269.5997291322
 51
540.0
  0
CIRCLE
  5
FA
100
AcDbEntity
  8
____
  6
CONTINUOUS
 62
         7
100
AcDbCircle
 10
2378.7655017829
 20
595.2531748259
 30
0.0
 40
19.05
  0
CIRCLE
  5
FB
100
AcDbEntity
  8
____
  6
CONTINUOUS
 62
         7
100
AcDbCircle
 10
2378.7655017829
 20
595.2531748259
 30
0.0
 40
21.0
  0
CIRCLE
  5
FC
100
AcDbEntity
  8
____
  6
CONTINUOUS
 62
         7
100
AcDbCircle
 10
2378.7655017829
 20
595.2531748259
 30
0.0
 40
37.592
  0
ARC
  5
FD
100
AcDbEntity
  8
____
  6
CONTINUOUS
 62
         7
100
AcDbCircle
 10
2179.7447098488
 20
558.6611748259
 30
0.0
 40
1.0
100
AcDbArc
 50
270.0
 51
360.0
  0
ARC
  5
FE
100
AcDbEntity
  8
____
  6
CONTINUOUS
 62
         7
100
AcDbCircle
 10
2192.5247098488
 20
577.2031748259
 30
0.0
 40
1.0
100
AcDbArc
 50
270.0
 51
360.0
  0
ARC
  5
FF
100
AcDbEntity
  8
____
  6
CONTINUOUS
 62
         7
100
AcDbCircle
 10
2192.5247098488
 20
613.3031748259
 30
0.0
 40
1.0
100
AcDbArc
 50
0.0
 51
90.0
  0
ARC
  5
100
100
AcDbEntity
  8
____
  6
CONTINUOUS
 62
         7
100
AcDbCircle
 10
2179.7447098488
 20
631.8451748259
 30
0.0
 40
1.0
100
AcDbArc
 50
0.0
 51
90.0
  0
LINE
  5
101
100
AcDbEntity
  8
____
  6
CONTINUOUS
 62
         7
100
AcDbLine
 10
2193.5247098488
 20
613.3031748259
 30
0.0
 11
2193.5247098488
 21
577.2031748259
 31
0.0
  0
LINE
  5
102
100
AcDbEntity
  8
____
  6
CONTINUOUS
 62
         7
100
AcDbLine
 10
2192.5247098488
 20
576.2031748259
 30
0.0
 11
2184.7447098488
 21
576.2031748259
 31
0.0
  0
LINE
  5
103
100
AcDbEntity
  8
____
  6
CONTINUOUS
 62
         7
100
AcDbLine
 10
2184.7447098488
 20
614.3031748259
 30
0.0
 11
2192.5247098488
 21
614.3031748259
 31
0.0
  0
LINE
  5
104
100
AcDbEntity
  8
____
  6
CONTINUOUS
 62
         7
100
AcDbLine
 10
2179.7447098488
 20
557.6611748259
 30
0.0
 11
2172.0267098488
 21
557.6611748259
 31
0.0
  0
LINE
  5
105
100
AcDbEntity
  8
____
  6
CONTINUOUS
 62
         7
100
AcDbLine
 10
2172.0267098488
 20
632.8451748259
 30
0.0
 11
2179.7447098488
 21
632.8451748259
 31
0.0
  0
LINE
  5
106
100
AcDbEntity
  8
____
  6
CONTINUOUS
 62
         7
100
AcDbLine
 10
2180.7447098488
 20
631.8451748259
 30
0.0
 11
2180.7447098488
 21
558.6611748259
 31
0.0
  0
LINE
  5
107
100
AcDbEntity
  8
____
  6
CONTINUOUS
 62
         7
100
AcDbLine
 10
2184.7447098488
 20
614.3031748259
 30
0.0
 11
2184.7447098488
 21
576.2031748259
 31
0.0
  0
LINE
  5
108
100
AcDbEntity
  8
____
  6
CONTINUOUS
 62
         4
100
AcDbLine
 10
2184.7447098488
 20
613.5031748259
 30
0.0
 11
2193.5045057459
 21
613.5031748259
 31
0.0
  0
LINE
  5
109
100
AcDbEntity
  8
____
  6
CONTINUOUS
 62
         4
100
AcDbLine
 10
2193.5045057459
 20
577.0031748259
 30
0.0
 11
2184.7447098488
 21
577.0031748259
 31
0.0
  0
LINE
  5
10A
100
AcDbEntity
  8
____
  6
DASHED
 62
         2
100
AcDbLine
 10
2180.2447098488
 20
574.2531748259
 30
0.0
 11
2180.2447098488
 21
595.2531748259
 31
0.0
  0
LINE
  5
10B
100
AcDbEntity
  8
____
  6
DASHED
 62
         2
100
AcDbLine
 10
2180.7447098488
 20
617.1192002297
 30
0.0
 11
2180.2447098488
 21
616.2531748259
 31
0.0
  0
LINE
  5
10C
100
AcDbEntity
  8
____
  6
DASHED
 62
         2
100
AcDbLine
 10
2180.2447098488
 20
616.2531748259
 30
0.0
 11
2180.2447098488
 21
595.3156748259
 31
0.0
  0
ARC
  5
10D
100
AcDbEntity
  8
____
  6
DASHED
 62
         2
100
AcDbCircle
 10
2180.7447098488
 20
613.7531748259
 30
0.0
 40
0.5
100
AcDbArc
 50
180.0
 51
270.0
  0
LINE
  5
10E
100
AcDbEntity
  8
____
  6
CONTINUOUS
 62
         7
100
AcDbLine
 10
2183.8012651135
 20
613.2531748259
 30
0.0
 11
2180.7447098488
 21
613.2531748259
 31
0.0
  0
ARC
  5
10F
100
AcDbEntity
  8
____
  6
DASHED
 62
         2
100
AcDbCircle
 10
2180.7447098488
 20
576.7531748259
 30
0.0
 40
0.5
100
AcDbArc
 50
90.0
 51
180.0
  0
LINE
  5
110
100
AcDbEntity
  8
____
  6
CONTINUOUS
 62
         7
100
AcDbLine
 10
2183.8012651135
 20
577.2531748259
 30
0.0
 11
2180.7447098488
 21
577.2531748259
 31
0.0
  0
LINE
  5
111
100
AcDbEntity
  8
____
  6
DASHED
 62
         2
100
AcDbLine
 10
2180.7447098488
 20
573.3871494221
 30
0.0
 11
2180.2447098488
 21
574.2531748259
 31
0.0
  0
LINE
  5
112
100
AcDbEntity
  8
____
  6
CONTINUOUS
 62
         7
100
AcDbLine
 10
2184.7447098488
 20
614.3031748259
 30
0.0
 11
2184.1289259312
 21
613.4237442513
 31
0.0
  0
ARC
  5
113
100
AcDbEntity
  8
____
  6
CONTINUOUS
 62
         7
100
AcDbCircle
 10
2183.8012651135
 20
613.6531748259
 30
0.0
 40
0.4
100
AcDbArc
 50
270.0
 51
325.0
  0
LINE
  5
114
100
AcDbEntity
  8
____
  6
CONTINUOUS
 62
         7
100
AcDbLine
 10
2184.7447098488
 20
576.2031748259
 30
0.0
 11
2184.1289259312
 21
577.0826054004
 31
0.0
  0
ARC
  5
115
100
AcDbEntity
  8
____
  6
CONTINUOUS
 62
         7
100
AcDbCircle
 10
2183.8012651135
 20
576.8531748259
 30
0.0
 40
0.4
100
AcDbArc
 50
35.0
 51
90.0
  0
LINE
  5
116
100
AcDbEntity
  8
____
  6
DASHED
 62
         2
100
AcDbLine
 10
2191.5761526903
 20
596.2531748259
 30
0.0
 11
2191.5761526903
 21
594.2531748259
 31
0.0
  0
LINE
  5
117
100
AcDbEntity
  8
____
  6
DASHED
 62
         2
100
AcDbLine
 10
2190.402060118
 20
594.2531748259
 30
0.0
 11
2190.402060118
 21
596.2531748259
 31
0.0
  0
LINE
  5
118
100
AcDbEntity
  8
____
  6
DASHED
 62
         2
100
AcDbLine
 10
2190.402060118
 20
594.2531748259
 30
0.0
 11
2189.8247098488
 21
595.2531748259
 31
0.0
  0
LINE
  5
119
100
AcDbEntity
  8
____
  6
DASHED
 62
         2
100
AcDbLine
 10
2193.5247098488
 20
593.1281748259
 30
0.0
 11
2191.5761526903
 21
594.2531748259
 31
0.0
  0
LINE
  5
11A
100
AcDbEntity
  8
____
  6
DASHED
 62
         2
100
AcDbLine
 10
2191.5761526903
 20
594.2531748259
 30
0.0
 11
2190.402060118
 21
594.2531748259
 31
0.0
  0
LINE
  5
11B
100
AcDbEntity
  8
____
  6
DASHED
 62
         2
100
AcDbLine
 10
2191.5761526903
 20
596.2531748259
 30
0.0
 11
2190.402060118
 21
596.2531748259
 31
0.0
  0
LINE
  5
11C
100
AcDbEntity
  8
____
  6
DASHED
 62
         2
100
AcDbLine
 10
2193.5247098488
 20
597.3781748259
 30
0.0
 11
2191.5761526903
 21
596.2531748259
 31
0.0
  0
LINE
  5
11D
100
AcDbEntity
  8
____
  6
DASHED
 62
         2
100
AcDbLine
 10
2190.402060118
 20
596.2531748259
 30
0.0
 11
2189.8247098488
 21
595.2531748259
 31
0.0
  0
DIMENSION
  5
121
100
AcDbEntity
  8
____
  6
CONTINUOUS
 62
         4
100
AcDbDimension
  2
*D0
 10
2237.25882146
 20
614.3031748259
 30
0.0
 11
2235.23382146
 21
578.0313139519
 31
0.0
  3
DIMSTYLE1
100
AcDbAlignedDimension
 13
2192.9247098488
 23
614.3031748259
 33
0.0
 14
2192.9247098488
 24
576.2031748259
 34
0.0
 50
90.0
100
AcDbRotatedDimension
  0
DIMENSION
  5
130
100
AcDbEntity
  8
____
  6
CONTINUOUS
 62
         4
100
AcDbDimension
  2
*D1
 10
2184.7447098488
 20
544.9204618129
 30
0.0
 11
2181.3947098488
 21
546.9454618129
 31
0.0
  3
DIMSTYLE1
100
AcDbAlignedDimension
 13
2184.7447098488
 23
576.2031748259
 33
0.0
 14
2180.7447098488
 24
558.6611748259
 34
0.0
100
AcDbRotatedDimension
  0
DIMENSION
  5
13E
100
AcDbEntity
  8
____
  6
CONTINUOUS
 62
         4
100
AcDbDimension
  2
*D2
 10
2223.4942064715
 20
613.2531748259
 30
0.0
 11
2221.4692064715
 21
588.9667891
 31
0.0
  3
DIMSTYLE1
100
AcDbAlignedDimension
 13
2184.7447098488
 23
613.2531748259
 33
0.0
 14
2184.7447098488
 24
577.2531748259
 34
0.0
 50
90.0
100
AcDbRotatedDimension
  0
ARC
  5
14A
100
AcDbEntity
  8
____
  6
CONTINUOUS
 62
         7
100
AcDbCircle
 10
2183.8012651135
 20
461.7465290073
 30
0.0
 40
0.4
100
AcDbArc
 50
35.0
 51
90.0
  0
LINE
  5
14B
100
AcDbEntity
  8
____
  6
CONTINUOUS
 62
         7
100
AcDbLine
 10
2184.7447098488
 20
461.0965290073
 30
0.0
 11
2184.1289259312
 21
461.9759595819
 31
0.0
  0
ARC
  5
14C
100
AcDbEntity
  8
____
  6
CONTINUOUS
 62
         7
100
AcDbCircle
 10
2183.8012651135
 20
498.5465290073
 30
0.0
 40
0.4
100
AcDbArc
 50
270.0
 51
325.0
  0
LINE
  5
14D
100
AcDbEntity
  8
____
  6
CONTINUOUS
 62
         7
100
AcDbLine
 10
2184.7447098488
 20
499.1965290073
 30
0.0
 11
2184.1289259312
 21
498.3170984328
 31
0.0
  0
LINE
  5
14E
100
AcDbEntity
  8
____
  6
CONTINUOUS
 62
         7
100
AcDbLine
 10
2180.7447098488
 20
458.2805036035
 30
0.0
 11
2180.2447098488
 21
459.1465290073
 31
0.0
  0
LINE
  5
14F
100
AcDbEntity
  8
____
  6
CONTINUOUS
 62
         7
100
AcDbLine
 10
2183.8012651135
 20
462.1465290073
 30
0.0
 11
2180.7447098488
 21
462.1465290073
 31
0.0
  0
ARC
  5
150
100
AcDbEntity
  8
____
  6
CONTINUOUS
 62
         7
100
AcDbCircle
 10
2180.7447098488
 20
461.6465290073
 30
0.0
 40
0.5
100
AcDbArc
 50
90.0
 51
180.0
  0
LINE
  5
151
100
AcDbEntity
  8
____
  6
CONTINUOUS
 62
         7
100
AcDbLine
 10
2183.8012651135
 20
498.1465290073
 30
0.0
 11
2180.7447098488
 21
498.1465290073
 31
0.0
  0
ARC
  5
152
100
AcDbEntity
  8
____
  6
CONTINUOUS
 62
         7
100
AcDbCircle
 10
2180.7447098488
 20
498.6465290073
 30
0.0
 40
0.5
100
AcDbArc
 50
180.0
 51
270.0
  0
LINE
  5
153
100
AcDbEntity
  8
____
  6
CONTINUOUS
 62
         7
100
AcDbLine
 10
2180.2447098488
 20
501.1465290073
 30
0.0
 11
2180.2447098488
 21
498.6465290073
 31
0.0
  0
LINE
  5
154
100
AcDbEntity
  8
____
  6
CONTINUOUS
 62
         7
100
AcDbLine
 10
2180.7447098488
 20
502.0125544111
 30
0.0
 11
2180.2447098488
 21
501.1465290073
 31
0.0
  0
LINE
  5
155
100
AcDbEntity
  8
____
  6
CONTINUOUS
 62
         7
100
AcDbLine
 10
2180.2447098488
 20
459.1465290073
 30
0.0
 11
2180.2447098488
 21
461.6465290073
 31
0.0
  0
LINE
  5
156
100
AcDbEntity
  8
____
  6
CONTINUOUS
 62
         4
100
AcDbLine
 10
2193.5045057459
 20
461.8965290073
 30
0.0
 11
2184.1845438182
 21
461.8965290073
 31
0.0
  0
LINE
  5
157
100
AcDbEntity
  8
____
  6
CONTINUOUS
 62
         4
100
AcDbLine
 10
2184.1845438182
 20
498.3965290073
 30
0.0
 11
2193.5045057459
 21
498.3965290073
 31
0.0
  0
LINE
  5
158
100
AcDbEntity
  8
____
  6
CONTINUOUS
 62
         7
100
AcDbLine
 10
2180.7447098488
 20
516.7385290073
 30
0.0
 11
2180.7447098488
 21
498.1465290073
 31
0.0
  0
LINE
  5
159
100
AcDbEntity
  8
____
  6
CONTINUOUS
 62
         7
100
AcDbLine
 10
2172.0267098488
 20
517.7385290073
 30
0.0
 11
2179.7447098488
 21
517.7385290073
 31
0.0
  0
LINE
  5
15A
100
AcDbEntity
  8
____
  6
CONTINUOUS
 62
         7
100
AcDbLine
 10
2179.7447098488
 20
442.5545290073
 30
0.0
 11
2172.0267098488
 21
442.5545290073
 31
0.0
  0
LINE
  5
15B
100
AcDbEntity
  8
____
  6
CONTINUOUS
 62
         7
100
AcDbLine
 10
2184.7447098488
 20
499.1965290073
 30
0.0
 11
2192.5247098488
 21
499.1965290073
 31
0.0
  0
LINE
  5
15C
100
AcDbEntity
  8
____
  6
CONTINUOUS
 62
         7
100
AcDbLine
 10
2192.5247098488
 20
461.0965290073
 30
0.0
 11
2184.7447098488
 21
461.0965290073
 31
0.0
  0
LINE
  5
15D
100
AcDbEntity
  8
____
  6
CONTINUOUS
 62
         7
100
AcDbLine
 10
2193.5247098488
 20
498.1965290073
 30
0.0
 11
2193.5247098488
 21
462.0965290073
 31
0.0
  0
ARC
  5
15E
100
AcDbEntity
  8
____
  6
CONTINUOUS
 62
         7
100
AcDbCircle
 10
2179.7447098488
 20
516.7385290073
 30
0.0
 40
1.0
100
AcDbArc
 50
0.0
 51
90.0
  0
ARC
  5
15F
100
AcDbEntity
  8
____
  6
CONTINUOUS
 62
         7
100
AcDbCircle
 10
2192.5247098488
 20
498.1965290073
 30
0.0
 40
1.0
100
AcDbArc
 50
0.0
 51
90.0
  0
ARC
  5
160
100
AcDbEntity
  8
____
  6
CONTINUOUS
 62
         7
100
AcDbCircle
 10
2192.5247098488
 20
462.0965290073
 30
0.0
 40
1.0
100
AcDbArc
 50
270.0
 51
360.0
  0
ARC
  5
161
100
AcDbEntity
  8
____
  6
CONTINUOUS
 62
         7
100
AcDbCircle
 10
2179.7447098488
 20
443.5545290073
 30
0.0
 40
1.0
100
AcDbArc
 50
270.0
 51
360.0
  0
LINE
  5
162
100
AcDbEntity
  8
____
  6
CONTINUOUS
 62
         7
100
AcDbLine
 10
2180.7447098488
 20
462.1465290073
 30
0.0
 11
2180.7447098488
 21
443.5545290073
 31
0.0
  0
LINE
  5
163
100
AcDbEntity
  8
____
  6
CONTINUOUS
 62
         7
100
AcDbLine
 10
2193.5247098488
 20
478.0215290073
 30
0.0
 11
2193.5247098488
 21
482.2715290073
 31
0.0
  0
LINE
  5
164
100
AcDbEntity
  8
____
  6
CONTINUOUS
 62
         7
100
AcDbLine
 10
2190.402060118
 20
481.1465290073
 30
0.0
 11
2189.8247098488
 21
480.1465290073
 31
0.0
  0
LINE
  5
165
100
AcDbEntity
  8
____
  6
CONTINUOUS
 62
         7
100
AcDbLine
 10
2193.5247098488
 20
482.2715290073
 30
0.0
 11
2191.5761526903
 21
481.1465290073
 31
0.0
  0
LINE
  5
166
100
AcDbEntity
  8
____
  6
CONTINUOUS
 62
         7
100
AcDbLine
 10
2191.5761526903
 20
481.1465290073
 30
0.0
 11
2190.402060118
 21
481.1465290073
 31
0.0
  0
LINE
  5
167
100
AcDbEntity
  8
____
  6
CONTINUOUS
 62
         7
100
AcDbLine
 10
2191.5761526903
 20
479.1465290073
 30
0.0
 11
2190.402060118
 21
479.1465290073
 31
0.0
  0
LINE
  5
168
100
AcDbEntity
  8
____
  6
CONTINUOUS
 62
         7
100
AcDbLine
 10
2193.5247098488
 20
478.0215290073
 30
0.0
 11
2191.5761526903
 21
479.1465290073
 31
0.0
  0
LINE
  5
169
100
AcDbEntity
  8
____
  6
CONTINUOUS
 62
         7
100
AcDbLine
 10
2190.402060118
 20
479.1465290073
 30
0.0
 11
2189.8247098488
 21
480.1465290073
 31
0.0
  0
LINE
  5
16A
100
AcDbEntity
  8
____
  6
CONTINUOUS
 62
         4
100
AcDbLine
 10
2190.402060118
 20
479.1465290073
 30
0.0
 11
2190.402060118
 21
481.1465290073
 31
0.0
  0
LINE
  5
16B
100
AcDbEntity
  8
____
  6
CONTINUOUS
 62
         4
100
AcDbLine
 10
2191.5761526903
 20
481.1465290073
 30
0.0
 11
2191.5761526903
 21
479.1465290073
 31
0.0
  0
LINE
  5
16C
100
AcDbEntity
  8
____
  6
CONTINUOUS
 62
         7
100
AcDbLine
 10
2171.0267098488
 20
558.6611748259
 30
0.0
 11
2171.0267098488
 21
631.8451748259
 31
0.0
  0
ARC
  5
16D
100
AcDbEntity
  8
____
  6
CONTINUOUS
 62
         7
100
AcDbCircle
 10
2172.0267098488
 20
631.8451748259
 30
0.0
 40
1.0
100
AcDbArc
 50
90.0
 51
180.0
  0
ARC
  5
16E
100
AcDbEntity
  8
____
  6
CONTINUOUS
 62
         7
100
AcDbCircle
 10
2172.0267098488
 20
558.6611748259
 30
0.0
 40
1.0
100
AcDbArc
 50
180.0
 51
270.0
  0
ARC
  5
16F
100
AcDbEntity
  8
____
  6
CONTINUOUS
 62
         7
100
AcDbCircle
 10
2172.0267098488
 20
516.7385290073
 30
0.0
 40
1.0
100
AcDbArc
 50
90.0
 51
180.0
  0
ARC
  5
170
100
AcDbEntity
  8
____
  6
CONTINUOUS
 62
         7
100
AcDbCircle
 10
2172.0267098488
 20
443.5545290073
 30
0.0
 40
1.0
100
AcDbArc
 50
180.0
 51
270.0
  0
ARC
  5
171
100
AcDbEntity
  8
____
  6
CONTINUOUS
 62
         7
100
AcDbCircle
 10
2170.2267098488
 20
503.1715290073
 30
0.0
 40
0.8
100
AcDbArc
 50
270.0
 51
360.0
  0
ARC
  5
172
100
AcDbEntity
  8
____
  6
CONTINUOUS
 62
         7
100
AcDbCircle
 10
2170.2267098488
 20
457.1215290073
 30
0.0
 40
0.8
100
AcDbArc
 50
0.0
 51
90.0
  0
LINE
  5
173
100
AcDbEntity
  8
____
  6
CONTINUOUS
 62
         7
100
AcDbLine
 10
2171.0267098488
 20
457.1215290073
 30
0.0
 11
2171.0267098488
 21
443.5545290073
 31
0.0
  0
ARC
  5
174
100
AcDbEntity
  8
____
  6
CONTINUOUS
 62
         7
100
AcDbCircle
 10
2170.2267098488
 20
572.1681748259
 30
0.0
 40
0.8
100
AcDbArc
 50
0.0
 51
90.0
  0
ARC
  5
175
100
AcDbEntity
  8
____
  6
CONTINUOUS
 62
         7
100
AcDbCircle
 10
2170.2267098488
 20
618.3381748259
 30
0.0
 40
0.8
100
AcDbArc
 50
270.0
 51
360.0
  0
DIMENSION
  5
178
100
AcDbEntity
  8
____
  6
CONTINUOUS
 62
         4
100
AcDbDimension
  2
*D3
 10
2180.7447098488
 20
684.5212577256
 30
0.0
 11
2155.6597098488
 21
686.5462577256
 31
0.0
  3
DIMSTYLE1
100
AcDbAlignedDimension
 13
2180.7447098488
 23
631.8451748259
 33
0.0
 14
2135.9747098488
 24
617.4781748259
 34
0.0
100
AcDbRotatedDimension
  0
DIMENSION
  5
186
100
AcDbEntity
  8
____
  6
CONTINUOUS
 62
         4
100
AcDbDimension
  2
*D4
 10
2193.5247098488
 20
694.164970501
 30
0.0
 11
2121.4376969851
 21
696.189970501
 31
0.0
  3
DIMSTYLE1
100
AcDbAlignedDimension
 13
2193.5247098488
 23
613.3031748259
 33
0.0
 14
2067.5747098488
 24
606.4654815423
 34
0.0
100
AcDbRotatedDimension
  0
LINE
  5
192
100
AcDbEntity
  8
____
  6
CONTINUOUS
 62
         7
100
AcDbLine
 10
2107.5747098488
 20
473.1465290073
 30
0.0
 11
2107.5747098488
 21
487.1465290073
 31
0.0
  0
LINE
  5
193
100
AcDbEntity
  8
____
  6
CONTINUOUS
 62
         7
100
AcDbLine
 10
2107.5747098488
 20
487.1465290073
 30
0.0
 11
2111.6161617331
 21
480.1465290073
 31
0.0
  0
LINE
  5
194
100
AcDbEntity
  8
____
  6
CONTINUOUS
 62
         7
100
AcDbLine
 10
2107.5747098488
 20
473.1465290073
 30
0.0
 11
2111.6161617331
 21
480.1465290073
 31
0.0
  0
INSERT
  5
1D5
100
AcDbEntity
  8
0
  6
CONTINUOUS
100
AcDbBlockReference
  2
*X5
 10
0.0
 20
0.0
 30
0.0
  0
LINE
  5
1D6
100
AcDbEntity
  8
____
  6
CONTINUOUS
 62
         4
100
AcDbLine
 10
2180.7447098488
 20
634.2437235847
 30
0.0
 11
2180.7447098488
 21
658.5036443345
 31
0.0
  0
CIRCLE
  5
1D7
100
AcDbEntity
  8
____
  6
DASHED
 62
         2
100
AcDbCircle
 10
2378.7655017829
 20
595.2531748259
 30
0.0
 40
22.285
  0
DIMENSION
  5
1DA
100
AcDbEntity
  8
____
  6
CONTINUOUS
 62
         6
100
AcDbDimension
  2
*D6
 10
2135.9747098488
 20
642.9986839596
 30
0.0
 11
2157.9997098488
 21
645.0236839596
 31
0.0
  3
DIMSTYLE1
100
AcDbAlignedDimension
 13
2135.9747098488
 23
595.2531748259
 33
0.0
 14
2193.5247098488
 24
595.2531748259
 34
0.0
100
AcDbRotatedDimension
  0
TEXT
  5
1E7
100
AcDbEntity
  8
____
  6
CONTINUOUS
 62
         2
100
AcDbText
 10
2363.3372795655
 20
669.4390115047
 30
0.0
 40
4.5
  1
531528
 41
0.98
  7
BOX
100
AcDbText
  0
ENDSEC
  0
SECTION
  2
OBJECTS
  0
DICTIONARY
  5
19
100
AcDbDictionary
  3
ACAD_GROUP
350
1A
  3
ACAD_MLINESTYLE
350
1B
  0
DICTIONARY
  5
1A
102
{ACAD_REACTORS
330
19
102
}
100
AcDbDictionary
  0
DICTIONARY
  5
1B
102
{ACAD_REACTORS
330
19
102
}
100
AcDbDictionary
  3
STANDARD
350
1C
  0
MLINESTYLE
  5
1C
102
{ACAD_REACTORS
330
1B
102
}
100
AcDbMlineStyle
  2
STANDARD
 70
         0
  3

 62
         0
 51
90.0
 52
90.0
 71
         2
 49
0.5
 62
       256
  6
BYLAYER
 49
-0.5
 62
       256
  6
BYLAYER
  0
ENDSEC
  0
EOF
