  0
SECTION
  2
HEADER
  9
$ACADVER
  1
AC1014
  9
$ACADMAINTVER
 70
         0
  9
$DWGCODEPAGE
  3
BIG5
  9
$INSBASE
 10
0.0
 20
0.0
 30
0.0
  9
$EXTMIN
 10
1113.8383231963
 20
-136.7450838158
 30
0.0
  9
$EXTMAX
 10
1875.8778300689
 20
247.4515991934
 30
0.0
  9
$LIMMIN
 10
0.0
 20
0.0
  9
$LIMMAX
 10
0.0
 20
0.0
  9
$ORTHOMODE
 70
         0
  9
$REGENMODE
 70
         1
  9
$FILLMODE
 70
         1
  9
$QTEXTMODE
 70
         0
  9
$MIRRTEXT
 70
         1
  9
$DRAGMODE
 70
         2
  9
$LTSCALE
 40
1.0
  9
$OSMODE
 70
         0
  9
$ATTMODE
 70
         1
  9
$TEXTSIZE
 40
1.0
  9
$TRACEWID
 40
0.05
  9
$TEXTSTYLE
  7
STANDARD
  9
$CLAYER
  8
0
  9
$CELTYPE
  6
CONTINUOUS
  9
$CECOLOR
 62
         4
  9
$CELTSCALE
 40
1.0
  9
$DELOBJ
 70
         1
  9
$DISPSILH
 70
         0
  9
$DIMSCALE
 40
1.0
  9
$DIMASZ
 40
0.18
  9
$DIMEXO
 40
0.0625
  9
$DIMDLI
 40
0.38
  9
$DIMRND
 40
0.0
  9
$DIMDLE
 40
0.0
  9
$DIMEXE
 40
0.25
  9
$DIMTP
 40
0.01
  9
$DIMTM
 40
-0.01
  9
$DIMTXT
 40
2.7
  9
$DIMCEN
 40
0.09
  9
$DIMTSZ
 40
0.0
  9
$DIMTOL
 70
         0
  9
$DIMLIM
 70
         0
  9
$DIMTIH
 70
         1
  9
$DIMTOH
 70
         1
  9
$DIMSE1
 70
         0
  9
$DIMSE2
 70
         0
  9
$DIMTAD
 70
         0
  9
$DIMZIN
 70
         0
  9
$DIMBLK
  1

  9
$DIMASO
 70
         1
  9
$DIMSHO
 70
         1
  9
$DIMPOST
  1

  9
$DIMAPOST
  1

  9
$DIMALT
 70
         0
  9
$DIMALTD
 70
         2
  9
$DIMALTF
 40
25.4
  9
$DIMLFAC
 40
1.0
  9
$DIMTOFL
 70
         0
  9
$DIMTVP
 40
0.0
  9
$DIMTIX
 70
         0
  9
$DIMSOXD
 70
         0
  9
$DIMSAH
 70
         0
  9
$DIMBLK1
  1

  9
$DIMBLK2
  1

  9
$DIMSTYLE
  2
STANDARD
  9
$DIMCLRD
 70
         0
  9
$DIMCLRE
 70
         0
  9
$DIMCLRT
 70
         4
  9
$DIMTFAC
 40
1.0
  9
$DIMGAP
 40
0.09
  9
$DIMJUST
 70
         0
  9
$DIMSD1
 70
         0
  9
$DIMSD2
 70
         0
  9
$DIMTOLJ
 70
         1
  9
$DIMTZIN
 70
         0
  9
$DIMALTZ
 70
         0
  9
$DIMALTTZ
 70
         0
  9
$DIMFIT
 70
         3
  9
$DIMUPT
 70
         0
  9
$DIMUNIT
 70
         2
  9
$DIMDEC
 70
         4
  9
$DIMTDEC
 70
         4
  9
$DIMALTU
 70
         2
  9
$DIMALTTD
 70
         2
  9
$DIMTXSTY
  7
STANDARD
  9
$DIMAUNIT
 70
         0
  9
$LUNITS
 70
         2
  9
$LUPREC
 70
        10
  9
$SKETCHINC
 40
0.1
  9
$FILLETRAD
 40
0.0
  9
$AUNITS
 70
         0
  9
$AUPREC
 70
         0
  9
$MENU
  1
acad
  9
$ELEVATION
 40
0.0
  9
$PELEVATION
 40
0.0
  9
$THICKNESS
 40
0.0
  9
$LIMCHECK
 70
         0
  9
$BLIPMODE
 70
         1
  9
$CHAMFERA
 40
0.0
  9
$CHAMFERB
 40
0.0
  9
$CHAMFERC
 40
0.0
  9
$CHAMFERD
 40
0.0
  9
$SKPOLY
 70
         0
  9
$TDCREATE
 40
0.000000000
  9
$TDUPDATE
 40
0.000000000
  9
$TDINDWG
 40
0.0000000000
  9
$TDUSRTIMER
 40
0.0000000000
  9
$USRTIMER
 70
         1
  9
$ANGBASE
 50
0.0
  9
$ANGDIR
 70
         0
  9
$PDMODE
 70
         2
  9
$PDSIZE
 40
0.0
  9
$PLINEWID
 40
0.0
  9
$COORDS
 70
         1
  9
$SPLFRAME
 70
         0
  9
$SPLINETYPE
 70
         6
  9
$SPLINESEGS
 70
         8
  9
$ATTDIA
 70
         0
  9
$ATTREQ
 70
         1
  9
$HANDLING
 70
         1
  9
$HANDSEED
  5
674
  9
$SURFTAB1
 70
         6
  9
$SURFTAB2
 70
         6
  9
$SURFTYPE
 70
         6
  9
$SURFU
 70
         6
  9
$SURFV
 70
         6
  9
$UCSNAME
  2

  9
$UCSORG
 10
0.0
 20
0.0
 30
0.0
  9
$UCSXDIR
 10
1.0
 20
0.0
 30
0.0
  9
$UCSYDIR
 10
0.0
 20
1.0
 30
0.0
  9
$PUCSNAME
  2

  9
$PUCSORG
 10
0.0
 20
0.0
 30
0.0
  9
$PUCSXDIR
 10
1.0
 20
0.0
 30
0.0
  9
$PUCSYDIR
 10
0.0
 20
1.0
 30
0.0
  9
$USERI1
 70
         0
  9
$USERI2
 70
         0
  9
$USERI3
 70
         0
  9
$USERI4
 70
         0
  9
$USERI5
 70
         0
  9
$USERR1
 40
0.0
  9
$USERR2
 40
0.0
  9
$USERR3
 40
0.0
  9
$USERR4
 40
0.0
  9
$USERR5
 40
0.0
  9
$WORLDVIEW
 70
         1
  9
$SHADEDGE
 70
         3
  9
$SHADEDIF
 70
        70
  9
$TILEMODE
 70
         1
  9
$MAXACTVP
 70
        16
  9
$PINSBASE
 10
0.0
 20
0.0
 30
0.0
  9
$PLIMCHECK
 70
         0
  9
$PEXTMIN
 10
1.0000000000E+20
 20
1.0000000000E+20
 30
1.0000000000E+20
  9
$PEXTMAX
 10
-1.0000000000E+20
 20
-1.0000000000E+20
 30
-1.0000000000E+20
  9
$PLIMMIN
 10
0.0
 20
0.0
  9
$PLIMMAX
 10
12.0
 20
9.0
  9
$UNITMODE
 70
         0
  9
$VISRETAIN
 70
         0
  9
$PLINEGEN
 70
         1
  9
$PSLTSCALE
 70
         0
  9
$TREEDEPTH
 70
      3020
  9
$PICKSTYLE
 70
         1
  9
$CMLSTYLE
  2
STANDARD
  9
$CMLJUST
 70
         0
  9
$CMLSCALE
 40
1.0
  9
$PROXYGRAPHICS
 70
         0
  9
$MEASUREMENT
 70
         0
  0
ENDSEC
  0
SECTION
  2
CLASSES
  0
CLASS
  1
LWPOLYLINE
  2
AcDbPolyline
  3
"AutoCAD"
 90
        0
280
         0
281
         1
  0
CLASS
  1
IMAGE
  2
AcDbRasterImage
  3
ISM
 90
      127
280
         0
281
         1
  0
CLASS
  1
OLE2FRAME
  2
AcDbOle2Frame
  3
""
 90
        0
280
         0
281
         1
  0
CLASS
  1
HATCH
  2
AcDbHatch
  3
"ACAD_SEDONA"
 90
        0
280
         0
281
         1
  0
CLASS
  1
DICTIONARYVAR
  2
AcDbDictionaryVar
  3
"AutoCAD"
 90
        0
280
         0
281
         0
  0
CLASS
  1
RASTERVARIABLES
  2
AcDbRasterVariables
  3
ISM
 90
        0
280
         0
281
         0
  0
CLASS
  1
IMAGEDEF
  2
AcDbRasterImageDef
  3
ISM
 90
        0
280
         0
281
         0
  0
CLASS
  1
IMAGEDEF_REACTOR
  2
AcDbRasterImageDefReactor
  3
ISM
 90
        1
280
         0
281
         0
  0
CLASS
  1
IDBUFFER
  2
AcDbIdBuffer
  3
"Acad"
 90
        0
280
         0
281
         0
  0
CLASS
  1
SPATIAL_FILTER
  2
AcDbSpatialFilter
  3
"Acad"
 90
        0
280
         0
281
         0
  0
CLASS
  1
XRECORD
  2
AcDbXrecord
  3
"<Built In>"
 90
        0
280
         0
281
         0
  0
CLASS
  1
SORTENTSTABLE
  2
AcDbSortentsTable
  3
"AutoCAD"
 90
        0
280
         0
281
         0
  0
CLASS
  1
LAYER_INDEX
  2
AcDbLayerIndex
  3
"Acad"
 90
        0
280
         0
281
         0
  0
CLASS
  1
SPATIAL_INDEX
  2
AcDbSpatialIndex
  3
"Acad"
 90
        0
280
         0
281
         0
  0
CLASS
  1
OBJECT_PTR
  2
CAseDLPNTableRecord
  3
"ASE-LPNTableRecord"
 90
        1
280
         0
281
         0
  0
CLASS
  1
LAYOUT
  2
AcDbLayout
  3
"AutoCAD 2000"
 90
        1
280
         0
281
         0
  0
CLASS
  1
PLOTSETTINGS
  2
AcDbPlotSettings
  3
"AutoCAD 2000"
 90
        1
280
         0
281
         0
  0
CLASS
  1
ACDBDICTIONARYWDFLT
  2
AcDbDictionaryWithDefault
  3
"AutoCAD 2000"
 90
        1
280
         0
281
         0
  0
CLASS
  1
ACDBPLACEHOLDER
  2
AcDbPlaceHolder
  3
"AutoCAD 2000"
 90
        1
280
         0
281
         0
  0
CLASS
  1
VBA_PROJECT
  2
AcDbVbaProject
  3
"acadvba"
 90
        1
280
         0
281
         0
  0
CLASS
  1
WIPEOUT
  2
AcDbWipeout
  3
WipeOut|AutoCAD Express Tool|expresstools@autodesk.com
 90
      127
280
         0
281
         1
  0
CLASS
  1
WIPEOUTVARIABLES
  2
AcDbWipeoutVariables
  3
WipeOut|AutoCAD Express Tool|expresstools@autodesk.com
 90
        0
280
         0
281
         0
  0
CLASS
  1
RTEXT
  2
RText
  3
RText|AutoCAD Express Tool|expresstools@autodesk.com
 90
        0
280
         0
281
         1
  0
CLASS
  1
ARCALIGNEDTEXT
  2
AcDbArcAlignedText
  3
ATEXT|AutoCAD Express Tool|expresstools@autodesk.com
 90
        0
280
         0
281
         1
  0
ENDSEC
  0
SECTION
  2
TABLES
  0
TABLE
  2
VPORT
  5
7
100
AcDbSymbolTable
 70
         1
  0
VPORT
  5
15
100
AcDbSymbolTableRecord
100
AcDbViewportTableRecord
  2
*ACTIVE
 70
         0
 10
0.0
 20
0.0
 11
1.0
 21
1.0
 12
1494.8580766326
 22
55.3532576888
 13
0.0
 23
0.0
 14
1.0
 24
1.0
 15
0.0
 25
0.0
 16
0.0
 26
0.0
 36
1.0
 17
0.0
 27
0.0
 37
0.0
 40
384.1966830092
 41
1.9834619625
 42
50.0
 43
0.0
 44
0.0
 50
0.0
 51
0.0
 71
         0
 72
       100
 73
         1
 74
         1
 75
         0
 76
         0
 77
         0
 78
         0
  0
ENDTAB
  0
TABLE
  2
LTYPE
  5
4
100
AcDbSymbolTable
 70
         6
  0
LTYPE
  5
11
100
AcDbSymbolTableRecord
100
AcDbLinetypeTableRecord
  2
BYBLOCK
 70
        64
  3

 72
        65
 73
         0
 40
0.0
  0
LTYPE
  5
12
100
AcDbSymbolTableRecord
100
AcDbLinetypeTableRecord
  2
BYLAYER
 70
        64
  3

 72
        65
 73
         0
 40
0.0
  0
LTYPE
  5
13
100
AcDbSymbolTableRecord
100
AcDbLinetypeTableRecord
  2
CONTINUOUS
 70
        64
  3
Solid line
 72
        65
 73
         0
 40
0.0
  0
LTYPE
  5
1D
100
AcDbSymbolTableRecord
100
AcDbLinetypeTableRecord
  2
DASHED
 70
        64
  3
_ _ _ _ _ _ _ _ _ _ _ _ _ _ _ _
 72
        65
 73
         2
 40
0.2
 49
0.1
 74
         0
 49
-0.1
 74
         0
  0
LTYPE
  5
1E
100
AcDbSymbolTableRecord
100
AcDbLinetypeTableRecord
  2
CENTER
 70
        64
  3
___ _ ___ _ ___ _ ___ _ ___ _ ___ _ ___ _ ___ _
 72
        65
 73
         4
 40
0.95
 49
0.625
 74
         0
 49
-0.125
 74
         0
 49
0.075
 74
         0
 49
-0.125
 74
         0
  0
LTYPE
  5
1F
100
AcDbSymbolTableRecord
100
AcDbLinetypeTableRecord
  2
PHANTOM
 70
        64
  3
______  __  __  ______  __  __  ______  __  __  
 72
        65
 73
         6
 40
1.025
 49
0.625
 74
         0
 49
-0.125
 74
         0
 49
0.075
 74
         0
 49
-0.125
 74
         0
 49
0.075
 74
         0
 49
-0.125
 74
         0
  0
ENDTAB
  0
TABLE
  2
LAYER
  5
2
100
AcDbSymbolTable
 70
         5
  0
LAYER
  5
14
100
AcDbSymbolTableRecord
100
AcDbLayerTableRecord
  2
0
 70
         0
 62
         7
  6
CONTINUOUS
  0
LAYER
  5
21
100
AcDbSymbolTableRecord
100
AcDbLayerTableRecord
  2
_____U
 70
         1
 62
         7
  6
CONTINUOUS
  0
LAYER
  5
22
100
AcDbSymbolTableRecord
100
AcDbLayerTableRecord
  2
_Y__________
 70
         0
 62
         7
  6
CONTINUOUS
  0
LAYER
  5
23
100
AcDbSymbolTableRecord
100
AcDbLayerTableRecord
  2
L1_170
 70
         0
 62
         7
  6
CONTINUOUS
  0
LAYER
  5
93
100
AcDbSymbolTableRecord
100
AcDbLayerTableRecord
  2
DEFPOINTS
 70
         0
 62
        -7
  6
CONTINUOUS
  0
ENDTAB
  0
TABLE
  2
STYLE
  5
3
100
AcDbSymbolTable
 70
        36
  0
STYLE
  5
17
100
AcDbSymbolTableRecord
100
AcDbTextStyleTableRecord
  2
STANDARD
 70
         0
 40
0.0
 41
1.0
 50
0.0
 71
         0
 42
0.0
  3
txt
  4

  0
STYLE
  5
9C
100
AcDbSymbolTableRecord
100
AcDbTextStyleTableRecord
  2
BOX
 70
         0
 40
1.0
 41
1.0
 50
0.0
 71
         0
 42
0.2
  3
txt.shx
  4

  0
STYLE
  5
C4
100
AcDbSymbolTableRecord
100
AcDbTextStyleTableRecord
  2
BOX
 70
         0
 40
1.0
 41
1.0
 50
0.0
 71
         0
 42
0.2
  3
txt.shx
  4

  0
STYLE
  5
D5
100
AcDbSymbolTableRecord
100
AcDbTextStyleTableRecord
  2
BOX
 70
         0
 40
1.0
 41
1.0
 50
0.0
 71
         0
 42
0.2
  3
txt.shx
  4

  0
STYLE
  5
E3
100
AcDbSymbolTableRecord
100
AcDbTextStyleTableRecord
  2
BOX
 70
         0
 40
1.0
 41
1.0
 50
0.0
 71
         0
 42
0.2
  3
txt.shx
  4

  0
STYLE
  5
F4
100
AcDbSymbolTableRecord
100
AcDbTextStyleTableRecord
  2
BOX
 70
         0
 40
1.0
 41
1.0
 50
0.0
 71
         0
 42
0.2
  3
txt.shx
  4

  0
STYLE
  5
10D
100
AcDbSymbolTableRecord
100
AcDbTextStyleTableRecord
  2
BOX
 70
         0
 40
1.0
 41
1.0
 50
0.0
 71
         0
 42
0.2
  3
txt.shx
  4

  0
STYLE
  5
465
100
AcDbSymbolTableRecord
100
AcDbTextStyleTableRecord
  2
BOX
 70
         0
 40
1.0
 41
1.0
 50
0.0
 71
         0
 42
0.2
  3
txt.shx
  4

  0
STYLE
  5
48A
100
AcDbSymbolTableRecord
100
AcDbTextStyleTableRecord
  2
BOX
 70
         0
 40
1.0
 41
1.0
 50
0.0
 71
         0
 42
0.2
  3
txt.shx
  4

  0
STYLE
  5
498
100
AcDbSymbolTableRecord
100
AcDbTextStyleTableRecord
  2
BOX
 70
         0
 40
1.0
 41
1.0
 50
0.0
 71
         0
 42
0.2
  3
txt.shx
  4

  0
STYLE
  5
4A6
100
AcDbSymbolTableRecord
100
AcDbTextStyleTableRecord
  2
BOX
 70
         0
 40
1.0
 41
1.0
 50
0.0
 71
         0
 42
0.2
  3
txt.shx
  4

  0
STYLE
  5
514
100
AcDbSymbolTableRecord
100
AcDbTextStyleTableRecord
  2
BOX
 70
         0
 40
1.0
 41
1.0
 50
0.0
 71
         0
 42
0.2
  3
txt.shx
  4

  0
STYLE
  5
522
100
AcDbSymbolTableRecord
100
AcDbTextStyleTableRecord
  2
BOX
 70
         0
 40
1.0
 41
1.0
 50
0.0
 71
         0
 42
0.2
  3
txt.shx
  4

  0
STYLE
  5
530
100
AcDbSymbolTableRecord
100
AcDbTextStyleTableRecord
  2
BOX
 70
         0
 40
1.0
 41
1.0
 50
0.0
 71
         0
 42
0.2
  3
txt.shx
  4

  0
STYLE
  5
53E
100
AcDbSymbolTableRecord
100
AcDbTextStyleTableRecord
  2
BOX
 70
         0
 40
1.0
 41
1.0
 50
0.0
 71
         0
 42
0.2
  3
txt.shx
  4

  0
STYLE
  5
550
100
AcDbSymbolTableRecord
100
AcDbTextStyleTableRecord
  2
BOX
 70
         0
 40
1.0
 41
1.0
 50
0.0
 71
         0
 42
0.2
  3
txt.shx
  4

  0
STYLE
  5
560
100
AcDbSymbolTableRecord
100
AcDbTextStyleTableRecord
  2
BOX
 70
         0
 40
1.0
 41
1.0
 50
0.0
 71
         0
 42
0.2
  3
txt.shx
  4

  0
STYLE
  5
56E
100
AcDbSymbolTableRecord
100
AcDbTextStyleTableRecord
  2
BOX
 70
         0
 40
1.0
 41
1.0
 50
0.0
 71
         0
 42
0.2
  3
txt.shx
  4

  0
STYLE
  5
58A
100
AcDbSymbolTableRecord
100
AcDbTextStyleTableRecord
  2
BOX
 70
         0
 40
1.0
 41
1.0
 50
0.0
 71
         0
 42
0.2
  3
txt.shx
  4

  0
STYLE
  5
598
100
AcDbSymbolTableRecord
100
AcDbTextStyleTableRecord
  2
BOX
 70
         0
 40
1.0
 41
1.0
 50
0.0
 71
         0
 42
0.2
  3
txt.shx
  4

  0
STYLE
  5
5A7
100
AcDbSymbolTableRecord
100
AcDbTextStyleTableRecord
  2
BOX
 70
         0
 40
1.0
 41
1.0
 50
0.0
 71
         0
 42
0.2
  3
txt.shx
  4

  0
STYLE
  5
5B2
100
AcDbSymbolTableRecord
100
AcDbTextStyleTableRecord
  2
BOX
 70
         0
 40
1.0
 41
1.0
 50
0.0
 71
         0
 42
0.2
  3
txt.shx
  4

  0
STYLE
  5
5C3
100
AcDbSymbolTableRecord
100
AcDbTextStyleTableRecord
  2
BOX
 70
         0
 40
1.0
 41
1.0
 50
0.0
 71
         0
 42
0.2
  3
txt.shx
  4

  0
STYLE
  5
5D2
100
AcDbSymbolTableRecord
100
AcDbTextStyleTableRecord
  2
BOX
 70
         0
 40
1.0
 41
1.0
 50
0.0
 71
         0
 42
0.2
  3
txt.shx
  4

  0
STYLE
  5
5E2
100
AcDbSymbolTableRecord
100
AcDbTextStyleTableRecord
  2
BOX
 70
         0
 40
1.0
 41
1.0
 50
0.0
 71
         0
 42
0.2
  3
txt.shx
  4

  0
STYLE
  5
5F0
100
AcDbSymbolTableRecord
100
AcDbTextStyleTableRecord
  2
BOX
 70
         0
 40
1.0
 41
1.0
 50
0.0
 71
         0
 42
0.2
  3
txt.shx
  4

  0
STYLE
  5
5FE
100
AcDbSymbolTableRecord
100
AcDbTextStyleTableRecord
  2
BOX
 70
         0
 40
1.0
 41
1.0
 50
0.0
 71
         0
 42
0.2
  3
txt.shx
  4

  0
STYLE
  5
60D
100
AcDbSymbolTableRecord
100
AcDbTextStyleTableRecord
  2
BOX
 70
         0
 40
1.0
 41
1.0
 50
0.0
 71
         0
 42
0.2
  3
txt.shx
  4

  0
STYLE
  5
61B
100
AcDbSymbolTableRecord
100
AcDbTextStyleTableRecord
  2
BOX
 70
         0
 40
1.0
 41
1.0
 50
0.0
 71
         0
 42
0.2
  3
txt.shx
  4

  0
STYLE
  5
629
100
AcDbSymbolTableRecord
100
AcDbTextStyleTableRecord
  2
BOX
 70
         0
 40
1.0
 41
1.0
 50
0.0
 71
         0
 42
0.2
  3
txt.shx
  4

  0
STYLE
  5
637
100
AcDbSymbolTableRecord
100
AcDbTextStyleTableRecord
  2
BOX
 70
         0
 40
1.0
 41
1.0
 50
0.0
 71
         0
 42
0.2
  3
txt.shx
  4

  0
STYLE
  5
645
100
AcDbSymbolTableRecord
100
AcDbTextStyleTableRecord
  2
BOX
 70
         0
 40
1.0
 41
1.0
 50
0.0
 71
         0
 42
0.2
  3
txt.shx
  4

  0
STYLE
  5
653
100
AcDbSymbolTableRecord
100
AcDbTextStyleTableRecord
  2
BOX
 70
         0
 40
1.0
 41
1.0
 50
0.0
 71
         0
 42
0.2
  3
txt.shx
  4

  0
STYLE
  5
661
100
AcDbSymbolTableRecord
100
AcDbTextStyleTableRecord
  2
BOX
 70
         0
 40
1.0
 41
1.0
 50
0.0
 71
         0
 42
0.2
  3
txt.shx
  4

  0
STYLE
  5
66F
100
AcDbSymbolTableRecord
100
AcDbTextStyleTableRecord
  2
BOX
 70
         0
 40
1.0
 41
1.0
 50
0.0
 71
         0
 42
0.2
  3
txt.shx
  4

  0
STYLE
  5
672
100
AcDbSymbolTableRecord
100
AcDbTextStyleTableRecord
  2
BOX
 70
         0
 40
1.0
 41
1.0
 50
0.0
 71
         0
 42
0.2
  3
txt.shx
  4

  0
ENDTAB
  0
TABLE
  2
VIEW
  5
5
100
AcDbSymbolTable
 70
         0
  0
ENDTAB
  0
TABLE
  2
UCS
  5
6
100
AcDbSymbolTable
 70
         1
  0
UCS
  5
20
100
AcDbSymbolTableRecord
100
AcDbUCSTableRecord
  2
CK_VIEW_1
 70
         0
 10
0.0
 20
0.0
 30
1.0
 11
1.0
 21
0.0
 31
0.0
 12
0.0
 22
1.0
 32
0.0
  0
ENDTAB
  0
TABLE
  2
APPID
  5
8
100
AcDbSymbolTable
 70
         1
  0
APPID
  5
16
100
AcDbSymbolTableRecord
100
AcDbRegAppTableRecord
  2
ACAD
 70
         0
  0
ENDTAB
  0
TABLE
  2
DIMSTYLE
  5
9
100
AcDbSymbolTable
 70
         2
  0
DIMSTYLE
105
18
100
AcDbSymbolTableRecord
100
AcDbDimStyleTableRecord
  2
STANDARD
 70
         0
  3

  4

  5

  6

  7

 40
1.0
 41
0.18
 42
0.0625
 43
0.38
 44
0.18
 45
0.0
 46
0.0
 47
0.0
 48
0.0
 71
         0
 72
         0
 73
         1
 74
         1
 75
         0
 76
         0
 77
         0
 78
         0
140
0.18
141
0.09
142
0.0
143
25.4
144
1.0
145
0.0
146
1.0
147
0.09
170
         0
171
         2
172
         0
173
         0
174
         0
175
         0
176
         0
177
         0
178
         0
270
         2
271
         4
272
         4
273
         2
274
         2
275
         0
280
         0
281
         0
282
         0
283
         1
284
         0
285
         0
286
         0
287
         0
288
         0
340
17
  0
DIMSTYLE
105
8F
100
AcDbSymbolTableRecord
100
AcDbDimStyleTableRecord
  2
DIMSTYLE1
 70
         0
  3

  4

  5

  6

  7

 40
1.0
 41
2.7
 42
0.0625
 43
0.38
 44
2.7
 45
0.0
 46
0.0
 47
0.0
 48
0.0
 71
         0
 72
         0
 73
         1
 74
         1
 75
         0
 76
         0
 77
         0
 78
         0
140
2.7
141
0.09
142
0.0
143
25.4
144
1.0
145
0.0
146
1.0
147
0.09
170
         0
171
         2
172
         0
173
         0
174
         0
175
         0
176
         0
177
         0
178
         0
270
         2
271
         4
272
         4
273
         2
274
         2
275
         0
280
         0
281
         0
282
         0
283
         1
284
         0
285
         0
286
         0
287
         0
288
         0
340
17
  0
ENDTAB
  0
TABLE
  2
BLOCK_RECORD
  5
1
100
AcDbSymbolTable
 70
        35
  0
BLOCK_RECORD
  5
A
100
AcDbSymbolTableRecord
100
AcDbBlockTableRecord
  2
*MODEL_SPACE
  0
BLOCK_RECORD
  5
B
100
AcDbSymbolTableRecord
100
AcDbBlockTableRecord
  2
*PAPER_SPACE
  0
BLOCK_RECORD
  5
24
100
AcDbSymbolTableRecord
100
AcDbBlockTableRecord
  2
*X0
  0
BLOCK_RECORD
  5
90
100
AcDbSymbolTableRecord
100
AcDbBlockTableRecord
  2
*D1
  0
BLOCK_RECORD
  5
B5
100
AcDbSymbolTableRecord
100
AcDbBlockTableRecord
  2
*D2
  0
BLOCK_RECORD
  5
CA
100
AcDbSymbolTableRecord
100
AcDbBlockTableRecord
  2
*D3
  0
BLOCK_RECORD
  5
D8
100
AcDbSymbolTableRecord
100
AcDbBlockTableRecord
  2
*D4
  0
BLOCK_RECORD
  5
E9
100
AcDbSymbolTableRecord
100
AcDbBlockTableRecord
  2
*D5
  0
BLOCK_RECORD
  5
102
100
AcDbSymbolTableRecord
100
AcDbBlockTableRecord
  2
*D6
  0
BLOCK_RECORD
  5
45A
100
AcDbSymbolTableRecord
100
AcDbBlockTableRecord
  2
*D7
  0
BLOCK_RECORD
  5
47F
100
AcDbSymbolTableRecord
100
AcDbBlockTableRecord
  2
*D8
  0
BLOCK_RECORD
  5
48D
100
AcDbSymbolTableRecord
100
AcDbBlockTableRecord
  2
*D9
  0
BLOCK_RECORD
  5
49B
100
AcDbSymbolTableRecord
100
AcDbBlockTableRecord
  2
*D10
  0
BLOCK_RECORD
  5
509
100
AcDbSymbolTableRecord
100
AcDbBlockTableRecord
  2
*D11
  0
BLOCK_RECORD
  5
517
100
AcDbSymbolTableRecord
100
AcDbBlockTableRecord
  2
*D12
  0
BLOCK_RECORD
  5
525
100
AcDbSymbolTableRecord
100
AcDbBlockTableRecord
  2
*D13
  0
BLOCK_RECORD
  5
533
100
AcDbSymbolTableRecord
100
AcDbBlockTableRecord
  2
*D14
  0
BLOCK_RECORD
  5
545
100
AcDbSymbolTableRecord
100
AcDbBlockTableRecord
  2
*D15
  0
BLOCK_RECORD
  5
555
100
AcDbSymbolTableRecord
100
AcDbBlockTableRecord
  2
*D16
  0
BLOCK_RECORD
  5
563
100
AcDbSymbolTableRecord
100
AcDbBlockTableRecord
  2
*D17
  0
BLOCK_RECORD
  5
57F
100
AcDbSymbolTableRecord
100
AcDbBlockTableRecord
  2
*D18
  0
BLOCK_RECORD
  5
58D
100
AcDbSymbolTableRecord
100
AcDbBlockTableRecord
  2
*D19
  0
BLOCK_RECORD
  5
59F
100
AcDbSymbolTableRecord
100
AcDbBlockTableRecord
  2
*D20
  0
BLOCK_RECORD
  5
5AA
100
AcDbSymbolTableRecord
100
AcDbBlockTableRecord
  2
*D21
  0
BLOCK_RECORD
  5
5B8
100
AcDbSymbolTableRecord
100
AcDbBlockTableRecord
  2
*D22
  0
BLOCK_RECORD
  5
5C6
100
AcDbSymbolTableRecord
100
AcDbBlockTableRecord
  2
*D23
  0
BLOCK_RECORD
  5
5D5
100
AcDbSymbolTableRecord
100
AcDbBlockTableRecord
  2
*D24
  0
BLOCK_RECORD
  5
5E5
100
AcDbSymbolTableRecord
100
AcDbBlockTableRecord
  2
*D25
  0
BLOCK_RECORD
  5
5F3
100
AcDbSymbolTableRecord
100
AcDbBlockTableRecord
  2
*D26
  0
BLOCK_RECORD
  5
601
100
AcDbSymbolTableRecord
100
AcDbBlockTableRecord
  2
*D27
  0
BLOCK_RECORD
  5
610
100
AcDbSymbolTableRecord
100
AcDbBlockTableRecord
  2
*D28
  0
BLOCK_RECORD
  5
61E
100
AcDbSymbolTableRecord
100
AcDbBlockTableRecord
  2
*D29
  0
BLOCK_RECORD
  5
62C
100
AcDbSymbolTableRecord
100
AcDbBlockTableRecord
  2
*D30
  0
BLOCK_RECORD
  5
63A
100
AcDbSymbolTableRecord
100
AcDbBlockTableRecord
  2
*D31
  0
BLOCK_RECORD
  5
648
100
AcDbSymbolTableRecord
100
AcDbBlockTableRecord
  2
*D32
  0
BLOCK_RECORD
  5
656
100
AcDbSymbolTableRecord
100
AcDbBlockTableRecord
  2
*D33
  0
BLOCK_RECORD
  5
664
100
AcDbSymbolTableRecord
100
AcDbBlockTableRecord
  2
*D34
  0
ENDTAB
  0
ENDSEC
  0
SECTION
  2
BLOCKS
  0
BLOCK
  5
D
100
AcDbEntity
  8
0
100
AcDbBlockBegin
  2
*MODEL_SPACE
 70
         0
 10
0.0
 20
0.0
 30
0.0
  3
*MODEL_SPACE
  1

  0
ENDBLK
  5
E
100
AcDbEntity
  8
0
100
AcDbBlockEnd
  0
BLOCK
  5
F
100
AcDbEntity
 67
         1
  8
0
100
AcDbBlockBegin
  2
*PAPER_SPACE
 70
         0
 10
0.0
 20
0.0
 30
0.0
  3
*PAPER_SPACE
  1

  0
ENDBLK
  5
10
100
AcDbEntity
 67
         1
  8
0
100
AcDbBlockEnd
  0
BLOCK
  5
25
100
AcDbEntity
  8
0
100
AcDbBlockBegin
  2
*X0
 70
        65
 10
0.0
 20
0.0
 30
0.0
  3
*X0
  1

  0
LINE
  5
26
100
AcDbEntity
  8
L1_170
  6
CONTINUOUS
 62
         4
100
AcDbLine
 10
1541.7714156904
 20
-41.9433347407
 30
0.0
 11
1546.7096238898
 21
-37.0051265413
 31
0.0
  0
LINE
  5
27
100
AcDbEntity
  8
L1_170
  6
CONTINUOUS
 62
         4
100
AcDbLine
 10
1538.5287750033
 20
-40.9433347407
 30
0.0
 11
1542.5287750033
 21
-36.9433347407
 31
0.0
  0
LINE
  5
28
100
AcDbEntity
  8
L1_170
  6
CONTINUOUS
 62
         4
100
AcDbLine
 10
1533.2861343162
 20
-41.9433347407
 30
0.0
 11
1538.2861343162
 21
-36.9433347407
 31
0.0
  0
LINE
  5
29
100
AcDbEntity
  8
L1_170
  6
CONTINUOUS
 62
         4
100
AcDbLine
 10
1529.0434936291
 20
-41.9433347407
 30
0.0
 11
1534.0434936291
 21
-36.9433347407
 31
0.0
  0
LINE
  5
2A
100
AcDbEntity
  8
L1_170
  6
CONTINUOUS
 62
         4
100
AcDbLine
 10
1524.8008529419
 20
-41.9433347407
 30
0.0
 11
1529.8008529419
 21
-36.9433347407
 31
0.0
  0
LINE
  5
2B
100
AcDbEntity
  8
L1_170
  6
CONTINUOUS
 62
         4
100
AcDbLine
 10
1520.5582122548
 20
-41.9433347407
 30
0.0
 11
1525.5582122548
 21
-36.9433347407
 31
0.0
  0
LINE
  5
2C
100
AcDbEntity
  8
L1_170
  6
CONTINUOUS
 62
         4
100
AcDbLine
 10
1516.3155715677
 20
-41.9433347407
 30
0.0
 11
1521.3155715677
 21
-36.9433347407
 31
0.0
  0
LINE
  5
2D
100
AcDbEntity
  8
L1_170
  6
CONTINUOUS
 62
         4
100
AcDbLine
 10
1512.0729308806
 20
-41.9433347407
 30
0.0
 11
1517.0729308806
 21
-36.9433347407
 31
0.0
  0
LINE
  5
2E
100
AcDbEntity
  8
L1_170
  6
CONTINUOUS
 62
         4
100
AcDbLine
 10
1507.8302901935
 20
-41.9433347407
 30
0.0
 11
1512.8302901935
 21
-36.9433347407
 31
0.0
  0
LINE
  5
2F
100
AcDbEntity
  8
L1_170
  6
CONTINUOUS
 62
         4
100
AcDbLine
 10
1503.5876495063
 20
-41.9433347407
 30
0.0
 11
1508.5876495063
 21
-36.9433347407
 31
0.0
  0
LINE
  5
30
100
AcDbEntity
  8
L1_170
  6
CONTINUOUS
 62
         4
100
AcDbLine
 10
1499.5033403763
 20
-41.7850031836
 30
0.0
 11
1504.3450088192
 21
-36.9433347407
 31
0.0
  0
LINE
  5
31
100
AcDbEntity
  8
L1_170
  6
CONTINUOUS
 62
         4
100
AcDbLine
 10
1492.6023681321
 20
-44.4433347407
 30
0.0
 11
1497.5033403763
 21
-39.5423624965
 31
0.0
  0
LINE
  5
32
100
AcDbEntity
  8
L1_170
  6
CONTINUOUS
 62
         4
100
AcDbLine
 10
1499.5033403763
 20
-37.5423624965
 30
0.0
 11
1499.6023681321
 21
-37.4433347407
 31
0.0
  0
LINE
  5
33
100
AcDbEntity
  8
L1_170
  6
CONTINUOUS
 62
         4
100
AcDbLine
 10
1500.0057015658
 20
-37.040001307
 30
0.0
 11
1500.1023681321
 21
-36.9433347407
 31
0.0
  0
LINE
  5
34
100
AcDbEntity
  8
L1_170
  6
CONTINUOUS
 62
         4
100
AcDbLine
 10
1488.359727445
 20
-44.4433347407
 30
0.0
 11
1495.49812235
 21
-37.3049398357
 31
0.0
  0
LINE
  5
35
100
AcDbEntity
  8
L1_170
  6
CONTINUOUS
 62
         4
100
AcDbLine
 10
1543.859727445
 20
11.0566652593
 30
0.0
 11
1547.3256087887
 21
14.522546603
 31
0.0
  0
LINE
  5
36
100
AcDbEntity
  8
L1_170
  6
CONTINUOUS
 62
         4
100
AcDbLine
 10
1484.1170867579
 20
-44.4433347407
 30
0.0
 11
1495.0057015658
 21
-33.5547199328
 31
0.0
  0
LINE
  5
37
100
AcDbEntity
  8
L1_170
  6
CONTINUOUS
 62
         4
100
AcDbLine
 10
1539.6170867579
 20
11.0566652593
 30
0.0
 11
1544.1496736461
 21
15.5892521476
 31
0.0
  0
LINE
  5
38
100
AcDbEntity
  8
L1_170
  6
CONTINUOUS
 62
         4
100
AcDbLine
 10
1479.8744460707
 20
-44.4433347407
 30
0.0
 11
1493.8744460707
 21
-30.4433347407
 31
0.0
  0
LINE
  5
39
100
AcDbEntity
  8
L1_170
  6
CONTINUOUS
 62
         4
100
AcDbLine
 10
1535.3744460708
 20
11.0566652593
 30
0.0
 11
1540.3744460708
 21
16.0566652593
 31
0.0
  0
LINE
  5
3A
100
AcDbEntity
  8
L1_170
  6
CONTINUOUS
 62
         4
100
AcDbLine
 10
1475.6318053836
 20
-44.4433347407
 30
0.0
 11
1489.6318053836
 21
-30.4433347407
 31
0.0
  0
LINE
  5
3B
100
AcDbEntity
  8
L1_170
  6
CONTINUOUS
 62
         4
100
AcDbLine
 10
1531.9483403763
 20
11.873200252
 30
0.0
 11
1536.1318053836
 21
16.0566652593
 31
0.0
  0
LINE
  5
3C
100
AcDbEntity
  8
L1_170
  6
CONTINUOUS
 62
         4
100
AcDbLine
 10
1471.3891646965
 20
-44.4433347407
 30
0.0
 11
1485.3891646965
 21
-30.4433347407
 31
0.0
  0
LINE
  5
3D
100
AcDbEntity
  8
L1_170
  6
CONTINUOUS
 62
         4
100
AcDbLine
 10
1467.1465240094
 20
-44.4433347407
 30
0.0
 11
1481.1465240094
 21
-30.4433347407
 31
0.0
  0
LINE
  5
3E
100
AcDbEntity
  8
L1_170
  6
CONTINUOUS
 62
         4
100
AcDbLine
 10
1462.9038833223
 20
-44.4433347407
 30
0.0
 11
1476.9038833223
 21
-30.4433347407
 31
0.0
  0
LINE
  5
3F
100
AcDbEntity
  8
L1_170
  6
CONTINUOUS
 62
         4
100
AcDbLine
 10
1458.6612426351
 20
-44.4433347407
 30
0.0
 11
1472.1612426351
 21
-30.9433347407
 31
0.0
  0
LINE
  5
40
100
AcDbEntity
  8
L1_170
  6
CONTINUOUS
 62
         4
100
AcDbLine
 10
1454.418601948
 20
-44.4433347407
 30
0.0
 11
1468.2551348853
 21
-30.6068018034
 31
0.0
  0
LINE
  5
41
100
AcDbEntity
  8
L1_170
  6
CONTINUOUS
 62
         4
100
AcDbLine
 10
1450.1759612609
 20
-44.4433347407
 30
0.0
 11
1468.0033403763
 21
-26.6159556253
 31
0.0
  0
LINE
  5
42
100
AcDbEntity
  8
L1_170
  6
CONTINUOUS
 62
         4
100
AcDbLine
 10
1445.9333205738
 20
-44.4433347407
 30
0.0
 11
1468.0033403763
 21
-22.3733149382
 31
0.0
  0
LINE
  5
43
100
AcDbEntity
  8
L1_170
  6
CONTINUOUS
 62
         4
100
AcDbLine
 10
1501.4333205738
 20
11.0566652593
 30
0.0
 11
1503.9583403763
 21
13.5816850618
 31
0.0
  0
LINE
  5
44
100
AcDbEntity
  8
L1_170
  6
CONTINUOUS
 62
         4
100
AcDbLine
 10
1441.6906798867
 20
-44.4433347407
 30
0.0
 11
1468.0033403763
 21
-18.1306742511
 31
0.0
  0
LINE
  5
45
100
AcDbEntity
  8
L1_170
  6
CONTINUOUS
 62
         4
100
AcDbLine
 10
1490.6906798867
 20
4.5566652593
 30
0.0
 11
1495.0057015658
 21
8.8716869384
 31
0.0
  0
LINE
  5
46
100
AcDbEntity
  8
L1_170
  6
CONTINUOUS
 62
         4
100
AcDbLine
 10
1497.6906798867
 20
11.5566652593
 30
0.0
 11
1502.1906798867
 21
16.0566652593
 31
0.0
  0
LINE
  5
47
100
AcDbEntity
  8
L1_170
  6
CONTINUOUS
 62
         4
100
AcDbLine
 10
1437.4480391995
 20
-44.4433347407
 30
0.0
 11
1466.4480391995
 21
-15.4433347407
 31
0.0
  0
LINE
  5
48
100
AcDbEntity
  8
L1_170
  6
CONTINUOUS
 62
         4
100
AcDbLine
 10
1486.4480391996
 20
4.5566652593
 30
0.0
 11
1497.7480391996
 21
15.8566652593
 31
0.0
  0
LINE
  5
49
100
AcDbEntity
  8
L1_170
  6
CONTINUOUS
 62
         4
100
AcDbLine
 10
1435.0605896655
 20
-42.5881435875
 30
0.0
 11
1462.2053985124
 21
-15.4433347407
 31
0.0
  0
LINE
  5
4A
100
AcDbEntity
  8
L1_170
  6
CONTINUOUS
 62
         4
100
AcDbLine
 10
1482.2053985124
 20
4.5566652593
 30
0.0
 11
1496.2053985124
 21
18.5566652593
 31
0.0
  0
LINE
  5
4B
100
AcDbEntity
  8
L1_170
  6
CONTINUOUS
 62
         4
100
AcDbLine
 10
1435.0553403763
 20
-38.3507521897
 30
0.0
 11
1457.9627578253
 21
-15.4433347407
 31
0.0
  0
LINE
  5
4C
100
AcDbEntity
  8
L1_170
  6
CONTINUOUS
 62
         4
100
AcDbLine
 10
1462.9627578253
 20
-10.4433347407
 30
0.0
 11
1468.0033403763
 21
-5.4027521897
 31
0.0
  0
LINE
  5
4D
100
AcDbEntity
  8
L1_170
  6
CONTINUOUS
 62
         4
100
AcDbLine
 10
1477.9627578253
 20
4.5566652593
 30
0.0
 11
1491.9627578253
 21
18.5566652593
 31
0.0
  0
LINE
  5
4E
100
AcDbEntity
  8
L1_170
  6
CONTINUOUS
 62
         4
100
AcDbLine
 10
1433.9351171382
 20
-35.2283347407
 30
0.0
 11
1453.7201171382
 21
-15.4433347407
 31
0.0
  0
LINE
  5
4F
100
AcDbEntity
  8
L1_170
  6
CONTINUOUS
 62
         4
100
AcDbLine
 10
1458.7201171382
 20
-10.4433347407
 30
0.0
 11
1468.0033403763
 21
-1.1601115026
 31
0.0
  0
LINE
  5
50
100
AcDbEntity
  8
L1_170
  6
CONTINUOUS
 62
         4
100
AcDbLine
 10
1473.7201171382
 20
4.5566652593
 30
0.0
 11
1487.7201171382
 21
18.5566652593
 31
0.0
  0
LINE
  5
51
100
AcDbEntity
  8
L1_170
  6
CONTINUOUS
 62
         4
100
AcDbLine
 10
1429.6924764511
 20
-35.2283347407
 30
0.0
 11
1449.7945724021
 21
-15.1262387897
 31
0.0
  0
LINE
  5
52
100
AcDbEntity
  8
L1_170
  6
CONTINUOUS
 62
         4
100
AcDbLine
 10
1454.4774764511
 20
-10.4433347407
 30
0.0
 11
1468.0033403763
 21
3.0825291845
 31
0.0
  0
LINE
  5
53
100
AcDbEntity
  8
L1_170
  6
CONTINUOUS
 62
         4
100
AcDbLine
 10
1469.9774764511
 20
5.0566652593
 30
0.0
 11
1483.4774764511
 21
18.5566652593
 31
0.0
  0
LINE
  5
54
100
AcDbEntity
  8
L1_170
  6
CONTINUOUS
 62
         4
100
AcDbLine
 10
1415.9598357638
 20
-44.7183347409
 30
0.0
 11
1419.1033403763
 21
-41.5748301284
 31
0.0
  0
LINE
  5
55
100
AcDbEntity
  8
L1_170
  6
CONTINUOUS
 62
         4
100
AcDbLine
 10
1425.4498357639
 20
-35.2283347407
 30
0.0
 11
1449.5582840779
 21
-11.1198864267
 31
0.0
  0
LINE
  5
56
100
AcDbEntity
  8
L1_170
  6
CONTINUOUS
 62
         4
100
AcDbLine
 10
1450.2348357639
 20
-10.4433347407
 30
0.0
 11
1479.234835764
 21
18.5566652593
 31
0.0
  0
LINE
  5
57
100
AcDbEntity
  8
L1_170
  6
CONTINUOUS
 62
         4
100
AcDbLine
 10
1413.5699323891
 20
-42.8655974284
 30
0.0
 11
1419.1033403763
 21
-37.3321894412
 31
0.0
  0
LINE
  5
58
100
AcDbEntity
  8
L1_170
  6
CONTINUOUS
 62
         4
100
AcDbLine
 10
1421.2071950768
 20
-35.2283347407
 30
0.0
 11
1474.9921950768
 21
18.5566652593
 31
0.0
  0
LINE
  5
59
100
AcDbEntity
  8
L1_170
  6
CONTINUOUS
 62
         4
100
AcDbLine
 10
1407.4745543895
 20
-44.7183347409
 30
0.0
 11
1407.6934486206
 21
-44.4994405098
 31
0.0
  0
LINE
  5
5A
100
AcDbEntity
  8
L1_170
  6
CONTINUOUS
 62
         4
100
AcDbLine
 10
1411.1245543897
 20
-41.0683347407
 30
0.0
 11
1470.7495543897
 21
18.5566652593
 31
0.0
  0
LINE
  5
5B
100
AcDbEntity
  8
L1_170
  6
CONTINUOUS
 62
         4
100
AcDbLine
 10
1403.5106645996
 20
-44.4395838436
 30
0.0
 11
1466.5069137026
 21
18.5566652593
 31
0.0
  0
LINE
  5
5C
100
AcDbEntity
  8
L1_170
  6
CONTINUOUS
 62
         4
100
AcDbLine
 10
1403.2033403763
 20
-40.5042673799
 30
0.0
 11
1462.2642730155
 21
18.5566652593
 31
0.0
  0
LINE
  5
5D
100
AcDbEntity
  8
L1_170
  6
CONTINUOUS
 62
         4
100
AcDbLine
 10
1403.2033403763
 20
-36.2616266928
 30
0.0
 11
1458.0216323284
 21
18.5566652593
 31
0.0
  0
LINE
  5
5E
100
AcDbEntity
  8
L1_170
  6
CONTINUOUS
 62
         4
100
AcDbLine
 10
1400.0475451166
 20
-35.1747812653
 30
0.0
 11
1453.7789916412
 21
18.5566652593
 31
0.0
  0
LINE
  5
5F
100
AcDbEntity
  8
L1_170
  6
CONTINUOUS
 62
         4
100
AcDbLine
 10
1396.3448768806
 20
-34.6348088142
 30
0.0
 11
1449.5363509541
 21
18.5566652593
 31
0.0
  0
LINE
  5
60
100
AcDbEntity
  8
L1_170
  6
CONTINUOUS
 62
         4
100
AcDbLine
 10
1392.6422086445
 20
-34.0948363631
 30
0.0
 11
1445.293710267
 21
18.5566652593
 31
0.0
  0
LINE
  5
61
100
AcDbEntity
  8
L1_170
  6
CONTINUOUS
 62
         4
100
AcDbLine
 10
1388.9395404085
 20
-33.554863912
 30
0.0
 11
1431.8360695799
 21
9.3416652593
 31
0.0
  0
LINE
  5
62
100
AcDbEntity
  8
L1_170
  6
CONTINUOUS
 62
         4
100
AcDbLine
 10
1435.0553403763
 20
12.5609360557
 30
0.0
 11
1441.0510695799
 21
18.5566652593
 31
0.0
  0
LINE
  5
63
100
AcDbEntity
  8
L1_170
  6
CONTINUOUS
 62
         4
100
AcDbLine
 10
1385.2368721725
 20
-33.014891461
 30
0.0
 11
1427.5934288928
 21
9.3416652593
 31
0.0
  0
LINE
  5
64
100
AcDbEntity
  8
L1_170
  6
CONTINUOUS
 62
         4
100
AcDbLine
 10
1435.0729043109
 20
16.8211406775
 30
0.0
 11
1436.7908649581
 21
18.5391013247
 31
0.0
  0
LINE
  5
65
100
AcDbEntity
  8
L1_170
  6
CONTINUOUS
 62
         4
100
AcDbLine
 10
1381.5342039364
 20
-32.4749190099
 30
0.0
 11
1423.3507882056
 21
9.3416652593
 31
0.0
  0
LINE
  5
66
100
AcDbEntity
  8
L1_170
  6
CONTINUOUS
 62
         4
100
AcDbLine
 10
1377.8315357004
 20
-31.9349465588
 30
0.0
 11
1419.252198727
 21
9.4857164678
 31
0.0
  0
LINE
  5
67
100
AcDbEntity
  8
L1_170
  6
CONTINUOUS
 62
         4
100
AcDbLine
 10
1374.1288674644
 20
-31.3949741077
 30
0.0
 11
1419.1033403763
 21
13.5794988042
 31
0.0
  0
LINE
  5
68
100
AcDbEntity
  8
L1_170
  6
CONTINUOUS
 62
         4
100
AcDbLine
 10
1370.4261992283
 20
-30.8550016566
 30
0.0
 11
1419.1033403763
 21
17.8221394913
 31
0.0
  0
LINE
  5
69
100
AcDbEntity
  8
L1_170
  6
CONTINUOUS
 62
         4
100
AcDbLine
 10
1366.7235309923
 20
-30.3150292055
 30
0.0
 11
1412.251097207
 21
15.2125370092
 31
0.0
  0
LINE
  5
6A
100
AcDbEntity
  8
L1_170
  6
CONTINUOUS
 62
         4
100
AcDbLine
 10
1412.9736682948
 20
15.935108097
 30
0.0
 11
1415.8702254573
 21
18.8316652595
 31
0.0
  0
LINE
  5
6B
100
AcDbEntity
  8
L1_170
  6
CONTINUOUS
 62
         4
100
AcDbLine
 10
1363.0208627563
 20
-29.7750567544
 30
0.0
 11
1402.05258477
 21
9.2566652593
 31
0.0
  0
LINE
  5
6C
100
AcDbEntity
  8
L1_170
  6
CONTINUOUS
 62
         4
100
AcDbLine
 10
1403.2033403763
 20
10.4074208655
 30
0.0
 11
1409.053321544
 21
16.2574020333
 31
0.0
  0
LINE
  5
6D
100
AcDbEntity
  8
L1_170
  6
CONTINUOUS
 62
         4
100
AcDbLine
 10
1359.3181945202
 20
-29.2350843033
 30
0.0
 11
1368.6099440829
 21
-19.9433347407
 31
0.0
  0
LINE
  5
6E
100
AcDbEntity
  8
L1_170
  6
CONTINUOUS
 62
         4
100
AcDbLine
 10
1372.0250563807
 20
-16.5282224429
 30
0.0
 11
1397.4647300816
 21
8.911451258
 31
0.0
  0
LINE
  5
6F
100
AcDbEntity
  8
L1_170
  6
CONTINUOUS
 62
         4
100
AcDbLine
 10
1403.2033403763
 20
14.6500615527
 30
0.0
 11
1407.3849440831
 21
18.8316652595
 31
0.0
  0
LINE
  5
70
100
AcDbEntity
  8
L1_170
  6
CONTINUOUS
 62
         4
100
AcDbLine
 10
1355.6155262842
 20
-28.6951118523
 30
0.0
 11
1364.3673033958
 21
-19.9433347407
 31
0.0
  0
LINE
  5
71
100
AcDbEntity
  8
L1_170
  6
CONTINUOUS
 62
         4
100
AcDbLine
 10
1373.0964620475
 20
-11.2141760889
 30
0.0
 11
1392.4977361065
 21
8.18709797
 31
0.0
  0
LINE
  5
72
100
AcDbEntity
  8
L1_170
  6
CONTINUOUS
 62
         4
100
AcDbLine
 10
1351.9128580482
 20
-28.1551394012
 30
0.0
 11
1360.1246627087
 21
-19.9433347407
 31
0.0
  0
LINE
  5
73
100
AcDbEntity
  8
L1_170
  6
CONTINUOUS
 62
         4
100
AcDbLine
 10
1371.5435477769
 20
-8.5244496724
 30
0.0
 11
1387.5307421313
 21
7.4627446819
 31
0.0
  0
LINE
  5
74
100
AcDbEntity
  8
L1_170
  6
CONTINUOUS
 62
         4
100
AcDbLine
 10
1348.2101898121
 20
-27.6151669501
 30
0.0
 11
1355.8820220216
 21
-19.9433347407
 31
0.0
  0
LINE
  5
75
100
AcDbEntity
  8
L1_170
  6
CONTINUOUS
 62
         4
100
AcDbLine
 10
1369.8820220216
 20
-5.9433347407
 30
0.0
 11
1382.5637481561
 21
6.7383913939
 31
0.0
  0
LINE
  5
76
100
AcDbEntity
  8
L1_170
  6
CONTINUOUS
 62
         4
100
AcDbLine
 10
1344.5075215761
 20
-27.075194499
 30
0.0
 11
1351.6393813344
 21
-19.9433347407
 31
0.0
  0
LINE
  5
77
100
AcDbEntity
  8
L1_170
  6
CONTINUOUS
 62
         4
100
AcDbLine
 10
1365.6393813344
 20
-5.9433347407
 30
0.0
 11
1377.596754181
 21
6.0140381058
 31
0.0
  0
LINE
  5
78
100
AcDbEntity
  8
L1_170
  6
CONTINUOUS
 62
         4
100
AcDbLine
 10
1340.8048533401
 20
-26.5352220479
 30
0.0
 11
1347.3967406473
 21
-19.9433347407
 31
0.0
  0
LINE
  5
79
100
AcDbEntity
  8
L1_170
  6
CONTINUOUS
 62
         4
100
AcDbLine
 10
1361.3967406473
 20
-5.9433347407
 30
0.0
 11
1372.6297602058
 21
5.2896848178
 31
0.0
  0
LINE
  5
7A
100
AcDbEntity
  8
L1_170
  6
CONTINUOUS
 62
         4
100
AcDbLine
 10
1337.1021851041
 20
-25.9952495968
 30
0.0
 11
1343.1540999602
 21
-19.9433347407
 31
0.0
  0
LINE
  5
7B
100
AcDbEntity
  8
L1_170
  6
CONTINUOUS
 62
         4
100
AcDbLine
 10
1357.1540999602
 20
-5.9433347407
 30
0.0
 11
1367.6627662306
 21
4.5653315298
 31
0.0
  0
LINE
  5
7C
100
AcDbEntity
  8
L1_170
  6
CONTINUOUS
 62
         4
100
AcDbLine
 10
1333.399516868
 20
-25.4552771457
 30
0.0
 11
1338.9114592731
 21
-19.9433347407
 31
0.0
  0
LINE
  5
7D
100
AcDbEntity
  8
L1_170
  6
CONTINUOUS
 62
         4
100
AcDbLine
 10
1352.9114592731
 20
-5.9433347407
 30
0.0
 11
1362.6957722555
 21
3.8409782417
 31
0.0
  0
LINE
  5
7E
100
AcDbEntity
  8
L1_170
  6
CONTINUOUS
 62
         4
100
AcDbLine
 10
1331.7533403763
 20
-22.8588129504
 30
0.0
 11
1333.518818586
 21
-21.0933347407
 31
0.0
  0
LINE
  5
7F
100
AcDbEntity
  8
L1_170
  6
CONTINUOUS
 62
         4
100
AcDbLine
 10
1348.668818586
 20
-5.9433347407
 30
0.0
 11
1357.7287782803
 21
3.1166249537
 31
0.0
  0
LINE
  5
80
100
AcDbEntity
  8
L1_170
  6
CONTINUOUS
 62
         4
100
AcDbLine
 10
1344.4261778988
 20
-5.9433347407
 30
0.0
 11
1352.7617843051
 21
2.3922716656
 31
0.0
  0
LINE
  5
81
100
AcDbEntity
  8
L1_170
  6
CONTINUOUS
 62
         4
100
AcDbLine
 10
1340.1835372117
 20
-5.9433347407
 30
0.0
 11
1347.79479033
 21
1.6679183776
 31
0.0
  0
LINE
  5
82
100
AcDbEntity
  8
L1_170
  6
CONTINUOUS
 62
         4
100
AcDbLine
 10
1336.7985398067
 20
-5.0856914586
 30
0.0
 11
1342.8277963548
 21
0.9435650895
 31
0.0
  0
LINE
  5
83
100
AcDbEntity
  8
L1_170
  6
CONTINUOUS
 62
         4
100
AcDbLine
 10
1332.8482558375
 20
-4.7933347407
 30
0.0
 11
1337.8608023796
 21
0.2192118015
 31
0.0
  0
LINE
  5
84
100
AcDbEntity
  8
L1_170
  6
CONTINUOUS
 62
         4
100
AcDbLine
 10
1331.7551196389
 20
-1.6438302521
 30
0.0
 11
1332.8938084045
 21
-0.5051414866
 31
0.0
  0
ENDBLK
  5
85
100
AcDbEntity
  8
0
  6
CONTINUOUS
100
AcDbBlockEnd
  0
BLOCK
  5
91
100
AcDbEntity
  8
0
100
AcDbBlockBegin
  2
*D1
 70
        65
 10
0.0
 20
0.0
 30
0.0
  3
*D1
  1

  0
POINT
  5
94
100
AcDbEntity
  8
DEFPOINTS
  6
CONTINUOUS
 62
         0
100
AcDbPoint
 10
1548.0033403763
 20
-83.0427028667
 30
0.0
  0
POINT
  5
95
100
AcDbEntity
  8
DEFPOINTS
  6
CONTINUOUS
 62
         0
100
AcDbPoint
 10
1548.0033403763
 20
-38.9086807647
 30
0.0
  0
POINT
  5
96
100
AcDbEntity
  8
DEFPOINTS
  6
CONTINUOUS
 62
         0
100
AcDbPoint
 10
1450.0030155108
 20
-15.4433347407
 30
0.0
  0
LINE
  5
97
100
AcDbEntity
  8
L1_170
  6
CONTINUOUS
 62
         4
100
AcDbLine
 10
1548.0033403763
 20
-40.2586807647
 30
0.0
 11
1548.0033403763
 21
-83.7177028667
 31
0.0
  0
LINE
  5
98
100
AcDbEntity
  8
L1_170
  6
CONTINUOUS
 62
         4
100
AcDbLine
 10
1450.0030155108
 20
-16.7933347407
 30
0.0
 11
1450.0030155108
 21
-83.7177028667
 31
0.0
  0
LINE
  5
99
100
AcDbEntity
  8
L1_170
  6
CONTINUOUS
 62
         4
100
AcDbLine
 10
1548.0033403763
 20
-83.0427028667
 30
0.0
 11
1450.0030155108
 21
-83.0427028667
 31
0.0
  0
SOLID
  5
9A
100
AcDbEntity
  8
L1_170
  6
CONTINUOUS
 62
         4
100
AcDbTrace
 10
1548.0033403763
 20
-83.0427028667
 30
0.0
 11
1545.3033403763
 21
-83.4477028667
 31
0.0
 12
1545.3033403763
 22
-82.6377028667
 32
0.0
 13
1548.0033403763
 23
-83.0427028667
 33
0.0
  0
SOLID
  5
9B
100
AcDbEntity
  8
L1_170
  6
CONTINUOUS
 62
         4
100
AcDbTrace
 10
1450.0030155108
 20
-83.0427028667
 30
0.0
 11
1452.7030155108
 21
-82.6377028667
 31
0.0
 12
1452.7030155108
 22
-83.4477028667
 32
0.0
 13
1450.0030155108
 23
-83.0427028667
 33
0.0
  0
TEXT
  5
9D
100
AcDbEntity
  8
L1_170
  6
CONTINUOUS
 62
         4
100
AcDbText
 10
1496.7031518394
 20
-79.9107028667
 30
0.0
 40
2.7
  1
98
  7
BOX
100
AcDbText
  0
ENDBLK
  5
9E
100
AcDbEntity
  8
0
  6
CONTINUOUS
100
AcDbBlockEnd
  0
BLOCK
  5
B6
100
AcDbEntity
  8
0
100
AcDbBlockBegin
  2
*D2
 70
        65
 10
0.0
 20
0.0
 30
0.0
  3
*D2
  1

  0
POINT
  5
B8
100
AcDbEntity
  8
DEFPOINTS
  6
CONTINUOUS
 62
         0
100
AcDbPoint
 10
1539.1033403763
 20
179.1846417294
 30
0.0
  0
POINT
  5
B9
100
AcDbEntity
  8
DEFPOINTS
  6
CONTINUOUS
 62
         0
100
AcDbPoint
 10
1542.1419591697
 20
179.1846417294
 30
0.0
  0
POINT
  5
BA
100
AcDbEntity
  8
DEFPOINTS
  6
CONTINUOUS
 62
         0
100
AcDbPoint
 10
1542.6595972599
 20
179.116493382
 30
0.0
  0
POINT
  5
BB
100
AcDbEntity
  8
DEFPOINTS
  6
CONTINUOUS
 62
         0
100
AcDbPoint
 10
1546.5209784665
 20
178.081839406
 30
0.0
  0
LINE
  5
BC
100
AcDbEntity
  8
L1_170
  6
CONTINUOUS
 62
         4
100
AcDbLine
 10
1547.8249783319
 20
177.7324336951
 30
0.0
 11
1561.1811579192
 21
174.1536561608
 31
0.0
  0
LINE
  5
BD
100
AcDbEntity
  8
L1_170
  6
CONTINUOUS
 62
         4
100
AcDbLine
 10
1543.4919591697
 20
179.1846417294
 30
0.0
 11
1561.8434997346
 21
179.1846417294
 31
0.0
  0
ARC
  5
BE
100
AcDbEntity
  8
L1_170
  6
CONTINUOUS
 62
         4
100
AcDbCircle
 10
1542.4052641649
 20
179.1846417294
 30
0.0
 40
18.7632355697
100
AcDbArc
 50
345.0
 51
352.5
  0
SOLID
  5
BF
100
AcDbEntity
  8
L1_170
  6
CONTINUOUS
 62
         4
100
AcDbTrace
 10
1560.5291579864
 20
174.3283590162
 30
0.0
 11
1560.6411258784
 21
177.0562681406
 31
0.0
 12
1561.4365627314
 22
176.9033622451
 32
0.0
 13
1560.5291579864
 23
174.3283590162
 33
0.0
  0
ARC
  5
C0
100
AcDbEntity
  8
L1_170
  6
CONTINUOUS
 62
         4
100
AcDbCircle
 10
1542.4052641649
 20
179.1846417294
 30
0.0
 40
18.7632355697
100
AcDbArc
 50
352.5
 51
360.0
  0
SOLID
  5
C1
100
AcDbEntity
  8
L1_170
  6
CONTINUOUS
 62
         4
100
AcDbTrace
 10
1561.1684997346
 20
179.1846417294
 30
0.0
 11
1561.3785255358
 21
176.4625259782
 31
0.0
 12
1560.5706175784
 22
176.5207044315
 32
0.0
 13
1561.1684997346
 23
179.1846417294
 33
0.0
  0
ARC
  5
C2
100
AcDbEntity
  8
L1_170
  6
CONTINUOUS
 62
         4
100
AcDbCircle
 10
1542.4052641649
 20
179.1846417294
 30
0.0
 40
18.7632355697
100
AcDbArc
 50
314.4022936496
 51
345.0
  0
SOLID
  5
C3
100
AcDbEntity
  8
L1_170
  6
CONTINUOUS
 62
         4
100
AcDbTrace
 10
1542.4052641649
 20
179.1846417294
 30
0.0
 11
1543.4790176073
 21
181.6948366511
 31
0.0
 12
1544.1682494621
 22
181.2693258402
 32
0.0
 13
1542.4052641649
 23
179.1846417294
 33
0.0
  0
TEXT
  5
C5
100
AcDbEntity
  8
L1_170
  6
CONTINUOUS
 62
         4
100
AcDbText
 10
1554.7127794887
 20
167.5030096585
 30
0.0
 40
2.7
  1
15%%d
 50
430.4681727187
  7
BOX
100
AcDbText
  0
ENDBLK
  5
C6
100
AcDbEntity
  8
0
  6
CONTINUOUS
100
AcDbBlockEnd
  0
BLOCK
  5
CB
100
AcDbEntity
  8
0
100
AcDbBlockBegin
  2
*D3
 70
        65
 10
0.0
 20
0.0
 30
0.0
  3
*D3
  1

  0
POINT
  5
CD
100
AcDbEntity
  8
DEFPOINTS
  6
CONTINUOUS
 62
         0
100
AcDbPoint
 10
1400.0033403763
 20
218.9675830166
 30
0.0
  0
POINT
  5
CE
100
AcDbEntity
  8
DEFPOINTS
  6
CONTINUOUS
 62
         0
100
AcDbPoint
 10
1400.0033403763
 20
172.4096417294
 30
0.0
  0
POINT
  5
CF
100
AcDbEntity
  8
DEFPOINTS
  6
CONTINUOUS
 62
         0
100
AcDbPoint
 10
1548.0033403763
 20
150.1846417294
 30
0.0
  0
LINE
  5
D0
100
AcDbEntity
  8
L1_170
  6
CONTINUOUS
 62
         4
100
AcDbLine
 10
1400.0033403763
 20
173.7596417294
 30
0.0
 11
1400.0033403763
 21
219.6425830166
 31
0.0
  0
LINE
  5
D1
100
AcDbEntity
  8
L1_170
  6
CONTINUOUS
 62
         4
100
AcDbLine
 10
1548.0033403763
 20
151.5346417294
 30
0.0
 11
1548.0033403763
 21
219.6425830166
 31
0.0
  0
LINE
  5
D2
100
AcDbEntity
  8
L1_170
  6
CONTINUOUS
 62
         4
100
AcDbLine
 10
1400.0033403763
 20
218.9675830166
 30
0.0
 11
1548.0033403763
 21
218.9675830166
 31
0.0
  0
SOLID
  5
D3
100
AcDbEntity
  8
L1_170
  6
CONTINUOUS
 62
         4
100
AcDbTrace
 10
1400.0033403763
 20
218.9675830166
 30
0.0
 11
1402.7033403763
 21
219.3725830166
 31
0.0
 12
1402.7033403763
 22
218.5625830166
 32
0.0
 13
1400.0033403763
 23
218.9675830166
 33
0.0
  0
SOLID
  5
D4
100
AcDbEntity
  8
L1_170
  6
CONTINUOUS
 62
         4
100
AcDbTrace
 10
1548.0033403763
 20
218.9675830166
 30
0.0
 11
1545.3033403763
 21
218.5625830166
 31
0.0
 12
1545.3033403763
 22
219.3725830166
 32
0.0
 13
1548.0033403763
 23
218.9675830166
 33
0.0
  0
TEXT
  5
D6
100
AcDbEntity
  8
L1_170
  6
CONTINUOUS
 62
         4
100
AcDbText
 10
1471.8320787969
 20
220.9925830166
 30
0.0
 40
2.7
  1
148
  7
BOX
100
AcDbText
  0
ENDBLK
  5
D7
100
AcDbEntity
  8
0
  6
CONTINUOUS
100
AcDbBlockEnd
  0
BLOCK
  5
D9
100
AcDbEntity
  8
0
100
AcDbBlockBegin
  2
*D4
 70
        65
 10
0.0
 20
0.0
 30
0.0
  3
*D4
  1

  0
POINT
  5
DB
100
AcDbEntity
  8
DEFPOINTS
  6
CONTINUOUS
 62
         0
100
AcDbPoint
 10
1331.7533403763
 20
225.263113602
 30
0.0
  0
POINT
  5
DC
100
AcDbEntity
  8
DEFPOINTS
  6
CONTINUOUS
 62
         0
100
AcDbPoint
 10
1331.7533403763
 20
161.4188234458
 30
0.0
  0
POINT
  5
DD
100
AcDbEntity
  8
DEFPOINTS
  6
CONTINUOUS
 62
         0
100
AcDbPoint
 10
1548.0033403763
 20
150.1846417294
 30
0.0
  0
LINE
  5
DE
100
AcDbEntity
  8
L1_170
  6
CONTINUOUS
 62
         4
100
AcDbLine
 10
1331.7533403763
 20
162.7688234458
 30
0.0
 11
1331.7533403763
 21
225.938113602
 31
0.0
  0
LINE
  5
DF
100
AcDbEntity
  8
L1_170
  6
CONTINUOUS
 62
         4
100
AcDbLine
 10
1548.0033403763
 20
151.5346417294
 30
0.0
 11
1548.0033403763
 21
225.938113602
 31
0.0
  0
LINE
  5
E0
100
AcDbEntity
  8
L1_170
  6
CONTINUOUS
 62
         4
100
AcDbLine
 10
1331.7533403763
 20
225.263113602
 30
0.0
 11
1548.0033403763
 21
225.263113602
 31
0.0
  0
SOLID
  5
E1
100
AcDbEntity
  8
L1_170
  6
CONTINUOUS
 62
         4
100
AcDbTrace
 10
1331.7533403763
 20
225.263113602
 30
0.0
 11
1334.4533403763
 21
225.668113602
 31
0.0
 12
1334.4533403763
 22
224.858113602
 32
0.0
 13
1331.7533403763
 23
225.263113602
 33
0.0
  0
SOLID
  5
E2
100
AcDbEntity
  8
L1_170
  6
CONTINUOUS
 62
         4
100
AcDbTrace
 10
1548.0033403763
 20
225.263113602
 30
0.0
 11
1545.3033403763
 21
224.858113602
 31
0.0
 12
1545.3033403763
 22
225.668113602
 32
0.0
 13
1548.0033403763
 23
225.263113602
 33
0.0
  0
TEXT
  5
E4
100
AcDbEntity
  8
L1_170
  6
CONTINUOUS
 62
         4
100
AcDbText
 10
1424.9724708156
 20
227.288113602
 30
0.0
 40
2.7
  1
216.25
  7
BOX
100
AcDbText
  0
ENDBLK
  5
E5
100
AcDbEntity
  8
0
  6
CONTINUOUS
100
AcDbBlockEnd
  0
BLOCK
  5
EA
100
AcDbEntity
  8
0
100
AcDbBlockBegin
  2
*D5
 70
        65
 10
0.0
 20
0.0
 30
0.0
  3
*D5
  1

  0
POINT
  5
EC
100
AcDbEntity
  8
DEFPOINTS
  6
CONTINUOUS
 62
         0
100
AcDbPoint
 10
1561.4517177607
 20
177.6846417294
 30
0.0
  0
POINT
  5
ED
100
AcDbEntity
  8
DEFPOINTS
  6
CONTINUOUS
 62
         0
100
AcDbPoint
 10
1548.0033403763
 20
177.6846417294
 30
0.0
  0
POINT
  5
EE
100
AcDbEntity
  8
DEFPOINTS
  6
CONTINUOUS
 62
         0
100
AcDbPoint
 10
1548.0033403763
 20
122.6846417294
 30
0.0
  0
LINE
  5
EF
100
AcDbEntity
  8
L1_170
  6
CONTINUOUS
 62
         4
100
AcDbLine
 10
1549.3533403763
 20
177.6846417294
 30
0.0
 11
1562.1267177607
 21
177.6846417294
 31
0.0
  0
LINE
  5
F0
100
AcDbEntity
  8
L1_170
  6
CONTINUOUS
 62
         4
100
AcDbLine
 10
1549.3533403763
 20
122.6846417294
 30
0.0
 11
1562.1267177607
 21
122.6846417294
 31
0.0
  0
LINE
  5
F1
100
AcDbEntity
  8
L1_170
  6
CONTINUOUS
 62
         4
100
AcDbLine
 10
1561.4517177607
 20
177.6846417294
 30
0.0
 11
1561.4517177607
 21
122.6846417294
 31
0.0
  0
SOLID
  5
F2
100
AcDbEntity
  8
L1_170
  6
CONTINUOUS
 62
         4
100
AcDbTrace
 10
1561.4517177607
 20
177.6846417294
 30
0.0
 11
1561.8567177607
 21
174.9846417294
 31
0.0
 12
1561.0467177607
 22
174.9846417294
 32
0.0
 13
1561.4517177607
 23
177.6846417294
 33
0.0
  0
SOLID
  5
F3
100
AcDbEntity
  8
L1_170
  6
CONTINUOUS
 62
         4
100
AcDbTrace
 10
1561.4517177607
 20
122.6846417294
 30
0.0
 11
1561.0467177607
 21
125.3846417294
 31
0.0
 12
1561.8567177607
 22
125.3846417294
 32
0.0
 13
1561.4517177607
 23
122.6846417294
 33
0.0
  0
TEXT
  5
F5
100
AcDbEntity
  8
L1_170
  6
CONTINUOUS
 62
         4
100
AcDbText
 10
1559.4267177607
 20
144.974364398
 30
0.0
 40
2.7
  1
崷55
 50
90.0
  7
BOX
100
AcDbText
  0
ENDBLK
  5
F6
100
AcDbEntity
  8
0
  6
CONTINUOUS
100
AcDbBlockEnd
  0
BLOCK
  5
103
100
AcDbEntity
  8
0
100
AcDbBlockBegin
  2
*D6
 70
        65
 10
0.0
 20
0.0
 30
0.0
  3
*D6
  1

  0
POINT
  5
105
100
AcDbEntity
  8
DEFPOINTS
  6
CONTINUOUS
 62
         0
100
AcDbPoint
 10
1585.4498203437
 20
181.6846417294
 30
0.0
  0
POINT
  5
106
100
AcDbEntity
  8
DEFPOINTS
  6
CONTINUOUS
 62
         0
100
AcDbPoint
 10
1496.0033403763
 20
181.6846417294
 30
0.0
  0
POINT
  5
107
100
AcDbEntity
  8
DEFPOINTS
  6
CONTINUOUS
 62
         0
100
AcDbPoint
 10
1496.0033403763
 20
118.6846417294
 30
0.0
  0
LINE
  5
108
100
AcDbEntity
  8
L1_170
  6
CONTINUOUS
 62
         4
100
AcDbLine
 10
1497.3533403763
 20
181.6846417294
 30
0.0
 11
1586.1248203437
 21
181.6846417294
 31
0.0
  0
LINE
  5
109
100
AcDbEntity
  8
L1_170
  6
CONTINUOUS
 62
         4
100
AcDbLine
 10
1497.3533403763
 20
118.6846417294
 30
0.0
 11
1586.1248203437
 21
118.6846417294
 31
0.0
  0
LINE
  5
10A
100
AcDbEntity
  8
L1_170
  6
CONTINUOUS
 62
         4
100
AcDbLine
 10
1585.4498203437
 20
181.6846417294
 30
0.0
 11
1585.4498203437
 21
118.6846417294
 31
0.0
  0
SOLID
  5
10B
100
AcDbEntity
  8
L1_170
  6
CONTINUOUS
 62
         4
100
AcDbTrace
 10
1585.4498203437
 20
181.6846417294
 30
0.0
 11
1585.8548203437
 21
178.9846417294
 31
0.0
 12
1585.0448203437
 22
178.9846417294
 32
0.0
 13
1585.4498203437
 23
181.6846417294
 33
0.0
  0
SOLID
  5
10C
100
AcDbEntity
  8
L1_170
  6
CONTINUOUS
 62
         4
100
AcDbTrace
 10
1585.4498203437
 20
118.6846417294
 30
0.0
 11
1585.0448203437
 21
121.3846417294
 31
0.0
 12
1585.8548203437
 22
121.3846417294
 32
0.0
 13
1585.4498203437
 23
118.6846417294
 33
0.0
  0
TEXT
  5
10E
100
AcDbEntity
  8
L1_170
  6
CONTINUOUS
 62
         4
100
AcDbText
 10
1583.4248203437
 20
146.1650804093
 30
0.0
 40
2.7
  1
崷63
 50
90.0
  7
BOX
100
AcDbText
  0
ENDBLK
  5
10F
100
AcDbEntity
  8
0
  6
CONTINUOUS
100
AcDbBlockEnd
  0
BLOCK
  5
45B
100
AcDbEntity
  8
0
100
AcDbBlockBegin
  2
*D7
 70
        65
 10
0.0
 20
0.0
 30
0.0
  3
*D7
  1

  0
POINT
  5
45D
100
AcDbEntity
  8
DEFPOINTS
  6
CONTINUOUS
 62
         0
100
AcDbPoint
 10
1256.0235966984
 20
-94.4015982245
 30
0.0
  0
POINT
  5
45E
100
AcDbEntity
  8
DEFPOINTS
  6
CONTINUOUS
 62
         0
100
AcDbPoint
 10
1257.3713313902
 20
-94.4015982245
 30
0.0
  0
POINT
  5
45F
100
AcDbEntity
  8
DEFPOINTS
  6
CONTINUOUS
 62
         0
100
AcDbPoint
 10
1257.3713313902
 20
-100.4015982245
 30
0.0
  0
LINE
  5
460
100
AcDbEntity
  8
L1_170
  6
CONTINUOUS
 62
         4
100
AcDbLine
 10
1256.0213313902
 20
-94.4015982245
 30
0.0
 11
1255.3485966984
 21
-94.4015982245
 31
0.0
  0
LINE
  5
461
100
AcDbEntity
  8
L1_170
  6
CONTINUOUS
 62
         4
100
AcDbLine
 10
1256.0213313902
 20
-100.4015982245
 30
0.0
 11
1255.3485966984
 21
-100.4015982245
 31
0.0
  0
LINE
  5
462
100
AcDbEntity
  8
L1_170
  6
CONTINUOUS
 62
         4
100
AcDbLine
 10
1256.0235966984
 20
-94.4015982245
 30
0.0
 11
1256.0235966984
 21
-100.4015982245
 31
0.0
  0
SOLID
  5
463
100
AcDbEntity
  8
L1_170
  6
CONTINUOUS
 62
         4
100
AcDbTrace
 10
1256.0235966984
 20
-94.4015982245
 30
0.0
 11
1256.4285966984
 21
-97.1015982245
 31
0.0
 12
1255.6185966984
 22
-97.1015982245
 32
0.0
 13
1256.0235966984
 23
-94.4015982245
 33
0.0
  0
SOLID
  5
464
100
AcDbEntity
  8
L1_170
  6
CONTINUOUS
 62
         4
100
AcDbTrace
 10
1256.0235966984
 20
-100.4015982245
 30
0.0
 11
1255.6185966984
 21
-97.7015982245
 31
0.0
 12
1256.4285966984
 22
-97.7015982245
 32
0.0
 13
1256.0235966984
 23
-100.4015982245
 33
0.0
  0
TEXT
  5
466
100
AcDbEntity
  8
L1_170
  6
CONTINUOUS
 62
         4
100
AcDbText
 10
1253.9985966984
 20
-104.1515982245
 30
0.0
 40
2.7
  1
M6xP1
 50
90.0
  7
BOX
100
AcDbText
  0
ENDBLK
  5
467
100
AcDbEntity
  8
0
  6
CONTINUOUS
100
AcDbBlockEnd
  0
BLOCK
  5
480
100
AcDbEntity
  8
0
100
AcDbBlockBegin
  2
*D8
 70
        65
 10
0.0
 20
0.0
 30
0.0
  3
*D8
  1

  0
POINT
  5
482
100
AcDbEntity
  8
DEFPOINTS
  6
CONTINUOUS
 62
         0
100
AcDbPoint
 10
1256.8713313902
 20
-70.3307764868
 30
0.0
  0
POINT
  5
483
100
AcDbEntity
  8
DEFPOINTS
  6
CONTINUOUS
 62
         0
100
AcDbPoint
 10
1256.8713313902
 20
-94.9015982245
 30
0.0
  0
POINT
  5
484
100
AcDbEntity
  8
DEFPOINTS
  6
CONTINUOUS
 62
         0
100
AcDbPoint
 10
1318.6213313902
 20
-91.4015982245
 30
0.0
  0
LINE
  5
485
100
AcDbEntity
  8
L1_170
  6
CONTINUOUS
 62
         4
100
AcDbLine
 10
1256.8713313902
 20
-93.5515982245
 30
0.0
 11
1256.8713313902
 21
-69.6557764868
 31
0.0
  0
LINE
  5
486
100
AcDbEntity
  8
L1_170
  6
CONTINUOUS
 62
         4
100
AcDbLine
 10
1318.6213313902
 20
-90.0515982245
 30
0.0
 11
1318.6213313902
 21
-69.6557764868
 31
0.0
  0
LINE
  5
487
100
AcDbEntity
  8
L1_170
  6
CONTINUOUS
 62
         4
100
AcDbLine
 10
1256.8713313902
 20
-70.3307764868
 30
0.0
 11
1318.6213313902
 21
-70.3307764868
 31
0.0
  0
SOLID
  5
488
100
AcDbEntity
  8
L1_170
  6
CONTINUOUS
 62
         4
100
AcDbTrace
 10
1256.8713313902
 20
-70.3307764868
 30
0.0
 11
1259.5713313902
 21
-69.9257764868
 31
0.0
 12
1259.5713313902
 22
-70.7357764868
 32
0.0
 13
1256.8713313902
 23
-70.3307764868
 33
0.0
  0
SOLID
  5
489
100
AcDbEntity
  8
L1_170
  6
CONTINUOUS
 62
         4
100
AcDbTrace
 10
1318.6213313902
 20
-70.3307764868
 30
0.0
 11
1315.9213313902
 21
-70.7357764868
 31
0.0
 12
1315.9213313902
 22
-69.9257764868
 32
0.0
 13
1318.6213313902
 23
-70.3307764868
 33
0.0
  0
TEXT
  5
48B
100
AcDbEntity
  8
L1_170
  6
CONTINUOUS
 62
         4
100
AcDbText
 10
1282.8225979318
 20
-68.3057764868
 30
0.0
 40
2.7
  1
56.8
  7
BOX
100
AcDbText
  0
ENDBLK
  5
48C
100
AcDbEntity
  8
0
  6
CONTINUOUS
100
AcDbBlockEnd
  0
BLOCK
  5
48E
100
AcDbEntity
  8
0
100
AcDbBlockBegin
  2
*D9
 70
        65
 10
0.0
 20
0.0
 30
0.0
  3
*D9
  1

  0
POINT
  5
490
100
AcDbEntity
  8
DEFPOINTS
  6
CONTINUOUS
 62
         0
100
AcDbPoint
 10
1256.8713313902
 20
-79.4559090218
 30
0.0
  0
POINT
  5
491
100
AcDbEntity
  8
DEFPOINTS
  6
CONTINUOUS
 62
         0
100
AcDbPoint
 10
1256.8713313902
 20
-94.9015982245
 30
0.0
  0
POINT
  5
492
100
AcDbEntity
  8
DEFPOINTS
  6
CONTINUOUS
 62
         0
100
AcDbPoint
 10
1268.1213313902
 20
-94.4015982245
 30
0.0
  0
LINE
  5
493
100
AcDbEntity
  8
L1_170
  6
CONTINUOUS
 62
         4
100
AcDbLine
 10
1256.8713313902
 20
-93.5515982245
 30
0.0
 11
1256.8713313902
 21
-78.7809090218
 31
0.0
  0
LINE
  5
494
100
AcDbEntity
  8
L1_170
  6
CONTINUOUS
 62
         4
100
AcDbLine
 10
1268.1213313902
 20
-93.0515982245
 30
0.0
 11
1268.1213313902
 21
-78.7809090218
 31
0.0
  0
LINE
  5
495
100
AcDbEntity
  8
L1_170
  6
CONTINUOUS
 62
         4
100
AcDbLine
 10
1256.8713313902
 20
-79.4559090218
 30
0.0
 11
1268.1213313902
 21
-79.4559090218
 31
0.0
  0
SOLID
  5
496
100
AcDbEntity
  8
L1_170
  6
CONTINUOUS
 62
         4
100
AcDbTrace
 10
1256.8713313902
 20
-79.4559090218
 30
0.0
 11
1259.5713313902
 21
-79.0509090218
 31
0.0
 12
1259.5713313902
 22
-79.8609090218
 32
0.0
 13
1256.8713313902
 23
-79.4559090218
 33
0.0
  0
SOLID
  5
497
100
AcDbEntity
  8
L1_170
  6
CONTINUOUS
 62
         4
100
AcDbTrace
 10
1268.1213313902
 20
-79.4559090218
 30
0.0
 11
1265.4213313902
 21
-79.8609090218
 31
0.0
 12
1265.4213313902
 22
-79.0509090218
 32
0.0
 13
1268.1213313902
 23
-79.4559090218
 33
0.0
  0
TEXT
  5
499
100
AcDbEntity
  8
L1_170
  6
CONTINUOUS
 62
         4
100
AcDbText
 10
1257.8636442827
 20
-77.4309090218
 30
0.0
 40
2.7
  1
11.25
  7
BOX
100
AcDbText
  0
ENDBLK
  5
49A
100
AcDbEntity
  8
0
  6
CONTINUOUS
100
AcDbBlockEnd
  0
BLOCK
  5
49C
100
AcDbEntity
  8
0
100
AcDbBlockBegin
  2
*D10
 70
        65
 10
0.0
 20
0.0
 30
0.0
  3
*D10
  1

  0
POINT
  5
49E
100
AcDbEntity
  8
DEFPOINTS
  6
CONTINUOUS
 62
         0
100
AcDbPoint
 10
1325.9440771784
 20
-90.9015982245
 30
0.0
  0
POINT
  5
49F
100
AcDbEntity
  8
DEFPOINTS
  6
CONTINUOUS
 62
         0
100
AcDbPoint
 10
1318.1213313902
 20
-90.9015982245
 30
0.0
  0
POINT
  5
4A0
100
AcDbEntity
  8
DEFPOINTS
  6
CONTINUOUS
 62
         0
100
AcDbPoint
 10
1318.1213313902
 20
-103.9015982245
 30
0.0
  0
LINE
  5
4A1
100
AcDbEntity
  8
L1_170
  6
CONTINUOUS
 62
         4
100
AcDbLine
 10
1319.4713313902
 20
-90.9015982245
 30
0.0
 11
1326.6190771784
 21
-90.9015982245
 31
0.0
  0
LINE
  5
4A2
100
AcDbEntity
  8
L1_170
  6
CONTINUOUS
 62
         4
100
AcDbLine
 10
1319.4713313902
 20
-103.9015982245
 30
0.0
 11
1326.6190771784
 21
-103.9015982245
 31
0.0
  0
LINE
  5
4A3
100
AcDbEntity
  8
L1_170
  6
CONTINUOUS
 62
         4
100
AcDbLine
 10
1325.9440771784
 20
-90.9015982245
 30
0.0
 11
1325.9440771784
 21
-103.9015982245
 31
0.0
  0
SOLID
  5
4A4
100
AcDbEntity
  8
L1_170
  6
CONTINUOUS
 62
         4
100
AcDbTrace
 10
1325.9440771784
 20
-90.9015982245
 30
0.0
 11
1326.3490771784
 21
-93.6015982245
 31
0.0
 12
1325.5390771784
 22
-93.6015982245
 32
0.0
 13
1325.9440771784
 23
-90.9015982245
 33
0.0
  0
SOLID
  5
4A5
100
AcDbEntity
  8
L1_170
  6
CONTINUOUS
 62
         4
100
AcDbTrace
 10
1325.9440771784
 20
-103.9015982245
 30
0.0
 11
1325.5390771784
 21
-101.2015982245
 31
0.0
 12
1326.3490771784
 22
-101.2015982245
 32
0.0
 13
1325.9440771784
 23
-103.9015982245
 33
0.0
  0
TEXT
  5
4A7
100
AcDbEntity
  8
L1_170
  6
CONTINUOUS
 62
         4
100
AcDbText
 10
1323.9190771784
 20
-102.8015982245
 30
0.0
 40
2.7
  1
崷13
 50
90.0
  7
BOX
100
AcDbText
  0
ENDBLK
  5
4A8
100
AcDbEntity
  8
0
  6
CONTINUOUS
100
AcDbBlockEnd
  0
BLOCK
  5
50A
100
AcDbEntity
  8
0
100
AcDbBlockBegin
  2
*D11
 70
        65
 10
0.0
 20
0.0
 30
0.0
  3
*D11
  1

  0
POINT
  5
50C
100
AcDbEntity
  8
DEFPOINTS
  6
CONTINUOUS
 62
         0
100
AcDbPoint
 10
1452.5342800134
 20
-87.3315982245
 30
0.0
  0
POINT
  5
50D
100
AcDbEntity
  8
DEFPOINTS
  6
CONTINUOUS
 62
         0
100
AcDbPoint
 10
1462.2528451833
 20
-87.3315982245
 30
0.0
  0
POINT
  5
50E
100
AcDbEntity
  8
DEFPOINTS
  6
CONTINUOUS
 62
         0
100
AcDbPoint
 10
1460.8828451833
 20
-107.4715982245
 30
0.0
  0
LINE
  5
50F
100
AcDbEntity
  8
L1_170
  6
CONTINUOUS
 62
         4
100
AcDbLine
 10
1460.9028451833
 20
-87.3315982245
 30
0.0
 11
1451.8592800134
 21
-87.3315982245
 31
0.0
  0
LINE
  5
510
100
AcDbEntity
  8
L1_170
  6
CONTINUOUS
 62
         4
100
AcDbLine
 10
1459.5328451833
 20
-107.4715982245
 30
0.0
 11
1451.8592800134
 21
-107.4715982245
 31
0.0
  0
LINE
  5
511
100
AcDbEntity
  8
L1_170
  6
CONTINUOUS
 62
         4
100
AcDbLine
 10
1452.5342800134
 20
-87.3315982245
 30
0.0
 11
1452.5342800134
 21
-107.4715982245
 31
0.0
  0
SOLID
  5
512
100
AcDbEntity
  8
L1_170
  6
CONTINUOUS
 62
         4
100
AcDbTrace
 10
1452.5342800134
 20
-87.3315982245
 30
0.0
 11
1452.9392800134
 21
-90.0315982245
 31
0.0
 12
1452.1292800134
 22
-90.0315982245
 32
0.0
 13
1452.5342800134
 23
-87.3315982245
 33
0.0
  0
SOLID
  5
513
100
AcDbEntity
  8
L1_170
  6
CONTINUOUS
 62
         4
100
AcDbTrace
 10
1452.5342800134
 20
-107.4715982245
 30
0.0
 11
1452.1292800134
 21
-104.7715982245
 31
0.0
 12
1452.9392800134
 22
-104.7715982245
 32
0.0
 13
1452.5342800134
 23
-107.4715982245
 33
0.0
  0
TEXT
  5
515
100
AcDbEntity
  8
L1_170
  6
CONTINUOUS
 62
         4
100
AcDbText
 10
1450.5092800134
 20
-102.8015982245
 30
0.0
 40
2.7
  1
崷21
 50
90.0
  7
BOX
100
AcDbText
  0
ENDBLK
  5
516
100
AcDbEntity
  8
0
  6
CONTINUOUS
100
AcDbBlockEnd
  0
BLOCK
  5
518
100
AcDbEntity
  8
0
100
AcDbBlockBegin
  2
*D12
 70
        65
 10
0.0
 20
0.0
 30
0.0
  3
*D12
  1

  0
POINT
  5
51A
100
AcDbEntity
  8
DEFPOINTS
  6
CONTINUOUS
 62
         0
100
AcDbPoint
 10
1407.2531233543
 20
-91.0565982245
 30
0.0
  0
POINT
  5
51B
100
AcDbEntity
  8
DEFPOINTS
  6
CONTINUOUS
 62
         0
100
AcDbPoint
 10
1414.6463150535
 20
-91.0565982245
 30
0.0
  0
POINT
  5
51C
100
AcDbEntity
  8
DEFPOINTS
  6
CONTINUOUS
 62
         0
100
AcDbPoint
 10
1413.1763150535
 20
-103.7465982245
 30
0.0
  0
LINE
  5
51D
100
AcDbEntity
  8
L1_170
  6
CONTINUOUS
 62
         4
100
AcDbLine
 10
1413.2963150535
 20
-91.0565982245
 30
0.0
 11
1406.5781233543
 21
-91.0565982245
 31
0.0
  0
LINE
  5
51E
100
AcDbEntity
  8
L1_170
  6
CONTINUOUS
 62
         4
100
AcDbLine
 10
1411.8263150535
 20
-103.7465982245
 30
0.0
 11
1406.5781233543
 21
-103.7465982245
 31
0.0
  0
LINE
  5
51F
100
AcDbEntity
  8
L1_170
  6
CONTINUOUS
 62
         4
100
AcDbLine
 10
1407.2531233543
 20
-91.0565982245
 30
0.0
 11
1407.2531233543
 21
-103.7465982245
 31
0.0
  0
SOLID
  5
520
100
AcDbEntity
  8
L1_170
  6
CONTINUOUS
 62
         4
100
AcDbTrace
 10
1407.2531233543
 20
-91.0565982245
 30
0.0
 11
1407.6581233543
 21
-93.7565982245
 31
0.0
 12
1406.8481233543
 22
-93.7565982245
 32
0.0
 13
1407.2531233543
 23
-91.0565982245
 33
0.0
  0
SOLID
  5
521
100
AcDbEntity
  8
L1_170
  6
CONTINUOUS
 62
         4
100
AcDbTrace
 10
1407.2531233543
 20
-103.7465982245
 30
0.0
 11
1406.8481233543
 21
-101.0465982245
 31
0.0
 12
1407.6581233543
 22
-101.0465982245
 32
0.0
 13
1407.2531233543
 23
-103.7465982245
 33
0.0
  0
TEXT
  5
523
100
AcDbEntity
  8
L1_170
  6
CONTINUOUS
 62
         4
100
AcDbText
 10
1405.2281233543
 20
-102.8015982245
 30
0.0
 40
2.7
  1
崷12
 50
90.0
  7
BOX
100
AcDbText
  0
ENDBLK
  5
524
100
AcDbEntity
  8
0
  6
CONTINUOUS
100
AcDbBlockEnd
  0
BLOCK
  5
526
100
AcDbEntity
  8
0
100
AcDbBlockBegin
  2
*D13
 70
        65
 10
0.0
 20
0.0
 30
0.0
  3
*D13
  1

  0
POINT
  5
528
100
AcDbEntity
  8
DEFPOINTS
  6
CONTINUOUS
 62
         0
100
AcDbPoint
 10
1379.848384417
 20
-75.5215982245
 30
0.0
  0
POINT
  5
529
100
AcDbEntity
  8
DEFPOINTS
  6
CONTINUOUS
 62
         0
100
AcDbPoint
 10
1386.7277755043
 20
-75.5215982245
 30
0.0
  0
POINT
  5
52A
100
AcDbEntity
  8
DEFPOINTS
  6
CONTINUOUS
 62
         0
100
AcDbPoint
 10
1384.9577755043
 20
-119.2815982245
 30
0.0
  0
LINE
  5
52B
100
AcDbEntity
  8
L1_170
  6
CONTINUOUS
 62
         4
100
AcDbLine
 10
1385.3777755043
 20
-75.5215982245
 30
0.0
 11
1379.173384417
 21
-75.5215982245
 31
0.0
  0
LINE
  5
52C
100
AcDbEntity
  8
L1_170
  6
CONTINUOUS
 62
         4
100
AcDbLine
 10
1383.6077755043
 20
-119.2815982245
 30
0.0
 11
1379.173384417
 21
-119.2815982245
 31
0.0
  0
LINE
  5
52D
100
AcDbEntity
  8
L1_170
  6
CONTINUOUS
 62
         4
100
AcDbLine
 10
1379.848384417
 20
-75.5215982245
 30
0.0
 11
1379.848384417
 21
-119.2815982245
 31
0.0
  0
SOLID
  5
52E
100
AcDbEntity
  8
L1_170
  6
CONTINUOUS
 62
         4
100
AcDbTrace
 10
1379.848384417
 20
-75.5215982245
 30
0.0
 11
1380.253384417
 21
-78.2215982245
 31
0.0
 12
1379.443384417
 22
-78.2215982245
 32
0.0
 13
1379.848384417
 23
-75.5215982245
 33
0.0
  0
SOLID
  5
52F
100
AcDbEntity
  8
L1_170
  6
CONTINUOUS
 62
         4
100
AcDbTrace
 10
1379.848384417
 20
-119.2815982245
 30
0.0
 11
1379.443384417
 21
-116.5815982245
 31
0.0
 12
1380.253384417
 22
-116.5815982245
 32
0.0
 13
1379.848384417
 23
-119.2815982245
 33
0.0
  0
TEXT
  5
531
100
AcDbEntity
  8
L1_170
  6
CONTINUOUS
 62
         4
100
AcDbText
 10
1377.823384417
 20
-102.8015982245
 30
0.0
 40
2.7
  1
崷44
 50
90.0
  7
BOX
100
AcDbText
  0
ENDBLK
  5
532
100
AcDbEntity
  8
0
  6
CONTINUOUS
100
AcDbBlockEnd
  0
BLOCK
  5
534
100
AcDbEntity
  8
0
100
AcDbBlockBegin
  2
*D14
 70
        65
 10
0.0
 20
0.0
 30
0.0
  3
*D14
  1

  0
POINT
  5
536
100
AcDbEntity
  8
DEFPOINTS
  6
CONTINUOUS
 62
         0
100
AcDbPoint
 10
1341.677678015
 20
-85.7165982245
 30
0.0
  0
POINT
  5
537
100
AcDbEntity
  8
DEFPOINTS
  6
CONTINUOUS
 62
         0
100
AcDbPoint
 10
1347.3910920817
 20
-85.7165982245
 30
0.0
  0
POINT
  5
538
100
AcDbEntity
  8
DEFPOINTS
  6
CONTINUOUS
 62
         0
100
AcDbPoint
 10
1345.8210920817
 20
-109.0865982245
 30
0.0
  0
LINE
  5
539
100
AcDbEntity
  8
L1_170
  6
CONTINUOUS
 62
         4
100
AcDbLine
 10
1346.0410920817
 20
-85.7165982245
 30
0.0
 11
1341.002678015
 21
-85.7165982245
 31
0.0
  0
LINE
  5
53A
100
AcDbEntity
  8
L1_170
  6
CONTINUOUS
 62
         4
100
AcDbLine
 10
1344.4710920817
 20
-109.0865982245
 30
0.0
 11
1341.002678015
 21
-109.0865982245
 31
0.0
  0
LINE
  5
53B
100
AcDbEntity
  8
L1_170
  6
CONTINUOUS
 62
         4
100
AcDbLine
 10
1341.677678015
 20
-85.7165982245
 30
0.0
 11
1341.677678015
 21
-109.0865982245
 31
0.0
  0
SOLID
  5
53C
100
AcDbEntity
  8
L1_170
  6
CONTINUOUS
 62
         4
100
AcDbTrace
 10
1341.677678015
 20
-85.7165982245
 30
0.0
 11
1342.082678015
 21
-88.4165982245
 31
0.0
 12
1341.272678015
 22
-88.4165982245
 32
0.0
 13
1341.677678015
 23
-85.7165982245
 33
0.0
  0
SOLID
  5
53D
100
AcDbEntity
  8
L1_170
  6
CONTINUOUS
 62
         4
100
AcDbTrace
 10
1341.677678015
 20
-109.0865982245
 30
0.0
 11
1341.272678015
 21
-106.3865982245
 31
0.0
 12
1342.082678015
 22
-106.3865982245
 32
0.0
 13
1341.677678015
 23
-109.0865982245
 33
0.0
  0
TEXT
  5
53F
100
AcDbEntity
  8
L1_170
  6
CONTINUOUS
 62
         4
100
AcDbText
 10
1339.652678015
 20
-105.5015982245
 30
0.0
 40
2.7
  1
崷23.5
 50
90.0
  7
BOX
100
AcDbText
  0
ENDBLK
  5
540
100
AcDbEntity
  8
0
  6
CONTINUOUS
100
AcDbBlockEnd
  0
BLOCK
  5
546
100
AcDbEntity
  8
0
100
AcDbBlockBegin
  2
*D15
 70
        65
 10
0.0
 20
0.0
 30
0.0
  3
*D15
  1

  0
POINT
  5
548
100
AcDbEntity
  8
DEFPOINTS
  6
CONTINUOUS
 62
         0
100
AcDbPoint
 10
1647.2106175936
 20
-22.8042714442
 30
0.0
  0
POINT
  5
549
100
AcDbEntity
  8
DEFPOINTS
  6
CONTINUOUS
 62
         0
100
AcDbPoint
 10
1634.6570837537
 20
-22.8042714442
 30
0.0
  0
POINT
  5
54A
100
AcDbEntity
  8
DEFPOINTS
  6
CONTINUOUS
 62
         0
100
AcDbPoint
 10
1634.6570837537
 20
-82.8042714442
 30
0.0
  0
LINE
  5
54B
100
AcDbEntity
  8
L1_170
  6
CONTINUOUS
 62
         4
100
AcDbLine
 10
1636.0070837537
 20
-22.8042714442
 30
0.0
 11
1647.8856175936
 21
-22.8042714442
 31
0.0
  0
LINE
  5
54C
100
AcDbEntity
  8
L1_170
  6
CONTINUOUS
 62
         4
100
AcDbLine
 10
1636.0070837537
 20
-82.8042714442
 30
0.0
 11
1647.8856175936
 21
-82.8042714442
 31
0.0
  0
LINE
  5
54D
100
AcDbEntity
  8
L1_170
  6
CONTINUOUS
 62
         4
100
AcDbLine
 10
1647.2106175936
 20
-22.8042714442
 30
0.0
 11
1647.2106175936
 21
-82.8042714442
 31
0.0
  0
SOLID
  5
54E
100
AcDbEntity
  8
L1_170
  6
CONTINUOUS
 62
         4
100
AcDbTrace
 10
1647.2106175936
 20
-22.8042714442
 30
0.0
 11
1647.6156175936
 21
-25.5042714442
 31
0.0
 12
1646.8056175936
 22
-25.5042714442
 32
0.0
 13
1647.2106175936
 23
-22.8042714442
 33
0.0
  0
SOLID
  5
54F
100
AcDbEntity
  8
L1_170
  6
CONTINUOUS
 62
         4
100
AcDbTrace
 10
1647.2106175936
 20
-82.8042714442
 30
0.0
 11
1646.8056175936
 21
-80.1042714442
 31
0.0
 12
1647.6156175936
 22
-80.1042714442
 32
0.0
 13
1647.2106175936
 23
-82.8042714442
 33
0.0
  0
TEXT
  5
551
100
AcDbEntity
  8
L1_170
  6
CONTINUOUS
 62
         4
100
AcDbText
 10
1645.1856175936
 20
-58.2042714442
 30
0.0
 40
2.7
  1
崷59
 50
90.0
  7
BOX
100
AcDbText
  0
ENDBLK
  5
552
100
AcDbEntity
  8
0
  6
CONTINUOUS
100
AcDbBlockEnd
  0
BLOCK
  5
556
100
AcDbEntity
  8
0
100
AcDbBlockBegin
  2
*D16
 70
        65
 10
0.0
 20
0.0
 30
0.0
  3
*D16
  1

  0
POINT
  5
558
100
AcDbEntity
  8
DEFPOINTS
  6
CONTINUOUS
 62
         0
100
AcDbPoint
 10
1733.7862434998
 20
-32.0542714442
 30
0.0
  0
POINT
  5
559
100
AcDbEntity
  8
DEFPOINTS
  6
CONTINUOUS
 62
         0
100
AcDbPoint
 10
1723.6072316138
 20
-32.0542714442
 30
0.0
  0
POINT
  5
55A
100
AcDbEntity
  8
DEFPOINTS
  6
CONTINUOUS
 62
         0
100
AcDbPoint
 10
1723.6072316138
 20
-73.5542714442
 30
0.0
  0
LINE
  5
55B
100
AcDbEntity
  8
L1_170
  6
CONTINUOUS
 62
         4
100
AcDbLine
 10
1724.9572316138
 20
-32.0542714442
 30
0.0
 11
1734.4612434998
 21
-32.0542714442
 31
0.0
  0
LINE
  5
55C
100
AcDbEntity
  8
L1_170
  6
CONTINUOUS
 62
         4
100
AcDbLine
 10
1724.9572316138
 20
-73.5542714442
 30
0.0
 11
1734.4612434998
 21
-73.5542714442
 31
0.0
  0
LINE
  5
55D
100
AcDbEntity
  8
L1_170
  6
CONTINUOUS
 62
         4
100
AcDbLine
 10
1733.7862434998
 20
-32.0542714442
 30
0.0
 11
1733.7862434998
 21
-73.5542714442
 31
0.0
  0
SOLID
  5
55E
100
AcDbEntity
  8
L1_170
  6
CONTINUOUS
 62
         4
100
AcDbTrace
 10
1733.7862434998
 20
-32.0542714442
 30
0.0
 11
1734.1912434998
 21
-34.7542714442
 31
0.0
 12
1733.3812434998
 22
-34.7542714442
 32
0.0
 13
1733.7862434998
 23
-32.0542714442
 33
0.0
  0
SOLID
  5
55F
100
AcDbEntity
  8
L1_170
  6
CONTINUOUS
 62
         4
100
AcDbTrace
 10
1733.7862434998
 20
-73.5542714442
 30
0.0
 11
1733.3812434998
 21
-70.8542714442
 31
0.0
 12
1734.1912434998
 22
-70.8542714442
 32
0.0
 13
1733.7862434998
 23
-73.5542714442
 33
0.0
  0
TEXT
  5
561
100
AcDbEntity
  8
L1_170
  6
CONTINUOUS
 62
         4
100
AcDbText
 10
1731.7612434998
 20
-60.9042714442
 30
0.0
 40
2.7
  1
崷40.5
 50
90.0
  7
BOX
100
AcDbText
  0
ENDBLK
  5
562
100
AcDbEntity
  8
0
  6
CONTINUOUS
100
AcDbBlockEnd
  0
BLOCK
  5
564
100
AcDbEntity
  8
0
100
AcDbBlockBegin
  2
*D17
 70
        65
 10
0.0
 20
0.0
 30
0.0
  3
*D17
  1

  0
POINT
  5
566
100
AcDbEntity
  8
DEFPOINTS
  6
CONTINUOUS
 62
         0
100
AcDbPoint
 10
1709.1945791015
 20
-36.5542714442
 30
0.0
  0
POINT
  5
567
100
AcDbEntity
  8
DEFPOINTS
  6
CONTINUOUS
 62
         0
100
AcDbPoint
 10
1698.5659724866
 20
-36.5542714442
 30
0.0
  0
POINT
  5
568
100
AcDbEntity
  8
DEFPOINTS
  6
CONTINUOUS
 62
         0
100
AcDbPoint
 10
1698.5659724866
 20
-69.0542714442
 30
0.0
  0
LINE
  5
569
100
AcDbEntity
  8
L1_170
  6
CONTINUOUS
 62
         4
100
AcDbLine
 10
1699.9159724866
 20
-36.5542714442
 30
0.0
 11
1709.8695791015
 21
-36.5542714442
 31
0.0
  0
LINE
  5
56A
100
AcDbEntity
  8
L1_170
  6
CONTINUOUS
 62
         4
100
AcDbLine
 10
1699.9159724866
 20
-69.0542714442
 30
0.0
 11
1709.8695791015
 21
-69.0542714442
 31
0.0
  0
LINE
  5
56B
100
AcDbEntity
  8
L1_170
  6
CONTINUOUS
 62
         4
100
AcDbLine
 10
1709.1945791015
 20
-36.5542714442
 30
0.0
 11
1709.1945791015
 21
-69.0542714442
 31
0.0
  0
SOLID
  5
56C
100
AcDbEntity
  8
L1_170
  6
CONTINUOUS
 62
         4
100
AcDbTrace
 10
1709.1945791015
 20
-36.5542714442
 30
0.0
 11
1709.5995791015
 21
-39.2542714442
 31
0.0
 12
1708.7895791015
 22
-39.2542714442
 32
0.0
 13
1709.1945791015
 23
-36.5542714442
 33
0.0
  0
SOLID
  5
56D
100
AcDbEntity
  8
L1_170
  6
CONTINUOUS
 62
         4
100
AcDbTrace
 10
1709.1945791015
 20
-69.0542714442
 30
0.0
 11
1708.7895791015
 21
-66.3542714442
 31
0.0
 12
1709.5995791015
 22
-66.3542714442
 32
0.0
 13
1709.1945791015
 23
-69.0542714442
 33
0.0
  0
TEXT
  5
56F
100
AcDbEntity
  8
L1_170
  6
CONTINUOUS
 62
         4
100
AcDbText
 10
1707.1695791015
 20
-60.9042714442
 30
0.0
 40
2.7
  1
崷33.5
 50
90.0
  7
BOX
100
AcDbText
  0
ENDBLK
  5
570
100
AcDbEntity
  8
0
  6
CONTINUOUS
100
AcDbBlockEnd
  0
BLOCK
  5
580
100
AcDbEntity
  8
0
100
AcDbBlockBegin
  2
*D18
 70
        65
 10
0.0
 20
0.0
 30
0.0
  3
*D18
  1

  0
POINT
  5
582
100
AcDbEntity
  8
DEFPOINTS
  6
CONTINUOUS
 62
         0
100
AcDbPoint
 10
1676.2621122123
 20
-39.8542714442
 30
0.0
  0
POINT
  5
583
100
AcDbEntity
  8
DEFPOINTS
  6
CONTINUOUS
 62
         0
100
AcDbPoint
 10
1668.7800683624
 20
-39.8542714442
 30
0.0
  0
POINT
  5
584
100
AcDbEntity
  8
DEFPOINTS
  6
CONTINUOUS
 62
         0
100
AcDbPoint
 10
1668.7800683624
 20
-65.7542714442
 30
0.0
  0
LINE
  5
585
100
AcDbEntity
  8
L1_170
  6
CONTINUOUS
 62
         4
100
AcDbLine
 10
1670.1300683624
 20
-39.8542714442
 30
0.0
 11
1676.9371122123
 21
-39.8542714442
 31
0.0
  0
LINE
  5
586
100
AcDbEntity
  8
L1_170
  6
CONTINUOUS
 62
         4
100
AcDbLine
 10
1670.1300683624
 20
-65.7542714442
 30
0.0
 11
1676.9371122123
 21
-65.7542714442
 31
0.0
  0
LINE
  5
587
100
AcDbEntity
  8
L1_170
  6
CONTINUOUS
 62
         4
100
AcDbLine
 10
1676.2621122123
 20
-39.8542714442
 30
0.0
 11
1676.2621122123
 21
-65.7542714442
 31
0.0
  0
SOLID
  5
588
100
AcDbEntity
  8
L1_170
  6
CONTINUOUS
 62
         4
100
AcDbTrace
 10
1676.2621122123
 20
-39.8542714442
 30
0.0
 11
1676.6671122123
 21
-42.5542714442
 31
0.0
 12
1675.8571122123
 22
-42.5542714442
 32
0.0
 13
1676.2621122123
 23
-39.8542714442
 33
0.0
  0
SOLID
  5
589
100
AcDbEntity
  8
L1_170
  6
CONTINUOUS
 62
         4
100
AcDbTrace
 10
1676.2621122123
 20
-65.7542714442
 30
0.0
 11
1675.8571122123
 21
-63.0542714442
 31
0.0
 12
1676.6671122123
 22
-63.0542714442
 32
0.0
 13
1676.2621122123
 23
-65.7542714442
 33
0.0
  0
TEXT
  5
58B
100
AcDbEntity
  8
L1_170
  6
CONTINUOUS
 62
         4
100
AcDbText
 10
1674.2371122123
 20
-58.2042714442
 30
0.0
 40
2.7
  1
崷26
 50
90.0
  7
BOX
100
AcDbText
  0
ENDBLK
  5
58C
100
AcDbEntity
  8
0
  6
CONTINUOUS
100
AcDbBlockEnd
  0
BLOCK
  5
58E
100
AcDbEntity
  8
0
100
AcDbBlockBegin
  2
*D19
 70
        65
 10
0.0
 20
0.0
 30
0.0
  3
*D19
  1

  0
POINT
  5
590
100
AcDbEntity
  8
DEFPOINTS
  6
CONTINUOUS
 62
         0
100
AcDbPoint
 10
1667.5800683624
 20
-34.4089700229
 30
0.0
  0
POINT
  5
591
100
AcDbEntity
  8
DEFPOINTS
  6
CONTINUOUS
 62
         0
100
AcDbPoint
 10
1667.5800683624
 20
-39.8542714442
 30
0.0
  0
POINT
  5
592
100
AcDbEntity
  8
DEFPOINTS
  6
CONTINUOUS
 62
         0
100
AcDbPoint
 10
1668.7800683624
 20
-39.8542714442
 30
0.0
  0
LINE
  5
593
100
AcDbEntity
  8
L1_170
  6
CONTINUOUS
 62
         4
100
AcDbLine
 10
1667.5800683624
 20
-38.5042714442
 30
0.0
 11
1667.5800683624
 21
-33.7339700229
 31
0.0
  0
LINE
  5
594
100
AcDbEntity
  8
L1_170
  6
CONTINUOUS
 62
         4
100
AcDbLine
 10
1668.7800683624
 20
-38.5042714442
 30
0.0
 11
1668.7800683624
 21
-33.7339700229
 31
0.0
  0
LINE
  5
595
100
AcDbEntity
  8
L1_170
  6
CONTINUOUS
 62
         4
100
AcDbLine
 10
1667.5800683624
 20
-34.4089700229
 30
0.0
 11
1668.7800683624
 21
-34.4089700229
 31
0.0
  0
SOLID
  5
596
100
AcDbEntity
  8
L1_170
  6
CONTINUOUS
 62
         4
100
AcDbTrace
 10
1667.5800683624
 20
-34.4089700229
 30
0.0
 11
1670.2800683624
 21
-34.0039700229
 31
0.0
 12
1670.2800683624
 22
-34.8139700229
 32
0.0
 13
1667.5800683624
 23
-34.4089700229
 33
0.0
  0
SOLID
  5
597
100
AcDbEntity
  8
L1_170
  6
CONTINUOUS
 62
         4
100
AcDbTrace
 10
1668.7800683624
 20
-34.4089700229
 30
0.0
 11
1666.0800683624
 21
-34.8139700229
 31
0.0
 12
1666.0800683624
 22
-34.0039700229
 32
0.0
 13
1668.7800683624
 23
-34.4089700229
 33
0.0
  0
TEXT
  5
599
100
AcDbEntity
  8
L1_170
  6
CONTINUOUS
 62
         4
100
AcDbText
 10
1664.1300683624
 20
-32.3839700229
 30
0.0
 40
2.7
  1
1.2
  7
BOX
100
AcDbText
  0
ENDBLK
  5
59A
100
AcDbEntity
  8
0
  6
CONTINUOUS
100
AcDbBlockEnd
  0
BLOCK
  5
5A0
100
AcDbEntity
  8
0
100
AcDbBlockBegin
  2
*D20
 70
        65
 10
0.0
 20
0.0
 30
0.0
  3
*D20
  1

  0
POINT
  5
5A2
100
AcDbEntity
  8
DEFPOINTS
  6
CONTINUOUS
 62
         0
100
AcDbPoint
 10
1753.8316981954
 20
-52.8042714442
 30
0.0
  0
POINT
  5
5A3
100
AcDbEntity
  8
DEFPOINTS
  6
CONTINUOUS
 62
         0
100
AcDbPoint
 10
1755.5773035299
 20
-50.1521992325
 30
0.0
  0
LINE
  5
5A4
100
AcDbEntity
  8
L1_170
  6
CONTINUOUS
 62
         4
100
AcDbLine
 10
1755.5773035299
 20
-50.1521992325
 30
0.0
 11
1753.8316981954
 21
-52.8042714442
 31
0.0
  0
LINE
  5
5A5
100
AcDbEntity
  8
L1_170
  6
CONTINUOUS
 62
         4
100
AcDbLine
 10
1755.5773035299
 20
-50.1521992325
 30
0.0
 11
1768.6617803022
 21
-30.2731483558
 31
0.0
  0
SOLID
  5
5A6
100
AcDbEntity
  8
L1_170
  6
CONTINUOUS
 62
         4
100
AcDbTrace
 10
1755.5773035299
 20
-50.1521992325
 30
0.0
 11
1754.4311475748
 21
-52.6301725025
 31
0.0
 12
1753.754555924
 22
-52.1848369683
 32
0.0
 13
1755.5773035299
 23
-50.1521992325
 33
0.0
  0
TEXT
  5
5A8
100
AcDbEntity
  8
L1_170
  6
CONTINUOUS
 62
         4
100
AcDbText
 10
1758.2193768334
 20
-43.7353708018
 30
0.0
 40
2.7
  1
R3.175
 50
56.6469156004
  7
BOX
100
AcDbText
  0
ENDBLK
  5
5A9
100
AcDbEntity
  8
0
  6
CONTINUOUS
100
AcDbBlockEnd
  0
BLOCK
  5
5AB
100
AcDbEntity
  8
0
100
AcDbBlockBegin
  2
*D21
 70
        65
 10
0.0
 20
0.0
 30
0.0
  3
*D21
  1

  0
POINT
  5
5AD
100
AcDbEntity
  8
DEFPOINTS
  6
CONTINUOUS
 62
         0
100
AcDbPoint
 10
1778.8912181833
 20
-52.8042714442
 30
0.0
  0
POINT
  5
5AE
100
AcDbEntity
  8
DEFPOINTS
  6
CONTINUOUS
 62
         0
100
AcDbPoint
 10
1782.7721533815
 20
-50.0438822982
 30
0.0
  0
LINE
  5
5AF
100
AcDbEntity
  8
L1_170
  6
CONTINUOUS
 62
         4
100
AcDbLine
 10
1782.7721533815
 20
-50.0438822982
 30
0.0
 11
1778.8912181833
 21
-52.8042714442
 31
0.0
  0
LINE
  5
5B0
100
AcDbEntity
  8
L1_170
  6
CONTINUOUS
 62
         4
100
AcDbLine
 10
1782.7721533815
 20
-50.0438822982
 30
0.0
 11
1796.6297311829
 21
-40.1874159056
 31
0.0
  0
SOLID
  5
5B1
100
AcDbEntity
  8
L1_170
  6
CONTINUOUS
 62
         4
100
AcDbTrace
 10
1782.7721533815
 20
-50.0438822982
 30
0.0
 11
1780.8066799051
 21
-51.9388596105
 31
0.0
 12
1780.3371963968
 22
-51.2787950413
 32
0.0
 13
1782.7721533815
 23
-50.0438822982
 33
0.0
  0
TEXT
  5
5B3
100
AcDbEntity
  8
L1_170
  6
CONTINUOUS
 62
         4
100
AcDbText
 10
1781.897466937
 20
-49.078788885
 30
0.0
 40
2.7
  1
R4.763
 50
35.4230654292
  7
BOX
100
AcDbText
  0
ENDBLK
  5
5B4
100
AcDbEntity
  8
0
  6
CONTINUOUS
100
AcDbBlockEnd
  0
BLOCK
  5
5B9
100
AcDbEntity
  8
0
100
AcDbBlockBegin
  2
*D22
 70
        65
 10
0.0
 20
0.0
 30
0.0
  3
*D22
  1

  0
POINT
  5
5BB
100
AcDbEntity
  8
DEFPOINTS
  6
CONTINUOUS
 62
         0
100
AcDbPoint
 10
1548.0033403763
 20
209.6967803752
 30
0.0
  0
POINT
  5
5BC
100
AcDbEntity
  8
DEFPOINTS
  6
CONTINUOUS
 62
         0
100
AcDbPoint
 10
1548.0033403763
 20
174.5691716756
 30
0.0
  0
POINT
  5
5BD
100
AcDbEntity
  8
DEFPOINTS
  6
CONTINUOUS
 62
         0
100
AcDbPoint
 10
1497.0033403763
 20
180.6846417294
 30
0.0
  0
LINE
  5
5BE
100
AcDbEntity
  8
L1_170
  6
CONTINUOUS
 62
         4
100
AcDbLine
 10
1548.0033403763
 20
175.9191716756
 30
0.0
 11
1548.0033403763
 21
210.3717803752
 31
0.0
  0
LINE
  5
5BF
100
AcDbEntity
  8
L1_170
  6
CONTINUOUS
 62
         4
100
AcDbLine
 10
1497.0033403763
 20
182.0346417294
 30
0.0
 11
1497.0033403763
 21
210.3717803752
 31
0.0
  0
LINE
  5
5C0
100
AcDbEntity
  8
L1_170
  6
CONTINUOUS
 62
         4
100
AcDbLine
 10
1548.0033403763
 20
209.6967803752
 30
0.0
 11
1497.0033403763
 21
209.6967803752
 31
0.0
  0
SOLID
  5
5C1
100
AcDbEntity
  8
L1_170
  6
CONTINUOUS
 62
         4
100
AcDbTrace
 10
1548.0033403763
 20
209.6967803752
 30
0.0
 11
1545.3033403763
 21
209.2917803752
 31
0.0
 12
1545.3033403763
 22
210.1017803752
 32
0.0
 13
1548.0033403763
 23
209.6967803752
 33
0.0
  0
SOLID
  5
5C2
100
AcDbEntity
  8
L1_170
  6
CONTINUOUS
 62
         4
100
AcDbTrace
 10
1497.0033403763
 20
209.6967803752
 30
0.0
 11
1499.7033403763
 21
210.1017803752
 31
0.0
 12
1499.7033403763
 22
209.2917803752
 32
0.0
 13
1497.0033403763
 23
209.6967803752
 33
0.0
  0
TEXT
  5
5C4
100
AcDbEntity
  8
L1_170
  6
CONTINUOUS
 62
         4
100
AcDbText
 10
1514.1619987403
 20
212.8287803752
 30
0.0
 40
2.7
  1
51
  7
BOX
100
AcDbText
  0
ENDBLK
  5
5C5
100
AcDbEntity
  8
0
  6
CONTINUOUS
100
AcDbBlockEnd
  0
BLOCK
  5
5C7
100
AcDbEntity
  8
0
100
AcDbBlockBegin
  2
*D23
 70
        65
 10
0.0
 20
0.0
 30
0.0
  3
*D23
  1

  0
POINT
  5
5C9
100
AcDbEntity
  8
DEFPOINTS
  6
CONTINUOUS
 62
         0
100
AcDbPoint
 10
1548.0033403763
 20
200.1269903782
 30
0.0
  0
POINT
  5
5CA
100
AcDbEntity
  8
DEFPOINTS
  6
CONTINUOUS
 62
         0
100
AcDbPoint
 10
1548.0033403763
 20
174.5691716756
 30
0.0
  0
POINT
  5
5CB
100
AcDbEntity
  8
DEFPOINTS
  6
CONTINUOUS
 62
         0
100
AcDbPoint
 10
1537.0033403763
 20
179.1846417294
 30
0.0
  0
LINE
  5
5CC
100
AcDbEntity
  8
L1_170
  6
CONTINUOUS
 62
         4
100
AcDbLine
 10
1548.0033403763
 20
175.9191716756
 30
0.0
 11
1548.0033403763
 21
200.8019903782
 31
0.0
  0
LINE
  5
5CD
100
AcDbEntity
  8
L1_170
  6
CONTINUOUS
 62
         4
100
AcDbLine
 10
1537.0033403763
 20
180.5346417294
 30
0.0
 11
1537.0033403763
 21
200.8019903782
 31
0.0
  0
LINE
  5
5CE
100
AcDbEntity
  8
L1_170
  6
CONTINUOUS
 62
         4
100
AcDbLine
 10
1548.0033403763
 20
200.1269903782
 30
0.0
 11
1537.0033403763
 21
200.1269903782
 31
0.0
  0
SOLID
  5
5CF
100
AcDbEntity
  8
L1_170
  6
CONTINUOUS
 62
         4
100
AcDbTrace
 10
1548.0033403763
 20
200.1269903782
 30
0.0
 11
1545.3033403763
 21
199.7219903782
 31
0.0
 12
1545.3033403763
 22
200.5319903782
 32
0.0
 13
1548.0033403763
 23
200.1269903782
 33
0.0
  0
LINE
  5
5D0
100
AcDbEntity
  8
L1_170
  6
CONTINUOUS
 62
         4
100
AcDbLine
 10
1537.0033403763
 20
200.1269903782
 30
0.0
 11
1531.643585493
 21
200.1269903782
 31
0.0
  0
SOLID
  5
5D1
100
AcDbEntity
  8
L1_170
  6
CONTINUOUS
 62
         4
100
AcDbTrace
 10
1537.0033403763
 20
200.1269903782
 30
0.0
 11
1539.7033403763
 21
200.5319903782
 31
0.0
 12
1539.7033403763
 22
199.7219903782
 32
0.0
 13
1537.0033403763
 23
200.1269903782
 33
0.0
  0
TEXT
  5
5D3
100
AcDbEntity
  8
L1_170
  6
CONTINUOUS
 62
         4
100
AcDbText
 10
1532.993585493
 20
203.2589903782
 30
0.0
 40
2.7
  1
11
  7
BOX
100
AcDbText
  0
ENDBLK
  5
5D4
100
AcDbEntity
  8
0
  6
CONTINUOUS
100
AcDbBlockEnd
  0
BLOCK
  5
5D6
100
AcDbEntity
  8
0
100
AcDbBlockBegin
  2
*D24
 70
        65
 10
0.0
 20
0.0
 30
0.0
  3
*D24
  1

  0
POINT
  5
5D8
100
AcDbEntity
  8
DEFPOINTS
  6
CONTINUOUS
 62
         0
100
AcDbPoint
 10
1537.0033403763
 20
193.3621388287
 30
0.0
  0
POINT
  5
5D9
100
AcDbEntity
  8
DEFPOINTS
  6
CONTINUOUS
 62
         0
100
AcDbPoint
 10
1537.0033403763
 20
179.1846417294
 30
0.0
  0
POINT
  5
5DA
100
AcDbEntity
  8
DEFPOINTS
  6
CONTINUOUS
 62
         0
100
AcDbPoint
 10
1539.0033403763
 20
179.1846417294
 30
0.0
  0
LINE
  5
5DB
100
AcDbEntity
  8
L1_170
  6
CONTINUOUS
 62
         4
100
AcDbLine
 10
1537.0033403763
 20
180.5346417294
 30
0.0
 11
1537.0033403763
 21
194.0371388287
 31
0.0
  0
LINE
  5
5DC
100
AcDbEntity
  8
L1_170
  6
CONTINUOUS
 62
         4
100
AcDbLine
 10
1539.0033403763
 20
180.5346417294
 30
0.0
 11
1539.0033403763
 21
194.0371388287
 31
0.0
  0
LINE
  5
5DD
100
AcDbEntity
  8
L1_170
  6
CONTINUOUS
 62
         4
100
AcDbLine
 10
1537.0033403763
 20
193.3621388287
 30
0.0
 11
1523.3137979098
 21
193.3621388287
 31
0.0
  0
SOLID
  5
5DE
100
AcDbEntity
  8
L1_170
  6
CONTINUOUS
 62
         4
100
AcDbTrace
 10
1537.0033403763
 20
193.3621388287
 30
0.0
 11
1534.3033403763
 21
192.9571388287
 31
0.0
 12
1534.3033403763
 22
193.7671388287
 32
0.0
 13
1537.0033403763
 23
193.3621388287
 33
0.0
  0
LINE
  5
5DF
100
AcDbEntity
  8
L1_170
  6
CONTINUOUS
 62
         4
100
AcDbLine
 10
1539.0033403763
 20
193.3621388287
 30
0.0
 11
1544.4033403763
 21
193.3621388287
 31
0.0
  0
SOLID
  5
5E0
100
AcDbEntity
  8
L1_170
  6
CONTINUOUS
 62
         4
100
AcDbTrace
 10
1539.0033403763
 20
193.3621388287
 30
0.0
 11
1541.7033403763
 21
193.7671388287
 31
0.0
 12
1541.7033403763
 22
192.9571388287
 32
0.0
 13
1539.0033403763
 23
193.3621388287
 33
0.0
  0
LINE
  5
5E1
100
AcDbEntity
  8
L1_170
  6
CONTINUOUS
 62
         4
100
AcDbLine
 10
1537.0033403763
 20
193.3621388287
 30
0.0
 11
1539.0033403763
 21
193.3621388287
 31
0.0
  0
TEXT
  5
5E3
100
AcDbEntity
  8
L1_170
  6
CONTINUOUS
 62
         4
100
AcDbText
 10
1524.6637979098
 20
196.4941388287
 30
0.0
 40
2.7
  1
2
  7
BOX
100
AcDbText
  0
ENDBLK
  5
5E4
100
AcDbEntity
  8
0
  6
CONTINUOUS
100
AcDbBlockEnd
  0
BLOCK
  5
5E6
100
AcDbEntity
  8
0
100
AcDbBlockBegin
  2
*D25
 70
        65
 10
0.0
 20
0.0
 30
0.0
  3
*D25
  1

  0
POINT
  5
5E8
100
AcDbEntity
  8
DEFPOINTS
  6
CONTINUOUS
 62
         0
100
AcDbPoint
 10
1571.4475469386
 20
178.1846417294
 30
0.0
  0
POINT
  5
5E9
100
AcDbEntity
  8
DEFPOINTS
  6
CONTINUOUS
 62
         0
100
AcDbPoint
 10
1539.0033403763
 20
178.1846417294
 30
0.0
  0
POINT
  5
5EA
100
AcDbEntity
  8
DEFPOINTS
  6
CONTINUOUS
 62
         0
100
AcDbPoint
 10
1539.0033403763
 20
122.1846417294
 30
0.0
  0
LINE
  5
5EB
100
AcDbEntity
  8
L1_170
  6
CONTINUOUS
 62
         4
100
AcDbLine
 10
1540.3533403763
 20
178.1846417294
 30
0.0
 11
1572.1225469386
 21
178.1846417294
 31
0.0
  0
LINE
  5
5EC
100
AcDbEntity
  8
L1_170
  6
CONTINUOUS
 62
         4
100
AcDbLine
 10
1540.3533403763
 20
122.1846417294
 30
0.0
 11
1572.1225469386
 21
122.1846417294
 31
0.0
  0
LINE
  5
5ED
100
AcDbEntity
  8
L1_170
  6
CONTINUOUS
 62
         4
100
AcDbLine
 10
1571.4475469386
 20
178.1846417294
 30
0.0
 11
1571.4475469386
 21
122.1846417294
 31
0.0
  0
SOLID
  5
5EE
100
AcDbEntity
  8
L1_170
  6
CONTINUOUS
 62
         4
100
AcDbTrace
 10
1571.4475469386
 20
178.1846417294
 30
0.0
 11
1571.8525469386
 21
175.4846417294
 31
0.0
 12
1571.0425469386
 22
175.4846417294
 32
0.0
 13
1571.4475469386
 23
178.1846417294
 33
0.0
  0
SOLID
  5
5EF
100
AcDbEntity
  8
L1_170
  6
CONTINUOUS
 62
         4
100
AcDbTrace
 10
1571.4475469386
 20
122.1846417294
 30
0.0
 11
1571.0425469386
 21
124.8846417294
 31
0.0
 12
1571.8525469386
 22
124.8846417294
 32
0.0
 13
1571.4475469386
 23
122.1846417294
 33
0.0
  0
TEXT
  5
5F1
100
AcDbEntity
  8
L1_170
  6
CONTINUOUS
 62
         4
100
AcDbText
 10
1568.3155469386
 20
140.6759742922
 30
0.0
 40
2.7
  1
崷56
 50
90.0
  7
BOX
100
AcDbText
  0
ENDBLK
  5
5F2
100
AcDbEntity
  8
0
  6
CONTINUOUS
100
AcDbBlockEnd
  0
BLOCK
  5
5F4
100
AcDbEntity
  8
0
100
AcDbBlockBegin
  2
*D26
 70
        65
 10
0.0
 20
0.0
 30
0.0
  3
*D26
  1

  0
POINT
  5
5F6
100
AcDbEntity
  8
DEFPOINTS
  6
CONTINUOUS
 62
         0
100
AcDbPoint
 10
1579.3169601704
 20
179.1846417294
 30
0.0
  0
POINT
  5
5F7
100
AcDbEntity
  8
DEFPOINTS
  6
CONTINUOUS
 62
         0
100
AcDbPoint
 10
1539.5432133573
 20
179.1846417294
 30
0.0
  0
POINT
  5
5F8
100
AcDbEntity
  8
DEFPOINTS
  6
CONTINUOUS
 62
         0
100
AcDbPoint
 10
1539.0033403763
 20
121.1846417294
 30
0.0
  0
LINE
  5
5F9
100
AcDbEntity
  8
L1_170
  6
CONTINUOUS
 62
         4
100
AcDbLine
 10
1540.8932133573
 20
179.1846417294
 30
0.0
 11
1579.9919601704
 21
179.1846417294
 31
0.0
  0
LINE
  5
5FA
100
AcDbEntity
  8
L1_170
  6
CONTINUOUS
 62
         4
100
AcDbLine
 10
1540.3533403763
 20
121.1846417294
 30
0.0
 11
1579.9919601704
 21
121.1846417294
 31
0.0
  0
LINE
  5
5FB
100
AcDbEntity
  8
L1_170
  6
CONTINUOUS
 62
         4
100
AcDbLine
 10
1579.3169601704
 20
179.1846417294
 30
0.0
 11
1579.3169601704
 21
121.1846417294
 31
0.0
  0
SOLID
  5
5FC
100
AcDbEntity
  8
L1_170
  6
CONTINUOUS
 62
         4
100
AcDbTrace
 10
1579.3169601704
 20
179.1846417294
 30
0.0
 11
1579.7219601704
 21
176.4846417294
 31
0.0
 12
1578.9119601704
 22
176.4846417294
 32
0.0
 13
1579.3169601704
 23
179.1846417294
 33
0.0
  0
SOLID
  5
5FD
100
AcDbEntity
  8
L1_170
  6
CONTINUOUS
 62
         4
100
AcDbTrace
 10
1579.3169601704
 20
121.1846417294
 30
0.0
 11
1578.9119601704
 21
123.8846417294
 31
0.0
 12
1579.7219601704
 22
123.8846417294
 32
0.0
 13
1579.3169601704
 23
121.1846417294
 33
0.0
  0
TEXT
  5
5FF
100
AcDbEntity
  8
L1_170
  6
CONTINUOUS
 62
         4
100
AcDbText
 10
1576.1849601704
 20
145.7117283484
 30
0.0
 40
2.7
  1
崷58
 50
90.0
  7
BOX
100
AcDbText
  0
ENDBLK
  5
600
100
AcDbEntity
  8
0
  6
CONTINUOUS
100
AcDbBlockEnd
  0
BLOCK
  5
602
100
AcDbEntity
  8
0
100
AcDbBlockBegin
  2
*D27
 70
        65
 10
0.0
 20
0.0
 30
0.0
  3
*D27
  1

  0
POINT
  5
604
100
AcDbEntity
  8
DEFPOINTS
  6
CONTINUOUS
 62
         0
100
AcDbPoint
 10
1517.9444081025
 20
155.1346417294
 30
0.0
  0
POINT
  5
605
100
AcDbEntity
  8
DEFPOINTS
  6
CONTINUOUS
 62
         0
100
AcDbPoint
 10
1508.9083403763
 20
155.1346417294
 30
0.0
  0
POINT
  5
606
100
AcDbEntity
  8
DEFPOINTS
  6
CONTINUOUS
 62
         0
100
AcDbPoint
 10
1508.9083403763
 20
145.2346417294
 30
0.0
  0
LINE
  5
607
100
AcDbEntity
  8
L1_170
  6
CONTINUOUS
 62
         4
100
AcDbLine
 10
1510.2583403763
 20
155.1346417294
 30
0.0
 11
1518.6194081025
 21
155.1346417294
 31
0.0
  0
LINE
  5
608
100
AcDbEntity
  8
L1_170
  6
CONTINUOUS
 62
         4
100
AcDbLine
 10
1510.2583403763
 20
145.2346417294
 30
0.0
 11
1518.6194081025
 21
145.2346417294
 31
0.0
  0
LINE
  5
609
100
AcDbEntity
  8
L1_170
  6
CONTINUOUS
 62
         4
100
AcDbLine
 10
1517.9444081025
 20
155.1346417294
 30
0.0
 11
1517.9444081025
 21
145.2346417294
 31
0.0
  0
SOLID
  5
60A
100
AcDbEntity
  8
L1_170
  6
CONTINUOUS
 62
         4
100
AcDbTrace
 10
1517.9444081025
 20
155.1346417294
 30
0.0
 11
1518.3494081025
 21
152.4346417294
 31
0.0
 12
1517.5394081025
 22
152.4346417294
 32
0.0
 13
1517.9444081025
 23
155.1346417294
 33
0.0
  0
LINE
  5
60B
100
AcDbEntity
  8
L1_170
  6
CONTINUOUS
 62
         4
100
AcDbLine
 10
1517.9444081025
 20
155.1346417294
 30
0.0
 11
1517.9444081025
 21
171.1263018463
 31
0.0
  0
SOLID
  5
60C
100
AcDbEntity
  8
L1_170
  6
CONTINUOUS
 62
         4
100
AcDbTrace
 10
1517.9444081025
 20
145.2346417294
 30
0.0
 11
1517.5394081025
 21
147.9346417294
 31
0.0
 12
1518.3494081025
 22
147.9346417294
 32
0.0
 13
1517.9444081025
 23
145.2346417294
 33
0.0
  0
TEXT
  5
60E
100
AcDbEntity
  8
L1_170
  6
CONTINUOUS
 62
         4
100
AcDbText
 10
1514.8124081025
 20
158.0763018463
 30
0.0
 40
2.7
  1
9.55
 50
90.0
  7
BOX
100
AcDbText
  0
ENDBLK
  5
60F
100
AcDbEntity
  8
0
  6
CONTINUOUS
100
AcDbBlockEnd
  0
BLOCK
  5
611
100
AcDbEntity
  8
0
100
AcDbBlockBegin
  2
*D28
 70
        65
 10
0.0
 20
0.0
 30
0.0
  3
*D28
  1

  0
POINT
  5
613
100
AcDbEntity
  8
DEFPOINTS
  6
CONTINUOUS
 62
         0
100
AcDbPoint
 10
1526.9983403763
 20
110.4110370841
 30
0.0
  0
POINT
  5
614
100
AcDbEntity
  8
DEFPOINTS
  6
CONTINUOUS
 62
         0
100
AcDbPoint
 10
1526.9983403763
 20
142.3499119521
 30
0.0
  0
POINT
  5
615
100
AcDbEntity
  8
DEFPOINTS
  6
CONTINUOUS
 62
         0
100
AcDbPoint
 10
1548.0033403763
 20
125.8001117832
 30
0.0
  0
LINE
  5
616
100
AcDbEntity
  8
L1_170
  6
CONTINUOUS
 62
         4
100
AcDbLine
 10
1526.9983403763
 20
140.9999119521
 30
0.0
 11
1526.9983403763
 21
109.7360370841
 31
0.0
  0
LINE
  5
617
100
AcDbEntity
  8
L1_170
  6
CONTINUOUS
 62
         4
100
AcDbLine
 10
1548.0033403763
 20
124.4501117832
 30
0.0
 11
1548.0033403763
 21
109.7360370841
 31
0.0
  0
LINE
  5
618
100
AcDbEntity
  8
L1_170
  6
CONTINUOUS
 62
         4
100
AcDbLine
 10
1526.9983403763
 20
110.4110370841
 30
0.0
 11
1548.0033403763
 21
110.4110370841
 31
0.0
  0
SOLID
  5
619
100
AcDbEntity
  8
L1_170
  6
CONTINUOUS
 62
         4
100
AcDbTrace
 10
1526.9983403763
 20
110.4110370841
 30
0.0
 11
1529.6983403763
 21
110.8160370841
 31
0.0
 12
1529.6983403763
 22
110.0060370841
 32
0.0
 13
1526.9983403763
 23
110.4110370841
 33
0.0
  0
SOLID
  5
61A
100
AcDbEntity
  8
L1_170
  6
CONTINUOUS
 62
         4
100
AcDbTrace
 10
1548.0033403763
 20
110.4110370841
 30
0.0
 11
1545.3033403763
 21
110.0060370841
 31
0.0
 12
1545.3033403763
 22
110.8160370841
 32
0.0
 13
1548.0033403763
 23
110.4110370841
 33
0.0
  0
TEXT
  5
61C
100
AcDbEntity
  8
L1_170
  6
CONTINUOUS
 62
         4
100
AcDbText
 10
1530.7223564215
 20
113.5430370841
 30
0.0
 40
2.7
  1
21
  7
BOX
100
AcDbText
  0
ENDBLK
  5
61D
100
AcDbEntity
  8
0
  6
CONTINUOUS
100
AcDbBlockEnd
  0
BLOCK
  5
61F
100
AcDbEntity
  8
0
100
AcDbBlockBegin
  2
*D29
 70
        65
 10
0.0
 20
0.0
 30
0.0
  3
*D29
  1

  0
POINT
  5
621
100
AcDbEntity
  8
DEFPOINTS
  6
CONTINUOUS
 62
         0
100
AcDbPoint
 10
1548.0033403763
 20
100.5306055178
 30
0.0
  0
POINT
  5
622
100
AcDbEntity
  8
DEFPOINTS
  6
CONTINUOUS
 62
         0
100
AcDbPoint
 10
1548.0033403763
 20
125.8001117832
 30
0.0
  0
POINT
  5
623
100
AcDbEntity
  8
DEFPOINTS
  6
CONTINUOUS
 62
         0
100
AcDbPoint
 10
1508.9083403763
 20
142.3499119489
 30
0.0
  0
LINE
  5
624
100
AcDbEntity
  8
L1_170
  6
CONTINUOUS
 62
         4
100
AcDbLine
 10
1548.0033403763
 20
124.4501117832
 30
0.0
 11
1548.0033403763
 21
99.8556055178
 31
0.0
  0
LINE
  5
625
100
AcDbEntity
  8
L1_170
  6
CONTINUOUS
 62
         4
100
AcDbLine
 10
1508.9083403763
 20
140.9999119489
 30
0.0
 11
1508.9083403763
 21
99.8556055178
 31
0.0
  0
LINE
  5
626
100
AcDbEntity
  8
L1_170
  6
CONTINUOUS
 62
         4
100
AcDbLine
 10
1548.0033403763
 20
100.5306055178
 30
0.0
 11
1508.9083403763
 21
100.5306055178
 31
0.0
  0
SOLID
  5
627
100
AcDbEntity
  8
L1_170
  6
CONTINUOUS
 62
         4
100
AcDbTrace
 10
1548.0033403763
 20
100.5306055178
 30
0.0
 11
1545.3033403763
 21
100.1256055178
 31
0.0
 12
1545.3033403763
 22
100.9356055178
 32
0.0
 13
1548.0033403763
 23
100.5306055178
 33
0.0
  0
SOLID
  5
628
100
AcDbEntity
  8
L1_170
  6
CONTINUOUS
 62
         4
100
AcDbTrace
 10
1508.9083403763
 20
100.5306055178
 30
0.0
 11
1511.6083403763
 21
100.9356055178
 31
0.0
 12
1511.6083403763
 22
100.1256055178
 32
0.0
 13
1508.9083403763
 23
100.5306055178
 33
0.0
  0
TEXT
  5
62A
100
AcDbEntity
  8
L1_170
  6
CONTINUOUS
 62
         4
100
AcDbText
 10
1519.1473021024
 20
103.6626055178
 30
0.0
 40
2.7
  1
39.1
  7
BOX
100
AcDbText
  0
ENDBLK
  5
62B
100
AcDbEntity
  8
0
  6
CONTINUOUS
100
AcDbBlockEnd
  0
BLOCK
  5
62D
100
AcDbEntity
  8
0
100
AcDbBlockBegin
  2
*D30
 70
        65
 10
0.0
 20
0.0
 30
0.0
  3
*D30
  1

  0
POINT
  5
62F
100
AcDbEntity
  8
DEFPOINTS
  6
CONTINUOUS
 62
         0
100
AcDbPoint
 10
1503.9583403763
 20
22.5276946084
 30
0.0
  0
POINT
  5
630
100
AcDbEntity
  8
DEFPOINTS
  6
CONTINUOUS
 62
         0
100
AcDbPoint
 10
1503.9583403763
 20
16.0566652593
 30
0.0
  0
POINT
  5
631
100
AcDbEntity
  8
DEFPOINTS
  6
CONTINUOUS
 62
         0
100
AcDbPoint
 10
1531.9483403763
 20
16.0566652593
 30
0.0
  0
LINE
  5
632
100
AcDbEntity
  8
L1_170
  6
CONTINUOUS
 62
         4
100
AcDbLine
 10
1503.9583403763
 20
17.4066652593
 30
0.0
 11
1503.9583403763
 21
23.2026946084
 31
0.0
  0
LINE
  5
633
100
AcDbEntity
  8
L1_170
  6
CONTINUOUS
 62
         4
100
AcDbLine
 10
1531.9483403763
 20
17.4066652593
 30
0.0
 11
1531.9483403763
 21
23.2026946084
 31
0.0
  0
LINE
  5
634
100
AcDbEntity
  8
L1_170
  6
CONTINUOUS
 62
         4
100
AcDbLine
 10
1503.9583403763
 20
22.5276946084
 30
0.0
 11
1531.9483403763
 21
22.5276946084
 31
0.0
  0
SOLID
  5
635
100
AcDbEntity
  8
L1_170
  6
CONTINUOUS
 62
         4
100
AcDbTrace
 10
1503.9583403763
 20
22.5276946084
 30
0.0
 11
1506.6583403763
 21
22.9326946084
 31
0.0
 12
1506.6583403763
 22
22.1226946084
 32
0.0
 13
1503.9583403763
 23
22.5276946084
 33
0.0
  0
SOLID
  5
636
100
AcDbEntity
  8
L1_170
  6
CONTINUOUS
 62
         4
100
AcDbTrace
 10
1531.9483403763
 20
22.5276946084
 30
0.0
 11
1529.2483403763
 21
22.1226946084
 31
0.0
 12
1529.2483403763
 22
22.9326946084
 32
0.0
 13
1531.9483403763
 23
22.5276946084
 33
0.0
  0
TEXT
  5
638
100
AcDbEntity
  8
L1_170
  6
CONTINUOUS
 62
         4
100
AcDbText
 10
1512.3283403763
 20
25.6596946084
 30
0.0
 40
2.7
  1
27.7
  7
BOX
100
AcDbText
  0
ENDBLK
  5
639
100
AcDbEntity
  8
0
  6
CONTINUOUS
100
AcDbBlockEnd
  0
BLOCK
  5
63B
100
AcDbEntity
  8
0
100
AcDbBlockBegin
  2
*D31
 70
        65
 10
0.0
 20
0.0
 30
0.0
  3
*D31
  1

  0
POINT
  5
63D
100
AcDbEntity
  8
DEFPOINTS
  6
CONTINUOUS
 62
         0
100
AcDbPoint
 10
1495.0057015658
 20
-65.1330663351
 30
0.0
  0
POINT
  5
63E
100
AcDbEntity
  8
DEFPOINTS
  6
CONTINUOUS
 62
         0
100
AcDbPoint
 10
1495.0057015658
 20
-37.4433347407
 30
0.0
  0
POINT
  5
63F
100
AcDbEntity
  8
DEFPOINTS
  6
CONTINUOUS
 62
         0
100
AcDbPoint
 10
1548.0033403763
 20
-37.7886342023
 30
0.0
  0
LINE
  5
640
100
AcDbEntity
  8
L1_170
  6
CONTINUOUS
 62
         4
100
AcDbLine
 10
1495.0057015658
 20
-38.7933347407
 30
0.0
 11
1495.0057015658
 21
-65.8080663351
 31
0.0
  0
LINE
  5
641
100
AcDbEntity
  8
L1_170
  6
CONTINUOUS
 62
         4
100
AcDbLine
 10
1548.0033403763
 20
-39.1386342023
 30
0.0
 11
1548.0033403763
 21
-65.8080663351
 31
0.0
  0
LINE
  5
642
100
AcDbEntity
  8
L1_170
  6
CONTINUOUS
 62
         4
100
AcDbLine
 10
1495.0057015658
 20
-65.1330663351
 30
0.0
 11
1548.0033403763
 21
-65.1330663351
 31
0.0
  0
SOLID
  5
643
100
AcDbEntity
  8
L1_170
  6
CONTINUOUS
 62
         4
100
AcDbTrace
 10
1495.0057015658
 20
-65.1330663351
 30
0.0
 11
1497.7057015658
 21
-64.7280663351
 31
0.0
 12
1497.7057015658
 22
-65.5380663351
 32
0.0
 13
1495.0057015658
 23
-65.1330663351
 33
0.0
  0
SOLID
  5
644
100
AcDbEntity
  8
L1_170
  6
CONTINUOUS
 62
         4
100
AcDbTrace
 10
1548.0033403763
 20
-65.1330663351
 30
0.0
 11
1545.3033403763
 21
-65.5380663351
 31
0.0
 12
1545.3033403763
 22
-64.7280663351
 32
0.0
 13
1548.0033403763
 23
-65.1330663351
 33
0.0
  0
TEXT
  5
646
100
AcDbEntity
  8
L1_170
  6
CONTINUOUS
 62
         4
100
AcDbText
 10
1513.9371253698
 20
-62.0010663351
 30
0.0
 40
2.7
  1
53
  7
BOX
100
AcDbText
  0
ENDBLK
  5
647
100
AcDbEntity
  8
0
  6
CONTINUOUS
100
AcDbBlockEnd
  0
BLOCK
  5
649
100
AcDbEntity
  8
0
100
AcDbBlockBegin
  2
*D32
 70
        65
 10
0.0
 20
0.0
 30
0.0
  3
*D32
  1

  0
POINT
  5
64B
100
AcDbEntity
  8
DEFPOINTS
  6
CONTINUOUS
 62
         0
100
AcDbPoint
 10
1548.0033403763
 20
-74.4460773315
 30
0.0
  0
POINT
  5
64C
100
AcDbEntity
  8
DEFPOINTS
  6
CONTINUOUS
 62
         0
100
AcDbPoint
 10
1548.0033403763
 20
-37.3278646868
 30
0.0
  0
POINT
  5
64D
100
AcDbEntity
  8
DEFPOINTS
  6
CONTINUOUS
 62
         0
100
AcDbPoint
 10
1468.0033403763
 20
-30.9433347407
 30
0.0
  0
LINE
  5
64E
100
AcDbEntity
  8
L1_170
  6
CONTINUOUS
 62
         4
100
AcDbLine
 10
1548.0033403763
 20
-38.6778646868
 30
0.0
 11
1548.0033403763
 21
-75.1210773315
 31
0.0
  0
LINE
  5
64F
100
AcDbEntity
  8
L1_170
  6
CONTINUOUS
 62
         4
100
AcDbLine
 10
1468.0033403763
 20
-32.2933347407
 30
0.0
 11
1468.0033403763
 21
-75.1210773315
 31
0.0
  0
LINE
  5
650
100
AcDbEntity
  8
L1_170
  6
CONTINUOUS
 62
         4
100
AcDbLine
 10
1548.0033403763
 20
-74.4460773315
 30
0.0
 11
1468.0033403763
 21
-74.4460773315
 31
0.0
  0
SOLID
  5
651
100
AcDbEntity
  8
L1_170
  6
CONTINUOUS
 62
         4
100
AcDbTrace
 10
1548.0033403763
 20
-74.4460773315
 30
0.0
 11
1545.3033403763
 21
-74.8510773315
 31
0.0
 12
1545.3033403763
 22
-74.0410773315
 32
0.0
 13
1548.0033403763
 23
-74.4460773315
 33
0.0
  0
SOLID
  5
652
100
AcDbEntity
  8
L1_170
  6
CONTINUOUS
 62
         4
100
AcDbTrace
 10
1468.0033403763
 20
-74.4460773315
 30
0.0
 11
1470.7033403763
 21
-74.0410773315
 31
0.0
 12
1470.7033403763
 22
-74.8510773315
 32
0.0
 13
1468.0033403763
 23
-74.4460773315
 33
0.0
  0
TEXT
  5
654
100
AcDbEntity
  8
L1_170
  6
CONTINUOUS
 62
         4
100
AcDbText
 10
1500.8033919133
 20
-71.3140773315
 30
0.0
 40
2.7
  1
80
  7
BOX
100
AcDbText
  0
ENDBLK
  5
655
100
AcDbEntity
  8
0
  6
CONTINUOUS
100
AcDbBlockEnd
  0
BLOCK
  5
657
100
AcDbEntity
  8
0
100
AcDbBlockBegin
  2
*D33
 70
        65
 10
0.0
 20
0.0
 30
0.0
  3
*D33
  1

  0
POINT
  5
659
100
AcDbEntity
  8
DEFPOINTS
  6
CONTINUOUS
 62
         0
100
AcDbPoint
 10
1563.9390544535
 20
4.5566652593
 30
0.0
  0
POINT
  5
65A
100
AcDbEntity
  8
DEFPOINTS
  6
CONTINUOUS
 62
         0
100
AcDbPoint
 10
1494.0057015658
 20
4.5566652593
 30
0.0
  0
POINT
  5
65B
100
AcDbEntity
  8
DEFPOINTS
  6
CONTINUOUS
 62
         0
100
AcDbPoint
 10
1494.0057015658
 20
-30.4433347407
 30
0.0
  0
LINE
  5
65C
100
AcDbEntity
  8
L1_170
  6
CONTINUOUS
 62
         4
100
AcDbLine
 10
1495.3557015658
 20
4.5566652593
 30
0.0
 11
1564.6140544535
 21
4.5566652593
 31
0.0
  0
LINE
  5
65D
100
AcDbEntity
  8
L1_170
  6
CONTINUOUS
 62
         4
100
AcDbLine
 10
1495.3557015658
 20
-30.4433347407
 30
0.0
 11
1564.6140544535
 21
-30.4433347407
 31
0.0
  0
LINE
  5
65E
100
AcDbEntity
  8
L1_170
  6
CONTINUOUS
 62
         4
100
AcDbLine
 10
1563.9390544535
 20
4.5566652593
 30
0.0
 11
1563.9390544535
 21
-30.4433347407
 31
0.0
  0
SOLID
  5
65F
100
AcDbEntity
  8
L1_170
  6
CONTINUOUS
 62
         4
100
AcDbTrace
 10
1563.9390544535
 20
4.5566652593
 30
0.0
 11
1564.3440544535
 21
1.8566652593
 31
0.0
 12
1563.5340544535
 22
1.8566652593
 32
0.0
 13
1563.9390544535
 23
4.5566652593
 33
0.0
  0
SOLID
  5
660
100
AcDbEntity
  8
L1_170
  6
CONTINUOUS
 62
         4
100
AcDbTrace
 10
1563.9390544535
 20
-30.4433347407
 30
0.0
 11
1563.5340544535
 21
-27.7433347407
 31
0.0
 12
1564.3440544535
 22
-27.7433347407
 32
0.0
 13
1563.9390544535
 23
-30.4433347407
 33
0.0
  0
TEXT
  5
662
100
AcDbEntity
  8
L1_170
  6
CONTINUOUS
 62
         4
100
AcDbText
 10
1561.9140544535
 20
-19.8342330444
 30
0.0
 40
2.7
  1
崷35
 50
90.0
  7
BOX
100
AcDbText
  0
ENDBLK
  5
663
100
AcDbEntity
  8
0
  6
CONTINUOUS
100
AcDbBlockEnd
  0
BLOCK
  5
665
100
AcDbEntity
  8
0
100
AcDbBlockBegin
  2
*D34
 70
        65
 10
0.0
 20
0.0
 30
0.0
  3
*D34
  1

  0
POINT
  5
667
100
AcDbEntity
  8
DEFPOINTS
  6
CONTINUOUS
 62
         0
100
AcDbPoint
 10
1582.7871677832
 20
11.0566652593
 30
0.0
  0
POINT
  5
668
100
AcDbEntity
  8
DEFPOINTS
  6
CONTINUOUS
 62
         0
100
AcDbPoint
 10
1547.8033403763
 20
11.0566652593
 30
0.0
  0
POINT
  5
669
100
AcDbEntity
  8
DEFPOINTS
  6
CONTINUOUS
 62
         0
100
AcDbPoint
 10
1547.8033403763
 20
-36.9433347407
 30
0.0
  0
LINE
  5
66A
100
AcDbEntity
  8
L1_170
  6
CONTINUOUS
 62
         4
100
AcDbLine
 10
1549.1533403763
 20
11.0566652593
 30
0.0
 11
1583.4621677832
 21
11.0566652593
 31
0.0
  0
LINE
  5
66B
100
AcDbEntity
  8
L1_170
  6
CONTINUOUS
 62
         4
100
AcDbLine
 10
1549.1533403763
 20
-36.9433347407
 30
0.0
 11
1583.4621677832
 21
-36.9433347407
 31
0.0
  0
LINE
  5
66C
100
AcDbEntity
  8
L1_170
  6
CONTINUOUS
 62
         4
100
AcDbLine
 10
1582.7871677832
 20
11.0566652593
 30
0.0
 11
1582.7871677832
 21
-36.9433347407
 31
0.0
  0
SOLID
  5
66D
100
AcDbEntity
  8
L1_170
  6
CONTINUOUS
 62
         4
100
AcDbTrace
 10
1582.7871677832
 20
11.0566652593
 30
0.0
 11
1583.1921677832
 21
8.3566652593
 31
0.0
 12
1582.3821677832
 22
8.3566652593
 32
0.0
 13
1582.7871677832
 23
11.0566652593
 33
0.0
  0
SOLID
  5
66E
100
AcDbEntity
  8
L1_170
  6
CONTINUOUS
 62
         4
100
AcDbTrace
 10
1582.7871677832
 20
-36.9433347407
 30
0.0
 11
1582.3821677832
 21
-34.2433347407
 31
0.0
 12
1583.1921677832
 22
-34.2433347407
 32
0.0
 13
1582.7871677832
 23
-36.9433347407
 33
0.0
  0
TEXT
  5
670
100
AcDbEntity
  8
L1_170
  6
CONTINUOUS
 62
         4
100
AcDbText
 10
1580.7621677832
 20
-20.3134223664
 30
0.0
 40
2.7
  1
崷48
 50
90.0
  7
BOX
100
AcDbText
  0
ENDBLK
  5
671
100
AcDbEntity
  8
0
  6
CONTINUOUS
100
AcDbBlockEnd
  0
ENDSEC
  0
SECTION
  2
ENTITIES
  0
INSERT
  5
87
100
AcDbEntity
  8
0
  6
CONTINUOUS
100
AcDbBlockReference
  2
*X0
 10
0.0
 20
0.0
 30
0.0
  0
LINE
  5
88
100
AcDbEntity
  8
L1_170
  6
CONTINUOUS
 62
         7
100
AcDbLine
 10
1467.0033403763
 20
-15.4433347407
 30
0.0
 11
1468.0033403763
 21
-16.4433347407
 31
0.0
  0
LINE
  5
89
100
AcDbEntity
  8
L1_170
  6
CONTINUOUS
 62
         4
100
AcDbLine
 10
1467.0033403763
 20
-15.4433347407
 30
0.0
 11
1467.0033403763
 21
-10.4433347407
 31
0.0
  0
LINE
  5
8A
100
AcDbEntity
  8
L1_170
  6
CONTINUOUS
 62
         7
100
AcDbLine
 10
1468.0033403763
 20
-9.4433347407
 30
0.0
 11
1467.0033403763
 21
-10.4433347407
 31
0.0
  0
ARC
  5
8B
100
AcDbEntity
  8
L1_170
  6
CONTINUOUS
 62
         7
100
AcDbCircle
 10
1496.0057015658
 20
10.5566652593
 30
0.0
 40
1.0
100
AcDbArc
 50
90.0
 51
180.0
  0
ARC
  5
8C
100
AcDbEntity
  8
L1_170
  6
CONTINUOUS
 62
         7
100
AcDbCircle
 10
1496.0057015658
 20
-36.4433347407
 30
0.0
 40
1.0
100
AcDbArc
 50
180.0
 51
270.0
  0
ARC
  5
8D
100
AcDbEntity
  8
L1_170
  6
CONTINUOUS
 62
         7
100
AcDbCircle
 10
1469.0033403763
 20
-29.9433347407
 30
0.0
 40
1.0
100
AcDbArc
 50
180.0
 51
270.0
  0
ARC
  5
8E
100
AcDbEntity
  8
L1_170
  6
CONTINUOUS
 62
         7
100
AcDbCircle
 10
1469.0033403763
 20
4.0566652593
 30
0.0
 40
1.0
100
AcDbArc
 50
90.0
 51
180.0
  0
DIMENSION
  5
92
100
AcDbEntity
  8
L1_170
  6
CONTINUOUS
 62
         4
100
AcDbDimension
  2
*D1
 10
1548.0033403763
 20
-83.0427028667
 30
0.0
 11
1496.7031518394
 21
-79.9107028667
 31
0.0
  3
DIMSTYLE1
100
AcDbAlignedDimension
 13
1548.0033403763
 23
-38.9086807647
 33
0.0
 14
1450.0030155108
 24
-15.4433347407
 34
0.0
100
AcDbRotatedDimension
  0
LINE
  5
9F
100
AcDbEntity
  8
L1_170
  6
CONTINUOUS
 62
         7
100
AcDbLine
 10
1503.9583403763
 20
11.0566652593
 30
0.0
 11
1503.9583403763
 21
16.0566652593
 31
0.0
  0
LINE
  5
A0
100
AcDbEntity
  8
L1_170
  6
CONTINUOUS
 62
         7
100
AcDbLine
 10
1531.9483403763
 20
11.0566652593
 30
0.0
 11
1531.9483403763
 21
16.0566652593
 31
0.0
  0
ARC
  5
A1
100
AcDbEntity
  8
L1_170
  6
CONTINUOUS
 62
         7
100
AcDbCircle
 10
1526.9983403763
 20
150.1846417294
 30
0.0
 40
4.95
100
AcDbArc
 50
270.0
 51
450.0
  0
ARC
  5
A2
100
AcDbEntity
  8
L1_170
  6
CONTINUOUS
 62
         7
100
AcDbCircle
 10
1508.9083403763
 20
150.1846417294
 30
0.0
 40
4.95
100
AcDbArc
 50
90.0
 51
270.0
  0
LINE
  5
A3
100
AcDbEntity
  8
L1_170
  6
CONTINUOUS
 62
         7
100
AcDbLine
 10
1526.9983403763
 20
145.2346417294
 30
0.0
 11
1508.9083403763
 21
145.2346417294
 31
0.0
  0
LINE
  5
A4
100
AcDbEntity
  8
L1_170
  6
CONTINUOUS
 62
         7
100
AcDbLine
 10
1526.9983403763
 20
155.1346417294
 30
0.0
 11
1508.9083403763
 21
155.1346417294
 31
0.0
  0
LINE
  5
A5
100
AcDbEntity
  8
L1_170
  6
DASHED
 62
         2
100
AcDbLine
 10
1730.7385065795
 20
172.9973683723
 30
0.0
 11
1733.2837248171
 21
177.4058156761
 31
0.0
  0
LINE
  5
A6
100
AcDbEntity
  8
L1_170
  6
DASHED
 62
         2
100
AcDbLine
 10
1739.312158077
 20
168.0473683723
 30
0.0
 11
1741.8573763145
 21
172.4558156761
 31
0.0
  0
LINE
  5
A7
100
AcDbEntity
  8
L1_170
  6
DASHED
 62
         2
100
AcDbLine
 10
1739.312158077
 20
132.3219150865
 30
0.0
 11
1741.8573763145
 21
127.9134677827
 31
0.0
  0
LINE
  5
A8
100
AcDbEntity
  8
L1_170
  6
DASHED
 62
         2
100
AcDbLine
 10
1730.7385065795
 20
127.3719150865
 30
0.0
 11
1733.2837248171
 21
122.9634677827
 31
0.0
  0
LINE
  5
A9
100
AcDbEntity
  8
L1_170
  6
DASHED
 62
         2
100
AcDbLine
 10
1699.7993564723
 20
145.2346417294
 30
0.0
 11
1694.7089199972
 21
145.2346417294
 31
0.0
  0
LINE
  5
AA
100
AcDbEntity
  8
L1_170
  6
DASHED
 62
         2
100
AcDbLine
 10
1699.7993564723
 20
155.1346417294
 30
0.0
 11
1694.7089199972
 21
155.1346417294
 31
0.0
  0
LINE
  5
AB
100
AcDbEntity
  8
L1_170
  6
CONTINUOUS
 62
         4
100
AcDbLine
 10
1542.4052641649
 20
121.2020498704
 30
0.0
 11
1542.4052641649
 21
179.1672335884
 31
0.0
  0
ARC
  5
AC
100
AcDbEntity
  8
L1_170
  6
CONTINUOUS
 62
         7
100
AcDbCircle
 10
1542.1419591697
 20
-39.9433347407
 30
0.0
 40
2.0
100
AcDbArc
 50
270.0
 51
285.0
  0
LINE
  5
AD
100
AcDbEntity
  8
L1_170
  6
CONTINUOUS
 62
         7
100
AcDbLine
 10
1546.5209784665
 20
14.9538629359
 30
0.0
 11
1542.6595972599
 21
15.9885169119
 31
0.0
  0
ARC
  5
AE
100
AcDbEntity
  8
L1_170
  6
CONTINUOUS
 62
         7
100
AcDbCircle
 10
1542.1419591697
 20
14.0566652593
 30
0.0
 40
2.0
100
AcDbArc
 50
75.0
 51
90.0
  0
ARC
  5
AF
100
AcDbEntity
  8
L1_170
  6
CONTINUOUS
 62
         7
100
AcDbCircle
 10
1546.0033403763
 20
13.0220112834
 30
0.0
 40
2.0
100
AcDbArc
 50
0.0
 51
75.0
  0
LINE
  5
B0
100
AcDbEntity
  8
L1_170
  6
CONTINUOUS
 62
         7
100
AcDbLine
 10
1546.5209784665
 20
-40.8405324173
 30
0.0
 11
1542.6595972599
 21
-41.8751863933
 31
0.0
  0
ARC
  5
B1
100
AcDbEntity
  8
L1_170
  6
CONTINUOUS
 62
         7
100
AcDbCircle
 10
1546.0033403763
 20
-38.9086807647
 30
0.0
 40
2.0
100
AcDbArc
 50
285.0
 51
360.0
  0
LINE
  5
B2
100
AcDbEntity
  8
L1_170
  6
CONTINUOUS
 62
         7
100
AcDbLine
 10
1546.5209784665
 20
122.2874440528
 30
0.0
 11
1542.6595972599
 21
121.2527900768
 31
0.0
  0
ARC
  5
B3
100
AcDbEntity
  8
L1_170
  6
CONTINUOUS
 62
         7
100
AcDbCircle
 10
1542.1419591697
 20
123.1846417294
 30
0.0
 40
2.0
100
AcDbArc
 50
270.0
 51
285.0
  0
ARC
  5
B4
100
AcDbEntity
  8
L1_170
  6
CONTINUOUS
 62
         7
100
AcDbCircle
 10
1546.0033403763
 20
124.2192957053
 30
0.0
 40
2.0
100
AcDbArc
 50
285.0
 51
360.0
  0
DIMENSION
  5
B7
100
AcDbEntity
  8
L1_170
  6
CONTINUOUS
 62
         4
100
AcDbDimension
  2
*D2
 10
1542.6595972599
 20
179.116493382
 30
0.0
 11
1554.7127794887
 21
167.5030096585
 31
0.0
 70
         2
  3
DIMSTYLE1
100
AcDb2LineAngularDimension
 13
1539.1033403763
 23
179.1846417294
 33
0.0
 14
1542.1419591697
 24
179.1846417294
 34
0.0
 15
1546.5209784665
 25
178.081839406
 35
0.0
 16
1560.5291579864
 26
174.3283590162
 36
0.0
  0
ARC
  5
C7
100
AcDbEntity
  8
L1_170
  6
CONTINUOUS
 62
         7
100
AcDbCircle
 10
1542.1419591697
 20
177.1846417294
 30
0.0
 40
2.0
100
AcDbArc
 50
75.0
 51
90.0
  0
ARC
  5
C8
100
AcDbEntity
  8
L1_170
  6
CONTINUOUS
 62
         7
100
AcDbCircle
 10
1546.0033403763
 20
176.1499877534
 30
0.0
 40
2.0
100
AcDbArc
 50
0.0
 51
75.0
  0
LINE
  5
C9
100
AcDbEntity
  8
L1_170
  6
CONTINUOUS
 62
         7
100
AcDbLine
 10
1546.5209784665
 20
178.081839406
 30
0.0
 11
1542.6595972599
 21
179.116493382
 31
0.0
  0
DIMENSION
  5
CC
100
AcDbEntity
  8
L1_170
  6
CONTINUOUS
 62
         4
100
AcDbDimension
  2
*D3
 10
1400.0033403763
 20
218.9675830166
 30
0.0
 11
1471.8320787969
 21
220.9925830166
 31
0.0
  3
DIMSTYLE1
100
AcDbAlignedDimension
 13
1400.0033403763
 23
172.4096417294
 33
0.0
 14
1548.0033403763
 24
150.1846417294
 34
0.0
100
AcDbRotatedDimension
  0
DIMENSION
  5
DA
100
AcDbEntity
  8
L1_170
  6
CONTINUOUS
 62
         4
100
AcDbDimension
  2
*D4
 10
1331.7533403763
 20
225.263113602
 30
0.0
 11
1424.9724708156
 21
227.288113602
 31
0.0
  3
DIMSTYLE1
100
AcDbAlignedDimension
 13
1331.7533403763
 23
161.4188234458
 33
0.0
 14
1548.0033403763
 24
150.1846417294
 34
0.0
100
AcDbRotatedDimension
  0
LINE
  5
E6
100
AcDbEntity
  8
L1_170
  6
CONTINUOUS
 62
         7
100
AcDbLine
 10
1403.2033403763
 20
180.9596417294
 30
0.0
 11
1403.2033403763
 21
119.4096417294
 31
0.0
  0
LINE
  5
E7
100
AcDbEntity
  8
L1_170
  6
CENTER
 62
         1
100
AcDbLine
 10
1400.0033403763
 20
172.4096417294
 30
0.0
 11
1400.0033403763
 21
127.9596417294
 31
0.0
  0
LINE
  5
E8
100
AcDbEntity
  8
L1_170
  6
CONTINUOUS
 62
         7
100
AcDbLine
 10
1331.7533403763
 20
161.4188234458
 30
0.0
 11
1331.7533403763
 21
138.9504600129
 31
0.0
  0
DIMENSION
  5
EB
100
AcDbEntity
  8
L1_170
  6
CONTINUOUS
 62
         4
100
AcDbDimension
  2
*D5
 10
1561.4517177607
 20
177.6846417294
 30
0.0
 11
1559.4267177607
 21
144.974364398
 31
0.0
  3
DIMSTYLE1
100
AcDbAlignedDimension
 13
1548.0033403763
 23
177.6846417294
 33
0.0
 14
1548.0033403763
 24
122.6846417294
 34
0.0
 50
90.0
100
AcDbRotatedDimension
  0
LINE
  5
F7
100
AcDbEntity
  8
L1_170
  6
CONTINUOUS
 62
         7
100
AcDbLine
 10
1539.0033403763
 20
121.2846417294
 30
0.0
 11
1539.1033403763
 21
121.1846417294
 31
0.0
  0
LINE
  5
F8
100
AcDbEntity
  8
L1_170
  6
CONTINUOUS
 62
         7
100
AcDbLine
 10
1537.0033403763
 20
121.2846417294
 30
0.0
 11
1536.9033403763
 21
121.1846417294
 31
0.0
  0
LINE
  5
F9
100
AcDbEntity
  8
L1_170
  6
CONTINUOUS
 62
         7
100
AcDbLine
 10
1536.9033403763
 20
179.1846417294
 30
0.0
 11
1537.0033403763
 21
179.0846417294
 31
0.0
  0
LINE
  5
FA
100
AcDbEntity
  8
L1_170
  6
CONTINUOUS
 62
         7
100
AcDbLine
 10
1539.0033403763
 20
179.0846417294
 30
0.0
 11
1539.1033403763
 21
179.1846417294
 31
0.0
  0
LINE
  5
FB
100
AcDbEntity
  8
L1_170
  6
CONTINUOUS
 62
         4
100
AcDbLine
 10
1496.5033403763
 20
181.6846417294
 30
0.0
 11
1496.5033403763
 21
118.6846417294
 31
0.0
  0
LINE
  5
FC
100
AcDbEntity
  8
L1_170
  6
CONTINUOUS
 62
         7
100
AcDbLine
 10
1497.0033403763
 20
121.2492168605
 30
0.0
 11
1497.0033403763
 21
179.1200665983
 31
0.0
  0
LINE
  5
FD
100
AcDbEntity
  8
L1_170
  6
CONTINUOUS
 62
         7
100
AcDbLine
 10
1497.0033403763
 20
180.0846417294
 30
0.0
 11
1497.0033403763
 21
181.1846417294
 31
0.0
  0
ARC
  5
FE
100
AcDbEntity
  8
L1_170
  6
CONTINUOUS
 62
         7
100
AcDbCircle
 10
1496.5033403763
 20
119.1846417294
 30
0.0
 40
0.5
100
AcDbArc
 50
270.0
 51
360.0
  0
ARC
  5
FF
100
AcDbEntity
  8
L1_170
  6
CONTINUOUS
 62
         7
100
AcDbCircle
 10
1496.5033403763
 20
181.1846417294
 30
0.0
 40
0.5
100
AcDbArc
 50
0.0
 51
90.0
  0
LINE
  5
100
100
AcDbEntity
  8
L1_170
  6
CENTER
 62
         1
100
AcDbLine
 10
1508.9083403763
 20
142.3499119489
 30
0.0
 11
1508.9083403763
 21
158.0592538898
 31
0.0
  0
LINE
  5
101
100
AcDbEntity
  8
L1_170
  6
CENTER
 62
         1
100
AcDbLine
 10
1526.9983403763
 20
142.3499119521
 30
0.0
 11
1526.9983403763
 21
158.0592538929
 31
0.0
  0
DIMENSION
  5
104
100
AcDbEntity
  8
L1_170
  6
CONTINUOUS
 62
         4
100
AcDbDimension
  2
*D6
 10
1585.4498203437
 20
181.6846417294
 30
0.0
 11
1583.4248203437
 21
146.1650804093
 31
0.0
  3
DIMSTYLE1
100
AcDbAlignedDimension
 13
1496.0033403763
 23
181.6846417294
 33
0.0
 14
1496.0033403763
 24
118.6846417294
 34
0.0
 50
90.0
100
AcDbRotatedDimension
  0
LINE
  5
110
100
AcDbEntity
  8
L1_170
  6
CONTINUOUS
 62
         7
100
AcDbLine
 10
1496.5033403763
 20
118.6846417294
 30
0.0
 11
1437.0553403763
 21
118.6846417294
 31
0.0
  0
LINE
  5
111
100
AcDbEntity
  8
L1_170
  6
CONTINUOUS
 62
         7
100
AcDbLine
 10
1496.5033403763
 20
181.6846417294
 30
0.0
 11
1437.0553403763
 21
181.6846417294
 31
0.0
  0
LINE
  5
112
100
AcDbEntity
  8
L1_170
  6
CONTINUOUS
 62
         7
100
AcDbLine
 10
1497.0033403763
 20
119.1846417294
 30
0.0
 11
1497.0033403763
 21
120.2846417294
 31
0.0
  0
LINE
  5
113
100
AcDbEntity
  8
L1_170
  6
CONTINUOUS
 62
         7
100
AcDbLine
 10
1548.0033403763
 20
124.2192957053
 30
0.0
 11
1548.0033403763
 21
176.1499877534
 31
0.0
  0
LINE
  5
114
100
AcDbEntity
  8
L1_170
  6
CONTINUOUS
 62
         7
100
AcDbLine
 10
1536.9033403763
 20
179.1846417294
 30
0.0
 11
1499.5033403763
 21
179.1846417294
 31
0.0
  0
LINE
  5
115
100
AcDbEntity
  8
L1_170
  6
CONTINUOUS
 62
         7
100
AcDbLine
 10
1539.0033403763
 20
178.1846417294
 30
0.0
 11
1537.0033403763
 21
178.1846417294
 31
0.0
  0
LINE
  5
116
100
AcDbEntity
  8
L1_170
  6
CONTINUOUS
 62
         7
100
AcDbLine
 10
1542.1419591697
 20
179.1846417294
 30
0.0
 11
1539.1033403763
 21
179.1846417294
 31
0.0
  0
LINE
  5
117
100
AcDbEntity
  8
L1_170
  6
CONTINUOUS
 62
         7
100
AcDbLine
 10
1536.9033403763
 20
121.1846417294
 30
0.0
 11
1499.5033403763
 21
121.1846417294
 31
0.0
  0
LINE
  5
118
100
AcDbEntity
  8
L1_170
  6
CONTINUOUS
 62
         7
100
AcDbLine
 10
1542.1419591697
 20
121.1846417294
 30
0.0
 11
1539.1033403763
 21
121.1846417294
 31
0.0
  0
LINE
  5
119
100
AcDbEntity
  8
L1_170
  6
CONTINUOUS
 62
         7
100
AcDbLine
 10
1539.0033403763
 20
179.0846417294
 30
0.0
 11
1539.0033403763
 21
121.2846417294
 31
0.0
  0
LINE
  5
11A
100
AcDbEntity
  8
L1_170
  6
CONTINUOUS
 62
         7
100
AcDbLine
 10
1539.0033403763
 20
122.1846417294
 30
0.0
 11
1537.0033403763
 21
122.1846417294
 31
0.0
  0
LINE
  5
11B
100
AcDbEntity
  8
L1_170
  6
CONTINUOUS
 62
         7
100
AcDbLine
 10
1537.0033403763
 20
179.0846417294
 30
0.0
 11
1537.0033403763
 21
121.2846417294
 31
0.0
  0
LINE
  5
11C
100
AcDbEntity
  8
L1_170
  6
CONTINUOUS
 62
         7
100
AcDbLine
 10
1498.7042692157
 20
178.9846417294
 30
0.0
 11
1497.3033403763
 21
178.9846417294
 31
0.0
  0
LINE
  5
11D
100
AcDbEntity
  8
L1_170
  6
CONTINUOUS
 62
         7
100
AcDbLine
 10
1498.8077968337
 20
178.9982713989
 30
0.0
 11
1499.5033403763
 21
179.1846417294
 31
0.0
  0
ARC
  5
11E
100
AcDbEntity
  8
L1_170
  6
CONTINUOUS
 62
         7
100
AcDbCircle
 10
1498.7042692157
 20
179.3846417294
 30
0.0
 40
0.4
100
AcDbArc
 50
270.0
 51
285.0
  0
LINE
  5
11F
100
AcDbEntity
  8
L1_170
  6
CONTINUOUS
 62
         7
100
AcDbLine
 10
1500.1398320494
 20
179.1846417294
 30
0.0
 11
1499.5033403763
 21
179.1846417294
 31
0.0
  0
LINE
  5
120
100
AcDbEntity
  8
L1_170
  6
CONTINUOUS
 62
         7
100
AcDbLine
 10
1496.9034794587
 20
179.3740943799
 30
0.0
 11
1497.0033403763
 21
180.0846417294
 31
0.0
  0
ARC
  5
121
100
AcDbEntity
  8
L1_170
  6
CONTINUOUS
 62
         7
100
AcDbCircle
 10
1497.3033403763
 20
179.3846417294
 30
0.0
 40
0.4
100
AcDbArc
 50
181.5109716561
 51
270.0
  0
LINE
  5
122
100
AcDbEntity
  8
L1_170
  6
CONTINUOUS
 62
         7
100
AcDbLine
 10
1498.7042692157
 20
121.3846417294
 30
0.0
 11
1497.3033403763
 21
121.3846417294
 31
0.0
  0
LINE
  5
123
100
AcDbEntity
  8
L1_170
  6
CONTINUOUS
 62
         7
100
AcDbLine
 10
1498.8077968337
 20
121.3710120599
 30
0.0
 11
1499.5033403763
 21
121.1846417294
 31
0.0
  0
ARC
  5
124
100
AcDbEntity
  8
L1_170
  6
CONTINUOUS
 62
         7
100
AcDbCircle
 10
1498.7042692157
 20
120.9846417294
 30
0.0
 40
0.4
100
AcDbArc
 50
75.0
 51
90.0
  0
LINE
  5
125
100
AcDbEntity
  8
L1_170
  6
CONTINUOUS
 62
         7
100
AcDbLine
 10
1500.1398320494
 20
121.1846417294
 30
0.0
 11
1499.5033403763
 21
121.1846417294
 31
0.0
  0
LINE
  5
126
100
AcDbEntity
  8
L1_170
  6
CONTINUOUS
 62
         7
100
AcDbLine
 10
1496.9034794587
 20
120.9951890789
 30
0.0
 11
1497.0033403763
 21
120.2846417294
 31
0.0
  0
ARC
  5
127
100
AcDbEntity
  8
L1_170
  6
CONTINUOUS
 62
         7
100
AcDbCircle
 10
1497.3033403763
 20
120.9846417294
 30
0.0
 40
0.4
100
AcDbArc
 50
90.0
 51
178.4890283439
  0
LINE
  5
128
100
AcDbEntity
  8
L1_170
  6
CONTINUOUS
 62
         4
100
AcDbLine
 10
1499.5033403763
 20
121.1846417294
 30
0.0
 11
1499.5033403763
 21
179.1846417294
 31
0.0
  0
LINE
  5
129
100
AcDbEntity
  8
L1_170
  6
CENTER
 62
         1
100
AcDbLine
 10
1548.0033403763
 20
150.1846417294
 30
0.0
 11
1473.0033403763
 21
150.1846417294
 31
0.0
  0
POLYLINE
  5
12B
100
AcDbEntity
  8
L1_170
  6
CONTINUOUS
 62
         7
100
AcDb2dPolyline
 66
         1
 10
0.0
 20
0.0
 30
0.0
 70
         2
  0
VERTEX
  5
12D
100
AcDbEntity
  8
L1_170
  6
CONTINUOUS
 62
         7
100
AcDbVertex
100
AcDb2dVertex
 10
1531.9483403763
 20
-26.7997422446
 30
0.0
 70
         1
  0
VERTEX
  5
12F
100
AcDbEntity
  8
L1_170
  6
CONTINUOUS
 62
         7
100
AcDbVertex
100
AcDb2dVertex
 10
1531.8837615448
 20
-26.3038802314
 30
0.0
 70
         1
  0
VERTEX
  5
131
100
AcDbEntity
  8
L1_170
  6
CONTINUOUS
 62
         7
100
AcDbVertex
100
AcDb2dVertex
 10
1531.8101522462
 20
-26.077218315
 30
0.0
 70
         1
  0
VERTEX
  5
133
100
AcDbEntity
  8
L1_170
  6
CONTINUOUS
 62
         7
100
AcDbVertex
100
AcDb2dVertex
 10
1531.7151797739
 20
-25.8659877879
 30
0.0
 70
         1
  0
VERTEX
  5
135
100
AcDbEntity
  8
L1_170
  6
CONTINUOUS
 62
         7
100
AcDbVertex
100
AcDb2dVertex
 10
1531.6031461769
 20
-25.6704704987
 30
0.0
 70
         1
  0
VERTEX
  5
137
100
AcDbEntity
  8
L1_170
  6
CONTINUOUS
 62
         7
100
AcDbVertex
100
AcDb2dVertex
 10
1531.4326010017
 20
-25.432318985
 30
0.0
 70
         1
  0
VERTEX
  5
139
100
AcDbEntity
  8
L1_170
  6
CONTINUOUS
 62
         7
100
AcDbVertex
100
AcDb2dVertex
 10
1531.246450835
 20
-25.2211104483
 30
0.0
 70
         1
  0
VERTEX
  5
13B
100
AcDbEntity
  8
L1_170
  6
CONTINUOUS
 62
         7
100
AcDbVertex
100
AcDb2dVertex
 10
1531.0513888937
 20
-25.0350539413
 30
0.0
 70
         1
  0
VERTEX
  5
13D
100
AcDbEntity
  8
L1_170
  6
CONTINUOUS
 62
         7
100
AcDbVertex
100
AcDb2dVertex
 10
1530.7837628794
 20
-24.8204339458
 30
0.0
 70
         1
  0
VERTEX
  5
13F
100
AcDbEntity
  8
L1_170
  6
CONTINUOUS
 62
         7
100
AcDbVertex
100
AcDb2dVertex
 10
1530.5188853831
 20
-24.6419449013
 30
0.0
 70
         1
  0
VERTEX
  5
141
100
AcDbEntity
  8
L1_170
  6
CONTINUOUS
 62
         7
100
AcDbVertex
100
AcDb2dVertex
 10
1530.1759640168
 20
-24.4485569355
 30
0.0
 70
         1
  0
VERTEX
  5
143
100
AcDbEntity
  8
L1_170
  6
CONTINUOUS
 62
         7
100
AcDbVertex
100
AcDb2dVertex
 10
1529.8578897473
 20
-24.2993173949
 30
0.0
 70
         1
  0
VERTEX
  5
145
100
AcDbEntity
  8
L1_170
  6
CONTINUOUS
 62
         7
100
AcDbVertex
100
AcDb2dVertex
 10
1529.4715302865
 20
-24.1498536826
 30
0.0
 70
         1
  0
VERTEX
  5
147
100
AcDbEntity
  8
L1_170
  6
CONTINUOUS
 62
         7
100
AcDbVertex
100
AcDb2dVertex
 10
1529.1378020281
 20
-24.0447537168
 30
0.0
 70
         1
  0
VERTEX
  5
149
100
AcDbEntity
  8
L1_170
  6
CONTINUOUS
 62
         7
100
AcDbVertex
100
AcDb2dVertex
 10
1528.7586532635
 20
-23.9490625948
 30
0.0
 70
         1
  0
VERTEX
  5
14B
100
AcDbEntity
  8
L1_170
  6
CONTINUOUS
 62
         7
100
AcDbVertex
100
AcDb2dVertex
 10
1528.3560641172
 20
-23.8724418464
 30
0.0
 70
         1
  0
VERTEX
  5
14D
100
AcDbEntity
  8
L1_170
  6
CONTINUOUS
 62
         7
100
AcDbVertex
100
AcDb2dVertex
 10
1527.9647726791
 20
-23.8207895105
 30
0.0
 70
         1
  0
VERTEX
  5
14F
100
AcDbEntity
  8
L1_170
  6
CONTINUOUS
 62
         7
100
AcDbVertex
100
AcDb2dVertex
 10
1527.6264450716
 20
-23.7933435713
 30
0.0
 70
         1
  0
VERTEX
  5
151
100
AcDbEntity
  8
L1_170
  6
CONTINUOUS
 62
         7
100
AcDbVertex
100
AcDb2dVertex
 10
1527.2982384415
 20
-23.7815291363
 30
0.0
 70
         1
  0
VERTEX
  5
153
100
AcDbEntity
  8
L1_170
  6
CONTINUOUS
 62
         7
100
AcDbVertex
100
AcDb2dVertex
 10
1527.1933403763
 20
-23.7807944323
 30
0.0
 70
         1
  0
SEQEND
  5
155
100
AcDbEntity
  8
L1_170
  6
CONTINUOUS
 62
         7
  0
LINE
  5
156
100
AcDbEntity
  8
L1_170
  6
CONTINUOUS
 62
         7
100
AcDbLine
 10
1527.1933441996
 20
-28.5557944323
 30
0.0
 11
1508.7133403632
 21
-28.5557916884
 31
0.0
  0
POLYLINE
  5
158
100
AcDbEntity
  8
L1_170
  6
CONTINUOUS
 62
         7
100
AcDb2dPolyline
 66
         1
 10
0.0
 20
0.0
 30
0.0
 70
         2
  0
VERTEX
  5
15A
100
AcDbEntity
  8
L1_170
  6
CONTINUOUS
 62
         7
100
AcDbVertex
100
AcDb2dVertex
 10
1503.9583403762
 20
-26.7997395006
 30
0.0
 70
         1
  0
VERTEX
  5
15C
100
AcDbEntity
  8
L1_170
  6
CONTINUOUS
 62
         7
100
AcDbVertex
100
AcDb2dVertex
 10
1504.0156955029
 20
-27.0716648465
 30
0.0
 70
         1
  0
VERTEX
  5
15E
100
AcDbEntity
  8
L1_170
  6
CONTINUOUS
 62
         7
100
AcDbVertex
100
AcDb2dVertex
 10
1504.0857868256
 20
-27.2035813233
 30
0.0
 70
         1
  0
VERTEX
  5
160
100
AcDbEntity
  8
L1_170
  6
CONTINUOUS
 62
         7
100
AcDbVertex
100
AcDb2dVertex
 10
1504.1810372714
 20
-27.3308547707
 30
0.0
 70
         1
  0
VERTEX
  5
162
100
AcDbEntity
  8
L1_170
  6
CONTINUOUS
 62
         7
100
AcDbVertex
100
AcDb2dVertex
 10
1504.2988111988
 20
-27.452269324
 30
0.0
 70
         1
  0
VERTEX
  5
164
100
AcDbEntity
  8
L1_170
  6
CONTINUOUS
 62
         7
100
AcDbVertex
100
AcDb2dVertex
 10
1504.4360308305
 20
-27.5668529287
 30
0.0
 70
         1
  0
VERTEX
  5
166
100
AcDbEntity
  8
L1_170
  6
CONTINUOUS
 62
         7
100
AcDbVertex
100
AcDb2dVertex
 10
1504.5893565047
 20
-27.6738951339
 30
0.0
 70
         1
  0
VERTEX
  5
168
100
AcDbEntity
  8
L1_170
  6
CONTINUOUS
 62
         7
100
AcDbVertex
100
AcDb2dVertex
 10
1504.7553607744
 20
-27.772945918
 30
0.0
 70
         1
  0
VERTEX
  5
16A
100
AcDbEntity
  8
L1_170
  6
CONTINUOUS
 62
         7
100
AcDbVertex
100
AcDb2dVertex
 10
1504.9306822679
 20
-27.8637986623
 30
0.0
 70
         1
  0
VERTEX
  5
16C
100
AcDbEntity
  8
L1_170
  6
CONTINUOUS
 62
         7
100
AcDbVertex
100
AcDb2dVertex
 10
1505.1768416869
 20
-27.9735998025
 30
0.0
 70
         1
  0
VERTEX
  5
16E
100
AcDbEntity
  8
L1_170
  6
CONTINUOUS
 62
         7
100
AcDbVertex
100
AcDb2dVertex
 10
1505.4272832493
 20
-28.0689858536
 30
0.0
 70
         1
  0
VERTEX
  5
170
100
AcDbEntity
  8
L1_170
  6
CONTINUOUS
 62
         7
100
AcDbVertex
100
AcDb2dVertex
 10
1505.6761894914
 20
-28.150903551
 30
0.0
 70
         1
  0
VERTEX
  5
172
100
AcDbEntity
  8
L1_170
  6
CONTINUOUS
 62
         7
100
AcDbVertex
100
AcDb2dVertex
 10
1506.0037735911
 20
-28.2427910757
 30
0.0
 70
         1
  0
VERTEX
  5
174
100
AcDbEntity
  8
L1_170
  6
CONTINUOUS
 62
         7
100
AcDbVertex
100
AcDb2dVertex
 10
1506.3121399662
 20
-28.3154382277
 30
0.0
 70
         1
  0
VERTEX
  5
176
100
AcDbEntity
  8
L1_170
  6
CONTINUOUS
 62
         7
100
AcDbVertex
100
AcDb2dVertex
 10
1506.6947036819
 20
-28.3896941092
 30
0.0
 70
         1
  0
VERTEX
  5
178
100
AcDbEntity
  8
L1_170
  6
CONTINUOUS
 62
         7
100
AcDbVertex
100
AcDb2dVertex
 10
1507.1426638464
 20
-28.4572220937
 30
0.0
 70
         1
  0
VERTEX
  5
17A
100
AcDbEntity
  8
L1_170
  6
CONTINUOUS
 62
         7
100
AcDbVertex
100
AcDb2dVertex
 10
1507.6233395777
 20
-28.5090309763
 30
0.0
 70
         1
  0
VERTEX
  5
17C
100
AcDbEntity
  8
L1_170
  6
CONTINUOUS
 62
         7
100
AcDbVertex
100
AcDb2dVertex
 10
1508.2312752366
 20
-28.5467439906
 30
0.0
 70
         1
  0
VERTEX
  5
17E
100
AcDbEntity
  8
L1_170
  6
CONTINUOUS
 62
         7
100
AcDbVertex
100
AcDb2dVertex
 10
1508.7133403762
 20
-28.5557916884
 30
0.0
 70
         1
  0
SEQEND
  5
180
100
AcDbEntity
  8
L1_170
  6
CONTINUOUS
 62
         7
  0
POLYLINE
  5
182
100
AcDbEntity
  8
L1_170
  6
CONTINUOUS
 62
         7
100
AcDb2dPolyline
 66
         1
 10
0.0
 20
0.0
 30
0.0
 70
         2
  0
VERTEX
  5
184
100
AcDbEntity
  8
L1_170
  6
CONTINUOUS
 62
         7
100
AcDbVertex
100
AcDb2dVertex
 10
1527.1933403763
 20
-28.5557944323
 30
0.0
 70
         1
  0
VERTEX
  5
186
100
AcDbEntity
  8
L1_170
  6
CONTINUOUS
 62
         7
100
AcDbVertex
100
AcDb2dVertex
 10
1528.2219419611
 20
-28.5142155381
 30
0.0
 70
         1
  0
VERTEX
  5
188
100
AcDbEntity
  8
L1_170
  6
CONTINUOUS
 62
         7
100
AcDbVertex
100
AcDb2dVertex
 10
1528.6734835521
 20
-28.4685498533
 30
0.0
 70
         1
  0
VERTEX
  5
18A
100
AcDbEntity
  8
L1_170
  6
CONTINUOUS
 62
         7
100
AcDbVertex
100
AcDb2dVertex
 10
1529.0804479278
 20
-28.4115798323
 30
0.0
 70
         1
  0
VERTEX
  5
18C
100
AcDbEntity
  8
L1_170
  6
CONTINUOUS
 62
         7
100
AcDbVertex
100
AcDb2dVertex
 10
1529.4435421242
 20
-28.346718318
 30
0.0
 70
         1
  0
VERTEX
  5
18E
100
AcDbEntity
  8
L1_170
  6
CONTINUOUS
 62
         7
100
AcDbVertex
100
AcDb2dVertex
 10
1529.764901807
 20
-28.2768340327
 30
0.0
 70
         1
  0
VERTEX
  5
190
100
AcDbEntity
  8
L1_170
  6
CONTINUOUS
 62
         7
100
AcDbVertex
100
AcDb2dVertex
 10
1530.0475444751
 20
-28.2042503737
 30
0.0
 70
         1
  0
VERTEX
  5
192
100
AcDbEntity
  8
L1_170
  6
CONTINUOUS
 62
         7
100
AcDbVertex
100
AcDb2dVertex
 10
1530.3731365879
 20
-28.1053813813
 30
0.0
 70
         1
  0
VERTEX
  5
194
100
AcDbEntity
  8
L1_170
  6
CONTINUOUS
 62
         7
100
AcDbVertex
100
AcDb2dVertex
 10
1530.6436243963
 20
-28.0080893254
 30
0.0
 70
         1
  0
VERTEX
  5
196
100
AcDbEntity
  8
L1_170
  6
CONTINUOUS
 62
         7
100
AcDbVertex
100
AcDb2dVertex
 10
1530.8674458542
 20
-27.914471244
 30
0.0
 70
         1
  0
VERTEX
  5
198
100
AcDbEntity
  8
L1_170
  6
CONTINUOUS
 62
         7
100
AcDbVertex
100
AcDb2dVertex
 10
1531.0522342392
 20
-27.8257871803
 30
0.0
 70
         1
  0
VERTEX
  5
19A
100
AcDbEntity
  8
L1_170
  6
CONTINUOUS
 62
         7
100
AcDbVertex
100
AcDb2dVertex
 10
1531.251602987
 20
-27.7148870337
 30
0.0
 70
         1
  0
VERTEX
  5
19C
100
AcDbEntity
  8
L1_170
  6
CONTINUOUS
 62
         7
100
AcDbVertex
100
AcDb2dVertex
 10
1531.4052884621
 20
-27.6146902466
 30
0.0
 70
         1
  0
VERTEX
  5
19E
100
AcDbEntity
  8
L1_170
  6
CONTINUOUS
 62
         7
100
AcDbVertex
100
AcDb2dVertex
 10
1531.5595389039
 20
-27.495209684
 30
0.0
 70
         1
  0
VERTEX
  5
1A0
100
AcDbEntity
  8
L1_170
  6
CONTINUOUS
 62
         7
100
AcDbVertex
100
AcDb2dVertex
 10
1531.6685535304
 20
-27.3932226826
 30
0.0
 70
         1
  0
VERTEX
  5
1A2
100
AcDbEntity
  8
L1_170
  6
CONTINUOUS
 62
         7
100
AcDbVertex
100
AcDb2dVertex
 10
1531.768549703
 20
-27.2780596341
 30
0.0
 70
         1
  0
VERTEX
  5
1A4
100
AcDbEntity
  8
L1_170
  6
CONTINUOUS
 62
         7
100
AcDbVertex
100
AcDb2dVertex
 10
1531.849469552
 20
-27.1559815553
 30
0.0
 70
         1
  0
VERTEX
  5
1A6
100
AcDbEntity
  8
L1_170
  6
CONTINUOUS
 62
         7
100
AcDbVertex
100
AcDb2dVertex
 10
1531.9047404755
 20
-27.0370009059
 30
0.0
 70
         1
  0
VERTEX
  5
1A8
100
AcDbEntity
  8
L1_170
  6
CONTINUOUS
 62
         7
100
AcDbVertex
100
AcDb2dVertex
 10
1531.94056822
 20
-26.900104492
 30
0.0
 70
         1
  0
VERTEX
  5
1AA
100
AcDbEntity
  8
L1_170
  6
CONTINUOUS
 62
         7
100
AcDbVertex
100
AcDb2dVertex
 10
1531.9483403763
 20
-26.7997422446
 30
0.0
 70
         1
  0
SEQEND
  5
1AC
100
AcDbEntity
  8
L1_170
  6
CONTINUOUS
 62
         7
  0
LINE
  5
1AD
100
AcDbEntity
  8
L1_170
  6
CONTINUOUS
 62
         7
100
AcDbLine
 10
1527.1933403763
 20
-23.7807944323
 30
0.0
 11
1508.7133403762
 21
-23.7807916884
 31
0.0
  0
POLYLINE
  5
1AF
100
AcDbEntity
  8
L1_170
  6
CONTINUOUS
 62
         7
100
AcDb2dPolyline
 66
         1
 10
0.0
 20
0.0
 30
0.0
 70
         2
  0
VERTEX
  5
1B1
100
AcDbEntity
  8
L1_170
  6
CONTINUOUS
 62
         7
100
AcDbVertex
100
AcDb2dVertex
 10
1508.7133403762
 20
-23.7807916884
 30
0.0
 70
         1
  0
VERTEX
  5
1B3
100
AcDbEntity
  8
L1_170
  6
CONTINUOUS
 62
         7
100
AcDbVertex
100
AcDb2dVertex
 10
1507.9770268265
 20
-23.8172064379
 30
0.0
 70
         1
  0
VERTEX
  5
1B5
100
AcDbEntity
  8
L1_170
  6
CONTINUOUS
 62
         7
100
AcDbVertex
100
AcDb2dVertex
 10
1507.6198262537
 20
-23.8617073938
 30
0.0
 70
         1
  0
VERTEX
  5
1B7
100
AcDbEntity
  8
L1_170
  6
CONTINUOUS
 62
         7
100
AcDbVertex
100
AcDb2dVertex
 10
1507.2751979753
 20
-23.922181868
 30
0.0
 70
         1
  0
VERTEX
  5
1B9
100
AcDbEntity
  8
L1_170
  6
CONTINUOUS
 62
         7
100
AcDbVertex
100
AcDb2dVertex
 10
1506.9464342832
 20
-23.9969564927
 30
0.0
 70
         1
  0
VERTEX
  5
1BB
100
AcDbEntity
  8
L1_170
  6
CONTINUOUS
 62
         7
100
AcDbVertex
100
AcDb2dVertex
 10
1506.5318920548
 20
-24.1172371662
 30
0.0
 70
         1
  0
VERTEX
  5
1BD
100
AcDbEntity
  8
L1_170
  6
CONTINUOUS
 62
         7
100
AcDbVertex
100
AcDb2dVertex
 10
1506.1554854529
 20
-24.2547972595
 30
0.0
 70
         1
  0
VERTEX
  5
1BF
100
AcDbEntity
  8
L1_170
  6
CONTINUOUS
 62
         7
100
AcDbVertex
100
AcDb2dVertex
 10
1505.8193614076
 20
-24.40431516
 30
0.0
 70
         1
  0
VERTEX
  5
1C1
100
AcDbEntity
  8
L1_170
  6
CONTINUOUS
 62
         7
100
AcDbVertex
100
AcDb2dVertex
 10
1505.5236517259
 20
-24.560792092
 30
0.0
 70
         1
  0
VERTEX
  5
1C3
100
AcDbEntity
  8
L1_170
  6
CONTINUOUS
 62
         7
100
AcDbVertex
100
AcDb2dVertex
 10
1505.2668909215
 20
-24.7198242371
 30
0.0
 70
         1
  0
VERTEX
  5
1C5
100
AcDbEntity
  8
L1_170
  6
CONTINUOUS
 62
         7
100
AcDbVertex
100
AcDb2dVertex
 10
1504.9757447951
 20
-24.9334796384
 30
0.0
 70
         1
  0
VERTEX
  5
1C7
100
AcDbEntity
  8
L1_170
  6
CONTINUOUS
 62
         7
100
AcDbVertex
100
AcDb2dVertex
 10
1504.7431782752
 20
-25.1383103747
 30
0.0
 70
         1
  0
VERTEX
  5
1C9
100
AcDbEntity
  8
L1_170
  6
CONTINUOUS
 62
         7
100
AcDbVertex
100
AcDb2dVertex
 10
1504.560007375
 20
-25.3298611228
 30
0.0
 70
         1
  0
VERTEX
  5
1CB
100
AcDbEntity
  8
L1_170
  6
CONTINUOUS
 62
         7
100
AcDbVertex
100
AcDb2dVertex
 10
1504.3734141246
 20
-25.5661595315
 30
0.0
 70
         1
  0
VERTEX
  5
1CD
100
AcDbEntity
  8
L1_170
  6
CONTINUOUS
 62
         7
100
AcDbVertex
100
AcDb2dVertex
 10
1504.2428404172
 20
-25.7711520851
 30
0.0
 70
         1
  0
VERTEX
  5
1CF
100
AcDbEntity
  8
L1_170
  6
CONTINUOUS
 62
         7
100
AcDbVertex
100
AcDb2dVertex
 10
1504.1259324227
 20
-26.0052993224
 30
0.0
 70
         1
  0
VERTEX
  5
1D1
100
AcDbEntity
  8
L1_170
  6
CONTINUOUS
 62
         7
100
AcDbVertex
100
AcDb2dVertex
 10
1504.0373983751
 20
-26.2515186743
 30
0.0
 70
         1
  0
VERTEX
  5
1D3
100
AcDbEntity
  8
L1_170
  6
CONTINUOUS
 62
         7
100
AcDbVertex
100
AcDb2dVertex
 10
1503.9849108724
 20
-26.4810354185
 30
0.0
 70
         1
  0
VERTEX
  5
1D5
100
AcDbEntity
  8
L1_170
  6
CONTINUOUS
 62
         7
100
AcDbVertex
100
AcDb2dVertex
 10
1503.9600053935
 20
-26.7198542341
 30
0.0
 70
         1
  0
VERTEX
  5
1D7
100
AcDbEntity
  8
L1_170
  6
CONTINUOUS
 62
         7
100
AcDbVertex
100
AcDb2dVertex
 10
1503.9583403762
 20
-26.7997395006
 30
0.0
 70
         1
  0
SEQEND
  5
1D9
100
AcDbEntity
  8
L1_170
  6
CONTINUOUS
 62
         7
  0
LINE
  5
1DA
100
AcDbEntity
  8
L1_170
  6
CONTINUOUS
 62
         7
100
AcDbLine
 10
1539.0033403763
 20
-41.8433347407
 30
0.0
 11
1539.1033403763
 21
-41.9433347407
 31
0.0
  0
LINE
  5
1DB
100
AcDbEntity
  8
L1_170
  6
CONTINUOUS
 62
         7
100
AcDbLine
 10
1537.0033403763
 20
-41.8433347407
 30
0.0
 11
1536.9033403763
 21
-41.9433347407
 31
0.0
  0
LINE
  5
1DC
100
AcDbEntity
  8
L1_170
  6
CONTINUOUS
 62
         7
100
AcDbLine
 10
1539.0033403763
 20
15.9566652593
 30
0.0
 11
1539.1033403763
 21
16.0566652593
 31
0.0
  0
LINE
  5
1DD
100
AcDbEntity
  8
L1_170
  6
CONTINUOUS
 62
         7
100
AcDbLine
 10
1536.9033403763
 20
16.0566652593
 30
0.0
 11
1537.0033403763
 21
15.9566652593
 31
0.0
  0
ARC
  5
1DE
100
AcDbEntity
  8
L1_170
  6
CONTINUOUS
 62
         7
100
AcDbCircle
 10
1496.5033403763
 20
-43.9433347407
 30
0.0
 40
0.5
100
AcDbArc
 50
270.0
 51
360.0
  0
ARC
  5
1DF
100
AcDbEntity
  8
L1_170
  6
CONTINUOUS
 62
         7
100
AcDbCircle
 10
1496.5033403763
 20
18.0566652593
 30
0.0
 40
0.5
100
AcDbArc
 50
0.0
 51
90.0
  0
LINE
  5
1E0
100
AcDbEntity
  8
L1_170
  6
CONTINUOUS
 62
         4
100
AcDbLine
 10
1494.0057015658
 20
4.5566652593
 30
0.0
 11
1494.0057015658
 21
-30.4433347407
 31
0.0
  0
LINE
  5
1E1
100
AcDbEntity
  8
L1_170
  6
CONTINUOUS
 62
         7
100
AcDbLine
 10
1500.0057015658
 20
-37.4433347407
 30
0.0
 11
1500.0057015658
 21
11.5566652593
 31
0.0
  0
LINE
  5
1E2
100
AcDbEntity
  8
L1_170
  6
CONTINUOUS
 62
         7
100
AcDbLine
 10
1473.0033403763
 20
-30.9433347407
 30
0.0
 11
1473.0033403763
 21
5.0566652593
 31
0.0
  0
LINE
  5
1E3
100
AcDbEntity
  8
L1_170
  6
CONTINUOUS
 62
         4
100
AcDbLine
 10
1455.0033403763
 20
-15.9433347407
 30
0.0
 11
1455.0033403763
 21
-9.9433347407
 31
0.0
  0
LINE
  5
1E4
100
AcDbEntity
  8
L1_170
  6
CONTINUOUS
 62
         4
100
AcDbLine
 10
1467.5033403763
 20
-15.9433347407
 30
0.0
 11
1455.0033403763
 21
-15.9433347407
 31
0.0
  0
LINE
  5
1E5
100
AcDbEntity
  8
L1_170
  6
CONTINUOUS
 62
         4
100
AcDbLine
 10
1467.5033403763
 20
-9.9433347407
 30
0.0
 11
1455.0033403763
 21
-9.9433347407
 31
0.0
  0
LINE
  5
1E6
100
AcDbEntity
  8
L1_170
  6
CONTINUOUS
 62
         7
100
AcDbLine
 10
1496.5033403763
 20
-44.4433347407
 30
0.0
 11
1437.0553403763
 21
-44.4433347407
 31
0.0
  0
LINE
  5
1E7
100
AcDbEntity
  8
L1_170
  6
CONTINUOUS
 62
         7
100
AcDbLine
 10
1496.5033403763
 20
18.5566652593
 30
0.0
 11
1437.0553403763
 21
18.5566652593
 31
0.0
  0
LINE
  5
1E8
100
AcDbEntity
  8
L1_170
  6
CONTINUOUS
 62
         7
100
AcDbLine
 10
1546.3033403763
 20
11.0566652593
 30
0.0
 11
1500.0057015658
 21
11.0566652593
 31
0.0
  0
LINE
  5
1E9
100
AcDbEntity
  8
L1_170
  6
CONTINUOUS
 62
         7
100
AcDbLine
 10
1546.3033403763
 20
-36.9433347407
 30
0.0
 11
1500.0057015658
 21
-36.9433347407
 31
0.0
  0
LINE
  5
1EA
100
AcDbEntity
  8
L1_170
  6
CONTINUOUS
 62
         7
100
AcDbLine
 10
1548.0033403763
 20
-38.9086807647
 30
0.0
 11
1548.0033403763
 21
13.0220112834
 31
0.0
  0
LINE
  5
1EB
100
AcDbEntity
  8
L1_170
  6
CONTINUOUS
 62
         7
100
AcDbLine
 10
1536.9033403763
 20
16.0566652593
 30
0.0
 11
1499.5033403763
 21
16.0566652593
 31
0.0
  0
LINE
  5
1EC
100
AcDbEntity
  8
L1_170
  6
CONTINUOUS
 62
         7
100
AcDbLine
 10
1537.0033403763
 20
15.0566652593
 30
0.0
 11
1537.0033403763
 21
15.9566652593
 31
0.0
  0
LINE
  5
1ED
100
AcDbEntity
  8
L1_170
  6
CONTINUOUS
 62
         7
100
AcDbLine
 10
1539.0033403763
 20
15.0566652593
 30
0.0
 11
1537.0033403763
 21
15.0566652593
 31
0.0
  0
LINE
  5
1EE
100
AcDbEntity
  8
L1_170
  6
CONTINUOUS
 62
         7
100
AcDbLine
 10
1542.1419591697
 20
16.0566652593
 30
0.0
 11
1539.1033403763
 21
16.0566652593
 31
0.0
  0
LINE
  5
1EF
100
AcDbEntity
  8
L1_170
  6
CONTINUOUS
 62
         7
100
AcDbLine
 10
1539.0033403763
 20
15.0566652593
 30
0.0
 11
1539.0033403763
 21
15.9566652593
 31
0.0
  0
LINE
  5
1F0
100
AcDbEntity
  8
L1_170
  6
CONTINUOUS
 62
         7
100
AcDbLine
 10
1536.9033403763
 20
-41.9433347407
 30
0.0
 11
1499.5033403763
 21
-41.9433347407
 31
0.0
  0
LINE
  5
1F1
100
AcDbEntity
  8
L1_170
  6
CONTINUOUS
 62
         7
100
AcDbLine
 10
1542.1419591697
 20
-41.9433347407
 30
0.0
 11
1539.1033403763
 21
-41.9433347407
 31
0.0
  0
LINE
  5
1F2
100
AcDbEntity
  8
L1_170
  6
CONTINUOUS
 62
         7
100
AcDbLine
 10
1539.0033403763
 20
-40.9433347407
 30
0.0
 11
1539.0033403763
 21
-41.8433347407
 31
0.0
  0
LINE
  5
1F3
100
AcDbEntity
  8
L1_170
  6
CONTINUOUS
 62
         7
100
AcDbLine
 10
1539.0033403763
 20
-40.9433347407
 30
0.0
 11
1537.0033403763
 21
-40.9433347407
 31
0.0
  0
LINE
  5
1F4
100
AcDbEntity
  8
L1_170
  6
CONTINUOUS
 62
         7
100
AcDbLine
 10
1537.0033403763
 20
-40.9433347407
 30
0.0
 11
1537.0033403763
 21
-41.8433347407
 31
0.0
  0
LINE
  5
1F5
100
AcDbEntity
  8
L1_170
  6
CONTINUOUS
 62
         7
100
AcDbLine
 10
1495.0057015658
 20
-36.4433347407
 30
0.0
 11
1495.0057015658
 21
10.5566652593
 31
0.0
  0
LINE
  5
1F6
100
AcDbEntity
  8
L1_170
  6
CONTINUOUS
 62
         7
100
AcDbLine
 10
1468.0033403763
 20
-29.9433347407
 30
0.0
 11
1468.0033403763
 21
4.0566652593
 31
0.0
  0
LINE
  5
1F7
100
AcDbEntity
  8
L1_170
  6
CONTINUOUS
 62
         7
100
AcDbLine
 10
1494.0057015658
 20
4.5566652593
 30
0.0
 11
1473.0033403763
 21
4.5566652593
 31
0.0
  0
LINE
  5
1F8
100
AcDbEntity
  8
L1_170
  6
CONTINUOUS
 62
         7
100
AcDbLine
 10
1494.0057015658
 20
-30.4433347407
 30
0.0
 11
1473.0033403763
 21
-30.4433347407
 31
0.0
  0
LINE
  5
1F9
100
AcDbEntity
  8
L1_170
  6
CONTINUOUS
 62
         7
100
AcDbLine
 10
1500.0057015658
 20
11.5566652593
 30
0.0
 11
1496.0057015658
 21
11.5566652593
 31
0.0
  0
LINE
  5
1FA
100
AcDbEntity
  8
L1_170
  6
CONTINUOUS
 62
         7
100
AcDbLine
 10
1500.0057015658
 20
-37.4433347407
 30
0.0
 11
1496.0057015658
 21
-37.4433347407
 31
0.0
  0
LINE
  5
1FB
100
AcDbEntity
  8
L1_170
  6
CONTINUOUS
 62
         7
100
AcDbLine
 10
1495.0057015658
 20
5.5566652593
 30
0.0
 11
1494.0057015658
 21
4.5566652593
 31
0.0
  0
LINE
  5
1FC
100
AcDbEntity
  8
L1_170
  6
CONTINUOUS
 62
         7
100
AcDbLine
 10
1494.0057015658
 20
-30.4433347407
 30
0.0
 11
1495.0057015658
 21
-31.4433347407
 31
0.0
  0
LINE
  5
1FD
100
AcDbEntity
  8
L1_170
  6
CONTINUOUS
 62
         7
100
AcDbLine
 10
1473.0033403763
 20
5.0566652593
 30
0.0
 11
1469.0033403763
 21
5.0566652593
 31
0.0
  0
LINE
  5
1FE
100
AcDbEntity
  8
L1_170
  6
CONTINUOUS
 62
         7
100
AcDbLine
 10
1473.0033403763
 20
-30.9433347407
 30
0.0
 11
1469.0033403763
 21
-30.9433347407
 31
0.0
  0
LINE
  5
1FF
100
AcDbEntity
  8
L1_170
  6
CENTER
 62
         1
100
AcDbLine
 10
1498.5033403763
 20
-44.4433347407
 30
0.0
 11
1498.5033403763
 21
-30.9433347407
 31
0.0
  0
LINE
  5
200
100
AcDbEntity
  8
L1_170
  6
CONTINUOUS
 62
         7
100
AcDbLine
 10
1499.5033403763
 20
-41.9433347407
 30
0.0
 11
1499.5033403763
 21
-37.4433347407
 31
0.0
  0
LINE
  5
201
100
AcDbEntity
  8
L1_170
  6
CONTINUOUS
 62
         7
100
AcDbLine
 10
1497.5033403763
 20
-41.7433347407
 30
0.0
 11
1497.5033403763
 21
-37.4433347407
 31
0.0
  0
LINE
  5
202
100
AcDbEntity
  8
L1_170
  6
CONTINUOUS
 62
         7
100
AcDbLine
 10
1498.7042692157
 20
-41.7433347407
 30
0.0
 11
1497.3033403763
 21
-41.7433347407
 31
0.0
  0
LINE
  5
203
100
AcDbEntity
  8
L1_170
  6
CONTINUOUS
 62
         7
100
AcDbLine
 10
1498.8077968337
 20
-41.7569644102
 30
0.0
 11
1499.5033403763
 21
-41.9433347407
 31
0.0
  0
ARC
  5
204
100
AcDbEntity
  8
L1_170
  6
CONTINUOUS
 62
         7
100
AcDbCircle
 10
1498.7042692157
 20
-42.1433347407
 30
0.0
 40
0.4
100
AcDbArc
 50
75.0
 51
90.0
  0
LINE
  5
205
100
AcDbEntity
  8
L1_170
  6
CONTINUOUS
 62
         7
100
AcDbLine
 10
1500.1398320494
 20
-41.9433347407
 30
0.0
 11
1499.5033403763
 21
-41.9433347407
 31
0.0
  0
LINE
  5
206
100
AcDbEntity
  8
L1_170
  6
CONTINUOUS
 62
         7
100
AcDbLine
 10
1496.9034794587
 20
-42.1327873912
 30
0.0
 11
1497.0033403763
 21
-42.8433347407
 31
0.0
  0
ARC
  5
207
100
AcDbEntity
  8
L1_170
  6
CONTINUOUS
 62
         7
100
AcDbCircle
 10
1497.3033403763
 20
-42.1433347407
 30
0.0
 40
0.4
100
AcDbArc
 50
90.0
 51
178.4890283439
  0
LINE
  5
208
100
AcDbEntity
  8
L1_170
  6
CONTINUOUS
 62
         7
100
AcDbLine
 10
1497.0033403763
 20
-42.8433347407
 30
0.0
 11
1497.0033403763
 21
-43.9433347407
 31
0.0
  0
LINE
  5
209
100
AcDbEntity
  8
L1_170
  6
CONTINUOUS
 62
         7
100
AcDbLine
 10
1498.7042692157
 20
15.8566652593
 30
0.0
 11
1497.3033403763
 21
15.8566652593
 31
0.0
  0
LINE
  5
20A
100
AcDbEntity
  8
L1_170
  6
CONTINUOUS
 62
         7
100
AcDbLine
 10
1498.8077968337
 20
15.8702949288
 30
0.0
 11
1499.5033403763
 21
16.0566652593
 31
0.0
  0
ARC
  5
20B
100
AcDbEntity
  8
L1_170
  6
CONTINUOUS
 62
         7
100
AcDbCircle
 10
1498.7042692157
 20
16.2566652593
 30
0.0
 40
0.4
100
AcDbArc
 50
270.0
 51
285.0
  0
LINE
  5
20C
100
AcDbEntity
  8
L1_170
  6
CONTINUOUS
 62
         7
100
AcDbLine
 10
1500.1398320494
 20
16.0566652593
 30
0.0
 11
1499.5033403763
 21
16.0566652593
 31
0.0
  0
LINE
  5
20D
100
AcDbEntity
  8
L1_170
  6
CONTINUOUS
 62
         7
100
AcDbLine
 10
1496.9034794587
 20
16.2461179098
 30
0.0
 11
1497.0033403763
 21
16.9566652593
 31
0.0
  0
ARC
  5
20E
100
AcDbEntity
  8
L1_170
  6
CONTINUOUS
 62
         7
100
AcDbCircle
 10
1497.3033403763
 20
16.2566652593
 30
0.0
 40
0.4
100
AcDbArc
 50
181.5109716561
 51
270.0
  0
LINE
  5
20F
100
AcDbEntity
  8
L1_170
  6
CONTINUOUS
 62
         7
100
AcDbLine
 10
1497.0033403763
 20
16.9566652593
 30
0.0
 11
1497.0033403763
 21
18.0566652593
 31
0.0
  0
LINE
  5
210
100
AcDbEntity
  8
L1_170
  6
CENTER
 62
         1
100
AcDbLine
 10
1548.0033403763
 20
-12.9433347407
 30
0.0
 11
1473.0033403763
 21
-12.9433347407
 31
0.0
  0
CIRCLE
  5
211
100
AcDbEntity
  8
L1_170
  6
DASHED
 62
         2
100
AcDbCircle
 10
1723.2833403763
 20
150.1846417294
 30
0.0
 40
28.0
  0
CIRCLE
  5
212
100
AcDbEntity
  8
L1_170
  6
CONTINUOUS
 62
         7
100
AcDbCircle
 10
1723.2833403763
 20
150.1846417294
 30
0.0
 40
29.0
  0
CIRCLE
  5
213
100
AcDbEntity
  8
L1_170
  6
CONTINUOUS
 62
         7
100
AcDbCircle
 10
1723.2833403763
 20
150.1846417294
 30
0.0
 40
31.5
  0
LINE
  5
214
100
AcDbEntity
  8
L1_170
  6
CENTER
 62
         1
100
AcDbLine
 10
1754.7833403763
 20
150.1846417294
 30
0.0
 11
1691.7833403763
 21
150.1846417294
 31
0.0
  0
LINE
  5
215
100
AcDbEntity
  8
L1_170
  6
CENTER
 62
         1
100
AcDbLine
 10
1723.2833403763
 20
118.6846417294
 30
0.0
 11
1723.2833403763
 21
181.6846417294
 31
0.0
  0
CIRCLE
  5
216
100
AcDbEntity
  8
L1_170
  6
CONTINUOUS
 62
         7
100
AcDbCircle
 10
1723.2833403763
 20
150.1846417294
 30
0.0
 40
27.5
  0
CIRCLE
  5
217
100
AcDbEntity
  8
L1_170
  6
CONTINUOUS
 62
         7
100
AcDbCircle
 10
1723.2833403763
 20
150.1846417294
 30
0.0
 40
2.0
  0
ARC
  5
218
100
AcDbEntity
  8
L1_170
  6
CONTINUOUS
 62
         4
100
AcDbCircle
 10
1723.2833403763
 20
150.1846417294
 30
0.0
 40
3.0
100
AcDbArc
 50
270.0
 51
540.0
  0
CIRCLE
  5
219
100
AcDbEntity
  8
L1_170
  6
CONTINUOUS
 62
         7
100
AcDbCircle
 10
1723.2833403763
 20
150.1846417294
 30
0.0
 40
17.5
  0
CIRCLE
  5
21A
100
AcDbEntity
  8
L1_170
  6
DASHED
 62
         2
100
AcDbCircle
 10
1723.2833403763
 20
150.1846417294
 30
0.0
 40
18.0
  0
CIRCLE
  5
21B
100
AcDbEntity
  8
L1_170
  6
CONTINUOUS
 62
         7
100
AcDbCircle
 10
1723.2833403763
 20
150.1846417294
 30
0.0
 40
24.0
  0
CIRCLE
  5
21C
100
AcDbEntity
  8
L1_170
  6
DASHED
 62
         2
100
AcDbCircle
 10
1723.2833403763
 20
150.1846417294
 30
0.0
 40
24.5
  0
LINE
  5
21D
100
AcDbEntity
  8
L1_170
  6
CONTINUOUS
 62
         7
100
AcDbLine
 10
1450.0030155108
 20
-10.4433347407
 30
0.0
 11
1448.3596398379
 21
-12.9433347407
 31
0.0
  0
LINE
  5
21E
100
AcDbEntity
  8
L1_170
  6
CONTINUOUS
 62
         7
100
AcDbLine
 10
1450.0030155108
 20
-15.4433347407
 30
0.0
 11
1448.3596398379
 21
-12.9433347407
 31
0.0
  0
LINE
  5
21F
100
AcDbEntity
  8
L1_170
  6
CONTINUOUS
 62
         7
100
AcDbLine
 10
1467.0033403763
 20
-10.4433347407
 30
0.0
 11
1450.0030155108
 21
-10.4433347407
 31
0.0
  0
LINE
  5
220
100
AcDbEntity
  8
L1_170
  6
CONTINUOUS
 62
         7
100
AcDbLine
 10
1467.0033403763
 20
-15.4433347407
 30
0.0
 11
1450.0030155108
 21
-15.4433347407
 31
0.0
  0
LINE
  5
221
100
AcDbEntity
  8
L1_170
  6
CONTINUOUS
 62
         4
100
AcDbLine
 10
1450.0030155108
 20
-15.4433347407
 30
0.0
 11
1450.0030155108
 21
-10.4433347407
 31
0.0
  0
LINE
  5
222
100
AcDbEntity
  8
L1_170
  6
CENTER
 62
         1
100
AcDbLine
 10
1723.2833403763
 20
150.1846417294
 30
0.0
 11
1739.0333403763
 21
122.9048415102
 31
0.0
  0
LINE
  5
223
100
AcDbEntity
  8
L1_170
  6
CENTER
 62
         1
100
AcDbLine
 10
1723.2833403763
 20
150.1846417294
 30
0.0
 11
1744.6637284238
 21
187.2165601133
 31
0.0
  0
LINE
  5
224
100
AcDbEntity
  8
L1_170
  6
CENTER
 62
         1
100
AcDbLine
 10
1508.9083403763
 20
8.2219354789
 30
0.0
 11
1508.9083403763
 21
18.8501239669
 31
0.0
  0
LINE
  5
225
100
AcDbEntity
  8
L1_170
  6
CENTER
 62
         1
100
AcDbLine
 10
1526.9983403763
 20
8.221935482
 30
0.0
 11
1526.9983403763
 21
18.8501239669
 31
0.0
  0
ARC
  5
226
100
AcDbEntity
  8
_Y__________
  6
CONTINUOUS
 62
         7
100
AcDbCircle
 10
1402.6033403763
 20
172.9846417294
 30
0.0
 40
0.6
100
AcDbArc
 50
270.0
 51
360.0
  0
LINE
  5
227
100
AcDbEntity
  8
_Y__________
  6
CONTINUOUS
 62
         7
100
AcDbLine
 10
1401.2033403763
 20
172.5846417294
 30
0.0
 11
1401.9497505378
 21
172.3846417294
 31
0.0
  0
LINE
  5
228
100
AcDbEntity
  8
_Y__________
  6
CONTINUOUS
 62
         7
100
AcDbLine
 10
1401.9497505378
 20
172.3846417294
 30
0.0
 11
1402.6033403763
 21
172.3846417294
 31
0.0
  0
LINE
  5
229
100
AcDbEntity
  8
_Y__________
  6
CONTINUOUS
 62
         7
100
AcDbLine
 10
1401.2033403763
 20
127.7846417294
 30
0.0
 11
1401.2033403763
 21
172.5846417294
 31
0.0
  0
LINE
  5
22A
100
AcDbEntity
  8
_Y__________
  6
CONTINUOUS
 62
         7
100
AcDbLine
 10
1401.9497505378
 20
127.9846417294
 30
0.0
 11
1401.9497505378
 21
172.3846417294
 31
0.0
  0
ARC
  5
22B
100
AcDbEntity
  8
_Y__________
  6
CONTINUOUS
 62
         7
100
AcDbCircle
 10
1402.6033403763
 20
127.3846417294
 30
0.0
 40
0.6
100
AcDbArc
 50
0.0
 51
90.0
  0
LINE
  5
22C
100
AcDbEntity
  8
_Y__________
  6
CONTINUOUS
 62
         7
100
AcDbLine
 10
1401.2033403763
 20
127.7846417294
 30
0.0
 11
1401.9497505378
 21
127.9846417294
 31
0.0
  0
LINE
  5
22D
100
AcDbEntity
  8
_Y__________
  6
CONTINUOUS
 62
         7
100
AcDbLine
 10
1401.9497505378
 20
127.9846417294
 30
0.0
 11
1402.6033403763
 21
127.9846417294
 31
0.0
  0
LINE
  5
22E
100
AcDbEntity
  8
_Y__________
  6
CENTER
 62
         1
100
AcDbLine
 10
1396.6508489578
 20
150.1846417294
 30
0.0
 11
1477.6083596909
 21
150.1846417294
 31
0.0
  0
LINE
  5
22F
100
AcDbEntity
  8
_Y__________
  6
CONTINUOUS
 62
         7
100
AcDbLine
 10
1332.7801721046
 20
162.6062630231
 30
0.0
 11
1401.2033403763
 21
172.5846417294
 31
0.0
  0
LINE
  5
230
100
AcDbEntity
  8
_Y__________
  6
CENTER
 62
         1
100
AcDbLine
 10
1329.3598386453
 20
150.1846417294
 30
0.0
 11
1378.4659535144
 21
150.1846417294
 31
0.0
  0
LINE
  5
231
100
AcDbEntity
  8
_Y__________
  6
CONTINUOUS
 62
         7
100
AcDbLine
 10
1332.7801721046
 20
137.7630204357
 30
0.0
 11
1401.2033403763
 21
127.7846417294
 31
0.0
  0
LINE
  5
232
100
AcDbEntity
  8
_Y__________
  6
CENTER
 62
         1
100
AcDbLine
 10
1411.1033403763
 20
187.6899050302
 30
0.0
 11
1411.1033403763
 21
112.6870854784
 31
0.0
  0
ARC
  5
233
100
AcDbEntity
  8
_Y__________
  6
CONTINUOUS
 62
         7
100
AcDbCircle
 10
1412.0045400445
 20
179.3096417294
 30
0.0
 40
1.0
100
AcDbArc
 50
270.0
 51
346.8556743105
  0
ARC
  5
234
100
AcDbEntity
  8
_Y__________
  6
CONTINUOUS
 62
         7
100
AcDbCircle
 10
1410.202140708
 20
179.3096417294
 30
0.0
 40
1.0
100
AcDbArc
 50
193.1443256895
 51
270.0
  0
LINE
  5
235
100
AcDbEntity
  8
_Y__________
  6
CONTINUOUS
 62
         7
100
AcDbLine
 10
1410.202140708
 20
178.3096417294
 30
0.0
 11
1412.0045400445
 21
178.3096417294
 31
0.0
  0
LINE
  5
236
100
AcDbEntity
  8
_Y__________
  6
CONTINUOUS
 62
         7
100
AcDbLine
 10
1414.639610775
 20
181.9596417294
 30
0.0
 11
1418.1033403763
 21
181.9596417294
 31
0.0
  0
LINE
  5
237
100
AcDbEntity
  8
_Y__________
  6
CONTINUOUS
 62
         7
100
AcDbLine
 10
1412.9783403763
 20
179.0822369936
 30
0.0
 11
1414.639610775
 21
181.9596417294
 31
0.0
  0
LINE
  5
238
100
AcDbEntity
  8
_Y__________
  6
CONTINUOUS
 62
         7
100
AcDbLine
 10
1414.639610775
 20
118.4096417294
 30
0.0
 11
1418.1033403763
 21
118.4096417294
 31
0.0
  0
ARC
  5
239
100
AcDbEntity
  8
_Y__________
  6
CONTINUOUS
 62
         7
100
AcDbCircle
 10
1412.0045400445
 20
121.0596417294
 30
0.0
 40
1.0
100
AcDbArc
 50
13.1443256895
 51
90.0
  0
LINE
  5
23A
100
AcDbEntity
  8
_Y__________
  6
CONTINUOUS
 62
         7
100
AcDbLine
 10
1412.9783403763
 20
121.2870464652
 30
0.0
 11
1414.639610775
 21
118.4096417294
 31
0.0
  0
ARC
  5
23B
100
AcDbEntity
  8
_Y__________
  6
CONTINUOUS
 62
         7
100
AcDbCircle
 10
1410.202140708
 20
121.0596417294
 30
0.0
 40
1.0
100
AcDbArc
 50
90.0
 51
166.8556743105
  0
LINE
  5
23C
100
AcDbEntity
  8
_Y__________
  6
CONTINUOUS
 62
         7
100
AcDbLine
 10
1410.202140708
 20
122.0596417294
 30
0.0
 11
1412.0045400445
 21
122.0596417294
 31
0.0
  0
LINE
  5
23D
100
AcDbEntity
  8
_Y__________
  6
CONTINUOUS
 62
         7
100
AcDbLine
 10
1419.1033403763
 20
180.9596417294
 30
0.0
 11
1419.1033403763
 21
169.1846417294
 31
0.0
  0
LINE
  5
23E
100
AcDbEntity
  8
_Y__________
  6
CONTINUOUS
 62
         7
100
AcDbLine
 10
1419.1033403763
 20
180.9596417294
 30
0.0
 11
1419.1033403763
 21
119.4096417294
 31
0.0
  0
LINE
  5
23F
100
AcDbEntity
  8
_Y__________
  6
CONTINUOUS
 62
         7
100
AcDbLine
 10
1404.2033403763
 20
181.9596417294
 30
0.0
 11
1407.5670699775
 21
181.9596417294
 31
0.0
  0
LINE
  5
240
100
AcDbEntity
  8
_Y__________
  6
CONTINUOUS
 62
         7
100
AcDbLine
 10
1404.2033403763
 20
118.4096417294
 30
0.0
 11
1407.5670699775
 21
118.4096417294
 31
0.0
  0
LINE
  5
241
100
AcDbEntity
  8
_Y__________
  6
CENTER
 62
         1
100
AcDbLine
 10
1400.0033403763
 20
172.4096417294
 30
0.0
 11
1400.0033403763
 21
127.9596417294
 31
0.0
  0
LINE
  5
242
100
AcDbEntity
  8
_Y__________
  6
CONTINUOUS
 62
         7
100
AcDbLine
 10
1403.2033403763
 20
180.9596417294
 30
0.0
 11
1403.2033403763
 21
119.4096417294
 31
0.0
  0
LINE
  5
243
100
AcDbEntity
  8
_Y__________
  6
CONTINUOUS
 62
         7
100
AcDbLine
 10
1409.2283403763
 20
121.2870464652
 30
0.0
 11
1407.5670699775
 21
118.4096417294
 31
0.0
  0
LINE
  5
244
100
AcDbEntity
  8
_Y__________
  6
CONTINUOUS
 62
         7
100
AcDbLine
 10
1409.2283403763
 20
179.0822369936
 30
0.0
 11
1407.5670699775
 21
181.9596417294
 31
0.0
  0
LINE
  5
245
100
AcDbEntity
  8
_Y__________
  6
CONTINUOUS
 62
         7
100
AcDbLine
 10
1414.639610775
 20
18.8316652595
 30
0.0
 11
1418.1033403763
 21
18.8316652595
 31
0.0
  0
LINE
  5
246
100
AcDbEntity
  8
_Y__________
  6
CONTINUOUS
 62
         7
100
AcDbLine
 10
1412.9783403763
 20
15.9542605237
 30
0.0
 11
1414.639610775
 21
18.8316652595
 31
0.0
  0
ARC
  5
247
100
AcDbEntity
  8
_Y__________
  6
CONTINUOUS
 62
         7
100
AcDbCircle
 10
1412.0045400445
 20
16.1816652595
 30
0.0
 40
1.0
100
AcDbArc
 50
270.0
 51
346.8556743105
  0
LINE
  5
248
100
AcDbEntity
  8
_Y__________
  6
CONTINUOUS
 62
         7
100
AcDbLine
 10
1410.202140708
 20
15.1816652595
 30
0.0
 11
1412.0045400445
 21
15.1816652595
 31
0.0
  0
ARC
  5
249
100
AcDbEntity
  8
_Y__________
  6
CONTINUOUS
 62
         7
100
AcDbCircle
 10
1410.202140708
 20
16.1816652595
 30
0.0
 40
1.0
100
AcDbArc
 50
193.1443256895
 51
270.0
  0
LINE
  5
24A
100
AcDbEntity
  8
_Y__________
  6
CONTINUOUS
 62
         7
100
AcDbLine
 10
1409.2283403763
 20
15.9542605235
 30
0.0
 11
1407.5670699775
 21
18.8316652593
 31
0.0
  0
LINE
  5
24B
100
AcDbEntity
  8
_Y__________
  6
CONTINUOUS
 62
         7
100
AcDbLine
 10
1404.2033403763
 20
18.8316652595
 30
0.0
 11
1407.5670699775
 21
18.8316652595
 31
0.0
  0
LINE
  5
24C
100
AcDbEntity
  8
_Y__________
  6
CONTINUOUS
 62
         7
100
AcDbLine
 10
1403.2033403763
 20
9.8566652593
 30
0.0
 11
1403.2033403763
 21
17.8316652595
 31
0.0
  0
ARC
  5
24D
100
AcDbEntity
  8
_Y__________
  6
CONTINUOUS
 62
         7
100
AcDbCircle
 10
1402.6033403763
 20
9.8566652593
 30
0.0
 40
0.6
100
AcDbArc
 50
270.0
 51
360.0
  0
LINE
  5
24E
100
AcDbEntity
  8
_Y__________
  6
CONTINUOUS
 62
         7
100
AcDbLine
 10
1401.9497505378
 20
9.2566652593
 30
0.0
 11
1402.6033403763
 21
9.2566652593
 31
0.0
  0
LINE
  5
24F
100
AcDbEntity
  8
_Y__________
  6
CONTINUOUS
 62
         7
100
AcDbLine
 10
1332.6301721046
 20
-0.543588447
 30
0.0
 11
1401.2033403763
 21
9.4566652593
 31
0.0
  0
LINE
  5
250
100
AcDbEntity
  8
_Y__________
  6
CONTINUOUS
 62
         7
100
AcDbLine
 10
1401.2033403763
 20
9.4566652593
 30
0.0
 11
1401.9497505378
 21
9.2566652593
 31
0.0
  0
LINE
  5
251
100
AcDbEntity
  8
_Y__________
  6
CONTINUOUS
 62
         7
100
AcDbLine
 10
1332.6301721046
 20
-25.3430810344
 30
0.0
 11
1401.2033403767
 21
-35.3433347407
 31
0.0
  0
LINE
  5
252
100
AcDbEntity
  8
_Y__________
  6
CENTER
 62
         1
100
AcDbLine
 10
1328.5556074009
 20
-12.9433347407
 30
0.0
 11
1483.6520360806
 21
-12.9433347407
 31
0.0
  0
LINE
  5
253
100
AcDbEntity
  8
_Y__________
  6
CONTINUOUS
 62
         7
100
AcDbLine
 10
1401.2033403763
 20
-35.3433347409
 30
0.0
 11
1401.9497505378
 21
-35.1433347409
 31
0.0
  0
LINE
  5
254
100
AcDbEntity
  8
_Y__________
  6
CONTINUOUS
 62
         7
100
AcDbLine
 10
1401.9497505378
 20
-35.1433347407
 30
0.0
 11
1402.6033403763
 21
-35.1433347407
 31
0.0
  0
ARC
  5
255
100
AcDbEntity
  8
_Y__________
  6
CONTINUOUS
 62
         7
100
AcDbCircle
 10
1402.6033403763
 20
-35.7433347407
 30
0.0
 40
0.6
100
AcDbArc
 50
0.0
 51
90.0
  0
LINE
  5
256
100
AcDbEntity
  8
_Y__________
  6
CONTINUOUS
 62
         7
100
AcDbLine
 10
1404.2033403763
 20
-44.7183347409
 30
0.0
 11
1407.5670699775
 21
-44.7183347409
 31
0.0
  0
LINE
  5
257
100
AcDbEntity
  8
_Y__________
  6
CONTINUOUS
 62
         7
100
AcDbLine
 10
1403.2033403763
 20
-35.7433347409
 30
0.0
 11
1403.2033403763
 21
-43.7183347409
 31
0.0
  0
LINE
  5
258
100
AcDbEntity
  8
_Y__________
  6
CONTINUOUS
 62
         7
100
AcDbLine
 10
1409.2283403763
 20
-41.8409300049
 30
0.0
 11
1407.5670699775
 21
-44.7183347407
 31
0.0
  0
ARC
  5
259
100
AcDbEntity
  8
_Y__________
  6
CONTINUOUS
 62
         7
100
AcDbCircle
 10
1410.202140708
 20
-42.0683347407
 30
0.0
 40
1.0
100
AcDbArc
 50
90.0
 51
166.8556743105
  0
LINE
  5
25A
100
AcDbEntity
  8
_Y__________
  6
CONTINUOUS
 62
         7
100
AcDbLine
 10
1410.202140708
 20
-41.0683347407
 30
0.0
 11
1412.0045400445
 21
-41.0683347407
 31
0.0
  0
ARC
  5
25B
100
AcDbEntity
  8
_Y__________
  6
CONTINUOUS
 62
         7
100
AcDbCircle
 10
1412.0045400445
 20
-42.0683347409
 30
0.0
 40
1.0
100
AcDbArc
 50
13.1443256895
 51
90.0
  0
LINE
  5
25C
100
AcDbEntity
  8
_Y__________
  6
CONTINUOUS
 62
         7
100
AcDbLine
 10
1412.9783403763
 20
-41.8409300049
 30
0.0
 11
1414.639610775
 21
-44.7183347407
 31
0.0
  0
LINE
  5
25D
100
AcDbEntity
  8
_Y__________
  6
CONTINUOUS
 62
         7
100
AcDbLine
 10
1414.639610775
 20
-44.7183347409
 30
0.0
 11
1418.1033403763
 21
-44.7183347409
 31
0.0
  0
LINE
  5
25E
100
AcDbEntity
  8
_Y__________
  6
CONTINUOUS
 62
         7
100
AcDbLine
 10
1331.7533403763
 20
161.4188234458
 30
0.0
 11
1331.7533403763
 21
138.9504600129
 31
0.0
  0
ARC
  5
25F
100
AcDbEntity
  8
_Y__________
  6
CONTINUOUS
 62
         7
100
AcDbCircle
 10
1332.9533403763
 20
161.4188234458
 30
0.0
 40
1.2
100
AcDbArc
 50
98.2971449698
 51
180.0
  0
ARC
  5
260
100
AcDbEntity
  8
_Y__________
  6
CONTINUOUS
 62
         7
100
AcDbCircle
 10
1332.9533403763
 20
138.9504600129
 30
0.0
 40
1.2
100
AcDbArc
 50
180.0
 51
261.7028550302
  0
LINE
  5
261
100
AcDbEntity
  8
_Y__________
  6
CONTINUOUS
 62
         7
100
AcDbLine
 10
1331.7533403763
 20
-1.7091530242
 30
0.0
 11
1331.7533403763
 21
-24.1775164571
 31
0.0
  0
ARC
  5
262
100
AcDbEntity
  8
_Y__________
  6
CONTINUOUS
 62
         7
100
AcDbCircle
 10
1332.9533403763
 20
-1.7091530242
 30
0.0
 40
1.2
100
AcDbArc
 50
98.2971449698
 51
180.0
  0
ARC
  5
263
100
AcDbEntity
  8
_Y__________
  6
CONTINUOUS
 62
         7
100
AcDbCircle
 10
1332.9533403763
 20
-24.1775164571
 30
0.0
 40
1.2
100
AcDbArc
 50
180.0
 51
261.7028550302
  0
LINE
  5
264
100
AcDbEntity
  8
_Y__________
  6
CONTINUOUS
 62
         7
100
AcDbLine
 10
1360.2033403763
 20
-4.9433347407
 30
0.0
 11
1360.2033403763
 21
-20.9433347407
 31
0.0
  0
LINE
  5
265
100
AcDbEntity
  8
_Y__________
  6
CONTINUOUS
 62
         5
100
AcDbLine
 10
1336.6561830887
 20
-20.9433347407
 30
0.0
 11
1360.2033403763
 21
-20.9433347407
 31
0.0
  0
ARC
  5
266
100
AcDbEntity
  8
_Y__________
  6
CONTINUOUS
 62
         7
100
AcDbCircle
 10
1332.7533403763
 20
-22.0933347407
 30
0.0
 40
1.0
100
AcDbArc
 50
90.0
 51
180.0
  0
LINE
  5
267
100
AcDbEntity
  8
_Y__________
  6
CONTINUOUS
 62
         7
100
AcDbLine
 10
1332.7533403763
 20
-21.0933347407
 30
0.0
 11
1335.5233403763
 21
-21.0933347407
 31
0.0
  0
LINE
  5
268
100
AcDbEntity
  8
_Y__________
  6
CONTINUOUS
 62
         7
100
AcDbLine
 10
1335.8711121475
 20
-21.1865199059
 30
0.0
 11
1335.5233403763
 21
-21.0933347407
 31
0.0
  0
LINE
  5
269
100
AcDbEntity
  8
_Y__________
  6
CONTINUOUS
 62
         7
100
AcDbLine
 10
1335.9228759565
 20
-21.1933347407
 30
0.0
 11
1336.3233403763
 21
-21.1933347407
 31
0.0
  0
ARC
  5
26A
100
AcDbEntity
  8
_Y__________
  6
CONTINUOUS
 62
         7
100
AcDbCircle
 10
1336.3233403763
 20
-20.9933347407
 30
0.0
 40
0.2
100
AcDbArc
 50
270.0
 51
314.9999999962
  0
LINE
  5
26B
100
AcDbEntity
  8
_Y__________
  6
CONTINUOUS
 62
         7
100
AcDbLine
 10
1336.4647617325
 20
-21.1347560969
 30
0.0
 11
1337.6561830887
 21
-19.9433347407
 31
0.0
  0
LINE
  5
26C
100
AcDbEntity
  8
_Y__________
  6
CONTINUOUS
 62
         7
100
AcDbLine
 10
1337.6561830887
 20
-19.9433347407
 30
0.0
 11
1360.2033403763
 21
-19.9433347407
 31
0.0
  0
LINE
  5
26D
100
AcDbEntity
  8
_Y__________
  6
CONTINUOUS
 62
         7
100
AcDbLine
 10
1337.6561830887
 20
-5.9433347407
 30
0.0
 11
1337.6561830887
 21
-19.9433347407
 31
0.0
  0
LINE
  5
26E
100
AcDbEntity
  8
_Y__________
  6
CONTINUOUS
 62
         7
100
AcDbLine
 10
1337.6561830887
 20
-5.9433347407
 30
0.0
 11
1360.2033403763
 21
-5.9433347407
 31
0.0
  0
LINE
  5
26F
100
AcDbEntity
  8
_Y__________
  6
CONTINUOUS
 62
         5
100
AcDbLine
 10
1336.6561830887
 20
-4.9433347407
 30
0.0
 11
1360.2033403763
 21
-4.9433347407
 31
0.0
  0
LINE
  5
270
100
AcDbEntity
  8
_Y__________
  6
CONTINUOUS
 62
         7
100
AcDbLine
 10
1335.5233403763
 20
-4.7933347407
 30
0.0
 11
1335.5233403763
 21
-21.0933347407
 31
0.0
  0
LINE
  5
271
100
AcDbEntity
  8
_Y__________
  6
CONTINUOUS
 62
         7
100
AcDbLine
 10
1336.5233403763
 20
-5.1498119
 30
0.0
 11
1336.5233403763
 21
-20.6220880762
 31
0.0
  0
ARC
  5
272
100
AcDbEntity
  8
_Y__________
  6
CONTINUOUS
 62
         7
100
AcDbCircle
 10
1336.3233403763
 20
-4.8933347407
 30
0.0
 40
0.2
100
AcDbArc
 50
45.0000000038
 51
90.0
  0
LINE
  5
273
100
AcDbEntity
  8
_Y__________
  6
CONTINUOUS
 62
         7
100
AcDbLine
 10
1336.4647617325
 20
-4.7519133844
 30
0.0
 11
1337.6561830887
 21
-5.9433347407
 31
0.0
  0
LINE
  5
274
100
AcDbEntity
  8
_Y__________
  6
CONTINUOUS
 62
         7
100
AcDbLine
 10
1335.9228759565
 20
-4.6933347407
 30
0.0
 11
1336.3233403763
 21
-4.6933347407
 31
0.0
  0
LINE
  5
275
100
AcDbEntity
  8
_Y__________
  6
CONTINUOUS
 62
         7
100
AcDbLine
 10
1335.8711121475
 20
-4.7001495754
 30
0.0
 11
1335.5233403763
 21
-4.7933347407
 31
0.0
  0
ARC
  5
276
100
AcDbEntity
  8
_Y__________
  6
CONTINUOUS
 62
         7
100
AcDbCircle
 10
1335.9228759565
 20
-4.8933347407
 30
0.0
 40
0.2
100
AcDbArc
 50
90.0
 51
105.0
  0
LINE
  5
277
100
AcDbEntity
  8
_Y__________
  6
CONTINUOUS
 62
         7
100
AcDbLine
 10
1332.7533403763
 20
-4.7933347407
 30
0.0
 11
1335.5233403763
 21
-4.7933347407
 31
0.0
  0
ARC
  5
278
100
AcDbEntity
  8
_Y__________
  6
CONTINUOUS
 62
         7
100
AcDbCircle
 10
1332.7533403763
 20
-3.7933347407
 30
0.0
 40
1.0
100
AcDbArc
 50
180.0
 51
270.0
  0
LINE
  5
279
100
AcDbEntity
  8
_Y__________
  6
CONTINUOUS
 62
         7
100
AcDbLine
 10
1370.0533403763
 20
-19.9433347407
 30
0.0
 11
1374.0947922606
 21
-12.9433347407
 31
0.0
  0
LINE
  5
27A
100
AcDbEntity
  8
_Y__________
  6
CONTINUOUS
 62
         7
100
AcDbLine
 10
1370.0533403763
 20
-5.9433347407
 30
0.0
 11
1374.0947922606
 21
-12.9433347407
 31
0.0
  0
LINE
  5
27B
100
AcDbEntity
  8
_Y__________
  6
CONTINUOUS
 62
         7
100
AcDbLine
 10
1370.0533403763
 20
-19.9433347407
 30
0.0
 11
1337.5061830887
 21
-19.9433347407
 31
0.0
  0
LINE
  5
27C
100
AcDbEntity
  8
_Y__________
  6
CONTINUOUS
 62
         7
100
AcDbLine
 10
1370.0533403763
 20
-5.9433347407
 30
0.0
 11
1337.5061830887
 21
-5.9433347407
 31
0.0
  0
LINE
  5
27D
100
AcDbEntity
  8
_Y__________
  6
CONTINUOUS
 62
         7
100
AcDbLine
 10
1370.0533403763
 20
-5.9433347407
 30
0.0
 11
1370.0533403763
 21
-19.9433347407
 31
0.0
  0
LINE
  5
27E
100
AcDbEntity
  8
_Y__________
  6
CONTINUOUS
 62
         7
100
AcDbLine
 10
1435.0553403763
 20
127.3996417294
 30
0.0
 11
1435.0553403763
 21
172.9696417294
 31
0.0
  0
LINE
  5
27F
100
AcDbEntity
  8
_Y__________
  6
CONTINUOUS
 62
         7
100
AcDbLine
 10
1434.2553403763
 20
-35.2283347407
 30
0.0
 11
1434.5553403763
 21
-35.2283347407
 31
0.0
  0
ARC
  5
280
100
AcDbEntity
  8
_Y__________
  6
CONTINUOUS
 62
         7
100
AcDbCircle
 10
1434.5553403763
 20
-35.7283347407
 30
0.0
 40
0.5
100
AcDbArc
 50
0.0
 51
90.0
  0
LINE
  5
281
100
AcDbEntity
  8
_Y__________
  6
CONTINUOUS
 62
         7
100
AcDbLine
 10
1434.2553403763
 20
9.3416652593
 30
0.0
 11
1434.5553403763
 21
9.3416652593
 31
0.0
  0
ARC
  5
282
100
AcDbEntity
  8
_Y__________
  6
CONTINUOUS
 62
         7
100
AcDbCircle
 10
1434.5553403763
 20
9.8416652593
 30
0.0
 40
0.5
100
AcDbArc
 50
270.0
 51
360.0
  0
LINE
  5
283
100
AcDbEntity
  8
_Y__________
  6
CONTINUOUS
 62
         7
100
AcDbLine
 10
1419.6033403763
 20
127.8996417294
 30
0.0
 11
1434.2553403763
 21
127.8996417294
 31
0.0
  0
ARC
  5
284
100
AcDbEntity
  8
_Y__________
  6
CONTINUOUS
 62
         7
100
AcDbCircle
 10
1434.5553403763
 20
127.3996417294
 30
0.0
 40
0.5
100
AcDbArc
 50
0.0
 51
90.0
  0
LINE
  5
285
100
AcDbEntity
  8
_Y__________
  6
CONTINUOUS
 62
         7
100
AcDbLine
 10
1434.2553403763
 20
172.4696417294
 30
0.0
 11
1434.5553403763
 21
172.4696417294
 31
0.0
  0
LINE
  5
286
100
AcDbEntity
  8
_Y__________
  6
CONTINUOUS
 62
         7
100
AcDbLine
 10
1192.1233403763
 20
142.6346417294
 30
0.0
 11
1192.1233403763
 21
157.7346417294
 31
0.0
  0
LINE
  5
287
100
AcDbEntity
  8
_Y__________
  6
CONTINUOUS
 62
         7
100
AcDbLine
 10
1192.1233403763
 20
142.6346417294
 30
0.0
 11
1191.6233403763
 21
142.1346417294
 31
0.0
  0
LINE
  5
288
100
AcDbEntity
  8
_Y__________
  6
CONTINUOUS
 62
         7
100
AcDbLine
 10
1191.6233403763
 20
142.1346417294
 30
0.0
 11
1184.6849584247
 21
142.1346417294
 31
0.0
  0
LINE
  5
289
100
AcDbEntity
  8
_Y__________
  6
CONTINUOUS
 62
         7
100
AcDbLine
 10
1184.2908731435
 20
141.7405564482
 30
0.0
 11
1184.6849584247
 21
142.1346417294
 31
0.0
  0
LINE
  5
28A
100
AcDbEntity
  8
_Y__________
  6
CONTINUOUS
 62
         7
100
AcDbLine
 10
1191.6233403763
 20
158.2346417294
 30
0.0
 11
1184.6849584247
 21
158.2346417294
 31
0.0
  0
LINE
  5
28B
100
AcDbEntity
  8
_Y__________
  6
CONTINUOUS
 62
         7
100
AcDbLine
 10
1192.1233403763
 20
157.7346417294
 30
0.0
 11
1191.6233403763
 21
158.2346417294
 31
0.0
  0
LINE
  5
28C
100
AcDbEntity
  8
_Y__________
  6
CONTINUOUS
 62
         7
100
AcDbLine
 10
1184.2908731435
 20
158.6287270106
 30
0.0
 11
1184.6849584247
 21
158.2346417294
 31
0.0
  0
LINE
  5
28D
100
AcDbEntity
  8
_Y__________
  6
CONTINUOUS
 62
         7
100
AcDbLine
 10
1245.1617223278
 20
142.1346417294
 30
0.0
 11
1240.4233403763
 21
142.1346417294
 31
0.0
  0
LINE
  5
28E
100
AcDbEntity
  8
_Y__________
  6
CONTINUOUS
 62
         7
100
AcDbLine
 10
1239.9233403763
 20
142.6346417294
 30
0.0
 11
1239.9233403763
 21
157.7346417294
 31
0.0
  0
LINE
  5
28F
100
AcDbEntity
  8
_Y__________
  6
CONTINUOUS
 62
         7
100
AcDbLine
 10
1239.9233403763
 20
142.6346417294
 30
0.0
 11
1240.4233403763
 21
142.1346417294
 31
0.0
  0
LINE
  5
290
100
AcDbEntity
  8
_Y__________
  6
CONTINUOUS
 62
         7
100
AcDbLine
 10
1245.555807609
 20
141.7405564482
 30
0.0
 11
1245.1617223278
 21
142.1346417294
 31
0.0
  0
LINE
  5
291
100
AcDbEntity
  8
_Y__________
  6
CONTINUOUS
 62
         7
100
AcDbLine
 10
1239.9233403763
 20
157.7346417294
 30
0.0
 11
1240.4233403763
 21
158.2346417294
 31
0.0
  0
LINE
  5
292
100
AcDbEntity
  8
_Y__________
  6
CONTINUOUS
 62
         7
100
AcDbLine
 10
1245.555807609
 20
158.6287270106
 30
0.0
 11
1245.1617223278
 21
158.2346417294
 31
0.0
  0
LINE
  5
293
100
AcDbEntity
  8
_Y__________
  6
CONTINUOUS
 62
         7
100
AcDbLine
 10
1245.1617223278
 20
158.2346417294
 30
0.0
 11
1240.4233403763
 21
158.2346417294
 31
0.0
  0
CIRCLE
  5
294
100
AcDbEntity
  8
_Y__________
  6
CONTINUOUS
 62
         7
100
AcDbCircle
 10
1214.9233403763
 20
150.1846417294
 30
0.0
 40
22.225
  0
CIRCLE
  5
295
100
AcDbEntity
  8
_Y__________
  6
CONTINUOUS
 62
         7
100
AcDbCircle
 10
1214.9233403763
 20
150.1846417294
 30
0.0
 40
8.5
  0
CIRCLE
  5
296
100
AcDbEntity
  8
_Y__________
  6
CONTINUOUS
 62
         7
100
AcDbCircle
 10
1214.9233403763
 20
150.1846417294
 30
0.0
 40
9.5
  0
ARC
  5
297
100
AcDbEntity
  8
_Y__________
  6
CONTINUOUS
 62
         5
100
AcDbCircle
 10
1214.9233403763
 20
150.1846417294
 30
0.0
 40
8.0
100
AcDbArc
 50
352.9901372228
 51
621.2264515101
  0
CIRCLE
  5
298
100
AcDbEntity
  8
_Y__________
  6
CONTINUOUS
 62
         7
100
AcDbCircle
 10
1214.9233403763
 20
150.1846417294
 30
0.0
 40
7.0
  0
CIRCLE
  5
299
100
AcDbEntity
  8
_Y__________
  6
CONTINUOUS
 62
         7
100
AcDbCircle
 10
1214.9233403763
 20
150.1846417294
 30
0.0
 40
12.7165768873
  0
LINE
  5
29A
100
AcDbEntity
  8
_Y__________
  6
CENTER
 62
         1
100
AcDbLine
 10
1214.9233403763
 20
114.5732894966
 30
0.0
 11
1214.9233403763
 21
185.4173498279
 31
0.0
  0
ARC
  5
29B
100
AcDbEntity
  8
_Y__________
  6
CONTINUOUS
 62
         7
100
AcDbCircle
 10
1214.9233403763
 20
150.1846417294
 30
0.0
 40
31.775
100
AcDbArc
 50
15.411296411
 51
164.588703589
  0
ARC
  5
29C
100
AcDbEntity
  8
_Y__________
  6
CONTINUOUS
 62
         7
100
AcDbCircle
 10
1214.9233403763
 20
150.1846417294
 30
0.0
 40
31.775
100
AcDbArc
 50
195.411296411
 51
344.588703589
  0
LINE
  5
29D
100
AcDbEntity
  8
_Y__________
  6
CENTER
 62
         1
100
AcDbLine
 10
1183.1483403763
 20
150.1846417294
 30
0.0
 11
1246.6983403763
 21
150.1846417294
 31
0.0
  0
LINE
  5
29E
100
AcDbEntity
  8
_Y__________
  6
CENTER
 62
         1
100
AcDbLine
 10
1696.790952795
 20
150.1846417294
 30
0.0
 11
1750.7694097755
 21
150.1846417294
 31
0.0
  0
LINE
  5
29F
100
AcDbEntity
  8
_Y__________
  6
DASHED
 62
         2
100
AcDbLine
 10
1693.0449584247
 20
142.1346417294
 30
0.0
 11
1697.7833403762
 21
142.1346417294
 31
0.0
  0
LINE
  5
2A0
100
AcDbEntity
  8
_Y__________
  6
DASHED
 62
         2
100
AcDbLine
 10
1692.6508731435
 20
141.7405564482
 30
0.0
 11
1693.0449584247
 21
142.1346417294
 31
0.0
  0
LINE
  5
2A1
100
AcDbEntity
  8
_Y__________
  6
DASHED
 62
         2
100
AcDbLine
 10
1698.2833403762
 20
142.6346417294
 30
0.0
 11
1697.7833403762
 21
142.1346417294
 31
0.0
  0
LINE
  5
2A2
100
AcDbEntity
  8
_Y__________
  6
DASHED
 62
         2
100
AcDbLine
 10
1692.6508731435
 20
158.6287270106
 30
0.0
 11
1693.0449584247
 21
158.2346417294
 31
0.0
  0
LINE
  5
2A3
100
AcDbEntity
  8
_Y__________
  6
DASHED
 62
         2
100
AcDbLine
 10
1698.2833403762
 20
157.7346417294
 30
0.0
 11
1697.7833403762
 21
158.2346417294
 31
0.0
  0
LINE
  5
2A4
100
AcDbEntity
  8
_Y__________
  6
DASHED
 62
         2
100
AcDbLine
 10
1698.2833403762
 20
157.7346417294
 30
0.0
 11
1698.2833403762
 21
142.6346417294
 31
0.0
  0
LINE
  5
2A5
100
AcDbEntity
  8
_Y__________
  6
DASHED
 62
         2
100
AcDbLine
 10
1693.0449584247
 20
158.2346417294
 30
0.0
 11
1697.7833403762
 21
158.2346417294
 31
0.0
  0
LINE
  5
2A6
100
AcDbEntity
  8
_Y__________
  6
DASHED
 62
         2
100
AcDbLine
 10
1753.915807609
 20
141.7405564482
 30
0.0
 11
1753.5217223278
 21
142.1346417294
 31
0.0
  0
LINE
  5
2A7
100
AcDbEntity
  8
_Y__________
  6
DASHED
 62
         2
100
AcDbLine
 10
1746.0833403763
 20
142.6346417294
 30
0.0
 11
1746.5833403763
 21
142.1346417294
 31
0.0
  0
LINE
  5
2A8
100
AcDbEntity
  8
_Y__________
  6
DASHED
 62
         2
100
AcDbLine
 10
1746.5833403763
 20
142.1346417294
 30
0.0
 11
1753.5217223278
 21
142.1346417294
 31
0.0
  0
LINE
  5
2A9
100
AcDbEntity
  8
_Y__________
  6
DASHED
 62
         2
100
AcDbLine
 10
1753.915807609
 20
158.6287270106
 30
0.0
 11
1753.5217223278
 21
158.2346417294
 31
0.0
  0
LINE
  5
2AA
100
AcDbEntity
  8
_Y__________
  6
DASHED
 62
         2
100
AcDbLine
 10
1746.5833403763
 20
158.2346417294
 30
0.0
 11
1753.5217223278
 21
158.2346417294
 31
0.0
  0
LINE
  5
2AB
100
AcDbEntity
  8
_Y__________
  6
DASHED
 62
         2
100
AcDbLine
 10
1746.0833403763
 20
157.7346417294
 30
0.0
 11
1746.5833403763
 21
158.2346417294
 31
0.0
  0
LINE
  5
2AC
100
AcDbEntity
  8
_Y__________
  6
DASHED
 62
         2
100
AcDbLine
 10
1746.0833403763
 20
157.7346417294
 30
0.0
 11
1746.0833403763
 21
142.6346417294
 31
0.0
  0
ARC
  5
2AD
100
AcDbEntity
  8
_Y__________
  6
DASHED
 62
         2
100
AcDbCircle
 10
1723.2833403763
 20
150.1846417294
 30
0.0
 40
28.125
100
AcDbArc
 50
198.3406919436
 51
343.3680794645
  0
ARC
  5
2AE
100
AcDbEntity
  8
_Y__________
  6
DASHED
 62
         2
100
AcDbCircle
 10
1723.2833403763
 20
150.1846417294
 30
0.0
 40
28.125
100
AcDbArc
 50
16.6319205355
 51
163.3680794645
  0
LINE
  5
2AF
100
AcDbEntity
  8
_Y__________
  6
CENTER
 62
         1
100
AcDbLine
 10
1723.2833403763
 20
184.9596417294
 30
0.0
 11
1723.2833403763
 21
107.3593954401
 31
0.0
  0
ARC
  5
2B0
100
AcDbEntity
  8
_Y__________
  6
DASHED
 62
         2
100
AcDbCircle
 10
1723.2833403763
 20
150.1846417294
 30
0.0
 40
31.775
100
AcDbArc
 50
15.411296411
 51
164.588703589
  0
ARC
  5
2B1
100
AcDbEntity
  8
_Y__________
  6
DASHED
 62
         2
100
AcDbCircle
 10
1723.2833403763
 20
150.1846417294
 30
0.0
 40
31.775
100
AcDbArc
 50
195.411296411
 51
344.588703589
  0
LINE
  5
2B2
100
AcDbEntity
  8
_Y__________
  6
CONTINUOUS
 62
         7
100
AcDbLine
 10
1407.5670699775
 20
181.9596417294
 30
0.0
 11
1407.5670699775
 21
159.0346417294
 31
0.0
  0
LINE
  5
2B3
100
AcDbEntity
  8
_Y__________
  6
CONTINUOUS
 62
         7
100
AcDbLine
 10
1409.2283403763
 20
179.0822369936
 30
0.0
 11
1409.2283403763
 21
158.2346417294
 31
0.0
  0
LINE
  5
2B4
100
AcDbEntity
  8
_Y__________
  6
CONTINUOUS
 62
         7
100
AcDbLine
 10
1412.9783403763
 20
179.0822369936
 30
0.0
 11
1412.9783403763
 21
158.2346417294
 31
0.0
  0
LINE
  5
2B5
100
AcDbEntity
  8
_Y__________
  6
CONTINUOUS
 62
         7
100
AcDbLine
 10
1414.639610775
 20
181.9596417294
 30
0.0
 11
1414.639610775
 21
159.0346417294
 31
0.0
  0
LINE
  5
2B6
100
AcDbEntity
  8
_Y__________
  6
CONTINUOUS
 62
         7
100
AcDbLine
 10
1418.3033403763
 20
158.2346417294
 30
0.0
 11
1404.0033403763
 21
158.2346417294
 31
0.0
  0
LINE
  5
2B7
100
AcDbEntity
  8
_Y__________
  6
CONTINUOUS
 62
         7
100
AcDbLine
 10
1418.3033403763
 20
142.1346417294
 30
0.0
 11
1404.0033403763
 21
142.1346417294
 31
0.0
  0
LINE
  5
2B8
100
AcDbEntity
  8
_Y__________
  6
CONTINUOUS
 62
         7
100
AcDbLine
 10
1407.5670699775
 20
159.0346417294
 30
0.0
 11
1409.2283403763
 21
158.2346417294
 31
0.0
  0
LINE
  5
2B9
100
AcDbEntity
  8
_Y__________
  6
CONTINUOUS
 62
         7
100
AcDbLine
 10
1407.5670699775
 20
141.3346417294
 30
0.0
 11
1409.2283403763
 21
142.1346417294
 31
0.0
  0
LINE
  5
2BA
100
AcDbEntity
  8
_Y__________
  6
CONTINUOUS
 62
         7
100
AcDbLine
 10
1404.0033403763
 20
158.2346417294
 30
0.0
 11
1404.0033403763
 21
142.1346417294
 31
0.0
  0
LINE
  5
2BB
100
AcDbEntity
  8
_Y__________
  6
CONTINUOUS
 62
         7
100
AcDbLine
 10
1407.5670699775
 20
141.3346417294
 30
0.0
 11
1403.2033403763
 21
141.3346417294
 31
0.0
  0
LINE
  5
2BC
100
AcDbEntity
  8
_Y__________
  6
CONTINUOUS
 62
         7
100
AcDbLine
 10
1404.0033403763
 20
142.1346417294
 30
0.0
 11
1403.2033403763
 21
141.3346417294
 31
0.0
  0
LINE
  5
2BD
100
AcDbEntity
  8
_Y__________
  6
CONTINUOUS
 62
         7
100
AcDbLine
 10
1403.2033403763
 20
159.0346417294
 30
0.0
 11
1404.0033403763
 21
158.2346417294
 31
0.0
  0
LINE
  5
2BE
100
AcDbEntity
  8
_Y__________
  6
CONTINUOUS
 62
         7
100
AcDbLine
 10
1407.5670699775
 20
159.0346417294
 30
0.0
 11
1403.2033403763
 21
159.0346417294
 31
0.0
  0
LINE
  5
2BF
100
AcDbEntity
  8
_Y__________
  6
CONTINUOUS
 62
         7
100
AcDbLine
 10
1418.3033403763
 20
158.2346417294
 30
0.0
 11
1418.3033403763
 21
142.1346417294
 31
0.0
  0
LINE
  5
2C0
100
AcDbEntity
  8
_Y__________
  6
CONTINUOUS
 62
         7
100
AcDbLine
 10
1419.1033403763
 20
141.3346417294
 30
0.0
 11
1414.639610775
 21
141.3346417294
 31
0.0
  0
LINE
  5
2C1
100
AcDbEntity
  8
_Y__________
  6
CONTINUOUS
 62
         7
100
AcDbLine
 10
1418.3033403763
 20
142.1346417294
 30
0.0
 11
1419.1033403763
 21
141.3346417294
 31
0.0
  0
LINE
  5
2C2
100
AcDbEntity
  8
_Y__________
  6
CONTINUOUS
 62
         7
100
AcDbLine
 10
1412.9783403763
 20
142.1346417294
 30
0.0
 11
1414.639610775
 21
141.3346417294
 31
0.0
  0
LINE
  5
2C3
100
AcDbEntity
  8
_Y__________
  6
CONTINUOUS
 62
         7
100
AcDbLine
 10
1419.1033403763
 20
159.0346417294
 30
0.0
 11
1418.3033403763
 21
158.2346417294
 31
0.0
  0
LINE
  5
2C4
100
AcDbEntity
  8
_Y__________
  6
CONTINUOUS
 62
         7
100
AcDbLine
 10
1412.9783403763
 20
158.2346417294
 30
0.0
 11
1414.639610775
 21
159.0346417294
 31
0.0
  0
LINE
  5
2C5
100
AcDbEntity
  8
_Y__________
  6
CONTINUOUS
 62
         7
100
AcDbLine
 10
1419.1033403763
 20
159.0346417294
 30
0.0
 11
1414.639610775
 21
159.0346417294
 31
0.0
  0
LINE
  5
2C6
100
AcDbEntity
  8
_Y__________
  6
CONTINUOUS
 62
         7
100
AcDbLine
 10
1407.5670699775
 20
141.3346417294
 30
0.0
 11
1407.5670699775
 21
118.4096417294
 31
0.0
  0
LINE
  5
2C7
100
AcDbEntity
  8
_Y__________
  6
CONTINUOUS
 62
         7
100
AcDbLine
 10
1409.2283403763
 20
142.1346417294
 30
0.0
 11
1409.2283403763
 21
121.2870464652
 31
0.0
  0
LINE
  5
2C8
100
AcDbEntity
  8
_Y__________
  6
CONTINUOUS
 62
         7
100
AcDbLine
 10
1412.9783403763
 20
142.1346417294
 30
0.0
 11
1412.9783403763
 21
121.2870464652
 31
0.0
  0
LINE
  5
2C9
100
AcDbEntity
  8
_Y__________
  6
CONTINUOUS
 62
         7
100
AcDbLine
 10
1414.639610775
 20
141.3346417294
 30
0.0
 11
1414.639610775
 21
118.4096417294
 31
0.0
  0
CIRCLE
  5
2CA
100
AcDbEntity
  8
_Y__________
  6
DASHED
 62
         2
100
AcDbCircle
 10
1723.2833403763
 20
150.1846417294
 30
0.0
 40
22.225
  0
ARC
  5
2CB
100
AcDbEntity
  8
_Y__________
  6
CONTINUOUS
 62
         7
100
AcDbCircle
 10
1434.5553403763
 20
172.9696417294
 30
0.0
 40
0.5
100
AcDbArc
 50
270.0
 51
360.0
  0
LINE
  5
2CC
100
AcDbEntity
  8
_Y__________
  6
CONTINUOUS
 62
         7
100
AcDbLine
 10
1419.1033403763
 20
-35.7283347407
 30
0.0
 11
1419.1033403763
 21
-43.7183347409
 31
0.0
  0
LINE
  5
2CD
100
AcDbEntity
  8
_Y__________
  6
CONTINUOUS
 62
         7
100
AcDbLine
 10
1419.1033403763
 20
17.8316652595
 30
0.0
 11
1419.1033403763
 21
9.8416652593
 31
0.0
  0
ARC
  5
2CE
100
AcDbEntity
  8
_Y__________
  6
CONTINUOUS
 62
         7
100
AcDbCircle
 10
1419.6033403763
 20
172.9696417294
 30
0.0
 40
0.5
100
AcDbArc
 50
180.0
 51
270.0
  0
ARC
  5
2CF
100
AcDbEntity
  8
_Y__________
  6
CONTINUOUS
 62
         7
100
AcDbCircle
 10
1419.6033403763
 20
127.3996417294
 30
0.0
 40
0.5
100
AcDbArc
 50
90.0
 51
180.0
  0
LINE
  5
2D0
100
AcDbEntity
  8
_Y__________
  6
CONTINUOUS
 62
         7
100
AcDbLine
 10
1434.2553403763
 20
127.8996417294
 30
0.0
 11
1434.5553403763
 21
127.8996417294
 31
0.0
  0
LINE
  5
2D1
100
AcDbEntity
  8
_Y__________
  6
CONTINUOUS
 62
         7
100
AcDbLine
 10
1419.6033403763
 20
172.4696417294
 30
0.0
 11
1434.2553403763
 21
172.4696417294
 31
0.0
  0
ARC
  5
2D2
100
AcDbEntity
  8
_Y__________
  6
CONTINUOUS
 62
         7
100
AcDbCircle
 10
1404.2033403763
 20
17.8316652593
 30
0.0
 40
1.0
100
AcDbArc
 50
90.0
 51
180.0
  0
LINE
  5
2D3
100
AcDbEntity
  8
_Y__________
  6
CONTINUOUS
 62
         7
100
AcDbLine
 10
1404.2033403763
 20
18.8316652593
 30
0.0
 11
1405.2033403763
 21
18.8316652593
 31
0.0
  0
LINE
  5
2D4
100
AcDbEntity
  8
_Y__________
  6
CONTINUOUS
 62
         7
100
AcDbLine
 10
1403.2033403763
 20
17.8316652593
 30
0.0
 11
1403.2033403763
 21
16.8316652593
 31
0.0
  0
LINE
  5
2D5
100
AcDbEntity
  8
_Y__________
  6
CONTINUOUS
 62
         7
100
AcDbLine
 10
1417.1033403763
 20
18.8316652593
 30
0.0
 11
1418.1033403763
 21
18.8316652593
 31
0.0
  0
ARC
  5
2D6
100
AcDbEntity
  8
_Y__________
  6
CONTINUOUS
 62
         7
100
AcDbCircle
 10
1418.1033403763
 20
17.8316652593
 30
0.0
 40
1.0
100
AcDbArc
 50
0.0
 51
90.0
  0
ARC
  5
2D7
100
AcDbEntity
  8
_Y__________
  6
CONTINUOUS
 62
         7
100
AcDbCircle
 10
1404.2033403763
 20
-43.7183347407
 30
0.0
 40
1.0
100
AcDbArc
 50
180.0
 51
270.0
  0
LINE
  5
2D8
100
AcDbEntity
  8
_Y__________
  6
CONTINUOUS
 62
         7
100
AcDbLine
 10
1404.2033403763
 20
-44.7183347407
 30
0.0
 11
1405.2033403763
 21
-44.7183347407
 31
0.0
  0
LINE
  5
2D9
100
AcDbEntity
  8
_Y__________
  6
CONTINUOUS
 62
         7
100
AcDbLine
 10
1417.1033403763
 20
-44.7183347407
 30
0.0
 11
1418.1033403763
 21
-44.7183347407
 31
0.0
  0
ARC
  5
2DA
100
AcDbEntity
  8
_Y__________
  6
CONTINUOUS
 62
         7
100
AcDbCircle
 10
1418.1033403763
 20
-43.7183347407
 30
0.0
 40
1.0
100
AcDbArc
 50
270.0
 51
360.0
  0
LINE
  5
2DB
100
AcDbEntity
  8
_Y__________
  6
CONTINUOUS
 62
         7
100
AcDbLine
 10
1419.1033403763
 20
17.8316652593
 30
0.0
 11
1419.1033403763
 21
16.8316652593
 31
0.0
  0
LINE
  5
2DC
100
AcDbEntity
  8
_Y__________
  6
CONTINUOUS
 62
         7
100
AcDbLine
 10
1403.2033403763
 20
-42.7183347407
 30
0.0
 11
1403.2033403763
 21
-43.7183347407
 31
0.0
  0
LINE
  5
2DD
100
AcDbEntity
  8
_Y__________
  6
CONTINUOUS
 62
         7
100
AcDbLine
 10
1419.1033403763
 20
-42.7183347407
 30
0.0
 11
1419.1033403763
 21
-43.7183347407
 31
0.0
  0
LINE
  5
2DE
100
AcDbEntity
  8
_Y__________
  6
CONTINUOUS
 62
         7
100
AcDbLine
 10
1419.1033403763
 20
127.3996417294
 30
0.0
 11
1419.1033403763
 21
119.4096417294
 31
0.0
  0
LINE
  5
2DF
100
AcDbEntity
  8
_Y__________
  6
CONTINUOUS
 62
         7
100
AcDbLine
 10
1403.2033403763
 20
120.4096417294
 30
0.0
 11
1403.2033403763
 21
119.4096417294
 31
0.0
  0
LINE
  5
2E0
100
AcDbEntity
  8
_Y__________
  6
CONTINUOUS
 62
         7
100
AcDbLine
 10
1419.1033403763
 20
180.9596417294
 30
0.0
 11
1419.1033403763
 21
172.9696417294
 31
0.0
  0
ARC
  5
2E1
100
AcDbEntity
  8
_Y__________
  6
CONTINUOUS
 62
         7
100
AcDbCircle
 10
1418.1033403763
 20
119.4096417294
 30
0.0
 40
1.0
100
AcDbArc
 50
270.0
 51
360.0
  0
LINE
  5
2E2
100
AcDbEntity
  8
_Y__________
  6
CONTINUOUS
 62
         7
100
AcDbLine
 10
1417.1033403763
 20
118.4096417294
 30
0.0
 11
1418.1033403763
 21
118.4096417294
 31
0.0
  0
LINE
  5
2E3
100
AcDbEntity
  8
_Y__________
  6
CONTINUOUS
 62
         7
100
AcDbLine
 10
1404.2033403763
 20
118.4096417294
 30
0.0
 11
1405.2033403763
 21
118.4096417294
 31
0.0
  0
ARC
  5
2E4
100
AcDbEntity
  8
_Y__________
  6
CONTINUOUS
 62
         7
100
AcDbCircle
 10
1404.2033403763
 20
119.4096417294
 30
0.0
 40
1.0
100
AcDbArc
 50
180.0
 51
270.0
  0
ARC
  5
2E5
100
AcDbEntity
  8
_Y__________
  6
CONTINUOUS
 62
         7
100
AcDbCircle
 10
1418.1033403763
 20
180.9596417294
 30
0.0
 40
1.0
100
AcDbArc
 50
0.0
 51
90.0
  0
LINE
  5
2E6
100
AcDbEntity
  8
_Y__________
  6
CONTINUOUS
 62
         7
100
AcDbLine
 10
1417.1033403763
 20
181.9596417294
 30
0.0
 11
1418.1033403763
 21
181.9596417294
 31
0.0
  0
LINE
  5
2E7
100
AcDbEntity
  8
_Y__________
  6
CONTINUOUS
 62
         7
100
AcDbLine
 10
1403.2033403763
 20
180.9596417294
 30
0.0
 11
1403.2033403763
 21
179.9596417294
 31
0.0
  0
LINE
  5
2E8
100
AcDbEntity
  8
_Y__________
  6
CONTINUOUS
 62
         7
100
AcDbLine
 10
1404.2033403763
 20
181.9596417294
 30
0.0
 11
1405.2033403763
 21
181.9596417294
 31
0.0
  0
ARC
  5
2E9
100
AcDbEntity
  8
_Y__________
  6
CONTINUOUS
 62
         7
100
AcDbCircle
 10
1404.2033403763
 20
180.9596417294
 30
0.0
 40
1.0
100
AcDbArc
 50
90.0
 51
180.0
  0
LINE
  5
2EA
100
AcDbEntity
  8
_Y__________
  6
CONTINUOUS
 62
         7
100
AcDbLine
 10
1419.6033403763
 20
9.3416652593
 30
0.0
 11
1434.2553403763
 21
9.3416652593
 31
0.0
  0
LINE
  5
2EB
100
AcDbEntity
  8
_Y__________
  6
CONTINUOUS
 62
         7
100
AcDbLine
 10
1419.6033403763
 20
-35.2283347407
 30
0.0
 11
1434.2553403763
 21
-35.2283347407
 31
0.0
  0
ARC
  5
2EC
100
AcDbEntity
  8
_Y__________
  6
CONTINUOUS
 62
         7
100
AcDbCircle
 10
1419.6033403763
 20
-35.7283347407
 30
0.0
 40
0.5
100
AcDbArc
 50
90.0
 51
180.0
  0
ARC
  5
2ED
100
AcDbEntity
  8
_Y__________
  6
CONTINUOUS
 62
         7
100
AcDbCircle
 10
1419.6033403763
 20
9.8416652593
 30
0.0
 40
0.5
100
AcDbArc
 50
180.0
 51
270.0
  0
CIRCLE
  5
2EE
100
AcDbEntity
  8
_Y__________
  6
CONTINUOUS
 62
         7
100
AcDbCircle
 10
1411.1033403763
 20
150.1846417294
 30
0.0
 40
5.0
  0
LINE
  5
2EF
100
AcDbEntity
  8
_Y__________
  6
DASHED
 62
         2
100
AcDbLine
 10
1698.7833403762
 20
145.1846417294
 30
0.0
 11
1698.2833403762
 21
144.6846417294
 31
0.0
  0
LINE
  5
2F0
100
AcDbEntity
  8
_Y__________
  6
DASHED
 62
         2
100
AcDbLine
 10
1698.7833403762
 20
155.1846417294
 30
0.0
 11
1698.2833403762
 21
155.6846417294
 31
0.0
  0
LINE
  5
2F1
100
AcDbEntity
  8
_Y__________
  6
DASHED
 62
         2
100
AcDbLine
 10
1698.7833403762
 20
155.1846417294
 30
0.0
 11
1698.7833403762
 21
145.1846417294
 31
0.0
  0
LINE
  5
2F2
100
AcDbEntity
  8
_Y__________
  6
DASHED
 62
         2
100
AcDbLine
 10
1698.7833403762
 20
145.1846417294
 30
0.0
 11
1704.9573403762
 21
145.1846417294
 31
0.0
  0
LINE
  5
2F3
100
AcDbEntity
  8
_Y__________
  6
DASHED
 62
         2
100
AcDbLine
 10
1707.8440917222
 20
150.1846417294
 30
0.0
 11
1704.9573403762
 21
145.1846417294
 31
0.0
  0
LINE
  5
2F4
100
AcDbEntity
  8
_Y__________
  6
DASHED
 62
         2
100
AcDbLine
 10
1704.9573403762
 20
155.1846417294
 30
0.0
 11
1707.8440917222
 21
150.1846417294
 31
0.0
  0
LINE
  5
2F5
100
AcDbEntity
  8
_Y__________
  6
DASHED
 62
         2
100
AcDbLine
 10
1704.9573403762
 20
155.1846417294
 30
0.0
 11
1704.9573403762
 21
145.1846417294
 31
0.0
  0
LINE
  5
2F6
100
AcDbEntity
  8
_Y__________
  6
DASHED
 62
         2
100
AcDbLine
 10
1698.7833403762
 20
155.1846417294
 30
0.0
 11
1704.9573403762
 21
155.1846417294
 31
0.0
  0
LINE
  5
2F7
100
AcDbEntity
  8
_Y__________
  6
DASHED
 62
         2
100
AcDbLine
 10
1698.2833403762
 20
155.6846417294
 30
0.0
 11
1698.2833403762
 21
144.6846417294
 31
0.0
  0
LINE
  5
2F8
100
AcDbEntity
  8
_Y__________
  6
CONTINUOUS
 62
         7
100
AcDbLine
 10
1419.1033403763
 20
120.4096417294
 30
0.0
 11
1419.1033403763
 21
119.4096417294
 31
0.0
  0
LINE
  5
2F9
100
AcDbEntity
  8
_Y__________
  6
CONTINUOUS
 62
         7
100
AcDbLine
 10
1419.1033403763
 20
180.9596417294
 30
0.0
 11
1419.1033403763
 21
179.9596417294
 31
0.0
  0
LINE
  5
2FA
100
AcDbEntity
  8
L1_170
  6
CONTINUOUS
 62
         7
100
AcDbLine
 10
1435.0553403763
 20
120.6846417294
 30
0.0
 11
1435.0553403763
 21
179.6846417294
 31
0.0
  0
ARC
  5
2FB
100
AcDbEntity
  8
L1_170
  6
CONTINUOUS
 62
         7
100
AcDbCircle
 10
1437.0553403763
 20
179.6846417294
 30
0.0
 40
2.0
100
AcDbArc
 50
90.0
 51
180.0
  0
ARC
  5
2FC
100
AcDbEntity
  8
L1_170
  6
CONTINUOUS
 62
         7
100
AcDbCircle
 10
1437.0553403763
 20
120.6846417294
 30
0.0
 40
2.0
100
AcDbArc
 50
180.0
 51
270.0
  0
LINE
  5
2FD
100
AcDbEntity
  8
L1_170
  6
CONTINUOUS
 62
         7
100
AcDbLine
 10
1435.0553403763
 20
-42.4433347407
 30
0.0
 11
1435.0553403763
 21
-35.7283347407
 31
0.0
  0
ARC
  5
2FE
100
AcDbEntity
  8
L1_170
  6
CONTINUOUS
 62
         7
100
AcDbCircle
 10
1437.0553403763
 20
16.5566652593
 30
0.0
 40
2.0
100
AcDbArc
 50
90.0
 51
180.0
  0
ARC
  5
2FF
100
AcDbEntity
  8
L1_170
  6
CONTINUOUS
 62
         7
100
AcDbCircle
 10
1437.0553403763
 20
-42.4433347407
 30
0.0
 40
2.0
100
AcDbArc
 50
180.0
 51
270.0
  0
LINE
  5
300
100
AcDbEntity
  8
L1_170
  6
CONTINUOUS
 62
         7
100
AcDbLine
 10
1435.0553403763
 20
9.8416652593
 30
0.0
 11
1435.0553403763
 21
16.5566652593
 31
0.0
  0
LINE
  5
301
100
AcDbEntity
  8
L1_170
  6
CENTER
 62
         1
100
AcDbLine
 10
1732.7418247517
 20
66.1413054815
 30
0.0
 11
1732.7418247517
 21
79.4162618713
 31
0.0
  0
LINE
  5
302
100
AcDbEntity
  8
L1_170
  6
CENTER
 62
         1
100
AcDbLine
 10
1745.0489443568
 20
66.1413054877
 30
0.0
 11
1745.0489443568
 21
79.4162618776
 31
0.0
  0
CIRCLE
  5
303
100
AcDbEntity
  8
L1_170
  6
CONTINUOUS
 62
         7
100
AcDbCircle
 10
1776.8678128889
 20
72.5658539282
 30
0.0
 40
3.25
  0
LINE
  5
304
100
AcDbEntity
  8
L1_170
  6
CENTER
 62
         1
100
AcDbLine
 10
1776.8678128889
 20
75.8158539282
 30
0.0
 11
1776.8678128889
 21
69.3158539282
 31
0.0
  0
ARC
  5
305
100
AcDbEntity
  8
L1_170
  6
CONTINUOUS
 62
         7
100
AcDbCircle
 10
1724.9601740784
 20
57.0658539282
 30
0.0
 40
0.5
100
AcDbArc
 50
0.0
 51
180.0
  0
ARC
  5
306
100
AcDbEntity
  8
L1_170
  6
CONTINUOUS
 62
         7
100
AcDbCircle
 10
1724.9601740784
 20
88.0658539282
 30
0.0
 40
0.5
100
AcDbArc
 50
180.0
 51
360.0
  0
LINE
  5
307
100
AcDbEntity
  8
L1_170
  6
CONTINUOUS
 62
         7
100
AcDbLine
 10
1725.4601740784
 20
49.5658539282
 30
0.0
 11
1726.4601740784
 21
48.5658539282
 31
0.0
  0
LINE
  5
308
100
AcDbEntity
  8
L1_170
  6
CONTINUOUS
 62
         7
100
AcDbLine
 10
1725.4601740784
 20
95.5658539282
 30
0.0
 11
1725.4601740784
 21
49.5658539282
 31
0.0
  0
LINE
  5
309
100
AcDbEntity
  8
L1_170
  6
CONTINUOUS
 62
         7
100
AcDbLine
 10
1724.4601740784
 20
57.0658539282
 30
0.0
 11
1705.4578128889
 21
57.0658539282
 31
0.0
  0
LINE
  5
30A
100
AcDbEntity
  8
L1_170
  6
CONTINUOUS
 62
         7
100
AcDbLine
 10
1704.4578128889
 20
58.0658539282
 30
0.0
 11
1705.4578128889
 21
57.0658539282
 31
0.0
  0
LINE
  5
30B
100
AcDbEntity
  8
L1_170
  6
CONTINUOUS
 62
         7
100
AcDbLine
 10
1704.4578128889
 20
87.0658539282
 30
0.0
 11
1705.4578128889
 21
88.0658539282
 31
0.0
  0
LINE
  5
30C
100
AcDbEntity
  8
L1_170
  6
CONTINUOUS
 62
         7
100
AcDbLine
 10
1724.4601740784
 20
88.0658539282
 30
0.0
 11
1705.4578128889
 21
88.0658539282
 31
0.0
  0
LINE
  5
30D
100
AcDbEntity
  8
L1_170
  6
CONTINUOUS
 62
         7
100
AcDbLine
 10
1725.4601740784
 20
95.5658539282
 30
0.0
 11
1726.4601740784
 21
96.5658539282
 31
0.0
  0
LINE
  5
30E
100
AcDbEntity
  8
L1_170
  6
CONTINUOUS
 62
         7
100
AcDbLine
 10
1752.3178128889
 20
49.5658539282
 30
0.0
 11
1751.3178128889
 21
48.5658539282
 31
0.0
  0
LINE
  5
30F
100
AcDbEntity
  8
L1_170
  6
CONTINUOUS
 62
         7
100
AcDbLine
 10
1751.3178128889
 20
96.5658539282
 30
0.0
 11
1752.3178128889
 21
95.5658539282
 31
0.0
  0
LINE
  5
310
100
AcDbEntity
  8
L1_170
  6
CONTINUOUS
 62
         7
100
AcDbLine
 10
1751.3178128889
 20
48.5658539282
 30
0.0
 11
1726.4601740784
 21
48.5658539282
 31
0.0
  0
LINE
  5
311
100
AcDbEntity
  8
L1_170
  6
CONTINUOUS
 62
         7
100
AcDbLine
 10
1751.3178128889
 20
96.5658539282
 30
0.0
 11
1726.4601740784
 21
96.5658539282
 31
0.0
  0
LINE
  5
312
100
AcDbEntity
  8
L1_170
  6
CONTINUOUS
 62
         7
100
AcDbLine
 10
1799.0678128889
 20
52.5658539282
 30
0.0
 11
1799.0678128889
 21
92.5658539282
 31
0.0
  0
LINE
  5
313
100
AcDbEntity
  8
L1_170
  6
CONTINUOUS
 62
         7
100
AcDbLine
 10
1799.0678128889
 20
53.0658539282
 30
0.0
 11
1797.5678128889
 21
53.0658539282
 31
0.0
  0
LINE
  5
314
100
AcDbEntity
  8
L1_170
  6
CONTINUOUS
 62
         7
100
AcDbLine
 10
1797.5678128889
 20
52.5658539282
 30
0.0
 11
1797.5678128889
 21
92.5658539282
 31
0.0
  0
LINE
  5
315
100
AcDbEntity
  8
L1_170
  6
CONTINUOUS
 62
         7
100
AcDbLine
 10
1799.0678128889
 20
92.0658539282
 30
0.0
 11
1797.5678128889
 21
92.0658539282
 31
0.0
  0
LINE
  5
316
100
AcDbEntity
  8
L1_170
  6
CONTINUOUS
 62
         7
100
AcDbLine
 10
1797.5678128889
 20
52.5658539282
 30
0.0
 11
1753.3178128889
 21
52.5658539282
 31
0.0
  0
LINE
  5
317
100
AcDbEntity
  8
L1_170
  6
CONTINUOUS
 62
         7
100
AcDbLine
 10
1753.3178128889
 20
92.5658539282
 30
0.0
 11
1797.5678128889
 21
92.5658539282
 31
0.0
  0
LINE
  5
318
100
AcDbEntity
  8
L1_170
  6
CONTINUOUS
 62
         7
100
AcDbLine
 10
1806.0678128889
 20
92.5658539282
 30
0.0
 11
1799.0678128889
 21
92.5658539282
 31
0.0
  0
LINE
  5
319
100
AcDbEntity
  8
L1_170
  6
CONTINUOUS
 62
         7
100
AcDbLine
 10
1806.0678128889
 20
52.5658539282
 30
0.0
 11
1799.0678128889
 21
52.5658539282
 31
0.0
  0
LINE
  5
31A
100
AcDbEntity
  8
L1_170
  6
CONTINUOUS
 62
         7
100
AcDbLine
 10
1704.4578128889
 20
58.0658539282
 30
0.0
 11
1704.4578128889
 21
87.0658539282
 31
0.0
  0
LINE
  5
31B
100
AcDbEntity
  8
L1_170
  6
CONTINUOUS
 62
         7
100
AcDbLine
 10
1752.3178128889
 20
49.5658539282
 30
0.0
 11
1752.3178128889
 21
95.5658539282
 31
0.0
  0
LINE
  5
31C
100
AcDbEntity
  8
L1_170
  6
CONTINUOUS
 62
         7
100
AcDbLine
 10
1806.0678128889
 20
92.5658539282
 30
0.0
 11
1806.5678128889
 21
92.0658539282
 31
0.0
  0
LINE
  5
31D
100
AcDbEntity
  8
L1_170
  6
CONTINUOUS
 62
         7
100
AcDbLine
 10
1806.5678128889
 20
53.0658539282
 30
0.0
 11
1806.0678128889
 21
52.5658539282
 31
0.0
  0
ARC
  5
31E
100
AcDbEntity
  8
L1_170
  6
CONTINUOUS
 62
         7
100
AcDbCircle
 10
1752.8178128889
 20
92.5658539282
 30
0.0
 40
0.5
100
AcDbArc
 50
180.0
 51
360.0
  0
ARC
  5
31F
100
AcDbEntity
  8
L1_170
  6
CONTINUOUS
 62
         7
100
AcDbCircle
 10
1752.8178128889
 20
52.5658539282
 30
0.0
 40
0.5
100
AcDbArc
 50
0.0
 51
180.0
  0
LINE
  5
320
100
AcDbEntity
  8
L1_170
  6
CENTER
 62
         1
100
AcDbLine
 10
1767.1178128889
 20
88.9731821399
 30
0.0
 11
1767.1178128889
 21
90.7995418678
 31
0.0
  0
LINE
  5
321
100
AcDbEntity
  8
L1_170
  6
CONTINUOUS
 62
         7
100
AcDbLine
 10
1664.8738382927
 20
103.7979047357
 30
0.0
 11
1666.7578128889
 21
102.7101914955
 31
0.0
  0
LINE
  5
322
100
AcDbEntity
  8
L1_170
  6
CONTINUOUS
 62
         7
100
AcDbLine
 10
1664.8738382927
 20
41.3338031206
 30
0.0
 11
1666.7578128889
 21
42.4215163609
 31
0.0
  0
LINE
  5
323
100
AcDbEntity
  8
L1_170
  6
CONTINUOUS
 62
         7
100
AcDbLine
 10
1667.0078128889
 20
42.8545290627
 30
0.0
 11
1667.0078128889
 21
102.2771787936
 31
0.0
  0
ARC
  5
324
100
AcDbEntity
  8
L1_170
  6
CONTINUOUS
 62
         7
100
AcDbCircle
 10
1663.8738382927
 20
102.0658539282
 30
0.0
 40
2.0
100
AcDbArc
 50
60.0
 51
90.0
  0
ARC
  5
325
100
AcDbEntity
  8
L1_170
  6
CONTINUOUS
 62
         7
100
AcDbCircle
 10
1663.8738382927
 20
43.0658539282
 30
0.0
 40
2.0
100
AcDbArc
 50
270.0
 51
300.0
  0
ARC
  5
326
100
AcDbEntity
  8
L1_170
  6
CONTINUOUS
 62
         7
100
AcDbCircle
 10
1666.5078128889
 20
102.2771787936
 30
0.0
 40
0.5
100
AcDbArc
 50
0.0
 51
59.9999999999
  0
ARC
  5
327
100
AcDbEntity
  8
L1_170
  6
CONTINUOUS
 62
         7
100
AcDbCircle
 10
1666.5078128889
 20
42.8545290627
 30
0.0
 40
0.5
100
AcDbArc
 50
300.0
 51
360.0
  0
LINE
  5
328
100
AcDbEntity
  8
L1_170
  6
CONTINUOUS
 62
         7
100
AcDbLine
 10
1663.8738382927
 20
104.0658539282
 30
0.0
 11
1630.4078128889
 21
104.0658539282
 31
0.0
  0
LINE
  5
329
100
AcDbEntity
  8
L1_170
  6
CONTINUOUS
 62
         7
100
AcDbLine
 10
1629.9078128889
 20
103.5658539282
 30
0.0
 11
1630.4078128889
 21
104.0658539282
 31
0.0
  0
LINE
  5
32A
100
AcDbEntity
  8
L1_170
  6
CONTINUOUS
 62
         7
100
AcDbLine
 10
1629.9078128889
 20
41.5658539282
 30
0.0
 11
1629.9078128889
 21
103.5658539282
 31
0.0
  0
LINE
  5
32B
100
AcDbEntity
  8
L1_170
  6
CONTINUOUS
 62
         7
100
AcDbLine
 10
1663.8738382927
 20
41.0658539282
 30
0.0
 11
1630.4078128889
 21
41.0658539282
 31
0.0
  0
LINE
  5
32C
100
AcDbEntity
  8
L1_170
  6
CONTINUOUS
 62
         7
100
AcDbLine
 10
1629.9078128889
 20
41.5658539282
 30
0.0
 11
1630.4078128889
 21
41.0658539282
 31
0.0
  0
LINE
  5
32D
100
AcDbEntity
  8
L1_170
  6
CONTINUOUS
 62
         7
100
AcDbLine
 10
1675.2178128889
 20
62.8158539282
 30
0.0
 11
1675.2178128889
 21
82.3158539282
 31
0.0
  0
LINE
  5
32E
100
AcDbEntity
  8
L1_170
  6
CONTINUOUS
 62
         7
100
AcDbLine
 10
1695.1178128889
 20
61.0658539282
 30
0.0
 11
1694.6178128889
 21
60.5658539282
 31
0.0
  0
LINE
  5
32F
100
AcDbEntity
  8
L1_170
  6
CONTINUOUS
 62
         7
100
AcDbLine
 10
1694.6178128889
 20
60.5658539282
 30
0.0
 11
1690.2178128889
 21
60.5658539282
 31
0.0
  0
LINE
  5
330
100
AcDbEntity
  8
L1_170
  6
CONTINUOUS
 62
         7
100
AcDbLine
 10
1695.1178128889
 20
61.0658539282
 30
0.0
 11
1695.1178128889
 21
84.0658539282
 31
0.0
  0
LINE
  5
331
100
AcDbEntity
  8
L1_170
  6
CONTINUOUS
 62
         7
100
AcDbLine
 10
1694.6178128889
 20
84.5658539282
 30
0.0
 11
1695.1178128889
 21
84.0658539282
 31
0.0
  0
LINE
  5
332
100
AcDbEntity
  8
L1_170
  6
CONTINUOUS
 62
         7
100
AcDbLine
 10
1694.6178128889
 20
84.5658539282
 30
0.0
 11
1690.2178128889
 21
84.5658539282
 31
0.0
  0
ARC
  5
333
100
AcDbEntity
  8
L1_170
  6
CONTINUOUS
 62
         7
100
AcDbCircle
 10
1689.6178128889
 20
61.8158539282
 30
0.0
 40
0.5
100
AcDbArc
 50
0.0
 51
90.0
  0
LINE
  5
334
100
AcDbEntity
  8
L1_170
  6
CONTINUOUS
 62
         7
100
AcDbLine
 10
1689.6178128889
 20
62.3158539282
 30
0.0
 11
1675.7178128889
 21
62.3158539282
 31
0.0
  0
LINE
  5
335
100
AcDbEntity
  8
L1_170
  6
CONTINUOUS
 62
         7
100
AcDbLine
 10
1689.6178128889
 20
82.8158539282
 30
0.0
 11
1675.7178128889
 21
82.8158539282
 31
0.0
  0
LINE
  5
336
100
AcDbEntity
  8
L1_170
  6
CONTINUOUS
 62
         7
100
AcDbLine
 10
1690.1178128889
 20
60.6658539282
 30
0.0
 11
1690.1178128889
 21
84.4658539282
 31
0.0
  0
ARC
  5
337
100
AcDbEntity
  8
L1_170
  6
CONTINUOUS
 62
         7
100
AcDbCircle
 10
1689.6178128889
 20
83.3158539282
 30
0.0
 40
0.5
100
AcDbArc
 50
270.0
 51
360.0
  0
LINE
  5
338
100
AcDbEntity
  8
L1_170
  6
CONTINUOUS
 62
         7
100
AcDbLine
 10
1690.2178128889
 20
60.5658539282
 30
0.0
 11
1690.1178128889
 21
60.6658539282
 31
0.0
  0
LINE
  5
339
100
AcDbEntity
  8
L1_170
  6
CONTINUOUS
 62
         7
100
AcDbLine
 10
1690.1178128889
 20
84.4658539282
 30
0.0
 11
1690.2178128889
 21
84.5658539282
 31
0.0
  0
POLYLINE
  5
33B
100
AcDbEntity
  8
L1_170
  6
CONTINUOUS
 62
         7
100
AcDb2dPolyline
 66
         1
 10
0.0
 20
0.0
 30
0.0
 70
         2
  0
VERTEX
  5
33D
100
AcDbEntity
  8
L1_170
  6
CONTINUOUS
 62
         7
100
AcDbVertex
100
AcDb2dVertex
 10
1769.1178128889
 20
89.8863620038
 30
0.0
 70
         1
  0
VERTEX
  5
33F
100
AcDbEntity
  8
L1_170
  6
CONTINUOUS
 62
         7
100
AcDbVertex
100
AcDb2dVertex
 10
1769.0730334293
 20
90.0785167461
 30
0.0
 70
         1
  0
VERTEX
  5
341
100
AcDbEntity
  8
L1_170
  6
CONTINUOUS
 62
         7
100
AcDbVertex
100
AcDb2dVertex
 10
1769.0237394421
 20
90.1631338404
 30
0.0
 70
         1
  0
VERTEX
  5
343
100
AcDbEntity
  8
L1_170
  6
CONTINUOUS
 62
         7
100
AcDbVertex
100
AcDb2dVertex
 10
1768.954775628
 20
90.2474919947
 30
0.0
 70
         1
  0
VERTEX
  5
345
100
AcDbEntity
  8
L1_170
  6
CONTINUOUS
 62
         7
100
AcDbVertex
100
AcDb2dVertex
 10
1768.8657712845
 20
90.3301339349
 30
0.0
 70
         1
  0
VERTEX
  5
347
100
AcDbEntity
  8
L1_170
  6
CONTINUOUS
 62
         7
100
AcDbVertex
100
AcDb2dVertex
 10
1768.7570433191
 20
90.4095358893
 30
0.0
 70
         1
  0
VERTEX
  5
349
100
AcDbEntity
  8
L1_170
  6
CONTINUOUS
 62
         7
100
AcDbVertex
100
AcDb2dVertex
 10
1768.6296433249
 20
90.484193029
 30
0.0
 70
         1
  0
VERTEX
  5
34B
100
AcDbEntity
  8
L1_170
  6
CONTINUOUS
 62
         7
100
AcDbVertex
100
AcDb2dVertex
 10
1768.4853427187
 20
90.55271151
 30
0.0
 70
         1
  0
VERTEX
  5
34D
100
AcDbEntity
  8
L1_170
  6
CONTINUOUS
 62
         7
100
AcDbVertex
100
AcDb2dVertex
 10
1768.3265521201
 20
90.6138961138
 30
0.0
 70
         1
  0
VERTEX
  5
34F
100
AcDbEntity
  8
L1_170
  6
CONTINUOUS
 62
         7
100
AcDbVertex
100
AcDb2dVertex
 10
1768.09562473
 20
90.6829621468
 30
0.0
 70
         1
  0
VERTEX
  5
351
100
AcDbEntity
  8
L1_170
  6
CONTINUOUS
 62
         7
100
AcDbVertex
100
AcDb2dVertex
 10
1767.8517013343
 20
90.7358411301
 30
0.0
 70
         1
  0
VERTEX
  5
353
100
AcDbEntity
  8
L1_170
  6
CONTINUOUS
 62
         7
100
AcDbVertex
100
AcDb2dVertex
 10
1767.6028005141
 20
90.7722861448
 30
0.0
 70
         1
  0
VERTEX
  5
355
100
AcDbEntity
  8
L1_170
  6
CONTINUOUS
 62
         7
100
AcDbVertex
100
AcDb2dVertex
 10
1767.2726097977
 20
90.7968025477
 30
0.0
 70
         1
  0
VERTEX
  5
357
100
AcDbEntity
  8
L1_170
  6
CONTINUOUS
 62
         7
100
AcDbVertex
100
AcDb2dVertex
 10
1766.9611045059
 20
90.7967343733
 30
0.0
 70
         1
  0
VERTEX
  5
359
100
AcDbEntity
  8
L1_170
  6
CONTINUOUS
 62
         7
100
AcDbVertex
100
AcDb2dVertex
 10
1766.6777676002
 20
90.7771641803
 30
0.0
 70
         1
  0
VERTEX
  5
35B
100
AcDbEntity
  8
L1_170
  6
CONTINUOUS
 62
         7
100
AcDbVertex
100
AcDb2dVertex
 10
1766.4273223892
 20
90.7433927232
 30
0.0
 70
         1
  0
VERTEX
  5
35D
100
AcDbEntity
  8
L1_170
  6
CONTINUOUS
 62
         7
100
AcDbVertex
100
AcDb2dVertex
 10
1766.1424188157
 20
90.6835798453
 30
0.0
 70
         1
  0
VERTEX
  5
35F
100
AcDbEntity
  8
L1_170
  6
CONTINUOUS
 62
         7
100
AcDbVertex
100
AcDb2dVertex
 10
1765.9146680991
 20
90.6158267773
 30
0.0
 70
         1
  0
VERTEX
  5
361
100
AcDbEntity
  8
L1_170
  6
CONTINUOUS
 62
         7
100
AcDbVertex
100
AcDb2dVertex
 10
1765.7358615842
 20
90.5464796659
 30
0.0
 70
         1
  0
VERTEX
  5
363
100
AcDbEntity
  8
L1_170
  6
CONTINUOUS
 62
         7
100
AcDbVertex
100
AcDb2dVertex
 10
1765.5969701731
 20
90.4794084264
 30
0.0
 70
         1
  0
VERTEX
  5
365
100
AcDbEntity
  8
L1_170
  6
CONTINUOUS
 62
         7
100
AcDbVertex
100
AcDb2dVertex
 10
1765.4575513438
 20
90.3955225505
 30
0.0
 70
         1
  0
VERTEX
  5
367
100
AcDbEntity
  8
L1_170
  6
CONTINUOUS
 62
         7
100
AcDbVertex
100
AcDb2dVertex
 10
1765.3596577049
 20
90.3216553983
 30
0.0
 70
         1
  0
VERTEX
  5
369
100
AcDbEntity
  8
L1_170
  6
CONTINUOUS
 62
         7
100
AcDbVertex
100
AcDb2dVertex
 10
1765.2709493921
 20
90.2368063694
 30
0.0
 70
         1
  0
VERTEX
  5
36B
100
AcDbEntity
  8
L1_170
  6
CONTINUOUS
 62
         7
100
AcDbVertex
100
AcDb2dVertex
 10
1765.2005080883
 20
90.146234407
 30
0.0
 70
         1
  0
VERTEX
  5
36D
100
AcDbEntity
  8
L1_170
  6
CONTINUOUS
 62
         7
100
AcDbVertex
100
AcDb2dVertex
 10
1765.1535575161
 20
90.0582369315
 30
0.0
 70
         1
  0
VERTEX
  5
36F
100
AcDbEntity
  8
L1_170
  6
CONTINUOUS
 62
         7
100
AcDbVertex
100
AcDb2dVertex
 10
1765.1240243386
 20
89.9582763191
 30
0.0
 70
         1
  0
VERTEX
  5
371
100
AcDbEntity
  8
L1_170
  6
CONTINUOUS
 62
         7
100
AcDbVertex
100
AcDb2dVertex
 10
1765.1178128889
 20
89.8863620038
 30
0.0
 70
         1
  0
VERTEX
  5
373
100
AcDbEntity
  8
L1_170
  6
CONTINUOUS
 62
         7
100
AcDbVertex
100
AcDb2dVertex
 10
1765.1178128889
 20
89.8863620038
 30
0.0
 70
         1
  0
VERTEX
  5
375
100
AcDbEntity
  8
L1_170
  6
CONTINUOUS
 62
         7
100
AcDbVertex
100
AcDb2dVertex
 10
1765.1625923485
 20
89.6942072616
 30
0.0
 70
         1
  0
VERTEX
  5
377
100
AcDbEntity
  8
L1_170
  6
CONTINUOUS
 62
         7
100
AcDbVertex
100
AcDb2dVertex
 10
1765.2118863358
 20
89.6095901673
 30
0.0
 70
         1
  0
VERTEX
  5
379
100
AcDbEntity
  8
L1_170
  6
CONTINUOUS
 62
         7
100
AcDbVertex
100
AcDb2dVertex
 10
1765.2808501498
 20
89.5252320129
 30
0.0
 70
         1
  0
VERTEX
  5
37B
100
AcDbEntity
  8
L1_170
  6
CONTINUOUS
 62
         7
100
AcDbVertex
100
AcDb2dVertex
 10
1765.3698544934
 20
89.4425900727
 30
0.0
 70
         1
  0
VERTEX
  5
37D
100
AcDbEntity
  8
L1_170
  6
CONTINUOUS
 62
         7
100
AcDbVertex
100
AcDb2dVertex
 10
1765.4785824587
 20
89.3631881184
 30
0.0
 70
         1
  0
VERTEX
  5
37F
100
AcDbEntity
  8
L1_170
  6
CONTINUOUS
 62
         7
100
AcDbVertex
100
AcDb2dVertex
 10
1765.605982453
 20
89.2885309787
 30
0.0
 70
         1
  0
VERTEX
  5
381
100
AcDbEntity
  8
L1_170
  6
CONTINUOUS
 62
         7
100
AcDbVertex
100
AcDb2dVertex
 10
1765.7502830591
 20
89.2200124977
 30
0.0
 70
         1
  0
VERTEX
  5
383
100
AcDbEntity
  8
L1_170
  6
CONTINUOUS
 62
         7
100
AcDbVertex
100
AcDb2dVertex
 10
1765.9090736577
 20
89.1588278939
 30
0.0
 70
         1
  0
VERTEX
  5
385
100
AcDbEntity
  8
L1_170
  6
CONTINUOUS
 62
         7
100
AcDbVertex
100
AcDb2dVertex
 10
1766.1400010479
 20
89.0897618609
 30
0.0
 70
         1
  0
VERTEX
  5
387
100
AcDbEntity
  8
L1_170
  6
CONTINUOUS
 62
         7
100
AcDbVertex
100
AcDb2dVertex
 10
1766.3839244435
 20
89.0368828776
 30
0.0
 70
         1
  0
VERTEX
  5
389
100
AcDbEntity
  8
L1_170
  6
CONTINUOUS
 62
         7
100
AcDbVertex
100
AcDb2dVertex
 10
1766.6328252637
 20
89.0004378629
 30
0.0
 70
         1
  0
VERTEX
  5
38B
100
AcDbEntity
  8
L1_170
  6
CONTINUOUS
 62
         7
100
AcDbVertex
100
AcDb2dVertex
 10
1766.9630159801
 20
88.97592146
 30
0.0
 70
         1
  0
VERTEX
  5
38D
100
AcDbEntity
  8
L1_170
  6
CONTINUOUS
 62
         7
100
AcDbVertex
100
AcDb2dVertex
 10
1767.2745212719
 20
88.9759896344
 30
0.0
 70
         1
  0
VERTEX
  5
38F
100
AcDbEntity
  8
L1_170
  6
CONTINUOUS
 62
         7
100
AcDbVertex
100
AcDb2dVertex
 10
1767.5578581776
 20
88.9955598273
 30
0.0
 70
         1
  0
VERTEX
  5
391
100
AcDbEntity
  8
L1_170
  6
CONTINUOUS
 62
         7
100
AcDbVertex
100
AcDb2dVertex
 10
1767.8083033887
 20
89.0293312845
 30
0.0
 70
         1
  0
VERTEX
  5
393
100
AcDbEntity
  8
L1_170
  6
CONTINUOUS
 62
         7
100
AcDbVertex
100
AcDb2dVertex
 10
1768.0932069621
 20
89.0891441624
 30
0.0
 70
         1
  0
VERTEX
  5
395
100
AcDbEntity
  8
L1_170
  6
CONTINUOUS
 62
         7
100
AcDbVertex
100
AcDb2dVertex
 10
1768.3209576788
 20
89.1568972303
 30
0.0
 70
         1
  0
VERTEX
  5
397
100
AcDbEntity
  8
L1_170
  6
CONTINUOUS
 62
         7
100
AcDbVertex
100
AcDb2dVertex
 10
1768.4997641936
 20
89.2262443418
 30
0.0
 70
         1
  0
VERTEX
  5
399
100
AcDbEntity
  8
L1_170
  6
CONTINUOUS
 62
         7
100
AcDbVertex
100
AcDb2dVertex
 10
1768.6386556048
 20
89.2933155812
 30
0.0
 70
         1
  0
VERTEX
  5
39B
100
AcDbEntity
  8
L1_170
  6
CONTINUOUS
 62
         7
100
AcDbVertex
100
AcDb2dVertex
 10
1768.7780744341
 20
89.3772014572
 30
0.0
 70
         1
  0
VERTEX
  5
39D
100
AcDbEntity
  8
L1_170
  6
CONTINUOUS
 62
         7
100
AcDbVertex
100
AcDb2dVertex
 10
1768.8759680729
 20
89.4510686094
 30
0.0
 70
         1
  0
VERTEX
  5
39F
100
AcDbEntity
  8
L1_170
  6
CONTINUOUS
 62
         7
100
AcDbVertex
100
AcDb2dVertex
 10
1768.9646763858
 20
89.5359176383
 30
0.0
 70
         1
  0
VERTEX
  5
3A1
100
AcDbEntity
  8
L1_170
  6
CONTINUOUS
 62
         7
100
AcDbVertex
100
AcDb2dVertex
 10
1769.0351176895
 20
89.6264896007
 30
0.0
 70
         1
  0
VERTEX
  5
3A3
100
AcDbEntity
  8
L1_170
  6
CONTINUOUS
 62
         7
100
AcDbVertex
100
AcDb2dVertex
 10
1769.0820682618
 20
89.7144870762
 30
0.0
 70
         1
  0
VERTEX
  5
3A5
100
AcDbEntity
  8
L1_170
  6
CONTINUOUS
 62
         7
100
AcDbVertex
100
AcDb2dVertex
 10
1769.1116014393
 20
89.8144476886
 30
0.0
 70
         1
  0
VERTEX
  5
3A7
100
AcDbEntity
  8
L1_170
  6
CONTINUOUS
 62
         7
100
AcDbVertex
100
AcDb2dVertex
 10
1769.1178128889
 20
89.8863620038
 30
0.0
 70
         1
  0
SEQEND
  5
3A9
100
AcDbEntity
  8
L1_170
  6
CONTINUOUS
 62
         7
  0
POLYLINE
  5
3AB
100
AcDbEntity
  8
L1_170
  6
CONTINUOUS
 62
         7
100
AcDb2dPolyline
 66
         1
 10
0.0
 20
0.0
 30
0.0
 70
         2
  0
VERTEX
  5
3AD
100
AcDbEntity
  8
L1_170
  6
CONTINUOUS
 62
         7
100
AcDbVertex
100
AcDb2dVertex
 10
1765.1178128889
 20
55.2453458525
 30
0.0
 70
         1
  0
VERTEX
  5
3AF
100
AcDbEntity
  8
L1_170
  6
CONTINUOUS
 62
         7
100
AcDbVertex
100
AcDb2dVertex
 10
1765.1625923485
 20
55.0531911102
 30
0.0
 70
         1
  0
VERTEX
  5
3B1
100
AcDbEntity
  8
L1_170
  6
CONTINUOUS
 62
         7
100
AcDbVertex
100
AcDb2dVertex
 10
1765.2118863358
 20
54.9685740159
 30
0.0
 70
         1
  0
VERTEX
  5
3B3
100
AcDbEntity
  8
L1_170
  6
CONTINUOUS
 62
         7
100
AcDbVertex
100
AcDb2dVertex
 10
1765.2808501498
 20
54.8842158616
 30
0.0
 70
         1
  0
VERTEX
  5
3B5
100
AcDbEntity
  8
L1_170
  6
CONTINUOUS
 62
         7
100
AcDbVertex
100
AcDb2dVertex
 10
1765.3698544934
 20
54.8015739214
 30
0.0
 70
         1
  0
VERTEX
  5
3B7
100
AcDbEntity
  8
L1_170
  6
CONTINUOUS
 62
         7
100
AcDbVertex
100
AcDb2dVertex
 10
1765.4785824588
 20
54.722171967
 30
0.0
 70
         1
  0
VERTEX
  5
3B9
100
AcDbEntity
  8
L1_170
  6
CONTINUOUS
 62
         7
100
AcDbVertex
100
AcDb2dVertex
 10
1765.605982453
 20
54.6475148273
 30
0.0
 70
         1
  0
VERTEX
  5
3BB
100
AcDbEntity
  8
L1_170
  6
CONTINUOUS
 62
         7
100
AcDbVertex
100
AcDb2dVertex
 10
1765.7502830591
 20
54.5789963463
 30
0.0
 70
         1
  0
VERTEX
  5
3BD
100
AcDbEntity
  8
L1_170
  6
CONTINUOUS
 62
         7
100
AcDbVertex
100
AcDb2dVertex
 10
1765.9090736578
 20
54.5178117425
 30
0.0
 70
         1
  0
VERTEX
  5
3BF
100
AcDbEntity
  8
L1_170
  6
CONTINUOUS
 62
         7
100
AcDbVertex
100
AcDb2dVertex
 10
1766.1400010479
 20
54.4487457095
 30
0.0
 70
         1
  0
VERTEX
  5
3C1
100
AcDbEntity
  8
L1_170
  6
CONTINUOUS
 62
         7
100
AcDbVertex
100
AcDb2dVertex
 10
1766.3839244435
 20
54.3958667262
 30
0.0
 70
         1
  0
VERTEX
  5
3C3
100
AcDbEntity
  8
L1_170
  6
CONTINUOUS
 62
         7
100
AcDbVertex
100
AcDb2dVertex
 10
1766.6328252637
 20
54.3594217115
 30
0.0
 70
         1
  0
VERTEX
  5
3C5
100
AcDbEntity
  8
L1_170
  6
CONTINUOUS
 62
         7
100
AcDbVertex
100
AcDb2dVertex
 10
1766.9630159801
 20
54.3349053086
 30
0.0
 70
         1
  0
VERTEX
  5
3C7
100
AcDbEntity
  8
L1_170
  6
CONTINUOUS
 62
         7
100
AcDbVertex
100
AcDb2dVertex
 10
1767.2745212719
 20
54.334973483
 30
0.0
 70
         1
  0
VERTEX
  5
3C9
100
AcDbEntity
  8
L1_170
  6
CONTINUOUS
 62
         7
100
AcDbVertex
100
AcDb2dVertex
 10
1767.5578581776
 20
54.354543676
 30
0.0
 70
         1
  0
VERTEX
  5
3CB
100
AcDbEntity
  8
L1_170
  6
CONTINUOUS
 62
         7
100
AcDbVertex
100
AcDb2dVertex
 10
1767.8083033887
 20
54.3883151331
 30
0.0
 70
         1
  0
VERTEX
  5
3CD
100
AcDbEntity
  8
L1_170
  6
CONTINUOUS
 62
         7
100
AcDbVertex
100
AcDb2dVertex
 10
1768.0932069621
 20
54.448128011
 30
0.0
 70
         1
  0
VERTEX
  5
3CF
100
AcDbEntity
  8
L1_170
  6
CONTINUOUS
 62
         7
100
AcDbVertex
100
AcDb2dVertex
 10
1768.3209576788
 20
54.515881079
 30
0.0
 70
         1
  0
VERTEX
  5
3D1
100
AcDbEntity
  8
L1_170
  6
CONTINUOUS
 62
         7
100
AcDbVertex
100
AcDb2dVertex
 10
1768.4997641936
 20
54.5852281904
 30
0.0
 70
         1
  0
VERTEX
  5
3D3
100
AcDbEntity
  8
L1_170
  6
CONTINUOUS
 62
         7
100
AcDbVertex
100
AcDb2dVertex
 10
1768.6386556048
 20
54.6522994299
 30
0.0
 70
         1
  0
VERTEX
  5
3D5
100
AcDbEntity
  8
L1_170
  6
CONTINUOUS
 62
         7
100
AcDbVertex
100
AcDb2dVertex
 10
1768.7780744341
 20
54.7361853059
 30
0.0
 70
         1
  0
VERTEX
  5
3D7
100
AcDbEntity
  8
L1_170
  6
CONTINUOUS
 62
         7
100
AcDbVertex
100
AcDb2dVertex
 10
1768.8759680729
 20
54.810052458
 30
0.0
 70
         1
  0
VERTEX
  5
3D9
100
AcDbEntity
  8
L1_170
  6
CONTINUOUS
 62
         7
100
AcDbVertex
100
AcDb2dVertex
 10
1768.9646763858
 20
54.894901487
 30
0.0
 70
         1
  0
VERTEX
  5
3DB
100
AcDbEntity
  8
L1_170
  6
CONTINUOUS
 62
         7
100
AcDbVertex
100
AcDb2dVertex
 10
1769.0351176895
 20
54.9854734493
 30
0.0
 70
         1
  0
VERTEX
  5
3DD
100
AcDbEntity
  8
L1_170
  6
CONTINUOUS
 62
         7
100
AcDbVertex
100
AcDb2dVertex
 10
1769.0820682618
 20
55.0734709248
 30
0.0
 70
         1
  0
VERTEX
  5
3DF
100
AcDbEntity
  8
L1_170
  6
CONTINUOUS
 62
         7
100
AcDbVertex
100
AcDb2dVertex
 10
1769.1116014393
 20
55.1734315372
 30
0.0
 70
         1
  0
VERTEX
  5
3E1
100
AcDbEntity
  8
L1_170
  6
CONTINUOUS
 62
         7
100
AcDbVertex
100
AcDb2dVertex
 10
1769.1178128889
 20
55.2453458525
 30
0.0
 70
         1
  0
VERTEX
  5
3E3
100
AcDbEntity
  8
L1_170
  6
CONTINUOUS
 62
         7
100
AcDbVertex
100
AcDb2dVertex
 10
1769.1178128889
 20
55.2453458525
 30
0.0
 70
         1
  0
VERTEX
  5
3E5
100
AcDbEntity
  8
L1_170
  6
CONTINUOUS
 62
         7
100
AcDbVertex
100
AcDb2dVertex
 10
1769.0730334293
 20
55.4375005947
 30
0.0
 70
         1
  0
VERTEX
  5
3E7
100
AcDbEntity
  8
L1_170
  6
CONTINUOUS
 62
         7
100
AcDbVertex
100
AcDb2dVertex
 10
1769.0237394421
 20
55.522117689
 30
0.0
 70
         1
  0
VERTEX
  5
3E9
100
AcDbEntity
  8
L1_170
  6
CONTINUOUS
 62
         7
100
AcDbVertex
100
AcDb2dVertex
 10
1768.954775628
 20
55.6064758434
 30
0.0
 70
         1
  0
VERTEX
  5
3EB
100
AcDbEntity
  8
L1_170
  6
CONTINUOUS
 62
         7
100
AcDbVertex
100
AcDb2dVertex
 10
1768.8657712845
 20
55.6891177836
 30
0.0
 70
         1
  0
VERTEX
  5
3ED
100
AcDbEntity
  8
L1_170
  6
CONTINUOUS
 62
         7
100
AcDbVertex
100
AcDb2dVertex
 10
1768.7570433191
 20
55.7685197379
 30
0.0
 70
         1
  0
VERTEX
  5
3EF
100
AcDbEntity
  8
L1_170
  6
CONTINUOUS
 62
         7
100
AcDbVertex
100
AcDb2dVertex
 10
1768.6296433249
 20
55.8431768776
 30
0.0
 70
         1
  0
VERTEX
  5
3F1
100
AcDbEntity
  8
L1_170
  6
CONTINUOUS
 62
         7
100
AcDbVertex
100
AcDb2dVertex
 10
1768.4853427187
 20
55.9116953586
 30
0.0
 70
         1
  0
VERTEX
  5
3F3
100
AcDbEntity
  8
L1_170
  6
CONTINUOUS
 62
         7
100
AcDbVertex
100
AcDb2dVertex
 10
1768.3265521201
 20
55.9728799625
 30
0.0
 70
         1
  0
VERTEX
  5
3F5
100
AcDbEntity
  8
L1_170
  6
CONTINUOUS
 62
         7
100
AcDbVertex
100
AcDb2dVertex
 10
1768.09562473
 20
56.0419459954
 30
0.0
 70
         1
  0
VERTEX
  5
3F7
100
AcDbEntity
  8
L1_170
  6
CONTINUOUS
 62
         7
100
AcDbVertex
100
AcDb2dVertex
 10
1767.8517013343
 20
56.0948249787
 30
0.0
 70
         1
  0
VERTEX
  5
3F9
100
AcDbEntity
  8
L1_170
  6
CONTINUOUS
 62
         7
100
AcDbVertex
100
AcDb2dVertex
 10
1767.6028005141
 20
56.1312699934
 30
0.0
 70
         1
  0
VERTEX
  5
3FB
100
AcDbEntity
  8
L1_170
  6
CONTINUOUS
 62
         7
100
AcDbVertex
100
AcDb2dVertex
 10
1767.2726097977
 20
56.1557863963
 30
0.0
 70
         1
  0
VERTEX
  5
3FD
100
AcDbEntity
  8
L1_170
  6
CONTINUOUS
 62
         7
100
AcDbVertex
100
AcDb2dVertex
 10
1766.9611045059
 20
56.1557182219
 30
0.0
 70
         1
  0
VERTEX
  5
3FF
100
AcDbEntity
  8
L1_170
  6
CONTINUOUS
 62
         7
100
AcDbVertex
100
AcDb2dVertex
 10
1766.6777676002
 20
56.136148029
 30
0.0
 70
         1
  0
VERTEX
  5
401
100
AcDbEntity
  8
L1_170
  6
CONTINUOUS
 62
         7
100
AcDbVertex
100
AcDb2dVertex
 10
1766.4273223892
 20
56.1023765718
 30
0.0
 70
         1
  0
VERTEX
  5
403
100
AcDbEntity
  8
L1_170
  6
CONTINUOUS
 62
         7
100
AcDbVertex
100
AcDb2dVertex
 10
1766.1424188158
 20
56.0425636939
 30
0.0
 70
         1
  0
VERTEX
  5
405
100
AcDbEntity
  8
L1_170
  6
CONTINUOUS
 62
         7
100
AcDbVertex
100
AcDb2dVertex
 10
1765.9146680991
 20
55.974810626
 30
0.0
 70
         1
  0
VERTEX
  5
407
100
AcDbEntity
  8
L1_170
  6
CONTINUOUS
 62
         7
100
AcDbVertex
100
AcDb2dVertex
 10
1765.7358615842
 20
55.9054635145
 30
0.0
 70
         1
  0
VERTEX
  5
409
100
AcDbEntity
  8
L1_170
  6
CONTINUOUS
 62
         7
100
AcDbVertex
100
AcDb2dVertex
 10
1765.5969701731
 20
55.8383922751
 30
0.0
 70
         1
  0
VERTEX
  5
40B
100
AcDbEntity
  8
L1_170
  6
CONTINUOUS
 62
         7
100
AcDbVertex
100
AcDb2dVertex
 10
1765.4575513438
 20
55.7545063991
 30
0.0
 70
         1
  0
VERTEX
  5
40D
100
AcDbEntity
  8
L1_170
  6
CONTINUOUS
 62
         7
100
AcDbVertex
100
AcDb2dVertex
 10
1765.3596577049
 20
55.6806392469
 30
0.0
 70
         1
  0
VERTEX
  5
40F
100
AcDbEntity
  8
L1_170
  6
CONTINUOUS
 62
         7
100
AcDbVertex
100
AcDb2dVertex
 10
1765.2709493921
 20
55.595790218
 30
0.0
 70
         1
  0
VERTEX
  5
411
100
AcDbEntity
  8
L1_170
  6
CONTINUOUS
 62
         7
100
AcDbVertex
100
AcDb2dVertex
 10
1765.2005080883
 20
55.5052182557
 30
0.0
 70
         1
  0
VERTEX
  5
413
100
AcDbEntity
  8
L1_170
  6
CONTINUOUS
 62
         7
100
AcDbVertex
100
AcDb2dVertex
 10
1765.1535575161
 20
55.4172207801
 30
0.0
 70
         1
  0
VERTEX
  5
415
100
AcDbEntity
  8
L1_170
  6
CONTINUOUS
 62
         7
100
AcDbVertex
100
AcDb2dVertex
 10
1765.1240243386
 20
55.3172601677
 30
0.0
 70
         1
  0
VERTEX
  5
417
100
AcDbEntity
  8
L1_170
  6
CONTINUOUS
 62
         7
100
AcDbVertex
100
AcDb2dVertex
 10
1765.1178128889
 20
55.2453458525
 30
0.0
 70
         1
  0
SEQEND
  5
419
100
AcDbEntity
  8
L1_170
  6
CONTINUOUS
 62
         7
  0
LINE
  5
41A
100
AcDbEntity
  8
L1_170
  6
CENTER
 62
         1
100
AcDbLine
 10
1767.1178128889
 20
56.1585257164
 30
0.0
 11
1767.1178128889
 21
54.3321659885
 31
0.0
  0
LINE
  5
41B
100
AcDbEntity
  8
L1_170
  6
CONTINUOUS
 62
         7
100
AcDbLine
 10
1745.0489443568
 20
77.3208539282
 30
0.0
 11
1732.7418247517
 21
77.320853925
 31
0.0
  0
LINE
  5
41C
100
AcDbEntity
  8
L1_170
  6
CONTINUOUS
 62
         7
100
AcDbLine
 10
1745.0489443568
 20
67.8108539281
 30
0.0
 11
1732.7418247517
 21
67.810853925
 31
0.0
  0
ARC
  5
41D
100
AcDbEntity
  8
L1_170
  6
CONTINUOUS
 62
         7
100
AcDbCircle
 10
1732.7418247517
 20
72.565853925
 30
0.0
 40
4.755
100
AcDbArc
 50
90.0
 51
270.0
  0
ARC
  5
41E
100
AcDbEntity
  8
L1_170
  6
CONTINUOUS
 62
         7
100
AcDbCircle
 10
1745.0489443568
 20
72.5658539282
 30
0.0
 40
4.755
100
AcDbArc
 50
270.0
 51
450.0
  0
ARC
  5
41F
100
AcDbEntity
  8
L1_170
  6
CONTINUOUS
 62
         7
100
AcDbCircle
 10
1800.5678128889
 20
80.3158539282
 30
0.0
 40
0.5
100
AcDbArc
 50
90.0
 51
180.0
  0
LINE
  5
420
100
AcDbEntity
  8
L1_170
  6
CONTINUOUS
 62
         7
100
AcDbLine
 10
1800.0678128889
 20
64.8158539282
 30
0.0
 11
1800.0678128889
 21
80.3158539282
 31
0.0
  0
LINE
  5
421
100
AcDbEntity
  8
L1_170
  6
CONTINUOUS
 62
         7
100
AcDbLine
 10
1806.0678128889
 20
80.8158539282
 30
0.0
 11
1800.5678128889
 21
80.8158539282
 31
0.0
  0
ARC
  5
422
100
AcDbEntity
  8
L1_170
  6
CONTINUOUS
 62
         7
100
AcDbCircle
 10
1800.5678128889
 20
64.8158539282
 30
0.0
 40
0.5
100
AcDbArc
 50
180.0
 51
270.0
  0
LINE
  5
423
100
AcDbEntity
  8
L1_170
  6
CONTINUOUS
 62
         7
100
AcDbLine
 10
1806.0678128889
 20
64.3158539282
 30
0.0
 11
1800.5678128889
 21
64.3158539282
 31
0.0
  0
LINE
  5
424
100
AcDbEntity
  8
L1_170
  6
CONTINUOUS
 62
         7
100
AcDbLine
 10
1806.5678128889
 20
63.8158539282
 30
0.0
 11
1806.0678128889
 21
64.3158539282
 31
0.0
  0
LINE
  5
425
100
AcDbEntity
  8
L1_170
  6
CONTINUOUS
 62
         7
100
AcDbLine
 10
1806.5678128889
 20
81.3158539282
 30
0.0
 11
1806.0678128889
 21
80.8158539282
 31
0.0
  0
LINE
  5
426
100
AcDbEntity
  8
L1_170
  6
CONTINUOUS
 62
         7
100
AcDbLine
 10
1806.5678128889
 20
53.0658539282
 30
0.0
 11
1806.5678128889
 21
63.8158539282
 31
0.0
  0
LINE
  5
427
100
AcDbEntity
  8
L1_170
  6
CONTINUOUS
 62
         7
100
AcDbLine
 10
1806.5678128889
 20
81.3158539282
 30
0.0
 11
1806.5678128889
 21
92.0658539282
 31
0.0
  0
LINE
  5
428
100
AcDbEntity
  8
L1_170
  6
CONTINUOUS
 62
         7
100
AcDbLine
 10
1675.2178128889
 20
62.8158539282
 30
0.0
 11
1675.7178128889
 21
62.3158539282
 31
0.0
  0
LINE
  5
429
100
AcDbEntity
  8
L1_170
  6
CONTINUOUS
 62
         7
100
AcDbLine
 10
1675.2178128889
 20
82.3158539282
 30
0.0
 11
1675.7178128889
 21
82.8158539282
 31
0.0
  0
LINE
  5
42A
100
AcDbEntity
  8
L1_170
  6
CONTINUOUS
 62
         4
100
AcDbLine
 10
1663.8738382927
 20
41.0658539282
 30
0.0
 11
1663.8738382927
 21
104.0658539282
 31
0.0
  0
LINE
  5
42B
100
AcDbEntity
  8
L1_170
  6
CONTINUOUS
 62
         4
100
AcDbLine
 10
1694.6178128889
 20
60.5658539282
 30
0.0
 11
1694.6178128889
 21
84.5658539282
 31
0.0
  0
LINE
  5
42C
100
AcDbEntity
  8
L1_170
  6
CONTINUOUS
 62
         4
100
AcDbLine
 10
1675.7178128889
 20
82.8158539282
 30
0.0
 11
1675.7178128889
 21
62.3158539282
 31
0.0
  0
LINE
  5
42D
100
AcDbEntity
  8
L1_170
  6
CONTINUOUS
 62
         4
100
AcDbLine
 10
1705.4578128889
 20
57.0658539282
 30
0.0
 11
1705.4578128889
 21
88.0658539282
 31
0.0
  0
LINE
  5
42E
100
AcDbEntity
  8
L1_170
  6
CONTINUOUS
 62
         4
100
AcDbLine
 10
1726.4601740784
 20
96.5658539282
 30
0.0
 11
1726.4601740784
 21
48.5658539282
 31
0.0
  0
LINE
  5
42F
100
AcDbEntity
  8
L1_170
  6
CONTINUOUS
 62
         4
100
AcDbLine
 10
1751.3178128889
 20
48.5658539282
 30
0.0
 11
1751.3178128889
 21
96.5658539282
 31
0.0
  0
LINE
  5
430
100
AcDbEntity
  8
L1_170
  6
CONTINUOUS
 62
         4
100
AcDbLine
 10
1806.0678128889
 20
80.8158539282
 30
0.0
 11
1806.0678128889
 21
92.5658539282
 31
0.0
  0
LINE
  5
431
100
AcDbEntity
  8
L1_170
  6
CONTINUOUS
 62
         4
100
AcDbLine
 10
1806.0678128889
 20
64.3158539282
 30
0.0
 11
1806.0678128889
 21
52.5658539282
 31
0.0
  0
LINE
  5
432
100
AcDbEntity
  8
L1_170
  6
CENTER
 62
         1
100
AcDbLine
 10
1806.5678128889
 20
72.5658539282
 30
0.0
 11
1622.8663814645
 21
72.5658539282
 31
0.0
  0
LINE
  5
433
100
AcDbEntity
  8
L1_170
  6
CONTINUOUS
 62
         7
100
AcDbLine
 10
1755.3795417258
 20
-14.1739768465
 30
0.0
 11
1717.8295417258
 21
-14.1739768465
 31
0.0
  0
ARC
  5
434
100
AcDbEntity
  8
L1_170
  6
CONTINUOUS
 62
         7
100
AcDbCircle
 10
1755.8795417258
 20
-14.1739768465
 30
0.0
 40
0.5
100
AcDbArc
 50
359.9999999998
 51
540.0000000002
  0
LINE
  5
435
100
AcDbEntity
  8
L1_170
  6
CONTINUOUS
 62
         7
100
AcDbLine
 10
1764.8795417258
 20
-16.6739768465
 30
0.0
 11
1756.8795417258
 21
-16.6739768465
 31
0.0
  0
LINE
  5
436
100
AcDbEntity
  8
L1_170
  6
CONTINUOUS
 62
         7
100
AcDbLine
 10
1756.3795417258
 20
-16.1739768465
 30
0.0
 11
1756.8795417258
 21
-16.6739768465
 31
0.0
  0
LINE
  5
437
100
AcDbEntity
  8
L1_170
  6
CONTINUOUS
 62
         7
100
AcDbLine
 10
1755.3795417258
 20
33.8260231535
 30
0.0
 11
1717.8295417258
 21
33.8260231535
 31
0.0
  0
ARC
  5
438
100
AcDbEntity
  8
L1_170
  6
CONTINUOUS
 62
         7
100
AcDbCircle
 10
1755.8795417258
 20
33.8260231535
 30
0.0
 40
0.5
100
AcDbArc
 50
179.9999999998
 51
360.0000000002
  0
LINE
  5
439
100
AcDbEntity
  8
L1_170
  6
CONTINUOUS
 62
         7
100
AcDbLine
 10
1764.8795417258
 20
36.3260231535
 30
0.0
 11
1756.8795417258
 21
36.3260231535
 31
0.0
  0
LINE
  5
43A
100
AcDbEntity
  8
L1_170
  6
CONTINUOUS
 62
         7
100
AcDbLine
 10
1756.8795417258
 20
36.3260231535
 30
0.0
 11
1756.3795417258
 21
35.8260231535
 31
0.0
  0
LINE
  5
43B
100
AcDbEntity
  8
L1_170
  6
CONTINUOUS
 62
         7
100
AcDbLine
 10
1756.3795417258
 20
-16.1739768465
 30
0.0
 11
1756.3795417258
 21
35.8260231535
 31
0.0
  0
LINE
  5
43C
100
AcDbEntity
  8
L1_170
  6
CONTINUOUS
 62
         7
100
AcDbLine
 10
1717.6295417258
 20
-13.9739768465
 30
0.0
 11
1717.8295417258
 21
-14.1739768465
 31
0.0
  0
LINE
  5
43D
100
AcDbEntity
  8
L1_170
  6
CONTINUOUS
 62
         7
100
AcDbLine
 10
1717.6295417258
 20
33.6260231535
 30
0.0
 11
1717.6295417258
 21
-13.9739768465
 31
0.0
  0
LINE
  5
43E
100
AcDbEntity
  8
L1_170
  6
CONTINUOUS
 62
         7
100
AcDbLine
 10
1717.8295417258
 20
33.8260231535
 30
0.0
 11
1717.6295417258
 21
33.6260231535
 31
0.0
  0
LINE
  5
43F
100
AcDbEntity
  8
L1_170
  6
CONTINUOUS
 62
         7
100
AcDbLine
 10
1765.3795417258
 20
-16.1739768465
 30
0.0
 11
1765.3795417258
 21
35.8260231535
 31
0.0
  0
LINE
  5
440
100
AcDbEntity
  8
L1_170
  6
CONTINUOUS
 62
         7
100
AcDbLine
 10
1765.3795417258
 20
-16.1739768465
 30
0.0
 11
1764.8795417258
 21
-16.6739768465
 31
0.0
  0
LINE
  5
441
100
AcDbEntity
  8
L1_170
  6
CONTINUOUS
 62
         7
100
AcDbLine
 10
1764.8795417258
 20
36.3260231535
 30
0.0
 11
1765.3795417258
 21
35.8260231535
 31
0.0
  0
LINE
  5
442
100
AcDbEntity
  8
L1_170
  6
CONTINUOUS
 62
         7
100
AcDbLine
 10
1691.9795417258
 20
-5.5739768465
 30
0.0
 11
1691.8795417258
 21
-5.6739768465
 31
0.0
  0
LINE
  5
443
100
AcDbEntity
  8
L1_170
  6
CONTINUOUS
 62
         7
100
AcDbLine
 10
1691.8795417258
 20
25.3260231535
 30
0.0
 11
1691.9795417258
 21
25.2260231535
 31
0.0
  0
LINE
  5
444
100
AcDbEntity
  8
L1_170
  6
CONTINUOUS
 62
         7
100
AcDbLine
 10
1700.7295417258
 20
23.3260231535
 30
0.0
 11
1691.9795417258
 21
23.3260231535
 31
0.0
  0
LINE
  5
445
100
AcDbEntity
  8
L1_170
  6
CONTINUOUS
 62
         7
100
AcDbLine
 10
1700.7295417258
 20
-3.6739768465
 30
0.0
 11
1691.9795417258
 21
-3.6739768465
 31
0.0
  0
LINE
  5
446
100
AcDbEntity
  8
L1_170
  6
CONTINUOUS
 62
         7
100
AcDbLine
 10
1686.4795417258
 20
25.3260231535
 30
0.0
 11
1685.9795417258
 21
24.8260231535
 31
0.0
  0
LINE
  5
447
100
AcDbEntity
  8
L1_170
  6
CONTINUOUS
 62
         7
100
AcDbLine
 10
1685.9795417258
 20
-5.1739768465
 30
0.0
 11
1685.9795417258
 21
24.8260231535
 31
0.0
  0
LINE
  5
448
100
AcDbEntity
  8
L1_170
  6
CONTINUOUS
 62
         7
100
AcDbLine
 10
1685.9795417258
 20
-5.1739768465
 30
0.0
 11
1686.4795417258
 21
-5.6739768465
 31
0.0
  0
LINE
  5
449
100
AcDbEntity
  8
L1_170
  6
CONTINUOUS
 62
         7
100
AcDbLine
 10
1691.8795417258
 20
25.3260231535
 30
0.0
 11
1686.4795417258
 21
25.3260231535
 31
0.0
  0
LINE
  5
44A
100
AcDbEntity
  8
L1_170
  6
CONTINUOUS
 62
         7
100
AcDbLine
 10
1691.8795417258
 20
-5.6739768465
 30
0.0
 11
1686.4795417258
 21
-5.6739768465
 31
0.0
  0
LINE
  5
44B
100
AcDbEntity
  8
L1_170
  6
CONTINUOUS
 62
         7
100
AcDbLine
 10
1700.7295417258
 20
-5.5739768465
 30
0.0
 11
1700.8295417258
 21
-5.6739768465
 31
0.0
  0
LINE
  5
44C
100
AcDbEntity
  8
L1_170
  6
CONTINUOUS
 62
         7
100
AcDbLine
 10
1700.8295417258
 20
25.3260231535
 30
0.0
 11
1700.7295417258
 21
25.2260231535
 31
0.0
  0
LINE
  5
44D
100
AcDbEntity
  8
L1_170
  6
CONTINUOUS
 62
         7
100
AcDbLine
 10
1702.6295417258
 20
-5.6739768465
 30
0.0
 11
1700.8295417258
 21
-5.6739768465
 31
0.0
  0
LINE
  5
44E
100
AcDbEntity
  8
L1_170
  6
CONTINUOUS
 62
         7
100
AcDbLine
 10
1702.7295417258
 20
-5.5739768465
 30
0.0
 11
1702.6295417258
 21
-5.6739768465
 31
0.0
  0
LINE
  5
44F
100
AcDbEntity
  8
L1_170
  6
CONTINUOUS
 62
         7
100
AcDbLine
 10
1702.6295417258
 20
25.3260231535
 30
0.0
 11
1700.8295417258
 21
25.3260231535
 31
0.0
  0
LINE
  5
450
100
AcDbEntity
  8
L1_170
  6
CONTINUOUS
 62
         7
100
AcDbLine
 10
1702.7295417258
 20
-5.5739768465
 30
0.0
 11
1702.7295417258
 21
25.2260231535
 31
0.0
  0
LINE
  5
451
100
AcDbEntity
  8
L1_170
  6
CONTINUOUS
 62
         7
100
AcDbLine
 10
1702.6295417258
 20
25.3260231535
 30
0.0
 11
1702.7295417258
 21
25.2260231535
 31
0.0
  0
LINE
  5
452
100
AcDbEntity
  8
L1_170
  6
CONTINUOUS
 62
         7
100
AcDbLine
 10
1691.9795417258
 20
-5.5739768465
 30
0.0
 11
1691.9795417258
 21
25.2260231535
 31
0.0
  0
LINE
  5
453
100
AcDbEntity
  8
L1_170
  6
CONTINUOUS
 62
         7
100
AcDbLine
 10
1700.7295417258
 20
-5.5739768465
 30
0.0
 11
1700.7295417258
 21
25.2260231535
 31
0.0
  0
LINE
  5
454
100
AcDbEntity
  8
L1_170
  6
CONTINUOUS
 62
         4
100
AcDbLine
 10
1686.4795417258
 20
25.3260231535
 30
0.0
 11
1686.4795417258
 21
-5.6739768465
 31
0.0
  0
LINE
  5
455
100
AcDbEntity
  8
L1_170
  6
CONTINUOUS
 62
         4
100
AcDbLine
 10
1764.8795417258
 20
36.3260231535
 30
0.0
 11
1764.8795417258
 21
-16.6739768465
 31
0.0
  0
LINE
  5
456
100
AcDbEntity
  8
L1_170
  6
CONTINUOUS
 62
         4
100
AcDbLine
 10
1756.8795417258
 20
-16.6739768465
 30
0.0
 11
1756.8795417258
 21
36.3260231535
 31
0.0
  0
LINE
  5
457
100
AcDbEntity
  8
L1_170
  6
CENTER
 62
         1
100
AcDbLine
 10
1776.3019130681
 20
9.8260231535
 30
0.0
 11
1670.9795417258
 21
9.8260231535
 31
0.0
  0
LINE
  5
458
100
AcDbEntity
  8
L1_170
  6
CONTINUOUS
 62
         7
100
AcDbLine
 10
1453.1318855368
 20
-96.1554008783
 30
0.0
 11
1454.1318855368
 21
-96.1554008783
 31
0.0
  0
LINE
  5
459
100
AcDbEntity
  8
L1_170
  6
CONTINUOUS
 62
         7
100
AcDbLine
 10
1452.1318855368
 20
-94.1554008783
 30
0.0
 11
1452.1318855368
 21
-95.1554008783
 31
0.0
  0
DIMENSION
  5
45C
100
AcDbEntity
  8
L1_170
  6
CONTINUOUS
 62
         4
100
AcDbDimension
  2
*D7
 10
1256.0235966984
 20
-94.4015982245
 30
0.0
 11
1253.9985966984
 21
-104.1515982245
 31
0.0
  3
DIMSTYLE1
100
AcDbAlignedDimension
 13
1257.3713313902
 23
-94.4015982245
 33
0.0
 14
1257.3713313902
 24
-100.4015982245
 34
0.0
 50
90.0
100
AcDbRotatedDimension
  0
LINE
  5
468
100
AcDbEntity
  8
L1_170
  6
CONTINUOUS
 62
         4
100
AcDbLine
 10
1318.1213313902
 20
-90.9015982245
 30
0.0
 11
1318.1213313902
 21
-103.9015982245
 31
0.0
  0
LINE
  5
469
100
AcDbEntity
  8
L1_170
  6
CONTINUOUS
 62
         4
100
AcDbLine
 10
1313.6213313902
 20
-90.9015982245
 30
0.0
 11
1313.6213313902
 21
-103.9015982245
 31
0.0
  0
LINE
  5
46A
100
AcDbEntity
  8
L1_170
  6
CONTINUOUS
 62
         7
100
AcDbLine
 10
1313.6213313902
 20
-90.9015982245
 30
0.0
 11
1313.1213313902
 21
-91.4015982245
 31
0.0
  0
LINE
  5
46B
100
AcDbEntity
  8
L1_170
  6
CONTINUOUS
 62
         7
100
AcDbLine
 10
1313.1213313902
 20
-103.4015982245
 30
0.0
 11
1313.1213313902
 21
-91.4015982245
 31
0.0
  0
LINE
  5
46C
100
AcDbEntity
  8
L1_170
  6
CONTINUOUS
 62
         7
100
AcDbLine
 10
1313.1213313902
 20
-103.4015982245
 30
0.0
 11
1313.6213313902
 21
-103.9015982245
 31
0.0
  0
LINE
  5
46D
100
AcDbEntity
  8
L1_170
  6
CONTINUOUS
 62
         7
100
AcDbLine
 10
1318.1213313902
 20
-103.9015982245
 30
0.0
 11
1313.6213313902
 21
-103.9015982245
 31
0.0
  0
LINE
  5
46E
100
AcDbEntity
  8
L1_170
  6
CONTINUOUS
 62
         7
100
AcDbLine
 10
1318.6213313902
 20
-103.4015982245
 30
0.0
 11
1318.1213313902
 21
-103.9015982245
 31
0.0
  0
LINE
  5
46F
100
AcDbEntity
  8
L1_170
  6
CONTINUOUS
 62
         7
100
AcDbLine
 10
1318.6213313902
 20
-103.4015982245
 30
0.0
 11
1318.6213313902
 21
-91.4015982245
 31
0.0
  0
LINE
  5
470
100
AcDbEntity
  8
L1_170
  6
CONTINUOUS
 62
         7
100
AcDbLine
 10
1318.1213313902
 20
-90.9015982245
 30
0.0
 11
1313.6213313902
 21
-90.9015982245
 31
0.0
  0
LINE
  5
471
100
AcDbEntity
  8
L1_170
  6
CONTINUOUS
 62
         7
100
AcDbLine
 10
1318.6213313902
 20
-91.4015982245
 30
0.0
 11
1318.1213313902
 21
-90.9015982245
 31
0.0
  0
LINE
  5
472
100
AcDbEntity
  8
L1_170
  6
CONTINUOUS
 62
         7
100
AcDbLine
 10
1313.1213313902
 20
-93.4260982245
 30
0.0
 11
1269.0968313902
 21
-93.4260982245
 31
0.0
  0
LINE
  5
473
100
AcDbEntity
  8
L1_170
  6
CONTINUOUS
 62
         7
100
AcDbLine
 10
1269.0968313902
 20
-93.4260982245
 30
0.0
 11
1268.1213313902
 21
-94.4015982245
 31
0.0
  0
LINE
  5
474
100
AcDbEntity
  8
L1_170
  6
CONTINUOUS
 62
         7
100
AcDbLine
 10
1269.0968313902
 20
-101.3770982245
 30
0.0
 11
1268.1213313902
 21
-100.4015982245
 31
0.0
  0
LINE
  5
475
100
AcDbEntity
  8
L1_170
  6
CONTINUOUS
 62
         7
100
AcDbLine
 10
1313.1213313902
 20
-101.3770982245
 30
0.0
 11
1269.0968313902
 21
-101.3770982245
 31
0.0
  0
LINE
  5
476
100
AcDbEntity
  8
L1_170
  6
CONTINUOUS
 62
         7
100
AcDbLine
 10
1268.1213313902
 20
-100.4015982245
 30
0.0
 11
1268.1213313902
 21
-94.4015982245
 31
0.0
  0
LINE
  5
477
100
AcDbEntity
  8
L1_170
  6
CONTINUOUS
 62
         4
100
AcDbLine
 10
1269.0968313902
 20
-93.4260982245
 30
0.0
 11
1269.0968313902
 21
-101.3770982245
 31
0.0
  0
LINE
  5
478
100
AcDbEntity
  8
L1_170
  6
CONTINUOUS
 62
         7
100
AcDbLine
 10
1268.1213313902
 20
-94.4015982245
 30
0.0
 11
1257.3713313902
 21
-94.4015982245
 31
0.0
  0
LINE
  5
479
100
AcDbEntity
  8
L1_170
  6
CONTINUOUS
 62
         7
100
AcDbLine
 10
1257.3713313902
 20
-94.4015982245
 30
0.0
 11
1256.8713313902
 21
-94.9015982245
 31
0.0
  0
LINE
  5
47A
100
AcDbEntity
  8
L1_170
  6
CONTINUOUS
 62
         7
100
AcDbLine
 10
1256.8713313902
 20
-99.9015982245
 30
0.0
 11
1256.8713313902
 21
-94.9015982245
 31
0.0
  0
LINE
  5
47B
100
AcDbEntity
  8
L1_170
  6
CONTINUOUS
 62
         7
100
AcDbLine
 10
1257.3713313902
 20
-100.4015982245
 30
0.0
 11
1256.8713313902
 21
-99.9015982245
 31
0.0
  0
LINE
  5
47C
100
AcDbEntity
  8
L1_170
  6
CONTINUOUS
 62
         7
100
AcDbLine
 10
1268.1213313902
 20
-100.4015982245
 30
0.0
 11
1257.3713313902
 21
-100.4015982245
 31
0.0
  0
LINE
  5
47D
100
AcDbEntity
  8
L1_170
  6
CONTINUOUS
 62
         4
100
AcDbLine
 10
1268.1213313902
 20
-94.9015982245
 30
0.0
 11
1256.8713313902
 21
-94.9015982245
 31
0.0
  0
LINE
  5
47E
100
AcDbEntity
  8
L1_170
  6
CONTINUOUS
 62
         4
100
AcDbLine
 10
1268.1213313902
 20
-99.9015982245
 30
0.0
 11
1256.8713313902
 21
-99.9015982245
 31
0.0
  0
DIMENSION
  5
481
100
AcDbEntity
  8
L1_170
  6
CONTINUOUS
 62
         4
100
AcDbDimension
  2
*D8
 10
1256.8713313902
 20
-70.3307764868
 30
0.0
 11
1282.8225979318
 21
-68.3057764868
 31
0.0
  3
DIMSTYLE1
100
AcDbAlignedDimension
 13
1256.8713313902
 23
-94.9015982245
 33
0.0
 14
1318.6213313902
 24
-91.4015982245
 34
0.0
100
AcDbRotatedDimension
  0
DIMENSION
  5
48F
100
AcDbEntity
  8
L1_170
  6
CONTINUOUS
 62
         4
100
AcDbDimension
  2
*D9
 10
1256.8713313902
 20
-79.4559090218
 30
0.0
 11
1257.8636442827
 21
-77.4309090218
 31
0.0
  3
DIMSTYLE1
100
AcDbAlignedDimension
 13
1256.8713313902
 23
-94.9015982245
 33
0.0
 14
1268.1213313902
 24
-94.4015982245
 34
0.0
100
AcDbRotatedDimension
  0
DIMENSION
  5
49D
100
AcDbEntity
  8
L1_170
  6
CONTINUOUS
 62
         4
100
AcDbDimension
  2
*D10
 10
1325.9440771784
 20
-90.9015982245
 30
0.0
 11
1323.9190771784
 21
-102.8015982245
 31
0.0
  3
DIMSTYLE1
100
AcDbAlignedDimension
 13
1318.1213313902
 23
-90.9015982245
 33
0.0
 14
1318.1213313902
 24
-103.9015982245
 34
0.0
 50
90.0
100
AcDbRotatedDimension
  0
CIRCLE
  5
4A9
100
AcDbEntity
  8
L1_170
  6
CONTINUOUS
 62
         7
100
AcDbCircle
 10
1414.6463150535
 20
-91.7915982245
 30
0.0
 40
0.735
  0
CIRCLE
  5
4AA
100
AcDbEntity
  8
L1_170
  6
CONTINUOUS
 62
         7
100
AcDbCircle
 10
1416.1163150535
 20
-91.7915982245
 30
0.0
 40
0.735
  0
CIRCLE
  5
4AB
100
AcDbEntity
  8
L1_170
  6
CONTINUOUS
 62
         7
100
AcDbCircle
 10
1417.5863150535
 20
-91.7915982245
 30
0.0
 40
0.735
  0
CIRCLE
  5
4AC
100
AcDbEntity
  8
L1_170
  6
CONTINUOUS
 62
         7
100
AcDbCircle
 10
1419.0563150535
 20
-91.7915982245
 30
0.0
 40
0.735
  0
CIRCLE
  5
4AD
100
AcDbEntity
  8
L1_170
  6
CONTINUOUS
 62
         7
100
AcDbCircle
 10
1420.5263150535
 20
-91.7915982245
 30
0.0
 40
0.735
  0
CIRCLE
  5
4AE
100
AcDbEntity
  8
L1_170
  6
CONTINUOUS
 62
         7
100
AcDbCircle
 10
1421.9963150535
 20
-91.7915982245
 30
0.0
 40
0.735
  0
CIRCLE
  5
4AF
100
AcDbEntity
  8
L1_170
  6
CONTINUOUS
 62
         7
100
AcDbCircle
 10
1423.4663150535
 20
-91.7915982245
 30
0.0
 40
0.735
  0
CIRCLE
  5
4B0
100
AcDbEntity
  8
L1_170
  6
CONTINUOUS
 62
         7
100
AcDbCircle
 10
1424.9363150535
 20
-91.7915982245
 30
0.0
 40
0.735
  0
CIRCLE
  5
4B1
100
AcDbEntity
  8
L1_170
  6
CONTINUOUS
 62
         7
100
AcDbCircle
 10
1426.4063150535
 20
-91.7915982245
 30
0.0
 40
0.735
  0
CIRCLE
  5
4B2
100
AcDbEntity
  8
L1_170
  6
CONTINUOUS
 62
         7
100
AcDbCircle
 10
1427.8763150535
 20
-91.7915982245
 30
0.0
 40
0.735
  0
CIRCLE
  5
4B3
100
AcDbEntity
  8
L1_170
  6
CONTINUOUS
 62
         7
100
AcDbCircle
 10
1429.3463150535
 20
-91.7915982245
 30
0.0
 40
0.735
  0
CIRCLE
  5
4B4
100
AcDbEntity
  8
L1_170
  6
CONTINUOUS
 62
         7
100
AcDbCircle
 10
1430.8163150535
 20
-91.7915982245
 30
0.0
 40
0.735
  0
CIRCLE
  5
4B5
100
AcDbEntity
  8
L1_170
  6
CONTINUOUS
 62
         7
100
AcDbCircle
 10
1432.2863150535
 20
-91.7915982245
 30
0.0
 40
0.735
  0
CIRCLE
  5
4B6
100
AcDbEntity
  8
L1_170
  6
CONTINUOUS
 62
         7
100
AcDbCircle
 10
1433.7563150535
 20
-91.7915982245
 30
0.0
 40
0.735
  0
CIRCLE
  5
4B7
100
AcDbEntity
  8
L1_170
  6
CONTINUOUS
 62
         7
100
AcDbCircle
 10
1435.2263150535
 20
-91.7915982245
 30
0.0
 40
0.735
  0
CIRCLE
  5
4B8
100
AcDbEntity
  8
L1_170
  6
CONTINUOUS
 62
         7
100
AcDbCircle
 10
1413.1763150535
 20
-103.0115982245
 30
0.0
 40
0.735
  0
CIRCLE
  5
4B9
100
AcDbEntity
  8
L1_170
  6
CONTINUOUS
 62
         7
100
AcDbCircle
 10
1414.6463150535
 20
-103.0115982245
 30
0.0
 40
0.735
  0
CIRCLE
  5
4BA
100
AcDbEntity
  8
L1_170
  6
CONTINUOUS
 62
         7
100
AcDbCircle
 10
1416.1163150535
 20
-103.0115982245
 30
0.0
 40
0.735
  0
CIRCLE
  5
4BB
100
AcDbEntity
  8
L1_170
  6
CONTINUOUS
 62
         7
100
AcDbCircle
 10
1417.5863150535
 20
-103.0115982245
 30
0.0
 40
0.735
  0
CIRCLE
  5
4BC
100
AcDbEntity
  8
L1_170
  6
CONTINUOUS
 62
         7
100
AcDbCircle
 10
1419.0563150535
 20
-103.0115982245
 30
0.0
 40
0.735
  0
CIRCLE
  5
4BD
100
AcDbEntity
  8
L1_170
  6
CONTINUOUS
 62
         7
100
AcDbCircle
 10
1420.5263150535
 20
-103.0115982245
 30
0.0
 40
0.735
  0
CIRCLE
  5
4BE
100
AcDbEntity
  8
L1_170
  6
CONTINUOUS
 62
         7
100
AcDbCircle
 10
1421.9963150535
 20
-103.0115982245
 30
0.0
 40
0.735
  0
CIRCLE
  5
4BF
100
AcDbEntity
  8
L1_170
  6
CONTINUOUS
 62
         7
100
AcDbCircle
 10
1423.4663150535
 20
-103.0115982245
 30
0.0
 40
0.735
  0
CIRCLE
  5
4C0
100
AcDbEntity
  8
L1_170
  6
CONTINUOUS
 62
         7
100
AcDbCircle
 10
1424.9363150535
 20
-103.0115982245
 30
0.0
 40
0.735
  0
CIRCLE
  5
4C1
100
AcDbEntity
  8
L1_170
  6
CONTINUOUS
 62
         7
100
AcDbCircle
 10
1426.4063150535
 20
-103.0115982245
 30
0.0
 40
0.735
  0
CIRCLE
  5
4C2
100
AcDbEntity
  8
L1_170
  6
CONTINUOUS
 62
         7
100
AcDbCircle
 10
1427.8763150535
 20
-103.0115982245
 30
0.0
 40
0.735
  0
CIRCLE
  5
4C3
100
AcDbEntity
  8
L1_170
  6
CONTINUOUS
 62
         7
100
AcDbCircle
 10
1429.3463150535
 20
-103.0115982245
 30
0.0
 40
0.735
  0
CIRCLE
  5
4C4
100
AcDbEntity
  8
L1_170
  6
CONTINUOUS
 62
         7
100
AcDbCircle
 10
1430.8163150535
 20
-103.0115982245
 30
0.0
 40
0.735
  0
CIRCLE
  5
4C5
100
AcDbEntity
  8
L1_170
  6
CONTINUOUS
 62
         7
100
AcDbCircle
 10
1432.2863150535
 20
-103.0115982245
 30
0.0
 40
0.735
  0
CIRCLE
  5
4C6
100
AcDbEntity
  8
L1_170
  6
CONTINUOUS
 62
         7
100
AcDbCircle
 10
1433.7563150535
 20
-103.0115982245
 30
0.0
 40
0.735
  0
LINE
  5
4C7
100
AcDbEntity
  8
L1_170
  6
CONTINUOUS
 62
         7
100
AcDbLine
 10
1435.9613150535
 20
-91.7915982245
 30
0.0
 11
1434.4913150535
 21
-103.0115982245
 31
0.0
  0
LINE
  5
4C8
100
AcDbEntity
  8
L1_170
  6
CONTINUOUS
 62
         7
100
AcDbLine
 10
1433.0213150535
 20
-103.0115982245
 30
0.0
 11
1434.4913150535
 21
-91.7915982245
 31
0.0
  0
LINE
  5
4C9
100
AcDbEntity
  8
L1_170
  6
CONTINUOUS
 62
         7
100
AcDbLine
 10
1430.0813150535
 20
-103.0115982245
 30
0.0
 11
1431.5513150535
 21
-91.7915982245
 31
0.0
  0
LINE
  5
4CA
100
AcDbEntity
  8
L1_170
  6
CONTINUOUS
 62
         7
100
AcDbLine
 10
1433.0213150535
 20
-91.7915982245
 30
0.0
 11
1431.5513150535
 21
-103.0115982245
 31
0.0
  0
LINE
  5
4CB
100
AcDbEntity
  8
L1_170
  6
CONTINUOUS
 62
         7
100
AcDbLine
 10
1427.1413150535
 20
-103.0115982245
 30
0.0
 11
1428.6113150535
 21
-91.7915982245
 31
0.0
  0
LINE
  5
4CC
100
AcDbEntity
  8
L1_170
  6
CONTINUOUS
 62
         7
100
AcDbLine
 10
1430.0813150535
 20
-91.7915982245
 30
0.0
 11
1428.6113150535
 21
-103.0115982245
 31
0.0
  0
LINE
  5
4CD
100
AcDbEntity
  8
L1_170
  6
CONTINUOUS
 62
         7
100
AcDbLine
 10
1424.2013150535
 20
-103.0115982245
 30
0.0
 11
1425.6713150535
 21
-91.7915982245
 31
0.0
  0
LINE
  5
4CE
100
AcDbEntity
  8
L1_170
  6
CONTINUOUS
 62
         7
100
AcDbLine
 10
1427.1413150535
 20
-91.7915982245
 30
0.0
 11
1425.6713150535
 21
-103.0115982245
 31
0.0
  0
LINE
  5
4CF
100
AcDbEntity
  8
L1_170
  6
CONTINUOUS
 62
         7
100
AcDbLine
 10
1421.2613150535
 20
-103.0115982245
 30
0.0
 11
1422.7313150535
 21
-91.7915982245
 31
0.0
  0
LINE
  5
4D0
100
AcDbEntity
  8
L1_170
  6
CONTINUOUS
 62
         7
100
AcDbLine
 10
1424.2013150535
 20
-91.7915982245
 30
0.0
 11
1422.7313150535
 21
-103.0115982245
 31
0.0
  0
LINE
  5
4D1
100
AcDbEntity
  8
L1_170
  6
CONTINUOUS
 62
         7
100
AcDbLine
 10
1418.3213150535
 20
-103.0115982245
 30
0.0
 11
1419.7913150535
 21
-91.7915982245
 31
0.0
  0
LINE
  5
4D2
100
AcDbEntity
  8
L1_170
  6
CONTINUOUS
 62
         7
100
AcDbLine
 10
1421.2613150535
 20
-91.7915982245
 30
0.0
 11
1419.7913150535
 21
-103.0115982245
 31
0.0
  0
LINE
  5
4D3
100
AcDbEntity
  8
L1_170
  6
CONTINUOUS
 62
         7
100
AcDbLine
 10
1415.3813150535
 20
-103.0115982245
 30
0.0
 11
1416.8513150535
 21
-91.7915982245
 31
0.0
  0
LINE
  5
4D4
100
AcDbEntity
  8
L1_170
  6
CONTINUOUS
 62
         7
100
AcDbLine
 10
1418.3213150535
 20
-91.7915982245
 30
0.0
 11
1416.8513150535
 21
-103.0115982245
 31
0.0
  0
LINE
  5
4D5
100
AcDbEntity
  8
L1_170
  6
CONTINUOUS
 62
         7
100
AcDbLine
 10
1412.4413150535
 20
-103.0115982245
 30
0.0
 11
1413.9113150535
 21
-91.7915982245
 31
0.0
  0
LINE
  5
4D6
100
AcDbEntity
  8
L1_170
  6
CONTINUOUS
 62
         7
100
AcDbLine
 10
1415.3813150535
 20
-91.7915982245
 30
0.0
 11
1413.9113150535
 21
-103.0115982245
 31
0.0
  0
CIRCLE
  5
4D7
100
AcDbEntity
  8
L1_170
  6
CONTINUOUS
 62
         7
100
AcDbCircle
 10
1462.2528451833
 20
-88.0165982245
 30
0.0
 40
0.685
  0
CIRCLE
  5
4D8
100
AcDbEntity
  8
L1_170
  6
CONTINUOUS
 62
         7
100
AcDbCircle
 10
1463.6228451833
 20
-88.0165982245
 30
0.0
 40
0.685
  0
CIRCLE
  5
4D9
100
AcDbEntity
  8
L1_170
  6
CONTINUOUS
 62
         7
100
AcDbCircle
 10
1464.9928451833
 20
-88.0165982245
 30
0.0
 40
0.685
  0
CIRCLE
  5
4DA
100
AcDbEntity
  8
L1_170
  6
CONTINUOUS
 62
         7
100
AcDbCircle
 10
1466.3628451833
 20
-88.0165982245
 30
0.0
 40
0.685
  0
CIRCLE
  5
4DB
100
AcDbEntity
  8
L1_170
  6
CONTINUOUS
 62
         7
100
AcDbCircle
 10
1467.7328451833
 20
-88.0165982245
 30
0.0
 40
0.685
  0
CIRCLE
  5
4DC
100
AcDbEntity
  8
L1_170
  6
CONTINUOUS
 62
         7
100
AcDbCircle
 10
1469.1028451833
 20
-88.0165982245
 30
0.0
 40
0.685
  0
CIRCLE
  5
4DD
100
AcDbEntity
  8
L1_170
  6
CONTINUOUS
 62
         7
100
AcDbCircle
 10
1460.8828451833
 20
-106.7865982245
 30
0.0
 40
0.685
  0
CIRCLE
  5
4DE
100
AcDbEntity
  8
L1_170
  6
CONTINUOUS
 62
         7
100
AcDbCircle
 10
1462.2528451833
 20
-106.7865982245
 30
0.0
 40
0.685
  0
CIRCLE
  5
4DF
100
AcDbEntity
  8
L1_170
  6
CONTINUOUS
 62
         7
100
AcDbCircle
 10
1463.6228451833
 20
-106.7865982245
 30
0.0
 40
0.685
  0
CIRCLE
  5
4E0
100
AcDbEntity
  8
L1_170
  6
CONTINUOUS
 62
         7
100
AcDbCircle
 10
1464.9928451833
 20
-106.7865982245
 30
0.0
 40
0.685
  0
CIRCLE
  5
4E1
100
AcDbEntity
  8
L1_170
  6
CONTINUOUS
 62
         7
100
AcDbCircle
 10
1466.3628451833
 20
-106.7865982245
 30
0.0
 40
0.685
  0
CIRCLE
  5
4E2
100
AcDbEntity
  8
L1_170
  6
CONTINUOUS
 62
         7
100
AcDbCircle
 10
1467.7328451833
 20
-106.7865982245
 30
0.0
 40
0.685
  0
LINE
  5
4E3
100
AcDbEntity
  8
L1_170
  6
CONTINUOUS
 62
         7
100
AcDbLine
 10
1469.7878451833
 20
-88.0165982245
 30
0.0
 11
1468.4178451833
 21
-106.7865982245
 31
0.0
  0
LINE
  5
4E4
100
AcDbEntity
  8
L1_170
  6
CONTINUOUS
 62
         7
100
AcDbLine
 10
1467.0478451833
 20
-106.7865982245
 30
0.0
 11
1468.4178451833
 21
-88.0165982245
 31
0.0
  0
LINE
  5
4E5
100
AcDbEntity
  8
L1_170
  6
CONTINUOUS
 62
         7
100
AcDbLine
 10
1467.0478451833
 20
-88.0165982245
 30
0.0
 11
1465.6778451833
 21
-106.7865982245
 31
0.0
  0
LINE
  5
4E6
100
AcDbEntity
  8
L1_170
  6
CONTINUOUS
 62
         7
100
AcDbLine
 10
1464.3078451833
 20
-106.7865982245
 30
0.0
 11
1465.6778451833
 21
-88.0165982245
 31
0.0
  0
LINE
  5
4E7
100
AcDbEntity
  8
L1_170
  6
CONTINUOUS
 62
         7
100
AcDbLine
 10
1464.3078451833
 20
-88.0165982245
 30
0.0
 11
1462.9378451833
 21
-106.7865982245
 31
0.0
  0
LINE
  5
4E8
100
AcDbEntity
  8
L1_170
  6
CONTINUOUS
 62
         7
100
AcDbLine
 10
1461.5678451833
 20
-106.7865982245
 30
0.0
 11
1462.9378451833
 21
-88.0165982245
 31
0.0
  0
LINE
  5
4E9
100
AcDbEntity
  8
L1_170
  6
CONTINUOUS
 62
         7
100
AcDbLine
 10
1461.5678451833
 20
-88.0165982245
 30
0.0
 11
1460.1978451833
 21
-106.7865982245
 31
0.0
  0
CIRCLE
  5
4EA
100
AcDbEntity
  8
L1_170
  6
CONTINUOUS
 62
         7
100
AcDbCircle
 10
1345.8210920817
 20
-108.3015982245
 30
0.0
 40
0.785
  0
CIRCLE
  5
4EB
100
AcDbEntity
  8
L1_170
  6
CONTINUOUS
 62
         7
100
AcDbCircle
 10
1347.3910920817
 20
-108.3015982245
 30
0.0
 40
0.785
  0
CIRCLE
  5
4EC
100
AcDbEntity
  8
L1_170
  6
CONTINUOUS
 62
         7
100
AcDbCircle
 10
1348.9610920817
 20
-108.3015982245
 30
0.0
 40
0.785
  0
CIRCLE
  5
4ED
100
AcDbEntity
  8
L1_170
  6
CONTINUOUS
 62
         7
100
AcDbCircle
 10
1350.5310920817
 20
-108.3015982245
 30
0.0
 40
0.785
  0
CIRCLE
  5
4EE
100
AcDbEntity
  8
L1_170
  6
CONTINUOUS
 62
         7
100
AcDbCircle
 10
1352.1010920817
 20
-108.3015982245
 30
0.0
 40
0.785
  0
CIRCLE
  5
4EF
100
AcDbEntity
  8
L1_170
  6
CONTINUOUS
 62
         7
100
AcDbCircle
 10
1353.6710920817
 20
-108.3015982245
 30
0.0
 40
0.785
  0
CIRCLE
  5
4F0
100
AcDbEntity
  8
L1_170
  6
CONTINUOUS
 62
         7
100
AcDbCircle
 10
1347.3910920817
 20
-86.5015982245
 30
0.0
 40
0.785
  0
CIRCLE
  5
4F1
100
AcDbEntity
  8
L1_170
  6
CONTINUOUS
 62
         7
100
AcDbCircle
 10
1348.9610920817
 20
-86.5015982245
 30
0.0
 40
0.785
  0
CIRCLE
  5
4F2
100
AcDbEntity
  8
L1_170
  6
CONTINUOUS
 62
         7
100
AcDbCircle
 10
1350.5310920817
 20
-86.5015982245
 30
0.0
 40
0.785
  0
CIRCLE
  5
4F3
100
AcDbEntity
  8
L1_170
  6
CONTINUOUS
 62
         7
100
AcDbCircle
 10
1352.1010920817
 20
-86.5015982245
 30
0.0
 40
0.785
  0
CIRCLE
  5
4F4
100
AcDbEntity
  8
L1_170
  6
CONTINUOUS
 62
         7
100
AcDbCircle
 10
1353.6710920817
 20
-86.5015982245
 30
0.0
 40
0.785
  0
CIRCLE
  5
4F5
100
AcDbEntity
  8
L1_170
  6
CONTINUOUS
 62
         7
100
AcDbCircle
 10
1355.2410920817
 20
-86.5015982245
 30
0.0
 40
0.785
  0
CIRCLE
  5
4F6
100
AcDbEntity
  8
L1_170
  6
CONTINUOUS
 62
         7
100
AcDbCircle
 10
1356.8110920817
 20
-86.5015982245
 30
0.0
 40
0.785
  0
LINE
  5
4F7
100
AcDbEntity
  8
L1_170
  6
CONTINUOUS
 62
         7
100
AcDbLine
 10
1346.6060920817
 20
-86.5015982245
 30
0.0
 11
1345.0360920817
 21
-108.3015982245
 31
0.0
  0
LINE
  5
4F8
100
AcDbEntity
  8
L1_170
  6
CONTINUOUS
 62
         7
100
AcDbLine
 10
1354.4560920817
 20
-108.3015982245
 30
0.0
 11
1357.5960920817
 21
-86.5015982245
 31
0.0
  0
LINE
  5
4F9
100
AcDbEntity
  8
L1_170
  6
CONTINUOUS
 62
         7
100
AcDbLine
 10
1348.1760920817
 20
-86.5015982245
 30
0.0
 11
1346.6060920817
 21
-108.3015982245
 31
0.0
  0
LINE
  5
4FA
100
AcDbEntity
  8
L1_170
  6
CONTINUOUS
 62
         7
100
AcDbLine
 10
1348.1760920817
 20
-108.3015982245
 30
0.0
 11
1349.7460920817
 21
-86.5015982245
 31
0.0
  0
LINE
  5
4FB
100
AcDbEntity
  8
L1_170
  6
CONTINUOUS
 62
         7
100
AcDbLine
 10
1351.3160920817
 20
-86.5015982245
 30
0.0
 11
1349.7460920817
 21
-108.3015982245
 31
0.0
  0
LINE
  5
4FC
100
AcDbEntity
  8
L1_170
  6
CONTINUOUS
 62
         7
100
AcDbLine
 10
1351.3160920817
 20
-108.3015982245
 30
0.0
 11
1352.8860920817
 21
-86.5015982245
 31
0.0
  0
LINE
  5
4FD
100
AcDbEntity
  8
L1_170
  6
CONTINUOUS
 62
         7
100
AcDbLine
 10
1354.4560920817
 20
-86.5015982245
 30
0.0
 11
1352.8860920817
 21
-108.3015982245
 31
0.0
  0
LINE
  5
4FE
100
AcDbEntity
  8
L1_170
  6
CONTINUOUS
 62
         7
100
AcDbLine
 10
1354.4560920817
 20
-108.3015982245
 30
0.0
 11
1356.0260920817
 21
-86.5015982245
 31
0.0
  0
CIRCLE
  5
4FF
100
AcDbEntity
  8
L1_170
  6
CONTINUOUS
 62
         7
100
AcDbCircle
 10
1388.4977755043
 20
-118.3965982245
 30
0.0
 40
0.885
  0
CIRCLE
  5
500
100
AcDbEntity
  8
L1_170
  6
CONTINUOUS
 62
         7
100
AcDbCircle
 10
1386.7277755043
 20
-118.3965982245
 30
0.0
 40
0.885
  0
CIRCLE
  5
501
100
AcDbEntity
  8
L1_170
  6
CONTINUOUS
 62
         7
100
AcDbCircle
 10
1384.9577755043
 20
-118.3965982245
 30
0.0
 40
0.885
  0
CIRCLE
  5
502
100
AcDbEntity
  8
L1_170
  6
CONTINUOUS
 62
         7
100
AcDbCircle
 10
1390.2677755043
 20
-76.4065982245
 30
0.0
 40
0.885
  0
CIRCLE
  5
503
100
AcDbEntity
  8
L1_170
  6
CONTINUOUS
 62
         7
100
AcDbCircle
 10
1388.4977755043
 20
-76.4065982245
 30
0.0
 40
0.885
  0
CIRCLE
  5
504
100
AcDbEntity
  8
L1_170
  6
CONTINUOUS
 62
         7
100
AcDbCircle
 10
1386.7277755043
 20
-76.4065982245
 30
0.0
 40
0.885
  0
LINE
  5
505
100
AcDbEntity
  8
L1_170
  6
CONTINUOUS
 62
         7
100
AcDbLine
 10
1391.1527755043
 20
-76.4065982245
 30
0.0
 11
1389.3827755043
 21
-118.3965982245
 31
0.0
  0
LINE
  5
506
100
AcDbEntity
  8
L1_170
  6
CONTINUOUS
 62
         7
100
AcDbLine
 10
1387.6127755043
 20
-118.3965982245
 30
0.0
 11
1389.3827755043
 21
-76.4065982245
 31
0.0
  0
LINE
  5
507
100
AcDbEntity
  8
L1_170
  6
CONTINUOUS
 62
         7
100
AcDbLine
 10
1387.6127755043
 20
-76.4065982245
 30
0.0
 11
1385.8427755043
 21
-118.3965982245
 31
0.0
  0
LINE
  5
508
100
AcDbEntity
  8
L1_170
  6
CONTINUOUS
 62
         7
100
AcDbLine
 10
1385.8427755043
 20
-76.4065982245
 30
0.0
 11
1384.0727755043
 21
-118.3965982245
 31
0.0
  0
DIMENSION
  5
50B
100
AcDbEntity
  8
L1_170
  6
CONTINUOUS
 62
         4
100
AcDbDimension
  2
*D11
 10
1452.5342800134
 20
-87.3315982245
 30
0.0
 11
1450.5092800134
 21
-102.8015982245
 31
0.0
  3
DIMSTYLE1
100
AcDbAlignedDimension
 13
1462.2528451833
 23
-87.3315982245
 33
0.0
 14
1460.8828451833
 24
-107.4715982245
 34
0.0
 50
90.0
100
AcDbRotatedDimension
  0
DIMENSION
  5
519
100
AcDbEntity
  8
L1_170
  6
CONTINUOUS
 62
         4
100
AcDbDimension
  2
*D12
 10
1407.2531233543
 20
-91.0565982245
 30
0.0
 11
1405.2281233543
 21
-102.8015982245
 31
0.0
  3
DIMSTYLE1
100
AcDbAlignedDimension
 13
1414.6463150535
 23
-91.0565982245
 33
0.0
 14
1413.1763150535
 24
-103.7465982245
 34
0.0
 50
90.0
100
AcDbRotatedDimension
  0
DIMENSION
  5
527
100
AcDbEntity
  8
L1_170
  6
CONTINUOUS
 62
         4
100
AcDbDimension
  2
*D13
 10
1379.848384417
 20
-75.5215982245
 30
0.0
 11
1377.823384417
 21
-102.8015982245
 31
0.0
  3
DIMSTYLE1
100
AcDbAlignedDimension
 13
1386.7277755043
 23
-75.5215982245
 33
0.0
 14
1384.9577755043
 24
-119.2815982245
 34
0.0
 50
90.0
100
AcDbRotatedDimension
  0
DIMENSION
  5
535
100
AcDbEntity
  8
L1_170
  6
CONTINUOUS
 62
         4
100
AcDbDimension
  2
*D14
 10
1341.677678015
 20
-85.7165982245
 30
0.0
 11
1339.652678015
 21
-105.5015982245
 31
0.0
  3
DIMSTYLE1
100
AcDbAlignedDimension
 13
1347.3910920817
 23
-85.7165982245
 33
0.0
 14
1345.8210920817
 24
-109.0865982245
 34
0.0
 50
90.0
100
AcDbRotatedDimension
  0
CIRCLE
  5
541
100
AcDbEntity
  8
L1_170
  6
CONTINUOUS
 62
         7
100
AcDbCircle
 10
1634.6570837537
 20
-23.8042714442
 30
0.0
 40
1.0
  0
CIRCLE
  5
542
100
AcDbEntity
  8
L1_170
  6
CONTINUOUS
 62
         7
100
AcDbCircle
 10
1634.6570837537
 20
-81.8042714442
 30
0.0
 40
1.0
  0
LINE
  5
543
100
AcDbEntity
  8
L1_170
  6
CONTINUOUS
 62
         7
100
AcDbLine
 10
1635.6570837537
 20
-23.8042714442
 30
0.0
 11
1635.6570837537
 21
-81.8042714442
 31
0.0
  0
LINE
  5
544
100
AcDbEntity
  8
L1_170
  6
CONTINUOUS
 62
         7
100
AcDbLine
 10
1633.6570837537
 20
-81.8042714442
 30
0.0
 11
1633.6570837537
 21
-23.8042714442
 31
0.0
  0
DIMENSION
  5
547
100
AcDbEntity
  8
L1_170
  6
CONTINUOUS
 62
         4
100
AcDbDimension
  2
*D15
 10
1647.2106175936
 20
-22.8042714442
 30
0.0
 11
1645.1856175936
 21
-58.2042714442
 31
0.0
  3
DIMSTYLE1
100
AcDbAlignedDimension
 13
1634.6570837537
 23
-22.8042714442
 33
0.0
 14
1634.6570837537
 24
-82.8042714442
 34
0.0
 50
90.0
100
AcDbRotatedDimension
  0
LINE
  5
553
100
AcDbEntity
  8
L1_170
  6
CENTER
 62
         1
100
AcDbLine
 10
1790.201267256
 20
-52.8042714442
 30
0.0
 11
1601.6595254111
 21
-52.8042714442
 31
0.0
  0
LINE
  5
554
100
AcDbEntity
  8
L1_170
  6
CENTER
 62
         1
100
AcDbLine
 10
1479.0810589847
 20
-97.4015982245
 30
0.0
 11
1246.3952098833
 21
-97.4015982245
 31
0.0
  0
DIMENSION
  5
557
100
AcDbEntity
  8
L1_170
  6
CONTINUOUS
 62
         4
100
AcDbDimension
  2
*D16
 10
1733.7862434998
 20
-32.0542714442
 30
0.0
 11
1731.7612434998
 21
-60.9042714442
 31
0.0
  3
DIMSTYLE1
100
AcDbAlignedDimension
 13
1723.6072316138
 23
-32.0542714442
 33
0.0
 14
1723.6072316138
 24
-73.5542714442
 34
0.0
 50
90.0
100
AcDbRotatedDimension
  0
DIMENSION
  5
565
100
AcDbEntity
  8
L1_170
  6
CONTINUOUS
 62
         4
100
AcDbDimension
  2
*D17
 10
1709.1945791015
 20
-36.5542714442
 30
0.0
 11
1707.1695791015
 21
-60.9042714442
 31
0.0
  3
DIMSTYLE1
100
AcDbAlignedDimension
 13
1698.5659724866
 23
-36.5542714442
 33
0.0
 14
1698.5659724866
 24
-69.0542714442
 34
0.0
 50
90.0
100
AcDbRotatedDimension
  0
CIRCLE
  5
571
100
AcDbEntity
  8
L1_170
  6
CONTINUOUS
 62
         7
100
AcDbCircle
 10
1698.5659724866
 20
-68.3042714442
 30
0.0
 40
0.75
  0
LINE
  5
572
100
AcDbEntity
  8
L1_170
  6
CONTINUOUS
 62
         7
100
AcDbLine
 10
1697.8159724866
 20
-37.3042714442
 30
0.0
 11
1697.8159724866
 21
-68.3042714442
 31
0.0
  0
LINE
  5
573
100
AcDbEntity
  8
L1_170
  6
CONTINUOUS
 62
         7
100
AcDbLine
 10
1699.3159724866
 20
-68.3042714442
 30
0.0
 11
1699.3159724866
 21
-37.3042714442
 31
0.0
  0
CIRCLE
  5
574
100
AcDbEntity
  8
L1_170
  6
CONTINUOUS
 62
         7
100
AcDbCircle
 10
1698.5659724866
 20
-37.3042714442
 30
0.0
 40
0.75
  0
CIRCLE
  5
575
100
AcDbEntity
  8
L1_170
  6
CONTINUOUS
 62
         7
100
AcDbCircle
 10
1723.6072316138
 20
-72.8042714442
 30
0.0
 40
0.75
  0
LINE
  5
576
100
AcDbEntity
  8
L1_170
  6
CONTINUOUS
 62
         7
100
AcDbLine
 10
1724.3572316138
 20
-32.8042714442
 30
0.0
 11
1724.3572316138
 21
-72.8042714442
 31
0.0
  0
LINE
  5
577
100
AcDbEntity
  8
L1_170
  6
CONTINUOUS
 62
         7
100
AcDbLine
 10
1722.8572316138
 20
-72.8042714442
 30
0.0
 11
1722.8572316138
 21
-32.8042714442
 31
0.0
  0
CIRCLE
  5
578
100
AcDbEntity
  8
L1_170
  6
CONTINUOUS
 62
         7
100
AcDbCircle
 10
1723.6072316138
 20
-32.8042714442
 30
0.0
 40
0.75
  0
LINE
  5
579
100
AcDbEntity
  8
L1_170
  6
CONTINUOUS
 62
         7
100
AcDbLine
 10
1668.7800683624
 20
-65.7542714442
 30
0.0
 11
1668.7800683624
 21
-39.8542714442
 31
0.0
  0
LINE
  5
57A
100
AcDbEntity
  8
L1_170
  6
CONTINUOUS
 62
         7
100
AcDbLine
 10
1667.5800683624
 20
-65.7542714442
 30
0.0
 11
1667.5800683624
 21
-39.8542714442
 31
0.0
  0
LINE
  5
57B
100
AcDbEntity
  8
L1_170
  6
CONTINUOUS
 62
         7
100
AcDbLine
 10
1668.7800683624
 20
-39.8542714442
 30
0.0
 11
1667.5800683624
 21
-39.8542714442
 31
0.0
  0
LINE
  5
57C
100
AcDbEntity
  8
L1_170
  6
CONTINUOUS
 62
         7
100
AcDbLine
 10
1668.7800683624
 20
-65.7542714442
 30
0.0
 11
1667.5800683624
 21
-65.7542714442
 31
0.0
  0
LINE
  5
57D
100
AcDbEntity
  8
L1_170
  6
CONTINUOUS
 62
         7
100
AcDbLine
 10
1668.7800683624
 20
-42.3542714442
 30
0.0
 11
1667.5800683624
 21
-42.3542714442
 31
0.0
  0
LINE
  5
57E
100
AcDbEntity
  8
L1_170
  6
CONTINUOUS
 62
         7
100
AcDbLine
 10
1668.7800683624
 20
-63.2542714442
 30
0.0
 11
1667.5800683624
 21
-63.2542714442
 31
0.0
  0
DIMENSION
  5
581
100
AcDbEntity
  8
L1_170
  6
CONTINUOUS
 62
         4
100
AcDbDimension
  2
*D18
 10
1676.2621122123
 20
-39.8542714442
 30
0.0
 11
1674.2371122123
 21
-58.2042714442
 31
0.0
  3
DIMSTYLE1
100
AcDbAlignedDimension
 13
1668.7800683624
 23
-39.8542714442
 33
0.0
 14
1668.7800683624
 24
-65.7542714442
 34
0.0
 50
90.0
100
AcDbRotatedDimension
  0
DIMENSION
  5
58F
100
AcDbEntity
  8
L1_170
  6
CONTINUOUS
 62
         4
100
AcDbDimension
  2
*D19
 10
1667.5800683624
 20
-34.4089700229
 30
0.0
 11
1664.1300683624
 21
-32.3839700229
 31
0.0
  3
DIMSTYLE1
100
AcDbAlignedDimension
 13
1667.5800683624
 23
-39.8542714442
 33
0.0
 14
1668.7800683624
 24
-39.8542714442
 34
0.0
100
AcDbRotatedDimension
  0
LINE
  5
59B
100
AcDbEntity
  8
L1_170
  6
CENTER
 62
         1
100
AcDbLine
 10
1753.8316981954
 20
-61.0296396908
 30
0.0
 11
1753.8316981954
 21
-42.2490889507
 31
0.0
  0
LINE
  5
59C
100
AcDbEntity
  8
L1_170
  6
CENTER
 62
         1
100
AcDbLine
 10
1778.8912181833
 20
-61.0296396908
 30
0.0
 11
1778.8912181833
 21
-42.2490889507
 31
0.0
  0
CIRCLE
  5
59D
100
AcDbEntity
  8
L1_170
  6
CONTINUOUS
 62
         7
100
AcDbCircle
 10
1753.8316981954
 20
-52.8042714442
 30
0.0
 40
3.175
  0
CIRCLE
  5
59E
100
AcDbEntity
  8
L1_170
  6
CONTINUOUS
 62
         7
100
AcDbCircle
 10
1778.8912181833
 20
-52.8042714442
 30
0.0
 40
4.7625
  0
DIMENSION
  5
5A1
100
AcDbEntity
  8
L1_170
  6
CONTINUOUS
 62
         4
100
AcDbDimension
  2
*D20
 10
1753.8316981954
 20
-52.8042714442
 30
0.0
 11
1758.2193768334
 21
-43.7353708018
 31
0.0
 70
         4
  3
DIMSTYLE1
100
AcDbRadialDimension
 15
1755.5773035299
 25
-50.1521992325
 35
0.0
 40
0.0
  0
DIMENSION
  5
5AC
100
AcDbEntity
  8
L1_170
  6
CONTINUOUS
 62
         4
100
AcDbDimension
  2
*D21
 10
1778.8912181833
 20
-52.8042714442
 30
0.0
 11
1781.897466937
 21
-49.078788885
 31
0.0
 70
         4
  3
DIMSTYLE1
100
AcDbRadialDimension
 15
1782.7721533815
 25
-50.0438822982
 35
0.0
 40
0.0
  0
ARC
  5
5B5
100
AcDbEntity
  8
L1_170
  6
CONTINUOUS
 62
         7
100
AcDbCircle
 10
1546.3033403763
 20
-38.6433347407
 30
0.0
 40
1.7
100
AcDbArc
 50
0.0
 51
90.0
  0
ARC
  5
5B6
100
AcDbEntity
  8
L1_170
  6
CONTINUOUS
 62
         7
100
AcDbCircle
 10
1546.3033403763
 20
12.7566652593
 30
0.0
 40
1.7
100
AcDbArc
 50
270.0
 51
360.0
  0
LINE
  5
5B7
100
AcDbEntity
  8
L1_170
  6
CONTINUOUS
 62
         4
100
AcDbLine
 10
1546.3033403763
 20
-36.9433347407
 30
0.0
 11
1546.3033403763
 21
11.0566652593
 31
0.0
  0
DIMENSION
  5
5BA
100
AcDbEntity
  8
L1_170
  6
CONTINUOUS
 62
         4
100
AcDbDimension
  2
*D22
 10
1548.0033403763
 20
209.6967803752
 30
0.0
 11
1514.1619987403
 21
212.8287803752
 31
0.0
  3
DIMSTYLE1
100
AcDbAlignedDimension
 13
1548.0033403763
 23
174.5691716756
 33
0.0
 14
1497.0033403763
 24
180.6846417294
 34
0.0
100
AcDbRotatedDimension
  0
DIMENSION
  5
5C8
100
AcDbEntity
  8
L1_170
  6
CONTINUOUS
 62
         4
100
AcDbDimension
  2
*D23
 10
1548.0033403763
 20
200.1269903782
 30
0.0
 11
1532.993585493
 21
203.2589903782
 31
0.0
  3
DIMSTYLE1
100
AcDbAlignedDimension
 13
1548.0033403763
 23
174.5691716756
 33
0.0
 14
1537.0033403763
 24
179.1846417294
 34
0.0
100
AcDbRotatedDimension
  0
DIMENSION
  5
5D7
100
AcDbEntity
  8
L1_170
  6
CONTINUOUS
 62
         4
100
AcDbDimension
  2
*D24
 10
1537.0033403763
 20
193.3621388287
 30
0.0
 11
1524.6637979098
 21
196.4941388287
 31
0.0
  3
DIMSTYLE1
100
AcDbAlignedDimension
 13
1537.0033403763
 23
179.1846417294
 33
0.0
 14
1539.0033403763
 24
179.1846417294
 34
0.0
100
AcDbRotatedDimension
  0
DIMENSION
  5
5E7
100
AcDbEntity
  8
L1_170
  6
CONTINUOUS
 62
         4
100
AcDbDimension
  2
*D25
 10
1571.4475469386
 20
178.1846417294
 30
0.0
 11
1568.3155469386
 21
140.6759742922
 31
0.0
  3
DIMSTYLE1
100
AcDbAlignedDimension
 13
1539.0033403763
 23
178.1846417294
 33
0.0
 14
1539.0033403763
 24
122.1846417294
 34
0.0
 50
90.0
100
AcDbRotatedDimension
  0
DIMENSION
  5
5F5
100
AcDbEntity
  8
L1_170
  6
CONTINUOUS
 62
         4
100
AcDbDimension
  2
*D26
 10
1579.3169601704
 20
179.1846417294
 30
0.0
 11
1576.1849601704
 21
145.7117283484
 31
0.0
  3
DIMSTYLE1
100
AcDbAlignedDimension
 13
1539.5432133573
 23
179.1846417294
 33
0.0
 14
1539.0033403763
 24
121.1846417294
 34
0.0
 50
90.0
100
AcDbRotatedDimension
  0
DIMENSION
  5
603
100
AcDbEntity
  8
L1_170
  6
CONTINUOUS
 62
         4
100
AcDbDimension
  2
*D27
 10
1517.9444081025
 20
155.1346417294
 30
0.0
 11
1514.8124081025
 21
158.0763018463
 31
0.0
  3
DIMSTYLE1
100
AcDbAlignedDimension
 13
1508.9083403763
 23
155.1346417294
 33
0.0
 14
1508.9083403763
 24
145.2346417294
 34
0.0
 50
90.0
100
AcDbRotatedDimension
  0
DIMENSION
  5
612
100
AcDbEntity
  8
L1_170
  6
CONTINUOUS
 62
         4
100
AcDbDimension
  2
*D28
 10
1526.9983403763
 20
110.4110370841
 30
0.0
 11
1530.7223564215
 21
113.5430370841
 31
0.0
  3
DIMSTYLE1
100
AcDbAlignedDimension
 13
1526.9983403763
 23
142.3499119521
 33
0.0
 14
1548.0033403763
 24
125.8001117832
 34
0.0
100
AcDbRotatedDimension
  0
DIMENSION
  5
620
100
AcDbEntity
  8
L1_170
  6
CONTINUOUS
 62
         4
100
AcDbDimension
  2
*D29
 10
1548.0033403763
 20
100.5306055178
 30
0.0
 11
1519.1473021024
 21
103.6626055178
 31
0.0
  3
DIMSTYLE1
100
AcDbAlignedDimension
 13
1548.0033403763
 23
125.8001117832
 33
0.0
 14
1508.9083403763
 24
142.3499119489
 34
0.0
100
AcDbRotatedDimension
  0
DIMENSION
  5
62E
100
AcDbEntity
  8
L1_170
  6
CONTINUOUS
 62
         4
100
AcDbDimension
  2
*D30
 10
1503.9583403763
 20
22.5276946084
 30
0.0
 11
1512.3283403763
 21
25.6596946084
 31
0.0
  3
DIMSTYLE1
100
AcDbAlignedDimension
 13
1503.9583403763
 23
16.0566652593
 33
0.0
 14
1531.9483403763
 24
16.0566652593
 34
0.0
100
AcDbRotatedDimension
  0
DIMENSION
  5
63C
100
AcDbEntity
  8
L1_170
  6
CONTINUOUS
 62
         4
100
AcDbDimension
  2
*D31
 10
1495.0057015658
 20
-65.1330663351
 30
0.0
 11
1513.9371253698
 21
-62.0010663351
 31
0.0
  3
DIMSTYLE1
100
AcDbAlignedDimension
 13
1495.0057015658
 23
-37.4433347407
 33
0.0
 14
1548.0033403763
 24
-37.7886342023
 34
0.0
100
AcDbRotatedDimension
  0
DIMENSION
  5
64A
100
AcDbEntity
  8
L1_170
  6
CONTINUOUS
 62
         4
100
AcDbDimension
  2
*D32
 10
1548.0033403763
 20
-74.4460773315
 30
0.0
 11
1500.8033919133
 21
-71.3140773315
 31
0.0
  3
DIMSTYLE1
100
AcDbAlignedDimension
 13
1548.0033403763
 23
-37.3278646868
 33
0.0
 14
1468.0033403763
 24
-30.9433347407
 34
0.0
100
AcDbRotatedDimension
  0
DIMENSION
  5
658
100
AcDbEntity
  8
L1_170
  6
CONTINUOUS
 62
         4
100
AcDbDimension
  2
*D33
 10
1563.9390544535
 20
4.5566652593
 30
0.0
 11
1561.9140544535
 21
-19.8342330444
 31
0.0
  3
DIMSTYLE1
100
AcDbAlignedDimension
 13
1494.0057015658
 23
4.5566652593
 33
0.0
 14
1494.0057015658
 24
-30.4433347407
 34
0.0
 50
90.0
100
AcDbRotatedDimension
  0
DIMENSION
  5
666
100
AcDbEntity
  8
L1_170
  6
CONTINUOUS
 62
         4
100
AcDbDimension
  2
*D34
 10
1582.7871677832
 20
11.0566652593
 30
0.0
 11
1580.7621677832
 21
-20.3134223664
 31
0.0
  3
DIMSTYLE1
100
AcDbAlignedDimension
 13
1547.8033403763
 23
11.0566652593
 33
0.0
 14
1547.8033403763
 24
-36.9433347407
 34
0.0
 50
90.0
100
AcDbRotatedDimension
  0
TEXT
  5
673
100
AcDbEntity
  8
L1_170
  6
CONTINUOUS
 62
         2
100
AcDbText
 10
1707.8551181589
 20
224.3704784082
 30
0.0
 40
4.5
  1
531546
 41
0.98
  7
BOX
100
AcDbText
  0
ENDSEC
  0
SECTION
  2
OBJECTS
  0
DICTIONARY
  5
19
100
AcDbDictionary
  3
ACAD_GROUP
350
1A
  3
ACAD_MLINESTYLE
350
1B
  0
DICTIONARY
  5
1A
102
{ACAD_REACTORS
330
19
102
}
100
AcDbDictionary
  0
DICTIONARY
  5
1B
102
{ACAD_REACTORS
330
19
102
}
100
AcDbDictionary
  3
STANDARD
350
1C
  0
MLINESTYLE
  5
1C
102
{ACAD_REACTORS
330
1B
102
}
100
AcDbMlineStyle
  2
STANDARD
 70
         0
  3

 62
         0
 51
90.0
 52
90.0
 71
         2
 49
0.5
 62
       256
  6
BYLAYER
 49
-0.5
 62
       256
  6
BYLAYER
  0
ENDSEC
  0
EOF
