  0
SECTION
  2
HEADER
  9
$ACADVER
  1
AC1014
  9
$ACADMAINTVER
 70
         0
  9
$DWGCODEPAGE
  3
BIG5
  9
$INSBASE
 10
0.0
 20
0.0
 30
0.0
  9
$EXTMIN
 10
997.6348254909
 20
-364.6441066084
 30
0.0
  9
$EXTMAX
 10
2231.6732999133
 20
257.519815738
 30
0.0
  9
$LIMMIN
 10
0.0
 20
0.0
  9
$LIMMAX
 10
0.0
 20
0.0
  9
$ORTHOMODE
 70
         0
  9
$REGENMODE
 70
         1
  9
$FILLMODE
 70
         1
  9
$QTEXTMODE
 70
         0
  9
$MIRRTEXT
 70
         1
  9
$DRAGMODE
 70
         2
  9
$LTSCALE
 40
1.0
  9
$OSMODE
 70
         0
  9
$ATTMODE
 70
         1
  9
$TEXTSIZE
 40
1.0
  9
$TRACEWID
 40
0.05
  9
$TEXTSTYLE
  7
STANDARD
  9
$CLAYER
  8
0
  9
$CELTYPE
  6
CONTINUOUS
  9
$CECOLOR
 62
         4
  9
$CELTSCALE
 40
1.0
  9
$DELOBJ
 70
         1
  9
$DISPSILH
 70
         0
  9
$DIMSCALE
 40
1.0
  9
$DIMASZ
 40
0.18
  9
$DIMEXO
 40
0.0625
  9
$DIMDLI
 40
0.38
  9
$DIMRND
 40
0.0
  9
$DIMDLE
 40
0.0
  9
$DIMEXE
 40
0.25
  9
$DIMTP
 40
0.01
  9
$DIMTM
 40
-0.01
  9
$DIMTXT
 40
3.5
  9
$DIMCEN
 40
0.09
  9
$DIMTSZ
 40
0.0
  9
$DIMTOL
 70
         0
  9
$DIMLIM
 70
         0
  9
$DIMTIH
 70
         1
  9
$DIMTOH
 70
         1
  9
$DIMSE1
 70
         0
  9
$DIMSE2
 70
         0
  9
$DIMTAD
 70
         0
  9
$DIMZIN
 70
         0
  9
$DIMBLK
  1

  9
$DIMASO
 70
         1
  9
$DIMSHO
 70
         1
  9
$DIMPOST
  1

  9
$DIMAPOST
  1

  9
$DIMALT
 70
         0
  9
$DIMALTD
 70
         2
  9
$DIMALTF
 40
25.4
  9
$DIMLFAC
 40
1.0
  9
$DIMTOFL
 70
         0
  9
$DIMTVP
 40
0.0
  9
$DIMTIX
 70
         0
  9
$DIMSOXD
 70
         0
  9
$DIMSAH
 70
         0
  9
$DIMBLK1
  1

  9
$DIMBLK2
  1

  9
$DIMSTYLE
  2
STANDARD
  9
$DIMCLRD
 70
         0
  9
$DIMCLRE
 70
         0
  9
$DIMCLRT
 70
         4
  9
$DIMTFAC
 40
1.0
  9
$DIMGAP
 40
0.09
  9
$DIMJUST
 70
         0
  9
$DIMSD1
 70
         0
  9
$DIMSD2
 70
         0
  9
$DIMTOLJ
 70
         1
  9
$DIMTZIN
 70
         0
  9
$DIMALTZ
 70
         0
  9
$DIMALTTZ
 70
         0
  9
$DIMFIT
 70
         3
  9
$DIMUPT
 70
         0
  9
$DIMUNIT
 70
         2
  9
$DIMDEC
 70
         4
  9
$DIMTDEC
 70
         4
  9
$DIMALTU
 70
         2
  9
$DIMALTTD
 70
         2
  9
$DIMTXSTY
  7
STANDARD
  9
$DIMAUNIT
 70
         0
  9
$LUNITS
 70
         2
  9
$LUPREC
 70
        10
  9
$SKETCHINC
 40
0.1
  9
$FILLETRAD
 40
0.0
  9
$AUNITS
 70
         0
  9
$AUPREC
 70
         0
  9
$MENU
  1
acad
  9
$ELEVATION
 40
0.0
  9
$PELEVATION
 40
0.0
  9
$THICKNESS
 40
0.0
  9
$LIMCHECK
 70
         0
  9
$BLIPMODE
 70
         1
  9
$CHAMFERA
 40
0.0
  9
$CHAMFERB
 40
0.0
  9
$CHAMFERC
 40
0.0
  9
$CHAMFERD
 40
0.0
  9
$SKPOLY
 70
         0
  9
$TDCREATE
 40
0.000000000
  9
$TDUPDATE
 40
0.000000000
  9
$TDINDWG
 40
0.0000000000
  9
$TDUSRTIMER
 40
0.0000000000
  9
$USRTIMER
 70
         1
  9
$ANGBASE
 50
0.0
  9
$ANGDIR
 70
         0
  9
$PDMODE
 70
         2
  9
$PDSIZE
 40
0.0
  9
$PLINEWID
 40
0.0
  9
$COORDS
 70
         1
  9
$SPLFRAME
 70
         0
  9
$SPLINETYPE
 70
         6
  9
$SPLINESEGS
 70
         8
  9
$ATTDIA
 70
         0
  9
$ATTREQ
 70
         1
  9
$HANDLING
 70
         1
  9
$HANDSEED
  5
7CA
  9
$SURFTAB1
 70
         6
  9
$SURFTAB2
 70
         6
  9
$SURFTYPE
 70
         6
  9
$SURFU
 70
         6
  9
$SURFV
 70
         6
  9
$UCSNAME
  2

  9
$UCSORG
 10
0.0
 20
0.0
 30
0.0
  9
$UCSXDIR
 10
1.0
 20
0.0
 30
0.0
  9
$UCSYDIR
 10
0.0
 20
1.0
 30
0.0
  9
$PUCSNAME
  2

  9
$PUCSORG
 10
0.0
 20
0.0
 30
0.0
  9
$PUCSXDIR
 10
1.0
 20
0.0
 30
0.0
  9
$PUCSYDIR
 10
0.0
 20
1.0
 30
0.0
  9
$USERI1
 70
         0
  9
$USERI2
 70
         0
  9
$USERI3
 70
         0
  9
$USERI4
 70
         0
  9
$USERI5
 70
         0
  9
$USERR1
 40
0.0
  9
$USERR2
 40
0.0
  9
$USERR3
 40
0.0
  9
$USERR4
 40
0.0
  9
$USERR5
 40
0.0
  9
$WORLDVIEW
 70
         1
  9
$SHADEDGE
 70
         3
  9
$SHADEDIF
 70
        70
  9
$TILEMODE
 70
         1
  9
$MAXACTVP
 70
        16
  9
$PINSBASE
 10
0.0
 20
0.0
 30
0.0
  9
$PLIMCHECK
 70
         0
  9
$PEXTMIN
 10
1.0000000000E+20
 20
1.0000000000E+20
 30
1.0000000000E+20
  9
$PEXTMAX
 10
-1.0000000000E+20
 20
-1.0000000000E+20
 30
-1.0000000000E+20
  9
$PLIMMIN
 10
0.0
 20
0.0
  9
$PLIMMAX
 10
12.0
 20
9.0
  9
$UNITMODE
 70
         0
  9
$VISRETAIN
 70
         0
  9
$PLINEGEN
 70
         1
  9
$PSLTSCALE
 70
         0
  9
$TREEDEPTH
 70
      3020
  9
$PICKSTYLE
 70
         1
  9
$CMLSTYLE
  2
STANDARD
  9
$CMLJUST
 70
         0
  9
$CMLSCALE
 40
1.0
  9
$PROXYGRAPHICS
 70
         0
  9
$MEASUREMENT
 70
         0
  0
ENDSEC
  0
SECTION
  2
CLASSES
  0
CLASS
  1
LWPOLYLINE
  2
AcDbPolyline
  3
"AutoCAD"
 90
        0
280
         0
281
         1
  0
CLASS
  1
IMAGE
  2
AcDbRasterImage
  3
ISM
 90
      127
280
         0
281
         1
  0
CLASS
  1
OLE2FRAME
  2
AcDbOle2Frame
  3
""
 90
        0
280
         0
281
         1
  0
CLASS
  1
HATCH
  2
AcDbHatch
  3
"ACAD_SEDONA"
 90
        0
280
         0
281
         1
  0
CLASS
  1
DICTIONARYVAR
  2
AcDbDictionaryVar
  3
"AutoCAD"
 90
        0
280
         0
281
         0
  0
CLASS
  1
RASTERVARIABLES
  2
AcDbRasterVariables
  3
ISM
 90
        0
280
         0
281
         0
  0
CLASS
  1
IMAGEDEF
  2
AcDbRasterImageDef
  3
ISM
 90
        0
280
         0
281
         0
  0
CLASS
  1
IMAGEDEF_REACTOR
  2
AcDbRasterImageDefReactor
  3
ISM
 90
        1
280
         0
281
         0
  0
CLASS
  1
IDBUFFER
  2
AcDbIdBuffer
  3
"Acad"
 90
        0
280
         0
281
         0
  0
CLASS
  1
SPATIAL_FILTER
  2
AcDbSpatialFilter
  3
"Acad"
 90
        0
280
         0
281
         0
  0
CLASS
  1
XRECORD
  2
AcDbXrecord
  3
"<Built In>"
 90
        0
280
         0
281
         0
  0
CLASS
  1
SORTENTSTABLE
  2
AcDbSortentsTable
  3
"AutoCAD"
 90
        0
280
         0
281
         0
  0
CLASS
  1
LAYER_INDEX
  2
AcDbLayerIndex
  3
"Acad"
 90
        0
280
         0
281
         0
  0
CLASS
  1
SPATIAL_INDEX
  2
AcDbSpatialIndex
  3
"Acad"
 90
        0
280
         0
281
         0
  0
CLASS
  1
OBJECT_PTR
  2
CAseDLPNTableRecord
  3
"ASE-LPNTableRecord"
 90
        1
280
         0
281
         0
  0
CLASS
  1
LAYOUT
  2
AcDbLayout
  3
"AutoCAD 2000"
 90
        1
280
         0
281
         0
  0
CLASS
  1
PLOTSETTINGS
  2
AcDbPlotSettings
  3
"AutoCAD 2000"
 90
        1
280
         0
281
         0
  0
CLASS
  1
ACDBDICTIONARYWDFLT
  2
AcDbDictionaryWithDefault
  3
"AutoCAD 2000"
 90
        1
280
         0
281
         0
  0
CLASS
  1
ACDBPLACEHOLDER
  2
AcDbPlaceHolder
  3
"AutoCAD 2000"
 90
        1
280
         0
281
         0
  0
CLASS
  1
VBA_PROJECT
  2
AcDbVbaProject
  3
"acadvba"
 90
        1
280
         0
281
         0
  0
CLASS
  1
WIPEOUT
  2
AcDbWipeout
  3
WipeOut|AutoCAD Express Tool|expresstools@autodesk.com
 90
      127
280
         0
281
         1
  0
CLASS
  1
WIPEOUTVARIABLES
  2
AcDbWipeoutVariables
  3
WipeOut|AutoCAD Express Tool|expresstools@autodesk.com
 90
        0
280
         0
281
         0
  0
CLASS
  1
RTEXT
  2
RText
  3
RText|AutoCAD Express Tool|expresstools@autodesk.com
 90
        0
280
         0
281
         1
  0
CLASS
  1
ARCALIGNEDTEXT
  2
AcDbArcAlignedText
  3
ATEXT|AutoCAD Express Tool|expresstools@autodesk.com
 90
        0
280
         0
281
         1
  0
ENDSEC
  0
SECTION
  2
TABLES
  0
TABLE
  2
VPORT
  5
7
100
AcDbSymbolTable
 70
         1
  0
VPORT
  5
15
100
AcDbSymbolTableRecord
100
AcDbViewportTableRecord
  2
*ACTIVE
 70
         0
 10
0.0
 20
0.0
 11
1.0
 21
1.0
 12
1614.6540627021
 22
-53.5621454352
 13
0.0
 23
0.0
 14
1.0
 24
1.0
 15
0.0
 25
0.0
 16
0.0
 26
0.0
 36
1.0
 17
0.0
 27
0.0
 37
0.0
 40
622.1639223464
 41
1.9834619625
 42
50.0
 43
0.0
 44
0.0
 50
0.0
 51
0.0
 71
         0
 72
       100
 73
         1
 74
         1
 75
         0
 76
         0
 77
         0
 78
         0
  0
ENDTAB
  0
TABLE
  2
LTYPE
  5
4
100
AcDbSymbolTable
 70
         6
  0
LTYPE
  5
11
100
AcDbSymbolTableRecord
100
AcDbLinetypeTableRecord
  2
BYBLOCK
 70
        64
  3

 72
        65
 73
         0
 40
0.0
  0
LTYPE
  5
12
100
AcDbSymbolTableRecord
100
AcDbLinetypeTableRecord
  2
BYLAYER
 70
        64
  3

 72
        65
 73
         0
 40
0.0
  0
LTYPE
  5
13
100
AcDbSymbolTableRecord
100
AcDbLinetypeTableRecord
  2
CONTINUOUS
 70
        64
  3
Solid line
 72
        65
 73
         0
 40
0.0
  0
LTYPE
  5
1D
100
AcDbSymbolTableRecord
100
AcDbLinetypeTableRecord
  2
DASHED
 70
        64
  3
_ _ _ _ _ _ _ _ _ _ _ _ _ _ _ _
 72
        65
 73
         2
 40
0.2
 49
0.1
 74
         0
 49
-0.1
 74
         0
  0
LTYPE
  5
1E
100
AcDbSymbolTableRecord
100
AcDbLinetypeTableRecord
  2
CENTER
 70
        64
  3
___ _ ___ _ ___ _ ___ _ ___ _ ___ _ ___ _ ___ _
 72
        65
 73
         4
 40
0.95
 49
0.625
 74
         0
 49
-0.125
 74
         0
 49
0.075
 74
         0
 49
-0.125
 74
         0
  0
LTYPE
  5
1F
100
AcDbSymbolTableRecord
100
AcDbLinetypeTableRecord
  2
PHANTOM
 70
        64
  3
______  __  __  ______  __  __  ______  __  __  
 72
        65
 73
         6
 40
1.025
 49
0.625
 74
         0
 49
-0.125
 74
         0
 49
0.075
 74
         0
 49
-0.125
 74
         0
 49
0.075
 74
         0
 49
-0.125
 74
         0
  0
ENDTAB
  0
TABLE
  2
LAYER
  5
2
100
AcDbSymbolTable
 70
         6
  0
LAYER
  5
14
100
AcDbSymbolTableRecord
100
AcDbLayerTableRecord
  2
0
 70
         0
 62
         7
  6
CONTINUOUS
  0
LAYER
  5
21
100
AcDbSymbolTableRecord
100
AcDbLayerTableRecord
  2
_____U
 70
         1
 62
         7
  6
CONTINUOUS
  0
LAYER
  5
22
100
AcDbSymbolTableRecord
100
AcDbLayerTableRecord
  2
____
 70
         0
 62
         7
  6
CONTINUOUS
  0
LAYER
  5
23
100
AcDbSymbolTableRecord
100
AcDbLayerTableRecord
  2
_Y__________
 70
         0
 62
         7
  6
CONTINUOUS
  0
LAYER
  5
24
100
AcDbSymbolTableRecord
100
AcDbLayerTableRecord
  2
L1_160
 70
         0
 62
         7
  6
CONTINUOUS
  0
LAYER
  5
1D9
100
AcDbSymbolTableRecord
100
AcDbLayerTableRecord
  2
DEFPOINTS
 70
         0
 62
        -7
  6
CONTINUOUS
  0
ENDTAB
  0
TABLE
  2
STYLE
  5
3
100
AcDbSymbolTable
 70
        49
  0
STYLE
  5
17
100
AcDbSymbolTableRecord
100
AcDbTextStyleTableRecord
  2
STANDARD
 70
         0
 40
0.0
 41
1.0
 50
0.0
 71
         0
 42
0.0
  3
txt
  4

  0
STYLE
  5
B6
100
AcDbSymbolTableRecord
100
AcDbTextStyleTableRecord
  2
BOX
 70
         0
 40
1.0
 41
1.0
 50
0.0
 71
         0
 42
0.2
  3
txt.shx
  4

  0
STYLE
  5
1E2
100
AcDbSymbolTableRecord
100
AcDbTextStyleTableRecord
  2
BOX
 70
         0
 40
1.0
 41
1.0
 50
0.0
 71
         0
 42
0.2
  3
txt.shx
  4

  0
STYLE
  5
2D0
100
AcDbSymbolTableRecord
100
AcDbTextStyleTableRecord
  2
BOX
 70
         0
 40
1.0
 41
1.0
 50
0.0
 71
         0
 42
0.2
  3
txt.shx
  4

  0
STYLE
  5
2E6
100
AcDbSymbolTableRecord
100
AcDbTextStyleTableRecord
  2
BOX
 70
         0
 40
1.0
 41
1.0
 50
0.0
 71
         0
 42
0.2
  3
txt.shx
  4

  0
STYLE
  5
310
100
AcDbSymbolTableRecord
100
AcDbTextStyleTableRecord
  2
BOX
 70
         0
 40
1.0
 41
1.0
 50
0.0
 71
         0
 42
0.2
  3
txt.shx
  4

  0
STYLE
  5
31E
100
AcDbSymbolTableRecord
100
AcDbTextStyleTableRecord
  2
BOX
 70
         0
 40
1.0
 41
1.0
 50
0.0
 71
         0
 42
0.2
  3
txt.shx
  4

  0
STYLE
  5
342
100
AcDbSymbolTableRecord
100
AcDbTextStyleTableRecord
  2
BOX
 70
         0
 40
1.0
 41
1.0
 50
0.0
 71
         0
 42
0.2
  3
txt.shx
  4

  0
STYLE
  5
350
100
AcDbSymbolTableRecord
100
AcDbTextStyleTableRecord
  2
BOX
 70
         0
 40
1.0
 41
1.0
 50
0.0
 71
         0
 42
0.2
  3
txt.shx
  4

  0
STYLE
  5
35E
100
AcDbSymbolTableRecord
100
AcDbTextStyleTableRecord
  2
BOX
 70
         0
 40
1.0
 41
1.0
 50
0.0
 71
         0
 42
0.2
  3
txt.shx
  4

  0
STYLE
  5
36C
100
AcDbSymbolTableRecord
100
AcDbTextStyleTableRecord
  2
BOX
 70
         0
 40
1.0
 41
1.0
 50
0.0
 71
         0
 42
0.2
  3
txt.shx
  4

  0
STYLE
  5
37A
100
AcDbSymbolTableRecord
100
AcDbTextStyleTableRecord
  2
BOX
 70
         0
 40
1.0
 41
1.0
 50
0.0
 71
         0
 42
0.2
  3
txt.shx
  4

  0
STYLE
  5
388
100
AcDbSymbolTableRecord
100
AcDbTextStyleTableRecord
  2
BOX
 70
         0
 40
1.0
 41
1.0
 50
0.0
 71
         0
 42
0.2
  3
txt.shx
  4

  0
STYLE
  5
396
100
AcDbSymbolTableRecord
100
AcDbTextStyleTableRecord
  2
BOX
 70
         0
 40
1.0
 41
1.0
 50
0.0
 71
         0
 42
0.2
  3
txt.shx
  4

  0
STYLE
  5
3A4
100
AcDbSymbolTableRecord
100
AcDbTextStyleTableRecord
  2
BOX
 70
         0
 40
1.0
 41
1.0
 50
0.0
 71
         0
 42
0.2
  3
txt.shx
  4

  0
STYLE
  5
3B2
100
AcDbSymbolTableRecord
100
AcDbTextStyleTableRecord
  2
BOX
 70
         0
 40
1.0
 41
1.0
 50
0.0
 71
         0
 42
0.2
  3
txt.shx
  4

  0
STYLE
  5
3C0
100
AcDbSymbolTableRecord
100
AcDbTextStyleTableRecord
  2
BOX
 70
         0
 40
1.0
 41
1.0
 50
0.0
 71
         0
 42
0.2
  3
txt.shx
  4

  0
STYLE
  5
59C
100
AcDbSymbolTableRecord
100
AcDbTextStyleTableRecord
  2
BOX
 70
         0
 40
1.0
 41
1.0
 50
0.0
 71
         0
 42
0.2
  3
txt.shx
  4

  0
STYLE
  5
5AD
100
AcDbSymbolTableRecord
100
AcDbTextStyleTableRecord
  2
BOX
 70
         0
 40
1.0
 41
1.0
 50
0.0
 71
         0
 42
0.2
  3
txt.shx
  4

  0
STYLE
  5
5F0
100
AcDbSymbolTableRecord
100
AcDbTextStyleTableRecord
  2
BOX
 70
         0
 40
1.0
 41
1.0
 50
0.0
 71
         0
 42
0.2
  3
txt.shx
  4

  0
STYLE
  5
5FE
100
AcDbSymbolTableRecord
100
AcDbTextStyleTableRecord
  2
BOX
 70
         0
 40
1.0
 41
1.0
 50
0.0
 71
         0
 42
0.2
  3
txt.shx
  4

  0
STYLE
  5
60C
100
AcDbSymbolTableRecord
100
AcDbTextStyleTableRecord
  2
BOX
 70
         0
 40
1.0
 41
1.0
 50
0.0
 71
         0
 42
0.2
  3
txt.shx
  4

  0
STYLE
  5
61A
100
AcDbSymbolTableRecord
100
AcDbTextStyleTableRecord
  2
BOX
 70
         0
 40
1.0
 41
1.0
 50
0.0
 71
         0
 42
0.2
  3
txt.shx
  4

  0
STYLE
  5
628
100
AcDbSymbolTableRecord
100
AcDbTextStyleTableRecord
  2
BOX
 70
         0
 40
1.0
 41
1.0
 50
0.0
 71
         0
 42
0.2
  3
txt.shx
  4

  0
STYLE
  5
636
100
AcDbSymbolTableRecord
100
AcDbTextStyleTableRecord
  2
BOX
 70
         0
 40
1.0
 41
1.0
 50
0.0
 71
         0
 42
0.2
  3
txt.shx
  4

  0
STYLE
  5
644
100
AcDbSymbolTableRecord
100
AcDbTextStyleTableRecord
  2
BOX
 70
         0
 40
1.0
 41
1.0
 50
0.0
 71
         0
 42
0.2
  3
txt.shx
  4

  0
STYLE
  5
652
100
AcDbSymbolTableRecord
100
AcDbTextStyleTableRecord
  2
BOX
 70
         0
 40
1.0
 41
1.0
 50
0.0
 71
         0
 42
0.2
  3
txt.shx
  4

  0
STYLE
  5
67D
100
AcDbSymbolTableRecord
100
AcDbTextStyleTableRecord
  2
BOX
 70
         0
 40
1.0
 41
1.0
 50
0.0
 71
         0
 42
0.2
  3
txt.shx
  4

  0
STYLE
  5
68B
100
AcDbSymbolTableRecord
100
AcDbTextStyleTableRecord
  2
BOX
 70
         0
 40
1.0
 41
1.0
 50
0.0
 71
         0
 42
0.2
  3
txt.shx
  4

  0
STYLE
  5
6AF
100
AcDbSymbolTableRecord
100
AcDbTextStyleTableRecord
  2
BOX
 70
         0
 40
1.0
 41
1.0
 50
0.0
 71
         0
 42
0.2
  3
txt.shx
  4

  0
STYLE
  5
6BD
100
AcDbSymbolTableRecord
100
AcDbTextStyleTableRecord
  2
BOX
 70
         0
 40
1.0
 41
1.0
 50
0.0
 71
         0
 42
0.2
  3
txt.shx
  4

  0
STYLE
  5
6DC
100
AcDbSymbolTableRecord
100
AcDbTextStyleTableRecord
  2
BOX
 70
         0
 40
1.0
 41
1.0
 50
0.0
 71
         0
 42
0.2
  3
txt.shx
  4

  0
STYLE
  5
6EA
100
AcDbSymbolTableRecord
100
AcDbTextStyleTableRecord
  2
BOX
 70
         0
 40
1.0
 41
1.0
 50
0.0
 71
         0
 42
0.2
  3
txt.shx
  4

  0
STYLE
  5
6FB
100
AcDbSymbolTableRecord
100
AcDbTextStyleTableRecord
  2
BOX
 70
         0
 40
1.0
 41
1.0
 50
0.0
 71
         0
 42
0.2
  3
txt.shx
  4

  0
STYLE
  5
708
100
AcDbSymbolTableRecord
100
AcDbTextStyleTableRecord
  2
BOX
 70
         0
 40
1.0
 41
1.0
 50
0.0
 71
         0
 42
0.2
  3
txt.shx
  4

  0
STYLE
  5
71A
100
AcDbSymbolTableRecord
100
AcDbTextStyleTableRecord
  2
BOX
 70
         0
 40
1.0
 41
1.0
 50
0.0
 71
         0
 42
0.2
  3
txt.shx
  4

  0
STYLE
  5
728
100
AcDbSymbolTableRecord
100
AcDbTextStyleTableRecord
  2
BOX
 70
         0
 40
1.0
 41
1.0
 50
0.0
 71
         0
 42
0.2
  3
txt.shx
  4

  0
STYLE
  5
738
100
AcDbSymbolTableRecord
100
AcDbTextStyleTableRecord
  2
BOX
 70
         0
 40
1.0
 41
1.0
 50
0.0
 71
         0
 42
0.2
  3
txt.shx
  4

  0
STYLE
  5
747
100
AcDbSymbolTableRecord
100
AcDbTextStyleTableRecord
  2
BOX
 70
         0
 40
1.0
 41
1.0
 50
0.0
 71
         0
 42
0.2
  3
txt.shx
  4

  0
STYLE
  5
755
100
AcDbSymbolTableRecord
100
AcDbTextStyleTableRecord
  2
BOX
 70
         0
 40
1.0
 41
1.0
 50
0.0
 71
         0
 42
0.2
  3
txt.shx
  4

  0
STYLE
  5
763
100
AcDbSymbolTableRecord
100
AcDbTextStyleTableRecord
  2
BOX
 70
         0
 40
1.0
 41
1.0
 50
0.0
 71
         0
 42
0.2
  3
txt.shx
  4

  0
STYLE
  5
771
100
AcDbSymbolTableRecord
100
AcDbTextStyleTableRecord
  2
BOX
 70
         0
 40
1.0
 41
1.0
 50
0.0
 71
         0
 42
0.2
  3
txt.shx
  4

  0
STYLE
  5
77F
100
AcDbSymbolTableRecord
100
AcDbTextStyleTableRecord
  2
BOX
 70
         0
 40
1.0
 41
1.0
 50
0.0
 71
         0
 42
0.2
  3
txt.shx
  4

  0
STYLE
  5
78D
100
AcDbSymbolTableRecord
100
AcDbTextStyleTableRecord
  2
BOX
 70
         0
 40
1.0
 41
1.0
 50
0.0
 71
         0
 42
0.2
  3
txt.shx
  4

  0
STYLE
  5
79B
100
AcDbSymbolTableRecord
100
AcDbTextStyleTableRecord
  2
BOX
 70
         0
 40
1.0
 41
1.0
 50
0.0
 71
         0
 42
0.2
  3
txt.shx
  4

  0
STYLE
  5
7A9
100
AcDbSymbolTableRecord
100
AcDbTextStyleTableRecord
  2
BOX
 70
         0
 40
1.0
 41
1.0
 50
0.0
 71
         0
 42
0.2
  3
txt.shx
  4

  0
STYLE
  5
7B7
100
AcDbSymbolTableRecord
100
AcDbTextStyleTableRecord
  2
BOX
 70
         0
 40
1.0
 41
1.0
 50
0.0
 71
         0
 42
0.2
  3
txt.shx
  4

  0
STYLE
  5
7C5
100
AcDbSymbolTableRecord
100
AcDbTextStyleTableRecord
  2
BOX
 70
         0
 40
1.0
 41
1.0
 50
0.0
 71
         0
 42
0.2
  3
txt.shx
  4

  0
STYLE
  5
7C8
100
AcDbSymbolTableRecord
100
AcDbTextStyleTableRecord
  2
BOX
 70
         0
 40
1.0
 41
1.0
 50
0.0
 71
         0
 42
0.2
  3
txt.shx
  4

  0
ENDTAB
  0
TABLE
  2
VIEW
  5
5
100
AcDbSymbolTable
 70
         0
  0
ENDTAB
  0
TABLE
  2
UCS
  5
6
100
AcDbSymbolTable
 70
         1
  0
UCS
  5
20
100
AcDbSymbolTableRecord
100
AcDbUCSTableRecord
  2
CK_VIEW_1
 70
         0
 10
0.0
 20
0.0
 30
1.0
 11
1.0
 21
0.0
 31
0.0
 12
0.0
 22
1.0
 32
0.0
  0
ENDTAB
  0
TABLE
  2
APPID
  5
8
100
AcDbSymbolTable
 70
         1
  0
APPID
  5
16
100
AcDbSymbolTableRecord
100
AcDbRegAppTableRecord
  2
ACAD
 70
         0
  0
ENDTAB
  0
TABLE
  2
DIMSTYLE
  5
9
100
AcDbSymbolTable
 70
         3
  0
DIMSTYLE
105
18
100
AcDbSymbolTableRecord
100
AcDbDimStyleTableRecord
  2
STANDARD
 70
         0
  3

  4

  5

  6

  7

 40
1.0
 41
0.18
 42
0.0625
 43
0.38
 44
0.18
 45
0.0
 46
0.0
 47
0.0
 48
0.0
 71
         0
 72
         0
 73
         1
 74
         1
 75
         0
 76
         0
 77
         0
 78
         0
140
0.18
141
0.09
142
0.0
143
25.4
144
1.0
145
0.0
146
1.0
147
0.09
170
         0
171
         2
172
         0
173
         0
174
         0
175
         0
176
         0
177
         0
178
         0
270
         2
271
         4
272
         4
273
         2
274
         2
275
         0
280
         0
281
         0
282
         0
283
         1
284
         0
285
         0
286
         0
287
         0
288
         0
340
17
  0
DIMSTYLE
105
1D5
100
AcDbSymbolTableRecord
100
AcDbDimStyleTableRecord
  2
DIMSTYLE1
 70
         0
  3

  4

  5

  6

  7

 40
1.0
 41
3.5
 42
0.0625
 43
0.38
 44
3.5
 45
0.0
 46
0.0
 47
0.0
 48
0.0
 71
         0
 72
         0
 73
         1
 74
         1
 75
         0
 76
         0
 77
         0
 78
         0
140
3.5
141
0.09
142
0.0
143
25.4
144
1.0
145
0.0
146
1.0
147
0.09
170
         0
171
         2
172
         0
173
         0
174
         0
175
         0
176
         0
177
         0
178
         0
270
         2
271
         4
272
         4
273
         2
274
         2
275
         0
280
         0
281
         0
282
         0
283
         1
284
         0
285
         0
286
         0
287
         0
288
         0
340
17
  0
DIMSTYLE
105
59F
100
AcDbSymbolTableRecord
100
AcDbDimStyleTableRecord
  2
DIMSTYLE2
 70
         0
  3

  4

  5

  6

  7

 40
1.0
 41
2.7
 42
0.0625
 43
0.38
 44
2.7
 45
0.0
 46
0.0
 47
0.0
 48
0.0
 71
         0
 72
         0
 73
         1
 74
         1
 75
         0
 76
         0
 77
         0
 78
         0
140
2.7
141
0.09
142
0.0
143
25.4
144
1.0
145
0.0
146
1.0
147
0.09
170
         0
171
         2
172
         0
173
         0
174
         0
175
         0
176
         0
177
         0
178
         0
270
         2
271
         4
272
         4
273
         2
274
         2
275
         0
280
         0
281
         0
282
         0
283
         1
284
         0
285
         0
286
         0
287
         0
288
         0
340
17
  0
ENDTAB
  0
TABLE
  2
BLOCK_RECORD
  5
1
100
AcDbSymbolTable
 70
        49
  0
BLOCK_RECORD
  5
A
100
AcDbSymbolTableRecord
100
AcDbBlockTableRecord
  2
*MODEL_SPACE
  0
BLOCK_RECORD
  5
B
100
AcDbSymbolTableRecord
100
AcDbBlockTableRecord
  2
*PAPER_SPACE
  0
BLOCK_RECORD
  5
25
100
AcDbSymbolTableRecord
100
AcDbBlockTableRecord
  2
*X0
  0
BLOCK_RECORD
  5
B4
100
AcDbSymbolTableRecord
100
AcDbBlockTableRecord
  2
CKCOLL402099
  0
BLOCK_RECORD
  5
B8
100
AcDbSymbolTableRecord
100
AcDbBlockTableRecord
  2
GENDIM4
  0
BLOCK_RECORD
  5
1D6
100
AcDbSymbolTableRecord
100
AcDbBlockTableRecord
  2
*D3
  0
BLOCK_RECORD
  5
2C5
100
AcDbSymbolTableRecord
100
AcDbBlockTableRecord
  2
*D4
  0
BLOCK_RECORD
  5
2DB
100
AcDbSymbolTableRecord
100
AcDbBlockTableRecord
  2
*D5
  0
BLOCK_RECORD
  5
305
100
AcDbSymbolTableRecord
100
AcDbBlockTableRecord
  2
*D6
  0
BLOCK_RECORD
  5
313
100
AcDbSymbolTableRecord
100
AcDbBlockTableRecord
  2
*D7
  0
BLOCK_RECORD
  5
337
100
AcDbSymbolTableRecord
100
AcDbBlockTableRecord
  2
*D8
  0
BLOCK_RECORD
  5
345
100
AcDbSymbolTableRecord
100
AcDbBlockTableRecord
  2
*D9
  0
BLOCK_RECORD
  5
353
100
AcDbSymbolTableRecord
100
AcDbBlockTableRecord
  2
*D10
  0
BLOCK_RECORD
  5
361
100
AcDbSymbolTableRecord
100
AcDbBlockTableRecord
  2
*D11
  0
BLOCK_RECORD
  5
36F
100
AcDbSymbolTableRecord
100
AcDbBlockTableRecord
  2
*D12
  0
BLOCK_RECORD
  5
37D
100
AcDbSymbolTableRecord
100
AcDbBlockTableRecord
  2
*D13
  0
BLOCK_RECORD
  5
38B
100
AcDbSymbolTableRecord
100
AcDbBlockTableRecord
  2
*D14
  0
BLOCK_RECORD
  5
399
100
AcDbSymbolTableRecord
100
AcDbBlockTableRecord
  2
*D15
  0
BLOCK_RECORD
  5
3A7
100
AcDbSymbolTableRecord
100
AcDbBlockTableRecord
  2
*D16
  0
BLOCK_RECORD
  5
3B5
100
AcDbSymbolTableRecord
100
AcDbBlockTableRecord
  2
*D17
  0
BLOCK_RECORD
  5
591
100
AcDbSymbolTableRecord
100
AcDbBlockTableRecord
  2
*D18
  0
BLOCK_RECORD
  5
5A0
100
AcDbSymbolTableRecord
100
AcDbBlockTableRecord
  2
*D19
  0
BLOCK_RECORD
  5
5E5
100
AcDbSymbolTableRecord
100
AcDbBlockTableRecord
  2
*D20
  0
BLOCK_RECORD
  5
5F3
100
AcDbSymbolTableRecord
100
AcDbBlockTableRecord
  2
*D21
  0
BLOCK_RECORD
  5
601
100
AcDbSymbolTableRecord
100
AcDbBlockTableRecord
  2
*D22
  0
BLOCK_RECORD
  5
60F
100
AcDbSymbolTableRecord
100
AcDbBlockTableRecord
  2
*D23
  0
BLOCK_RECORD
  5
61D
100
AcDbSymbolTableRecord
100
AcDbBlockTableRecord
  2
*D24
  0
BLOCK_RECORD
  5
62B
100
AcDbSymbolTableRecord
100
AcDbBlockTableRecord
  2
*D25
  0
BLOCK_RECORD
  5
639
100
AcDbSymbolTableRecord
100
AcDbBlockTableRecord
  2
*D26
  0
BLOCK_RECORD
  5
647
100
AcDbSymbolTableRecord
100
AcDbBlockTableRecord
  2
*D27
  0
BLOCK_RECORD
  5
672
100
AcDbSymbolTableRecord
100
AcDbBlockTableRecord
  2
*D28
  0
BLOCK_RECORD
  5
680
100
AcDbSymbolTableRecord
100
AcDbBlockTableRecord
  2
*D29
  0
BLOCK_RECORD
  5
6A4
100
AcDbSymbolTableRecord
100
AcDbBlockTableRecord
  2
*D30
  0
BLOCK_RECORD
  5
6B2
100
AcDbSymbolTableRecord
100
AcDbBlockTableRecord
  2
*D31
  0
BLOCK_RECORD
  5
6D1
100
AcDbSymbolTableRecord
100
AcDbBlockTableRecord
  2
*D32
  0
BLOCK_RECORD
  5
6DF
100
AcDbSymbolTableRecord
100
AcDbBlockTableRecord
  2
*D33
  0
BLOCK_RECORD
  5
6F1
100
AcDbSymbolTableRecord
100
AcDbBlockTableRecord
  2
*D34
  0
BLOCK_RECORD
  5
6FE
100
AcDbSymbolTableRecord
100
AcDbBlockTableRecord
  2
*D35
  0
BLOCK_RECORD
  5
70F
100
AcDbSymbolTableRecord
100
AcDbBlockTableRecord
  2
*D36
  0
BLOCK_RECORD
  5
71D
100
AcDbSymbolTableRecord
100
AcDbBlockTableRecord
  2
*D37
  0
BLOCK_RECORD
  5
72B
100
AcDbSymbolTableRecord
100
AcDbBlockTableRecord
  2
*D38
  0
BLOCK_RECORD
  5
73B
100
AcDbSymbolTableRecord
100
AcDbBlockTableRecord
  2
*D39
  0
BLOCK_RECORD
  5
74A
100
AcDbSymbolTableRecord
100
AcDbBlockTableRecord
  2
*D40
  0
BLOCK_RECORD
  5
758
100
AcDbSymbolTableRecord
100
AcDbBlockTableRecord
  2
*D41
  0
BLOCK_RECORD
  5
766
100
AcDbSymbolTableRecord
100
AcDbBlockTableRecord
  2
*D42
  0
BLOCK_RECORD
  5
774
100
AcDbSymbolTableRecord
100
AcDbBlockTableRecord
  2
*D43
  0
BLOCK_RECORD
  5
782
100
AcDbSymbolTableRecord
100
AcDbBlockTableRecord
  2
*D44
  0
BLOCK_RECORD
  5
790
100
AcDbSymbolTableRecord
100
AcDbBlockTableRecord
  2
*D45
  0
BLOCK_RECORD
  5
79E
100
AcDbSymbolTableRecord
100
AcDbBlockTableRecord
  2
*D46
  0
BLOCK_RECORD
  5
7AC
100
AcDbSymbolTableRecord
100
AcDbBlockTableRecord
  2
*D47
  0
BLOCK_RECORD
  5
7BA
100
AcDbSymbolTableRecord
100
AcDbBlockTableRecord
  2
*D48
  0
ENDTAB
  0
ENDSEC
  0
SECTION
  2
BLOCKS
  0
BLOCK
  5
D
100
AcDbEntity
  8
0
100
AcDbBlockBegin
  2
*MODEL_SPACE
 70
         0
 10
0.0
 20
0.0
 30
0.0
  3
*MODEL_SPACE
  1

  0
ENDBLK
  5
E
100
AcDbEntity
  8
0
100
AcDbBlockEnd
  0
BLOCK
  5
F
100
AcDbEntity
 67
         1
  8
0
100
AcDbBlockBegin
  2
*PAPER_SPACE
 70
         0
 10
0.0
 20
0.0
 30
0.0
  3
*PAPER_SPACE
  1

  0
ENDBLK
  5
10
100
AcDbEntity
 67
         1
  8
0
100
AcDbBlockEnd
  0
BLOCK
  5
26
100
AcDbEntity
  8
0
100
AcDbBlockBegin
  2
*X0
 70
        65
 10
0.0
 20
0.0
 30
0.0
  3
*X0
  1

  0
LINE
  5
27
100
AcDbEntity
  8
L1_160
  6
CONTINUOUS
 62
         4
100
AcDbLine
 10
1690.9693020114
 20
-170.7400166132
 30
0.0
 11
1697.4321523848
 21
-164.2771662397
 31
0.0
  0
LINE
  5
28
100
AcDbEntity
  8
L1_160
  6
CONTINUOUS
 62
         4
100
AcDbLine
 10
1686.7266613242
 20
-170.7400166132
 30
0.0
 11
1693.2266613242
 21
-164.2400166132
 31
0.0
  0
LINE
  5
29
100
AcDbEntity
  8
L1_160
  6
CONTINUOUS
 62
         4
100
AcDbLine
 10
1682.4840206371
 20
-170.7400166132
 30
0.0
 11
1688.9840206371
 21
-164.2400166132
 31
0.0
  0
LINE
  5
2A
100
AcDbEntity
  8
L1_160
  6
CONTINUOUS
 62
         4
100
AcDbLine
 10
1678.24137995
 20
-170.7400166132
 30
0.0
 11
1684.74137995
 21
-164.2400166132
 31
0.0
  0
LINE
  5
2B
100
AcDbEntity
  8
L1_160
  6
CONTINUOUS
 62
         4
100
AcDbLine
 10
1673.9987392629
 20
-170.7400166132
 30
0.0
 11
1680.4987392629
 21
-164.2400166132
 31
0.0
  0
LINE
  5
2C
100
AcDbEntity
  8
L1_160
  6
CONTINUOUS
 62
         4
100
AcDbLine
 10
1669.7560985758
 20
-170.7400166132
 30
0.0
 11
1676.2560985758
 21
-164.2400166132
 31
0.0
  0
LINE
  5
2D
100
AcDbEntity
  8
L1_160
  6
CONTINUOUS
 62
         4
100
AcDbLine
 10
1665.5134578886
 20
-170.7400166132
 30
0.0
 11
1672.0134578886
 21
-164.2400166132
 31
0.0
  0
LINE
  5
2E
100
AcDbEntity
  8
L1_160
  6
CONTINUOUS
 62
         4
100
AcDbLine
 10
1661.2708172015
 20
-170.7400166132
 30
0.0
 11
1667.7708172015
 21
-164.2400166132
 31
0.0
  0
LINE
  5
2F
100
AcDbEntity
  8
L1_160
  6
CONTINUOUS
 62
         4
100
AcDbLine
 10
1657.0281765144
 20
-170.7400166132
 30
0.0
 11
1663.5281765144
 21
-164.2400166132
 31
0.0
  0
LINE
  5
30
100
AcDbEntity
  8
L1_160
  6
CONTINUOUS
 62
         4
100
AcDbLine
 10
1652.7855358273
 20
-170.7400166132
 30
0.0
 11
1659.2855358273
 21
-164.2400166132
 31
0.0
  0
LINE
  5
31
100
AcDbEntity
  8
L1_160
  6
CONTINUOUS
 62
         4
100
AcDbLine
 10
1648.5428951402
 20
-170.7400166132
 30
0.0
 11
1655.0428951402
 21
-164.2400166132
 31
0.0
  0
LINE
  5
32
100
AcDbEntity
  8
L1_160
  6
CONTINUOUS
 62
         4
100
AcDbLine
 10
1644.3002544531
 20
-170.7400166132
 30
0.0
 11
1650.8002544531
 21
-164.2400166132
 31
0.0
  0
LINE
  5
33
100
AcDbEntity
  8
L1_160
  6
CONTINUOUS
 62
         4
100
AcDbLine
 10
1640.0576137659
 20
-170.7400166132
 30
0.0
 11
1646.5576137659
 21
-164.2400166132
 31
0.0
  0
LINE
  5
34
100
AcDbEntity
  8
L1_160
  6
CONTINUOUS
 62
         4
100
AcDbLine
 10
1635.8149730788
 20
-170.7400166132
 30
0.0
 11
1642.3149730788
 21
-164.2400166132
 31
0.0
  0
LINE
  5
35
100
AcDbEntity
  8
L1_160
  6
CONTINUOUS
 62
         4
100
AcDbLine
 10
1631.5723323917
 20
-170.7400166132
 30
0.0
 11
1638.0723323917
 21
-164.2400166132
 31
0.0
  0
LINE
  5
36
100
AcDbEntity
  8
L1_160
  6
CONTINUOUS
 62
         4
100
AcDbLine
 10
1627.3296917046
 20
-170.7400166132
 30
0.0
 11
1633.8296917046
 21
-164.2400166132
 31
0.0
  0
LINE
  5
37
100
AcDbEntity
  8
L1_160
  6
CONTINUOUS
 62
         4
100
AcDbLine
 10
1618.164446043
 20
-175.6626215877
 30
0.0
 11
1618.7013049079
 21
-175.1257627228
 31
0.0
  0
LINE
  5
38
100
AcDbEntity
  8
L1_160
  6
CONTINUOUS
 62
         4
100
AcDbLine
 10
1623.0870510175
 20
-170.7400166132
 30
0.0
 11
1629.5870510175
 21
-164.2400166132
 31
0.0
  0
LINE
  5
39
100
AcDbEntity
  8
L1_160
  6
CONTINUOUS
 62
         4
100
AcDbLine
 10
1613.8444103303
 20
-175.7400166132
 30
0.0
 11
1618.6803145868
 21
-170.9041123567
 31
0.0
  0
LINE
  5
3A
100
AcDbEntity
  8
L1_160
  6
CONTINUOUS
 62
         4
100
AcDbLine
 10
1619.0427956769
 20
-170.5416312666
 30
0.0
 11
1625.3444103303
 21
-164.2400166132
 31
0.0
  0
LINE
  5
3B
100
AcDbEntity
  8
L1_160
  6
CONTINUOUS
 62
         4
100
AcDbLine
 10
1611.2830611229
 20
-174.0587251335
 30
0.0
 11
1621.1017696432
 21
-164.2400166132
 31
0.0
  0
LINE
  5
3C
100
AcDbEntity
  8
L1_160
  6
CONTINUOUS
 62
         4
100
AcDbLine
 10
1696.1017696432
 20
-89.2400166132
 30
0.0
 11
1698.650800809
 21
-86.6909854474
 31
0.0
  0
LINE
  5
3D
100
AcDbEntity
  8
L1_160
  6
CONTINUOUS
 62
         4
100
AcDbLine
 10
1605.3591289561
 20
-175.7400166132
 30
0.0
 11
1609.2830611229
 21
-171.8160844464
 31
0.0
  0
LINE
  5
3E
100
AcDbEntity
  8
L1_160
  6
CONTINUOUS
 62
         4
100
AcDbLine
 10
1611.2830611229
 20
-169.8160844464
 30
0.0
 11
1616.8591289561
 21
-164.2400166132
 31
0.0
  0
LINE
  5
3F
100
AcDbEntity
  8
L1_160
  6
CONTINUOUS
 62
         4
100
AcDbLine
 10
1691.8591289561
 20
-89.2400166132
 30
0.0
 11
1696.2937915057
 21
-84.8053540636
 31
0.0
  0
LINE
  5
40
100
AcDbEntity
  8
L1_160
  6
CONTINUOUS
 62
         4
100
AcDbLine
 10
1601.116488269
 20
-175.7400166132
 30
0.0
 11
1609.2830611229
 21
-167.5734437593
 31
0.0
  0
LINE
  5
41
100
AcDbEntity
  8
L1_160
  6
CONTINUOUS
 62
         4
100
AcDbLine
 10
1611.2830611229
 20
-165.5734437593
 30
0.0
 11
1612.116488269
 21
-164.7400166132
 31
0.0
  0
LINE
  5
42
100
AcDbEntity
  8
L1_160
  6
CONTINUOUS
 62
         4
100
AcDbLine
 10
1687.616488269
 20
-89.2400166132
 30
0.0
 11
1693.6040650892
 21
-83.252439793
 31
0.0
  0
LINE
  5
43
100
AcDbEntity
  8
L1_160
  6
CONTINUOUS
 62
         4
100
AcDbLine
 10
1596.8738475819
 20
-175.7400166132
 30
0.0
 11
1608.122806101
 21
-164.4910580941
 31
0.0
  0
LINE
  5
44
100
AcDbEntity
  8
L1_160
  6
CONTINUOUS
 62
         4
100
AcDbLine
 10
1683.3738475819
 20
-89.2400166132
 30
0.0
 11
1689.8738475819
 21
-82.7400166132
 31
0.0
  0
LINE
  5
45
100
AcDbEntity
  8
L1_160
  6
CONTINUOUS
 62
         4
100
AcDbLine
 10
1592.6312068947
 20
-175.7400166132
 30
0.0
 11
1607.7830611229
 21
-160.588162385
 31
0.0
  0
LINE
  5
46
100
AcDbEntity
  8
L1_160
  6
CONTINUOUS
 62
         4
100
AcDbLine
 10
1679.1312068947
 20
-89.2400166132
 30
0.0
 11
1685.6312068947
 21
-82.7400166132
 31
0.0
  0
LINE
  5
47
100
AcDbEntity
  8
L1_160
  6
CONTINUOUS
 62
         4
100
AcDbLine
 10
1588.3885662076
 20
-175.7400166132
 30
0.0
 11
1607.7830611229
 21
-156.3455216979
 31
0.0
  0
LINE
  5
48
100
AcDbEntity
  8
L1_160
  6
CONTINUOUS
 62
         4
100
AcDbLine
 10
1674.8885662076
 20
-89.2400166132
 30
0.0
 11
1681.3885662076
 21
-82.7400166132
 31
0.0
  0
LINE
  5
49
100
AcDbEntity
  8
L1_160
  6
CONTINUOUS
 62
         4
100
AcDbLine
 10
1584.1459255205
 20
-175.7400166132
 30
0.0
 11
1607.2144933217
 21
-152.671448812
 31
0.0
  0
LINE
  5
4A
100
AcDbEntity
  8
L1_160
  6
CONTINUOUS
 62
         4
100
AcDbLine
 10
1670.6459255205
 20
-89.2400166132
 30
0.0
 11
1675.8959255205
 21
-83.9900166132
 31
0.0
  0
LINE
  5
4B
100
AcDbEntity
  8
L1_160
  6
CONTINUOUS
 62
         4
100
AcDbLine
 10
1579.9032848334
 20
-175.7400166132
 30
0.0
 11
1603.4032848334
 21
-152.2400166132
 31
0.0
  0
LINE
  5
4C
100
AcDbEntity
  8
L1_160
  6
CONTINUOUS
 62
         4
100
AcDbLine
 10
1666.4032848334
 20
-89.2400166132
 30
0.0
 11
1672.9032848334
 21
-82.7400166132
 31
0.0
  0
LINE
  5
4D
100
AcDbEntity
  8
L1_160
  6
CONTINUOUS
 62
         4
100
AcDbLine
 10
1575.6606441463
 20
-175.7400166132
 30
0.0
 11
1599.1606441463
 21
-152.2400166132
 31
0.0
  0
LINE
  5
4E
100
AcDbEntity
  8
L1_160
  6
CONTINUOUS
 62
         4
100
AcDbLine
 10
1662.1606441463
 20
-89.2400166132
 30
0.0
 11
1668.6606441463
 21
-82.7400166132
 31
0.0
  0
LINE
  5
4F
100
AcDbEntity
  8
L1_160
  6
CONTINUOUS
 62
         4
100
AcDbLine
 10
1571.4180034591
 20
-175.7400166132
 30
0.0
 11
1594.9180034591
 21
-152.2400166132
 31
0.0
  0
LINE
  5
50
100
AcDbEntity
  8
L1_160
  6
CONTINUOUS
 62
         4
100
AcDbLine
 10
1658.8826999334
 20
-88.2753201389
 30
0.0
 11
1664.4180034591
 21
-82.7400166132
 31
0.0
  0
LINE
  5
51
100
AcDbEntity
  8
L1_160
  6
CONTINUOUS
 62
         4
100
AcDbLine
 10
1567.175362772
 20
-175.7400166132
 30
0.0
 11
1590.675362772
 21
-152.2400166132
 31
0.0
  0
LINE
  5
52
100
AcDbEntity
  8
L1_160
  6
CONTINUOUS
 62
         4
100
AcDbLine
 10
1658.8826999334
 20
-84.0326794518
 30
0.0
 11
1660.175362772
 21
-82.7400166132
 31
0.0
  0
LINE
  5
53
100
AcDbEntity
  8
L1_160
  6
CONTINUOUS
 62
         4
100
AcDbLine
 10
1562.9327220849
 20
-175.7400166132
 30
0.0
 11
1586.4327220849
 21
-152.2400166132
 31
0.0
  0
LINE
  5
54
100
AcDbEntity
  8
L1_160
  6
CONTINUOUS
 62
         4
100
AcDbLine
 10
1559.056788074
 20
-175.373309937
 30
0.0
 11
1582.1900813978
 21
-152.2400166132
 31
0.0
  0
LINE
  5
55
100
AcDbEntity
  8
L1_160
  6
CONTINUOUS
 62
         4
100
AcDbLine
 10
1558.8306999334
 20
-171.3567573905
 30
0.0
 11
1577.9474407107
 21
-152.2400166132
 31
0.0
  0
LINE
  5
56
100
AcDbEntity
  8
L1_160
  6
CONTINUOUS
 62
         4
100
AcDbLine
 10
1558.8306999334
 20
-167.1141167034
 30
0.0
 11
1573.7048000235
 21
-152.2400166132
 31
0.0
  0
LINE
  5
57
100
AcDbEntity
  8
L1_160
  6
CONTINUOUS
 62
         4
100
AcDbLine
 10
1558.8306999334
 20
-162.8714760162
 30
0.0
 11
1568.9621593364
 21
-152.7400166132
 31
0.0
  0
LINE
  5
58
100
AcDbEntity
  8
L1_160
  6
CONTINUOUS
 62
         4
100
AcDbLine
 10
1542.2448907814
 20
-175.2146444811
 30
0.0
 11
1542.6033278013
 21
-174.8562074612
 31
0.0
  0
LINE
  5
59
100
AcDbEntity
  8
L1_160
  6
CONTINUOUS
 62
         4
100
AcDbLine
 10
1555.7945186493
 20
-161.6650166132
 30
0.0
 11
1565.0436645217
 21
-152.4158707408
 31
0.0
  0
LINE
  5
5A
100
AcDbEntity
  8
L1_160
  6
CONTINUOUS
 62
         4
100
AcDbLine
 10
1538.1631110446
 20
-175.0537835308
 30
0.0
 11
1542.8786999334
 21
-170.338194642
 31
0.0
  0
LINE
  5
5B
100
AcDbEntity
  8
L1_160
  6
CONTINUOUS
 62
         4
100
AcDbLine
 10
1551.5518779622
 20
-161.6650166132
 30
0.0
 11
1564.7806999334
 21
-148.436194642
 31
0.0
  0
LINE
  5
5C
100
AcDbEntity
  8
L1_160
  6
CONTINUOUS
 62
         4
100
AcDbLine
 10
1536.4958716109
 20
-172.4783822774
 30
0.0
 11
1542.8786999334
 21
-166.0955539549
 31
0.0
  0
LINE
  5
5D
100
AcDbEntity
  8
L1_160
  6
CONTINUOUS
 62
         4
100
AcDbLine
 10
1547.3092372751
 20
-161.6650166132
 30
0.0
 11
1564.7806999334
 21
-144.1935539549
 31
0.0
  0
LINE
  5
5E
100
AcDbEntity
  8
L1_160
  6
CONTINUOUS
 62
         4
100
AcDbLine
 10
1619.7342372751
 20
-89.2400166132
 30
0.0
 11
1623.1746999334
 21
-85.7995539549
 31
0.0
  0
LINE
  5
5F
100
AcDbEntity
  8
L1_160
  6
CONTINUOUS
 62
         4
100
AcDbLine
 10
1529.241596588
 20
-175.4900166132
 30
0.0
 11
1564.7806999334
 21
-139.9509132678
 31
0.0
  0
LINE
  5
60
100
AcDbEntity
  8
L1_160
  6
CONTINUOUS
 62
         4
100
AcDbLine
 10
1603.491596588
 20
-101.2400166132
 30
0.0
 11
1607.7830611229
 21
-96.9485520782
 31
0.0
  0
LINE
  5
61
100
AcDbEntity
  8
L1_160
  6
CONTINUOUS
 62
         4
100
AcDbLine
 10
1615.4915965879
 20
-89.2400166132
 30
0.0
 11
1621.991596588
 21
-82.7400166132
 31
0.0
  0
LINE
  5
62
100
AcDbEntity
  8
L1_160
  6
CONTINUOUS
 62
         4
100
AcDbLine
 10
1526.9786999334
 20
-173.5102725806
 30
0.0
 11
1564.7806999334
 21
-135.7082725806
 31
0.0
  0
LINE
  5
63
100
AcDbEntity
  8
L1_160
  6
CONTINUOUS
 62
         4
100
AcDbLine
 10
1599.2489559008
 20
-101.2400166132
 30
0.0
 11
1607.7830611229
 21
-92.7059113911
 31
0.0
  0
LINE
  5
64
100
AcDbEntity
  8
L1_160
  6
CONTINUOUS
 62
         4
100
AcDbLine
 10
1611.7489559008
 20
-88.7400166132
 30
0.0
 11
1618.7786999334
 21
-81.7102725806
 31
0.0
  0
LINE
  5
65
100
AcDbEntity
  8
L1_160
  6
CONTINUOUS
 62
         4
100
AcDbLine
 10
1526.9786999334
 20
-169.2676318935
 30
0.0
 11
1564.5185075736
 21
-131.7278242534
 31
0.0
  0
LINE
  5
66
100
AcDbEntity
  8
L1_160
  6
CONTINUOUS
 62
         4
100
AcDbLine
 10
1595.0063152137
 20
-101.2400166132
 30
0.0
 11
1618.3363747374
 21
-77.9099570895
 31
0.0
  0
LINE
  5
67
100
AcDbEntity
  8
L1_160
  6
CONTINUOUS
 62
         4
100
AcDbLine
 10
1526.9786999334
 20
-165.0249912064
 30
0.0
 11
1561.0136745266
 21
-130.9900166132
 31
0.0
  0
LINE
  5
68
100
AcDbEntity
  8
L1_160
  6
CONTINUOUS
 62
         4
100
AcDbLine
 10
1590.7636745266
 20
-101.2400166132
 30
0.0
 11
1614.2636745266
 21
-77.7400166132
 31
0.0
  0
LINE
  5
69
100
AcDbEntity
  8
L1_160
  6
CONTINUOUS
 62
         4
100
AcDbLine
 10
1526.5660378058
 20
-161.1950126469
 30
0.0
 11
1556.7710338395
 21
-130.9900166132
 31
0.0
  0
LINE
  5
6A
100
AcDbEntity
  8
L1_160
  6
CONTINUOUS
 62
         4
100
AcDbLine
 10
1586.5210338395
 20
-101.2400166132
 30
0.0
 11
1610.0210338395
 21
-77.7400166132
 31
0.0
  0
LINE
  5
6B
100
AcDbEntity
  8
L1_160
  6
CONTINUOUS
 62
         4
100
AcDbLine
 10
1522.0984342106
 20
-161.4199755549
 30
0.0
 11
1552.5283931524
 21
-130.9900166132
 31
0.0
  0
LINE
  5
6C
100
AcDbEntity
  8
L1_160
  6
CONTINUOUS
 62
         4
100
AcDbLine
 10
1561.0283931524
 20
-122.4900166132
 30
0.0
 11
1564.7806999334
 21
-118.7377098322
 31
0.0
  0
LINE
  5
6D
100
AcDbEntity
  8
L1_160
  6
CONTINUOUS
 62
         4
100
AcDbLine
 10
1582.2783931524
 20
-101.2400166132
 30
0.0
 11
1605.7783931524
 21
-77.7400166132
 31
0.0
  0
LINE
  5
6E
100
AcDbEntity
  8
L1_160
  6
CONTINUOUS
 62
         4
100
AcDbLine
 10
1518.3957704114
 20
-160.879998667
 30
0.0
 11
1548.2857524652
 21
-130.9900166132
 31
0.0
  0
LINE
  5
6F
100
AcDbEntity
  8
L1_160
  6
CONTINUOUS
 62
         4
100
AcDbLine
 10
1556.7857524652
 20
-122.4900166132
 30
0.0
 11
1564.7806999334
 21
-114.495069145
 31
0.0
  0
LINE
  5
70
100
AcDbEntity
  8
L1_160
  6
CONTINUOUS
 62
         4
100
AcDbLine
 10
1578.0357524652
 20
-101.2400166132
 30
0.0
 11
1601.5357524652
 21
-77.7400166132
 31
0.0
  0
LINE
  5
71
100
AcDbEntity
  8
L1_160
  6
CONTINUOUS
 62
         4
100
AcDbLine
 10
1514.6931066122
 20
-160.3400217791
 30
0.0
 11
1544.0431117781
 21
-130.9900166132
 31
0.0
  0
LINE
  5
72
100
AcDbEntity
  8
L1_160
  6
CONTINUOUS
 62
         4
100
AcDbLine
 10
1552.5431117781
 20
-122.4900166132
 30
0.0
 11
1564.7806999334
 21
-110.2524284579
 31
0.0
  0
LINE
  5
73
100
AcDbEntity
  8
L1_160
  6
CONTINUOUS
 62
         4
100
AcDbLine
 10
1573.7931117781
 20
-101.2400166132
 30
0.0
 11
1597.2931117781
 21
-77.7400166132
 31
0.0
  0
LINE
  5
74
100
AcDbEntity
  8
L1_160
  6
CONTINUOUS
 62
         4
100
AcDbLine
 10
1510.990442813
 20
-159.8000448912
 30
0.0
 11
1541.689860468
 21
-129.1006272362
 31
0.0
  0
LINE
  5
75
100
AcDbEntity
  8
L1_160
  6
CONTINUOUS
 62
         4
100
AcDbLine
 10
1548.300471091
 20
-122.4900166132
 30
0.0
 11
1564.7806999334
 21
-106.0097877708
 31
0.0
  0
LINE
  5
76
100
AcDbEntity
  8
L1_160
  6
CONTINUOUS
 62
         4
100
AcDbLine
 10
1569.7806999334
 20
-101.0097877708
 30
0.0
 11
1593.050471091
 21
-77.7400166132
 31
0.0
  0
LINE
  5
77
100
AcDbEntity
  8
L1_160
  6
CONTINUOUS
 62
         4
100
AcDbLine
 10
1507.2877790137
 20
-159.2600680033
 30
0.0
 11
1541.0361072668
 21
-125.5117397503
 31
0.0
  0
LINE
  5
78
100
AcDbEntity
  8
L1_160
  6
CONTINUOUS
 62
         4
100
AcDbLine
 10
1544.0578304039
 20
-122.4900166132
 30
0.0
 11
1564.7806999334
 21
-101.7671470837
 31
0.0
  0
LINE
  5
79
100
AcDbEntity
  8
L1_160
  6
CONTINUOUS
 62
         4
100
AcDbLine
 10
1565.8078304039
 20
-100.7400166132
 30
0.0
 11
1588.8078304039
 21
-77.7400166132
 31
0.0
  0
LINE
  5
7A
100
AcDbEntity
  8
L1_160
  6
CONTINUOUS
 62
         4
100
AcDbLine
 10
1503.5851152145
 20
-158.7200911154
 30
0.0
 11
1584.5651897168
 21
-77.7400166132
 31
0.0
  0
LINE
  5
7B
100
AcDbEntity
  8
L1_160
  6
CONTINUOUS
 62
         4
100
AcDbLine
 10
1499.8824514153
 20
-158.1801142275
 30
0.0
 11
1580.3225490296
 21
-77.7400166132
 31
0.0
  0
LINE
  5
7C
100
AcDbEntity
  8
L1_160
  6
CONTINUOUS
 62
         4
100
AcDbLine
 10
1496.1797876161
 20
-157.6401373397
 30
0.0
 11
1576.0799083425
 21
-77.7400166132
 31
0.0
  0
LINE
  5
7D
100
AcDbEntity
  8
L1_160
  6
CONTINUOUS
 62
         4
100
AcDbLine
 10
1492.4771238168
 20
-157.1001604518
 30
0.0
 11
1557.7622676554
 21
-91.8150166132
 31
0.0
  0
LINE
  5
7E
100
AcDbEntity
  8
L1_160
  6
CONTINUOUS
 62
         4
100
AcDbLine
 10
1558.8306999334
 20
-90.7465843352
 30
0.0
 11
1571.8372676554
 21
-77.7400166132
 31
0.0
  0
LINE
  5
7F
100
AcDbEntity
  8
L1_160
  6
CONTINUOUS
 62
         4
100
AcDbLine
 10
1488.7744600176
 20
-156.5601835639
 30
0.0
 11
1553.5196269683
 21
-91.8150166132
 31
0.0
  0
LINE
  5
80
100
AcDbEntity
  8
L1_160
  6
CONTINUOUS
 62
         4
100
AcDbLine
 10
1558.8306999334
 20
-86.5039436481
 30
0.0
 11
1567.5946269683
 21
-77.7400166132
 31
0.0
  0
LINE
  5
81
100
AcDbEntity
  8
L1_160
  6
CONTINUOUS
 62
         4
100
AcDbLine
 10
1485.0717962184
 20
-156.020206676
 30
0.0
 11
1549.2769862812
 21
-91.8150166132
 31
0.0
  0
LINE
  5
82
100
AcDbEntity
  8
L1_160
  6
CONTINUOUS
 62
         4
100
AcDbLine
 10
1558.8306999334
 20
-82.261302961
 30
0.0
 11
1563.3519862812
 21
-77.7400166132
 31
0.0
  0
LINE
  5
83
100
AcDbEntity
  8
L1_160
  6
CONTINUOUS
 62
         4
100
AcDbLine
 10
1481.3691324192
 20
-155.4802297881
 30
0.0
 11
1545.034345594
 21
-91.8150166132
 31
0.0
  0
LINE
  5
84
100
AcDbEntity
  8
L1_160
  6
CONTINUOUS
 62
         4
100
AcDbLine
 10
1477.6664686199
 20
-154.9402529002
 30
0.0
 11
1542.8786999334
 21
-89.7280215867
 31
0.0
  0
LINE
  5
85
100
AcDbEntity
  8
L1_160
  6
CONTINUOUS
 62
         4
100
AcDbLine
 10
1473.9638048207
 20
-154.4002760123
 30
0.0
 11
1542.8786999334
 21
-85.4853808996
 31
0.0
  0
LINE
  5
86
100
AcDbEntity
  8
L1_160
  6
CONTINUOUS
 62
         4
100
AcDbLine
 10
1470.2611410215
 20
-153.8602991244
 30
0.0
 11
1542.8786999334
 21
-81.2427402125
 31
0.0
  0
LINE
  5
87
100
AcDbEntity
  8
L1_160
  6
CONTINUOUS
 62
         4
100
AcDbLine
 10
1466.5584772223
 20
-153.3203222365
 30
0.0
 11
1541.8218330907
 21
-78.0569663681
 31
0.0
  0
LINE
  5
88
100
AcDbEntity
  8
L1_160
  6
CONTINUOUS
 62
         4
100
AcDbLine
 10
1462.855813423
 20
-152.7803453486
 30
0.0
 11
1523.8124677698
 21
-91.8236910018
 31
0.0
  0
LINE
  5
89
100
AcDbEntity
  8
L1_160
  6
CONTINUOUS
 62
         4
100
AcDbLine
 10
1526.9786999334
 20
-88.6574588383
 30
0.0
 11
1534.5211421584
 21
-81.1150166132
 31
0.0
  0
LINE
  5
8A
100
AcDbEntity
  8
L1_160
  6
CONTINUOUS
 62
         4
100
AcDbLine
 10
1459.1531496238
 20
-152.2403684607
 30
0.0
 11
1474.2571600079
 21
-137.1363580766
 31
0.0
  0
LINE
  5
8B
100
AcDbEntity
  8
L1_160
  6
CONTINUOUS
 62
         4
100
AcDbLine
 10
1479.5133799071
 20
-131.8801381774
 30
0.0
 11
1518.8613865125
 21
-92.532131572
 31
0.0
  0
LINE
  5
8C
100
AcDbEntity
  8
L1_160
  6
CONTINUOUS
 62
         4
100
AcDbLine
 10
1526.9786999334
 20
-84.4148181511
 30
0.0
 11
1532.0968342225
 21
-79.2966838621
 31
0.0
  0
LINE
  5
8D
100
AcDbEntity
  8
L1_160
  6
CONTINUOUS
 62
         4
100
AcDbLine
 10
1455.4504858246
 20
-151.7003915728
 30
0.0
 11
1470.0145193208
 21
-137.1363580766
 31
0.0
  0
LINE
  5
8E
100
AcDbEntity
  8
L1_160
  6
CONTINUOUS
 62
         4
100
AcDbLine
 10
1481.7232957786
 20
-125.4275816188
 30
0.0
 11
1513.8943845532
 21
-93.2564928442
 31
0.0
  0
LINE
  5
8F
100
AcDbEntity
  8
L1_160
  6
CONTINUOUS
 62
         4
100
AcDbLine
 10
1526.9786999334
 20
-80.172177464
 30
0.0
 11
1529.1608607842
 21
-77.9900166132
 31
0.0
  0
LINE
  5
90
100
AcDbEntity
  8
L1_160
  6
CONTINUOUS
 62
         4
100
AcDbLine
 10
1451.7478220254
 20
-151.1604146849
 30
0.0
 11
1465.7718786337
 21
-137.1363580766
 31
0.0
  0
LINE
  5
91
100
AcDbEntity
  8
L1_160
  6
CONTINUOUS
 62
         4
100
AcDbLine
 10
1480.170381508
 20
-122.7378552023
 30
0.0
 11
1508.9273825939
 21
-93.9808541164
 31
0.0
  0
LINE
  5
92
100
AcDbEntity
  8
L1_160
  6
CONTINUOUS
 62
         4
100
AcDbLine
 10
1448.0451582261
 20
-150.620437797
 30
0.0
 11
1461.5292379466
 21
-137.1363580766
 31
0.0
  0
LINE
  5
93
100
AcDbEntity
  8
L1_160
  6
CONTINUOUS
 62
         4
100
AcDbLine
 10
1478.6174672374
 20
-120.0481287858
 30
0.0
 11
1503.9603806346
 21
-94.7052153886
 31
0.0
  0
LINE
  5
94
100
AcDbEntity
  8
L1_160
  6
CONTINUOUS
 62
         4
100
AcDbLine
 10
1444.3424944269
 20
-150.0804609091
 30
0.0
 11
1457.2865972594
 21
-137.1363580766
 31
0.0
  0
LINE
  5
95
100
AcDbEntity
  8
L1_160
  6
CONTINUOUS
 62
         4
100
AcDbLine
 10
1477.0645529667
 20
-117.3584023693
 30
0.0
 11
1498.9933786752
 21
-95.4295766608
 31
0.0
  0
LINE
  5
96
100
AcDbEntity
  8
L1_160
  6
CONTINUOUS
 62
         4
100
AcDbLine
 10
1440.6398306277
 20
-149.5404840212
 30
0.0
 11
1453.0439565723
 21
-137.1363580766
 31
0.0
  0
LINE
  5
97
100
AcDbEntity
  8
L1_160
  6
CONTINUOUS
 62
         4
100
AcDbLine
 10
1473.8366394991
 20
-116.3436751498
 30
0.0
 11
1494.0263767159
 21
-96.153937933
 31
0.0
  0
LINE
  5
98
100
AcDbEntity
  8
L1_160
  6
CONTINUOUS
 62
         4
100
AcDbLine
 10
1436.9371668285
 20
-149.0005071333
 30
0.0
 11
1448.8013158852
 21
-137.1363580766
 31
0.0
  0
LINE
  5
99
100
AcDbEntity
  8
L1_160
  6
CONTINUOUS
 62
         4
100
AcDbLine
 10
1469.593998812
 20
-116.3436751498
 30
0.0
 11
1489.0593747566
 21
-96.8782992052
 31
0.0
  0
LINE
  5
9A
100
AcDbEntity
  8
L1_160
  6
CONTINUOUS
 62
         4
100
AcDbLine
 10
1433.2345030293
 20
-148.4605302454
 30
0.0
 11
1444.5586751981
 21
-137.1363580766
 31
0.0
  0
LINE
  5
9B
100
AcDbEntity
  8
L1_160
  6
CONTINUOUS
 62
         4
100
AcDbLine
 10
1465.3513581249
 20
-116.3436751498
 30
0.0
 11
1484.0923727972
 21
-97.6026604774
 31
0.0
  0
LINE
  5
9C
100
AcDbEntity
  8
L1_160
  6
CONTINUOUS
 62
         4
100
AcDbLine
 10
1429.53183923
 20
-147.9205533575
 30
0.0
 11
1440.316034511
 21
-137.1363580766
 31
0.0
  0
LINE
  5
9D
100
AcDbEntity
  8
L1_160
  6
CONTINUOUS
 62
         4
100
AcDbLine
 10
1461.1087174378
 20
-116.3436751498
 30
0.0
 11
1479.1253708379
 21
-98.3270217497
 31
0.0
  0
LINE
  5
9E
100
AcDbEntity
  8
L1_160
  6
CONTINUOUS
 62
         4
100
AcDbLine
 10
1425.8291754308
 20
-147.3805764696
 30
0.0
 11
1436.0733938238
 21
-137.1363580766
 31
0.0
  0
LINE
  5
9F
100
AcDbEntity
  8
L1_160
  6
CONTINUOUS
 62
         4
100
AcDbLine
 10
1456.8660767507
 20
-116.3436751498
 30
0.0
 11
1474.1583688786
 21
-99.0513830219
 31
0.0
  0
LINE
  5
A0
100
AcDbEntity
  8
L1_160
  6
CONTINUOUS
 62
         4
100
AcDbLine
 10
1422.7231956615
 20
-146.2439155518
 30
0.0
 11
1431.8307531367
 21
-137.1363580766
 31
0.0
  0
LINE
  5
A1
100
AcDbEntity
  8
L1_160
  6
CONTINUOUS
 62
         4
100
AcDbLine
 10
1452.6234360635
 20
-116.3436751498
 30
0.0
 11
1469.1913669193
 21
-99.7757442941
 31
0.0
  0
LINE
  5
A2
100
AcDbEntity
  8
L1_160
  6
CONTINUOUS
 62
         4
100
AcDbLine
 10
1422.1786999334
 20
-142.5457705928
 30
0.0
 11
1425.484453913
 21
-139.2400166132
 31
0.0
  0
LINE
  5
A3
100
AcDbEntity
  8
L1_160
  6
CONTINUOUS
 62
         4
100
AcDbLine
 10
1448.3807953764
 20
-116.3436751498
 30
0.0
 11
1464.2243649599
 21
-100.5001055663
 31
0.0
  0
LINE
  5
A4
100
AcDbEntity
  8
L1_160
  6
CONTINUOUS
 62
         4
100
AcDbLine
 10
1444.1381546893
 20
-116.3436751498
 30
0.0
 11
1459.2573630006
 21
-101.2244668385
 31
0.0
  0
LINE
  5
A5
100
AcDbEntity
  8
L1_160
  6
CONTINUOUS
 62
         4
100
AcDbLine
 10
1439.8955140022
 20
-116.3436751498
 30
0.0
 11
1454.2903610413
 21
-101.9488281107
 31
0.0
  0
LINE
  5
A6
100
AcDbEntity
  8
L1_160
  6
CONTINUOUS
 62
         4
100
AcDbLine
 10
1435.6528733151
 20
-116.3436751498
 30
0.0
 11
1449.3233590819
 21
-102.6731893829
 31
0.0
  0
LINE
  5
A7
100
AcDbEntity
  8
L1_160
  6
CONTINUOUS
 62
         4
100
AcDbLine
 10
1431.410232628
 20
-116.3436751498
 30
0.0
 11
1444.3563571226
 21
-103.3975506551
 31
0.0
  0
LINE
  5
A8
100
AcDbEntity
  8
L1_160
  6
CONTINUOUS
 62
         4
100
AcDbLine
 10
1428.8078179179
 20
-114.7034491727
 30
0.0
 11
1439.3893551633
 21
-104.1219119273
 31
0.0
  0
LINE
  5
A9
100
AcDbEntity
  8
L1_160
  6
CONTINUOUS
 62
         4
100
AcDbLine
 10
1425.0286097903
 20
-114.2400166132
 30
0.0
 11
1434.422353204
 21
-104.8462731995
 31
0.0
  0
LINE
  5
AA
100
AcDbEntity
  8
L1_160
  6
CONTINUOUS
 62
         4
100
AcDbLine
 10
1422.1786999334
 20
-112.847285783
 30
0.0
 11
1429.4553512446
 21
-105.5706344717
 31
0.0
  0
LINE
  5
AB
100
AcDbEntity
  8
L1_160
  6
CONTINUOUS
 62
         4
100
AcDbLine
 10
1422.1864574908
 20
-108.5968875385
 30
0.0
 11
1424.4883492853
 21
-106.294995744
 31
0.0
  0
ENDBLK
  5
AC
100
AcDbEntity
  8
0
  6
CONTINUOUS
100
AcDbBlockEnd
  0
BLOCK
  5
B5
100
AcDbEntity
  8
0
100
AcDbBlockBegin
  2
CKCOLL402099
 70
        64
 10
0.0
 20
0.0
 30
0.0
  3
CKCOLL402099
  1

  0
TEXT
  5
B7
100
AcDbEntity
  8
____
  6
CONTINUOUS
 62
         4
100
AcDbText
 10
1560.896593627
 20
-332.76392832
 30
0.0
 40
3.6
  1
A
  7
BOX
100
AcDbText
  0
INSERT
  5
C0
100
AcDbEntity
  8
0
  6
CONTINUOUS
100
AcDbBlockReference
  2
GENDIM4
 10
0.0
 20
0.0
 30
0.0
  0
ENDBLK
  5
C1
100
AcDbEntity
  8
0
  6
CONTINUOUS
100
AcDbBlockEnd
  0
BLOCK
  5
B9
100
AcDbEntity
  8
0
100
AcDbBlockBegin
  2
GENDIM4
 70
        64
 10
0.0
 20
0.0
 30
0.0
  3
GENDIM4
  1

  0
LINE
  5
BA
100
AcDbEntity
  8
____
  6
CONTINUOUS
 62
         4
100
AcDbLine
 10
1557.296593627
 20
-336.36392832
 30
0.0
 11
1568.096593627
 21
-336.36392832
 31
0.0
  0
LINE
  5
BB
100
AcDbEntity
  8
____
  6
CONTINUOUS
 62
         4
100
AcDbLine
 10
1568.096593627
 20
-336.36392832
 30
0.0
 11
1568.096593627
 21
-325.56392832
 31
0.0
  0
LINE
  5
BC
100
AcDbEntity
  8
____
  6
CONTINUOUS
 62
         4
100
AcDbLine
 10
1568.096593627
 20
-325.56392832
 30
0.0
 11
1557.296593627
 21
-325.56392832
 31
0.0
  0
LINE
  5
BD
100
AcDbEntity
  8
____
  6
CONTINUOUS
 62
         4
100
AcDbLine
 10
1557.296593627
 20
-325.56392832
 30
0.0
 11
1557.296593627
 21
-336.36392832
 31
0.0
  0
ENDBLK
  5
BE
100
AcDbEntity
  8
0
  6
CONTINUOUS
100
AcDbBlockEnd
  0
BLOCK
  5
1D7
100
AcDbEntity
  8
0
100
AcDbBlockBegin
  2
*D3
 70
        65
 10
0.0
 20
0.0
 30
0.0
  3
*D3
  1

  0
POINT
  5
1DA
100
AcDbEntity
  8
DEFPOINTS
  6
CONTINUOUS
 62
         0
100
AcDbPoint
 10
1542.7806999334
 20
-222.740873586
 30
0.0
  0
POINT
  5
1DB
100
AcDbEntity
  8
DEFPOINTS
  6
CONTINUOUS
 62
         0
100
AcDbPoint
 10
1542.7806999334
 20
-130.9900166132
 30
0.0
  0
POINT
  5
1DC
100
AcDbEntity
  8
DEFPOINTS
  6
CONTINUOUS
 62
         0
100
AcDbPoint
 10
1698.7786999334
 20
-166.0853160748
 30
0.0
  0
LINE
  5
1DD
100
AcDbEntity
  8
L1_160
  6
CONTINUOUS
 62
         4
100
AcDbLine
 10
1542.7806999334
 20
-132.7400166132
 30
0.0
 11
1542.7806999334
 21
-223.615873586
 31
0.0
  0
LINE
  5
1DE
100
AcDbEntity
  8
L1_160
  6
CONTINUOUS
 62
         4
100
AcDbLine
 10
1698.7786999334
 20
-167.8353160748
 30
0.0
 11
1698.7786999334
 21
-223.615873586
 31
0.0
  0
LINE
  5
1DF
100
AcDbEntity
  8
L1_160
  6
CONTINUOUS
 62
         4
100
AcDbLine
 10
1542.7806999334
 20
-222.740873586
 30
0.0
 11
1698.7786999334
 21
-222.740873586
 31
0.0
  0
SOLID
  5
1E0
100
AcDbEntity
  8
L1_160
  6
CONTINUOUS
 62
         4
100
AcDbTrace
 10
1542.7806999334
 20
-222.740873586
 30
0.0
 11
1546.2806999334
 21
-222.215873586
 31
0.0
 12
1546.2806999334
 22
-223.265873586
 32
0.0
 13
1542.7806999334
 23
-222.740873586
 33
0.0
  0
SOLID
  5
1E1
100
AcDbEntity
  8
L1_160
  6
CONTINUOUS
 62
         4
100
AcDbTrace
 10
1698.7786999334
 20
-222.740873586
 30
0.0
 11
1695.2786999334
 21
-223.265873586
 31
0.0
 12
1695.2786999334
 22
-222.215873586
 32
0.0
 13
1698.7786999334
 23
-222.740873586
 33
0.0
  0
TEXT
  5
1E3
100
AcDbEntity
  8
L1_160
  6
CONTINUOUS
 62
         4
100
AcDbText
 10
1618.4475511532
 20
-218.680873586
 30
0.0
 40
3.5
  1
156
  7
BOX
100
AcDbText
  0
ENDBLK
  5
1E4
100
AcDbEntity
  8
0
  6
CONTINUOUS
100
AcDbBlockEnd
  0
BLOCK
  5
2C6
100
AcDbEntity
  8
0
100
AcDbBlockBegin
  2
*D4
 70
        65
 10
0.0
 20
0.0
 30
0.0
  3
*D4
  1

  0
POINT
  5
2C8
100
AcDbEntity
  8
DEFPOINTS
  6
CONTINUOUS
 62
         0
100
AcDbPoint
 10
1711.4943444532
 20
152.7524144385
 30
0.0
  0
POINT
  5
2C9
100
AcDbEntity
  8
DEFPOINTS
  6
CONTINUOUS
 62
         0
100
AcDbPoint
 10
1698.7786999334
 20
152.7524144385
 30
0.0
  0
POINT
  5
2CA
100
AcDbEntity
  8
DEFPOINTS
  6
CONTINUOUS
 62
         0
100
AcDbPoint
 10
1698.7786999334
 20
71.7524144385
 30
0.0
  0
LINE
  5
2CB
100
AcDbEntity
  8
L1_160
  6
CONTINUOUS
 62
         4
100
AcDbLine
 10
1700.5286999334
 20
152.7524144385
 30
0.0
 11
1712.3693444532
 21
152.7524144385
 31
0.0
  0
LINE
  5
2CC
100
AcDbEntity
  8
L1_160
  6
CONTINUOUS
 62
         4
100
AcDbLine
 10
1700.5286999334
 20
71.7524144385
 30
0.0
 11
1712.3693444532
 21
71.7524144385
 31
0.0
  0
LINE
  5
2CD
100
AcDbEntity
  8
L1_160
  6
CONTINUOUS
 62
         4
100
AcDbLine
 10
1711.4943444532
 20
152.7524144385
 30
0.0
 11
1711.4943444532
 21
71.7524144385
 31
0.0
  0
SOLID
  5
2CE
100
AcDbEntity
  8
L1_160
  6
CONTINUOUS
 62
         4
100
AcDbTrace
 10
1711.4943444532
 20
152.7524144385
 30
0.0
 11
1712.0193444532
 21
149.2524144385
 31
0.0
 12
1710.9693444532
 22
149.2524144385
 32
0.0
 13
1711.4943444532
 23
152.7524144385
 33
0.0
  0
SOLID
  5
2CF
100
AcDbEntity
  8
L1_160
  6
CONTINUOUS
 62
         4
100
AcDbTrace
 10
1711.4943444532
 20
71.7524144385
 30
0.0
 11
1710.9693444532
 21
75.2524144385
 31
0.0
 12
1712.0193444532
 22
75.2524144385
 32
0.0
 13
1711.4943444532
 23
71.7524144385
 33
0.0
  0
TEXT
  5
2D1
100
AcDbEntity
  8
L1_160
  6
CONTINUOUS
 62
         4
100
AcDbText
 10
1707.4343444532
 20
101.7674228662
 30
0.0
 40
3.5
  1
崷81
 50
90.0
  7
BOX
100
AcDbText
  0
ENDBLK
  5
2D2
100
AcDbEntity
  8
0
  6
CONTINUOUS
100
AcDbBlockEnd
  0
BLOCK
  5
2DC
100
AcDbEntity
  8
0
100
AcDbBlockBegin
  2
*D5
 70
        65
 10
0.0
 20
0.0
 30
0.0
  3
*D5
  1

  0
POINT
  5
2DE
100
AcDbEntity
  8
DEFPOINTS
  6
CONTINUOUS
 62
         0
100
AcDbPoint
 10
1741.7420079481
 20
161.2524144385
 30
0.0
  0
POINT
  5
2DF
100
AcDbEntity
  8
DEFPOINTS
  6
CONTINUOUS
 62
         0
100
AcDbPoint
 10
1617.7786999334
 20
161.2524144385
 30
0.0
  0
POINT
  5
2E0
100
AcDbEntity
  8
DEFPOINTS
  6
CONTINUOUS
 62
         0
100
AcDbPoint
 10
1617.7786999334
 20
63.2524144385
 30
0.0
  0
LINE
  5
2E1
100
AcDbEntity
  8
L1_160
  6
CONTINUOUS
 62
         4
100
AcDbLine
 10
1619.5286999334
 20
161.2524144385
 30
0.0
 11
1742.6170079481
 21
161.2524144385
 31
0.0
  0
LINE
  5
2E2
100
AcDbEntity
  8
L1_160
  6
CONTINUOUS
 62
         4
100
AcDbLine
 10
1619.5286999334
 20
63.2524144385
 30
0.0
 11
1742.6170079481
 21
63.2524144385
 31
0.0
  0
LINE
  5
2E3
100
AcDbEntity
  8
L1_160
  6
CONTINUOUS
 62
         4
100
AcDbLine
 10
1741.7420079481
 20
161.2524144385
 30
0.0
 11
1741.7420079481
 21
63.2524144385
 31
0.0
  0
SOLID
  5
2E4
100
AcDbEntity
  8
L1_160
  6
CONTINUOUS
 62
         4
100
AcDbTrace
 10
1741.7420079481
 20
161.2524144385
 30
0.0
 11
1742.2670079481
 21
157.7524144385
 31
0.0
 12
1741.2170079481
 22
157.7524144385
 32
0.0
 13
1741.7420079481
 23
161.2524144385
 33
0.0
  0
SOLID
  5
2E5
100
AcDbEntity
  8
L1_160
  6
CONTINUOUS
 62
         4
100
AcDbTrace
 10
1741.7420079481
 20
63.2524144385
 30
0.0
 11
1741.2170079481
 21
66.7524144385
 31
0.0
 12
1742.2670079481
 22
66.7524144385
 32
0.0
 13
1741.7420079481
 23
63.2524144385
 33
0.0
  0
TEXT
  5
2E7
100
AcDbEntity
  8
L1_160
  6
CONTINUOUS
 62
         4
100
AcDbText
 10
1737.6820079481
 20
105.8491388208
 30
0.0
 40
3.5
  1
崷98
 50
90.0
  7
BOX
100
AcDbText
  0
ENDBLK
  5
2E8
100
AcDbEntity
  8
0
  6
CONTINUOUS
100
AcDbBlockEnd
  0
BLOCK
  5
306
100
AcDbEntity
  8
0
100
AcDbBlockBegin
  2
*D6
 70
        65
 10
0.0
 20
0.0
 30
0.0
  3
*D6
  1

  0
POINT
  5
308
100
AcDbEntity
  8
DEFPOINTS
  6
CONTINUOUS
 62
         0
100
AcDbPoint
 10
1698.7786999334
 20
214.7310898294
 30
0.0
  0
POINT
  5
309
100
AcDbEntity
  8
DEFPOINTS
  6
CONTINUOUS
 62
         0
100
AcDbPoint
 10
1698.7786999334
 20
112.2524144385
 30
0.0
  0
POINT
  5
30A
100
AcDbEntity
  8
DEFPOINTS
  6
CONTINUOUS
 62
         0
100
AcDbPoint
 10
1523.7786999334
 20
151.9774144385
 30
0.0
  0
LINE
  5
30B
100
AcDbEntity
  8
L1_160
  6
CONTINUOUS
 62
         4
100
AcDbLine
 10
1698.7786999334
 20
114.0024144385
 30
0.0
 11
1698.7786999334
 21
215.6060898294
 31
0.0
  0
LINE
  5
30C
100
AcDbEntity
  8
L1_160
  6
CONTINUOUS
 62
         4
100
AcDbLine
 10
1523.7786999334
 20
153.7274144385
 30
0.0
 11
1523.7786999334
 21
215.6060898294
 31
0.0
  0
LINE
  5
30D
100
AcDbEntity
  8
L1_160
  6
CONTINUOUS
 62
         4
100
AcDbLine
 10
1698.7786999334
 20
214.7310898294
 30
0.0
 11
1523.7786999334
 21
214.7310898294
 31
0.0
  0
SOLID
  5
30E
100
AcDbEntity
  8
L1_160
  6
CONTINUOUS
 62
         4
100
AcDbTrace
 10
1698.7786999334
 20
214.7310898294
 30
0.0
 11
1695.2786999334
 21
214.2060898294
 31
0.0
 12
1695.2786999334
 22
215.2560898294
 32
0.0
 13
1698.7786999334
 23
214.7310898294
 33
0.0
  0
SOLID
  5
30F
100
AcDbEntity
  8
L1_160
  6
CONTINUOUS
 62
         4
100
AcDbTrace
 10
1523.7786999334
 20
214.7310898294
 30
0.0
 11
1527.2786999334
 21
215.2560898294
 31
0.0
 12
1527.2786999334
 22
214.2060898294
 32
0.0
 13
1523.7786999334
 23
214.7310898294
 33
0.0
  0
TEXT
  5
311
100
AcDbEntity
  8
L1_160
  6
CONTINUOUS
 62
         4
100
AcDbText
 10
1602.7714673985
 20
217.3560898294
 30
0.0
 40
3.5
  1
175
  7
BOX
100
AcDbText
  0
ENDBLK
  5
312
100
AcDbEntity
  8
0
  6
CONTINUOUS
100
AcDbBlockEnd
  0
BLOCK
  5
314
100
AcDbEntity
  8
0
100
AcDbBlockBegin
  2
*D7
 70
        65
 10
0.0
 20
0.0
 30
0.0
  3
*D7
  1

  0
POINT
  5
316
100
AcDbEntity
  8
DEFPOINTS
  6
CONTINUOUS
 62
         0
100
AcDbPoint
 10
1422.1786999334
 20
223.1146374495
 30
0.0
  0
POINT
  5
317
100
AcDbEntity
  8
DEFPOINTS
  6
CONTINUOUS
 62
         0
100
AcDbPoint
 10
1422.1786999334
 20
130.1987502026
 30
0.0
  0
POINT
  5
318
100
AcDbEntity
  8
DEFPOINTS
  6
CONTINUOUS
 62
         0
100
AcDbPoint
 10
1698.7786999334
 20
112.2524144385
 30
0.0
  0
LINE
  5
319
100
AcDbEntity
  8
L1_160
  6
CONTINUOUS
 62
         4
100
AcDbLine
 10
1422.1786999334
 20
131.9487502026
 30
0.0
 11
1422.1786999334
 21
223.9896374495
 31
0.0
  0
LINE
  5
31A
100
AcDbEntity
  8
L1_160
  6
CONTINUOUS
 62
         4
100
AcDbLine
 10
1698.7786999334
 20
114.0024144385
 30
0.0
 11
1698.7786999334
 21
223.9896374495
 31
0.0
  0
LINE
  5
31B
100
AcDbEntity
  8
L1_160
  6
CONTINUOUS
 62
         4
100
AcDbLine
 10
1422.1786999334
 20
223.1146374495
 30
0.0
 11
1698.7786999334
 21
223.1146374495
 31
0.0
  0
SOLID
  5
31C
100
AcDbEntity
  8
L1_160
  6
CONTINUOUS
 62
         4
100
AcDbTrace
 10
1422.1786999334
 20
223.1146374495
 30
0.0
 11
1425.6786999334
 21
223.6396374495
 31
0.0
 12
1425.6786999334
 22
222.5896374495
 32
0.0
 13
1422.1786999334
 23
223.1146374495
 33
0.0
  0
SOLID
  5
31D
100
AcDbEntity
  8
L1_160
  6
CONTINUOUS
 62
         4
100
AcDbTrace
 10
1698.7786999334
 20
223.1146374495
 30
0.0
 11
1695.2786999334
 21
222.5896374495
 31
0.0
 12
1695.2786999334
 22
223.6396374495
 32
0.0
 13
1698.7786999334
 23
223.1146374495
 33
0.0
  0
TEXT
  5
31F
100
AcDbEntity
  8
L1_160
  6
CONTINUOUS
 62
         4
100
AcDbText
 10
1558.4528640613
 20
225.7396374495
 30
0.0
 40
3.5
  1
276.6
  7
BOX
100
AcDbText
  0
ENDBLK
  5
320
100
AcDbEntity
  8
0
  6
CONTINUOUS
100
AcDbBlockEnd
  0
BLOCK
  5
338
100
AcDbEntity
  8
0
100
AcDbBlockBegin
  2
*D8
 70
        65
 10
0.0
 20
0.0
 30
0.0
  3
*D8
  1

  0
POINT
  5
33A
100
AcDbEntity
  8
DEFPOINTS
  6
CONTINUOUS
 62
         0
100
AcDbPoint
 10
1230.884771443
 20
-231.7944772964
 30
0.0
  0
POINT
  5
33B
100
AcDbEntity
  8
DEFPOINTS
  6
CONTINUOUS
 62
         0
100
AcDbPoint
 10
1206.1315366602
 20
-231.7944772964
 30
0.0
  0
POINT
  5
33C
100
AcDbEntity
  8
DEFPOINTS
  6
CONTINUOUS
 62
         0
100
AcDbPoint
 10
1206.1315366602
 20
-329.7944772964
 30
0.0
  0
LINE
  5
33D
100
AcDbEntity
  8
_Y__________
  6
CONTINUOUS
 62
         4
100
AcDbLine
 10
1207.8815366602
 20
-231.7944772964
 30
0.0
 11
1231.759771443
 21
-231.7944772964
 31
0.0
  0
LINE
  5
33E
100
AcDbEntity
  8
_Y__________
  6
CONTINUOUS
 62
         4
100
AcDbLine
 10
1207.8815366602
 20
-329.7944772964
 30
0.0
 11
1231.759771443
 21
-329.7944772964
 31
0.0
  0
LINE
  5
33F
100
AcDbEntity
  8
_Y__________
  6
CONTINUOUS
 62
         4
100
AcDbLine
 10
1230.884771443
 20
-231.7944772964
 30
0.0
 11
1230.884771443
 21
-329.7944772964
 31
0.0
  0
SOLID
  5
340
100
AcDbEntity
  8
_Y__________
  6
CONTINUOUS
 62
         4
100
AcDbTrace
 10
1230.884771443
 20
-231.7944772964
 30
0.0
 11
1231.409771443
 21
-235.2944772964
 31
0.0
 12
1230.359771443
 22
-235.2944772964
 32
0.0
 13
1230.884771443
 23
-231.7944772964
 33
0.0
  0
SOLID
  5
341
100
AcDbEntity
  8
_Y__________
  6
CONTINUOUS
 62
         4
100
AcDbTrace
 10
1230.884771443
 20
-329.7944772964
 30
0.0
 11
1230.359771443
 21
-326.2944772964
 31
0.0
 12
1231.409771443
 22
-326.2944772964
 32
0.0
 13
1230.884771443
 23
-329.7944772964
 33
0.0
  0
TEXT
  5
343
100
AcDbEntity
  8
_Y__________
  6
CONTINUOUS
 62
         4
100
AcDbText
 10
1228.259771443
 20
-287.7944772964
 30
0.0
 40
3.5
  1
崷98
 50
90.0
  7
BOX
100
AcDbText
  0
ENDBLK
  5
344
100
AcDbEntity
  8
0
  6
CONTINUOUS
100
AcDbBlockEnd
  0
BLOCK
  5
346
100
AcDbEntity
  8
0
100
AcDbBlockBegin
  2
*D9
 70
        65
 10
0.0
 20
0.0
 30
0.0
  3
*D9
  1

  0
POINT
  5
348
100
AcDbEntity
  8
DEFPOINTS
  6
CONTINUOUS
 62
         0
100
AcDbPoint
 10
1294.9062102409
 20
-263.7944772964
 30
0.0
  0
POINT
  5
349
100
AcDbEntity
  8
DEFPOINTS
  6
CONTINUOUS
 62
         0
100
AcDbPoint
 10
1281.3359258715
 20
-263.7944772964
 30
0.0
  0
POINT
  5
34A
100
AcDbEntity
  8
DEFPOINTS
  6
CONTINUOUS
 62
         0
100
AcDbPoint
 10
1281.3359258715
 20
-297.7944772964
 30
0.0
  0
LINE
  5
34B
100
AcDbEntity
  8
_Y__________
  6
CONTINUOUS
 62
         4
100
AcDbLine
 10
1283.0859258715
 20
-263.7944772964
 30
0.0
 11
1295.7812102409
 21
-263.7944772964
 31
0.0
  0
LINE
  5
34C
100
AcDbEntity
  8
_Y__________
  6
CONTINUOUS
 62
         4
100
AcDbLine
 10
1283.0859258715
 20
-297.7944772964
 30
0.0
 11
1295.7812102409
 21
-297.7944772964
 31
0.0
  0
LINE
  5
34D
100
AcDbEntity
  8
_Y__________
  6
CONTINUOUS
 62
         4
100
AcDbLine
 10
1294.9062102409
 20
-263.7944772964
 30
0.0
 11
1294.9062102409
 21
-297.7944772964
 31
0.0
  0
SOLID
  5
34E
100
AcDbEntity
  8
_Y__________
  6
CONTINUOUS
 62
         4
100
AcDbTrace
 10
1294.9062102409
 20
-263.7944772964
 30
0.0
 11
1295.4312102409
 21
-267.2944772964
 31
0.0
 12
1294.3812102409
 22
-267.2944772964
 32
0.0
 13
1294.9062102409
 23
-263.7944772964
 33
0.0
  0
SOLID
  5
34F
100
AcDbEntity
  8
_Y__________
  6
CONTINUOUS
 62
         4
100
AcDbTrace
 10
1294.9062102409
 20
-297.7944772964
 30
0.0
 11
1294.3812102409
 21
-294.2944772964
 31
0.0
 12
1295.4312102409
 22
-294.2944772964
 32
0.0
 13
1294.9062102409
 23
-297.7944772964
 33
0.0
  0
TEXT
  5
351
100
AcDbEntity
  8
_Y__________
  6
CONTINUOUS
 62
         4
100
AcDbText
 10
1292.2812102409
 20
-291.2944772964
 30
0.0
 40
3.5
  1
崷33.8
 50
90.0
  7
BOX
100
AcDbText
  0
ENDBLK
  5
352
100
AcDbEntity
  8
0
  6
CONTINUOUS
100
AcDbBlockEnd
  0
BLOCK
  5
354
100
AcDbEntity
  8
0
100
AcDbBlockBegin
  2
*D10
 70
        65
 10
0.0
 20
0.0
 30
0.0
  3
*D10
  1

  0
POINT
  5
356
100
AcDbEntity
  8
DEFPOINTS
  6
CONTINUOUS
 62
         0
100
AcDbPoint
 10
1551.7363909254
 20
-256.7944772964
 30
0.0
  0
POINT
  5
357
100
AcDbEntity
  8
DEFPOINTS
  6
CONTINUOUS
 62
         0
100
AcDbPoint
 10
1537.0355112565
 20
-256.7944772964
 30
0.0
  0
POINT
  5
358
100
AcDbEntity
  8
DEFPOINTS
  6
CONTINUOUS
 62
         0
100
AcDbPoint
 10
1537.0355112565
 20
-304.7944772964
 30
0.0
  0
LINE
  5
359
100
AcDbEntity
  8
_Y__________
  6
CONTINUOUS
 62
         4
100
AcDbLine
 10
1538.7855112565
 20
-256.7944772964
 30
0.0
 11
1552.6113909254
 21
-256.7944772964
 31
0.0
  0
LINE
  5
35A
100
AcDbEntity
  8
_Y__________
  6
CONTINUOUS
 62
         4
100
AcDbLine
 10
1538.7855112565
 20
-304.7944772964
 30
0.0
 11
1552.6113909254
 21
-304.7944772964
 31
0.0
  0
LINE
  5
35B
100
AcDbEntity
  8
_Y__________
  6
CONTINUOUS
 62
         4
100
AcDbLine
 10
1551.7363909254
 20
-256.7944772964
 30
0.0
 11
1551.7363909254
 21
-304.7944772964
 31
0.0
  0
SOLID
  5
35C
100
AcDbEntity
  8
_Y__________
  6
CONTINUOUS
 62
         4
100
AcDbTrace
 10
1551.7363909254
 20
-256.7944772964
 30
0.0
 11
1552.2613909254
 21
-260.2944772964
 31
0.0
 12
1551.2113909254
 22
-260.2944772964
 32
0.0
 13
1551.7363909254
 23
-256.7944772964
 33
0.0
  0
SOLID
  5
35D
100
AcDbEntity
  8
_Y__________
  6
CONTINUOUS
 62
         4
100
AcDbTrace
 10
1551.7363909254
 20
-304.7944772964
 30
0.0
 11
1551.2113909254
 21
-301.2944772964
 31
0.0
 12
1552.2613909254
 22
-301.2944772964
 32
0.0
 13
1551.7363909254
 23
-304.7944772964
 33
0.0
  0
TEXT
  5
35F
100
AcDbEntity
  8
_Y__________
  6
CONTINUOUS
 62
         4
100
AcDbText
 10
1549.1113909254
 20
-287.7944772964
 30
0.0
 40
3.5
  1
崷48
 50
90.0
  7
BOX
100
AcDbText
  0
ENDBLK
  5
360
100
AcDbEntity
  8
0
  6
CONTINUOUS
100
AcDbBlockEnd
  0
BLOCK
  5
362
100
AcDbEntity
  8
0
100
AcDbBlockBegin
  2
*D11
 70
        65
 10
0.0
 20
0.0
 30
0.0
  3
*D11
  1

  0
POINT
  5
364
100
AcDbEntity
  8
DEFPOINTS
  6
CONTINUOUS
 62
         0
100
AcDbPoint
 10
1670.4567653039
 20
-240.7944772964
 30
0.0
  0
POINT
  5
365
100
AcDbEntity
  8
DEFPOINTS
  6
CONTINUOUS
 62
         0
100
AcDbPoint
 10
1653.6855112565
 20
-240.7944772964
 30
0.0
  0
POINT
  5
366
100
AcDbEntity
  8
DEFPOINTS
  6
CONTINUOUS
 62
         0
100
AcDbPoint
 10
1653.6855112565
 20
-320.7944772964
 30
0.0
  0
LINE
  5
367
100
AcDbEntity
  8
_Y__________
  6
CONTINUOUS
 62
         4
100
AcDbLine
 10
1655.4355112565
 20
-240.7944772964
 30
0.0
 11
1671.3317653039
 21
-240.7944772964
 31
0.0
  0
LINE
  5
368
100
AcDbEntity
  8
_Y__________
  6
CONTINUOUS
 62
         4
100
AcDbLine
 10
1655.4355112565
 20
-320.7944772964
 30
0.0
 11
1671.3317653039
 21
-320.7944772964
 31
0.0
  0
LINE
  5
369
100
AcDbEntity
  8
_Y__________
  6
CONTINUOUS
 62
         4
100
AcDbLine
 10
1670.4567653039
 20
-240.7944772964
 30
0.0
 11
1670.4567653039
 21
-320.7944772964
 31
0.0
  0
SOLID
  5
36A
100
AcDbEntity
  8
_Y__________
  6
CONTINUOUS
 62
         4
100
AcDbTrace
 10
1670.4567653039
 20
-240.7944772964
 30
0.0
 11
1670.9817653039
 21
-244.2944772964
 31
0.0
 12
1669.9317653039
 22
-244.2944772964
 32
0.0
 13
1670.4567653039
 23
-240.7944772964
 33
0.0
  0
SOLID
  5
36B
100
AcDbEntity
  8
_Y__________
  6
CONTINUOUS
 62
         4
100
AcDbTrace
 10
1670.4567653039
 20
-320.7944772964
 30
0.0
 11
1669.9317653039
 21
-317.2944772964
 31
0.0
 12
1670.9817653039
 22
-317.2944772964
 32
0.0
 13
1670.4567653039
 23
-320.7944772964
 33
0.0
  0
TEXT
  5
36D
100
AcDbEntity
  8
_Y__________
  6
CONTINUOUS
 62
         4
100
AcDbText
 10
1667.8317653039
 20
-287.7944772964
 30
0.0
 40
3.5
  1
崷80
 50
90.0
  7
BOX
100
AcDbText
  0
ENDBLK
  5
36E
100
AcDbEntity
  8
0
  6
CONTINUOUS
100
AcDbBlockEnd
  0
BLOCK
  5
370
100
AcDbEntity
  8
0
100
AcDbBlockBegin
  2
*D12
 70
        65
 10
0.0
 20
0.0
 30
0.0
  3
*D12
  1

  0
POINT
  5
372
100
AcDbEntity
  8
DEFPOINTS
  6
CONTINUOUS
 62
         0
100
AcDbPoint
 10
1587.1355112565
 20
-237.7524712091
 30
0.0
  0
POINT
  5
373
100
AcDbEntity
  8
DEFPOINTS
  6
CONTINUOUS
 62
         0
100
AcDbPoint
 10
1587.1355112565
 20
-243.4944772964
 30
0.0
  0
POINT
  5
374
100
AcDbEntity
  8
DEFPOINTS
  6
CONTINUOUS
 62
         0
100
AcDbPoint
 10
1654.1855112565
 20
-241.2944772964
 30
0.0
  0
LINE
  5
375
100
AcDbEntity
  8
_Y__________
  6
CONTINUOUS
 62
         4
100
AcDbLine
 10
1587.1355112565
 20
-241.7444772964
 30
0.0
 11
1587.1355112565
 21
-236.8774712091
 31
0.0
  0
LINE
  5
376
100
AcDbEntity
  8
_Y__________
  6
CONTINUOUS
 62
         4
100
AcDbLine
 10
1654.1855112565
 20
-239.5444772964
 30
0.0
 11
1654.1855112565
 21
-236.8774712091
 31
0.0
  0
LINE
  5
377
100
AcDbEntity
  8
_Y__________
  6
CONTINUOUS
 62
         4
100
AcDbLine
 10
1587.1355112565
 20
-237.7524712091
 30
0.0
 11
1654.1855112565
 21
-237.7524712091
 31
0.0
  0
SOLID
  5
378
100
AcDbEntity
  8
_Y__________
  6
CONTINUOUS
 62
         4
100
AcDbTrace
 10
1587.1355112565
 20
-237.7524712091
 30
0.0
 11
1590.6355112565
 21
-237.2274712091
 31
0.0
 12
1590.6355112565
 22
-238.2774712091
 32
0.0
 13
1587.1355112565
 23
-237.7524712091
 33
0.0
  0
SOLID
  5
379
100
AcDbEntity
  8
_Y__________
  6
CONTINUOUS
 62
         4
100
AcDbTrace
 10
1654.1855112565
 20
-237.7524712091
 30
0.0
 11
1650.6855112565
 21
-238.2774712091
 31
0.0
 12
1650.6855112565
 22
-237.2274712091
 32
0.0
 13
1654.1855112565
 23
-237.7524712091
 33
0.0
  0
TEXT
  5
37B
100
AcDbEntity
  8
_Y__________
  6
CONTINUOUS
 62
         4
100
AcDbText
 10
1611.9105112565
 20
-235.1274712091
 30
0.0
 40
3.5
  1
67.05
  7
BOX
100
AcDbText
  0
ENDBLK
  5
37C
100
AcDbEntity
  8
0
  6
CONTINUOUS
100
AcDbBlockEnd
  0
BLOCK
  5
37E
100
AcDbEntity
  8
0
100
AcDbBlockBegin
  2
*D13
 70
        65
 10
0.0
 20
0.0
 30
0.0
  3
*D13
  1

  0
POINT
  5
380
100
AcDbEntity
  8
DEFPOINTS
  6
CONTINUOUS
 62
         0
100
AcDbPoint
 10
1514.8355112565
 20
-244.2570441974
 30
0.0
  0
POINT
  5
381
100
AcDbEntity
  8
DEFPOINTS
  6
CONTINUOUS
 62
         0
100
AcDbPoint
 10
1514.8355112565
 20
-257.2944772964
 30
0.0
  0
POINT
  5
382
100
AcDbEntity
  8
DEFPOINTS
  6
CONTINUOUS
 62
         0
100
AcDbPoint
 10
1537.1355112565
 20
-256.8944772964
 30
0.0
  0
LINE
  5
383
100
AcDbEntity
  8
_Y__________
  6
CONTINUOUS
 62
         4
100
AcDbLine
 10
1514.8355112565
 20
-255.5444772964
 30
0.0
 11
1514.8355112565
 21
-243.3820441974
 31
0.0
  0
LINE
  5
384
100
AcDbEntity
  8
_Y__________
  6
CONTINUOUS
 62
         4
100
AcDbLine
 10
1537.1355112565
 20
-255.1444772964
 30
0.0
 11
1537.1355112565
 21
-243.3820441974
 31
0.0
  0
LINE
  5
385
100
AcDbEntity
  8
_Y__________
  6
CONTINUOUS
 62
         4
100
AcDbLine
 10
1514.8355112565
 20
-244.2570441974
 30
0.0
 11
1537.1355112565
 21
-244.2570441974
 31
0.0
  0
SOLID
  5
386
100
AcDbEntity
  8
_Y__________
  6
CONTINUOUS
 62
         4
100
AcDbTrace
 10
1514.8355112565
 20
-244.2570441974
 30
0.0
 11
1518.3355112565
 21
-243.7320441974
 31
0.0
 12
1518.3355112565
 22
-244.7820441974
 32
0.0
 13
1514.8355112565
 23
-244.2570441974
 33
0.0
  0
SOLID
  5
387
100
AcDbEntity
  8
_Y__________
  6
CONTINUOUS
 62
         4
100
AcDbTrace
 10
1537.1355112565
 20
-244.2570441974
 30
0.0
 11
1533.6355112565
 21
-244.7820441974
 31
0.0
 12
1533.6355112565
 22
-243.7320441974
 32
0.0
 13
1537.1355112565
 23
-244.2570441974
 33
0.0
  0
TEXT
  5
389
100
AcDbEntity
  8
_Y__________
  6
CONTINUOUS
 62
         4
100
AcDbText
 10
1518.9855112565
 20
-241.6320441974
 30
0.0
 40
3.5
  1
22.3
  7
BOX
100
AcDbText
  0
ENDBLK
  5
38A
100
AcDbEntity
  8
0
  6
CONTINUOUS
100
AcDbBlockEnd
  0
BLOCK
  5
38C
100
AcDbEntity
  8
0
100
AcDbBlockBegin
  2
*D14
 70
        65
 10
0.0
 20
0.0
 30
0.0
  3
*D14
  1

  0
POINT
  5
38E
100
AcDbEntity
  8
DEFPOINTS
  6
CONTINUOUS
 62
         0
100
AcDbPoint
 10
1332.8355112565
 20
-226.662746201
 30
0.0
  0
POINT
  5
38F
100
AcDbEntity
  8
DEFPOINTS
  6
CONTINUOUS
 62
         0
100
AcDbPoint
 10
1332.8355112565
 20
-257.7944772964
 30
0.0
  0
POINT
  5
390
100
AcDbEntity
  8
DEFPOINTS
  6
CONTINUOUS
 62
         0
100
AcDbPoint
 10
1363.577872446
 20
-244.2944772964
 30
0.0
  0
LINE
  5
391
100
AcDbEntity
  8
_Y__________
  6
CONTINUOUS
 62
         4
100
AcDbLine
 10
1332.8355112565
 20
-256.0444772964
 30
0.0
 11
1332.8355112565
 21
-225.787746201
 31
0.0
  0
LINE
  5
392
100
AcDbEntity
  8
_Y__________
  6
CONTINUOUS
 62
         4
100
AcDbLine
 10
1363.577872446
 20
-242.5444772964
 30
0.0
 11
1363.577872446
 21
-225.787746201
 31
0.0
  0
LINE
  5
393
100
AcDbEntity
  8
_Y__________
  6
CONTINUOUS
 62
         4
100
AcDbLine
 10
1332.8355112565
 20
-226.662746201
 30
0.0
 11
1363.577872446
 21
-226.662746201
 31
0.0
  0
SOLID
  5
394
100
AcDbEntity
  8
_Y__________
  6
CONTINUOUS
 62
         4
100
AcDbTrace
 10
1332.8355112565
 20
-226.662746201
 30
0.0
 11
1336.3355112565
 21
-226.137746201
 31
0.0
 12
1336.3355112565
 22
-227.187746201
 32
0.0
 13
1332.8355112565
 23
-226.662746201
 33
0.0
  0
SOLID
  5
395
100
AcDbEntity
  8
_Y__________
  6
CONTINUOUS
 62
         4
100
AcDbTrace
 10
1363.577872446
 20
-226.662746201
 30
0.0
 11
1360.077872446
 21
-227.187746201
 31
0.0
 12
1360.077872446
 22
-226.137746201
 32
0.0
 13
1363.577872446
 23
-226.662746201
 33
0.0
  0
TEXT
  5
397
100
AcDbEntity
  8
_Y__________
  6
CONTINUOUS
 62
         4
100
AcDbText
 10
1339.4566918512
 20
-224.037746201
 30
0.0
 40
3.5
  1
30.74
  7
BOX
100
AcDbText
  0
ENDBLK
  5
398
100
AcDbEntity
  8
0
  6
CONTINUOUS
100
AcDbBlockEnd
  0
BLOCK
  5
39A
100
AcDbEntity
  8
0
100
AcDbBlockBegin
  2
*D15
 70
        65
 10
0.0
 20
0.0
 30
0.0
  3
*D15
  1

  0
POINT
  5
39C
100
AcDbEntity
  8
DEFPOINTS
  6
CONTINUOUS
 62
         0
100
AcDbPoint
 10
1476.1855112565
 20
-223.8157868651
 30
0.0
  0
POINT
  5
39D
100
AcDbEntity
  8
DEFPOINTS
  6
CONTINUOUS
 62
         0
100
AcDbPoint
 10
1476.1855112565
 20
-252.7944772964
 30
0.0
  0
POINT
  5
39E
100
AcDbEntity
  8
DEFPOINTS
  6
CONTINUOUS
 62
         0
100
AcDbPoint
 10
1400.1355112565
 20
-244.2944772964
 30
0.0
  0
LINE
  5
39F
100
AcDbEntity
  8
_Y__________
  6
CONTINUOUS
 62
         4
100
AcDbLine
 10
1476.1855112565
 20
-251.0444772964
 30
0.0
 11
1476.1855112565
 21
-222.9407868651
 31
0.0
  0
LINE
  5
3A0
100
AcDbEntity
  8
_Y__________
  6
CONTINUOUS
 62
         4
100
AcDbLine
 10
1400.1355112565
 20
-242.5444772964
 30
0.0
 11
1400.1355112565
 21
-222.9407868651
 31
0.0
  0
LINE
  5
3A1
100
AcDbEntity
  8
_Y__________
  6
CONTINUOUS
 62
         4
100
AcDbLine
 10
1476.1855112565
 20
-223.8157868651
 30
0.0
 11
1400.1355112565
 21
-223.8157868651
 31
0.0
  0
SOLID
  5
3A2
100
AcDbEntity
  8
_Y__________
  6
CONTINUOUS
 62
         4
100
AcDbTrace
 10
1476.1855112565
 20
-223.8157868651
 30
0.0
 11
1472.6855112565
 21
-224.3407868651
 31
0.0
 12
1472.6855112565
 22
-223.2907868651
 32
0.0
 13
1476.1855112565
 23
-223.8157868651
 33
0.0
  0
SOLID
  5
3A3
100
AcDbEntity
  8
_Y__________
  6
CONTINUOUS
 62
         4
100
AcDbTrace
 10
1400.1355112565
 20
-223.8157868651
 30
0.0
 11
1403.6355112565
 21
-223.2907868651
 31
0.0
 12
1403.6355112565
 22
-224.3407868651
 32
0.0
 13
1400.1355112565
 23
-223.8157868651
 33
0.0
  0
TEXT
  5
3A5
100
AcDbEntity
  8
_Y__________
  6
CONTINUOUS
 62
         4
100
AcDbText
 10
1429.4105112565
 20
-221.1907868651
 30
0.0
 40
3.5
  1
76.05
  7
BOX
100
AcDbText
  0
ENDBLK
  5
3A6
100
AcDbEntity
  8
0
  6
CONTINUOUS
100
AcDbBlockEnd
  0
BLOCK
  5
3A8
100
AcDbEntity
  8
0
100
AcDbBlockBegin
  2
*D16
 70
        65
 10
0.0
 20
0.0
 30
0.0
  3
*D16
  1

  0
POINT
  5
3AA
100
AcDbEntity
  8
DEFPOINTS
  6
CONTINUOUS
 62
         0
100
AcDbPoint
 10
1332.8355112565
 20
-213.6142211834
 30
0.0
  0
POINT
  5
3AB
100
AcDbEntity
  8
DEFPOINTS
  6
CONTINUOUS
 62
         0
100
AcDbPoint
 10
1332.8355112565
 20
-257.7944772964
 30
0.0
  0
POINT
  5
3AC
100
AcDbEntity
  8
DEFPOINTS
  6
CONTINUOUS
 62
         0
100
AcDbPoint
 10
1476.1855112565
 20
-252.7944772964
 30
0.0
  0
LINE
  5
3AD
100
AcDbEntity
  8
_Y__________
  6
CONTINUOUS
 62
         4
100
AcDbLine
 10
1332.8355112565
 20
-256.0444772964
 30
0.0
 11
1332.8355112565
 21
-212.7392211834
 31
0.0
  0
LINE
  5
3AE
100
AcDbEntity
  8
_Y__________
  6
CONTINUOUS
 62
         4
100
AcDbLine
 10
1476.1855112565
 20
-251.0444772964
 30
0.0
 11
1476.1855112565
 21
-212.7392211834
 31
0.0
  0
LINE
  5
3AF
100
AcDbEntity
  8
_Y__________
  6
CONTINUOUS
 62
         4
100
AcDbLine
 10
1332.8355112565
 20
-213.6142211834
 30
0.0
 11
1476.1855112565
 21
-213.6142211834
 31
0.0
  0
SOLID
  5
3B0
100
AcDbEntity
  8
_Y__________
  6
CONTINUOUS
 62
         4
100
AcDbTrace
 10
1332.8355112565
 20
-213.6142211834
 30
0.0
 11
1336.3355112565
 21
-213.0892211834
 31
0.0
 12
1336.3355112565
 22
-214.1392211834
 32
0.0
 13
1332.8355112565
 23
-213.6142211834
 33
0.0
  0
SOLID
  5
3B1
100
AcDbEntity
  8
_Y__________
  6
CONTINUOUS
 62
         4
100
AcDbTrace
 10
1476.1855112565
 20
-213.6142211834
 30
0.0
 11
1472.6855112565
 21
-214.1392211834
 31
0.0
 12
1472.6855112565
 22
-213.0892211834
 32
0.0
 13
1476.1855112565
 23
-213.6142211834
 33
0.0
  0
TEXT
  5
3B3
100
AcDbEntity
  8
_Y__________
  6
CONTINUOUS
 62
         4
100
AcDbText
 10
1394.0105112565
 20
-210.9892211834
 30
0.0
 40
3.5
  1
143.35
  7
BOX
100
AcDbText
  0
ENDBLK
  5
3B4
100
AcDbEntity
  8
0
  6
CONTINUOUS
100
AcDbBlockEnd
  0
BLOCK
  5
3B6
100
AcDbEntity
  8
0
100
AcDbBlockBegin
  2
*D17
 70
        65
 10
0.0
 20
0.0
 30
0.0
  3
*D17
  1

  0
POINT
  5
3B8
100
AcDbEntity
  8
DEFPOINTS
  6
CONTINUOUS
 62
         0
100
AcDbPoint
 10
1159.2655112565
 20
-218.6897932945
 30
0.0
  0
POINT
  5
3B9
100
AcDbEntity
  8
DEFPOINTS
  6
CONTINUOUS
 62
         0
100
AcDbPoint
 10
1159.2655112565
 20
-232.2944772964
 30
0.0
  0
POINT
  5
3BA
100
AcDbEntity
  8
DEFPOINTS
  6
CONTINUOUS
 62
         0
100
AcDbPoint
 10
1209.2655112565
 20
-233.583152431
 30
0.0
  0
LINE
  5
3BB
100
AcDbEntity
  8
_Y__________
  6
CONTINUOUS
 62
         4
100
AcDbLine
 10
1159.2655112565
 20
-230.5444772964
 30
0.0
 11
1159.2655112565
 21
-217.8147932945
 31
0.0
  0
LINE
  5
3BC
100
AcDbEntity
  8
_Y__________
  6
CONTINUOUS
 62
         4
100
AcDbLine
 10
1209.2655112565
 20
-231.833152431
 30
0.0
 11
1209.2655112565
 21
-217.8147932945
 31
0.0
  0
LINE
  5
3BD
100
AcDbEntity
  8
_Y__________
  6
CONTINUOUS
 62
         4
100
AcDbLine
 10
1159.2655112565
 20
-218.6897932945
 30
0.0
 11
1209.2655112565
 21
-218.6897932945
 31
0.0
  0
SOLID
  5
3BE
100
AcDbEntity
  8
_Y__________
  6
CONTINUOUS
 62
         4
100
AcDbTrace
 10
1159.2655112565
 20
-218.6897932945
 30
0.0
 11
1162.7655112565
 21
-218.1647932945
 31
0.0
 12
1162.7655112565
 22
-219.2147932945
 32
0.0
 13
1159.2655112565
 23
-218.6897932945
 33
0.0
  0
SOLID
  5
3BF
100
AcDbEntity
  8
_Y__________
  6
CONTINUOUS
 62
         4
100
AcDbTrace
 10
1209.2655112565
 20
-218.6897932945
 30
0.0
 11
1205.7655112565
 21
-219.2147932945
 31
0.0
 12
1205.7655112565
 22
-218.1647932945
 32
0.0
 13
1209.2655112565
 23
-218.6897932945
 33
0.0
  0
TEXT
  5
3C1
100
AcDbEntity
  8
_Y__________
  6
CONTINUOUS
 62
         4
100
AcDbText
 10
1180.7655112565
 20
-216.0647932945
 30
0.0
 40
3.5
  1
50
  7
BOX
100
AcDbText
  0
ENDBLK
  5
3C2
100
AcDbEntity
  8
0
  6
CONTINUOUS
100
AcDbBlockEnd
  0
BLOCK
  5
592
100
AcDbEntity
  8
0
100
AcDbBlockBegin
  2
*D18
 70
        65
 10
0.0
 20
0.0
 30
0.0
  3
*D18
  1

  0
POINT
  5
594
100
AcDbEntity
  8
DEFPOINTS
  6
CONTINUOUS
 62
         0
100
AcDbPoint
 10
1255.9359258715
 20
-245.8001450444
 30
0.0
  0
POINT
  5
595
100
AcDbEntity
  8
DEFPOINTS
  6
CONTINUOUS
 62
         0
100
AcDbPoint
 10
1255.9359258715
 20
-267.6444772964
 30
0.0
  0
POINT
  5
596
100
AcDbEntity
  8
DEFPOINTS
  6
CONTINUOUS
 62
         0
100
AcDbPoint
 10
1281.8359258715
 20
-264.2944772964
 30
0.0
  0
LINE
  5
597
100
AcDbEntity
  8
_Y__________
  6
CONTINUOUS
 62
         4
100
AcDbLine
 10
1255.9359258715
 20
-265.8944772964
 30
0.0
 11
1255.9359258715
 21
-244.9251450444
 31
0.0
  0
LINE
  5
598
100
AcDbEntity
  8
_Y__________
  6
CONTINUOUS
 62
         4
100
AcDbLine
 10
1281.8359258715
 20
-262.5444772964
 30
0.0
 11
1281.8359258715
 21
-244.9251450444
 31
0.0
  0
LINE
  5
599
100
AcDbEntity
  8
_Y__________
  6
CONTINUOUS
 62
         4
100
AcDbLine
 10
1255.9359258715
 20
-245.8001450444
 30
0.0
 11
1281.8359258715
 21
-245.8001450444
 31
0.0
  0
SOLID
  5
59A
100
AcDbEntity
  8
_Y__________
  6
CONTINUOUS
 62
         4
100
AcDbTrace
 10
1255.9359258715
 20
-245.8001450444
 30
0.0
 11
1259.4359258715
 21
-245.2751450444
 31
0.0
 12
1259.4359258715
 22
-246.3251450444
 32
0.0
 13
1255.9359258715
 23
-245.8001450444
 33
0.0
  0
SOLID
  5
59B
100
AcDbEntity
  8
_Y__________
  6
CONTINUOUS
 62
         4
100
AcDbTrace
 10
1281.8359258715
 20
-245.8001450444
 30
0.0
 11
1278.3359258715
 21
-246.3251450444
 31
0.0
 12
1278.3359258715
 22
-245.2751450444
 32
0.0
 13
1281.8359258715
 23
-245.8001450444
 33
0.0
  0
TEXT
  5
59D
100
AcDbEntity
  8
_Y__________
  6
CONTINUOUS
 62
         4
100
AcDbText
 10
1261.8859258715
 20
-243.1751450444
 30
0.0
 40
3.5
  1
25.9
  7
BOX
100
AcDbText
  0
ENDBLK
  5
59E
100
AcDbEntity
  8
0
  6
CONTINUOUS
100
AcDbBlockEnd
  0
BLOCK
  5
5A1
100
AcDbEntity
  8
0
100
AcDbBlockBegin
  2
*D19
 70
        65
 10
0.0
 20
0.0
 30
0.0
  3
*D19
  1

  0
POINT
  5
5A3
100
AcDbEntity
  8
DEFPOINTS
  6
CONTINUOUS
 62
         0
100
AcDbPoint
 10
1904.8052838506
 20
12.6566402715
 30
0.0
  0
POINT
  5
5A4
100
AcDbEntity
  8
DEFPOINTS
  6
CONTINUOUS
 62
         0
100
AcDbPoint
 10
1904.8052838506
 20
5.4157004996
 30
0.0
  0
POINT
  5
5A5
100
AcDbEntity
  8
DEFPOINTS
  6
CONTINUOUS
 62
         0
100
AcDbPoint
 10
1906.4052838506
 20
5.4157004996
 30
0.0
  0
LINE
  5
5A6
100
AcDbEntity
  8
_Y__________
  6
CONTINUOUS
 62
         4
100
AcDbLine
 10
1904.8052838506
 20
6.7657004996
 30
0.0
 11
1904.8052838506
 21
13.3316402715
 31
0.0
  0
LINE
  5
5A7
100
AcDbEntity
  8
_Y__________
  6
CONTINUOUS
 62
         4
100
AcDbLine
 10
1906.4052838506
 20
6.7657004996
 30
0.0
 11
1906.4052838506
 21
13.3316402715
 31
0.0
  0
LINE
  5
5A8
100
AcDbEntity
  8
_Y__________
  6
CONTINUOUS
 62
         4
100
AcDbLine
 10
1904.8052838506
 20
12.6566402715
 30
0.0
 11
1899.4052838506
 21
12.6566402715
 31
0.0
  0
SOLID
  5
5A9
100
AcDbEntity
  8
_Y__________
  6
CONTINUOUS
 62
         4
100
AcDbTrace
 10
1904.8052838506
 20
12.6566402715
 30
0.0
 11
1902.1052838506
 21
12.2516402715
 31
0.0
 12
1902.1052838506
 22
13.0616402715
 32
0.0
 13
1904.8052838506
 23
12.6566402715
 33
0.0
  0
LINE
  5
5AA
100
AcDbEntity
  8
_Y__________
  6
CONTINUOUS
 62
         4
100
AcDbLine
 10
1906.4052838506
 20
12.6566402715
 30
0.0
 11
1911.8052838506
 21
12.6566402715
 31
0.0
  0
SOLID
  5
5AB
100
AcDbEntity
  8
_Y__________
  6
CONTINUOUS
 62
         4
100
AcDbTrace
 10
1906.4052838506
 20
12.6566402715
 30
0.0
 11
1909.1052838506
 21
13.0616402715
 31
0.0
 12
1909.1052838506
 22
12.2516402715
 32
0.0
 13
1906.4052838506
 23
12.6566402715
 33
0.0
  0
LINE
  5
5AC
100
AcDbEntity
  8
_Y__________
  6
CONTINUOUS
 62
         4
100
AcDbLine
 10
1904.8052838506
 20
12.6566402715
 30
0.0
 11
1906.4052838506
 21
12.6566402715
 31
0.0
  0
TEXT
  5
5AE
100
AcDbEntity
  8
_Y__________
  6
CONTINUOUS
 62
         4
100
AcDbText
 10
1901.5552838506
 20
14.6816402715
 30
0.0
 40
2.7
  1
1.6
  7
BOX
100
AcDbText
  0
ENDBLK
  5
5AF
100
AcDbEntity
  8
0
  6
CONTINUOUS
100
AcDbBlockEnd
  0
BLOCK
  5
5E6
100
AcDbEntity
  8
0
100
AcDbBlockBegin
  2
*D20
 70
        65
 10
0.0
 20
0.0
 30
0.0
  3
*D20
  1

  0
POINT
  5
5E8
100
AcDbEntity
  8
DEFPOINTS
  6
CONTINUOUS
 62
         0
100
AcDbPoint
 10
2030.0976792024
 20
23.8788335911
 30
0.0
  0
POINT
  5
5E9
100
AcDbEntity
  8
DEFPOINTS
  6
CONTINUOUS
 62
         0
100
AcDbPoint
 10
2030.0976792024
 20
18.2507004996
 30
0.0
  0
POINT
  5
5EA
100
AcDbEntity
  8
DEFPOINTS
  6
CONTINUOUS
 62
         0
100
AcDbPoint
 10
2042.0976792024
 20
18.2507004996
 30
0.0
  0
LINE
  5
5EB
100
AcDbEntity
  8
_Y__________
  6
CONTINUOUS
 62
         4
100
AcDbLine
 10
2030.0976792024
 20
19.6007004996
 30
0.0
 11
2030.0976792024
 21
24.5538335911
 31
0.0
  0
LINE
  5
5EC
100
AcDbEntity
  8
_Y__________
  6
CONTINUOUS
 62
         4
100
AcDbLine
 10
2042.0976792024
 20
19.6007004996
 30
0.0
 11
2042.0976792024
 21
24.5538335911
 31
0.0
  0
LINE
  5
5ED
100
AcDbEntity
  8
_Y__________
  6
CONTINUOUS
 62
         4
100
AcDbLine
 10
2030.0976792024
 20
23.8788335911
 30
0.0
 11
2042.0976792024
 21
23.8788335911
 31
0.0
  0
SOLID
  5
5EE
100
AcDbEntity
  8
_Y__________
  6
CONTINUOUS
 62
         4
100
AcDbTrace
 10
2030.0976792024
 20
23.8788335911
 30
0.0
 11
2032.7976792024
 21
24.2838335911
 31
0.0
 12
2032.7976792024
 22
23.4738335911
 32
0.0
 13
2030.0976792024
 23
23.8788335911
 33
0.0
  0
SOLID
  5
5EF
100
AcDbEntity
  8
_Y__________
  6
CONTINUOUS
 62
         4
100
AcDbTrace
 10
2042.0976792024
 20
23.8788335911
 30
0.0
 11
2039.3976792024
 21
23.4738335911
 31
0.0
 12
2039.3976792024
 22
24.2838335911
 32
0.0
 13
2042.0976792024
 23
23.8788335911
 33
0.0
  0
TEXT
  5
5F1
100
AcDbEntity
  8
_Y__________
  6
CONTINUOUS
 62
         4
100
AcDbText
 10
2033.3976792024
 20
25.9038335911
 30
0.0
 40
2.7
  1
12
  7
BOX
100
AcDbText
  0
ENDBLK
  5
5F2
100
AcDbEntity
  8
0
  6
CONTINUOUS
100
AcDbBlockEnd
  0
BLOCK
  5
5F4
100
AcDbEntity
  8
0
100
AcDbBlockBegin
  2
*D21
 70
        65
 10
0.0
 20
0.0
 30
0.0
  3
*D21
  1

  0
POINT
  5
5F6
100
AcDbEntity
  8
DEFPOINTS
  6
CONTINUOUS
 62
         0
100
AcDbPoint
 10
2056.9771920244
 20
19.7507004996
 30
0.0
  0
POINT
  5
5F7
100
AcDbEntity
  8
DEFPOINTS
  6
CONTINUOUS
 62
         0
100
AcDbPoint
 10
2040.5976792024
 20
19.7507004996
 30
0.0
  0
POINT
  5
5F8
100
AcDbEntity
  8
DEFPOINTS
  6
CONTINUOUS
 62
         0
100
AcDbPoint
 10
2037.5976792024
 20
-45.4192995004
 30
0.0
  0
LINE
  5
5F9
100
AcDbEntity
  8
_Y__________
  6
CONTINUOUS
 62
         4
100
AcDbLine
 10
2041.9476792024
 20
19.7507004996
 30
0.0
 11
2057.6521920244
 21
19.7507004996
 31
0.0
  0
LINE
  5
5FA
100
AcDbEntity
  8
_Y__________
  6
CONTINUOUS
 62
         4
100
AcDbLine
 10
2038.9476792024
 20
-45.4192995004
 30
0.0
 11
2057.6521920244
 21
-45.4192995004
 31
0.0
  0
LINE
  5
5FB
100
AcDbEntity
  8
_Y__________
  6
CONTINUOUS
 62
         4
100
AcDbLine
 10
2056.9771920244
 20
19.7507004996
 30
0.0
 11
2056.9771920244
 21
-45.4192995004
 31
0.0
  0
SOLID
  5
5FC
100
AcDbEntity
  8
_Y__________
  6
CONTINUOUS
 62
         4
100
AcDbTrace
 10
2056.9771920244
 20
19.7507004996
 30
0.0
 11
2057.3821920244
 21
17.0507004996
 31
0.0
 12
2056.5721920244
 22
17.0507004996
 32
0.0
 13
2056.9771920244
 23
19.7507004996
 33
0.0
  0
SOLID
  5
5FD
100
AcDbEntity
  8
_Y__________
  6
CONTINUOUS
 62
         4
100
AcDbTrace
 10
2056.9771920244
 20
-45.4192995004
 30
0.0
 11
2056.5721920244
 21
-42.7192995004
 31
0.0
 12
2057.3821920244
 22
-42.7192995004
 32
0.0
 13
2056.9771920244
 23
-45.4192995004
 33
0.0
  0
TEXT
  5
5FF
100
AcDbEntity
  8
_Y__________
  6
CONTINUOUS
 62
         4
100
AcDbText
 10
2054.9521920244
 20
-19.5842995004
 30
0.0
 40
2.7
  1
65.17
 50
90.0
  7
BOX
100
AcDbText
  0
ENDBLK
  5
600
100
AcDbEntity
  8
0
  6
CONTINUOUS
100
AcDbBlockEnd
  0
BLOCK
  5
602
100
AcDbEntity
  8
0
100
AcDbBlockBegin
  2
*D22
 70
        65
 10
0.0
 20
0.0
 30
0.0
  3
*D22
  1

  0
POINT
  5
604
100
AcDbEntity
  8
DEFPOINTS
  6
CONTINUOUS
 62
         0
100
AcDbPoint
 10
1984.6239805673
 20
16.6657004996
 30
0.0
  0
POINT
  5
605
100
AcDbEntity
  8
DEFPOINTS
  6
CONTINUOUS
 62
         0
100
AcDbPoint
 10
1994.6633412095
 20
16.6657004996
 30
0.0
  0
POINT
  5
606
100
AcDbEntity
  8
DEFPOINTS
  6
CONTINUOUS
 62
         0
100
AcDbPoint
 10
1994.6633412095
 20
-42.3342995004
 30
0.0
  0
LINE
  5
607
100
AcDbEntity
  8
_Y__________
  6
CONTINUOUS
 62
         4
100
AcDbLine
 10
1993.3133412095
 20
16.6657004996
 30
0.0
 11
1983.9489805673
 21
16.6657004996
 31
0.0
  0
LINE
  5
608
100
AcDbEntity
  8
_Y__________
  6
CONTINUOUS
 62
         4
100
AcDbLine
 10
1993.3133412095
 20
-42.3342995004
 30
0.0
 11
1983.9489805673
 21
-42.3342995004
 31
0.0
  0
LINE
  5
609
100
AcDbEntity
  8
_Y__________
  6
CONTINUOUS
 62
         4
100
AcDbLine
 10
1984.6239805673
 20
16.6657004996
 30
0.0
 11
1984.6239805673
 21
-42.3342995004
 31
0.0
  0
SOLID
  5
60A
100
AcDbEntity
  8
_Y__________
  6
CONTINUOUS
 62
         4
100
AcDbTrace
 10
1984.6239805673
 20
16.6657004996
 30
0.0
 11
1985.0289805673
 21
13.9657004996
 31
0.0
 12
1984.2189805673
 22
13.9657004996
 32
0.0
 13
1984.6239805673
 23
16.6657004996
 33
0.0
  0
SOLID
  5
60B
100
AcDbEntity
  8
_Y__________
  6
CONTINUOUS
 62
         4
100
AcDbTrace
 10
1984.6239805673
 20
-42.3342995004
 30
0.0
 11
1984.2189805673
 21
-39.6342995004
 31
0.0
 12
1985.0289805673
 22
-39.6342995004
 32
0.0
 13
1984.6239805673
 23
-42.3342995004
 33
0.0
  0
TEXT
  5
60D
100
AcDbEntity
  8
_Y__________
  6
CONTINUOUS
 62
         4
100
AcDbText
 10
1982.5989805673
 20
-15.5342995004
 30
0.0
 40
2.7
  1
59
 50
90.0
  7
BOX
100
AcDbText
  0
ENDBLK
  5
60E
100
AcDbEntity
  8
0
  6
CONTINUOUS
100
AcDbBlockEnd
  0
BLOCK
  5
610
100
AcDbEntity
  8
0
100
AcDbBlockBegin
  2
*D23
 70
        65
 10
0.0
 20
0.0
 30
0.0
  3
*D23
  1

  0
POINT
  5
612
100
AcDbEntity
  8
DEFPOINTS
  6
CONTINUOUS
 62
         0
100
AcDbPoint
 10
1944.1898701422
 20
12.1657004996
 30
0.0
  0
POINT
  5
613
100
AcDbEntity
  8
DEFPOINTS
  6
CONTINUOUS
 62
         0
100
AcDbPoint
 10
1955.4874396587
 20
12.1657004996
 30
0.0
  0
POINT
  5
614
100
AcDbEntity
  8
DEFPOINTS
  6
CONTINUOUS
 62
         0
100
AcDbPoint
 10
1955.4874396587
 20
-37.8342995004
 30
0.0
  0
LINE
  5
615
100
AcDbEntity
  8
_Y__________
  6
CONTINUOUS
 62
         4
100
AcDbLine
 10
1954.1374396587
 20
12.1657004996
 30
0.0
 11
1943.5148701422
 21
12.1657004996
 31
0.0
  0
LINE
  5
616
100
AcDbEntity
  8
_Y__________
  6
CONTINUOUS
 62
         4
100
AcDbLine
 10
1954.1374396587
 20
-37.8342995004
 30
0.0
 11
1943.5148701422
 21
-37.8342995004
 31
0.0
  0
LINE
  5
617
100
AcDbEntity
  8
_Y__________
  6
CONTINUOUS
 62
         4
100
AcDbLine
 10
1944.1898701422
 20
12.1657004996
 30
0.0
 11
1944.1898701422
 21
-37.8342995004
 31
0.0
  0
SOLID
  5
618
100
AcDbEntity
  8
_Y__________
  6
CONTINUOUS
 62
         4
100
AcDbTrace
 10
1944.1898701422
 20
12.1657004996
 30
0.0
 11
1944.5948701422
 21
9.4657004996
 31
0.0
 12
1943.7848701422
 22
9.4657004996
 32
0.0
 13
1944.1898701422
 23
12.1657004996
 33
0.0
  0
SOLID
  5
619
100
AcDbEntity
  8
_Y__________
  6
CONTINUOUS
 62
         4
100
AcDbTrace
 10
1944.1898701422
 20
-37.8342995004
 30
0.0
 11
1943.7848701422
 21
-35.1342995004
 31
0.0
 12
1944.5948701422
 22
-35.1342995004
 32
0.0
 13
1944.1898701422
 23
-37.8342995004
 33
0.0
  0
TEXT
  5
61B
100
AcDbEntity
  8
_Y__________
  6
CONTINUOUS
 62
         4
100
AcDbText
 10
1942.1648701422
 20
-15.5342995004
 30
0.0
 40
2.7
  1
50
 50
90.0
  7
BOX
100
AcDbText
  0
ENDBLK
  5
61C
100
AcDbEntity
  8
0
  6
CONTINUOUS
100
AcDbBlockEnd
  0
BLOCK
  5
61E
100
AcDbEntity
  8
0
100
AcDbBlockBegin
  2
*D24
 70
        65
 10
0.0
 20
0.0
 30
0.0
  3
*D24
  1

  0
POINT
  5
620
100
AcDbEntity
  8
DEFPOINTS
  6
CONTINUOUS
 62
         0
100
AcDbPoint
 10
1899.5365481946
 20
5.4157004996
 30
0.0
  0
POINT
  5
621
100
AcDbEntity
  8
DEFPOINTS
  6
CONTINUOUS
 62
         0
100
AcDbPoint
 10
1904.8052838506
 20
5.4157004996
 30
0.0
  0
POINT
  5
622
100
AcDbEntity
  8
DEFPOINTS
  6
CONTINUOUS
 62
         0
100
AcDbPoint
 10
1904.8052838506
 20
-31.0842995004
 30
0.0
  0
LINE
  5
623
100
AcDbEntity
  8
_Y__________
  6
CONTINUOUS
 62
         4
100
AcDbLine
 10
1903.4552838506
 20
5.4157004996
 30
0.0
 11
1898.8615481946
 21
5.4157004996
 31
0.0
  0
LINE
  5
624
100
AcDbEntity
  8
_Y__________
  6
CONTINUOUS
 62
         4
100
AcDbLine
 10
1903.4552838506
 20
-31.0842995004
 30
0.0
 11
1898.8615481946
 21
-31.0842995004
 31
0.0
  0
LINE
  5
625
100
AcDbEntity
  8
_Y__________
  6
CONTINUOUS
 62
         4
100
AcDbLine
 10
1899.5365481946
 20
5.4157004996
 30
0.0
 11
1899.5365481946
 21
-31.0842995004
 31
0.0
  0
SOLID
  5
626
100
AcDbEntity
  8
_Y__________
  6
CONTINUOUS
 62
         4
100
AcDbTrace
 10
1899.5365481946
 20
5.4157004996
 30
0.0
 11
1899.9415481946
 21
2.7157004996
 31
0.0
 12
1899.1315481946
 22
2.7157004996
 32
0.0
 13
1899.5365481946
 23
5.4157004996
 33
0.0
  0
SOLID
  5
627
100
AcDbEntity
  8
_Y__________
  6
CONTINUOUS
 62
         4
100
AcDbTrace
 10
1899.5365481946
 20
-31.0842995004
 30
0.0
 11
1899.1315481946
 21
-28.3842995004
 31
0.0
 12
1899.9415481946
 22
-28.3842995004
 32
0.0
 13
1899.5365481946
 23
-31.0842995004
 33
0.0
  0
TEXT
  5
629
100
AcDbEntity
  8
_Y__________
  6
CONTINUOUS
 62
         4
100
AcDbText
 10
1897.5115481946
 20
-18.2342995004
 30
0.0
 40
2.7
  1
36.5
 50
90.0
  7
BOX
100
AcDbText
  0
ENDBLK
  5
62A
100
AcDbEntity
  8
0
  6
CONTINUOUS
100
AcDbBlockEnd
  0
BLOCK
  5
62C
100
AcDbEntity
  8
0
100
AcDbBlockBegin
  2
*D25
 70
        65
 10
0.0
 20
0.0
 30
0.0
  3
*D25
  1

  0
POINT
  5
62E
100
AcDbEntity
  8
DEFPOINTS
  6
CONTINUOUS
 62
         0
100
AcDbPoint
 10
1850.136613284
 20
32.1657004996
 30
0.0
  0
POINT
  5
62F
100
AcDbEntity
  8
DEFPOINTS
  6
CONTINUOUS
 62
         0
100
AcDbPoint
 10
1861.3124428094
 20
32.1657004996
 30
0.0
  0
POINT
  5
630
100
AcDbEntity
  8
DEFPOINTS
  6
CONTINUOUS
 62
         0
100
AcDbPoint
 10
1861.3124428094
 20
-57.8342995004
 30
0.0
  0
LINE
  5
631
100
AcDbEntity
  8
_Y__________
  6
CONTINUOUS
 62
         4
100
AcDbLine
 10
1859.9624428094
 20
32.1657004996
 30
0.0
 11
1849.461613284
 21
32.1657004996
 31
0.0
  0
LINE
  5
632
100
AcDbEntity
  8
_Y__________
  6
CONTINUOUS
 62
         4
100
AcDbLine
 10
1859.9624428094
 20
-57.8342995004
 30
0.0
 11
1849.461613284
 21
-57.8342995004
 31
0.0
  0
LINE
  5
633
100
AcDbEntity
  8
_Y__________
  6
CONTINUOUS
 62
         4
100
AcDbLine
 10
1850.136613284
 20
32.1657004996
 30
0.0
 11
1850.136613284
 21
-57.8342995004
 31
0.0
  0
SOLID
  5
634
100
AcDbEntity
  8
_Y__________
  6
CONTINUOUS
 62
         4
100
AcDbTrace
 10
1850.136613284
 20
32.1657004996
 30
0.0
 11
1850.541613284
 21
29.4657004996
 31
0.0
 12
1849.731613284
 22
29.4657004996
 32
0.0
 13
1850.136613284
 23
32.1657004996
 33
0.0
  0
SOLID
  5
635
100
AcDbEntity
  8
_Y__________
  6
CONTINUOUS
 62
         4
100
AcDbTrace
 10
1850.136613284
 20
-57.8342995004
 30
0.0
 11
1849.731613284
 21
-55.1342995004
 31
0.0
 12
1850.541613284
 22
-55.1342995004
 32
0.0
 13
1850.136613284
 23
-57.8342995004
 33
0.0
  0
TEXT
  5
637
100
AcDbEntity
  8
_Y__________
  6
CONTINUOUS
 62
         4
100
AcDbText
 10
1848.111613284
 20
-15.5342995004
 30
0.0
 40
2.7
  1
90
 50
90.0
  7
BOX
100
AcDbText
  0
ENDBLK
  5
638
100
AcDbEntity
  8
0
  6
CONTINUOUS
100
AcDbBlockEnd
  0
BLOCK
  5
63A
100
AcDbEntity
  8
0
100
AcDbBlockBegin
  2
*D26
 70
        65
 10
0.0
 20
0.0
 30
0.0
  3
*D26
  1

  0
POINT
  5
63C
100
AcDbEntity
  8
DEFPOINTS
  6
CONTINUOUS
 62
         0
100
AcDbPoint
 10
1835.362079186
 20
-3.8342995004
 30
0.0
  0
POINT
  5
63D
100
AcDbEntity
  8
DEFPOINTS
  6
CONTINUOUS
 62
         0
100
AcDbPoint
 10
1817.1562904428
 20
-3.8342995004
 30
0.0
  0
POINT
  5
63E
100
AcDbEntity
  8
DEFPOINTS
  6
CONTINUOUS
 62
         0
100
AcDbPoint
 10
1817.1562904428
 20
-21.8342995004
 30
0.0
  0
LINE
  5
63F
100
AcDbEntity
  8
_Y__________
  6
CONTINUOUS
 62
         4
100
AcDbLine
 10
1818.5062904428
 20
-3.8342995004
 30
0.0
 11
1836.037079186
 21
-3.8342995004
 31
0.0
  0
LINE
  5
640
100
AcDbEntity
  8
_Y__________
  6
CONTINUOUS
 62
         4
100
AcDbLine
 10
1818.5062904428
 20
-21.8342995004
 30
0.0
 11
1836.037079186
 21
-21.8342995004
 31
0.0
  0
LINE
  5
641
100
AcDbEntity
  8
_Y__________
  6
CONTINUOUS
 62
         4
100
AcDbLine
 10
1835.362079186
 20
-3.8342995004
 30
0.0
 11
1835.362079186
 21
-21.8342995004
 31
0.0
  0
SOLID
  5
642
100
AcDbEntity
  8
_Y__________
  6
CONTINUOUS
 62
         4
100
AcDbTrace
 10
1835.362079186
 20
-3.8342995004
 30
0.0
 11
1835.767079186
 21
-6.5342995004
 31
0.0
 12
1834.957079186
 22
-6.5342995004
 32
0.0
 13
1835.362079186
 23
-3.8342995004
 33
0.0
  0
SOLID
  5
643
100
AcDbEntity
  8
_Y__________
  6
CONTINUOUS
 62
         4
100
AcDbTrace
 10
1835.362079186
 20
-21.8342995004
 30
0.0
 11
1834.957079186
 21
-19.1342995004
 31
0.0
 12
1835.767079186
 22
-19.1342995004
 32
0.0
 13
1835.362079186
 23
-21.8342995004
 33
0.0
  0
TEXT
  5
645
100
AcDbEntity
  8
_Y__________
  6
CONTINUOUS
 62
         4
100
AcDbText
 10
1833.337079186
 20
-15.5342995004
 30
0.0
 40
2.7
  1
18
 50
90.0
  7
BOX
100
AcDbText
  0
ENDBLK
  5
646
100
AcDbEntity
  8
0
  6
CONTINUOUS
100
AcDbBlockEnd
  0
BLOCK
  5
648
100
AcDbEntity
  8
0
100
AcDbBlockBegin
  2
*D27
 70
        65
 10
0.0
 20
0.0
 30
0.0
  3
*D27
  1

  0
POINT
  5
64A
100
AcDbEntity
  8
DEFPOINTS
  6
CONTINUOUS
 62
         0
100
AcDbPoint
 10
1763.6558758278
 20
8.2145289937
 30
0.0
  0
POINT
  5
64B
100
AcDbEntity
  8
DEFPOINTS
  6
CONTINUOUS
 62
         0
100
AcDbPoint
 10
1763.6558758278
 20
-7.8342995004
 30
0.0
  0
POINT
  5
64C
100
AcDbEntity
  8
DEFPOINTS
  6
CONTINUOUS
 62
         0
100
AcDbPoint
 10
1808.6562904428
 20
-9.8342995004
 30
0.0
  0
LINE
  5
64D
100
AcDbEntity
  8
_Y__________
  6
CONTINUOUS
 62
         4
100
AcDbLine
 10
1763.6558758278
 20
-6.4842995004
 30
0.0
 11
1763.6558758278
 21
8.8895289937
 31
0.0
  0
LINE
  5
64E
100
AcDbEntity
  8
_Y__________
  6
CONTINUOUS
 62
         4
100
AcDbLine
 10
1808.6562904428
 20
-8.4842995004
 30
0.0
 11
1808.6562904428
 21
8.8895289937
 31
0.0
  0
LINE
  5
64F
100
AcDbEntity
  8
_Y__________
  6
CONTINUOUS
 62
         4
100
AcDbLine
 10
1763.6558758278
 20
8.2145289937
 30
0.0
 11
1808.6562904428
 21
8.2145289937
 31
0.0
  0
SOLID
  5
650
100
AcDbEntity
  8
_Y__________
  6
CONTINUOUS
 62
         4
100
AcDbTrace
 10
1763.6558758278
 20
8.2145289937
 30
0.0
 11
1766.3558758278
 21
8.6195289937
 31
0.0
 12
1766.3558758278
 22
7.8095289937
 32
0.0
 13
1763.6558758278
 23
8.2145289937
 33
0.0
  0
SOLID
  5
651
100
AcDbEntity
  8
_Y__________
  6
CONTINUOUS
 62
         4
100
AcDbTrace
 10
1808.6562904428
 20
8.2145289937
 30
0.0
 11
1805.9562904428
 21
7.8095289937
 31
0.0
 12
1805.9562904428
 22
8.6195289937
 32
0.0
 13
1808.6562904428
 23
8.2145289937
 33
0.0
  0
TEXT
  5
653
100
AcDbEntity
  8
_Y__________
  6
CONTINUOUS
 62
         4
100
AcDbText
 10
1783.4560831353
 20
10.2395289937
 30
0.0
 40
2.7
  1
45
  7
BOX
100
AcDbText
  0
ENDBLK
  5
654
100
AcDbEntity
  8
0
  6
CONTINUOUS
100
AcDbBlockEnd
  0
BLOCK
  5
673
100
AcDbEntity
  8
0
100
AcDbBlockBegin
  2
*D28
 70
        65
 10
0.0
 20
0.0
 30
0.0
  3
*D28
  1

  0
POINT
  5
675
100
AcDbEntity
  8
DEFPOINTS
  6
CONTINUOUS
 62
         0
100
AcDbPoint
 10
1768.9799169706
 20
-155.5204810481
 30
0.0
  0
POINT
  5
676
100
AcDbEntity
  8
DEFPOINTS
  6
CONTINUOUS
 62
         0
100
AcDbPoint
 10
1768.9799169706
 20
-161.9444635289
 30
0.0
  0
POINT
  5
677
100
AcDbEntity
  8
DEFPOINTS
  6
CONTINUOUS
 62
         0
100
AcDbPoint
 10
1795.9799169707
 20
-161.9444635289
 30
0.0
  0
LINE
  5
678
100
AcDbEntity
  8
_Y__________
  6
CONTINUOUS
 62
         4
100
AcDbLine
 10
1768.9799169706
 20
-160.5944635289
 30
0.0
 11
1768.9799169706
 21
-154.8454810481
 31
0.0
  0
LINE
  5
679
100
AcDbEntity
  8
_Y__________
  6
CONTINUOUS
 62
         4
100
AcDbLine
 10
1795.9799169707
 20
-160.5944635289
 30
0.0
 11
1795.9799169707
 21
-154.8454810481
 31
0.0
  0
LINE
  5
67A
100
AcDbEntity
  8
_Y__________
  6
CONTINUOUS
 62
         4
100
AcDbLine
 10
1768.9799169706
 20
-155.5204810481
 30
0.0
 11
1795.9799169707
 21
-155.5204810481
 31
0.0
  0
SOLID
  5
67B
100
AcDbEntity
  8
_Y__________
  6
CONTINUOUS
 62
         4
100
AcDbTrace
 10
1768.9799169706
 20
-155.5204810481
 30
0.0
 11
1771.6799169706
 21
-155.1154810481
 31
0.0
 12
1771.6799169706
 22
-155.9254810481
 32
0.0
 13
1768.9799169706
 23
-155.5204810481
 33
0.0
  0
SOLID
  5
67C
100
AcDbEntity
  8
_Y__________
  6
CONTINUOUS
 62
         4
100
AcDbTrace
 10
1795.9799169707
 20
-155.5204810481
 30
0.0
 11
1793.2799169707
 21
-155.9254810481
 31
0.0
 12
1793.2799169707
 22
-155.1154810481
 32
0.0
 13
1795.9799169707
 23
-155.5204810481
 33
0.0
  0
TEXT
  5
67E
100
AcDbEntity
  8
_Y__________
  6
CONTINUOUS
 62
         4
100
AcDbText
 10
1779.7799169707
 20
-153.4954810481
 30
0.0
 40
2.7
  1
27
  7
BOX
100
AcDbText
  0
ENDBLK
  5
67F
100
AcDbEntity
  8
0
  6
CONTINUOUS
100
AcDbBlockEnd
  0
BLOCK
  5
681
100
AcDbEntity
  8
0
100
AcDbBlockBegin
  2
*D29
 70
        65
 10
0.0
 20
0.0
 30
0.0
  3
*D29
  1

  0
POINT
  5
683
100
AcDbEntity
  8
DEFPOINTS
  6
CONTINUOUS
 62
         0
100
AcDbPoint
 10
1808.4566710949
 20
-160.4444635289
 30
0.0
  0
POINT
  5
684
100
AcDbEntity
  8
DEFPOINTS
  6
CONTINUOUS
 62
         0
100
AcDbPoint
 10
1794.4799169707
 20
-160.4444635289
 30
0.0
  0
POINT
  5
685
100
AcDbEntity
  8
DEFPOINTS
  6
CONTINUOUS
 62
         0
100
AcDbPoint
 10
1791.4799169707
 20
-183.7444635289
 30
0.0
  0
LINE
  5
686
100
AcDbEntity
  8
_Y__________
  6
CONTINUOUS
 62
         4
100
AcDbLine
 10
1795.8299169707
 20
-160.4444635289
 30
0.0
 11
1809.1316710949
 21
-160.4444635289
 31
0.0
  0
LINE
  5
687
100
AcDbEntity
  8
_Y__________
  6
CONTINUOUS
 62
         4
100
AcDbLine
 10
1792.8299169707
 20
-183.7444635289
 30
0.0
 11
1809.1316710949
 21
-183.7444635289
 31
0.0
  0
LINE
  5
688
100
AcDbEntity
  8
_Y__________
  6
CONTINUOUS
 62
         4
100
AcDbLine
 10
1808.4566710949
 20
-160.4444635289
 30
0.0
 11
1808.4566710949
 21
-183.7444635289
 31
0.0
  0
SOLID
  5
689
100
AcDbEntity
  8
_Y__________
  6
CONTINUOUS
 62
         4
100
AcDbTrace
 10
1808.4566710949
 20
-160.4444635289
 30
0.0
 11
1808.8616710949
 21
-163.1444635289
 31
0.0
 12
1808.0516710949
 22
-163.1444635289
 32
0.0
 13
1808.4566710949
 23
-160.4444635289
 33
0.0
  0
SOLID
  5
68A
100
AcDbEntity
  8
_Y__________
  6
CONTINUOUS
 62
         4
100
AcDbTrace
 10
1808.4566710949
 20
-183.7444635289
 30
0.0
 11
1808.0516710949
 21
-181.0444635289
 31
0.0
 12
1808.8616710949
 22
-181.0444635289
 32
0.0
 13
1808.4566710949
 23
-183.7444635289
 33
0.0
  0
TEXT
  5
68C
100
AcDbEntity
  8
_Y__________
  6
CONTINUOUS
 62
         4
100
AcDbText
 10
1806.4316710949
 20
-177.4944635289
 30
0.0
 40
2.7
  1
23.3
 50
90.0
  7
BOX
100
AcDbText
  0
ENDBLK
  5
68D
100
AcDbEntity
  8
0
  6
CONTINUOUS
100
AcDbBlockEnd
  0
BLOCK
  5
6A5
100
AcDbEntity
  8
0
100
AcDbBlockBegin
  2
*D30
 70
        65
 10
0.0
 20
0.0
 30
0.0
  3
*D30
  1

  0
POINT
  5
6A7
100
AcDbEntity
  8
DEFPOINTS
  6
CONTINUOUS
 62
         0
100
AcDbPoint
 10
1835.620928375
 20
-151.4587475361
 30
0.0
  0
POINT
  5
6A8
100
AcDbEntity
  8
DEFPOINTS
  6
CONTINUOUS
 62
         0
100
AcDbPoint
 10
1835.620928375
 20
-156.8044635289
 30
0.0
  0
POINT
  5
6A9
100
AcDbEntity
  8
DEFPOINTS
  6
CONTINUOUS
 62
         0
100
AcDbPoint
 10
1853.120928375
 20
-156.8044635289
 30
0.0
  0
LINE
  5
6AA
100
AcDbEntity
  8
_Y__________
  6
CONTINUOUS
 62
         4
100
AcDbLine
 10
1835.620928375
 20
-155.4544635289
 30
0.0
 11
1835.620928375
 21
-150.7837475361
 31
0.0
  0
LINE
  5
6AB
100
AcDbEntity
  8
_Y__________
  6
CONTINUOUS
 62
         4
100
AcDbLine
 10
1853.120928375
 20
-155.4544635289
 30
0.0
 11
1853.120928375
 21
-150.7837475361
 31
0.0
  0
LINE
  5
6AC
100
AcDbEntity
  8
_Y__________
  6
CONTINUOUS
 62
         4
100
AcDbLine
 10
1835.620928375
 20
-151.4587475361
 30
0.0
 11
1853.120928375
 21
-151.4587475361
 31
0.0
  0
SOLID
  5
6AD
100
AcDbEntity
  8
_Y__________
  6
CONTINUOUS
 62
         4
100
AcDbTrace
 10
1835.620928375
 20
-151.4587475361
 30
0.0
 11
1838.320928375
 21
-151.0537475361
 31
0.0
 12
1838.320928375
 22
-151.8637475361
 32
0.0
 13
1835.620928375
 23
-151.4587475361
 33
0.0
  0
SOLID
  5
6AE
100
AcDbEntity
  8
_Y__________
  6
CONTINUOUS
 62
         4
100
AcDbTrace
 10
1853.120928375
 20
-151.4587475361
 30
0.0
 11
1850.420928375
 21
-151.8637475361
 31
0.0
 12
1850.420928375
 22
-151.0537475361
 32
0.0
 13
1853.120928375
 23
-151.4587475361
 33
0.0
  0
TEXT
  5
6B0
100
AcDbEntity
  8
_Y__________
  6
CONTINUOUS
 62
         4
100
AcDbText
 10
1838.970928375
 20
-149.4337475361
 30
0.0
 40
2.7
  1
17.5
  7
BOX
100
AcDbText
  0
ENDBLK
  5
6B1
100
AcDbEntity
  8
0
  6
CONTINUOUS
100
AcDbBlockEnd
  0
BLOCK
  5
6B3
100
AcDbEntity
  8
0
100
AcDbBlockBegin
  2
*D31
 70
        65
 10
0.0
 20
0.0
 30
0.0
  3
*D31
  1

  0
POINT
  5
6B5
100
AcDbEntity
  8
DEFPOINTS
  6
CONTINUOUS
 62
         0
100
AcDbPoint
 10
1864.6014264057
 20
-155.5544635289
 30
0.0
  0
POINT
  5
6B6
100
AcDbEntity
  8
DEFPOINTS
  6
CONTINUOUS
 62
         0
100
AcDbPoint
 10
1849.370928375
 20
-155.5544635289
 30
0.0
  0
POINT
  5
6B7
100
AcDbEntity
  8
DEFPOINTS
  6
CONTINUOUS
 62
         0
100
AcDbPoint
 10
1846.870928375
 20
-188.6344635289
 30
0.0
  0
LINE
  5
6B8
100
AcDbEntity
  8
_Y__________
  6
CONTINUOUS
 62
         4
100
AcDbLine
 10
1850.720928375
 20
-155.5544635289
 30
0.0
 11
1865.2764264057
 21
-155.5544635289
 31
0.0
  0
LINE
  5
6B9
100
AcDbEntity
  8
_Y__________
  6
CONTINUOUS
 62
         4
100
AcDbLine
 10
1848.220928375
 20
-188.6344635289
 30
0.0
 11
1865.2764264057
 21
-188.6344635289
 31
0.0
  0
LINE
  5
6BA
100
AcDbEntity
  8
_Y__________
  6
CONTINUOUS
 62
         4
100
AcDbLine
 10
1864.6014264057
 20
-155.5544635289
 30
0.0
 11
1864.6014264057
 21
-188.6344635289
 31
0.0
  0
SOLID
  5
6BB
100
AcDbEntity
  8
_Y__________
  6
CONTINUOUS
 62
         4
100
AcDbTrace
 10
1864.6014264057
 20
-155.5544635289
 30
0.0
 11
1865.0064264057
 21
-158.2544635289
 31
0.0
 12
1864.1964264057
 22
-158.2544635289
 32
0.0
 13
1864.6014264057
 23
-155.5544635289
 33
0.0
  0
SOLID
  5
6BC
100
AcDbEntity
  8
_Y__________
  6
CONTINUOUS
 62
         4
100
AcDbTrace
 10
1864.6014264057
 20
-188.6344635289
 30
0.0
 11
1864.1964264057
 21
-185.9344635289
 31
0.0
 12
1865.0064264057
 22
-185.9344635289
 32
0.0
 13
1864.6014264057
 23
-188.6344635289
 33
0.0
  0
TEXT
  5
6BE
100
AcDbEntity
  8
_Y__________
  6
CONTINUOUS
 62
         4
100
AcDbText
 10
1862.5764264057
 20
-178.8444635289
 30
0.0
 40
2.7
  1
33.08
 50
90.0
  7
BOX
100
AcDbText
  0
ENDBLK
  5
6BF
100
AcDbEntity
  8
0
  6
CONTINUOUS
100
AcDbBlockEnd
  0
BLOCK
  5
6D2
100
AcDbEntity
  8
0
100
AcDbBlockBegin
  2
*D32
 70
        65
 10
0.0
 20
0.0
 30
0.0
  3
*D32
  1

  0
POINT
  5
6D4
100
AcDbEntity
  8
DEFPOINTS
  6
CONTINUOUS
 62
         0
100
AcDbPoint
 10
1908.9108930437
 20
-156.6225602434
 30
0.0
  0
POINT
  5
6D5
100
AcDbEntity
  8
DEFPOINTS
  6
CONTINUOUS
 62
         0
100
AcDbPoint
 10
1908.9108930437
 20
-160.4144635289
 30
0.0
  0
POINT
  5
6D6
100
AcDbEntity
  8
DEFPOINTS
  6
CONTINUOUS
 62
         0
100
AcDbPoint
 10
1896.9108930436
 20
-160.4144635289
 30
0.0
  0
LINE
  5
6D7
100
AcDbEntity
  8
_Y__________
  6
CONTINUOUS
 62
         4
100
AcDbLine
 10
1908.9108930437
 20
-159.0644635289
 30
0.0
 11
1908.9108930437
 21
-155.9475602434
 31
0.0
  0
LINE
  5
6D8
100
AcDbEntity
  8
_Y__________
  6
CONTINUOUS
 62
         4
100
AcDbLine
 10
1896.9108930436
 20
-159.0644635289
 30
0.0
 11
1896.9108930436
 21
-155.9475602434
 31
0.0
  0
LINE
  5
6D9
100
AcDbEntity
  8
_Y__________
  6
CONTINUOUS
 62
         4
100
AcDbLine
 10
1908.9108930437
 20
-156.6225602434
 30
0.0
 11
1896.9108930436
 21
-156.6225602434
 31
0.0
  0
SOLID
  5
6DA
100
AcDbEntity
  8
_Y__________
  6
CONTINUOUS
 62
         4
100
AcDbTrace
 10
1908.9108930437
 20
-156.6225602434
 30
0.0
 11
1906.2108930437
 21
-157.0275602434
 31
0.0
 12
1906.2108930437
 22
-156.2175602434
 32
0.0
 13
1908.9108930437
 23
-156.6225602434
 33
0.0
  0
SOLID
  5
6DB
100
AcDbEntity
  8
_Y__________
  6
CONTINUOUS
 62
         4
100
AcDbTrace
 10
1896.9108930436
 20
-156.6225602434
 30
0.0
 11
1899.6108930436
 21
-156.2175602434
 31
0.0
 12
1899.6108930436
 22
-157.0275602434
 32
0.0
 13
1896.9108930436
 23
-156.6225602434
 33
0.0
  0
TEXT
  5
6DD
100
AcDbEntity
  8
_Y__________
  6
CONTINUOUS
 62
         4
100
AcDbText
 10
1900.2108930436
 20
-154.5975602434
 30
0.0
 40
2.7
  1
12
  7
BOX
100
AcDbText
  0
ENDBLK
  5
6DE
100
AcDbEntity
  8
0
  6
CONTINUOUS
100
AcDbBlockEnd
  0
BLOCK
  5
6E0
100
AcDbEntity
  8
0
100
AcDbBlockBegin
  2
*D33
 70
        65
 10
0.0
 20
0.0
 30
0.0
  3
*D33
  1

  0
POINT
  5
6E2
100
AcDbEntity
  8
DEFPOINTS
  6
CONTINUOUS
 62
         0
100
AcDbPoint
 10
1921.0386023171
 20
-159.4144635289
 30
0.0
  0
POINT
  5
6E3
100
AcDbEntity
  8
DEFPOINTS
  6
CONTINUOUS
 62
         0
100
AcDbPoint
 10
1907.9108930437
 20
-159.4144635289
 30
0.0
  0
POINT
  5
6E4
100
AcDbEntity
  8
DEFPOINTS
  6
CONTINUOUS
 62
         0
100
AcDbPoint
 10
1905.9108930436
 20
-184.7744635289
 30
0.0
  0
LINE
  5
6E5
100
AcDbEntity
  8
_Y__________
  6
CONTINUOUS
 62
         4
100
AcDbLine
 10
1909.2608930437
 20
-159.4144635289
 30
0.0
 11
1921.7136023171
 21
-159.4144635289
 31
0.0
  0
LINE
  5
6E6
100
AcDbEntity
  8
_Y__________
  6
CONTINUOUS
 62
         4
100
AcDbLine
 10
1907.2608930436
 20
-184.7744635289
 30
0.0
 11
1921.7136023171
 21
-184.7744635289
 31
0.0
  0
LINE
  5
6E7
100
AcDbEntity
  8
_Y__________
  6
CONTINUOUS
 62
         4
100
AcDbLine
 10
1921.0386023171
 20
-159.4144635289
 30
0.0
 11
1921.0386023171
 21
-184.7744635289
 31
0.0
  0
SOLID
  5
6E8
100
AcDbEntity
  8
_Y__________
  6
CONTINUOUS
 62
         4
100
AcDbTrace
 10
1921.0386023171
 20
-159.4144635289
 30
0.0
 11
1921.4436023171
 21
-162.1144635289
 31
0.0
 12
1920.6336023171
 22
-162.1144635289
 32
0.0
 13
1921.0386023171
 23
-159.4144635289
 33
0.0
  0
SOLID
  5
6E9
100
AcDbEntity
  8
_Y__________
  6
CONTINUOUS
 62
         4
100
AcDbTrace
 10
1921.0386023171
 20
-184.7744635289
 30
0.0
 11
1920.6336023171
 21
-182.0744635289
 31
0.0
 12
1921.4436023171
 22
-182.0744635289
 32
0.0
 13
1921.0386023171
 23
-184.7744635289
 33
0.0
  0
TEXT
  5
6EB
100
AcDbEntity
  8
_Y__________
  6
CONTINUOUS
 62
         4
100
AcDbText
 10
1919.0136023171
 20
-178.8444635289
 30
0.0
 40
2.7
  1
25.36
 50
90.0
  7
BOX
100
AcDbText
  0
ENDBLK
  5
6EC
100
AcDbEntity
  8
0
  6
CONTINUOUS
100
AcDbBlockEnd
  0
BLOCK
  5
6F2
100
AcDbEntity
  8
0
100
AcDbBlockBegin
  2
*D34
 70
        65
 10
0.0
 20
0.0
 30
0.0
  3
*D34
  1

  0
POINT
  5
6F4
100
AcDbEntity
  8
DEFPOINTS
  6
CONTINUOUS
 62
         0
100
AcDbPoint
 10
1976.745976781
 20
-174.3343984772
 30
0.0
  0
POINT
  5
6F5
100
AcDbEntity
  8
DEFPOINTS
  6
CONTINUOUS
 62
         0
100
AcDbPoint
 10
1984.2400495528
 20
-169.8545285806
 30
0.0
  0
LINE
  5
6F6
100
AcDbEntity
  8
_Y__________
  6
CONTINUOUS
 62
         4
100
AcDbLine
 10
1984.2400495528
 20
-169.8545285806
 30
0.0
 11
1980.4930131669
 21
-172.0944635289
 31
0.0
  0
SOLID
  5
6F7
100
AcDbEntity
  8
_Y__________
  6
CONTINUOUS
 62
         4
100
AcDbTrace
 10
1984.2400495528
 20
-169.8545285806
 30
0.0
 11
1982.1303657622
 21
-171.5875200127
 31
0.0
 12
1981.7147553377
 22
-170.8922733118
 32
0.0
 13
1984.2400495528
 23
-169.8545285806
 33
0.0
  0
LINE
  5
6F8
100
AcDbEntity
  8
_Y__________
  6
CONTINUOUS
 62
         4
100
AcDbLine
 10
1980.4930131669
 20
-172.0944635289
 30
0.0
 11
1976.745976781
 21
-174.3343984772
 31
0.0
  0
SOLID
  5
6F9
100
AcDbEntity
  8
_Y__________
  6
CONTINUOUS
 62
         4
100
AcDbTrace
 10
1976.745976781
 20
-174.3343984772
 30
0.0
 11
1978.8556605716
 21
-172.6014070452
 31
0.0
 12
1979.2712709961
 22
-173.296653746
 32
0.0
 13
1976.745976781
 23
-174.3343984772
 33
0.0
  0
LINE
  5
6FA
100
AcDbEntity
  8
_Y__________
  6
CONTINUOUS
 62
         4
100
AcDbLine
 10
1984.2400495528
 20
-169.8545285806
 30
0.0
 11
2004.0457191313
 21
-158.0149287223
 31
0.0
  0
TEXT
  5
6FC
100
AcDbEntity
  8
_Y__________
  6
CONTINUOUS
 62
         4
100
AcDbText
 10
1986.0889586614
 20
-166.7673186391
 30
0.0
 40
2.7
  1
崷8.731
 50
30.8704932711
  7
BOX
100
AcDbText
  0
ENDBLK
  5
6FD
100
AcDbEntity
  8
0
  6
CONTINUOUS
100
AcDbBlockEnd
  0
BLOCK
  5
6FF
100
AcDbEntity
  8
0
100
AcDbBlockBegin
  2
*D35
 70
        65
 10
0.0
 20
0.0
 30
0.0
  3
*D35
  1

  0
POINT
  5
701
100
AcDbEntity
  8
DEFPOINTS
  6
CONTINUOUS
 62
         0
100
AcDbPoint
 10
2035.5369308574
 20
-176.5584337469
 30
0.0
  0
POINT
  5
702
100
AcDbEntity
  8
DEFPOINTS
  6
CONTINUOUS
 62
         0
100
AcDbPoint
 10
2042.1527016796
 20
-167.6304933109
 30
0.0
  0
LINE
  5
703
100
AcDbEntity
  8
_Y__________
  6
CONTINUOUS
 62
         4
100
AcDbLine
 10
2042.1527016796
 20
-167.6304933109
 30
0.0
 11
2038.8448162685
 21
-172.0944635289
 31
0.0
  0
SOLID
  5
704
100
AcDbEntity
  8
_Y__________
  6
CONTINUOUS
 62
         4
100
AcDbTrace
 10
2042.1527016796
 20
-167.6304933109
 30
0.0
 11
2040.8705953672
 21
-170.040934848
 31
0.0
 12
2040.219800573
 22
-169.5586837352
 32
0.0
 13
2042.1527016796
 23
-167.6304933109
 33
0.0
  0
LINE
  5
705
100
AcDbEntity
  8
_Y__________
  6
CONTINUOUS
 62
         4
100
AcDbLine
 10
2038.8448162685
 20
-172.0944635289
 30
0.0
 11
2035.5369308574
 21
-176.5584337469
 31
0.0
  0
SOLID
  5
706
100
AcDbEntity
  8
_Y__________
  6
CONTINUOUS
 62
         4
100
AcDbTrace
 10
2035.5369308574
 20
-176.5584337469
 30
0.0
 11
2036.8190371698
 21
-174.1479922098
 31
0.0
 12
2037.469831964
 22
-174.6302433227
 32
0.0
 13
2035.5369308574
 23
-176.5584337469
 33
0.0
  0
LINE
  5
707
100
AcDbEntity
  8
_Y__________
  6
CONTINUOUS
 62
         4
100
AcDbLine
 10
2042.1527016796
 20
-167.6304933109
 30
0.0
 11
2058.1927188613
 21
-145.9845926536
 31
0.0
  0
TEXT
  5
709
100
AcDbEntity
  8
_Y__________
  6
CONTINUOUS
 62
         4
100
AcDbText
 10
2043.4722070755
 20
-162.9657216085
 30
0.0
 40
2.7
  1
崷11.112
 50
53.4608625573
  7
BOX
100
AcDbText
  0
ENDBLK
  5
70A
100
AcDbEntity
  8
0
  6
CONTINUOUS
100
AcDbBlockEnd
  0
BLOCK
  5
710
100
AcDbEntity
  8
0
100
AcDbBlockBegin
  2
*D36
 70
        65
 10
0.0
 20
0.0
 30
0.0
  3
*D36
  1

  0
POINT
  5
712
100
AcDbEntity
  8
DEFPOINTS
  6
CONTINUOUS
 62
         0
100
AcDbPoint
 10
1698.7786999334
 20
187.8745442204
 30
0.0
  0
POINT
  5
713
100
AcDbEntity
  8
DEFPOINTS
  6
CONTINUOUS
 62
         0
100
AcDbPoint
 10
1698.7786999334
 20
150.1369443847
 30
0.0
  0
POINT
  5
714
100
AcDbEntity
  8
DEFPOINTS
  6
CONTINUOUS
 62
         0
100
AcDbPoint
 10
1618.7786999334
 20
160.2524144385
 30
0.0
  0
LINE
  5
715
100
AcDbEntity
  8
L1_160
  6
CONTINUOUS
 62
         4
100
AcDbLine
 10
1698.7786999334
 20
151.8869443847
 30
0.0
 11
1698.7786999334
 21
188.7495442204
 31
0.0
  0
LINE
  5
716
100
AcDbEntity
  8
L1_160
  6
CONTINUOUS
 62
         4
100
AcDbLine
 10
1618.7786999334
 20
162.0024144385
 30
0.0
 11
1618.7786999334
 21
188.7495442204
 31
0.0
  0
LINE
  5
717
100
AcDbEntity
  8
L1_160
  6
CONTINUOUS
 62
         4
100
AcDbLine
 10
1698.7786999334
 20
187.8745442204
 30
0.0
 11
1618.7786999334
 21
187.8745442204
 31
0.0
  0
SOLID
  5
718
100
AcDbEntity
  8
L1_160
  6
CONTINUOUS
 62
         4
100
AcDbTrace
 10
1698.7786999334
 20
187.8745442204
 30
0.0
 11
1695.2786999334
 21
187.3495442204
 31
0.0
 12
1695.2786999334
 22
188.3995442204
 32
0.0
 13
1698.7786999334
 23
187.8745442204
 33
0.0
  0
SOLID
  5
719
100
AcDbEntity
  8
L1_160
  6
CONTINUOUS
 62
         4
100
AcDbTrace
 10
1618.7786999334
 20
187.8745442204
 30
0.0
 11
1622.2786999334
 21
188.3995442204
 31
0.0
 12
1622.2786999334
 22
187.3495442204
 32
0.0
 13
1618.7786999334
 23
187.8745442204
 33
0.0
  0
TEXT
  5
71B
100
AcDbEntity
  8
L1_160
  6
CONTINUOUS
 62
         4
100
AcDbText
 10
1649.8674710159
 20
191.9345442204
 30
0.0
 40
3.5
  1
80
  7
BOX
100
AcDbText
  0
ENDBLK
  5
71C
100
AcDbEntity
  8
0
  6
CONTINUOUS
100
AcDbBlockEnd
  0
BLOCK
  5
71E
100
AcDbEntity
  8
0
100
AcDbBlockBegin
  2
*D37
 70
        65
 10
0.0
 20
0.0
 30
0.0
  3
*D37
  1

  0
POINT
  5
720
100
AcDbEntity
  8
DEFPOINTS
  6
CONTINUOUS
 62
         0
100
AcDbPoint
 10
1698.7786999334
 20
178.1561068691
 30
0.0
  0
POINT
  5
721
100
AcDbEntity
  8
DEFPOINTS
  6
CONTINUOUS
 62
         0
100
AcDbPoint
 10
1698.7786999334
 20
150.1369443847
 30
0.0
  0
POINT
  5
722
100
AcDbEntity
  8
DEFPOINTS
  6
CONTINUOUS
 62
         0
100
AcDbPoint
 10
1675.2786999334
 20
156.2524144385
 30
0.0
  0
LINE
  5
723
100
AcDbEntity
  8
L1_160
  6
CONTINUOUS
 62
         4
100
AcDbLine
 10
1698.7786999334
 20
151.8869443847
 30
0.0
 11
1698.7786999334
 21
179.0311068691
 31
0.0
  0
LINE
  5
724
100
AcDbEntity
  8
L1_160
  6
CONTINUOUS
 62
         4
100
AcDbLine
 10
1675.2786999334
 20
158.0024144385
 30
0.0
 11
1675.2786999334
 21
179.0311068691
 31
0.0
  0
LINE
  5
725
100
AcDbEntity
  8
L1_160
  6
CONTINUOUS
 62
         4
100
AcDbLine
 10
1698.7786999334
 20
178.1561068691
 30
0.0
 11
1675.2786999334
 21
178.1561068691
 31
0.0
  0
SOLID
  5
726
100
AcDbEntity
  8
L1_160
  6
CONTINUOUS
 62
         4
100
AcDbTrace
 10
1698.7786999334
 20
178.1561068691
 30
0.0
 11
1695.2786999334
 21
177.6311068691
 31
0.0
 12
1695.2786999334
 22
178.6811068691
 32
0.0
 13
1698.7786999334
 23
178.1561068691
 33
0.0
  0
SOLID
  5
727
100
AcDbEntity
  8
L1_160
  6
CONTINUOUS
 62
         4
100
AcDbTrace
 10
1675.2786999334
 20
178.1561068691
 30
0.0
 11
1678.7786999334
 21
178.6811068691
 31
0.0
 12
1678.7786999334
 22
177.6311068691
 32
0.0
 13
1675.2786999334
 23
178.1561068691
 33
0.0
  0
TEXT
  5
729
100
AcDbEntity
  8
L1_160
  6
CONTINUOUS
 62
         4
100
AcDbText
 10
1672.4178235774
 20
182.2161068691
 30
0.0
 40
3.5
  1
23.5
  7
BOX
100
AcDbText
  0
ENDBLK
  5
72A
100
AcDbEntity
  8
0
  6
CONTINUOUS
100
AcDbBlockEnd
  0
BLOCK
  5
72C
100
AcDbEntity
  8
0
100
AcDbBlockBegin
  2
*D38
 70
        65
 10
0.0
 20
0.0
 30
0.0
  3
*D38
  1

  0
POINT
  5
72E
100
AcDbEntity
  8
DEFPOINTS
  6
CONTINUOUS
 62
         0
100
AcDbPoint
 10
1675.2786999334
 20
168.6857017202
 30
0.0
  0
POINT
  5
72F
100
AcDbEntity
  8
DEFPOINTS
  6
CONTINUOUS
 62
         0
100
AcDbPoint
 10
1675.2786999334
 20
156.2524144385
 30
0.0
  0
POINT
  5
730
100
AcDbEntity
  8
DEFPOINTS
  6
CONTINUOUS
 62
         0
100
AcDbPoint
 10
1677.7786999334
 20
156.2524144385
 30
0.0
  0
LINE
  5
731
100
AcDbEntity
  8
L1_160
  6
CONTINUOUS
 62
         4
100
AcDbLine
 10
1675.2786999334
 20
158.0024144385
 30
0.0
 11
1675.2786999334
 21
169.5607017202
 31
0.0
  0
LINE
  5
732
100
AcDbEntity
  8
L1_160
  6
CONTINUOUS
 62
         4
100
AcDbLine
 10
1677.7786999334
 20
158.0024144385
 30
0.0
 11
1677.7786999334
 21
169.5607017202
 31
0.0
  0
LINE
  5
733
100
AcDbEntity
  8
L1_160
  6
CONTINUOUS
 62
         4
100
AcDbLine
 10
1675.2786999334
 20
168.6857017202
 30
0.0
 11
1649.0946297207
 21
168.6857017202
 31
0.0
  0
SOLID
  5
734
100
AcDbEntity
  8
L1_160
  6
CONTINUOUS
 62
         4
100
AcDbTrace
 10
1675.2786999334
 20
168.6857017202
 30
0.0
 11
1671.7786999334
 21
168.1607017202
 31
0.0
 12
1671.7786999334
 22
169.2107017202
 32
0.0
 13
1675.2786999334
 23
168.6857017202
 33
0.0
  0
LINE
  5
735
100
AcDbEntity
  8
L1_160
  6
CONTINUOUS
 62
         4
100
AcDbLine
 10
1677.7786999334
 20
168.6857017202
 30
0.0
 11
1684.7786999334
 21
168.6857017202
 31
0.0
  0
SOLID
  5
736
100
AcDbEntity
  8
L1_160
  6
CONTINUOUS
 62
         4
100
AcDbTrace
 10
1677.7786999334
 20
168.6857017202
 30
0.0
 11
1681.2786999334
 21
169.2107017202
 31
0.0
 12
1681.2786999334
 22
168.1607017202
 32
0.0
 13
1677.7786999334
 23
168.6857017202
 33
0.0
  0
LINE
  5
737
100
AcDbEntity
  8
L1_160
  6
CONTINUOUS
 62
         4
100
AcDbLine
 10
1675.2786999334
 20
168.6857017202
 30
0.0
 11
1677.7786999334
 21
168.6857017202
 31
0.0
  0
TEXT
  5
739
100
AcDbEntity
  8
L1_160
  6
CONTINUOUS
 62
         4
100
AcDbText
 10
1650.8446297207
 20
172.7457017202
 30
0.0
 40
3.5
  1
2.5
  7
BOX
100
AcDbText
  0
ENDBLK
  5
73A
100
AcDbEntity
  8
0
  6
CONTINUOUS
100
AcDbBlockEnd
  0
BLOCK
  5
73C
100
AcDbEntity
  8
0
100
AcDbBlockBegin
  2
*D39
 70
        65
 10
0.0
 20
0.0
 30
0.0
  3
*D39
  1

  0
POINT
  5
73E
100
AcDbEntity
  8
DEFPOINTS
  6
CONTINUOUS
 62
         0
100
AcDbPoint
 10
1641.3907724494
 20
118.1524144385
 30
0.0
  0
POINT
  5
73F
100
AcDbEntity
  8
DEFPOINTS
  6
CONTINUOUS
 62
         0
100
AcDbPoint
 10
1652.9826999334
 20
118.1524144385
 30
0.0
  0
POINT
  5
740
100
AcDbEntity
  8
DEFPOINTS
  6
CONTINUOUS
 62
         0
100
AcDbPoint
 10
1652.9826999334
 20
106.3524144385
 30
0.0
  0
LINE
  5
741
100
AcDbEntity
  8
L1_160
  6
CONTINUOUS
 62
         4
100
AcDbLine
 10
1651.2326999334
 20
118.1524144385
 30
0.0
 11
1640.5157724494
 21
118.1524144385
 31
0.0
  0
LINE
  5
742
100
AcDbEntity
  8
L1_160
  6
CONTINUOUS
 62
         4
100
AcDbLine
 10
1651.2326999334
 20
106.3524144385
 30
0.0
 11
1640.5157724494
 21
106.3524144385
 31
0.0
  0
LINE
  5
743
100
AcDbEntity
  8
L1_160
  6
CONTINUOUS
 62
         4
100
AcDbLine
 10
1641.3907724494
 20
118.1524144385
 30
0.0
 11
1641.3907724494
 21
106.3524144385
 31
0.0
  0
SOLID
  5
744
100
AcDbEntity
  8
L1_160
  6
CONTINUOUS
 62
         4
100
AcDbTrace
 10
1641.3907724494
 20
118.1524144385
 30
0.0
 11
1641.9157724494
 21
114.6524144385
 31
0.0
 12
1640.8657724494
 22
114.6524144385
 32
0.0
 13
1641.3907724494
 23
118.1524144385
 33
0.0
  0
LINE
  5
745
100
AcDbEntity
  8
L1_160
  6
CONTINUOUS
 62
         4
100
AcDbLine
 10
1641.3907724494
 20
118.1524144385
 30
0.0
 11
1641.3907724494
 21
142.8761664908
 31
0.0
  0
SOLID
  5
746
100
AcDbEntity
  8
L1_160
  6
CONTINUOUS
 62
         4
100
AcDbTrace
 10
1641.3907724494
 20
106.3524144385
 30
0.0
 11
1640.8657724494
 21
109.8524144385
 31
0.0
 12
1641.9157724494
 22
109.8524144385
 32
0.0
 13
1641.3907724494
 23
106.3524144385
 33
0.0
  0
TEXT
  5
748
100
AcDbEntity
  8
L1_160
  6
CONTINUOUS
 62
         4
100
AcDbText
 10
1637.3307724494
 20
122.4594998242
 30
0.0
 40
3.5
  1
11.15
 50
90.0
  7
BOX
100
AcDbText
  0
ENDBLK
  5
749
100
AcDbEntity
  8
0
  6
CONTINUOUS
100
AcDbBlockEnd
  0
BLOCK
  5
74B
100
AcDbEntity
  8
0
100
AcDbBlockBegin
  2
*D40
 70
        65
 10
0.0
 20
0.0
 30
0.0
  3
*D40
  1

  0
POINT
  5
74D
100
AcDbEntity
  8
DEFPOINTS
  6
CONTINUOUS
 62
         0
100
AcDbPoint
 10
1698.7786999334
 20
41.8550754175
 30
0.0
  0
POINT
  5
74E
100
AcDbEntity
  8
DEFPOINTS
  6
CONTINUOUS
 62
         0
100
AcDbPoint
 10
1698.7786999334
 20
74.3678844924
 30
0.0
  0
POINT
  5
74F
100
AcDbEntity
  8
DEFPOINTS
  6
CONTINUOUS
 62
         0
100
AcDbPoint
 10
1629.0746999334
 20
102.6939148875
 30
0.0
  0
LINE
  5
750
100
AcDbEntity
  8
L1_160
  6
CONTINUOUS
 62
         4
100
AcDbLine
 10
1698.7786999334
 20
72.6178844924
 30
0.0
 11
1698.7786999334
 21
40.9800754175
 31
0.0
  0
LINE
  5
751
100
AcDbEntity
  8
L1_160
  6
CONTINUOUS
 62
         4
100
AcDbLine
 10
1629.0746999334
 20
100.9439148875
 30
0.0
 11
1629.0746999334
 21
40.9800754175
 31
0.0
  0
LINE
  5
752
100
AcDbEntity
  8
L1_160
  6
CONTINUOUS
 62
         4
100
AcDbLine
 10
1698.7786999334
 20
41.8550754175
 30
0.0
 11
1629.0746999334
 21
41.8550754175
 31
0.0
  0
SOLID
  5
753
100
AcDbEntity
  8
L1_160
  6
CONTINUOUS
 62
         4
100
AcDbTrace
 10
1698.7786999334
 20
41.8550754175
 30
0.0
 11
1695.2786999334
 21
41.3300754175
 31
0.0
 12
1695.2786999334
 22
42.3800754175
 32
0.0
 13
1698.7786999334
 23
41.8550754175
 33
0.0
  0
SOLID
  5
754
100
AcDbEntity
  8
L1_160
  6
CONTINUOUS
 62
         4
100
AcDbTrace
 10
1629.0746999334
 20
41.8550754175
 30
0.0
 11
1632.5746999334
 21
42.3800754175
 31
0.0
 12
1632.5746999334
 22
41.3300754175
 32
0.0
 13
1629.0746999334
 23
41.8550754175
 33
0.0
  0
TEXT
  5
756
100
AcDbEntity
  8
L1_160
  6
CONTINUOUS
 62
         4
100
AcDbText
 10
1655.7065860048
 20
45.9150754175
 30
0.0
 40
3.5
  1
69.7
  7
BOX
100
AcDbText
  0
ENDBLK
  5
757
100
AcDbEntity
  8
0
  6
CONTINUOUS
100
AcDbBlockEnd
  0
BLOCK
  5
759
100
AcDbEntity
  8
0
100
AcDbBlockBegin
  2
*D41
 70
        65
 10
0.0
 20
0.0
 30
0.0
  3
*D41
  1

  0
POINT
  5
75B
100
AcDbEntity
  8
DEFPOINTS
  6
CONTINUOUS
 62
         0
100
AcDbPoint
 10
1698.7786999334
 20
52.3371724798
 30
0.0
  0
POINT
  5
75C
100
AcDbEntity
  8
DEFPOINTS
  6
CONTINUOUS
 62
         0
100
AcDbPoint
 10
1698.7786999334
 20
74.3678844924
 30
0.0
  0
POINT
  5
75D
100
AcDbEntity
  8
DEFPOINTS
  6
CONTINUOUS
 62
         0
100
AcDbPoint
 10
1652.9826999334
 20
102.6939148875
 30
0.0
  0
LINE
  5
75E
100
AcDbEntity
  8
L1_160
  6
CONTINUOUS
 62
         4
100
AcDbLine
 10
1698.7786999334
 20
72.6178844924
 30
0.0
 11
1698.7786999334
 21
51.4621724798
 31
0.0
  0
LINE
  5
75F
100
AcDbEntity
  8
L1_160
  6
CONTINUOUS
 62
         4
100
AcDbLine
 10
1652.9826999334
 20
100.9439148875
 30
0.0
 11
1652.9826999334
 21
51.4621724798
 31
0.0
  0
LINE
  5
760
100
AcDbEntity
  8
L1_160
  6
CONTINUOUS
 62
         4
100
AcDbLine
 10
1698.7786999334
 20
52.3371724798
 30
0.0
 11
1652.9826999334
 21
52.3371724798
 31
0.0
  0
SOLID
  5
761
100
AcDbEntity
  8
L1_160
  6
CONTINUOUS
 62
         4
100
AcDbTrace
 10
1698.7786999334
 20
52.3371724798
 30
0.0
 11
1695.2786999334
 21
51.8121724798
 31
0.0
 12
1695.2786999334
 22
52.8621724798
 32
0.0
 13
1698.7786999334
 23
52.3371724798
 33
0.0
  0
SOLID
  5
762
100
AcDbEntity
  8
L1_160
  6
CONTINUOUS
 62
         4
100
AcDbTrace
 10
1652.9826999334
 20
52.3371724798
 30
0.0
 11
1656.4826999334
 21
52.8621724798
 31
0.0
 12
1656.4826999334
 22
51.8121724798
 32
0.0
 13
1652.9826999334
 23
52.3371724798
 33
0.0
  0
TEXT
  5
764
100
AcDbEntity
  8
L1_160
  6
CONTINUOUS
 62
         4
100
AcDbText
 10
1664.236347463
 20
56.3971724798
 30
0.0
 40
3.5
  1
45.8
  7
BOX
100
AcDbText
  0
ENDBLK
  5
765
100
AcDbEntity
  8
0
  6
CONTINUOUS
100
AcDbBlockEnd
  0
BLOCK
  5
767
100
AcDbEntity
  8
0
100
AcDbBlockBegin
  2
*D42
 70
        65
 10
0.0
 20
0.0
 30
0.0
  3
*D42
  1

  0
POINT
  5
769
100
AcDbEntity
  8
DEFPOINTS
  6
CONTINUOUS
 62
         0
100
AcDbPoint
 10
1732.1177513816
 20
156.2524144385
 30
0.0
  0
POINT
  5
76A
100
AcDbEntity
  8
DEFPOINTS
  6
CONTINUOUS
 62
         0
100
AcDbPoint
 10
1687.8504967031
 20
156.2524144385
 30
0.0
  0
POINT
  5
76B
100
AcDbEntity
  8
DEFPOINTS
  6
CONTINUOUS
 62
         0
100
AcDbPoint
 10
1687.8504967031
 20
68.2524144385
 30
0.0
  0
LINE
  5
76C
100
AcDbEntity
  8
L1_160
  6
CONTINUOUS
 62
         4
100
AcDbLine
 10
1689.6004967031
 20
156.2524144385
 30
0.0
 11
1732.9927513816
 21
156.2524144385
 31
0.0
  0
LINE
  5
76D
100
AcDbEntity
  8
L1_160
  6
CONTINUOUS
 62
         4
100
AcDbLine
 10
1689.6004967031
 20
68.2524144385
 30
0.0
 11
1732.9927513816
 21
68.2524144385
 31
0.0
  0
LINE
  5
76E
100
AcDbEntity
  8
L1_160
  6
CONTINUOUS
 62
         4
100
AcDbLine
 10
1732.1177513816
 20
156.2524144385
 30
0.0
 11
1732.1177513816
 21
68.2524144385
 31
0.0
  0
SOLID
  5
76F
100
AcDbEntity
  8
L1_160
  6
CONTINUOUS
 62
         4
100
AcDbTrace
 10
1732.1177513816
 20
156.2524144385
 30
0.0
 11
1732.6427513816
 21
152.7524144385
 31
0.0
 12
1731.5927513816
 22
152.7524144385
 32
0.0
 13
1732.1177513816
 23
156.2524144385
 33
0.0
  0
SOLID
  5
770
100
AcDbEntity
  8
L1_160
  6
CONTINUOUS
 62
         4
100
AcDbTrace
 10
1732.1177513816
 20
68.2524144385
 30
0.0
 11
1731.5927513816
 21
71.7524144385
 31
0.0
 12
1732.6427513816
 22
71.7524144385
 32
0.0
 13
1732.1177513816
 23
68.2524144385
 33
0.0
  0
TEXT
  5
772
100
AcDbEntity
  8
L1_160
  6
CONTINUOUS
 62
         4
100
AcDbText
 10
1728.0577513816
 20
98.0055215768
 30
0.0
 40
3.5
  1
崷88
 50
90.0
  7
BOX
100
AcDbText
  0
ENDBLK
  5
773
100
AcDbEntity
  8
0
  6
CONTINUOUS
100
AcDbBlockEnd
  0
BLOCK
  5
775
100
AcDbEntity
  8
0
100
AcDbBlockBegin
  2
*D43
 70
        65
 10
0.0
 20
0.0
 30
0.0
  3
*D43
  1

  0
POINT
  5
777
100
AcDbEntity
  8
DEFPOINTS
  6
CONTINUOUS
 62
         0
100
AcDbPoint
 10
1722.0351968833
 20
155.0024144385
 30
0.0
  0
POINT
  5
778
100
AcDbEntity
  8
DEFPOINTS
  6
CONTINUOUS
 62
         0
100
AcDbPoint
 10
1677.7786999334
 20
155.0024144385
 30
0.0
  0
POINT
  5
779
100
AcDbEntity
  8
DEFPOINTS
  6
CONTINUOUS
 62
         0
100
AcDbPoint
 10
1677.7786999334
 20
69.5024144385
 30
0.0
  0
LINE
  5
77A
100
AcDbEntity
  8
L1_160
  6
CONTINUOUS
 62
         4
100
AcDbLine
 10
1679.5286999334
 20
155.0024144385
 30
0.0
 11
1722.9101968833
 21
155.0024144385
 31
0.0
  0
LINE
  5
77B
100
AcDbEntity
  8
L1_160
  6
CONTINUOUS
 62
         4
100
AcDbLine
 10
1679.5286999334
 20
69.5024144385
 30
0.0
 11
1722.9101968833
 21
69.5024144385
 31
0.0
  0
LINE
  5
77C
100
AcDbEntity
  8
L1_160
  6
CONTINUOUS
 62
         4
100
AcDbLine
 10
1722.0351968833
 20
155.0024144385
 30
0.0
 11
1722.0351968833
 21
69.5024144385
 31
0.0
  0
SOLID
  5
77D
100
AcDbEntity
  8
L1_160
  6
CONTINUOUS
 62
         4
100
AcDbTrace
 10
1722.0351968833
 20
155.0024144385
 30
0.0
 11
1722.5601968833
 21
151.5024144385
 31
0.0
 12
1721.5101968833
 22
151.5024144385
 32
0.0
 13
1722.0351968833
 23
155.0024144385
 33
0.0
  0
SOLID
  5
77E
100
AcDbEntity
  8
L1_160
  6
CONTINUOUS
 62
         4
100
AcDbTrace
 10
1722.0351968833
 20
69.5024144385
 30
0.0
 11
1721.5101968833
 21
73.0024144385
 31
0.0
 12
1722.5601968833
 22
73.0024144385
 32
0.0
 13
1722.0351968833
 23
69.5024144385
 33
0.0
  0
TEXT
  5
780
100
AcDbEntity
  8
L1_160
  6
CONTINUOUS
 62
         4
100
AcDbText
 10
1717.9751968833
 20
96.1601758878
 30
0.0
 40
3.5
  1
崷85.5
 50
90.0
  7
BOX
100
AcDbText
  0
ENDBLK
  5
781
100
AcDbEntity
  8
0
  6
CONTINUOUS
100
AcDbBlockEnd
  0
BLOCK
  5
783
100
AcDbEntity
  8
0
100
AcDbBlockBegin
  2
*D44
 70
        65
 10
0.0
 20
0.0
 30
0.0
  3
*D44
  1

  0
POINT
  5
785
100
AcDbEntity
  8
DEFPOINTS
  6
CONTINUOUS
 62
         0
100
AcDbPoint
 10
1623.1746999334
 20
-67.3552290616
 30
0.0
  0
POINT
  5
786
100
AcDbEntity
  8
DEFPOINTS
  6
CONTINUOUS
 62
         0
100
AcDbPoint
 10
1623.1746999334
 20
-82.7400166132
 30
0.0
  0
POINT
  5
787
100
AcDbEntity
  8
DEFPOINTS
  6
CONTINUOUS
 62
         0
100
AcDbPoint
 10
1658.8826999334
 20
-82.7400166132
 30
0.0
  0
LINE
  5
788
100
AcDbEntity
  8
L1_160
  6
CONTINUOUS
 62
         4
100
AcDbLine
 10
1623.1746999334
 20
-80.9900166132
 30
0.0
 11
1623.1746999334
 21
-66.4802290616
 31
0.0
  0
LINE
  5
789
100
AcDbEntity
  8
L1_160
  6
CONTINUOUS
 62
         4
100
AcDbLine
 10
1658.8826999334
 20
-80.9900166132
 30
0.0
 11
1658.8826999334
 21
-66.4802290616
 31
0.0
  0
LINE
  5
78A
100
AcDbEntity
  8
L1_160
  6
CONTINUOUS
 62
         4
100
AcDbLine
 10
1623.1746999334
 20
-67.3552290616
 30
0.0
 11
1658.8826999334
 21
-67.3552290616
 31
0.0
  0
SOLID
  5
78B
100
AcDbEntity
  8
L1_160
  6
CONTINUOUS
 62
         4
100
AcDbTrace
 10
1623.1746999334
 20
-67.3552290616
 30
0.0
 11
1626.6746999334
 21
-66.8302290616
 31
0.0
 12
1626.6746999334
 22
-67.8802290616
 32
0.0
 13
1623.1746999334
 23
-67.3552290616
 33
0.0
  0
SOLID
  5
78C
100
AcDbEntity
  8
L1_160
  6
CONTINUOUS
 62
         4
100
AcDbTrace
 10
1658.8826999334
 20
-67.3552290616
 30
0.0
 11
1655.3826999334
 21
-67.8802290616
 31
0.0
 12
1655.3826999334
 22
-66.8302290616
 32
0.0
 13
1658.8826999334
 23
-67.3552290616
 33
0.0
  0
TEXT
  5
78E
100
AcDbEntity
  8
L1_160
  6
CONTINUOUS
 62
         4
100
AcDbText
 10
1633.7370332667
 20
-63.2952290616
 30
0.0
 40
3.5
  1
35.1
  7
BOX
100
AcDbText
  0
ENDBLK
  5
78F
100
AcDbEntity
  8
0
  6
CONTINUOUS
100
AcDbBlockEnd
  0
BLOCK
  5
791
100
AcDbEntity
  8
0
100
AcDbBlockBegin
  2
*D45
 70
        65
 10
0.0
 20
0.0
 30
0.0
  3
*D45
  1

  0
POINT
  5
793
100
AcDbEntity
  8
DEFPOINTS
  6
CONTINUOUS
 62
         0
100
AcDbPoint
 10
1711.519595889
 20
-101.2400166132
 30
0.0
  0
POINT
  5
794
100
AcDbEntity
  8
DEFPOINTS
  6
CONTINUOUS
 62
         0
100
AcDbPoint
 10
1606.7830611229
 20
-101.2400166132
 30
0.0
  0
POINT
  5
795
100
AcDbEntity
  8
DEFPOINTS
  6
CONTINUOUS
 62
         0
100
AcDbPoint
 10
1606.7830611229
 20
-152.2400166132
 30
0.0
  0
LINE
  5
796
100
AcDbEntity
  8
L1_160
  6
CONTINUOUS
 62
         4
100
AcDbLine
 10
1608.5330611229
 20
-101.2400166132
 30
0.0
 11
1712.394595889
 21
-101.2400166132
 31
0.0
  0
LINE
  5
797
100
AcDbEntity
  8
L1_160
  6
CONTINUOUS
 62
         4
100
AcDbLine
 10
1608.5330611229
 20
-152.2400166132
 30
0.0
 11
1712.394595889
 21
-152.2400166132
 31
0.0
  0
LINE
  5
798
100
AcDbEntity
  8
L1_160
  6
CONTINUOUS
 62
         4
100
AcDbLine
 10
1711.519595889
 20
-101.2400166132
 30
0.0
 11
1711.519595889
 21
-152.2400166132
 31
0.0
  0
SOLID
  5
799
100
AcDbEntity
  8
L1_160
  6
CONTINUOUS
 62
         4
100
AcDbTrace
 10
1711.519595889
 20
-101.2400166132
 30
0.0
 11
1712.044595889
 21
-104.7400166132
 31
0.0
 12
1710.994595889
 22
-104.7400166132
 32
0.0
 13
1711.519595889
 23
-101.2400166132
 33
0.0
  0
SOLID
  5
79A
100
AcDbEntity
  8
L1_160
  6
CONTINUOUS
 62
         4
100
AcDbTrace
 10
1711.519595889
 20
-152.2400166132
 30
0.0
 11
1710.994595889
 21
-148.7400166132
 31
0.0
 12
1712.044595889
 22
-148.7400166132
 32
0.0
 13
1711.519595889
 23
-152.2400166132
 33
0.0
  0
TEXT
  5
79C
100
AcDbEntity
  8
L1_160
  6
CONTINUOUS
 62
         4
100
AcDbText
 10
1707.459595889
 20
-137.7922201606
 30
0.0
 40
3.5
  1
崷51
 50
90.0
  7
BOX
100
AcDbText
  0
ENDBLK
  5
79D
100
AcDbEntity
  8
0
  6
CONTINUOUS
100
AcDbBlockEnd
  0
BLOCK
  5
79F
100
AcDbEntity
  8
0
100
AcDbBlockBegin
  2
*D46
 70
        65
 10
0.0
 20
0.0
 30
0.0
  3
*D46
  1

  0
POINT
  5
7A1
100
AcDbEntity
  8
DEFPOINTS
  6
CONTINUOUS
 62
         0
100
AcDbPoint
 10
1726.8886891731
 20
-89.2400166132
 30
0.0
  0
POINT
  5
7A2
100
AcDbEntity
  8
DEFPOINTS
  6
CONTINUOUS
 62
         0
100
AcDbPoint
 10
1698.5786999334
 20
-89.2400166132
 30
0.0
  0
POINT
  5
7A3
100
AcDbEntity
  8
DEFPOINTS
  6
CONTINUOUS
 62
         0
100
AcDbPoint
 10
1698.5786999334
 20
-164.2400166132
 30
0.0
  0
LINE
  5
7A4
100
AcDbEntity
  8
L1_160
  6
CONTINUOUS
 62
         4
100
AcDbLine
 10
1700.3286999334
 20
-89.2400166132
 30
0.0
 11
1727.7636891731
 21
-89.2400166132
 31
0.0
  0
LINE
  5
7A5
100
AcDbEntity
  8
L1_160
  6
CONTINUOUS
 62
         4
100
AcDbLine
 10
1700.3286999334
 20
-164.2400166132
 30
0.0
 11
1727.7636891731
 21
-164.2400166132
 31
0.0
  0
LINE
  5
7A6
100
AcDbEntity
  8
L1_160
  6
CONTINUOUS
 62
         4
100
AcDbLine
 10
1726.8886891731
 20
-89.2400166132
 30
0.0
 11
1726.8886891731
 21
-164.2400166132
 31
0.0
  0
SOLID
  5
7A7
100
AcDbEntity
  8
L1_160
  6
CONTINUOUS
 62
         4
100
AcDbTrace
 10
1726.8886891731
 20
-89.2400166132
 30
0.0
 11
1727.4136891731
 21
-92.7400166132
 31
0.0
 12
1726.3636891731
 22
-92.7400166132
 32
0.0
 13
1726.8886891731
 23
-89.2400166132
 33
0.0
  0
SOLID
  5
7A8
100
AcDbEntity
  8
L1_160
  6
CONTINUOUS
 62
         4
100
AcDbTrace
 10
1726.8886891731
 20
-164.2400166132
 30
0.0
 11
1726.3636891731
 21
-160.7400166132
 31
0.0
 12
1727.4136891731
 22
-160.7400166132
 32
0.0
 13
1726.8886891731
 23
-164.2400166132
 33
0.0
  0
TEXT
  5
7AA
100
AcDbEntity
  8
L1_160
  6
CONTINUOUS
 62
         4
100
AcDbText
 10
1722.8286891731
 20
-139.1263428415
 30
0.0
 40
3.5
  1
崷75
 50
90.0
  7
BOX
100
AcDbText
  0
ENDBLK
  5
7AB
100
AcDbEntity
  8
0
  6
CONTINUOUS
100
AcDbBlockEnd
  0
BLOCK
  5
7AD
100
AcDbEntity
  8
0
100
AcDbBlockBegin
  2
*D47
 70
        65
 10
0.0
 20
0.0
 30
0.0
  3
*D47
  1

  0
POINT
  5
7AF
100
AcDbEntity
  8
DEFPOINTS
  6
CONTINUOUS
 62
         0
100
AcDbPoint
 10
1698.7786999334
 20
-214.0242489311
 30
0.0
  0
POINT
  5
7B0
100
AcDbEntity
  8
DEFPOINTS
  6
CONTINUOUS
 62
         0
100
AcDbPoint
 10
1698.7786999334
 20
-164.6245465594
 30
0.0
  0
POINT
  5
7B1
100
AcDbEntity
  8
DEFPOINTS
  6
CONTINUOUS
 62
         0
100
AcDbPoint
 10
1564.7806999334
 20
-152.7400166132
 30
0.0
  0
LINE
  5
7B2
100
AcDbEntity
  8
L1_160
  6
CONTINUOUS
 62
         4
100
AcDbLine
 10
1698.7786999334
 20
-166.3745465594
 30
0.0
 11
1698.7786999334
 21
-214.8992489311
 31
0.0
  0
LINE
  5
7B3
100
AcDbEntity
  8
L1_160
  6
CONTINUOUS
 62
         4
100
AcDbLine
 10
1564.7806999334
 20
-154.4900166132
 30
0.0
 11
1564.7806999334
 21
-214.8992489311
 31
0.0
  0
LINE
  5
7B4
100
AcDbEntity
  8
L1_160
  6
CONTINUOUS
 62
         4
100
AcDbLine
 10
1698.7786999334
 20
-214.0242489311
 30
0.0
 11
1564.7806999334
 21
-214.0242489311
 31
0.0
  0
SOLID
  5
7B5
100
AcDbEntity
  8
L1_160
  6
CONTINUOUS
 62
         4
100
AcDbTrace
 10
1698.7786999334
 20
-214.0242489311
 30
0.0
 11
1695.2786999334
 21
-214.5492489311
 31
0.0
 12
1695.2786999334
 22
-213.4992489311
 32
0.0
 13
1698.7786999334
 23
-214.0242489311
 33
0.0
  0
SOLID
  5
7B6
100
AcDbEntity
  8
L1_160
  6
CONTINUOUS
 62
         4
100
AcDbTrace
 10
1564.7806999334
 20
-214.0242489311
 30
0.0
 11
1568.2806999334
 21
-213.4992489311
 31
0.0
 12
1568.2806999334
 22
-214.5492489311
 32
0.0
 13
1564.7806999334
 23
-214.0242489311
 33
0.0
  0
TEXT
  5
7B8
100
AcDbEntity
  8
L1_160
  6
CONTINUOUS
 62
         4
100
AcDbText
 10
1623.4174523009
 20
-209.9642489311
 30
0.0
 40
3.5
  1
134
  7
BOX
100
AcDbText
  0
ENDBLK
  5
7B9
100
AcDbEntity
  8
0
  6
CONTINUOUS
100
AcDbBlockEnd
  0
BLOCK
  5
7BB
100
AcDbEntity
  8
0
100
AcDbBlockBegin
  2
*D48
 70
        65
 10
0.0
 20
0.0
 30
0.0
  3
*D48
  1

  0
POINT
  5
7BD
100
AcDbEntity
  8
DEFPOINTS
  6
CONTINUOUS
 62
         0
100
AcDbPoint
 10
1698.7786999334
 20
-203.4301974275
 30
0.0
  0
POINT
  5
7BE
100
AcDbEntity
  8
DEFPOINTS
  6
CONTINUOUS
 62
         0
100
AcDbPoint
 10
1698.7786999334
 20
-164.6245465594
 30
0.0
  0
POINT
  5
7BF
100
AcDbEntity
  8
DEFPOINTS
  6
CONTINUOUS
 62
         0
100
AcDbPoint
 10
1607.7830611229
 20
-164.7400166132
 30
0.0
  0
LINE
  5
7C0
100
AcDbEntity
  8
L1_160
  6
CONTINUOUS
 62
         4
100
AcDbLine
 10
1698.7786999334
 20
-166.3745465594
 30
0.0
 11
1698.7786999334
 21
-204.3051974275
 31
0.0
  0
LINE
  5
7C1
100
AcDbEntity
  8
L1_160
  6
CONTINUOUS
 62
         4
100
AcDbLine
 10
1607.7830611229
 20
-166.4900166132
 30
0.0
 11
1607.7830611229
 21
-204.3051974275
 31
0.0
  0
LINE
  5
7C2
100
AcDbEntity
  8
L1_160
  6
CONTINUOUS
 62
         4
100
AcDbLine
 10
1698.7786999334
 20
-203.4301974275
 30
0.0
 11
1607.7830611229
 21
-203.4301974275
 31
0.0
  0
SOLID
  5
7C3
100
AcDbEntity
  8
L1_160
  6
CONTINUOUS
 62
         4
100
AcDbTrace
 10
1698.7786999334
 20
-203.4301974275
 30
0.0
 11
1695.2786999334
 21
-203.9551974275
 31
0.0
 12
1695.2786999334
 22
-202.9051974275
 32
0.0
 13
1698.7786999334
 23
-203.4301974275
 33
0.0
  0
SOLID
  5
7C4
100
AcDbEntity
  8
L1_160
  6
CONTINUOUS
 62
         4
100
AcDbTrace
 10
1607.7830611229
 20
-203.4301974275
 30
0.0
 11
1611.2830611229
 21
-202.9051974275
 31
0.0
 12
1611.2830611229
 22
-203.9551974275
 32
0.0
 13
1607.7830611229
 23
-203.4301974275
 33
0.0
  0
TEXT
  5
7C6
100
AcDbEntity
  8
L1_160
  6
CONTINUOUS
 62
         4
100
AcDbText
 10
1644.0490023225
 20
-199.3701974275
 30
0.0
 40
3.5
  1
91
  7
BOX
100
AcDbText
  0
ENDBLK
  5
7C7
100
AcDbEntity
  8
0
  6
CONTINUOUS
100
AcDbBlockEnd
  0
ENDSEC
  0
SECTION
  2
ENTITIES
  0
INSERT
  5
AE
100
AcDbEntity
  8
0
  6
CONTINUOUS
100
AcDbBlockReference
  2
*X0
 10
0.0
 20
0.0
 30
0.0
  0
LINE
  5
AF
100
AcDbEntity
  8
L1_160
  6
CONTINUOUS
 62
         7
100
AcDbLine
 10
1697.0786999334
 20
-89.2400166132
 30
0.0
 11
1612.7830611229
 21
-89.2400166132
 31
0.0
  0
ARC
  5
B0
100
AcDbEntity
  8
L1_160
  6
CONTINUOUS
 62
         7
100
AcDbCircle
 10
1697.0786999334
 20
-87.5400166132
 30
0.0
 40
1.7
100
AcDbArc
 50
270.0
 51
360.0
  0
LINE
  5
B1
100
AcDbEntity
  8
L1_160
  6
CONTINUOUS
 62
         4
100
AcDbLine
 10
1697.0786999334
 20
-164.2400166132
 30
0.0
 11
1697.0786999334
 21
-89.2400166132
 31
0.0
  0
LINE
  5
B2
100
AcDbEntity
  8
L1_160
  6
CONTINUOUS
 62
         7
100
AcDbLine
 10
1697.0786999334
 20
-164.2400166132
 30
0.0
 11
1612.7830611229
 21
-164.2400166132
 31
0.0
  0
ARC
  5
B3
100
AcDbEntity
  8
L1_160
  6
CONTINUOUS
 62
         7
100
AcDbCircle
 10
1697.0786999334
 20
-165.9400166132
 30
0.0
 40
1.7
100
AcDbArc
 50
0.0
 51
90.0
  0
INSERT
  5
C3
100
AcDbEntity
  8
0
  6
CONTINUOUS
100
AcDbBlockReference
  2
CKCOLL402099
 10
0.0
 20
0.0
 30
0.0
  0
LINE
  5
C4
100
AcDbEntity
  8
_Y__________
  6
CONTINUOUS
 62
         7
100
AcDbLine
 10
1476.4786999334
 20
-137.1363580766
 30
0.0
 11
1482.4810304759
 21
-126.7400166132
 31
0.0
  0
LINE
  5
C5
100
AcDbEntity
  8
_Y__________
  6
CONTINUOUS
 62
         7
100
AcDbLine
 10
1476.4786999334
 20
-116.3436751498
 30
0.0
 11
1482.4810304759
 21
-126.7400166132
 31
0.0
  0
LINE
  5
C6
100
AcDbEntity
  8
_Y__________
  6
CONTINUOUS
 62
         7
100
AcDbLine
 10
1476.4786999334
 20
-137.1363580766
 30
0.0
 11
1430.4480438949
 21
-137.1363580766
 31
0.0
  0
LINE
  5
C7
100
AcDbEntity
  8
_Y__________
  6
CONTINUOUS
 62
         7
100
AcDbLine
 10
1476.4786999334
 20
-116.3436751498
 30
0.0
 11
1430.4480438949
 21
-116.3436751498
 31
0.0
  0
LINE
  5
C8
100
AcDbEntity
  8
_Y__________
  6
CONTINUOUS
 62
         7
100
AcDbLine
 10
1476.4786999334
 20
-116.3436751498
 30
0.0
 11
1476.4786999334
 21
-137.1363580766
 31
0.0
  0
LINE
  5
C9
100
AcDbEntity
  8
_Y__________
  6
CONTINUOUS
 62
         7
100
AcDbLine
 10
1558.3306999334
 20
-161.6650166132
 30
0.0
 11
1557.3306999334
 21
-161.6650166132
 31
0.0
  0
ARC
  5
CA
100
AcDbEntity
  8
_Y__________
  6
CONTINUOUS
 62
         7
100
AcDbCircle
 10
1558.3306999334
 20
-162.1650166132
 30
0.0
 40
0.5
100
AcDbArc
 50
0.0
 51
90.0
  0
LINE
  5
CB
100
AcDbEntity
  8
_Y__________
  6
CONTINUOUS
 62
         7
100
AcDbLine
 10
1558.3306999334
 20
-91.8150166132
 30
0.0
 11
1557.3306999334
 21
-91.8150166132
 31
0.0
  0
ARC
  5
CC
100
AcDbEntity
  8
_Y__________
  6
CONTINUOUS
 62
         7
100
AcDbCircle
 10
1558.3306999334
 20
-91.3150166132
 30
0.0
 40
0.5
100
AcDbArc
 50
270.0
 51
360.0
  0
LINE
  5
CD
100
AcDbEntity
  8
_Y__________
  6
CONTINUOUS
 62
         7
100
AcDbLine
 10
1542.8786999334
 20
98.4024144385
 30
0.0
 11
1538.4149703322
 21
98.4024144385
 31
0.0
  0
LINE
  5
CE
100
AcDbEntity
  8
_Y__________
  6
CONTINUOUS
 62
         7
100
AcDbLine
 10
1531.3424295346
 20
98.4024144385
 30
0.0
 11
1526.9786999334
 21
98.4024144385
 31
0.0
  0
LINE
  5
CF
100
AcDbEntity
  8
_Y__________
  6
CONTINUOUS
 62
         7
100
AcDbLine
 10
1526.9786999334
 20
98.4024144385
 30
0.0
 11
1527.9987940983
 21
99.4225086035
 31
0.0
  0
LINE
  5
D0
100
AcDbEntity
  8
_Y__________
  6
CONTINUOUS
 62
         7
100
AcDbLine
 10
1531.3424295346
 20
98.4024144385
 30
0.0
 11
1533.0036999334
 21
99.4225086035
 31
0.0
  0
LINE
  5
D1
100
AcDbEntity
  8
_Y__________
  6
CONTINUOUS
 62
         7
100
AcDbLine
 10
1541.7586057685
 20
99.4225086035
 30
0.0
 11
1527.9987940983
 21
99.4225086035
 31
0.0
  0
LINE
  5
D2
100
AcDbEntity
  8
_Y__________
  6
CONTINUOUS
 62
         7
100
AcDbLine
 10
1541.7586057685
 20
99.4225086035
 30
0.0
 11
1527.9987940983
 21
99.4225086035
 31
0.0
  0
LINE
  5
D3
100
AcDbEntity
  8
_Y__________
  6
CONTINUOUS
 62
         7
100
AcDbLine
 10
1536.7536999334
 20
99.4225086035
 30
0.0
 11
1538.4149703322
 21
98.4024144385
 31
0.0
  0
LINE
  5
D4
100
AcDbEntity
  8
_Y__________
  6
CONTINUOUS
 62
         7
100
AcDbLine
 10
1542.7786999334
 20
98.4024144385
 30
0.0
 11
1541.7586057685
 21
99.4225086035
 31
0.0
  0
LINE
  5
D5
100
AcDbEntity
  8
_Y__________
  6
CONTINUOUS
 62
         7
100
AcDbLine
 10
1538.4149703322
 20
98.4024144385
 30
0.0
 11
1538.4149703322
 21
63.5024144385
 31
0.0
  0
LINE
  5
D6
100
AcDbEntity
  8
_Y__________
  6
CONTINUOUS
 62
         7
100
AcDbLine
 10
1536.7536999334
 20
99.4225086035
 30
0.0
 11
1536.7536999334
 21
66.3798039001
 31
0.0
  0
LINE
  5
D7
100
AcDbEntity
  8
_Y__________
  6
CONTINUOUS
 62
         7
100
AcDbLine
 10
1533.0036999334
 20
99.4225086035
 30
0.0
 11
1533.0036999334
 21
66.3798039001
 31
0.0
  0
LINE
  5
D8
100
AcDbEntity
  8
_Y__________
  6
CONTINUOUS
 62
         7
100
AcDbLine
 10
1531.3424295346
 20
98.4024144385
 30
0.0
 11
1531.3424295346
 21
63.5024144385
 31
0.0
  0
LINE
  5
D9
100
AcDbEntity
  8
_Y__________
  6
CONTINUOUS
 62
         7
100
AcDbLine
 10
1542.8786999334
 20
126.1024144385
 30
0.0
 11
1538.4149703322
 21
126.1024144385
 31
0.0
  0
LINE
  5
DA
100
AcDbEntity
  8
_Y__________
  6
CONTINUOUS
 62
         7
100
AcDbLine
 10
1531.3424295346
 20
126.1024144385
 30
0.0
 11
1533.0036999334
 21
125.0823202736
 31
0.0
  0
LINE
  5
DB
100
AcDbEntity
  8
_Y__________
  6
CONTINUOUS
 62
         7
100
AcDbLine
 10
1526.9786999334
 20
126.1024144385
 30
0.0
 11
1527.9987940983
 21
125.0823202736
 31
0.0
  0
LINE
  5
DC
100
AcDbEntity
  8
_Y__________
  6
CONTINUOUS
 62
         7
100
AcDbLine
 10
1531.3424295346
 20
126.1024144385
 30
0.0
 11
1526.9786999334
 21
126.1024144385
 31
0.0
  0
LINE
  5
DD
100
AcDbEntity
  8
_Y__________
  6
CONTINUOUS
 62
         7
100
AcDbLine
 10
1541.7586057685
 20
125.0823202736
 30
0.0
 11
1527.9987940983
 21
125.0823202736
 31
0.0
  0
LINE
  5
DE
100
AcDbEntity
  8
_Y__________
  6
CONTINUOUS
 62
         7
100
AcDbLine
 10
1541.7586057685
 20
125.0823202736
 30
0.0
 11
1527.9987940983
 21
125.0823202736
 31
0.0
  0
LINE
  5
DF
100
AcDbEntity
  8
_Y__________
  6
CONTINUOUS
 62
         7
100
AcDbLine
 10
1536.7536999334
 20
125.0823202736
 30
0.0
 11
1538.4149703322
 21
126.1024144385
 31
0.0
  0
LINE
  5
E0
100
AcDbEntity
  8
_Y__________
  6
CONTINUOUS
 62
         7
100
AcDbLine
 10
1542.7786999334
 20
126.1024144385
 30
0.0
 11
1541.7586057685
 21
125.0823202736
 31
0.0
  0
LINE
  5
E1
100
AcDbEntity
  8
_Y__________
  6
CONTINUOUS
 62
         7
100
AcDbLine
 10
1538.4149703322
 20
161.0024144385
 30
0.0
 11
1538.4149703322
 21
126.1024144385
 31
0.0
  0
LINE
  5
E2
100
AcDbEntity
  8
_Y__________
  6
CONTINUOUS
 62
         7
100
AcDbLine
 10
1536.7536999334
 20
158.125024977
 30
0.0
 11
1536.7536999334
 21
125.0823202736
 31
0.0
  0
LINE
  5
E3
100
AcDbEntity
  8
_Y__________
  6
CONTINUOUS
 62
         7
100
AcDbLine
 10
1533.0036999334
 20
158.125024977
 30
0.0
 11
1533.0036999334
 21
125.0823202736
 31
0.0
  0
LINE
  5
E4
100
AcDbEntity
  8
_Y__________
  6
CONTINUOUS
 62
         7
100
AcDbLine
 10
1531.3424295346
 20
161.0024144385
 30
0.0
 11
1531.3424295346
 21
126.1024144385
 31
0.0
  0
ARC
  5
E5
100
AcDbEntity
  8
_Y__________
  6
DASHED
 62
         2
100
AcDbCircle
 10
1895.8340594905
 20
112.2524144385
 30
0.0
 40
45.625
100
AcDbArc
 50
197.6716498685
 51
343.6416615206
  0
ARC
  5
E6
100
AcDbEntity
  8
_Y__________
  6
CONTINUOUS
 62
         7
100
AcDbCircle
 10
1895.8340594905
 20
112.2524144385
 30
0.0
 40
48.75
100
AcDbArc
 50
16.5052120024
 51
163.4947879976
  0
ARC
  5
E7
100
AcDbEntity
  8
_Y__________
  6
DASHED
 62
         2
100
AcDbCircle
 10
1895.8340594905
 20
112.2524144385
 30
0.0
 40
45.625
100
AcDbArc
 50
16.3583384794
 51
163.6416615206
  0
ARC
  5
E8
100
AcDbEntity
  8
_Y__________
  6
CONTINUOUS
 62
         7
100
AcDbCircle
 10
1895.8340594905
 20
112.2524144385
 30
0.0
 40
48.75
100
AcDbArc
 50
196.5052120024
 51
343.4947879976
  0
LINE
  5
E9
100
AcDbEntity
  8
_Y__________
  6
CENTER
 62
         1
100
AcDbLine
 10
1841.0840594905
 20
112.2524144385
 30
0.0
 11
1950.5840594905
 21
112.2524144385
 31
0.0
  0
LINE
  5
EA
100
AcDbEntity
  8
_Y__________
  6
CENTER
 62
         1
100
AcDbLine
 10
1895.8340594905
 20
57.5024144385
 30
0.0
 11
1895.8340594905
 21
164.4170373134
 31
0.0
  0
LINE
  5
EB
100
AcDbEntity
  8
_Y__________
  6
DASHED
 62
         2
100
AcDbLine
 10
1931.3340594905
 20
124.6024144385
 30
0.0
 11
1931.3340594905
 21
99.9024144385
 31
0.0
  0
LINE
  5
EC
100
AcDbEntity
  8
_Y__________
  6
DASHED
 62
         2
100
AcDbLine
 10
1941.5752618713
 20
125.1024144385
 30
0.0
 11
1931.8340594905
 21
125.1024144385
 31
0.0
  0
LINE
  5
ED
100
AcDbEntity
  8
_Y__________
  6
DASHED
 62
         2
100
AcDbLine
 10
1942.5752618713
 20
126.1024144385
 30
0.0
 11
1941.5752618713
 21
125.1024144385
 31
0.0
  0
LINE
  5
EE
100
AcDbEntity
  8
_Y__________
  6
DASHED
 62
         2
100
AcDbLine
 10
1942.5752618713
 20
98.4024144385
 30
0.0
 11
1941.5752618713
 21
99.4024144385
 31
0.0
  0
LINE
  5
EF
100
AcDbEntity
  8
_Y__________
  6
DASHED
 62
         2
100
AcDbLine
 10
1941.5752618713
 20
99.4024144385
 30
0.0
 11
1931.8340594905
 21
99.4024144385
 31
0.0
  0
LINE
  5
F0
100
AcDbEntity
  8
_Y__________
  6
DASHED
 62
         2
100
AcDbLine
 10
1931.3340594905
 20
124.6024144385
 30
0.0
 11
1931.8340594905
 21
125.1024144385
 31
0.0
  0
LINE
  5
F1
100
AcDbEntity
  8
_Y__________
  6
DASHED
 62
         2
100
AcDbLine
 10
1931.3340594905
 20
99.9024144385
 30
0.0
 11
1931.8340594905
 21
99.4024144385
 31
0.0
  0
LINE
  5
F2
100
AcDbEntity
  8
_Y__________
  6
DASHED
 62
         2
100
AcDbLine
 10
1858.1340594905
 20
99.9024144385
 30
0.0
 11
1857.6340594905
 21
99.4024144385
 31
0.0
  0
LINE
  5
F3
100
AcDbEntity
  8
_Y__________
  6
DASHED
 62
         2
100
AcDbLine
 10
1857.6340594905
 20
125.1024144385
 30
0.0
 11
1858.1340594905
 21
124.6024144385
 31
0.0
  0
LINE
  5
F4
100
AcDbEntity
  8
_Y__________
  6
DASHED
 62
         2
100
AcDbLine
 10
1858.1340594905
 20
124.6024144385
 30
0.0
 11
1858.1340594905
 21
99.9024144385
 31
0.0
  0
LINE
  5
F5
100
AcDbEntity
  8
_Y__________
  6
DASHED
 62
         2
100
AcDbLine
 10
1849.0928571098
 20
126.1024144385
 30
0.0
 11
1850.0928571098
 21
125.1024144385
 31
0.0
  0
LINE
  5
F6
100
AcDbEntity
  8
_Y__________
  6
DASHED
 62
         2
100
AcDbLine
 10
1850.0928571098
 20
125.1024144385
 30
0.0
 11
1857.6340594905
 21
125.1024144385
 31
0.0
  0
LINE
  5
F7
100
AcDbEntity
  8
_Y__________
  6
DASHED
 62
         2
100
AcDbLine
 10
1849.0928571098
 20
98.4024144385
 30
0.0
 11
1850.0928571098
 21
99.4024144385
 31
0.0
  0
LINE
  5
F8
100
AcDbEntity
  8
_Y__________
  6
DASHED
 62
         2
100
AcDbLine
 10
1850.0928571098
 20
99.4024144385
 30
0.0
 11
1857.6340594905
 21
99.4024144385
 31
0.0
  0
LINE
  5
F9
100
AcDbEntity
  8
_Y__________
  6
CENTER
 62
         1
100
AcDbLine
 10
1239.9233403763
 20
165.6922817905
 30
0.0
 11
1239.9233403763
 21
50.6023837096
 31
0.0
  0
ARC
  5
FA
100
AcDbEntity
  8
_Y__________
  6
CONTINUOUS
 62
         7
100
AcDbCircle
 10
1239.9233403763
 20
112.2524144385
 30
0.0
 40
48.75
100
AcDbArc
 50
16.5052120024
 51
163.4947879976
  0
LINE
  5
FB
100
AcDbEntity
  8
_Y__________
  6
CENTER
 62
         1
100
AcDbLine
 10
1283.2887501132
 20
112.2524144385
 30
0.0
 11
1193.3587947809
 21
112.2524144385
 31
0.0
  0
ARC
  5
FC
100
AcDbEntity
  8
_Y__________
  6
CONTINUOUS
 62
         7
100
AcDbCircle
 10
1239.9233403763
 20
112.2524144385
 30
0.0
 40
48.75
100
AcDbArc
 50
196.5052120024
 51
343.4947879976
  0
CIRCLE
  5
FD
100
AcDbEntity
  8
_Y__________
  6
CONTINUOUS
 62
         7
100
AcDbCircle
 10
1239.9233403763
 20
112.2524144385
 30
0.0
 40
34.925
  0
CIRCLE
  5
FE
100
AcDbEntity
  8
_Y__________
  6
CONTINUOUS
 62
         7
100
AcDbCircle
 10
1239.9233403763
 20
112.2524144385
 30
0.0
 40
20.3982925257
  0
CIRCLE
  5
FF
100
AcDbEntity
  8
_Y__________
  6
CONTINUOUS
 62
         7
100
AcDbCircle
 10
1239.9233403763
 20
112.2524144385
 30
0.0
 40
10.3963414634
  0
CIRCLE
  5
100
100
AcDbEntity
  8
_Y__________
  6
CONTINUOUS
 62
         7
100
AcDbCircle
 10
1239.9233403763
 20
112.2524144385
 30
0.0
 40
12.6589889012
  0
LINE
  5
101
100
AcDbEntity
  8
_Y__________
  6
CONTINUOUS
 62
         7
100
AcDbLine
 10
1203.9233403763
 20
99.9024144385
 30
0.0
 11
1203.9233403763
 21
124.6024144385
 31
0.0
  0
LINE
  5
102
100
AcDbEntity
  8
_Y__________
  6
CONTINUOUS
 62
         7
100
AcDbLine
 10
1194.1821379955
 20
99.4024144385
 30
0.0
 11
1203.4233403763
 21
99.4024144385
 31
0.0
  0
LINE
  5
103
100
AcDbEntity
  8
_Y__________
  6
CONTINUOUS
 62
         7
100
AcDbLine
 10
1193.1821379955
 20
98.4024144385
 30
0.0
 11
1194.1821379955
 21
99.4024144385
 31
0.0
  0
LINE
  5
104
100
AcDbEntity
  8
_Y__________
  6
CONTINUOUS
 62
         7
100
AcDbLine
 10
1193.1821379955
 20
126.1024144385
 30
0.0
 11
1194.1821379955
 21
125.1024144385
 31
0.0
  0
LINE
  5
105
100
AcDbEntity
  8
_Y__________
  6
CONTINUOUS
 62
         7
100
AcDbLine
 10
1194.1821379955
 20
125.1024144385
 30
0.0
 11
1203.4233403763
 21
125.1024144385
 31
0.0
  0
LINE
  5
106
100
AcDbEntity
  8
_Y__________
  6
CONTINUOUS
 62
         7
100
AcDbLine
 10
1277.6233403763
 20
99.9024144385
 30
0.0
 11
1277.6233403763
 21
124.6024144385
 31
0.0
  0
LINE
  5
107
100
AcDbEntity
  8
_Y__________
  6
CONTINUOUS
 62
         7
100
AcDbLine
 10
1285.664542757
 20
125.1024144385
 30
0.0
 11
1278.1233403763
 21
125.1024144385
 31
0.0
  0
LINE
  5
108
100
AcDbEntity
  8
_Y__________
  6
CONTINUOUS
 62
         7
100
AcDbLine
 10
1286.664542757
 20
126.1024144385
 30
0.0
 11
1285.664542757
 21
125.1024144385
 31
0.0
  0
LINE
  5
109
100
AcDbEntity
  8
_Y__________
  6
CONTINUOUS
 62
         7
100
AcDbLine
 10
1285.664542757
 20
99.4024144385
 30
0.0
 11
1278.1233403763
 21
99.4024144385
 31
0.0
  0
LINE
  5
10A
100
AcDbEntity
  8
_Y__________
  6
CONTINUOUS
 62
         7
100
AcDbLine
 10
1286.664542757
 20
98.4024144385
 30
0.0
 11
1285.664542757
 21
99.4024144385
 31
0.0
  0
LINE
  5
10B
100
AcDbEntity
  8
_Y__________
  6
CONTINUOUS
 62
         7
100
AcDbLine
 10
1203.4233403763
 20
99.4024144385
 30
0.0
 11
1203.9233403763
 21
99.9024144385
 31
0.0
  0
LINE
  5
10C
100
AcDbEntity
  8
_Y__________
  6
CONTINUOUS
 62
         7
100
AcDbLine
 10
1203.9233403763
 20
124.6024144385
 30
0.0
 11
1203.4233403763
 21
125.1024144385
 31
0.0
  0
LINE
  5
10D
100
AcDbEntity
  8
_Y__________
  6
CONTINUOUS
 62
         7
100
AcDbLine
 10
1278.1233403763
 20
125.1024144385
 30
0.0
 11
1277.6233403763
 21
124.6024144385
 31
0.0
  0
LINE
  5
10E
100
AcDbEntity
  8
_Y__________
  6
CONTINUOUS
 62
         7
100
AcDbLine
 10
1277.6233403763
 20
99.9024144385
 30
0.0
 11
1278.1233403763
 21
99.4024144385
 31
0.0
  0
CIRCLE
  5
10F
100
AcDbEntity
  8
_Y__________
  6
DASHED
 62
         2
100
AcDbCircle
 10
1895.8340594905
 20
112.2524144385
 30
0.0
 40
34.925
  0
LINE
  5
110
100
AcDbEntity
  8
_Y__________
  6
DASHED
 62
         2
100
AcDbLine
 10
1858.6340594905
 20
117.2524144385
 30
0.0
 11
1858.6340594905
 21
107.2524144385
 31
0.0
  0
LINE
  5
111
100
AcDbEntity
  8
_Y__________
  6
DASHED
 62
         2
100
AcDbLine
 10
1858.6340594905
 20
117.2524144385
 30
0.0
 11
1858.1340594905
 21
117.7524144385
 31
0.0
  0
LINE
  5
112
100
AcDbEntity
  8
_Y__________
  6
DASHED
 62
         2
100
AcDbLine
 10
1858.6340594905
 20
107.2524144385
 30
0.0
 11
1858.1340594905
 21
106.7524144385
 31
0.0
  0
LINE
  5
113
100
AcDbEntity
  8
_Y__________
  6
DASHED
 62
         2
100
AcDbLine
 10
1871.8480594905
 20
117.2524144385
 30
0.0
 11
1874.7348108365
 21
112.2524144385
 31
0.0
  0
LINE
  5
114
100
AcDbEntity
  8
_Y__________
  6
DASHED
 62
         2
100
AcDbLine
 10
1874.7348108365
 20
112.2524144385
 30
0.0
 11
1871.8480594905
 21
107.2524144385
 31
0.0
  0
LINE
  5
115
100
AcDbEntity
  8
_Y__________
  6
DASHED
 62
         2
100
AcDbLine
 10
1871.8480594905
 20
117.2524144385
 30
0.0
 11
1871.8480594905
 21
107.2524144385
 31
0.0
  0
LINE
  5
116
100
AcDbEntity
  8
_Y__________
  6
DASHED
 62
         2
100
AcDbLine
 10
1858.6340594905
 20
107.2524144385
 30
0.0
 11
1871.8480594905
 21
107.2524144385
 31
0.0
  0
LINE
  5
117
100
AcDbEntity
  8
_Y__________
  6
DASHED
 62
         2
100
AcDbLine
 10
1858.6340594905
 20
117.2524144385
 30
0.0
 11
1871.8480594905
 21
117.2524144385
 31
0.0
  0
CIRCLE
  5
118
100
AcDbEntity
  8
_Y__________
  6
CONTINUOUS
 62
         7
100
AcDbCircle
 10
1534.8786999334
 20
112.2562679634
 30
0.0
 40
4.76
  0
LINE
  5
119
100
AcDbEntity
  8
_Y__________
  6
CONTINUOUS
 62
         7
100
AcDbLine
 10
1526.9786999334
 20
66.0024144385
 30
0.0
 11
1526.9786999334
 21
65.0024144385
 31
0.0
  0
LINE
  5
11A
100
AcDbEntity
  8
_Y__________
  6
CONTINUOUS
 62
         7
100
AcDbLine
 10
1542.8786999334
 20
76.8274144385
 30
0.0
 11
1542.8786999334
 21
65.0024144385
 31
0.0
  0
ARC
  5
11B
100
AcDbEntity
  8
_Y__________
  6
CONTINUOUS
 62
         7
100
AcDbCircle
 10
1528.4786999334
 20
65.0024144385
 30
0.0
 40
1.5
100
AcDbArc
 50
180.0
 51
270.0
  0
ARC
  5
11C
100
AcDbEntity
  8
_Y__________
  6
CONTINUOUS
 62
         7
100
AcDbCircle
 10
1541.3786999334
 20
65.0024144385
 30
0.0
 40
1.5
100
AcDbArc
 50
270.0
 51
360.0
  0
ARC
  5
11D
100
AcDbEntity
  8
_Y__________
  6
CONTINUOUS
 62
         7
100
AcDbCircle
 10
1528.4786999334
 20
159.5024144385
 30
0.0
 40
1.5
100
AcDbArc
 50
90.0
 51
180.0
  0
ARC
  5
11E
100
AcDbEntity
  8
_Y__________
  6
CONTINUOUS
 62
         7
100
AcDbCircle
 10
1541.3786999334
 20
159.5024144385
 30
0.0
 40
1.5
100
AcDbArc
 50
0.0
 51
90.0
  0
LINE
  5
11F
100
AcDbEntity
  8
_Y__________
  6
CONTINUOUS
 62
         7
100
AcDbLine
 10
1540.3786999334
 20
63.5024144385
 30
0.0
 11
1541.3786999334
 21
63.5024144385
 31
0.0
  0
LINE
  5
120
100
AcDbEntity
  8
_Y__________
  6
CONTINUOUS
 62
         7
100
AcDbLine
 10
1528.4786999334
 20
63.5024144385
 30
0.0
 11
1529.4786999334
 21
63.5024144385
 31
0.0
  0
LINE
  5
121
100
AcDbEntity
  8
_Y__________
  6
CONTINUOUS
 62
         7
100
AcDbLine
 10
1542.8786999334
 20
159.5024144385
 30
0.0
 11
1542.8786999334
 21
147.6774144385
 31
0.0
  0
LINE
  5
122
100
AcDbEntity
  8
_Y__________
  6
CONTINUOUS
 62
         7
100
AcDbLine
 10
1540.3786999334
 20
161.0024144385
 30
0.0
 11
1541.3786999334
 21
161.0024144385
 31
0.0
  0
LINE
  5
123
100
AcDbEntity
  8
_Y__________
  6
CONTINUOUS
 62
         7
100
AcDbLine
 10
1528.4786999334
 20
161.0024144385
 30
0.0
 11
1529.4786999334
 21
161.0024144385
 31
0.0
  0
LINE
  5
124
100
AcDbEntity
  8
_Y__________
  6
CONTINUOUS
 62
         7
100
AcDbLine
 10
1526.9786999334
 20
159.5024144385
 30
0.0
 11
1526.9786999334
 21
158.5024144385
 31
0.0
  0
ARC
  5
125
100
AcDbEntity
  8
_Y__________
  6
CONTINUOUS
 62
         7
100
AcDbCircle
 10
1543.3786999334
 20
147.6774144385
 30
0.0
 40
0.5
100
AcDbArc
 50
180.0
 51
270.0
  0
LINE
  5
126
100
AcDbEntity
  8
_Y__________
  6
CONTINUOUS
 62
         7
100
AcDbLine
 10
1543.3786999334
 20
147.1774144385
 30
0.0
 11
1558.0306999334
 21
147.1774144385
 31
0.0
  0
LINE
  5
127
100
AcDbEntity
  8
_Y__________
  6
CONTINUOUS
 62
         7
100
AcDbLine
 10
1543.3786999334
 20
77.3274144385
 30
0.0
 11
1558.0306999334
 21
77.3274144385
 31
0.0
  0
ARC
  5
128
100
AcDbEntity
  8
_Y__________
  6
CONTINUOUS
 62
         7
100
AcDbCircle
 10
1543.3786999334
 20
76.8274144385
 30
0.0
 40
0.5
100
AcDbArc
 50
90.0
 51
180.0
  0
ARC
  5
129
100
AcDbEntity
  8
_Y__________
  6
CONTINUOUS
 62
         7
100
AcDbCircle
 10
1543.3786999334
 20
-162.1650166132
 30
0.0
 40
0.5
100
AcDbArc
 50
90.0
 51
180.0
  0
ARC
  5
12A
100
AcDbEntity
  8
_Y__________
  6
CONTINUOUS
 62
         7
100
AcDbCircle
 10
1543.3786999334
 20
-91.3150166132
 30
0.0
 40
0.5
100
AcDbArc
 50
180.0
 51
270.0
  0
LINE
  5
12B
100
AcDbEntity
  8
_Y__________
  6
CONTINUOUS
 62
         7
100
AcDbLine
 10
1526.9786999334
 20
-79.4900166132
 30
0.0
 11
1526.9786999334
 21
-80.4900166132
 31
0.0
  0
LINE
  5
12C
100
AcDbEntity
  8
_Y__________
  6
CONTINUOUS
 62
         7
100
AcDbLine
 10
1528.4786999334
 20
-77.9900166132
 30
0.0
 11
1529.4786999334
 21
-77.9900166132
 31
0.0
  0
LINE
  5
12D
100
AcDbEntity
  8
_Y__________
  6
CONTINUOUS
 62
         7
100
AcDbLine
 10
1540.3786999334
 20
-77.9900166132
 30
0.0
 11
1541.3786999334
 21
-77.9900166132
 31
0.0
  0
LINE
  5
12E
100
AcDbEntity
  8
_Y__________
  6
CONTINUOUS
 62
         7
100
AcDbLine
 10
1542.8786999334
 20
-79.4900166132
 30
0.0
 11
1542.8786999334
 21
-91.3150166132
 31
0.0
  0
LINE
  5
12F
100
AcDbEntity
  8
_Y__________
  6
CONTINUOUS
 62
         7
100
AcDbLine
 10
1528.4786999334
 20
-175.4900166132
 30
0.0
 11
1529.4786999334
 21
-175.4900166132
 31
0.0
  0
LINE
  5
130
100
AcDbEntity
  8
_Y__________
  6
CONTINUOUS
 62
         7
100
AcDbLine
 10
1540.3786999334
 20
-175.4900166132
 30
0.0
 11
1541.3786999334
 21
-175.4900166132
 31
0.0
  0
ARC
  5
131
100
AcDbEntity
  8
_Y__________
  6
CONTINUOUS
 62
         7
100
AcDbCircle
 10
1541.3786999334
 20
-79.4900166132
 30
0.0
 40
1.5
100
AcDbArc
 50
0.0
 51
90.0
  0
ARC
  5
132
100
AcDbEntity
  8
_Y__________
  6
CONTINUOUS
 62
         7
100
AcDbCircle
 10
1528.4786999334
 20
-79.4900166132
 30
0.0
 40
1.5
100
AcDbArc
 50
90.0
 51
180.0
  0
ARC
  5
133
100
AcDbEntity
  8
_Y__________
  6
CONTINUOUS
 62
         7
100
AcDbCircle
 10
1541.3786999334
 20
-173.9900166132
 30
0.0
 40
1.5
100
AcDbArc
 50
270.0
 51
360.0
  0
ARC
  5
134
100
AcDbEntity
  8
_Y__________
  6
CONTINUOUS
 62
         7
100
AcDbCircle
 10
1528.4786999334
 20
-173.9900166132
 30
0.0
 40
1.5
100
AcDbArc
 50
180.0
 51
270.0
  0
LINE
  5
135
100
AcDbEntity
  8
_Y__________
  6
CONTINUOUS
 62
         7
100
AcDbLine
 10
1542.8786999334
 20
-162.1650166132
 30
0.0
 11
1542.8786999334
 21
-173.9900166132
 31
0.0
  0
LINE
  5
136
100
AcDbEntity
  8
_Y__________
  6
CONTINUOUS
 62
         7
100
AcDbLine
 10
1526.9786999334
 20
-172.9900166132
 30
0.0
 11
1526.9786999334
 21
-173.9900166132
 31
0.0
  0
LINE
  5
137
100
AcDbEntity
  8
_Y__________
  6
CONTINUOUS
 62
         7
100
AcDbLine
 10
1543.3786999334
 20
-91.8150166132
 30
0.0
 11
1558.0306999334
 21
-91.8150166132
 31
0.0
  0
LINE
  5
138
100
AcDbEntity
  8
_Y__________
  6
CONTINUOUS
 62
         7
100
AcDbLine
 10
1543.3786999334
 20
-161.6650166132
 30
0.0
 11
1558.0306999334
 21
-161.6650166132
 31
0.0
  0
LINE
  5
139
100
AcDbEntity
  8
_Y__________
  6
CONTINUOUS
 62
         7
100
AcDbLine
 10
1558.8306999334
 20
64.2524144385
 30
0.0
 11
1558.8306999334
 21
160.2524144385
 31
0.0
  0
ARC
  5
13A
100
AcDbEntity
  8
_Y__________
  6
CONTINUOUS
 62
         7
100
AcDbCircle
 10
1558.3306999334
 20
147.6774144385
 30
0.0
 40
0.5
100
AcDbArc
 50
270.0
 51
360.0
  0
LINE
  5
13B
100
AcDbEntity
  8
_Y__________
  6
CONTINUOUS
 62
         7
100
AcDbLine
 10
1558.3306999334
 20
147.1774144385
 30
0.0
 11
1557.3306999334
 21
147.1774144385
 31
0.0
  0
ARC
  5
13C
100
AcDbEntity
  8
_Y__________
  6
CONTINUOUS
 62
         7
100
AcDbCircle
 10
1558.3306999334
 20
76.8274144385
 30
0.0
 40
0.5
100
AcDbArc
 50
0.0
 51
90.0
  0
LINE
  5
13D
100
AcDbEntity
  8
_Y__________
  6
CONTINUOUS
 62
         7
100
AcDbLine
 10
1558.3306999334
 20
77.3274144385
 30
0.0
 11
1557.3306999334
 21
77.3274144385
 31
0.0
  0
ARC
  5
13E
100
AcDbEntity
  8
_Y__________
  6
CONTINUOUS
 62
         7
100
AcDbCircle
 10
1424.6786999334
 20
-144.6863523772
 30
0.0
 40
2.5
100
AcDbArc
 50
180.0
 51
261.702778
  0
LINE
  5
13F
100
AcDbEntity
  8
_Y__________
  6
CONTINUOUS
 62
         7
100
AcDbLine
 10
1422.1786999334
 20
-108.7936808492
 30
0.0
 11
1422.1786999334
 21
-144.6863523772
 31
0.0
  0
ARC
  5
140
100
AcDbEntity
  8
_Y__________
  6
CONTINUOUS
 62
         7
100
AcDbCircle
 10
1424.6786999334
 20
-108.7936808492
 30
0.0
 40
2.5
100
AcDbArc
 50
98.297222
 51
180.0
  0
ARC
  5
141
100
AcDbEntity
  8
_Y__________
  6
CONTINUOUS
 62
         7
100
AcDbCircle
 10
1424.6786999334
 20
94.3060786745
 30
0.0
 40
2.5
100
AcDbArc
 50
180.0
 51
261.702778
  0
ARC
  5
142
100
AcDbEntity
  8
_Y__________
  6
CONTINUOUS
 62
         7
100
AcDbCircle
 10
1424.6786999334
 20
130.1987502026
 30
0.0
 40
2.5
100
AcDbArc
 50
98.297222
 51
180.0
  0
LINE
  5
143
100
AcDbEntity
  8
_Y__________
  6
CONTINUOUS
 62
         7
100
AcDbLine
 10
1422.1786999334
 20
130.1987502026
 30
0.0
 11
1422.1786999334
 21
94.3060786745
 31
0.0
  0
LINE
  5
144
100
AcDbEntity
  8
_Y__________
  6
CONTINUOUS
 62
         7
100
AcDbLine
 10
1523.7786999334
 20
-91.8150166132
 30
0.0
 11
1525.7251100949
 21
-92.3150166132
 31
0.0
  0
ARC
  5
145
100
AcDbEntity
  8
_Y__________
  6
CONTINUOUS
 62
         7
100
AcDbCircle
 10
1536.3220756064
 20
-80.6150166132
 30
0.0
 40
0.5
100
AcDbArc
 50
270.0
 51
330.0
  0
ARC
  5
146
100
AcDbEntity
  8
_Y__________
  6
CONTINUOUS
 62
         7
100
AcDbCircle
 10
1533.4353242604
 20
-80.6150166132
 30
0.0
 40
0.5
100
AcDbArc
 50
210.0
 51
270.0
  0
ARC
  5
147
100
AcDbEntity
  8
_Y__________
  6
CONTINUOUS
 62
         7
100
AcDbCircle
 10
1526.3786999334
 20
-91.7150166132
 30
0.0
 40
0.6
100
AcDbArc
 50
270.0
 51
360.0
  0
LINE
  5
148
100
AcDbEntity
  8
_Y__________
  6
CONTINUOUS
 62
         7
100
AcDbLine
 10
1525.7251100949
 20
-92.3150166132
 30
0.0
 11
1526.3786999334
 21
-92.3150166132
 31
0.0
  0
LINE
  5
149
100
AcDbEntity
  8
_Y__________
  6
CONTINUOUS
 62
         7
100
AcDbLine
 10
1526.9786999334
 20
-79.4900166132
 30
0.0
 11
1526.9786999334
 21
-91.7150166132
 31
0.0
  0
LINE
  5
14A
100
AcDbEntity
  8
_Y__________
  6
CONTINUOUS
 62
         7
100
AcDbLine
 10
1533.4353242604
 20
-81.1150166132
 30
0.0
 11
1536.3220756064
 21
-81.1150166132
 31
0.0
  0
LINE
  5
14B
100
AcDbEntity
  8
_Y__________
  6
CONTINUOUS
 62
         7
100
AcDbLine
 10
1536.7550883083
 20
-80.8650166132
 30
0.0
 11
1538.4149703322
 21
-77.9900166132
 31
0.0
  0
LINE
  5
14C
100
AcDbEntity
  8
_Y__________
  6
CONTINUOUS
 62
         7
100
AcDbLine
 10
1528.4786999334
 20
-77.9900166132
 30
0.0
 11
1531.3424295346
 21
-77.9900166132
 31
0.0
  0
LINE
  5
14D
100
AcDbEntity
  8
_Y__________
  6
CONTINUOUS
 62
         7
100
AcDbLine
 10
1533.4353242604
 20
-81.1150166132
 30
0.0
 11
1536.3220756064
 21
-81.1150166132
 31
0.0
  0
LINE
  5
14E
100
AcDbEntity
  8
_Y__________
  6
CONTINUOUS
 62
         7
100
AcDbLine
 10
1526.9786999334
 20
-79.4900166132
 30
0.0
 11
1526.9786999334
 21
-91.7150166132
 31
0.0
  0
LINE
  5
14F
100
AcDbEntity
  8
_Y__________
  6
CONTINUOUS
 62
         7
100
AcDbLine
 10
1525.7251100949
 20
-92.3150166132
 30
0.0
 11
1526.3786999334
 21
-92.3150166132
 31
0.0
  0
ARC
  5
150
100
AcDbEntity
  8
_Y__________
  6
CONTINUOUS
 62
         7
100
AcDbCircle
 10
1526.3786999334
 20
-91.7150166132
 30
0.0
 40
0.6
100
AcDbArc
 50
270.0
 51
360.0
  0
ARC
  5
151
100
AcDbEntity
  8
_Y__________
  6
CONTINUOUS
 62
         7
100
AcDbCircle
 10
1533.4353242604
 20
-80.6150166132
 30
0.0
 40
0.5
100
AcDbArc
 50
210.0
 51
270.0
  0
ARC
  5
152
100
AcDbEntity
  8
_Y__________
  6
CONTINUOUS
 62
         7
100
AcDbCircle
 10
1536.3220756064
 20
-80.6150166132
 30
0.0
 40
0.5
100
AcDbArc
 50
270.0
 51
330.0
  0
LINE
  5
153
100
AcDbEntity
  8
_Y__________
  6
CONTINUOUS
 62
         7
100
AcDbLine
 10
1533.0023115585
 20
-80.8650166132
 30
0.0
 11
1531.3424295346
 21
-77.9900166132
 31
0.0
  0
LINE
  5
154
100
AcDbEntity
  8
_Y__________
  6
CONTINUOUS
 62
         7
100
AcDbLine
 10
1538.4149703322
 20
-77.9900166132
 30
0.0
 11
1541.3786999334
 21
-77.9900166132
 31
0.0
  0
LINE
  5
155
100
AcDbEntity
  8
_Y__________
  6
CONTINUOUS
 62
         7
100
AcDbLine
 10
1536.8994258756
 20
-172.8650166132
 30
0.0
 11
1538.4149703322
 21
-175.4900166132
 31
0.0
  0
LINE
  5
156
100
AcDbEntity
  8
_Y__________
  6
CONTINUOUS
 62
         7
100
AcDbLine
 10
1526.9786999334
 20
-161.7650166132
 30
0.0
 11
1526.9786999334
 21
-173.9900166132
 31
0.0
  0
LINE
  5
157
100
AcDbEntity
  8
_Y__________
  6
CONTINUOUS
 62
         7
100
AcDbLine
 10
1533.4353242604
 20
-172.3650166132
 30
0.0
 11
1536.0334004718
 21
-172.3650166132
 31
0.0
  0
LINE
  5
158
100
AcDbEntity
  8
_Y__________
  6
CONTINUOUS
 62
         7
100
AcDbLine
 10
1528.4786999334
 20
-175.4900166132
 30
0.0
 11
1531.3424295346
 21
-175.4900166132
 31
0.0
  0
LINE
  5
159
100
AcDbEntity
  8
_Y__________
  6
CONTINUOUS
 62
         7
100
AcDbLine
 10
1533.0023115585
 20
-172.6150166132
 30
0.0
 11
1531.3424295346
 21
-175.4900166132
 31
0.0
  0
ARC
  5
15A
100
AcDbEntity
  8
_Y__________
  6
CONTINUOUS
 62
         7
100
AcDbCircle
 10
1533.4353242604
 20
-172.8650166132
 30
0.0
 40
0.5
100
AcDbArc
 50
90.0
 51
150.0
  0
LINE
  5
15B
100
AcDbEntity
  8
_Y__________
  6
CONTINUOUS
 62
         7
100
AcDbLine
 10
1525.7251100949
 20
-161.1650166132
 30
0.0
 11
1526.3786999334
 21
-161.1650166132
 31
0.0
  0
ARC
  5
15C
100
AcDbEntity
  8
_Y__________
  6
CONTINUOUS
 62
         7
100
AcDbCircle
 10
1526.3786999334
 20
-161.7650166132
 30
0.0
 40
0.6
100
AcDbArc
 50
0.0
 51
90.0
  0
LINE
  5
15D
100
AcDbEntity
  8
_Y__________
  6
CONTINUOUS
 62
         7
100
AcDbLine
 10
1538.4149703322
 20
-175.4900166132
 30
0.0
 11
1541.3786999334
 21
-175.4900166132
 31
0.0
  0
LINE
  5
15E
100
AcDbEntity
  8
_Y__________
  6
CONTINUOUS
 62
         7
100
AcDbLine
 10
1466.6786999334
 20
-114.7400166132
 30
0.0
 11
1466.6786999334
 21
-138.7400166132
 31
0.0
  0
LINE
  5
15F
100
AcDbEntity
  8
_Y__________
  6
CONTINUOUS
 62
         7
100
AcDbLine
 10
1423.5286999334
 20
-114.2400166132
 30
0.0
 11
1426.3786999334
 21
-114.2400166132
 31
0.0
  0
LINE
  5
160
100
AcDbEntity
  8
_Y__________
  6
CONTINUOUS
 62
         7
100
AcDbLine
 10
1523.7786999334
 20
-161.6650166132
 30
0.0
 11
1424.1679293748
 21
-147.1383091389
 31
0.0
  0
LINE
  5
161
100
AcDbEntity
  8
_Y__________
  6
CONTINUOUS
 62
         7
100
AcDbLine
 10
1430.4480438949
 20
-137.1363580766
 30
0.0
 11
1466.6786999334
 21
-137.1363580766
 31
0.0
  0
LINE
  5
162
100
AcDbEntity
  8
_Y__________
  6
CONTINUOUS
 62
         5
100
AcDbLine
 10
1428.8443853584
 20
-138.7400166132
 30
0.0
 11
1466.6786999334
 21
-138.7400166132
 31
0.0
  0
LINE
  5
163
100
AcDbEntity
  8
_Y__________
  6
CONTINUOUS
 62
         7
100
AcDbLine
 10
1523.7786999334
 20
-91.8150166132
 30
0.0
 11
1424.1679293748
 21
-106.3417240875
 31
0.0
  0
LINE
  5
164
100
AcDbEntity
  8
_Y__________
  6
CONTINUOUS
 62
         7
100
AcDbLine
 10
1430.4480438949
 20
-116.3436751498
 30
0.0
 11
1466.6786999334
 21
-116.3436751498
 31
0.0
  0
LINE
  5
165
100
AcDbEntity
  8
_Y__________
  6
CONTINUOUS
 62
         5
100
AcDbLine
 10
1428.8443853584
 20
-114.7400166132
 30
0.0
 11
1466.6786999334
 21
-114.7400166132
 31
0.0
  0
LINE
  5
166
100
AcDbEntity
  8
_Y__________
  6
CONTINUOUS
 62
         7
100
AcDbLine
 10
1523.7786999334
 20
-161.6650166132
 30
0.0
 11
1525.7251100949
 21
-161.1650166132
 31
0.0
  0
LINE
  5
167
100
AcDbEntity
  8
_Y__________
  6
CONTINUOUS
 62
         7
100
AcDbLine
 10
1523.7786999334
 20
-91.8150166132
 30
0.0
 11
1525.7251100949
 21
-92.3150166132
 31
0.0
  0
LINE
  5
168
100
AcDbEntity
  8
_Y__________
  6
CENTER
 62
         1
100
AcDbLine
 10
1422.0286999334
 20
-126.7400166132
 30
0.0
 11
1557.8786999334
 21
-126.7400166132
 31
0.0
  0
ARC
  5
169
100
AcDbEntity
  8
_Y__________
  6
CONTINUOUS
 62
         7
100
AcDbCircle
 10
1536.0334004718
 20
-173.3650166132
 30
0.0
 40
1.0
100
AcDbArc
 50
30.0
 51
90.0
  0
LINE
  5
16A
100
AcDbEntity
  8
_Y__________
  6
CONTINUOUS
 62
         7
100
AcDbLine
 10
1428.3786999334
 20
-139.2057020382
 30
0.0
 11
1428.3786999334
 21
-114.2743311882
 31
0.0
  0
LINE
  5
16B
100
AcDbEntity
  8
_Y__________
  6
CONTINUOUS
 62
         7
100
AcDbLine
 10
1427.1251100949
 20
-114.0400166132
 30
0.0
 11
1427.9786999334
 21
-114.0400166132
 31
0.0
  0
LINE
  5
16C
100
AcDbEntity
  8
_Y__________
  6
CONTINUOUS
 62
         7
100
AcDbLine
 10
1426.3786999334
 20
-139.2400166132
 30
0.0
 11
1426.3786999334
 21
-114.2400166132
 31
0.0
  0
ARC
  5
16D
100
AcDbEntity
  8
_Y__________
  6
CONTINUOUS
 62
         7
100
AcDbCircle
 10
1427.9786999334
 20
-114.4400166132
 30
0.0
 40
0.4
100
AcDbArc
 50
45.0
 51
90.0
  0
LINE
  5
16E
100
AcDbEntity
  8
_Y__________
  6
CONTINUOUS
 62
         7
100
AcDbLine
 10
1427.1251100949
 20
-114.0400166132
 30
0.0
 11
1426.3786999334
 21
-114.2400166132
 31
0.0
  0
ARC
  5
16F
100
AcDbEntity
  8
_Y__________
  6
CONTINUOUS
 62
         7
100
AcDbCircle
 10
1423.5286999334
 20
-112.7400166132
 30
0.0
 40
1.5
100
AcDbArc
 50
205.8419327625
 51
270.0
  0
LINE
  5
170
100
AcDbEntity
  8
_Y__________
  6
CONTINUOUS
 62
         7
100
AcDbLine
 10
1428.2615426459
 20
-114.1571739007
 30
0.0
 11
1430.4480438949
 21
-116.3436751498
 31
0.0
  0
LINE
  5
171
100
AcDbEntity
  8
_Y__________
  6
CONTINUOUS
 62
         7
100
AcDbLine
 10
1423.5286999334
 20
-139.2400166132
 30
0.0
 11
1426.3786999334
 21
-139.2400166132
 31
0.0
  0
LINE
  5
172
100
AcDbEntity
  8
_Y__________
  6
CONTINUOUS
 62
         7
100
AcDbLine
 10
1427.1251100949
 20
-139.4400166132
 30
0.0
 11
1427.9786999334
 21
-139.4400166132
 31
0.0
  0
LINE
  5
173
100
AcDbEntity
  8
_Y__________
  6
CONTINUOUS
 62
         7
100
AcDbLine
 10
1427.1251100949
 20
-139.4400166132
 30
0.0
 11
1426.3786999334
 21
-139.2400166132
 31
0.0
  0
ARC
  5
174
100
AcDbEntity
  8
_Y__________
  6
CONTINUOUS
 62
         7
100
AcDbCircle
 10
1423.5286999334
 20
-140.7400166132
 30
0.0
 40
1.5
100
AcDbArc
 50
90.0
 51
154.1580672375
  0
ARC
  5
175
100
AcDbEntity
  8
_Y__________
  6
CONTINUOUS
 62
         7
100
AcDbCircle
 10
1427.9786999334
 20
-139.0400166132
 30
0.0
 40
0.4
100
AcDbArc
 50
270.0
 51
315.0
  0
LINE
  5
176
100
AcDbEntity
  8
_Y__________
  6
CONTINUOUS
 62
         7
100
AcDbLine
 10
1428.2615426459
 20
-139.3228593257
 30
0.0
 11
1430.4480438949
 21
-137.1363580766
 31
0.0
  0
LINE
  5
177
100
AcDbEntity
  8
_Y__________
  6
CONTINUOUS
 62
         7
100
AcDbLine
 10
1430.4480438949
 20
-137.1363580766
 30
0.0
 11
1430.4480438949
 21
-116.3436751498
 31
0.0
  0
LINE
  5
178
100
AcDbEntity
  8
_Y__________
  6
CONTINUOUS
 62
         4
100
AcDbLine
 10
1423.5286999334
 20
-139.2400166132
 30
0.0
 11
1423.5286999334
 21
-114.2400166132
 31
0.0
  0
LINE
  5
179
100
AcDbEntity
  8
_Y__________
  6
CONTINUOUS
 62
         7
100
AcDbLine
 10
1542.8786999334
 20
159.5024144385
 30
0.0
 11
1542.8786999334
 21
65.0024144385
 31
0.0
  0
LINE
  5
17A
100
AcDbEntity
  8
_Y__________
  6
CONTINUOUS
 62
         7
100
AcDbLine
 10
1536.7550883083
 20
158.1274144385
 30
0.0
 11
1538.4149703322
 21
161.0024144385
 31
0.0
  0
LINE
  5
17B
100
AcDbEntity
  8
_Y__________
  6
CONTINUOUS
 62
         7
100
AcDbLine
 10
1533.4353242604
 20
157.8774144385
 30
0.0
 11
1536.3220756064
 21
157.8774144385
 31
0.0
  0
LINE
  5
17C
100
AcDbEntity
  8
_Y__________
  6
CONTINUOUS
 62
         7
100
AcDbLine
 10
1528.4786999334
 20
161.0024144385
 30
0.0
 11
1531.3424295346
 21
161.0024144385
 31
0.0
  0
ARC
  5
17D
100
AcDbEntity
  8
_Y__________
  6
CONTINUOUS
 62
         7
100
AcDbCircle
 10
1533.4353242604
 20
158.3774144385
 30
0.0
 40
0.5
100
AcDbArc
 50
210.0
 51
270.0
  0
LINE
  5
17E
100
AcDbEntity
  8
_Y__________
  6
CONTINUOUS
 62
         7
100
AcDbLine
 10
1525.7251100949
 20
146.6774144385
 30
0.0
 11
1526.3786999334
 21
146.6774144385
 31
0.0
  0
ARC
  5
17F
100
AcDbEntity
  8
_Y__________
  6
CONTINUOUS
 62
         7
100
AcDbCircle
 10
1526.3786999334
 20
147.2774144385
 30
0.0
 40
0.6
100
AcDbArc
 50
270.0
 51
360.0
  0
LINE
  5
180
100
AcDbEntity
  8
_Y__________
  6
CONTINUOUS
 62
         7
100
AcDbLine
 10
1533.0023115585
 20
158.1274144385
 30
0.0
 11
1531.3424295346
 21
161.0024144385
 31
0.0
  0
ARC
  5
181
100
AcDbEntity
  8
_Y__________
  6
CONTINUOUS
 62
         7
100
AcDbCircle
 10
1536.3220756064
 20
158.3774144385
 30
0.0
 40
0.5
100
AcDbArc
 50
270.0
 51
330.0
  0
LINE
  5
182
100
AcDbEntity
  8
_Y__________
  6
CONTINUOUS
 62
         7
100
AcDbLine
 10
1538.4149703322
 20
161.0024144385
 30
0.0
 11
1541.3786999334
 21
161.0024144385
 31
0.0
  0
LINE
  5
183
100
AcDbEntity
  8
_Y__________
  6
CONTINUOUS
 62
         7
100
AcDbLine
 10
1536.7550883083
 20
66.3774144385
 30
0.0
 11
1538.4149703322
 21
63.5024144385
 31
0.0
  0
LINE
  5
184
100
AcDbEntity
  8
_Y__________
  6
CONTINUOUS
 62
         7
100
AcDbLine
 10
1533.4353242604
 20
66.6274144385
 30
0.0
 11
1536.3220756064
 21
66.6274144385
 31
0.0
  0
ARC
  5
185
100
AcDbEntity
  8
_Y__________
  6
CONTINUOUS
 62
         7
100
AcDbCircle
 10
1533.4353242604
 20
66.1274144385
 30
0.0
 40
0.5
100
AcDbArc
 50
90.0
 51
150.0
  0
LINE
  5
186
100
AcDbEntity
  8
_Y__________
  6
CONTINUOUS
 62
         7
100
AcDbLine
 10
1528.4786999334
 20
63.5024144385
 30
0.0
 11
1531.3424295346
 21
63.5024144385
 31
0.0
  0
LINE
  5
187
100
AcDbEntity
  8
_Y__________
  6
CONTINUOUS
 62
         7
100
AcDbLine
 10
1533.0023115585
 20
66.3774144385
 30
0.0
 11
1531.3424295346
 21
63.5024144385
 31
0.0
  0
ARC
  5
188
100
AcDbEntity
  8
_Y__________
  6
CONTINUOUS
 62
         7
100
AcDbCircle
 10
1536.3220756064
 20
66.1274144385
 30
0.0
 40
0.5
100
AcDbArc
 50
30.0
 51
90.0
  0
ARC
  5
189
100
AcDbEntity
  8
_Y__________
  6
CONTINUOUS
 62
         7
100
AcDbCircle
 10
1526.3786999334
 20
77.2274144385
 30
0.0
 40
0.6
100
AcDbArc
 50
0.0
 51
90.0
  0
LINE
  5
18A
100
AcDbEntity
  8
_Y__________
  6
CONTINUOUS
 62
         7
100
AcDbLine
 10
1525.7251100949
 20
77.8274144385
 30
0.0
 11
1526.3786999334
 21
77.8274144385
 31
0.0
  0
ARC
  5
18B
100
AcDbEntity
  8
_Y__________
  6
CONTINUOUS
 62
         7
100
AcDbCircle
 10
1526.3786999334
 20
77.2274144385
 30
0.0
 40
0.6
100
AcDbArc
 50
0.0
 51
90.0
  0
LINE
  5
18C
100
AcDbEntity
  8
_Y__________
  6
CONTINUOUS
 62
         7
100
AcDbLine
 10
1538.4149703322
 20
63.5024144385
 30
0.0
 11
1541.3786999334
 21
63.5024144385
 31
0.0
  0
LINE
  5
18D
100
AcDbEntity
  8
_Y__________
  6
CENTER
 62
         1
100
AcDbLine
 10
1534.8786999334
 20
167.2576777393
 30
0.0
 11
1534.8786999334
 21
57.2548581875
 31
0.0
  0
LINE
  5
18E
100
AcDbEntity
  8
_Y__________
  6
CONTINUOUS
 62
         7
100
AcDbLine
 10
1526.9786999334
 20
159.5024144385
 30
0.0
 11
1526.9786999334
 21
65.0024144385
 31
0.0
  0
LINE
  5
18F
100
AcDbEntity
  8
_Y__________
  6
CONTINUOUS
 62
         7
100
AcDbLine
 10
1525.7251100949
 20
146.6774144385
 30
0.0
 11
1525.7251100949
 21
77.8274144385
 31
0.0
  0
LINE
  5
190
100
AcDbEntity
  8
_Y__________
  6
CENTER
 62
         1
100
AcDbLine
 10
1523.7786999334
 20
151.9774144385
 30
0.0
 11
1523.7786999334
 21
73.981360093
 31
0.0
  0
LINE
  5
191
100
AcDbEntity
  8
_Y__________
  6
CONTINUOUS
 62
         7
100
AcDbLine
 10
1524.9786999334
 20
146.8691546422
 30
0.0
 11
1524.9786999334
 21
77.6356742349
 31
0.0
  0
LINE
  5
192
100
AcDbEntity
  8
_Y__________
  6
CONTINUOUS
 62
         7
100
AcDbLine
 10
1523.7786999334
 20
77.3274144385
 30
0.0
 11
1424.3179293748
 21
91.8322467069
 31
0.0
  0
LINE
  5
193
100
AcDbEntity
  8
_Y__________
  6
CONTINUOUS
 62
         7
100
AcDbLine
 10
1523.7786999334
 20
147.1774144385
 30
0.0
 11
1424.3179293748
 21
132.6725821702
 31
0.0
  0
LINE
  5
194
100
AcDbEntity
  8
_Y__________
  6
CENTER
 62
         1
100
AcDbLine
 10
1417.2325573653
 20
112.2524144385
 30
0.0
 11
1491.1537903612
 21
112.2524144385
 31
0.0
  0
LINE
  5
195
100
AcDbEntity
  8
_Y__________
  6
CENTER
 62
         1
100
AcDbLine
 10
1513.0227673053
 20
112.2524144385
 30
0.0
 11
1542.8786999334
 21
112.2524144385
 31
0.0
  0
LINE
  5
196
100
AcDbEntity
  8
_Y__________
  6
CONTINUOUS
 62
         7
100
AcDbLine
 10
1523.7786999334
 20
77.3274144385
 30
0.0
 11
1525.7251100949
 21
77.8274144385
 31
0.0
  0
LINE
  5
197
100
AcDbEntity
  8
_Y__________
  6
CONTINUOUS
 62
         7
100
AcDbLine
 10
1523.7786999334
 20
147.1774144385
 30
0.0
 11
1525.7251100949
 21
146.6774144385
 31
0.0
  0
LINE
  5
198
100
AcDbEntity
  8
L1_160
  6
CONTINUOUS
 62
         7
100
AcDbLine
 10
1618.7786999334
 20
-171.6400166132
 30
0.0
 11
1618.7786999334
 21
-172.8400166132
 31
0.0
  0
ARC
  5
199
100
AcDbEntity
  8
L1_160
  6
CONTINUOUS
 62
         7
100
AcDbCircle
 10
1619.0786999334
 20
-170.9400166132
 30
0.0
 40
0.4
100
AcDbArc
 50
90.0
 51
178.4890283439
  0
LINE
  5
19A
100
AcDbEntity
  8
L1_160
  6
CONTINUOUS
 62
         7
100
AcDbLine
 10
1618.6788390158
 20
-170.9294692637
 30
0.0
 11
1618.7786999334
 21
-171.6400166132
 31
0.0
  0
LINE
  5
19B
100
AcDbEntity
  8
L1_160
  6
CONTINUOUS
 62
         7
100
AcDbLine
 10
1621.9151916065
 20
-170.7400166132
 30
0.0
 11
1621.2786999334
 21
-170.7400166132
 31
0.0
  0
ARC
  5
19C
100
AcDbEntity
  8
L1_160
  6
CONTINUOUS
 62
         7
100
AcDbCircle
 10
1620.4796287728
 20
-170.9400166132
 30
0.0
 40
0.4
100
AcDbArc
 50
75.0
 51
90.0
  0
LINE
  5
19D
100
AcDbEntity
  8
L1_160
  6
CONTINUOUS
 62
         7
100
AcDbLine
 10
1620.5831563909
 20
-170.5536462827
 30
0.0
 11
1621.2786999334
 21
-170.7400166132
 31
0.0
  0
LINE
  5
19E
100
AcDbEntity
  8
L1_160
  6
CONTINUOUS
 62
         7
100
AcDbLine
 10
1620.4796287728
 20
-170.5400166132
 30
0.0
 11
1619.0786999334
 21
-170.5400166132
 31
0.0
  0
LINE
  5
19F
100
AcDbEntity
  8
L1_160
  6
CONTINUOUS
 62
         7
100
AcDbLine
 10
1618.7786999334
 20
-81.8400166132
 30
0.0
 11
1618.7786999334
 21
-80.6400166132
 31
0.0
  0
ARC
  5
1A0
100
AcDbEntity
  8
L1_160
  6
CONTINUOUS
 62
         7
100
AcDbCircle
 10
1619.0786999334
 20
-82.5400166132
 30
0.0
 40
0.4
100
AcDbArc
 50
181.5109716561
 51
270.0
  0
LINE
  5
1A1
100
AcDbEntity
  8
L1_160
  6
CONTINUOUS
 62
         7
100
AcDbLine
 10
1618.6788390158
 20
-82.5505639627
 30
0.0
 11
1618.7786999334
 21
-81.8400166132
 31
0.0
  0
LINE
  5
1A2
100
AcDbEntity
  8
L1_160
  6
CONTINUOUS
 62
         7
100
AcDbLine
 10
1621.9151916065
 20
-82.7400166132
 30
0.0
 11
1621.2786999334
 21
-82.7400166132
 31
0.0
  0
ARC
  5
1A3
100
AcDbEntity
  8
L1_160
  6
CONTINUOUS
 62
         7
100
AcDbCircle
 10
1620.4796287728
 20
-82.5400166132
 30
0.0
 40
0.4
100
AcDbArc
 50
270.0
 51
285.0
  0
LINE
  5
1A4
100
AcDbEntity
  8
L1_160
  6
CONTINUOUS
 62
         7
100
AcDbLine
 10
1620.5831563909
 20
-82.9263869437
 30
0.0
 11
1621.2786999334
 21
-82.7400166132
 31
0.0
  0
LINE
  5
1A5
100
AcDbEntity
  8
L1_160
  6
CONTINUOUS
 62
         7
100
AcDbLine
 10
1620.4796287728
 20
-82.9400166132
 30
0.0
 11
1619.0786999334
 21
-82.9400166132
 31
0.0
  0
LINE
  5
1A6
100
AcDbEntity
  8
L1_160
  6
CONTINUOUS
 62
         7
100
AcDbLine
 10
1611.2830611229
 20
-175.7400166132
 30
0.0
 11
1611.2830611229
 21
-164.7400166132
 31
0.0
  0
LINE
  5
1A7
100
AcDbEntity
  8
L1_160
  6
CONTINUOUS
 62
         7
100
AcDbLine
 10
1609.2830611229
 20
-175.7400166132
 30
0.0
 11
1609.2830611229
 21
-164.7400166132
 31
0.0
  0
LINE
  5
1A8
100
AcDbEntity
  8
L1_160
  6
CENTER
 62
         1
100
AcDbLine
 10
1610.2830611229
 20
-176.9730185648
 30
0.0
 11
1610.2830611229
 21
-163.0619488912
 31
0.0
  0
ARC
  5
1A9
100
AcDbEntity
  8
L1_160
  6
CONTINUOUS
 62
         7
100
AcDbCircle
 10
1696.7786999334
 20
-166.0853160748
 30
0.0
 40
2.0
100
AcDbArc
 50
300.0
 51
360.0000000001
  0
ARC
  5
1AA
100
AcDbEntity
  8
L1_160
  6
CONTINUOUS
 62
         7
100
AcDbCircle
 10
1692.180623722
 20
-168.7400166132
 30
0.0
 40
2.0
100
AcDbArc
 50
270.0
 51
300.0
  0
LINE
  5
1AB
100
AcDbEntity
  8
L1_160
  6
CONTINUOUS
 62
         7
100
AcDbLine
 10
1697.7786999334
 20
-167.8173668824
 30
0.0
 11
1693.180623722
 21
-170.4720674208
 31
0.0
  0
ARC
  5
1AC
100
AcDbEntity
  8
L1_160
  6
CONTINUOUS
 62
         7
100
AcDbCircle
 10
1696.7786999334
 20
-87.3947171516
 30
0.0
 40
2.0
100
AcDbArc
 50
0.0
 51
60.0
  0
ARC
  5
1AD
100
AcDbEntity
  8
L1_160
  6
CONTINUOUS
 62
         7
100
AcDbCircle
 10
1692.180623722
 20
-84.7400166132
 30
0.0
 40
2.0
100
AcDbArc
 50
60.0
 51
90.0
  0
LINE
  5
1AE
100
AcDbEntity
  8
L1_160
  6
CONTINUOUS
 62
         7
100
AcDbLine
 10
1697.7786999334
 20
-85.662666344
 30
0.0
 11
1693.180623722
 21
-83.0079658056
 31
0.0
  0
LINE
  5
1AF
100
AcDbEntity
  8
L1_160
  6
CONTINUOUS
 62
         4
100
AcDbLine
 10
1606.7830611229
 20
-101.2400166132
 30
0.0
 11
1606.7830611229
 21
-152.2400166132
 31
0.0
  0
LINE
  5
1B0
100
AcDbEntity
  8
L1_160
  6
CONTINUOUS
 62
         7
100
AcDbLine
 10
1542.7806999334
 20
-122.4900166132
 30
0.0
 11
1540.3269612893
 21
-126.7400166132
 31
0.0
  0
LINE
  5
1B1
100
AcDbEntity
  8
L1_160
  6
CONTINUOUS
 62
         7
100
AcDbLine
 10
1542.7806999334
 20
-130.9900166132
 30
0.0
 11
1540.3269612893
 21
-126.7400166132
 31
0.0
  0
LINE
  5
1B2
100
AcDbEntity
  8
L1_160
  6
CONTINUOUS
 62
         4
100
AcDbLine
 10
1564.5306999334
 20
-131.7400166132
 30
0.0
 11
1547.7806999334
 21
-131.7400166132
 31
0.0
  0
LINE
  5
1B3
100
AcDbEntity
  8
L1_160
  6
CONTINUOUS
 62
         4
100
AcDbLine
 10
1564.5306999334
 20
-121.7400166132
 30
0.0
 11
1547.7806999334
 21
-121.7400166132
 31
0.0
  0
LINE
  5
1B4
100
AcDbEntity
  8
L1_160
  6
CONTINUOUS
 62
         4
100
AcDbLine
 10
1547.7806999334
 20
-121.7400166132
 30
0.0
 11
1547.7806999334
 21
-131.7400166132
 31
0.0
  0
LINE
  5
1B5
100
AcDbEntity
  8
L1_160
  6
CONTINUOUS
 62
         7
100
AcDbLine
 10
1606.7830611229
 20
-152.2400166132
 30
0.0
 11
1569.7806999334
 21
-152.2400166132
 31
0.0
  0
LINE
  5
1B6
100
AcDbEntity
  8
L1_160
  6
CONTINUOUS
 62
         7
100
AcDbLine
 10
1612.7830611229
 20
-164.7400166132
 30
0.0
 11
1612.7830611229
 21
-88.7400166132
 31
0.0
  0
LINE
  5
1B7
100
AcDbEntity
  8
L1_160
  6
CONTINUOUS
 62
         7
100
AcDbLine
 10
1607.7830611229
 20
-163.7400166132
 30
0.0
 11
1607.7830611229
 21
-89.7400166132
 31
0.0
  0
LINE
  5
1B8
100
AcDbEntity
  8
L1_160
  6
CONTINUOUS
 62
         7
100
AcDbLine
 10
1612.7830611229
 20
-164.7400166132
 30
0.0
 11
1608.7830611229
 21
-164.7400166132
 31
0.0
  0
LINE
  5
1B9
100
AcDbEntity
  8
L1_160
  6
CONTINUOUS
 62
         7
100
AcDbLine
 10
1606.7830611229
 20
-152.2400166132
 30
0.0
 11
1607.7830611229
 21
-153.2400166132
 31
0.0
  0
LINE
  5
1BA
100
AcDbEntity
  8
L1_160
  6
CONTINUOUS
 62
         7
100
AcDbLine
 10
1569.7806999334
 20
-152.7400166132
 30
0.0
 11
1569.7806999334
 21
-100.7400166132
 31
0.0
  0
LINE
  5
1BB
100
AcDbEntity
  8
L1_160
  6
CONTINUOUS
 62
         7
100
AcDbLine
 10
1564.7806999334
 20
-151.7400166132
 30
0.0
 11
1564.7806999334
 21
-101.7400166132
 31
0.0
  0
LINE
  5
1BC
100
AcDbEntity
  8
L1_160
  6
CONTINUOUS
 62
         7
100
AcDbLine
 10
1569.7806999334
 20
-152.7400166132
 30
0.0
 11
1565.7806999334
 21
-152.7400166132
 31
0.0
  0
LINE
  5
1BD
100
AcDbEntity
  8
L1_160
  6
CONTINUOUS
 62
         7
100
AcDbLine
 10
1606.7830611229
 20
-101.2400166132
 30
0.0
 11
1569.7806999334
 21
-101.2400166132
 31
0.0
  0
LINE
  5
1BE
100
AcDbEntity
  8
L1_160
  6
CONTINUOUS
 62
         7
100
AcDbLine
 10
1569.7806999334
 20
-100.7400166132
 30
0.0
 11
1565.7806999334
 21
-100.7400166132
 31
0.0
  0
LINE
  5
1BF
100
AcDbEntity
  8
L1_160
  6
CONTINUOUS
 62
         7
100
AcDbLine
 10
1612.7830611229
 20
-88.7400166132
 30
0.0
 11
1608.7830611229
 21
-88.7400166132
 31
0.0
  0
LINE
  5
1C0
100
AcDbEntity
  8
L1_160
  6
CONTINUOUS
 62
         7
100
AcDbLine
 10
1607.7830611229
 20
-100.2400166132
 30
0.0
 11
1606.7830611229
 21
-101.2400166132
 31
0.0
  0
LINE
  5
1C1
100
AcDbEntity
  8
L1_160
  6
CONTINUOUS
 62
         7
100
AcDbLine
 10
1698.7786999334
 20
-166.0853160748
 30
0.0
 11
1698.7786999334
 21
-87.3947171516
 31
0.0
  0
LINE
  5
1C2
100
AcDbEntity
  8
L1_160
  6
CONTINUOUS
 62
         7
100
AcDbLine
 10
1675.1786999334
 20
-82.7400166132
 30
0.0
 11
1621.2786999334
 21
-82.7400166132
 31
0.0
  0
LINE
  5
1C3
100
AcDbEntity
  8
L1_160
  6
CONTINUOUS
 62
         7
100
AcDbLine
 10
1675.2786999334
 20
-83.9900166132
 30
0.0
 11
1675.2786999334
 21
-82.8400166132
 31
0.0
  0
LINE
  5
1C4
100
AcDbEntity
  8
L1_160
  6
CONTINUOUS
 62
         7
100
AcDbLine
 10
1692.180623722
 20
-82.7400166132
 30
0.0
 11
1677.8786999334
 21
-82.7400166132
 31
0.0
  0
LINE
  5
1C5
100
AcDbEntity
  8
L1_160
  6
CONTINUOUS
 62
         7
100
AcDbLine
 10
1677.7786999334
 20
-83.9900166132
 30
0.0
 11
1677.7786999334
 21
-82.8400166132
 31
0.0
  0
LINE
  5
1C6
100
AcDbEntity
  8
L1_160
  6
CONTINUOUS
 62
         7
100
AcDbLine
 10
1675.1786999334
 20
-170.7400166132
 30
0.0
 11
1621.2786999334
 21
-170.7400166132
 31
0.0
  0
LINE
  5
1C7
100
AcDbEntity
  8
L1_160
  6
CONTINUOUS
 62
         7
100
AcDbLine
 10
1692.180623722
 20
-170.7400166132
 30
0.0
 11
1677.8786999334
 21
-170.7400166132
 31
0.0
  0
LINE
  5
1C8
100
AcDbEntity
  8
L1_160
  6
CONTINUOUS
 62
         7
100
AcDbLine
 10
1677.7786999334
 20
-169.4900166132
 30
0.0
 11
1677.7786999334
 21
-170.6400166132
 31
0.0
  0
LINE
  5
1C9
100
AcDbEntity
  8
L1_160
  6
CONTINUOUS
 62
         7
100
AcDbLine
 10
1675.2786999334
 20
-169.4900166132
 30
0.0
 11
1675.2786999334
 21
-170.6400166132
 31
0.0
  0
LINE
  5
1CA
100
AcDbEntity
  8
L1_160
  6
CONTINUOUS
 62
         7
100
AcDbLine
 10
1658.8826999334
 20
-89.2400166132
 30
0.0
 11
1658.8826999334
 21
-82.7400166132
 31
0.0
  0
LINE
  5
1CB
100
AcDbEntity
  8
L1_160
  6
CONTINUOUS
 62
         7
100
AcDbLine
 10
1623.1746999334
 20
-89.2400166132
 30
0.0
 11
1623.1746999334
 21
-82.7400166132
 31
0.0
  0
LINE
  5
1CC
100
AcDbEntity
  8
L1_160
  6
CONTINUOUS
 62
         7
100
AcDbLine
 10
1675.1786999334
 20
-82.7400166132
 30
0.0
 11
1675.2786999334
 21
-82.8400166132
 31
0.0
  0
LINE
  5
1CD
100
AcDbEntity
  8
L1_160
  6
CONTINUOUS
 62
         7
100
AcDbLine
 10
1677.7786999334
 20
-82.8400166132
 30
0.0
 11
1677.8786999334
 21
-82.7400166132
 31
0.0
  0
LINE
  5
1CE
100
AcDbEntity
  8
L1_160
  6
CONTINUOUS
 62
         7
100
AcDbLine
 10
1675.2786999334
 20
-170.6400166132
 30
0.0
 11
1675.1786999334
 21
-170.7400166132
 31
0.0
  0
LINE
  5
1CF
100
AcDbEntity
  8
L1_160
  6
CONTINUOUS
 62
         7
100
AcDbLine
 10
1677.7786999334
 20
-170.6400166132
 30
0.0
 11
1677.8786999334
 21
-170.7400166132
 31
0.0
  0
LINE
  5
1D0
100
AcDbEntity
  8
L1_160
  6
CONTINUOUS
 62
         7
100
AcDbLine
 10
1677.7786999334
 20
-83.9900166132
 30
0.0
 11
1675.2786999334
 21
-83.9900166132
 31
0.0
  0
LINE
  5
1D1
100
AcDbEntity
  8
L1_160
  6
CONTINUOUS
 62
         7
100
AcDbLine
 10
1677.7786999334
 20
-169.4900166132
 30
0.0
 11
1675.2786999334
 21
-169.4900166132
 31
0.0
  0
LINE
  5
1D2
100
AcDbEntity
  8
L1_160
  6
CONTINUOUS
 62
         7
100
AcDbLine
 10
1563.7806999334
 20
-122.4900166132
 30
0.0
 11
1542.7806999334
 21
-122.4900166132
 31
0.0
  0
LINE
  5
1D3
100
AcDbEntity
  8
L1_160
  6
CONTINUOUS
 62
         7
100
AcDbLine
 10
1563.7806999334
 20
-130.9900166132
 30
0.0
 11
1542.7806999334
 21
-130.9900166132
 31
0.0
  0
LINE
  5
1D4
100
AcDbEntity
  8
L1_160
  6
CONTINUOUS
 62
         4
100
AcDbLine
 10
1542.7806999334
 20
-130.9900166132
 30
0.0
 11
1542.7806999334
 21
-122.4900166132
 31
0.0
  0
DIMENSION
  5
1D8
100
AcDbEntity
  8
L1_160
  6
CONTINUOUS
 62
         4
100
AcDbDimension
  2
*D3
 10
1542.7806999334
 20
-222.740873586
 30
0.0
 11
1618.4475511532
 21
-218.680873586
 31
0.0
  3
DIMSTYLE1
100
AcDbAlignedDimension
 13
1542.7806999334
 23
-130.9900166132
 33
0.0
 14
1698.7786999334
 24
-166.0853160748
 34
0.0
100
AcDbRotatedDimension
  0
ARC
  5
1E5
100
AcDbEntity
  8
L1_160
  6
CONTINUOUS
 62
         7
100
AcDbCircle
 10
1565.7806999334
 20
-101.7400166132
 30
0.0
 40
1.0
100
AcDbArc
 50
90.0
 51
180.0
  0
ARC
  5
1E6
100
AcDbEntity
  8
L1_160
  6
CONTINUOUS
 62
         7
100
AcDbCircle
 10
1565.7806999334
 20
-151.7400166132
 30
0.0
 40
1.0
100
AcDbArc
 50
180.0
 51
270.0
  0
ARC
  5
1E7
100
AcDbEntity
  8
L1_160
  6
CONTINUOUS
 62
         7
100
AcDbCircle
 10
1608.7830611229
 20
-163.7400166132
 30
0.0
 40
1.0
100
AcDbArc
 50
180.0
 51
270.0
  0
ARC
  5
1E8
100
AcDbEntity
  8
L1_160
  6
CONTINUOUS
 62
         7
100
AcDbCircle
 10
1608.7830611229
 20
-89.7400166132
 30
0.0
 40
1.0
100
AcDbArc
 50
90.0
 51
180.0
  0
LINE
  5
1E9
100
AcDbEntity
  8
L1_160
  6
CONTINUOUS
 62
         7
100
AcDbLine
 10
1564.7806999334
 20
-121.4900166132
 30
0.0
 11
1563.7806999334
 21
-122.4900166132
 31
0.0
  0
LINE
  5
1EA
100
AcDbEntity
  8
L1_160
  6
CONTINUOUS
 62
         7
100
AcDbLine
 10
1563.7806999334
 20
-130.9900166132
 30
0.0
 11
1564.7806999334
 21
-131.9900166132
 31
0.0
  0
LINE
  5
1EB
100
AcDbEntity
  8
L1_160
  6
CONTINUOUS
 62
         4
100
AcDbLine
 10
1563.7806999334
 20
-130.9900166132
 30
0.0
 11
1563.7806999334
 21
-122.4900166132
 31
0.0
  0
POLYLINE
  5
1ED
100
AcDbEntity
  8
L1_160
  6
CONTINUOUS
 62
         7
100
AcDb2dPolyline
 66
         1
 10
0.0
 20
0.0
 30
0.0
 70
         2
  0
VERTEX
  5
1EF
100
AcDbEntity
  8
L1_160
  6
CONTINUOUS
 62
         7
100
AcDbVertex
100
AcDb2dVertex
 10
1623.1746999334
 20
-152.3710311224
 30
0.0
 70
         1
  0
VERTEX
  5
1F1
100
AcDbEntity
  8
L1_160
  6
CONTINUOUS
 62
         7
100
AcDbVertex
100
AcDb2dVertex
 10
1623.23205506
 20
-152.6429564683
 30
0.0
 70
         1
  0
VERTEX
  5
1F3
100
AcDbEntity
  8
L1_160
  6
CONTINUOUS
 62
         7
100
AcDbVertex
100
AcDb2dVertex
 10
1623.3021463828
 20
-152.7748729452
 30
0.0
 70
         1
  0
VERTEX
  5
1F5
100
AcDbEntity
  8
L1_160
  6
CONTINUOUS
 62
         7
100
AcDbVertex
100
AcDb2dVertex
 10
1623.3973968285
 20
-152.9021463925
 30
0.0
 70
         1
  0
VERTEX
  5
1F7
100
AcDbEntity
  8
L1_160
  6
CONTINUOUS
 62
         7
100
AcDbVertex
100
AcDb2dVertex
 10
1623.515170756
 20
-153.0235609458
 30
0.0
 70
         1
  0
VERTEX
  5
1F9
100
AcDbEntity
  8
L1_160
  6
CONTINUOUS
 62
         7
100
AcDbVertex
100
AcDb2dVertex
 10
1623.6523903877
 20
-153.1381445505
 30
0.0
 70
         1
  0
VERTEX
  5
1FB
100
AcDbEntity
  8
L1_160
  6
CONTINUOUS
 62
         7
100
AcDbVertex
100
AcDb2dVertex
 10
1623.8057160619
 20
-153.2451867557
 30
0.0
 70
         1
  0
VERTEX
  5
1FD
100
AcDbEntity
  8
L1_160
  6
CONTINUOUS
 62
         7
100
AcDbVertex
100
AcDb2dVertex
 10
1623.9717203315
 20
-153.3442375398
 30
0.0
 70
         1
  0
VERTEX
  5
1FF
100
AcDbEntity
  8
L1_160
  6
CONTINUOUS
 62
         7
100
AcDbVertex
100
AcDb2dVertex
 10
1624.147041825
 20
-153.4350902841
 30
0.0
 70
         1
  0
VERTEX
  5
201
100
AcDbEntity
  8
L1_160
  6
CONTINUOUS
 62
         7
100
AcDbVertex
100
AcDb2dVertex
 10
1624.393201244
 20
-153.5448914243
 30
0.0
 70
         1
  0
VERTEX
  5
203
100
AcDbEntity
  8
L1_160
  6
CONTINUOUS
 62
         7
100
AcDbVertex
100
AcDb2dVertex
 10
1624.6436428065
 20
-153.6402774754
 30
0.0
 70
         1
  0
VERTEX
  5
205
100
AcDbEntity
  8
L1_160
  6
CONTINUOUS
 62
         7
100
AcDbVertex
100
AcDb2dVertex
 10
1624.8925490486
 20
-153.7221951728
 30
0.0
 70
         1
  0
VERTEX
  5
207
100
AcDbEntity
  8
L1_160
  6
CONTINUOUS
 62
         7
100
AcDbVertex
100
AcDb2dVertex
 10
1625.2201331482
 20
-153.8140826975
 30
0.0
 70
         1
  0
VERTEX
  5
209
100
AcDbEntity
  8
L1_160
  6
CONTINUOUS
 62
         7
100
AcDbVertex
100
AcDb2dVertex
 10
1625.5284995233
 20
-153.8867298495
 30
0.0
 70
         1
  0
VERTEX
  5
20B
100
AcDbEntity
  8
L1_160
  6
CONTINUOUS
 62
         7
100
AcDbVertex
100
AcDb2dVertex
 10
1625.911063239
 20
-153.960985731
 30
0.0
 70
         1
  0
VERTEX
  5
20D
100
AcDbEntity
  8
L1_160
  6
CONTINUOUS
 62
         7
100
AcDbVertex
100
AcDb2dVertex
 10
1626.3590234035
 20
-154.0285137155
 30
0.0
 70
         1
  0
VERTEX
  5
20F
100
AcDbEntity
  8
L1_160
  6
CONTINUOUS
 62
         7
100
AcDbVertex
100
AcDb2dVertex
 10
1626.8396991349
 20
-154.0803225981
 30
0.0
 70
         1
  0
VERTEX
  5
211
100
AcDbEntity
  8
L1_160
  6
CONTINUOUS
 62
         7
100
AcDbVertex
100
AcDb2dVertex
 10
1627.4476347938
 20
-154.1180356124
 30
0.0
 70
         1
  0
VERTEX
  5
213
100
AcDbEntity
  8
L1_160
  6
CONTINUOUS
 62
         7
100
AcDbVertex
100
AcDb2dVertex
 10
1627.9296999334
 20
-154.1270833102
 30
0.0
 70
         1
  0
SEQEND
  5
215
100
AcDbEntity
  8
L1_160
  6
CONTINUOUS
 62
         7
  0
POLYLINE
  5
217
100
AcDbEntity
  8
L1_160
  6
CONTINUOUS
 62
         7
100
AcDb2dPolyline
 66
         1
 10
0.0
 20
0.0
 30
0.0
 70
         2
  0
VERTEX
  5
219
100
AcDbEntity
  8
L1_160
  6
CONTINUOUS
 62
         7
100
AcDbVertex
100
AcDb2dVertex
 10
1627.9296999334
 20
-149.3520833102
 30
0.0
 70
         1
  0
VERTEX
  5
21B
100
AcDbEntity
  8
L1_160
  6
CONTINUOUS
 62
         7
100
AcDbVertex
100
AcDb2dVertex
 10
1627.1933863837
 20
-149.3884980597
 30
0.0
 70
         1
  0
VERTEX
  5
21D
100
AcDbEntity
  8
L1_160
  6
CONTINUOUS
 62
         7
100
AcDbVertex
100
AcDb2dVertex
 10
1626.8361858108
 20
-149.4329990156
 30
0.0
 70
         1
  0
VERTEX
  5
21F
100
AcDbEntity
  8
L1_160
  6
CONTINUOUS
 62
         7
100
AcDbVertex
100
AcDb2dVertex
 10
1626.4915575324
 20
-149.4934734898
 30
0.0
 70
         1
  0
VERTEX
  5
221
100
AcDbEntity
  8
L1_160
  6
CONTINUOUS
 62
         7
100
AcDbVertex
100
AcDb2dVertex
 10
1626.1627938404
 20
-149.5682481146
 30
0.0
 70
         1
  0
VERTEX
  5
223
100
AcDbEntity
  8
L1_160
  6
CONTINUOUS
 62
         7
100
AcDbVertex
100
AcDb2dVertex
 10
1625.748251612
 20
-149.688528788
 30
0.0
 70
         1
  0
VERTEX
  5
225
100
AcDbEntity
  8
L1_160
  6
CONTINUOUS
 62
         7
100
AcDbVertex
100
AcDb2dVertex
 10
1625.3718450101
 20
-149.8260888813
 30
0.0
 70
         1
  0
VERTEX
  5
227
100
AcDbEntity
  8
L1_160
  6
CONTINUOUS
 62
         7
100
AcDbVertex
100
AcDb2dVertex
 10
1625.0357209648
 20
-149.9756067818
 30
0.0
 70
         1
  0
VERTEX
  5
229
100
AcDbEntity
  8
L1_160
  6
CONTINUOUS
 62
         7
100
AcDbVertex
100
AcDb2dVertex
 10
1624.7400112831
 20
-150.1320837139
 30
0.0
 70
         1
  0
VERTEX
  5
22B
100
AcDbEntity
  8
L1_160
  6
CONTINUOUS
 62
         7
100
AcDbVertex
100
AcDb2dVertex
 10
1624.4832504787
 20
-150.2911158589
 30
0.0
 70
         1
  0
VERTEX
  5
22D
100
AcDbEntity
  8
L1_160
  6
CONTINUOUS
 62
         7
100
AcDbVertex
100
AcDb2dVertex
 10
1624.1921043522
 20
-150.5047712602
 30
0.0
 70
         1
  0
VERTEX
  5
22F
100
AcDbEntity
  8
L1_160
  6
CONTINUOUS
 62
         7
100
AcDbVertex
100
AcDb2dVertex
 10
1623.9595378324
 20
-150.7096019965
 30
0.0
 70
         1
  0
VERTEX
  5
231
100
AcDbEntity
  8
L1_160
  6
CONTINUOUS
 62
         7
100
AcDbVertex
100
AcDb2dVertex
 10
1623.7763669322
 20
-150.9011527446
 30
0.0
 70
         1
  0
VERTEX
  5
233
100
AcDbEntity
  8
L1_160
  6
CONTINUOUS
 62
         7
100
AcDbVertex
100
AcDb2dVertex
 10
1623.5897736817
 20
-151.1374511533
 30
0.0
 70
         1
  0
VERTEX
  5
235
100
AcDbEntity
  8
L1_160
  6
CONTINUOUS
 62
         7
100
AcDbVertex
100
AcDb2dVertex
 10
1623.4591999743
 20
-151.3424437069
 30
0.0
 70
         1
  0
VERTEX
  5
237
100
AcDbEntity
  8
L1_160
  6
CONTINUOUS
 62
         7
100
AcDbVertex
100
AcDb2dVertex
 10
1623.3422919798
 20
-151.5765909442
 30
0.0
 70
         1
  0
VERTEX
  5
239
100
AcDbEntity
  8
L1_160
  6
CONTINUOUS
 62
         7
100
AcDbVertex
100
AcDb2dVertex
 10
1623.2537579323
 20
-151.8228102961
 30
0.0
 70
         1
  0
VERTEX
  5
23B
100
AcDbEntity
  8
L1_160
  6
CONTINUOUS
 62
         7
100
AcDbVertex
100
AcDb2dVertex
 10
1623.2012704295
 20
-152.0523270403
 30
0.0
 70
         1
  0
VERTEX
  5
23D
100
AcDbEntity
  8
L1_160
  6
CONTINUOUS
 62
         7
100
AcDbVertex
100
AcDb2dVertex
 10
1623.1763649506
 20
-152.2911458559
 30
0.0
 70
         1
  0
VERTEX
  5
23F
100
AcDbEntity
  8
L1_160
  6
CONTINUOUS
 62
         7
100
AcDbVertex
100
AcDb2dVertex
 10
1623.1746999334
 20
-152.3710311224
 30
0.0
 70
         1
  0
SEQEND
  5
241
100
AcDbEntity
  8
L1_160
  6
CONTINUOUS
 62
         7
  0
LINE
  5
242
100
AcDbEntity
  8
L1_160
  6
CONTINUOUS
 62
         7
100
AcDbLine
 10
1654.1276999334
 20
-149.3520834301
 30
0.0
 11
1627.9296999334
 21
-149.3520833102
 31
0.0
  0
LINE
  5
243
100
AcDbEntity
  8
L1_160
  6
CONTINUOUS
 62
         7
100
AcDbLine
 10
1654.1277037567
 20
-154.1270834301
 30
0.0
 11
1627.9296999203
 21
-154.1270833102
 31
0.0
  0
POLYLINE
  5
245
100
AcDbEntity
  8
L1_160
  6
CONTINUOUS
 62
         7
100
AcDb2dPolyline
 66
         1
 10
0.0
 20
0.0
 30
0.0
 70
         2
  0
VERTEX
  5
247
100
AcDbEntity
  8
L1_160
  6
CONTINUOUS
 62
         7
100
AcDbVertex
100
AcDb2dVertex
 10
1654.1276999334
 20
-154.1270834301
 30
0.0
 70
         1
  0
VERTEX
  5
249
100
AcDbEntity
  8
L1_160
  6
CONTINUOUS
 62
         7
100
AcDbVertex
100
AcDb2dVertex
 10
1655.1563015182
 20
-154.0855045359
 30
0.0
 70
         1
  0
VERTEX
  5
24B
100
AcDbEntity
  8
L1_160
  6
CONTINUOUS
 62
         7
100
AcDbVertex
100
AcDb2dVertex
 10
1655.6078431093
 20
-154.0398388511
 30
0.0
 70
         1
  0
VERTEX
  5
24D
100
AcDbEntity
  8
L1_160
  6
CONTINUOUS
 62
         7
100
AcDbVertex
100
AcDb2dVertex
 10
1656.0148074849
 20
-153.98286883
 30
0.0
 70
         1
  0
VERTEX
  5
24F
100
AcDbEntity
  8
L1_160
  6
CONTINUOUS
 62
         7
100
AcDbVertex
100
AcDb2dVertex
 10
1656.3779016814
 20
-153.9180073157
 30
0.0
 70
         1
  0
VERTEX
  5
251
100
AcDbEntity
  8
L1_160
  6
CONTINUOUS
 62
         7
100
AcDbVertex
100
AcDb2dVertex
 10
1656.6992613641
 20
-153.8481230304
 30
0.0
 70
         1
  0
VERTEX
  5
253
100
AcDbEntity
  8
L1_160
  6
CONTINUOUS
 62
         7
100
AcDbVertex
100
AcDb2dVertex
 10
1656.9819040323
 20
-153.7755393714
 30
0.0
 70
         1
  0
VERTEX
  5
255
100
AcDbEntity
  8
L1_160
  6
CONTINUOUS
 62
         7
100
AcDbVertex
100
AcDb2dVertex
 10
1657.307496145
 20
-153.6766703791
 30
0.0
 70
         1
  0
VERTEX
  5
257
100
AcDbEntity
  8
L1_160
  6
CONTINUOUS
 62
         7
100
AcDbVertex
100
AcDb2dVertex
 10
1657.5779839534
 20
-153.5793783231
 30
0.0
 70
         1
  0
VERTEX
  5
259
100
AcDbEntity
  8
L1_160
  6
CONTINUOUS
 62
         7
100
AcDbVertex
100
AcDb2dVertex
 10
1657.8018054114
 20
-153.4857602417
 30
0.0
 70
         1
  0
VERTEX
  5
25B
100
AcDbEntity
  8
L1_160
  6
CONTINUOUS
 62
         7
100
AcDbVertex
100
AcDb2dVertex
 10
1657.9865937963
 20
-153.397076178
 30
0.0
 70
         1
  0
VERTEX
  5
25D
100
AcDbEntity
  8
L1_160
  6
CONTINUOUS
 62
         7
100
AcDbVertex
100
AcDb2dVertex
 10
1658.1859625441
 20
-153.2861760314
 30
0.0
 70
         1
  0
VERTEX
  5
25F
100
AcDbEntity
  8
L1_160
  6
CONTINUOUS
 62
         7
100
AcDbVertex
100
AcDb2dVertex
 10
1658.3396480192
 20
-153.1859792443
 30
0.0
 70
         1
  0
VERTEX
  5
261
100
AcDbEntity
  8
L1_160
  6
CONTINUOUS
 62
         7
100
AcDbVertex
100
AcDb2dVertex
 10
1658.4938984611
 20
-153.0664986817
 30
0.0
 70
         1
  0
VERTEX
  5
263
100
AcDbEntity
  8
L1_160
  6
CONTINUOUS
 62
         7
100
AcDbVertex
100
AcDb2dVertex
 10
1658.6029130875
 20
-152.9645116803
 30
0.0
 70
         1
  0
VERTEX
  5
265
100
AcDbEntity
  8
L1_160
  6
CONTINUOUS
 62
         7
100
AcDbVertex
100
AcDb2dVertex
 10
1658.7029092602
 20
-152.8493486319
 30
0.0
 70
         1
  0
VERTEX
  5
267
100
AcDbEntity
  8
L1_160
  6
CONTINUOUS
 62
         7
100
AcDbVertex
100
AcDb2dVertex
 10
1658.7838291091
 20
-152.727270553
 30
0.0
 70
         1
  0
VERTEX
  5
269
100
AcDbEntity
  8
L1_160
  6
CONTINUOUS
 62
         7
100
AcDbVertex
100
AcDb2dVertex
 10
1658.8391000326
 20
-152.6082899036
 30
0.0
 70
         1
  0
VERTEX
  5
26B
100
AcDbEntity
  8
L1_160
  6
CONTINUOUS
 62
         7
100
AcDbVertex
100
AcDb2dVertex
 10
1658.8749277772
 20
-152.4713934897
 30
0.0
 70
         1
  0
VERTEX
  5
26D
100
AcDbEntity
  8
L1_160
  6
CONTINUOUS
 62
         7
100
AcDbVertex
100
AcDb2dVertex
 10
1658.8826999334
 20
-152.3710312423
 30
0.0
 70
         1
  0
SEQEND
  5
26F
100
AcDbEntity
  8
L1_160
  6
CONTINUOUS
 62
         7
  0
POLYLINE
  5
271
100
AcDbEntity
  8
L1_160
  6
CONTINUOUS
 62
         7
100
AcDb2dPolyline
 66
         1
 10
0.0
 20
0.0
 30
0.0
 70
         2
  0
VERTEX
  5
273
100
AcDbEntity
  8
L1_160
  6
CONTINUOUS
 62
         7
100
AcDbVertex
100
AcDb2dVertex
 10
1658.8826999334
 20
-152.3710312423
 30
0.0
 70
         1
  0
VERTEX
  5
275
100
AcDbEntity
  8
L1_160
  6
CONTINUOUS
 62
         7
100
AcDbVertex
100
AcDb2dVertex
 10
1658.8181211019
 20
-151.8751692291
 30
0.0
 70
         1
  0
VERTEX
  5
277
100
AcDbEntity
  8
L1_160
  6
CONTINUOUS
 62
         7
100
AcDbVertex
100
AcDb2dVertex
 10
1658.7445118034
 20
-151.6485073127
 30
0.0
 70
         1
  0
VERTEX
  5
279
100
AcDbEntity
  8
L1_160
  6
CONTINUOUS
 62
         7
100
AcDbVertex
100
AcDb2dVertex
 10
1658.649539331
 20
-151.4372767856
 30
0.0
 70
         1
  0
VERTEX
  5
27B
100
AcDbEntity
  8
L1_160
  6
CONTINUOUS
 62
         7
100
AcDbVertex
100
AcDb2dVertex
 10
1658.537505734
 20
-151.2417594964
 30
0.0
 70
         1
  0
VERTEX
  5
27D
100
AcDbEntity
  8
L1_160
  6
CONTINUOUS
 62
         7
100
AcDbVertex
100
AcDb2dVertex
 10
1658.3669605588
 20
-151.0036079828
 30
0.0
 70
         1
  0
VERTEX
  5
27F
100
AcDbEntity
  8
L1_160
  6
CONTINUOUS
 62
         7
100
AcDbVertex
100
AcDb2dVertex
 10
1658.1808103921
 20
-150.792399446
 30
0.0
 70
         1
  0
VERTEX
  5
281
100
AcDbEntity
  8
L1_160
  6
CONTINUOUS
 62
         7
100
AcDbVertex
100
AcDb2dVertex
 10
1657.9857484508
 20
-150.606342939
 30
0.0
 70
         1
  0
VERTEX
  5
283
100
AcDbEntity
  8
L1_160
  6
CONTINUOUS
 62
         7
100
AcDbVertex
100
AcDb2dVertex
 10
1657.7181224365
 20
-150.3917229435
 30
0.0
 70
         1
  0
VERTEX
  5
285
100
AcDbEntity
  8
L1_160
  6
CONTINUOUS
 62
         7
100
AcDbVertex
100
AcDb2dVertex
 10
1657.4532449403
 20
-150.2132338991
 30
0.0
 70
         1
  0
VERTEX
  5
287
100
AcDbEntity
  8
L1_160
  6
CONTINUOUS
 62
         7
100
AcDbVertex
100
AcDb2dVertex
 10
1657.110323574
 20
-150.0198459333
 30
0.0
 70
         1
  0
VERTEX
  5
289
100
AcDbEntity
  8
L1_160
  6
CONTINUOUS
 62
         7
100
AcDbVertex
100
AcDb2dVertex
 10
1656.7922493045
 20
-149.8706063926
 30
0.0
 70
         1
  0
VERTEX
  5
28B
100
AcDbEntity
  8
L1_160
  6
CONTINUOUS
 62
         7
100
AcDbVertex
100
AcDb2dVertex
 10
1656.4058898437
 20
-149.7211426803
 30
0.0
 70
         1
  0
VERTEX
  5
28D
100
AcDbEntity
  8
L1_160
  6
CONTINUOUS
 62
         7
100
AcDbVertex
100
AcDb2dVertex
 10
1656.0721615853
 20
-149.6160427145
 30
0.0
 70
         1
  0
VERTEX
  5
28F
100
AcDbEntity
  8
L1_160
  6
CONTINUOUS
 62
         7
100
AcDbVertex
100
AcDb2dVertex
 10
1655.6930128207
 20
-149.5203515926
 30
0.0
 70
         1
  0
VERTEX
  5
291
100
AcDbEntity
  8
L1_160
  6
CONTINUOUS
 62
         7
100
AcDbVertex
100
AcDb2dVertex
 10
1655.2904236743
 20
-149.4437308441
 30
0.0
 70
         1
  0
VERTEX
  5
293
100
AcDbEntity
  8
L1_160
  6
CONTINUOUS
 62
         7
100
AcDbVertex
100
AcDb2dVertex
 10
1654.8991322362
 20
-149.3920785082
 30
0.0
 70
         1
  0
VERTEX
  5
295
100
AcDbEntity
  8
L1_160
  6
CONTINUOUS
 62
         7
100
AcDbVertex
100
AcDb2dVertex
 10
1654.5608046287
 20
-149.364632569
 30
0.0
 70
         1
  0
VERTEX
  5
297
100
AcDbEntity
  8
L1_160
  6
CONTINUOUS
 62
         7
100
AcDbVertex
100
AcDb2dVertex
 10
1654.2325979986
 20
-149.352818134
 30
0.0
 70
         1
  0
VERTEX
  5
299
100
AcDbEntity
  8
L1_160
  6
CONTINUOUS
 62
         7
100
AcDbVertex
100
AcDb2dVertex
 10
1654.1276999334
 20
-149.3520834301
 30
0.0
 70
         1
  0
SEQEND
  5
29B
100
AcDbEntity
  8
L1_160
  6
CONTINUOUS
 62
         7
  0
LINE
  5
29C
100
AcDbEntity
  8
L1_160
  6
CONTINUOUS
 62
         7
100
AcDbLine
 10
1617.7786999334
 20
-77.7400166132
 30
0.0
 11
1559.8306999334
 21
-77.7400166132
 31
0.0
  0
LINE
  5
29D
100
AcDbEntity
  8
L1_160
  6
CONTINUOUS
 62
         7
100
AcDbLine
 10
1618.7786999334
 20
-81.8400166132
 30
0.0
 11
1618.7786999334
 21
-78.7400166132
 31
0.0
  0
ARC
  5
29E
100
AcDbEntity
  8
L1_160
  6
CONTINUOUS
 62
         7
100
AcDbCircle
 10
1617.7786999334
 20
-78.7400166132
 30
0.0
 40
1.0
100
AcDbArc
 50
0.0
 51
90.0
  0
LINE
  5
29F
100
AcDbEntity
  8
L1_160
  6
CONTINUOUS
 62
         7
100
AcDbLine
 10
1618.7786999334
 20
-174.7400166132
 30
0.0
 11
1618.7786999334
 21
-171.6400166132
 31
0.0
  0
LINE
  5
2A0
100
AcDbEntity
  8
L1_160
  6
CONTINUOUS
 62
         7
100
AcDbLine
 10
1617.7786999334
 20
-175.7400166132
 30
0.0
 11
1559.8306999334
 21
-175.7400166132
 31
0.0
  0
ARC
  5
2A1
100
AcDbEntity
  8
L1_160
  6
CONTINUOUS
 62
         7
100
AcDbCircle
 10
1617.7786999334
 20
-174.7400166132
 30
0.0
 40
1.0
100
AcDbArc
 50
270.0
 51
360.0
  0
LINE
  5
2A2
100
AcDbEntity
  8
L1_160
  6
CENTER
 62
         1
100
AcDbLine
 10
1698.7786999334
 20
-126.7400166132
 30
0.0
 11
1534.9568428369
 21
-126.7400166132
 31
0.0
  0
LINE
  5
2A3
100
AcDbEntity
  8
L1_160
  6
CENTER
 62
         1
100
AcDbLine
 10
1629.0746999334
 20
-95.5485161617
 30
0.0
 11
1629.0746999334
 21
-76.7639929633
 31
0.0
  0
LINE
  5
2A4
100
AcDbEntity
  8
L1_160
  6
CENTER
 62
         1
100
AcDbLine
 10
1652.9826999334
 20
-95.5485161617
 30
0.0
 11
1652.9826999334
 21
-76.7639929633
 31
0.0
  0
CIRCLE
  5
2A5
100
AcDbEntity
  8
L1_160
  6
DASHED
 62
         2
100
AcDbCircle
 10
1895.8340594905
 20
112.2524144385
 30
0.0
 40
26.0
  0
CIRCLE
  5
2A6
100
AcDbEntity
  8
L1_160
  6
DASHED
 62
         2
100
AcDbCircle
 10
1895.8340594905
 20
112.2524144385
 30
0.0
 40
38.0
  0
CIRCLE
  5
2A7
100
AcDbEntity
  8
L1_160
  6
CONTINUOUS
 62
         7
100
AcDbCircle
 10
1895.8340594905
 20
112.2524144385
 30
0.0
 40
4.25
  0
CIRCLE
  5
2A8
100
AcDbEntity
  8
L1_160
  6
CONTINUOUS
 62
         7
100
AcDbCircle
 10
1895.8340594905
 20
112.2524144385
 30
0.0
 40
25.5
  0
CIRCLE
  5
2A9
100
AcDbEntity
  8
L1_160
  6
CONTINUOUS
 62
         7
100
AcDbCircle
 10
1895.8340594905
 20
112.2524144385
 30
0.0
 40
37.5
  0
CIRCLE
  5
2AA
100
AcDbEntity
  8
L1_160
  6
CONTINUOUS
 62
         7
100
AcDbCircle
 10
1895.8340594905
 20
112.2524144385
 30
0.0
 40
40.5
  0
CIRCLE
  5
2AB
100
AcDbEntity
  8
L1_160
  6
CONTINUOUS
 62
         7
100
AcDbCircle
 10
1895.8340594905
 20
112.2524144385
 30
0.0
 40
49.0
  0
CIRCLE
  5
2AC
100
AcDbEntity
  8
L1_160
  6
CONTINUOUS
 62
         7
100
AcDbCircle
 10
1895.8340594905
 20
112.2524144385
 30
0.0
 40
44.0
  0
CIRCLE
  5
2AD
100
AcDbEntity
  8
L1_160
  6
DASHED
 62
         2
100
AcDbCircle
 10
1895.8340594905
 20
112.2524144385
 30
0.0
 40
42.75
  0
LINE
  5
2AE
100
AcDbEntity
  8
L1_160
  6
CENTER
 62
         1
100
AcDbLine
 10
1895.8340594905
 20
63.2524144385
 30
0.0
 11
1895.8340594905
 21
161.2524144385
 31
0.0
  0
LINE
  5
2AF
100
AcDbEntity
  8
L1_160
  6
CENTER
 62
         1
100
AcDbLine
 10
1944.8340594905
 20
112.2524144385
 30
0.0
 11
1846.8340594905
 21
112.2524144385
 31
0.0
  0
ARC
  5
2B0
100
AcDbEntity
  8
L1_160
  6
CONTINUOUS
 62
         4
100
AcDbCircle
 10
1895.8340594905
 20
112.2524144385
 30
0.0
 40
5.0
100
AcDbArc
 50
270.0
 51
540.0
  0
LINE
  5
2B1
100
AcDbEntity
  8
L1_160
  6
DASHED
 62
         2
100
AcDbLine
 10
1858.8011011966
 20
118.1524144385
 30
0.0
 11
1852.2314219556
 21
118.1524144385
 31
0.0
  0
LINE
  5
2B2
100
AcDbEntity
  8
L1_160
  6
DASHED
 62
         2
100
AcDbLine
 10
1858.8011011966
 20
106.3524144385
 30
0.0
 11
1852.2314219556
 21
106.3524144385
 31
0.0
  0
LINE
  5
2B3
100
AcDbEntity
  8
L1_160
  6
DASHED
 62
         2
100
AcDbLine
 10
1909.2409887552
 20
77.2309317787
 30
0.0
 11
1912.5258283757
 21
71.5414226613
 31
0.0
  0
LINE
  5
2B4
100
AcDbEntity
  8
L1_160
  6
DASHED
 62
         2
100
AcDbLine
 10
1919.4600885198
 20
83.1309317787
 30
0.0
 11
1922.7449281403
 21
77.4414226613
 31
0.0
  0
LINE
  5
2B5
100
AcDbEntity
  8
L1_160
  6
DASHED
 62
         2
100
AcDbLine
 10
1919.4600885198
 20
141.3738970984
 30
0.0
 11
1922.7449281403
 21
147.0634062158
 31
0.0
  0
LINE
  5
2B6
100
AcDbEntity
  8
L1_160
  6
DASHED
 62
         2
100
AcDbLine
 10
1909.2409887552
 20
147.2738970984
 30
0.0
 11
1912.5258283757
 21
152.9634062158
 31
0.0
  0
LINE
  5
2B7
100
AcDbEntity
  8
L1_160
  6
CENTER
 62
         1
100
AcDbLine
 10
1895.8340594905
 20
112.2524144385
 30
0.0
 11
1920.3340594905
 21
69.8171696531
 31
0.0
  0
LINE
  5
2B8
100
AcDbEntity
  8
L1_160
  6
CENTER
 62
         1
100
AcDbLine
 10
1895.8340594905
 20
112.2524144385
 30
0.0
 11
1920.3340594905
 21
154.687659224
 31
0.0
  0
ARC
  5
2B9
100
AcDbEntity
  8
L1_160
  6
CONTINUOUS
 62
         7
100
AcDbCircle
 10
1619.0786999334
 20
68.0524144385
 30
0.0
 40
0.4
100
AcDbArc
 50
90.0
 51
178.4890283439
  0
LINE
  5
2BA
100
AcDbEntity
  8
L1_160
  6
CONTINUOUS
 62
         7
100
AcDbLine
 10
1618.6788390158
 20
68.062961788
 30
0.0
 11
1618.7786999334
 21
67.3524144385
 31
0.0
  0
LINE
  5
2BB
100
AcDbEntity
  8
L1_160
  6
CONTINUOUS
 62
         7
100
AcDbLine
 10
1621.9151916065
 20
68.2524144385
 30
0.0
 11
1621.2786999334
 21
68.2524144385
 31
0.0
  0
ARC
  5
2BC
100
AcDbEntity
  8
L1_160
  6
CONTINUOUS
 62
         7
100
AcDbCircle
 10
1620.4796287728
 20
68.0524144385
 30
0.0
 40
0.4
100
AcDbArc
 50
75.0
 51
90.0
  0
LINE
  5
2BD
100
AcDbEntity
  8
L1_160
  6
CONTINUOUS
 62
         7
100
AcDbLine
 10
1620.5831563909
 20
68.4387847691
 30
0.0
 11
1621.2786999334
 21
68.2524144385
 31
0.0
  0
LINE
  5
2BE
100
AcDbEntity
  8
L1_160
  6
CONTINUOUS
 62
         7
100
AcDbLine
 10
1620.4796287728
 20
68.4524144385
 30
0.0
 11
1619.0786999334
 21
68.4524144385
 31
0.0
  0
ARC
  5
2BF
100
AcDbEntity
  8
L1_160
  6
CONTINUOUS
 62
         7
100
AcDbCircle
 10
1619.0786999334
 20
156.4524144385
 30
0.0
 40
0.4
100
AcDbArc
 50
181.5109716561
 51
270.0
  0
LINE
  5
2C0
100
AcDbEntity
  8
L1_160
  6
CONTINUOUS
 62
         7
100
AcDbLine
 10
1618.6788390158
 20
156.4418670891
 30
0.0
 11
1618.7786999334
 21
157.1524144385
 31
0.0
  0
LINE
  5
2C1
100
AcDbEntity
  8
L1_160
  6
CONTINUOUS
 62
         7
100
AcDbLine
 10
1621.9151916065
 20
156.2524144385
 30
0.0
 11
1621.2786999334
 21
156.2524144385
 31
0.0
  0
ARC
  5
2C2
100
AcDbEntity
  8
L1_160
  6
CONTINUOUS
 62
         7
100
AcDbCircle
 10
1620.4796287728
 20
156.4524144385
 30
0.0
 40
0.4
100
AcDbArc
 50
270.0
 51
285.0
  0
LINE
  5
2C3
100
AcDbEntity
  8
L1_160
  6
CONTINUOUS
 62
         7
100
AcDbLine
 10
1620.5831563909
 20
156.066044108
 30
0.0
 11
1621.2786999334
 21
156.2524144385
 31
0.0
  0
LINE
  5
2C4
100
AcDbEntity
  8
L1_160
  6
CONTINUOUS
 62
         7
100
AcDbLine
 10
1620.4796287728
 20
156.0524144385
 30
0.0
 11
1619.0786999334
 21
156.0524144385
 31
0.0
  0
DIMENSION
  5
2C7
100
AcDbEntity
  8
L1_160
  6
CONTINUOUS
 62
         4
100
AcDbDimension
  2
*D4
 10
1711.4943444532
 20
152.7524144385
 30
0.0
 11
1707.4343444532
 21
101.7674228662
 31
0.0
  3
DIMSTYLE1
100
AcDbAlignedDimension
 13
1698.7786999334
 23
152.7524144385
 33
0.0
 14
1698.7786999334
 24
71.7524144385
 34
0.0
 50
90.0
100
AcDbRotatedDimension
  0
ARC
  5
2D3
100
AcDbEntity
  8
L1_160
  6
CONTINUOUS
 62
         7
100
AcDbCircle
 10
1692.180623722
 20
70.2524144385
 30
0.0
 40
2.0
100
AcDbArc
 50
270.0
 51
300.0
  0
LINE
  5
2D4
100
AcDbEntity
  8
L1_160
  6
CONTINUOUS
 62
         7
100
AcDbLine
 10
1697.7786999334
 20
71.1750641694
 30
0.0
 11
1693.180623722
 21
68.520363631
 31
0.0
  0
ARC
  5
2D5
100
AcDbEntity
  8
L1_160
  6
CONTINUOUS
 62
         7
100
AcDbCircle
 10
1696.7786999334
 20
72.9071149769
 30
0.0
 40
2.0
100
AcDbArc
 50
300.0
 51
360.0000000001
  0
ARC
  5
2D6
100
AcDbEntity
  8
L1_160
  6
CONTINUOUS
 62
         7
100
AcDbCircle
 10
1696.7786999334
 20
151.5977139002
 30
0.0
 40
2.0
100
AcDbArc
 50
0.0
 51
60.0
  0
LINE
  5
2D7
100
AcDbEntity
  8
L1_160
  6
CONTINUOUS
 62
         7
100
AcDbLine
 10
1697.7786999334
 20
153.3297647077
 30
0.0
 11
1693.180623722
 21
155.9844652461
 31
0.0
  0
ARC
  5
2D8
100
AcDbEntity
  8
L1_160
  6
CONTINUOUS
 62
         7
100
AcDbCircle
 10
1692.180623722
 20
154.2524144385
 30
0.0
 40
2.0
100
AcDbArc
 50
60.0
 51
90.0
  0
LINE
  5
2D9
100
AcDbEntity
  8
L1_160
  6
CENTER
 62
         1
100
AcDbLine
 10
1652.9826999334
 20
102.6939148875
 30
0.0
 11
1652.9826999334
 21
121.4784380859
 31
0.0
  0
LINE
  5
2DA
100
AcDbEntity
  8
L1_160
  6
CENTER
 62
         1
100
AcDbLine
 10
1629.0746999334
 20
102.6939148875
 30
0.0
 11
1629.0746999334
 21
121.4784380859
 31
0.0
  0
DIMENSION
  5
2DD
100
AcDbEntity
  8
L1_160
  6
CONTINUOUS
 62
         4
100
AcDbDimension
  2
*D5
 10
1741.7420079481
 20
161.2524144385
 30
0.0
 11
1737.6820079481
 21
105.8491388208
 31
0.0
  3
DIMSTYLE1
100
AcDbAlignedDimension
 13
1617.7786999334
 23
161.2524144385
 33
0.0
 14
1617.7786999334
 24
63.2524144385
 34
0.0
 50
90.0
100
AcDbRotatedDimension
  0
LINE
  5
2E9
100
AcDbEntity
  8
L1_160
  6
CONTINUOUS
 62
         4
100
AcDbLine
 10
1617.7786999334
 20
161.2524144385
 30
0.0
 11
1617.7786999334
 21
63.2524144385
 31
0.0
  0
LINE
  5
2EA
100
AcDbEntity
  8
L1_160
  6
CONTINUOUS
 62
         7
100
AcDbLine
 10
1618.7786999334
 20
68.3169895697
 30
0.0
 11
1618.7786999334
 21
156.1878393074
 31
0.0
  0
LINE
  5
2EB
100
AcDbEntity
  8
L1_160
  6
CONTINUOUS
 62
         7
100
AcDbLine
 10
1698.7786999334
 20
72.9071149769
 30
0.0
 11
1698.7786999334
 21
151.5977139002
 31
0.0
  0
LINE
  5
2EC
100
AcDbEntity
  8
L1_160
  6
CONTINUOUS
 62
         7
100
AcDbLine
 10
1675.1786999334
 20
156.2524144385
 30
0.0
 11
1621.2786999334
 21
156.2524144385
 31
0.0
  0
LINE
  5
2ED
100
AcDbEntity
  8
L1_160
  6
CONTINUOUS
 62
         7
100
AcDbLine
 10
1692.180623722
 20
156.2524144385
 30
0.0
 11
1677.8786999334
 21
156.2524144385
 31
0.0
  0
LINE
  5
2EE
100
AcDbEntity
  8
L1_160
  6
CONTINUOUS
 62
         7
100
AcDbLine
 10
1675.1786999334
 20
68.2524144385
 30
0.0
 11
1621.2786999334
 21
68.2524144385
 31
0.0
  0
LINE
  5
2EF
100
AcDbEntity
  8
L1_160
  6
CONTINUOUS
 62
         7
100
AcDbLine
 10
1692.180623722
 20
68.2524144385
 30
0.0
 11
1677.8786999334
 21
68.2524144385
 31
0.0
  0
LINE
  5
2F0
100
AcDbEntity
  8
L1_160
  6
CONTINUOUS
 62
         7
100
AcDbLine
 10
1677.7786999334
 20
156.1524144385
 30
0.0
 11
1677.7786999334
 21
68.3524144385
 31
0.0
  0
LINE
  5
2F1
100
AcDbEntity
  8
L1_160
  6
CONTINUOUS
 62
         7
100
AcDbLine
 10
1675.2786999334
 20
156.1524144385
 30
0.0
 11
1675.2786999334
 21
68.3524144385
 31
0.0
  0
LINE
  5
2F2
100
AcDbEntity
  8
L1_160
  6
CONTINUOUS
 62
         4
100
AcDbLine
 10
1621.2786999334
 20
68.2524144385
 30
0.0
 11
1621.2786999334
 21
156.2524144385
 31
0.0
  0
LINE
  5
2F3
100
AcDbEntity
  8
L1_160
  6
CONTINUOUS
 62
         7
100
AcDbLine
 10
1652.9826999334
 20
118.1524144385
 30
0.0
 11
1629.0746999334
 21
118.1524144385
 31
0.0
  0
LINE
  5
2F4
100
AcDbEntity
  8
L1_160
  6
CONTINUOUS
 62
         7
100
AcDbLine
 10
1652.9826999334
 20
106.3524144385
 30
0.0
 11
1629.0746999334
 21
106.3524144385
 31
0.0
  0
ARC
  5
2F5
100
AcDbEntity
  8
L1_160
  6
CONTINUOUS
 62
         7
100
AcDbCircle
 10
1652.9826999334
 20
112.2524144385
 30
0.0
 40
5.9
100
AcDbArc
 50
270.0
 51
450.0
  0
ARC
  5
2F6
100
AcDbEntity
  8
L1_160
  6
CONTINUOUS
 62
         7
100
AcDbCircle
 10
1629.0746999334
 20
112.2524144385
 30
0.0
 40
5.9
100
AcDbArc
 50
90.0
 51
270.0
  0
LINE
  5
2F7
100
AcDbEntity
  8
L1_160
  6
CONTINUOUS
 62
         7
100
AcDbLine
 10
1675.1786999334
 20
156.2524144385
 30
0.0
 11
1675.2786999334
 21
156.1524144385
 31
0.0
  0
LINE
  5
2F8
100
AcDbEntity
  8
L1_160
  6
CONTINUOUS
 62
         7
100
AcDbLine
 10
1677.7786999334
 20
156.1524144385
 30
0.0
 11
1677.8786999334
 21
156.2524144385
 31
0.0
  0
LINE
  5
2F9
100
AcDbEntity
  8
L1_160
  6
CONTINUOUS
 62
         7
100
AcDbLine
 10
1675.2786999334
 20
68.3524144385
 30
0.0
 11
1675.1786999334
 21
68.2524144385
 31
0.0
  0
LINE
  5
2FA
100
AcDbEntity
  8
L1_160
  6
CONTINUOUS
 62
         7
100
AcDbLine
 10
1677.7786999334
 20
68.3524144385
 30
0.0
 11
1677.8786999334
 21
68.2524144385
 31
0.0
  0
LINE
  5
2FB
100
AcDbEntity
  8
L1_160
  6
CONTINUOUS
 62
         7
100
AcDbLine
 10
1677.7786999334
 20
155.0024144385
 30
0.0
 11
1675.2786999334
 21
155.0024144385
 31
0.0
  0
LINE
  5
2FC
100
AcDbEntity
  8
L1_160
  6
CONTINUOUS
 62
         7
100
AcDbLine
 10
1677.7786999334
 20
69.5024144385
 30
0.0
 11
1675.2786999334
 21
69.5024144385
 31
0.0
  0
LINE
  5
2FD
100
AcDbEntity
  8
L1_160
  6
CONTINUOUS
 62
         7
100
AcDbLine
 10
1617.7786999334
 20
161.2524144385
 30
0.0
 11
1559.8306999334
 21
161.2524144385
 31
0.0
  0
LINE
  5
2FE
100
AcDbEntity
  8
L1_160
  6
CONTINUOUS
 62
         7
100
AcDbLine
 10
1618.7786999334
 20
157.1524144385
 30
0.0
 11
1618.7786999334
 21
160.2524144385
 31
0.0
  0
ARC
  5
2FF
100
AcDbEntity
  8
L1_160
  6
CONTINUOUS
 62
         7
100
AcDbCircle
 10
1617.7786999334
 20
160.2524144385
 30
0.0
 40
1.0
100
AcDbArc
 50
0.0
 51
90.0
  0
LINE
  5
300
100
AcDbEntity
  8
L1_160
  6
CONTINUOUS
 62
         7
100
AcDbLine
 10
1618.7786999334
 20
67.3524144385
 30
0.0
 11
1618.7786999334
 21
64.2524144385
 31
0.0
  0
LINE
  5
301
100
AcDbEntity
  8
L1_160
  6
CONTINUOUS
 62
         7
100
AcDbLine
 10
1617.7786999334
 20
63.2524144385
 30
0.0
 11
1559.8306999334
 21
63.2524144385
 31
0.0
  0
ARC
  5
302
100
AcDbEntity
  8
L1_160
  6
CONTINUOUS
 62
         7
100
AcDbCircle
 10
1617.7786999334
 20
64.2524144385
 30
0.0
 40
1.0
100
AcDbArc
 50
270.0
 51
360.0
  0
LINE
  5
303
100
AcDbEntity
  8
L1_160
  6
CENTER
 62
         1
100
AcDbLine
 10
1698.7786999334
 20
112.2524144385
 30
0.0
 11
1479.0568428369
 21
112.2524144385
 31
0.0
  0
LINE
  5
304
100
AcDbEntity
  8
L1_160
  6
CONTINUOUS
 62
         4
100
AcDbLine
 10
1692.7165221069
 20
68.2524144385
 30
0.0
 11
1692.7165221069
 21
156.1792805266
 31
0.0
  0
DIMENSION
  5
307
100
AcDbEntity
  8
L1_160
  6
CONTINUOUS
 62
         4
100
AcDbDimension
  2
*D6
 10
1698.7786999334
 20
214.7310898294
 30
0.0
 11
1602.7714673985
 21
217.3560898294
 31
0.0
  3
DIMSTYLE1
100
AcDbAlignedDimension
 13
1698.7786999334
 23
112.2524144385
 33
0.0
 14
1523.7786999334
 24
151.9774144385
 34
0.0
100
AcDbRotatedDimension
  0
DIMENSION
  5
315
100
AcDbEntity
  8
L1_160
  6
CONTINUOUS
 62
         4
100
AcDbDimension
  2
*D7
 10
1422.1786999334
 20
223.1146374495
 30
0.0
 11
1558.4528640613
 21
225.7396374495
 31
0.0
  3
DIMSTYLE1
100
AcDbAlignedDimension
 13
1422.1786999334
 23
130.1987502026
 33
0.0
 14
1698.7786999334
 24
112.2524144385
 34
0.0
100
AcDbRotatedDimension
  0
LINE
  5
321
100
AcDbEntity
  8
L1_160
  6
CENTER
 62
         1
100
AcDbLine
 10
1523.7786999334
 20
151.9774144385
 30
0.0
 11
1523.7786999334
 21
73.981360093
 31
0.0
  0
LINE
  5
322
100
AcDbEntity
  8
L1_160
  6
CONTINUOUS
 62
         7
100
AcDbLine
 10
1526.9786999334
 20
159.5024144385
 30
0.0
 11
1526.9786999334
 21
65.0024144385
 31
0.0
  0
LINE
  5
323
100
AcDbEntity
  8
L1_160
  6
CONTINUOUS
 62
         7
100
AcDbLine
 10
1422.1786999334
 20
130.1987502026
 30
0.0
 11
1422.1786999334
 21
94.3060786745
 31
0.0
  0
ARC
  5
324
100
AcDbEntity
  8
L1_160
  6
CONTINUOUS
 62
         7
100
AcDbCircle
 10
1559.8306999334
 20
160.2524144385
 30
0.0
 40
1.0
100
AcDbArc
 50
90.0
 51
180.0
  0
ARC
  5
325
100
AcDbEntity
  8
L1_160
  6
CONTINUOUS
 62
         7
100
AcDbCircle
 10
1559.8306999334
 20
64.2524144385
 30
0.0
 40
1.0
100
AcDbArc
 50
180.0
 51
270.0
  0
LINE
  5
326
100
AcDbEntity
  8
L1_160
  6
CONTINUOUS
 62
         7
100
AcDbLine
 10
1558.8306999334
 20
-174.7400166132
 30
0.0
 11
1558.8306999334
 21
-162.1650166132
 31
0.0
  0
ARC
  5
327
100
AcDbEntity
  8
L1_160
  6
CONTINUOUS
 62
         7
100
AcDbCircle
 10
1559.8306999334
 20
-78.7400166132
 30
0.0
 40
1.0
100
AcDbArc
 50
90.0
 51
180.0
  0
ARC
  5
328
100
AcDbEntity
  8
L1_160
  6
CONTINUOUS
 62
         7
100
AcDbCircle
 10
1559.8306999334
 20
-174.7400166132
 30
0.0
 40
1.0
100
AcDbArc
 50
180.0
 51
270.0
  0
LINE
  5
329
100
AcDbEntity
  8
L1_160
  6
CONTINUOUS
 62
         7
100
AcDbLine
 10
1558.8306999334
 20
-91.3150166132
 30
0.0
 11
1558.8306999334
 21
-78.7400166132
 31
0.0
  0
LINE
  5
32A
100
AcDbEntity
  8
_Y__________
  6
CENTER
 62
         1
100
AcDbLine
 10
1694.6947626958
 20
-280.7944772964
 30
0.0
 11
1151.9249780211
 21
-280.7944772964
 31
0.0
  0
LINE
  5
32B
100
AcDbEntity
  8
_Y__________
  6
CONTINUOUS
 62
         4
100
AcDbLine
 10
1256.4359258715
 20
-267.5444772964
 30
0.0
 11
1256.4359258715
 21
-294.0444772964
 31
0.0
  0
LINE
  5
32C
100
AcDbEntity
  8
_Y__________
  6
CONTINUOUS
 62
         7
100
AcDbLine
 10
1255.9359258715
 20
-293.5444772964
 30
0.0
 11
1256.4359258715
 21
-294.0444772964
 31
0.0
  0
LINE
  5
32D
100
AcDbEntity
  8
_Y__________
  6
CONTINUOUS
 62
         7
100
AcDbLine
 10
1255.9359258715
 20
-268.0444772964
 30
0.0
 11
1256.4359258715
 21
-267.5444772964
 31
0.0
  0
LINE
  5
32E
100
AcDbEntity
  8
_Y__________
  6
CENTER
 62
         1
100
AcDbLine
 10
1414.6355112565
 20
-284.0915311308
 30
0.0
 11
1414.6355112565
 21
-277.0343271184
 31
0.0
  0
LINE
  5
32F
100
AcDbEntity
  8
_Y__________
  6
CENTER
 62
         1
100
AcDbLine
 10
1429.1855112565
 20
-298.7628388929
 30
0.0
 11
1429.1855112565
 21
-290.9686102589
 31
0.0
  0
LINE
  5
330
100
AcDbEntity
  8
_Y__________
  6
CENTER
 62
         1
100
AcDbLine
 10
1375.2890966414
 20
-289.2311523012
 30
0.0
 11
1375.2890966414
 21
-271.3310585273
 31
0.0
  0
ARC
  5
331
100
AcDbEntity
  8
_Y__________
  6
CONTINUOUS
 62
         7
100
AcDbCircle
 10
1389.7741427622
 20
-280.7944772964
 30
0.0
 40
5.556
100
AcDbArc
 50
270.0
 51
450.0
  0
LINE
  5
332
100
AcDbEntity
  8
_Y__________
  6
CONTINUOUS
 62
         7
100
AcDbLine
 10
1389.7741427622
 20
-286.3504772964
 30
0.0
 11
1375.2890966414
 21
-286.3504772964
 31
0.0
  0
LINE
  5
333
100
AcDbEntity
  8
_Y__________
  6
CONTINUOUS
 62
         7
100
AcDbLine
 10
1389.7741427622
 20
-275.2384772964
 30
0.0
 11
1375.2890966414
 21
-275.2384772964
 31
0.0
  0
ARC
  5
334
100
AcDbEntity
  8
_Y__________
  6
CONTINUOUS
 62
         7
100
AcDbCircle
 10
1375.2890966414
 20
-280.7944772964
 30
0.0
 40
5.556
100
AcDbArc
 50
90.0
 51
270.0
  0
LINE
  5
335
100
AcDbEntity
  8
_Y__________
  6
CENTER
 62
         1
100
AcDbLine
 10
1401.0098198669
 20
-280.7944772964
 30
0.0
 11
1362.3935467343
 21
-280.7944772964
 31
0.0
  0
LINE
  5
336
100
AcDbEntity
  8
_Y__________
  6
CENTER
 62
         1
100
AcDbLine
 10
1389.7741427622
 20
-289.2311523012
 30
0.0
 11
1389.7741427622
 21
-271.3310585273
 31
0.0
  0
DIMENSION
  5
339
100
AcDbEntity
  8
_Y__________
  6
CONTINUOUS
 62
         4
100
AcDbDimension
  2
*D8
 10
1230.884771443
 20
-231.7944772964
 30
0.0
 11
1228.259771443
 21
-287.7944772964
 31
0.0
  3
DIMSTYLE1
100
AcDbAlignedDimension
 13
1206.1315366602
 23
-231.7944772964
 33
0.0
 14
1206.1315366602
 24
-329.7944772964
 34
0.0
 50
90.0
100
AcDbRotatedDimension
  0
DIMENSION
  5
347
100
AcDbEntity
  8
_Y__________
  6
CONTINUOUS
 62
         4
100
AcDbDimension
  2
*D9
 10
1294.9062102409
 20
-263.7944772964
 30
0.0
 11
1292.2812102409
 21
-291.2944772964
 31
0.0
  3
DIMSTYLE1
100
AcDbAlignedDimension
 13
1281.3359258715
 23
-263.7944772964
 33
0.0
 14
1281.3359258715
 24
-297.7944772964
 34
0.0
 50
90.0
100
AcDbRotatedDimension
  0
DIMENSION
  5
355
100
AcDbEntity
  8
_Y__________
  6
CONTINUOUS
 62
         4
100
AcDbDimension
  2
*D10
 10
1551.7363909254
 20
-256.7944772964
 30
0.0
 11
1549.1113909254
 21
-287.7944772964
 31
0.0
  3
DIMSTYLE1
100
AcDbAlignedDimension
 13
1537.0355112565
 23
-256.7944772964
 33
0.0
 14
1537.0355112565
 24
-304.7944772964
 34
0.0
 50
90.0
100
AcDbRotatedDimension
  0
DIMENSION
  5
363
100
AcDbEntity
  8
_Y__________
  6
CONTINUOUS
 62
         4
100
AcDbDimension
  2
*D11
 10
1670.4567653039
 20
-240.7944772964
 30
0.0
 11
1667.8317653039
 21
-287.7944772964
 31
0.0
  3
DIMSTYLE1
100
AcDbAlignedDimension
 13
1653.6855112565
 23
-240.7944772964
 33
0.0
 14
1653.6855112565
 24
-320.7944772964
 34
0.0
 50
90.0
100
AcDbRotatedDimension
  0
DIMENSION
  5
371
100
AcDbEntity
  8
_Y__________
  6
CONTINUOUS
 62
         4
100
AcDbDimension
  2
*D12
 10
1587.1355112565
 20
-237.7524712091
 30
0.0
 11
1611.9105112565
 21
-235.1274712091
 31
0.0
  3
DIMSTYLE1
100
AcDbAlignedDimension
 13
1587.1355112565
 23
-243.4944772964
 33
0.0
 14
1654.1855112565
 24
-241.2944772964
 34
0.0
100
AcDbRotatedDimension
  0
DIMENSION
  5
37F
100
AcDbEntity
  8
_Y__________
  6
CONTINUOUS
 62
         4
100
AcDbDimension
  2
*D13
 10
1514.8355112565
 20
-244.2570441974
 30
0.0
 11
1518.9855112565
 21
-241.6320441974
 31
0.0
  3
DIMSTYLE1
100
AcDbAlignedDimension
 13
1514.8355112565
 23
-257.2944772964
 33
0.0
 14
1537.1355112565
 24
-256.8944772964
 34
0.0
100
AcDbRotatedDimension
  0
DIMENSION
  5
38D
100
AcDbEntity
  8
_Y__________
  6
CONTINUOUS
 62
         4
100
AcDbDimension
  2
*D14
 10
1332.8355112565
 20
-226.662746201
 30
0.0
 11
1339.4566918512
 21
-224.037746201
 31
0.0
  3
DIMSTYLE1
100
AcDbAlignedDimension
 13
1332.8355112565
 23
-257.7944772964
 33
0.0
 14
1363.577872446
 24
-244.2944772964
 34
0.0
100
AcDbRotatedDimension
  0
DIMENSION
  5
39B
100
AcDbEntity
  8
_Y__________
  6
CONTINUOUS
 62
         4
100
AcDbDimension
  2
*D15
 10
1476.1855112565
 20
-223.8157868651
 30
0.0
 11
1429.4105112565
 21
-221.1907868651
 31
0.0
  3
DIMSTYLE1
100
AcDbAlignedDimension
 13
1476.1855112565
 23
-252.7944772964
 33
0.0
 14
1400.1355112565
 24
-244.2944772964
 34
0.0
100
AcDbRotatedDimension
  0
DIMENSION
  5
3A9
100
AcDbEntity
  8
_Y__________
  6
CONTINUOUS
 62
         4
100
AcDbDimension
  2
*D16
 10
1332.8355112565
 20
-213.6142211834
 30
0.0
 11
1394.0105112565
 21
-210.9892211834
 31
0.0
  3
DIMSTYLE1
100
AcDbAlignedDimension
 13
1332.8355112565
 23
-257.7944772964
 33
0.0
 14
1476.1855112565
 24
-252.7944772964
 34
0.0
100
AcDbRotatedDimension
  0
DIMENSION
  5
3B7
100
AcDbEntity
  8
_Y__________
  6
CONTINUOUS
 62
         4
100
AcDbDimension
  2
*D17
 10
1159.2655112565
 20
-218.6897932945
 30
0.0
 11
1180.7655112565
 21
-216.0647932945
 31
0.0
  3
DIMSTYLE1
100
AcDbAlignedDimension
 13
1159.2655112565
 23
-232.2944772964
 33
0.0
 14
1209.2655112565
 24
-233.583152431
 34
0.0
100
AcDbRotatedDimension
  0
LINE
  5
3C3
100
AcDbEntity
  8
_Y__________
  6
CONTINUOUS
 62
         4
100
AcDbLine
 10
1653.6855112565
 20
-320.7944772964
 30
0.0
 11
1653.6855112565
 21
-240.7944772964
 31
0.0
  0
LINE
  5
3C4
100
AcDbEntity
  8
_Y__________
  6
CONTINUOUS
 62
         4
100
AcDbLine
 10
1643.6855112565
 20
-240.7944772964
 30
0.0
 11
1643.6855112565
 21
-320.7944772964
 31
0.0
  0
LINE
  5
3C5
100
AcDbEntity
  8
_Y__________
  6
CONTINUOUS
 62
         4
100
AcDbLine
 10
1642.1855112565
 20
-243.2944772964
 30
0.0
 11
1642.1855112565
 21
-318.2944772964
 31
0.0
  0
LINE
  5
3C6
100
AcDbEntity
  8
_Y__________
  6
CONTINUOUS
 62
         4
100
AcDbLine
 10
1587.3355112565
 20
-243.2944772964
 30
0.0
 11
1587.3355112565
 21
-318.2944772964
 31
0.0
  0
LINE
  5
3C7
100
AcDbEntity
  8
_Y__________
  6
CONTINUOUS
 62
         4
100
AcDbLine
 10
1537.0355112565
 20
-256.7944772964
 30
0.0
 11
1537.0355112565
 21
-304.7944772964
 31
0.0
  0
LINE
  5
3C8
100
AcDbEntity
  8
_Y__________
  6
CONTINUOUS
 62
         4
100
AcDbLine
 10
1533.7355112565
 20
-304.7944772964
 30
0.0
 11
1533.7355112565
 21
-256.7944772964
 31
0.0
  0
LINE
  5
3C9
100
AcDbEntity
  8
_Y__________
  6
CONTINUOUS
 62
         4
100
AcDbLine
 10
1520.7355112565
 20
-256.7944772964
 30
0.0
 11
1520.7355112565
 21
-304.7944772964
 31
0.0
  0
LINE
  5
3CA
100
AcDbEntity
  8
_Y__________
  6
CONTINUOUS
 62
         4
100
AcDbLine
 10
1515.3355112565
 20
-256.7944772964
 30
0.0
 11
1515.3355112565
 21
-304.7944772964
 31
0.0
  0
LINE
  5
3CB
100
AcDbEntity
  8
_Y__________
  6
CONTINUOUS
 62
         4
100
AcDbLine
 10
1475.6855112565
 20
-252.2944772964
 30
0.0
 11
1475.6855112565
 21
-268.5444772964
 31
0.0
  0
LINE
  5
3CC
100
AcDbEntity
  8
_Y__________
  6
CONTINUOUS
 62
         4
100
AcDbLine
 10
1401.1355112565
 20
-252.2944772964
 30
0.0
 11
1401.1355112565
 21
-309.2944772964
 31
0.0
  0
LINE
  5
3CD
100
AcDbEntity
  8
_Y__________
  6
CONTINUOUS
 62
         4
100
AcDbLine
 10
1399.1355112565
 20
-318.2944772964
 30
0.0
 11
1399.1355112565
 21
-243.2944772964
 31
0.0
  0
LINE
  5
3CE
100
AcDbEntity
  8
_Y__________
  6
CONTINUOUS
 62
         4
100
AcDbLine
 10
1364.577872446
 20
-243.2944772964
 30
0.0
 11
1364.577872446
 21
-318.2944772964
 31
0.0
  0
LINE
  5
3CF
100
AcDbEntity
  8
_Y__________
  6
CONTINUOUS
 62
         4
100
AcDbLine
 10
1362.577872446
 20
-256.7944772964
 30
0.0
 11
1362.577872446
 21
-304.7944772964
 31
0.0
  0
LINE
  5
3D0
100
AcDbEntity
  8
_Y__________
  6
CONTINUOUS
 62
         4
100
AcDbLine
 10
1333.8355112565
 20
-256.7944772964
 30
0.0
 11
1333.8355112565
 21
-304.7944772964
 31
0.0
  0
LINE
  5
3D1
100
AcDbEntity
  8
_Y__________
  6
CONTINUOUS
 62
         4
100
AcDbLine
 10
1276.3359258715
 20
-267.5444772964
 30
0.0
 11
1276.3359258715
 21
-294.0444772964
 31
0.0
  0
LINE
  5
3D2
100
AcDbEntity
  8
_Y__________
  6
CONTINUOUS
 62
         4
100
AcDbLine
 10
1276.9359258715
 20
-263.7944772964
 30
0.0
 11
1276.9359258715
 21
-297.7944772964
 31
0.0
  0
LINE
  5
3D3
100
AcDbEntity
  8
_Y__________
  6
CONTINUOUS
 62
         4
100
AcDbLine
 10
1281.3359258715
 20
-263.7944772964
 30
0.0
 11
1281.3359258715
 21
-297.7944772964
 31
0.0
  0
LINE
  5
3D4
100
AcDbEntity
  8
_Y__________
  6
CONTINUOUS
 62
         4
100
AcDbLine
 10
1206.6674350451
 20
-231.8676112084
 30
0.0
 11
1206.6674350451
 21
-329.7213433844
 31
0.0
  0
LINE
  5
3D5
100
AcDbEntity
  8
_Y__________
  6
CONTINUOUS
 62
         4
100
AcDbLine
 10
1159.7655112565
 20
-231.7944772964
 30
0.0
 11
1159.7655112565
 21
-329.7944772964
 31
0.0
  0
LINE
  5
3D6
100
AcDbEntity
  8
_Y__________
  6
CONTINUOUS
 62
         7
100
AcDbLine
 10
1281.8359258715
 20
-297.2944772964
 30
0.0
 11
1281.8359258715
 21
-264.2944772964
 31
0.0
  0
LINE
  5
3D7
100
AcDbEntity
  8
_Y__________
  6
CONTINUOUS
 62
         7
100
AcDbLine
 10
1255.9359258715
 20
-293.5444772964
 30
0.0
 11
1255.9359258715
 21
-268.0444772964
 31
0.0
  0
LINE
  5
3D8
100
AcDbEntity
  8
_Y__________
  6
CONTINUOUS
 62
         7
100
AcDbLine
 10
1281.8359258715
 20
-297.2944772964
 30
0.0
 11
1281.3359258715
 21
-297.7944772964
 31
0.0
  0
LINE
  5
3D9
100
AcDbEntity
  8
_Y__________
  6
CONTINUOUS
 62
         7
100
AcDbLine
 10
1281.3359258715
 20
-297.7944772964
 30
0.0
 11
1276.9359258715
 21
-297.7944772964
 31
0.0
  0
ARC
  5
3DA
100
AcDbEntity
  8
_Y__________
  6
CONTINUOUS
 62
         7
100
AcDbCircle
 10
1276.3359258715
 20
-294.5444772964
 30
0.0
 40
0.5
100
AcDbArc
 50
0.0
 51
90.0
  0
LINE
  5
3DB
100
AcDbEntity
  8
_Y__________
  6
CONTINUOUS
 62
         7
100
AcDbLine
 10
1276.3359258715
 20
-294.0444772964
 30
0.0
 11
1256.4359258715
 21
-294.0444772964
 31
0.0
  0
LINE
  5
3DC
100
AcDbEntity
  8
_Y__________
  6
CONTINUOUS
 62
         7
100
AcDbLine
 10
1276.9359258715
 20
-297.7944772964
 30
0.0
 11
1276.8359258715
 21
-297.6944772964
 31
0.0
  0
LINE
  5
3DD
100
AcDbEntity
  8
_Y__________
  6
CONTINUOUS
 62
         7
100
AcDbLine
 10
1281.3359258715
 20
-263.7944772964
 30
0.0
 11
1281.8359258715
 21
-264.2944772964
 31
0.0
  0
LINE
  5
3DE
100
AcDbEntity
  8
_Y__________
  6
CONTINUOUS
 62
         7
100
AcDbLine
 10
1281.3359258715
 20
-263.7944772964
 30
0.0
 11
1276.9359258715
 21
-263.7944772964
 31
0.0
  0
LINE
  5
3DF
100
AcDbEntity
  8
_Y__________
  6
CONTINUOUS
 62
         7
100
AcDbLine
 10
1276.3359258715
 20
-267.5444772964
 30
0.0
 11
1256.4359258715
 21
-267.5444772964
 31
0.0
  0
LINE
  5
3E0
100
AcDbEntity
  8
_Y__________
  6
CONTINUOUS
 62
         7
100
AcDbLine
 10
1276.8359258715
 20
-297.6944772964
 30
0.0
 11
1276.8359258715
 21
-263.8944772964
 31
0.0
  0
ARC
  5
3E1
100
AcDbEntity
  8
_Y__________
  6
CONTINUOUS
 62
         7
100
AcDbCircle
 10
1276.3359258715
 20
-267.0444772964
 30
0.0
 40
0.5
100
AcDbArc
 50
270.0
 51
360.0
  0
LINE
  5
3E2
100
AcDbEntity
  8
_Y__________
  6
CONTINUOUS
 62
         7
100
AcDbLine
 10
1276.8359258715
 20
-263.8944772964
 30
0.0
 11
1276.9359258715
 21
-263.7944772964
 31
0.0
  0
LINE
  5
3E3
100
AcDbEntity
  8
_Y__________
  6
CONTINUOUS
 62
         7
100
AcDbLine
 10
1533.6355112565
 20
-304.6944772964
 30
0.0
 11
1533.6355112565
 21
-256.8944772964
 31
0.0
  0
LINE
  5
3E4
100
AcDbEntity
  8
_Y__________
  6
CONTINUOUS
 62
         7
100
AcDbLine
 10
1537.0355112565
 20
-256.7944772964
 30
0.0
 11
1537.1355112565
 21
-256.8944772964
 31
0.0
  0
LINE
  5
3E5
100
AcDbEntity
  8
_Y__________
  6
CONTINUOUS
 62
         7
100
AcDbLine
 10
1537.0355112565
 20
-256.7944772964
 30
0.0
 11
1533.7355112565
 21
-256.7944772964
 31
0.0
  0
LINE
  5
3E6
100
AcDbEntity
  8
_Y__________
  6
CONTINUOUS
 62
         7
100
AcDbLine
 10
1533.7355112565
 20
-256.7944772964
 30
0.0
 11
1533.6355112565
 21
-256.8944772964
 31
0.0
  0
LINE
  5
3E7
100
AcDbEntity
  8
_Y__________
  6
CONTINUOUS
 62
         7
100
AcDbLine
 10
1533.6355112565
 20
-258.7944772964
 30
0.0
 11
1520.8355112565
 21
-258.7944772964
 31
0.0
  0
LINE
  5
3E8
100
AcDbEntity
  8
_Y__________
  6
CONTINUOUS
 62
         7
100
AcDbLine
 10
1537.1355112565
 20
-304.6944772964
 30
0.0
 11
1537.0355112565
 21
-304.7944772964
 31
0.0
  0
LINE
  5
3E9
100
AcDbEntity
  8
_Y__________
  6
CONTINUOUS
 62
         7
100
AcDbLine
 10
1537.0355112565
 20
-304.7944772964
 30
0.0
 11
1533.7355112565
 21
-304.7944772964
 31
0.0
  0
LINE
  5
3EA
100
AcDbEntity
  8
_Y__________
  6
CONTINUOUS
 62
         7
100
AcDbLine
 10
1533.6355112565
 20
-304.6944772964
 30
0.0
 11
1533.7355112565
 21
-304.7944772964
 31
0.0
  0
LINE
  5
3EB
100
AcDbEntity
  8
_Y__________
  6
CONTINUOUS
 62
         7
100
AcDbLine
 10
1533.6355112565
 20
-302.7944772964
 30
0.0
 11
1520.8355112565
 21
-302.7944772964
 31
0.0
  0
LINE
  5
3EC
100
AcDbEntity
  8
_Y__________
  6
CONTINUOUS
 62
         7
100
AcDbLine
 10
1537.1355112565
 20
-304.6944772964
 30
0.0
 11
1537.1355112565
 21
-256.8944772964
 31
0.0
  0
LINE
  5
3ED
100
AcDbEntity
  8
_Y__________
  6
CONTINUOUS
 62
         7
100
AcDbLine
 10
1520.8355112565
 20
-304.6944772964
 30
0.0
 11
1520.8355112565
 21
-256.8944772964
 31
0.0
  0
LINE
  5
3EE
100
AcDbEntity
  8
_Y__________
  6
CONTINUOUS
 62
         7
100
AcDbLine
 10
1520.7355112565
 20
-256.7944772964
 30
0.0
 11
1515.3355112565
 21
-256.7944772964
 31
0.0
  0
LINE
  5
3EF
100
AcDbEntity
  8
_Y__________
  6
CONTINUOUS
 62
         7
100
AcDbLine
 10
1515.3355112565
 20
-256.7944772964
 30
0.0
 11
1514.8355112565
 21
-257.2944772964
 31
0.0
  0
LINE
  5
3F0
100
AcDbEntity
  8
_Y__________
  6
CONTINUOUS
 62
         7
100
AcDbLine
 10
1520.7355112565
 20
-256.7944772964
 30
0.0
 11
1520.8355112565
 21
-256.8944772964
 31
0.0
  0
LINE
  5
3F1
100
AcDbEntity
  8
_Y__________
  6
CONTINUOUS
 62
         7
100
AcDbLine
 10
1520.7355112565
 20
-304.7944772964
 30
0.0
 11
1515.3355112565
 21
-304.7944772964
 31
0.0
  0
LINE
  5
3F2
100
AcDbEntity
  8
_Y__________
  6
CONTINUOUS
 62
         7
100
AcDbLine
 10
1514.8355112565
 20
-304.2944772964
 30
0.0
 11
1515.3355112565
 21
-304.7944772964
 31
0.0
  0
LINE
  5
3F3
100
AcDbEntity
  8
_Y__________
  6
CONTINUOUS
 62
         7
100
AcDbLine
 10
1520.8355112565
 20
-304.6944772964
 30
0.0
 11
1520.7355112565
 21
-304.7944772964
 31
0.0
  0
LINE
  5
3F4
100
AcDbEntity
  8
_Y__________
  6
CONTINUOUS
 62
         7
100
AcDbLine
 10
1514.8355112565
 20
-304.2944772964
 30
0.0
 11
1514.8355112565
 21
-257.2944772964
 31
0.0
  0
LINE
  5
3F5
100
AcDbEntity
  8
_Y__________
  6
CONTINUOUS
 62
         7
100
AcDbLine
 10
1332.8355112565
 20
-303.7944772964
 30
0.0
 11
1332.8355112565
 21
-257.7944772964
 31
0.0
  0
LINE
  5
3F6
100
AcDbEntity
  8
_Y__________
  6
CONTINUOUS
 62
         7
100
AcDbLine
 10
1362.577872446
 20
-256.7944772964
 30
0.0
 11
1333.8355112565
 21
-256.7944772964
 31
0.0
  0
LINE
  5
3F7
100
AcDbEntity
  8
_Y__________
  6
CONTINUOUS
 62
         7
100
AcDbLine
 10
1332.8355112565
 20
-257.7944772964
 30
0.0
 11
1333.8355112565
 21
-256.7944772964
 31
0.0
  0
LINE
  5
3F8
100
AcDbEntity
  8
_Y__________
  6
CONTINUOUS
 62
         7
100
AcDbLine
 10
1332.8355112565
 20
-303.7944772964
 30
0.0
 11
1333.8355112565
 21
-304.7944772964
 31
0.0
  0
LINE
  5
3F9
100
AcDbEntity
  8
_Y__________
  6
CONTINUOUS
 62
         7
100
AcDbLine
 10
1362.577872446
 20
-304.7944772964
 30
0.0
 11
1333.8355112565
 21
-304.7944772964
 31
0.0
  0
ARC
  5
3FA
100
AcDbEntity
  8
_Y__________
  6
CONTINUOUS
 62
         7
100
AcDbCircle
 10
1400.6355112565
 20
-309.2944772964
 30
0.0
 40
0.5
100
AcDbArc
 50
0.0
 51
180.0
  0
ARC
  5
3FB
100
AcDbEntity
  8
_Y__________
  6
CONTINUOUS
 62
         7
100
AcDbCircle
 10
1400.6355112565
 20
-252.2944772964
 30
0.0
 40
0.5
100
AcDbArc
 50
180.0
 51
360.0
  0
ARC
  5
3FC
100
AcDbEntity
  8
_Y__________
  6
CONTINUOUS
 62
         7
100
AcDbCircle
 10
1363.077872446
 20
-256.7944772964
 30
0.0
 40
0.5
100
AcDbArc
 50
180.0
 51
360.0
  0
ARC
  5
3FD
100
AcDbEntity
  8
_Y__________
  6
CONTINUOUS
 62
         7
100
AcDbCircle
 10
1363.077872446
 20
-304.7944772964
 30
0.0
 40
0.5
100
AcDbArc
 50
0.0
 51
180.0
  0
LINE
  5
3FE
100
AcDbEntity
  8
_Y__________
  6
CONTINUOUS
 62
         7
100
AcDbLine
 10
1476.1855112565
 20
-308.7944772964
 30
0.0
 11
1475.6855112565
 21
-309.2944772964
 31
0.0
  0
LINE
  5
3FF
100
AcDbEntity
  8
_Y__________
  6
CONTINUOUS
 62
         7
100
AcDbLine
 10
1475.6855112565
 20
-252.2944772964
 30
0.0
 11
1476.1855112565
 21
-252.7944772964
 31
0.0
  0
LINE
  5
400
100
AcDbEntity
  8
_Y__________
  6
CONTINUOUS
 62
         7
100
AcDbLine
 10
1476.1855112565
 20
-308.7944772964
 30
0.0
 11
1476.1855112565
 21
-293.5444772964
 31
0.0
  0
LINE
  5
401
100
AcDbEntity
  8
_Y__________
  6
CONTINUOUS
 62
         7
100
AcDbLine
 10
1475.6855112565
 20
-309.2944772964
 30
0.0
 11
1467.1855112565
 21
-309.2944772964
 31
0.0
  0
LINE
  5
402
100
AcDbEntity
  8
_Y__________
  6
CONTINUOUS
 62
         7
100
AcDbLine
 10
1475.6855112565
 20
-252.2944772964
 30
0.0
 11
1467.1855112565
 21
-252.2944772964
 31
0.0
  0
LINE
  5
403
100
AcDbEntity
  8
_Y__________
  6
CONTINUOUS
 62
         7
100
AcDbLine
 10
1401.1355112565
 20
-252.2944772964
 30
0.0
 11
1465.1855112565
 21
-252.2944772964
 31
0.0
  0
LINE
  5
404
100
AcDbEntity
  8
_Y__________
  6
CONTINUOUS
 62
         7
100
AcDbLine
 10
1465.1855112565
 20
-309.2944772964
 30
0.0
 11
1401.1355112565
 21
-309.2944772964
 31
0.0
  0
LINE
  5
405
100
AcDbEntity
  8
_Y__________
  6
CONTINUOUS
 62
         7
100
AcDbLine
 10
1465.1855112565
 20
-309.2944772964
 30
0.0
 11
1465.1855112565
 21
-252.2944772964
 31
0.0
  0
LINE
  5
406
100
AcDbEntity
  8
_Y__________
  6
CONTINUOUS
 62
         7
100
AcDbLine
 10
1467.1855112565
 20
-253.2944772964
 30
0.0
 11
1465.1855112565
 21
-253.2944772964
 31
0.0
  0
LINE
  5
407
100
AcDbEntity
  8
_Y__________
  6
CONTINUOUS
 62
         7
100
AcDbLine
 10
1467.1855112565
 20
-309.2944772964
 30
0.0
 11
1467.1855112565
 21
-252.2944772964
 31
0.0
  0
LINE
  5
408
100
AcDbEntity
  8
_Y__________
  6
CONTINUOUS
 62
         7
100
AcDbLine
 10
1467.1855112565
 20
-308.2944772964
 30
0.0
 11
1465.1855112565
 21
-308.2944772964
 31
0.0
  0
LINE
  5
409
100
AcDbEntity
  8
_Y__________
  6
CONTINUOUS
 62
         7
100
AcDbLine
 10
1399.1355112565
 20
-318.2944772964
 30
0.0
 11
1364.577872446
 21
-318.2944772964
 31
0.0
  0
LINE
  5
40A
100
AcDbEntity
  8
_Y__________
  6
CONTINUOUS
 62
         7
100
AcDbLine
 10
1400.1355112565
 20
-317.2944772964
 30
0.0
 11
1399.1355112565
 21
-318.2944772964
 31
0.0
  0
LINE
  5
40B
100
AcDbEntity
  8
_Y__________
  6
CONTINUOUS
 62
         7
100
AcDbLine
 10
1363.577872446
 20
-317.2944772964
 30
0.0
 11
1364.577872446
 21
-318.2944772964
 31
0.0
  0
LINE
  5
40C
100
AcDbEntity
  8
_Y__________
  6
CONTINUOUS
 62
         7
100
AcDbLine
 10
1400.1355112565
 20
-317.2944772964
 30
0.0
 11
1400.1355112565
 21
-244.2944772964
 31
0.0
  0
LINE
  5
40D
100
AcDbEntity
  8
_Y__________
  6
CONTINUOUS
 62
         7
100
AcDbLine
 10
1399.1355112565
 20
-243.2944772964
 30
0.0
 11
1364.577872446
 21
-243.2944772964
 31
0.0
  0
LINE
  5
40E
100
AcDbEntity
  8
_Y__________
  6
CONTINUOUS
 62
         7
100
AcDbLine
 10
1399.1355112565
 20
-243.2944772964
 30
0.0
 11
1400.1355112565
 21
-244.2944772964
 31
0.0
  0
LINE
  5
40F
100
AcDbEntity
  8
_Y__________
  6
CONTINUOUS
 62
         7
100
AcDbLine
 10
1363.577872446
 20
-317.2944772964
 30
0.0
 11
1363.577872446
 21
-244.2944772964
 31
0.0
  0
LINE
  5
410
100
AcDbEntity
  8
_Y__________
  6
CONTINUOUS
 62
         7
100
AcDbLine
 10
1363.577872446
 20
-244.2944772964
 30
0.0
 11
1364.577872446
 21
-243.2944772964
 31
0.0
  0
LINE
  5
411
100
AcDbEntity
  8
_Y__________
  6
CONTINUOUS
 62
         7
100
AcDbLine
 10
1642.1855112565
 20
-318.2944772964
 30
0.0
 11
1587.3355112565
 21
-318.2944772964
 31
0.0
  0
LINE
  5
412
100
AcDbEntity
  8
_Y__________
  6
CONTINUOUS
 62
         7
100
AcDbLine
 10
1642.1855112565
 20
-243.2944772964
 30
0.0
 11
1587.3355112565
 21
-243.2944772964
 31
0.0
  0
LINE
  5
413
100
AcDbEntity
  8
_Y__________
  6
CONTINUOUS
 62
         7
100
AcDbLine
 10
1587.1355112565
 20
-318.0944772964
 30
0.0
 11
1587.3355112565
 21
-318.2944772964
 31
0.0
  0
LINE
  5
414
100
AcDbEntity
  8
_Y__________
  6
CONTINUOUS
 62
         7
100
AcDbLine
 10
1587.1355112565
 20
-243.4944772964
 30
0.0
 11
1587.1355112565
 21
-318.0944772964
 31
0.0
  0
LINE
  5
415
100
AcDbEntity
  8
_Y__________
  6
CONTINUOUS
 62
         7
100
AcDbLine
 10
1587.3355112565
 20
-243.2944772964
 30
0.0
 11
1587.1355112565
 21
-243.4944772964
 31
0.0
  0
ARC
  5
416
100
AcDbEntity
  8
_Y__________
  6
CONTINUOUS
 62
         7
100
AcDbCircle
 10
1642.6855112565
 20
-318.2944772964
 30
0.0
 40
0.5
100
AcDbArc
 50
359.9999999998
 51
540.0000000002
  0
LINE
  5
417
100
AcDbEntity
  8
_Y__________
  6
CONTINUOUS
 62
         7
100
AcDbLine
 10
1653.6855112565
 20
-320.7944772964
 30
0.0
 11
1643.6855112565
 21
-320.7944772964
 31
0.0
  0
LINE
  5
418
100
AcDbEntity
  8
_Y__________
  6
CONTINUOUS
 62
         7
100
AcDbLine
 10
1643.1855112565
 20
-320.2944772964
 30
0.0
 11
1643.6855112565
 21
-320.7944772964
 31
0.0
  0
LINE
  5
419
100
AcDbEntity
  8
_Y__________
  6
CONTINUOUS
 62
         7
100
AcDbLine
 10
1643.1855112565
 20
-320.2944772964
 30
0.0
 11
1643.1855112565
 21
-241.2944772964
 31
0.0
  0
ARC
  5
41A
100
AcDbEntity
  8
_Y__________
  6
CONTINUOUS
 62
         7
100
AcDbCircle
 10
1642.6855112565
 20
-243.2944772964
 30
0.0
 40
0.5
100
AcDbArc
 50
179.9999999998
 51
360.0000000002
  0
LINE
  5
41B
100
AcDbEntity
  8
_Y__________
  6
CONTINUOUS
 62
         7
100
AcDbLine
 10
1653.6855112565
 20
-240.7944772964
 30
0.0
 11
1643.6855112565
 21
-240.7944772964
 31
0.0
  0
LINE
  5
41C
100
AcDbEntity
  8
_Y__________
  6
CONTINUOUS
 62
         7
100
AcDbLine
 10
1643.6855112565
 20
-240.7944772964
 30
0.0
 11
1643.1855112565
 21
-241.2944772964
 31
0.0
  0
LINE
  5
41D
100
AcDbEntity
  8
_Y__________
  6
CONTINUOUS
 62
         7
100
AcDbLine
 10
1654.1855112565
 20
-320.2944772964
 30
0.0
 11
1654.1855112565
 21
-241.2944772964
 31
0.0
  0
LINE
  5
41E
100
AcDbEntity
  8
_Y__________
  6
CONTINUOUS
 62
         7
100
AcDbLine
 10
1654.1855112565
 20
-320.2944772964
 30
0.0
 11
1653.6855112565
 21
-320.7944772964
 31
0.0
  0
LINE
  5
41F
100
AcDbEntity
  8
_Y__________
  6
CONTINUOUS
 62
         7
100
AcDbLine
 10
1653.6855112565
 20
-240.7944772964
 30
0.0
 11
1654.1855112565
 21
-241.2944772964
 31
0.0
  0
LINE
  5
420
100
AcDbEntity
  8
_Y__________
  6
CONTINUOUS
 62
         7
100
AcDbLine
 10
1207.1315366602
 20
-232.0624264889
 30
0.0
 11
1209.0155112565
 21
-233.1501397291
 31
0.0
  0
LINE
  5
421
100
AcDbEntity
  8
_Y__________
  6
CONTINUOUS
 62
         7
100
AcDbLine
 10
1207.1315366602
 20
-329.526528104
 30
0.0
 11
1209.0155112565
 21
-328.4388148637
 31
0.0
  0
LINE
  5
422
100
AcDbEntity
  8
_Y__________
  6
CONTINUOUS
 62
         7
100
AcDbLine
 10
1209.2655112565
 20
-328.0058021618
 30
0.0
 11
1209.2655112565
 21
-233.583152431
 31
0.0
  0
ARC
  5
423
100
AcDbEntity
  8
_Y__________
  6
CONTINUOUS
 62
         7
100
AcDbCircle
 10
1206.1315366602
 20
-233.7944772964
 30
0.0
 40
2.0
100
AcDbArc
 50
60.0
 51
90.0
  0
ARC
  5
424
100
AcDbEntity
  8
_Y__________
  6
CONTINUOUS
 62
         7
100
AcDbCircle
 10
1206.1315366602
 20
-327.7944772964
 30
0.0
 40
2.0
100
AcDbArc
 50
270.0
 51
300.0
  0
ARC
  5
425
100
AcDbEntity
  8
_Y__________
  6
CONTINUOUS
 62
         7
100
AcDbCircle
 10
1208.7655112565
 20
-233.583152431
 30
0.0
 40
0.5
100
AcDbArc
 50
0.0
 51
59.9999999999
  0
ARC
  5
426
100
AcDbEntity
  8
_Y__________
  6
CONTINUOUS
 62
         7
100
AcDbCircle
 10
1208.7655112565
 20
-328.0058021618
 30
0.0
 40
0.5
100
AcDbArc
 50
300.0
 51
360.0
  0
LINE
  5
427
100
AcDbEntity
  8
_Y__________
  6
CONTINUOUS
 62
         7
100
AcDbLine
 10
1206.1315366602
 20
-231.7944772964
 30
0.0
 11
1159.7655112565
 21
-231.7944772964
 31
0.0
  0
LINE
  5
428
100
AcDbEntity
  8
_Y__________
  6
CONTINUOUS
 62
         7
100
AcDbLine
 10
1159.2655112565
 20
-232.2944772964
 30
0.0
 11
1159.7655112565
 21
-231.7944772964
 31
0.0
  0
LINE
  5
429
100
AcDbEntity
  8
_Y__________
  6
CONTINUOUS
 62
         7
100
AcDbLine
 10
1159.2655112565
 20
-329.2944772964
 30
0.0
 11
1159.2655112565
 21
-232.2944772964
 31
0.0
  0
LINE
  5
42A
100
AcDbEntity
  8
_Y__________
  6
CONTINUOUS
 62
         7
100
AcDbLine
 10
1206.1315366602
 20
-329.7944772964
 30
0.0
 11
1159.7655112565
 21
-329.7944772964
 31
0.0
  0
LINE
  5
42B
100
AcDbEntity
  8
_Y__________
  6
CONTINUOUS
 62
         7
100
AcDbLine
 10
1159.2655112565
 20
-329.2944772964
 30
0.0
 11
1159.7655112565
 21
-329.7944772964
 31
0.0
  0
LINE
  5
42C
100
AcDbEntity
  8
_Y__________
  6
CONTINUOUS
 62
         7
100
AcDbLine
 10
1475.6855112565
 20
-268.5444772964
 30
0.0
 11
1468.6855112565
 21
-268.5444772964
 31
0.0
  0
LINE
  5
42D
100
AcDbEntity
  8
_Y__________
  6
CONTINUOUS
 62
         7
100
AcDbLine
 10
1476.1855112565
 20
-268.0444772964
 30
0.0
 11
1475.6855112565
 21
-268.5444772964
 31
0.0
  0
LINE
  5
42E
100
AcDbEntity
  8
_Y__________
  6
CONTINUOUS
 62
         7
100
AcDbLine
 10
1468.1855112565
 20
-292.5444772964
 30
0.0
 11
1468.1855112565
 21
-269.0444772964
 31
0.0
  0
ARC
  5
42F
100
AcDbEntity
  8
_Y__________
  6
CONTINUOUS
 62
         7
100
AcDbCircle
 10
1468.6855112565
 20
-269.0444772964
 30
0.0
 40
0.5
100
AcDbArc
 50
90.0
 51
180.0
  0
ARC
  5
430
100
AcDbEntity
  8
_Y__________
  6
CONTINUOUS
 62
         7
100
AcDbCircle
 10
1468.6855112565
 20
-292.5444772964
 30
0.0
 40
0.5
100
AcDbArc
 50
180.0
 51
270.0
  0
LINE
  5
431
100
AcDbEntity
  8
_Y__________
  6
CONTINUOUS
 62
         7
100
AcDbLine
 10
1475.6855112565
 20
-293.0444772964
 30
0.0
 11
1468.6855112565
 21
-293.0444772964
 31
0.0
  0
LINE
  5
432
100
AcDbEntity
  8
_Y__________
  6
CONTINUOUS
 62
         7
100
AcDbLine
 10
1475.6855112565
 20
-293.0444772964
 30
0.0
 11
1476.1855112565
 21
-293.5444772964
 31
0.0
  0
LINE
  5
433
100
AcDbEntity
  8
_Y__________
  6
CONTINUOUS
 62
         4
100
AcDbLine
 10
1475.6855112565
 20
-293.0444772964
 30
0.0
 11
1475.6855112565
 21
-309.2944772964
 31
0.0
  0
LINE
  5
434
100
AcDbEntity
  8
_Y__________
  6
CONTINUOUS
 62
         7
100
AcDbLine
 10
1476.1855112565
 20
-268.0444772964
 30
0.0
 11
1476.1855112565
 21
-252.7944772964
 31
0.0
  0
LINE
  5
435
100
AcDbEntity
  8
_Y__________
  6
CENTER
 62
         1
100
AcDbLine
 10
1429.1855112565
 20
-270.620344334
 30
0.0
 11
1429.1855112565
 21
-262.8261156999
 31
0.0
  0
LINE
  5
436
100
AcDbEntity
  8
_Y__________
  6
CENTER
 62
         1
100
AcDbLine
 10
1433.6855112565
 20
-266.723230017
 30
0.0
 11
1424.6855112565
 21
-266.723230017
 31
0.0
  0
LINE
  5
437
100
AcDbEntity
  8
_Y__________
  6
CENTER
 62
         1
100
AcDbLine
 10
1433.6855112565
 20
-294.8657245759
 30
0.0
 11
1424.6855112565
 21
-294.8657245759
 31
0.0
  0
POLYLINE
  5
439
100
AcDbEntity
  8
_Y__________
  6
CONTINUOUS
 62
         7
100
AcDb2dPolyline
 66
         1
 10
0.0
 20
0.0
 30
0.0
 70
         2
  0
VERTEX
  5
43B
100
AcDbEntity
  8
_Y__________
  6
CONTINUOUS
 62
         7
100
AcDbVertex
100
AcDb2dVertex
 10
1433.6855112565
 20
-266.723230017
 30
0.0
 70
         1
  0
VERTEX
  5
43D
100
AcDbEntity
  8
_Y__________
  6
CONTINUOUS
 62
         7
100
AcDbVertex
100
AcDb2dVertex
 10
1433.645891879
 20
-266.2072324135
 30
0.0
 70
         1
  0
VERTEX
  5
43F
100
AcDbEntity
  8
_Y__________
  6
CONTINUOUS
 62
         7
100
AcDbVertex
100
AcDb2dVertex
 10
1433.5939457228
 20
-265.9410668837
 30
0.0
 70
         1
  0
VERTEX
  5
441
100
AcDbEntity
  8
_Y__________
  6
CONTINUOUS
 62
         7
100
AcDbVertex
100
AcDb2dVertex
 10
1433.5187218004
 20
-265.6720569643
 30
0.0
 70
         1
  0
VERTEX
  5
443
100
AcDbEntity
  8
_Y__________
  6
CONTINUOUS
 62
         7
100
AcDbVertex
100
AcDb2dVertex
 10
1433.4192029438
 20
-265.4024760571
 30
0.0
 70
         1
  0
VERTEX
  5
445
100
AcDbEntity
  8
_Y__________
  6
CONTINUOUS
 62
         7
100
AcDbVertex
100
AcDb2dVertex
 10
1433.2947548696
 20
-265.1348069953
 30
0.0
 70
         1
  0
VERTEX
  5
447
100
AcDbEntity
  8
_Y__________
  6
CONTINUOUS
 62
         7
100
AcDbVertex
100
AcDb2dVertex
 10
1433.1451864077
 20
-264.8716821449
 30
0.0
 70
         1
  0
VERTEX
  5
449
100
AcDbEntity
  8
_Y__________
  6
CONTINUOUS
 62
         7
100
AcDbVertex
100
AcDb2dVertex
 10
1432.9707945956
 20
-264.6158091924
 30
0.0
 70
         1
  0
VERTEX
  5
44B
100
AcDbEntity
  8
_Y__________
  6
CONTINUOUS
 62
         7
100
AcDbVertex
100
AcDb2dVertex
 10
1432.7723896102
 20
-264.369886065
 30
0.0
 70
         1
  0
VERTEX
  5
44D
100
AcDbEntity
  8
_Y__________
  6
CONTINUOUS
 62
         7
100
AcDbVertex
100
AcDb2dVertex
 10
1432.5512957574
 20
-264.1365098891
 30
0.0
 70
         1
  0
VERTEX
  5
44F
100
AcDbEntity
  8
_Y__________
  6
CONTINUOUS
 62
         7
100
AcDbVertex
100
AcDb2dVertex
 10
1432.3093266113
 20
-263.9180859527
 30
0.0
 70
         1
  0
VERTEX
  5
451
100
AcDbEntity
  8
_Y__________
  6
CONTINUOUS
 62
         7
100
AcDbVertex
100
AcDb2dVertex
 10
1432.0487346776
 20
-263.7167430752
 30
0.0
 70
         1
  0
VERTEX
  5
453
100
AcDbEntity
  8
_Y__________
  6
CONTINUOUS
 62
         7
100
AcDbVertex
100
AcDb2dVertex
 10
1431.7721383498
 20
-263.5342614987
 30
0.0
 70
         1
  0
VERTEX
  5
455
100
AcDbEntity
  8
_Y__________
  6
CONTINUOUS
 62
         7
100
AcDbVertex
100
AcDb2dVertex
 10
1431.4824310833
 20
-263.3720183731
 30
0.0
 70
         1
  0
VERTEX
  5
457
100
AcDbEntity
  8
_Y__________
  6
CONTINUOUS
 62
         7
100
AcDbVertex
100
AcDb2dVertex
 10
1431.1826793037
 20
-263.2309542771
 30
0.0
 70
         1
  0
VERTEX
  5
459
100
AcDbEntity
  8
_Y__________
  6
CONTINUOUS
 62
         7
100
AcDbVertex
100
AcDb2dVertex
 10
1430.8760163752
 20
-263.1115622121
 30
0.0
 70
         1
  0
VERTEX
  5
45B
100
AcDbEntity
  8
_Y__________
  6
CONTINUOUS
 62
         7
100
AcDbVertex
100
AcDb2dVertex
 10
1430.5655398876
 20
-263.013898442
 30
0.0
 70
         1
  0
VERTEX
  5
45D
100
AcDbEntity
  8
_Y__________
  6
CONTINUOUS
 62
         7
100
AcDbVertex
100
AcDb2dVertex
 10
1430.2542186562
 20
-262.9376127132
 30
0.0
 70
         1
  0
VERTEX
  5
45F
100
AcDbEntity
  8
_Y__________
  6
CONTINUOUS
 62
         7
100
AcDbVertex
100
AcDb2dVertex
 10
1429.840316801
 20
-262.8675948846
 30
0.0
 70
         1
  0
VERTEX
  5
461
100
AcDbEntity
  8
_Y__________
  6
CONTINUOUS
 62
         7
100
AcDbVertex
100
AcDb2dVertex
 10
1429.4357065333
 20
-262.8321438264
 30
0.0
 70
         1
  0
VERTEX
  5
463
100
AcDbEntity
  8
_Y__________
  6
CONTINUOUS
 62
         7
100
AcDbVertex
100
AcDb2dVertex
 10
1429.0452428399
 20
-262.8280094098
 30
0.0
 70
         1
  0
VERTEX
  5
465
100
AcDbEntity
  8
_Y__________
  6
CONTINUOUS
 62
         7
100
AcDbVertex
100
AcDb2dVertex
 10
1428.6726940781
 20
-262.8515037991
 30
0.0
 70
         1
  0
VERTEX
  5
467
100
AcDbEntity
  8
_Y__________
  6
CONTINUOUS
 62
         7
100
AcDbVertex
100
AcDb2dVertex
 10
1428.3207658268
 20
-262.8987481558
 30
0.0
 70
         1
  0
VERTEX
  5
469
100
AcDbEntity
  8
_Y__________
  6
CONTINUOUS
 62
         7
100
AcDbVertex
100
AcDb2dVertex
 10
1427.9911886666
 20
-262.965877869
 30
0.0
 70
         1
  0
VERTEX
  5
46B
100
AcDbEntity
  8
_Y__________
  6
CONTINUOUS
 62
         7
100
AcDbVertex
100
AcDb2dVertex
 10
1427.6848458656
 20
-263.0491991871
 30
0.0
 70
         1
  0
VERTEX
  5
46D
100
AcDbEntity
  8
_Y__________
  6
CONTINUOUS
 62
         7
100
AcDbVertex
100
AcDb2dVertex
 10
1427.310174489
 20
-263.1806555285
 30
0.0
 70
         1
  0
VERTEX
  5
46F
100
AcDbEntity
  8
_Y__________
  6
CONTINUOUS
 62
         7
100
AcDbVertex
100
AcDb2dVertex
 10
1426.976621555
 20
-263.3279237399
 30
0.0
 70
         1
  0
VERTEX
  5
471
100
AcDbEntity
  8
_Y__________
  6
CONTINUOUS
 62
         7
100
AcDbVertex
100
AcDb2dVertex
 10
1426.6819139228
 20
-263.4849433877
 30
0.0
 70
         1
  0
VERTEX
  5
473
100
AcDbEntity
  8
_Y__________
  6
CONTINUOUS
 62
         7
100
AcDbVertex
100
AcDb2dVertex
 10
1426.4230553034
 20
-263.6468477535
 30
0.0
 70
         1
  0
VERTEX
  5
475
100
AcDbEntity
  8
_Y__________
  6
CONTINUOUS
 62
         7
100
AcDbVertex
100
AcDb2dVertex
 10
1426.1251973865
 20
-263.8660707174
 30
0.0
 70
         1
  0
VERTEX
  5
477
100
AcDbEntity
  8
_Y__________
  6
CONTINUOUS
 62
         7
100
AcDbVertex
100
AcDb2dVertex
 10
1425.8779688279
 20
-264.0807648209
 30
0.0
 70
         1
  0
VERTEX
  5
479
100
AcDbEntity
  8
_Y__________
  6
CONTINUOUS
 62
         7
100
AcDbVertex
100
AcDb2dVertex
 10
1425.6735024511
 20
-264.2866657118
 30
0.0
 70
         1
  0
VERTEX
  5
47B
100
AcDbEntity
  8
_Y__________
  6
CONTINUOUS
 62
         7
100
AcDbVertex
100
AcDb2dVertex
 10
1425.4527359755
 20
-264.5466980217
 30
0.0
 70
         1
  0
VERTEX
  5
47D
100
AcDbEntity
  8
_Y__________
  6
CONTINUOUS
 62
         7
100
AcDbVertex
100
AcDb2dVertex
 10
1425.2825938578
 20
-264.783403521
 30
0.0
 70
         1
  0
VERTEX
  5
47F
100
AcDbEntity
  8
_Y__________
  6
CONTINUOUS
 62
         7
100
AcDbVertex
100
AcDb2dVertex
 10
1425.1120371651
 20
-265.06714831
 30
0.0
 70
         1
  0
VERTEX
  5
481
100
AcDbEntity
  8
_Y__________
  6
CONTINUOUS
 62
         7
100
AcDbVertex
100
AcDb2dVertex
 10
1424.9917543636
 20
-265.3101474494
 30
0.0
 70
         1
  0
VERTEX
  5
483
100
AcDbEntity
  8
_Y__________
  6
CONTINUOUS
 62
         7
100
AcDbVertex
100
AcDb2dVertex
 10
1424.8817360725
 20
-265.5849684591
 30
0.0
 70
         1
  0
VERTEX
  5
485
100
AcDbEntity
  8
_Y__________
  6
CONTINUOUS
 62
         7
100
AcDbVertex
100
AcDb2dVertex
 10
1424.7930510291
 20
-265.8763416753
 30
0.0
 70
         1
  0
VERTEX
  5
487
100
AcDbEntity
  8
_Y__________
  6
CONTINUOUS
 62
         7
100
AcDbVertex
100
AcDb2dVertex
 10
1424.7327600908
 20
-266.1599758182
 30
0.0
 70
         1
  0
VERTEX
  5
489
100
AcDbEntity
  8
_Y__________
  6
CONTINUOUS
 62
         7
100
AcDbVertex
100
AcDb2dVertex
 10
1424.7004316181
 20
-266.4061409475
 30
0.0
 70
         1
  0
VERTEX
  5
48B
100
AcDbEntity
  8
_Y__________
  6
CONTINUOUS
 62
         7
100
AcDbVertex
100
AcDb2dVertex
 10
1424.6863906611
 20
-266.6461884596
 30
0.0
 70
         1
  0
VERTEX
  5
48D
100
AcDbEntity
  8
_Y__________
  6
CONTINUOUS
 62
         7
100
AcDbVertex
100
AcDb2dVertex
 10
1424.6855112565
 20
-266.723230017
 30
0.0
 70
         1
  0
VERTEX
  5
48F
100
AcDbEntity
  8
_Y__________
  6
CONTINUOUS
 62
         7
100
AcDbVertex
100
AcDb2dVertex
 10
1424.6855112565
 20
-266.723230017
 30
0.0
 70
         1
  0
VERTEX
  5
491
100
AcDbEntity
  8
_Y__________
  6
CONTINUOUS
 62
         7
100
AcDbVertex
100
AcDb2dVertex
 10
1424.725130634
 20
-267.2392276204
 30
0.0
 70
         1
  0
VERTEX
  5
493
100
AcDbEntity
  8
_Y__________
  6
CONTINUOUS
 62
         7
100
AcDbVertex
100
AcDb2dVertex
 10
1424.7770767901
 20
-267.5053931502
 30
0.0
 70
         1
  0
VERTEX
  5
495
100
AcDbEntity
  8
_Y__________
  6
CONTINUOUS
 62
         7
100
AcDbVertex
100
AcDb2dVertex
 10
1424.8523007126
 20
-267.7744030696
 30
0.0
 70
         1
  0
VERTEX
  5
497
100
AcDbEntity
  8
_Y__________
  6
CONTINUOUS
 62
         7
100
AcDbVertex
100
AcDb2dVertex
 10
1424.9518195691
 20
-268.0439839768
 30
0.0
 70
         1
  0
VERTEX
  5
499
100
AcDbEntity
  8
_Y__________
  6
CONTINUOUS
 62
         7
100
AcDbVertex
100
AcDb2dVertex
 10
1425.0762676433
 20
-268.3116530386
 30
0.0
 70
         1
  0
VERTEX
  5
49B
100
AcDbEntity
  8
_Y__________
  6
CONTINUOUS
 62
         7
100
AcDbVertex
100
AcDb2dVertex
 10
1425.2258361052
 20
-268.574777889
 30
0.0
 70
         1
  0
VERTEX
  5
49D
100
AcDbEntity
  8
_Y__________
  6
CONTINUOUS
 62
         7
100
AcDbVertex
100
AcDb2dVertex
 10
1425.4002279173
 20
-268.8306508415
 30
0.0
 70
         1
  0
VERTEX
  5
49F
100
AcDbEntity
  8
_Y__________
  6
CONTINUOUS
 62
         7
100
AcDbVertex
100
AcDb2dVertex
 10
1425.5986329027
 20
-269.0765739689
 30
0.0
 70
         1
  0
VERTEX
  5
4A1
100
AcDbEntity
  8
_Y__________
  6
CONTINUOUS
 62
         7
100
AcDbVertex
100
AcDb2dVertex
 10
1425.8197267555
 20
-269.3099501448
 30
0.0
 70
         1
  0
VERTEX
  5
4A3
100
AcDbEntity
  8
_Y__________
  6
CONTINUOUS
 62
         7
100
AcDbVertex
100
AcDb2dVertex
 10
1426.0616959016
 20
-269.5283740813
 30
0.0
 70
         1
  0
VERTEX
  5
4A5
100
AcDbEntity
  8
_Y__________
  6
CONTINUOUS
 62
         7
100
AcDbVertex
100
AcDb2dVertex
 10
1426.3222878354
 20
-269.7297169587
 30
0.0
 70
         1
  0
VERTEX
  5
4A7
100
AcDbEntity
  8
_Y__________
  6
CONTINUOUS
 62
         7
100
AcDbVertex
100
AcDb2dVertex
 10
1426.5988841632
 20
-269.9121985352
 30
0.0
 70
         1
  0
VERTEX
  5
4A9
100
AcDbEntity
  8
_Y__________
  6
CONTINUOUS
 62
         7
100
AcDbVertex
100
AcDb2dVertex
 10
1426.8885914297
 20
-270.0744416608
 30
0.0
 70
         1
  0
VERTEX
  5
4AB
100
AcDbEntity
  8
_Y__________
  6
CONTINUOUS
 62
         7
100
AcDbVertex
100
AcDb2dVertex
 10
1427.1883432092
 20
-270.2155057568
 30
0.0
 70
         1
  0
VERTEX
  5
4AD
100
AcDbEntity
  8
_Y__________
  6
CONTINUOUS
 62
         7
100
AcDbVertex
100
AcDb2dVertex
 10
1427.4950061378
 20
-270.3348978218
 30
0.0
 70
         1
  0
VERTEX
  5
4AF
100
AcDbEntity
  8
_Y__________
  6
CONTINUOUS
 62
         7
100
AcDbVertex
100
AcDb2dVertex
 10
1427.8054826253
 20
-270.4325615919
 30
0.0
 70
         1
  0
VERTEX
  5
4B1
100
AcDbEntity
  8
_Y__________
  6
CONTINUOUS
 62
         7
100
AcDbVertex
100
AcDb2dVertex
 10
1428.1168038567
 20
-270.5088473207
 30
0.0
 70
         1
  0
VERTEX
  5
4B3
100
AcDbEntity
  8
_Y__________
  6
CONTINUOUS
 62
         7
100
AcDbVertex
100
AcDb2dVertex
 10
1428.5307057119
 20
-270.5788651493
 30
0.0
 70
         1
  0
VERTEX
  5
4B5
100
AcDbEntity
  8
_Y__________
  6
CONTINUOUS
 62
         7
100
AcDbVertex
100
AcDb2dVertex
 10
1428.9353159796
 20
-270.6143162075
 30
0.0
 70
         1
  0
VERTEX
  5
4B7
100
AcDbEntity
  8
_Y__________
  6
CONTINUOUS
 62
         7
100
AcDbVertex
100
AcDb2dVertex
 10
1429.325779673
 20
-270.6184506241
 30
0.0
 70
         1
  0
VERTEX
  5
4B9
100
AcDbEntity
  8
_Y__________
  6
CONTINUOUS
 62
         7
100
AcDbVertex
100
AcDb2dVertex
 10
1429.6983284348
 20
-270.5949562348
 30
0.0
 70
         1
  0
VERTEX
  5
4BB
100
AcDbEntity
  8
_Y__________
  6
CONTINUOUS
 62
         7
100
AcDbVertex
100
AcDb2dVertex
 10
1430.0502566861
 20
-270.5477118781
 30
0.0
 70
         1
  0
VERTEX
  5
4BD
100
AcDbEntity
  8
_Y__________
  6
CONTINUOUS
 62
         7
100
AcDbVertex
100
AcDb2dVertex
 10
1430.3798338463
 20
-270.4805821649
 30
0.0
 70
         1
  0
VERTEX
  5
4BF
100
AcDbEntity
  8
_Y__________
  6
CONTINUOUS
 62
         7
100
AcDbVertex
100
AcDb2dVertex
 10
1430.6861766473
 20
-270.3972608468
 30
0.0
 70
         1
  0
VERTEX
  5
4C1
100
AcDbEntity
  8
_Y__________
  6
CONTINUOUS
 62
         7
100
AcDbVertex
100
AcDb2dVertex
 10
1431.060848024
 20
-270.2658045054
 30
0.0
 70
         1
  0
VERTEX
  5
4C3
100
AcDbEntity
  8
_Y__________
  6
CONTINUOUS
 62
         7
100
AcDbVertex
100
AcDb2dVertex
 10
1431.3944009579
 20
-270.118536294
 30
0.0
 70
         1
  0
VERTEX
  5
4C5
100
AcDbEntity
  8
_Y__________
  6
CONTINUOUS
 62
         7
100
AcDbVertex
100
AcDb2dVertex
 10
1431.6891085902
 20
-269.9615166462
 30
0.0
 70
         1
  0
VERTEX
  5
4C7
100
AcDbEntity
  8
_Y__________
  6
CONTINUOUS
 62
         7
100
AcDbVertex
100
AcDb2dVertex
 10
1431.9479672095
 20
-269.7996122804
 30
0.0
 70
         1
  0
VERTEX
  5
4C9
100
AcDbEntity
  8
_Y__________
  6
CONTINUOUS
 62
         7
100
AcDbVertex
100
AcDb2dVertex
 10
1432.2458251264
 20
-269.5803893165
 30
0.0
 70
         1
  0
VERTEX
  5
4CB
100
AcDbEntity
  8
_Y__________
  6
CONTINUOUS
 62
         7
100
AcDbVertex
100
AcDb2dVertex
 10
1432.493053685
 20
-269.365695213
 30
0.0
 70
         1
  0
VERTEX
  5
4CD
100
AcDbEntity
  8
_Y__________
  6
CONTINUOUS
 62
         7
100
AcDbVertex
100
AcDb2dVertex
 10
1432.6975200619
 20
-269.1597943221
 30
0.0
 70
         1
  0
VERTEX
  5
4CF
100
AcDbEntity
  8
_Y__________
  6
CONTINUOUS
 62
         7
100
AcDbVertex
100
AcDb2dVertex
 10
1432.9182865374
 20
-268.8997620122
 30
0.0
 70
         1
  0
VERTEX
  5
4D1
100
AcDbEntity
  8
_Y__________
  6
CONTINUOUS
 62
         7
100
AcDbVertex
100
AcDb2dVertex
 10
1433.0884286551
 20
-268.6630565129
 30
0.0
 70
         1
  0
VERTEX
  5
4D3
100
AcDbEntity
  8
_Y__________
  6
CONTINUOUS
 62
         7
100
AcDbVertex
100
AcDb2dVertex
 10
1433.2589853478
 20
-268.3793117239
 30
0.0
 70
         1
  0
VERTEX
  5
4D5
100
AcDbEntity
  8
_Y__________
  6
CONTINUOUS
 62
         7
100
AcDbVertex
100
AcDb2dVertex
 10
1433.3792681493
 20
-268.1363125845
 30
0.0
 70
         1
  0
VERTEX
  5
4D7
100
AcDbEntity
  8
_Y__________
  6
CONTINUOUS
 62
         7
100
AcDbVertex
100
AcDb2dVertex
 10
1433.4892864405
 20
-267.8614915749
 30
0.0
 70
         1
  0
VERTEX
  5
4D9
100
AcDbEntity
  8
_Y__________
  6
CONTINUOUS
 62
         7
100
AcDbVertex
100
AcDb2dVertex
 10
1433.5779714838
 20
-267.5701183586
 30
0.0
 70
         1
  0
VERTEX
  5
4DB
100
AcDbEntity
  8
_Y__________
  6
CONTINUOUS
 62
         7
100
AcDbVertex
100
AcDb2dVertex
 10
1433.6382624221
 20
-267.2864842158
 30
0.0
 70
         1
  0
VERTEX
  5
4DD
100
AcDbEntity
  8
_Y__________
  6
CONTINUOUS
 62
         7
100
AcDbVertex
100
AcDb2dVertex
 10
1433.6705908949
 20
-267.0403190864
 30
0.0
 70
         1
  0
VERTEX
  5
4DF
100
AcDbEntity
  8
_Y__________
  6
CONTINUOUS
 62
         7
100
AcDbVertex
100
AcDb2dVertex
 10
1433.6846318518
 20
-266.8002715743
 30
0.0
 70
         1
  0
VERTEX
  5
4E1
100
AcDbEntity
  8
_Y__________
  6
CONTINUOUS
 62
         7
100
AcDbVertex
100
AcDb2dVertex
 10
1433.6855112565
 20
-266.723230017
 30
0.0
 70
         1
  0
SEQEND
  5
4E3
100
AcDbEntity
  8
_Y__________
  6
CONTINUOUS
 62
         7
  0
POLYLINE
  5
4E5
100
AcDbEntity
  8
_Y__________
  6
CONTINUOUS
 62
         7
100
AcDb2dPolyline
 66
         1
 10
0.0
 20
0.0
 30
0.0
 70
         2
  0
VERTEX
  5
4E7
100
AcDbEntity
  8
_Y__________
  6
CONTINUOUS
 62
         7
100
AcDbVertex
100
AcDb2dVertex
 10
1433.6855112565
 20
-294.8657245759
 30
0.0
 70
         1
  0
VERTEX
  5
4E9
100
AcDbEntity
  8
_Y__________
  6
CONTINUOUS
 62
         7
100
AcDbVertex
100
AcDb2dVertex
 10
1433.645891879
 20
-294.3497269724
 30
0.0
 70
         1
  0
VERTEX
  5
4EB
100
AcDbEntity
  8
_Y__________
  6
CONTINUOUS
 62
         7
100
AcDbVertex
100
AcDb2dVertex
 10
1433.5939457228
 20
-294.0835614426
 30
0.0
 70
         1
  0
VERTEX
  5
4ED
100
AcDbEntity
  8
_Y__________
  6
CONTINUOUS
 62
         7
100
AcDbVertex
100
AcDb2dVertex
 10
1433.5187218004
 20
-293.8145515233
 30
0.0
 70
         1
  0
VERTEX
  5
4EF
100
AcDbEntity
  8
_Y__________
  6
CONTINUOUS
 62
         7
100
AcDbVertex
100
AcDb2dVertex
 10
1433.4192029438
 20
-293.544970616
 30
0.0
 70
         1
  0
VERTEX
  5
4F1
100
AcDbEntity
  8
_Y__________
  6
CONTINUOUS
 62
         7
100
AcDbVertex
100
AcDb2dVertex
 10
1433.2947548696
 20
-293.2773015543
 30
0.0
 70
         1
  0
VERTEX
  5
4F3
100
AcDbEntity
  8
_Y__________
  6
CONTINUOUS
 62
         7
100
AcDbVertex
100
AcDb2dVertex
 10
1433.1451864077
 20
-293.0141767039
 30
0.0
 70
         1
  0
VERTEX
  5
4F5
100
AcDbEntity
  8
_Y__________
  6
CONTINUOUS
 62
         7
100
AcDbVertex
100
AcDb2dVertex
 10
1432.9707945956
 20
-292.7583037514
 30
0.0
 70
         1
  0
VERTEX
  5
4F7
100
AcDbEntity
  8
_Y__________
  6
CONTINUOUS
 62
         7
100
AcDbVertex
100
AcDb2dVertex
 10
1432.7723896102
 20
-292.5123806239
 30
0.0
 70
         1
  0
VERTEX
  5
4F9
100
AcDbEntity
  8
_Y__________
  6
CONTINUOUS
 62
         7
100
AcDbVertex
100
AcDb2dVertex
 10
1432.5512957574
 20
-292.2790044481
 30
0.0
 70
         1
  0
VERTEX
  5
4FB
100
AcDbEntity
  8
_Y__________
  6
CONTINUOUS
 62
         7
100
AcDbVertex
100
AcDb2dVertex
 10
1432.3093266113
 20
-292.0605805116
 30
0.0
 70
         1
  0
VERTEX
  5
4FD
100
AcDbEntity
  8
_Y__________
  6
CONTINUOUS
 62
         7
100
AcDbVertex
100
AcDb2dVertex
 10
1432.0487346776
 20
-291.8592376342
 30
0.0
 70
         1
  0
VERTEX
  5
4FF
100
AcDbEntity
  8
_Y__________
  6
CONTINUOUS
 62
         7
100
AcDbVertex
100
AcDb2dVertex
 10
1431.7721383498
 20
-291.6767560577
 30
0.0
 70
         1
  0
VERTEX
  5
501
100
AcDbEntity
  8
_Y__________
  6
CONTINUOUS
 62
         7
100
AcDbVertex
100
AcDb2dVertex
 10
1431.4824310833
 20
-291.514512932
 30
0.0
 70
         1
  0
VERTEX
  5
503
100
AcDbEntity
  8
_Y__________
  6
CONTINUOUS
 62
         7
100
AcDbVertex
100
AcDb2dVertex
 10
1431.1826793037
 20
-291.373448836
 30
0.0
 70
         1
  0
VERTEX
  5
505
100
AcDbEntity
  8
_Y__________
  6
CONTINUOUS
 62
         7
100
AcDbVertex
100
AcDb2dVertex
 10
1430.8760163752
 20
-291.254056771
 30
0.0
 70
         1
  0
VERTEX
  5
507
100
AcDbEntity
  8
_Y__________
  6
CONTINUOUS
 62
         7
100
AcDbVertex
100
AcDb2dVertex
 10
1430.5655398876
 20
-291.1563930009
 30
0.0
 70
         1
  0
VERTEX
  5
509
100
AcDbEntity
  8
_Y__________
  6
CONTINUOUS
 62
         7
100
AcDbVertex
100
AcDb2dVertex
 10
1430.2542186562
 20
-291.0801072722
 30
0.0
 70
         1
  0
VERTEX
  5
50B
100
AcDbEntity
  8
_Y__________
  6
CONTINUOUS
 62
         7
100
AcDbVertex
100
AcDb2dVertex
 10
1429.840316801
 20
-291.0100894435
 30
0.0
 70
         1
  0
VERTEX
  5
50D
100
AcDbEntity
  8
_Y__________
  6
CONTINUOUS
 62
         7
100
AcDbVertex
100
AcDb2dVertex
 10
1429.4357065333
 20
-290.9746383853
 30
0.0
 70
         1
  0
VERTEX
  5
50F
100
AcDbEntity
  8
_Y__________
  6
CONTINUOUS
 62
         7
100
AcDbVertex
100
AcDb2dVertex
 10
1429.0452428399
 20
-290.9705039687
 30
0.0
 70
         1
  0
VERTEX
  5
511
100
AcDbEntity
  8
_Y__________
  6
CONTINUOUS
 62
         7
100
AcDbVertex
100
AcDb2dVertex
 10
1428.6726940781
 20
-290.993998358
 30
0.0
 70
         1
  0
VERTEX
  5
513
100
AcDbEntity
  8
_Y__________
  6
CONTINUOUS
 62
         7
100
AcDbVertex
100
AcDb2dVertex
 10
1428.3207658268
 20
-291.0412427147
 30
0.0
 70
         1
  0
VERTEX
  5
515
100
AcDbEntity
  8
_Y__________
  6
CONTINUOUS
 62
         7
100
AcDbVertex
100
AcDb2dVertex
 10
1427.9911886666
 20
-291.108372428
 30
0.0
 70
         1
  0
VERTEX
  5
517
100
AcDbEntity
  8
_Y__________
  6
CONTINUOUS
 62
         7
100
AcDbVertex
100
AcDb2dVertex
 10
1427.6848458656
 20
-291.1916937461
 30
0.0
 70
         1
  0
VERTEX
  5
519
100
AcDbEntity
  8
_Y__________
  6
CONTINUOUS
 62
         7
100
AcDbVertex
100
AcDb2dVertex
 10
1427.310174489
 20
-291.3231500874
 30
0.0
 70
         1
  0
VERTEX
  5
51B
100
AcDbEntity
  8
_Y__________
  6
CONTINUOUS
 62
         7
100
AcDbVertex
100
AcDb2dVertex
 10
1426.976621555
 20
-291.4704182988
 30
0.0
 70
         1
  0
VERTEX
  5
51D
100
AcDbEntity
  8
_Y__________
  6
CONTINUOUS
 62
         7
100
AcDbVertex
100
AcDb2dVertex
 10
1426.6819139228
 20
-291.6274379467
 30
0.0
 70
         1
  0
VERTEX
  5
51F
100
AcDbEntity
  8
_Y__________
  6
CONTINUOUS
 62
         7
100
AcDbVertex
100
AcDb2dVertex
 10
1426.4230553034
 20
-291.7893423125
 30
0.0
 70
         1
  0
VERTEX
  5
521
100
AcDbEntity
  8
_Y__________
  6
CONTINUOUS
 62
         7
100
AcDbVertex
100
AcDb2dVertex
 10
1426.1251973865
 20
-292.0085652763
 30
0.0
 70
         1
  0
VERTEX
  5
523
100
AcDbEntity
  8
_Y__________
  6
CONTINUOUS
 62
         7
100
AcDbVertex
100
AcDb2dVertex
 10
1425.8779688279
 20
-292.2232593798
 30
0.0
 70
         1
  0
VERTEX
  5
525
100
AcDbEntity
  8
_Y__________
  6
CONTINUOUS
 62
         7
100
AcDbVertex
100
AcDb2dVertex
 10
1425.6735024511
 20
-292.4291602707
 30
0.0
 70
         1
  0
VERTEX
  5
527
100
AcDbEntity
  8
_Y__________
  6
CONTINUOUS
 62
         7
100
AcDbVertex
100
AcDb2dVertex
 10
1425.4527359755
 20
-292.6891925807
 30
0.0
 70
         1
  0
VERTEX
  5
529
100
AcDbEntity
  8
_Y__________
  6
CONTINUOUS
 62
         7
100
AcDbVertex
100
AcDb2dVertex
 10
1425.2825938578
 20
-292.9258980799
 30
0.0
 70
         1
  0
VERTEX
  5
52B
100
AcDbEntity
  8
_Y__________
  6
CONTINUOUS
 62
         7
100
AcDbVertex
100
AcDb2dVertex
 10
1425.1120371651
 20
-293.2096428689
 30
0.0
 70
         1
  0
VERTEX
  5
52D
100
AcDbEntity
  8
_Y__________
  6
CONTINUOUS
 62
         7
100
AcDbVertex
100
AcDb2dVertex
 10
1424.9917543636
 20
-293.4526420084
 30
0.0
 70
         1
  0
VERTEX
  5
52F
100
AcDbEntity
  8
_Y__________
  6
CONTINUOUS
 62
         7
100
AcDbVertex
100
AcDb2dVertex
 10
1424.8817360725
 20
-293.727463018
 30
0.0
 70
         1
  0
VERTEX
  5
531
100
AcDbEntity
  8
_Y__________
  6
CONTINUOUS
 62
         7
100
AcDbVertex
100
AcDb2dVertex
 10
1424.7930510291
 20
-294.0188362342
 30
0.0
 70
         1
  0
VERTEX
  5
533
100
AcDbEntity
  8
_Y__________
  6
CONTINUOUS
 62
         7
100
AcDbVertex
100
AcDb2dVertex
 10
1424.7327600908
 20
-294.3024703771
 30
0.0
 70
         1
  0
VERTEX
  5
535
100
AcDbEntity
  8
_Y__________
  6
CONTINUOUS
 62
         7
100
AcDbVertex
100
AcDb2dVertex
 10
1424.7004316181
 20
-294.5486355064
 30
0.0
 70
         1
  0
VERTEX
  5
537
100
AcDbEntity
  8
_Y__________
  6
CONTINUOUS
 62
         7
100
AcDbVertex
100
AcDb2dVertex
 10
1424.6863906611
 20
-294.7886830185
 30
0.0
 70
         1
  0
VERTEX
  5
539
100
AcDbEntity
  8
_Y__________
  6
CONTINUOUS
 62
         7
100
AcDbVertex
100
AcDb2dVertex
 10
1424.6855112565
 20
-294.8657245759
 30
0.0
 70
         1
  0
VERTEX
  5
53B
100
AcDbEntity
  8
_Y__________
  6
CONTINUOUS
 62
         7
100
AcDbVertex
100
AcDb2dVertex
 10
1424.6855112565
 20
-294.8657245759
 30
0.0
 70
         1
  0
VERTEX
  5
53D
100
AcDbEntity
  8
_Y__________
  6
CONTINUOUS
 62
         7
100
AcDbVertex
100
AcDb2dVertex
 10
1424.725130634
 20
-295.3817221793
 30
0.0
 70
         1
  0
VERTEX
  5
53F
100
AcDbEntity
  8
_Y__________
  6
CONTINUOUS
 62
         7
100
AcDbVertex
100
AcDb2dVertex
 10
1424.7770767901
 20
-295.6478877092
 30
0.0
 70
         1
  0
VERTEX
  5
541
100
AcDbEntity
  8
_Y__________
  6
CONTINUOUS
 62
         7
100
AcDbVertex
100
AcDb2dVertex
 10
1424.8523007126
 20
-295.9168976285
 30
0.0
 70
         1
  0
VERTEX
  5
543
100
AcDbEntity
  8
_Y__________
  6
CONTINUOUS
 62
         7
100
AcDbVertex
100
AcDb2dVertex
 10
1424.9518195691
 20
-296.1864785358
 30
0.0
 70
         1
  0
VERTEX
  5
545
100
AcDbEntity
  8
_Y__________
  6
CONTINUOUS
 62
         7
100
AcDbVertex
100
AcDb2dVertex
 10
1425.0762676433
 20
-296.4541475975
 30
0.0
 70
         1
  0
VERTEX
  5
547
100
AcDbEntity
  8
_Y__________
  6
CONTINUOUS
 62
         7
100
AcDbVertex
100
AcDb2dVertex
 10
1425.2258361052
 20
-296.7172724479
 30
0.0
 70
         1
  0
VERTEX
  5
549
100
AcDbEntity
  8
_Y__________
  6
CONTINUOUS
 62
         7
100
AcDbVertex
100
AcDb2dVertex
 10
1425.4002279173
 20
-296.9731454004
 30
0.0
 70
         1
  0
VERTEX
  5
54B
100
AcDbEntity
  8
_Y__________
  6
CONTINUOUS
 62
         7
100
AcDbVertex
100
AcDb2dVertex
 10
1425.5986329027
 20
-297.2190685279
 30
0.0
 70
         1
  0
VERTEX
  5
54D
100
AcDbEntity
  8
_Y__________
  6
CONTINUOUS
 62
         7
100
AcDbVertex
100
AcDb2dVertex
 10
1425.8197267555
 20
-297.4524447037
 30
0.0
 70
         1
  0
VERTEX
  5
54F
100
AcDbEntity
  8
_Y__________
  6
CONTINUOUS
 62
         7
100
AcDbVertex
100
AcDb2dVertex
 10
1426.0616959016
 20
-297.6708686402
 30
0.0
 70
         1
  0
VERTEX
  5
551
100
AcDbEntity
  8
_Y__________
  6
CONTINUOUS
 62
         7
100
AcDbVertex
100
AcDb2dVertex
 10
1426.3222878354
 20
-297.8722115176
 30
0.0
 70
         1
  0
VERTEX
  5
553
100
AcDbEntity
  8
_Y__________
  6
CONTINUOUS
 62
         7
100
AcDbVertex
100
AcDb2dVertex
 10
1426.5988841632
 20
-298.0546930941
 30
0.0
 70
         1
  0
VERTEX
  5
555
100
AcDbEntity
  8
_Y__________
  6
CONTINUOUS
 62
         7
100
AcDbVertex
100
AcDb2dVertex
 10
1426.8885914297
 20
-298.2169362198
 30
0.0
 70
         1
  0
VERTEX
  5
557
100
AcDbEntity
  8
_Y__________
  6
CONTINUOUS
 62
         7
100
AcDbVertex
100
AcDb2dVertex
 10
1427.1883432092
 20
-298.3580003158
 30
0.0
 70
         1
  0
VERTEX
  5
559
100
AcDbEntity
  8
_Y__________
  6
CONTINUOUS
 62
         7
100
AcDbVertex
100
AcDb2dVertex
 10
1427.4950061378
 20
-298.4773923808
 30
0.0
 70
         1
  0
VERTEX
  5
55B
100
AcDbEntity
  8
_Y__________
  6
CONTINUOUS
 62
         7
100
AcDbVertex
100
AcDb2dVertex
 10
1427.8054826253
 20
-298.5750561509
 30
0.0
 70
         1
  0
VERTEX
  5
55D
100
AcDbEntity
  8
_Y__________
  6
CONTINUOUS
 62
         7
100
AcDbVertex
100
AcDb2dVertex
 10
1428.1168038567
 20
-298.6513418796
 30
0.0
 70
         1
  0
VERTEX
  5
55F
100
AcDbEntity
  8
_Y__________
  6
CONTINUOUS
 62
         7
100
AcDbVertex
100
AcDb2dVertex
 10
1428.5307057119
 20
-298.7213597083
 30
0.0
 70
         1
  0
VERTEX
  5
561
100
AcDbEntity
  8
_Y__________
  6
CONTINUOUS
 62
         7
100
AcDbVertex
100
AcDb2dVertex
 10
1428.9353159796
 20
-298.7568107665
 30
0.0
 70
         1
  0
VERTEX
  5
563
100
AcDbEntity
  8
_Y__________
  6
CONTINUOUS
 62
         7
100
AcDbVertex
100
AcDb2dVertex
 10
1429.325779673
 20
-298.7609451831
 30
0.0
 70
         1
  0
VERTEX
  5
565
100
AcDbEntity
  8
_Y__________
  6
CONTINUOUS
 62
         7
100
AcDbVertex
100
AcDb2dVertex
 10
1429.6983284348
 20
-298.7374507938
 30
0.0
 70
         1
  0
VERTEX
  5
567
100
AcDbEntity
  8
_Y__________
  6
CONTINUOUS
 62
         7
100
AcDbVertex
100
AcDb2dVertex
 10
1430.0502566861
 20
-298.6902064371
 30
0.0
 70
         1
  0
VERTEX
  5
569
100
AcDbEntity
  8
_Y__________
  6
CONTINUOUS
 62
         7
100
AcDbVertex
100
AcDb2dVertex
 10
1430.3798338463
 20
-298.6230767238
 30
0.0
 70
         1
  0
VERTEX
  5
56B
100
AcDbEntity
  8
_Y__________
  6
CONTINUOUS
 62
         7
100
AcDbVertex
100
AcDb2dVertex
 10
1430.6861766473
 20
-298.5397554057
 30
0.0
 70
         1
  0
VERTEX
  5
56D
100
AcDbEntity
  8
_Y__________
  6
CONTINUOUS
 62
         7
100
AcDbVertex
100
AcDb2dVertex
 10
1431.060848024
 20
-298.4082990644
 30
0.0
 70
         1
  0
VERTEX
  5
56F
100
AcDbEntity
  8
_Y__________
  6
CONTINUOUS
 62
         7
100
AcDbVertex
100
AcDb2dVertex
 10
1431.3944009579
 20
-298.261030853
 30
0.0
 70
         1
  0
VERTEX
  5
571
100
AcDbEntity
  8
_Y__________
  6
CONTINUOUS
 62
         7
100
AcDbVertex
100
AcDb2dVertex
 10
1431.6891085902
 20
-298.1040112051
 30
0.0
 70
         1
  0
VERTEX
  5
573
100
AcDbEntity
  8
_Y__________
  6
CONTINUOUS
 62
         7
100
AcDbVertex
100
AcDb2dVertex
 10
1431.9479672095
 20
-297.9421068393
 30
0.0
 70
         1
  0
VERTEX
  5
575
100
AcDbEntity
  8
_Y__________
  6
CONTINUOUS
 62
         7
100
AcDbVertex
100
AcDb2dVertex
 10
1432.2458251264
 20
-297.7228838755
 30
0.0
 70
         1
  0
VERTEX
  5
577
100
AcDbEntity
  8
_Y__________
  6
CONTINUOUS
 62
         7
100
AcDbVertex
100
AcDb2dVertex
 10
1432.493053685
 20
-297.508189772
 30
0.0
 70
         1
  0
VERTEX
  5
579
100
AcDbEntity
  8
_Y__________
  6
CONTINUOUS
 62
         7
100
AcDbVertex
100
AcDb2dVertex
 10
1432.6975200619
 20
-297.302288881
 30
0.0
 70
         1
  0
VERTEX
  5
57B
100
AcDbEntity
  8
_Y__________
  6
CONTINUOUS
 62
         7
100
AcDbVertex
100
AcDb2dVertex
 10
1432.9182865374
 20
-297.0422565711
 30
0.0
 70
         1
  0
VERTEX
  5
57D
100
AcDbEntity
  8
_Y__________
  6
CONTINUOUS
 62
         7
100
AcDbVertex
100
AcDb2dVertex
 10
1433.0884286551
 20
-296.8055510719
 30
0.0
 70
         1
  0
VERTEX
  5
57F
100
AcDbEntity
  8
_Y__________
  6
CONTINUOUS
 62
         7
100
AcDbVertex
100
AcDb2dVertex
 10
1433.2589853478
 20
-296.5218062829
 30
0.0
 70
         1
  0
VERTEX
  5
581
100
AcDbEntity
  8
_Y__________
  6
CONTINUOUS
 62
         7
100
AcDbVertex
100
AcDb2dVertex
 10
1433.3792681493
 20
-296.2788071434
 30
0.0
 70
         1
  0
VERTEX
  5
583
100
AcDbEntity
  8
_Y__________
  6
CONTINUOUS
 62
         7
100
AcDbVertex
100
AcDb2dVertex
 10
1433.4892864405
 20
-296.0039861338
 30
0.0
 70
         1
  0
VERTEX
  5
585
100
AcDbEntity
  8
_Y__________
  6
CONTINUOUS
 62
         7
100
AcDbVertex
100
AcDb2dVertex
 10
1433.5779714838
 20
-295.7126129176
 30
0.0
 70
         1
  0
VERTEX
  5
587
100
AcDbEntity
  8
_Y__________
  6
CONTINUOUS
 62
         7
100
AcDbVertex
100
AcDb2dVertex
 10
1433.6382624221
 20
-295.4289787747
 30
0.0
 70
         1
  0
VERTEX
  5
589
100
AcDbEntity
  8
_Y__________
  6
CONTINUOUS
 62
         7
100
AcDbVertex
100
AcDb2dVertex
 10
1433.6705908949
 20
-295.1828136454
 30
0.0
 70
         1
  0
VERTEX
  5
58B
100
AcDbEntity
  8
_Y__________
  6
CONTINUOUS
 62
         7
100
AcDbVertex
100
AcDb2dVertex
 10
1433.6846318518
 20
-294.9427661333
 30
0.0
 70
         1
  0
VERTEX
  5
58D
100
AcDbEntity
  8
_Y__________
  6
CONTINUOUS
 62
         7
100
AcDbVertex
100
AcDb2dVertex
 10
1433.6855112565
 20
-294.8657245759
 30
0.0
 70
         1
  0
SEQEND
  5
58F
100
AcDbEntity
  8
_Y__________
  6
CONTINUOUS
 62
         7
  0
CIRCLE
  5
590
100
AcDbEntity
  8
_Y__________
  6
CONTINUOUS
 62
         7
100
AcDbCircle
 10
1414.6355112565
 20
-280.7944772964
 30
0.0
 40
2.0
  0
DIMENSION
  5
593
100
AcDbEntity
  8
_Y__________
  6
CONTINUOUS
 62
         4
100
AcDbDimension
  2
*D18
 10
1255.9359258715
 20
-245.8001450444
 30
0.0
 11
1261.8859258715
 21
-243.1751450444
 31
0.0
  3
DIMSTYLE1
100
AcDbAlignedDimension
 13
1255.9359258715
 23
-267.6444772964
 33
0.0
 14
1281.8359258715
 24
-264.2944772964
 34
0.0
100
AcDbRotatedDimension
  0
DIMENSION
  5
5A2
100
AcDbEntity
  8
_Y__________
  6
CONTINUOUS
 62
         4
100
AcDbDimension
  2
*D19
 10
1904.8052838506
 20
12.6566402715
 30
0.0
 11
1901.5552838506
 21
14.6816402715
 31
0.0
  3
DIMSTYLE2
100
AcDbAlignedDimension
 13
1904.8052838506
 23
5.4157004996
 33
0.0
 14
1906.4052838506
 24
5.4157004996
 34
0.0
100
AcDbRotatedDimension
  0
LINE
  5
5B0
100
AcDbEntity
  8
_Y__________
  6
CONTINUOUS
 62
         7
100
AcDbLine
 10
1817.6562904428
 20
-21.3342995004
 30
0.0
 11
1817.6562904428
 21
-4.3342995004
 31
0.0
  0
LINE
  5
5B1
100
AcDbEntity
  8
_Y__________
  6
CONTINUOUS
 62
         7
100
AcDbLine
 10
1808.6562904428
 20
-21.3342995004
 30
0.0
 11
1808.6562904428
 21
-4.3342995004
 31
0.0
  0
LINE
  5
5B2
100
AcDbEntity
  8
_Y__________
  6
CONTINUOUS
 62
         7
100
AcDbLine
 10
1817.1562904428
 20
-21.8342995004
 30
0.0
 11
1809.1562904428
 21
-21.8342995004
 31
0.0
  0
LINE
  5
5B3
100
AcDbEntity
  8
_Y__________
  6
CONTINUOUS
 62
         7
100
AcDbLine
 10
1817.6562904428
 20
-21.3342995004
 30
0.0
 11
1817.1562904428
 21
-21.8342995004
 31
0.0
  0
LINE
  5
5B4
100
AcDbEntity
  8
_Y__________
  6
CONTINUOUS
 62
         7
100
AcDbLine
 10
1808.6562904428
 20
-21.3342995004
 30
0.0
 11
1809.1562904428
 21
-21.8342995004
 31
0.0
  0
LINE
  5
5B5
100
AcDbEntity
  8
_Y__________
  6
CONTINUOUS
 62
         7
100
AcDbLine
 10
1817.1562904428
 20
-3.8342995004
 30
0.0
 11
1809.1562904428
 21
-3.8342995004
 31
0.0
  0
LINE
  5
5B6
100
AcDbEntity
  8
_Y__________
  6
CONTINUOUS
 62
         7
100
AcDbLine
 10
1817.6562904428
 20
-4.3342995004
 30
0.0
 11
1817.1562904428
 21
-3.8342995004
 31
0.0
  0
LINE
  5
5B7
100
AcDbEntity
  8
_Y__________
  6
CONTINUOUS
 62
         7
100
AcDbLine
 10
1809.1562904428
 20
-3.8342995004
 30
0.0
 11
1808.6562904428
 21
-4.3342995004
 31
0.0
  0
LINE
  5
5B8
100
AcDbEntity
  8
_Y__________
  6
DASHED
 62
         7
100
AcDbLine
 10
1817.6562904428
 20
-9.8342995004
 30
0.0
 11
1808.6562904428
 21
-9.8342995004
 31
0.0
  0
LINE
  5
5B9
100
AcDbEntity
  8
_Y__________
  6
DASHED
 62
         7
100
AcDbLine
 10
1817.6562904428
 20
-15.8342995004
 30
0.0
 11
1808.6562904428
 21
-15.8342995004
 31
0.0
  0
LINE
  5
5BA
100
AcDbEntity
  8
_Y__________
  6
CONTINUOUS
 62
         7
100
AcDbLine
 10
1747.2558758278
 20
-9.3342995004
 30
0.0
 11
1747.2558758278
 21
-16.3342995004
 31
0.0
  0
LINE
  5
5BB
100
AcDbEntity
  8
_Y__________
  6
CONTINUOUS
 62
         7
100
AcDbLine
 10
1763.6558758278
 20
-9.3342995004
 30
0.0
 11
1747.2558758278
 21
-9.3342995004
 31
0.0
  0
LINE
  5
5BC
100
AcDbEntity
  8
_Y__________
  6
CONTINUOUS
 62
         7
100
AcDbLine
 10
1763.6558758278
 20
-16.3342995004
 30
0.0
 11
1747.2558758278
 21
-16.3342995004
 31
0.0
  0
LINE
  5
5BD
100
AcDbEntity
  8
_Y__________
  6
CONTINUOUS
 62
         7
100
AcDbLine
 10
1748.7558758278
 20
-7.8342995004
 30
0.0
 11
1747.2558758278
 21
-9.3342995004
 31
0.0
  0
LINE
  5
5BE
100
AcDbEntity
  8
_Y__________
  6
CONTINUOUS
 62
         7
100
AcDbLine
 10
1748.7558758278
 20
-17.8342995004
 30
0.0
 11
1747.2558758278
 21
-16.3342995004
 31
0.0
  0
LINE
  5
5BF
100
AcDbEntity
  8
_Y__________
  6
CONTINUOUS
 62
         7
100
AcDbLine
 10
1763.6558758278
 20
-17.8342995004
 30
0.0
 11
1748.7558758278
 21
-17.8342995004
 31
0.0
  0
LINE
  5
5C0
100
AcDbEntity
  8
_Y__________
  6
CONTINUOUS
 62
         7
100
AcDbLine
 10
1763.6558758278
 20
-7.8342995004
 30
0.0
 11
1748.7558758278
 21
-7.8342995004
 31
0.0
  0
LINE
  5
5C1
100
AcDbEntity
  8
_Y__________
  6
CONTINUOUS
 62
         7
100
AcDbLine
 10
1763.6558758278
 20
-7.8342995004
 30
0.0
 11
1763.6558758278
 21
-17.8342995004
 31
0.0
  0
LINE
  5
5C2
100
AcDbEntity
  8
_Y__________
  6
CONTINUOUS
 62
         7
100
AcDbLine
 10
1765.1478758278
 20
-6.3422995004
 30
0.0
 11
1765.1478758278
 21
-19.3262995004
 31
0.0
  0
LINE
  5
5C3
100
AcDbEntity
  8
_Y__________
  6
CONTINUOUS
 62
         7
100
AcDbLine
 10
1808.6562904428
 20
-19.3262995004
 30
0.0
 11
1765.1478758278
 21
-19.3262995004
 31
0.0
  0
LINE
  5
5C4
100
AcDbEntity
  8
_Y__________
  6
CONTINUOUS
 62
         7
100
AcDbLine
 10
1808.6562904428
 20
-6.3422995004
 30
0.0
 11
1765.1478758278
 21
-6.3422995004
 31
0.0
  0
LINE
  5
5C5
100
AcDbEntity
  8
_Y__________
  6
CONTINUOUS
 62
         7
100
AcDbLine
 10
1765.1478758278
 20
-19.3262995004
 30
0.0
 11
1763.6558758278
 21
-17.8342995004
 31
0.0
  0
LINE
  5
5C6
100
AcDbEntity
  8
_Y__________
  6
CONTINUOUS
 62
         7
100
AcDbLine
 10
1765.1478758278
 20
-6.3422995004
 30
0.0
 11
1763.6558758278
 21
-7.8342995004
 31
0.0
  0
LINE
  5
5C7
100
AcDbEntity
  8
_Y__________
  6
CONTINUOUS
 62
         7
100
AcDbLine
 10
1862.3124428094
 20
31.1657004996
 30
0.0
 11
1862.3124428094
 21
-56.8342995004
 31
0.0
  0
LINE
  5
5C8
100
AcDbEntity
  8
_Y__________
  6
CONTINUOUS
 62
         7
100
AcDbLine
 10
1860.3124428094
 20
-56.8342995004
 30
0.0
 11
1860.3124428094
 21
31.1657004996
 31
0.0
  0
CIRCLE
  5
5C9
100
AcDbEntity
  8
_Y__________
  6
CONTINUOUS
 62
         7
100
AcDbCircle
 10
1861.3124428094
 20
-56.8342995004
 30
0.0
 40
1.0
  0
LINE
  5
5CA
100
AcDbEntity
  8
_Y__________
  6
CONTINUOUS
 62
         7
100
AcDbLine
 10
1906.4052838506
 20
-31.0842995004
 30
0.0
 11
1906.4052838506
 21
5.4157004996
 31
0.0
  0
LINE
  5
5CB
100
AcDbEntity
  8
_Y__________
  6
CONTINUOUS
 62
         7
100
AcDbLine
 10
1904.8052838506
 20
-31.0842995004
 30
0.0
 11
1904.8052838506
 21
5.4157004996
 31
0.0
  0
LINE
  5
5CC
100
AcDbEntity
  8
_Y__________
  6
CONTINUOUS
 62
         7
100
AcDbLine
 10
1906.4052838506
 20
5.4157004996
 30
0.0
 11
1904.8052838506
 21
5.4157004996
 31
0.0
  0
LINE
  5
5CD
100
AcDbEntity
  8
_Y__________
  6
CONTINUOUS
 62
         7
100
AcDbLine
 10
1906.4052838506
 20
-31.0842995004
 30
0.0
 11
1904.8052838506
 21
-31.0842995004
 31
0.0
  0
LINE
  5
5CE
100
AcDbEntity
  8
_Y__________
  6
CONTINUOUS
 62
         7
100
AcDbLine
 10
1906.4052838506
 20
1.9157004996
 30
0.0
 11
1904.8052838506
 21
1.9157004996
 31
0.0
  0
LINE
  5
5CF
100
AcDbEntity
  8
_Y__________
  6
CONTINUOUS
 62
         7
100
AcDbLine
 10
1906.4052838506
 20
-27.5842995004
 30
0.0
 11
1904.8052838506
 21
-27.5842995004
 31
0.0
  0
CIRCLE
  5
5D0
100
AcDbEntity
  8
_Y__________
  6
CONTINUOUS
 62
         7
100
AcDbCircle
 10
1955.4874396587
 20
11.1657004996
 30
0.0
 40
1.0
  0
LINE
  5
5D1
100
AcDbEntity
  8
_Y__________
  6
CONTINUOUS
 62
         7
100
AcDbLine
 10
1954.4874396587
 20
-36.8342995004
 30
0.0
 11
1954.4874396587
 21
11.1657004996
 31
0.0
  0
LINE
  5
5D2
100
AcDbEntity
  8
_Y__________
  6
CONTINUOUS
 62
         7
100
AcDbLine
 10
1956.4874396587
 20
11.1657004996
 30
0.0
 11
1956.4874396587
 21
-36.8342995004
 31
0.0
  0
CIRCLE
  5
5D3
100
AcDbEntity
  8
_Y__________
  6
CONTINUOUS
 62
         7
100
AcDbCircle
 10
1955.4874396587
 20
-36.8342995004
 30
0.0
 40
1.0
  0
CIRCLE
  5
5D4
100
AcDbEntity
  8
_Y__________
  6
CONTINUOUS
 62
         7
100
AcDbCircle
 10
1994.6633412095
 20
15.6657004996
 30
0.0
 40
1.0
  0
LINE
  5
5D5
100
AcDbEntity
  8
_Y__________
  6
CONTINUOUS
 62
         7
100
AcDbLine
 10
1993.6633412095
 20
15.6657004996
 30
0.0
 11
1993.6633412095
 21
-41.3342995004
 31
0.0
  0
LINE
  5
5D6
100
AcDbEntity
  8
_Y__________
  6
CONTINUOUS
 62
         7
100
AcDbLine
 10
1995.6633412095
 20
-41.3342995004
 30
0.0
 11
1995.6633412095
 21
15.6657004996
 31
0.0
  0
CIRCLE
  5
5D7
100
AcDbEntity
  8
_Y__________
  6
CONTINUOUS
 62
         7
100
AcDbCircle
 10
1994.6633412095
 20
-41.3342995004
 30
0.0
 40
1.0
  0
CIRCLE
  5
5D8
100
AcDbEntity
  8
_Y__________
  6
CONTINUOUS
 62
         7
100
AcDbCircle
 10
2031.5976792024
 20
18.2507004996
 30
0.0
 40
1.5
  0
CIRCLE
  5
5D9
100
AcDbEntity
  8
_Y__________
  6
CONTINUOUS
 62
         7
100
AcDbCircle
 10
2034.5976792024
 20
18.2507004996
 30
0.0
 40
1.5
  0
CIRCLE
  5
5DA
100
AcDbEntity
  8
_Y__________
  6
CONTINUOUS
 62
         7
100
AcDbCircle
 10
2037.5976792024
 20
18.2507004996
 30
0.0
 40
1.5
  0
CIRCLE
  5
5DB
100
AcDbEntity
  8
_Y__________
  6
CONTINUOUS
 62
         7
100
AcDbCircle
 10
2040.5976792024
 20
18.2507004996
 30
0.0
 40
1.5
  0
CIRCLE
  5
5DC
100
AcDbEntity
  8
_Y__________
  6
CONTINUOUS
 62
         7
100
AcDbCircle
 10
2028.5976792024
 20
-43.9192995004
 30
0.0
 40
1.5
  0
CIRCLE
  5
5DD
100
AcDbEntity
  8
_Y__________
  6
CONTINUOUS
 62
         7
100
AcDbCircle
 10
2031.5976792024
 20
-43.9192995004
 30
0.0
 40
1.5
  0
CIRCLE
  5
5DE
100
AcDbEntity
  8
_Y__________
  6
CONTINUOUS
 62
         7
100
AcDbCircle
 10
2034.5976792024
 20
-43.9192995004
 30
0.0
 40
1.5
  0
CIRCLE
  5
5DF
100
AcDbEntity
  8
_Y__________
  6
CONTINUOUS
 62
         7
100
AcDbCircle
 10
2037.5976792024
 20
-43.9192995004
 30
0.0
 40
1.5
  0
LINE
  5
5E0
100
AcDbEntity
  8
_Y__________
  6
CONTINUOUS
 62
         7
100
AcDbLine
 10
2042.0976792024
 20
18.2507004996
 30
0.0
 11
2039.0976792024
 21
-43.9192995004
 31
0.0
  0
LINE
  5
5E1
100
AcDbEntity
  8
_Y__________
  6
CONTINUOUS
 62
         7
100
AcDbLine
 10
2039.0976792024
 20
18.2507004996
 30
0.0
 11
2036.0976792024
 21
-43.9192995004
 31
0.0
  0
LINE
  5
5E2
100
AcDbEntity
  8
_Y__________
  6
CONTINUOUS
 62
         7
100
AcDbLine
 10
2036.0976792024
 20
18.2507004996
 30
0.0
 11
2033.0976792024
 21
-43.9192995004
 31
0.0
  0
LINE
  5
5E3
100
AcDbEntity
  8
_Y__________
  6
CONTINUOUS
 62
         7
100
AcDbLine
 10
2033.0976792024
 20
18.2507004996
 30
0.0
 11
2030.0976792024
 21
-43.9192995004
 31
0.0
  0
LINE
  5
5E4
100
AcDbEntity
  8
_Y__________
  6
CONTINUOUS
 62
         7
100
AcDbLine
 10
2030.0976792024
 20
18.2507004996
 30
0.0
 11
2027.0976792024
 21
-43.9192995004
 31
0.0
  0
DIMENSION
  5
5E7
100
AcDbEntity
  8
_Y__________
  6
CONTINUOUS
 62
         4
100
AcDbDimension
  2
*D20
 10
2030.0976792024
 20
23.8788335911
 30
0.0
 11
2033.3976792024
 21
25.9038335911
 31
0.0
  3
DIMSTYLE2
100
AcDbAlignedDimension
 13
2030.0976792024
 23
18.2507004996
 33
0.0
 14
2042.0976792024
 24
18.2507004996
 34
0.0
100
AcDbRotatedDimension
  0
DIMENSION
  5
5F5
100
AcDbEntity
  8
_Y__________
  6
CONTINUOUS
 62
         4
100
AcDbDimension
  2
*D21
 10
2056.9771920244
 20
19.7507004996
 30
0.0
 11
2054.9521920244
 21
-19.5842995004
 31
0.0
  3
DIMSTYLE2
100
AcDbAlignedDimension
 13
2040.5976792024
 23
19.7507004996
 33
0.0
 14
2037.5976792024
 24
-45.4192995004
 34
0.0
 50
90.0
100
AcDbRotatedDimension
  0
DIMENSION
  5
603
100
AcDbEntity
  8
_Y__________
  6
CONTINUOUS
 62
         4
100
AcDbDimension
  2
*D22
 10
1984.6239805673
 20
16.6657004996
 30
0.0
 11
1982.5989805673
 21
-15.5342995004
 31
0.0
  3
DIMSTYLE2
100
AcDbAlignedDimension
 13
1994.6633412095
 23
16.6657004996
 33
0.0
 14
1994.6633412095
 24
-42.3342995004
 34
0.0
 50
90.0
100
AcDbRotatedDimension
  0
DIMENSION
  5
611
100
AcDbEntity
  8
_Y__________
  6
CONTINUOUS
 62
         4
100
AcDbDimension
  2
*D23
 10
1944.1898701422
 20
12.1657004996
 30
0.0
 11
1942.1648701422
 21
-15.5342995004
 31
0.0
  3
DIMSTYLE2
100
AcDbAlignedDimension
 13
1955.4874396587
 23
12.1657004996
 33
0.0
 14
1955.4874396587
 24
-37.8342995004
 34
0.0
 50
90.0
100
AcDbRotatedDimension
  0
DIMENSION
  5
61F
100
AcDbEntity
  8
_Y__________
  6
CONTINUOUS
 62
         4
100
AcDbDimension
  2
*D24
 10
1899.5365481946
 20
5.4157004996
 30
0.0
 11
1897.5115481946
 21
-18.2342995004
 31
0.0
  3
DIMSTYLE2
100
AcDbAlignedDimension
 13
1904.8052838506
 23
5.4157004996
 33
0.0
 14
1904.8052838506
 24
-31.0842995004
 34
0.0
 50
90.0
100
AcDbRotatedDimension
  0
DIMENSION
  5
62D
100
AcDbEntity
  8
_Y__________
  6
CONTINUOUS
 62
         4
100
AcDbDimension
  2
*D25
 10
1850.136613284
 20
32.1657004996
 30
0.0
 11
1848.111613284
 21
-15.5342995004
 31
0.0
  3
DIMSTYLE2
100
AcDbAlignedDimension
 13
1861.3124428094
 23
32.1657004996
 33
0.0
 14
1861.3124428094
 24
-57.8342995004
 34
0.0
 50
90.0
100
AcDbRotatedDimension
  0
DIMENSION
  5
63B
100
AcDbEntity
  8
_Y__________
  6
CONTINUOUS
 62
         4
100
AcDbDimension
  2
*D26
 10
1835.362079186
 20
-3.8342995004
 30
0.0
 11
1833.337079186
 21
-15.5342995004
 31
0.0
  3
DIMSTYLE2
100
AcDbAlignedDimension
 13
1817.1562904428
 23
-3.8342995004
 33
0.0
 14
1817.1562904428
 24
-21.8342995004
 34
0.0
 50
90.0
100
AcDbRotatedDimension
  0
DIMENSION
  5
649
100
AcDbEntity
  8
_Y__________
  6
CONTINUOUS
 62
         4
100
AcDbDimension
  2
*D27
 10
1763.6558758278
 20
8.2145289937
 30
0.0
 11
1783.4560831353
 21
10.2395289937
 31
0.0
  3
DIMSTYLE2
100
AcDbAlignedDimension
 13
1763.6558758278
 23
-7.8342995004
 33
0.0
 14
1808.6562904428
 24
-9.8342995004
 34
0.0
100
AcDbRotatedDimension
  0
LINE
  5
655
100
AcDbEntity
  8
_Y__________
  6
CENTER
 62
         1
100
AcDbLine
 10
2077.3831473831
 20
-12.8342995004
 30
0.0
 11
1744.3532717553
 21
-12.8342995004
 31
0.0
  0
CIRCLE
  5
656
100
AcDbEntity
  8
_Y__________
  6
CONTINUOUS
 62
         7
100
AcDbCircle
 10
1770.4799169706
 20
-161.9444635289
 30
0.0
 40
1.5
  0
CIRCLE
  5
657
100
AcDbEntity
  8
_Y__________
  6
CONTINUOUS
 62
         7
100
AcDbCircle
 10
1773.4799169706
 20
-161.9444635289
 30
0.0
 40
1.5
  0
CIRCLE
  5
658
100
AcDbEntity
  8
_Y__________
  6
CONTINUOUS
 62
         7
100
AcDbCircle
 10
1776.4799169707
 20
-161.9444635289
 30
0.0
 40
1.5
  0
CIRCLE
  5
659
100
AcDbEntity
  8
_Y__________
  6
CONTINUOUS
 62
         7
100
AcDbCircle
 10
1779.4799169707
 20
-161.9444635289
 30
0.0
 40
1.5
  0
CIRCLE
  5
65A
100
AcDbEntity
  8
_Y__________
  6
CONTINUOUS
 62
         7
100
AcDbCircle
 10
1782.4799169707
 20
-161.9444635289
 30
0.0
 40
1.5
  0
CIRCLE
  5
65B
100
AcDbEntity
  8
_Y__________
  6
CONTINUOUS
 62
         7
100
AcDbCircle
 10
1785.4799169707
 20
-161.9444635289
 30
0.0
 40
1.5
  0
CIRCLE
  5
65C
100
AcDbEntity
  8
_Y__________
  6
CONTINUOUS
 62
         7
100
AcDbCircle
 10
1788.4799169707
 20
-161.9444635289
 30
0.0
 40
1.5
  0
CIRCLE
  5
65D
100
AcDbEntity
  8
_Y__________
  6
CONTINUOUS
 62
         7
100
AcDbCircle
 10
1791.4799169707
 20
-161.9444635289
 30
0.0
 40
1.5
  0
CIRCLE
  5
65E
100
AcDbEntity
  8
_Y__________
  6
CONTINUOUS
 62
         7
100
AcDbCircle
 10
1794.4799169707
 20
-161.9444635289
 30
0.0
 40
1.5
  0
CIRCLE
  5
65F
100
AcDbEntity
  8
_Y__________
  6
CONTINUOUS
 62
         7
100
AcDbCircle
 10
1767.4799169706
 20
-182.2444635289
 30
0.0
 40
1.5
  0
CIRCLE
  5
660
100
AcDbEntity
  8
_Y__________
  6
CONTINUOUS
 62
         7
100
AcDbCircle
 10
1770.4799169706
 20
-182.2444635289
 30
0.0
 40
1.5
  0
CIRCLE
  5
661
100
AcDbEntity
  8
_Y__________
  6
CONTINUOUS
 62
         7
100
AcDbCircle
 10
1773.4799169706
 20
-182.2444635289
 30
0.0
 40
1.5
  0
CIRCLE
  5
662
100
AcDbEntity
  8
_Y__________
  6
CONTINUOUS
 62
         7
100
AcDbCircle
 10
1776.4799169707
 20
-182.2444635289
 30
0.0
 40
1.5
  0
CIRCLE
  5
663
100
AcDbEntity
  8
_Y__________
  6
CONTINUOUS
 62
         7
100
AcDbCircle
 10
1779.4799169707
 20
-182.2444635289
 30
0.0
 40
1.5
  0
CIRCLE
  5
664
100
AcDbEntity
  8
_Y__________
  6
CONTINUOUS
 62
         7
100
AcDbCircle
 10
1782.4799169707
 20
-182.2444635289
 30
0.0
 40
1.5
  0
CIRCLE
  5
665
100
AcDbEntity
  8
_Y__________
  6
CONTINUOUS
 62
         7
100
AcDbCircle
 10
1785.4799169707
 20
-182.2444635289
 30
0.0
 40
1.5
  0
CIRCLE
  5
666
100
AcDbEntity
  8
_Y__________
  6
CONTINUOUS
 62
         7
100
AcDbCircle
 10
1788.4799169707
 20
-182.2444635289
 30
0.0
 40
1.5
  0
CIRCLE
  5
667
100
AcDbEntity
  8
_Y__________
  6
CONTINUOUS
 62
         7
100
AcDbCircle
 10
1791.4799169707
 20
-182.2444635289
 30
0.0
 40
1.5
  0
LINE
  5
668
100
AcDbEntity
  8
_Y__________
  6
CONTINUOUS
 62
         7
100
AcDbLine
 10
1795.9799169707
 20
-161.9444635289
 30
0.0
 11
1792.9799169707
 21
-182.2444635289
 31
0.0
  0
LINE
  5
669
100
AcDbEntity
  8
_Y__________
  6
CONTINUOUS
 62
         7
100
AcDbLine
 10
1789.9799169707
 20
-182.2444635289
 30
0.0
 11
1792.9799169707
 21
-161.9444635289
 31
0.0
  0
LINE
  5
66A
100
AcDbEntity
  8
_Y__________
  6
CONTINUOUS
 62
         7
100
AcDbLine
 10
1783.9799169707
 20
-182.2444635289
 30
0.0
 11
1786.9799169707
 21
-161.9444635289
 31
0.0
  0
LINE
  5
66B
100
AcDbEntity
  8
_Y__________
  6
CONTINUOUS
 62
         7
100
AcDbLine
 10
1789.9799169707
 20
-161.9444635289
 30
0.0
 11
1786.9799169707
 21
-182.2444635289
 31
0.0
  0
LINE
  5
66C
100
AcDbEntity
  8
_Y__________
  6
CONTINUOUS
 62
         7
100
AcDbLine
 10
1777.9799169707
 20
-182.2444635289
 30
0.0
 11
1780.9799169707
 21
-161.9444635289
 31
0.0
  0
LINE
  5
66D
100
AcDbEntity
  8
_Y__________
  6
CONTINUOUS
 62
         7
100
AcDbLine
 10
1783.9799169707
 20
-161.9444635289
 30
0.0
 11
1780.9799169707
 21
-182.2444635289
 31
0.0
  0
LINE
  5
66E
100
AcDbEntity
  8
_Y__________
  6
CONTINUOUS
 62
         7
100
AcDbLine
 10
1771.9799169706
 20
-182.2444635289
 30
0.0
 11
1774.9799169706
 21
-161.9444635289
 31
0.0
  0
LINE
  5
66F
100
AcDbEntity
  8
_Y__________
  6
CONTINUOUS
 62
         7
100
AcDbLine
 10
1777.9799169707
 20
-161.9444635289
 30
0.0
 11
1774.9799169706
 21
-182.2444635289
 31
0.0
  0
LINE
  5
670
100
AcDbEntity
  8
_Y__________
  6
CONTINUOUS
 62
         7
100
AcDbLine
 10
1765.9799169706
 20
-182.2444635289
 30
0.0
 11
1768.9799169706
 21
-161.9444635289
 31
0.0
  0
LINE
  5
671
100
AcDbEntity
  8
_Y__________
  6
CONTINUOUS
 62
         7
100
AcDbLine
 10
1771.9799169706
 20
-161.9444635289
 30
0.0
 11
1768.9799169706
 21
-182.2444635289
 31
0.0
  0
DIMENSION
  5
674
100
AcDbEntity
  8
_Y__________
  6
CONTINUOUS
 62
         4
100
AcDbDimension
  2
*D28
 10
1768.9799169706
 20
-155.5204810481
 30
0.0
 11
1779.7799169707
 21
-153.4954810481
 31
0.0
  3
DIMSTYLE2
100
AcDbAlignedDimension
 13
1768.9799169706
 23
-161.9444635289
 33
0.0
 14
1795.9799169707
 24
-161.9444635289
 34
0.0
100
AcDbRotatedDimension
  0
DIMENSION
  5
682
100
AcDbEntity
  8
_Y__________
  6
CONTINUOUS
 62
         4
100
AcDbDimension
  2
*D29
 10
1808.4566710949
 20
-160.4444635289
 30
0.0
 11
1806.4316710949
 21
-177.4944635289
 31
0.0
  3
DIMSTYLE2
100
AcDbAlignedDimension
 13
1794.4799169707
 23
-160.4444635289
 33
0.0
 14
1791.4799169707
 24
-183.7444635289
 34
0.0
 50
90.0
100
AcDbRotatedDimension
  0
CIRCLE
  5
68E
100
AcDbEntity
  8
_Y__________
  6
CONTINUOUS
 62
         7
100
AcDbCircle
 10
1836.870928375
 20
-156.8044635289
 30
0.0
 40
1.25
  0
CIRCLE
  5
68F
100
AcDbEntity
  8
_Y__________
  6
CONTINUOUS
 62
         7
100
AcDbCircle
 10
1839.370928375
 20
-156.8044635289
 30
0.0
 40
1.25
  0
CIRCLE
  5
690
100
AcDbEntity
  8
_Y__________
  6
CONTINUOUS
 62
         7
100
AcDbCircle
 10
1841.870928375
 20
-156.8044635289
 30
0.0
 40
1.25
  0
CIRCLE
  5
691
100
AcDbEntity
  8
_Y__________
  6
CONTINUOUS
 62
         7
100
AcDbCircle
 10
1844.370928375
 20
-156.8044635289
 30
0.0
 40
1.25
  0
CIRCLE
  5
692
100
AcDbEntity
  8
_Y__________
  6
CONTINUOUS
 62
         7
100
AcDbCircle
 10
1846.870928375
 20
-156.8044635289
 30
0.0
 40
1.25
  0
CIRCLE
  5
693
100
AcDbEntity
  8
_Y__________
  6
CONTINUOUS
 62
         7
100
AcDbCircle
 10
1849.370928375
 20
-156.8044635289
 30
0.0
 40
1.25
  0
CIRCLE
  5
694
100
AcDbEntity
  8
_Y__________
  6
CONTINUOUS
 62
         7
100
AcDbCircle
 10
1834.370928375
 20
-187.3844635289
 30
0.0
 40
1.25
  0
CIRCLE
  5
695
100
AcDbEntity
  8
_Y__________
  6
CONTINUOUS
 62
         7
100
AcDbCircle
 10
1836.870928375
 20
-187.3844635289
 30
0.0
 40
1.25
  0
CIRCLE
  5
696
100
AcDbEntity
  8
_Y__________
  6
CONTINUOUS
 62
         7
100
AcDbCircle
 10
1839.370928375
 20
-187.3844635289
 30
0.0
 40
1.25
  0
CIRCLE
  5
697
100
AcDbEntity
  8
_Y__________
  6
CONTINUOUS
 62
         7
100
AcDbCircle
 10
1841.870928375
 20
-187.3844635289
 30
0.0
 40
1.25
  0
CIRCLE
  5
698
100
AcDbEntity
  8
_Y__________
  6
CONTINUOUS
 62
         7
100
AcDbCircle
 10
1844.370928375
 20
-187.3844635289
 30
0.0
 40
1.25
  0
CIRCLE
  5
699
100
AcDbEntity
  8
_Y__________
  6
CONTINUOUS
 62
         7
100
AcDbCircle
 10
1846.870928375
 20
-187.3844635289
 30
0.0
 40
1.25
  0
LINE
  5
69A
100
AcDbEntity
  8
_Y__________
  6
CONTINUOUS
 62
         7
100
AcDbLine
 10
1850.620928375
 20
-156.8044635289
 30
0.0
 11
1848.120928375
 21
-187.3844635289
 31
0.0
  0
LINE
  5
69B
100
AcDbEntity
  8
_Y__________
  6
CONTINUOUS
 62
         7
100
AcDbLine
 10
1845.620928375
 20
-156.8044635289
 30
0.0
 11
1843.120928375
 21
-187.3844635289
 31
0.0
  0
LINE
  5
69C
100
AcDbEntity
  8
_Y__________
  6
CONTINUOUS
 62
         7
100
AcDbLine
 10
1848.120928375
 20
-156.8044635289
 30
0.0
 11
1845.620928375
 21
-187.3844635289
 31
0.0
  0
LINE
  5
69D
100
AcDbEntity
  8
_Y__________
  6
CONTINUOUS
 62
         7
100
AcDbLine
 10
1840.620928375
 20
-156.8044635289
 30
0.0
 11
1838.120928375
 21
-187.3844635289
 31
0.0
  0
LINE
  5
69E
100
AcDbEntity
  8
_Y__________
  6
CONTINUOUS
 62
         7
100
AcDbLine
 10
1843.120928375
 20
-156.8044635289
 30
0.0
 11
1840.620928375
 21
-187.3844635289
 31
0.0
  0
LINE
  5
69F
100
AcDbEntity
  8
_Y__________
  6
CONTINUOUS
 62
         7
100
AcDbLine
 10
1835.620928375
 20
-156.8044635289
 30
0.0
 11
1833.120928375
 21
-187.3844635289
 31
0.0
  0
LINE
  5
6A0
100
AcDbEntity
  8
_Y__________
  6
CONTINUOUS
 62
         7
100
AcDbLine
 10
1838.120928375
 20
-156.8044635289
 30
0.0
 11
1835.620928375
 21
-187.3844635289
 31
0.0
  0
CIRCLE
  5
6A1
100
AcDbEntity
  8
_Y__________
  6
CONTINUOUS
 62
         7
100
AcDbCircle
 10
1851.870928375
 20
-156.8044635289
 30
0.0
 40
1.25
  0
LINE
  5
6A2
100
AcDbEntity
  8
_Y__________
  6
CONTINUOUS
 62
         7
100
AcDbLine
 10
1853.120928375
 20
-156.8044635289
 30
0.0
 11
1850.620928375
 21
-187.3844635289
 31
0.0
  0
CIRCLE
  5
6A3
100
AcDbEntity
  8
_Y__________
  6
CONTINUOUS
 62
         7
100
AcDbCircle
 10
1849.370928375
 20
-187.3844635289
 30
0.0
 40
1.25
  0
DIMENSION
  5
6A6
100
AcDbEntity
  8
_Y__________
  6
CONTINUOUS
 62
         4
100
AcDbDimension
  2
*D30
 10
1835.620928375
 20
-151.4587475361
 30
0.0
 11
1838.970928375
 21
-149.4337475361
 31
0.0
  3
DIMSTYLE2
100
AcDbAlignedDimension
 13
1835.620928375
 23
-156.8044635289
 33
0.0
 14
1853.120928375
 24
-156.8044635289
 34
0.0
100
AcDbRotatedDimension
  0
DIMENSION
  5
6B4
100
AcDbEntity
  8
_Y__________
  6
CONTINUOUS
 62
         4
100
AcDbDimension
  2
*D31
 10
1864.6014264057
 20
-155.5544635289
 30
0.0
 11
1862.5764264057
 21
-178.8444635289
 31
0.0
  3
DIMSTYLE2
100
AcDbAlignedDimension
 13
1849.370928375
 23
-155.5544635289
 33
0.0
 14
1846.870928375
 24
-188.6344635289
 34
0.0
 50
90.0
100
AcDbRotatedDimension
  0
CIRCLE
  5
6C0
100
AcDbEntity
  8
_Y__________
  6
CONTINUOUS
 62
         7
100
AcDbCircle
 10
1897.9108930436
 20
-160.4144635289
 30
0.0
 40
1.0
  0
CIRCLE
  5
6C1
100
AcDbEntity
  8
_Y__________
  6
CONTINUOUS
 62
         7
100
AcDbCircle
 10
1903.9108930436
 20
-160.4144635289
 30
0.0
 40
1.0
  0
CIRCLE
  5
6C2
100
AcDbEntity
  8
_Y__________
  6
CONTINUOUS
 62
         7
100
AcDbCircle
 10
1905.9108930436
 20
-160.4144635289
 30
0.0
 40
1.0
  0
CIRCLE
  5
6C3
100
AcDbEntity
  8
_Y__________
  6
CONTINUOUS
 62
         7
100
AcDbCircle
 10
1907.9108930437
 20
-160.4144635289
 30
0.0
 40
1.0
  0
CIRCLE
  5
6C4
100
AcDbEntity
  8
_Y__________
  6
CONTINUOUS
 62
         7
100
AcDbCircle
 10
1895.9108930436
 20
-183.7744635289
 30
0.0
 40
1.0
  0
CIRCLE
  5
6C5
100
AcDbEntity
  8
_Y__________
  6
CONTINUOUS
 62
         7
100
AcDbCircle
 10
1897.9108930436
 20
-183.7744635289
 30
0.0
 40
1.0
  0
CIRCLE
  5
6C6
100
AcDbEntity
  8
_Y__________
  6
CONTINUOUS
 62
         7
100
AcDbCircle
 10
1899.9108930436
 20
-183.7744635289
 30
0.0
 40
1.0
  0
CIRCLE
  5
6C7
100
AcDbEntity
  8
_Y__________
  6
CONTINUOUS
 62
         7
100
AcDbCircle
 10
1901.9108930436
 20
-183.7744635289
 30
0.0
 40
1.0
  0
CIRCLE
  5
6C8
100
AcDbEntity
  8
_Y__________
  6
CONTINUOUS
 62
         7
100
AcDbCircle
 10
1903.9108930436
 20
-183.7744635289
 30
0.0
 40
1.0
  0
CIRCLE
  5
6C9
100
AcDbEntity
  8
_Y__________
  6
CONTINUOUS
 62
         7
100
AcDbCircle
 10
1905.9108930436
 20
-183.7744635289
 30
0.0
 40
1.0
  0
LINE
  5
6CA
100
AcDbEntity
  8
_Y__________
  6
CONTINUOUS
 62
         7
100
AcDbLine
 10
1908.9108930437
 20
-160.4144635289
 30
0.0
 11
1906.9108930436
 21
-183.7744635289
 31
0.0
  0
LINE
  5
6CB
100
AcDbEntity
  8
_Y__________
  6
CONTINUOUS
 62
         7
100
AcDbLine
 10
1906.9108930436
 20
-160.4144635289
 30
0.0
 11
1904.9108930436
 21
-183.7744635289
 31
0.0
  0
LINE
  5
6CC
100
AcDbEntity
  8
_Y__________
  6
CONTINUOUS
 62
         7
100
AcDbLine
 10
1902.9108930436
 20
-160.4144635289
 30
0.0
 11
1900.9108930436
 21
-183.7744635289
 31
0.0
  0
LINE
  5
6CD
100
AcDbEntity
  8
_Y__________
  6
CONTINUOUS
 62
         7
100
AcDbLine
 10
1904.9108930436
 20
-160.4144635289
 30
0.0
 11
1902.9108930436
 21
-183.7744635289
 31
0.0
  0
LINE
  5
6CE
100
AcDbEntity
  8
_Y__________
  6
CONTINUOUS
 62
         7
100
AcDbLine
 10
1898.9108930436
 20
-160.4144635289
 30
0.0
 11
1896.9108930436
 21
-183.7744635289
 31
0.0
  0
LINE
  5
6CF
100
AcDbEntity
  8
_Y__________
  6
CONTINUOUS
 62
         7
100
AcDbLine
 10
1900.9108930436
 20
-160.4144635289
 30
0.0
 11
1898.9108930436
 21
-183.7744635289
 31
0.0
  0
LINE
  5
6D0
100
AcDbEntity
  8
_Y__________
  6
CONTINUOUS
 62
         7
100
AcDbLine
 10
1896.9108930436
 20
-160.4144635289
 30
0.0
 11
1894.9108930436
 21
-183.7744635289
 31
0.0
  0
DIMENSION
  5
6D3
100
AcDbEntity
  8
_Y__________
  6
CONTINUOUS
 62
         4
100
AcDbDimension
  2
*D32
 10
1908.9108930437
 20
-156.6225602434
 30
0.0
 11
1900.2108930436
 21
-154.5975602434
 31
0.0
  3
DIMSTYLE2
100
AcDbAlignedDimension
 13
1908.9108930437
 23
-160.4144635289
 33
0.0
 14
1896.9108930436
 24
-160.4144635289
 34
0.0
100
AcDbRotatedDimension
  0
DIMENSION
  5
6E1
100
AcDbEntity
  8
_Y__________
  6
CONTINUOUS
 62
         4
100
AcDbDimension
  2
*D33
 10
1921.0386023171
 20
-159.4144635289
 30
0.0
 11
1919.0136023171
 21
-178.8444635289
 31
0.0
  3
DIMSTYLE2
100
AcDbAlignedDimension
 13
1907.9108930437
 23
-159.4144635289
 33
0.0
 14
1905.9108930436
 24
-184.7744635289
 34
0.0
 50
90.0
100
AcDbRotatedDimension
  0
LINE
  5
6ED
100
AcDbEntity
  8
_Y__________
  6
CENTER
 62
         1
100
AcDbLine
 10
1980.4930131669
 20
-185.5011145646
 30
0.0
 11
1980.4930131669
 21
-161.2746963126
 31
0.0
  0
LINE
  5
6EE
100
AcDbEntity
  8
_Y__________
  6
CENTER
 62
         1
100
AcDbLine
 10
2038.8448162685
 20
-185.5011145646
 30
0.0
 11
2038.8448162685
 21
-161.2746963126
 31
0.0
  0
CIRCLE
  5
6EF
100
AcDbEntity
  8
_Y__________
  6
CONTINUOUS
 62
         7
100
AcDbCircle
 10
1980.4930131669
 20
-172.0944635289
 30
0.0
 40
4.3655
  0
CIRCLE
  5
6F0
100
AcDbEntity
  8
_Y__________
  6
CONTINUOUS
 62
         7
100
AcDbCircle
 10
2038.8448162685
 20
-172.0944635289
 30
0.0
 40
5.556
  0
DIMENSION
  5
6F3
100
AcDbEntity
  8
_Y__________
  6
CONTINUOUS
 62
         4
100
AcDbDimension
  2
*D34
 10
1976.745976781
 20
-174.3343984772
 30
0.0
 11
1986.0889586614
 21
-166.7673186391
 31
0.0
 70
         3
  3
DIMSTYLE2
100
AcDbDiametricDimension
 15
1984.2400495528
 25
-169.8545285806
 35
0.0
 40
0.0
  0
DIMENSION
  5
700
100
AcDbEntity
  8
_Y__________
  6
CONTINUOUS
 62
         4
100
AcDbDimension
  2
*D35
 10
2035.5369308574
 20
-176.5584337469
 30
0.0
 11
2043.4722070755
 21
-162.9657216085
 31
0.0
 70
         3
  3
DIMSTYLE2
100
AcDbDiametricDimension
 15
2042.1527016796
 25
-167.6304933109
 35
0.0
 40
0.0
  0
CIRCLE
  5
70B
100
AcDbEntity
  8
_Y__________
  6
CONTINUOUS
 62
         7
100
AcDbCircle
 10
1899.9108930436
 20
-160.4144635289
 30
0.0
 40
1.0
  0
CIRCLE
  5
70C
100
AcDbEntity
  8
_Y__________
  6
CONTINUOUS
 62
         7
100
AcDbCircle
 10
1901.9108930436
 20
-160.4144635289
 30
0.0
 40
1.0
  0
LINE
  5
70D
100
AcDbEntity
  8
_Y__________
  6
CENTER
 62
         1
100
AcDbLine
 10
2061.1852208845
 20
-172.0944635289
 30
0.0
 11
1751.6635879012
 21
-172.0944635289
 31
0.0
  0
CIRCLE
  5
70E
100
AcDbEntity
  8
L1_160
  6
CONTINUOUS
 62
         7
100
AcDbCircle
 10
1861.3124428094
 20
31.1657004996
 30
0.0
 40
1.0
  0
DIMENSION
  5
711
100
AcDbEntity
  8
L1_160
  6
CONTINUOUS
 62
         4
100
AcDbDimension
  2
*D36
 10
1698.7786999334
 20
187.8745442204
 30
0.0
 11
1649.8674710159
 21
191.9345442204
 31
0.0
  3
DIMSTYLE2
100
AcDbAlignedDimension
 13
1698.7786999334
 23
150.1369443847
 33
0.0
 14
1618.7786999334
 24
160.2524144385
 34
0.0
100
AcDbRotatedDimension
  0
DIMENSION
  5
71F
100
AcDbEntity
  8
L1_160
  6
CONTINUOUS
 62
         4
100
AcDbDimension
  2
*D37
 10
1698.7786999334
 20
178.1561068691
 30
0.0
 11
1672.4178235774
 21
182.2161068691
 31
0.0
  3
DIMSTYLE2
100
AcDbAlignedDimension
 13
1698.7786999334
 23
150.1369443847
 33
0.0
 14
1675.2786999334
 24
156.2524144385
 34
0.0
100
AcDbRotatedDimension
  0
DIMENSION
  5
72D
100
AcDbEntity
  8
L1_160
  6
CONTINUOUS
 62
         4
100
AcDbDimension
  2
*D38
 10
1675.2786999334
 20
168.6857017202
 30
0.0
 11
1650.8446297207
 21
172.7457017202
 31
0.0
  3
DIMSTYLE2
100
AcDbAlignedDimension
 13
1675.2786999334
 23
156.2524144385
 33
0.0
 14
1677.7786999334
 24
156.2524144385
 34
0.0
100
AcDbRotatedDimension
  0
DIMENSION
  5
73D
100
AcDbEntity
  8
L1_160
  6
CONTINUOUS
 62
         4
100
AcDbDimension
  2
*D39
 10
1641.3907724494
 20
118.1524144385
 30
0.0
 11
1637.3307724494
 21
122.4594998242
 31
0.0
  3
DIMSTYLE2
100
AcDbAlignedDimension
 13
1652.9826999334
 23
118.1524144385
 33
0.0
 14
1652.9826999334
 24
106.3524144385
 34
0.0
 50
90.0
100
AcDbRotatedDimension
  0
DIMENSION
  5
74C
100
AcDbEntity
  8
L1_160
  6
CONTINUOUS
 62
         4
100
AcDbDimension
  2
*D40
 10
1698.7786999334
 20
41.8550754175
 30
0.0
 11
1655.7065860048
 21
45.9150754175
 31
0.0
  3
DIMSTYLE2
100
AcDbAlignedDimension
 13
1698.7786999334
 23
74.3678844924
 33
0.0
 14
1629.0746999334
 24
102.6939148875
 34
0.0
100
AcDbRotatedDimension
  0
DIMENSION
  5
75A
100
AcDbEntity
  8
L1_160
  6
CONTINUOUS
 62
         4
100
AcDbDimension
  2
*D41
 10
1698.7786999334
 20
52.3371724798
 30
0.0
 11
1664.236347463
 21
56.3971724798
 31
0.0
  3
DIMSTYLE2
100
AcDbAlignedDimension
 13
1698.7786999334
 23
74.3678844924
 33
0.0
 14
1652.9826999334
 24
102.6939148875
 34
0.0
100
AcDbRotatedDimension
  0
DIMENSION
  5
768
100
AcDbEntity
  8
L1_160
  6
CONTINUOUS
 62
         4
100
AcDbDimension
  2
*D42
 10
1732.1177513816
 20
156.2524144385
 30
0.0
 11
1728.0577513816
 21
98.0055215768
 31
0.0
  3
DIMSTYLE2
100
AcDbAlignedDimension
 13
1687.8504967031
 23
156.2524144385
 33
0.0
 14
1687.8504967031
 24
68.2524144385
 34
0.0
 50
90.0
100
AcDbRotatedDimension
  0
DIMENSION
  5
776
100
AcDbEntity
  8
L1_160
  6
CONTINUOUS
 62
         4
100
AcDbDimension
  2
*D43
 10
1722.0351968833
 20
155.0024144385
 30
0.0
 11
1717.9751968833
 21
96.1601758878
 31
0.0
  3
DIMSTYLE2
100
AcDbAlignedDimension
 13
1677.7786999334
 23
155.0024144385
 33
0.0
 14
1677.7786999334
 24
69.5024144385
 34
0.0
 50
90.0
100
AcDbRotatedDimension
  0
DIMENSION
  5
784
100
AcDbEntity
  8
L1_160
  6
CONTINUOUS
 62
         4
100
AcDbDimension
  2
*D44
 10
1623.1746999334
 20
-67.3552290616
 30
0.0
 11
1633.7370332667
 21
-63.2952290616
 31
0.0
  3
DIMSTYLE2
100
AcDbAlignedDimension
 13
1623.1746999334
 23
-82.7400166132
 33
0.0
 14
1658.8826999334
 24
-82.7400166132
 34
0.0
100
AcDbRotatedDimension
  0
DIMENSION
  5
792
100
AcDbEntity
  8
L1_160
  6
CONTINUOUS
 62
         4
100
AcDbDimension
  2
*D45
 10
1711.519595889
 20
-101.2400166132
 30
0.0
 11
1707.459595889
 21
-137.7922201606
 31
0.0
  3
DIMSTYLE2
100
AcDbAlignedDimension
 13
1606.7830611229
 23
-101.2400166132
 33
0.0
 14
1606.7830611229
 24
-152.2400166132
 34
0.0
 50
90.0
100
AcDbRotatedDimension
  0
DIMENSION
  5
7A0
100
AcDbEntity
  8
L1_160
  6
CONTINUOUS
 62
         4
100
AcDbDimension
  2
*D46
 10
1726.8886891731
 20
-89.2400166132
 30
0.0
 11
1722.8286891731
 21
-139.1263428415
 31
0.0
  3
DIMSTYLE2
100
AcDbAlignedDimension
 13
1698.5786999334
 23
-89.2400166132
 33
0.0
 14
1698.5786999334
 24
-164.2400166132
 34
0.0
 50
90.0
100
AcDbRotatedDimension
  0
DIMENSION
  5
7AE
100
AcDbEntity
  8
L1_160
  6
CONTINUOUS
 62
         4
100
AcDbDimension
  2
*D47
 10
1698.7786999334
 20
-214.0242489311
 30
0.0
 11
1623.4174523009
 21
-209.9642489311
 31
0.0
  3
DIMSTYLE2
100
AcDbAlignedDimension
 13
1698.7786999334
 23
-164.6245465594
 33
0.0
 14
1564.7806999334
 24
-152.7400166132
 34
0.0
100
AcDbRotatedDimension
  0
DIMENSION
  5
7BC
100
AcDbEntity
  8
L1_160
  6
CONTINUOUS
 62
         4
100
AcDbDimension
  2
*D48
 10
1698.7786999334
 20
-203.4301974275
 30
0.0
 11
1644.0490023225
 21
-199.3701974275
 31
0.0
  3
DIMSTYLE2
100
AcDbAlignedDimension
 13
1698.7786999334
 23
-164.6245465594
 33
0.0
 14
1607.7830611229
 24
-164.7400166132
 34
0.0
100
AcDbRotatedDimension
  0
TEXT
  5
7C9
100
AcDbEntity
  8
L1_160
  6
CONTINUOUS
 62
         2
100
AcDbText
 10
1880.4058372732
 20
186.4382511173
 30
0.0
 40
4.5
  1
531562
 41
0.98
  7
BOX
100
AcDbText
  0
ENDSEC
  0
SECTION
  2
OBJECTS
  0
DICTIONARY
  5
19
100
AcDbDictionary
  3
ACAD_GROUP
350
1A
  3
ACAD_MLINESTYLE
350
1B
  0
DICTIONARY
  5
1A
102
{ACAD_REACTORS
330
19
102
}
100
AcDbDictionary
  0
DICTIONARY
  5
1B
102
{ACAD_REACTORS
330
19
102
}
100
AcDbDictionary
  3
STANDARD
350
1C
  0
MLINESTYLE
  5
1C
102
{ACAD_REACTORS
330
1B
102
}
100
AcDbMlineStyle
  2
STANDARD
 70
         0
  3

 62
         0
 51
90.0
 52
90.0
 71
         2
 49
0.5
 62
       256
  6
BYLAYER
 49
-0.5
 62
       256
  6
BYLAYER
  0
ENDSEC
  0
EOF
