  0
SECTION
  2
HEADER
  9
$ACADVER
  1
AC1014
  9
$ACADMAINTVER
 70
         0
  9
$DWGCODEPAGE
  3
BIG5
  9
$INSBASE
 10
0.0
 20
0.0
 30
0.0
  9
$EXTMIN
 10
1105.2728444664
 20
-195.6857798391
 30
0.0
  9
$EXTMAX
 10
1986.5384640429
 20
248.6210111313
 30
0.0
  9
$LIMMIN
 10
0.0
 20
0.0
  9
$LIMMAX
 10
0.0
 20
0.0
  9
$ORTHOMODE
 70
         0
  9
$REGENMODE
 70
         1
  9
$FILLMODE
 70
         1
  9
$QTEXTMODE
 70
         0
  9
$MIRRTEXT
 70
         1
  9
$DRAGMODE
 70
         2
  9
$LTSCALE
 40
1.0
  9
$OSMODE
 70
         0
  9
$ATTMODE
 70
         1
  9
$TEXTSIZE
 40
2.1
  9
$TRACEWID
 40
0.05
  9
$TEXTSTYLE
  7
STANDARD
  9
$CLAYER
  8
0
  9
$CELTYPE
  6
CONTINUOUS
  9
$CECOLOR
 62
         4
  9
$CELTSCALE
 40
1.0
  9
$DELOBJ
 70
         1
  9
$DISPSILH
 70
         0
  9
$DIMSCALE
 40
1.0
  9
$DIMASZ
 40
0.18
  9
$DIMEXO
 40
0.0625
  9
$DIMDLI
 40
0.38
  9
$DIMRND
 40
0.0
  9
$DIMDLE
 40
0.0
  9
$DIMEXE
 40
0.25
  9
$DIMTP
 40
0.01
  9
$DIMTM
 40
-0.01
  9
$DIMTXT
 40
3.5
  9
$DIMCEN
 40
0.09
  9
$DIMTSZ
 40
0.0
  9
$DIMTOL
 70
         0
  9
$DIMLIM
 70
         0
  9
$DIMTIH
 70
         1
  9
$DIMTOH
 70
         1
  9
$DIMSE1
 70
         0
  9
$DIMSE2
 70
         0
  9
$DIMTAD
 70
         0
  9
$DIMZIN
 70
         0
  9
$DIMBLK
  1

  9
$DIMASO
 70
         1
  9
$DIMSHO
 70
         1
  9
$DIMPOST
  1

  9
$DIMAPOST
  1

  9
$DIMALT
 70
         0
  9
$DIMALTD
 70
         2
  9
$DIMALTF
 40
25.4
  9
$DIMLFAC
 40
1.0
  9
$DIMTOFL
 70
         0
  9
$DIMTVP
 40
0.0
  9
$DIMTIX
 70
         0
  9
$DIMSOXD
 70
         0
  9
$DIMSAH
 70
         0
  9
$DIMBLK1
  1

  9
$DIMBLK2
  1

  9
$DIMSTYLE
  2
STANDARD
  9
$DIMCLRD
 70
         0
  9
$DIMCLRE
 70
         0
  9
$DIMCLRT
 70
         4
  9
$DIMTFAC
 40
1.0
  9
$DIMGAP
 40
0.09
  9
$DIMJUST
 70
         0
  9
$DIMSD1
 70
         0
  9
$DIMSD2
 70
         0
  9
$DIMTOLJ
 70
         1
  9
$DIMTZIN
 70
         0
  9
$DIMALTZ
 70
         0
  9
$DIMALTTZ
 70
         0
  9
$DIMFIT
 70
         3
  9
$DIMUPT
 70
         0
  9
$DIMUNIT
 70
         2
  9
$DIMDEC
 70
         4
  9
$DIMTDEC
 70
         4
  9
$DIMALTU
 70
         2
  9
$DIMALTTD
 70
         2
  9
$DIMTXSTY
  7
STANDARD
  9
$DIMAUNIT
 70
         0
  9
$LUNITS
 70
         2
  9
$LUPREC
 70
        10
  9
$SKETCHINC
 40
0.1
  9
$FILLETRAD
 40
0.0
  9
$AUNITS
 70
         0
  9
$AUPREC
 70
         0
  9
$MENU
  1
acad
  9
$ELEVATION
 40
0.0
  9
$PELEVATION
 40
0.0
  9
$THICKNESS
 40
0.0
  9
$LIMCHECK
 70
         0
  9
$BLIPMODE
 70
         1
  9
$CHAMFERA
 40
0.0
  9
$CHAMFERB
 40
0.0
  9
$CHAMFERC
 40
0.0
  9
$CHAMFERD
 40
0.0
  9
$SKPOLY
 70
         0
  9
$TDCREATE
 40
0.000000000
  9
$TDUPDATE
 40
0.000000000
  9
$TDINDWG
 40
0.0000000000
  9
$TDUSRTIMER
 40
0.0000000000
  9
$USRTIMER
 70
         1
  9
$ANGBASE
 50
0.0
  9
$ANGDIR
 70
         0
  9
$PDMODE
 70
         2
  9
$PDSIZE
 40
0.0
  9
$PLINEWID
 40
0.0
  9
$COORDS
 70
         1
  9
$SPLFRAME
 70
         0
  9
$SPLINETYPE
 70
         6
  9
$SPLINESEGS
 70
         8
  9
$ATTDIA
 70
         0
  9
$ATTREQ
 70
         1
  9
$HANDLING
 70
         1
  9
$HANDSEED
  5
203
  9
$SURFTAB1
 70
         6
  9
$SURFTAB2
 70
         6
  9
$SURFTYPE
 70
         6
  9
$SURFU
 70
         6
  9
$SURFV
 70
         6
  9
$UCSNAME
  2

  9
$UCSORG
 10
0.0
 20
0.0
 30
0.0
  9
$UCSXDIR
 10
1.0
 20
0.0
 30
0.0
  9
$UCSYDIR
 10
0.0
 20
1.0
 30
0.0
  9
$PUCSNAME
  2

  9
$PUCSORG
 10
0.0
 20
0.0
 30
0.0
  9
$PUCSXDIR
 10
1.0
 20
0.0
 30
0.0
  9
$PUCSYDIR
 10
0.0
 20
1.0
 30
0.0
  9
$USERI1
 70
         0
  9
$USERI2
 70
         0
  9
$USERI3
 70
         0
  9
$USERI4
 70
         0
  9
$USERI5
 70
         0
  9
$USERR1
 40
0.0
  9
$USERR2
 40
0.0
  9
$USERR3
 40
0.0
  9
$USERR4
 40
0.0
  9
$USERR5
 40
0.0
  9
$WORLDVIEW
 70
         1
  9
$SHADEDGE
 70
         3
  9
$SHADEDIF
 70
        70
  9
$TILEMODE
 70
         1
  9
$MAXACTVP
 70
        16
  9
$PINSBASE
 10
0.0
 20
0.0
 30
0.0
  9
$PLIMCHECK
 70
         0
  9
$PEXTMIN
 10
1.0000000000E+20
 20
1.0000000000E+20
 30
1.0000000000E+20
  9
$PEXTMAX
 10
-1.0000000000E+20
 20
-1.0000000000E+20
 30
-1.0000000000E+20
  9
$PLIMMIN
 10
0.0
 20
0.0
  9
$PLIMMAX
 10
12.0
 20
9.0
  9
$UNITMODE
 70
         0
  9
$VISRETAIN
 70
         0
  9
$PLINEGEN
 70
         1
  9
$PSLTSCALE
 70
         0
  9
$TREEDEPTH
 70
      3020
  9
$PICKSTYLE
 70
         1
  9
$CMLSTYLE
  2
STANDARD
  9
$CMLJUST
 70
         0
  9
$CMLSCALE
 40
1.0
  9
$PROXYGRAPHICS
 70
         0
  9
$MEASUREMENT
 70
         0
  0
ENDSEC
  0
SECTION
  2
CLASSES
  0
CLASS
  1
LWPOLYLINE
  2
AcDbPolyline
  3
"AutoCAD"
 90
        0
280
         0
281
         1
  0
CLASS
  1
IMAGE
  2
AcDbRasterImage
  3
ISM
 90
      127
280
         0
281
         1
  0
CLASS
  1
OLE2FRAME
  2
AcDbOle2Frame
  3
""
 90
        0
280
         0
281
         1
  0
CLASS
  1
HATCH
  2
AcDbHatch
  3
"ACAD_SEDONA"
 90
        0
280
         0
281
         1
  0
CLASS
  1
DICTIONARYVAR
  2
AcDbDictionaryVar
  3
"AutoCAD"
 90
        0
280
         0
281
         0
  0
CLASS
  1
RASTERVARIABLES
  2
AcDbRasterVariables
  3
ISM
 90
        0
280
         0
281
         0
  0
CLASS
  1
IMAGEDEF
  2
AcDbRasterImageDef
  3
ISM
 90
        0
280
         0
281
         0
  0
CLASS
  1
IMAGEDEF_REACTOR
  2
AcDbRasterImageDefReactor
  3
ISM
 90
        1
280
         0
281
         0
  0
CLASS
  1
IDBUFFER
  2
AcDbIdBuffer
  3
"Acad"
 90
        0
280
         0
281
         0
  0
CLASS
  1
SPATIAL_FILTER
  2
AcDbSpatialFilter
  3
"Acad"
 90
        0
280
         0
281
         0
  0
CLASS
  1
XRECORD
  2
AcDbXrecord
  3
"<Built In>"
 90
        0
280
         0
281
         0
  0
CLASS
  1
SORTENTSTABLE
  2
AcDbSortentsTable
  3
"AutoCAD"
 90
        0
280
         0
281
         0
  0
CLASS
  1
LAYER_INDEX
  2
AcDbLayerIndex
  3
"Acad"
 90
        0
280
         0
281
         0
  0
CLASS
  1
SPATIAL_INDEX
  2
AcDbSpatialIndex
  3
"Acad"
 90
        0
280
         0
281
         0
  0
CLASS
  1
OBJECT_PTR
  2
CAseDLPNTableRecord
  3
"ASE-LPNTableRecord"
 90
        1
280
         0
281
         0
  0
CLASS
  1
LAYOUT
  2
AcDbLayout
  3
"AutoCAD 2000"
 90
        1
280
         0
281
         0
  0
CLASS
  1
PLOTSETTINGS
  2
AcDbPlotSettings
  3
"AutoCAD 2000"
 90
        1
280
         0
281
         0
  0
CLASS
  1
ACDBDICTIONARYWDFLT
  2
AcDbDictionaryWithDefault
  3
"AutoCAD 2000"
 90
        1
280
         0
281
         0
  0
CLASS
  1
ACDBPLACEHOLDER
  2
AcDbPlaceHolder
  3
"AutoCAD 2000"
 90
        1
280
         0
281
         0
  0
CLASS
  1
VBA_PROJECT
  2
AcDbVbaProject
  3
"acadvba"
 90
        1
280
         0
281
         0
  0
CLASS
  1
WIPEOUT
  2
AcDbWipeout
  3
WipeOut|AutoCAD Express Tool|expresstools@autodesk.com
 90
      127
280
         0
281
         1
  0
CLASS
  1
WIPEOUTVARIABLES
  2
AcDbWipeoutVariables
  3
WipeOut|AutoCAD Express Tool|expresstools@autodesk.com
 90
        0
280
         0
281
         0
  0
CLASS
  1
RTEXT
  2
RText
  3
RText|AutoCAD Express Tool|expresstools@autodesk.com
 90
        0
280
         0
281
         1
  0
CLASS
  1
ARCALIGNEDTEXT
  2
AcDbArcAlignedText
  3
ATEXT|AutoCAD Express Tool|expresstools@autodesk.com
 90
        0
280
         0
281
         1
  0
ENDSEC
  0
SECTION
  2
TABLES
  0
TABLE
  2
VPORT
  5
7
100
AcDbSymbolTable
 70
         1
  0
VPORT
  5
15
100
AcDbSymbolTableRecord
100
AcDbViewportTableRecord
  2
*ACTIVE
 70
         0
 10
0.0
 20
0.0
 11
1.0
 21
1.0
 12
1545.9056542546
 22
26.4676156461
 13
0.0
 23
0.0
 14
1.0
 24
1.0
 15
0.0
 25
0.0
 16
0.0
 26
0.0
 36
1.0
 17
0.0
 27
0.0
 37
0.0
 40
444.3067909704
 41
1.9834619625
 42
50.0
 43
0.0
 44
0.0
 50
0.0
 51
0.0
 71
         0
 72
       100
 73
         1
 74
         1
 75
         0
 76
         0
 77
         0
 78
         0
  0
ENDTAB
  0
TABLE
  2
LTYPE
  5
4
100
AcDbSymbolTable
 70
         6
  0
LTYPE
  5
11
100
AcDbSymbolTableRecord
100
AcDbLinetypeTableRecord
  2
BYBLOCK
 70
        64
  3

 72
        65
 73
         0
 40
0.0
  0
LTYPE
  5
12
100
AcDbSymbolTableRecord
100
AcDbLinetypeTableRecord
  2
BYLAYER
 70
        64
  3

 72
        65
 73
         0
 40
0.0
  0
LTYPE
  5
13
100
AcDbSymbolTableRecord
100
AcDbLinetypeTableRecord
  2
CONTINUOUS
 70
        64
  3
Solid line
 72
        65
 73
         0
 40
0.0
  0
LTYPE
  5
1D
100
AcDbSymbolTableRecord
100
AcDbLinetypeTableRecord
  2
DASHED
 70
        64
  3
_ _ _ _ _ _ _ _ _ _ _ _ _ _ _ _
 72
        65
 73
         2
 40
0.2
 49
0.1
 74
         0
 49
-0.1
 74
         0
  0
LTYPE
  5
1E
100
AcDbSymbolTableRecord
100
AcDbLinetypeTableRecord
  2
CENTER
 70
        64
  3
___ _ ___ _ ___ _ ___ _ ___ _ ___ _ ___ _ ___ _
 72
        65
 73
         4
 40
0.95
 49
0.625
 74
         0
 49
-0.125
 74
         0
 49
0.075
 74
         0
 49
-0.125
 74
         0
  0
LTYPE
  5
1F
100
AcDbSymbolTableRecord
100
AcDbLinetypeTableRecord
  2
PHANTOM
 70
        64
  3
______  __  __  ______  __  __  ______  __  __  
 72
        65
 73
         6
 40
1.025
 49
0.625
 74
         0
 49
-0.125
 74
         0
 49
0.075
 74
         0
 49
-0.125
 74
         0
 49
0.075
 74
         0
 49
-0.125
 74
         0
  0
ENDTAB
  0
TABLE
  2
LAYER
  5
2
100
AcDbSymbolTable
 70
        10
  0
LAYER
  5
14
100
AcDbSymbolTableRecord
100
AcDbLayerTableRecord
  2
0
 70
         0
 62
         7
  6
CONTINUOUS
  0
LAYER
  5
21
100
AcDbSymbolTableRecord
100
AcDbLayerTableRecord
  2
_____U
 70
         1
 62
         7
  6
CONTINUOUS
  0
LAYER
  5
22
100
AcDbSymbolTableRecord
100
AcDbLayerTableRecord
  2
___T______
 70
         1
 62
         7
  6
CONTINUOUS
  0
LAYER
  5
23
100
AcDbSymbolTableRecord
100
AcDbLayerTableRecord
  2
_____T______
 70
         1
 62
         7
  6
CONTINUOUS
  0
LAYER
  5
24
100
AcDbSymbolTableRecord
100
AcDbLayerTableRecord
  2
______L_______
 70
         1
 62
         7
  6
CONTINUOUS
  0
LAYER
  5
25
100
AcDbSymbolTableRecord
100
AcDbLayerTableRecord
  2
ERTGDAOZ____
 70
         1
 62
         7
  6
CONTINUOUS
  0
LAYER
  5
26
100
AcDbSymbolTableRecord
100
AcDbLayerTableRecord
  2
___L_W______
 70
         1
 62
         7
  6
CONTINUOUS
  0
LAYER
  5
27
100
AcDbSymbolTableRecord
100
AcDbLayerTableRecord
  2
_Y__________
 70
         0
 62
         7
  6
CONTINUOUS
  0
LAYER
  5
28
100
AcDbSymbolTableRecord
100
AcDbLayerTableRecord
  2
L1_160
 70
         0
 62
         7
  6
CONTINUOUS
  0
LAYER
  5
168
100
AcDbSymbolTableRecord
100
AcDbLayerTableRecord
  2
DEFPOINTS
 70
         0
 62
        -7
  6
CONTINUOUS
  0
ENDTAB
  0
TABLE
  2
STYLE
  5
3
100
AcDbSymbolTable
 70
         6
  0
STYLE
  5
17
100
AcDbSymbolTableRecord
100
AcDbTextStyleTableRecord
  2
STANDARD
 70
         0
 40
0.0
 41
1.0
 50
0.0
 71
         0
 42
0.0
  3
txt
  4

  0
STYLE
  5
123
100
AcDbSymbolTableRecord
100
AcDbTextStyleTableRecord
  2
BOX
 70
         0
 40
1.0
 41
1.0
 50
0.0
 71
         0
 42
0.2
  3
txt.shx
  4

  0
STYLE
  5
171
100
AcDbSymbolTableRecord
100
AcDbTextStyleTableRecord
  2
BOX
 70
         0
 40
1.0
 41
1.0
 50
0.0
 71
         0
 42
0.2
  3
txt.shx
  4

  0
STYLE
  5
17F
100
AcDbSymbolTableRecord
100
AcDbTextStyleTableRecord
  2
BOX
 70
         0
 40
1.0
 41
1.0
 50
0.0
 71
         0
 42
0.2
  3
txt.shx
  4

  0
STYLE
  5
1F3
100
AcDbSymbolTableRecord
100
AcDbTextStyleTableRecord
  2
BOX
 70
         0
 40
1.0
 41
1.0
 50
0.0
 71
         0
 42
0.2
  3
txt.shx
  4

  0
STYLE
  5
201
100
AcDbSymbolTableRecord
100
AcDbTextStyleTableRecord
  2
BOX
 70
         0
 40
1.0
 41
1.0
 50
0.0
 71
         0
 42
0.2
  3
txt.shx
  4

  0
ENDTAB
  0
TABLE
  2
VIEW
  5
5
100
AcDbSymbolTable
 70
         0
  0
ENDTAB
  0
TABLE
  2
UCS
  5
6
100
AcDbSymbolTable
 70
         1
  0
UCS
  5
20
100
AcDbSymbolTableRecord
100
AcDbUCSTableRecord
  2
CK_VIEW_1
 70
         0
 10
0.0
 20
0.0
 30
1.0
 11
1.0
 21
0.0
 31
0.0
 12
0.0
 22
1.0
 32
0.0
  0
ENDTAB
  0
TABLE
  2
APPID
  5
8
100
AcDbSymbolTable
 70
         1
  0
APPID
  5
16
100
AcDbSymbolTableRecord
100
AcDbRegAppTableRecord
  2
ACAD
 70
         0
  0
ENDTAB
  0
TABLE
  2
DIMSTYLE
  5
9
100
AcDbSymbolTable
 70
         2
  0
DIMSTYLE
105
18
100
AcDbSymbolTableRecord
100
AcDbDimStyleTableRecord
  2
STANDARD
 70
         0
  3

  4

  5

  6

  7

 40
1.0
 41
0.18
 42
0.0625
 43
0.38
 44
0.18
 45
0.0
 46
0.0
 47
0.0
 48
0.0
 71
         0
 72
         0
 73
         1
 74
         1
 75
         0
 76
         0
 77
         0
 78
         0
140
0.18
141
0.09
142
0.0
143
25.4
144
1.0
145
0.0
146
1.0
147
0.09
170
         0
171
         2
172
         0
173
         0
174
         0
175
         0
176
         0
177
         0
178
         0
270
         2
271
         4
272
         4
273
         2
274
         2
275
         0
280
         0
281
         0
282
         0
283
         1
284
         0
285
         0
286
         0
287
         0
288
         0
340
17
  0
DIMSTYLE
105
164
100
AcDbSymbolTableRecord
100
AcDbDimStyleTableRecord
  2
DIMSTYLE1
 70
         0
  3

  4

  5

  6

  7

 40
1.0
 41
3.5
 42
0.0625
 43
0.38
 44
3.5
 45
0.0
 46
0.0
 47
0.0
 48
0.0
 71
         0
 72
         0
 73
         1
 74
         1
 75
         0
 76
         0
 77
         0
 78
         0
140
3.5
141
0.09
142
0.0
143
25.4
144
1.0
145
0.0
146
1.0
147
0.09
170
         0
171
         2
172
         0
173
         0
174
         0
175
         0
176
         0
177
         0
178
         0
270
         2
271
         4
272
         4
273
         2
274
         2
275
         0
280
         0
281
         0
282
         0
283
         1
284
         0
285
         0
286
         0
287
         0
288
         0
340
17
  0
ENDTAB
  0
TABLE
  2
BLOCK_RECORD
  5
1
100
AcDbSymbolTable
 70
         5
  0
BLOCK_RECORD
  5
A
100
AcDbSymbolTableRecord
100
AcDbBlockTableRecord
  2
*MODEL_SPACE
  0
BLOCK_RECORD
  5
B
100
AcDbSymbolTableRecord
100
AcDbBlockTableRecord
  2
*PAPER_SPACE
  0
BLOCK_RECORD
  5
11B
100
AcDbSymbolTableRecord
100
AcDbBlockTableRecord
  2
GENDIML2
  0
BLOCK_RECORD
  5
165
100
AcDbSymbolTableRecord
100
AcDbBlockTableRecord
  2
*D1
  0
BLOCK_RECORD
  5
174
100
AcDbSymbolTableRecord
100
AcDbBlockTableRecord
  2
*D2
  0
BLOCK_RECORD
  5
186
100
AcDbSymbolTableRecord
100
AcDbBlockTableRecord
  2
*X3
  0
BLOCK_RECORD
  5
1E7
100
AcDbSymbolTableRecord
100
AcDbBlockTableRecord
  2
*D4
  0
ENDTAB
  0
ENDSEC
  0
SECTION
  2
BLOCKS
  0
BLOCK
  5
D
100
AcDbEntity
  8
0
100
AcDbBlockBegin
  2
*MODEL_SPACE
 70
         0
 10
0.0
 20
0.0
 30
0.0
  3
*MODEL_SPACE
  1

  0
ENDBLK
  5
E
100
AcDbEntity
  8
0
100
AcDbBlockEnd
  0
BLOCK
  5
F
100
AcDbEntity
 67
         1
  8
0
100
AcDbBlockBegin
  2
*PAPER_SPACE
 70
         0
 10
0.0
 20
0.0
 30
0.0
  3
*PAPER_SPACE
  1

  0
ENDBLK
  5
10
100
AcDbEntity
 67
         1
  8
0
100
AcDbBlockEnd
  0
BLOCK
  5
11C
100
AcDbEntity
  8
0
100
AcDbBlockBegin
  2
GENDIML2
 70
        64
 10
0.0
 20
0.0
 30
0.0
  3
GENDIML2
  1

  0
LINE
  5
11D
100
AcDbEntity
  8
L1_160
  6
CONTINUOUS
 62
         4
100
AcDbLine
 10
1660.4106999334
 20
-115.5400166132
 30
0.0
 11
1660.2804164862
 21
-115.5400166132
 31
0.0
  0
LINE
  5
11E
100
AcDbEntity
  8
L1_160
  6
CONTINUOUS
 62
         4
100
AcDbLine
 10
1660.4106999334
 20
-137.9400166132
 30
0.0
 11
1660.2804164862
 21
-137.9400166132
 31
0.0
  0
LINE
  5
11F
100
AcDbEntity
  8
L1_160
  6
CONTINUOUS
 62
         4
100
AcDbLine
 10
1661.1554164862
 20
-115.5400166132
 30
0.0
 11
1661.1554164862
 21
-137.9400166132
 31
0.0
  0
SOLID
  5
120
100
AcDbEntity
  8
L1_160
  6
CONTINUOUS
 62
         4
100
AcDbTrace
 10
1661.1554164862
 20
-115.5400166132
 30
0.0
 11
1661.6804164862
 21
-119.0400166132
 31
0.0
 12
1660.6304164862
 22
-119.0400166132
 32
0.0
 13
1661.1554164862
 23
-115.5400166132
 33
0.0
  0
LINE
  5
121
100
AcDbEntity
  8
L1_160
  6
CONTINUOUS
 62
         4
100
AcDbLine
 10
1661.1554164862
 20
-137.9400166132
 30
0.0
 11
1661.1554164862
 21
-164.1207235932
 31
0.0
  0
SOLID
  5
122
100
AcDbEntity
  8
L1_160
  6
CONTINUOUS
 62
         4
100
AcDbTrace
 10
1661.1554164862
 20
-137.9400166132
 30
0.0
 11
1660.6304164862
 21
-134.4400166132
 31
0.0
 12
1661.6804164862
 22
-134.4400166132
 32
0.0
 13
1661.1554164862
 23
-137.9400166132
 33
0.0
  0
TEXT
  5
124
100
AcDbEntity
  8
L1_160
  6
CONTINUOUS
 62
         4
100
AcDbText
 10
1658.5304164862
 20
-162.3707235932
 30
0.0
 40
3.5
  1
崷22.4
 50
90.0
  7
BOX
100
AcDbText
  0
ENDBLK
  5
125
100
AcDbEntity
  8
0
  6
CONTINUOUS
100
AcDbBlockEnd
  0
BLOCK
  5
166
100
AcDbEntity
  8
0
100
AcDbBlockBegin
  2
*D1
 70
        65
 10
0.0
 20
0.0
 30
0.0
  3
*D1
  1

  0
POINT
  5
169
100
AcDbEntity
  8
DEFPOINTS
  6
CONTINUOUS
 62
         0
100
AcDbPoint
 10
1422.1786999334
 20
222.3002479054
 30
0.0
  0
POINT
  5
16A
100
AcDbEntity
  8
DEFPOINTS
  6
CONTINUOUS
 62
         0
100
AcDbPoint
 10
1422.1786999334
 20
130.1987502026
 30
0.0
  0
POINT
  5
16B
100
AcDbEntity
  8
DEFPOINTS
  6
CONTINUOUS
 62
         0
100
AcDbPoint
 10
1683.7786999334
 20
112.2524144385
 30
0.0
  0
LINE
  5
16C
100
AcDbEntity
  8
L1_160
  6
CONTINUOUS
 62
         4
100
AcDbLine
 10
1422.1786999334
 20
131.9487502026
 30
0.0
 11
1422.1786999334
 21
223.1752479054
 31
0.0
  0
LINE
  5
16D
100
AcDbEntity
  8
L1_160
  6
CONTINUOUS
 62
         4
100
AcDbLine
 10
1683.7786999334
 20
114.0024144385
 30
0.0
 11
1683.7786999334
 21
223.1752479054
 31
0.0
  0
LINE
  5
16E
100
AcDbEntity
  8
L1_160
  6
CONTINUOUS
 62
         4
100
AcDbLine
 10
1422.1786999334
 20
222.3002479054
 30
0.0
 11
1683.7786999334
 21
222.3002479054
 31
0.0
  0
SOLID
  5
16F
100
AcDbEntity
  8
L1_160
  6
CONTINUOUS
 62
         4
100
AcDbTrace
 10
1422.1786999334
 20
222.3002479054
 30
0.0
 11
1425.6786999334
 21
222.8252479054
 31
0.0
 12
1425.6786999334
 22
221.7752479054
 32
0.0
 13
1422.1786999334
 23
222.3002479054
 33
0.0
  0
SOLID
  5
170
100
AcDbEntity
  8
L1_160
  6
CONTINUOUS
 62
         4
100
AcDbTrace
 10
1683.7786999334
 20
222.3002479054
 30
0.0
 11
1680.2786999334
 21
221.7752479054
 31
0.0
 12
1680.2786999334
 22
222.8252479054
 32
0.0
 13
1683.7786999334
 23
222.3002479054
 33
0.0
  0
TEXT
  5
172
100
AcDbEntity
  8
L1_160
  6
CONTINUOUS
 62
         4
100
AcDbText
 10
1543.2930117617
 20
224.9252479054
 30
0.0
 40
3.5
  1
261.6
  7
BOX
100
AcDbText
  0
ENDBLK
  5
173
100
AcDbEntity
  8
0
  6
CONTINUOUS
100
AcDbBlockEnd
  0
BLOCK
  5
175
100
AcDbEntity
  8
0
100
AcDbBlockBegin
  2
*D2
 70
        65
 10
0.0
 20
0.0
 30
0.0
  3
*D2
  1

  0
POINT
  5
177
100
AcDbEntity
  8
DEFPOINTS
  6
CONTINUOUS
 62
         0
100
AcDbPoint
 10
1683.7786999334
 20
213.6192312389
 30
0.0
  0
POINT
  5
178
100
AcDbEntity
  8
DEFPOINTS
  6
CONTINUOUS
 62
         0
100
AcDbPoint
 10
1683.7786999334
 20
112.2524144385
 30
0.0
  0
POINT
  5
179
100
AcDbEntity
  8
DEFPOINTS
  6
CONTINUOUS
 62
         0
100
AcDbPoint
 10
1523.7786999334
 20
151.9774144385
 30
0.0
  0
LINE
  5
17A
100
AcDbEntity
  8
L1_160
  6
CONTINUOUS
 62
         4
100
AcDbLine
 10
1683.7786999334
 20
114.0024144385
 30
0.0
 11
1683.7786999334
 21
214.4942312389
 31
0.0
  0
LINE
  5
17B
100
AcDbEntity
  8
L1_160
  6
CONTINUOUS
 62
         4
100
AcDbLine
 10
1523.7786999334
 20
153.7274144385
 30
0.0
 11
1523.7786999334
 21
214.4942312389
 31
0.0
  0
LINE
  5
17C
100
AcDbEntity
  8
L1_160
  6
CONTINUOUS
 62
         4
100
AcDbLine
 10
1683.7786999334
 20
213.6192312389
 30
0.0
 11
1523.7786999334
 21
213.6192312389
 31
0.0
  0
SOLID
  5
17D
100
AcDbEntity
  8
L1_160
  6
CONTINUOUS
 62
         4
100
AcDbTrace
 10
1683.7786999334
 20
213.6192312389
 30
0.0
 11
1680.2786999334
 21
213.0942312389
 31
0.0
 12
1680.2786999334
 22
214.1442312389
 32
0.0
 13
1683.7786999334
 23
213.6192312389
 33
0.0
  0
SOLID
  5
17E
100
AcDbEntity
  8
L1_160
  6
CONTINUOUS
 62
         4
100
AcDbTrace
 10
1523.7786999334
 20
213.6192312389
 30
0.0
 11
1527.2786999334
 21
214.1442312389
 31
0.0
 12
1527.2786999334
 22
213.0942312389
 32
0.0
 13
1523.7786999334
 23
213.6192312389
 33
0.0
  0
TEXT
  5
180
100
AcDbEntity
  8
L1_160
  6
CONTINUOUS
 62
         4
100
AcDbText
 10
1598.5452265044
 20
216.2442312389
 30
0.0
 40
3.5
  1
160
  7
BOX
100
AcDbText
  0
ENDBLK
  5
181
100
AcDbEntity
  8
0
  6
CONTINUOUS
100
AcDbBlockEnd
  0
BLOCK
  5
187
100
AcDbEntity
  8
0
100
AcDbBlockBegin
  2
*X3
 70
        65
 10
0.0
 20
0.0
 30
0.0
  3
*X3
  1

  0
LINE
  5
188
100
AcDbEntity
  8
L1_160
  6
CONTINUOUS
 62
         4
100
AcDbLine
 10
1679.3238340675
 20
-139.4170166132
 30
0.0
 11
1683.7786999334
 21
-134.9621507473
 31
0.0
  0
LINE
  5
189
100
AcDbEntity
  8
L1_160
  6
CONTINUOUS
 62
         4
100
AcDbLine
 10
1675.0811933804
 20
-139.4170166132
 30
0.0
 11
1683.7786999334
 21
-130.7195100602
 31
0.0
  0
LINE
  5
18A
100
AcDbEntity
  8
L1_160
  6
CONTINUOUS
 62
         4
100
AcDbLine
 10
1670.8385526933
 20
-139.4170166132
 30
0.0
 11
1682.1812832382
 21
-128.0742860683
 31
0.0
  0
LINE
  5
18B
100
AcDbEntity
  8
L1_160
  6
CONTINUOUS
 62
         4
100
AcDbLine
 10
1666.5959120061
 20
-139.4170166132
 30
0.0
 11
1683.7786999334
 21
-122.2342286859
 31
0.0
  0
LINE
  5
18C
100
AcDbEntity
  8
L1_160
  6
CONTINUOUS
 62
         4
100
AcDbLine
 10
1663.0069856262
 20
-138.763302306
 30
0.0
 11
1683.7786999334
 21
-117.9915879988
 31
0.0
  0
LINE
  5
18D
100
AcDbEntity
  8
L1_160
  6
CONTINUOUS
 62
         4
100
AcDbLine
 10
1658.0876306319
 20
-139.4400166132
 30
0.0
 11
1682.7371652516
 21
-114.7904819935
 31
0.0
  0
LINE
  5
18E
100
AcDbEntity
  8
L1_160
  6
CONTINUOUS
 62
         4
100
AcDbLine
 10
1653.8449899448
 20
-139.4400166132
 30
0.0
 11
1679.2219899448
 21
-114.0630166132
 31
0.0
  0
LINE
  5
18F
100
AcDbEntity
  8
L1_160
  6
CONTINUOUS
 62
         4
100
AcDbLine
 10
1649.6023492577
 20
-139.4400166132
 30
0.0
 11
1674.9793492577
 21
-114.0630166132
 31
0.0
  0
LINE
  5
190
100
AcDbEntity
  8
L1_160
  6
CONTINUOUS
 62
         4
100
AcDbLine
 10
1645.3597085705
 20
-139.4400166132
 30
0.0
 11
1670.7367085705
 21
-114.0630166132
 31
0.0
  0
LINE
  5
191
100
AcDbEntity
  8
L1_160
  6
CONTINUOUS
 62
         4
100
AcDbLine
 10
1641.1170678834
 20
-139.4400166132
 30
0.0
 11
1666.4940678834
 21
-114.0630166132
 31
0.0
  0
LINE
  5
192
100
AcDbEntity
  8
L1_160
  6
CONTINUOUS
 62
         4
100
AcDbLine
 10
1636.8744271963
 20
-139.4400166132
 30
0.0
 11
1660.7744271963
 21
-115.5400166132
 31
0.0
  0
LINE
  5
193
100
AcDbEntity
  8
L1_160
  6
CONTINUOUS
 62
         4
100
AcDbLine
 10
1626.2817865092
 20
-145.7900166132
 30
0.0
 11
1628.6606999334
 21
-143.411103189
 31
0.0
  0
LINE
  5
194
100
AcDbEntity
  8
L1_160
  6
CONTINUOUS
 62
         4
100
AcDbLine
 10
1632.6317865092
 20
-139.4400166132
 30
0.0
 11
1654.0617865092
 21
-118.0100166132
 31
0.0
  0
LINE
  5
195
100
AcDbEntity
  8
L1_160
  6
CONTINUOUS
 62
         4
100
AcDbLine
 10
1654.6606999334
 20
-117.411103189
 30
0.0
 11
1658.0317865092
 21
-114.0400166132
 31
0.0
  0
LINE
  5
196
100
AcDbEntity
  8
L1_160
  6
CONTINUOUS
 62
         4
100
AcDbLine
 10
1622.0391458221
 20
-145.7900166132
 30
0.0
 11
1649.8191458221
 21
-118.0100166132
 31
0.0
  0
LINE
  5
197
100
AcDbEntity
  8
L1_160
  6
CONTINUOUS
 62
         4
100
AcDbLine
 10
1617.796505135
 20
-145.7900166132
 30
0.0
 11
1645.576505135
 21
-118.0100166132
 31
0.0
  0
LINE
  5
198
100
AcDbEntity
  8
L1_160
  6
CONTINUOUS
 62
         4
100
AcDbLine
 10
1613.5538644478
 20
-145.7900166132
 30
0.0
 11
1641.3338644478
 21
-118.0100166132
 31
0.0
  0
LINE
  5
199
100
AcDbEntity
  8
L1_160
  6
CONTINUOUS
 62
         4
100
AcDbLine
 10
1609.3112237607
 20
-145.7900166132
 30
0.0
 11
1637.0912237607
 21
-118.0100166132
 31
0.0
  0
LINE
  5
19A
100
AcDbEntity
  8
L1_160
  6
CONTINUOUS
 62
         4
100
AcDbLine
 10
1605.0685830736
 20
-145.7900166132
 30
0.0
 11
1632.8485830736
 21
-118.0100166132
 31
0.0
  0
LINE
  5
19B
100
AcDbEntity
  8
L1_160
  6
CONTINUOUS
 62
         4
100
AcDbLine
 10
1600.8259423865
 20
-145.7900166132
 30
0.0
 11
1629.6606999334
 21
-116.9552590663
 31
0.0
  0
LINE
  5
19C
100
AcDbEntity
  8
L1_160
  6
CONTINUOUS
 62
         4
100
AcDbLine
 10
1596.5833016994
 20
-145.7900166132
 30
0.0
 11
1628.6606999334
 21
-113.7126183792
 31
0.0
  0
LINE
  5
19D
100
AcDbEntity
  8
L1_160
  6
CONTINUOUS
 62
         4
100
AcDbLine
 10
1592.3406610122
 20
-145.7900166132
 30
0.0
 11
1628.6606999334
 21
-109.469977692
 31
0.0
  0
LINE
  5
19E
100
AcDbEntity
  8
L1_160
  6
CONTINUOUS
 62
         4
100
AcDbLine
 10
1588.0980203251
 20
-145.7900166132
 30
0.0
 11
1626.1980203251
 21
-107.6900166132
 31
0.0
  0
LINE
  5
19F
100
AcDbEntity
  8
L1_160
  6
CONTINUOUS
 62
         4
100
AcDbLine
 10
1583.855379638
 20
-145.7900166132
 30
0.0
 11
1621.955379638
 21
-107.6900166132
 31
0.0
  0
LINE
  5
1A0
100
AcDbEntity
  8
L1_160
  6
CONTINUOUS
 62
         4
100
AcDbLine
 10
1579.6127389509
 20
-145.7900166132
 30
0.0
 11
1617.7127389509
 21
-107.6900166132
 31
0.0
  0
LINE
  5
1A1
100
AcDbEntity
  8
L1_160
  6
CONTINUOUS
 62
         4
100
AcDbLine
 10
1575.3700982638
 20
-145.7900166132
 30
0.0
 11
1613.4700982638
 21
-107.6900166132
 31
0.0
  0
LINE
  5
1A2
100
AcDbEntity
  8
L1_160
  6
CONTINUOUS
 62
         4
100
AcDbLine
 10
1541.428277099
 20
-175.4891970909
 30
0.0
 11
1542.8778804111
 21
-174.0395937788
 31
0.0
  0
LINE
  5
1A3
100
AcDbEntity
  8
L1_160
  6
CONTINUOUS
 62
         4
100
AcDbLine
 10
1555.2524575766
 20
-161.6650166132
 30
0.0
 11
1558.8306999334
 21
-158.0867742564
 31
0.0
  0
LINE
  5
1A4
100
AcDbEntity
  8
L1_160
  6
CONTINUOUS
 62
         4
100
AcDbLine
 10
1571.1274575766
 20
-145.7900166132
 30
0.0
 11
1609.2274575766
 21
-107.6900166132
 31
0.0
  0
LINE
  5
1A5
100
AcDbEntity
  8
L1_160
  6
CONTINUOUS
 62
         4
100
AcDbLine
 10
1537.9647029216
 20
-174.7101305811
 30
0.0
 11
1542.8786999334
 21
-169.7961335693
 31
0.0
  0
LINE
  5
1A6
100
AcDbEntity
  8
L1_160
  6
CONTINUOUS
 62
         4
100
AcDbLine
 10
1551.0098168895
 20
-161.6650166132
 30
0.0
 11
1558.8306999334
 21
-153.8441335693
 31
0.0
  0
LINE
  5
1A7
100
AcDbEntity
  8
L1_160
  6
CONTINUOUS
 62
         4
100
AcDbLine
 10
1566.8848168895
 20
-145.7900166132
 30
0.0
 11
1604.9848168895
 21
-107.6900166132
 31
0.0
  0
LINE
  5
1A8
100
AcDbEntity
  8
L1_160
  6
CONTINUOUS
 62
         4
100
AcDbLine
 10
1536.0666241438
 20
-172.3655686718
 30
0.0
 11
1542.8786999334
 21
-165.5534928822
 31
0.0
  0
LINE
  5
1A9
100
AcDbEntity
  8
L1_160
  6
CONTINUOUS
 62
         4
100
AcDbLine
 10
1546.7671762024
 20
-161.6650166132
 30
0.0
 11
1558.8306999334
 21
-149.6014928822
 31
0.0
  0
LINE
  5
1AA
100
AcDbEntity
  8
L1_160
  6
CONTINUOUS
 62
         4
100
AcDbLine
 10
1562.6421762024
 20
-145.7900166132
 30
0.0
 11
1600.7421762024
 21
-107.6900166132
 31
0.0
  0
LINE
  5
1AB
100
AcDbEntity
  8
L1_160
  6
CONTINUOUS
 62
         4
100
AcDbLine
 10
1528.6995355153
 20
-175.4900166132
 30
0.0
 11
1596.4995355153
 21
-107.6900166132
 31
0.0
  0
LINE
  5
1AC
100
AcDbEntity
  8
L1_160
  6
CONTINUOUS
 62
         4
100
AcDbLine
 10
1526.9786999334
 20
-172.968211508
 30
0.0
 11
1592.2568948282
 21
-107.6900166132
 31
0.0
  0
LINE
  5
1AD
100
AcDbEntity
  8
L1_160
  6
CONTINUOUS
 62
         4
100
AcDbLine
 10
1526.9786999334
 20
-168.7255708208
 30
0.0
 11
1588.014254141
 21
-107.6900166132
 31
0.0
  0
LINE
  5
1AE
100
AcDbEntity
  8
L1_160
  6
CONTINUOUS
 62
         4
100
AcDbLine
 10
1526.9786999334
 20
-164.4829301337
 30
0.0
 11
1583.7716134539
 21
-107.6900166132
 31
0.0
  0
LINE
  5
1AF
100
AcDbEntity
  8
L1_160
  6
CONTINUOUS
 62
         4
100
AcDbLine
 10
1526.0539727668
 20
-161.1650166132
 30
0.0
 11
1579.5289727668
 21
-107.6900166132
 31
0.0
  0
LINE
  5
1B0
100
AcDbEntity
  8
L1_160
  6
CONTINUOUS
 62
         4
100
AcDbLine
 10
1521.6253632959
 20
-161.350985397
 30
0.0
 11
1575.2863320797
 21
-107.6900166132
 31
0.0
  0
LINE
  5
1B1
100
AcDbEntity
  8
L1_160
  6
CONTINUOUS
 62
         4
100
AcDbLine
 10
1517.9226994967
 20
-160.8110085091
 30
0.0
 11
1571.0436913926
 21
-107.6900166132
 31
0.0
  0
LINE
  5
1B2
100
AcDbEntity
  8
L1_160
  6
CONTINUOUS
 62
         4
100
AcDbLine
 10
1514.2200356975
 20
-160.2710316212
 30
0.0
 11
1566.8010507054
 21
-107.6900166132
 31
0.0
  0
LINE
  5
1B3
100
AcDbEntity
  8
L1_160
  6
CONTINUOUS
 62
         4
100
AcDbLine
 10
1510.5173718982
 20
-159.7310547333
 30
0.0
 11
1562.5584100183
 21
-107.6900166132
 31
0.0
  0
LINE
  5
1B4
100
AcDbEntity
  8
L1_160
  6
CONTINUOUS
 62
         4
100
AcDbLine
 10
1506.814708099
 20
-159.1910778454
 30
0.0
 11
1559.4675965773
 21
-106.5381893671
 31
0.0
  0
LINE
  5
1B5
100
AcDbEntity
  8
L1_160
  6
CONTINUOUS
 62
         4
100
AcDbLine
 10
1503.1120442998
 20
-158.6511009575
 30
0.0
 11
1558.8306999334
 21
-102.9324453239
 31
0.0
  0
LINE
  5
1B6
100
AcDbEntity
  8
L1_160
  6
CONTINUOUS
 62
         4
100
AcDbLine
 10
1499.4093805006
 20
-158.1111240696
 30
0.0
 11
1558.8306999334
 21
-98.6898046368
 31
0.0
  0
LINE
  5
1B7
100
AcDbEntity
  8
L1_160
  6
CONTINUOUS
 62
         4
100
AcDbLine
 10
1495.7067167013
 20
-157.5711471817
 30
0.0
 11
1558.8306999334
 21
-94.4471639497
 31
0.0
  0
LINE
  5
1B8
100
AcDbEntity
  8
L1_160
  6
CONTINUOUS
 62
         4
100
AcDbLine
 10
1492.0040529021
 20
-157.0311702938
 30
0.0
 11
1557.2202065827
 21
-91.8150166132
 31
0.0
  0
LINE
  5
1B9
100
AcDbEntity
  8
L1_160
  6
CONTINUOUS
 62
         4
100
AcDbLine
 10
1488.3013891029
 20
-156.4911934059
 30
0.0
 11
1552.9775658956
 21
-91.8150166132
 31
0.0
  0
LINE
  5
1BA
100
AcDbEntity
  8
L1_160
  6
CONTINUOUS
 62
         4
100
AcDbLine
 10
1484.5987253037
 20
-155.951216518
 30
0.0
 11
1548.7349252085
 21
-91.8150166132
 31
0.0
  0
LINE
  5
1BB
100
AcDbEntity
  8
L1_160
  6
CONTINUOUS
 62
         4
100
AcDbLine
 10
1480.8960615044
 20
-155.4112396301
 30
0.0
 11
1544.4922845214
 21
-91.8150166132
 31
0.0
  0
LINE
  5
1BC
100
AcDbEntity
  8
L1_160
  6
CONTINUOUS
 62
         4
100
AcDbLine
 10
1477.1933977052
 20
-154.8712627422
 30
0.0
 11
1542.8786999334
 21
-89.1859605141
 31
0.0
  0
LINE
  5
1BD
100
AcDbEntity
  8
L1_160
  6
CONTINUOUS
 62
         4
100
AcDbLine
 10
1473.490733906
 20
-154.3312858543
 30
0.0
 11
1542.8786999334
 21
-84.9433198269
 31
0.0
  0
LINE
  5
1BE
100
AcDbEntity
  8
L1_160
  6
CONTINUOUS
 62
         4
100
AcDbLine
 10
1469.7880701068
 20
-153.7913089665
 30
0.0
 11
1542.8786999334
 21
-80.7006791398
 31
0.0
  0
LINE
  5
1BF
100
AcDbEntity
  8
L1_160
  6
CONTINUOUS
 62
         4
100
AcDbLine
 10
1466.0854063075
 20
-153.2513320786
 30
0.0
 11
1541.3467217729
 21
-77.9900166132
 31
0.0
  0
LINE
  5
1C0
100
AcDbEntity
  8
L1_160
  6
CONTINUOUS
 62
         4
100
AcDbLine
 10
1462.3827425083
 20
-152.7113551907
 30
0.0
 11
1523.1937793667
 21
-91.9003183323
 31
0.0
  0
LINE
  5
1C1
100
AcDbEntity
  8
L1_160
  6
CONTINUOUS
 62
         4
100
AcDbLine
 10
1526.9786999334
 20
-88.1153977656
 30
0.0
 11
1533.9790810858
 21
-81.1150166132
 31
0.0
  0
LINE
  5
1C2
100
AcDbEntity
  8
L1_160
  6
CONTINUOUS
 62
         4
100
AcDbLine
 10
1458.6800787091
 20
-152.1713783028
 30
0.0
 11
1473.7150989352
 21
-137.1363580766
 31
0.0
  0
LINE
  5
1C3
100
AcDbEntity
  8
L1_160
  6
CONTINUOUS
 62
         4
100
AcDbLine
 10
1480.2538491028
 20
-130.5976079091
 30
0.0
 11
1518.2267774074
 21
-92.6246796045
 31
0.0
  0
LINE
  5
1C4
100
AcDbEntity
  8
L1_160
  6
CONTINUOUS
 62
         4
100
AcDbLine
 10
1526.9786999334
 20
-83.8727570785
 30
0.0
 11
1531.8984260995
 21
-78.9530309124
 31
0.0
  0
LINE
  5
1C5
100
AcDbEntity
  8
L1_160
  6
CONTINUOUS
 62
         4
100
AcDbLine
 10
1454.9774149099
 20
-151.6314014149
 30
0.0
 11
1469.4724582481
 21
-137.1363580766
 31
0.0
  0
LINE
  5
1C6
100
AcDbEntity
  8
L1_160
  6
CONTINUOUS
 62
         4
100
AcDbLine
 10
1481.5248876556
 20
-125.0839286692
 30
0.0
 11
1513.259775448
 21
-93.3490408767
 31
0.0
  0
LINE
  5
1C7
100
AcDbEntity
  8
L1_160
  6
CONTINUOUS
 62
         4
100
AcDbLine
 10
1526.9786999334
 20
-79.6301163913
 30
0.0
 11
1528.6187997115
 21
-77.9900166132
 31
0.0
  0
LINE
  5
1C8
100
AcDbEntity
  8
L1_160
  6
CONTINUOUS
 62
         4
100
AcDbLine
 10
1451.2747511106
 20
-151.091424527
 30
0.0
 11
1465.229817561
 21
-137.1363580766
 31
0.0
  0
LINE
  5
1C9
100
AcDbEntity
  8
L1_160
  6
CONTINUOUS
 62
         4
100
AcDbLine
 10
1479.971973385
 20
-122.3942022526
 30
0.0
 11
1508.2927734887
 21
-94.0734021489
 31
0.0
  0
LINE
  5
1CA
100
AcDbEntity
  8
L1_160
  6
CONTINUOUS
 62
         4
100
AcDbLine
 10
1447.5720873114
 20
-150.5514476391
 30
0.0
 11
1460.9871768739
 21
-137.1363580766
 31
0.0
  0
LINE
  5
1CB
100
AcDbEntity
  8
L1_160
  6
CONTINUOUS
 62
         4
100
AcDbLine
 10
1478.4190591144
 20
-119.7044758361
 30
0.0
 11
1503.3257715294
 21
-94.7977634211
 31
0.0
  0
LINE
  5
1CC
100
AcDbEntity
  8
L1_160
  6
CONTINUOUS
 62
         4
100
AcDbLine
 10
1443.8694235122
 20
-150.0114707512
 30
0.0
 11
1456.7445361868
 21
-137.1363580766
 31
0.0
  0
LINE
  5
1CD
100
AcDbEntity
  8
L1_160
  6
CONTINUOUS
 62
         4
100
AcDbLine
 10
1476.8661448437
 20
-117.0147494196
 30
0.0
 11
1498.3587695701
 21
-95.5221246933
 31
0.0
  0
LINE
  5
1CE
100
AcDbEntity
  8
L1_160
  6
CONTINUOUS
 62
         4
100
AcDbLine
 10
1440.166759713
 20
-149.4714938633
 30
0.0
 11
1452.5018954996
 21
-137.1363580766
 31
0.0
  0
LINE
  5
1CF
100
AcDbEntity
  8
L1_160
  6
CONTINUOUS
 62
         4
100
AcDbLine
 10
1473.2945784265
 20
-116.3436751498
 30
0.0
 11
1493.3917676107
 21
-96.2464859655
 31
0.0
  0
LINE
  5
1D0
100
AcDbEntity
  8
L1_160
  6
CONTINUOUS
 62
         4
100
AcDbLine
 10
1436.4640959137
 20
-148.9315169754
 30
0.0
 11
1448.2592548125
 21
-137.1363580766
 31
0.0
  0
LINE
  5
1D1
100
AcDbEntity
  8
L1_160
  6
CONTINUOUS
 62
         4
100
AcDbLine
 10
1469.0519377394
 20
-116.3436751498
 30
0.0
 11
1488.4247656514
 21
-96.9708472377
 31
0.0
  0
LINE
  5
1D2
100
AcDbEntity
  8
L1_160
  6
CONTINUOUS
 62
         4
100
AcDbLine
 10
1432.7614321145
 20
-148.3915400875
 30
0.0
 11
1444.0166141254
 21
-137.1363580766
 31
0.0
  0
LINE
  5
1D3
100
AcDbEntity
  8
L1_160
  6
CONTINUOUS
 62
         4
100
AcDbLine
 10
1464.8092970522
 20
-116.3436751498
 30
0.0
 11
1483.4577636921
 21
-97.69520851
 31
0.0
  0
LINE
  5
1D4
100
AcDbEntity
  8
L1_160
  6
CONTINUOUS
 62
         4
100
AcDbLine
 10
1429.0587683153
 20
-147.8515631996
 30
0.0
 11
1439.7739734383
 21
-137.1363580766
 31
0.0
  0
LINE
  5
1D5
100
AcDbEntity
  8
L1_160
  6
CONTINUOUS
 62
         4
100
AcDbLine
 10
1460.5666563651
 20
-116.3436751498
 30
0.0
 11
1478.4907617327
 21
-98.4195697822
 31
0.0
  0
LINE
  5
1D6
100
AcDbEntity
  8
L1_160
  6
CONTINUOUS
 62
         4
100
AcDbLine
 10
1425.3561045161
 20
-147.3115863117
 30
0.0
 11
1435.5313327512
 21
-137.1363580766
 31
0.0
  0
LINE
  5
1D7
100
AcDbEntity
  8
L1_160
  6
CONTINUOUS
 62
         4
100
AcDbLine
 10
1456.324015678
 20
-116.3436751498
 30
0.0
 11
1473.5237597734
 21
-99.1439310544
 31
0.0
  0
LINE
  5
1D8
100
AcDbEntity
  8
L1_160
  6
CONTINUOUS
 62
         4
100
AcDbLine
 10
1422.5045571348
 20
-145.9204930059
 30
0.0
 11
1431.288692064
 21
-137.1363580766
 31
0.0
  0
LINE
  5
1D9
100
AcDbEntity
  8
L1_160
  6
CONTINUOUS
 62
         4
100
AcDbLine
 10
1452.0813749909
 20
-116.3436751498
 30
0.0
 11
1468.5567578141
 21
-99.8682923266
 31
0.0
  0
LINE
  5
1DA
100
AcDbEntity
  8
L1_160
  6
CONTINUOUS
 62
         4
100
AcDbLine
 10
1422.1786999334
 20
-142.0037095202
 30
0.0
 11
1424.9423928403
 21
-139.2400166132
 31
0.0
  0
LINE
  5
1DB
100
AcDbEntity
  8
L1_160
  6
CONTINUOUS
 62
         4
100
AcDbLine
 10
1447.8387343038
 20
-116.3436751498
 30
0.0
 11
1463.5897558548
 21
-100.5926535988
 31
0.0
  0
LINE
  5
1DC
100
AcDbEntity
  8
L1_160
  6
CONTINUOUS
 62
         4
100
AcDbLine
 10
1443.5960936166
 20
-116.3436751498
 30
0.0
 11
1458.6227538954
 21
-101.317014871
 31
0.0
  0
LINE
  5
1DD
100
AcDbEntity
  8
L1_160
  6
CONTINUOUS
 62
         4
100
AcDbLine
 10
1439.3534529295
 20
-116.3436751498
 30
0.0
 11
1453.6557519361
 21
-102.0413761432
 31
0.0
  0
LINE
  5
1DE
100
AcDbEntity
  8
L1_160
  6
CONTINUOUS
 62
         4
100
AcDbLine
 10
1435.1108122424
 20
-116.3436751498
 30
0.0
 11
1448.6887499768
 21
-102.7657374154
 31
0.0
  0
LINE
  5
1DF
100
AcDbEntity
  8
L1_160
  6
CONTINUOUS
 62
         4
100
AcDbLine
 10
1430.8681715553
 20
-116.3436751498
 30
0.0
 11
1443.7217480174
 21
-103.4900986876
 31
0.0
  0
LINE
  5
1E0
100
AcDbEntity
  8
L1_160
  6
CONTINUOUS
 62
         4
100
AcDbLine
 10
1428.5367873815
 20
-114.4324186364
 30
0.0
 11
1438.7547460581
 21
-104.2144599598
 31
0.0
  0
LINE
  5
1E1
100
AcDbEntity
  8
L1_160
  6
CONTINUOUS
 62
         4
100
AcDbLine
 10
1424.4865487176
 20
-114.2400166132
 30
0.0
 11
1433.7877440988
 21
-104.938821232
 31
0.0
  0
LINE
  5
1E2
100
AcDbEntity
  8
L1_160
  6
CONTINUOUS
 62
         4
100
AcDbLine
 10
1422.1786999334
 20
-112.3052247103
 30
0.0
 11
1428.8207421395
 21
-105.6631825042
 31
0.0
  0
LINE
  5
1E3
100
AcDbEntity
  8
L1_160
  6
CONTINUOUS
 62
         4
100
AcDbLine
 10
1422.3455141989
 20
-107.8957697577
 30
0.0
 11
1423.7807888419
 21
-106.4604951147
 31
0.0
  0
ENDBLK
  5
1E4
100
AcDbEntity
  8
0
  6
CONTINUOUS
100
AcDbBlockEnd
  0
BLOCK
  5
1E8
100
AcDbEntity
  8
0
100
AcDbBlockBegin
  2
*D4
 70
        65
 10
0.0
 20
0.0
 30
0.0
  3
*D4
  1

  0
POINT
  5
1EA
100
AcDbEntity
  8
DEFPOINTS
  6
CONTINUOUS
 62
         0
100
AcDbPoint
 10
1667.3826758943
 20
-65.2272204256
 30
0.0
  0
POINT
  5
1EB
100
AcDbEntity
  8
DEFPOINTS
  6
CONTINUOUS
 62
         0
100
AcDbPoint
 10
1651.4856999334
 20
-65.2272204256
 30
0.0
  0
POINT
  5
1EC
100
AcDbEntity
  8
DEFPOINTS
  6
CONTINUOUS
 62
         0
100
AcDbPoint
 10
1651.4856999334
 20
-71.5772204256
 30
0.0
  0
LINE
  5
1ED
100
AcDbEntity
  8
L1_160
  6
CONTINUOUS
 62
         4
100
AcDbLine
 10
1653.2356999334
 20
-65.2272204256
 30
0.0
 11
1668.2576758943
 21
-65.2272204256
 31
0.0
  0
LINE
  5
1EE
100
AcDbEntity
  8
L1_160
  6
CONTINUOUS
 62
         4
100
AcDbLine
 10
1653.2356999334
 20
-71.5772204256
 30
0.0
 11
1668.2576758943
 21
-71.5772204256
 31
0.0
  0
LINE
  5
1EF
100
AcDbEntity
  8
L1_160
  6
CONTINUOUS
 62
         4
100
AcDbLine
 10
1667.3826758943
 20
-65.2272204256
 30
0.0
 11
1667.3826758943
 21
-71.5772204256
 31
0.0
  0
SOLID
  5
1F0
100
AcDbEntity
  8
L1_160
  6
CONTINUOUS
 62
         4
100
AcDbTrace
 10
1667.3826758943
 20
-65.2272204256
 30
0.0
 11
1667.9076758943
 21
-68.7272204256
 31
0.0
 12
1666.8576758943
 22
-68.7272204256
 32
0.0
 13
1667.3826758943
 23
-65.2272204256
 33
0.0
  0
LINE
  5
1F1
100
AcDbEntity
  8
L1_160
  6
CONTINUOUS
 62
         4
100
AcDbLine
 10
1667.3826758943
 20
-65.2272204256
 30
0.0
 11
1667.3826758943
 21
-46.4767557476
 31
0.0
  0
SOLID
  5
1F2
100
AcDbEntity
  8
L1_160
  6
CONTINUOUS
 62
         4
100
AcDbTrace
 10
1667.3826758943
 20
-71.5772204256
 30
0.0
 11
1666.8576758943
 21
-68.0772204256
 31
0.0
 12
1667.9076758943
 22
-68.0772204256
 32
0.0
 13
1667.3826758943
 23
-71.5772204256
 33
0.0
  0
TEXT
  5
1F4
100
AcDbEntity
  8
L1_160
  6
CONTINUOUS
 62
         4
100
AcDbText
 10
1664.7576758943
 20
-62.2267557476
 30
0.0
 40
3.5
  1
6.35
 50
90.0
  7
BOX
100
AcDbText
  0
ENDBLK
  5
1F5
100
AcDbEntity
  8
0
  6
CONTINUOUS
100
AcDbBlockEnd
  0
ENDSEC
  0
SECTION
  2
ENTITIES
  0
LINE
  5
29
100
AcDbEntity
  8
_Y__________
  6
CONTINUOUS
 62
         7
100
AcDbLine
 10
1476.4786999334
 20
-137.1363580766
 30
0.0
 11
1482.4810304759
 21
-126.7400166132
 31
0.0
  0
LINE
  5
2A
100
AcDbEntity
  8
_Y__________
  6
CONTINUOUS
 62
         7
100
AcDbLine
 10
1476.4786999334
 20
-116.3436751498
 30
0.0
 11
1482.4810304759
 21
-126.7400166132
 31
0.0
  0
LINE
  5
2B
100
AcDbEntity
  8
_Y__________
  6
CONTINUOUS
 62
         7
100
AcDbLine
 10
1476.4786999334
 20
-137.1363580766
 30
0.0
 11
1430.4480438949
 21
-137.1363580766
 31
0.0
  0
LINE
  5
2C
100
AcDbEntity
  8
_Y__________
  6
CONTINUOUS
 62
         7
100
AcDbLine
 10
1476.4786999334
 20
-116.3436751498
 30
0.0
 11
1430.4480438949
 21
-116.3436751498
 31
0.0
  0
LINE
  5
2D
100
AcDbEntity
  8
_Y__________
  6
CONTINUOUS
 62
         7
100
AcDbLine
 10
1476.4786999334
 20
-116.3436751498
 30
0.0
 11
1476.4786999334
 21
-137.1363580766
 31
0.0
  0
LINE
  5
2E
100
AcDbEntity
  8
_Y__________
  6
CONTINUOUS
 62
         7
100
AcDbLine
 10
1542.8786999334
 20
98.4024144385
 30
0.0
 11
1538.4149703322
 21
98.4024144385
 31
0.0
  0
LINE
  5
2F
100
AcDbEntity
  8
_Y__________
  6
CONTINUOUS
 62
         7
100
AcDbLine
 10
1531.3424295346
 20
98.4024144385
 30
0.0
 11
1526.9786999334
 21
98.4024144385
 31
0.0
  0
LINE
  5
30
100
AcDbEntity
  8
_Y__________
  6
CONTINUOUS
 62
         7
100
AcDbLine
 10
1526.9786999334
 20
98.4024144385
 30
0.0
 11
1527.9987940983
 21
99.4225086035
 31
0.0
  0
LINE
  5
31
100
AcDbEntity
  8
_Y__________
  6
CONTINUOUS
 62
         7
100
AcDbLine
 10
1531.3424295346
 20
98.4024144385
 30
0.0
 11
1533.0036999334
 21
99.4225086035
 31
0.0
  0
LINE
  5
32
100
AcDbEntity
  8
_Y__________
  6
CONTINUOUS
 62
         7
100
AcDbLine
 10
1541.7586057685
 20
99.4225086035
 30
0.0
 11
1527.9987940983
 21
99.4225086035
 31
0.0
  0
LINE
  5
33
100
AcDbEntity
  8
_Y__________
  6
CONTINUOUS
 62
         7
100
AcDbLine
 10
1541.7586057685
 20
99.4225086035
 30
0.0
 11
1527.9987940983
 21
99.4225086035
 31
0.0
  0
LINE
  5
34
100
AcDbEntity
  8
_Y__________
  6
CONTINUOUS
 62
         7
100
AcDbLine
 10
1536.7536999334
 20
99.4225086035
 30
0.0
 11
1538.4149703322
 21
98.4024144385
 31
0.0
  0
LINE
  5
35
100
AcDbEntity
  8
_Y__________
  6
CONTINUOUS
 62
         7
100
AcDbLine
 10
1542.7786999334
 20
98.4024144385
 30
0.0
 11
1541.7586057685
 21
99.4225086035
 31
0.0
  0
LINE
  5
36
100
AcDbEntity
  8
_Y__________
  6
CONTINUOUS
 62
         7
100
AcDbLine
 10
1538.4149703322
 20
98.4024144385
 30
0.0
 11
1538.4149703322
 21
63.5024144385
 31
0.0
  0
LINE
  5
37
100
AcDbEntity
  8
_Y__________
  6
CONTINUOUS
 62
         7
100
AcDbLine
 10
1536.7536999334
 20
99.4225086035
 30
0.0
 11
1536.7536999334
 21
66.3798039001
 31
0.0
  0
LINE
  5
38
100
AcDbEntity
  8
_Y__________
  6
CONTINUOUS
 62
         7
100
AcDbLine
 10
1533.0036999334
 20
99.4225086035
 30
0.0
 11
1533.0036999334
 21
66.3798039001
 31
0.0
  0
LINE
  5
39
100
AcDbEntity
  8
_Y__________
  6
CONTINUOUS
 62
         7
100
AcDbLine
 10
1531.3424295346
 20
98.4024144385
 30
0.0
 11
1531.3424295346
 21
63.5024144385
 31
0.0
  0
LINE
  5
3A
100
AcDbEntity
  8
_Y__________
  6
CONTINUOUS
 62
         7
100
AcDbLine
 10
1542.8786999334
 20
126.1024144385
 30
0.0
 11
1538.4149703322
 21
126.1024144385
 31
0.0
  0
LINE
  5
3B
100
AcDbEntity
  8
_Y__________
  6
CONTINUOUS
 62
         7
100
AcDbLine
 10
1531.3424295346
 20
126.1024144385
 30
0.0
 11
1533.0036999334
 21
125.0823202736
 31
0.0
  0
LINE
  5
3C
100
AcDbEntity
  8
_Y__________
  6
CONTINUOUS
 62
         7
100
AcDbLine
 10
1526.9786999334
 20
126.1024144385
 30
0.0
 11
1527.9987940983
 21
125.0823202736
 31
0.0
  0
LINE
  5
3D
100
AcDbEntity
  8
_Y__________
  6
CONTINUOUS
 62
         7
100
AcDbLine
 10
1531.3424295346
 20
126.1024144385
 30
0.0
 11
1526.9786999334
 21
126.1024144385
 31
0.0
  0
LINE
  5
3E
100
AcDbEntity
  8
_Y__________
  6
CONTINUOUS
 62
         7
100
AcDbLine
 10
1541.7586057685
 20
125.0823202736
 30
0.0
 11
1527.9987940983
 21
125.0823202736
 31
0.0
  0
LINE
  5
3F
100
AcDbEntity
  8
_Y__________
  6
CONTINUOUS
 62
         7
100
AcDbLine
 10
1541.7586057685
 20
125.0823202736
 30
0.0
 11
1527.9987940983
 21
125.0823202736
 31
0.0
  0
LINE
  5
40
100
AcDbEntity
  8
_Y__________
  6
CONTINUOUS
 62
         7
100
AcDbLine
 10
1536.7536999334
 20
125.0823202736
 30
0.0
 11
1538.4149703322
 21
126.1024144385
 31
0.0
  0
LINE
  5
41
100
AcDbEntity
  8
_Y__________
  6
CONTINUOUS
 62
         7
100
AcDbLine
 10
1542.7786999334
 20
126.1024144385
 30
0.0
 11
1541.7586057685
 21
125.0823202736
 31
0.0
  0
LINE
  5
42
100
AcDbEntity
  8
_Y__________
  6
CONTINUOUS
 62
         7
100
AcDbLine
 10
1538.4149703322
 20
161.0024144385
 30
0.0
 11
1538.4149703322
 21
126.1024144385
 31
0.0
  0
LINE
  5
43
100
AcDbEntity
  8
_Y__________
  6
CONTINUOUS
 62
         7
100
AcDbLine
 10
1536.7536999334
 20
158.125024977
 30
0.0
 11
1536.7536999334
 21
125.0823202736
 31
0.0
  0
LINE
  5
44
100
AcDbEntity
  8
_Y__________
  6
CONTINUOUS
 62
         7
100
AcDbLine
 10
1533.0036999334
 20
158.125024977
 30
0.0
 11
1533.0036999334
 21
125.0823202736
 31
0.0
  0
LINE
  5
45
100
AcDbEntity
  8
_Y__________
  6
CONTINUOUS
 62
         7
100
AcDbLine
 10
1531.3424295346
 20
161.0024144385
 30
0.0
 11
1531.3424295346
 21
126.1024144385
 31
0.0
  0
ARC
  5
46
100
AcDbEntity
  8
_Y__________
  6
DASHED
 62
         2
100
AcDbCircle
 10
1845.8340594905
 20
112.2524144385
 30
0.0
 40
45.625
100
AcDbArc
 50
197.6716498685
 51
343.6416615206
  0
ARC
  5
47
100
AcDbEntity
  8
_Y__________
  6
CONTINUOUS
 62
         7
100
AcDbCircle
 10
1845.8340594905
 20
112.2524144385
 30
0.0
 40
48.75
100
AcDbArc
 50
16.5052120024
 51
163.4947879976
  0
ARC
  5
48
100
AcDbEntity
  8
_Y__________
  6
DASHED
 62
         2
100
AcDbCircle
 10
1845.8340594905
 20
112.2524144385
 30
0.0
 40
45.625
100
AcDbArc
 50
16.3583384794
 51
163.6416615206
  0
ARC
  5
49
100
AcDbEntity
  8
_Y__________
  6
CONTINUOUS
 62
         7
100
AcDbCircle
 10
1845.8340594905
 20
112.2524144385
 30
0.0
 40
48.75
100
AcDbArc
 50
196.5052120024
 51
343.4947879976
  0
LINE
  5
4A
100
AcDbEntity
  8
_Y__________
  6
CENTER
 62
         1
100
AcDbLine
 10
1791.0840594905
 20
112.2524144385
 30
0.0
 11
1900.5840594905
 21
112.2524144385
 31
0.0
  0
LINE
  5
4B
100
AcDbEntity
  8
_Y__________
  6
CENTER
 62
         1
100
AcDbLine
 10
1845.8340594905
 20
57.5024144385
 30
0.0
 11
1845.8340594905
 21
164.4170373134
 31
0.0
  0
LINE
  5
4C
100
AcDbEntity
  8
_Y__________
  6
CONTINUOUS
 62
         7
100
AcDbLine
 10
1881.3340594905
 20
124.6024144385
 30
0.0
 11
1881.3340594905
 21
99.9024144385
 31
0.0
  0
LINE
  5
4D
100
AcDbEntity
  8
_Y__________
  6
CONTINUOUS
 62
         7
100
AcDbLine
 10
1891.5752618713
 20
125.1024144385
 30
0.0
 11
1881.8340594905
 21
125.1024144385
 31
0.0
  0
LINE
  5
4E
100
AcDbEntity
  8
_Y__________
  6
CONTINUOUS
 62
         7
100
AcDbLine
 10
1892.5752618713
 20
126.1024144385
 30
0.0
 11
1891.5752618713
 21
125.1024144385
 31
0.0
  0
LINE
  5
4F
100
AcDbEntity
  8
_Y__________
  6
CONTINUOUS
 62
         7
100
AcDbLine
 10
1892.5752618713
 20
98.4024144385
 30
0.0
 11
1891.5752618713
 21
99.4024144385
 31
0.0
  0
LINE
  5
50
100
AcDbEntity
  8
_Y__________
  6
CONTINUOUS
 62
         7
100
AcDbLine
 10
1891.5752618713
 20
99.4024144385
 30
0.0
 11
1881.8340594905
 21
99.4024144385
 31
0.0
  0
LINE
  5
51
100
AcDbEntity
  8
_Y__________
  6
CONTINUOUS
 62
         7
100
AcDbLine
 10
1881.3340594905
 20
124.6024144385
 30
0.0
 11
1881.8340594905
 21
125.1024144385
 31
0.0
  0
LINE
  5
52
100
AcDbEntity
  8
_Y__________
  6
CONTINUOUS
 62
         7
100
AcDbLine
 10
1881.3340594905
 20
99.9024144385
 30
0.0
 11
1881.8340594905
 21
99.4024144385
 31
0.0
  0
LINE
  5
53
100
AcDbEntity
  8
_Y__________
  6
CONTINUOUS
 62
         7
100
AcDbLine
 10
1808.1340594905
 20
99.9024144385
 30
0.0
 11
1807.6340594905
 21
99.4024144385
 31
0.0
  0
LINE
  5
54
100
AcDbEntity
  8
_Y__________
  6
CONTINUOUS
 62
         7
100
AcDbLine
 10
1807.6340594905
 20
125.1024144385
 30
0.0
 11
1808.1340594905
 21
124.6024144385
 31
0.0
  0
LINE
  5
55
100
AcDbEntity
  8
_Y__________
  6
CONTINUOUS
 62
         7
100
AcDbLine
 10
1808.1340594905
 20
124.6024144385
 30
0.0
 11
1808.1340594905
 21
99.9024144385
 31
0.0
  0
LINE
  5
56
100
AcDbEntity
  8
_Y__________
  6
CONTINUOUS
 62
         7
100
AcDbLine
 10
1799.0928571098
 20
126.1024144385
 30
0.0
 11
1800.0928571098
 21
125.1024144385
 31
0.0
  0
LINE
  5
57
100
AcDbEntity
  8
_Y__________
  6
CONTINUOUS
 62
         7
100
AcDbLine
 10
1800.0928571098
 20
125.1024144385
 30
0.0
 11
1807.6340594905
 21
125.1024144385
 31
0.0
  0
LINE
  5
58
100
AcDbEntity
  8
_Y__________
  6
CONTINUOUS
 62
         7
100
AcDbLine
 10
1799.0928571098
 20
98.4024144385
 30
0.0
 11
1800.0928571098
 21
99.4024144385
 31
0.0
  0
LINE
  5
59
100
AcDbEntity
  8
_Y__________
  6
CONTINUOUS
 62
         7
100
AcDbLine
 10
1800.0928571098
 20
99.4024144385
 30
0.0
 11
1807.6340594905
 21
99.4024144385
 31
0.0
  0
LINE
  5
5A
100
AcDbEntity
  8
_Y__________
  6
CENTER
 62
         1
100
AcDbLine
 10
1239.9233403763
 20
165.6922817905
 30
0.0
 11
1239.9233403763
 21
50.6023837096
 31
0.0
  0
ARC
  5
5B
100
AcDbEntity
  8
_Y__________
  6
CONTINUOUS
 62
         7
100
AcDbCircle
 10
1239.9233403763
 20
112.2524144385
 30
0.0
 40
48.75
100
AcDbArc
 50
16.5052120024
 51
163.4947879976
  0
LINE
  5
5C
100
AcDbEntity
  8
_Y__________
  6
CENTER
 62
         1
100
AcDbLine
 10
1283.2887501132
 20
112.2524144385
 30
0.0
 11
1193.3587947809
 21
112.2524144385
 31
0.0
  0
ARC
  5
5D
100
AcDbEntity
  8
_Y__________
  6
CONTINUOUS
 62
         7
100
AcDbCircle
 10
1239.9233403763
 20
112.2524144385
 30
0.0
 40
48.75
100
AcDbArc
 50
196.5052120024
 51
343.4947879976
  0
CIRCLE
  5
5E
100
AcDbEntity
  8
_Y__________
  6
CONTINUOUS
 62
         7
100
AcDbCircle
 10
1239.9233403763
 20
112.2524144385
 30
0.0
 40
34.925
  0
CIRCLE
  5
5F
100
AcDbEntity
  8
_Y__________
  6
CONTINUOUS
 62
         7
100
AcDbCircle
 10
1239.9233403763
 20
112.2524144385
 30
0.0
 40
20.3982925257
  0
CIRCLE
  5
60
100
AcDbEntity
  8
_Y__________
  6
CONTINUOUS
 62
         7
100
AcDbCircle
 10
1239.9233403763
 20
112.2524144385
 30
0.0
 40
10.3963414634
  0
ARC
  5
61
100
AcDbEntity
  8
_Y__________
  6
CONTINUOUS
 62
         4
100
AcDbCircle
 10
1239.9233403763
 20
112.2524144385
 30
0.0
 40
12.0
100
AcDbArc
 50
278.1340859252
 51
549.6704111119
  0
CIRCLE
  5
62
100
AcDbEntity
  8
_Y__________
  6
CONTINUOUS
 62
         7
100
AcDbCircle
 10
1239.9233403763
 20
112.2524144385
 30
0.0
 40
12.6589889012
  0
LINE
  5
63
100
AcDbEntity
  8
_Y__________
  6
CONTINUOUS
 62
         7
100
AcDbLine
 10
1203.9233403763
 20
99.9024144385
 30
0.0
 11
1203.9233403763
 21
124.6024144385
 31
0.0
  0
LINE
  5
64
100
AcDbEntity
  8
_Y__________
  6
CONTINUOUS
 62
         7
100
AcDbLine
 10
1194.1821379955
 20
99.4024144385
 30
0.0
 11
1203.4233403763
 21
99.4024144385
 31
0.0
  0
LINE
  5
65
100
AcDbEntity
  8
_Y__________
  6
CONTINUOUS
 62
         7
100
AcDbLine
 10
1193.1821379955
 20
98.4024144385
 30
0.0
 11
1194.1821379955
 21
99.4024144385
 31
0.0
  0
LINE
  5
66
100
AcDbEntity
  8
_Y__________
  6
CONTINUOUS
 62
         7
100
AcDbLine
 10
1193.1821379955
 20
126.1024144385
 30
0.0
 11
1194.1821379955
 21
125.1024144385
 31
0.0
  0
LINE
  5
67
100
AcDbEntity
  8
_Y__________
  6
CONTINUOUS
 62
         7
100
AcDbLine
 10
1194.1821379955
 20
125.1024144385
 30
0.0
 11
1203.4233403763
 21
125.1024144385
 31
0.0
  0
LINE
  5
68
100
AcDbEntity
  8
_Y__________
  6
CONTINUOUS
 62
         7
100
AcDbLine
 10
1277.6233403763
 20
99.9024144385
 30
0.0
 11
1277.6233403763
 21
124.6024144385
 31
0.0
  0
LINE
  5
69
100
AcDbEntity
  8
_Y__________
  6
CONTINUOUS
 62
         7
100
AcDbLine
 10
1285.664542757
 20
125.1024144385
 30
0.0
 11
1278.1233403763
 21
125.1024144385
 31
0.0
  0
LINE
  5
6A
100
AcDbEntity
  8
_Y__________
  6
CONTINUOUS
 62
         7
100
AcDbLine
 10
1286.664542757
 20
126.1024144385
 30
0.0
 11
1285.664542757
 21
125.1024144385
 31
0.0
  0
LINE
  5
6B
100
AcDbEntity
  8
_Y__________
  6
CONTINUOUS
 62
         7
100
AcDbLine
 10
1285.664542757
 20
99.4024144385
 30
0.0
 11
1278.1233403763
 21
99.4024144385
 31
0.0
  0
LINE
  5
6C
100
AcDbEntity
  8
_Y__________
  6
CONTINUOUS
 62
         7
100
AcDbLine
 10
1286.664542757
 20
98.4024144385
 30
0.0
 11
1285.664542757
 21
99.4024144385
 31
0.0
  0
LINE
  5
6D
100
AcDbEntity
  8
_Y__________
  6
CONTINUOUS
 62
         7
100
AcDbLine
 10
1203.4233403763
 20
99.4024144385
 30
0.0
 11
1203.9233403763
 21
99.9024144385
 31
0.0
  0
LINE
  5
6E
100
AcDbEntity
  8
_Y__________
  6
CONTINUOUS
 62
         7
100
AcDbLine
 10
1203.9233403763
 20
124.6024144385
 30
0.0
 11
1203.4233403763
 21
125.1024144385
 31
0.0
  0
LINE
  5
6F
100
AcDbEntity
  8
_Y__________
  6
CONTINUOUS
 62
         7
100
AcDbLine
 10
1278.1233403763
 20
125.1024144385
 30
0.0
 11
1277.6233403763
 21
124.6024144385
 31
0.0
  0
LINE
  5
70
100
AcDbEntity
  8
_Y__________
  6
CONTINUOUS
 62
         7
100
AcDbLine
 10
1277.6233403763
 20
99.9024144385
 30
0.0
 11
1278.1233403763
 21
99.4024144385
 31
0.0
  0
CIRCLE
  5
71
100
AcDbEntity
  8
_Y__________
  6
CONTINUOUS
 62
         7
100
AcDbCircle
 10
1845.8340594905
 20
112.2524144385
 30
0.0
 40
34.925
  0
LINE
  5
72
100
AcDbEntity
  8
_Y__________
  6
DASHED
 62
         2
100
AcDbLine
 10
1808.6340594905
 20
117.2524144385
 30
0.0
 11
1808.6340594905
 21
107.2524144385
 31
0.0
  0
LINE
  5
73
100
AcDbEntity
  8
_Y__________
  6
DASHED
 62
         2
100
AcDbLine
 10
1808.6340594905
 20
117.2524144385
 30
0.0
 11
1808.1340594905
 21
117.7524144385
 31
0.0
  0
LINE
  5
74
100
AcDbEntity
  8
_Y__________
  6
DASHED
 62
         2
100
AcDbLine
 10
1808.6340594905
 20
107.2524144385
 30
0.0
 11
1808.1340594905
 21
106.7524144385
 31
0.0
  0
LINE
  5
75
100
AcDbEntity
  8
_Y__________
  6
DASHED
 62
         2
100
AcDbLine
 10
1821.8480594905
 20
117.2524144385
 30
0.0
 11
1824.7348108365
 21
112.2524144385
 31
0.0
  0
LINE
  5
76
100
AcDbEntity
  8
_Y__________
  6
DASHED
 62
         2
100
AcDbLine
 10
1824.7348108365
 20
112.2524144385
 30
0.0
 11
1821.8480594905
 21
107.2524144385
 31
0.0
  0
LINE
  5
77
100
AcDbEntity
  8
_Y__________
  6
DASHED
 62
         2
100
AcDbLine
 10
1821.8480594905
 20
117.2524144385
 30
0.0
 11
1821.8480594905
 21
107.2524144385
 31
0.0
  0
LINE
  5
78
100
AcDbEntity
  8
_Y__________
  6
DASHED
 62
         2
100
AcDbLine
 10
1808.6340594905
 20
107.2524144385
 30
0.0
 11
1821.8480594905
 21
107.2524144385
 31
0.0
  0
LINE
  5
79
100
AcDbEntity
  8
_Y__________
  6
DASHED
 62
         2
100
AcDbLine
 10
1808.6340594905
 20
117.2524144385
 30
0.0
 11
1821.8480594905
 21
117.2524144385
 31
0.0
  0
CIRCLE
  5
7A
100
AcDbEntity
  8
_Y__________
  6
CONTINUOUS
 62
         7
100
AcDbCircle
 10
1534.8786999334
 20
112.2562679634
 30
0.0
 40
4.76
  0
LINE
  5
7B
100
AcDbEntity
  8
_Y__________
  6
CONTINUOUS
 62
         7
100
AcDbLine
 10
1558.0306999334
 20
-161.6650166132
 30
0.0
 11
1557.0306999334
 21
-161.6650166132
 31
0.0
  0
LINE
  5
7C
100
AcDbEntity
  8
_Y__________
  6
CONTINUOUS
 62
         7
100
AcDbLine
 10
1558.0306999334
 20
-91.8150166132
 30
0.0
 11
1557.0306999334
 21
-91.8150166132
 31
0.0
  0
LINE
  5
7D
100
AcDbEntity
  8
_Y__________
  6
CONTINUOUS
 62
         7
100
AcDbLine
 10
1558.8306999334
 20
-92.6150166132
 30
0.0
 11
1558.8306999334
 21
-104.6900166132
 31
0.0
  0
ARC
  5
7E
100
AcDbEntity
  8
_Y__________
  6
CONTINUOUS
 62
         7
100
AcDbCircle
 10
1558.0306999334
 20
-92.6150166132
 30
0.0
 40
0.8
100
AcDbArc
 50
0.0
 51
90.0000000003
  0
ARC
  5
7F
100
AcDbEntity
  8
_Y__________
  6
CONTINUOUS
 62
         7
100
AcDbCircle
 10
1558.0306999334
 20
-160.8650166132
 30
0.0
 40
0.8
100
AcDbArc
 50
269.9999999999
 51
360.0
  0
LINE
  5
80
100
AcDbEntity
  8
_Y__________
  6
CONTINUOUS
 62
         7
100
AcDbLine
 10
1558.8306999334
 20
-148.7900166132
 30
0.0
 11
1558.8306999334
 21
-160.8650166132
 31
0.0
  0
LINE
  5
81
100
AcDbEntity
  8
_Y__________
  6
CONTINUOUS
 62
         7
100
AcDbLine
 10
1558.0306999334
 20
77.3274144385
 30
0.0
 11
1557.0306999334
 21
77.3274144385
 31
0.0
  0
LINE
  5
82
100
AcDbEntity
  8
_Y__________
  6
CONTINUOUS
 62
         7
100
AcDbLine
 10
1558.0306999334
 20
147.1774144385
 30
0.0
 11
1557.0306999334
 21
147.1774144385
 31
0.0
  0
ARC
  5
83
100
AcDbEntity
  8
_Y__________
  6
CONTINUOUS
 62
         7
100
AcDbCircle
 10
1558.0306999334
 20
78.1274144385
 30
0.0
 40
0.8
100
AcDbArc
 50
269.9999999999
 51
360.0
  0
ARC
  5
84
100
AcDbEntity
  8
_Y__________
  6
CONTINUOUS
 62
         7
100
AcDbCircle
 10
1558.0306999334
 20
146.3774144385
 30
0.0
 40
0.8
100
AcDbArc
 50
0.0
 51
90.0000000003
  0
LINE
  5
85
100
AcDbEntity
  8
_Y__________
  6
CONTINUOUS
 62
         7
100
AcDbLine
 10
1558.8306999334
 20
146.3774144385
 30
0.0
 11
1558.8306999334
 21
78.1274144385
 31
0.0
  0
LINE
  5
86
100
AcDbEntity
  8
_Y__________
  6
CONTINUOUS
 62
         7
100
AcDbLine
 10
1526.9786999334
 20
66.0024144385
 30
0.0
 11
1526.9786999334
 21
65.0024144385
 31
0.0
  0
LINE
  5
87
100
AcDbEntity
  8
_Y__________
  6
CONTINUOUS
 62
         7
100
AcDbLine
 10
1542.8786999334
 20
76.8274144385
 30
0.0
 11
1542.8786999334
 21
65.0024144385
 31
0.0
  0
ARC
  5
88
100
AcDbEntity
  8
_Y__________
  6
CONTINUOUS
 62
         7
100
AcDbCircle
 10
1528.4786999334
 20
65.0024144385
 30
0.0
 40
1.5
100
AcDbArc
 50
180.0
 51
270.0
  0
ARC
  5
89
100
AcDbEntity
  8
_Y__________
  6
CONTINUOUS
 62
         7
100
AcDbCircle
 10
1541.3786999334
 20
65.0024144385
 30
0.0
 40
1.5
100
AcDbArc
 50
270.0
 51
360.0
  0
ARC
  5
8A
100
AcDbEntity
  8
_Y__________
  6
CONTINUOUS
 62
         7
100
AcDbCircle
 10
1528.4786999334
 20
159.5024144385
 30
0.0
 40
1.5
100
AcDbArc
 50
90.0
 51
180.0
  0
ARC
  5
8B
100
AcDbEntity
  8
_Y__________
  6
CONTINUOUS
 62
         7
100
AcDbCircle
 10
1541.3786999334
 20
159.5024144385
 30
0.0
 40
1.5
100
AcDbArc
 50
0.0
 51
90.0
  0
LINE
  5
8C
100
AcDbEntity
  8
_Y__________
  6
CONTINUOUS
 62
         7
100
AcDbLine
 10
1540.3786999334
 20
63.5024144385
 30
0.0
 11
1541.3786999334
 21
63.5024144385
 31
0.0
  0
LINE
  5
8D
100
AcDbEntity
  8
_Y__________
  6
CONTINUOUS
 62
         7
100
AcDbLine
 10
1528.4786999334
 20
63.5024144385
 30
0.0
 11
1529.4786999334
 21
63.5024144385
 31
0.0
  0
LINE
  5
8E
100
AcDbEntity
  8
_Y__________
  6
CONTINUOUS
 62
         7
100
AcDbLine
 10
1542.8786999334
 20
159.5024144385
 30
0.0
 11
1542.8786999334
 21
147.6774144385
 31
0.0
  0
LINE
  5
8F
100
AcDbEntity
  8
_Y__________
  6
CONTINUOUS
 62
         7
100
AcDbLine
 10
1540.3786999334
 20
161.0024144385
 30
0.0
 11
1541.3786999334
 21
161.0024144385
 31
0.0
  0
LINE
  5
90
100
AcDbEntity
  8
_Y__________
  6
CONTINUOUS
 62
         7
100
AcDbLine
 10
1528.4786999334
 20
161.0024144385
 30
0.0
 11
1529.4786999334
 21
161.0024144385
 31
0.0
  0
LINE
  5
91
100
AcDbEntity
  8
_Y__________
  6
CONTINUOUS
 62
         7
100
AcDbLine
 10
1526.9786999334
 20
159.5024144385
 30
0.0
 11
1526.9786999334
 21
158.5024144385
 31
0.0
  0
ARC
  5
92
100
AcDbEntity
  8
_Y__________
  6
CONTINUOUS
 62
         7
100
AcDbCircle
 10
1543.3786999334
 20
147.6774144385
 30
0.0
 40
0.5
100
AcDbArc
 50
180.0
 51
270.0
  0
LINE
  5
93
100
AcDbEntity
  8
_Y__________
  6
CONTINUOUS
 62
         7
100
AcDbLine
 10
1543.3786999334
 20
147.1774144385
 30
0.0
 11
1558.0306999334
 21
147.1774144385
 31
0.0
  0
LINE
  5
94
100
AcDbEntity
  8
_Y__________
  6
CONTINUOUS
 62
         7
100
AcDbLine
 10
1543.3786999334
 20
77.3274144385
 30
0.0
 11
1558.0306999334
 21
77.3274144385
 31
0.0
  0
ARC
  5
95
100
AcDbEntity
  8
_Y__________
  6
CONTINUOUS
 62
         7
100
AcDbCircle
 10
1543.3786999334
 20
76.8274144385
 30
0.0
 40
0.5
100
AcDbArc
 50
90.0
 51
180.0
  0
ARC
  5
96
100
AcDbEntity
  8
_Y__________
  6
CONTINUOUS
 62
         7
100
AcDbCircle
 10
1543.3786999334
 20
-162.1650166132
 30
0.0
 40
0.5
100
AcDbArc
 50
90.0
 51
180.0
  0
ARC
  5
97
100
AcDbEntity
  8
_Y__________
  6
CONTINUOUS
 62
         7
100
AcDbCircle
 10
1543.3786999334
 20
-91.3150166132
 30
0.0
 40
0.5
100
AcDbArc
 50
180.0
 51
270.0
  0
LINE
  5
98
100
AcDbEntity
  8
_Y__________
  6
CONTINUOUS
 62
         7
100
AcDbLine
 10
1526.9786999334
 20
-79.4900166132
 30
0.0
 11
1526.9786999334
 21
-80.4900166132
 31
0.0
  0
LINE
  5
99
100
AcDbEntity
  8
_Y__________
  6
CONTINUOUS
 62
         7
100
AcDbLine
 10
1528.4786999334
 20
-77.9900166132
 30
0.0
 11
1529.4786999334
 21
-77.9900166132
 31
0.0
  0
LINE
  5
9A
100
AcDbEntity
  8
_Y__________
  6
CONTINUOUS
 62
         7
100
AcDbLine
 10
1540.3786999334
 20
-77.9900166132
 30
0.0
 11
1541.3786999334
 21
-77.9900166132
 31
0.0
  0
LINE
  5
9B
100
AcDbEntity
  8
_Y__________
  6
CONTINUOUS
 62
         7
100
AcDbLine
 10
1542.8786999334
 20
-79.4900166132
 30
0.0
 11
1542.8786999334
 21
-91.3150166132
 31
0.0
  0
LINE
  5
9C
100
AcDbEntity
  8
_Y__________
  6
CONTINUOUS
 62
         7
100
AcDbLine
 10
1528.4786999334
 20
-175.4900166132
 30
0.0
 11
1529.4786999334
 21
-175.4900166132
 31
0.0
  0
LINE
  5
9D
100
AcDbEntity
  8
_Y__________
  6
CONTINUOUS
 62
         7
100
AcDbLine
 10
1540.3786999334
 20
-175.4900166132
 30
0.0
 11
1541.3786999334
 21
-175.4900166132
 31
0.0
  0
ARC
  5
9E
100
AcDbEntity
  8
_Y__________
  6
CONTINUOUS
 62
         7
100
AcDbCircle
 10
1541.3786999334
 20
-79.4900166132
 30
0.0
 40
1.5
100
AcDbArc
 50
0.0
 51
90.0
  0
ARC
  5
9F
100
AcDbEntity
  8
_Y__________
  6
CONTINUOUS
 62
         7
100
AcDbCircle
 10
1528.4786999334
 20
-79.4900166132
 30
0.0
 40
1.5
100
AcDbArc
 50
90.0
 51
180.0
  0
ARC
  5
A0
100
AcDbEntity
  8
_Y__________
  6
CONTINUOUS
 62
         7
100
AcDbCircle
 10
1541.3786999334
 20
-173.9900166132
 30
0.0
 40
1.5
100
AcDbArc
 50
270.0
 51
360.0
  0
ARC
  5
A1
100
AcDbEntity
  8
_Y__________
  6
CONTINUOUS
 62
         7
100
AcDbCircle
 10
1528.4786999334
 20
-173.9900166132
 30
0.0
 40
1.5
100
AcDbArc
 50
180.0
 51
270.0
  0
LINE
  5
A2
100
AcDbEntity
  8
_Y__________
  6
CONTINUOUS
 62
         7
100
AcDbLine
 10
1542.8786999334
 20
-162.1650166132
 30
0.0
 11
1542.8786999334
 21
-173.9900166132
 31
0.0
  0
LINE
  5
A3
100
AcDbEntity
  8
_Y__________
  6
CONTINUOUS
 62
         7
100
AcDbLine
 10
1526.9786999334
 20
-172.9900166132
 30
0.0
 11
1526.9786999334
 21
-173.9900166132
 31
0.0
  0
LINE
  5
A4
100
AcDbEntity
  8
_Y__________
  6
CONTINUOUS
 62
         7
100
AcDbLine
 10
1543.3786999334
 20
-91.8150166132
 30
0.0
 11
1558.0306999334
 21
-91.8150166132
 31
0.0
  0
LINE
  5
A5
100
AcDbEntity
  8
_Y__________
  6
CONTINUOUS
 62
         7
100
AcDbLine
 10
1543.3786999334
 20
-161.6650166132
 30
0.0
 11
1558.0306999334
 21
-161.6650166132
 31
0.0
  0
ARC
  5
A6
100
AcDbEntity
  8
_Y__________
  6
CONTINUOUS
 62
         7
100
AcDbCircle
 10
1424.6786999334
 20
-144.6863523772
 30
0.0
 40
2.5
100
AcDbArc
 50
180.0
 51
261.702778
  0
LINE
  5
A7
100
AcDbEntity
  8
_Y__________
  6
CONTINUOUS
 62
         7
100
AcDbLine
 10
1422.1786999334
 20
-108.7936808492
 30
0.0
 11
1422.1786999334
 21
-144.6863523772
 31
0.0
  0
ARC
  5
A8
100
AcDbEntity
  8
_Y__________
  6
CONTINUOUS
 62
         7
100
AcDbCircle
 10
1424.6786999334
 20
-108.7936808492
 30
0.0
 40
2.5
100
AcDbArc
 50
98.297222
 51
180.0
  0
ARC
  5
A9
100
AcDbEntity
  8
_Y__________
  6
CONTINUOUS
 62
         7
100
AcDbCircle
 10
1424.6786999334
 20
94.3060786745
 30
0.0
 40
2.5
100
AcDbArc
 50
180.0
 51
261.702778
  0
ARC
  5
AA
100
AcDbEntity
  8
_Y__________
  6
CONTINUOUS
 62
         7
100
AcDbCircle
 10
1424.6786999334
 20
130.1987502026
 30
0.0
 40
2.5
100
AcDbArc
 50
98.297222
 51
180.0
  0
LINE
  5
AB
100
AcDbEntity
  8
_Y__________
  6
CONTINUOUS
 62
         7
100
AcDbLine
 10
1422.1786999334
 20
130.1987502026
 30
0.0
 11
1422.1786999334
 21
94.3060786745
 31
0.0
  0
LINE
  5
AC
100
AcDbEntity
  8
_Y__________
  6
CONTINUOUS
 62
         7
100
AcDbLine
 10
1523.7786999334
 20
-91.8150166132
 30
0.0
 11
1525.7251100949
 21
-92.3150166132
 31
0.0
  0
ARC
  5
AD
100
AcDbEntity
  8
_Y__________
  6
CONTINUOUS
 62
         7
100
AcDbCircle
 10
1536.3220756064
 20
-80.6150166132
 30
0.0
 40
0.5
100
AcDbArc
 50
270.0
 51
330.0
  0
ARC
  5
AE
100
AcDbEntity
  8
_Y__________
  6
CONTINUOUS
 62
         7
100
AcDbCircle
 10
1533.4353242604
 20
-80.6150166132
 30
0.0
 40
0.5
100
AcDbArc
 50
210.0
 51
270.0
  0
ARC
  5
AF
100
AcDbEntity
  8
_Y__________
  6
CONTINUOUS
 62
         7
100
AcDbCircle
 10
1526.3786999334
 20
-91.7150166132
 30
0.0
 40
0.6
100
AcDbArc
 50
270.0
 51
360.0
  0
LINE
  5
B0
100
AcDbEntity
  8
_Y__________
  6
CONTINUOUS
 62
         7
100
AcDbLine
 10
1525.7251100949
 20
-92.3150166132
 30
0.0
 11
1526.3786999334
 21
-92.3150166132
 31
0.0
  0
LINE
  5
B1
100
AcDbEntity
  8
_Y__________
  6
CONTINUOUS
 62
         7
100
AcDbLine
 10
1526.9786999334
 20
-79.4900166132
 30
0.0
 11
1526.9786999334
 21
-91.7150166132
 31
0.0
  0
LINE
  5
B2
100
AcDbEntity
  8
_Y__________
  6
CONTINUOUS
 62
         7
100
AcDbLine
 10
1533.4353242604
 20
-81.1150166132
 30
0.0
 11
1536.3220756064
 21
-81.1150166132
 31
0.0
  0
LINE
  5
B3
100
AcDbEntity
  8
_Y__________
  6
CONTINUOUS
 62
         7
100
AcDbLine
 10
1536.7550883083
 20
-80.8650166132
 30
0.0
 11
1538.4149703322
 21
-77.9900166132
 31
0.0
  0
LINE
  5
B4
100
AcDbEntity
  8
_Y__________
  6
CONTINUOUS
 62
         7
100
AcDbLine
 10
1528.4786999334
 20
-77.9900166132
 30
0.0
 11
1531.3424295346
 21
-77.9900166132
 31
0.0
  0
LINE
  5
B5
100
AcDbEntity
  8
_Y__________
  6
CONTINUOUS
 62
         7
100
AcDbLine
 10
1533.4353242604
 20
-81.1150166132
 30
0.0
 11
1536.3220756064
 21
-81.1150166132
 31
0.0
  0
LINE
  5
B6
100
AcDbEntity
  8
_Y__________
  6
CONTINUOUS
 62
         7
100
AcDbLine
 10
1526.9786999334
 20
-79.4900166132
 30
0.0
 11
1526.9786999334
 21
-91.7150166132
 31
0.0
  0
LINE
  5
B7
100
AcDbEntity
  8
_Y__________
  6
CONTINUOUS
 62
         7
100
AcDbLine
 10
1525.7251100949
 20
-92.3150166132
 30
0.0
 11
1526.3786999334
 21
-92.3150166132
 31
0.0
  0
ARC
  5
B8
100
AcDbEntity
  8
_Y__________
  6
CONTINUOUS
 62
         7
100
AcDbCircle
 10
1526.3786999334
 20
-91.7150166132
 30
0.0
 40
0.6
100
AcDbArc
 50
270.0
 51
360.0
  0
ARC
  5
B9
100
AcDbEntity
  8
_Y__________
  6
CONTINUOUS
 62
         7
100
AcDbCircle
 10
1533.4353242604
 20
-80.6150166132
 30
0.0
 40
0.5
100
AcDbArc
 50
210.0
 51
270.0
  0
ARC
  5
BA
100
AcDbEntity
  8
_Y__________
  6
CONTINUOUS
 62
         7
100
AcDbCircle
 10
1536.3220756064
 20
-80.6150166132
 30
0.0
 40
0.5
100
AcDbArc
 50
270.0
 51
330.0
  0
LINE
  5
BB
100
AcDbEntity
  8
_Y__________
  6
CONTINUOUS
 62
         7
100
AcDbLine
 10
1533.0023115585
 20
-80.8650166132
 30
0.0
 11
1531.3424295346
 21
-77.9900166132
 31
0.0
  0
LINE
  5
BC
100
AcDbEntity
  8
_Y__________
  6
CONTINUOUS
 62
         7
100
AcDbLine
 10
1538.4149703322
 20
-77.9900166132
 30
0.0
 11
1541.3786999334
 21
-77.9900166132
 31
0.0
  0
LINE
  5
BD
100
AcDbEntity
  8
_Y__________
  6
CONTINUOUS
 62
         7
100
AcDbLine
 10
1536.8994258756
 20
-172.8650166132
 30
0.0
 11
1538.4149703322
 21
-175.4900166132
 31
0.0
  0
LINE
  5
BE
100
AcDbEntity
  8
_Y__________
  6
CONTINUOUS
 62
         7
100
AcDbLine
 10
1526.9786999334
 20
-161.7650166132
 30
0.0
 11
1526.9786999334
 21
-173.9900166132
 31
0.0
  0
LINE
  5
BF
100
AcDbEntity
  8
_Y__________
  6
CONTINUOUS
 62
         7
100
AcDbLine
 10
1533.4353242604
 20
-172.3650166132
 30
0.0
 11
1536.0334004718
 21
-172.3650166132
 31
0.0
  0
LINE
  5
C0
100
AcDbEntity
  8
_Y__________
  6
CONTINUOUS
 62
         7
100
AcDbLine
 10
1528.4786999334
 20
-175.4900166132
 30
0.0
 11
1531.3424295346
 21
-175.4900166132
 31
0.0
  0
LINE
  5
C1
100
AcDbEntity
  8
_Y__________
  6
CONTINUOUS
 62
         7
100
AcDbLine
 10
1533.0023115585
 20
-172.6150166132
 30
0.0
 11
1531.3424295346
 21
-175.4900166132
 31
0.0
  0
ARC
  5
C2
100
AcDbEntity
  8
_Y__________
  6
CONTINUOUS
 62
         7
100
AcDbCircle
 10
1533.4353242604
 20
-172.8650166132
 30
0.0
 40
0.5
100
AcDbArc
 50
90.0
 51
150.0
  0
LINE
  5
C3
100
AcDbEntity
  8
_Y__________
  6
CONTINUOUS
 62
         7
100
AcDbLine
 10
1525.7251100949
 20
-161.1650166132
 30
0.0
 11
1526.3786999334
 21
-161.1650166132
 31
0.0
  0
ARC
  5
C4
100
AcDbEntity
  8
_Y__________
  6
CONTINUOUS
 62
         7
100
AcDbCircle
 10
1526.3786999334
 20
-161.7650166132
 30
0.0
 40
0.6
100
AcDbArc
 50
0.0
 51
90.0
  0
LINE
  5
C5
100
AcDbEntity
  8
_Y__________
  6
CONTINUOUS
 62
         7
100
AcDbLine
 10
1538.4149703322
 20
-175.4900166132
 30
0.0
 11
1541.3786999334
 21
-175.4900166132
 31
0.0
  0
LINE
  5
C6
100
AcDbEntity
  8
_Y__________
  6
CONTINUOUS
 62
         7
100
AcDbLine
 10
1466.6786999334
 20
-114.7400166132
 30
0.0
 11
1466.6786999334
 21
-138.7400166132
 31
0.0
  0
LINE
  5
C7
100
AcDbEntity
  8
_Y__________
  6
CONTINUOUS
 62
         7
100
AcDbLine
 10
1423.5286999334
 20
-114.2400166132
 30
0.0
 11
1426.3786999334
 21
-114.2400166132
 31
0.0
  0
LINE
  5
C8
100
AcDbEntity
  8
_Y__________
  6
CONTINUOUS
 62
         7
100
AcDbLine
 10
1523.7786999334
 20
-161.6650166132
 30
0.0
 11
1424.1679293748
 21
-147.1383091389
 31
0.0
  0
LINE
  5
C9
100
AcDbEntity
  8
_Y__________
  6
CONTINUOUS
 62
         7
100
AcDbLine
 10
1430.4480438949
 20
-137.1363580766
 30
0.0
 11
1466.6786999334
 21
-137.1363580766
 31
0.0
  0
LINE
  5
CA
100
AcDbEntity
  8
_Y__________
  6
CONTINUOUS
 62
         5
100
AcDbLine
 10
1428.8443853584
 20
-138.7400166132
 30
0.0
 11
1466.6786999334
 21
-138.7400166132
 31
0.0
  0
LINE
  5
CB
100
AcDbEntity
  8
_Y__________
  6
CONTINUOUS
 62
         7
100
AcDbLine
 10
1523.7786999334
 20
-91.8150166132
 30
0.0
 11
1424.1679293748
 21
-106.3417240875
 31
0.0
  0
LINE
  5
CC
100
AcDbEntity
  8
_Y__________
  6
CONTINUOUS
 62
         7
100
AcDbLine
 10
1430.4480438949
 20
-116.3436751498
 30
0.0
 11
1466.6786999334
 21
-116.3436751498
 31
0.0
  0
LINE
  5
CD
100
AcDbEntity
  8
_Y__________
  6
CONTINUOUS
 62
         5
100
AcDbLine
 10
1428.8443853584
 20
-114.7400166132
 30
0.0
 11
1466.6786999334
 21
-114.7400166132
 31
0.0
  0
LINE
  5
CE
100
AcDbEntity
  8
_Y__________
  6
CONTINUOUS
 62
         7
100
AcDbLine
 10
1523.7786999334
 20
-161.6650166132
 30
0.0
 11
1525.7251100949
 21
-161.1650166132
 31
0.0
  0
LINE
  5
CF
100
AcDbEntity
  8
_Y__________
  6
CONTINUOUS
 62
         7
100
AcDbLine
 10
1523.7786999334
 20
-91.8150166132
 30
0.0
 11
1525.7251100949
 21
-92.3150166132
 31
0.0
  0
LINE
  5
D0
100
AcDbEntity
  8
_Y__________
  6
CENTER
 62
         1
100
AcDbLine
 10
1422.0286999334
 20
-126.7400166132
 30
0.0
 11
1542.8786999334
 21
-126.7400166132
 31
0.0
  0
ARC
  5
D1
100
AcDbEntity
  8
_Y__________
  6
CONTINUOUS
 62
         7
100
AcDbCircle
 10
1536.0334004718
 20
-173.3650166132
 30
0.0
 40
1.0
100
AcDbArc
 50
30.0
 51
90.0
  0
LINE
  5
D2
100
AcDbEntity
  8
_Y__________
  6
CONTINUOUS
 62
         7
100
AcDbLine
 10
1428.3786999334
 20
-139.2057020382
 30
0.0
 11
1428.3786999334
 21
-114.2743311882
 31
0.0
  0
LINE
  5
D3
100
AcDbEntity
  8
_Y__________
  6
CONTINUOUS
 62
         7
100
AcDbLine
 10
1427.1251100949
 20
-114.0400166132
 30
0.0
 11
1427.9786999334
 21
-114.0400166132
 31
0.0
  0
LINE
  5
D4
100
AcDbEntity
  8
_Y__________
  6
CONTINUOUS
 62
         7
100
AcDbLine
 10
1426.3786999334
 20
-139.2400166132
 30
0.0
 11
1426.3786999334
 21
-114.2400166132
 31
0.0
  0
ARC
  5
D5
100
AcDbEntity
  8
_Y__________
  6
CONTINUOUS
 62
         7
100
AcDbCircle
 10
1427.9786999334
 20
-114.4400166132
 30
0.0
 40
0.4
100
AcDbArc
 50
45.0
 51
90.0
  0
LINE
  5
D6
100
AcDbEntity
  8
_Y__________
  6
CONTINUOUS
 62
         7
100
AcDbLine
 10
1427.1251100949
 20
-114.0400166132
 30
0.0
 11
1426.3786999334
 21
-114.2400166132
 31
0.0
  0
ARC
  5
D7
100
AcDbEntity
  8
_Y__________
  6
CONTINUOUS
 62
         7
100
AcDbCircle
 10
1423.5286999334
 20
-112.7400166132
 30
0.0
 40
1.5
100
AcDbArc
 50
205.8419327625
 51
270.0
  0
LINE
  5
D8
100
AcDbEntity
  8
_Y__________
  6
CONTINUOUS
 62
         7
100
AcDbLine
 10
1428.2615426459
 20
-114.1571739007
 30
0.0
 11
1430.4480438949
 21
-116.3436751498
 31
0.0
  0
LINE
  5
D9
100
AcDbEntity
  8
_Y__________
  6
CONTINUOUS
 62
         7
100
AcDbLine
 10
1423.5286999334
 20
-139.2400166132
 30
0.0
 11
1426.3786999334
 21
-139.2400166132
 31
0.0
  0
LINE
  5
DA
100
AcDbEntity
  8
_Y__________
  6
CONTINUOUS
 62
         7
100
AcDbLine
 10
1427.1251100949
 20
-139.4400166132
 30
0.0
 11
1427.9786999334
 21
-139.4400166132
 31
0.0
  0
LINE
  5
DB
100
AcDbEntity
  8
_Y__________
  6
CONTINUOUS
 62
         7
100
AcDbLine
 10
1427.1251100949
 20
-139.4400166132
 30
0.0
 11
1426.3786999334
 21
-139.2400166132
 31
0.0
  0
ARC
  5
DC
100
AcDbEntity
  8
_Y__________
  6
CONTINUOUS
 62
         7
100
AcDbCircle
 10
1423.5286999334
 20
-140.7400166132
 30
0.0
 40
1.5
100
AcDbArc
 50
90.0
 51
154.1580672375
  0
ARC
  5
DD
100
AcDbEntity
  8
_Y__________
  6
CONTINUOUS
 62
         7
100
AcDbCircle
 10
1427.9786999334
 20
-139.0400166132
 30
0.0
 40
0.4
100
AcDbArc
 50
270.0
 51
315.0
  0
LINE
  5
DE
100
AcDbEntity
  8
_Y__________
  6
CONTINUOUS
 62
         7
100
AcDbLine
 10
1428.2615426459
 20
-139.3228593257
 30
0.0
 11
1430.4480438949
 21
-137.1363580766
 31
0.0
  0
LINE
  5
DF
100
AcDbEntity
  8
_Y__________
  6
CONTINUOUS
 62
         7
100
AcDbLine
 10
1430.4480438949
 20
-137.1363580766
 30
0.0
 11
1430.4480438949
 21
-116.3436751498
 31
0.0
  0
LINE
  5
E0
100
AcDbEntity
  8
_Y__________
  6
CONTINUOUS
 62
         7
100
AcDbLine
 10
1542.8786999334
 20
159.5024144385
 30
0.0
 11
1542.8786999334
 21
65.0024144385
 31
0.0
  0
LINE
  5
E1
100
AcDbEntity
  8
_Y__________
  6
CONTINUOUS
 62
         7
100
AcDbLine
 10
1536.7550883083
 20
158.1274144385
 30
0.0
 11
1538.4149703322
 21
161.0024144385
 31
0.0
  0
LINE
  5
E2
100
AcDbEntity
  8
_Y__________
  6
CONTINUOUS
 62
         7
100
AcDbLine
 10
1533.4353242604
 20
157.8774144385
 30
0.0
 11
1536.3220756064
 21
157.8774144385
 31
0.0
  0
LINE
  5
E3
100
AcDbEntity
  8
_Y__________
  6
CONTINUOUS
 62
         7
100
AcDbLine
 10
1528.4786999334
 20
161.0024144385
 30
0.0
 11
1531.3424295346
 21
161.0024144385
 31
0.0
  0
ARC
  5
E4
100
AcDbEntity
  8
_Y__________
  6
CONTINUOUS
 62
         7
100
AcDbCircle
 10
1533.4353242604
 20
158.3774144385
 30
0.0
 40
0.5
100
AcDbArc
 50
210.0
 51
270.0
  0
LINE
  5
E5
100
AcDbEntity
  8
_Y__________
  6
CONTINUOUS
 62
         7
100
AcDbLine
 10
1525.7251100949
 20
146.6774144385
 30
0.0
 11
1526.3786999334
 21
146.6774144385
 31
0.0
  0
ARC
  5
E6
100
AcDbEntity
  8
_Y__________
  6
CONTINUOUS
 62
         7
100
AcDbCircle
 10
1526.3786999334
 20
147.2774144385
 30
0.0
 40
0.6
100
AcDbArc
 50
270.0
 51
360.0
  0
LINE
  5
E7
100
AcDbEntity
  8
_Y__________
  6
CONTINUOUS
 62
         7
100
AcDbLine
 10
1533.0023115585
 20
158.1274144385
 30
0.0
 11
1531.3424295346
 21
161.0024144385
 31
0.0
  0
ARC
  5
E8
100
AcDbEntity
  8
_Y__________
  6
CONTINUOUS
 62
         7
100
AcDbCircle
 10
1536.3220756064
 20
158.3774144385
 30
0.0
 40
0.5
100
AcDbArc
 50
270.0
 51
330.0
  0
LINE
  5
E9
100
AcDbEntity
  8
_Y__________
  6
CONTINUOUS
 62
         7
100
AcDbLine
 10
1538.4149703322
 20
161.0024144385
 30
0.0
 11
1541.3786999334
 21
161.0024144385
 31
0.0
  0
LINE
  5
EA
100
AcDbEntity
  8
_Y__________
  6
CONTINUOUS
 62
         7
100
AcDbLine
 10
1536.7550883083
 20
66.3774144385
 30
0.0
 11
1538.4149703322
 21
63.5024144385
 31
0.0
  0
LINE
  5
EB
100
AcDbEntity
  8
_Y__________
  6
CONTINUOUS
 62
         7
100
AcDbLine
 10
1533.4353242604
 20
66.6274144385
 30
0.0
 11
1536.3220756064
 21
66.6274144385
 31
0.0
  0
ARC
  5
EC
100
AcDbEntity
  8
_Y__________
  6
CONTINUOUS
 62
         7
100
AcDbCircle
 10
1533.4353242604
 20
66.1274144385
 30
0.0
 40
0.5
100
AcDbArc
 50
90.0
 51
150.0
  0
LINE
  5
ED
100
AcDbEntity
  8
_Y__________
  6
CONTINUOUS
 62
         7
100
AcDbLine
 10
1528.4786999334
 20
63.5024144385
 30
0.0
 11
1531.3424295346
 21
63.5024144385
 31
0.0
  0
LINE
  5
EE
100
AcDbEntity
  8
_Y__________
  6
CONTINUOUS
 62
         7
100
AcDbLine
 10
1533.0023115585
 20
66.3774144385
 30
0.0
 11
1531.3424295346
 21
63.5024144385
 31
0.0
  0
ARC
  5
EF
100
AcDbEntity
  8
_Y__________
  6
CONTINUOUS
 62
         7
100
AcDbCircle
 10
1536.3220756064
 20
66.1274144385
 30
0.0
 40
0.5
100
AcDbArc
 50
30.0
 51
90.0
  0
ARC
  5
F0
100
AcDbEntity
  8
_Y__________
  6
CONTINUOUS
 62
         7
100
AcDbCircle
 10
1526.3786999334
 20
77.2274144385
 30
0.0
 40
0.6
100
AcDbArc
 50
0.0
 51
90.0
  0
LINE
  5
F1
100
AcDbEntity
  8
_Y__________
  6
CONTINUOUS
 62
         7
100
AcDbLine
 10
1525.7251100949
 20
77.8274144385
 30
0.0
 11
1526.3786999334
 21
77.8274144385
 31
0.0
  0
ARC
  5
F2
100
AcDbEntity
  8
_Y__________
  6
CONTINUOUS
 62
         7
100
AcDbCircle
 10
1526.3786999334
 20
77.2274144385
 30
0.0
 40
0.6
100
AcDbArc
 50
0.0
 51
90.0
  0
LINE
  5
F3
100
AcDbEntity
  8
_Y__________
  6
CONTINUOUS
 62
         7
100
AcDbLine
 10
1538.4149703322
 20
63.5024144385
 30
0.0
 11
1541.3786999334
 21
63.5024144385
 31
0.0
  0
LINE
  5
F4
100
AcDbEntity
  8
_Y__________
  6
CENTER
 62
         1
100
AcDbLine
 10
1534.8786999334
 20
167.2576777393
 30
0.0
 11
1534.8786999334
 21
57.2548581875
 31
0.0
  0
LINE
  5
F5
100
AcDbEntity
  8
_Y__________
  6
CONTINUOUS
 62
         7
100
AcDbLine
 10
1526.9786999334
 20
159.5024144385
 30
0.0
 11
1526.9786999334
 21
65.0024144385
 31
0.0
  0
LINE
  5
F6
100
AcDbEntity
  8
_Y__________
  6
CONTINUOUS
 62
         7
100
AcDbLine
 10
1525.7251100949
 20
146.6774144385
 30
0.0
 11
1525.7251100949
 21
77.8274144385
 31
0.0
  0
LINE
  5
F7
100
AcDbEntity
  8
_Y__________
  6
CENTER
 62
         1
100
AcDbLine
 10
1523.7786999334
 20
151.9774144385
 30
0.0
 11
1523.7786999334
 21
73.981360093
 31
0.0
  0
LINE
  5
F8
100
AcDbEntity
  8
_Y__________
  6
CONTINUOUS
 62
         7
100
AcDbLine
 10
1524.9786999334
 20
146.8691546422
 30
0.0
 11
1524.9786999334
 21
77.6356742349
 31
0.0
  0
LINE
  5
F9
100
AcDbEntity
  8
_Y__________
  6
CONTINUOUS
 62
         7
100
AcDbLine
 10
1523.7786999334
 20
77.3274144385
 30
0.0
 11
1424.3179293748
 21
91.8322467069
 31
0.0
  0
LINE
  5
FA
100
AcDbEntity
  8
_Y__________
  6
CONTINUOUS
 62
         7
100
AcDbLine
 10
1523.7786999334
 20
147.1774144385
 30
0.0
 11
1424.3179293748
 21
132.6725821702
 31
0.0
  0
LINE
  5
FB
100
AcDbEntity
  8
_Y__________
  6
CENTER
 62
         1
100
AcDbLine
 10
1417.2325573653
 20
112.2524144385
 30
0.0
 11
1491.1537903612
 21
112.2524144385
 31
0.0
  0
LINE
  5
FC
100
AcDbEntity
  8
_Y__________
  6
CENTER
 62
         1
100
AcDbLine
 10
1513.0227673053
 20
112.2524144385
 30
0.0
 11
1542.8786999334
 21
112.2524144385
 31
0.0
  0
LINE
  5
FD
100
AcDbEntity
  8
_Y__________
  6
CONTINUOUS
 62
         7
100
AcDbLine
 10
1523.7786999334
 20
77.3274144385
 30
0.0
 11
1525.7251100949
 21
77.8274144385
 31
0.0
  0
LINE
  5
FE
100
AcDbEntity
  8
_Y__________
  6
CONTINUOUS
 62
         7
100
AcDbLine
 10
1523.7786999334
 20
147.1774144385
 30
0.0
 11
1525.7251100949
 21
146.6774144385
 31
0.0
  0
LINE
  5
FF
100
AcDbEntity
  8
L1_160
  6
CENTER
 62
         1
100
AcDbLine
 10
1869.4604490896
 20
112.2524144385
 30
0.0
 11
1822.2344926776
 21
112.2524144385
 31
0.0
  0
LINE
  5
100
100
AcDbEntity
  8
L1_160
  6
CENTER
 62
         1
100
AcDbLine
 10
1845.8340594905
 20
89.3786651005
 30
0.0
 11
1845.8340594905
 21
133.3999614688
 31
0.0
  0
CIRCLE
  5
101
100
AcDbEntity
  8
L1_160
  6
CONTINUOUS
 62
         7
100
AcDbCircle
 10
1845.8340594905
 20
112.2524144385
 30
0.0
 40
19.05
  0
LINE
  5
102
100
AcDbEntity
  8
L1_160
  6
DASHED
 62
         2
100
AcDbLine
 10
1849.0090594905
 20
120.9824144385
 30
0.0
 11
1849.0090594905
 21
124.5491365628
 31
0.0
  0
LINE
  5
103
100
AcDbEntity
  8
L1_160
  6
DASHED
 62
         2
100
AcDbLine
 10
1842.6590594905
 20
120.9824144385
 30
0.0
 11
1842.6590594905
 21
124.5491365628
 31
0.0
  0
CIRCLE
  5
104
100
AcDbEntity
  8
L1_160
  6
CONTINUOUS
 62
         7
100
AcDbCircle
 10
1845.8340594905
 20
112.2524144385
 30
0.0
 40
12.7
  0
LINE
  5
105
100
AcDbEntity
  8
L1_160
  6
DASHED
 62
         2
100
AcDbLine
 10
1849.0090594905
 20
120.9824144385
 30
0.0
 11
1842.6590594905
 21
120.9824144385
 31
0.0
  0
ARC
  5
106
100
AcDbEntity
  8
L1_160
  6
CONTINUOUS
 62
         4
100
AcDbCircle
 10
1845.8340594905
 20
112.2524144385
 30
0.0
 40
11.379
100
AcDbArc
 50
259.5493817017
 51
540.0
  0
ARC
  5
107
100
AcDbEntity
  8
L1_160
  6
CONTINUOUS
 62
         7
100
AcDbCircle
 10
1659.1606999334
 20
-138.4400166132
 30
0.0
 40
1.0
100
AcDbArc
 50
270.0
 51
360.0
  0
ARC
  5
108
100
AcDbEntity
  8
L1_160
  6
CONTINUOUS
 62
         7
100
AcDbCircle
 10
1659.1606999334
 20
-115.0400166132
 30
0.0
 40
1.0
100
AcDbArc
 50
0.0
 51
90.0
  0
ARC
  5
109
100
AcDbEntity
  8
L1_160
  6
CONTINUOUS
 62
         7
100
AcDbCircle
 10
1627.1606999334
 20
-144.2900166132
 30
0.0
 40
1.5
100
AcDbArc
 50
270.0
 51
360.0
  0
ARC
  5
10A
100
AcDbEntity
  8
L1_160
  6
CONTINUOUS
 62
         7
100
AcDbCircle
 10
1627.1606999334
 20
-109.1900166132
 30
0.0
 40
1.5
100
AcDbArc
 50
0.0
 51
90.0
  0
LINE
  5
10B
100
AcDbEntity
  8
L1_160
  6
CONTINUOUS
 62
         7
100
AcDbLine
 10
1662.1606999334
 20
-137.9170166132
 30
0.0
 11
1663.6606999334
 21
-139.4170166132
 31
0.0
  0
LINE
  5
10C
100
AcDbEntity
  8
L1_160
  6
CONTINUOUS
 62
         7
100
AcDbLine
 10
1660.1606999334
 20
-115.0400166132
 30
0.0
 11
1660.1606999334
 21
-115.5400166132
 31
0.0
  0
ARC
  5
10D
100
AcDbEntity
  8
L1_160
  6
CONTINUOUS
 62
         7
100
AcDbCircle
 10
1680.7786999334
 20
-136.4170166132
 30
0.0
 40
3.0
100
AcDbArc
 50
270.0
 51
360.0
  0
ARC
  5
10E
100
AcDbEntity
  8
L1_160
  6
CONTINUOUS
 62
         7
100
AcDbCircle
 10
1680.7786999334
 20
-117.0630166132
 30
0.0
 40
3.0
100
AcDbArc
 50
0.0
 51
90.0
  0
LINE
  5
10F
100
AcDbEntity
  8
L1_160
  6
CONTINUOUS
 62
         7
100
AcDbLine
 10
1680.7786999334
 20
-139.4170166132
 30
0.0
 11
1663.6606999334
 21
-139.4170166132
 31
0.0
  0
LINE
  5
110
100
AcDbEntity
  8
L1_160
  6
CONTINUOUS
 62
         7
100
AcDbLine
 10
1680.7786999334
 20
-114.0630166132
 30
0.0
 11
1663.6376999334
 21
-114.0630166132
 31
0.0
  0
LINE
  5
111
100
AcDbEntity
  8
L1_160
  6
CONTINUOUS
 62
         7
100
AcDbLine
 10
1660.1606999334
 20
-137.9400166132
 30
0.0
 11
1662.1606999334
 21
-137.9400166132
 31
0.0
  0
LINE
  5
112
100
AcDbEntity
  8
L1_160
  6
CONTINUOUS
 62
         7
100
AcDbLine
 10
1660.1606999334
 20
-115.5400166132
 30
0.0
 11
1662.1606999334
 21
-115.5400166132
 31
0.0
  0
LINE
  5
113
100
AcDbEntity
  8
L1_160
  6
CONTINUOUS
 62
         7
100
AcDbLine
 10
1659.1606999334
 20
-139.4400166132
 30
0.0
 11
1630.6606999334
 21
-139.4400166132
 31
0.0
  0
LINE
  5
114
100
AcDbEntity
  8
L1_160
  6
CONTINUOUS
 62
         7
100
AcDbLine
 10
1659.1606999334
 20
-114.0400166132
 30
0.0
 11
1630.6606999334
 21
-114.0400166132
 31
0.0
  0
LINE
  5
115
100
AcDbEntity
  8
L1_160
  6
CONTINUOUS
 62
         7
100
AcDbLine
 10
1628.6606999334
 20
-144.2900166132
 30
0.0
 11
1628.6606999334
 21
-139.3097552764
 31
0.0
  0
LINE
  5
116
100
AcDbEntity
  8
L1_160
  6
CONTINUOUS
 62
         7
100
AcDbLine
 10
1663.6376999334
 20
-114.0630166132
 30
0.0
 11
1662.1606999334
 21
-115.5400166132
 31
0.0
  0
LINE
  5
117
100
AcDbEntity
  8
L1_160
  6
CONTINUOUS
 62
         7
100
AcDbLine
 10
1683.7786999334
 20
-136.4170166132
 30
0.0
 11
1683.7786999334
 21
-117.0630166132
 31
0.0
  0
LINE
  5
118
100
AcDbEntity
  8
L1_160
  6
CONTINUOUS
 62
         7
100
AcDbLine
 10
1627.1606999334
 20
-107.6900166132
 30
0.0
 11
1561.8306999334
 21
-107.6900166132
 31
0.0
  0
LINE
  5
119
100
AcDbEntity
  8
L1_160
  6
CONTINUOUS
 62
         7
100
AcDbLine
 10
1627.1606999334
 20
-145.7900166132
 30
0.0
 11
1561.8306999334
 21
-145.7900166132
 31
0.0
  0
LINE
  5
11A
100
AcDbEntity
  8
L1_160
  6
CENTER
 62
         1
100
AcDbLine
 10
1686.6642970658
 20
-126.7400166132
 30
0.0
 11
1542.8786999334
 21
-126.7400166132
 31
0.0
  0
INSERT
  5
127
100
AcDbEntity
  8
0
  6
CONTINUOUS
100
AcDbBlockReference
  2
GENDIML2
 10
0.0
 20
0.0
 30
0.0
  0
LINE
  5
128
100
AcDbEntity
  8
L1_160
  6
CONTINUOUS
 62
         4
100
AcDbLine
 10
1683.249164667
 20
-115.3610166132
 30
0.0
 11
1662.3396999334
 21
-115.3610166132
 31
0.0
  0
LINE
  5
129
100
AcDbEntity
  8
L1_160
  6
CONTINUOUS
 62
         4
100
AcDbLine
 10
1683.249164667
 20
-138.1190166132
 30
0.0
 11
1662.3396999334
 21
-138.1190166132
 31
0.0
  0
ARC
  5
12A
100
AcDbEntity
  8
L1_160
  6
CONTINUOUS
 62
         7
100
AcDbCircle
 10
1628.8863710424
 20
-113.8400166132
 30
0.0
 40
0.4
100
AcDbArc
 50
235.6547861732
 51
270.0
  0
ARC
  5
12B
100
AcDbEntity
  8
L1_160
  6
CONTINUOUS
 62
         7
100
AcDbCircle
 10
1630.2071100949
 20
-113.8400166132
 30
0.0
 40
0.4
100
AcDbArc
 50
270.0
 51
300.0
  0
LINE
  5
12C
100
AcDbEntity
  8
L1_160
  6
CONTINUOUS
 62
         7
100
AcDbLine
 10
1630.6606999334
 20
-114.0400166132
 30
0.0
 11
1630.4071100949
 21
-114.1864267747
 31
0.0
  0
ARC
  5
12D
100
AcDbEntity
  8
L1_160
  6
CONTINUOUS
 62
         7
100
AcDbCircle
 10
1628.8863710424
 20
-139.6400166132
 30
0.0
 40
0.4
100
AcDbArc
 50
90.0
 51
124.3452138268
  0
ARC
  5
12E
100
AcDbEntity
  8
L1_160
  6
CONTINUOUS
 62
         7
100
AcDbCircle
 10
1630.2071100949
 20
-139.6400166132
 30
0.0
 40
0.4
100
AcDbArc
 50
60.0
 51
90.0
  0
LINE
  5
12F
100
AcDbEntity
  8
L1_160
  6
CONTINUOUS
 62
         7
100
AcDbLine
 10
1628.8863710424
 20
-139.2400166132
 30
0.0
 11
1630.2071100949
 21
-139.2400166132
 31
0.0
  0
LINE
  5
130
100
AcDbEntity
  8
L1_160
  6
CONTINUOUS
 62
         7
100
AcDbLine
 10
1630.6606999334
 20
-139.4400166132
 30
0.0
 11
1630.4071100949
 21
-139.2936064517
 31
0.0
  0
LINE
  5
131
100
AcDbEntity
  8
L1_160
  6
CONTINUOUS
 62
         7
100
AcDbLine
 10
1628.8863710424
 20
-114.2400166132
 30
0.0
 11
1630.2071100949
 21
-114.2400166132
 31
0.0
  0
LINE
  5
132
100
AcDbEntity
  8
L1_160
  6
CONTINUOUS
 62
         7
100
AcDbLine
 10
1660.1606999334
 20
-137.9400166132
 30
0.0
 11
1660.1606999334
 21
-138.4400166132
 31
0.0
  0
LINE
  5
133
100
AcDbEntity
  8
L1_160
  6
CONTINUOUS
 62
         7
100
AcDbLine
 10
1628.6606999334
 20
-114.17027795
 30
0.0
 11
1628.6606999334
 21
-109.1900166132
 31
0.0
  0
LINE
  5
134
100
AcDbEntity
  8
L1_160
  6
CONTINUOUS
 62
         7
100
AcDbLine
 10
1654.6606999334
 20
-114.0400166132
 30
0.0
 11
1654.6606999334
 21
-118.0100166132
 31
0.0
  0
LINE
  5
135
100
AcDbEntity
  8
L1_160
  6
CONTINUOUS
 62
         7
100
AcDbLine
 10
1654.6606999334
 20
-118.0100166132
 30
0.0
 11
1629.6606999334
 21
-118.0100166132
 31
0.0
  0
LINE
  5
136
100
AcDbEntity
  8
L1_160
  6
CONTINUOUS
 62
         7
100
AcDbLine
 10
1629.6606999334
 20
-118.0100166132
 30
0.0
 11
1629.6606999334
 21
-114.2400166132
 31
0.0
  0
LINE
  5
137
100
AcDbEntity
  8
L1_160
  6
CONTINUOUS
 62
         7
100
AcDbLine
 10
1683.7786999334
 20
-128.9965550273
 30
0.0
 11
1681.6023115585
 21
-127.7400166132
 31
0.0
  0
LINE
  5
138
100
AcDbEntity
  8
L1_160
  6
CONTINUOUS
 62
         7
100
AcDbLine
 10
1683.7786999334
 20
-124.4834781991
 30
0.0
 11
1681.6023115585
 21
-125.7400166132
 31
0.0
  0
LINE
  5
139
100
AcDbEntity
  8
L1_160
  6
CONTINUOUS
 62
         7
100
AcDbLine
 10
1681.6023115585
 20
-125.7400166132
 30
0.0
 11
1681.6023115585
 21
-127.7400166132
 31
0.0
  0
LINE
  5
13A
100
AcDbEntity
  8
L1_160
  6
CONTINUOUS
 62
         7
100
AcDbLine
 10
1680.6560502026
 20
-127.7400166132
 30
0.0
 11
1681.6023115585
 21
-127.7400166132
 31
0.0
  0
LINE
  5
13B
100
AcDbEntity
  8
L1_160
  6
CONTINUOUS
 62
         7
100
AcDbLine
 10
1680.6560502026
 20
-125.7400166132
 30
0.0
 11
1681.6023115585
 21
-125.7400166132
 31
0.0
  0
LINE
  5
13C
100
AcDbEntity
  8
L1_160
  6
CONTINUOUS
 62
         7
100
AcDbLine
 10
1680.6560502026
 20
-125.7400166132
 30
0.0
 11
1680.6560502026
 21
-127.7400166132
 31
0.0
  0
LINE
  5
13D
100
AcDbEntity
  8
L1_160
  6
CONTINUOUS
 62
         7
100
AcDbLine
 10
1680.6560502026
 20
-127.7400166132
 30
0.0
 11
1680.0786999334
 21
-126.7400166132
 31
0.0
  0
LINE
  5
13E
100
AcDbEntity
  8
L1_160
  6
CONTINUOUS
 62
         7
100
AcDbLine
 10
1680.6560502026
 20
-125.7400166132
 30
0.0
 11
1680.0786999334
 21
-126.7400166132
 31
0.0
  0
LINE
  5
13F
100
AcDbEntity
  8
L1_160
  6
CONTINUOUS
 62
         4
100
AcDbLine
 10
1628.8863710424
 20
99.7524144385
 30
0.0
 11
1628.8863710424
 21
124.7524144385
 31
0.0
  0
LINE
  5
140
100
AcDbEntity
  8
L1_160
  6
CONTINUOUS
 62
         4
100
AcDbLine
 10
1630.3142897719
 20
124.7524144385
 30
0.0
 11
1630.3142897719
 21
99.7524144385
 31
0.0
  0
LINE
  5
141
100
AcDbEntity
  8
L1_160
  6
CONTINUOUS
 62
         4
100
AcDbLine
 10
1630.6606999334
 20
124.9524144385
 30
0.0
 11
1630.6606999334
 21
99.5524144385
 31
0.0
  0
LINE
  5
142
100
AcDbEntity
  8
L1_160
  6
CONTINUOUS
 62
         7
100
AcDbLine
 10
1630.6606999334
 20
99.5524144385
 30
0.0
 11
1630.4071100949
 21
99.6988246001
 31
0.0
  0
LINE
  5
143
100
AcDbEntity
  8
L1_160
  6
CONTINUOUS
 62
         7
100
AcDbLine
 10
1628.8863710424
 20
99.7524144385
 30
0.0
 11
1630.2071100949
 21
99.7524144385
 31
0.0
  0
ARC
  5
144
100
AcDbEntity
  8
L1_160
  6
CONTINUOUS
 62
         7
100
AcDbCircle
 10
1630.2071100949
 20
99.3524144385
 30
0.0
 40
0.4
100
AcDbArc
 50
60.0
 51
90.0
  0
ARC
  5
145
100
AcDbEntity
  8
L1_160
  6
CONTINUOUS
 62
         7
100
AcDbCircle
 10
1628.8863710424
 20
99.3524144385
 30
0.0
 40
0.4
100
AcDbArc
 50
90.0
 51
124.3452138268
  0
LINE
  5
146
100
AcDbEntity
  8
L1_160
  6
CONTINUOUS
 62
         7
100
AcDbLine
 10
1628.8863710424
 20
124.7524144385
 30
0.0
 11
1630.2071100949
 21
124.7524144385
 31
0.0
  0
LINE
  5
147
100
AcDbEntity
  8
L1_160
  6
CONTINUOUS
 62
         7
100
AcDbLine
 10
1630.6606999334
 20
124.9524144385
 30
0.0
 11
1630.4071100949
 21
124.806004277
 31
0.0
  0
ARC
  5
148
100
AcDbEntity
  8
L1_160
  6
CONTINUOUS
 62
         7
100
AcDbCircle
 10
1630.2071100949
 20
125.1524144385
 30
0.0
 40
0.4
100
AcDbArc
 50
270.0
 51
300.0
  0
ARC
  5
149
100
AcDbEntity
  8
L1_160
  6
CONTINUOUS
 62
         7
100
AcDbCircle
 10
1628.8863710424
 20
125.1524144385
 30
0.0
 40
0.4
100
AcDbArc
 50
235.6547861732
 51
270.0
  0
LINE
  5
14A
100
AcDbEntity
  8
L1_160
  6
CENTER
 62
         1
100
AcDbLine
 10
1688.6558890175
 20
112.2524144385
 30
0.0
 11
1558.8306999334
 21
112.2524144385
 31
0.0
  0
LINE
  5
14B
100
AcDbEntity
  8
L1_160
  6
CONTINUOUS
 62
         7
100
AcDbLine
 10
1662.1606999334
 20
101.0754144385
 30
0.0
 11
1663.6606999334
 21
99.5754144385
 31
0.0
  0
LINE
  5
14C
100
AcDbEntity
  8
L1_160
  6
CONTINUOUS
 62
         7
100
AcDbLine
 10
1660.1606999334
 20
123.9524144385
 30
0.0
 11
1660.1606999334
 21
100.5524144385
 31
0.0
  0
ARC
  5
14D
100
AcDbEntity
  8
L1_160
  6
CONTINUOUS
 62
         7
100
AcDbCircle
 10
1680.7786999334
 20
102.5754144385
 30
0.0
 40
3.0
100
AcDbArc
 50
270.0
 51
360.0
  0
ARC
  5
14E
100
AcDbEntity
  8
L1_160
  6
CONTINUOUS
 62
         7
100
AcDbCircle
 10
1680.7786999334
 20
121.9294144385
 30
0.0
 40
3.0
100
AcDbArc
 50
0.0
 51
90.0
  0
LINE
  5
14F
100
AcDbEntity
  8
L1_160
  6
CONTINUOUS
 62
         4
100
AcDbLine
 10
1683.249164667
 20
100.8734144385
 30
0.0
 11
1662.3396999334
 21
100.8734144385
 31
0.0
  0
LINE
  5
150
100
AcDbEntity
  8
L1_160
  6
CONTINUOUS
 62
         4
100
AcDbLine
 10
1683.249164667
 20
123.6314144385
 30
0.0
 11
1662.3396999334
 21
123.6314144385
 31
0.0
  0
LINE
  5
151
100
AcDbEntity
  8
L1_160
  6
CONTINUOUS
 62
         7
100
AcDbLine
 10
1680.7786999334
 20
99.5754144385
 30
0.0
 11
1663.6606999334
 21
99.5754144385
 31
0.0
  0
LINE
  5
152
100
AcDbEntity
  8
L1_160
  6
CONTINUOUS
 62
         7
100
AcDbLine
 10
1680.7786999334
 20
124.9294144385
 30
0.0
 11
1663.6376999334
 21
124.9294144385
 31
0.0
  0
LINE
  5
153
100
AcDbEntity
  8
L1_160
  6
CONTINUOUS
 62
         7
100
AcDbLine
 10
1660.1606999334
 20
101.0524144385
 30
0.0
 11
1662.1606999334
 21
101.0524144385
 31
0.0
  0
LINE
  5
154
100
AcDbEntity
  8
L1_160
  6
CONTINUOUS
 62
         7
100
AcDbLine
 10
1660.1606999334
 20
123.4524144385
 30
0.0
 11
1662.1606999334
 21
123.4524144385
 31
0.0
  0
LINE
  5
155
100
AcDbEntity
  8
L1_160
  6
CONTINUOUS
 62
         7
100
AcDbLine
 10
1659.1606999334
 20
99.5524144385
 30
0.0
 11
1630.6606999334
 21
99.5524144385
 31
0.0
  0
LINE
  5
156
100
AcDbEntity
  8
L1_160
  6
CONTINUOUS
 62
         7
100
AcDbLine
 10
1659.1606999334
 20
124.9524144385
 30
0.0
 11
1630.6606999334
 21
124.9524144385
 31
0.0
  0
LINE
  5
157
100
AcDbEntity
  8
L1_160
  6
CONTINUOUS
 62
         7
100
AcDbLine
 10
1627.1606999334
 20
93.2024144385
 30
0.0
 11
1561.8306999334
 21
93.2024144385
 31
0.0
  0
LINE
  5
158
100
AcDbEntity
  8
L1_160
  6
CONTINUOUS
 62
         7
100
AcDbLine
 10
1627.1606999334
 20
131.3024144385
 30
0.0
 11
1561.8306999334
 21
131.3024144385
 31
0.0
  0
LINE
  5
159
100
AcDbEntity
  8
L1_160
  6
CONTINUOUS
 62
         7
100
AcDbLine
 10
1628.6606999334
 20
94.7024144385
 30
0.0
 11
1628.6606999334
 21
129.8024144385
 31
0.0
  0
LINE
  5
15A
100
AcDbEntity
  8
L1_160
  6
CONTINUOUS
 62
         7
100
AcDbLine
 10
1663.6376999334
 20
124.9294144385
 30
0.0
 11
1662.1606999334
 21
123.4524144385
 31
0.0
  0
LINE
  5
15B
100
AcDbEntity
  8
L1_160
  6
CONTINUOUS
 62
         7
100
AcDbLine
 10
1662.1606999334
 20
101.0754144385
 30
0.0
 11
1662.1606999334
 21
123.4524144385
 31
0.0
  0
LINE
  5
15C
100
AcDbEntity
  8
L1_160
  6
CONTINUOUS
 62
         7
100
AcDbLine
 10
1683.7786999334
 20
102.5754144385
 30
0.0
 11
1683.7786999334
 21
121.9294144385
 31
0.0
  0
ARC
  5
15D
100
AcDbEntity
  8
L1_160
  6
CONTINUOUS
 62
         7
100
AcDbCircle
 10
1627.1606999334
 20
129.8024144385
 30
0.0
 40
1.5
100
AcDbArc
 50
0.0
 51
90.0
  0
ARC
  5
15E
100
AcDbEntity
  8
L1_160
  6
CONTINUOUS
 62
         7
100
AcDbCircle
 10
1627.1606999334
 20
94.7024144385
 30
0.0
 40
1.5
100
AcDbArc
 50
270.0
 51
360.0
  0
ARC
  5
15F
100
AcDbEntity
  8
L1_160
  6
CONTINUOUS
 62
         7
100
AcDbCircle
 10
1659.1606999334
 20
123.9524144385
 30
0.0
 40
1.0
100
AcDbArc
 50
0.0
 51
90.0
  0
ARC
  5
160
100
AcDbEntity
  8
L1_160
  6
CONTINUOUS
 62
         7
100
AcDbCircle
 10
1659.1606999334
 20
100.5524144385
 30
0.0
 40
1.0
100
AcDbArc
 50
270.0
 51
360.0
  0
LINE
  5
161
100
AcDbEntity
  8
L1_160
  6
CONTINUOUS
 62
         7
100
AcDbLine
 10
1422.1786999334
 20
130.1987502026
 30
0.0
 11
1422.1786999334
 21
94.3060786745
 31
0.0
  0
LINE
  5
162
100
AcDbEntity
  8
L1_160
  6
CONTINUOUS
 62
         7
100
AcDbLine
 10
1526.9786999334
 20
159.5024144385
 30
0.0
 11
1526.9786999334
 21
65.0024144385
 31
0.0
  0
LINE
  5
163
100
AcDbEntity
  8
L1_160
  6
CENTER
 62
         1
100
AcDbLine
 10
1523.7786999334
 20
151.9774144385
 30
0.0
 11
1523.7786999334
 21
73.981360093
 31
0.0
  0
DIMENSION
  5
167
100
AcDbEntity
  8
L1_160
  6
CONTINUOUS
 62
         4
100
AcDbDimension
  2
*D1
 10
1422.1786999334
 20
222.3002479054
 30
0.0
 11
1543.2930117617
 21
224.9252479054
 31
0.0
  3
DIMSTYLE1
100
AcDbAlignedDimension
 13
1422.1786999334
 23
130.1987502026
 33
0.0
 14
1683.7786999334
 24
112.2524144385
 34
0.0
100
AcDbRotatedDimension
  0
DIMENSION
  5
176
100
AcDbEntity
  8
L1_160
  6
CONTINUOUS
 62
         4
100
AcDbDimension
  2
*D2
 10
1683.7786999334
 20
213.6192312389
 30
0.0
 11
1598.5452265044
 21
216.2442312389
 31
0.0
  3
DIMSTYLE1
100
AcDbAlignedDimension
 13
1683.7786999334
 23
112.2524144385
 33
0.0
 14
1523.7786999334
 24
151.9774144385
 34
0.0
100
AcDbRotatedDimension
  0
ARC
  5
182
100
AcDbEntity
  8
L1_160
  6
CONTINUOUS
 62
         7
100
AcDbCircle
 10
1561.8306999334
 20
134.3024144385
 30
0.0
 40
3.0
100
AcDbArc
 50
180.0
 51
270.0
  0
ARC
  5
183
100
AcDbEntity
  8
L1_160
  6
CONTINUOUS
 62
         7
100
AcDbCircle
 10
1561.8306999334
 20
90.2024144385
 30
0.0
 40
3.0
100
AcDbArc
 50
90.0
 51
180.0
  0
ARC
  5
184
100
AcDbEntity
  8
L1_160
  6
CONTINUOUS
 62
         7
100
AcDbCircle
 10
1561.8306999334
 20
-104.6900166132
 30
0.0
 40
3.0
100
AcDbArc
 50
180.0
 51
270.0
  0
ARC
  5
185
100
AcDbEntity
  8
L1_160
  6
CONTINUOUS
 62
         7
100
AcDbCircle
 10
1561.8306999334
 20
-148.7900166132
 30
0.0
 40
3.0
100
AcDbArc
 50
90.0
 51
180.0
  0
INSERT
  5
1E6
100
AcDbEntity
  8
0
  6
CONTINUOUS
100
AcDbBlockReference
  2
*X3
 10
0.0
 20
0.0
 30
0.0
  0
DIMENSION
  5
1E9
100
AcDbEntity
  8
L1_160
  6
CONTINUOUS
 62
         4
100
AcDbDimension
  2
*D4
 10
1667.3826758943
 20
-65.2272204256
 30
0.0
 11
1664.7576758943
 21
-62.2267557476
 31
0.0
  3
DIMSTYLE1
100
AcDbAlignedDimension
 13
1651.4856999334
 23
-65.2272204256
 33
0.0
 14
1651.4856999334
 24
-71.5772204256
 34
0.0
 50
90.0
100
AcDbRotatedDimension
  0
LINE
  5
1F6
100
AcDbEntity
  8
L1_160
  6
CENTER
 62
         1
100
AcDbLine
 10
1658.8417229475
 20
-68.4022204256
 30
0.0
 11
1625.4806928962
 21
-68.4022204256
 31
0.0
  0
ARC
  5
1F7
100
AcDbEntity
  8
L1_160
  6
CONTINUOUS
 62
         7
100
AcDbCircle
 10
1651.4856999334
 20
-68.4022204256
 30
0.0
 40
3.175
100
AcDbArc
 50
0.0
 51
90.0000000002
  0
ARC
  5
1F8
100
AcDbEntity
  8
L1_160
  6
CONTINUOUS
 62
         7
100
AcDbCircle
 10
1651.4856999334
 20
-68.4022204256
 30
0.0
 40
3.175
100
AcDbArc
 50
270.0
 51
359.9999999998
  0
LINE
  5
1F9
100
AcDbEntity
  8
L1_160
  6
CONTINUOUS
 62
         7
100
AcDbLine
 10
1651.4856999334
 20
-71.5772204256
 30
0.0
 11
1632.8356999334
 21
-71.5772204256
 31
0.0
  0
ARC
  5
1FA
100
AcDbEntity
  8
L1_160
  6
CONTINUOUS
 62
         7
100
AcDbCircle
 10
1632.8356999334
 20
-68.4022204256
 30
0.0
 40
3.175
100
AcDbArc
 50
90.0
 51
180.0
  0
ARC
  5
1FB
100
AcDbEntity
  8
L1_160
  6
CONTINUOUS
 62
         7
100
AcDbCircle
 10
1632.8356999334
 20
-68.4022204256
 30
0.0
 40
3.175
100
AcDbArc
 50
180.0
 51
270.0
  0
LINE
  5
1FC
100
AcDbEntity
  8
L1_160
  6
CONTINUOUS
 62
         7
100
AcDbLine
 10
1651.4856999334
 20
-65.2272204256
 30
0.0
 11
1632.8356999334
 21
-65.2272204256
 31
0.0
  0
LINE
  5
1FD
100
AcDbEntity
  8
L1_160
  6
CENTER
 62
         1
100
AcDbLine
 10
1651.4856999334
 20
-74.8462557819
 30
0.0
 11
1651.4856999334
 21
-63.0232758901
 31
0.0
  0
LINE
  5
1FE
100
AcDbEntity
  8
L1_160
  6
CENTER
 62
         1
100
AcDbLine
 10
1632.8356999334
 20
-74.8462557819
 30
0.0
 11
1632.8356999334
 21
-63.0232758901
 31
0.0
  0
LINE
  5
1FF
100
AcDbEntity
  8
L1_160
  6
CENTER
 62
         1
100
AcDbLine
 10
1632.8356999334
 20
-120.9583983808
 30
0.0
 11
1632.8356999334
 21
-112.7842797777
 31
0.0
  0
LINE
  5
200
100
AcDbEntity
  8
L1_160
  6
CENTER
 62
         1
100
AcDbLine
 10
1651.4856999334
 20
-120.6814485754
 30
0.0
 11
1651.4856999334
 21
-112.9060295877
 31
0.0
  0
TEXT
  5
202
100
AcDbEntity
  8
L1_160
  6
CONTINUOUS
 62
         2
100
AcDbText
 10
1830.4058372732
 20
186.4382511173
 30
0.0
 40
4.5
  1
531586
 41
0.98
  7
BOX
100
AcDbText
  0
ENDSEC
  0
SECTION
  2
OBJECTS
  0
DICTIONARY
  5
19
100
AcDbDictionary
  3
ACAD_GROUP
350
1A
  3
ACAD_MLINESTYLE
350
1B
  0
DICTIONARY
  5
1A
102
{ACAD_REACTORS
330
19
102
}
100
AcDbDictionary
  0
DICTIONARY
  5
1B
102
{ACAD_REACTORS
330
19
102
}
100
AcDbDictionary
  3
STANDARD
350
1C
  0
MLINESTYLE
  5
1C
102
{ACAD_REACTORS
330
1B
102
}
100
AcDbMlineStyle
  2
STANDARD
 70
         0
  3

 62
         0
 51
90.0
 52
90.0
 71
         2
 49
0.5
 62
       256
  6
BYLAYER
 49
-0.5
 62
       256
  6
BYLAYER
  0
ENDSEC
  0
EOF
