  0
SECTION
  2
HEADER
  9
$ACADVER
  1
AC1014
  9
$ACADMAINTVER
 70
         0
  9
$DWGCODEPAGE
  3
BIG5
  9
$INSBASE
 10
0.0
 20
0.0
 30
0.0
  9
$EXTMIN
 10
1029.6249890477
 20
-462.4276713759
 30
0.0
  9
$EXTMAX
 10
1827.326413294
 20
-73.015913915
 30
0.0
  9
$LIMMIN
 10
0.0
 20
0.0
  9
$LIMMAX
 10
0.0
 20
0.0
  9
$ORTHOMODE
 70
         0
  9
$REGENMODE
 70
         1
  9
$FILLMODE
 70
         1
  9
$QTEXTMODE
 70
         0
  9
$MIRRTEXT
 70
         1
  9
$DRAGMODE
 70
         2
  9
$LTSCALE
 40
1.0
  9
$OSMODE
 70
         0
  9
$ATTMODE
 70
         1
  9
$TEXTSIZE
 40
1.7
  9
$TRACEWID
 40
0.05
  9
$TEXTSTYLE
  7
STANDARD
  9
$CLAYER
  8
0
  9
$CELTYPE
  6
CONTINUOUS
  9
$CECOLOR
 62
         1
  9
$CELTSCALE
 40
1.0
  9
$DELOBJ
 70
         1
  9
$DISPSILH
 70
         0
  9
$DIMSCALE
 40
1.0
  9
$DIMASZ
 40
0.18
  9
$DIMEXO
 40
0.0625
  9
$DIMDLI
 40
0.38
  9
$DIMRND
 40
0.0
  9
$DIMDLE
 40
0.0
  9
$DIMEXE
 40
0.25
  9
$DIMTP
 40
0.01
  9
$DIMTM
 40
-0.01
  9
$DIMTXT
 40
2.7
  9
$DIMCEN
 40
0.09
  9
$DIMTSZ
 40
0.0
  9
$DIMTOL
 70
         0
  9
$DIMLIM
 70
         0
  9
$DIMTIH
 70
         1
  9
$DIMTOH
 70
         1
  9
$DIMSE1
 70
         0
  9
$DIMSE2
 70
         0
  9
$DIMTAD
 70
         0
  9
$DIMZIN
 70
         0
  9
$DIMBLK
  1

  9
$DIMASO
 70
         1
  9
$DIMSHO
 70
         1
  9
$DIMPOST
  1

  9
$DIMAPOST
  1

  9
$DIMALT
 70
         0
  9
$DIMALTD
 70
         2
  9
$DIMALTF
 40
25.4
  9
$DIMLFAC
 40
1.0
  9
$DIMTOFL
 70
         0
  9
$DIMTVP
 40
0.0
  9
$DIMTIX
 70
         0
  9
$DIMSOXD
 70
         0
  9
$DIMSAH
 70
         0
  9
$DIMBLK1
  1

  9
$DIMBLK2
  1

  9
$DIMSTYLE
  2
STANDARD
  9
$DIMCLRD
 70
         0
  9
$DIMCLRE
 70
         0
  9
$DIMCLRT
 70
         1
  9
$DIMTFAC
 40
1.0
  9
$DIMGAP
 40
0.09
  9
$DIMJUST
 70
         0
  9
$DIMSD1
 70
         0
  9
$DIMSD2
 70
         0
  9
$DIMTOLJ
 70
         1
  9
$DIMTZIN
 70
         0
  9
$DIMALTZ
 70
         0
  9
$DIMALTTZ
 70
         0
  9
$DIMFIT
 70
         3
  9
$DIMUPT
 70
         0
  9
$DIMUNIT
 70
         2
  9
$DIMDEC
 70
         4
  9
$DIMTDEC
 70
         4
  9
$DIMALTU
 70
         2
  9
$DIMALTTD
 70
         2
  9
$DIMTXSTY
  7
STANDARD
  9
$DIMAUNIT
 70
         0
  9
$LUNITS
 70
         2
  9
$LUPREC
 70
        10
  9
$SKETCHINC
 40
0.1
  9
$FILLETRAD
 40
0.0
  9
$AUNITS
 70
         0
  9
$AUPREC
 70
         0
  9
$MENU
  1
acad
  9
$ELEVATION
 40
0.0
  9
$PELEVATION
 40
0.0
  9
$THICKNESS
 40
0.0
  9
$LIMCHECK
 70
         0
  9
$BLIPMODE
 70
         1
  9
$CHAMFERA
 40
0.0
  9
$CHAMFERB
 40
0.0
  9
$CHAMFERC
 40
0.0
  9
$CHAMFERD
 40
0.0
  9
$SKPOLY
 70
         0
  9
$TDCREATE
 40
0.000000000
  9
$TDUPDATE
 40
0.000000000
  9
$TDINDWG
 40
0.0000000000
  9
$TDUSRTIMER
 40
0.0000000000
  9
$USRTIMER
 70
         1
  9
$ANGBASE
 50
0.0
  9
$ANGDIR
 70
         0
  9
$PDMODE
 70
         2
  9
$PDSIZE
 40
0.0
  9
$PLINEWID
 40
0.0
  9
$COORDS
 70
         0
  9
$SPLFRAME
 70
         0
  9
$SPLINETYPE
 70
         6
  9
$SPLINESEGS
 70
         8
  9
$ATTDIA
 70
         0
  9
$ATTREQ
 70
         1
  9
$HANDLING
 70
         1
  9
$HANDSEED
  5
3AE
  9
$SURFTAB1
 70
         6
  9
$SURFTAB2
 70
         6
  9
$SURFTYPE
 70
         6
  9
$SURFU
 70
         6
  9
$SURFV
 70
         6
  9
$UCSNAME
  2

  9
$UCSORG
 10
0.0
 20
0.0
 30
0.0
  9
$UCSXDIR
 10
1.0
 20
0.0
 30
0.0
  9
$UCSYDIR
 10
0.0
 20
1.0
 30
0.0
  9
$PUCSNAME
  2

  9
$PUCSORG
 10
0.0
 20
0.0
 30
0.0
  9
$PUCSXDIR
 10
1.0
 20
0.0
 30
0.0
  9
$PUCSYDIR
 10
0.0
 20
1.0
 30
0.0
  9
$USERI1
 70
         0
  9
$USERI2
 70
         0
  9
$USERI3
 70
         0
  9
$USERI4
 70
         0
  9
$USERI5
 70
         0
  9
$USERR1
 40
0.0
  9
$USERR2
 40
0.0
  9
$USERR3
 40
0.0
  9
$USERR4
 40
0.0
  9
$USERR5
 40
0.0
  9
$WORLDVIEW
 70
         1
  9
$SHADEDGE
 70
         3
  9
$SHADEDIF
 70
        70
  9
$TILEMODE
 70
         1
  9
$MAXACTVP
 70
        16
  9
$PINSBASE
 10
0.0
 20
0.0
 30
0.0
  9
$PLIMCHECK
 70
         0
  9
$PEXTMIN
 10
1.0000000000E+20
 20
1.0000000000E+20
 30
1.0000000000E+20
  9
$PEXTMAX
 10
-1.0000000000E+20
 20
-1.0000000000E+20
 30
-1.0000000000E+20
  9
$PLIMMIN
 10
0.0
 20
0.0
  9
$PLIMMAX
 10
12.0
 20
9.0
  9
$UNITMODE
 70
         0
  9
$VISRETAIN
 70
         0
  9
$PLINEGEN
 70
         1
  9
$PSLTSCALE
 70
         0
  9
$TREEDEPTH
 70
      3020
  9
$PICKSTYLE
 70
         1
  9
$CMLSTYLE
  2
STANDARD
  9
$CMLJUST
 70
         0
  9
$CMLSCALE
 40
1.0
  9
$PROXYGRAPHICS
 70
         0
  9
$MEASUREMENT
 70
         0
  0
ENDSEC
  0
SECTION
  2
CLASSES
  0
CLASS
  1
LWPOLYLINE
  2
AcDbPolyline
  3
"AutoCAD"
 90
        0
280
         0
281
         1
  0
CLASS
  1
IMAGE
  2
AcDbRasterImage
  3
ISM
 90
      127
280
         0
281
         1
  0
CLASS
  1
OLE2FRAME
  2
AcDbOle2Frame
  3
""
 90
        0
280
         0
281
         1
  0
CLASS
  1
HATCH
  2
AcDbHatch
  3
"ACAD_SEDONA"
 90
        0
280
         0
281
         1
  0
CLASS
  1
DICTIONARYVAR
  2
AcDbDictionaryVar
  3
"AutoCAD"
 90
        0
280
         0
281
         0
  0
CLASS
  1
RASTERVARIABLES
  2
AcDbRasterVariables
  3
ISM
 90
        0
280
         0
281
         0
  0
CLASS
  1
IMAGEDEF
  2
AcDbRasterImageDef
  3
ISM
 90
        0
280
         0
281
         0
  0
CLASS
  1
IMAGEDEF_REACTOR
  2
AcDbRasterImageDefReactor
  3
ISM
 90
        1
280
         0
281
         0
  0
CLASS
  1
IDBUFFER
  2
AcDbIdBuffer
  3
"Acad"
 90
        0
280
         0
281
         0
  0
CLASS
  1
SPATIAL_FILTER
  2
AcDbSpatialFilter
  3
"Acad"
 90
        0
280
         0
281
         0
  0
CLASS
  1
XRECORD
  2
AcDbXrecord
  3
"<Built In>"
 90
        0
280
         0
281
         0
  0
CLASS
  1
SORTENTSTABLE
  2
AcDbSortentsTable
  3
"AutoCAD"
 90
        0
280
         0
281
         0
  0
CLASS
  1
LAYER_INDEX
  2
AcDbLayerIndex
  3
"Acad"
 90
        0
280
         0
281
         0
  0
CLASS
  1
SPATIAL_INDEX
  2
AcDbSpatialIndex
  3
"Acad"
 90
        0
280
         0
281
         0
  0
CLASS
  1
OBJECT_PTR
  2
CAseDLPNTableRecord
  3
"ASE-LPNTableRecord"
 90
        1
280
         0
281
         0
  0
CLASS
  1
LAYOUT
  2
AcDbLayout
  3
"AutoCAD 2000"
 90
        1
280
         0
281
         0
  0
CLASS
  1
PLOTSETTINGS
  2
AcDbPlotSettings
  3
"AutoCAD 2000"
 90
        1
280
         0
281
         0
  0
CLASS
  1
ACDBDICTIONARYWDFLT
  2
AcDbDictionaryWithDefault
  3
"AutoCAD 2000"
 90
        1
280
         0
281
         0
  0
CLASS
  1
ACDBPLACEHOLDER
  2
AcDbPlaceHolder
  3
"AutoCAD 2000"
 90
        1
280
         0
281
         0
  0
CLASS
  1
VBA_PROJECT
  2
AcDbVbaProject
  3
"acadvba"
 90
        1
280
         0
281
         0
  0
CLASS
  1
WIPEOUT
  2
AcDbWipeout
  3
WipeOut|AutoCAD Express Tool|expresstools@autodesk.com
 90
      127
280
         0
281
         1
  0
CLASS
  1
WIPEOUTVARIABLES
  2
AcDbWipeoutVariables
  3
WipeOut|AutoCAD Express Tool|expresstools@autodesk.com
 90
        0
280
         0
281
         0
  0
CLASS
  1
RTEXT
  2
RText
  3
RText|AutoCAD Express Tool|expresstools@autodesk.com
 90
        0
280
         0
281
         1
  0
CLASS
  1
ARCALIGNEDTEXT
  2
AcDbArcAlignedText
  3
ATEXT|AutoCAD Express Tool|expresstools@autodesk.com
 90
        0
280
         0
281
         1
  0
ENDSEC
  0
SECTION
  2
TABLES
  0
TABLE
  2
VPORT
  5
7
100
AcDbSymbolTable
 70
         1
  0
VPORT
  5
15
100
AcDbSymbolTableRecord
100
AcDbViewportTableRecord
  2
*ACTIVE
 70
         0
 10
0.0
 20
0.0
 11
1.0
 21
1.0
 12
1428.4757011709
 22
-267.7217926454
 13
0.0
 23
0.0
 14
1.0
 24
1.0
 15
0.0
 25
0.0
 16
0.0
 26
0.0
 36
1.0
 17
0.0
 27
0.0
 37
0.0
 40
389.4117574609
 41
2.0484780158
 42
50.0
 43
0.0
 44
0.0
 50
0.0
 51
0.0
 71
         0
 72
       100
 73
         1
 74
         1
 75
         0
 76
         0
 77
         0
 78
         0
  0
ENDTAB
  0
TABLE
  2
LTYPE
  5
4
100
AcDbSymbolTable
 70
         6
  0
LTYPE
  5
11
100
AcDbSymbolTableRecord
100
AcDbLinetypeTableRecord
  2
BYBLOCK
 70
        64
  3

 72
        65
 73
         0
 40
0.0
  0
LTYPE
  5
12
100
AcDbSymbolTableRecord
100
AcDbLinetypeTableRecord
  2
BYLAYER
 70
        64
  3

 72
        65
 73
         0
 40
0.0
  0
LTYPE
  5
13
100
AcDbSymbolTableRecord
100
AcDbLinetypeTableRecord
  2
CONTINUOUS
 70
        64
  3
Solid line
 72
        65
 73
         0
 40
0.0
  0
LTYPE
  5
1D
100
AcDbSymbolTableRecord
100
AcDbLinetypeTableRecord
  2
DASHED
 70
        64
  3
_ _ _ _ _ _ _ _ _ _ _ _ _ _ _ _
 72
        65
 73
         2
 40
0.2
 49
0.1
 74
         0
 49
-0.1
 74
         0
  0
LTYPE
  5
1E
100
AcDbSymbolTableRecord
100
AcDbLinetypeTableRecord
  2
CENTER
 70
        64
  3
___ _ ___ _ ___ _ ___ _ ___ _ ___ _ ___ _ ___ _
 72
        65
 73
         4
 40
0.95
 49
0.625
 74
         0
 49
-0.125
 74
         0
 49
0.075
 74
         0
 49
-0.125
 74
         0
  0
LTYPE
  5
1F
100
AcDbSymbolTableRecord
100
AcDbLinetypeTableRecord
  2
PHANTOM
 70
        64
  3
______  __  __  ______  __  __  ______  __  __  
 72
        65
 73
         6
 40
1.025
 49
0.625
 74
         0
 49
-0.125
 74
         0
 49
0.075
 74
         0
 49
-0.125
 74
         0
 49
0.075
 74
         0
 49
-0.125
 74
         0
  0
ENDTAB
  0
TABLE
  2
LAYER
  5
2
100
AcDbSymbolTable
 70
         6
  0
LAYER
  5
14
100
AcDbSymbolTableRecord
100
AcDbLayerTableRecord
  2
0
 70
         0
 62
         7
  6
CONTINUOUS
  0
LAYER
  5
21
100
AcDbSymbolTableRecord
100
AcDbLayerTableRecord
  2
_____U
 70
         1
 62
         7
  6
CONTINUOUS
  0
LAYER
  5
22
100
AcDbSymbolTableRecord
100
AcDbLayerTableRecord
  2
_____T______
 70
         1
 62
         7
  6
CONTINUOUS
  0
LAYER
  5
23
100
AcDbSymbolTableRecord
100
AcDbLayerTableRecord
  2
______L_______
 70
         1
 62
         7
  6
CONTINUOUS
  0
LAYER
  5
24
100
AcDbSymbolTableRecord
100
AcDbLayerTableRecord
  2
L1_120
 70
         0
 62
         7
  6
CONTINUOUS
  0
LAYER
  5
1A2
100
AcDbSymbolTableRecord
100
AcDbLayerTableRecord
  2
DEFPOINTS
 70
         0
 62
        -7
  6
CONTINUOUS
  0
ENDTAB
  0
TABLE
  2
STYLE
  5
3
100
AcDbSymbolTable
 70
        11
  0
STYLE
  5
17
100
AcDbSymbolTableRecord
100
AcDbTextStyleTableRecord
  2
STANDARD
 70
         0
 40
0.0
 41
1.0
 50
0.0
 71
         0
 42
0.0
  3
txt
  4

  0
STYLE
  5
17D
100
AcDbSymbolTableRecord
100
AcDbTextStyleTableRecord
  2
BOX
 70
         0
 40
1.0
 41
1.0
 50
0.0
 71
         0
 42
0.2
  3
txt.shx
  4

  0
STYLE
  5
1AD
100
AcDbSymbolTableRecord
100
AcDbTextStyleTableRecord
  2
BOX
 70
         0
 40
1.0
 41
1.0
 50
0.0
 71
         0
 42
0.2
  3
txt.shx
  4

  0
STYLE
  5
216
100
AcDbSymbolTableRecord
100
AcDbTextStyleTableRecord
  2
BOX
 70
         0
 40
1.0
 41
1.0
 50
0.0
 71
         0
 42
0.2
  3
txt.shx
  4

  0
STYLE
  5
224
100
AcDbSymbolTableRecord
100
AcDbTextStyleTableRecord
  2
BOX
 70
         0
 40
1.0
 41
1.0
 50
0.0
 71
         0
 42
0.2
  3
txt.shx
  4

  0
STYLE
  5
25B
100
AcDbSymbolTableRecord
100
AcDbTextStyleTableRecord
  2
BOX
 70
         0
 40
1.0
 41
1.0
 50
0.0
 71
         0
 42
0.2
  3
txt.shx
  4

  0
STYLE
  5
269
100
AcDbSymbolTableRecord
100
AcDbTextStyleTableRecord
  2
BOX
 70
         0
 40
1.0
 41
1.0
 50
0.0
 71
         0
 42
0.2
  3
txt.shx
  4

  0
STYLE
  5
2AE
100
AcDbSymbolTableRecord
100
AcDbTextStyleTableRecord
  2
BOX
 70
         0
 40
1.0
 41
1.0
 50
0.0
 71
         0
 42
0.2
  3
txt.shx
  4

  0
STYLE
  5
36B
100
AcDbSymbolTableRecord
100
AcDbTextStyleTableRecord
  2
BOX
 70
         0
 40
1.0
 41
1.0
 50
0.0
 71
         0
 42
0.2
  3
txt.shx
  4

  0
STYLE
  5
37D
100
AcDbSymbolTableRecord
100
AcDbTextStyleTableRecord
  2
BOX
 70
         0
 40
1.0
 41
1.0
 50
0.0
 71
         0
 42
0.2
  3
txt.shx
  4

  0
STYLE
  5
398
100
AcDbSymbolTableRecord
100
AcDbTextStyleTableRecord
  2
BOX
 70
         0
 40
1.0
 41
1.0
 50
0.0
 71
         0
 42
0.2
  3
txt.shx
  4

  0
ENDTAB
  0
TABLE
  2
VIEW
  5
5
100
AcDbSymbolTable
 70
         0
  0
ENDTAB
  0
TABLE
  2
UCS
  5
6
100
AcDbSymbolTable
 70
         1
  0
UCS
  5
20
100
AcDbSymbolTableRecord
100
AcDbUCSTableRecord
  2
CK_VIEW_1
 70
         0
 10
0.0
 20
0.0
 30
1.0
 11
1.0
 21
0.0
 31
0.0
 12
0.0
 22
1.0
 32
0.0
  0
ENDTAB
  0
TABLE
  2
APPID
  5
8
100
AcDbSymbolTable
 70
         1
  0
APPID
  5
16
100
AcDbSymbolTableRecord
100
AcDbRegAppTableRecord
  2
ACAD
 70
         0
  0
ENDTAB
  0
TABLE
  2
DIMSTYLE
  5
9
100
AcDbSymbolTable
 70
         2
  0
DIMSTYLE
105
18
100
AcDbSymbolTableRecord
100
AcDbDimStyleTableRecord
  2
STANDARD
 70
         0
  3

  4

  5

  6

  7

 40
1.0
 41
0.18
 42
0.0625
 43
0.38
 44
0.18
 45
0.0
 46
0.0
 47
0.0
 48
0.0
 71
         0
 72
         0
 73
         1
 74
         1
 75
         0
 76
         0
 77
         0
 78
         0
140
0.18
141
0.09
142
0.0
143
25.4
144
1.0
145
0.0
146
1.0
147
0.09
170
         0
171
         2
172
         0
173
         0
174
         0
175
         0
176
         0
177
         0
178
         0
270
         2
271
         4
272
         4
273
         2
274
         2
275
         0
280
         0
281
         0
282
         0
283
         1
284
         0
285
         0
286
         0
287
         0
288
         0
340
17
  0
DIMSTYLE
105
19E
100
AcDbSymbolTableRecord
100
AcDbDimStyleTableRecord
  2
DIMSTYLE1
 70
         0
  3

  4

  5

  6

  7

 40
1.0
 41
2.7
 42
0.0625
 43
0.38
 44
2.7
 45
0.0
 46
0.0
 47
0.0
 48
0.0
 71
         0
 72
         0
 73
         1
 74
         1
 75
         0
 76
         0
 77
         0
 78
         0
140
2.7
141
0.09
142
0.0
143
25.4
144
1.0
145
0.0
146
1.0
147
0.09
170
         0
171
         2
172
         0
173
         0
174
         0
175
         0
176
         0
177
         0
178
         0
270
         2
271
         4
272
         4
273
         2
274
         2
275
         0
280
         0
281
         0
282
         0
283
         1
284
         0
285
         0
286
         0
287
         0
288
         0
340
17
  0
ENDTAB
  0
TABLE
  2
BLOCK_RECORD
  5
1
100
AcDbSymbolTable
 70
        10
  0
BLOCK_RECORD
  5
A
100
AcDbSymbolTableRecord
100
AcDbBlockTableRecord
  2
*MODEL_SPACE
  0
BLOCK_RECORD
  5
B
100
AcDbSymbolTableRecord
100
AcDbBlockTableRecord
  2
*PAPER_SPACE
  0
BLOCK_RECORD
  5
19F
100
AcDbSymbolTableRecord
100
AcDbBlockTableRecord
  2
*D0
  0
BLOCK_RECORD
  5
20B
100
AcDbSymbolTableRecord
100
AcDbBlockTableRecord
  2
*D1
  0
BLOCK_RECORD
  5
219
100
AcDbSymbolTableRecord
100
AcDbBlockTableRecord
  2
*D2
  0
BLOCK_RECORD
  5
250
100
AcDbSymbolTableRecord
100
AcDbBlockTableRecord
  2
*D3
  0
BLOCK_RECORD
  5
25E
100
AcDbSymbolTableRecord
100
AcDbBlockTableRecord
  2
*D4
  0
BLOCK_RECORD
  5
2A3
100
AcDbSymbolTableRecord
100
AcDbBlockTableRecord
  2
*D5
  0
BLOCK_RECORD
  5
2DE
100
AcDbSymbolTableRecord
100
AcDbBlockTableRecord
  2
*X6
  0
BLOCK_RECORD
  5
35E
100
AcDbSymbolTableRecord
100
AcDbBlockTableRecord
  2
*D7
  0
BLOCK_RECORD
  5
370
100
AcDbSymbolTableRecord
100
AcDbBlockTableRecord
  2
*D8
  0
BLOCK_RECORD
  5
38C
100
AcDbSymbolTableRecord
100
AcDbBlockTableRecord
  2
*D9
  0
ENDTAB
  0
ENDSEC
  0
SECTION
  2
BLOCKS
  0
BLOCK
  5
D
100
AcDbEntity
  8
0
100
AcDbBlockBegin
  2
*MODEL_SPACE
 70
         0
 10
0.0
 20
0.0
 30
0.0
  3
*MODEL_SPACE
  1

  0
ENDBLK
  5
E
100
AcDbEntity
  8
0
100
AcDbBlockEnd
  0
BLOCK
  5
F
100
AcDbEntity
 67
         1
  8
0
100
AcDbBlockBegin
  2
*PAPER_SPACE
 70
         0
 10
0.0
 20
0.0
 30
0.0
  3
*PAPER_SPACE
  1

  0
ENDBLK
  5
10
100
AcDbEntity
 67
         1
  8
0
100
AcDbBlockEnd
  0
BLOCK
  5
1A0
100
AcDbEntity
  8
0
100
AcDbBlockBegin
  2
*D0
 70
        65
 10
0.0
 20
0.0
 30
0.0
  3
*D0
  1

  0
POINT
  5
1A3
100
AcDbEntity
  8
DEFPOINTS
  6
CONTINUOUS
 62
         0
100
AcDbPoint
 10
1459.602202381
 20
-209.0386455357
 30
0.0
  0
POINT
  5
1A4
100
AcDbEntity
  8
DEFPOINTS
  6
CONTINUOUS
 62
         0
100
AcDbPoint
 10
1556.3987064707
 20
-209.0386455357
 30
0.0
  0
POINT
  5
1A5
100
AcDbEntity
  8
DEFPOINTS
  6
CONTINUOUS
 62
         0
100
AcDbPoint
 10
1494.9594887089
 20
-209.0386455357
 30
0.0
  0
POINT
  5
1A6
100
AcDbEntity
  8
DEFPOINTS
  6
CONTINUOUS
 62
         0
100
AcDbPoint
 10
1544.7544229482
 20
-212.9575918515
 30
0.0
  0
ARC
  5
1A7
100
AcDbEntity
  8
L1_120
  6
CONTINUOUS
 62
         4
100
AcDbCircle
 10
1494.9594887089
 20
-209.0386455357
 30
0.0
 40
40.2487978161
100
AcDbArc
 50
347.8128832125
 51
355.5
  0
SOLID
  5
1A8
100
AcDbEntity
  8
L1_120
  6
CONTINUOUS
 62
         4
100
AcDbTrace
 10
1535.0842129137
 20
-212.1965298164
 30
0.0
 11
1535.1847028699
 21
-214.9248858725
 31
0.0
 12
1534.3797846647
 22
-214.8342951286
 32
0.0
 13
1535.0842129137
 23
-212.1965298164
 33
0.0
  0
ARC
  5
1A9
100
AcDbEntity
  8
L1_120
  6
CONTINUOUS
 62
         4
100
AcDbCircle
 10
1494.9594887089
 20
-209.0386455357
 30
0.0
 40
40.2487978161
100
AcDbArc
 50
0.0
 51
0.6418700222
  0
SOLID
  5
1AA
100
AcDbEntity
  8
L1_120
  6
CONTINUOUS
 62
         4
100
AcDbTrace
 10
1535.208286525
 20
-209.0386455357
 30
0.0
 11
1534.7129864744
 21
-206.3537427702
 31
0.0
 12
1535.5225310532
 22
-206.3265844419
 32
0.0
 13
1535.208286525
 23
-209.0386455357
 33
0.0
  0
ARC
  5
1AB
100
AcDbEntity
  8
L1_120
  6
CONTINUOUS
 62
         4
100
AcDbCircle
 10
1494.9594887089
 20
-209.0386455357
 30
0.0
 40
40.2487978161
100
AcDbArc
 50
355.5
 51
360.0
  0
SOLID
  5
1AC
100
AcDbEntity
  8
L1_120
  6
CONTINUOUS
 62
         4
100
AcDbTrace
 10
1494.9594887089
 20
-209.0386455357
 30
0.0
 11
1496.0332421513
 21
-206.5284506139
 31
0.0
 12
1496.7224740061
 22
-206.9539614249
 32
0.0
 13
1494.9594887089
 23
-209.0386455357
 33
0.0
  0
TEXT
  5
1AE
100
AcDbEntity
  8
L1_120
  6
CONTINUOUS
 62
         4
100
AcDbText
 10
1536.5557609091
 20
-207.2377579381
 30
0.0
 40
2.7
  1
4.5%%d
  7
BOX
100
AcDbText
  0
ENDBLK
  5
1AF
100
AcDbEntity
  8
0
  6
CONTINUOUS
100
AcDbBlockEnd
  0
BLOCK
  5
20C
100
AcDbEntity
  8
0
100
AcDbBlockBegin
  2
*D1
 70
        65
 10
0.0
 20
0.0
 30
0.0
  3
*D1
  1

  0
POINT
  5
20E
100
AcDbEntity
  8
DEFPOINTS
  6
CONTINUOUS
 62
         0
100
AcDbPoint
 10
1567.7296010824
 20
-209.0386455357
 30
0.0
  0
POINT
  5
20F
100
AcDbEntity
  8
DEFPOINTS
  6
CONTINUOUS
 62
         0
100
AcDbPoint
 10
1494.9594887089
 20
-209.0386455357
 30
0.0
  0
POINT
  5
210
100
AcDbEntity
  8
DEFPOINTS
  6
CONTINUOUS
 62
         0
100
AcDbPoint
 10
1494.9594887089
 20
-241.0426455357
 30
0.0
  0
LINE
  5
211
100
AcDbEntity
  8
L1_120
  6
CONTINUOUS
 62
         4
100
AcDbLine
 10
1496.3094887089
 20
-209.0386455357
 30
0.0
 11
1568.4046010824
 21
-209.0386455357
 31
0.0
  0
LINE
  5
212
100
AcDbEntity
  8
L1_120
  6
CONTINUOUS
 62
         4
100
AcDbLine
 10
1496.3094887089
 20
-241.0426455357
 30
0.0
 11
1568.4046010824
 21
-241.0426455357
 31
0.0
  0
LINE
  5
213
100
AcDbEntity
  8
L1_120
  6
CONTINUOUS
 62
         4
100
AcDbLine
 10
1567.7296010824
 20
-209.0386455357
 30
0.0
 11
1567.7296010824
 21
-241.0426455357
 31
0.0
  0
SOLID
  5
214
100
AcDbEntity
  8
L1_120
  6
CONTINUOUS
 62
         4
100
AcDbTrace
 10
1567.7296010824
 20
-209.0386455357
 30
0.0
 11
1568.1346010824
 21
-211.7386455357
 31
0.0
 12
1567.3246010824
 22
-211.7386455357
 32
0.0
 13
1567.7296010824
 23
-209.0386455357
 33
0.0
  0
SOLID
  5
215
100
AcDbEntity
  8
L1_120
  6
CONTINUOUS
 62
         4
100
AcDbTrace
 10
1567.7296010824
 20
-241.0426455357
 30
0.0
 11
1567.3246010824
 21
-238.3426455357
 31
0.0
 12
1568.1346010824
 22
-238.3426455357
 32
0.0
 13
1567.7296010824
 23
-241.0426455357
 33
0.0
  0
TEXT
  5
217
100
AcDbEntity
  8
L1_120
  6
CONTINUOUS
 62
         4
100
AcDbText
 10
1565.7046010824
 20
-230.361933661
 30
0.0
 40
2.7
  1
崷34
 50
90.0
  7
BOX
100
AcDbText
  0
ENDBLK
  5
218
100
AcDbEntity
  8
0
  6
CONTINUOUS
100
AcDbBlockEnd
  0
BLOCK
  5
21A
100
AcDbEntity
  8
0
100
AcDbBlockBegin
  2
*D2
 70
        65
 10
0.0
 20
0.0
 30
0.0
  3
*D2
  1

  0
POINT
  5
21C
100
AcDbEntity
  8
DEFPOINTS
  6
CONTINUOUS
 62
         0
100
AcDbPoint
 10
1558.770974709
 20
-213.1026455357
 30
0.0
  0
POINT
  5
21D
100
AcDbEntity
  8
DEFPOINTS
  6
CONTINUOUS
 62
         0
100
AcDbPoint
 10
1546.5975047567
 20
-213.1026455357
 30
0.0
  0
POINT
  5
21E
100
AcDbEntity
  8
DEFPOINTS
  6
CONTINUOUS
 62
         0
100
AcDbPoint
 10
1546.5975047567
 20
-236.9786455357
 30
0.0
  0
LINE
  5
21F
100
AcDbEntity
  8
L1_120
  6
CONTINUOUS
 62
         4
100
AcDbLine
 10
1547.9475047567
 20
-213.1026455357
 30
0.0
 11
1559.445974709
 21
-213.1026455357
 31
0.0
  0
LINE
  5
220
100
AcDbEntity
  8
L1_120
  6
CONTINUOUS
 62
         4
100
AcDbLine
 10
1547.9475047567
 20
-236.9786455357
 30
0.0
 11
1559.445974709
 21
-236.9786455357
 31
0.0
  0
LINE
  5
221
100
AcDbEntity
  8
L1_120
  6
CONTINUOUS
 62
         4
100
AcDbLine
 10
1558.770974709
 20
-213.1026455357
 30
0.0
 11
1558.770974709
 21
-236.9786455357
 31
0.0
  0
SOLID
  5
222
100
AcDbEntity
  8
L1_120
  6
CONTINUOUS
 62
         4
100
AcDbTrace
 10
1558.770974709
 20
-213.1026455357
 30
0.0
 11
1559.175974709
 21
-215.8026455357
 31
0.0
 12
1558.365974709
 22
-215.8026455357
 32
0.0
 13
1558.770974709
 23
-213.1026455357
 33
0.0
  0
SOLID
  5
223
100
AcDbEntity
  8
L1_120
  6
CONTINUOUS
 62
         4
100
AcDbTrace
 10
1558.770974709
 20
-236.9786455357
 30
0.0
 11
1558.365974709
 21
-234.2786455357
 31
0.0
 12
1559.175974709
 22
-234.2786455357
 32
0.0
 13
1558.770974709
 23
-236.9786455357
 33
0.0
  0
TEXT
  5
225
100
AcDbEntity
  8
L1_120
  6
CONTINUOUS
 62
         4
100
AcDbText
 10
1556.745974709
 20
-230.8744585986
 30
0.0
 40
2.7
  1
崷27
 50
90.0
  7
BOX
100
AcDbText
  0
ENDBLK
  5
226
100
AcDbEntity
  8
0
  6
CONTINUOUS
100
AcDbBlockEnd
  0
BLOCK
  5
251
100
AcDbEntity
  8
0
100
AcDbBlockBegin
  2
*D3
 70
        65
 10
0.0
 20
0.0
 30
0.0
  3
*D3
  1

  0
POINT
  5
253
100
AcDbEntity
  8
DEFPOINTS
  6
CONTINUOUS
 62
         0
100
AcDbPoint
 10
1386.5775047567
 20
-158.5566544833
 30
0.0
  0
POINT
  5
254
100
AcDbEntity
  8
DEFPOINTS
  6
CONTINUOUS
 62
         0
100
AcDbPoint
 10
1386.5775047567
 20
-202.8156455357
 30
0.0
  0
POINT
  5
255
100
AcDbEntity
  8
DEFPOINTS
  6
CONTINUOUS
 62
         0
100
AcDbPoint
 10
1546.5975047567
 20
-214.0270360273
 30
0.0
  0
LINE
  5
256
100
AcDbEntity
  8
L1_120
  6
CONTINUOUS
 62
         4
100
AcDbLine
 10
1386.5775047567
 20
-201.4656455357
 30
0.0
 11
1386.5775047567
 21
-157.8816544833
 31
0.0
  0
LINE
  5
257
100
AcDbEntity
  8
L1_120
  6
CONTINUOUS
 62
         4
100
AcDbLine
 10
1546.5975047567
 20
-212.6770360273
 30
0.0
 11
1546.5975047567
 21
-157.8816544833
 31
0.0
  0
LINE
  5
258
100
AcDbEntity
  8
L1_120
  6
CONTINUOUS
 62
         4
100
AcDbLine
 10
1386.5775047567
 20
-158.5566544833
 30
0.0
 11
1546.5975047567
 21
-158.5566544833
 31
0.0
  0
SOLID
  5
259
100
AcDbEntity
  8
L1_120
  6
CONTINUOUS
 62
         4
100
AcDbTrace
 10
1386.5775047567
 20
-158.5566544833
 30
0.0
 11
1389.2775047567
 21
-158.1516544833
 31
0.0
 12
1389.2775047567
 22
-158.9616544833
 32
0.0
 13
1386.5775047567
 23
-158.5566544833
 33
0.0
  0
SOLID
  5
25A
100
AcDbEntity
  8
L1_120
  6
CONTINUOUS
 62
         4
100
AcDbTrace
 10
1546.5975047567
 20
-158.5566544833
 30
0.0
 11
1543.8975047567
 21
-158.9616544833
 31
0.0
 12
1543.8975047567
 22
-158.1516544833
 32
0.0
 13
1546.5975047567
 23
-158.5566544833
 33
0.0
  0
TEXT
  5
25C
100
AcDbEntity
  8
L1_120
  6
CONTINUOUS
 62
         4
100
AcDbText
 10
1462.5375047567
 20
-156.5316544833
 30
0.0
 40
2.7
  1
160
  7
BOX
100
AcDbText
  0
ENDBLK
  5
25D
100
AcDbEntity
  8
0
  6
CONTINUOUS
100
AcDbBlockEnd
  0
BLOCK
  5
25F
100
AcDbEntity
  8
0
100
AcDbBlockBegin
  2
*D4
 70
        65
 10
0.0
 20
0.0
 30
0.0
  3
*D4
  1

  0
POINT
  5
261
100
AcDbEntity
  8
DEFPOINTS
  6
CONTINUOUS
 62
         0
100
AcDbPoint
 10
1318.3275047567
 20
-151.1278083532
 30
0.0
  0
POINT
  5
262
100
AcDbEntity
  8
DEFPOINTS
  6
CONTINUOUS
 62
         0
100
AcDbPoint
 10
1318.3275047567
 20
-213.8064638192
 30
0.0
  0
POINT
  5
263
100
AcDbEntity
  8
DEFPOINTS
  6
CONTINUOUS
 62
         0
100
AcDbPoint
 10
1546.5975047567
 20
-214.0270360273
 30
0.0
  0
LINE
  5
264
100
AcDbEntity
  8
L1_120
  6
CONTINUOUS
 62
         4
100
AcDbLine
 10
1318.3275047567
 20
-212.4564638192
 30
0.0
 11
1318.3275047567
 21
-150.4528083532
 31
0.0
  0
LINE
  5
265
100
AcDbEntity
  8
L1_120
  6
CONTINUOUS
 62
         4
100
AcDbLine
 10
1546.5975047567
 20
-212.6770360273
 30
0.0
 11
1546.5975047567
 21
-150.4528083532
 31
0.0
  0
LINE
  5
266
100
AcDbEntity
  8
L1_120
  6
CONTINUOUS
 62
         4
100
AcDbLine
 10
1318.3275047567
 20
-151.1278083532
 30
0.0
 11
1546.5975047567
 21
-151.1278083532
 31
0.0
  0
SOLID
  5
267
100
AcDbEntity
  8
L1_120
  6
CONTINUOUS
 62
         4
100
AcDbTrace
 10
1318.3275047567
 20
-151.1278083532
 30
0.0
 11
1321.0275047567
 21
-150.7228083532
 31
0.0
 12
1321.0275047567
 22
-151.5328083532
 32
0.0
 13
1318.3275047567
 23
-151.1278083532
 33
0.0
  0
SOLID
  5
268
100
AcDbEntity
  8
L1_120
  6
CONTINUOUS
 62
         4
100
AcDbTrace
 10
1546.5975047567
 20
-151.1278083532
 30
0.0
 11
1543.8975047567
 21
-151.5328083532
 31
0.0
 12
1543.8975047567
 22
-150.7228083532
 32
0.0
 13
1546.5975047567
 23
-151.1278083532
 33
0.0
  0
TEXT
  5
26A
100
AcDbEntity
  8
L1_120
  6
CONTINUOUS
 62
         4
100
AcDbText
 10
1416.716076582
 20
-149.1028083532
 30
0.0
 40
2.7
  1
228.27
  7
BOX
100
AcDbText
  0
ENDBLK
  5
26B
100
AcDbEntity
  8
0
  6
CONTINUOUS
100
AcDbBlockEnd
  0
BLOCK
  5
2A4
100
AcDbEntity
  8
0
100
AcDbBlockBegin
  2
*D5
 70
        65
 10
0.0
 20
0.0
 30
0.0
  3
*D5
  1

  0
POINT
  5
2A6
100
AcDbEntity
  8
DEFPOINTS
  6
CONTINUOUS
 62
         0
100
AcDbPoint
 10
1499.5975047567
 20
-371.9217986998
 30
0.0
  0
POINT
  5
2A7
100
AcDbEntity
  8
DEFPOINTS
  6
CONTINUOUS
 62
         0
100
AcDbPoint
 10
1499.5975047567
 20
-343.6686220057
 30
0.0
  0
POINT
  5
2A8
100
AcDbEntity
  8
DEFPOINTS
  6
CONTINUOUS
 62
         0
100
AcDbPoint
 10
1546.5975047567
 20
-348.2578410224
 30
0.0
  0
LINE
  5
2A9
100
AcDbEntity
  8
L1_120
  6
CONTINUOUS
 62
         4
100
AcDbLine
 10
1499.5975047567
 20
-345.0186220057
 30
0.0
 11
1499.5975047567
 21
-372.5967986998
 31
0.0
  0
LINE
  5
2AA
100
AcDbEntity
  8
L1_120
  6
CONTINUOUS
 62
         4
100
AcDbLine
 10
1546.5975047567
 20
-349.6078410224
 30
0.0
 11
1546.5975047567
 21
-372.5967986998
 31
0.0
  0
LINE
  5
2AB
100
AcDbEntity
  8
L1_120
  6
CONTINUOUS
 62
         4
100
AcDbLine
 10
1499.5975047567
 20
-371.9217986998
 30
0.0
 11
1546.5975047567
 21
-371.9217986998
 31
0.0
  0
SOLID
  5
2AC
100
AcDbEntity
  8
L1_120
  6
CONTINUOUS
 62
         4
100
AcDbTrace
 10
1499.5975047567
 20
-371.9217986998
 30
0.0
 11
1502.2975047567
 21
-371.5167986998
 31
0.0
 12
1502.2975047567
 22
-372.3267986998
 32
0.0
 13
1499.5975047567
 23
-371.9217986998
 33
0.0
  0
SOLID
  5
2AD
100
AcDbEntity
  8
L1_120
  6
CONTINUOUS
 62
         4
100
AcDbTrace
 10
1546.5975047567
 20
-371.9217986998
 30
0.0
 11
1543.8975047567
 21
-372.3267986998
 31
0.0
 12
1543.8975047567
 22
-371.5167986998
 32
0.0
 13
1546.5975047567
 23
-371.9217986998
 33
0.0
  0
TEXT
  5
2AF
100
AcDbEntity
  8
L1_120
  6
CONTINUOUS
 62
         4
100
AcDbText
 10
1520.3425579418
 20
-368.7897986998
 30
0.0
 40
2.7
  1
47
  7
BOX
100
AcDbText
  0
ENDBLK
  5
2B0
100
AcDbEntity
  8
0
  6
CONTINUOUS
100
AcDbBlockEnd
  0
BLOCK
  5
2DF
100
AcDbEntity
  8
0
100
AcDbBlockBegin
  2
*X6
 70
        65
 10
0.0
 20
0.0
 30
0.0
  3
*X6
  1

  0
LINE
  5
2E0
100
AcDbEntity
  8
L1_120
  6
CONTINUOUS
 62
         4
100
AcDbLine
 10
1543.4312837162
 20
-350.3558090058
 30
0.0
 11
1546.5975047567
 21
-347.1895879653
 31
0.0
  0
LINE
  5
2E1
100
AcDbEntity
  8
L1_120
  6
CONTINUOUS
 62
         4
100
AcDbLine
 10
1538.8262163688
 20
-350.7182356661
 30
0.0
 11
1545.0413300292
 21
-344.5031220057
 31
0.0
  0
LINE
  5
2E2
100
AcDbEntity
  8
L1_120
  6
CONTINUOUS
 62
         4
100
AcDbLine
 10
1534.2211490214
 20
-351.0806623264
 30
0.0
 11
1540.7986893421
 21
-344.5031220057
 31
0.0
  0
LINE
  5
2E3
100
AcDbEntity
  8
L1_120
  6
CONTINUOUS
 62
         4
100
AcDbLine
 10
1529.616081674
 20
-351.4430889866
 30
0.0
 11
1536.5560486549
 21
-344.5031220057
 31
0.0
  0
LINE
  5
2E4
100
AcDbEntity
  8
L1_120
  6
CONTINUOUS
 62
         4
100
AcDbLine
 10
1525.0110143266
 20
-351.8055156469
 30
0.0
 11
1532.3134079678
 21
-344.5031220057
 31
0.0
  0
LINE
  5
2E5
100
AcDbEntity
  8
L1_120
  6
CONTINUOUS
 62
         4
100
AcDbLine
 10
1544.9824079678
 20
-331.8341220057
 30
0.0
 11
1546.5975047567
 21
-330.2190252168
 31
0.0
  0
LINE
  5
2E6
100
AcDbEntity
  8
L1_120
  6
CONTINUOUS
 62
         4
100
AcDbLine
 10
1520.4059469792
 20
-352.1679423072
 30
0.0
 11
1528.0707672807
 21
-344.5031220057
 31
0.0
  0
LINE
  5
2E7
100
AcDbEntity
  8
L1_120
  6
CONTINUOUS
 62
         4
100
AcDbLine
 10
1540.7397672807
 20
-331.8341220057
 30
0.0
 11
1546.2096342933
 21
-326.3642549932
 31
0.0
  0
LINE
  5
2E8
100
AcDbEntity
  8
L1_120
  6
CONTINUOUS
 62
         4
100
AcDbLine
 10
1515.8008796318
 20
-352.5303689675
 30
0.0
 11
1523.8281265936
 21
-344.5031220057
 31
0.0
  0
LINE
  5
2E9
100
AcDbEntity
  8
L1_120
  6
CONTINUOUS
 62
         4
100
AcDbLine
 10
1536.4971265936
 20
-331.8341220057
 30
0.0
 11
1542.4287172831
 21
-325.9025313162
 31
0.0
  0
LINE
  5
2EA
100
AcDbEntity
  8
L1_120
  6
CONTINUOUS
 62
         4
100
AcDbLine
 10
1511.1958122844
 20
-352.8927956278
 30
0.0
 11
1519.5854859065
 21
-344.5031220057
 31
0.0
  0
LINE
  5
2EB
100
AcDbEntity
  8
L1_120
  6
CONTINUOUS
 62
         4
100
AcDbLine
 10
1532.2544859065
 20
-331.8341220057
 30
0.0
 11
1538.4956182065
 21
-325.5929897057
 31
0.0
  0
LINE
  5
2EC
100
AcDbEntity
  8
L1_120
  6
CONTINUOUS
 62
         4
100
AcDbLine
 10
1506.590744937
 20
-353.2552222881
 30
0.0
 11
1515.3428452193
 21
-344.5031220057
 31
0.0
  0
LINE
  5
2ED
100
AcDbEntity
  8
L1_120
  6
CONTINUOUS
 62
         4
100
AcDbLine
 10
1528.0118452193
 20
-331.8341220057
 30
0.0
 11
1534.5625191298
 21
-325.2834480953
 31
0.0
  0
LINE
  5
2EE
100
AcDbEntity
  8
L1_120
  6
CONTINUOUS
 62
         4
100
AcDbLine
 10
1501.9856775896
 20
-353.6176489483
 30
0.0
 11
1511.1002045322
 21
-344.5031220057
 31
0.0
  0
LINE
  5
2EF
100
AcDbEntity
  8
L1_120
  6
CONTINUOUS
 62
         4
100
AcDbLine
 10
1523.7692045322
 20
-331.8341220057
 30
0.0
 11
1530.6294200531
 21
-324.9739064848
 31
0.0
  0
LINE
  5
2F0
100
AcDbEntity
  8
L1_120
  6
CONTINUOUS
 62
         4
100
AcDbLine
 10
1497.3806102422
 20
-353.9800756086
 30
0.0
 11
1506.1920638451
 21
-345.1686220057
 31
0.0
  0
LINE
  5
2F1
100
AcDbEntity
  8
L1_120
  6
CONTINUOUS
 62
         4
100
AcDbLine
 10
1519.5265638451
 20
-331.8341220057
 30
0.0
 11
1526.6963209764
 21
-324.6643648744
 31
0.0
  0
LINE
  5
2F2
100
AcDbEntity
  8
L1_120
  6
CONTINUOUS
 62
         4
100
AcDbLine
 10
1492.947423158
 20
-354.1706220057
 30
0.0
 11
1501.949423158
 21
-345.1686220057
 31
0.0
  0
LINE
  5
2F3
100
AcDbEntity
  8
L1_120
  6
CONTINUOUS
 62
         4
100
AcDbLine
 10
1515.283923158
 20
-331.8341220057
 30
0.0
 11
1522.7632218998
 21
-324.3548232639
 31
0.0
  0
LINE
  5
2F4
100
AcDbEntity
  8
L1_120
  6
CONTINUOUS
 62
         4
100
AcDbLine
 10
1488.7047824709
 20
-354.1706220057
 30
0.0
 11
1499.5975047567
 21
-343.2778997199
 31
0.0
  0
LINE
  5
2F5
100
AcDbEntity
  8
L1_120
  6
CONTINUOUS
 62
         4
100
AcDbLine
 10
1511.0412824709
 20
-331.8341220057
 30
0.0
 11
1518.8301228231
 21
-324.0452816535
 31
0.0
  0
LINE
  5
2F6
100
AcDbEntity
  8
L1_120
  6
CONTINUOUS
 62
         4
100
AcDbLine
 10
1484.4621417837
 20
-354.1706220057
 30
0.0
 11
1495.9641417838
 21
-342.6686220057
 31
0.0
  0
LINE
  5
2F7
100
AcDbEntity
  8
L1_120
  6
CONTINUOUS
 62
         4
100
AcDbLine
 10
1507.4641417838
 20
-331.1686220057
 30
0.0
 11
1514.8970237464
 21
-323.735740043
 31
0.0
  0
LINE
  5
2F8
100
AcDbEntity
  8
L1_120
  6
CONTINUOUS
 62
         4
100
AcDbLine
 10
1480.2195010966
 20
-354.1706220057
 30
0.0
 11
1491.7215010966
 21
-342.6686220057
 31
0.0
  0
LINE
  5
2F9
100
AcDbEntity
  8
L1_120
  6
CONTINUOUS
 62
         4
100
AcDbLine
 10
1503.2215010966
 20
-331.1686220057
 30
0.0
 11
1510.9639246697
 21
-323.4261984326
 31
0.0
  0
LINE
  5
2FA
100
AcDbEntity
  8
L1_120
  6
CONTINUOUS
 62
         4
100
AcDbLine
 10
1475.9768604095
 20
-354.1706220057
 30
0.0
 11
1487.4788604095
 21
-342.6686220057
 31
0.0
  0
LINE
  5
2FB
100
AcDbEntity
  8
L1_120
  6
CONTINUOUS
 62
         4
100
AcDbLine
 10
1496.4788604095
 20
-333.6686220057
 30
0.0
 11
1507.0308255931
 21
-323.1166568222
 31
0.0
  0
LINE
  5
2FC
100
AcDbEntity
  8
L1_120
  6
CONTINUOUS
 62
         4
100
AcDbLine
 10
1471.7342197224
 20
-354.1706220057
 30
0.0
 11
1483.2362197224
 21
-342.6686220057
 31
0.0
  0
LINE
  5
2FD
100
AcDbEntity
  8
L1_120
  6
CONTINUOUS
 62
         4
100
AcDbLine
 10
1492.2362197224
 20
-333.6686220057
 30
0.0
 11
1503.0977265164
 21
-322.8071152117
 31
0.0
  0
LINE
  5
2FE
100
AcDbEntity
  8
L1_120
  6
CONTINUOUS
 62
         4
100
AcDbLine
 10
1467.4915790353
 20
-354.1706220057
 30
0.0
 11
1478.9935790353
 21
-342.6686220057
 31
0.0
  0
LINE
  5
2FF
100
AcDbEntity
  8
L1_120
  6
CONTINUOUS
 62
         4
100
AcDbLine
 10
1487.9935790353
 20
-333.6686220057
 30
0.0
 11
1499.1646274397
 21
-322.4975736013
 31
0.0
  0
LINE
  5
300
100
AcDbEntity
  8
L1_120
  6
CONTINUOUS
 62
         4
100
AcDbLine
 10
1463.2489383482
 20
-354.1706220057
 30
0.0
 11
1474.7509383482
 21
-342.6686220057
 31
0.0
  0
LINE
  5
301
100
AcDbEntity
  8
L1_120
  6
CONTINUOUS
 62
         4
100
AcDbLine
 10
1483.7509383482
 20
-333.6686220057
 30
0.0
 11
1495.231528363
 21
-322.1880319908
 31
0.0
  0
LINE
  5
302
100
AcDbEntity
  8
L1_120
  6
CONTINUOUS
 62
         4
100
AcDbLine
 10
1459.006297661
 20
-354.1706220057
 30
0.0
 11
1470.508297661
 21
-342.6686220057
 31
0.0
  0
LINE
  5
303
100
AcDbEntity
  8
L1_120
  6
CONTINUOUS
 62
         4
100
AcDbLine
 10
1479.508297661
 20
-333.6686220057
 30
0.0
 11
1491.010297661
 21
-322.1666220057
 31
0.0
  0
LINE
  5
304
100
AcDbEntity
  8
L1_120
  6
CONTINUOUS
 62
         4
100
AcDbLine
 10
1454.7636569739
 20
-354.1706220057
 30
0.0
 11
1466.2656569739
 21
-342.6686220057
 31
0.0
  0
LINE
  5
305
100
AcDbEntity
  8
L1_120
  6
CONTINUOUS
 62
         4
100
AcDbLine
 10
1475.2656569739
 20
-333.6686220057
 30
0.0
 11
1486.7676569739
 21
-322.1666220057
 31
0.0
  0
LINE
  5
306
100
AcDbEntity
  8
L1_120
  6
CONTINUOUS
 62
         4
100
AcDbLine
 10
1450.5210162868
 20
-354.1706220057
 30
0.0
 11
1462.0230162868
 21
-342.6686220057
 31
0.0
  0
LINE
  5
307
100
AcDbEntity
  8
L1_120
  6
CONTINUOUS
 62
         4
100
AcDbLine
 10
1471.0230162868
 20
-333.6686220057
 30
0.0
 11
1482.5250162868
 21
-322.1666220057
 31
0.0
  0
LINE
  5
308
100
AcDbEntity
  8
L1_120
  6
CONTINUOUS
 62
         4
100
AcDbLine
 10
1446.2783755997
 20
-354.1706220057
 30
0.0
 11
1457.7803755997
 21
-342.6686220057
 31
0.0
  0
LINE
  5
309
100
AcDbEntity
  8
L1_120
  6
CONTINUOUS
 62
         4
100
AcDbLine
 10
1466.7803755997
 20
-333.6686220057
 30
0.0
 11
1478.2823755997
 21
-322.1666220057
 31
0.0
  0
LINE
  5
30A
100
AcDbEntity
  8
L1_120
  6
CONTINUOUS
 62
         4
100
AcDbLine
 10
1442.0357349126
 20
-354.1706220057
 30
0.0
 11
1453.5377349126
 21
-342.6686220057
 31
0.0
  0
LINE
  5
30B
100
AcDbEntity
  8
L1_120
  6
CONTINUOUS
 62
         4
100
AcDbLine
 10
1462.5377349126
 20
-333.6686220057
 30
0.0
 11
1474.0397349126
 21
-322.1666220057
 31
0.0
  0
LINE
  5
30C
100
AcDbEntity
  8
L1_120
  6
CONTINUOUS
 62
         4
100
AcDbLine
 10
1437.7930942254
 20
-354.1706220057
 30
0.0
 11
1449.2950942254
 21
-342.6686220057
 31
0.0
  0
LINE
  5
30D
100
AcDbEntity
  8
L1_120
  6
CONTINUOUS
 62
         4
100
AcDbLine
 10
1458.2950942254
 20
-333.6686220057
 30
0.0
 11
1469.7970942254
 21
-322.1666220057
 31
0.0
  0
LINE
  5
30E
100
AcDbEntity
  8
L1_120
  6
CONTINUOUS
 62
         4
100
AcDbLine
 10
1433.5504535383
 20
-354.1706220057
 30
0.0
 11
1445.0524535383
 21
-342.6686220057
 31
0.0
  0
LINE
  5
30F
100
AcDbEntity
  8
L1_120
  6
CONTINUOUS
 62
         4
100
AcDbLine
 10
1454.0524535383
 20
-333.6686220057
 30
0.0
 11
1465.5544535383
 21
-322.1666220057
 31
0.0
  0
LINE
  5
310
100
AcDbEntity
  8
L1_120
  6
CONTINUOUS
 62
         4
100
AcDbLine
 10
1429.3078128512
 20
-354.1706220057
 30
0.0
 11
1440.8098128512
 21
-342.6686220057
 31
0.0
  0
LINE
  5
311
100
AcDbEntity
  8
L1_120
  6
CONTINUOUS
 62
         4
100
AcDbLine
 10
1449.8098128512
 20
-333.6686220057
 30
0.0
 11
1461.3118128512
 21
-322.1666220057
 31
0.0
  0
LINE
  5
312
100
AcDbEntity
  8
L1_120
  6
CONTINUOUS
 62
         4
100
AcDbLine
 10
1425.0651721641
 20
-354.1706220057
 30
0.0
 11
1436.5671721641
 21
-342.6686220057
 31
0.0
  0
LINE
  5
313
100
AcDbEntity
  8
L1_120
  6
CONTINUOUS
 62
         4
100
AcDbLine
 10
1445.5671721641
 20
-333.6686220057
 30
0.0
 11
1457.0691721641
 21
-322.1666220057
 31
0.0
  0
LINE
  5
314
100
AcDbEntity
  8
L1_120
  6
CONTINUOUS
 62
         4
100
AcDbLine
 10
1405.1920956278
 20
-369.8010578548
 30
0.0
 11
1405.5349406059
 21
-369.4582128768
 31
0.0
  0
LINE
  5
315
100
AcDbEntity
  8
L1_120
  6
CONTINUOUS
 62
         4
100
AcDbLine
 10
1420.822531477
 20
-354.1706220057
 30
0.0
 11
1432.324531477
 21
-342.6686220057
 31
0.0
  0
LINE
  5
316
100
AcDbEntity
  8
L1_120
  6
CONTINUOUS
 62
         4
100
AcDbLine
 10
1441.324531477
 20
-333.6686220057
 30
0.0
 11
1452.826531477
 21
-322.1666220057
 31
0.0
  0
LINE
  5
317
100
AcDbEntity
  8
L1_120
  6
CONTINUOUS
 62
         4
100
AcDbLine
 10
1401.0648451413
 20
-369.6856676543
 30
0.0
 11
1405.6775047567
 21
-365.0730080388
 31
0.0
  0
LINE
  5
318
100
AcDbEntity
  8
L1_120
  6
CONTINUOUS
 62
         4
100
AcDbLine
 10
1416.5798907898
 20
-354.1706220057
 30
0.0
 11
1428.0818907898
 21
-342.6686220057
 31
0.0
  0
LINE
  5
319
100
AcDbEntity
  8
L1_120
  6
CONTINUOUS
 62
         4
100
AcDbLine
 10
1437.0818907898
 20
-333.6686220057
 30
0.0
 11
1448.5838907898
 21
-322.1666220057
 31
0.0
  0
LINE
  5
31A
100
AcDbEntity
  8
L1_120
  6
CONTINUOUS
 62
         4
100
AcDbLine
 10
1399.5281578974
 20
-366.979714211
 30
0.0
 11
1405.6775047567
 21
-360.8303673517
 31
0.0
  0
LINE
  5
31B
100
AcDbEntity
  8
L1_120
  6
CONTINUOUS
 62
         4
100
AcDbLine
 10
1415.8973237014
 20
-350.610548407
 30
0.0
 11
1423.8392501027
 21
-342.6686220057
 31
0.0
  0
LINE
  5
31C
100
AcDbEntity
  8
L1_120
  6
CONTINUOUS
 62
         4
100
AcDbLine
 10
1432.8392501027
 20
-333.6686220057
 30
0.0
 11
1444.3412501027
 21
-322.1666220057
 31
0.0
  0
LINE
  5
31D
100
AcDbEntity
  8
L1_120
  6
CONTINUOUS
 62
         4
100
AcDbLine
 10
1392.3216094154
 20
-369.9436220059
 30
0.0
 11
1405.7499605922
 21
-356.5152708291
 31
0.0
  0
LINE
  5
31E
100
AcDbEntity
  8
L1_120
  6
CONTINUOUS
 62
         4
100
AcDbLine
 10
1408.0221535801
 20
-354.2430778412
 30
0.0
 11
1410.7073237014
 21
-351.5579077199
 31
0.0
  0
LINE
  5
31F
100
AcDbEntity
  8
L1_120
  6
CONTINUOUS
 62
         4
100
AcDbLine
 10
1415.3884232362
 20
-346.8768081851
 30
0.0
 11
1419.5966094156
 21
-342.6686220057
 31
0.0
  0
LINE
  5
320
100
AcDbEntity
  8
L1_120
  6
CONTINUOUS
 62
         4
100
AcDbLine
 10
1428.5966094156
 20
-333.6686220057
 30
0.0
 11
1440.0986094156
 21
-322.1666220057
 31
0.0
  0
LINE
  5
321
100
AcDbEntity
  8
L1_120
  6
CONTINUOUS
 62
         4
100
AcDbLine
 10
1389.7775047567
 20
-368.2450859775
 30
0.0
 11
1410.7073237014
 21
-347.3152670328
 31
0.0
  0
LINE
  5
322
100
AcDbEntity
  8
L1_120
  6
CONTINUOUS
 62
         4
100
AcDbLine
 10
1411.04955751
 20
-346.9730332242
 30
0.0
 11
1415.3539687285
 21
-342.6686220057
 31
0.0
  0
LINE
  5
323
100
AcDbEntity
  8
L1_120
  6
CONTINUOUS
 62
         4
100
AcDbLine
 10
1424.3539687285
 20
-333.6686220057
 30
0.0
 11
1435.8559687285
 21
-322.1666220057
 31
0.0
  0
LINE
  5
324
100
AcDbEntity
  8
L1_120
  6
CONTINUOUS
 62
         4
100
AcDbLine
 10
1389.7775047567
 20
-364.0024452904
 30
0.0
 11
1411.1113280414
 21
-342.6686220057
 31
0.0
  0
LINE
  5
325
100
AcDbEntity
  8
L1_120
  6
CONTINUOUS
 62
         4
100
AcDbLine
 10
1420.1113280414
 20
-333.6686220057
 30
0.0
 11
1431.6133280414
 21
-322.1666220057
 31
0.0
  0
LINE
  5
326
100
AcDbEntity
  8
L1_120
  6
CONTINUOUS
 62
         4
100
AcDbLine
 10
1388.9686873542
 20
-360.5686220057
 30
0.0
 11
1406.8686873542
 21
-342.6686220057
 31
0.0
  0
LINE
  5
327
100
AcDbEntity
  8
L1_120
  6
CONTINUOUS
 62
         4
100
AcDbLine
 10
1415.8686873542
 20
-333.6686220057
 30
0.0
 11
1427.3706873542
 21
-322.1666220057
 31
0.0
  0
LINE
  5
328
100
AcDbEntity
  8
L1_120
  6
CONTINUOUS
 62
         4
100
AcDbLine
 10
1385.1144140603
 20
-360.1802546125
 30
0.0
 11
1402.6260466671
 21
-342.6686220057
 31
0.0
  0
LINE
  5
329
100
AcDbEntity
  8
L1_120
  6
CONTINUOUS
 62
         4
100
AcDbLine
 10
1411.6260466671
 20
-333.6686220057
 30
0.0
 11
1423.1280466671
 21
-322.1666220057
 31
0.0
  0
LINE
  5
32A
100
AcDbEntity
  8
L1_120
  6
CONTINUOUS
 62
         4
100
AcDbLine
 10
1381.4117458243
 20
-359.6402821614
 30
0.0
 11
1395.88340598
 21
-345.1686220057
 31
0.0
  0
LINE
  5
32B
100
AcDbEntity
  8
L1_120
  6
CONTINUOUS
 62
         4
100
AcDbLine
 10
1407.38340598
 20
-333.6686220057
 30
0.0
 11
1411.4541979383
 21
-329.5978300474
 31
0.0
  0
LINE
  5
32C
100
AcDbEntity
  8
L1_120
  6
CONTINUOUS
 62
         4
100
AcDbLine
 10
1415.8973237014
 20
-325.1547042843
 30
0.0
 11
1418.88540598
 21
-322.1666220057
 31
0.0
  0
LINE
  5
32D
100
AcDbEntity
  8
L1_120
  6
CONTINUOUS
 62
         4
100
AcDbLine
 10
1377.7090775883
 20
-359.1003097103
 30
0.0
 11
1391.6407652929
 21
-345.1686220057
 31
0.0
  0
LINE
  5
32E
100
AcDbEntity
  8
L1_120
  6
CONTINUOUS
 62
         4
100
AcDbLine
 10
1403.1407652929
 20
-333.6686220057
 30
0.0
 11
1410.7073237014
 21
-326.1020635972
 31
0.0
  0
LINE
  5
32F
100
AcDbEntity
  8
L1_120
  6
CONTINUOUS
 62
         4
100
AcDbLine
 10
1374.0064093523
 20
-358.5603372592
 30
0.0
 11
1387.3981246058
 21
-345.1686220057
 31
0.0
  0
LINE
  5
330
100
AcDbEntity
  8
L1_120
  6
CONTINUOUS
 62
         4
100
AcDbLine
 10
1399.4274957202
 20
-333.1392508913
 30
0.0
 11
1410.4001246058
 21
-322.1666220057
 31
0.0
  0
LINE
  5
331
100
AcDbEntity
  8
L1_120
  6
CONTINUOUS
 62
         4
100
AcDbLine
 10
1370.3037411162
 20
-358.0203648081
 30
0.0
 11
1383.1554839186
 21
-345.1686220057
 31
0.0
  0
LINE
  5
332
100
AcDbEntity
  8
L1_120
  6
CONTINUOUS
 62
         4
100
AcDbLine
 10
1399.4274973707
 20
-328.8966085537
 30
0.0
 11
1406.8097929829
 21
-321.5143129415
 31
0.0
  0
LINE
  5
333
100
AcDbEntity
  8
L1_120
  6
CONTINUOUS
 62
         4
100
AcDbLine
 10
1366.6010728802
 20
-357.4803923571
 30
0.0
 11
1378.9128432315
 21
-345.1686220057
 31
0.0
  0
LINE
  5
334
100
AcDbEntity
  8
L1_120
  6
CONTINUOUS
 62
         4
100
AcDbLine
 10
1392.9128432315
 20
-331.1686220057
 30
0.0
 11
1396.1274977374
 21
-327.9539674998
 31
0.0
  0
LINE
  5
335
100
AcDbEntity
  8
L1_120
  6
CONTINUOUS
 62
         4
100
AcDbLine
 10
1399.4274990212
 20
-324.6539662161
 30
0.0
 11
1405.6775047567
 21
-318.4039604805
 31
0.0
  0
LINE
  5
336
100
AcDbEntity
  8
L1_120
  6
CONTINUOUS
 62
         4
100
AcDbLine
 10
1362.8984046442
 20
-356.940419906
 30
0.0
 11
1374.6702025444
 21
-345.1686220057
 31
0.0
  0
LINE
  5
337
100
AcDbEntity
  8
L1_120
  6
CONTINUOUS
 62
         4
100
AcDbLine
 10
1388.6702025444
 20
-331.1686220057
 30
0.0
 11
1396.1274993879
 21
-323.7113251622
 31
0.0
  0
LINE
  5
338
100
AcDbEntity
  8
L1_120
  6
CONTINUOUS
 62
         4
100
AcDbLine
 10
1399.4275006716
 20
-320.4113238785
 30
0.0
 11
1405.6775047567
 21
-314.1613197934
 31
0.0
  0
LINE
  5
339
100
AcDbEntity
  8
L1_120
  6
CONTINUOUS
 62
         4
100
AcDbLine
 10
1359.1957364081
 20
-356.4004474549
 30
0.0
 11
1370.4275618573
 21
-345.1686220057
 31
0.0
  0
LINE
  5
33A
100
AcDbEntity
  8
L1_120
  6
CONTINUOUS
 62
         4
100
AcDbLine
 10
1384.4275618573
 20
-331.1686220057
 30
0.0
 11
1396.1275010383
 21
-319.4686828247
 31
0.0
  0
LINE
  5
33B
100
AcDbEntity
  8
L1_120
  6
CONTINUOUS
 62
         4
100
AcDbLine
 10
1399.5788582959
 20
-316.0173255671
 30
0.0
 11
1405.6775047567
 21
-309.9186791063
 31
0.0
  0
LINE
  5
33C
100
AcDbEntity
  8
L1_120
  6
CONTINUOUS
 62
         4
100
AcDbLine
 10
1355.4930681721
 20
-355.8604750038
 30
0.0
 11
1366.1849211702
 21
-345.1686220057
 31
0.0
  0
LINE
  5
33D
100
AcDbEntity
  8
L1_120
  6
CONTINUOUS
 62
         4
100
AcDbLine
 10
1380.1849211702
 20
-331.1686220057
 30
0.0
 11
1394.714042299
 21
-316.6395008769
 31
0.0
  0
LINE
  5
33E
100
AcDbEntity
  8
L1_120
  6
CONTINUOUS
 62
         4
100
AcDbLine
 10
1399.7775041087
 20
-311.5760390672
 30
0.0
 11
1404.9280309831
 21
-306.4255121928
 31
0.0
  0
LINE
  5
33F
100
AcDbEntity
  8
L1_120
  6
CONTINUOUS
 62
         4
100
AcDbLine
 10
1351.7903999361
 20
-355.3205025527
 30
0.0
 11
1361.942280483
 21
-345.1686220057
 31
0.0
  0
LINE
  5
340
100
AcDbEntity
  8
L1_120
  6
CONTINUOUS
 62
         4
100
AcDbLine
 10
1375.9422804831
 20
-331.1686220057
 30
0.0
 11
1392.2186759441
 21
-314.8922265446
 31
0.0
  0
LINE
  5
341
100
AcDbEntity
  8
L1_120
  6
CONTINUOUS
 62
         4
100
AcDbLine
 10
1394.5881255862
 20
-312.5227769025
 30
0.0
 11
1395.7775042031
 21
-311.3333982856
 31
0.0
  0
LINE
  5
342
100
AcDbEntity
  8
L1_120
  6
CONTINUOUS
 62
         4
100
AcDbLine
 10
1348.0877317
 20
-354.7805301016
 30
0.0
 11
1357.6996397959
 21
-345.1686220057
 31
0.0
  0
LINE
  5
343
100
AcDbEntity
  8
L1_120
  6
CONTINUOUS
 62
         4
100
AcDbLine
 10
1371.6996397959
 20
-331.1686220057
 30
0.0
 11
1386.9839067539
 21
-315.8843550478
 31
0.0
  0
LINE
  5
344
100
AcDbEntity
  8
L1_120
  6
CONTINUOUS
 62
         4
100
AcDbLine
 10
1392.0927592314
 20
-310.7755025703
 30
0.0
 11
1394.9953200256
 21
-307.8729417761
 31
0.0
  0
LINE
  5
345
100
AcDbEntity
  8
L1_120
  6
CONTINUOUS
 62
         4
100
AcDbLine
 10
1344.385063464
 20
-354.2405576505
 30
0.0
 11
1353.4569991088
 21
-345.1686220057
 31
0.0
  0
LINE
  5
346
100
AcDbEntity
  8
L1_120
  6
CONTINUOUS
 62
         4
100
AcDbLine
 10
1367.4569991088
 20
-331.1686220057
 30
0.0
 11
1382.0169127787
 21
-316.6087083358
 31
0.0
  0
LINE
  5
347
100
AcDbEntity
  8
L1_120
  6
CONTINUOUS
 62
         4
100
AcDbLine
 10
1389.8845988937
 20
-308.7410222208
 30
0.0
 11
1392.231999109
 21
-306.3936220055
 31
0.0
  0
LINE
  5
348
100
AcDbEntity
  8
L1_120
  6
CONTINUOUS
 62
         4
100
AcDbLine
 10
1340.682395228
 20
-353.7005851994
 30
0.0
 11
1349.2143584217
 21
-345.1686220057
 31
0.0
  0
LINE
  5
349
100
AcDbEntity
  8
L1_120
  6
CONTINUOUS
 62
         4
100
AcDbLine
 10
1363.2143584217
 20
-331.1686220057
 30
0.0
 11
1377.0499188035
 21
-317.3330616239
 31
0.0
  0
LINE
  5
34A
100
AcDbEntity
  8
L1_120
  6
CONTINUOUS
 62
         4
100
AcDbLine
 10
1336.9797269919
 20
-353.1606127484
 30
0.0
 11
1344.9717177346
 21
-345.1686220057
 31
0.0
  0
LINE
  5
34B
100
AcDbEntity
  8
L1_120
  6
CONTINUOUS
 62
         4
100
AcDbLine
 10
1358.9717177346
 20
-331.1686220057
 30
0.0
 11
1372.0829248284
 21
-318.0574149119
 31
0.0
  0
LINE
  5
34C
100
AcDbEntity
  8
L1_120
  6
CONTINUOUS
 62
         4
100
AcDbLine
 10
1333.2770587559
 20
-352.6206402973
 30
0.0
 11
1340.7290770475
 21
-345.1686220057
 31
0.0
  0
LINE
  5
34D
100
AcDbEntity
  8
L1_120
  6
CONTINUOUS
 62
         4
100
AcDbLine
 10
1354.7290770475
 20
-331.1686220057
 30
0.0
 11
1367.1159308532
 21
-318.7817682
 31
0.0
  0
LINE
  5
34E
100
AcDbEntity
  8
L1_120
  6
CONTINUOUS
 62
         4
100
AcDbLine
 10
1329.5743905199
 20
-352.0806678462
 30
0.0
 11
1336.4864363603
 21
-345.1686220057
 31
0.0
  0
LINE
  5
34F
100
AcDbEntity
  8
L1_120
  6
CONTINUOUS
 62
         4
100
AcDbLine
 10
1350.4864363603
 20
-331.1686220057
 30
0.0
 11
1362.148936878
 21
-319.506121488
 31
0.0
  0
LINE
  5
350
100
AcDbEntity
  8
L1_120
  6
CONTINUOUS
 62
         4
100
AcDbLine
 10
1325.8717222838
 20
-351.5406953951
 30
0.0
 11
1332.2437956732
 21
-345.1686220057
 31
0.0
  0
LINE
  5
351
100
AcDbEntity
  8
L1_120
  6
CONTINUOUS
 62
         4
100
AcDbLine
 10
1346.2437956732
 20
-331.1686220057
 30
0.0
 11
1357.1819429029
 21
-320.2304747761
 31
0.0
  0
LINE
  5
352
100
AcDbEntity
  8
L1_120
  6
CONTINUOUS
 62
         4
100
AcDbLine
 10
1322.1690540478
 20
-351.000722944
 30
0.0
 11
1328.0011549861
 21
-345.1686220057
 31
0.0
  0
LINE
  5
353
100
AcDbEntity
  8
L1_120
  6
CONTINUOUS
 62
         4
100
AcDbLine
 10
1342.0011549861
 20
-331.1686220057
 30
0.0
 11
1352.2149489277
 21
-320.9548280641
 31
0.0
  0
LINE
  5
354
100
AcDbEntity
  8
L1_120
  6
CONTINUOUS
 62
         4
100
AcDbLine
 10
1318.6773920146
 20
-350.2497442901
 30
0.0
 11
1322.508514299
 21
-346.4186220057
 31
0.0
  0
LINE
  5
355
100
AcDbEntity
  8
L1_120
  6
CONTINUOUS
 62
         4
100
AcDbLine
 10
1337.758514299
 20
-331.1686220057
 30
0.0
 11
1347.2479549525
 21
-321.6791813522
 31
0.0
  0
LINE
  5
356
100
AcDbEntity
  8
L1_120
  6
CONTINUOUS
 62
         4
100
AcDbLine
 10
1333.5158736119
 20
-331.1686220057
 30
0.0
 11
1342.2809609774
 21
-322.4035346402
 31
0.0
  0
LINE
  5
357
100
AcDbEntity
  8
L1_120
  6
CONTINUOUS
 62
         4
100
AcDbLine
 10
1329.2732329247
 20
-331.1686220057
 30
0.0
 11
1337.3139670022
 21
-323.1278879283
 31
0.0
  0
LINE
  5
358
100
AcDbEntity
  8
L1_120
  6
CONTINUOUS
 62
         4
100
AcDbLine
 10
1325.0305922376
 20
-331.1686220057
 30
0.0
 11
1332.346973027
 21
-323.8522412163
 31
0.0
  0
LINE
  5
359
100
AcDbEntity
  8
L1_120
  6
CONTINUOUS
 62
         4
100
AcDbLine
 10
1321.9379515505
 20
-330.0186220057
 30
0.0
 11
1327.3799790519
 21
-324.5765945043
 31
0.0
  0
LINE
  5
35A
100
AcDbEntity
  8
L1_120
  6
CONTINUOUS
 62
         4
100
AcDbLine
 10
1318.3788868853
 20
-329.3350459838
 30
0.0
 11
1322.4129850767
 21
-325.3009477924
 31
0.0
  0
ENDBLK
  5
35B
100
AcDbEntity
  8
0
  6
CONTINUOUS
100
AcDbBlockEnd
  0
BLOCK
  5
35F
100
AcDbEntity
  8
0
100
AcDbBlockBegin
  2
*D7
 70
        65
 10
0.0
 20
0.0
 30
0.0
  3
*D7
  1

  0
POINT
  5
361
100
AcDbEntity
  8
DEFPOINTS
  6
CONTINUOUS
 62
         0
100
AcDbPoint
 10
1566.8488813125
 20
-302.4157710959
 30
0.0
  0
POINT
  5
362
100
AcDbEntity
  8
DEFPOINTS
  6
CONTINUOUS
 62
         0
100
AcDbPoint
 10
1566.8488813125
 20
-306.4383722985
 30
0.0
  0
POINT
  5
363
100
AcDbEntity
  8
DEFPOINTS
  6
CONTINUOUS
 62
         0
100
AcDbPoint
 10
1570.8488813125
 20
-307.1659803065
 30
0.0
  0
LINE
  5
364
100
AcDbEntity
  8
L1_120
  6
CONTINUOUS
 62
         4
100
AcDbLine
 10
1566.8488813125
 20
-305.0883722985
 30
0.0
 11
1566.8488813125
 21
-301.7407710959
 31
0.0
  0
LINE
  5
365
100
AcDbEntity
  8
L1_120
  6
CONTINUOUS
 62
         4
100
AcDbLine
 10
1570.8488813125
 20
-305.8159803065
 30
0.0
 11
1570.8488813125
 21
-301.7407710959
 31
0.0
  0
LINE
  5
366
100
AcDbEntity
  8
L1_120
  6
CONTINUOUS
 62
         4
100
AcDbLine
 10
1566.8488813125
 20
-302.4157710959
 30
0.0
 11
1561.4488813125
 21
-302.4157710959
 31
0.0
  0
SOLID
  5
367
100
AcDbEntity
  8
L1_120
  6
CONTINUOUS
 62
         4
100
AcDbTrace
 10
1566.8488813125
 20
-302.4157710959
 30
0.0
 11
1564.1488813125
 21
-302.8207710959
 31
0.0
 12
1564.1488813125
 22
-302.0107710959
 32
0.0
 13
1566.8488813125
 23
-302.4157710959
 33
0.0
  0
LINE
  5
368
100
AcDbEntity
  8
L1_120
  6
CONTINUOUS
 62
         4
100
AcDbLine
 10
1570.8488813125
 20
-302.4157710959
 30
0.0
 11
1577.6738717874
 21
-302.4157710959
 31
0.0
  0
SOLID
  5
369
100
AcDbEntity
  8
L1_120
  6
CONTINUOUS
 62
         4
100
AcDbTrace
 10
1570.8488813125
 20
-302.4157710959
 30
0.0
 11
1573.5488813125
 21
-302.0107710959
 31
0.0
 12
1573.5488813125
 22
-302.8207710959
 32
0.0
 13
1570.8488813125
 23
-302.4157710959
 33
0.0
  0
LINE
  5
36A
100
AcDbEntity
  8
L1_120
  6
CONTINUOUS
 62
         4
100
AcDbLine
 10
1566.8488813125
 20
-302.4157710959
 30
0.0
 11
1570.8488813125
 21
-302.4157710959
 31
0.0
  0
TEXT
  5
36C
100
AcDbEntity
  8
L1_120
  6
CONTINUOUS
 62
         4
100
AcDbText
 10
1573.6238717874
 20
-300.3907710959
 30
0.0
 40
2.7
  1
4
  7
BOX
100
AcDbText
  0
ENDBLK
  5
36D
100
AcDbEntity
  8
0
  6
CONTINUOUS
100
AcDbBlockEnd
  0
BLOCK
  5
371
100
AcDbEntity
  8
0
100
AcDbBlockBegin
  2
*D8
 70
        65
 10
0.0
 20
0.0
 30
0.0
  3
*D8
  1

  0
POINT
  5
373
100
AcDbEntity
  8
DEFPOINTS
  6
CONTINUOUS
 62
         0
100
AcDbPoint
 10
1545.6973150807
 20
-303.3533185248
 30
0.0
  0
POINT
  5
374
100
AcDbEntity
  8
DEFPOINTS
  6
CONTINUOUS
 62
         0
100
AcDbPoint
 10
1545.6973150807
 20
-308.6093559795
 30
0.0
  0
POINT
  5
375
100
AcDbEntity
  8
DEFPOINTS
  6
CONTINUOUS
 62
         0
100
AcDbPoint
 10
1550.6973150807
 20
-308.6093559795
 30
0.0
  0
LINE
  5
376
100
AcDbEntity
  8
L1_120
  6
CONTINUOUS
 62
         4
100
AcDbLine
 10
1545.6973150807
 20
-307.2593559795
 30
0.0
 11
1545.6973150807
 21
-302.6783185248
 31
0.0
  0
LINE
  5
377
100
AcDbEntity
  8
L1_120
  6
CONTINUOUS
 62
         4
100
AcDbLine
 10
1550.6973150807
 20
-307.2593559795
 30
0.0
 11
1550.6973150807
 21
-302.6783185248
 31
0.0
  0
LINE
  5
378
100
AcDbEntity
  8
L1_120
  6
CONTINUOUS
 62
         4
100
AcDbLine
 10
1545.6973150807
 20
-303.3533185248
 30
0.0
 11
1540.2973150807
 21
-303.3533185248
 31
0.0
  0
SOLID
  5
379
100
AcDbEntity
  8
L1_120
  6
CONTINUOUS
 62
         4
100
AcDbTrace
 10
1545.6973150807
 20
-303.3533185248
 30
0.0
 11
1542.9973150807
 21
-303.7583185248
 31
0.0
 12
1542.9973150807
 22
-302.9483185248
 32
0.0
 13
1545.6973150807
 23
-303.3533185248
 33
0.0
  0
LINE
  5
37A
100
AcDbEntity
  8
L1_120
  6
CONTINUOUS
 62
         4
100
AcDbLine
 10
1550.6973150807
 20
-303.3533185248
 30
0.0
 11
1556.0973150807
 21
-303.3533185248
 31
0.0
  0
SOLID
  5
37B
100
AcDbEntity
  8
L1_120
  6
CONTINUOUS
 62
         4
100
AcDbTrace
 10
1550.6973150807
 20
-303.3533185248
 30
0.0
 11
1553.3973150807
 21
-302.9483185248
 31
0.0
 12
1553.3973150807
 22
-303.7583185248
 32
0.0
 13
1550.6973150807
 23
-303.3533185248
 33
0.0
  0
LINE
  5
37C
100
AcDbEntity
  8
L1_120
  6
CONTINUOUS
 62
         4
100
AcDbLine
 10
1545.6973150807
 20
-303.3533185248
 30
0.0
 11
1550.6973150807
 21
-303.3533185248
 31
0.0
  0
TEXT
  5
37E
100
AcDbEntity
  8
L1_120
  6
CONTINUOUS
 62
         4
100
AcDbText
 10
1546.558058825
 20
-301.3283185248
 30
0.0
 40
2.7
  1
5
  7
BOX
100
AcDbText
  0
ENDBLK
  5
37F
100
AcDbEntity
  8
0
  6
CONTINUOUS
100
AcDbBlockEnd
  0
BLOCK
  5
38D
100
AcDbEntity
  8
0
100
AcDbBlockBegin
  2
*D9
 70
        65
 10
0.0
 20
0.0
 30
0.0
  3
*D9
  1

  0
POINT
  5
38F
100
AcDbEntity
  8
DEFPOINTS
  6
CONTINUOUS
 62
         0
100
AcDbPoint
 10
1599.2850045335
 20
-305.0527316525
 30
0.0
  0
POINT
  5
390
100
AcDbEntity
  8
DEFPOINTS
  6
CONTINUOUS
 62
         0
100
AcDbPoint
 10
1585.3488813125
 20
-305.0527316525
 30
0.0
  0
POINT
  5
391
100
AcDbEntity
  8
DEFPOINTS
  6
CONTINUOUS
 62
         0
100
AcDbPoint
 10
1585.3488813125
 20
-315.0527316525
 30
0.0
  0
LINE
  5
392
100
AcDbEntity
  8
L1_120
  6
CONTINUOUS
 62
         4
100
AcDbLine
 10
1586.6988813125
 20
-305.0527316525
 30
0.0
 11
1599.9600045335
 21
-305.0527316525
 31
0.0
  0
LINE
  5
393
100
AcDbEntity
  8
L1_120
  6
CONTINUOUS
 62
         4
100
AcDbLine
 10
1586.6988813125
 20
-315.0527316525
 30
0.0
 11
1599.9600045335
 21
-315.0527316525
 31
0.0
  0
LINE
  5
394
100
AcDbEntity
  8
L1_120
  6
CONTINUOUS
 62
         4
100
AcDbLine
 10
1599.2850045335
 20
-305.0527316525
 30
0.0
 11
1599.2850045335
 21
-315.0527316525
 31
0.0
  0
SOLID
  5
395
100
AcDbEntity
  8
L1_120
  6
CONTINUOUS
 62
         4
100
AcDbTrace
 10
1599.2850045335
 20
-305.0527316525
 30
0.0
 11
1599.6900045335
 21
-307.7527316525
 31
0.0
 12
1598.8800045335
 22
-307.7527316525
 32
0.0
 13
1599.2850045335
 23
-305.0527316525
 33
0.0
  0
LINE
  5
396
100
AcDbEntity
  8
L1_120
  6
CONTINUOUS
 62
         4
100
AcDbLine
 10
1599.2850045335
 20
-305.0527316525
 30
0.0
 11
1599.2850045335
 21
-285.7325986706
 31
0.0
  0
SOLID
  5
397
100
AcDbEntity
  8
L1_120
  6
CONTINUOUS
 62
         4
100
AcDbTrace
 10
1599.2850045335
 20
-315.0527316525
 30
0.0
 11
1598.8800045335
 21
-312.3527316525
 31
0.0
 12
1599.6900045335
 22
-312.3527316525
 32
0.0
 13
1599.2850045335
 23
-315.0527316525
 33
0.0
  0
TEXT
  5
399
100
AcDbEntity
  8
L1_120
  6
CONTINUOUS
 62
         4
100
AcDbText
 10
1597.2600045335
 20
-303.2825986706
 30
0.0
 40
2.7
  1
M10xP1
 50
90.0
  7
BOX
100
AcDbText
  0
ENDBLK
  5
39A
100
AcDbEntity
  8
0
  6
CONTINUOUS
100
AcDbBlockEnd
  0
ENDSEC
  0
SECTION
  2
ENTITIES
  0
CIRCLE
  5
25
100
AcDbEntity
  8
L1_120
  6
CONTINUOUS
 62
         7
100
AcDbCircle
 10
1397.6775047567
 20
-238.244533239
 30
0.0
 40
1.875
  0
CIRCLE
  5
26
100
AcDbEntity
  8
L1_120
  6
CONTINUOUS
 62
         7
100
AcDbCircle
 10
1397.6775047567
 20
-211.8367578323
 30
0.0
 40
1.875
  0
CIRCLE
  5
27
100
AcDbEntity
  8
L1_120
  6
CONTINUOUS
 62
         7
100
AcDbCircle
 10
1397.6775047567
 20
-225.0406455357
 30
0.0
 40
5.0
  0
LINE
  5
28
100
AcDbEntity
  8
L1_120
  6
CONTINUOUS
 62
         7
100
AcDbLine
 10
1405.1775047567
 20
-193.2656455357
 30
0.0
 11
1405.6775047567
 21
-193.7656455357
 31
0.0
  0
LINE
  5
29
100
AcDbEntity
  8
L1_120
  6
CONTINUOUS
 62
         7
100
AcDbLine
 10
1390.2775047567
 20
-193.2656455357
 30
0.0
 11
1389.7775047567
 21
-193.7656455357
 31
0.0
  0
LINE
  5
2A
100
AcDbEntity
  8
L1_120
  6
CONTINUOUS
 62
         7
100
AcDbLine
 10
1405.6775047567
 20
-193.7656455357
 30
0.0
 11
1405.6775047567
 21
-195.2656455357
 31
0.0
  0
LINE
  5
2B
100
AcDbEntity
  8
L1_120
  6
CONTINUOUS
 62
         7
100
AcDbLine
 10
1403.6775047567
 20
-193.2656455357
 30
0.0
 11
1405.1775047567
 21
-193.2656455357
 31
0.0
  0
LINE
  5
2C
100
AcDbEntity
  8
L1_120
  6
CONTINUOUS
 62
         7
100
AcDbLine
 10
1389.7775047567
 20
-193.7656455357
 30
0.0
 11
1389.7775047567
 21
-195.2656455357
 31
0.0
  0
LINE
  5
2D
100
AcDbEntity
  8
L1_120
  6
CONTINUOUS
 62
         7
100
AcDbLine
 10
1390.2775047567
 20
-193.2656455357
 30
0.0
 11
1391.7775047567
 21
-193.2656455357
 31
0.0
  0
LINE
  5
2E
100
AcDbEntity
  8
L1_120
  6
CONTINUOUS
 62
         7
100
AcDbLine
 10
1405.6775047567
 20
-254.8156455357
 30
0.0
 11
1405.6775047567
 21
-256.3156455357
 31
0.0
  0
LINE
  5
2F
100
AcDbEntity
  8
L1_120
  6
CONTINUOUS
 62
         7
100
AcDbLine
 10
1389.7775047567
 20
-254.8156455357
 30
0.0
 11
1389.7775047567
 21
-256.3156455357
 31
0.0
  0
LINE
  5
30
100
AcDbEntity
  8
L1_120
  6
CONTINUOUS
 62
         7
100
AcDbLine
 10
1403.6775047567
 20
-256.8156455357
 30
0.0
 11
1405.1775047567
 21
-256.8156455357
 31
0.0
  0
LINE
  5
31
100
AcDbEntity
  8
L1_120
  6
CONTINUOUS
 62
         7
100
AcDbLine
 10
1390.2775047567
 20
-256.8156455357
 30
0.0
 11
1391.7775047567
 21
-256.8156455357
 31
0.0
  0
LINE
  5
32
100
AcDbEntity
  8
L1_120
  6
CONTINUOUS
 62
         7
100
AcDbLine
 10
1405.6775047567
 20
-256.3156455357
 30
0.0
 11
1405.1775047567
 21
-256.8156455357
 31
0.0
  0
LINE
  5
33
100
AcDbEntity
  8
L1_120
  6
CONTINUOUS
 62
         7
100
AcDbLine
 10
1389.7775047567
 20
-256.3156455357
 30
0.0
 11
1390.2775047567
 21
-256.8156455357
 31
0.0
  0
LINE
  5
34
100
AcDbEntity
  8
L1_120
  6
CONTINUOUS
 62
         7
100
AcDbLine
 10
1387.7775047567
 20
-247.4406455357
 30
0.0
 11
1387.7775047567
 21
-202.6406455357
 31
0.0
  0
ARC
  5
35
100
AcDbEntity
  8
L1_120
  6
CONTINUOUS
 62
         7
100
AcDbCircle
 10
1398.578704425
 20
-195.9156455357
 30
0.0
 40
1.0
100
AcDbArc
 50
270.0
 51
346.8556743105
  0
ARC
  5
36
100
AcDbEntity
  8
L1_120
  6
CONTINUOUS
 62
         7
100
AcDbCircle
 10
1396.7763050885
 20
-195.9156455357
 30
0.0
 40
1.0
100
AcDbArc
 50
193.1443256895
 51
270.0
  0
LINE
  5
37
100
AcDbEntity
  8
L1_120
  6
CONTINUOUS
 62
         7
100
AcDbLine
 10
1396.7763050885
 20
-196.9156455357
 30
0.0
 11
1398.578704425
 21
-196.9156455357
 31
0.0
  0
LINE
  5
38
100
AcDbEntity
  8
L1_120
  6
CONTINUOUS
 62
         7
100
AcDbLine
 10
1401.2137751555
 20
-193.2656455357
 30
0.0
 11
1404.6775047567
 21
-193.2656455357
 31
0.0
  0
LINE
  5
39
100
AcDbEntity
  8
L1_120
  6
CONTINUOUS
 62
         7
100
AcDbLine
 10
1399.5525047567
 20
-196.1430502715
 30
0.0
 11
1401.2137751555
 21
-193.2656455357
 31
0.0
  0
LINE
  5
3A
100
AcDbEntity
  8
L1_120
  6
CONTINUOUS
 62
         7
100
AcDbLine
 10
1401.2137751555
 20
-256.8156455357
 30
0.0
 11
1404.6775047567
 21
-256.8156455357
 31
0.0
  0
ARC
  5
3B
100
AcDbEntity
  8
L1_120
  6
CONTINUOUS
 62
         7
100
AcDbCircle
 10
1398.578704425
 20
-254.1656455357
 30
0.0
 40
1.0
100
AcDbArc
 50
13.1443256895
 51
90.0
  0
LINE
  5
3C
100
AcDbEntity
  8
L1_120
  6
CONTINUOUS
 62
         7
100
AcDbLine
 10
1399.5525047567
 20
-253.9382407998
 30
0.0
 11
1401.2137751555
 21
-256.8156455357
 31
0.0
  0
ARC
  5
3D
100
AcDbEntity
  8
L1_120
  6
CONTINUOUS
 62
         7
100
AcDbCircle
 10
1396.7763050885
 20
-254.1656455357
 30
0.0
 40
1.0
100
AcDbArc
 50
90.0
 51
166.8556743105
  0
LINE
  5
3E
100
AcDbEntity
  8
L1_120
  6
CONTINUOUS
 62
         7
100
AcDbLine
 10
1396.7763050885
 20
-253.1656455357
 30
0.0
 11
1398.578704425
 21
-253.1656455357
 31
0.0
  0
LINE
  5
3F
100
AcDbEntity
  8
L1_120
  6
CONTINUOUS
 62
         7
100
AcDbLine
 10
1405.6775047567
 20
-194.2656455357
 30
0.0
 11
1405.6775047567
 21
-206.0406455357
 31
0.0
  0
LINE
  5
40
100
AcDbEntity
  8
L1_120
  6
CONTINUOUS
 62
         7
100
AcDbLine
 10
1405.6775047567
 20
-194.2656455357
 30
0.0
 11
1405.6775047567
 21
-255.8156455357
 31
0.0
  0
LINE
  5
41
100
AcDbEntity
  8
L1_120
  6
CONTINUOUS
 62
         7
100
AcDbLine
 10
1390.7775047567
 20
-193.2656455357
 30
0.0
 11
1394.1412343579
 21
-193.2656455357
 31
0.0
  0
LINE
  5
42
100
AcDbEntity
  8
L1_120
  6
CONTINUOUS
 62
         7
100
AcDbLine
 10
1390.7775047567
 20
-256.8156455357
 30
0.0
 11
1394.1412343579
 21
-256.8156455357
 31
0.0
  0
LINE
  5
43
100
AcDbEntity
  8
L1_120
  6
CENTER
 62
         1
100
AcDbLine
 10
1386.5775047567
 20
-202.8156455357
 30
0.0
 11
1386.5775047567
 21
-247.2656455357
 31
0.0
  0
LINE
  5
44
100
AcDbEntity
  8
L1_120
  6
CONTINUOUS
 62
         7
100
AcDbLine
 10
1389.7775047567
 20
-194.2656455357
 30
0.0
 11
1389.7775047567
 21
-255.8156455357
 31
0.0
  0
LINE
  5
45
100
AcDbEntity
  8
L1_120
  6
CONTINUOUS
 62
         7
100
AcDbLine
 10
1395.8025047567
 20
-253.9382407998
 30
0.0
 11
1394.1412343579
 21
-256.8156455357
 31
0.0
  0
LINE
  5
46
100
AcDbEntity
  8
L1_120
  6
CONTINUOUS
 62
         7
100
AcDbLine
 10
1395.8025047567
 20
-196.1430502715
 30
0.0
 11
1394.1412343579
 21
-193.2656455357
 31
0.0
  0
LINE
  5
47
100
AcDbEntity
  8
L1_120
  6
CONTINUOUS
 62
         7
100
AcDbLine
 10
1394.1412343579
 20
-193.2656455357
 30
0.0
 11
1394.1412343579
 21
-216.1906455357
 31
0.0
  0
LINE
  5
48
100
AcDbEntity
  8
L1_120
  6
CONTINUOUS
 62
         7
100
AcDbLine
 10
1395.8025047567
 20
-196.1430502715
 30
0.0
 11
1395.8025047567
 21
-216.9906455357
 31
0.0
  0
LINE
  5
49
100
AcDbEntity
  8
L1_120
  6
CONTINUOUS
 62
         7
100
AcDbLine
 10
1399.5525047567
 20
-196.1430502715
 30
0.0
 11
1399.5525047567
 21
-216.9906455357
 31
0.0
  0
LINE
  5
4A
100
AcDbEntity
  8
L1_120
  6
CONTINUOUS
 62
         7
100
AcDbLine
 10
1401.2137751555
 20
-193.2656455357
 30
0.0
 11
1401.2137751555
 21
-216.1906455357
 31
0.0
  0
LINE
  5
4B
100
AcDbEntity
  8
L1_120
  6
CONTINUOUS
 62
         7
100
AcDbLine
 10
1404.8775047567
 20
-216.9906455357
 30
0.0
 11
1390.5775047567
 21
-216.9906455357
 31
0.0
  0
LINE
  5
4C
100
AcDbEntity
  8
L1_120
  6
CONTINUOUS
 62
         7
100
AcDbLine
 10
1404.8775047567
 20
-233.0906455357
 30
0.0
 11
1390.5775047567
 21
-233.0906455357
 31
0.0
  0
LINE
  5
4D
100
AcDbEntity
  8
L1_120
  6
CONTINUOUS
 62
         7
100
AcDbLine
 10
1394.1412343579
 20
-216.1906455357
 30
0.0
 11
1395.8025047567
 21
-216.9906455357
 31
0.0
  0
LINE
  5
4E
100
AcDbEntity
  8
L1_120
  6
CONTINUOUS
 62
         7
100
AcDbLine
 10
1394.1412343579
 20
-233.8906455357
 30
0.0
 11
1395.8025047567
 21
-233.0906455357
 31
0.0
  0
LINE
  5
4F
100
AcDbEntity
  8
L1_120
  6
CONTINUOUS
 62
         7
100
AcDbLine
 10
1390.5775047567
 20
-216.9906455357
 30
0.0
 11
1390.5775047567
 21
-233.0906455357
 31
0.0
  0
LINE
  5
50
100
AcDbEntity
  8
L1_120
  6
CONTINUOUS
 62
         7
100
AcDbLine
 10
1394.1412343579
 20
-233.8906455357
 30
0.0
 11
1389.7775047567
 21
-233.8906455357
 31
0.0
  0
LINE
  5
51
100
AcDbEntity
  8
L1_120
  6
CONTINUOUS
 62
         7
100
AcDbLine
 10
1390.5775047567
 20
-233.0906455357
 30
0.0
 11
1389.7775047567
 21
-233.8906455357
 31
0.0
  0
LINE
  5
52
100
AcDbEntity
  8
L1_120
  6
CONTINUOUS
 62
         7
100
AcDbLine
 10
1389.7775047567
 20
-216.1906455357
 30
0.0
 11
1390.5775047567
 21
-216.9906455357
 31
0.0
  0
LINE
  5
53
100
AcDbEntity
  8
L1_120
  6
CONTINUOUS
 62
         7
100
AcDbLine
 10
1394.1412343579
 20
-216.1906455357
 30
0.0
 11
1389.7775047567
 21
-216.1906455357
 31
0.0
  0
LINE
  5
54
100
AcDbEntity
  8
L1_120
  6
CONTINUOUS
 62
         7
100
AcDbLine
 10
1405.6775047567
 20
-233.8906455357
 30
0.0
 11
1401.2137751555
 21
-233.8906455357
 31
0.0
  0
LINE
  5
55
100
AcDbEntity
  8
L1_120
  6
CONTINUOUS
 62
         7
100
AcDbLine
 10
1399.5525047567
 20
-233.0906455357
 30
0.0
 11
1401.2137751555
 21
-233.8906455357
 31
0.0
  0
LINE
  5
56
100
AcDbEntity
  8
L1_120
  6
CONTINUOUS
 62
         7
100
AcDbLine
 10
1399.5525047567
 20
-216.9906455357
 30
0.0
 11
1401.2137751555
 21
-216.1906455357
 31
0.0
  0
LINE
  5
57
100
AcDbEntity
  8
L1_120
  6
CONTINUOUS
 62
         7
100
AcDbLine
 10
1405.6775047567
 20
-216.1906455357
 30
0.0
 11
1401.2137751555
 21
-216.1906455357
 31
0.0
  0
LINE
  5
58
100
AcDbEntity
  8
L1_120
  6
CONTINUOUS
 62
         7
100
AcDbLine
 10
1394.1412343579
 20
-233.8906455357
 30
0.0
 11
1394.1412343579
 21
-256.8156455357
 31
0.0
  0
LINE
  5
59
100
AcDbEntity
  8
L1_120
  6
CONTINUOUS
 62
         7
100
AcDbLine
 10
1395.8025047567
 20
-233.0906455357
 30
0.0
 11
1395.8025047567
 21
-253.9382407998
 31
0.0
  0
LINE
  5
5A
100
AcDbEntity
  8
L1_120
  6
CONTINUOUS
 62
         7
100
AcDbLine
 10
1399.5525047567
 20
-233.0906455357
 30
0.0
 11
1399.5525047567
 21
-253.9382407999
 31
0.0
  0
LINE
  5
5B
100
AcDbEntity
  8
L1_120
  6
CONTINUOUS
 62
         7
100
AcDbLine
 10
1401.2137751555
 20
-233.8906455357
 30
0.0
 11
1401.2137751555
 21
-256.8156455357
 31
0.0
  0
LINE
  5
5C
100
AcDbEntity
  8
L1_120
  6
CONTINUOUS
 62
         4
100
AcDbLine
 10
1390.2775047567
 20
-216.1906455357
 30
0.0
 11
1390.2775047567
 21
-193.2656455357
 31
0.0
  0
LINE
  5
5D
100
AcDbEntity
  8
L1_120
  6
CONTINUOUS
 62
         4
100
AcDbLine
 10
1405.1775047567
 20
-216.1906455357
 30
0.0
 11
1405.1775047567
 21
-193.2656455357
 31
0.0
  0
LINE
  5
5E
100
AcDbEntity
  8
L1_120
  6
CONTINUOUS
 62
         4
100
AcDbLine
 10
1390.2775047567
 20
-256.8156455357
 30
0.0
 11
1390.2775047567
 21
-233.8906455357
 31
0.0
  0
LINE
  5
5F
100
AcDbEntity
  8
L1_120
  6
CONTINUOUS
 62
         4
100
AcDbLine
 10
1405.1775047567
 20
-256.8156455357
 30
0.0
 11
1405.1775047567
 21
-233.8906455357
 31
0.0
  0
LINE
  5
60
100
AcDbEntity
  8
L1_120
  6
CONTINUOUS
 62
         7
100
AcDbLine
 10
1388.9775047567
 20
-247.4406455357
 30
0.0
 11
1387.7775047567
 21
-247.4406455357
 31
0.0
  0
ARC
  5
61
100
AcDbEntity
  8
L1_120
  6
CONTINUOUS
 62
         7
100
AcDbCircle
 10
1388.9775047567
 20
-248.2406455357
 30
0.0
 40
0.8
100
AcDbArc
 50
0.0
 51
90.0000000001
  0
ARC
  5
62
100
AcDbEntity
  8
L1_120
  6
CONTINUOUS
 62
         7
100
AcDbCircle
 10
1388.9775047567
 20
-201.8406455357
 30
0.0
 40
0.8
100
AcDbArc
 50
269.9999999999
 51
360.0
  0
LINE
  5
63
100
AcDbEntity
  8
L1_120
  6
CONTINUOUS
 62
         7
100
AcDbLine
 10
1388.9775047567
 20
-202.6406455357
 30
0.0
 11
1387.7775047567
 21
-202.6406455357
 31
0.0
  0
LINE
  5
64
100
AcDbEntity
  8
L1_120
  6
CONTINUOUS
 62
         7
100
AcDbLine
 10
1319.354336485
 20
-212.6190242419
 30
0.0
 11
1387.7775047567
 21
-202.6406455357
 31
0.0
  0
LINE
  5
65
100
AcDbEntity
  8
L1_120
  6
CENTER
 62
         1
100
AcDbLine
 10
1315.9340030258
 20
-225.0406455357
 30
0.0
 11
1546.5975047567
 21
-225.0406455357
 31
0.0
  0
LINE
  5
66
100
AcDbEntity
  8
L1_120
  6
CONTINUOUS
 62
         7
100
AcDbLine
 10
1319.354336485
 20
-237.4622668294
 30
0.0
 11
1387.7775047567
 21
-247.4406455357
 31
0.0
  0
LINE
  5
67
100
AcDbEntity
  8
L1_120
  6
CONTINUOUS
 62
         7
100
AcDbLine
 10
1318.3275047567
 20
-213.8064638192
 30
0.0
 11
1318.3275047567
 21
-236.2748272521
 31
0.0
  0
ARC
  5
68
100
AcDbEntity
  8
L1_120
  6
CONTINUOUS
 62
         7
100
AcDbCircle
 10
1319.5275047567
 20
-213.8064638192
 30
0.0
 40
1.2
100
AcDbArc
 50
98.2971449698
 51
180.0
  0
ARC
  5
69
100
AcDbEntity
  8
L1_120
  6
CONTINUOUS
 62
         7
100
AcDbCircle
 10
1319.5275047567
 20
-236.2748272521
 30
0.0
 40
1.2
100
AcDbArc
 50
180.0
 51
261.7028550302
  0
LINE
  5
6A
100
AcDbEntity
  8
L1_120
  6
CONTINUOUS
 62
         7
100
AcDbLine
 10
1228.6975047567
 20
-232.5906455357
 30
0.0
 11
1228.6975047567
 21
-217.4906455357
 31
0.0
  0
LINE
  5
6B
100
AcDbEntity
  8
L1_120
  6
CONTINUOUS
 62
         7
100
AcDbLine
 10
1228.6975047567
 20
-232.5906455357
 30
0.0
 11
1228.1975047567
 21
-233.0906455357
 31
0.0
  0
LINE
  5
6C
100
AcDbEntity
  8
L1_120
  6
CONTINUOUS
 62
         7
100
AcDbLine
 10
1228.1975047567
 20
-233.0906455357
 30
0.0
 11
1221.2591228052
 21
-233.0906455357
 31
0.0
  0
LINE
  5
6D
100
AcDbEntity
  8
L1_120
  6
CONTINUOUS
 62
         7
100
AcDbLine
 10
1220.865037524
 20
-233.4847308168
 30
0.0
 11
1221.2591228052
 21
-233.0906455357
 31
0.0
  0
LINE
  5
6E
100
AcDbEntity
  8
L1_120
  6
CONTINUOUS
 62
         7
100
AcDbLine
 10
1228.1975047567
 20
-216.9906455357
 30
0.0
 11
1221.2591228052
 21
-216.9906455357
 31
0.0
  0
LINE
  5
6F
100
AcDbEntity
  8
L1_120
  6
CONTINUOUS
 62
         7
100
AcDbLine
 10
1228.6975047567
 20
-217.4906455357
 30
0.0
 11
1228.1975047567
 21
-216.9906455357
 31
0.0
  0
LINE
  5
70
100
AcDbEntity
  8
L1_120
  6
CONTINUOUS
 62
         7
100
AcDbLine
 10
1220.865037524
 20
-216.5965602545
 30
0.0
 11
1221.2591228052
 21
-216.9906455357
 31
0.0
  0
LINE
  5
71
100
AcDbEntity
  8
L1_120
  6
CONTINUOUS
 62
         7
100
AcDbLine
 10
1281.7358867083
 20
-233.0906455357
 30
0.0
 11
1276.9975047567
 21
-233.0906455357
 31
0.0
  0
LINE
  5
72
100
AcDbEntity
  8
L1_120
  6
CONTINUOUS
 62
         7
100
AcDbLine
 10
1276.4975047567
 20
-232.5906455357
 30
0.0
 11
1276.4975047567
 21
-217.4906455357
 31
0.0
  0
LINE
  5
73
100
AcDbEntity
  8
L1_120
  6
CONTINUOUS
 62
         7
100
AcDbLine
 10
1276.4975047567
 20
-232.5906455357
 30
0.0
 11
1276.9975047567
 21
-233.0906455357
 31
0.0
  0
LINE
  5
74
100
AcDbEntity
  8
L1_120
  6
CONTINUOUS
 62
         7
100
AcDbLine
 10
1282.1299719895
 20
-233.4847308168
 30
0.0
 11
1281.7358867083
 21
-233.0906455357
 31
0.0
  0
LINE
  5
75
100
AcDbEntity
  8
L1_120
  6
CONTINUOUS
 62
         7
100
AcDbLine
 10
1276.4975047567
 20
-217.4906455357
 30
0.0
 11
1276.9975047567
 21
-216.9906455357
 31
0.0
  0
LINE
  5
76
100
AcDbEntity
  8
L1_120
  6
CONTINUOUS
 62
         7
100
AcDbLine
 10
1282.1299719895
 20
-216.5965602545
 30
0.0
 11
1281.7358867083
 21
-216.9906455357
 31
0.0
  0
LINE
  5
77
100
AcDbEntity
  8
L1_120
  6
CONTINUOUS
 62
         7
100
AcDbLine
 10
1281.7358867083
 20
-216.9906455357
 30
0.0
 11
1276.9975047567
 21
-216.9906455357
 31
0.0
  0
CIRCLE
  5
78
100
AcDbEntity
  8
L1_120
  6
CONTINUOUS
 62
         7
100
AcDbCircle
 10
1251.4975047567
 20
-225.0406455357
 30
0.0
 40
22.225
  0
CIRCLE
  5
79
100
AcDbEntity
  8
L1_120
  6
CONTINUOUS
 62
         7
100
AcDbCircle
 10
1251.4975047567
 20
-225.0406455357
 30
0.0
 40
8.5
  0
CIRCLE
  5
7A
100
AcDbEntity
  8
L1_120
  6
CONTINUOUS
 62
         7
100
AcDbCircle
 10
1251.4975047567
 20
-225.0406455357
 30
0.0
 40
9.5
  0
ARC
  5
7B
100
AcDbEntity
  8
L1_120
  6
CONTINUOUS
 62
         5
100
AcDbCircle
 10
1251.4975047567
 20
-225.0406455357
 30
0.0
 40
8.0
100
AcDbArc
 50
352.9901372228
 51
621.2264515101
  0
CIRCLE
  5
7C
100
AcDbEntity
  8
L1_120
  6
CONTINUOUS
 62
         7
100
AcDbCircle
 10
1251.4975047567
 20
-225.0406455357
 30
0.0
 40
7.0
  0
CIRCLE
  5
7D
100
AcDbEntity
  8
L1_120
  6
CONTINUOUS
 62
         7
100
AcDbCircle
 10
1251.4975047567
 20
-225.0406455357
 30
0.0
 40
12.7165768873
  0
LINE
  5
7E
100
AcDbEntity
  8
L1_120
  6
CENTER
 62
         1
100
AcDbLine
 10
1251.4975047567
 20
-260.6519977685
 30
0.0
 11
1251.4975047567
 21
-189.8079374371
 31
0.0
  0
ARC
  5
7F
100
AcDbEntity
  8
L1_120
  6
CONTINUOUS
 62
         7
100
AcDbCircle
 10
1251.4975047567
 20
-225.0406455357
 30
0.0
 40
31.775
100
AcDbArc
 50
15.411296411
 51
164.588703589
  0
ARC
  5
80
100
AcDbEntity
  8
L1_120
  6
CONTINUOUS
 62
         7
100
AcDbCircle
 10
1251.4975047567
 20
-225.0406455357
 30
0.0
 40
31.775
100
AcDbArc
 50
195.411296411
 51
344.588703589
  0
LINE
  5
81
100
AcDbEntity
  8
L1_120
  6
CENTER
 62
         1
100
AcDbLine
 10
1219.7225047567
 20
-225.0406455357
 30
0.0
 11
1283.2725047567
 21
-225.0406455357
 31
0.0
  0
LINE
  5
82
100
AcDbEntity
  8
L1_120
  6
CENTER
 62
         1
100
AcDbLine
 10
1263.6773045514
 20
-191.5769206263
 30
0.0
 11
1239.4472088831
 21
-258.1485613461
 31
0.0
  0
LINE
  5
83
100
AcDbEntity
  8
L1_120
  6
CENTER
 62
         1
100
AcDbLine
 10
1263.5511264889
 20
-200.6950052044
 30
0.0
 11
1257.9129707642
 21
-198.6428843445
 31
0.0
  0
ARC
  5
84
100
AcDbEntity
  8
L1_120
  6
CONTINUOUS
 62
         7
100
AcDbCircle
 10
1261.6456424385
 20
-200.0014657282
 30
0.0
 40
2.9722262277
100
AcDbArc
 50
141.257725858
 51
160.0
  0
ARC
  5
85
100
AcDbEntity
  8
L1_120
  6
CONTINUOUS
 62
         7
100
AcDbCircle
 10
1261.253565083
 20
-199.6868772957
 30
0.0
 40
2.4695428935
100
AcDbArc
 50
120.6773100903
 51
141.257725858
  0
ARC
  5
86
100
AcDbEntity
  8
L1_120
  6
CONTINUOUS
 62
         7
100
AcDbCircle
 10
1261.0538265519
 20
-199.3501756031
 30
0.0
 40
2.0780540551
100
AcDbArc
 50
96.8239621528
 51
120.6773100904
  0
ARC
  5
87
100
AcDbEntity
  8
L1_120
  6
CONTINUOUS
 62
         7
100
AcDbCircle
 10
1261.0029162232
 20
-198.9247421689
 30
0.0
 40
1.6495853065
100
AcDbArc
 50
70.0000000001
 51
96.8239621529
  0
ARC
  5
88
100
AcDbEntity
  8
L1_120
  6
CONTINUOUS
 62
         7
100
AcDbCircle
 10
1261.0029162232
 20
-198.9247421689
 30
0.0
 40
1.6495853065
100
AcDbArc
 50
43.1760378472
 51
70.0
  0
ARC
  5
89
100
AcDbEntity
  8
L1_120
  6
CONTINUOUS
 62
         7
100
AcDbCircle
 10
1260.6904533085
 20
-199.2179185586
 30
0.0
 40
2.0780540551
100
AcDbArc
 50
19.3226899096
 51
43.1760378472
  0
ARC
  5
8A
100
AcDbEntity
  8
L1_120
  6
CONTINUOUS
 62
         7
100
AcDbCircle
 10
1260.3210170406
 20
-199.3474575663
 30
0.0
 40
2.4695428935
100
AcDbArc
 50
358.742274142
 51
379.3226899097
  0
ARC
  5
8B
100
AcDbEntity
  8
L1_120
  6
CONTINUOUS
 62
         7
100
AcDbCircle
 10
1259.8184548146
 20
-199.3364238207
 30
0.0
 40
2.9722262277
100
AcDbArc
 50
339.9999999999
 51
358.742274142
  0
ARC
  5
8C
100
AcDbEntity
  8
L1_120
  6
CONTINUOUS
 62
         7
100
AcDbCircle
 10
1259.8184548146
 20
-199.3364238207
 30
0.0
 40
2.9722262277
100
AcDbArc
 50
321.257725858
 51
340.0
  0
ARC
  5
8D
100
AcDbEntity
  8
L1_120
  6
CONTINUOUS
 62
         7
100
AcDbCircle
 10
1260.2105321701
 20
-199.6510122532
 30
0.0
 40
2.4695428935
100
AcDbArc
 50
300.6773100903
 51
321.257725858
  0
ARC
  5
8E
100
AcDbEntity
  8
L1_120
  6
CONTINUOUS
 62
         7
100
AcDbCircle
 10
1260.4102707011
 20
-199.9877139457
 30
0.0
 40
2.0780540551
100
AcDbArc
 50
276.8239621528
 51
300.6773100904
  0
ARC
  5
8F
100
AcDbEntity
  8
L1_120
  6
CONTINUOUS
 62
         7
100
AcDbCircle
 10
1260.4611810298
 20
-200.41314738
 30
0.0
 40
1.6495853065
100
AcDbArc
 50
250.0
 51
276.8239621528
  0
ARC
  5
90
100
AcDbEntity
  8
L1_120
  6
CONTINUOUS
 62
         7
100
AcDbCircle
 10
1260.4611810298
 20
-200.41314738
 30
0.0
 40
1.6495853065
100
AcDbArc
 50
223.1760378472
 51
249.9999999999
  0
ARC
  5
91
100
AcDbEntity
  8
L1_120
  6
CONTINUOUS
 62
         7
100
AcDbCircle
 10
1260.7736439445
 20
-200.1199709902
 30
0.0
 40
2.0780540551
100
AcDbArc
 50
199.3226899097
 51
223.1760378473
  0
ARC
  5
92
100
AcDbEntity
  8
L1_120
  6
CONTINUOUS
 62
         7
100
AcDbCircle
 10
1261.1430802125
 20
-199.9904319826
 30
0.0
 40
2.4695428935
100
AcDbArc
 50
178.7422741421
 51
199.3226899097
  0
ARC
  5
93
100
AcDbEntity
  8
L1_120
  6
CONTINUOUS
 62
         7
100
AcDbCircle
 10
1261.6456424385
 20
-200.0014657282
 30
0.0
 40
2.9722262277
100
AcDbArc
 50
160.0
 51
178.7422741421
  0
ARC
  5
94
100
AcDbEntity
  8
L1_120
  6
CONTINUOUS
 62
         7
100
AcDbCircle
 10
1242.2213655689
 20
-249.9613200811
 30
0.0
 40
2.0780540551
100
AcDbArc
 50
19.3226899096
 51
43.1760378472
  0
ARC
  5
95
100
AcDbEntity
  8
L1_120
  6
CONTINUOUS
 62
         7
100
AcDbCircle
 10
1241.851929301
 20
-250.0908590887
 30
0.0
 40
2.4695428935
100
AcDbArc
 50
358.742274142
 51
379.3226899097
  0
ARC
  5
96
100
AcDbEntity
  8
L1_120
  6
CONTINUOUS
 62
         7
100
AcDbCircle
 10
1243.1765546989
 20
-250.7448672506
 30
0.0
 40
2.9722262277
100
AcDbArc
 50
160.0
 51
178.742274142
  0
ARC
  5
97
100
AcDbEntity
  8
L1_120
  6
CONTINUOUS
 62
         7
100
AcDbCircle
 10
1242.6739924729
 20
-250.7338335051
 30
0.0
 40
2.4695428935
100
AcDbArc
 50
178.742274142
 51
199.3226899096
  0
ARC
  5
98
100
AcDbEntity
  8
L1_120
  6
CONTINUOUS
 62
         7
100
AcDbCircle
 10
1242.3045562049
 20
-250.8633725127
 30
0.0
 40
2.0780540551
100
AcDbArc
 50
199.3226899096
 51
223.1760378473
  0
ARC
  5
99
100
AcDbEntity
  8
L1_120
  6
CONTINUOUS
 62
         7
100
AcDbCircle
 10
1241.9920932903
 20
-251.1565489024
 30
0.0
 40
1.6495853065
100
AcDbArc
 50
223.1760378472
 51
250.0
  0
ARC
  5
9A
100
AcDbEntity
  8
L1_120
  6
CONTINUOUS
 62
         7
100
AcDbCircle
 10
1241.9920932903
 20
-251.1565489024
 30
0.0
 40
1.6495853065
100
AcDbArc
 50
250.0
 51
276.8239621528
  0
ARC
  5
9B
100
AcDbEntity
  8
L1_120
  6
CONTINUOUS
 62
         7
100
AcDbCircle
 10
1241.9411829616
 20
-250.7311154682
 30
0.0
 40
2.0780540551
100
AcDbArc
 50
276.8239621528
 51
300.6773100903
  0
ARC
  5
9C
100
AcDbEntity
  8
L1_120
  6
CONTINUOUS
 62
         7
100
AcDbCircle
 10
1241.7414444305
 20
-250.3944137756
 30
0.0
 40
2.4695428935
100
AcDbArc
 50
300.6773100904
 51
321.2577258581
  0
ARC
  5
9D
100
AcDbEntity
  8
L1_120
  6
CONTINUOUS
 62
         7
100
AcDbCircle
 10
1241.349367075
 20
-250.0798253431
 30
0.0
 40
2.9722262277
100
AcDbArc
 50
321.257725858
 51
340.0
  0
ARC
  5
9E
100
AcDbEntity
  8
L1_120
  6
CONTINUOUS
 62
         7
100
AcDbCircle
 10
1241.349367075
 20
-250.0798253431
 30
0.0
 40
2.9722262277
100
AcDbArc
 50
339.9999999999
 51
358.742274142
  0
ARC
  5
9F
100
AcDbEntity
  8
L1_120
  6
CONTINUOUS
 62
         7
100
AcDbCircle
 10
1242.5338284836
 20
-249.6681436913
 30
0.0
 40
1.6495853065
100
AcDbArc
 50
43.1760378472
 51
70.0
  0
ARC
  5
A0
100
AcDbEntity
  8
L1_120
  6
CONTINUOUS
 62
         7
100
AcDbCircle
 10
1242.5338284836
 20
-249.6681436913
 30
0.0
 40
1.6495853065
100
AcDbArc
 50
70.0
 51
96.8239621528
  0
ARC
  5
A1
100
AcDbEntity
  8
L1_120
  6
CONTINUOUS
 62
         7
100
AcDbCircle
 10
1242.5847388123
 20
-250.0935771256
 30
0.0
 40
2.0780540551
100
AcDbArc
 50
96.8239621528
 51
120.6773100904
  0
ARC
  5
A2
100
AcDbEntity
  8
L1_120
  6
CONTINUOUS
 62
         7
100
AcDbCircle
 10
1242.7844773434
 20
-250.4302788182
 30
0.0
 40
2.4695428935
100
AcDbArc
 50
120.6773100904
 51
141.257725858
  0
ARC
  5
A3
100
AcDbEntity
  8
L1_120
  6
CONTINUOUS
 62
         7
100
AcDbCircle
 10
1243.1765546989
 20
-250.7448672506
 30
0.0
 40
2.9722262277
100
AcDbArc
 50
141.257725858
 51
160.0
  0
LINE
  5
A4
100
AcDbEntity
  8
L1_120
  6
CENTER
 62
         1
100
AcDbLine
 10
1245.0820387493
 20
-251.4384067269
 30
0.0
 11
1239.4438830246
 21
-249.3862858669
 31
0.0
  0
POLYLINE
  5
A6
100
AcDbEntity
  8
L1_120
  6
CONTINUOUS
 62
         7
100
AcDb3dPolyline
 66
         1
 10
0.0
 20
0.0
 30
0.0
 70
         8
  0
VERTEX
  5
A8
100
AcDbEntity
  8
L1_120
  6
CONTINUOUS
 62
         7
100
AcDbVertex
100
AcDb3dPolylineVertex
 10
1259.9935984591
 20
-197.5629360984
 30
0.0
 70
        32
  0
VERTEX
  5
AA
100
AcDbEntity
  8
L1_120
  6
CONTINUOUS
 62
         7
100
AcDbVertex
100
AcDb3dPolylineVertex
 10
1259.9935984591
 20
-197.5629360984
 30
0.0
 70
        32
  0
SEQEND
  5
AC
100
AcDbEntity
  8
L1_120
  6
CONTINUOUS
 62
         7
  0
POLYLINE
  5
AE
100
AcDbEntity
  8
L1_120
  6
CONTINUOUS
 62
         7
100
AcDb3dPolyline
 66
         1
 10
0.0
 20
0.0
 30
0.0
 70
         8
  0
VERTEX
  5
B0
100
AcDbEntity
  8
L1_120
  6
CONTINUOUS
 62
         7
100
AcDbVertex
100
AcDb3dPolylineVertex
 10
1260.8069137599
 20
-197.2868426855
 30
0.0
 70
        32
  0
VERTEX
  5
B2
100
AcDbEntity
  8
L1_120
  6
CONTINUOUS
 62
         7
100
AcDbVertex
100
AcDb3dPolylineVertex
 10
1260.8069137599
 20
-197.2868426855
 30
0.0
 70
        32
  0
SEQEND
  5
B4
100
AcDbEntity
  8
L1_120
  6
CONTINUOUS
 62
         7
  0
POLYLINE
  5
B6
100
AcDbEntity
  8
L1_120
  6
CONTINUOUS
 62
         7
100
AcDb3dPolyline
 66
         1
 10
0.0
 20
0.0
 30
0.0
 70
         8
  0
VERTEX
  5
B8
100
AcDbEntity
  8
L1_120
  6
CONTINUOUS
 62
         7
100
AcDbVertex
100
AcDb3dPolylineVertex
 10
1261.5671076262
 20
-197.374639029
 30
0.0
 70
        32
  0
VERTEX
  5
BA
100
AcDbEntity
  8
L1_120
  6
CONTINUOUS
 62
         7
100
AcDbVertex
100
AcDb3dPolylineVertex
 10
1261.5671076262
 20
-197.374639029
 30
0.0
 70
        32
  0
SEQEND
  5
BC
100
AcDbEntity
  8
L1_120
  6
CONTINUOUS
 62
         7
  0
POLYLINE
  5
BE
100
AcDbEntity
  8
L1_120
  6
CONTINUOUS
 62
         7
100
AcDb3dPolyline
 66
         1
 10
0.0
 20
0.0
 30
0.0
 70
         8
  0
VERTEX
  5
C0
100
AcDbEntity
  8
L1_120
  6
CONTINUOUS
 62
         7
100
AcDbVertex
100
AcDb3dPolylineVertex
 10
1262.2058843149
 20
-197.7960263261
 30
0.0
 70
        32
  0
VERTEX
  5
C2
100
AcDbEntity
  8
L1_120
  6
CONTINUOUS
 62
         7
100
AcDbVertex
100
AcDb3dPolylineVertex
 10
1262.2058843149
 20
-197.7960263261
 30
0.0
 70
        32
  0
SEQEND
  5
C4
100
AcDbEntity
  8
L1_120
  6
CONTINUOUS
 62
         7
  0
POLYLINE
  5
C6
100
AcDbEntity
  8
L1_120
  6
CONTINUOUS
 62
         7
100
AcDb3dPolyline
 66
         1
 10
0.0
 20
0.0
 30
0.0
 70
         8
  0
VERTEX
  5
C8
100
AcDbEntity
  8
L1_120
  6
CONTINUOUS
 62
         7
100
AcDbVertex
100
AcDb3dPolylineVertex
 10
1262.6514505566
 20
-198.530315149
 30
0.0
 70
        32
  0
VERTEX
  5
CA
100
AcDbEntity
  8
L1_120
  6
CONTINUOUS
 62
         7
100
AcDbVertex
100
AcDb3dPolylineVertex
 10
1262.6514505566
 20
-198.530315149
 30
0.0
 70
        32
  0
SEQEND
  5
CC
100
AcDbEntity
  8
L1_120
  6
CONTINUOUS
 62
         7
  0
POLYLINE
  5
CE
100
AcDbEntity
  8
L1_120
  6
CONTINUOUS
 62
         7
100
AcDb3dPolyline
 66
         1
 10
0.0
 20
0.0
 30
0.0
 70
         8
  0
VERTEX
  5
D0
100
AcDbEntity
  8
L1_120
  6
CONTINUOUS
 62
         7
100
AcDbVertex
100
AcDb3dPolylineVertex
 10
1262.789964963
 20
-199.4016632781
 30
0.0
 70
        32
  0
VERTEX
  5
D2
100
AcDbEntity
  8
L1_120
  6
CONTINUOUS
 62
         7
100
AcDbVertex
100
AcDb3dPolylineVertex
 10
1262.789964963
 20
-199.4016632781
 30
0.0
 70
        32
  0
SEQEND
  5
D4
100
AcDbEntity
  8
L1_120
  6
CONTINUOUS
 62
         7
  0
POLYLINE
  5
D6
100
AcDbEntity
  8
L1_120
  6
CONTINUOUS
 62
         7
100
AcDb3dPolyline
 66
         1
 10
0.0
 20
0.0
 30
0.0
 70
         8
  0
VERTEX
  5
D8
100
AcDbEntity
  8
L1_120
  6
CONTINUOUS
 62
         7
100
AcDbVertex
100
AcDb3dPolylineVertex
 10
1262.6114338681
 20
-200.3529850611
 30
0.0
 70
        32
  0
VERTEX
  5
DA
100
AcDbEntity
  8
L1_120
  6
CONTINUOUS
 62
         7
100
AcDbVertex
100
AcDb3dPolylineVertex
 10
1262.6114338681
 20
-200.3529850611
 30
0.0
 70
        32
  0
SEQEND
  5
DC
100
AcDbEntity
  8
L1_120
  6
CONTINUOUS
 62
         7
  0
POLYLINE
  5
DE
100
AcDbEntity
  8
L1_120
  6
CONTINUOUS
 62
         7
100
AcDb3dPolyline
 66
         1
 10
0.0
 20
0.0
 30
0.0
 70
         8
  0
VERTEX
  5
E0
100
AcDbEntity
  8
L1_120
  6
CONTINUOUS
 62
         7
100
AcDbVertex
100
AcDb3dPolylineVertex
 10
1262.1366987663
 20
-201.1964974023
 30
0.0
 70
        32
  0
VERTEX
  5
E2
100
AcDbEntity
  8
L1_120
  6
CONTINUOUS
 62
         7
100
AcDbVertex
100
AcDb3dPolylineVertex
 10
1262.1366987663
 20
-201.1964974023
 30
0.0
 70
        32
  0
SEQEND
  5
E4
100
AcDbEntity
  8
L1_120
  6
CONTINUOUS
 62
         7
  0
POLYLINE
  5
E6
100
AcDbEntity
  8
L1_120
  6
CONTINUOUS
 62
         7
100
AcDb3dPolyline
 66
         1
 10
0.0
 20
0.0
 30
0.0
 70
         8
  0
VERTEX
  5
E8
100
AcDbEntity
  8
L1_120
  6
CONTINUOUS
 62
         7
100
AcDbVertex
100
AcDb3dPolylineVertex
 10
1261.470498794
 20
-201.7749534504
 30
0.0
 70
        32
  0
VERTEX
  5
EA
100
AcDbEntity
  8
L1_120
  6
CONTINUOUS
 62
         7
100
AcDbVertex
100
AcDb3dPolylineVertex
 10
1261.470498794
 20
-201.7749534504
 30
0.0
 70
        32
  0
SEQEND
  5
EC
100
AcDbEntity
  8
L1_120
  6
CONTINUOUS
 62
         7
  0
POLYLINE
  5
EE
100
AcDbEntity
  8
L1_120
  6
CONTINUOUS
 62
         7
100
AcDb3dPolyline
 66
         1
 10
0.0
 20
0.0
 30
0.0
 70
         8
  0
VERTEX
  5
F0
100
AcDbEntity
  8
L1_120
  6
CONTINUOUS
 62
         7
100
AcDbVertex
100
AcDb3dPolylineVertex
 10
1260.6571834931
 20
-202.0510468634
 30
0.0
 70
        32
  0
VERTEX
  5
F2
100
AcDbEntity
  8
L1_120
  6
CONTINUOUS
 62
         7
100
AcDbVertex
100
AcDb3dPolylineVertex
 10
1260.6571834931
 20
-202.0510468634
 30
0.0
 70
        32
  0
SEQEND
  5
F4
100
AcDbEntity
  8
L1_120
  6
CONTINUOUS
 62
         7
  0
POLYLINE
  5
F6
100
AcDbEntity
  8
L1_120
  6
CONTINUOUS
 62
         7
100
AcDb3dPolyline
 66
         1
 10
0.0
 20
0.0
 30
0.0
 70
         8
  0
VERTEX
  5
F8
100
AcDbEntity
  8
L1_120
  6
CONTINUOUS
 62
         7
100
AcDbVertex
100
AcDb3dPolylineVertex
 10
1259.8969896269
 20
-201.9632505198
 30
0.0
 70
        32
  0
VERTEX
  5
FA
100
AcDbEntity
  8
L1_120
  6
CONTINUOUS
 62
         7
100
AcDbVertex
100
AcDb3dPolylineVertex
 10
1259.8969896269
 20
-201.9632505198
 30
0.0
 70
        32
  0
SEQEND
  5
FC
100
AcDbEntity
  8
L1_120
  6
CONTINUOUS
 62
         7
  0
POLYLINE
  5
FE
100
AcDbEntity
  8
L1_120
  6
CONTINUOUS
 62
         7
100
AcDb3dPolyline
 66
         1
 10
0.0
 20
0.0
 30
0.0
 70
         8
  0
VERTEX
  5
100
100
AcDbEntity
  8
L1_120
  6
CONTINUOUS
 62
         7
100
AcDbVertex
100
AcDb3dPolylineVertex
 10
1259.2582129382
 20
-201.5418632228
 30
0.0
 70
        32
  0
VERTEX
  5
102
100
AcDbEntity
  8
L1_120
  6
CONTINUOUS
 62
         7
100
AcDbVertex
100
AcDb3dPolylineVertex
 10
1259.2582129382
 20
-201.5418632228
 30
0.0
 70
        32
  0
SEQEND
  5
104
100
AcDbEntity
  8
L1_120
  6
CONTINUOUS
 62
         7
  0
POLYLINE
  5
106
100
AcDbEntity
  8
L1_120
  6
CONTINUOUS
 62
         7
100
AcDb3dPolyline
 66
         1
 10
0.0
 20
0.0
 30
0.0
 70
         8
  0
VERTEX
  5
108
100
AcDbEntity
  8
L1_120
  6
CONTINUOUS
 62
         7
100
AcDbVertex
100
AcDb3dPolylineVertex
 10
1258.8126466964
 20
-200.8075743998
 30
0.0
 70
        32
  0
VERTEX
  5
10A
100
AcDbEntity
  8
L1_120
  6
CONTINUOUS
 62
         7
100
AcDbVertex
100
AcDb3dPolylineVertex
 10
1258.8126466964
 20
-200.8075743998
 30
0.0
 70
        32
  0
SEQEND
  5
10C
100
AcDbEntity
  8
L1_120
  6
CONTINUOUS
 62
         7
  0
POLYLINE
  5
10E
100
AcDbEntity
  8
L1_120
  6
CONTINUOUS
 62
         7
100
AcDb3dPolyline
 66
         1
 10
0.0
 20
0.0
 30
0.0
 70
         8
  0
VERTEX
  5
110
100
AcDbEntity
  8
L1_120
  6
CONTINUOUS
 62
         7
100
AcDbVertex
100
AcDb3dPolylineVertex
 10
1258.6741322901
 20
-199.9362262708
 30
0.0
 70
        32
  0
VERTEX
  5
112
100
AcDbEntity
  8
L1_120
  6
CONTINUOUS
 62
         7
100
AcDbVertex
100
AcDb3dPolylineVertex
 10
1258.6741322901
 20
-199.9362262708
 30
0.0
 70
        32
  0
SEQEND
  5
114
100
AcDbEntity
  8
L1_120
  6
CONTINUOUS
 62
         7
  0
POLYLINE
  5
116
100
AcDbEntity
  8
L1_120
  6
CONTINUOUS
 62
         7
100
AcDb3dPolyline
 66
         1
 10
0.0
 20
0.0
 30
0.0
 70
         8
  0
VERTEX
  5
118
100
AcDbEntity
  8
L1_120
  6
CONTINUOUS
 62
         7
100
AcDbVertex
100
AcDb3dPolylineVertex
 10
1258.8526633849
 20
-198.9849044878
 30
0.0
 70
        32
  0
VERTEX
  5
11A
100
AcDbEntity
  8
L1_120
  6
CONTINUOUS
 62
         7
100
AcDbVertex
100
AcDb3dPolylineVertex
 10
1258.8526633849
 20
-198.9849044878
 30
0.0
 70
        32
  0
SEQEND
  5
11C
100
AcDbEntity
  8
L1_120
  6
CONTINUOUS
 62
         7
  0
POLYLINE
  5
11E
100
AcDbEntity
  8
L1_120
  6
CONTINUOUS
 62
         7
100
AcDb3dPolyline
 66
         1
 10
0.0
 20
0.0
 30
0.0
 70
         8
  0
VERTEX
  5
120
100
AcDbEntity
  8
L1_120
  6
CONTINUOUS
 62
         7
100
AcDbVertex
100
AcDb3dPolylineVertex
 10
1240.7891251986
 20
-252.2852647452
 30
0.0
 70
        32
  0
VERTEX
  5
122
100
AcDbEntity
  8
L1_120
  6
CONTINUOUS
 62
         7
100
AcDbVertex
100
AcDb3dPolylineVertex
 10
1240.7891251986
 20
-252.2852647452
 30
0.0
 70
        32
  0
SEQEND
  5
124
100
AcDbEntity
  8
L1_120
  6
CONTINUOUS
 62
         7
  0
POLYLINE
  5
126
100
AcDbEntity
  8
L1_120
  6
CONTINUOUS
 62
         7
100
AcDb3dPolyline
 66
         1
 10
0.0
 20
0.0
 30
0.0
 70
         8
  0
VERTEX
  5
128
100
AcDbEntity
  8
L1_120
  6
CONTINUOUS
 62
         7
100
AcDbVertex
100
AcDb3dPolylineVertex
 10
1241.4279018873
 20
-252.7066520423
 30
0.0
 70
        32
  0
VERTEX
  5
12A
100
AcDbEntity
  8
L1_120
  6
CONTINUOUS
 62
         7
100
AcDbVertex
100
AcDb3dPolylineVertex
 10
1241.4279018873
 20
-252.7066520423
 30
0.0
 70
        32
  0
SEQEND
  5
12C
100
AcDbEntity
  8
L1_120
  6
CONTINUOUS
 62
         7
  0
POLYLINE
  5
12E
100
AcDbEntity
  8
L1_120
  6
CONTINUOUS
 62
         7
100
AcDb3dPolyline
 66
         1
 10
0.0
 20
0.0
 30
0.0
 70
         8
  0
VERTEX
  5
130
100
AcDbEntity
  8
L1_120
  6
CONTINUOUS
 62
         7
100
AcDbVertex
100
AcDb3dPolylineVertex
 10
1242.1880957535
 20
-252.7944483858
 30
0.0
 70
        32
  0
VERTEX
  5
132
100
AcDbEntity
  8
L1_120
  6
CONTINUOUS
 62
         7
100
AcDbVertex
100
AcDb3dPolylineVertex
 10
1242.1880957535
 20
-252.7944483858
 30
0.0
 70
        32
  0
SEQEND
  5
134
100
AcDbEntity
  8
L1_120
  6
CONTINUOUS
 62
         7
  0
POLYLINE
  5
136
100
AcDbEntity
  8
L1_120
  6
CONTINUOUS
 62
         7
100
AcDb3dPolyline
 66
         1
 10
0.0
 20
0.0
 30
0.0
 70
         8
  0
VERTEX
  5
138
100
AcDbEntity
  8
L1_120
  6
CONTINUOUS
 62
         7
100
AcDbVertex
100
AcDb3dPolylineVertex
 10
1243.0014110544
 20
-252.5183549729
 30
0.0
 70
        32
  0
VERTEX
  5
13A
100
AcDbEntity
  8
L1_120
  6
CONTINUOUS
 62
         7
100
AcDbVertex
100
AcDb3dPolylineVertex
 10
1243.0014110544
 20
-252.5183549729
 30
0.0
 70
        32
  0
SEQEND
  5
13C
100
AcDbEntity
  8
L1_120
  6
CONTINUOUS
 62
         7
  0
POLYLINE
  5
13E
100
AcDbEntity
  8
L1_120
  6
CONTINUOUS
 62
         7
100
AcDb3dPolyline
 66
         1
 10
0.0
 20
0.0
 30
0.0
 70
         8
  0
VERTEX
  5
140
100
AcDbEntity
  8
L1_120
  6
CONTINUOUS
 62
         7
100
AcDbVertex
100
AcDb3dPolylineVertex
 10
1243.6676110267
 20
-251.9398989247
 30
0.0
 70
        32
  0
VERTEX
  5
142
100
AcDbEntity
  8
L1_120
  6
CONTINUOUS
 62
         7
100
AcDbVertex
100
AcDb3dPolylineVertex
 10
1243.6676110267
 20
-251.9398989247
 30
0.0
 70
        32
  0
SEQEND
  5
144
100
AcDbEntity
  8
L1_120
  6
CONTINUOUS
 62
         7
  0
POLYLINE
  5
146
100
AcDbEntity
  8
L1_120
  6
CONTINUOUS
 62
         7
100
AcDb3dPolyline
 66
         1
 10
0.0
 20
0.0
 30
0.0
 70
         8
  0
VERTEX
  5
148
100
AcDbEntity
  8
L1_120
  6
CONTINUOUS
 62
         7
100
AcDbVertex
100
AcDb3dPolylineVertex
 10
1244.1423461285
 20
-251.0963865835
 30
0.0
 70
        32
  0
VERTEX
  5
14A
100
AcDbEntity
  8
L1_120
  6
CONTINUOUS
 62
         7
100
AcDbVertex
100
AcDb3dPolylineVertex
 10
1244.1423461285
 20
-251.0963865835
 30
0.0
 70
        32
  0
SEQEND
  5
14C
100
AcDbEntity
  8
L1_120
  6
CONTINUOUS
 62
         7
  0
POLYLINE
  5
14E
100
AcDbEntity
  8
L1_120
  6
CONTINUOUS
 62
         7
100
AcDb3dPolyline
 66
         1
 10
0.0
 20
0.0
 30
0.0
 70
         8
  0
VERTEX
  5
150
100
AcDbEntity
  8
L1_120
  6
CONTINUOUS
 62
         7
100
AcDbVertex
100
AcDb3dPolylineVertex
 10
1244.3208772234
 20
-250.1450648005
 30
0.0
 70
        32
  0
VERTEX
  5
152
100
AcDbEntity
  8
L1_120
  6
CONTINUOUS
 62
         7
100
AcDbVertex
100
AcDb3dPolylineVertex
 10
1244.3208772234
 20
-250.1450648005
 30
0.0
 70
        32
  0
SEQEND
  5
154
100
AcDbEntity
  8
L1_120
  6
CONTINUOUS
 62
         7
  0
POLYLINE
  5
156
100
AcDbEntity
  8
L1_120
  6
CONTINUOUS
 62
         7
100
AcDb3dPolyline
 66
         1
 10
0.0
 20
0.0
 30
0.0
 70
         8
  0
VERTEX
  5
158
100
AcDbEntity
  8
L1_120
  6
CONTINUOUS
 62
         7
100
AcDbVertex
100
AcDb3dPolylineVertex
 10
1243.7367965753
 20
-248.5394278485
 30
0.0
 70
        32
  0
VERTEX
  5
15A
100
AcDbEntity
  8
L1_120
  6
CONTINUOUS
 62
         7
100
AcDbVertex
100
AcDb3dPolylineVertex
 10
1243.7367965753
 20
-248.5394278485
 30
0.0
 70
        32
  0
SEQEND
  5
15C
100
AcDbEntity
  8
L1_120
  6
CONTINUOUS
 62
         7
  0
POLYLINE
  5
15E
100
AcDbEntity
  8
L1_120
  6
CONTINUOUS
 62
         7
100
AcDb3dPolyline
 66
         1
 10
0.0
 20
0.0
 30
0.0
 70
         8
  0
VERTEX
  5
160
100
AcDbEntity
  8
L1_120
  6
CONTINUOUS
 62
         7
100
AcDbVertex
100
AcDb3dPolylineVertex
 10
1243.0980198866
 20
-248.1180405515
 30
0.0
 70
        32
  0
VERTEX
  5
162
100
AcDbEntity
  8
L1_120
  6
CONTINUOUS
 62
         7
100
AcDbVertex
100
AcDb3dPolylineVertex
 10
1243.0980198866
 20
-248.1180405515
 30
0.0
 70
        32
  0
SEQEND
  5
164
100
AcDbEntity
  8
L1_120
  6
CONTINUOUS
 62
         7
  0
POLYLINE
  5
166
100
AcDbEntity
  8
L1_120
  6
CONTINUOUS
 62
         7
100
AcDb3dPolyline
 66
         1
 10
0.0
 20
0.0
 30
0.0
 70
         8
  0
VERTEX
  5
168
100
AcDbEntity
  8
L1_120
  6
CONTINUOUS
 62
         7
100
AcDbVertex
100
AcDb3dPolylineVertex
 10
1241.5245107195
 20
-248.3063376209
 30
0.0
 70
        32
  0
VERTEX
  5
16A
100
AcDbEntity
  8
L1_120
  6
CONTINUOUS
 62
         7
100
AcDbVertex
100
AcDb3dPolylineVertex
 10
1241.5245107195
 20
-248.3063376209
 30
0.0
 70
        32
  0
SEQEND
  5
16C
100
AcDbEntity
  8
L1_120
  6
CONTINUOUS
 62
         7
  0
POLYLINE
  5
16E
100
AcDbEntity
  8
L1_120
  6
CONTINUOUS
 62
         7
100
AcDb3dPolyline
 66
         1
 10
0.0
 20
0.0
 30
0.0
 70
         8
  0
VERTEX
  5
170
100
AcDbEntity
  8
L1_120
  6
CONTINUOUS
 62
         7
100
AcDbVertex
100
AcDb3dPolylineVertex
 10
1240.8583107471
 20
-248.884793669
 30
0.0
 70
        32
  0
VERTEX
  5
172
100
AcDbEntity
  8
L1_120
  6
CONTINUOUS
 62
         7
100
AcDbVertex
100
AcDb3dPolylineVertex
 10
1240.8583107471
 20
-248.884793669
 30
0.0
 70
        32
  0
SEQEND
  5
174
100
AcDbEntity
  8
L1_120
  6
CONTINUOUS
 62
         7
  0
POLYLINE
  5
176
100
AcDbEntity
  8
L1_120
  6
CONTINUOUS
 62
         7
100
AcDb3dPolyline
 66
         1
 10
0.0
 20
0.0
 30
0.0
 70
         8
  0
VERTEX
  5
178
100
AcDbEntity
  8
L1_120
  6
CONTINUOUS
 62
         7
100
AcDbVertex
100
AcDb3dPolylineVertex
 10
1240.3835756454
 20
-249.7283060102
 30
0.0
 70
        32
  0
VERTEX
  5
17A
100
AcDbEntity
  8
L1_120
  6
CONTINUOUS
 62
         7
100
AcDbVertex
100
AcDb3dPolylineVertex
 10
1240.3835756454
 20
-249.7283060102
 30
0.0
 70
        32
  0
SEQEND
  5
17C
100
AcDbEntity
  8
L1_120
  6
CONTINUOUS
 62
         7
  0
TEXT
  5
17E
100
AcDbEntity
  8
L1_120
  6
CONTINUOUS
 62
         2
100
AcDbText
 10
1567.7333140429
 20
-158.9931090861
 30
0.0
 40
4.5
  1
531856
 41
0.98
  7
BOX
100
AcDbText
  0
LINE
  5
17F
100
AcDbEntity
  8
L1_120
  6
CONTINUOUS
 62
         5
100
AcDbLine
 10
1346.7775047567
 20
-330.1686220057
 30
0.0
 11
1351.5275047567
 21
-331.1686220057
 31
0.0
  0
LINE
  5
180
100
AcDbEntity
  8
L1_120
  6
CONTINUOUS
 62
         5
100
AcDbLine
 10
1346.7775047567
 20
-346.1686220057
 30
0.0
 11
1351.5275047567
 21
-345.1686220057
 31
0.0
  0
ARC
  5
181
100
AcDbEntity
  8
L1_120
  6
CONTINUOUS
 62
         7
100
AcDbCircle
 10
1319.3275047567
 20
-329.0186220057
 30
0.0
 40
1.0
100
AcDbArc
 50
180.0
 51
270.0
  0
LINE
  5
182
100
AcDbEntity
  8
L1_120
  6
CONTINUOUS
 62
         7
100
AcDbLine
 10
1319.3275047567
 20
-330.0186220057
 30
0.0
 11
1322.0975047567
 21
-330.0186220057
 31
0.0
  0
ARC
  5
183
100
AcDbEntity
  8
L1_120
  6
CONTINUOUS
 62
         7
100
AcDbCircle
 10
1322.497040337
 20
-330.1186220057
 30
0.0
 40
0.2
100
AcDbArc
 50
90.0
 51
105.0
  0
LINE
  5
184
100
AcDbEntity
  8
L1_120
  6
CONTINUOUS
 62
         7
100
AcDbLine
 10
1322.445276528
 20
-329.9254368405
 30
0.0
 11
1322.0975047567
 21
-330.0186220057
 31
0.0
  0
LINE
  5
185
100
AcDbEntity
  8
L1_120
  6
CONTINUOUS
 62
         7
100
AcDbLine
 10
1322.497040337
 20
-329.9186220057
 30
0.0
 11
1322.8975047567
 21
-329.9186220057
 31
0.0
  0
LINE
  5
186
100
AcDbEntity
  8
L1_120
  6
CONTINUOUS
 62
         7
100
AcDbLine
 10
1323.038926113
 20
-329.9772006495
 30
0.0
 11
1324.2303474692
 21
-331.1686220057
 31
0.0
  0
ARC
  5
187
100
AcDbEntity
  8
L1_120
  6
CONTINUOUS
 62
         7
100
AcDbCircle
 10
1322.8975047567
 20
-330.1186220057
 30
0.0
 40
0.2
100
AcDbArc
 50
45.0000000038
 51
90.0
  0
LINE
  5
188
100
AcDbEntity
  8
L1_120
  6
CONTINUOUS
 62
         7
100
AcDbLine
 10
1323.0975047567
 20
-330.375099165
 30
0.0
 11
1323.0975047567
 21
-345.8473753412
 31
0.0
  0
LINE
  5
189
100
AcDbEntity
  8
L1_120
  6
CONTINUOUS
 62
         7
100
AcDbLine
 10
1322.0975047567
 20
-330.0186220057
 30
0.0
 11
1322.0975047567
 21
-346.3186220057
 31
0.0
  0
LINE
  5
18A
100
AcDbEntity
  8
L1_120
  6
CONTINUOUS
 62
         5
100
AcDbLine
 10
1323.2303474692
 20
-330.1686220057
 30
0.0
 11
1346.7775047567
 21
-330.1686220057
 31
0.0
  0
LINE
  5
18B
100
AcDbEntity
  8
L1_120
  6
CONTINUOUS
 62
         7
100
AcDbLine
 10
1324.2303474692
 20
-331.1686220057
 30
0.0
 11
1397.6775047567
 21
-331.1686220057
 31
0.0
  0
LINE
  5
18C
100
AcDbEntity
  8
L1_120
  6
CONTINUOUS
 62
         7
100
AcDbLine
 10
1324.2303474692
 20
-331.1686220057
 30
0.0
 11
1324.2303474692
 21
-345.1686220057
 31
0.0
  0
LINE
  5
18D
100
AcDbEntity
  8
L1_120
  6
CONTINUOUS
 62
         7
100
AcDbLine
 10
1324.2303474692
 20
-345.1686220057
 30
0.0
 11
1397.6775047567
 21
-345.1686220057
 31
0.0
  0
LINE
  5
18E
100
AcDbEntity
  8
L1_120
  6
CONTINUOUS
 62
         7
100
AcDbLine
 10
1323.038926113
 20
-346.360043362
 30
0.0
 11
1324.2303474692
 21
-345.1686220057
 31
0.0
  0
ARC
  5
18F
100
AcDbEntity
  8
L1_120
  6
CONTINUOUS
 62
         7
100
AcDbCircle
 10
1322.8975047567
 20
-346.2186220057
 30
0.0
 40
0.2
100
AcDbArc
 50
270.0
 51
314.9999999962
  0
LINE
  5
190
100
AcDbEntity
  8
L1_120
  6
CONTINUOUS
 62
         7
100
AcDbLine
 10
1322.497040337
 20
-346.4186220057
 30
0.0
 11
1322.8975047567
 21
-346.4186220057
 31
0.0
  0
LINE
  5
191
100
AcDbEntity
  8
L1_120
  6
CONTINUOUS
 62
         7
100
AcDbLine
 10
1322.445276528
 20
-346.411807171
 30
0.0
 11
1322.0975047567
 21
-346.3186220057
 31
0.0
  0
LINE
  5
192
100
AcDbEntity
  8
L1_120
  6
CONTINUOUS
 62
         7
100
AcDbLine
 10
1319.3275047567
 20
-346.3186220057
 30
0.0
 11
1322.0975047567
 21
-346.3186220057
 31
0.0
  0
ARC
  5
193
100
AcDbEntity
  8
L1_120
  6
CONTINUOUS
 62
         7
100
AcDbCircle
 10
1319.3275047567
 20
-347.3186220057
 30
0.0
 40
1.0
100
AcDbArc
 50
90.0
 51
180.0
  0
LINE
  5
194
100
AcDbEntity
  8
L1_120
  6
CONTINUOUS
 62
         5
100
AcDbLine
 10
1323.2303474692
 20
-346.1686220057
 30
0.0
 11
1346.7775047567
 21
-346.1686220057
 31
0.0
  0
LINE
  5
195
100
AcDbEntity
  8
L1_120
  6
CONTINUOUS
 62
         7
100
AcDbLine
 10
1346.7775047567
 20
-330.1686220057
 30
0.0
 11
1346.7775047567
 21
-346.1686220057
 31
0.0
  0
ARC
  5
196
100
AcDbEntity
  8
L1_120
  6
CONTINUOUS
 62
         7
100
AcDbCircle
 10
1319.5275047567
 20
-349.4028037222
 30
0.0
 40
1.2
100
AcDbArc
 50
180.0
 51
261.7028550302
  0
ARC
  5
197
100
AcDbEntity
  8
L1_120
  6
CONTINUOUS
 62
         7
100
AcDbCircle
 10
1319.5275047567
 20
-326.9344402893
 30
0.0
 40
1.2
100
AcDbArc
 50
98.2971449698
 51
180.0
  0
LINE
  5
198
100
AcDbEntity
  8
L1_120
  6
CONTINUOUS
 62
         7
100
AcDbLine
 10
1318.3275047567
 20
-326.9344402893
 30
0.0
 11
1318.3275047567
 21
-349.4028037222
 31
0.0
  0
LINE
  5
199
100
AcDbEntity
  8
L1_120
  6
CONTINUOUS
 62
         7
100
AcDbLine
 10
1319.204336485
 20
-350.5683682994
 30
0.0
 11
1387.7775047572
 21
-360.5686220058
 31
0.0
  0
LINE
  5
19A
100
AcDbEntity
  8
L1_120
  6
CONTINUOUS
 62
         7
100
AcDbLine
 10
1319.204336485
 20
-325.768875712
 30
0.0
 11
1387.7775047567
 21
-315.7686220057
 31
0.0
  0
LINE
  5
19B
100
AcDbEntity
  8
L1_120
  6
CONTINUOUS
 62
         7
100
AcDbLine
 10
1404.8775047567
 20
-216.9906455357
 30
0.0
 11
1404.8775047567
 21
-233.0906455357
 31
0.0
  0
LINE
  5
19C
100
AcDbEntity
  8
L1_120
  6
CONTINUOUS
 62
         7
100
AcDbLine
 10
1405.6775047567
 20
-216.1906455357
 30
0.0
 11
1404.8775047567
 21
-216.9906455357
 31
0.0
  0
LINE
  5
19D
100
AcDbEntity
  8
L1_120
  6
CENTER
 62
         1
100
AcDbLine
 10
1315.9340030258
 20
-338.1686220057
 30
0.0
 11
1546.5975047567
 21
-338.1686220057
 31
0.0
  0
DIMENSION
  5
1A1
100
AcDbEntity
  8
L1_120
  6
CONTINUOUS
 62
         4
100
AcDbDimension
  2
*D0
 10
1494.9594887089
 20
-209.0386455357
 30
0.0
 11
1536.5557609091
 21
-207.2377579381
 31
0.0
 70
         2
  3
DIMSTYLE1
100
AcDb2LineAngularDimension
 13
1459.602202381
 23
-209.0386455357
 33
0.0
 14
1556.3987064707
 24
-209.0386455357
 34
0.0
 15
1544.7544229482
 25
-212.9575918515
 35
0.0
 16
1535.208286525
 26
-209.0386455357
 36
0.0
  0
POLYLINE
  5
1B1
100
AcDbEntity
  8
L1_120
  6
CONTINUOUS
 62
         7
100
AcDb3dPolyline
 66
         1
 10
0.0
 20
0.0
 30
0.0
 70
         8
  0
VERTEX
  5
1B3
100
AcDbEntity
  8
L1_120
  6
CONTINUOUS
 62
         7
100
AcDbVertex
100
AcDb3dPolylineVertex
 10
1601.4580198866
 20
-201.9632505198
 30
0.0
 70
        32
  0
VERTEX
  5
1B5
100
AcDbEntity
  8
L1_120
  6
CONTINUOUS
 62
         7
100
AcDbVertex
100
AcDb3dPolylineVertex
 10
1601.4580198866
 20
-201.9632505198
 30
0.0
 70
        32
  0
SEQEND
  5
1B7
100
AcDbEntity
  8
L1_120
  6
CONTINUOUS
 62
         7
  0
POLYLINE
  5
1B9
100
AcDbEntity
  8
L1_120
  6
CONTINUOUS
 62
         7
100
AcDb3dPolyline
 66
         1
 10
0.0
 20
0.0
 30
0.0
 70
         8
  0
VERTEX
  5
1BB
100
AcDbEntity
  8
L1_120
  6
CONTINUOUS
 62
         7
100
AcDbVertex
100
AcDb3dPolylineVertex
 10
1600.6978260203
 20
-202.0510468634
 30
0.0
 70
        32
  0
VERTEX
  5
1BD
100
AcDbEntity
  8
L1_120
  6
CONTINUOUS
 62
         7
100
AcDbVertex
100
AcDb3dPolylineVertex
 10
1600.6978260203
 20
-202.0510468634
 30
0.0
 70
        32
  0
SEQEND
  5
1BF
100
AcDbEntity
  8
L1_120
  6
CONTINUOUS
 62
         7
  0
LINE
  5
1C0
100
AcDbEntity
  8
L1_120
  6
CENTER
 62
         1
100
AcDbLine
 10
1597.9637542726
 20
-192.3628346478
 30
0.0
 11
1621.898378016
 21
-258.122672926
 31
0.0
  0
LINE
  5
1C1
100
AcDbEntity
  8
L1_120
  6
DASHED
 62
         2
100
AcDbLine
 10
1603.5784103267
 20
-201.9413665743
 30
0.0
 11
1602.1419257248
 21
-197.994657567
 31
0.0
  0
LINE
  5
1C2
100
AcDbEntity
  8
L1_120
  6
DASHED
 62
         2
100
AcDbLine
 10
1599.8196398436
 20
-203.3094471476
 30
0.0
 11
1598.3831552416
 21
-199.3627381403
 31
0.0
  0
LINE
  5
1C3
100
AcDbEntity
  8
L1_120
  6
DASHED
 62
         2
100
AcDbLine
 10
1603.2495179095
 20
-202.0610736244
 30
0.0
 11
1608.9056930361
 21
-217.6012870654
 31
0.0
  0
LINE
  5
1C4
100
AcDbEntity
  8
L1_120
  6
DASHED
 62
         2
100
AcDbLine
 10
1600.1485322609
 20
-203.1897400974
 30
0.0
 11
1605.8047073875
 21
-218.7299535384
 31
0.0
  0
LINE
  5
1C5
100
AcDbEntity
  8
L1_120
  6
DASHED
 62
         2
100
AcDbLine
 10
1603.5784103267
 20
-201.9413665743
 30
0.0
 11
1599.8196398436
 21
-203.3094471476
 31
0.0
  0
LINE
  5
1C6
100
AcDbEntity
  8
L1_120
  6
DASHED
 62
         2
100
AcDbLine
 10
1616.1365991867
 20
-248.139924497
 30
0.0
 11
1617.5730837887
 21
-252.0866335043
 31
0.0
  0
LINE
  5
1C7
100
AcDbEntity
  8
L1_120
  6
DASHED
 62
         2
100
AcDbLine
 10
1619.8953696699
 20
-246.7718439237
 30
0.0
 11
1616.1365991867
 21
-248.139924497
 31
0.0
  0
LINE
  5
1C8
100
AcDbEntity
  8
L1_120
  6
DASHED
 62
         2
100
AcDbLine
 10
1619.8953696699
 20
-246.7718439237
 30
0.0
 11
1621.3318542718
 21
-250.718552931
 31
0.0
  0
LINE
  5
1C9
100
AcDbEntity
  8
L1_120
  6
DASHED
 62
         2
100
AcDbLine
 10
1613.9103021259
 20
-231.3513375329
 30
0.0
 11
1619.5664772526
 21
-246.8915509739
 31
0.0
  0
LINE
  5
1CA
100
AcDbEntity
  8
L1_120
  6
DASHED
 62
         2
100
AcDbLine
 10
1610.8093164773
 20
-232.4800040059
 30
0.0
 11
1616.465491604
 21
-248.0202174469
 31
0.0
  0
CIRCLE
  5
1CB
100
AcDbEntity
  8
L1_120
  6
DASHED
 62
         2
100
AcDbCircle
 10
1609.9310661443
 20
-225.2427537869
 30
-0.0000000001
 40
7.2021082513
  0
LINE
  5
1CC
100
AcDbEntity
  8
L1_120
  6
DASHED
 62
         2
100
AcDbLine
 10
1619.1432711112
 20
-222.4456455357
 30
0.0
 11
1617.6450471627
 21
-225.0406455357
 31
0.0
  0
LINE
  5
1CD
100
AcDbEntity
  8
L1_120
  6
DASHED
 62
         2
100
AcDbLine
 10
1619.1432711112
 20
-227.6356455357
 30
0.0
 11
1617.6450471627
 21
-225.0406455357
 31
0.0
  0
LINE
  5
1CE
100
AcDbEntity
  8
L1_120
  6
DASHED
 62
         2
100
AcDbLine
 10
1619.1432711112
 20
-222.4456455357
 30
0.0
 11
1619.1432711112
 21
-227.6356455357
 31
0.0
  0
LINE
  5
1CF
100
AcDbEntity
  8
L1_120
  6
DASHED
 62
         2
100
AcDbLine
 10
1621.1432711112
 20
-222.0406455357
 30
0.0
 11
1621.1432711112
 21
-228.0406455357
 31
0.0
  0
LINE
  5
1D0
100
AcDbEntity
  8
L1_120
  6
DASHED
 62
         2
100
AcDbLine
 10
1621.1432711112
 20
-222.0406455357
 30
0.0
 11
1625.5209739627
 21
-222.0406455357
 31
0.0
  0
LINE
  5
1D1
100
AcDbEntity
  8
L1_120
  6
DASHED
 62
         2
100
AcDbLine
 10
1619.1432711112
 20
-222.4456455357
 30
0.0
 11
1625.6070247707
 21
-222.4456455357
 31
0.0
  0
LINE
  5
1D2
100
AcDbEntity
  8
L1_120
  6
DASHED
 62
         2
100
AcDbLine
 10
1621.1432711112
 20
-228.0406455357
 30
0.0
 11
1625.5209739627
 21
-228.0406455357
 31
0.0
  0
LINE
  5
1D3
100
AcDbEntity
  8
L1_120
  6
DASHED
 62
         2
100
AcDbLine
 10
1619.1432711112
 20
-227.6356455357
 30
0.0
 11
1625.6070247707
 21
-227.6356455357
 31
0.0
  0
LINE
  5
1D4
100
AcDbEntity
  8
L1_120
  6
DASHED
 62
         2
100
AcDbLine
 10
1612.4525047567
 20
-234.3264118902
 30
0.0
 11
1609.8575047567
 21
-232.8281879416
 31
0.0
  0
LINE
  5
1D5
100
AcDbEntity
  8
L1_120
  6
DASHED
 62
         2
100
AcDbLine
 10
1607.2625047567
 20
-234.3264118902
 30
0.0
 11
1609.8575047567
 21
-232.8281879416
 31
0.0
  0
LINE
  5
1D6
100
AcDbEntity
  8
L1_120
  6
DASHED
 62
         2
100
AcDbLine
 10
1612.4525047567
 20
-234.3264118902
 30
0.0
 11
1607.2625047567
 21
-234.3264118902
 31
0.0
  0
LINE
  5
1D7
100
AcDbEntity
  8
L1_120
  6
DASHED
 62
         2
100
AcDbLine
 10
1612.8575047567
 20
-236.3264118902
 30
0.0
 11
1606.8575047567
 21
-236.3264118902
 31
0.0
  0
LINE
  5
1D8
100
AcDbEntity
  8
L1_120
  6
DASHED
 62
         2
100
AcDbLine
 10
1612.8575047567
 20
-236.3264118902
 30
0.0
 11
1612.8575047567
 21
-240.7041147416
 31
0.0
  0
LINE
  5
1D9
100
AcDbEntity
  8
L1_120
  6
DASHED
 62
         2
100
AcDbLine
 10
1612.4525047567
 20
-234.3264118902
 30
0.0
 11
1612.4525047567
 21
-240.7901655496
 31
0.0
  0
LINE
  5
1DA
100
AcDbEntity
  8
L1_120
  6
DASHED
 62
         2
100
AcDbLine
 10
1606.8575047567
 20
-236.3264118902
 30
0.0
 11
1606.8575047567
 21
-240.7041147416
 31
0.0
  0
LINE
  5
1DB
100
AcDbEntity
  8
L1_120
  6
DASHED
 62
         2
100
AcDbLine
 10
1607.2625047567
 20
-234.3264118902
 30
0.0
 11
1607.2625047567
 21
-240.7901655496
 31
0.0
  0
LINE
  5
1DC
100
AcDbEntity
  8
L1_120
  6
DASHED
 62
         2
100
AcDbLine
 10
1600.5717384022
 20
-227.6356455357
 30
0.0
 11
1602.0699623508
 21
-225.0406455357
 31
0.0
  0
LINE
  5
1DD
100
AcDbEntity
  8
L1_120
  6
DASHED
 62
         2
100
AcDbLine
 10
1600.5717384022
 20
-222.4456455357
 30
0.0
 11
1602.0699623508
 21
-225.0406455357
 31
0.0
  0
LINE
  5
1DE
100
AcDbEntity
  8
L1_120
  6
DASHED
 62
         2
100
AcDbLine
 10
1600.5717384022
 20
-227.6356455357
 30
0.0
 11
1600.5717384022
 21
-222.4456455357
 31
0.0
  0
LINE
  5
1DF
100
AcDbEntity
  8
L1_120
  6
DASHED
 62
         2
100
AcDbLine
 10
1598.5717384022
 20
-228.0406455357
 30
0.0
 11
1598.5717384022
 21
-222.0406455357
 31
0.0
  0
LINE
  5
1E0
100
AcDbEntity
  8
L1_120
  6
DASHED
 62
         2
100
AcDbLine
 10
1598.5717384022
 20
-228.0406455357
 30
0.0
 11
1594.1940355508
 21
-228.0406455357
 31
0.0
  0
LINE
  5
1E1
100
AcDbEntity
  8
L1_120
  6
DASHED
 62
         2
100
AcDbLine
 10
1600.5717384022
 20
-227.6356455357
 30
0.0
 11
1594.1079847427
 21
-227.6356455357
 31
0.0
  0
LINE
  5
1E2
100
AcDbEntity
  8
L1_120
  6
DASHED
 62
         2
100
AcDbLine
 10
1598.5717384022
 20
-222.0406455357
 30
0.0
 11
1594.1940355508
 21
-222.0406455357
 31
0.0
  0
LINE
  5
1E3
100
AcDbEntity
  8
L1_120
  6
DASHED
 62
         2
100
AcDbLine
 10
1600.5717384022
 20
-222.4456455357
 30
0.0
 11
1594.1079847427
 21
-222.4456455357
 31
0.0
  0
CIRCLE
  5
1E4
100
AcDbEntity
  8
L1_120
  6
CONTINUOUS
 62
         7
100
AcDbCircle
 10
1609.8575047567
 20
-225.0406455357
 30
0.0
 40
4.75
  0
LINE
  5
1E5
100
AcDbEntity
  8
L1_120
  6
DASHED
 62
         2
100
AcDbLine
 10
1607.2625047567
 20
-215.7548791812
 30
0.0
 11
1609.8575047567
 21
-217.2531031297
 31
0.0
  0
LINE
  5
1E6
100
AcDbEntity
  8
L1_120
  6
DASHED
 62
         2
100
AcDbLine
 10
1612.4525047567
 20
-215.7548791812
 30
0.0
 11
1609.8575047567
 21
-217.2531031297
 31
0.0
  0
LINE
  5
1E7
100
AcDbEntity
  8
L1_120
  6
DASHED
 62
         2
100
AcDbLine
 10
1607.2625047567
 20
-215.7548791812
 30
0.0
 11
1612.4525047567
 21
-215.7548791812
 31
0.0
  0
LINE
  5
1E8
100
AcDbEntity
  8
L1_120
  6
DASHED
 62
         2
100
AcDbLine
 10
1606.8575047567
 20
-213.7548791812
 30
0.0
 11
1612.8575047567
 21
-213.7548791812
 31
0.0
  0
LINE
  5
1E9
100
AcDbEntity
  8
L1_120
  6
DASHED
 62
         2
100
AcDbLine
 10
1606.8575047567
 20
-213.7548791812
 30
0.0
 11
1606.8575047567
 21
-209.3771763297
 31
0.0
  0
LINE
  5
1EA
100
AcDbEntity
  8
L1_120
  6
DASHED
 62
         2
100
AcDbLine
 10
1607.2625047567
 20
-215.7548791812
 30
0.0
 11
1607.2625047567
 21
-209.2911255217
 31
0.0
  0
LINE
  5
1EB
100
AcDbEntity
  8
L1_120
  6
DASHED
 62
         2
100
AcDbLine
 10
1612.8575047567
 20
-213.7548791812
 30
0.0
 11
1612.8575047567
 21
-209.3771763297
 31
0.0
  0
LINE
  5
1EC
100
AcDbEntity
  8
L1_120
  6
DASHED
 62
         2
100
AcDbLine
 10
1612.4525047567
 20
-215.7548791812
 30
0.0
 11
1612.4525047567
 21
-209.2911255217
 31
0.0
  0
CIRCLE
  5
1ED
100
AcDbEntity
  8
L1_120
  6
CONTINUOUS
 62
         7
100
AcDbCircle
 10
1609.8575047567
 20
-225.0406455357
 30
0.0
 40
11.938
  0
CIRCLE
  5
1EE
100
AcDbEntity
  8
L1_120
  6
CONTINUOUS
 62
         7
100
AcDbCircle
 10
1609.8575047567
 20
-225.0406455357
 30
0.0
 40
16.002
  0
LINE
  5
1EF
100
AcDbEntity
  8
L1_120
  6
DASHED
 62
         2
100
AcDbLine
 10
1415.8849142291
 20
-216.0386455357
 30
0.0
 11
1413.2899142291
 21
-217.5368694842
 31
0.0
  0
LINE
  5
1F0
100
AcDbEntity
  8
L1_120
  6
DASHED
 62
         2
100
AcDbLine
 10
1410.6949142291
 20
-216.0386455357
 30
0.0
 11
1413.2899142291
 21
-217.5368694842
 31
0.0
  0
LINE
  5
1F1
100
AcDbEntity
  8
L1_120
  6
DASHED
 62
         2
100
AcDbLine
 10
1410.6949142291
 20
-216.0386455357
 30
0.0
 11
1415.8849142291
 21
-216.0386455357
 31
0.0
  0
LINE
  5
1F2
100
AcDbEntity
  8
L1_120
  6
DASHED
 62
         2
100
AcDbLine
 10
1410.2899142291
 20
-214.0386455357
 30
0.0
 11
1416.2899142291
 21
-214.0386455357
 31
0.0
  0
LINE
  5
1F3
100
AcDbEntity
  8
L1_120
  6
DASHED
 62
         2
100
AcDbLine
 10
1410.6949142291
 20
-216.0386455357
 30
0.0
 11
1410.6949142291
 21
-209.0386455357
 31
0.0
  0
LINE
  5
1F4
100
AcDbEntity
  8
L1_120
  6
DASHED
 62
         2
100
AcDbLine
 10
1410.2899142291
 20
-214.0386455357
 30
0.0
 11
1410.2899142291
 21
-209.0386455357
 31
0.0
  0
LINE
  5
1F5
100
AcDbEntity
  8
L1_120
  6
DASHED
 62
         2
100
AcDbLine
 10
1416.2899142291
 20
-214.0386455357
 30
0.0
 11
1416.2899142291
 21
-209.142926329
 31
0.0
  0
LINE
  5
1F6
100
AcDbEntity
  8
L1_120
  6
DASHED
 62
         2
100
AcDbLine
 10
1415.8849142291
 20
-216.0386455357
 30
0.0
 11
1415.8849142291
 21
-209.1110521378
 31
0.0
  0
ARC
  5
1F7
100
AcDbEntity
  8
L1_120
  6
CONTINUOUS
 62
         4
100
AcDbCircle
 10
1413.2775047567
 20
-225.0406455357
 30
0.0
 40
3.0
100
AcDbArc
 50
248.8783472373
 51
540.0
  0
CIRCLE
  5
1F8
100
AcDbEntity
  8
L1_120
  6
CONTINUOUS
 62
         7
100
AcDbCircle
 10
1413.2775047567
 20
-225.0406455357
 30
0.0
 40
2.595
  0
LINE
  5
1F9
100
AcDbEntity
  8
L1_120
  6
DASHED
 62
         2
100
AcDbLine
 10
1410.6949142291
 20
-234.0426455357
 30
0.0
 11
1415.8849142291
 21
-234.0426455357
 31
0.0
  0
LINE
  5
1FA
100
AcDbEntity
  8
L1_120
  6
DASHED
 62
         2
100
AcDbLine
 10
1410.6949142291
 20
-234.0426455357
 30
0.0
 11
1413.2899142291
 21
-232.5444215871
 31
0.0
  0
LINE
  5
1FB
100
AcDbEntity
  8
L1_120
  6
DASHED
 62
         2
100
AcDbLine
 10
1415.8849142291
 20
-234.0426455357
 30
0.0
 11
1413.2899142291
 21
-232.5444215871
 31
0.0
  0
LINE
  5
1FC
100
AcDbEntity
  8
L1_120
  6
DASHED
 62
         2
100
AcDbLine
 10
1416.2899142291
 20
-236.0426455357
 30
0.0
 11
1416.2899142291
 21
-241.0426455357
 31
0.0
  0
LINE
  5
1FD
100
AcDbEntity
  8
L1_120
  6
DASHED
 62
         2
100
AcDbLine
 10
1415.8849142291
 20
-234.0426455357
 30
0.0
 11
1415.8849142291
 21
-240.9702389335
 31
0.0
  0
LINE
  5
1FE
100
AcDbEntity
  8
L1_120
  6
DASHED
 62
         2
100
AcDbLine
 10
1410.2899142291
 20
-236.0426455357
 30
0.0
 11
1416.2899142291
 21
-236.0426455357
 31
0.0
  0
LINE
  5
1FF
100
AcDbEntity
  8
L1_120
  6
DASHED
 62
         2
100
AcDbLine
 10
1410.2899142291
 20
-236.0426455357
 30
0.0
 11
1410.2899142291
 21
-241.0426455357
 31
0.0
  0
LINE
  5
200
100
AcDbEntity
  8
L1_120
  6
DASHED
 62
         2
100
AcDbLine
 10
1410.6949142291
 20
-234.0426455357
 30
0.0
 11
1410.6949142291
 21
-241.0426455357
 31
0.0
  0
ARC
  5
201
100
AcDbEntity
  8
L1_120
  6
CONTINUOUS
 62
         7
100
AcDbCircle
 10
1408.6775047567
 20
-244.0426455357
 30
0.0
 40
3.0
100
AcDbArc
 50
90.0
 51
180.0
  0
ARC
  5
202
100
AcDbEntity
  8
L1_120
  6
CONTINUOUS
 62
         7
100
AcDbCircle
 10
1408.6775047567
 20
-206.0386455357
 30
0.0
 40
3.0
100
AcDbArc
 50
180.0
 51
270.0
  0
LINE
  5
203
100
AcDbEntity
  8
L1_120
  6
CONTINUOUS
 62
         4
100
AcDbLine
 10
1494.9594887089
 20
-209.0386455357
 30
0.0
 11
1494.9594887089
 21
-241.0426455357
 31
0.0
  0
LINE
  5
204
100
AcDbEntity
  8
L1_120
  6
CONTINUOUS
 62
         7
100
AcDbLine
 10
1408.6775047567
 20
-209.0386455357
 30
0.0
 11
1494.9594887089
 21
-209.0386455357
 31
0.0
  0
LINE
  5
205
100
AcDbEntity
  8
L1_120
  6
CONTINUOUS
 62
         7
100
AcDbLine
 10
1408.6775047567
 20
-241.0426455357
 30
0.0
 11
1494.9594887089
 21
-241.0426455357
 31
0.0
  0
LINE
  5
206
100
AcDbEntity
  8
L1_120
  6
CONTINUOUS
 62
         7
100
AcDbLine
 10
1545.6759638525
 20
-237.0511723777
 30
0.0
 11
1494.9594887089
 21
-241.0426455357
 31
0.0
  0
ARC
  5
207
100
AcDbEntity
  8
L1_120
  6
CONTINUOUS
 62
         7
100
AcDbCircle
 10
1545.5975047567
 20
-236.054255044
 30
0.0
 40
1.0
100
AcDbArc
 50
274.5
 51
360.0
  0
LINE
  5
208
100
AcDbEntity
  8
L1_120
  6
CONTINUOUS
 62
         7
100
AcDbLine
 10
1546.5975047567
 20
-214.0270360273
 30
0.0
 11
1546.5975047567
 21
-236.054255044
 31
0.0
  0
ARC
  5
209
100
AcDbEntity
  8
L1_120
  6
CONTINUOUS
 62
         7
100
AcDbCircle
 10
1545.5975047567
 20
-214.0270360273
 30
0.0
 40
1.0
100
AcDbArc
 50
0.0
 51
85.5
  0
LINE
  5
20A
100
AcDbEntity
  8
L1_120
  6
CONTINUOUS
 62
         7
100
AcDbLine
 10
1545.6759638525
 20
-213.0301186936
 30
0.0
 11
1494.9594887089
 21
-209.0386455357
 31
0.0
  0
DIMENSION
  5
20D
100
AcDbEntity
  8
L1_120
  6
CONTINUOUS
 62
         4
100
AcDbDimension
  2
*D1
 10
1567.7296010824
 20
-209.0386455357
 30
0.0
 11
1565.7046010824
 21
-230.361933661
 31
0.0
  3
DIMSTYLE1
100
AcDbAlignedDimension
 13
1494.9594887089
 23
-209.0386455357
 33
0.0
 14
1494.9594887089
 24
-241.0426455357
 34
0.0
 50
90.0
100
AcDbRotatedDimension
  0
DIMENSION
  5
21B
100
AcDbEntity
  8
L1_120
  6
CONTINUOUS
 62
         4
100
AcDbDimension
  2
*D2
 10
1558.770974709
 20
-213.1026455357
 30
0.0
 11
1556.745974709
 21
-230.8744585986
 31
0.0
  3
DIMSTYLE1
100
AcDbAlignedDimension
 13
1546.5975047567
 23
-213.1026455357
 33
0.0
 14
1546.5975047567
 24
-236.9786455357
 34
0.0
 50
90.0
100
AcDbRotatedDimension
  0
ARC
  5
227
100
AcDbEntity
  8
L1_120
  6
CONTINUOUS
 62
         7
100
AcDbCircle
 10
1609.8575047567
 20
-225.0406455357
 30
0.0
 40
31.775
100
AcDbArc
 50
195.411296411
 51
344.588703589
  0
ARC
  5
228
100
AcDbEntity
  8
L1_120
  6
CONTINUOUS
 62
         7
100
AcDbCircle
 10
1609.8575047567
 20
-225.0406455357
 30
0.0
 40
31.775
100
AcDbArc
 50
15.411296411
 51
164.588703589
  0
LINE
  5
229
100
AcDbEntity
  8
L1_120
  6
CENTER
 62
         1
100
AcDbLine
 10
1609.8575047567
 20
-190.2656455357
 30
0.0
 11
1609.8575047567
 21
-259.8156455357
 31
0.0
  0
ARC
  5
22A
100
AcDbEntity
  8
L1_120
  6
DASHED
 62
         2
100
AcDbCircle
 10
1609.8575047567
 20
-225.0406455357
 30
0.0
 40
28.125
100
AcDbArc
 50
16.6319205355
 51
163.3680794645
  0
ARC
  5
22B
100
AcDbEntity
  8
L1_120
  6
DASHED
 62
         2
100
AcDbCircle
 10
1609.8575047567
 20
-225.0406455357
 30
0.0
 40
28.125
100
AcDbArc
 50
196.6319205355
 51
343.3680794645
  0
LINE
  5
22C
100
AcDbEntity
  8
L1_120
  6
CONTINUOUS
 62
         7
100
AcDbLine
 10
1632.6575047567
 20
-217.4906455357
 30
0.0
 11
1632.6575047567
 21
-232.5906455357
 31
0.0
  0
LINE
  5
22D
100
AcDbEntity
  8
L1_120
  6
CONTINUOUS
 62
         7
100
AcDbLine
 10
1632.6575047567
 20
-217.4906455357
 30
0.0
 11
1633.1575047567
 21
-216.9906455357
 31
0.0
  0
LINE
  5
22E
100
AcDbEntity
  8
L1_120
  6
CONTINUOUS
 62
         7
100
AcDbLine
 10
1633.1575047567
 20
-216.9906455357
 30
0.0
 11
1640.0958867083
 21
-216.9906455357
 31
0.0
  0
LINE
  5
22F
100
AcDbEntity
  8
L1_120
  6
CONTINUOUS
 62
         7
100
AcDbLine
 10
1640.4899719895
 20
-216.5965602545
 30
0.0
 11
1640.0958867083
 21
-216.9906455357
 31
0.0
  0
LINE
  5
230
100
AcDbEntity
  8
L1_120
  6
CONTINUOUS
 62
         7
100
AcDbLine
 10
1633.1575047567
 20
-233.0906455357
 30
0.0
 11
1640.0958867083
 21
-233.0906455357
 31
0.0
  0
LINE
  5
231
100
AcDbEntity
  8
L1_120
  6
CONTINUOUS
 62
         7
100
AcDbLine
 10
1632.6575047567
 20
-232.5906455357
 30
0.0
 11
1633.1575047567
 21
-233.0906455357
 31
0.0
  0
LINE
  5
232
100
AcDbEntity
  8
L1_120
  6
CONTINUOUS
 62
         7
100
AcDbLine
 10
1640.4899719895
 20
-233.4847308168
 30
0.0
 11
1640.0958867083
 21
-233.0906455357
 31
0.0
  0
LINE
  5
233
100
AcDbEntity
  8
L1_120
  6
CONTINUOUS
 62
         7
100
AcDbLine
 10
1579.6191228052
 20
-216.9906455357
 30
0.0
 11
1584.3575047567
 21
-216.9906455357
 31
0.0
  0
LINE
  5
234
100
AcDbEntity
  8
L1_120
  6
CONTINUOUS
 62
         7
100
AcDbLine
 10
1584.8575047567
 20
-217.4906455357
 30
0.0
 11
1584.8575047567
 21
-232.5906455357
 31
0.0
  0
LINE
  5
235
100
AcDbEntity
  8
L1_120
  6
CONTINUOUS
 62
         7
100
AcDbLine
 10
1584.8575047567
 20
-217.4906455357
 30
0.0
 11
1584.3575047567
 21
-216.9906455357
 31
0.0
  0
LINE
  5
236
100
AcDbEntity
  8
L1_120
  6
CONTINUOUS
 62
         7
100
AcDbLine
 10
1579.225037524
 20
-216.5965602545
 30
0.0
 11
1579.6191228052
 21
-216.9906455357
 31
0.0
  0
LINE
  5
237
100
AcDbEntity
  8
L1_120
  6
CONTINUOUS
 62
         7
100
AcDbLine
 10
1584.8575047567
 20
-232.5906455357
 30
0.0
 11
1584.3575047567
 21
-233.0906455357
 31
0.0
  0
LINE
  5
238
100
AcDbEntity
  8
L1_120
  6
CONTINUOUS
 62
         7
100
AcDbLine
 10
1579.225037524
 20
-233.4847308168
 30
0.0
 11
1579.6191228052
 21
-233.0906455357
 31
0.0
  0
LINE
  5
239
100
AcDbEntity
  8
L1_120
  6
CONTINUOUS
 62
         7
100
AcDbLine
 10
1579.6191228052
 20
-233.0906455357
 30
0.0
 11
1584.3575047567
 21
-233.0906455357
 31
0.0
  0
LINE
  5
23A
100
AcDbEntity
  8
L1_120
  6
CENTER
 62
         1
100
AcDbLine
 10
1578.0825047567
 20
-225.0406455357
 30
0.0
 11
1641.6325047567
 21
-225.0406455357
 31
0.0
  0
LINE
  5
23B
100
AcDbEntity
  8
L1_120
  6
CENTER
 62
         1
100
AcDbLine
 10
1576.4965556982
 20
-207.302314272
 30
0.0
 11
1609.8310752864
 21
-225.026592737
 31
0.0
  0
LINE
  5
23C
100
AcDbEntity
  8
L1_120
  6
DASHED
 62
         2
100
AcDbLine
 10
1584.8575047567
 20
-230.2406455357
 30
0.0
 11
1585.0575047567
 21
-230.0406455357
 31
0.0
  0
LINE
  5
23D
100
AcDbEntity
  8
L1_120
  6
DASHED
 62
         2
100
AcDbLine
 10
1584.8575047567
 20
-219.8406455357
 30
0.0
 11
1585.0575047567
 21
-220.0406455357
 31
0.0
  0
LINE
  5
23E
100
AcDbEntity
  8
L1_120
  6
DASHED
 62
         2
100
AcDbLine
 10
1585.0575047567
 20
-220.0406455357
 30
0.0
 11
1585.0575047567
 21
-230.0406455357
 31
0.0
  0
ARC
  5
23F
100
AcDbEntity
  8
L1_120
  6
DASHED
 62
         2
100
AcDbCircle
 10
1589.3075047567
 20
-229.8406455357
 30
0.0
 40
0.2
100
AcDbArc
 50
270.0
 51
360.0
  0
ARC
  5
240
100
AcDbEntity
  8
L1_120
  6
DASHED
 62
         2
100
AcDbCircle
 10
1589.3075047567
 20
-220.2406455357
 30
0.0
 40
0.2
100
AcDbArc
 50
0.0
 51
90.0
  0
LINE
  5
241
100
AcDbEntity
  8
L1_120
  6
DASHED
 62
         2
100
AcDbLine
 10
1589.5075047567
 20
-220.2406455357
 30
0.0
 11
1589.5075047567
 21
-229.8406455357
 31
0.0
  0
LINE
  5
242
100
AcDbEntity
  8
L1_120
  6
DASHED
 62
         2
100
AcDbLine
 10
1585.0575047567
 20
-220.0406455357
 30
0.0
 11
1589.3075047567
 21
-220.0406455357
 31
0.0
  0
LINE
  5
243
100
AcDbEntity
  8
L1_120
  6
DASHED
 62
         2
100
AcDbLine
 10
1585.0575047567
 20
-230.0406455357
 30
0.0
 11
1589.3075047567
 21
-230.0406455357
 31
0.0
  0
LINE
  5
244
100
AcDbEntity
  8
L1_120
  6
CENTER
 62
         1
100
AcDbLine
 10
1576.4965556982
 20
-242.7789767993
 30
0.0
 11
1609.8310752864
 21
-225.0546983343
 31
0.0
  0
LINE
  5
245
100
AcDbEntity
  8
L1_120
  6
DASHED
 62
         2
100
AcDbLine
 10
1584.1485275434
 20
-236.445211097
 30
0.0
 11
1591.0126488569
 21
-232.7954930545
 31
0.0
  0
LINE
  5
246
100
AcDbEntity
  8
L1_120
  6
DASHED
 62
         2
100
AcDbLine
 10
1586.0264137945
 20
-239.9770014684
 30
0.0
 11
1592.890535108
 21
-236.327283426
 31
0.0
  0
LINE
  5
247
100
AcDbEntity
  8
L1_120
  6
DASHED
 62
         2
100
AcDbLine
 10
1591.0126488569
 20
-232.7954930545
 30
0.0
 11
1592.890535108
 21
-236.327283426
 31
0.0
  0
LINE
  5
248
100
AcDbEntity
  8
L1_120
  6
DASHED
 62
         2
100
AcDbLine
 10
1592.9711320433
 20
-234.0192891739
 30
0.0
 11
1592.890535108
 21
-236.327283426
 31
0.0
  0
LINE
  5
249
100
AcDbEntity
  8
L1_120
  6
DASHED
 62
         2
100
AcDbLine
 10
1591.0126488569
 20
-232.7954930545
 30
0.0
 11
1592.9711320433
 21
-234.0192891739
 31
0.0
  0
LINE
  5
24A
100
AcDbEntity
  8
L1_120
  6
DASHED
 62
         2
100
AcDbLine
 10
1584.1485275434
 20
-213.6360799743
 30
0.0
 11
1591.0126488569
 21
-217.2857980168
 31
0.0
  0
LINE
  5
24B
100
AcDbEntity
  8
L1_120
  6
DASHED
 62
         2
100
AcDbLine
 10
1591.0126488569
 20
-217.2857980168
 30
0.0
 11
1592.890535108
 21
-213.7540076454
 31
0.0
  0
LINE
  5
24C
100
AcDbEntity
  8
L1_120
  6
DASHED
 62
         2
100
AcDbLine
 10
1591.0126488569
 20
-217.2857980168
 30
0.0
 11
1592.9711320433
 21
-216.0620018974
 31
0.0
  0
LINE
  5
24D
100
AcDbEntity
  8
L1_120
  6
DASHED
 62
         2
100
AcDbLine
 10
1592.9711320433
 20
-216.0620018974
 30
0.0
 11
1592.890535108
 21
-213.7540076454
 31
0.0
  0
LINE
  5
24E
100
AcDbEntity
  8
L1_120
  6
DASHED
 62
         2
100
AcDbLine
 10
1586.0264137945
 20
-210.1042896029
 30
0.0
 11
1592.890535108
 21
-213.7540076454
 31
0.0
  0
LINE
  5
24F
100
AcDbEntity
  8
L1_120
  6
CONTINUOUS
 62
         7
100
AcDbLine
 10
1584.8575047567
 20
-219.8406455357
 30
0.0
 11
1584.8575047567
 21
-230.2406455357
 31
0.0
  0
DIMENSION
  5
252
100
AcDbEntity
  8
L1_120
  6
CONTINUOUS
 62
         4
100
AcDbDimension
  2
*D3
 10
1386.5775047567
 20
-158.5566544833
 30
0.0
 11
1462.5375047567
 21
-156.5316544833
 31
0.0
  3
DIMSTYLE1
100
AcDbAlignedDimension
 13
1386.5775047567
 23
-202.8156455357
 33
0.0
 14
1546.5975047567
 24
-214.0270360273
 34
0.0
100
AcDbRotatedDimension
  0
DIMENSION
  5
260
100
AcDbEntity
  8
L1_120
  6
CONTINUOUS
 62
         4
100
AcDbDimension
  2
*D4
 10
1318.3275047567
 20
-151.1278083532
 30
0.0
 11
1416.716076582
 21
-149.1028083532
 31
0.0
  3
DIMSTYLE1
100
AcDbAlignedDimension
 13
1318.3275047567
 23
-213.8064638192
 33
0.0
 14
1546.5975047567
 24
-214.0270360273
 34
0.0
100
AcDbRotatedDimension
  0
LINE
  5
26C
100
AcDbEntity
  8
L1_120
  6
CONTINUOUS
 62
         7
100
AcDbLine
 10
1388.9775047567
 20
-315.7686220057
 30
0.0
 11
1387.7775047567
 21
-315.7686220057
 31
0.0
  0
ARC
  5
26D
100
AcDbEntity
  8
L1_120
  6
CONTINUOUS
 62
         7
100
AcDbCircle
 10
1388.9775047567
 20
-314.9686220057
 30
0.0
 40
0.8
100
AcDbArc
 50
269.9999999999
 51
360.0
  0
LINE
  5
26E
100
AcDbEntity
  8
L1_120
  6
CONTINUOUS
 62
         7
100
AcDbLine
 10
1401.2137751555
 20
-306.3936220055
 30
0.0
 11
1404.6775047567
 21
-306.3936220055
 31
0.0
  0
LINE
  5
26F
100
AcDbEntity
  8
L1_120
  6
CONTINUOUS
 62
         7
100
AcDbLine
 10
1399.5525047567
 20
-309.2710267413
 30
0.0
 11
1401.2137751555
 21
-306.3936220055
 31
0.0
  0
ARC
  5
270
100
AcDbEntity
  8
L1_120
  6
CONTINUOUS
 62
         7
100
AcDbCircle
 10
1398.578704425
 20
-309.0436220055
 30
0.0
 40
1.0
100
AcDbArc
 50
270.0
 51
346.8556743105
  0
LINE
  5
271
100
AcDbEntity
  8
L1_120
  6
CONTINUOUS
 62
         7
100
AcDbLine
 10
1396.7763050885
 20
-310.0436220055
 30
0.0
 11
1398.578704425
 21
-310.0436220055
 31
0.0
  0
ARC
  5
272
100
AcDbEntity
  8
L1_120
  6
CONTINUOUS
 62
         7
100
AcDbCircle
 10
1396.7763050885
 20
-309.0436220055
 30
0.0
 40
1.0
100
AcDbArc
 50
193.1443256895
 51
270.0
  0
LINE
  5
273
100
AcDbEntity
  8
L1_120
  6
CONTINUOUS
 62
         7
100
AcDbLine
 10
1395.8025047567
 20
-309.2710267415
 30
0.0
 11
1394.1412343579
 21
-306.3936220057
 31
0.0
  0
LINE
  5
274
100
AcDbEntity
  8
L1_120
  6
CONTINUOUS
 62
         7
100
AcDbLine
 10
1390.7775047567
 20
-306.3936220055
 30
0.0
 11
1394.1412343579
 21
-306.3936220055
 31
0.0
  0
LINE
  5
275
100
AcDbEntity
  8
L1_120
  6
CONTINUOUS
 62
         7
100
AcDbLine
 10
1389.7775047567
 20
-314.9686220057
 30
0.0
 11
1389.7775047567
 21
-307.3936220055
 31
0.0
  0
LINE
  5
276
100
AcDbEntity
  8
L1_120
  6
CENTER
 62
         1
100
AcDbLine
 10
1389.0668741014
 20
-310.671033064
 30
0.0
 11
1400.0207623477
 21
-318.3410281868
 31
0.0
  0
LINE
  5
277
100
AcDbEntity
  8
L1_120
  6
CONTINUOUS
 62
         7
100
AcDbLine
 10
1389.7775047567
 20
-308.6660340988
 30
0.0
 11
1392.1004893239
 21
-310.2926054039
 31
0.0
  0
LINE
  5
278
100
AcDbEntity
  8
L1_120
  6
CONTINUOUS
 62
         7
100
AcDbLine
 10
1389.7775047567
 20
-313.6101711832
 30
0.0
 11
1392.1004893239
 21
-310.2926054039
 31
0.0
  0
LINE
  5
279
100
AcDbEntity
  8
L1_120
  6
CONTINUOUS
 62
         4
100
AcDbLine
 10
1389.7775047567
 20
-313.6101711832
 30
0.0
 11
1393.463688956
 21
-316.1912651468
 31
0.0
  0
LINE
  5
27A
100
AcDbEntity
  8
L1_120
  6
CONTINUOUS
 62
         7
100
AcDbLine
 10
1389.9782565095
 20
-313.3234679677
 30
0.0
 11
1396.1275017539
 21
-317.6292158422
 31
0.0
  0
LINE
  5
27B
100
AcDbEntity
  8
L1_120
  6
CONTINUOUS
 62
         7
100
AcDbLine
 10
1391.8710587494
 20
-310.6202662216
 30
0.0
 11
1397.0487058047
 21
-314.2456937199
 31
0.0
  0
LINE
  5
27C
100
AcDbEntity
  8
L1_120
  6
CONTINUOUS
 62
         4
100
AcDbLine
 10
1392.0718105021
 20
-310.3335630061
 30
0.0
 11
1395.7579947014
 21
-312.9146569697
 31
0.0
  0
LINE
  5
27D
100
AcDbEntity
  8
L1_120
  6
CONTINUOUS
 62
         7
100
AcDbLine
 10
1395.7775050223
 20
-309.2277259313
 30
0.0
 11
1395.7775034165
 21
-313.3555882251
 31
0.0
  0
LINE
  5
27E
100
AcDbEntity
  8
L1_120
  6
CONTINUOUS
 62
         7
100
AcDbLine
 10
1399.777505157
 20
-308.8813146165
 30
0.0
 11
1399.7775031488
 21
-314.0436220057
 31
0.0
  0
LINE
  5
27F
100
AcDbEntity
  8
L1_120
  6
CONTINUOUS
 62
         4
100
AcDbLine
 10
1399.6530031702
 20
-316.0692423669
 30
0.0
 11
1397.7602009302
 21
-318.7724441131
 31
0.0
  0
LINE
  5
280
100
AcDbEntity
  8
L1_120
  6
CONTINUOUS
 62
         4
100
AcDbLine
 10
1399.1834563026
 20
-318.1087692334
 30
0.0
 11
1397.7602009302
 21
-318.7724441131
 31
0.0
  0
LINE
  5
281
100
AcDbEntity
  8
L1_120
  6
CONTINUOUS
 62
         4
100
AcDbLine
 10
1396.1506268762
 20
-317.6454082272
 30
0.0
 11
1397.5680505305
 21
-318.6378989547
 31
0.0
  0
LINE
  5
282
100
AcDbEntity
  8
L1_120
  6
CONTINUOUS
 62
         7
100
AcDbLine
 10
1393.463688956
 20
-316.1912651468
 30
0.0
 11
1395.7866735232
 21
-312.8736993675
 31
0.0
  0
LINE
  5
283
100
AcDbEntity
  8
L1_120
  6
CONTINUOUS
 62
         4
100
AcDbLine
 10
1399.7775031488
 20
-314.0436220057
 30
0.0
 11
1396.7601158125
 21
-314.0436208319
 31
0.0
  0
LINE
  5
284
100
AcDbEntity
  8
L1_120
  6
CONTINUOUS
 62
         7
100
AcDbLine
 10
1399.4275030702
 20
-314.2456946453
 30
0.0
 11
1397.0487058047
 21
-314.2456937199
 31
0.0
  0
LINE
  5
285
100
AcDbEntity
  8
L1_120
  6
CONTINUOUS
 62
         7
100
AcDbLine
 10
1399.7775031488
 20
-314.0436220057
 30
0.0
 11
1399.4275030702
 21
-314.2456946453
 31
0.0
  0
LINE
  5
286
100
AcDbEntity
  8
L1_120
  6
CONTINUOUS
 62
         7
100
AcDbLine
 10
1399.4275030702
 20
-314.2456946453
 30
0.0
 11
1399.4275024222
 21
-315.9113450433
 31
0.0
  0
LINE
  5
287
100
AcDbEntity
  8
L1_120
  6
CONTINUOUS
 62
         7
100
AcDbLine
 10
1399.4275024222
 20
-315.9113450433
 30
0.0
 11
1399.6530031702
 21
-316.0692423669
 31
0.0
  0
LINE
  5
288
100
AcDbEntity
  8
L1_120
  6
CONTINUOUS
 62
         7
100
AcDbLine
 10
1399.6530031702
 20
-316.0692423669
 30
0.0
 11
1399.4869491781
 21
-317.9672481814
 31
0.0
  0
LINE
  5
289
100
AcDbEntity
  8
L1_120
  6
CONTINUOUS
 62
         4
100
AcDbLine
 10
1397.8179283682
 20
-314.7843091574
 30
0.0
 11
1399.2353520225
 21
-315.776799885
 31
0.0
  0
LINE
  5
28A
100
AcDbEntity
  8
L1_120
  6
CONTINUOUS
 62
         7
100
AcDbLine
 10
1399.4275016116
 20
-317.9949690369
 30
0.0
 11
1399.4274956221
 21
-333.3914780549
 31
0.0
  0
LINE
  5
28B
100
AcDbEntity
  8
L1_120
  6
CONTINUOUS
 62
         7
100
AcDbLine
 10
1396.1275017539
 20
-317.6292158422
 30
0.0
 11
1396.1274964869
 21
-331.1686220057
 31
0.0
  0
ARC
  5
28C
100
AcDbEntity
  8
L1_120
  6
CONTINUOUS
 62
         7
100
AcDbCircle
 10
1390.7775047567
 20
-307.3936220057
 30
0.0
 40
1.0
100
AcDbArc
 50
90.0
 51
180.0
  0
LINE
  5
28D
100
AcDbEntity
  8
L1_120
  6
CONTINUOUS
 62
         7
100
AcDbLine
 10
1390.7775047567
 20
-306.3936220057
 30
0.0
 11
1391.7775047567
 21
-306.3936220057
 31
0.0
  0
LINE
  5
28E
100
AcDbEntity
  8
L1_120
  6
CONTINUOUS
 62
         7
100
AcDbLine
 10
1389.7775047567
 20
-307.3936220057
 30
0.0
 11
1389.7775047567
 21
-308.3936220057
 31
0.0
  0
LINE
  5
28F
100
AcDbEntity
  8
L1_120
  6
CONTINUOUS
 62
         7
100
AcDbLine
 10
1403.6775047567
 20
-306.3936220057
 30
0.0
 11
1404.6775047567
 21
-306.3936220057
 31
0.0
  0
ARC
  5
290
100
AcDbEntity
  8
L1_120
  6
CONTINUOUS
 62
         7
100
AcDbCircle
 10
1404.6775047567
 20
-307.3936220057
 30
0.0
 40
1.0
100
AcDbArc
 50
0.0
 51
90.0
  0
LINE
  5
291
100
AcDbEntity
  8
L1_120
  6
CONTINUOUS
 62
         7
100
AcDbLine
 10
1405.6775047567
 20
-307.3936220057
 30
0.0
 11
1405.6775047567
 21
-318.9906396621
 31
0.0
  0
LINE
  5
292
100
AcDbEntity
  8
L1_120
  6
CONTINUOUS
 62
         4
100
AcDbLine
 10
1479.5975047567
 20
-333.1686220057
 30
0.0
 11
1479.5975047567
 21
-343.1686220057
 31
0.0
  0
LINE
  5
293
100
AcDbEntity
  8
L1_120
  6
CONTINUOUS
 62
         7
100
AcDbLine
 10
1398.1441290838
 20
-345.1686220057
 30
0.0
 11
1398.1441290837
 21
-331.1686220057
 31
0.0
  0
LINE
  5
294
100
AcDbEntity
  8
L1_120
  6
CONTINUOUS
 62
         7
100
AcDbLine
 10
1399.5875047567
 20
-333.6686220057
 30
0.0
 11
1398.1441290837
 21
-331.1686220057
 31
0.0
  0
LINE
  5
295
100
AcDbEntity
  8
L1_120
  6
CONTINUOUS
 62
         7
100
AcDbLine
 10
1399.5875047567
 20
-342.6686220057
 30
0.0
 11
1398.1441290837
 21
-345.1686220057
 31
0.0
  0
LINE
  5
296
100
AcDbEntity
  8
L1_120
  6
CONTINUOUS
 62
         4
100
AcDbLine
 10
1545.5975047567
 20
-331.8341220057
 30
0.0
 11
1545.5975047567
 21
-344.5031220057
 31
0.0
  0
LINE
  5
297
100
AcDbEntity
  8
L1_120
  6
CONTINUOUS
 62
         7
100
AcDbLine
 10
1509.5975047567
 20
-331.1686220057
 30
0.0
 11
1509.5975047567
 21
-345.1686220057
 31
0.0
  0
LINE
  5
298
100
AcDbEntity
  8
L1_120
  6
CONTINUOUS
 62
         7
100
AcDbLine
 10
1499.5975047567
 20
-331.1686220057
 30
0.0
 11
1499.5975047567
 21
-345.1686220057
 31
0.0
  0
LINE
  5
299
100
AcDbEntity
  8
L1_120
  6
CONTINUOUS
 62
         7
100
AcDbLine
 10
1509.5975047567
 20
-331.8341220057
 30
0.0
 11
1545.5975047567
 21
-331.8341220057
 31
0.0
  0
LINE
  5
29A
100
AcDbEntity
  8
L1_120
  6
CONTINUOUS
 62
         7
100
AcDbLine
 10
1509.5975047567
 20
-344.5031220057
 30
0.0
 11
1545.5975047567
 21
-344.5031220057
 31
0.0
  0
ARC
  5
29B
100
AcDbEntity
  8
L1_120
  6
CONTINUOUS
 62
         7
100
AcDbCircle
 10
1545.5975047567
 20
-330.8341220057
 30
0.0
 40
1.0
100
AcDbArc
 50
270.0
 51
360.0
  0
ARC
  5
29C
100
AcDbEntity
  8
L1_120
  6
CONTINUOUS
 62
         7
100
AcDbCircle
 10
1545.5975047567
 20
-345.5031220057
 30
0.0
 40
1.0
100
AcDbArc
 50
0.0
 51
90.0
  0
LINE
  5
29D
100
AcDbEntity
  8
L1_120
  6
CONTINUOUS
 62
         7
100
AcDbLine
 10
1499.5975047567
 20
-345.1686220057
 30
0.0
 11
1509.5975047567
 21
-345.1686220057
 31
0.0
  0
LINE
  5
29E
100
AcDbEntity
  8
L1_120
  6
CONTINUOUS
 62
         4
100
AcDbLine
 10
1479.5975047567
 20
-343.1686220057
 30
0.0
 11
1499.5975047567
 21
-343.1686220057
 31
0.0
  0
LINE
  5
29F
100
AcDbEntity
  8
L1_120
  6
CONTINUOUS
 62
         7
100
AcDbLine
 10
1399.5875047567
 20
-342.6686220057
 30
0.0
 11
1499.5975047567
 21
-342.6686220057
 31
0.0
  0
LINE
  5
2A0
100
AcDbEntity
  8
L1_120
  6
CONTINUOUS
 62
         7
100
AcDbLine
 10
1399.5875047567
 20
-333.6686220057
 30
0.0
 11
1499.5975047567
 21
-333.6686220057
 31
0.0
  0
LINE
  5
2A1
100
AcDbEntity
  8
L1_120
  6
CONTINUOUS
 62
         4
100
AcDbLine
 10
1479.5975047567
 20
-333.1686220057
 30
0.0
 11
1499.5975047567
 21
-333.1686220057
 31
0.0
  0
LINE
  5
2A2
100
AcDbEntity
  8
L1_120
  6
CONTINUOUS
 62
         7
100
AcDbLine
 10
1499.5975047567
 20
-331.1686220057
 30
0.0
 11
1509.5975047567
 21
-331.1686220057
 31
0.0
  0
DIMENSION
  5
2A5
100
AcDbEntity
  8
L1_120
  6
CONTINUOUS
 62
         4
100
AcDbDimension
  2
*D5
 10
1499.5975047567
 20
-371.9217986998
 30
0.0
 11
1520.3425579418
 21
-368.7897986998
 31
0.0
  3
DIMSTYLE1
100
AcDbAlignedDimension
 13
1499.5975047567
 23
-343.6686220057
 33
0.0
 14
1546.5975047567
 24
-348.2578410224
 34
0.0
100
AcDbRotatedDimension
  0
LINE
  5
2B1
100
AcDbEntity
  8
L1_120
  6
CENTER
 62
         1
100
AcDbLine
 10
1397.6775047567
 20
-306.272140775
 30
0.0
 11
1397.6775047567
 21
-368.2936220057
 31
0.0
  0
LINE
  5
2B2
100
AcDbEntity
  8
L1_120
  6
CONTINUOUS
 62
         4
100
AcDbLine
 10
1410.3023237014
 20
-349.1706220057
 30
0.0
 11
1410.3023237014
 21
-354.1706220057
 31
0.0
  0
LINE
  5
2B3
100
AcDbEntity
  8
L1_120
  6
CONTINUOUS
 62
         4
100
AcDbLine
 10
1416.3023237014
 20
-349.1706220057
 30
0.0
 11
1416.3023237014
 21
-354.1706220057
 31
0.0
  0
LINE
  5
2B4
100
AcDbEntity
  8
L1_120
  6
CONTINUOUS
 62
         7
100
AcDbLine
 10
1410.7073237014
 20
-347.1706220057
 30
0.0
 11
1410.7073237014
 21
-354.1706220057
 31
0.0
  0
LINE
  5
2B5
100
AcDbEntity
  8
L1_120
  6
CONTINUOUS
 62
         7
100
AcDbLine
 10
1415.8973237014
 20
-347.1706220057
 30
0.0
 11
1415.8973237014
 21
-354.1706220057
 31
0.0
  0
LINE
  5
2B6
100
AcDbEntity
  8
L1_120
  6
CONTINUOUS
 62
         7
100
AcDbLine
 10
1410.7073237014
 20
-347.1706220057
 30
0.0
 11
1415.8973237014
 21
-347.1706220057
 31
0.0
  0
LINE
  5
2B7
100
AcDbEntity
  8
L1_120
  6
CONTINUOUS
 62
         4
100
AcDbLine
 10
1410.3023237014
 20
-349.1706220057
 30
0.0
 11
1416.3023237014
 21
-349.1706220057
 31
0.0
  0
LINE
  5
2B8
100
AcDbEntity
  8
L1_120
  6
CONTINUOUS
 62
         7
100
AcDbLine
 10
1410.7073237014
 20
-347.1706220057
 30
0.0
 11
1413.3023237014
 21
-345.6723980572
 31
0.0
  0
LINE
  5
2B9
100
AcDbEntity
  8
L1_120
  6
CONTINUOUS
 62
         7
100
AcDbLine
 10
1415.8973237014
 20
-347.1706220057
 30
0.0
 11
1413.3023237014
 21
-345.6723980572
 31
0.0
  0
LINE
  5
2BA
100
AcDbEntity
  8
L1_120
  6
CONTINUOUS
 62
         7
100
AcDbLine
 10
1415.8973237014
 20
-329.1666220057
 30
0.0
 11
1413.3023237014
 21
-330.6648459543
 31
0.0
  0
LINE
  5
2BB
100
AcDbEntity
  8
L1_120
  6
CONTINUOUS
 62
         7
100
AcDbLine
 10
1410.7073237014
 20
-329.1666220057
 30
0.0
 11
1413.3023237014
 21
-330.6648459543
 31
0.0
  0
LINE
  5
2BC
100
AcDbEntity
  8
L1_120
  6
CONTINUOUS
 62
         4
100
AcDbLine
 10
1410.3023237014
 20
-327.1666220057
 30
0.0
 11
1416.3023237014
 21
-327.1666220057
 31
0.0
  0
LINE
  5
2BD
100
AcDbEntity
  8
L1_120
  6
CONTINUOUS
 62
         7
100
AcDbLine
 10
1410.7073237014
 20
-329.1666220057
 30
0.0
 11
1415.8973237014
 21
-329.1666220057
 31
0.0
  0
LINE
  5
2BE
100
AcDbEntity
  8
L1_120
  6
CONTINUOUS
 62
         7
100
AcDbLine
 10
1415.8973237014
 20
-329.1666220057
 30
0.0
 11
1415.8973237014
 21
-322.2390286078
 31
0.0
  0
LINE
  5
2BF
100
AcDbEntity
  8
L1_120
  6
CONTINUOUS
 62
         7
100
AcDbLine
 10
1410.7073237014
 20
-329.1666220057
 30
0.0
 11
1410.7073237014
 21
-322.1666220057
 31
0.0
  0
LINE
  5
2C0
100
AcDbEntity
  8
L1_120
  6
CONTINUOUS
 62
         4
100
AcDbLine
 10
1416.3023237014
 20
-327.1666220057
 30
0.0
 11
1416.3023237014
 21
-322.2709027991
 31
0.0
  0
LINE
  5
2C1
100
AcDbEntity
  8
L1_120
  6
CONTINUOUS
 62
         4
100
AcDbLine
 10
1410.3023237014
 20
-327.1666220057
 30
0.0
 11
1410.3023237014
 21
-322.1666220057
 31
0.0
  0
LINE
  5
2C2
100
AcDbEntity
  8
L1_120
  6
CENTER
 62
         1
100
AcDbLine
 10
1413.2899142291
 20
-356.248910796
 30
0.0
 11
1413.2899142291
 21
-317.3309671617
 31
0.0
  0
ARC
  5
2C3
100
AcDbEntity
  8
L1_120
  6
CONTINUOUS
 62
         7
100
AcDbCircle
 10
1408.6775047567
 20
-357.1706220057
 30
0.0
 40
3.0
100
AcDbArc
 50
90.0
 51
180.0
  0
ARC
  5
2C4
100
AcDbEntity
  8
L1_120
  6
CONTINUOUS
 62
         7
100
AcDbCircle
 10
1408.6775047567
 20
-319.1666220057
 30
0.0
 40
3.0
100
AcDbArc
 50
180.0
 51
270.0
  0
LINE
  5
2C5
100
AcDbEntity
  8
L1_120
  6
CONTINUOUS
 62
         7
100
AcDbLine
 10
1546.5975047567
 20
-327.1550124974
 30
0.0
 11
1546.5975047567
 21
-349.1822315141
 31
0.0
  0
ARC
  5
2C6
100
AcDbEntity
  8
L1_120
  6
CONTINUOUS
 62
         7
100
AcDbCircle
 10
1545.5975047567
 20
-327.1550124974
 30
0.0
 40
1.0
100
AcDbArc
 50
0.0
 51
85.5
  0
ARC
  5
2C7
100
AcDbEntity
  8
L1_120
  6
CONTINUOUS
 62
         7
100
AcDbCircle
 10
1545.5975047567
 20
-349.1822315141
 30
0.0
 40
1.0
100
AcDbArc
 50
274.5
 51
360.0
  0
LINE
  5
2C8
100
AcDbEntity
  8
L1_120
  6
CONTINUOUS
 62
         7
100
AcDbLine
 10
1545.6759638525
 20
-350.1791488478
 30
0.0
 11
1494.9594887089
 21
-354.1706220057
 31
0.0
  0
LINE
  5
2C9
100
AcDbEntity
  8
L1_120
  6
CONTINUOUS
 62
         7
100
AcDbLine
 10
1408.6775047567
 20
-354.1706220057
 30
0.0
 11
1494.9594887089
 21
-354.1706220057
 31
0.0
  0
LINE
  5
2CA
100
AcDbEntity
  8
L1_120
  6
CONTINUOUS
 62
         7
100
AcDbLine
 10
1408.6775047567
 20
-322.1666220057
 30
0.0
 11
1494.9594887089
 21
-322.1666220057
 31
0.0
  0
LINE
  5
2CB
100
AcDbEntity
  8
L1_120
  6
CONTINUOUS
 62
         7
100
AcDbLine
 10
1545.6759638525
 20
-326.1580951636
 30
0.0
 11
1494.9594887089
 21
-322.1666220057
 31
0.0
  0
ARC
  5
2CC
100
AcDbEntity
  8
L1_120
  6
CONTINUOUS
 62
         7
100
AcDbCircle
 10
1388.9775047567
 20
-361.3686220057
 30
0.0
 40
0.8
100
AcDbArc
 50
0.0
 51
90.0000000001
  0
LINE
  5
2CD
100
AcDbEntity
  8
L1_120
  6
CONTINUOUS
 62
         7
100
AcDbLine
 10
1388.9775047567
 20
-360.5686220057
 30
0.0
 11
1387.7775047567
 21
-360.5686220057
 31
0.0
  0
LINE
  5
2CE
100
AcDbEntity
  8
L1_120
  6
CONTINUOUS
 62
         7
100
AcDbLine
 10
1401.2137751555
 20
-369.9436220059
 30
0.0
 11
1404.6775047567
 21
-369.9436220059
 31
0.0
  0
LINE
  5
2CF
100
AcDbEntity
  8
L1_120
  6
CONTINUOUS
 62
         7
100
AcDbLine
 10
1399.5525047567
 20
-367.0662172699
 30
0.0
 11
1401.2137751555
 21
-369.9436220057
 31
0.0
  0
ARC
  5
2D0
100
AcDbEntity
  8
L1_120
  6
CONTINUOUS
 62
         7
100
AcDbCircle
 10
1398.578704425
 20
-367.2936220059
 30
0.0
 40
1.0
100
AcDbArc
 50
13.1443256895
 51
90.0
  0
LINE
  5
2D1
100
AcDbEntity
  8
L1_120
  6
CONTINUOUS
 62
         7
100
AcDbLine
 10
1396.7763050885
 20
-366.2936220057
 30
0.0
 11
1398.578704425
 21
-366.2936220057
 31
0.0
  0
ARC
  5
2D2
100
AcDbEntity
  8
L1_120
  6
CONTINUOUS
 62
         7
100
AcDbCircle
 10
1396.7763050885
 20
-367.2936220057
 30
0.0
 40
1.0
100
AcDbArc
 50
90.0
 51
166.8556743105
  0
LINE
  5
2D3
100
AcDbEntity
  8
L1_120
  6
CONTINUOUS
 62
         7
100
AcDbLine
 10
1395.8025047567
 20
-367.0662172699
 30
0.0
 11
1394.1412343579
 21
-369.9436220057
 31
0.0
  0
LINE
  5
2D4
100
AcDbEntity
  8
L1_120
  6
CONTINUOUS
 62
         7
100
AcDbLine
 10
1389.7775047567
 20
-361.3686220057
 30
0.0
 11
1389.7775047567
 21
-368.9436220059
 31
0.0
  0
LINE
  5
2D5
100
AcDbEntity
  8
L1_120
  6
CONTINUOUS
 62
         7
100
AcDbLine
 10
1390.7775047567
 20
-369.9436220059
 30
0.0
 11
1394.1412343579
 21
-369.9436220059
 31
0.0
  0
ARC
  5
2D6
100
AcDbEntity
  8
L1_120
  6
CONTINUOUS
 62
         7
100
AcDbCircle
 10
1390.7775047567
 20
-368.9436220057
 30
0.0
 40
1.0
100
AcDbArc
 50
180.0
 51
270.0
  0
LINE
  5
2D7
100
AcDbEntity
  8
L1_120
  6
CONTINUOUS
 62
         7
100
AcDbLine
 10
1390.7775047567
 20
-369.9436220057
 30
0.0
 11
1391.7775047567
 21
-369.9436220057
 31
0.0
  0
LINE
  5
2D8
100
AcDbEntity
  8
L1_120
  6
CONTINUOUS
 62
         7
100
AcDbLine
 10
1403.6775047567
 20
-369.9436220057
 30
0.0
 11
1404.6775047567
 21
-369.9436220057
 31
0.0
  0
ARC
  5
2D9
100
AcDbEntity
  8
L1_120
  6
CONTINUOUS
 62
         7
100
AcDbCircle
 10
1404.6775047567
 20
-368.9436220057
 30
0.0
 40
1.0
100
AcDbArc
 50
270.0
 51
360.0
  0
LINE
  5
2DA
100
AcDbEntity
  8
L1_120
  6
CONTINUOUS
 62
         7
100
AcDbLine
 10
1389.7775047567
 20
-367.9436220057
 30
0.0
 11
1389.7775047567
 21
-368.9436220057
 31
0.0
  0
LINE
  5
2DB
100
AcDbEntity
  8
L1_120
  6
CONTINUOUS
 62
         7
100
AcDbLine
 10
1405.6775047567
 20
-357.1706220057
 30
0.0
 11
1405.6775047567
 21
-368.9436220057
 31
0.0
  0
LINE
  5
2DC
100
AcDbEntity
  8
L1_120
  6
CONTINUOUS
 62
         7
100
AcDbLine
 10
1499.5975047567
 20
-334.6686220057
 30
0.0
 11
1499.5975047567
 21
-341.6686220057
 31
0.0
  0
LINE
  5
2DD
100
AcDbEntity
  8
L1_120
  6
CONTINUOUS
 62
         7
100
AcDbLine
 10
1399.5875047567
 20
-333.6686220057
 30
0.0
 11
1399.5875047567
 21
-342.6686220057
 31
0.0
  0
INSERT
  5
35D
100
AcDbEntity
  8
0
  6
CONTINUOUS
100
AcDbBlockReference
  2
*X6
 10
0.0
 20
0.0
 30
0.0
  0
DIMENSION
  5
360
100
AcDbEntity
  8
L1_120
  6
CONTINUOUS
 62
         4
100
AcDbDimension
  2
*D7
 10
1566.8488813125
 20
-302.4157710959
 30
0.0
 11
1573.6238717874
 21
-300.3907710959
 31
0.0
  3
DIMSTYLE1
100
AcDbAlignedDimension
 13
1566.8488813125
 23
-306.4383722985
 33
0.0
 14
1570.8488813125
 24
-307.1659803065
 34
0.0
100
AcDbRotatedDimension
  0
LINE
  5
36E
100
AcDbEntity
  8
L1_120
  6
DASHED
 62
         2
100
AcDbLine
 10
1570.8488813125
 20
-311.8027316525
 30
0.0
 11
1586.8488813125
 21
-311.8027316525
 31
0.0
  0
LINE
  5
36F
100
AcDbEntity
  8
L1_120
  6
DASHED
 62
         2
100
AcDbLine
 10
1586.8488813125
 20
-308.3027316525
 30
0.0
 11
1570.8488813125
 21
-308.3027316525
 31
0.0
  0
DIMENSION
  5
372
100
AcDbEntity
  8
L1_120
  6
CONTINUOUS
 62
         4
100
AcDbDimension
  2
*D8
 10
1545.6973150807
 20
-303.3533185248
 30
0.0
 11
1546.558058825
 21
-301.3283185248
 31
0.0
  3
DIMSTYLE1
100
AcDbAlignedDimension
 13
1545.6973150807
 23
-308.6093559795
 33
0.0
 14
1550.6973150807
 24
-308.6093559795
 34
0.0
100
AcDbRotatedDimension
  0
CIRCLE
  5
380
100
AcDbEntity
  8
L1_120
  6
CONTINUOUS
 62
         7
100
AcDbCircle
 10
1548.1973150807
 20
-310.0527316525
 30
0.0
 40
2.8867513459
  0
LINE
  5
381
100
AcDbEntity
  8
L1_120
  6
DASHED
 62
         2
100
AcDbLine
 10
1566.8488813125
 20
-311.4961073254
 30
0.0
 11
1570.8488813125
 21
-311.4961073254
 31
0.0
  0
LINE
  5
382
100
AcDbEntity
  8
L1_120
  6
DASHED
 62
         2
100
AcDbLine
 10
1566.8488813125
 20
-312.9394829984
 30
0.0
 11
1570.8488813125
 21
-312.9394829984
 31
0.0
  0
LINE
  5
383
100
AcDbEntity
  8
L1_120
  6
DASHED
 62
         2
100
AcDbLine
 10
1566.8488813125
 20
-308.6093559795
 30
0.0
 11
1570.8488813125
 21
-308.6093559795
 31
0.0
  0
LINE
  5
384
100
AcDbEntity
  8
L1_120
  6
DASHED
 62
         2
100
AcDbLine
 10
1566.8488813125
 20
-307.1659803065
 30
0.0
 11
1570.8488813125
 21
-307.1659803065
 31
0.0
  0
LINE
  5
385
100
AcDbEntity
  8
L1_120
  6
CONTINUOUS
 62
         7
100
AcDbLine
 10
1550.6973150807
 20
-308.6093559795
 30
0.0
 11
1548.1973150807
 21
-307.1659803065
 31
0.0
  0
LINE
  5
386
100
AcDbEntity
  8
L1_120
  6
CONTINUOUS
 62
         7
100
AcDbLine
 10
1548.1973150807
 20
-307.1659803065
 30
0.0
 11
1545.6973150807
 21
-308.6093559795
 31
0.0
  0
LINE
  5
387
100
AcDbEntity
  8
L1_120
  6
CONTINUOUS
 62
         7
100
AcDbLine
 10
1545.6973150807
 20
-308.6093559795
 30
0.0
 11
1545.6973150807
 21
-311.4961073254
 31
0.0
  0
LINE
  5
388
100
AcDbEntity
  8
L1_120
  6
CONTINUOUS
 62
         7
100
AcDbLine
 10
1545.6973150807
 20
-311.4961073254
 30
0.0
 11
1548.1973150807
 21
-312.9394829984
 31
0.0
  0
LINE
  5
389
100
AcDbEntity
  8
L1_120
  6
CONTINUOUS
 62
         7
100
AcDbLine
 10
1548.1973150807
 20
-312.9394829984
 30
0.0
 11
1550.6973150807
 21
-311.4961073254
 31
0.0
  0
LINE
  5
38A
100
AcDbEntity
  8
L1_120
  6
CONTINUOUS
 62
         7
100
AcDbLine
 10
1550.6973150807
 20
-311.4961073254
 30
0.0
 11
1550.6973150807
 21
-308.6093559795
 31
0.0
  0
LINE
  5
38B
100
AcDbEntity
  8
L1_120
  6
DASHED
 62
         2
100
AcDbLine
 10
1570.8488813125
 20
-307.1659803065
 30
0.0
 11
1570.8488813125
 21
-312.9394829984
 31
0.0
  0
DIMENSION
  5
38E
100
AcDbEntity
  8
L1_120
  6
CONTINUOUS
 62
         4
100
AcDbDimension
  2
*D9
 10
1599.2850045335
 20
-305.0527316525
 30
0.0
 11
1597.2600045335
 21
-303.2825986706
 31
0.0
  3
DIMSTYLE1
100
AcDbAlignedDimension
 13
1585.3488813125
 23
-305.0527316525
 33
0.0
 14
1585.3488813125
 24
-315.0527316525
 34
0.0
 50
90.0
100
AcDbRotatedDimension
  0
CIRCLE
  5
39B
100
AcDbEntity
  8
L1_120
  6
CONTINUOUS
 62
         7
100
AcDbCircle
 10
1548.1973150807
 20
-310.0527316525
 30
0.0
 40
5.0
  0
CIRCLE
  5
39C
100
AcDbEntity
  8
L1_120
  6
CONTINUOUS
 62
         7
100
AcDbCircle
 10
1548.1973150807
 20
-310.0527316525
 30
0.0
 40
3.6143593539
  0
LINE
  5
39D
100
AcDbEntity
  8
L1_120
  6
CENTER
 62
         1
100
AcDbLine
 10
1548.1973150807
 20
-319.6097472943
 30
0.0
 11
1548.1973150807
 21
-302.8162690503
 31
0.0
  0
LINE
  5
39E
100
AcDbEntity
  8
L1_120
  6
CENTER
 62
         1
100
AcDbLine
 10
1556.4913182838
 20
-310.0527316525
 30
0.0
 11
1539.6321594569
 21
-310.0527316525
 31
0.0
  0
LINE
  5
39F
100
AcDbEntity
  8
L1_120
  6
CONTINUOUS
 62
         4
100
AcDbLine
 10
1586.7345219586
 20
-313.6670910064
 30
0.0
 11
1566.8488813125
 21
-313.6670910064
 31
0.0
  0
LINE
  5
3A0
100
AcDbEntity
  8
L1_120
  6
CONTINUOUS
 62
         4
100
AcDbLine
 10
1586.7345219586
 20
-306.4383722985
 30
0.0
 11
1566.8488813125
 21
-306.4383722985
 31
0.0
  0
LINE
  5
3A1
100
AcDbEntity
  8
L1_120
  6
CONTINUOUS
 62
         7
100
AcDbLine
 10
1585.3488813125
 20
-315.0527316525
 30
0.0
 11
1586.8488813125
 21
-313.5527316525
 31
0.0
  0
LINE
  5
3A2
100
AcDbEntity
  8
L1_120
  6
CONTINUOUS
 62
         7
100
AcDbLine
 10
1585.3488813125
 20
-305.0527316525
 30
0.0
 11
1586.8488813125
 21
-306.5527316525
 31
0.0
  0
LINE
  5
3A3
100
AcDbEntity
  8
L1_120
  6
CONTINUOUS
 62
         7
100
AcDbLine
 10
1567.6488813125
 20
-315.0527316525
 30
0.0
 11
1566.8488813125
 21
-313.6670910064
 31
0.0
  0
LINE
  5
3A4
100
AcDbEntity
  8
L1_120
  6
CONTINUOUS
 62
         7
100
AcDbLine
 10
1567.6488813125
 20
-305.0527316525
 30
0.0
 11
1566.8488813125
 21
-306.4383722985
 31
0.0
  0
LINE
  5
3A5
100
AcDbEntity
  8
L1_120
  6
CONTINUOUS
 62
         4
100
AcDbLine
 10
1585.3488813125
 20
-305.0527316525
 30
0.0
 11
1585.3488813125
 21
-315.0527316525
 31
0.0
  0
LINE
  5
3A6
100
AcDbEntity
  8
L1_120
  6
CONTINUOUS
 62
         4
100
AcDbLine
 10
1567.6488813125
 20
-305.0527316525
 30
0.0
 11
1567.6488813125
 21
-315.0527316525
 31
0.0
  0
LINE
  5
3A7
100
AcDbEntity
  8
L1_120
  6
CONTINUOUS
 62
         7
100
AcDbLine
 10
1566.8488813125
 20
-306.4383722985
 30
0.0
 11
1566.8488813125
 21
-313.6670910064
 31
0.0
  0
LINE
  5
3A8
100
AcDbEntity
  8
L1_120
  6
CONTINUOUS
 62
         7
100
AcDbLine
 10
1586.8488813125
 20
-306.5527316525
 30
0.0
 11
1586.8488813125
 21
-313.5527316525
 31
0.0
  0
LINE
  5
3A9
100
AcDbEntity
  8
L1_120
  6
CONTINUOUS
 62
         7
100
AcDbLine
 10
1567.6488813125
 20
-315.0527316525
 30
0.0
 11
1585.3488813125
 21
-315.0527316525
 31
0.0
  0
LINE
  5
3AA
100
AcDbEntity
  8
L1_120
  6
CONTINUOUS
 62
         7
100
AcDbLine
 10
1585.3488813125
 20
-305.0527316525
 30
0.0
 11
1567.6488813125
 21
-305.0527316525
 31
0.0
  0
LINE
  5
3AB
100
AcDbEntity
  8
L1_120
  6
CENTER
 62
         1
100
AcDbLine
 10
1590.2365936825
 20
-310.0527316525
 30
0.0
 11
1563.6403733635
 21
-310.0527316525
 31
0.0
  0
CIRCLE
  5
3AC
100
AcDbEntity
  8
L1_120
  6
CONTINUOUS
 62
         7
100
AcDbCircle
 10
1548.1973150807
 20
-310.0527316525
 30
0.0
 40
1.75
  0
LINE
  5
3AD
100
AcDbEntity
  8
L1_120
  6
CENTER
 62
         1
100
AcDbLine
 10
1413.2899142291
 20
-247.4069224692
 30
0.0
 11
1413.2899142291
 21
-205.8730092212
 31
0.0
  0
ENDSEC
  0
SECTION
  2
OBJECTS
  0
DICTIONARY
  5
19
100
AcDbDictionary
  3
ACAD_GROUP
350
1A
  3
ACAD_MLINESTYLE
350
1B
  0
DICTIONARY
  5
1A
102
{ACAD_REACTORS
330
19
102
}
100
AcDbDictionary
  0
DICTIONARY
  5
1B
102
{ACAD_REACTORS
330
19
102
}
100
AcDbDictionary
  3
STANDARD
350
1C
  0
MLINESTYLE
  5
1C
102
{ACAD_REACTORS
330
1B
102
}
100
AcDbMlineStyle
  2
STANDARD
 70
         0
  3

 62
         0
 51
90.0
 52
90.0
 71
         2
 49
0.5
 62
       256
  6
BYLAYER
 49
-0.5
 62
       256
  6
BYLAYER
  0
ENDSEC
  0
EOF
