  0
SECTION
  2
HEADER
  9
$ACADVER
  1
AC1014
  9
$ACADMAINTVER
 70
         0
  9
$DWGCODEPAGE
  3
BIG5
  9
$INSBASE
 10
0.0
 20
0.0
 30
0.0
  9
$EXTMIN
 10
1135.4836480189
 20
-425.2501502617
 30
0.0
  9
$EXTMAX
 10
1783.9056230763
 20
-108.7117397631
 30
0.0
  9
$LIMMIN
 10
0.0
 20
0.0
  9
$LIMMAX
 10
0.0
 20
0.0
  9
$ORTHOMODE
 70
         0
  9
$REGENMODE
 70
         1
  9
$FILLMODE
 70
         1
  9
$QTEXTMODE
 70
         0
  9
$MIRRTEXT
 70
         1
  9
$DRAGMODE
 70
         2
  9
$LTSCALE
 40
1.0
  9
$OSMODE
 70
         0
  9
$ATTMODE
 70
         1
  9
$TEXTSIZE
 40
1.7
  9
$TRACEWID
 40
0.05
  9
$TEXTSTYLE
  7
STANDARD
  9
$CLAYER
  8
0
  9
$CELTYPE
  6
CONTINUOUS
  9
$CECOLOR
 62
         4
  9
$CELTSCALE
 40
1.0
  9
$DELOBJ
 70
         1
  9
$DISPSILH
 70
         0
  9
$DIMSCALE
 40
1.0
  9
$DIMASZ
 40
0.18
  9
$DIMEXO
 40
0.0625
  9
$DIMDLI
 40
0.38
  9
$DIMRND
 40
0.0
  9
$DIMDLE
 40
0.0
  9
$DIMEXE
 40
0.25
  9
$DIMTP
 40
0.01
  9
$DIMTM
 40
-0.01
  9
$DIMTXT
 40
2.7
  9
$DIMCEN
 40
0.09
  9
$DIMTSZ
 40
0.0
  9
$DIMTOL
 70
         0
  9
$DIMLIM
 70
         0
  9
$DIMTIH
 70
         1
  9
$DIMTOH
 70
         1
  9
$DIMSE1
 70
         0
  9
$DIMSE2
 70
         0
  9
$DIMTAD
 70
         0
  9
$DIMZIN
 70
         0
  9
$DIMBLK
  1

  9
$DIMASO
 70
         1
  9
$DIMSHO
 70
         1
  9
$DIMPOST
  1

  9
$DIMAPOST
  1

  9
$DIMALT
 70
         0
  9
$DIMALTD
 70
         2
  9
$DIMALTF
 40
25.4
  9
$DIMLFAC
 40
1.0
  9
$DIMTOFL
 70
         0
  9
$DIMTVP
 40
0.0
  9
$DIMTIX
 70
         0
  9
$DIMSOXD
 70
         0
  9
$DIMSAH
 70
         0
  9
$DIMBLK1
  1

  9
$DIMBLK2
  1

  9
$DIMSTYLE
  2
STANDARD
  9
$DIMCLRD
 70
         0
  9
$DIMCLRE
 70
         0
  9
$DIMCLRT
 70
         4
  9
$DIMTFAC
 40
1.0
  9
$DIMGAP
 40
0.09
  9
$DIMJUST
 70
         0
  9
$DIMSD1
 70
         0
  9
$DIMSD2
 70
         0
  9
$DIMTOLJ
 70
         1
  9
$DIMTZIN
 70
         0
  9
$DIMALTZ
 70
         0
  9
$DIMALTTZ
 70
         0
  9
$DIMFIT
 70
         3
  9
$DIMUPT
 70
         0
  9
$DIMUNIT
 70
         2
  9
$DIMDEC
 70
         4
  9
$DIMTDEC
 70
         4
  9
$DIMALTU
 70
         2
  9
$DIMALTTD
 70
         2
  9
$DIMTXSTY
  7
STANDARD
  9
$DIMAUNIT
 70
         0
  9
$LUNITS
 70
         2
  9
$LUPREC
 70
        10
  9
$SKETCHINC
 40
0.1
  9
$FILLETRAD
 40
0.0
  9
$AUNITS
 70
         0
  9
$AUPREC
 70
         0
  9
$MENU
  1
acad
  9
$ELEVATION
 40
0.0
  9
$PELEVATION
 40
0.0
  9
$THICKNESS
 40
0.0
  9
$LIMCHECK
 70
         0
  9
$BLIPMODE
 70
         1
  9
$CHAMFERA
 40
0.0
  9
$CHAMFERB
 40
0.0
  9
$CHAMFERC
 40
0.0
  9
$CHAMFERD
 40
0.0
  9
$SKPOLY
 70
         0
  9
$TDCREATE
 40
0.000000000
  9
$TDUPDATE
 40
0.000000000
  9
$TDINDWG
 40
0.0000000000
  9
$TDUSRTIMER
 40
0.0000000000
  9
$USRTIMER
 70
         1
  9
$ANGBASE
 50
0.0
  9
$ANGDIR
 70
         0
  9
$PDMODE
 70
         2
  9
$PDSIZE
 40
0.0
  9
$PLINEWID
 40
0.0
  9
$COORDS
 70
         0
  9
$SPLFRAME
 70
         0
  9
$SPLINETYPE
 70
         6
  9
$SPLINESEGS
 70
         8
  9
$ATTDIA
 70
         0
  9
$ATTREQ
 70
         1
  9
$HANDLING
 70
         1
  9
$HANDSEED
  5
3CF
  9
$SURFTAB1
 70
         6
  9
$SURFTAB2
 70
         6
  9
$SURFTYPE
 70
         6
  9
$SURFU
 70
         6
  9
$SURFV
 70
         6
  9
$UCSNAME
  2

  9
$UCSORG
 10
0.0
 20
0.0
 30
0.0
  9
$UCSXDIR
 10
1.0
 20
0.0
 30
0.0
  9
$UCSYDIR
 10
0.0
 20
1.0
 30
0.0
  9
$PUCSNAME
  2

  9
$PUCSORG
 10
0.0
 20
0.0
 30
0.0
  9
$PUCSXDIR
 10
1.0
 20
0.0
 30
0.0
  9
$PUCSYDIR
 10
0.0
 20
1.0
 30
0.0
  9
$USERI1
 70
         0
  9
$USERI2
 70
         0
  9
$USERI3
 70
         0
  9
$USERI4
 70
         0
  9
$USERI5
 70
         0
  9
$USERR1
 40
0.0
  9
$USERR2
 40
0.0
  9
$USERR3
 40
0.0
  9
$USERR4
 40
0.0
  9
$USERR5
 40
0.0
  9
$WORLDVIEW
 70
         1
  9
$SHADEDGE
 70
         3
  9
$SHADEDIF
 70
        70
  9
$TILEMODE
 70
         1
  9
$MAXACTVP
 70
        16
  9
$PINSBASE
 10
0.0
 20
0.0
 30
0.0
  9
$PLIMCHECK
 70
         0
  9
$PEXTMIN
 10
1.0000000000E+20
 20
1.0000000000E+20
 30
1.0000000000E+20
  9
$PEXTMAX
 10
-1.0000000000E+20
 20
-1.0000000000E+20
 30
-1.0000000000E+20
  9
$PLIMMIN
 10
0.0
 20
0.0
  9
$PLIMMAX
 10
12.0
 20
9.0
  9
$UNITMODE
 70
         0
  9
$VISRETAIN
 70
         0
  9
$PLINEGEN
 70
         1
  9
$PSLTSCALE
 70
         0
  9
$TREEDEPTH
 70
      3020
  9
$PICKSTYLE
 70
         1
  9
$CMLSTYLE
  2
STANDARD
  9
$CMLJUST
 70
         0
  9
$CMLSCALE
 40
1.0
  9
$PROXYGRAPHICS
 70
         0
  9
$MEASUREMENT
 70
         0
  0
ENDSEC
  0
SECTION
  2
CLASSES
  0
CLASS
  1
LWPOLYLINE
  2
AcDbPolyline
  3
"AutoCAD"
 90
        0
280
         0
281
         1
  0
CLASS
  1
IMAGE
  2
AcDbRasterImage
  3
ISM
 90
      127
280
         0
281
         1
  0
CLASS
  1
OLE2FRAME
  2
AcDbOle2Frame
  3
""
 90
        0
280
         0
281
         1
  0
CLASS
  1
HATCH
  2
AcDbHatch
  3
"ACAD_SEDONA"
 90
        0
280
         0
281
         1
  0
CLASS
  1
DICTIONARYVAR
  2
AcDbDictionaryVar
  3
"AutoCAD"
 90
        0
280
         0
281
         0
  0
CLASS
  1
RASTERVARIABLES
  2
AcDbRasterVariables
  3
ISM
 90
        0
280
         0
281
         0
  0
CLASS
  1
IMAGEDEF
  2
AcDbRasterImageDef
  3
ISM
 90
        0
280
         0
281
         0
  0
CLASS
  1
IMAGEDEF_REACTOR
  2
AcDbRasterImageDefReactor
  3
ISM
 90
        1
280
         0
281
         0
  0
CLASS
  1
IDBUFFER
  2
AcDbIdBuffer
  3
"Acad"
 90
        0
280
         0
281
         0
  0
CLASS
  1
SPATIAL_FILTER
  2
AcDbSpatialFilter
  3
"Acad"
 90
        0
280
         0
281
         0
  0
CLASS
  1
XRECORD
  2
AcDbXrecord
  3
"<Built In>"
 90
        0
280
         0
281
         0
  0
CLASS
  1
SORTENTSTABLE
  2
AcDbSortentsTable
  3
"AutoCAD"
 90
        0
280
         0
281
         0
  0
CLASS
  1
LAYER_INDEX
  2
AcDbLayerIndex
  3
"Acad"
 90
        0
280
         0
281
         0
  0
CLASS
  1
SPATIAL_INDEX
  2
AcDbSpatialIndex
  3
"Acad"
 90
        0
280
         0
281
         0
  0
CLASS
  1
OBJECT_PTR
  2
CAseDLPNTableRecord
  3
"ASE-LPNTableRecord"
 90
        1
280
         0
281
         0
  0
CLASS
  1
LAYOUT
  2
AcDbLayout
  3
"AutoCAD 2000"
 90
        1
280
         0
281
         0
  0
CLASS
  1
PLOTSETTINGS
  2
AcDbPlotSettings
  3
"AutoCAD 2000"
 90
        1
280
         0
281
         0
  0
CLASS
  1
ACDBDICTIONARYWDFLT
  2
AcDbDictionaryWithDefault
  3
"AutoCAD 2000"
 90
        1
280
         0
281
         0
  0
CLASS
  1
ACDBPLACEHOLDER
  2
AcDbPlaceHolder
  3
"AutoCAD 2000"
 90
        1
280
         0
281
         0
  0
CLASS
  1
VBA_PROJECT
  2
AcDbVbaProject
  3
"acadvba"
 90
        1
280
         0
281
         0
  0
CLASS
  1
WIPEOUT
  2
AcDbWipeout
  3
WipeOut|AutoCAD Express Tool|expresstools@autodesk.com
 90
      127
280
         0
281
         1
  0
CLASS
  1
WIPEOUTVARIABLES
  2
AcDbWipeoutVariables
  3
WipeOut|AutoCAD Express Tool|expresstools@autodesk.com
 90
        0
280
         0
281
         0
  0
CLASS
  1
RTEXT
  2
RText
  3
RText|AutoCAD Express Tool|expresstools@autodesk.com
 90
        0
280
         0
281
         1
  0
CLASS
  1
ARCALIGNEDTEXT
  2
AcDbArcAlignedText
  3
ATEXT|AutoCAD Express Tool|expresstools@autodesk.com
 90
        0
280
         0
281
         1
  0
ENDSEC
  0
SECTION
  2
TABLES
  0
TABLE
  2
VPORT
  5
7
100
AcDbSymbolTable
 70
         1
  0
VPORT
  5
15
100
AcDbSymbolTableRecord
100
AcDbViewportTableRecord
  2
*ACTIVE
 70
         0
 10
0.0
 20
0.0
 11
1.0
 21
1.0
 12
1459.6946355476
 22
-266.9809450124
 13
0.0
 23
0.0
 14
1.0
 24
1.0
 15
0.0
 25
0.0
 16
0.0
 26
0.0
 36
1.0
 17
0.0
 27
0.0
 37
0.0
 40
316.5384104986
 41
2.0484780158
 42
50.0
 43
0.0
 44
0.0
 50
0.0
 51
0.0
 71
         0
 72
       100
 73
         1
 74
         1
 75
         0
 76
         0
 77
         0
 78
         0
  0
ENDTAB
  0
TABLE
  2
LTYPE
  5
4
100
AcDbSymbolTable
 70
         6
  0
LTYPE
  5
11
100
AcDbSymbolTableRecord
100
AcDbLinetypeTableRecord
  2
BYBLOCK
 70
        64
  3

 72
        65
 73
         0
 40
0.0
  0
LTYPE
  5
12
100
AcDbSymbolTableRecord
100
AcDbLinetypeTableRecord
  2
BYLAYER
 70
        64
  3

 72
        65
 73
         0
 40
0.0
  0
LTYPE
  5
13
100
AcDbSymbolTableRecord
100
AcDbLinetypeTableRecord
  2
CONTINUOUS
 70
        64
  3
Solid line
 72
        65
 73
         0
 40
0.0
  0
LTYPE
  5
1D
100
AcDbSymbolTableRecord
100
AcDbLinetypeTableRecord
  2
DASHED
 70
        64
  3
_ _ _ _ _ _ _ _ _ _ _ _ _ _ _ _
 72
        65
 73
         2
 40
0.2
 49
0.1
 74
         0
 49
-0.1
 74
         0
  0
LTYPE
  5
1E
100
AcDbSymbolTableRecord
100
AcDbLinetypeTableRecord
  2
CENTER
 70
        64
  3
___ _ ___ _ ___ _ ___ _ ___ _ ___ _ ___ _ ___ _
 72
        65
 73
         4
 40
0.95
 49
0.625
 74
         0
 49
-0.125
 74
         0
 49
0.075
 74
         0
 49
-0.125
 74
         0
  0
LTYPE
  5
1F
100
AcDbSymbolTableRecord
100
AcDbLinetypeTableRecord
  2
PHANTOM
 70
        64
  3
______  __  __  ______  __  __  ______  __  __  
 72
        65
 73
         6
 40
1.025
 49
0.625
 74
         0
 49
-0.125
 74
         0
 49
0.075
 74
         0
 49
-0.125
 74
         0
 49
0.075
 74
         0
 49
-0.125
 74
         0
  0
ENDTAB
  0
TABLE
  2
LAYER
  5
2
100
AcDbSymbolTable
 70
         6
  0
LAYER
  5
14
100
AcDbSymbolTableRecord
100
AcDbLayerTableRecord
  2
0
 70
         0
 62
         7
  6
CONTINUOUS
  0
LAYER
  5
21
100
AcDbSymbolTableRecord
100
AcDbLayerTableRecord
  2
_____U
 70
         1
 62
         7
  6
CONTINUOUS
  0
LAYER
  5
22
100
AcDbSymbolTableRecord
100
AcDbLayerTableRecord
  2
_____T______
 70
         1
 62
         7
  6
CONTINUOUS
  0
LAYER
  5
23
100
AcDbSymbolTableRecord
100
AcDbLayerTableRecord
  2
______L_______
 70
         1
 62
         7
  6
CONTINUOUS
  0
LAYER
  5
24
100
AcDbSymbolTableRecord
100
AcDbLayerTableRecord
  2
L1_120
 70
         0
 62
         7
  6
CONTINUOUS
  0
LAYER
  5
2A
100
AcDbSymbolTableRecord
100
AcDbLayerTableRecord
  2
DEFPOINTS
 70
         0
 62
        -7
  6
CONTINUOUS
  0
ENDTAB
  0
TABLE
  2
STYLE
  5
3
100
AcDbSymbolTable
 70
        11
  0
STYLE
  5
17
100
AcDbSymbolTableRecord
100
AcDbTextStyleTableRecord
  2
STANDARD
 70
         0
 40
0.0
 41
1.0
 50
0.0
 71
         0
 42
0.0
  3
txt
  4

  0
STYLE
  5
33
100
AcDbSymbolTableRecord
100
AcDbTextStyleTableRecord
  2
BOX
 70
         0
 40
1.0
 41
1.0
 50
0.0
 71
         0
 42
0.2
  3
txt.shx
  4

  0
STYLE
  5
41
100
AcDbSymbolTableRecord
100
AcDbTextStyleTableRecord
  2
BOX
 70
         0
 40
1.0
 41
1.0
 50
0.0
 71
         0
 42
0.2
  3
txt.shx
  4

  0
STYLE
  5
24F
100
AcDbSymbolTableRecord
100
AcDbTextStyleTableRecord
  2
BOX
 70
         0
 40
1.0
 41
1.0
 50
0.0
 71
         0
 42
0.2
  3
txt.shx
  4

  0
STYLE
  5
260
100
AcDbSymbolTableRecord
100
AcDbTextStyleTableRecord
  2
BOX
 70
         0
 40
1.0
 41
1.0
 50
0.0
 71
         0
 42
0.2
  3
txt.shx
  4

  0
STYLE
  5
36F
100
AcDbSymbolTableRecord
100
AcDbTextStyleTableRecord
  2
BOX
 70
         0
 40
1.0
 41
1.0
 50
0.0
 71
         0
 42
0.2
  3
txt.shx
  4

  0
STYLE
  5
37D
100
AcDbSymbolTableRecord
100
AcDbTextStyleTableRecord
  2
BOX
 70
         0
 40
1.0
 41
1.0
 50
0.0
 71
         0
 42
0.2
  3
txt.shx
  4

  0
STYLE
  5
39E
100
AcDbSymbolTableRecord
100
AcDbTextStyleTableRecord
  2
BOX
 70
         0
 40
1.0
 41
1.0
 50
0.0
 71
         0
 42
0.2
  3
txt.shx
  4

  0
STYLE
  5
3B9
100
AcDbSymbolTableRecord
100
AcDbTextStyleTableRecord
  2
BOX
 70
         0
 40
1.0
 41
1.0
 50
0.0
 71
         0
 42
0.2
  3
txt.shx
  4

  0
STYLE
  5
3CA
100
AcDbSymbolTableRecord
100
AcDbTextStyleTableRecord
  2
BOX
 70
         0
 40
1.0
 41
1.0
 50
0.0
 71
         0
 42
0.2
  3
txt.shx
  4

  0
STYLE
  5
3CD
100
AcDbSymbolTableRecord
100
AcDbTextStyleTableRecord
  2
BOX
 70
         0
 40
1.0
 41
1.0
 50
0.0
 71
         0
 42
0.2
  3
txt.shx
  4

  0
ENDTAB
  0
TABLE
  2
VIEW
  5
5
100
AcDbSymbolTable
 70
         0
  0
ENDTAB
  0
TABLE
  2
UCS
  5
6
100
AcDbSymbolTable
 70
         1
  0
UCS
  5
20
100
AcDbSymbolTableRecord
100
AcDbUCSTableRecord
  2
CK_VIEW_1
 70
         0
 10
0.0
 20
0.0
 30
1.0
 11
1.0
 21
0.0
 31
0.0
 12
0.0
 22
1.0
 32
0.0
  0
ENDTAB
  0
TABLE
  2
APPID
  5
8
100
AcDbSymbolTable
 70
         1
  0
APPID
  5
16
100
AcDbSymbolTableRecord
100
AcDbRegAppTableRecord
  2
ACAD
 70
         0
  0
ENDTAB
  0
TABLE
  2
DIMSTYLE
  5
9
100
AcDbSymbolTable
 70
         2
  0
DIMSTYLE
105
18
100
AcDbSymbolTableRecord
100
AcDbDimStyleTableRecord
  2
STANDARD
 70
         0
  3

  4

  5

  6

  7

 40
1.0
 41
0.18
 42
0.0625
 43
0.38
 44
0.18
 45
0.0
 46
0.0
 47
0.0
 48
0.0
 71
         0
 72
         0
 73
         1
 74
         1
 75
         0
 76
         0
 77
         0
 78
         0
140
0.18
141
0.09
142
0.0
143
25.4
144
1.0
145
0.0
146
1.0
147
0.09
170
         0
171
         2
172
         0
173
         0
174
         0
175
         0
176
         0
177
         0
178
         0
270
         2
271
         4
272
         4
273
         2
274
         2
275
         0
280
         0
281
         0
282
         0
283
         1
284
         0
285
         0
286
         0
287
         0
288
         0
340
17
  0
DIMSTYLE
105
26
100
AcDbSymbolTableRecord
100
AcDbDimStyleTableRecord
  2
DIMSTYLE1
 70
         0
  3

  4

  5

  6

  7

 40
1.0
 41
3.5
 42
0.0625
 43
0.38
 44
3.5
 45
0.0
 46
0.0
 47
0.0
 48
0.0
 71
         0
 72
         0
 73
         1
 74
         1
 75
         0
 76
         0
 77
         0
 78
         0
140
3.5
141
0.09
142
0.0
143
25.4
144
1.0
145
0.0
146
1.0
147
0.09
170
         0
171
         2
172
         0
173
         0
174
         0
175
         0
176
         0
177
         0
178
         0
270
         2
271
         4
272
         4
273
         2
274
         2
275
         0
280
         0
281
         0
282
         0
283
         1
284
         0
285
         0
286
         0
287
         0
288
         0
340
17
  0
ENDTAB
  0
TABLE
  2
BLOCK_RECORD
  5
1
100
AcDbSymbolTable
 70
        10
  0
BLOCK_RECORD
  5
A
100
AcDbSymbolTableRecord
100
AcDbBlockTableRecord
  2
*MODEL_SPACE
  0
BLOCK_RECORD
  5
B
100
AcDbSymbolTableRecord
100
AcDbBlockTableRecord
  2
*PAPER_SPACE
  0
BLOCK_RECORD
  5
27
100
AcDbSymbolTableRecord
100
AcDbBlockTableRecord
  2
*D0
  0
BLOCK_RECORD
  5
36
100
AcDbSymbolTableRecord
100
AcDbBlockTableRecord
  2
*D1
  0
BLOCK_RECORD
  5
244
100
AcDbSymbolTableRecord
100
AcDbBlockTableRecord
  2
*D2
  0
BLOCK_RECORD
  5
252
100
AcDbSymbolTableRecord
100
AcDbBlockTableRecord
  2
*D3
  0
BLOCK_RECORD
  5
2F6
100
AcDbSymbolTableRecord
100
AcDbBlockTableRecord
  2
*X4
  0
BLOCK_RECORD
  5
364
100
AcDbSymbolTableRecord
100
AcDbBlockTableRecord
  2
*D5
  0
BLOCK_RECORD
  5
372
100
AcDbSymbolTableRecord
100
AcDbBlockTableRecord
  2
*D6
  0
BLOCK_RECORD
  5
393
100
AcDbSymbolTableRecord
100
AcDbBlockTableRecord
  2
*D7
  0
BLOCK_RECORD
  5
3AC
100
AcDbSymbolTableRecord
100
AcDbBlockTableRecord
  2
*D8
  0
BLOCK_RECORD
  5
3BE
100
AcDbSymbolTableRecord
100
AcDbBlockTableRecord
  2
*D9
  0
ENDTAB
  0
ENDSEC
  0
SECTION
  2
BLOCKS
  0
BLOCK
  5
D
100
AcDbEntity
  8
0
100
AcDbBlockBegin
  2
*MODEL_SPACE
 70
         0
 10
0.0
 20
0.0
 30
0.0
  3
*MODEL_SPACE
  1

  0
ENDBLK
  5
E
100
AcDbEntity
  8
0
100
AcDbBlockEnd
  0
BLOCK
  5
F
100
AcDbEntity
 67
         1
  8
0
100
AcDbBlockBegin
  2
*PAPER_SPACE
 70
         0
 10
0.0
 20
0.0
 30
0.0
  3
*PAPER_SPACE
  1

  0
ENDBLK
  5
10
100
AcDbEntity
 67
         1
  8
0
100
AcDbBlockEnd
  0
BLOCK
  5
28
100
AcDbEntity
  8
0
100
AcDbBlockBegin
  2
*D0
 70
        65
 10
0.0
 20
0.0
 30
0.0
  3
*D0
  1

  0
POINT
  5
2B
100
AcDbEntity
  8
DEFPOINTS
  6
CONTINUOUS
 62
         0
100
AcDbPoint
 10
1419.9265047567
 20
-155.6103260581
 30
0.0
  0
POINT
  5
2C
100
AcDbEntity
  8
DEFPOINTS
  6
CONTINUOUS
 62
         0
100
AcDbPoint
 10
1419.9265047567
 20
-185.3156455357
 30
0.0
  0
POINT
  5
2D
100
AcDbEntity
  8
DEFPOINTS
  6
CONTINUOUS
 62
         0
100
AcDbPoint
 10
1499.9270047567
 20
-215.4654006087
 30
0.0
  0
LINE
  5
2E
100
AcDbEntity
  8
L1_120
  6
CONTINUOUS
 62
         4
100
AcDbLine
 10
1419.9265047567
 20
-183.5656455357
 30
0.0
 11
1419.9265047567
 21
-154.7353260581
 31
0.0
  0
LINE
  5
2F
100
AcDbEntity
  8
L1_120
  6
CONTINUOUS
 62
         4
100
AcDbLine
 10
1499.9270047567
 20
-213.7154006087
 30
0.0
 11
1499.9270047567
 21
-154.7353260581
 31
0.0
  0
LINE
  5
30
100
AcDbEntity
  8
L1_120
  6
CONTINUOUS
 62
         4
100
AcDbLine
 10
1419.9265047567
 20
-155.6103260581
 30
0.0
 11
1499.9270047567
 21
-155.6103260581
 31
0.0
  0
SOLID
  5
31
100
AcDbEntity
  8
L1_120
  6
CONTINUOUS
 62
         4
100
AcDbTrace
 10
1419.9265047567
 20
-155.6103260581
 30
0.0
 11
1423.4265047567
 21
-155.0853260581
 31
0.0
 12
1423.4265047567
 22
-156.1353260581
 32
0.0
 13
1419.9265047567
 23
-155.6103260581
 33
0.0
  0
SOLID
  5
32
100
AcDbEntity
  8
L1_120
  6
CONTINUOUS
 62
         4
100
AcDbTrace
 10
1499.9270047567
 20
-155.6103260581
 30
0.0
 11
1496.4270047567
 21
-156.1353260581
 31
0.0
 12
1496.4270047567
 22
-155.0853260581
 32
0.0
 13
1499.9270047567
 23
-155.6103260581
 33
0.0
  0
TEXT
  5
34
100
AcDbEntity
  8
L1_120
  6
CONTINUOUS
 62
         4
100
AcDbText
 10
1459.2744914959
 20
-152.9853260581
 30
0.0
 40
3.5
  1
80
  7
BOX
100
AcDbText
  0
ENDBLK
  5
35
100
AcDbEntity
  8
0
  6
CONTINUOUS
100
AcDbBlockEnd
  0
BLOCK
  5
37
100
AcDbEntity
  8
0
100
AcDbBlockBegin
  2
*D1
 70
        65
 10
0.0
 20
0.0
 30
0.0
  3
*D1
  1

  0
POINT
  5
39
100
AcDbEntity
  8
DEFPOINTS
  6
CONTINUOUS
 62
         0
100
AcDbPoint
 10
1318.3275047567
 20
-139.5232915917
 30
0.0
  0
POINT
  5
3A
100
AcDbEntity
  8
DEFPOINTS
  6
CONTINUOUS
 62
         0
100
AcDbPoint
 10
1318.3275047567
 20
-207.0943097716
 30
0.0
  0
POINT
  5
3B
100
AcDbEntity
  8
DEFPOINTS
  6
CONTINUOUS
 62
         0
100
AcDbPoint
 10
1499.9270047567
 20
-215.4654006087
 30
0.0
  0
LINE
  5
3C
100
AcDbEntity
  8
L1_120
  6
CONTINUOUS
 62
         4
100
AcDbLine
 10
1318.3275047567
 20
-205.3443097716
 30
0.0
 11
1318.3275047567
 21
-138.6482915917
 31
0.0
  0
LINE
  5
3D
100
AcDbEntity
  8
L1_120
  6
CONTINUOUS
 62
         4
100
AcDbLine
 10
1499.9270047567
 20
-213.7154006087
 30
0.0
 11
1499.9270047567
 21
-138.6482915917
 31
0.0
  0
LINE
  5
3E
100
AcDbEntity
  8
L1_120
  6
CONTINUOUS
 62
         4
100
AcDbLine
 10
1318.3275047567
 20
-139.5232915917
 30
0.0
 11
1499.9270047567
 21
-139.5232915917
 31
0.0
  0
SOLID
  5
3F
100
AcDbEntity
  8
L1_120
  6
CONTINUOUS
 62
         4
100
AcDbTrace
 10
1318.3275047567
 20
-139.5232915917
 30
0.0
 11
1321.8275047567
 21
-138.9982915917
 31
0.0
 12
1321.8275047567
 22
-140.0482915917
 32
0.0
 13
1318.3275047567
 23
-139.5232915917
 33
0.0
  0
SOLID
  5
40
100
AcDbEntity
  8
L1_120
  6
CONTINUOUS
 62
         4
100
AcDbTrace
 10
1499.9270047567
 20
-139.5232915917
 30
0.0
 11
1496.4270047567
 21
-140.0482915917
 31
0.0
 12
1496.4270047567
 22
-138.9982915917
 32
0.0
 13
1499.9270047567
 23
-139.5232915917
 33
0.0
  0
TEXT
  5
42
100
AcDbEntity
  8
L1_120
  6
CONTINUOUS
 62
         4
100
AcDbText
 10
1401.8635009533
 20
-136.8982915917
 30
0.0
 40
3.5
  1
181.6
  7
BOX
100
AcDbText
  0
ENDBLK
  5
43
100
AcDbEntity
  8
0
  6
CONTINUOUS
100
AcDbBlockEnd
  0
BLOCK
  5
245
100
AcDbEntity
  8
0
100
AcDbBlockBegin
  2
*D2
 70
        65
 10
0.0
 20
0.0
 30
0.0
  3
*D2
  1

  0
POINT
  5
247
100
AcDbEntity
  8
DEFPOINTS
  6
CONTINUOUS
 62
         0
100
AcDbPoint
 10
1521.6858885276
 20
-211.541010117
 30
0.0
  0
POINT
  5
248
100
AcDbEntity
  8
DEFPOINTS
  6
CONTINUOUS
 62
         0
100
AcDbPoint
 10
1499.9270047567
 20
-211.541010117
 30
0.0
  0
POINT
  5
249
100
AcDbEntity
  8
DEFPOINTS
  6
CONTINUOUS
 62
         0
100
AcDbPoint
 10
1499.9270047567
 20
-238.541010117
 30
0.0
  0
LINE
  5
24A
100
AcDbEntity
  8
L1_120
  6
CONTINUOUS
 62
         4
100
AcDbLine
 10
1501.6770047567
 20
-211.541010117
 30
0.0
 11
1522.5608885276
 21
-211.541010117
 31
0.0
  0
LINE
  5
24B
100
AcDbEntity
  8
L1_120
  6
CONTINUOUS
 62
         4
100
AcDbLine
 10
1501.6770047567
 20
-238.541010117
 30
0.0
 11
1522.5608885276
 21
-238.541010117
 31
0.0
  0
LINE
  5
24C
100
AcDbEntity
  8
L1_120
  6
CONTINUOUS
 62
         4
100
AcDbLine
 10
1521.6858885276
 20
-211.541010117
 30
0.0
 11
1521.6858885276
 21
-238.541010117
 31
0.0
  0
SOLID
  5
24D
100
AcDbEntity
  8
L1_120
  6
CONTINUOUS
 62
         4
100
AcDbTrace
 10
1521.6858885276
 20
-211.541010117
 30
0.0
 11
1522.2108885276
 21
-215.041010117
 31
0.0
 12
1521.1608885276
 22
-215.041010117
 32
0.0
 13
1521.6858885276
 23
-211.541010117
 33
0.0
  0
SOLID
  5
24E
100
AcDbEntity
  8
L1_120
  6
CONTINUOUS
 62
         4
100
AcDbTrace
 10
1521.6858885276
 20
-238.541010117
 30
0.0
 11
1521.1608885276
 21
-235.041010117
 31
0.0
 12
1522.2108885276
 22
-235.041010117
 32
0.0
 13
1521.6858885276
 23
-238.541010117
 33
0.0
  0
TEXT
  5
250
100
AcDbEntity
  8
L1_120
  6
CONTINUOUS
 62
         4
100
AcDbText
 10
1517.6258885276
 20
-233.4850964898
 30
0.0
 40
3.5
  1
崷27
 50
90.0
  7
BOX
100
AcDbText
  0
ENDBLK
  5
251
100
AcDbEntity
  8
0
  6
CONTINUOUS
100
AcDbBlockEnd
  0
BLOCK
  5
253
100
AcDbEntity
  8
0
100
AcDbBlockBegin
  2
*D3
 70
        65
 10
0.0
 20
0.0
 30
0.0
  3
*D3
  1

  0
POINT
  5
255
100
AcDbEntity
  8
DEFPOINTS
  6
CONTINUOUS
 62
         0
100
AcDbPoint
 10
1442.2739023886
 20
-208.041010117
 30
0.0
  0
POINT
  5
256
100
AcDbEntity
  8
DEFPOINTS
  6
CONTINUOUS
 62
         0
100
AcDbPoint
 10
1455.4552881801
 20
-208.041010117
 30
0.0
  0
POINT
  5
257
100
AcDbEntity
  8
DEFPOINTS
  6
CONTINUOUS
 62
         0
100
AcDbPoint
 10
1455.4552881801
 20
-208.041010117
 30
0.0
  0
POINT
  5
258
100
AcDbEntity
  8
DEFPOINTS
  6
CONTINUOUS
 62
         0
100
AcDbPoint
 10
1492.6523614843
 20
-210.9684832749
 30
0.0
  0
LINE
  5
259
100
AcDbEntity
  8
L1_120
  6
CONTINUOUS
 62
         4
100
AcDbLine
 10
1457.2052881801
 20
-208.041010117
 30
0.0
 11
1475.8815994679
 21
-208.041010117
 31
0.0
  0
ARC
  5
25A
100
AcDbEntity
  8
L1_120
  6
CONTINUOUS
 62
         4
100
AcDbCircle
 10
1455.4552881801
 20
-208.041010117
 30
0.0
 40
19.5513112878
100
AcDbArc
 50
334.9862630599
 51
355.5
  0
SOLID
  5
25B
100
AcDbEntity
  8
L1_120
  6
CONTINUOUS
 62
         4
100
AcDbTrace
 10
1474.9463293001
 20
-209.5749883209
 30
0.0
 11
1474.8789532877
 21
-213.1135029066
 31
0.0
 12
1473.8437235027
 22
-212.9380056351
 32
0.0
 13
1474.9463293001
 23
-209.5749883209
 33
0.0
  0
ARC
  5
25C
100
AcDbEntity
  8
L1_120
  6
CONTINUOUS
 62
         4
100
AcDbCircle
 10
1455.4552881801
 20
-208.041010117
 30
0.0
 40
19.5513112878
100
AcDbArc
 50
0.0
 51
23.3255011681
  0
SOLID
  5
25D
100
AcDbEntity
  8
L1_120
  6
CONTINUOUS
 62
         4
100
AcDbTrace
 10
1475.0065994679
 20
-208.041010117
 30
0.0
 11
1474.1712519336
 21
-204.601850409
 31
0.0
 12
1475.2170598079
 22
-204.5081173299
 32
0.0
 13
1475.0065994679
 23
-208.041010117
 33
0.0
  0
ARC
  5
25E
100
AcDbEntity
  8
L1_120
  6
CONTINUOUS
 62
         4
100
AcDbCircle
 10
1455.4552881801
 20
-208.041010117
 30
0.0
 40
19.5513112878
100
AcDbArc
 50
355.5
 51
360.0
  0
SOLID
  5
25F
100
AcDbEntity
  8
L1_120
  6
CONTINUOUS
 62
         4
100
AcDbTrace
 10
1455.4552881801
 20
-208.041010117
 30
0.0
 11
1456.8471907906
 21
-204.787053737
 31
0.0
 12
1457.7406394914
 22
-205.3386418252
 32
0.0
 13
1455.4552881801
 23
-208.041010117
 33
0.0
  0
TEXT
  5
261
100
AcDbEntity
  8
L1_120
  6
CONTINUOUS
 62
         4
100
AcDbText
 10
1475.158675513
 20
-198.5495854195
 30
0.0
 40
3.5
  1
4.5%%d
  7
BOX
100
AcDbText
  0
ENDBLK
  5
262
100
AcDbEntity
  8
0
  6
CONTINUOUS
100
AcDbBlockEnd
  0
BLOCK
  5
2F7
100
AcDbEntity
  8
0
100
AcDbBlockBegin
  2
*X4
 70
        65
 10
0.0
 20
0.0
 30
0.0
  3
*X4
  1

  0
LINE
  5
2F8
100
AcDbEntity
  8
L1_120
  6
CONTINUOUS
 62
         4
100
AcDbLine
 10
1495.2368093426
 20
-352.0617234837
 30
0.0
 11
1500.2241608039
 21
-347.0743720224
 31
0.0
  0
LINE
  5
2F9
100
AcDbEntity
  8
L1_120
  6
CONTINUOUS
 62
         4
100
AcDbLine
 10
1490.6317419952
 20
-352.4241501439
 30
0.0
 11
1496.906155552
 21
-346.1497365872
 31
0.0
  0
LINE
  5
2FA
100
AcDbEntity
  8
L1_120
  6
CONTINUOUS
 62
         4
100
AcDbLine
 10
1486.0266746478
 20
-352.7865768042
 30
0.0
 11
1492.6635148649
 21
-346.1497365872
 31
0.0
  0
LINE
  5
2FB
100
AcDbEntity
  8
L1_120
  6
CONTINUOUS
 62
         4
100
AcDbLine
 10
1481.4216073004
 20
-353.1490034645
 30
0.0
 11
1488.4208741778
 21
-346.1497365872
 31
0.0
  0
LINE
  5
2FC
100
AcDbEntity
  8
L1_120
  6
CONTINUOUS
 62
         4
100
AcDbLine
 10
1476.816539953
 20
-353.5114301248
 30
0.0
 11
1484.1782334907
 21
-346.1497365872
 31
0.0
  0
LINE
  5
2FD
100
AcDbEntity
  8
L1_120
  6
CONTINUOUS
 62
         4
100
AcDbLine
 10
1472.2114726056
 20
-353.8738567851
 30
0.0
 11
1479.9355928035
 21
-346.1497365872
 31
0.0
  0
LINE
  5
2FE
100
AcDbEntity
  8
L1_120
  6
CONTINUOUS
 62
         4
100
AcDbLine
 10
1495.8970928035
 20
-330.1882365872
 30
0.0
 11
1500.2270047567
 21
-325.858324634
 31
0.0
  0
LINE
  5
2FF
100
AcDbEntity
  8
L1_120
  6
CONTINUOUS
 62
         4
100
AcDbLine
 10
1434.9240666978
 20
-386.9186220057
 30
0.0
 11
1439.3275047567
 21
-382.5151839468
 31
0.0
  0
LINE
  5
300
100
AcDbEntity
  8
L1_120
  6
CONTINUOUS
 62
         4
100
AcDbLine
 10
1467.6064052582
 20
-354.2362834453
 30
0.0
 11
1475.6929521164
 21
-346.1497365872
 31
0.0
  0
LINE
  5
301
100
AcDbEntity
  8
L1_120
  6
CONTINUOUS
 62
         4
100
AcDbLine
 10
1491.6544521164
 20
-330.1882365872
 30
0.0
 11
1497.3964700306
 21
-324.446218673
 31
0.0
  0
LINE
  5
302
100
AcDbEntity
  8
L1_120
  6
CONTINUOUS
 62
         4
100
AcDbLine
 10
1433.3325890229
 20
-384.2674589935
 30
0.0
 11
1439.3275047567
 21
-378.2725432597
 31
0.0
  0
LINE
  5
303
100
AcDbEntity
  8
L1_120
  6
CONTINUOUS
 62
         4
100
AcDbLine
 10
1463.0013379108
 20
-354.5987101056
 30
0.0
 11
1471.4503114293
 21
-346.1497365872
 31
0.0
  0
LINE
  5
304
100
AcDbEntity
  8
L1_120
  6
CONTINUOUS
 62
         4
100
AcDbLine
 10
1487.4118114293
 20
-330.1882365872
 30
0.0
 11
1493.4633709539
 21
-324.1366770625
 31
0.0
  0
LINE
  5
305
100
AcDbEntity
  8
L1_120
  6
CONTINUOUS
 62
         4
100
AcDbLine
 10
1426.4387853236
 20
-386.9186220057
 30
0.0
 11
1439.3275047567
 21
-374.0299025726
 31
0.0
  0
LINE
  5
306
100
AcDbEntity
  8
L1_120
  6
CONTINUOUS
 62
         4
100
AcDbLine
 10
1458.3962705634
 20
-354.9611367659
 30
0.0
 11
1467.2076707422
 21
-346.1497365872
 31
0.0
  0
LINE
  5
307
100
AcDbEntity
  8
L1_120
  6
CONTINUOUS
 62
         4
100
AcDbLine
 10
1483.1691707422
 20
-330.1882365872
 30
0.0
 11
1489.5302718773
 21
-323.8271354521
 31
0.0
  0
LINE
  5
308
100
AcDbEntity
  8
L1_120
  6
CONTINUOUS
 62
         4
100
AcDbLine
 10
1423.4275047567
 20
-385.6872618855
 30
0.0
 11
1439.3275047567
 21
-369.7872618855
 31
0.0
  0
LINE
  5
309
100
AcDbEntity
  8
L1_120
  6
CONTINUOUS
 62
         4
100
AcDbLine
 10
1453.9457800551
 20
-355.1689865871
 30
0.0
 11
1462.9650300551
 21
-346.1497365872
 31
0.0
  0
LINE
  5
30A
100
AcDbEntity
  8
L1_120
  6
CONTINUOUS
 62
         4
100
AcDbLine
 10
1478.9265300551
 20
-330.1882365872
 30
0.0
 11
1485.5971728006
 21
-323.5175938416
 31
0.0
  0
LINE
  5
30B
100
AcDbEntity
  8
L1_120
  6
CONTINUOUS
 62
         4
100
AcDbLine
 10
1423.4275047567
 20
-381.4446211984
 30
0.0
 11
1439.3275047567
 21
-365.5446211984
 31
0.0
  0
LINE
  5
30C
100
AcDbEntity
  8
L1_120
  6
CONTINUOUS
 62
         4
100
AcDbLine
 10
1449.703139368
 20
-355.1689865871
 30
0.0
 11
1458.2031393679
 21
-346.6689865872
 31
0.0
  0
LINE
  5
30D
100
AcDbEntity
  8
L1_120
  6
CONTINUOUS
 62
         4
100
AcDbLine
 10
1474.6838893679
 20
-330.1882365872
 30
0.0
 11
1481.6640737239
 21
-323.2080522312
 31
0.0
  0
LINE
  5
30E
100
AcDbEntity
  8
L1_120
  6
CONTINUOUS
 62
         4
100
AcDbLine
 10
1423.4275047567
 20
-377.2019805112
 30
0.0
 11
1439.3275047567
 21
-361.3019805112
 31
0.0
  0
LINE
  5
30F
100
AcDbEntity
  8
L1_120
  6
CONTINUOUS
 62
         4
100
AcDbLine
 10
1449.5275047567
 20
-351.1019805112
 30
0.0
 11
1453.9604986808
 21
-346.6689865872
 31
0.0
  0
LINE
  5
310
100
AcDbEntity
  8
L1_120
  6
CONTINUOUS
 62
         4
100
AcDbLine
 10
1470.4412486808
 20
-330.1882365872
 30
0.0
 11
1477.7309746472
 21
-322.8985106207
 31
0.0
  0
LINE
  5
311
100
AcDbEntity
  8
L1_120
  6
CONTINUOUS
 62
         4
100
AcDbLine
 10
1423.0170005804
 20
-373.3698440004
 30
0.0
 11
1439.7457080639
 21
-356.641136517
 31
0.0
  0
LINE
  5
312
100
AcDbEntity
  8
L1_120
  6
CONTINUOUS
 62
         4
100
AcDbLine
 10
1440.7996546866
 20
-355.5871898942
 30
0.0
 11
1444.3275047567
 21
-352.0593398241
 31
0.0
  0
LINE
  5
313
100
AcDbEntity
  8
L1_120
  6
CONTINUOUS
 62
         4
100
AcDbLine
 10
1448.697221979
 20
-347.6896226019
 30
0.0
 11
1451.2270047567
 21
-345.1598398241
 31
0.0
  0
LINE
  5
314
100
AcDbEntity
  8
L1_120
  6
CONTINUOUS
 62
         4
100
AcDbLine
 10
1466.1986079937
 20
-330.1882365872
 30
0.0
 11
1473.7978755705
 21
-322.5889690103
 31
0.0
  0
LINE
  5
315
100
AcDbEntity
  8
L1_120
  6
CONTINUOUS
 62
         4
100
AcDbLine
 10
1419.2003733021
 20
-372.9438305916
 30
0.0
 11
1448.5752173066
 21
-343.5689865872
 31
0.0
  0
LINE
  5
316
100
AcDbEntity
  8
L1_120
  6
CONTINUOUS
 62
         4
100
AcDbLine
 10
1461.9559673066
 20
-330.1882365872
 30
0.0
 11
1469.8647764939
 21
-322.2794273999
 31
0.0
  0
LINE
  5
317
100
AcDbEntity
  8
L1_120
  6
CONTINUOUS
 62
         4
100
AcDbLine
 10
1415.4977095029
 20
-372.4038537037
 30
0.0
 11
1444.3325766195
 21
-343.5689865872
 31
0.0
  0
LINE
  5
318
100
AcDbEntity
  8
L1_120
  6
CONTINUOUS
 62
         4
100
AcDbLine
 10
1458.2325766195
 20
-329.6689865872
 30
0.0
 11
1465.9316774172
 21
-321.9698857894
 31
0.0
  0
LINE
  5
319
100
AcDbEntity
  8
L1_120
  6
CONTINUOUS
 62
         4
100
AcDbLine
 10
1411.7950457036
 20
-371.8638768159
 30
0.0
 11
1440.0899359323
 21
-343.5689865872
 31
0.0
  0
LINE
  5
31A
100
AcDbEntity
  8
L1_120
  6
CONTINUOUS
 62
         4
100
AcDbLine
 10
1450.8899359323
 20
-332.7689865872
 30
0.0
 11
1451.2270047567
 21
-332.4319177628
 31
0.0
  0
LINE
  5
31B
100
AcDbEntity
  8
L1_120
  6
CONTINUOUS
 62
         4
100
AcDbLine
 10
1453.9899359323
 20
-329.6689865872
 30
0.0
 11
1461.9985783405
 21
-321.660344179
 31
0.0
  0
LINE
  5
31C
100
AcDbEntity
  8
L1_120
  6
CONTINUOUS
 62
         4
100
AcDbLine
 10
1408.0923819044
 20
-371.323899928
 30
0.0
 11
1435.8472952452
 21
-343.5689865872
 31
0.0
  0
LINE
  5
31D
100
AcDbEntity
  8
L1_120
  6
CONTINUOUS
 62
         4
100
AcDbLine
 10
1446.6472952452
 20
-332.7689865872
 30
0.0
 11
1458.0654792638
 21
-321.3508025685
 31
0.0
  0
LINE
  5
31E
100
AcDbEntity
  8
L1_120
  6
CONTINUOUS
 62
         4
100
AcDbLine
 10
1404.3897181052
 20
-370.7839230401
 30
0.0
 11
1426.6086776761
 21
-348.5649634691
 31
0.0
  0
LINE
  5
31F
100
AcDbEntity
  8
L1_120
  6
CONTINUOUS
 62
         4
100
AcDbLine
 10
1430.7111255343
 20
-344.4625156109
 30
0.0
 11
1431.6046545581
 21
-343.5689865872
 31
0.0
  0
LINE
  5
320
100
AcDbEntity
  8
L1_120
  6
CONTINUOUS
 62
         4
100
AcDbLine
 10
1442.4046545581
 20
-332.7689865872
 30
0.0
 11
1446.0247497211
 21
-329.1488914242
 31
0.0
  0
LINE
  5
321
100
AcDbEntity
  8
L1_120
  6
CONTINUOUS
 62
         4
100
AcDbLine
 10
1449.5275047567
 20
-325.6461363885
 30
0.0
 11
1454.0046545582
 21
-321.1689865871
 31
0.0
  0
LINE
  5
322
100
AcDbEntity
  8
L1_120
  6
CONTINUOUS
 62
         4
100
AcDbLine
 10
1400.687054306
 20
-370.2439461522
 30
0.0
 11
1422.366036989
 21
-348.5649634691
 31
0.0
  0
LINE
  5
323
100
AcDbEntity
  8
L1_120
  6
CONTINUOUS
 62
         4
100
AcDbLine
 10
1438.162013871
 20
-332.7689865872
 30
0.0
 11
1444.3275047567
 21
-326.6034957014
 31
0.0
  0
LINE
  5
324
100
AcDbEntity
  8
L1_120
  6
CONTINUOUS
 62
         4
100
AcDbLine
 10
1449.5275047567
 20
-321.4034957014
 30
0.0
 11
1449.762013871
 21
-321.1689865871
 31
0.0
  0
LINE
  5
325
100
AcDbEntity
  8
L1_120
  6
CONTINUOUS
 62
         4
100
AcDbLine
 10
1396.9843905067
 20
-369.7039692643
 30
0.0
 11
1418.1233963019
 21
-348.5649634691
 31
0.0
  0
LINE
  5
326
100
AcDbEntity
  8
L1_120
  6
CONTINUOUS
 62
         4
100
AcDbLine
 10
1433.9193731839
 20
-332.7689865872
 30
0.0
 11
1444.3275047567
 21
-322.3608550143
 31
0.0
  0
LINE
  5
327
100
AcDbEntity
  8
L1_120
  6
CONTINUOUS
 62
         4
100
AcDbLine
 10
1393.2817267075
 20
-369.1639923764
 30
0.0
 11
1413.8807556148
 21
-348.5649634691
 31
0.0
  0
LINE
  5
328
100
AcDbEntity
  8
L1_120
  6
CONTINUOUS
 62
         4
100
AcDbLine
 10
1430.6595657268
 20
-331.7861533571
 30
0.0
 11
1441.4179403432
 21
-321.0277787407
 31
0.0
  0
LINE
  5
329
100
AcDbEntity
  8
L1_120
  6
CONTINUOUS
 62
         4
100
AcDbLine
 10
1389.5790629083
 20
-368.6240154885
 30
0.0
 11
1409.6381149276
 21
-348.5649634691
 31
0.0
  0
LINE
  5
32A
100
AcDbEntity
  8
L1_120
  6
CONTINUOUS
 62
         4
100
AcDbLine
 10
1429.1066514562
 20
-329.0964269406
 30
0.0
 11
1439.3961234491
 21
-318.8069549477
 31
0.0
  0
LINE
  5
32B
100
AcDbEntity
  8
L1_120
  6
CONTINUOUS
 62
         4
100
AcDbLine
 10
1385.8763991091
 20
-368.0840386006
 30
0.0
 11
1405.3954742405
 21
-348.5649634691
 31
0.0
  0
LINE
  5
32C
100
AcDbEntity
  8
L1_120
  6
CONTINUOUS
 62
         4
100
AcDbLine
 10
1426.1881571674
 20
-327.7722805423
 30
0.0
 11
1439.3275047567
 21
-314.6329329529
 31
0.0
  0
LINE
  5
32D
100
AcDbEntity
  8
L1_120
  6
CONTINUOUS
 62
         4
100
AcDbLine
 10
1382.1737353098
 20
-367.5440617127
 30
0.0
 11
1401.1528335534
 21
-348.5649634691
 31
0.0
  0
LINE
  5
32E
100
AcDbEntity
  8
L1_120
  6
CONTINUOUS
 62
         4
100
AcDbLine
 10
1421.9455164802
 20
-327.7722805423
 30
0.0
 11
1439.3275047567
 21
-310.3902922658
 31
0.0
  0
LINE
  5
32F
100
AcDbEntity
  8
L1_120
  6
CONTINUOUS
 62
         4
100
AcDbLine
 10
1378.4710715106
 20
-367.0040848248
 30
0.0
 11
1396.9101928663
 21
-348.5649634691
 31
0.0
  0
LINE
  5
330
100
AcDbEntity
  8
L1_120
  6
CONTINUOUS
 62
         4
100
AcDbLine
 10
1417.7028757931
 20
-327.7722805423
 30
0.0
 11
1439.3275047567
 21
-306.1476515787
 31
0.0
  0
LINE
  5
331
100
AcDbEntity
  8
L1_120
  6
CONTINUOUS
 62
         4
100
AcDbLine
 10
1374.7684077114
 20
-366.4641079369
 30
0.0
 11
1392.6675521792
 21
-348.5649634691
 31
0.0
  0
LINE
  5
332
100
AcDbEntity
  8
L1_120
  6
CONTINUOUS
 62
         4
100
AcDbLine
 10
1421.2071755795
 20
-320.0253400688
 30
0.0
 11
1439.3275047567
 21
-301.9050108916
 31
0.0
  0
LINE
  5
333
100
AcDbEntity
  8
L1_120
  6
CONTINUOUS
 62
         4
100
AcDbLine
 10
1371.0657439122
 20
-365.924131049
 30
0.0
 11
1388.424911492
 21
-348.5649634691
 31
0.0
  0
LINE
  5
334
100
AcDbEntity
  8
L1_120
  6
CONTINUOUS
 62
         4
100
AcDbLine
 10
1409.2175944189
 20
-327.7722805423
 30
0.0
 11
1416.5592942571
 21
-320.4305807041
 31
0.0
  0
LINE
  5
335
100
AcDbEntity
  8
L1_120
  6
CONTINUOUS
 62
         4
100
AcDbLine
 10
1367.3630801129
 20
-365.3841541611
 30
0.0
 11
1384.1822708049
 21
-348.5649634691
 31
0.0
  0
LINE
  5
336
100
AcDbEntity
  8
L1_120
  6
CONTINUOUS
 62
         4
100
AcDbLine
 10
1404.9749537318
 20
-327.7722805423
 30
0.0
 11
1429.3674684451
 21
-303.3797658289
 31
0.0
  0
LINE
  5
337
100
AcDbEntity
  8
L1_120
  6
CONTINUOUS
 62
         4
100
AcDbLine
 10
1432.9575436604
 20
-299.7896906136
 30
0.0
 11
1435.8451772368
 21
-296.9020570372
 31
0.0
  0
LINE
  5
338
100
AcDbEntity
  8
L1_120
  6
CONTINUOUS
 62
         4
100
AcDbLine
 10
1363.6604163137
 20
-364.8441772732
 30
0.0
 11
1379.9396301178
 21
-348.5649634691
 31
0.0
  0
LINE
  5
339
100
AcDbEntity
  8
L1_120
  6
CONTINUOUS
 62
         4
100
AcDbLine
 10
1400.7323130446
 20
-327.7722805423
 30
0.0
 11
1426.8721020903
 21
-301.6324914967
 31
0.0
  0
LINE
  5
33A
100
AcDbEntity
  8
L1_120
  6
CONTINUOUS
 62
         4
100
AcDbLine
 10
1430.4621773056
 20
-298.0424162814
 30
0.0
 11
1438.956738169
 21
-289.547855418
 31
0.0
  0
LINE
  5
33B
100
AcDbEntity
  8
L1_120
  6
CONTINUOUS
 62
         4
100
AcDbLine
 10
1359.9577525145
 20
-364.3042003853
 30
0.0
 11
1375.6969894307
 21
-348.5649634691
 31
0.0
  0
LINE
  5
33C
100
AcDbEntity
  8
L1_120
  6
CONTINUOUS
 62
         4
100
AcDbLine
 10
1396.4896723575
 20
-327.7722805423
 30
0.0
 11
1421.153351479
 21
-303.1086014208
 31
0.0
  0
LINE
  5
33D
100
AcDbEntity
  8
L1_120
  6
CONTINUOUS
 62
         4
100
AcDbLine
 10
1423.4275047567
 20
-300.8344481431
 30
0.0
 11
1424.3767357354
 21
-299.8852171644
 31
0.0
  0
LINE
  5
33E
100
AcDbEntity
  8
L1_120
  6
CONTINUOUS
 62
         4
100
AcDbLine
 10
1427.9668109507
 20
-296.2951419491
 30
0.0
 11
1431.7183308941
 21
-292.5436220057
 31
0.0
  0
LINE
  5
33F
100
AcDbEntity
  8
L1_120
  6
CONTINUOUS
 62
         4
100
AcDbLine
 10
1356.2550887153
 20
-363.7642234974
 30
0.0
 11
1371.4543487436
 21
-348.5649634691
 31
0.0
  0
LINE
  5
340
100
AcDbEntity
  8
L1_120
  6
CONTINUOUS
 62
         4
100
AcDbLine
 10
1392.2470316704
 20
-327.7722805423
 30
0.0
 11
1416.1863495196
 21
-303.8329626931
 31
0.0
  0
LINE
  5
341
100
AcDbEntity
  8
L1_120
  6
CONTINUOUS
 62
         4
100
AcDbLine
 10
1425.8663528696
 20
-294.1529593431
 30
0.0
 11
1428.8195665695
 21
-291.1997456432
 31
0.0
  0
LINE
  5
342
100
AcDbEntity
  8
L1_120
  6
CONTINUOUS
 62
         4
100
AcDbLine
 10
1352.5524249161
 20
-363.2242466095
 30
0.0
 11
1367.2117080565
 21
-348.5649634691
 31
0.0
  0
LINE
  5
343
100
AcDbEntity
  8
L1_120
  6
CONTINUOUS
 62
         4
100
AcDbLine
 10
1388.0043909833
 20
-327.7722805423
 30
0.0
 11
1411.2193475603
 21
-304.5573239653
 31
0.0
  0
LINE
  5
344
100
AcDbEntity
  8
L1_120
  6
CONTINUOUS
 62
         4
100
AcDbLine
 10
1423.4275047567
 20
-292.3491667689
 30
0.0
 11
1426.3580495199
 21
-289.4186220057
 31
0.0
  0
LINE
  5
345
100
AcDbEntity
  8
L1_120
  6
CONTINUOUS
 62
         4
100
AcDbLine
 10
1348.8497611168
 20
-362.6842697216
 30
0.0
 11
1362.9690673693
 21
-348.5649634691
 31
0.0
  0
LINE
  5
346
100
AcDbEntity
  8
L1_120
  6
CONTINUOUS
 62
         4
100
AcDbLine
 10
1383.7617502962
 20
-327.7722805423
 30
0.0
 11
1406.252345601
 21
-305.2816852375
 31
0.0
  0
LINE
  5
347
100
AcDbEntity
  8
L1_120
  6
CONTINUOUS
 62
         4
100
AcDbLine
 10
1345.1470973176
 20
-362.1442928337
 30
0.0
 11
1358.7264266822
 21
-348.5649634691
 31
0.0
  0
LINE
  5
348
100
AcDbEntity
  8
L1_120
  6
CONTINUOUS
 62
         4
100
AcDbLine
 10
1379.519109609
 20
-327.7722805423
 30
0.0
 11
1401.2853436417
 21
-306.0060465097
 31
0.0
  0
LINE
  5
349
100
AcDbEntity
  8
L1_120
  6
CONTINUOUS
 62
         4
100
AcDbLine
 10
1341.4444335184
 20
-361.6043159458
 30
0.0
 11
1354.4837859951
 21
-348.5649634691
 31
0.0
  0
LINE
  5
34A
100
AcDbEntity
  8
L1_120
  6
CONTINUOUS
 62
         4
100
AcDbLine
 10
1375.2764689219
 20
-327.7722805423
 30
0.0
 11
1396.3183416823
 21
-306.7304077819
 31
0.0
  0
LINE
  5
34B
100
AcDbEntity
  8
L1_120
  6
CONTINUOUS
 62
         4
100
AcDbLine
 10
1337.7417697192
 20
-361.064339058
 30
0.0
 11
1350.241145308
 21
-348.5649634691
 31
0.0
  0
LINE
  5
34C
100
AcDbEntity
  8
L1_120
  6
CONTINUOUS
 62
         4
100
AcDbLine
 10
1371.0338282348
 20
-327.7722805423
 30
0.0
 11
1391.351339723
 21
-307.4547690541
 31
0.0
  0
LINE
  5
34D
100
AcDbEntity
  8
L1_120
  6
CONTINUOUS
 62
         4
100
AcDbLine
 10
1334.0391059199
 20
-360.5243621701
 30
0.0
 11
1345.9985046209
 21
-348.5649634691
 31
0.0
  0
LINE
  5
34E
100
AcDbEntity
  8
L1_120
  6
CONTINUOUS
 62
         4
100
AcDbLine
 10
1366.7911875477
 20
-327.7722805423
 30
0.0
 11
1386.3843377637
 21
-308.1791303263
 31
0.0
  0
LINE
  5
34F
100
AcDbEntity
  8
L1_120
  6
CONTINUOUS
 62
         4
100
AcDbLine
 10
1330.3364421207
 20
-359.9843852822
 30
0.0
 11
1341.7558639337
 21
-348.5649634691
 31
0.0
  0
LINE
  5
350
100
AcDbEntity
  8
L1_120
  6
CONTINUOUS
 62
         4
100
AcDbLine
 10
1362.5485468606
 20
-327.7722805423
 30
0.0
 11
1381.4173358044
 21
-308.9034915985
 31
0.0
  0
LINE
  5
351
100
AcDbEntity
  8
L1_120
  6
CONTINUOUS
 62
         4
100
AcDbLine
 10
1326.6337783215
 20
-359.4444083943
 30
0.0
 11
1337.5132232466
 21
-348.5649634691
 31
0.0
  0
LINE
  5
352
100
AcDbEntity
  8
L1_120
  6
CONTINUOUS
 62
         4
100
AcDbLine
 10
1358.3059061734
 20
-327.7722805423
 30
0.0
 11
1376.450333845
 21
-309.6278528707
 31
0.0
  0
LINE
  5
353
100
AcDbEntity
  8
L1_120
  6
CONTINUOUS
 62
         4
100
AcDbLine
 10
1322.9311145223
 20
-358.9044315064
 30
0.0
 11
1333.2705825595
 21
-348.5649634691
 31
0.0
  0
LINE
  5
354
100
AcDbEntity
  8
L1_120
  6
CONTINUOUS
 62
         4
100
AcDbLine
 10
1354.0632654863
 20
-327.7722805423
 30
0.0
 11
1371.4833318857
 21
-310.3522141429
 31
0.0
  0
LINE
  5
355
100
AcDbEntity
  8
L1_120
  6
CONTINUOUS
 62
         4
100
AcDbLine
 10
1319.5436646365
 20
-358.049240705
 30
0.0
 11
1329.0279418724
 21
-348.5649634691
 31
0.0
  0
LINE
  5
356
100
AcDbEntity
  8
L1_120
  6
CONTINUOUS
 62
         4
100
AcDbLine
 10
1349.8206247992
 20
-327.7722805423
 30
0.0
 11
1366.5163299264
 21
-311.0765754151
 31
0.0
  0
LINE
  5
357
100
AcDbEntity
  8
L1_120
  6
CONTINUOUS
 62
         4
100
AcDbLine
 10
1318.6275047567
 20
-354.7227598977
 30
0.0
 11
1322.6816426487
 21
-350.6686220057
 31
0.0
  0
LINE
  5
358
100
AcDbEntity
  8
L1_120
  6
CONTINUOUS
 62
         4
100
AcDbLine
 10
1345.5779841121
 20
-327.7722805423
 30
0.0
 11
1361.549327967
 21
-311.8009366874
 31
0.0
  0
LINE
  5
359
100
AcDbEntity
  8
L1_120
  6
CONTINUOUS
 62
         4
100
AcDbLine
 10
1341.335343425
 20
-327.7722805423
 30
0.0
 11
1356.5823260077
 21
-312.5252979596
 31
0.0
  0
LINE
  5
35A
100
AcDbEntity
  8
L1_120
  6
CONTINUOUS
 62
         4
100
AcDbLine
 10
1337.0927027378
 20
-327.7722805423
 30
0.0
 11
1351.6153240484
 21
-313.2496592318
 31
0.0
  0
LINE
  5
35B
100
AcDbEntity
  8
L1_120
  6
CONTINUOUS
 62
         4
100
AcDbLine
 10
1332.8500620507
 20
-327.7722805423
 30
0.0
 11
1346.6483220891
 21
-313.974020504
 31
0.0
  0
LINE
  5
35C
100
AcDbEntity
  8
L1_120
  6
CONTINUOUS
 62
         4
100
AcDbLine
 10
1328.6074213636
 20
-327.7722805423
 30
0.0
 11
1341.6813201297
 21
-314.6983817762
 31
0.0
  0
LINE
  5
35D
100
AcDbEntity
  8
L1_120
  6
CONTINUOUS
 62
         4
100
AcDbLine
 10
1325.6308146974
 20
-326.5062465214
 30
0.0
 11
1336.7143181704
 21
-315.4227430484
 31
0.0
  0
LINE
  5
35E
100
AcDbEntity
  8
L1_120
  6
CONTINUOUS
 62
         4
100
AcDbLine
 10
1322.225798526
 20
-325.6686220057
 30
0.0
 11
1331.7473162111
 21
-316.1471043206
 31
0.0
  0
LINE
  5
35F
100
AcDbEntity
  8
L1_120
  6
CONTINUOUS
 62
         4
100
AcDbLine
 10
1318.6988734551
 20
-324.9529063894
 30
0.0
 11
1326.7803142517
 21
-316.8714655928
 31
0.0
  0
LINE
  5
360
100
AcDbEntity
  8
L1_120
  6
CONTINUOUS
 62
         4
100
AcDbLine
 10
1318.6275047567
 20
-320.7816344007
 30
0.0
 11
1321.8133122924
 21
-317.595826865
 31
0.0
  0
ENDBLK
  5
361
100
AcDbEntity
  8
0
  6
CONTINUOUS
100
AcDbBlockEnd
  0
BLOCK
  5
365
100
AcDbEntity
  8
0
100
AcDbBlockBegin
  2
*D5
 70
        65
 10
0.0
 20
0.0
 30
0.0
  3
*D5
  1

  0
POINT
  5
367
100
AcDbEntity
  8
DEFPOINTS
  6
CONTINUOUS
 62
         0
100
AcDbPoint
 10
1533.3407624607
 20
-208.041010117
 30
0.0
  0
POINT
  5
368
100
AcDbEntity
  8
DEFPOINTS
  6
CONTINUOUS
 62
         0
100
AcDbPoint
 10
1455.4552881801
 20
-208.041010117
 30
0.0
  0
POINT
  5
369
100
AcDbEntity
  8
DEFPOINTS
  6
CONTINUOUS
 62
         0
100
AcDbPoint
 10
1455.4552881801
 20
-242.041010117
 30
0.0
  0
LINE
  5
36A
100
AcDbEntity
  8
L1_120
  6
CONTINUOUS
 62
         4
100
AcDbLine
 10
1457.2052881801
 20
-208.041010117
 30
0.0
 11
1534.2157624607
 21
-208.041010117
 31
0.0
  0
LINE
  5
36B
100
AcDbEntity
  8
L1_120
  6
CONTINUOUS
 62
         4
100
AcDbLine
 10
1457.2052881801
 20
-242.041010117
 30
0.0
 11
1534.2157624607
 21
-242.041010117
 31
0.0
  0
LINE
  5
36C
100
AcDbEntity
  8
L1_120
  6
CONTINUOUS
 62
         4
100
AcDbLine
 10
1533.3407624607
 20
-208.041010117
 30
0.0
 11
1533.3407624607
 21
-242.041010117
 31
0.0
  0
SOLID
  5
36D
100
AcDbEntity
  8
L1_120
  6
CONTINUOUS
 62
         4
100
AcDbTrace
 10
1533.3407624607
 20
-208.041010117
 30
0.0
 11
1533.8657624607
 21
-211.541010117
 31
0.0
 12
1532.8157624607
 22
-211.541010117
 32
0.0
 13
1533.3407624607
 23
-208.041010117
 33
0.0
  0
SOLID
  5
36E
100
AcDbEntity
  8
L1_120
  6
CONTINUOUS
 62
         4
100
AcDbTrace
 10
1533.3407624607
 20
-242.041010117
 30
0.0
 11
1532.8157624607
 21
-238.541010117
 31
0.0
 12
1533.8657624607
 22
-238.541010117
 32
0.0
 13
1533.3407624607
 23
-242.041010117
 33
0.0
  0
TEXT
  5
370
100
AcDbEntity
  8
L1_120
  6
CONTINUOUS
 62
         4
100
AcDbText
 10
1529.2807624607
 20
-233.0798566023
 30
0.0
 40
3.5
  1
崷34
 50
90.0
  7
BOX
100
AcDbText
  0
ENDBLK
  5
371
100
AcDbEntity
  8
0
  6
CONTINUOUS
100
AcDbBlockEnd
  0
BLOCK
  5
373
100
AcDbEntity
  8
0
100
AcDbBlockBegin
  2
*D6
 70
        65
 10
0.0
 20
0.0
 30
0.0
  3
*D6
  1

  0
POINT
  5
375
100
AcDbEntity
  8
DEFPOINTS
  6
CONTINUOUS
 62
         0
100
AcDbPoint
 10
1451.2270047567
 20
-371.1880443187
 30
0.0
  0
POINT
  5
376
100
AcDbEntity
  8
DEFPOINTS
  6
CONTINUOUS
 62
         0
100
AcDbPoint
 10
1451.2270047567
 20
-346.6689865872
 30
0.0
  0
POINT
  5
377
100
AcDbEntity
  8
DEFPOINTS
  6
CONTINUOUS
 62
         0
100
AcDbPoint
 10
1500.2270047567
 20
-350.7445960955
 30
0.0
  0
LINE
  5
378
100
AcDbEntity
  8
L1_120
  6
CONTINUOUS
 62
         4
100
AcDbLine
 10
1451.2270047567
 20
-348.4189865872
 30
0.0
 11
1451.2270047567
 21
-372.0630443187
 31
0.0
  0
LINE
  5
379
100
AcDbEntity
  8
L1_120
  6
CONTINUOUS
 62
         4
100
AcDbLine
 10
1500.2270047567
 20
-352.4945960955
 30
0.0
 11
1500.2270047567
 21
-372.0630443187
 31
0.0
  0
LINE
  5
37A
100
AcDbEntity
  8
L1_120
  6
CONTINUOUS
 62
         4
100
AcDbLine
 10
1451.2270047567
 20
-371.1880443187
 30
0.0
 11
1500.2270047567
 21
-371.1880443187
 31
0.0
  0
SOLID
  5
37B
100
AcDbEntity
  8
L1_120
  6
CONTINUOUS
 62
         4
100
AcDbTrace
 10
1451.2270047567
 20
-371.1880443187
 30
0.0
 11
1454.7270047567
 21
-370.6630443187
 31
0.0
 12
1454.7270047567
 22
-371.7130443187
 32
0.0
 13
1451.2270047567
 23
-371.1880443187
 33
0.0
  0
SOLID
  5
37C
100
AcDbEntity
  8
L1_120
  6
CONTINUOUS
 62
         4
100
AcDbTrace
 10
1500.2270047567
 20
-371.1880443187
 30
0.0
 11
1496.7270047567
 21
-371.7130443187
 31
0.0
 12
1496.7270047567
 22
-370.6630443187
 32
0.0
 13
1500.2270047567
 23
-371.1880443187
 33
0.0
  0
TEXT
  5
37E
100
AcDbEntity
  8
L1_120
  6
CONTINUOUS
 62
         4
100
AcDbText
 10
1472.124209418
 20
-367.1280443187
 30
0.0
 40
3.5
  1
49
  7
BOX
100
AcDbText
  0
ENDBLK
  5
37F
100
AcDbEntity
  8
0
  6
CONTINUOUS
100
AcDbBlockEnd
  0
BLOCK
  5
394
100
AcDbEntity
  8
0
100
AcDbBlockBegin
  2
*D7
 70
        65
 10
0.0
 20
0.0
 30
0.0
  3
*D7
  1

  0
POINT
  5
396
100
AcDbEntity
  8
DEFPOINTS
  6
CONTINUOUS
 62
         0
100
AcDbPoint
 10
1552.4804454246
 20
-320.7623042609
 30
0.0
  0
POINT
  5
397
100
AcDbEntity
  8
DEFPOINTS
  6
CONTINUOUS
 62
         0
100
AcDbPoint
 10
1552.4804454246
 20
-302.8404250801
 30
0.0
  0
POINT
  5
398
100
AcDbEntity
  8
DEFPOINTS
  6
CONTINUOUS
 62
         0
100
AcDbPoint
 10
1572.4804454246
 20
-302.5724758877
 30
0.0
  0
LINE
  5
399
100
AcDbEntity
  8
L1_120
  6
CONTINUOUS
 62
         4
100
AcDbLine
 10
1552.4804454246
 20
-304.5904250801
 30
0.0
 11
1552.4804454246
 21
-321.6373042609
 31
0.0
  0
LINE
  5
39A
100
AcDbEntity
  8
L1_120
  6
CONTINUOUS
 62
         4
100
AcDbLine
 10
1572.4804454246
 20
-304.3224758877
 30
0.0
 11
1572.4804454246
 21
-321.6373042609
 31
0.0
  0
LINE
  5
39B
100
AcDbEntity
  8
L1_120
  6
CONTINUOUS
 62
         4
100
AcDbLine
 10
1552.4804454246
 20
-320.7623042609
 30
0.0
 11
1572.4804454246
 21
-320.7623042609
 31
0.0
  0
SOLID
  5
39C
100
AcDbEntity
  8
L1_120
  6
CONTINUOUS
 62
         4
100
AcDbTrace
 10
1552.4804454246
 20
-320.7623042609
 30
0.0
 11
1555.9804454246
 21
-320.2373042609
 31
0.0
 12
1555.9804454246
 22
-321.2873042609
 32
0.0
 13
1552.4804454246
 23
-320.7623042609
 33
0.0
  0
SOLID
  5
39D
100
AcDbEntity
  8
L1_120
  6
CONTINUOUS
 62
         4
100
AcDbTrace
 10
1572.4804454246
 20
-320.7623042609
 30
0.0
 11
1568.9804454246
 21
-321.2873042609
 31
0.0
 12
1568.9804454246
 22
-320.2373042609
 32
0.0
 13
1572.4804454246
 23
-320.7623042609
 33
0.0
  0
TEXT
  5
39F
100
AcDbEntity
  8
L1_120
  6
CONTINUOUS
 62
         4
100
AcDbText
 10
1559.2830838991
 20
-318.1373042609
 30
0.0
 40
3.5
  1
20
  7
BOX
100
AcDbText
  0
ENDBLK
  5
3A0
100
AcDbEntity
  8
0
  6
CONTINUOUS
100
AcDbBlockEnd
  0
BLOCK
  5
3AD
100
AcDbEntity
  8
0
100
AcDbBlockBegin
  2
*D8
 70
        65
 10
0.0
 20
0.0
 30
0.0
  3
*D8
  1

  0
POINT
  5
3AF
100
AcDbEntity
  8
DEFPOINTS
  6
CONTINUOUS
 62
         0
100
AcDbPoint
 10
1531.3938903695
 20
-289.770008307
 30
0.0
  0
POINT
  5
3B0
100
AcDbEntity
  8
DEFPOINTS
  6
CONTINUOUS
 62
         0
100
AcDbPoint
 10
1531.3938903695
 20
-296.8404250801
 30
0.0
  0
POINT
  5
3B1
100
AcDbEntity
  8
DEFPOINTS
  6
CONTINUOUS
 62
         0
100
AcDbPoint
 10
1537.3938903695
 20
-296.8404250801
 30
0.0
  0
LINE
  5
3B2
100
AcDbEntity
  8
L1_120
  6
CONTINUOUS
 62
         4
100
AcDbLine
 10
1531.3938903695
 20
-295.0904250801
 30
0.0
 11
1531.3938903695
 21
-288.895008307
 31
0.0
  0
LINE
  5
3B3
100
AcDbEntity
  8
L1_120
  6
CONTINUOUS
 62
         4
100
AcDbLine
 10
1537.3938903695
 20
-295.0904250801
 30
0.0
 11
1537.3938903695
 21
-288.895008307
 31
0.0
  0
LINE
  5
3B4
100
AcDbEntity
  8
L1_120
  6
CONTINUOUS
 62
         4
100
AcDbLine
 10
1531.3938903695
 20
-289.770008307
 30
0.0
 11
1524.3938903695
 21
-289.770008307
 31
0.0
  0
SOLID
  5
3B5
100
AcDbEntity
  8
L1_120
  6
CONTINUOUS
 62
         4
100
AcDbTrace
 10
1531.3938903695
 20
-289.770008307
 30
0.0
 11
1527.8938903695
 21
-290.295008307
 31
0.0
 12
1527.8938903695
 22
-289.245008307
 32
0.0
 13
1531.3938903695
 23
-289.770008307
 33
0.0
  0
LINE
  5
3B6
100
AcDbEntity
  8
L1_120
  6
CONTINUOUS
 62
         4
100
AcDbLine
 10
1537.3938903695
 20
-289.770008307
 30
0.0
 11
1545.7178943712
 21
-289.770008307
 31
0.0
  0
SOLID
  5
3B7
100
AcDbEntity
  8
L1_120
  6
CONTINUOUS
 62
         4
100
AcDbTrace
 10
1537.3938903695
 20
-289.770008307
 30
0.0
 11
1540.8938903695
 21
-289.245008307
 31
0.0
 12
1540.8938903695
 22
-290.295008307
 32
0.0
 13
1537.3938903695
 23
-289.770008307
 33
0.0
  0
LINE
  5
3B8
100
AcDbEntity
  8
L1_120
  6
CONTINUOUS
 62
         4
100
AcDbLine
 10
1531.3938903695
 20
-289.770008307
 30
0.0
 11
1537.3938903695
 21
-289.770008307
 31
0.0
  0
TEXT
  5
3BA
100
AcDbEntity
  8
L1_120
  6
CONTINUOUS
 62
         4
100
AcDbText
 10
1533.4678943712
 20
-287.145008307
 30
0.0
 40
3.5
  1
崷6
  7
BOX
100
AcDbText
  0
ENDBLK
  5
3BB
100
AcDbEntity
  8
0
  6
CONTINUOUS
100
AcDbBlockEnd
  0
BLOCK
  5
3BF
100
AcDbEntity
  8
0
100
AcDbBlockBegin
  2
*D9
 70
        65
 10
0.0
 20
0.0
 30
0.0
  3
*D9
  1

  0
POINT
  5
3C1
100
AcDbEntity
  8
DEFPOINTS
  6
CONTINUOUS
 62
         0
100
AcDbPoint
 10
1594.5874623937
 20
-292.5724758877
 30
0.0
  0
POINT
  5
3C2
100
AcDbEntity
  8
DEFPOINTS
  6
CONTINUOUS
 62
         0
100
AcDbPoint
 10
1570.4804454246
 20
-292.5724758877
 30
0.0
  0
POINT
  5
3C3
100
AcDbEntity
  8
DEFPOINTS
  6
CONTINUOUS
 62
         0
100
AcDbPoint
 10
1570.4804454246
 20
-304.5724758877
 30
0.0
  0
LINE
  5
3C4
100
AcDbEntity
  8
L1_120
  6
CONTINUOUS
 62
         4
100
AcDbLine
 10
1572.2304454246
 20
-292.5724758877
 30
0.0
 11
1595.4624623937
 21
-292.5724758877
 31
0.0
  0
LINE
  5
3C5
100
AcDbEntity
  8
L1_120
  6
CONTINUOUS
 62
         4
100
AcDbLine
 10
1572.2304454246
 20
-304.5724758877
 30
0.0
 11
1595.4624623937
 21
-304.5724758877
 31
0.0
  0
LINE
  5
3C6
100
AcDbEntity
  8
L1_120
  6
CONTINUOUS
 62
         4
100
AcDbLine
 10
1594.5874623937
 20
-292.5724758877
 30
0.0
 11
1594.5874623937
 21
-304.5724758877
 31
0.0
  0
SOLID
  5
3C7
100
AcDbEntity
  8
L1_120
  6
CONTINUOUS
 62
         4
100
AcDbTrace
 10
1594.5874623937
 20
-292.5724758877
 30
0.0
 11
1595.1124623937
 21
-296.0724758877
 31
0.0
 12
1594.0624623937
 22
-296.0724758877
 32
0.0
 13
1594.5874623937
 23
-292.5724758877
 33
0.0
  0
LINE
  5
3C8
100
AcDbEntity
  8
L1_120
  6
CONTINUOUS
 62
         4
100
AcDbLine
 10
1594.5874623937
 20
-304.5724758877
 30
0.0
 11
1594.5874623937
 21
-340.2406631772
 31
0.0
  0
SOLID
  5
3C9
100
AcDbEntity
  8
L1_120
  6
CONTINUOUS
 62
         4
100
AcDbTrace
 10
1594.5874623937
 20
-304.5724758877
 30
0.0
 11
1594.0624623937
 21
-301.0724758877
 31
0.0
 12
1595.1124623937
 22
-301.0724758877
 32
0.0
 13
1594.5874623937
 23
-304.5724758877
 33
0.0
  0
TEXT
  5
3CB
100
AcDbEntity
  8
L1_120
  6
CONTINUOUS
 62
         4
100
AcDbText
 10
1591.9624623937
 20
-338.4906631772
 30
0.0
 40
3.5
  1
M12xP1.0
 50
90.0
  7
BOX
100
AcDbText
  0
ENDBLK
  5
3CC
100
AcDbEntity
  8
0
  6
CONTINUOUS
100
AcDbBlockEnd
  0
ENDSEC
  0
SECTION
  2
ENTITIES
  0
LINE
  5
25
100
AcDbEntity
  8
L1_120
  6
DASHED
 62
         2
100
AcDbLine
 10
1586.2791869254
 20
-186.7194237687
 30
0.0
 11
1595.8593281781
 21
-213.0406455357
 31
0.0
  0
DIMENSION
  5
29
100
AcDbEntity
  8
L1_120
  6
CONTINUOUS
 62
         4
100
AcDbDimension
  2
*D0
 10
1419.9265047567
 20
-155.6103260581
 30
0.0
 11
1459.2744914959
 21
-152.9853260581
 31
0.0
  3
DIMSTYLE1
100
AcDbAlignedDimension
 13
1419.9265047567
 23
-185.3156455357
 33
0.0
 14
1499.9270047567
 24
-215.4654006087
 34
0.0
100
AcDbRotatedDimension
  0
DIMENSION
  5
38
100
AcDbEntity
  8
L1_120
  6
CONTINUOUS
 62
         4
100
AcDbDimension
  2
*D1
 10
1318.3275047567
 20
-139.5232915917
 30
0.0
 11
1401.8635009533
 21
-136.8982915917
 31
0.0
  3
DIMSTYLE1
100
AcDbAlignedDimension
 13
1318.3275047567
 23
-207.0943097716
 33
0.0
 14
1499.9270047567
 24
-215.4654006087
 34
0.0
100
AcDbRotatedDimension
  0
LINE
  5
44
100
AcDbEntity
  8
L1_120
  6
CENTER
 62
         1
100
AcDbLine
 10
1237.7864309139
 20
-179.2455022008
 30
0.0
 11
1201.6553190697
 21
-278.2404263056
 31
0.0
  0
LINE
  5
45
100
AcDbEntity
  8
L1_120
  6
CONTINUOUS
 62
         5
100
AcDbLine
 10
1362.9775047567
 20
-326.1686220057
 30
0.0
 11
1369.3775047567
 21
-327.7722805423
 31
0.0
  0
LINE
  5
46
100
AcDbEntity
  8
L1_120
  6
CONTINUOUS
 62
         5
100
AcDbLine
 10
1362.9775047567
 20
-350.1686220057
 30
0.0
 11
1369.3775047567
 21
-348.5649634691
 31
0.0
  0
LINE
  5
47
100
AcDbEntity
  8
L1_120
  6
CONTINUOUS
 62
         7
100
AcDbLine
 10
1326.7468487183
 20
-348.5649634691
 30
0.0
 11
1326.7468487183
 21
-327.7722805423
 31
0.0
  0
LINE
  5
48
100
AcDbEntity
  8
L1_120
  6
CONTINUOUS
 62
         7
100
AcDbLine
 10
1324.5603474692
 20
-350.7514647182
 30
0.0
 11
1326.7468487183
 21
-348.5649634691
 31
0.0
  0
ARC
  5
49
100
AcDbEntity
  8
L1_120
  6
CONTINUOUS
 62
         7
100
AcDbCircle
 10
1324.2775047567
 20
-350.4686220057
 30
0.0
 40
0.4
100
AcDbArc
 50
270.0
 51
315.0
  0
ARC
  5
4A
100
AcDbEntity
  8
L1_120
  6
CONTINUOUS
 62
         7
100
AcDbCircle
 10
1319.8275047567
 20
-352.1686220057
 30
0.0
 40
1.5
100
AcDbArc
 50
90.0
 51
154.1580672375
  0
LINE
  5
4B
100
AcDbEntity
  8
L1_120
  6
CONTINUOUS
 62
         7
100
AcDbLine
 10
1323.4239149182
 20
-350.8686220057
 30
0.0
 11
1322.6775047567
 21
-350.6686220057
 31
0.0
  0
LINE
  5
4C
100
AcDbEntity
  8
L1_120
  6
CONTINUOUS
 62
         7
100
AcDbLine
 10
1323.4239149182
 20
-350.8686220057
 30
0.0
 11
1324.2775047567
 21
-350.8686220057
 31
0.0
  0
LINE
  5
4D
100
AcDbEntity
  8
L1_120
  6
CONTINUOUS
 62
         7
100
AcDbLine
 10
1319.8275047567
 20
-350.6686220057
 30
0.0
 11
1322.6775047567
 21
-350.6686220057
 31
0.0
  0
LINE
  5
4E
100
AcDbEntity
  8
L1_120
  6
CONTINUOUS
 62
         7
100
AcDbLine
 10
1324.5603474692
 20
-325.5857792932
 30
0.0
 11
1326.7468487183
 21
-327.7722805423
 31
0.0
  0
ARC
  5
4F
100
AcDbEntity
  8
L1_120
  6
CONTINUOUS
 62
         7
100
AcDbCircle
 10
1319.8275047567
 20
-324.1686220057
 30
0.0
 40
1.5
100
AcDbArc
 50
205.8419327625
 51
270.0
  0
LINE
  5
50
100
AcDbEntity
  8
L1_120
  6
CONTINUOUS
 62
         7
100
AcDbLine
 10
1323.4239149182
 20
-325.4686220057
 30
0.0
 11
1322.6775047567
 21
-325.6686220057
 31
0.0
  0
ARC
  5
51
100
AcDbEntity
  8
L1_120
  6
CONTINUOUS
 62
         7
100
AcDbCircle
 10
1324.2775047567
 20
-325.8686220057
 30
0.0
 40
0.4
100
AcDbArc
 50
45.0
 51
90.0
  0
LINE
  5
52
100
AcDbEntity
  8
L1_120
  6
CONTINUOUS
 62
         7
100
AcDbLine
 10
1322.6775047567
 20
-350.6686220057
 30
0.0
 11
1322.6775047567
 21
-325.6686220057
 31
0.0
  0
LINE
  5
53
100
AcDbEntity
  8
L1_120
  6
CONTINUOUS
 62
         7
100
AcDbLine
 10
1323.4239149182
 20
-325.4686220057
 30
0.0
 11
1324.2775047567
 21
-325.4686220057
 31
0.0
  0
LINE
  5
54
100
AcDbEntity
  8
L1_120
  6
CONTINUOUS
 62
         7
100
AcDbLine
 10
1324.6775047567
 20
-350.6343074307
 30
0.0
 11
1324.6775047567
 21
-325.7029365808
 31
0.0
  0
LINE
  5
55
100
AcDbEntity
  8
L1_120
  6
CONTINUOUS
 62
         5
100
AcDbLine
 10
1325.1431901817
 20
-326.1686220057
 30
0.0
 11
1362.9775047567
 21
-326.1686220057
 31
0.0
  0
LINE
  5
56
100
AcDbEntity
  8
L1_120
  6
CONTINUOUS
 62
         7
100
AcDbLine
 10
1421.2775047567
 20
-303.0686203581
 30
0.0
 11
1320.4667341981
 21
-317.77032948
 31
0.0
  0
LINE
  5
57
100
AcDbEntity
  8
L1_120
  6
CONTINUOUS
 62
         5
100
AcDbLine
 10
1325.1431901817
 20
-350.1686220057
 30
0.0
 11
1362.9775047567
 21
-350.1686220057
 31
0.0
  0
LINE
  5
58
100
AcDbEntity
  8
L1_120
  6
CONTINUOUS
 62
         7
100
AcDbLine
 10
1421.2775047567
 20
-373.2686236533
 30
0.0
 11
1320.4667341981
 21
-358.5669145314
 31
0.0
  0
LINE
  5
59
100
AcDbEntity
  8
L1_120
  6
CONTINUOUS
 62
         7
100
AcDbLine
 10
1319.8275047567
 20
-325.6686220057
 30
0.0
 11
1322.6775047567
 21
-325.6686220057
 31
0.0
  0
LINE
  5
5A
100
AcDbEntity
  8
L1_120
  6
CONTINUOUS
 62
         7
100
AcDbLine
 10
1362.9775047567
 20
-326.1686220057
 30
0.0
 11
1362.9775047567
 21
-350.1686220057
 31
0.0
  0
ARC
  5
5B
100
AcDbEntity
  8
L1_120
  6
CONTINUOUS
 62
         7
100
AcDbCircle
 10
1320.9775047567
 20
-320.2222862417
 30
0.0
 40
2.5
100
AcDbArc
 50
98.297222
 51
180.0
  0
LINE
  5
5C
100
AcDbEntity
  8
L1_120
  6
CONTINUOUS
 62
         7
100
AcDbLine
 10
1318.4775047567
 20
-320.2222862417
 30
0.0
 11
1318.4775047567
 21
-356.1149577697
 31
0.0
  0
ARC
  5
5D
100
AcDbEntity
  8
L1_120
  6
CONTINUOUS
 62
         7
100
AcDbCircle
 10
1320.9775047567
 20
-356.1149577697
 30
0.0
 40
2.5
100
AcDbArc
 50
180.0
 51
261.702778
  0
LINE
  5
5E
100
AcDbEntity
  8
L1_120
  6
CENTER
 62
         1
100
AcDbLine
 10
1211.7134654464
 20
-265.2656360314
 30
0.0
 11
1202.3165392385
 21
-261.8454345981
 31
0.0
  0
POLYLINE
  5
60
100
AcDbEntity
  8
L1_120
  6
CONTINUOUS
 62
         7
100
AcDb2dPolyline
 66
         1
 10
0.0
 20
0.0
 30
0.0
 70
         2
  0
VERTEX
  5
62
100
AcDbEntity
  8
L1_120
  6
CONTINUOUS
 62
         7
100
AcDbVertex
100
AcDb2dVertex
 10
1208.2120728441
 20
-260.266611142
 30
0.0
 70
         1
  0
VERTEX
  5
64
100
AcDbEntity
  8
L1_120
  6
CONTINUOUS
 62
         7
100
AcDbVertex
100
AcDb2dVertex
 10
1207.8320717794
 20
-260.173639797
 30
0.0
 70
         1
  0
VERTEX
  5
66
100
AcDbEntity
  8
L1_120
  6
CONTINUOUS
 62
         7
100
AcDbVertex
100
AcDb2dVertex
 10
1207.655003112
 20
-260.1586382992
 30
0.0
 70
         1
  0
VERTEX
  5
68
100
AcDbEntity
  8
L1_120
  6
CONTINUOUS
 62
         7
100
AcDbVertex
100
AcDb2dVertex
 10
1207.4703758419
 20
-260.1604714386
 30
0.0
 70
         1
  0
VERTEX
  5
6A
100
AcDbEntity
  8
L1_120
  6
CONTINUOUS
 62
         7
100
AcDbVertex
100
AcDb2dVertex
 10
1207.2793689923
 20
-260.1803084897
 30
0.0
 70
         1
  0
VERTEX
  5
6C
100
AcDbEntity
  8
L1_120
  6
CONTINUOUS
 62
         7
100
AcDbVertex
100
AcDb2dVertex
 10
1207.0833842646
 20
-260.219064761
 30
0.0
 70
         1
  0
VERTEX
  5
6E
100
AcDbEntity
  8
L1_120
  6
CONTINUOUS
 62
         7
100
AcDbVertex
100
AcDb2dVertex
 10
1206.8840216325
 20
-260.2773466202
 30
0.0
 70
         1
  0
VERTEX
  5
70
100
AcDbEntity
  8
L1_120
  6
CONTINUOUS
 62
         7
100
AcDbVertex
100
AcDb2dVertex
 10
1206.6830424001
 20
-260.3554059808
 30
0.0
 70
         1
  0
VERTEX
  5
72
100
AcDbEntity
  8
L1_120
  6
CONTINUOUS
 62
         7
100
AcDbVertex
100
AcDb2dVertex
 10
1206.4823208734
 20
-260.4531085431
 30
0.0
 70
         1
  0
VERTEX
  5
74
100
AcDbEntity
  8
L1_120
  6
CONTINUOUS
 62
         7
100
AcDbVertex
100
AcDb2dVertex
 10
1206.2837870034
 20
-260.5699192997
 30
0.0
 70
         1
  0
VERTEX
  5
76
100
AcDbEntity
  8
L1_120
  6
CONTINUOUS
 62
         7
100
AcDbVertex
100
AcDb2dVertex
 10
1206.0893634238
 20
-260.7049075132
 30
0.0
 70
         1
  0
VERTEX
  5
78
100
AcDbEntity
  8
L1_120
  6
CONTINUOUS
 62
         7
100
AcDbVertex
100
AcDb2dVertex
 10
1205.9009010531
 20
-260.8567716961
 30
0.0
 70
         1
  0
VERTEX
  5
7A
100
AcDbEntity
  8
L1_120
  6
CONTINUOUS
 62
         7
100
AcDbVertex
100
AcDb2dVertex
 10
1205.6605722527
 20
-261.0839542467
 30
0.0
 70
         1
  0
VERTEX
  5
7C
100
AcDbEntity
  8
L1_120
  6
CONTINUOUS
 62
         7
100
AcDbVertex
100
AcDb2dVertex
 10
1205.437612173
 20
-261.3338629228
 30
0.0
 70
         1
  0
VERTEX
  5
7E
100
AcDbEntity
  8
L1_120
  6
CONTINUOUS
 62
         7
100
AcDbVertex
100
AcDb2dVertex
 10
1205.2348338188
 20
-261.6013000349
 30
0.0
 70
         1
  0
VERTEX
  5
80
100
AcDbEntity
  8
L1_120
  6
CONTINUOUS
 62
         7
100
AcDbVertex
100
AcDb2dVertex
 10
1205.0541742516
 20
-261.88084697
 30
0.0
 70
         1
  0
VERTEX
  5
82
100
AcDbEntity
  8
L1_120
  6
CONTINUOUS
 62
         7
100
AcDbVertex
100
AcDb2dVertex
 10
1204.8966769773
 20
-262.1671794799
 30
0.0
 70
         1
  0
VERTEX
  5
84
100
AcDbEntity
  8
L1_120
  6
CONTINUOUS
 62
         7
100
AcDbVertex
100
AcDb2dVertex
 10
1204.7625466823
 20
-262.4553343145
 30
0.0
 70
         1
  0
VERTEX
  5
86
100
AcDbEntity
  8
L1_120
  6
CONTINUOUS
 62
         7
100
AcDbVertex
100
AcDb2dVertex
 10
1204.6181476196
 20
-262.8376169904
 30
0.0
 70
         1
  0
VERTEX
  5
88
100
AcDbEntity
  8
L1_120
  6
CONTINUOUS
 62
         7
100
AcDbVertex
100
AcDb2dVertex
 10
1204.512024794
 20
-263.2066116008
 30
0.0
 70
         1
  0
VERTEX
  5
8A
100
AcDbEntity
  8
L1_120
  6
CONTINUOUS
 62
         7
100
AcDbVertex
100
AcDb2dVertex
 10
1204.4400776727
 20
-263.5559746412
 30
0.0
 70
         1
  0
VERTEX
  5
8C
100
AcDbEntity
  8
L1_120
  6
CONTINUOUS
 62
         7
100
AcDbVertex
100
AcDb2dVertex
 10
1204.3975831289
 20
-263.8816016792
 30
0.0
 70
         1
  0
VERTEX
  5
8E
100
AcDbEntity
  8
L1_120
  6
CONTINUOUS
 62
         7
100
AcDbVertex
100
AcDb2dVertex
 10
1204.379689006
 20
-264.1813054727
 30
0.0
 70
         1
  0
VERTEX
  5
90
100
AcDbEntity
  8
L1_120
  6
CONTINUOUS
 62
         7
100
AcDbVertex
100
AcDb2dVertex
 10
1204.3817618477
 20
-264.4544130864
 30
0.0
 70
         1
  0
VERTEX
  5
92
100
AcDbEntity
  8
L1_120
  6
CONTINUOUS
 62
         7
100
AcDbVertex
100
AcDb2dVertex
 10
1204.4087751198
 20
-264.7810609381
 30
0.0
 70
         1
  0
VERTEX
  5
94
100
AcDbEntity
  8
L1_120
  6
CONTINUOUS
 62
         7
100
AcDbVertex
100
AcDb2dVertex
 10
1204.4557251316
 20
-265.0634453862
 30
0.0
 70
         1
  0
VERTEX
  5
96
100
AcDbEntity
  8
L1_120
  6
CONTINUOUS
 62
         7
100
AcDbVertex
100
AcDb2dVertex
 10
1204.5157076848
 20
-265.3059239068
 30
0.0
 70
         1
  0
VERTEX
  5
98
100
AcDbEntity
  8
L1_120
  6
CONTINUOUS
 62
         7
100
AcDbVertex
100
AcDb2dVertex
 10
1204.6083761028
 20
-265.5787264891
 30
0.0
 70
         1
  0
VERTEX
  5
9A
100
AcDbEntity
  8
L1_120
  6
CONTINUOUS
 62
         7
100
AcDbVertex
100
AcDb2dVertex
 10
1204.7063307758
 20
-265.7988788324
 30
0.0
 70
         1
  0
VERTEX
  5
9C
100
AcDbEntity
  8
L1_120
  6
CONTINUOUS
 62
         7
100
AcDbVertex
100
AcDb2dVertex
 10
1204.8038523996
 20
-265.9765665574
 30
0.0
 70
         1
  0
VERTEX
  5
9E
100
AcDbEntity
  8
L1_120
  6
CONTINUOUS
 62
         7
100
AcDbVertex
100
AcDb2dVertex
 10
1204.929791495
 20
-266.1649350149
 30
0.0
 70
         1
  0
VERTEX
  5
A0
100
AcDbEntity
  8
L1_120
  6
CONTINUOUS
 62
         7
100
AcDbVertex
100
AcDb2dVertex
 10
1205.0837299316
 20
-266.3505419547
 30
0.0
 70
         1
  0
VERTEX
  5
A2
100
AcDbEntity
  8
L1_120
  6
CONTINUOUS
 62
         7
100
AcDbVertex
100
AcDb2dVertex
 10
1205.2143547741
 20
-266.4792012644
 30
0.0
 70
         1
  0
VERTEX
  5
A4
100
AcDbEntity
  8
L1_120
  6
CONTINUOUS
 62
         7
100
AcDbVertex
100
AcDb2dVertex
 10
1205.3593812726
 20
-266.5975689134
 30
0.0
 70
         1
  0
VERTEX
  5
A6
100
AcDbEntity
  8
L1_120
  6
CONTINUOUS
 62
         7
100
AcDbVertex
100
AcDb2dVertex
 10
1205.5068411973
 20
-266.695986599
 30
0.0
 70
         1
  0
VERTEX
  5
A8
100
AcDbEntity
  8
L1_120
  6
CONTINUOUS
 62
         7
100
AcDbVertex
100
AcDb2dVertex
 10
1205.6836268891
 20
-266.7893002485
 30
0.0
 70
         1
  0
VERTEX
  5
AA
100
AcDbEntity
  8
L1_120
  6
CONTINUOUS
 62
         7
100
AcDbVertex
100
AcDb2dVertex
 10
1205.8179318408
 20
-266.8444594875
 30
0.0
 70
         1
  0
VERTEX
  5
AC
100
AcDbEntity
  8
L1_120
  6
CONTINUOUS
 62
         7
100
AcDbVertex
100
AcDb2dVertex
 10
1205.8179318408
 20
-266.8444594875
 30
0.0
 70
         1
  0
VERTEX
  5
AE
100
AcDbEntity
  8
L1_120
  6
CONTINUOUS
 62
         7
100
AcDbVertex
100
AcDb2dVertex
 10
1206.1979329055
 20
-266.9374308324
 30
0.0
 70
         1
  0
VERTEX
  5
B0
100
AcDbEntity
  8
L1_120
  6
CONTINUOUS
 62
         7
100
AcDbVertex
100
AcDb2dVertex
 10
1206.3750015728
 20
-266.9524323303
 30
0.0
 70
         1
  0
VERTEX
  5
B2
100
AcDbEntity
  8
L1_120
  6
CONTINUOUS
 62
         7
100
AcDbVertex
100
AcDb2dVertex
 10
1206.559628843
 20
-266.9505991908
 30
0.0
 70
         1
  0
VERTEX
  5
B4
100
AcDbEntity
  8
L1_120
  6
CONTINUOUS
 62
         7
100
AcDbVertex
100
AcDb2dVertex
 10
1206.7506356926
 20
-266.9307621397
 30
0.0
 70
         1
  0
VERTEX
  5
B6
100
AcDbEntity
  8
L1_120
  6
CONTINUOUS
 62
         7
100
AcDbVertex
100
AcDb2dVertex
 10
1206.9466204203
 20
-266.8920058684
 30
0.0
 70
         1
  0
VERTEX
  5
B8
100
AcDbEntity
  8
L1_120
  6
CONTINUOUS
 62
         7
100
AcDbVertex
100
AcDb2dVertex
 10
1207.1459830524
 20
-266.8337240092
 30
0.0
 70
         1
  0
VERTEX
  5
BA
100
AcDbEntity
  8
L1_120
  6
CONTINUOUS
 62
         7
100
AcDbVertex
100
AcDb2dVertex
 10
1207.3469622848
 20
-266.7556646487
 30
0.0
 70
         1
  0
VERTEX
  5
BC
100
AcDbEntity
  8
L1_120
  6
CONTINUOUS
 62
         7
100
AcDbVertex
100
AcDb2dVertex
 10
1207.5476838115
 20
-266.6579620864
 30
0.0
 70
         1
  0
VERTEX
  5
BE
100
AcDbEntity
  8
L1_120
  6
CONTINUOUS
 62
         7
100
AcDbVertex
100
AcDb2dVertex
 10
1207.7462176815
 20
-266.5411513297
 30
0.0
 70
         1
  0
VERTEX
  5
C0
100
AcDbEntity
  8
L1_120
  6
CONTINUOUS
 62
         7
100
AcDbVertex
100
AcDb2dVertex
 10
1207.940641261
 20
-266.4061631163
 30
0.0
 70
         1
  0
VERTEX
  5
C2
100
AcDbEntity
  8
L1_120
  6
CONTINUOUS
 62
         7
100
AcDbVertex
100
AcDb2dVertex
 10
1208.1291036318
 20
-266.2542989334
 30
0.0
 70
         1
  0
VERTEX
  5
C4
100
AcDbEntity
  8
L1_120
  6
CONTINUOUS
 62
         7
100
AcDbVertex
100
AcDb2dVertex
 10
1208.3694324321
 20
-266.0271163828
 30
0.0
 70
         1
  0
VERTEX
  5
C6
100
AcDbEntity
  8
L1_120
  6
CONTINUOUS
 62
         7
100
AcDbVertex
100
AcDb2dVertex
 10
1208.5923925119
 20
-265.7772077066
 30
0.0
 70
         1
  0
VERTEX
  5
C8
100
AcDbEntity
  8
L1_120
  6
CONTINUOUS
 62
         7
100
AcDbVertex
100
AcDb2dVertex
 10
1208.7951708661
 20
-265.5097705945
 30
0.0
 70
         1
  0
VERTEX
  5
CA
100
AcDbEntity
  8
L1_120
  6
CONTINUOUS
 62
         7
100
AcDbVertex
100
AcDb2dVertex
 10
1208.9758304333
 20
-265.2302236594
 30
0.0
 70
         1
  0
VERTEX
  5
CC
100
AcDbEntity
  8
L1_120
  6
CONTINUOUS
 62
         7
100
AcDbVertex
100
AcDb2dVertex
 10
1209.1333277075
 20
-264.9438911496
 30
0.0
 70
         1
  0
VERTEX
  5
CE
100
AcDbEntity
  8
L1_120
  6
CONTINUOUS
 62
         7
100
AcDbVertex
100
AcDb2dVertex
 10
1209.2674580026
 20
-264.655736315
 30
0.0
 70
         1
  0
VERTEX
  5
D0
100
AcDbEntity
  8
L1_120
  6
CONTINUOUS
 62
         7
100
AcDbVertex
100
AcDb2dVertex
 10
1209.4118570652
 20
-264.2734536391
 30
0.0
 70
         1
  0
VERTEX
  5
D2
100
AcDbEntity
  8
L1_120
  6
CONTINUOUS
 62
         7
100
AcDbVertex
100
AcDb2dVertex
 10
1209.5179798908
 20
-263.9044590287
 30
0.0
 70
         1
  0
VERTEX
  5
D4
100
AcDbEntity
  8
L1_120
  6
CONTINUOUS
 62
         7
100
AcDbVertex
100
AcDb2dVertex
 10
1209.5899270121
 20
-263.5550959882
 30
0.0
 70
         1
  0
VERTEX
  5
D6
100
AcDbEntity
  8
L1_120
  6
CONTINUOUS
 62
         7
100
AcDbVertex
100
AcDb2dVertex
 10
1209.6324215559
 20
-263.2294689502
 30
0.0
 70
         1
  0
VERTEX
  5
D8
100
AcDbEntity
  8
L1_120
  6
CONTINUOUS
 62
         7
100
AcDbVertex
100
AcDb2dVertex
 10
1209.6503156789
 20
-262.9297651568
 30
0.0
 70
         1
  0
VERTEX
  5
DA
100
AcDbEntity
  8
L1_120
  6
CONTINUOUS
 62
         7
100
AcDbVertex
100
AcDb2dVertex
 10
1209.6482428372
 20
-262.6566575431
 30
0.0
 70
         1
  0
VERTEX
  5
DC
100
AcDbEntity
  8
L1_120
  6
CONTINUOUS
 62
         7
100
AcDbVertex
100
AcDb2dVertex
 10
1209.6212295651
 20
-262.3300096913
 30
0.0
 70
         1
  0
VERTEX
  5
DE
100
AcDbEntity
  8
L1_120
  6
CONTINUOUS
 62
         7
100
AcDbVertex
100
AcDb2dVertex
 10
1209.5742795532
 20
-262.0476252432
 30
0.0
 70
         1
  0
VERTEX
  5
E0
100
AcDbEntity
  8
L1_120
  6
CONTINUOUS
 62
         7
100
AcDbVertex
100
AcDb2dVertex
 10
1209.514297
 20
-261.8051467227
 30
0.0
 70
         1
  0
VERTEX
  5
E2
100
AcDbEntity
  8
L1_120
  6
CONTINUOUS
 62
         7
100
AcDbVertex
100
AcDb2dVertex
 10
1209.4216285821
 20
-261.5323441403
 30
0.0
 70
         1
  0
VERTEX
  5
E4
100
AcDbEntity
  8
L1_120
  6
CONTINUOUS
 62
         7
100
AcDbVertex
100
AcDb2dVertex
 10
1209.3236739091
 20
-261.3121917971
 30
0.0
 70
         1
  0
VERTEX
  5
E6
100
AcDbEntity
  8
L1_120
  6
CONTINUOUS
 62
         7
100
AcDbVertex
100
AcDb2dVertex
 10
1209.2261522853
 20
-261.1345040721
 30
0.0
 70
         1
  0
VERTEX
  5
E8
100
AcDbEntity
  8
L1_120
  6
CONTINUOUS
 62
         7
100
AcDbVertex
100
AcDb2dVertex
 10
1209.1002131899
 20
-260.9461356146
 30
0.0
 70
         1
  0
VERTEX
  5
EA
100
AcDbEntity
  8
L1_120
  6
CONTINUOUS
 62
         7
100
AcDbVertex
100
AcDb2dVertex
 10
1208.9462747533
 20
-260.7605286747
 30
0.0
 70
         1
  0
VERTEX
  5
EC
100
AcDbEntity
  8
L1_120
  6
CONTINUOUS
 62
         7
100
AcDbVertex
100
AcDb2dVertex
 10
1208.8156499108
 20
-260.631869365
 30
0.0
 70
         1
  0
VERTEX
  5
EE
100
AcDbEntity
  8
L1_120
  6
CONTINUOUS
 62
         7
100
AcDbVertex
100
AcDb2dVertex
 10
1208.6706234123
 20
-260.513501716
 30
0.0
 70
         1
  0
VERTEX
  5
F0
100
AcDbEntity
  8
L1_120
  6
CONTINUOUS
 62
         7
100
AcDbVertex
100
AcDb2dVertex
 10
1208.5231634876
 20
-260.4150840304
 30
0.0
 70
         1
  0
VERTEX
  5
F2
100
AcDbEntity
  8
L1_120
  6
CONTINUOUS
 62
         7
100
AcDbVertex
100
AcDb2dVertex
 10
1208.3463777958
 20
-260.3217703809
 30
0.0
 70
         1
  0
VERTEX
  5
F4
100
AcDbEntity
  8
L1_120
  6
CONTINUOUS
 62
         7
100
AcDbVertex
100
AcDb2dVertex
 10
1208.2120728441
 20
-260.266611142
 30
0.0
 70
         1
  0
SEQEND
  5
F6
100
AcDbEntity
  8
L1_120
  6
CONTINUOUS
 62
         7
  0
POLYLINE
  5
F8
100
AcDbEntity
  8
L1_120
  6
CONTINUOUS
 62
         7
100
AcDb3dPolyline
 66
         1
 10
0.0
 20
0.0
 30
0.0
 70
         8
  0
VERTEX
  5
FA
100
AcDbEntity
  8
L1_120
  6
CONTINUOUS
 62
         7
100
AcDbVertex
100
AcDb3dPolylineVertex
 10
1234.3375717432
 20
-183.9801326266
 30
0.0
 70
        32
  0
VERTEX
  5
FC
100
AcDbEntity
  8
L1_120
  6
CONTINUOUS
 62
         7
100
AcDbVertex
100
AcDb3dPolylineVertex
 10
1234.3375717432
 20
-183.9801326266
 30
0.0
 70
        32
  0
SEQEND
  5
FE
100
AcDbEntity
  8
L1_120
  6
CONTINUOUS
 62
         7
  0
LINE
  5
FF
100
AcDbEntity
  8
L1_120
  6
CENTER
 62
         1
100
AcDbLine
 10
1239.8277511607
 20
-188.2358564732
 30
0.0
 11
1230.4308249528
 21
-184.81565504
 31
0.0
  0
POLYLINE
  5
101
100
AcDbEntity
  8
L1_120
  6
CONTINUOUS
 62
         7
100
AcDb2dPolyline
 66
         1
 10
0.0
 20
0.0
 30
0.0
 70
         2
  0
VERTEX
  5
103
100
AcDbEntity
  8
L1_120
  6
CONTINUOUS
 62
         7
100
AcDbVertex
100
AcDb2dVertex
 10
1236.3263585584
 20
-183.2368315838
 30
0.0
 70
         1
  0
VERTEX
  5
105
100
AcDbEntity
  8
L1_120
  6
CONTINUOUS
 62
         7
100
AcDbVertex
100
AcDb2dVertex
 10
1235.9463574937
 20
-183.1438602389
 30
0.0
 70
         1
  0
VERTEX
  5
107
100
AcDbEntity
  8
L1_120
  6
CONTINUOUS
 62
         7
100
AcDbVertex
100
AcDb2dVertex
 10
1235.7692888263
 20
-183.128858741
 30
0.0
 70
         1
  0
VERTEX
  5
109
100
AcDbEntity
  8
L1_120
  6
CONTINUOUS
 62
         7
100
AcDbVertex
100
AcDb2dVertex
 10
1235.5846615562
 20
-183.1306918805
 30
0.0
 70
         1
  0
VERTEX
  5
10B
100
AcDbEntity
  8
L1_120
  6
CONTINUOUS
 62
         7
100
AcDbVertex
100
AcDb2dVertex
 10
1235.3936547066
 20
-183.1505289316
 30
0.0
 70
         1
  0
VERTEX
  5
10D
100
AcDbEntity
  8
L1_120
  6
CONTINUOUS
 62
         7
100
AcDbVertex
100
AcDb2dVertex
 10
1235.1976699789
 20
-183.1892852029
 30
0.0
 70
         1
  0
VERTEX
  5
10F
100
AcDbEntity
  8
L1_120
  6
CONTINUOUS
 62
         7
100
AcDbVertex
100
AcDb2dVertex
 10
1234.9983073468
 20
-183.2475670621
 30
0.0
 70
         1
  0
VERTEX
  5
111
100
AcDbEntity
  8
L1_120
  6
CONTINUOUS
 62
         7
100
AcDbVertex
100
AcDb2dVertex
 10
1234.7973281144
 20
-183.3256264226
 30
0.0
 70
         1
  0
VERTEX
  5
113
100
AcDbEntity
  8
L1_120
  6
CONTINUOUS
 62
         7
100
AcDbVertex
100
AcDb2dVertex
 10
1234.5966065876
 20
-183.423328985
 30
0.0
 70
         1
  0
VERTEX
  5
115
100
AcDbEntity
  8
L1_120
  6
CONTINUOUS
 62
         7
100
AcDbVertex
100
AcDb2dVertex
 10
1234.3980727177
 20
-183.5401397416
 30
0.0
 70
         1
  0
VERTEX
  5
117
100
AcDbEntity
  8
L1_120
  6
CONTINUOUS
 62
         7
100
AcDbVertex
100
AcDb2dVertex
 10
1234.2036491381
 20
-183.675127955
 30
0.0
 70
         1
  0
VERTEX
  5
119
100
AcDbEntity
  8
L1_120
  6
CONTINUOUS
 62
         7
100
AcDbVertex
100
AcDb2dVertex
 10
1234.0151867674
 20
-183.8269921379
 30
0.0
 70
         1
  0
VERTEX
  5
11B
100
AcDbEntity
  8
L1_120
  6
CONTINUOUS
 62
         7
100
AcDbVertex
100
AcDb2dVertex
 10
1233.774857967
 20
-184.0541746885
 30
0.0
 70
         1
  0
VERTEX
  5
11D
100
AcDbEntity
  8
L1_120
  6
CONTINUOUS
 62
         7
100
AcDbVertex
100
AcDb2dVertex
 10
1233.5518978873
 20
-184.3040833647
 30
0.0
 70
         1
  0
VERTEX
  5
11F
100
AcDbEntity
  8
L1_120
  6
CONTINUOUS
 62
         7
100
AcDbVertex
100
AcDb2dVertex
 10
1233.3491195331
 20
-184.5715204768
 30
0.0
 70
         1
  0
VERTEX
  5
121
100
AcDbEntity
  8
L1_120
  6
CONTINUOUS
 62
         7
100
AcDbVertex
100
AcDb2dVertex
 10
1233.1684599659
 20
-184.8510674119
 30
0.0
 70
         1
  0
VERTEX
  5
123
100
AcDbEntity
  8
L1_120
  6
CONTINUOUS
 62
         7
100
AcDbVertex
100
AcDb2dVertex
 10
1233.0109626916
 20
-185.1373999217
 30
0.0
 70
         1
  0
VERTEX
  5
125
100
AcDbEntity
  8
L1_120
  6
CONTINUOUS
 62
         7
100
AcDbVertex
100
AcDb2dVertex
 10
1232.8768323966
 20
-185.4255547563
 30
0.0
 70
         1
  0
VERTEX
  5
127
100
AcDbEntity
  8
L1_120
  6
CONTINUOUS
 62
         7
100
AcDbVertex
100
AcDb2dVertex
 10
1232.7324333339
 20
-185.8078374322
 30
0.0
 70
         1
  0
VERTEX
  5
129
100
AcDbEntity
  8
L1_120
  6
CONTINUOUS
 62
         7
100
AcDbVertex
100
AcDb2dVertex
 10
1232.6263105083
 20
-186.1768320427
 30
0.0
 70
         1
  0
VERTEX
  5
12B
100
AcDbEntity
  8
L1_120
  6
CONTINUOUS
 62
         7
100
AcDbVertex
100
AcDb2dVertex
 10
1232.554363387
 20
-186.5261950831
 30
0.0
 70
         1
  0
VERTEX
  5
12D
100
AcDbEntity
  8
L1_120
  6
CONTINUOUS
 62
         7
100
AcDbVertex
100
AcDb2dVertex
 10
1232.5118688432
 20
-186.8518221211
 30
0.0
 70
         1
  0
VERTEX
  5
12F
100
AcDbEntity
  8
L1_120
  6
CONTINUOUS
 62
         7
100
AcDbVertex
100
AcDb2dVertex
 10
1232.4939747203
 20
-187.1515259146
 30
0.0
 70
         1
  0
VERTEX
  5
131
100
AcDbEntity
  8
L1_120
  6
CONTINUOUS
 62
         7
100
AcDbVertex
100
AcDb2dVertex
 10
1232.496047562
 20
-187.4246335283
 30
0.0
 70
         1
  0
VERTEX
  5
133
100
AcDbEntity
  8
L1_120
  6
CONTINUOUS
 62
         7
100
AcDbVertex
100
AcDb2dVertex
 10
1232.5230608341
 20
-187.75128138
 30
0.0
 70
         1
  0
VERTEX
  5
135
100
AcDbEntity
  8
L1_120
  6
CONTINUOUS
 62
         7
100
AcDbVertex
100
AcDb2dVertex
 10
1232.5700108459
 20
-188.0336658281
 30
0.0
 70
         1
  0
VERTEX
  5
137
100
AcDbEntity
  8
L1_120
  6
CONTINUOUS
 62
         7
100
AcDbVertex
100
AcDb2dVertex
 10
1232.6299933991
 20
-188.2761443487
 30
0.0
 70
         1
  0
VERTEX
  5
139
100
AcDbEntity
  8
L1_120
  6
CONTINUOUS
 62
         7
100
AcDbVertex
100
AcDb2dVertex
 10
1232.7226618171
 20
-188.548946931
 30
0.0
 70
         1
  0
VERTEX
  5
13B
100
AcDbEntity
  8
L1_120
  6
CONTINUOUS
 62
         7
100
AcDbVertex
100
AcDb2dVertex
 10
1232.8206164901
 20
-188.7690992743
 30
0.0
 70
         1
  0
VERTEX
  5
13D
100
AcDbEntity
  8
L1_120
  6
CONTINUOUS
 62
         7
100
AcDbVertex
100
AcDb2dVertex
 10
1232.9181381139
 20
-188.9467869992
 30
0.0
 70
         1
  0
VERTEX
  5
13F
100
AcDbEntity
  8
L1_120
  6
CONTINUOUS
 62
         7
100
AcDbVertex
100
AcDb2dVertex
 10
1233.0440772093
 20
-189.1351554567
 30
0.0
 70
         1
  0
VERTEX
  5
141
100
AcDbEntity
  8
L1_120
  6
CONTINUOUS
 62
         7
100
AcDbVertex
100
AcDb2dVertex
 10
1233.1980156459
 20
-189.3207623966
 30
0.0
 70
         1
  0
VERTEX
  5
143
100
AcDbEntity
  8
L1_120
  6
CONTINUOUS
 62
         7
100
AcDbVertex
100
AcDb2dVertex
 10
1233.3286404884
 20
-189.4494217063
 30
0.0
 70
         1
  0
VERTEX
  5
145
100
AcDbEntity
  8
L1_120
  6
CONTINUOUS
 62
         7
100
AcDbVertex
100
AcDb2dVertex
 10
1233.4736669869
 20
-189.5677893553
 30
0.0
 70
         1
  0
VERTEX
  5
147
100
AcDbEntity
  8
L1_120
  6
CONTINUOUS
 62
         7
100
AcDbVertex
100
AcDb2dVertex
 10
1233.6211269116
 20
-189.6662070409
 30
0.0
 70
         1
  0
VERTEX
  5
149
100
AcDbEntity
  8
L1_120
  6
CONTINUOUS
 62
         7
100
AcDbVertex
100
AcDb2dVertex
 10
1233.7979126034
 20
-189.7595206904
 30
0.0
 70
         1
  0
VERTEX
  5
14B
100
AcDbEntity
  8
L1_120
  6
CONTINUOUS
 62
         7
100
AcDbVertex
100
AcDb2dVertex
 10
1233.9322175551
 20
-189.8146799293
 30
0.0
 70
         1
  0
VERTEX
  5
14D
100
AcDbEntity
  8
L1_120
  6
CONTINUOUS
 62
         7
100
AcDbVertex
100
AcDb2dVertex
 10
1233.9322175551
 20
-189.8146799293
 30
0.0
 70
         1
  0
VERTEX
  5
14F
100
AcDbEntity
  8
L1_120
  6
CONTINUOUS
 62
         7
100
AcDbVertex
100
AcDb2dVertex
 10
1234.3122186198
 20
-189.9076512743
 30
0.0
 70
         1
  0
VERTEX
  5
151
100
AcDbEntity
  8
L1_120
  6
CONTINUOUS
 62
         7
100
AcDbVertex
100
AcDb2dVertex
 10
1234.4892872871
 20
-189.9226527721
 30
0.0
 70
         1
  0
VERTEX
  5
153
100
AcDbEntity
  8
L1_120
  6
CONTINUOUS
 62
         7
100
AcDbVertex
100
AcDb2dVertex
 10
1234.6739145572
 20
-189.9208196327
 30
0.0
 70
         1
  0
VERTEX
  5
155
100
AcDbEntity
  8
L1_120
  6
CONTINUOUS
 62
         7
100
AcDbVertex
100
AcDb2dVertex
 10
1234.8649214069
 20
-189.9009825816
 30
0.0
 70
         1
  0
VERTEX
  5
157
100
AcDbEntity
  8
L1_120
  6
CONTINUOUS
 62
         7
100
AcDbVertex
100
AcDb2dVertex
 10
1235.0609061346
 20
-189.8622263103
 30
0.0
 70
         1
  0
VERTEX
  5
159
100
AcDbEntity
  8
L1_120
  6
CONTINUOUS
 62
         7
100
AcDbVertex
100
AcDb2dVertex
 10
1235.2602687667
 20
-189.8039444511
 30
0.0
 70
         1
  0
VERTEX
  5
15B
100
AcDbEntity
  8
L1_120
  6
CONTINUOUS
 62
         7
100
AcDbVertex
100
AcDb2dVertex
 10
1235.4612479991
 20
-189.7258850906
 30
0.0
 70
         1
  0
VERTEX
  5
15D
100
AcDbEntity
  8
L1_120
  6
CONTINUOUS
 62
         7
100
AcDbVertex
100
AcDb2dVertex
 10
1235.6619695258
 20
-189.6281825282
 30
0.0
 70
         1
  0
VERTEX
  5
15F
100
AcDbEntity
  8
L1_120
  6
CONTINUOUS
 62
         7
100
AcDbVertex
100
AcDb2dVertex
 10
1235.8605033958
 20
-189.5113717716
 30
0.0
 70
         1
  0
VERTEX
  5
161
100
AcDbEntity
  8
L1_120
  6
CONTINUOUS
 62
         7
100
AcDbVertex
100
AcDb2dVertex
 10
1236.0549269753
 20
-189.3763835581
 30
0.0
 70
         1
  0
VERTEX
  5
163
100
AcDbEntity
  8
L1_120
  6
CONTINUOUS
 62
         7
100
AcDbVertex
100
AcDb2dVertex
 10
1236.243389346
 20
-189.2245193752
 30
0.0
 70
         1
  0
VERTEX
  5
165
100
AcDbEntity
  8
L1_120
  6
CONTINUOUS
 62
         7
100
AcDbVertex
100
AcDb2dVertex
 10
1236.4837181464
 20
-188.9973368246
 30
0.0
 70
         1
  0
VERTEX
  5
167
100
AcDbEntity
  8
L1_120
  6
CONTINUOUS
 62
         7
100
AcDbVertex
100
AcDb2dVertex
 10
1236.7066782262
 20
-188.7474281485
 30
0.0
 70
         1
  0
VERTEX
  5
169
100
AcDbEntity
  8
L1_120
  6
CONTINUOUS
 62
         7
100
AcDbVertex
100
AcDb2dVertex
 10
1236.9094565804
 20
-188.4799910364
 30
0.0
 70
         1
  0
VERTEX
  5
16B
100
AcDbEntity
  8
L1_120
  6
CONTINUOUS
 62
         7
100
AcDbVertex
100
AcDb2dVertex
 10
1237.0901161476
 20
-188.2004441013
 30
0.0
 70
         1
  0
VERTEX
  5
16D
100
AcDbEntity
  8
L1_120
  6
CONTINUOUS
 62
         7
100
AcDbVertex
100
AcDb2dVertex
 10
1237.2476134218
 20
-187.9141115914
 30
0.0
 70
         1
  0
VERTEX
  5
16F
100
AcDbEntity
  8
L1_120
  6
CONTINUOUS
 62
         7
100
AcDbVertex
100
AcDb2dVertex
 10
1237.3817437169
 20
-187.6259567569
 30
0.0
 70
         1
  0
VERTEX
  5
171
100
AcDbEntity
  8
L1_120
  6
CONTINUOUS
 62
         7
100
AcDbVertex
100
AcDb2dVertex
 10
1237.5261427795
 20
-187.2436740809
 30
0.0
 70
         1
  0
VERTEX
  5
173
100
AcDbEntity
  8
L1_120
  6
CONTINUOUS
 62
         7
100
AcDbVertex
100
AcDb2dVertex
 10
1237.6322656051
 20
-186.8746794705
 30
0.0
 70
         1
  0
VERTEX
  5
175
100
AcDbEntity
  8
L1_120
  6
CONTINUOUS
 62
         7
100
AcDbVertex
100
AcDb2dVertex
 10
1237.7042127264
 20
-186.5253164301
 30
0.0
 70
         1
  0
VERTEX
  5
177
100
AcDbEntity
  8
L1_120
  6
CONTINUOUS
 62
         7
100
AcDbVertex
100
AcDb2dVertex
 10
1237.7467072702
 20
-186.1996893921
 30
0.0
 70
         1
  0
VERTEX
  5
179
100
AcDbEntity
  8
L1_120
  6
CONTINUOUS
 62
         7
100
AcDbVertex
100
AcDb2dVertex
 10
1237.7646013931
 20
-185.8999855986
 30
0.0
 70
         1
  0
VERTEX
  5
17B
100
AcDbEntity
  8
L1_120
  6
CONTINUOUS
 62
         7
100
AcDbVertex
100
AcDb2dVertex
 10
1237.7625285515
 20
-185.6268779849
 30
0.0
 70
         1
  0
VERTEX
  5
17D
100
AcDbEntity
  8
L1_120
  6
CONTINUOUS
 62
         7
100
AcDbVertex
100
AcDb2dVertex
 10
1237.7355152794
 20
-185.3002301332
 30
0.0
 70
         1
  0
VERTEX
  5
17F
100
AcDbEntity
  8
L1_120
  6
CONTINUOUS
 62
         7
100
AcDbVertex
100
AcDb2dVertex
 10
1237.6885652675
 20
-185.0178456851
 30
0.0
 70
         1
  0
VERTEX
  5
181
100
AcDbEntity
  8
L1_120
  6
CONTINUOUS
 62
         7
100
AcDbVertex
100
AcDb2dVertex
 10
1237.6285827143
 20
-184.7753671645
 30
0.0
 70
         1
  0
VERTEX
  5
183
100
AcDbEntity
  8
L1_120
  6
CONTINUOUS
 62
         7
100
AcDbVertex
100
AcDb2dVertex
 10
1237.5359142964
 20
-184.5025645822
 30
0.0
 70
         1
  0
VERTEX
  5
185
100
AcDbEntity
  8
L1_120
  6
CONTINUOUS
 62
         7
100
AcDbVertex
100
AcDb2dVertex
 10
1237.4379596234
 20
-184.2824122389
 30
0.0
 70
         1
  0
VERTEX
  5
187
100
AcDbEntity
  8
L1_120
  6
CONTINUOUS
 62
         7
100
AcDbVertex
100
AcDb2dVertex
 10
1237.3404379996
 20
-184.1047245139
 30
0.0
 70
         1
  0
VERTEX
  5
189
100
AcDbEntity
  8
L1_120
  6
CONTINUOUS
 62
         7
100
AcDbVertex
100
AcDb2dVertex
 10
1237.2144989042
 20
-183.9163560564
 30
0.0
 70
         1
  0
VERTEX
  5
18B
100
AcDbEntity
  8
L1_120
  6
CONTINUOUS
 62
         7
100
AcDbVertex
100
AcDb2dVertex
 10
1237.0605604676
 20
-183.7307491166
 30
0.0
 70
         1
  0
VERTEX
  5
18D
100
AcDbEntity
  8
L1_120
  6
CONTINUOUS
 62
         7
100
AcDbVertex
100
AcDb2dVertex
 10
1236.9299356251
 20
-183.6020898069
 30
0.0
 70
         1
  0
VERTEX
  5
18F
100
AcDbEntity
  8
L1_120
  6
CONTINUOUS
 62
         7
100
AcDbVertex
100
AcDb2dVertex
 10
1236.7849091266
 20
-183.4837221579
 30
0.0
 70
         1
  0
VERTEX
  5
191
100
AcDbEntity
  8
L1_120
  6
CONTINUOUS
 62
         7
100
AcDbVertex
100
AcDb2dVertex
 10
1236.6374492019
 20
-183.3853044723
 30
0.0
 70
         1
  0
VERTEX
  5
193
100
AcDbEntity
  8
L1_120
  6
CONTINUOUS
 62
         7
100
AcDbVertex
100
AcDb2dVertex
 10
1236.4606635101
 20
-183.2919908228
 30
0.0
 70
         1
  0
VERTEX
  5
195
100
AcDbEntity
  8
L1_120
  6
CONTINUOUS
 62
         7
100
AcDbVertex
100
AcDb2dVertex
 10
1236.3263585584
 20
-183.2368315838
 30
0.0
 70
         1
  0
SEQEND
  5
197
100
AcDbEntity
  8
L1_120
  6
CONTINUOUS
 62
         7
  0
ARC
  5
198
100
AcDbEntity
  8
L1_120
  6
CONTINUOUS
 62
         7
100
AcDbCircle
 10
1221.0721451996
 20
-225.0406455357
 30
0.0
 40
48.75
100
AcDbArc
 50
16.5052120024
 51
163.4947879976
  0
LINE
  5
199
100
AcDbEntity
  8
L1_120
  6
CENTER
 62
         1
100
AcDbLine
 10
1264.4375549365
 20
-225.0406455357
 30
0.0
 11
1174.5075996042
 21
-225.0406455357
 31
0.0
  0
ARC
  5
19A
100
AcDbEntity
  8
L1_120
  6
CONTINUOUS
 62
         7
100
AcDbCircle
 10
1221.0721451996
 20
-225.0406455357
 30
0.0
 40
48.75
100
AcDbArc
 50
196.5052120024
 51
343.4947879976
  0
CIRCLE
  5
19B
100
AcDbEntity
  8
L1_120
  6
CONTINUOUS
 62
         7
100
AcDbCircle
 10
1221.0721451996
 20
-225.0406455357
 30
0.0
 40
34.925
  0
CIRCLE
  5
19C
100
AcDbEntity
  8
L1_120
  6
CONTINUOUS
 62
         7
100
AcDbCircle
 10
1221.0721451996
 20
-225.0406455357
 30
0.0
 40
20.3982925257
  0
CIRCLE
  5
19D
100
AcDbEntity
  8
L1_120
  6
CONTINUOUS
 62
         7
100
AcDbCircle
 10
1221.0721451996
 20
-225.0406455357
 30
0.0
 40
10.3963414634
  0
ARC
  5
19E
100
AcDbEntity
  8
L1_120
  6
CONTINUOUS
 62
         4
100
AcDbCircle
 10
1221.0721451996
 20
-225.0406455357
 30
0.0
 40
12.0
100
AcDbArc
 50
278.1340859252
 51
549.6704111119
  0
CIRCLE
  5
19F
100
AcDbEntity
  8
L1_120
  6
CONTINUOUS
 62
         7
100
AcDbCircle
 10
1221.0721451996
 20
-225.0406455357
 30
0.0
 40
12.6589889012
  0
LINE
  5
1A0
100
AcDbEntity
  8
L1_120
  6
CONTINUOUS
 62
         7
100
AcDbLine
 10
1185.0721451996
 20
-237.3906455357
 30
0.0
 11
1185.0721451996
 21
-212.6906455357
 31
0.0
  0
LINE
  5
1A1
100
AcDbEntity
  8
L1_120
  6
CONTINUOUS
 62
         7
100
AcDbLine
 10
1175.3309428188
 20
-237.8906455357
 30
0.0
 11
1184.5721451996
 21
-237.8906455357
 31
0.0
  0
LINE
  5
1A2
100
AcDbEntity
  8
L1_120
  6
CONTINUOUS
 62
         7
100
AcDbLine
 10
1174.3309428188
 20
-238.8906455357
 30
0.0
 11
1175.3309428188
 21
-237.8906455357
 31
0.0
  0
LINE
  5
1A3
100
AcDbEntity
  8
L1_120
  6
CONTINUOUS
 62
         7
100
AcDbLine
 10
1174.3309428188
 20
-211.1906455357
 30
0.0
 11
1175.3309428188
 21
-212.1906455357
 31
0.0
  0
LINE
  5
1A4
100
AcDbEntity
  8
L1_120
  6
CONTINUOUS
 62
         7
100
AcDbLine
 10
1175.3309428188
 20
-212.1906455357
 30
0.0
 11
1184.5721451996
 21
-212.1906455357
 31
0.0
  0
LINE
  5
1A5
100
AcDbEntity
  8
L1_120
  6
CONTINUOUS
 62
         7
100
AcDbLine
 10
1258.7721451996
 20
-237.3906455357
 30
0.0
 11
1258.7721451996
 21
-212.6906455357
 31
0.0
  0
LINE
  5
1A6
100
AcDbEntity
  8
L1_120
  6
CONTINUOUS
 62
         7
100
AcDbLine
 10
1266.8133475804
 20
-212.1906455357
 30
0.0
 11
1259.2721451996
 21
-212.1906455357
 31
0.0
  0
LINE
  5
1A7
100
AcDbEntity
  8
L1_120
  6
CONTINUOUS
 62
         7
100
AcDbLine
 10
1267.8133475804
 20
-211.1906455357
 30
0.0
 11
1266.8133475804
 21
-212.1906455357
 31
0.0
  0
LINE
  5
1A8
100
AcDbEntity
  8
L1_120
  6
CONTINUOUS
 62
         7
100
AcDbLine
 10
1266.8133475804
 20
-237.8906455357
 30
0.0
 11
1259.2721451996
 21
-237.8906455357
 31
0.0
  0
LINE
  5
1A9
100
AcDbEntity
  8
L1_120
  6
CONTINUOUS
 62
         7
100
AcDbLine
 10
1267.8133475804
 20
-238.8906455357
 30
0.0
 11
1266.8133475804
 21
-237.8906455357
 31
0.0
  0
LINE
  5
1AA
100
AcDbEntity
  8
L1_120
  6
CONTINUOUS
 62
         7
100
AcDbLine
 10
1184.5721451996
 20
-237.8906455357
 30
0.0
 11
1185.0721451996
 21
-237.3906455357
 31
0.0
  0
LINE
  5
1AB
100
AcDbEntity
  8
L1_120
  6
CONTINUOUS
 62
         7
100
AcDbLine
 10
1185.0721451996
 20
-212.6906455357
 30
0.0
 11
1184.5721451996
 21
-212.1906455357
 31
0.0
  0
LINE
  5
1AC
100
AcDbEntity
  8
L1_120
  6
CONTINUOUS
 62
         7
100
AcDbLine
 10
1259.2721451996
 20
-212.1906455357
 30
0.0
 11
1258.7721451996
 21
-212.6906455357
 31
0.0
  0
LINE
  5
1AD
100
AcDbEntity
  8
L1_120
  6
CONTINUOUS
 62
         7
100
AcDbLine
 10
1258.7721451996
 20
-237.3906455357
 30
0.0
 11
1259.2721451996
 21
-237.8906455357
 31
0.0
  0
LINE
  5
1AE
100
AcDbEntity
  8
L1_120
  6
CENTER
 62
         1
100
AcDbLine
 10
1583.7053532228
 20
-174.8235965292
 30
0.0
 11
1623.0684166598
 21
-282.9727244828
 31
0.0
  0
LINE
  5
1AF
100
AcDbEntity
  8
L1_120
  6
DASHED
 62
         2
100
AcDbLine
 10
1604.5946138005
 20
-237.0406455357
 30
0.0
 11
1614.5855560538
 21
-264.4905337756
 31
0.0
  0
LINE
  5
1B0
100
AcDbEntity
  8
L1_120
  6
DASHED
 62
         2
100
AcDbLine
 10
1615.6931482384
 20
-268.5569498331
 30
0.0
 11
1614.2566636365
 21
-264.6102408258
 31
0.0
  0
LINE
  5
1B1
100
AcDbEntity
  8
L1_120
  6
DASHED
 62
         2
100
AcDbLine
 10
1618.0154341196
 20
-263.2421602525
 30
0.0
 11
1614.2566636365
 21
-264.6102408258
 31
0.0
  0
LINE
  5
1B2
100
AcDbEntity
  8
L1_120
  6
DASHED
 62
         2
100
AcDbLine
 10
1619.4519187216
 20
-267.1888692598
 30
0.0
 11
1618.0154341196
 21
-263.2421602525
 31
0.0
  0
LINE
  5
1B3
100
AcDbEntity
  8
L1_120
  6
DASHED
 62
         2
100
AcDbLine
 10
1608.1064004496
 20
-237.0406455357
 30
0.0
 11
1617.6865417024
 21
-263.3618673027
 31
0.0
  0
LINE
  5
1B4
100
AcDbEntity
  8
L1_120
  6
DASHED
 62
         2
100
AcDbLine
 10
1584.5138099061
 20
-182.8924218115
 30
0.0
 11
1585.9502945081
 21
-186.8391308188
 31
0.0
  0
LINE
  5
1B5
100
AcDbEntity
  8
L1_120
  6
DASHED
 62
         2
100
AcDbLine
 10
1588.2725803893
 20
-181.5243412382
 30
0.0
 11
1589.7090649912
 21
-185.4710502455
 31
0.0
  0
LINE
  5
1B6
100
AcDbEntity
  8
L1_120
  6
DASHED
 62
         2
100
AcDbLine
 10
1585.9502945081
 20
-186.8391308188
 30
0.0
 11
1589.7090649912
 21
-185.4710502455
 31
0.0
  0
LINE
  5
1B7
100
AcDbEntity
  8
L1_120
  6
DASHED
 62
         2
100
AcDbLine
 10
1589.380172574
 20
-185.5907572957
 30
0.0
 11
1599.3711148273
 21
-213.0406455357
 31
0.0
  0
LINE
  5
1B8
100
AcDbEntity
  8
L1_120
  6
DASHED
 62
         2
100
AcDbLine
 10
1579.8419246401
 20
-246.2299144285
 30
0.0
 11
1579.2707742014
 21
-244.0983519723
 31
0.0
  0
LINE
  5
1B9
100
AcDbEntity
  8
L1_120
  6
DASHED
 62
         2
100
AcDbLine
 10
1577.2707742014
 20
-243.165736656
 30
0.0
 11
1579.2707742014
 21
-244.0983519723
 31
0.0
  0
LINE
  5
1BA
100
AcDbEntity
  8
L1_120
  6
DASHED
 62
         2
100
AcDbLine
 10
1579.8419246401
 20
-246.2299144285
 30
0.0
 11
1577.2707742014
 21
-243.165736656
 31
0.0
  0
LINE
  5
1BB
100
AcDbEntity
  8
L1_120
  6
DASHED
 62
         2
100
AcDbLine
 10
1575.1121725234
 20
-239.7774107354
 30
0.0
 11
1575.1121725234
 21
-237.5706548974
 31
0.0
  0
LINE
  5
1BC
100
AcDbEntity
  8
L1_120
  6
DASHED
 62
         2
100
AcDbLine
 10
1573.4216994765
 20
-236.1521795872
 30
0.0
 11
1575.1121725234
 21
-237.5706548974
 31
0.0
  0
LINE
  5
1BD
100
AcDbEntity
  8
L1_120
  6
DASHED
 62
         2
100
AcDbLine
 10
1575.1121725234
 20
-239.7774107354
 30
0.0
 11
1573.4216994765
 21
-236.1521795872
 31
0.0
  0
LINE
  5
1BE
100
AcDbEntity
  8
L1_120
  6
DASHED
 62
         2
100
AcDbLine
 10
1568.3512579934
 20
-255.8717285738
 30
0.0
 11
1579.8419246401
 21
-246.2299144285
 31
0.0
  0
LINE
  5
1BF
100
AcDbEntity
  8
L1_120
  6
DASHED
 62
         2
100
AcDbLine
 10
1565.7801075546
 20
-252.8075508013
 30
0.0
 11
1577.2707742014
 21
-243.165736656
 31
0.0
  0
LINE
  5
1C0
100
AcDbEntity
  8
L1_120
  6
DASHED
 62
         2
100
AcDbLine
 10
1561.5175557179
 20
-246.1166846615
 30
0.0
 11
1575.1121725234
 21
-239.7774107354
 31
0.0
  0
LINE
  5
1C1
100
AcDbEntity
  8
L1_120
  6
DASHED
 62
         2
100
AcDbLine
 10
1559.8270826709
 20
-242.4914535133
 30
0.0
 11
1573.4216994765
 21
-236.1521795872
 31
0.0
  0
LINE
  5
1C2
100
AcDbEntity
  8
L1_120
  6
DASHED
 62
         2
100
AcDbLine
 10
1579.8419246401
 20
-203.8513766429
 30
0.0
 11
1579.2707742014
 21
-205.982939099
 31
0.0
  0
LINE
  5
1C3
100
AcDbEntity
  8
L1_120
  6
DASHED
 62
         2
100
AcDbLine
 10
1579.8419246401
 20
-203.8513766428
 30
0.0
 11
1577.2707742014
 21
-206.9155544153
 31
0.0
  0
LINE
  5
1C4
100
AcDbEntity
  8
L1_120
  6
DASHED
 62
         2
100
AcDbLine
 10
1577.2707742014
 20
-206.9155544153
 30
0.0
 11
1579.2707742014
 21
-205.982939099
 31
0.0
  0
LINE
  5
1C5
100
AcDbEntity
  8
L1_120
  6
DASHED
 62
         2
100
AcDbLine
 10
1575.1121725234
 20
-210.3038803359
 30
0.0
 11
1575.1121725234
 21
-212.5106361739
 31
0.0
  0
LINE
  5
1C6
100
AcDbEntity
  8
L1_120
  6
DASHED
 62
         2
100
AcDbLine
 10
1573.4216994765
 20
-213.9291114841
 30
0.0
 11
1575.1121725234
 21
-212.5106361739
 31
0.0
  0
LINE
  5
1C7
100
AcDbEntity
  8
L1_120
  6
DASHED
 62
         2
100
AcDbLine
 10
1575.1121725234
 20
-210.3038803359
 30
0.0
 11
1573.4216994765
 21
-213.9291114841
 31
0.0
  0
LINE
  5
1C8
100
AcDbEntity
  8
L1_120
  6
DASHED
 62
         2
100
AcDbLine
 10
1559.8270826709
 20
-207.589837558
 30
0.0
 11
1573.4216994765
 21
-213.9291114841
 31
0.0
  0
LINE
  5
1C9
100
AcDbEntity
  8
L1_120
  6
DASHED
 62
         2
100
AcDbLine
 10
1561.5175557179
 20
-203.9646064098
 30
0.0
 11
1575.1121725234
 21
-210.3038803359
 31
0.0
  0
LINE
  5
1CA
100
AcDbEntity
  8
L1_120
  6
DASHED
 62
         2
100
AcDbLine
 10
1565.7801075546
 20
-197.27374027
 30
0.0
 11
1577.2707742014
 21
-206.9155544153
 31
0.0
  0
LINE
  5
1CB
100
AcDbEntity
  8
L1_120
  6
DASHED
 62
         2
100
AcDbLine
 10
1568.3512579934
 20
-194.2095624976
 30
0.0
 11
1579.8419246401
 21
-203.8513766429
 31
0.0
  0
LINE
  5
1CC
100
AcDbEntity
  8
L1_120
  6
CENTER
 62
         1
100
AcDbLine
 10
1564.6381977118
 20
-256.3765415079
 30
0.0
 11
1601.9828643139
 21
-225.0406455357
 31
0.0
  0
LINE
  5
1CD
100
AcDbEntity
  8
L1_120
  6
CENTER
 62
         1
100
AcDbLine
 10
1557.8003596958
 20
-245.6432857955
 30
0.0
 11
1601.9828643139
 21
-225.0406455357
 31
0.0
  0
LINE
  5
1CE
100
AcDbEntity
  8
L1_120
  6
CENTER
 62
         1
100
AcDbLine
 10
1557.8003596958
 20
-204.4380052758
 30
0.0
 11
1601.9828643139
 21
-225.0406455357
 31
0.0
  0
LINE
  5
1CF
100
AcDbEntity
  8
L1_120
  6
CENTER
 62
         1
100
AcDbLine
 10
1564.6381977118
 20
-193.7047495634
 30
0.0
 11
1601.9828643139
 21
-225.0406455357
 31
0.0
  0
LINE
  5
1D0
100
AcDbEntity
  8
L1_120
  6
DASHED
 62
         2
100
AcDbLine
 10
1564.7828643139
 20
-220.0406455357
 30
0.0
 11
1564.7828643139
 21
-230.0406455357
 31
0.0
  0
LINE
  5
1D1
100
AcDbEntity
  8
L1_120
  6
DASHED
 62
         2
100
AcDbLine
 10
1564.7828643139
 20
-220.0406455357
 30
0.0
 11
1564.2828643139
 21
-219.5406455357
 31
0.0
  0
LINE
  5
1D2
100
AcDbEntity
  8
L1_120
  6
DASHED
 62
         2
100
AcDbLine
 10
1564.7828643139
 20
-230.0406455357
 30
0.0
 11
1564.2828643139
 21
-230.5406455357
 31
0.0
  0
LINE
  5
1D3
100
AcDbEntity
  8
L1_120
  6
DASHED
 62
         2
100
AcDbLine
 10
1564.4828643139
 20
-220.0406455357
 30
0.0
 11
1568.7328643139
 21
-220.0406455357
 31
0.0
  0
LINE
  5
1D4
100
AcDbEntity
  8
L1_120
  6
DASHED
 62
         2
100
AcDbLine
 10
1564.2828643139
 20
-230.2406455357
 30
0.0
 11
1564.4828643139
 21
-230.0406455357
 31
0.0
  0
LINE
  5
1D5
100
AcDbEntity
  8
L1_120
  6
DASHED
 62
         2
100
AcDbLine
 10
1564.2828643139
 20
-219.8406455357
 30
0.0
 11
1564.4828643139
 21
-220.0406455357
 31
0.0
  0
LINE
  5
1D6
100
AcDbEntity
  8
L1_120
  6
DASHED
 62
         2
100
AcDbLine
 10
1564.4828643139
 20
-220.0406455357
 30
0.0
 11
1564.4828643139
 21
-230.0406455357
 31
0.0
  0
ARC
  5
1D7
100
AcDbEntity
  8
L1_120
  6
DASHED
 62
         2
100
AcDbCircle
 10
1568.7328643139
 20
-229.8406455357
 30
0.0
 40
0.2
100
AcDbArc
 50
270.0
 51
360.0
  0
ARC
  5
1D8
100
AcDbEntity
  8
L1_120
  6
DASHED
 62
         2
100
AcDbCircle
 10
1568.7328643139
 20
-220.2406455357
 30
0.0
 40
0.2
100
AcDbArc
 50
0.0
 51
90.0
  0
LINE
  5
1D9
100
AcDbEntity
  8
L1_120
  6
DASHED
 62
         2
100
AcDbLine
 10
1568.9328643139
 20
-220.2406455357
 30
0.0
 11
1568.9328643139
 21
-229.8406455357
 31
0.0
  0
LINE
  5
1DA
100
AcDbEntity
  8
L1_120
  6
DASHED
 62
         2
100
AcDbLine
 10
1564.4828643139
 20
-230.0406455357
 30
0.0
 11
1568.7328643139
 21
-230.0406455357
 31
0.0
  0
ARC
  5
1DB
100
AcDbEntity
  8
L1_120
  6
DASHED
 62
         2
100
AcDbCircle
 10
1601.9828643139
 20
-225.0406455357
 30
0.0
 40
45.625
100
AcDbArc
 50
197.6716498685
 51
343.6416615206
  0
ARC
  5
1DC
100
AcDbEntity
  8
L1_120
  6
CONTINUOUS
 62
         7
100
AcDbCircle
 10
1601.9828643139
 20
-225.0406455357
 30
0.0
 40
48.75
100
AcDbArc
 50
16.5052120024
 51
163.4947879976
  0
ARC
  5
1DD
100
AcDbEntity
  8
L1_120
  6
DASHED
 62
         2
100
AcDbCircle
 10
1601.9828643139
 20
-225.0406455357
 30
0.0
 40
45.625
100
AcDbArc
 50
16.3583384794
 51
163.6416615206
  0
ARC
  5
1DE
100
AcDbEntity
  8
L1_120
  6
CONTINUOUS
 62
         7
100
AcDbCircle
 10
1601.9828643139
 20
-225.0406455357
 30
0.0
 40
48.75
100
AcDbArc
 50
196.5052120024
 51
343.4947879976
  0
LINE
  5
1DF
100
AcDbEntity
  8
L1_120
  6
CENTER
 62
         1
100
AcDbLine
 10
1547.2328643139
 20
-225.0406455357
 30
0.0
 11
1656.7328643139
 21
-225.0406455357
 31
0.0
  0
LINE
  5
1E0
100
AcDbEntity
  8
L1_120
  6
CENTER
 62
         1
100
AcDbLine
 10
1601.9828643139
 20
-279.7906455357
 30
0.0
 11
1601.9828643139
 21
-172.8760226608
 31
0.0
  0
LINE
  5
1E1
100
AcDbEntity
  8
L1_120
  6
CONTINUOUS
 62
         7
100
AcDbLine
 10
1637.4828643139
 20
-212.6906455357
 30
0.0
 11
1637.4828643139
 21
-237.3906455357
 31
0.0
  0
LINE
  5
1E2
100
AcDbEntity
  8
L1_120
  6
CONTINUOUS
 62
         7
100
AcDbLine
 10
1647.7240666946
 20
-212.1906455357
 30
0.0
 11
1637.9828643139
 21
-212.1906455357
 31
0.0
  0
LINE
  5
1E3
100
AcDbEntity
  8
L1_120
  6
CONTINUOUS
 62
         7
100
AcDbLine
 10
1648.7240666946
 20
-211.1906455357
 30
0.0
 11
1647.7240666946
 21
-212.1906455357
 31
0.0
  0
LINE
  5
1E4
100
AcDbEntity
  8
L1_120
  6
CONTINUOUS
 62
         7
100
AcDbLine
 10
1648.7240666946
 20
-238.8906455357
 30
0.0
 11
1647.7240666946
 21
-237.8906455357
 31
0.0
  0
LINE
  5
1E5
100
AcDbEntity
  8
L1_120
  6
CONTINUOUS
 62
         7
100
AcDbLine
 10
1647.7240666946
 20
-237.8906455357
 30
0.0
 11
1637.9828643139
 21
-237.8906455357
 31
0.0
  0
LINE
  5
1E6
100
AcDbEntity
  8
L1_120
  6
CONTINUOUS
 62
         7
100
AcDbLine
 10
1637.4828643139
 20
-212.6906455357
 30
0.0
 11
1637.9828643139
 21
-212.1906455357
 31
0.0
  0
LINE
  5
1E7
100
AcDbEntity
  8
L1_120
  6
CONTINUOUS
 62
         7
100
AcDbLine
 10
1637.4828643139
 20
-237.3906455357
 30
0.0
 11
1637.9828643139
 21
-237.8906455357
 31
0.0
  0
LINE
  5
1E8
100
AcDbEntity
  8
L1_120
  6
CONTINUOUS
 62
         7
100
AcDbLine
 10
1564.2828643139
 20
-237.3906455357
 30
0.0
 11
1563.7828643139
 21
-237.8906455357
 31
0.0
  0
LINE
  5
1E9
100
AcDbEntity
  8
L1_120
  6
CONTINUOUS
 62
         7
100
AcDbLine
 10
1563.7828643139
 20
-212.1906455357
 30
0.0
 11
1564.2828643139
 21
-212.6906455357
 31
0.0
  0
LINE
  5
1EA
100
AcDbEntity
  8
L1_120
  6
CONTINUOUS
 62
         7
100
AcDbLine
 10
1564.2828643139
 20
-212.6906455357
 30
0.0
 11
1564.2828643139
 21
-237.3906455357
 31
0.0
  0
LINE
  5
1EB
100
AcDbEntity
  8
L1_120
  6
CONTINUOUS
 62
         7
100
AcDbLine
 10
1555.2416619331
 20
-211.1906455357
 30
0.0
 11
1556.2416619331
 21
-212.1906455357
 31
0.0
  0
LINE
  5
1EC
100
AcDbEntity
  8
L1_120
  6
CONTINUOUS
 62
         7
100
AcDbLine
 10
1556.2416619331
 20
-212.1906455357
 30
0.0
 11
1563.7828643139
 21
-212.1906455357
 31
0.0
  0
LINE
  5
1ED
100
AcDbEntity
  8
L1_120
  6
CONTINUOUS
 62
         7
100
AcDbLine
 10
1555.2416619331
 20
-238.8906455357
 30
0.0
 11
1556.2416619331
 21
-237.8906455357
 31
0.0
  0
LINE
  5
1EE
100
AcDbEntity
  8
L1_120
  6
CONTINUOUS
 62
         7
100
AcDbLine
 10
1556.2416619331
 20
-237.8906455357
 30
0.0
 11
1563.7828643139
 21
-237.8906455357
 31
0.0
  0
CIRCLE
  5
1EF
100
AcDbEntity
  8
L1_120
  6
CONTINUOUS
 62
         7
100
AcDbCircle
 10
1431.0275047567
 20
-254.3396396875
 30
0.0
 40
1.5320888862
  0
CIRCLE
  5
1F0
100
AcDbEntity
  8
L1_120
  6
CONTINUOUS
 62
         7
100
AcDbCircle
 10
1431.0275047567
 20
-244.3040690874
 30
0.0
 40
1.8126155741
  0
CIRCLE
  5
1F1
100
AcDbEntity
  8
L1_120
  6
CONTINUOUS
 62
         7
100
AcDbCircle
 10
1431.0275047567
 20
-205.7772219839
 30
0.0
 40
1.8126155741
  0
CIRCLE
  5
1F2
100
AcDbEntity
  8
L1_120
  6
CONTINUOUS
 62
         7
100
AcDbCircle
 10
1431.0275047567
 20
-195.7416513838
 30
0.0
 40
1.5320888862
  0
LINE
  5
1F3
100
AcDbEntity
  8
L1_120
  6
CONTINUOUS
 62
         4
100
AcDbLine
 10
1438.5275047567
 20
-273.7906455357
 30
0.0
 11
1438.5275047567
 21
-238.8906455357
 31
0.0
  0
LINE
  5
1F4
100
AcDbEntity
  8
L1_120
  6
CONTINUOUS
 62
         4
100
AcDbLine
 10
1423.6275047567
 20
-273.7906455357
 30
0.0
 11
1423.6275047567
 21
-238.8906455357
 31
0.0
  0
LINE
  5
1F5
100
AcDbEntity
  8
L1_120
  6
CONTINUOUS
 62
         4
100
AcDbLine
 10
1438.5275047567
 20
-211.1906455357
 30
0.0
 11
1438.5275047567
 21
-176.2906455357
 31
0.0
  0
LINE
  5
1F6
100
AcDbEntity
  8
L1_120
  6
CONTINUOUS
 62
         4
100
AcDbLine
 10
1423.6275047567
 20
-211.1906455357
 30
0.0
 11
1423.6275047567
 21
-176.2906455357
 31
0.0
  0
LINE
  5
1F7
100
AcDbEntity
  8
L1_120
  6
CENTER
 62
         1
100
AcDbLine
 10
1409.1715721287
 20
-225.0406455357
 30
0.0
 11
1439.0275047567
 21
-225.0406455357
 31
0.0
  0
LINE
  5
1F8
100
AcDbEntity
  8
L1_120
  6
CENTER
 62
         1
100
AcDbLine
 10
1313.3813621887
 20
-225.0406455357
 30
0.0
 11
1387.3025951845
 21
-225.0406455357
 31
0.0
  0
LINE
  5
1F9
100
AcDbEntity
  8
L1_120
  6
CONTINUOUS
 62
         7
100
AcDbLine
 10
1421.1275047567
 20
-189.940643888
 30
0.0
 11
1320.4667341982
 21
-204.620477804
 31
0.0
  0
LINE
  5
1FA
100
AcDbEntity
  8
L1_120
  6
CONTINUOUS
 62
         7
100
AcDbLine
 10
1421.1275047567
 20
-260.1406471833
 30
0.0
 11
1320.4667341981
 21
-245.4608132673
 31
0.0
  0
LINE
  5
1FB
100
AcDbEntity
  8
L1_120
  6
CONTINUOUS
 62
         7
100
AcDbLine
 10
1421.1275047567
 20
-189.940643888
 30
0.0
 11
1421.1275047567
 21
-260.1406471833
 31
0.0
  0
LINE
  5
1FC
100
AcDbEntity
  8
L1_120
  6
CENTER
 62
         1
100
AcDbLine
 10
1419.9265047567
 20
-185.3156455357
 30
0.0
 11
1419.9275047567
 21
-263.3116998812
 31
0.0
  0
LINE
  5
1FD
100
AcDbEntity
  8
L1_120
  6
CONTINUOUS
 62
         7
100
AcDbLine
 10
1423.1275047567
 20
-177.7906455357
 30
0.0
 11
1423.1275047567
 21
-272.2906455357
 31
0.0
  0
LINE
  5
1FE
100
AcDbEntity
  8
L1_120
  6
CONTINUOUS
 62
         7
100
AcDbLine
 10
1434.5637751555
 20
-273.7906455357
 30
0.0
 11
1437.5275047567
 21
-273.7906455357
 31
0.0
  0
ARC
  5
1FF
100
AcDbEntity
  8
L1_120
  6
CONTINUOUS
 62
         7
100
AcDbCircle
 10
1432.4708804297
 20
-271.1656455357
 30
0.0
 40
0.5
100
AcDbArc
 50
30.0
 51
90.0
  0
LINE
  5
200
100
AcDbEntity
  8
L1_120
  6
CONTINUOUS
 62
         7
100
AcDbLine
 10
1429.1511163819
 20
-270.9156455357
 30
0.0
 11
1427.4912343579
 21
-273.7906455357
 31
0.0
  0
LINE
  5
201
100
AcDbEntity
  8
L1_120
  6
CONTINUOUS
 62
         7
100
AcDbLine
 10
1424.6275047567
 20
-273.7906455357
 30
0.0
 11
1427.4912343579
 21
-273.7906455357
 31
0.0
  0
ARC
  5
202
100
AcDbEntity
  8
L1_120
  6
CONTINUOUS
 62
         7
100
AcDbCircle
 10
1429.5841290838
 20
-271.1656455357
 30
0.0
 40
0.5
100
AcDbArc
 50
90.0
 51
150.0
  0
LINE
  5
203
100
AcDbEntity
  8
L1_120
  6
CONTINUOUS
 62
         7
100
AcDbLine
 10
1429.5841290838
 20
-270.6656455357
 30
0.0
 11
1432.4708804297
 21
-270.6656455357
 31
0.0
  0
LINE
  5
204
100
AcDbEntity
  8
L1_120
  6
CONTINUOUS
 62
         7
100
AcDbLine
 10
1432.9038931316
 20
-270.9156455357
 30
0.0
 11
1434.5637751555
 21
-273.7906455357
 31
0.0
  0
LINE
  5
205
100
AcDbEntity
  8
L1_120
  6
CONTINUOUS
 62
         7
100
AcDbLine
 10
1434.5637751555
 20
-176.2906455357
 30
0.0
 11
1437.5275047567
 21
-176.2906455357
 31
0.0
  0
ARC
  5
206
100
AcDbEntity
  8
L1_120
  6
CONTINUOUS
 62
         7
100
AcDbCircle
 10
1432.4708804297
 20
-178.9156455357
 30
0.0
 40
0.5
100
AcDbArc
 50
270.0
 51
330.0
  0
LINE
  5
207
100
AcDbEntity
  8
L1_120
  6
CONTINUOUS
 62
         7
100
AcDbLine
 10
1429.1511163819
 20
-179.1656455357
 30
0.0
 11
1427.4912343579
 21
-176.2906455357
 31
0.0
  0
ARC
  5
208
100
AcDbEntity
  8
L1_120
  6
CONTINUOUS
 62
         7
100
AcDbCircle
 10
1429.5841290838
 20
-178.9156455357
 30
0.0
 40
0.5
100
AcDbArc
 50
210.0
 51
270.0
  0
LINE
  5
209
100
AcDbEntity
  8
L1_120
  6
CONTINUOUS
 62
         7
100
AcDbLine
 10
1424.6275047567
 20
-176.2906455357
 30
0.0
 11
1427.4912343579
 21
-176.2906455357
 31
0.0
  0
LINE
  5
20A
100
AcDbEntity
  8
L1_120
  6
CONTINUOUS
 62
         7
100
AcDbLine
 10
1429.5841290838
 20
-179.4156455357
 30
0.0
 11
1432.4708804297
 21
-179.4156455357
 31
0.0
  0
LINE
  5
20B
100
AcDbEntity
  8
L1_120
  6
CONTINUOUS
 62
         7
100
AcDbLine
 10
1432.9038931316
 20
-179.1656455357
 30
0.0
 11
1434.5637751555
 21
-176.2906455357
 31
0.0
  0
LINE
  5
20C
100
AcDbEntity
  8
L1_120
  6
CONTINUOUS
 62
         7
100
AcDbLine
 10
1439.0275047567
 20
-177.7906455357
 30
0.0
 11
1439.0275047567
 21
-272.2906455357
 31
0.0
  0
LINE
  5
20D
100
AcDbEntity
  8
L1_120
  6
CONTINUOUS
 62
         7
100
AcDbLine
 10
1318.3275047567
 20
-207.0943097716
 30
0.0
 11
1318.3275047567
 21
-242.9869812997
 31
0.0
  0
ARC
  5
20E
100
AcDbEntity
  8
L1_120
  6
CONTINUOUS
 62
         7
100
AcDbCircle
 10
1320.8275047567
 20
-207.0943097716
 30
0.0
 40
2.5
100
AcDbArc
 50
98.297222
 51
180.0
  0
ARC
  5
20F
100
AcDbEntity
  8
L1_120
  6
CONTINUOUS
 62
         7
100
AcDbCircle
 10
1320.8275047567
 20
-242.9869812997
 30
0.0
 40
2.5
100
AcDbArc
 50
180.0
 51
261.702778
  0
CIRCLE
  5
210
100
AcDbEntity
  8
L1_120
  6
CONTINUOUS
 62
         7
100
AcDbCircle
 10
1431.0275047567
 20
-225.0367920108
 30
0.0
 40
4.76
  0
LINE
  5
211
100
AcDbEntity
  8
L1_120
  6
CONTINUOUS
 62
         7
100
AcDbLine
 10
1439.0275047567
 20
-238.8906455357
 30
0.0
 11
1434.5637751555
 21
-238.8906455357
 31
0.0
  0
LINE
  5
212
100
AcDbEntity
  8
L1_120
  6
CONTINUOUS
 62
         7
100
AcDbLine
 10
1427.4912343579
 20
-238.8906455357
 30
0.0
 11
1423.1275047567
 21
-238.8906455357
 31
0.0
  0
LINE
  5
213
100
AcDbEntity
  8
L1_120
  6
CONTINUOUS
 62
         7
100
AcDbLine
 10
1423.1275047567
 20
-238.8906455357
 30
0.0
 11
1424.1475989216
 21
-237.8705513707
 31
0.0
  0
LINE
  5
214
100
AcDbEntity
  8
L1_120
  6
CONTINUOUS
 62
         7
100
AcDbLine
 10
1427.4912343579
 20
-238.8906455357
 30
0.0
 11
1429.1525047567
 21
-237.8705513707
 31
0.0
  0
LINE
  5
215
100
AcDbEntity
  8
L1_120
  6
CONTINUOUS
 62
         7
100
AcDbLine
 10
1437.9074105918
 20
-237.8705513707
 30
0.0
 11
1424.1475989216
 21
-237.8705513707
 31
0.0
  0
LINE
  5
216
100
AcDbEntity
  8
L1_120
  6
CONTINUOUS
 62
         7
100
AcDbLine
 10
1437.9074105918
 20
-237.8705513707
 30
0.0
 11
1424.1475989216
 21
-237.8705513707
 31
0.0
  0
LINE
  5
217
100
AcDbEntity
  8
L1_120
  6
CONTINUOUS
 62
         7
100
AcDbLine
 10
1432.9025047567
 20
-237.8705513707
 30
0.0
 11
1434.5637751555
 21
-238.8906455357
 31
0.0
  0
LINE
  5
218
100
AcDbEntity
  8
L1_120
  6
CONTINUOUS
 62
         7
100
AcDbLine
 10
1434.5637751555
 20
-238.8906455357
 30
0.0
 11
1434.5637751555
 21
-273.7906455357
 31
0.0
  0
LINE
  5
219
100
AcDbEntity
  8
L1_120
  6
CONTINUOUS
 62
         7
100
AcDbLine
 10
1432.9025047567
 20
-237.8705513707
 30
0.0
 11
1432.9025047567
 21
-270.9132560741
 31
0.0
  0
LINE
  5
21A
100
AcDbEntity
  8
L1_120
  6
CONTINUOUS
 62
         7
100
AcDbLine
 10
1429.1525047567
 20
-237.8705513707
 30
0.0
 11
1429.1525047567
 21
-270.9132560741
 31
0.0
  0
LINE
  5
21B
100
AcDbEntity
  8
L1_120
  6
CONTINUOUS
 62
         7
100
AcDbLine
 10
1427.4912343579
 20
-238.8906455357
 30
0.0
 11
1427.4912343579
 21
-273.7906455357
 31
0.0
  0
LINE
  5
21C
100
AcDbEntity
  8
L1_120
  6
CONTINUOUS
 62
         7
100
AcDbLine
 10
1439.0275047567
 20
-211.1906455357
 30
0.0
 11
1434.5637751555
 21
-211.1906455357
 31
0.0
  0
LINE
  5
21D
100
AcDbEntity
  8
L1_120
  6
CONTINUOUS
 62
         7
100
AcDbLine
 10
1427.4912343579
 20
-211.1906455357
 30
0.0
 11
1429.1525047567
 21
-212.2107397006
 31
0.0
  0
LINE
  5
21E
100
AcDbEntity
  8
L1_120
  6
CONTINUOUS
 62
         7
100
AcDbLine
 10
1423.1275047567
 20
-211.1906455357
 30
0.0
 11
1424.1475989216
 21
-212.2107397006
 31
0.0
  0
LINE
  5
21F
100
AcDbEntity
  8
L1_120
  6
CONTINUOUS
 62
         7
100
AcDbLine
 10
1427.4912343579
 20
-211.1906455357
 30
0.0
 11
1423.1275047567
 21
-211.1906455357
 31
0.0
  0
LINE
  5
220
100
AcDbEntity
  8
L1_120
  6
CONTINUOUS
 62
         7
100
AcDbLine
 10
1437.9074105918
 20
-212.2107397006
 30
0.0
 11
1424.1475989216
 21
-212.2107397006
 31
0.0
  0
LINE
  5
221
100
AcDbEntity
  8
L1_120
  6
CONTINUOUS
 62
         7
100
AcDbLine
 10
1437.9074105918
 20
-212.2107397006
 30
0.0
 11
1424.1475989216
 21
-212.2107397006
 31
0.0
  0
LINE
  5
222
100
AcDbEntity
  8
L1_120
  6
CONTINUOUS
 62
         7
100
AcDbLine
 10
1432.9025047567
 20
-212.2107397006
 30
0.0
 11
1434.5637751555
 21
-211.1906455357
 31
0.0
  0
LINE
  5
223
100
AcDbEntity
  8
L1_120
  6
CONTINUOUS
 62
         7
100
AcDbLine
 10
1438.9275047567
 20
-211.1906455357
 30
0.0
 11
1437.9074105918
 21
-212.2107397006
 31
0.0
  0
LINE
  5
224
100
AcDbEntity
  8
L1_120
  6
CONTINUOUS
 62
         7
100
AcDbLine
 10
1434.5637751555
 20
-176.2906455357
 30
0.0
 11
1434.5637751555
 21
-211.1906455357
 31
0.0
  0
LINE
  5
225
100
AcDbEntity
  8
L1_120
  6
CONTINUOUS
 62
         7
100
AcDbLine
 10
1432.9025047567
 20
-179.1680349972
 30
0.0
 11
1432.9025047567
 21
-212.2107397006
 31
0.0
  0
LINE
  5
226
100
AcDbEntity
  8
L1_120
  6
CONTINUOUS
 62
         7
100
AcDbLine
 10
1429.1525047567
 20
-179.1680349972
 30
0.0
 11
1429.1525047567
 21
-212.2107397006
 31
0.0
  0
LINE
  5
227
100
AcDbEntity
  8
L1_120
  6
CONTINUOUS
 62
         7
100
AcDbLine
 10
1427.4912343579
 20
-176.2906455357
 30
0.0
 11
1427.4912343579
 21
-211.1906455357
 31
0.0
  0
LINE
  5
228
100
AcDbEntity
  8
L1_120
  6
CONTINUOUS
 62
         7
100
AcDbLine
 10
1423.1275047567
 20
-271.2906455357
 30
0.0
 11
1423.1275047567
 21
-273.2906455357
 31
0.0
  0
LINE
  5
229
100
AcDbEntity
  8
L1_120
  6
CONTINUOUS
 62
         7
100
AcDbLine
 10
1439.0275047567
 20
-271.2906455357
 30
0.0
 11
1439.0275047567
 21
-273.2906455357
 31
0.0
  0
LINE
  5
22A
100
AcDbEntity
  8
L1_120
  6
CONTINUOUS
 62
         7
100
AcDbLine
 10
1436.5275047567
 20
-273.7906455357
 30
0.0
 11
1438.5275047567
 21
-273.7906455357
 31
0.0
  0
LINE
  5
22B
100
AcDbEntity
  8
L1_120
  6
CONTINUOUS
 62
         7
100
AcDbLine
 10
1423.6275047567
 20
-273.7906455357
 30
0.0
 11
1425.6275047567
 21
-273.7906455357
 31
0.0
  0
LINE
  5
22C
100
AcDbEntity
  8
L1_120
  6
CONTINUOUS
 62
         7
100
AcDbLine
 10
1439.0275047567
 20
-176.7906455357
 30
0.0
 11
1439.0275047567
 21
-178.7906455357
 31
0.0
  0
LINE
  5
22D
100
AcDbEntity
  8
L1_120
  6
CONTINUOUS
 62
         7
100
AcDbLine
 10
1436.5275047567
 20
-176.2906455357
 30
0.0
 11
1438.5275047567
 21
-176.2906455357
 31
0.0
  0
LINE
  5
22E
100
AcDbEntity
  8
L1_120
  6
CONTINUOUS
 62
         7
100
AcDbLine
 10
1423.6275047567
 20
-176.2906455357
 30
0.0
 11
1425.6275047567
 21
-176.2906455357
 31
0.0
  0
LINE
  5
22F
100
AcDbEntity
  8
L1_120
  6
CONTINUOUS
 62
         7
100
AcDbLine
 10
1423.1275047567
 20
-176.7906455357
 30
0.0
 11
1423.1275047567
 21
-178.7906455357
 31
0.0
  0
LINE
  5
230
100
AcDbEntity
  8
L1_120
  6
CONTINUOUS
 62
         7
100
AcDbLine
 10
1423.6275047567
 20
-176.2906455357
 30
0.0
 11
1423.1275047567
 21
-176.7906455357
 31
0.0
  0
LINE
  5
231
100
AcDbEntity
  8
L1_120
  6
CONTINUOUS
 62
         7
100
AcDbLine
 10
1438.5275047567
 20
-176.2906455357
 30
0.0
 11
1439.0275047567
 21
-176.7906455357
 31
0.0
  0
LINE
  5
232
100
AcDbEntity
  8
L1_120
  6
CONTINUOUS
 62
         7
100
AcDbLine
 10
1423.1275047567
 20
-273.2906455357
 30
0.0
 11
1423.6275047567
 21
-273.7906455357
 31
0.0
  0
LINE
  5
233
100
AcDbEntity
  8
L1_120
  6
CONTINUOUS
 62
         7
100
AcDbLine
 10
1438.5275047567
 20
-273.7906455357
 30
0.0
 11
1439.0275047567
 21
-273.2906455357
 31
0.0
  0
LINE
  5
234
100
AcDbEntity
  8
L1_120
  6
CONTINUOUS
 62
         7
100
AcDbLine
 10
1422.3275047567
 20
-189.940643888
 30
0.0
 11
1421.1275047567
 21
-189.940643888
 31
0.0
  0
ARC
  5
235
100
AcDbEntity
  8
L1_120
  6
CONTINUOUS
 62
         7
100
AcDbCircle
 10
1422.3275047567
 20
-189.140643888
 30
0.0
 40
0.8
100
AcDbArc
 50
270.0
 51
360.0
  0
LINE
  5
236
100
AcDbEntity
  8
L1_120
  6
CONTINUOUS
 62
         7
100
AcDbLine
 10
1422.3275047567
 20
-260.1406471833
 30
0.0
 11
1421.1275047567
 21
-260.1406471833
 31
0.0
  0
ARC
  5
237
100
AcDbEntity
  8
L1_120
  6
CONTINUOUS
 62
         7
100
AcDbCircle
 10
1422.3275047567
 20
-260.9406471833
 30
0.0
 40
0.8
100
AcDbArc
 50
0.0
 51
90.0000000001
  0
LINE
  5
238
100
AcDbEntity
  8
L1_120
  6
CENTER
 62
         1
100
AcDbLine
 10
1315.9340030258
 20
-225.0406455357
 30
0.0
 11
1499.9270047567
 21
-225.0406455357
 31
0.0
  0
LINE
  5
239
100
AcDbEntity
  8
L1_120
  6
CONTINUOUS
 62
         7
100
AcDbLine
 10
1318.3275047567
 20
-213.8064638192
 30
0.0
 11
1318.3275047567
 21
-236.2748272521
 31
0.0
  0
LINE
  5
23A
100
AcDbEntity
  8
L1_120
  6
CENTER
 62
         1
100
AcDbLine
 10
1315.9340030258
 20
-338.1686220057
 30
0.0
 11
1500.0775047567
 21
-338.1686220057
 31
0.0
  0
ARC
  5
23B
100
AcDbEntity
  8
L1_120
  6
CONTINUOUS
 62
         7
100
AcDbCircle
 10
1442.0275047567
 20
-205.041010117
 30
0.0
 40
3.0
100
AcDbArc
 50
180.0
 51
270.0
  0
ARC
  5
23C
100
AcDbEntity
  8
L1_120
  6
CONTINUOUS
 62
         7
100
AcDbCircle
 10
1498.9270047567
 20
-237.6166196253
 30
0.0
 40
1.0
100
AcDbArc
 50
274.5
 51
360.0
  0
LINE
  5
23D
100
AcDbEntity
  8
L1_120
  6
CONTINUOUS
 62
         7
100
AcDbLine
 10
1499.9270047567
 20
-212.4654006087
 30
0.0
 11
1499.9270047567
 21
-237.6166196253
 31
0.0
  0
ARC
  5
23E
100
AcDbEntity
  8
L1_120
  6
CONTINUOUS
 62
         7
100
AcDbCircle
 10
1498.9270047567
 20
-212.4654006087
 30
0.0
 40
1.0
100
AcDbArc
 50
0.0
 51
85.5
  0
LINE
  5
23F
100
AcDbEntity
  8
L1_120
  6
CONTINUOUS
 62
         7
100
AcDbLine
 10
1499.0054638524
 20
-211.4684832749
 30
0.0
 11
1455.4552881801
 21
-208.041010117
 31
0.0
  0
LINE
  5
240
100
AcDbEntity
  8
L1_120
  6
CONTINUOUS
 62
         7
100
AcDbLine
 10
1442.0275047567
 20
-208.041010117
 30
0.0
 11
1455.4552881801
 21
-208.041010117
 31
0.0
  0
LINE
  5
241
100
AcDbEntity
  8
L1_120
  6
CONTINUOUS
 62
         4
100
AcDbLine
 10
1455.4552881801
 20
-208.041010117
 30
0.0
 11
1455.4552881801
 21
-242.041010117
 31
0.0
  0
LINE
  5
242
100
AcDbEntity
  8
L1_120
  6
CONTINUOUS
 62
         7
100
AcDbLine
 10
1442.0275047567
 20
-242.041010117
 30
0.0
 11
1455.4552881801
 21
-242.041010117
 31
0.0
  0
LINE
  5
243
100
AcDbEntity
  8
L1_120
  6
CONTINUOUS
 62
         7
100
AcDbLine
 10
1499.0054638524
 20
-238.6135369591
 30
0.0
 11
1455.4552881801
 21
-242.041010117
 31
0.0
  0
DIMENSION
  5
246
100
AcDbEntity
  8
L1_120
  6
CONTINUOUS
 62
         4
100
AcDbDimension
  2
*D2
 10
1521.6858885276
 20
-211.541010117
 30
0.0
 11
1517.6258885276
 21
-233.4850964898
 31
0.0
  3
DIMSTYLE1
100
AcDbAlignedDimension
 13
1499.9270047567
 23
-211.541010117
 33
0.0
 14
1499.9270047567
 24
-238.541010117
 34
0.0
 50
90.0
100
AcDbRotatedDimension
  0
DIMENSION
  5
254
100
AcDbEntity
  8
L1_120
  6
CONTINUOUS
 62
         4
100
AcDbDimension
  2
*D3
 10
1455.4552881801
 20
-208.041010117
 30
0.0
 11
1475.158675513
 21
-198.5495854195
 31
0.0
 70
         2
  3
DIMSTYLE1
100
AcDb2LineAngularDimension
 13
1442.2739023886
 23
-208.041010117
 33
0.0
 14
1455.4552881801
 24
-208.041010117
 34
0.0
 15
1492.6523614843
 25
-210.9684832749
 35
0.0
 16
1474.9463293001
 26
-209.5749883209
 36
0.0
  0
ARC
  5
263
100
AcDbEntity
  8
L1_120
  6
CONTINUOUS
 62
         5
100
AcDbCircle
 10
1446.6275047567
 20
-225.041010117
 30
0.0
 40
3.1
100
AcDbArc
 50
255.6314625717
 51
566.8646255141
  0
CIRCLE
  5
264
100
AcDbEntity
  8
L1_120
  6
CONTINUOUS
 62
         7
100
AcDbCircle
 10
1446.6275047567
 20
-225.041010117
 30
0.0
 40
2.6
  0
LINE
  5
265
100
AcDbEntity
  8
L1_120
  6
CENTER
 62
         1
100
AcDbLine
 10
1446.6275047567
 20
-243.541010117
 30
0.0
 11
1446.6275047567
 21
-206.541010117
 31
0.0
  0
ARC
  5
266
100
AcDbEntity
  8
L1_120
  6
CONTINUOUS
 62
         5
100
AcDbCircle
 10
1601.9828643139
 20
-225.0406455357
 30
0.0
 40
6.0
100
AcDbArc
 50
248.5131490743
 51
572.6786583671
  0
CIRCLE
  5
267
100
AcDbEntity
  8
L1_120
  6
CONTINUOUS
 62
         7
100
AcDbCircle
 10
1601.9828643139
 20
-225.0406455357
 30
0.0
 40
5.6
  0
CIRCLE
  5
268
100
AcDbEntity
  8
L1_120
  6
CONTINUOUS
 62
         7
100
AcDbCircle
 10
1601.9828643139
 20
-225.0406455357
 30
0.0
 40
7.991
  0
CIRCLE
  5
269
100
AcDbEntity
  8
L1_120
  6
CONTINUOUS
 62
         7
100
AcDbCircle
 10
1601.9828643139
 20
-225.0406455357
 30
0.0
 40
13.5
  0
CIRCLE
  5
26A
100
AcDbEntity
  8
L1_120
  6
CONTINUOUS
 62
         7
100
AcDbCircle
 10
1601.9828643139
 20
-225.0406455357
 30
0.0
 40
17.0
  0
LINE
  5
26B
100
AcDbEntity
  8
L1_120
  6
DASHED
 62
         4
100
AcDbLine
 10
1598.8828643139
 20
-215.0406455357
 30
0.0
 11
1598.8828643139
 21
-208.4013913711
 31
0.0
  0
LINE
  5
26C
100
AcDbEntity
  8
L1_120
  6
DASHED
 62
         4
100
AcDbLine
 10
1605.0828643139
 20
-215.0406455357
 30
0.0
 11
1605.0828643139
 21
-208.4013913711
 31
0.0
  0
LINE
  5
26D
100
AcDbEntity
  8
L1_120
  6
DASHED
 62
         2
100
AcDbLine
 10
1601.9828643139
 20
-216.5417562356
 30
0.0
 11
1599.3828643139
 21
-215.0406455357
 31
0.0
  0
LINE
  5
26E
100
AcDbEntity
  8
L1_120
  6
DASHED
 62
         2
100
AcDbLine
 10
1605.0828643139
 20
-215.0406455357
 30
0.0
 11
1598.8828643139
 21
-215.0406455357
 31
0.0
  0
LINE
  5
26F
100
AcDbEntity
  8
L1_120
  6
DASHED
 62
         2
100
AcDbLine
 10
1604.5828643139
 20
-215.0406455357
 30
0.0
 11
1599.3828643139
 21
-215.0406455357
 31
0.0
  0
LINE
  5
270
100
AcDbEntity
  8
L1_120
  6
DASHED
 62
         2
100
AcDbLine
 10
1601.9828643139
 20
-216.5417562356
 30
0.0
 11
1604.5828643139
 21
-215.0406455357
 31
0.0
  0
LINE
  5
271
100
AcDbEntity
  8
L1_120
  6
DASHED
 62
         2
100
AcDbLine
 10
1599.3828643139
 20
-215.0406455357
 30
0.0
 11
1599.3828643139
 21
-208.2933816672
 31
0.0
  0
LINE
  5
272
100
AcDbEntity
  8
L1_120
  6
DASHED
 62
         2
100
AcDbLine
 10
1604.5828643139
 20
-215.0406455357
 30
0.0
 11
1604.5828643139
 21
-208.2933816672
 31
0.0
  0
LINE
  5
273
100
AcDbEntity
  8
L1_120
  6
DASHED
 62
         4
100
AcDbLine
 10
1591.9828643139
 20
-228.1406455357
 30
0.0
 11
1585.3436101493
 21
-228.1406455357
 31
0.0
  0
LINE
  5
274
100
AcDbEntity
  8
L1_120
  6
DASHED
 62
         4
100
AcDbLine
 10
1591.9828643139
 20
-221.9406455357
 30
0.0
 11
1585.3436101493
 21
-221.9406455357
 31
0.0
  0
LINE
  5
275
100
AcDbEntity
  8
L1_120
  6
DASHED
 62
         2
100
AcDbLine
 10
1593.4839750138
 20
-225.0406455357
 30
0.0
 11
1591.9828643139
 21
-227.6406455357
 31
0.0
  0
LINE
  5
276
100
AcDbEntity
  8
L1_120
  6
DASHED
 62
         2
100
AcDbLine
 10
1591.9828643139
 20
-221.9406455357
 30
0.0
 11
1591.9828643139
 21
-228.1406455357
 31
0.0
  0
LINE
  5
277
100
AcDbEntity
  8
L1_120
  6
DASHED
 62
         2
100
AcDbLine
 10
1591.9828643139
 20
-222.4406455357
 30
0.0
 11
1591.9828643139
 21
-227.6406455357
 31
0.0
  0
LINE
  5
278
100
AcDbEntity
  8
L1_120
  6
DASHED
 62
         2
100
AcDbLine
 10
1593.4839750138
 20
-225.0406455357
 30
0.0
 11
1591.9828643139
 21
-222.4406455357
 31
0.0
  0
LINE
  5
279
100
AcDbEntity
  8
L1_120
  6
DASHED
 62
         2
100
AcDbLine
 10
1591.9828643139
 20
-227.6406455357
 30
0.0
 11
1585.2356004454
 21
-227.6406455357
 31
0.0
  0
LINE
  5
27A
100
AcDbEntity
  8
L1_120
  6
DASHED
 62
         2
100
AcDbLine
 10
1591.9828643139
 20
-222.4406455357
 30
0.0
 11
1585.2356004454
 21
-222.4406455357
 31
0.0
  0
LINE
  5
27B
100
AcDbEntity
  8
L1_120
  6
DASHED
 62
         4
100
AcDbLine
 10
1605.0828643139
 20
-235.0406455357
 30
0.0
 11
1605.0828643139
 21
-241.6798997002
 31
0.0
  0
LINE
  5
27C
100
AcDbEntity
  8
L1_120
  6
DASHED
 62
         4
100
AcDbLine
 10
1598.8828643139
 20
-235.0406455357
 30
0.0
 11
1598.8828643139
 21
-241.6798997002
 31
0.0
  0
LINE
  5
27D
100
AcDbEntity
  8
L1_120
  6
DASHED
 62
         2
100
AcDbLine
 10
1601.9828643139
 20
-233.5395348358
 30
0.0
 11
1604.5828643139
 21
-235.0406455357
 31
0.0
  0
LINE
  5
27E
100
AcDbEntity
  8
L1_120
  6
DASHED
 62
         2
100
AcDbLine
 10
1598.8828643139
 20
-235.0406455357
 30
0.0
 11
1605.0828643139
 21
-235.0406455357
 31
0.0
  0
LINE
  5
27F
100
AcDbEntity
  8
L1_120
  6
DASHED
 62
         2
100
AcDbLine
 10
1599.3828643139
 20
-235.0406455357
 30
0.0
 11
1604.5828643139
 21
-235.0406455357
 31
0.0
  0
LINE
  5
280
100
AcDbEntity
  8
L1_120
  6
DASHED
 62
         2
100
AcDbLine
 10
1601.9828643139
 20
-233.5395348358
 30
0.0
 11
1599.3828643139
 21
-235.0406455357
 31
0.0
  0
LINE
  5
281
100
AcDbEntity
  8
L1_120
  6
DASHED
 62
         2
100
AcDbLine
 10
1604.5828643139
 20
-235.0406455357
 30
0.0
 11
1604.5828643139
 21
-241.7879094041
 31
0.0
  0
LINE
  5
282
100
AcDbEntity
  8
L1_120
  6
DASHED
 62
         2
100
AcDbLine
 10
1599.3828643139
 20
-235.0406455357
 30
0.0
 11
1599.3828643139
 21
-241.7879094041
 31
0.0
  0
LINE
  5
283
100
AcDbEntity
  8
L1_120
  6
DASHED
 62
         4
100
AcDbLine
 10
1611.9828643139
 20
-221.9406455357
 30
0.0
 11
1618.6221184784
 21
-221.9406455357
 31
0.0
  0
LINE
  5
284
100
AcDbEntity
  8
L1_120
  6
DASHED
 62
         4
100
AcDbLine
 10
1611.9828643139
 20
-228.1406455357
 30
0.0
 11
1618.6221184784
 21
-228.1406455357
 31
0.0
  0
LINE
  5
285
100
AcDbEntity
  8
L1_120
  6
DASHED
 62
         2
100
AcDbLine
 10
1610.481753614
 20
-225.0406455357
 30
0.0
 11
1611.9828643139
 21
-222.4406455357
 31
0.0
  0
LINE
  5
286
100
AcDbEntity
  8
L1_120
  6
DASHED
 62
         2
100
AcDbLine
 10
1611.9828643139
 20
-228.1406455357
 30
0.0
 11
1611.9828643139
 21
-221.9406455357
 31
0.0
  0
LINE
  5
287
100
AcDbEntity
  8
L1_120
  6
DASHED
 62
         2
100
AcDbLine
 10
1611.9828643139
 20
-227.6406455357
 30
0.0
 11
1611.9828643139
 21
-222.4406455357
 31
0.0
  0
LINE
  5
288
100
AcDbEntity
  8
L1_120
  6
DASHED
 62
         2
100
AcDbLine
 10
1610.481753614
 20
-225.0406455357
 30
0.0
 11
1611.9828643139
 21
-227.6406455357
 31
0.0
  0
LINE
  5
289
100
AcDbEntity
  8
L1_120
  6
DASHED
 62
         2
100
AcDbLine
 10
1611.9828643139
 20
-222.4406455357
 30
0.0
 11
1618.7301281823
 21
-222.4406455357
 31
0.0
  0
LINE
  5
28A
100
AcDbEntity
  8
L1_120
  6
DASHED
 62
         2
100
AcDbLine
 10
1611.9828643139
 20
-227.6406455357
 30
0.0
 11
1618.7301281823
 21
-227.6406455357
 31
0.0
  0
CIRCLE
  5
28B
100
AcDbEntity
  8
L1_120
  6
DASHED
 62
         2
100
AcDbCircle
 10
1601.9828643139
 20
-225.0406455357
 30
0.0
 40
10.5
  0
ARC
  5
28C
100
AcDbEntity
  8
L1_120
  6
CONTINUOUS
 62
         7
100
AcDbCircle
 10
1442.3275047567
 20
-358.1689865871
 30
0.0
 40
3.0
100
AcDbArc
 50
90.0
 51
180.0
  0
ARC
  5
28D
100
AcDbEntity
  8
L1_120
  6
CONTINUOUS
 62
         7
100
AcDbCircle
 10
1442.3275047567
 20
-318.1689865871
 30
0.0
 40
3.0
100
AcDbArc
 50
180.0
 51
270.0
  0
ARC
  5
28E
100
AcDbEntity
  8
L1_120
  6
CONTINUOUS
 62
         7
100
AcDbCircle
 10
1446.9275047567
 20
-304.3682701101
 30
0.0
 40
17.0007080482
100
AcDbArc
 50
261.2029585925
 51
278.7970414075
  0
ARC
  5
28F
100
AcDbEntity
  8
L1_120
  6
CONTINUOUS
 62
         7
100
AcDbCircle
 10
1446.9275047567
 20
-371.9697143374
 30
0.0
 40
17.0007191889
100
AcDbArc
 50
81.202964403
 51
98.797035597
  0
LINE
  5
290
100
AcDbEntity
  8
L1_120
  6
CONTINUOUS
 62
         7
100
AcDbLine
 10
1446.9275047567
 20
-329.670097287
 30
0.0
 11
1444.3275047567
 21
-328.1689865871
 31
0.0
  0
LINE
  5
291
100
AcDbEntity
  8
L1_120
  6
CONTINUOUS
 62
         7
100
AcDbLine
 10
1446.9275047567
 20
-346.6678758872
 30
0.0
 11
1444.3275047567
 21
-348.1689865871
 31
0.0
  0
LINE
  5
292
100
AcDbEntity
  8
L1_120
  6
CONTINUOUS
 62
         7
100
AcDbLine
 10
1449.5275047567
 20
-328.1689865871
 30
0.0
 11
1449.5275047567
 21
-321.1689865871
 31
0.0
  0
LINE
  5
293
100
AcDbEntity
  8
L1_120
  6
CONTINUOUS
 62
         7
100
AcDbLine
 10
1449.5275047567
 20
-348.1689865871
 30
0.0
 11
1449.5275047567
 21
-355.1689865871
 31
0.0
  0
LINE
  5
294
100
AcDbEntity
  8
L1_120
  6
CONTINUOUS
 62
         7
100
AcDbLine
 10
1444.3275047567
 20
-328.1689865871
 30
0.0
 11
1444.3275047567
 21
-321.1689865871
 31
0.0
  0
LINE
  5
295
100
AcDbEntity
  8
L1_120
  6
CONTINUOUS
 62
         7
100
AcDbLine
 10
1444.3275047567
 20
-348.1689865871
 30
0.0
 11
1444.3275047567
 21
-355.1689865871
 31
0.0
  0
LINE
  5
296
100
AcDbEntity
  8
L1_120
  6
CONTINUOUS
 62
         7
100
AcDbLine
 10
1450.0275047567
 20
-328.1689865871
 30
0.0
 11
1443.8275047567
 21
-328.1689865871
 31
0.0
  0
LINE
  5
297
100
AcDbEntity
  8
L1_120
  6
CONTINUOUS
 62
         7
100
AcDbLine
 10
1449.5275047567
 20
-328.1689865871
 30
0.0
 11
1444.3275047567
 21
-328.1689865871
 31
0.0
  0
LINE
  5
298
100
AcDbEntity
  8
L1_120
  6
CONTINUOUS
 62
         7
100
AcDbLine
 10
1446.9275047567
 20
-346.6678758872
 30
0.0
 11
1449.5275047567
 21
-348.1689865871
 31
0.0
  0
LINE
  5
299
100
AcDbEntity
  8
L1_120
  6
CONTINUOUS
 62
         7
100
AcDbLine
 10
1446.9275047567
 20
-329.670097287
 30
0.0
 11
1449.5275047567
 21
-328.1689865871
 31
0.0
  0
LINE
  5
29A
100
AcDbEntity
  8
L1_120
  6
CONTINUOUS
 62
         7
100
AcDbLine
 10
1450.0275047567
 20
-348.1689865871
 30
0.0
 11
1443.8275047567
 21
-348.1689865871
 31
0.0
  0
LINE
  5
29B
100
AcDbEntity
  8
L1_120
  6
CONTINUOUS
 62
         7
100
AcDbLine
 10
1449.5275047567
 20
-348.1689865871
 30
0.0
 11
1444.3275047567
 21
-348.1689865871
 31
0.0
  0
LINE
  5
29C
100
AcDbEntity
  8
L1_120
  6
CONTINUOUS
 62
         4
100
AcDbLine
 10
1450.0275047567
 20
-328.1689865871
 30
0.0
 11
1450.0275047567
 21
-321.1689865871
 31
0.0
  0
LINE
  5
29D
100
AcDbEntity
  8
L1_120
  6
CONTINUOUS
 62
         4
100
AcDbLine
 10
1450.0275047567
 20
-348.1689865871
 30
0.0
 11
1450.0275047567
 21
-355.1689865871
 31
0.0
  0
LINE
  5
29E
100
AcDbEntity
  8
L1_120
  6
CONTINUOUS
 62
         4
100
AcDbLine
 10
1443.8275047567
 20
-328.1689865871
 30
0.0
 11
1443.8275047567
 21
-321.1689865871
 31
0.0
  0
LINE
  5
29F
100
AcDbEntity
  8
L1_120
  6
CONTINUOUS
 62
         4
100
AcDbLine
 10
1443.8275047567
 20
-348.1689865871
 30
0.0
 11
1443.8275047567
 21
-355.1689865871
 31
0.0
  0
LINE
  5
2A0
100
AcDbEntity
  8
L1_120
  6
CENTER
 62
         1
100
AcDbLine
 10
1446.9275047567
 20
-356.6689865871
 30
0.0
 11
1446.9275047567
 21
-319.6689865871
 31
0.0
  0
LINE
  5
2A1
100
AcDbEntity
  8
L1_120
  6
CONTINUOUS
 62
         7
100
AcDbLine
 10
1428.3421551767
 20
-327.7722805423
 30
0.0
 11
1428.342576159
 21
-348.5649634691
 31
0.0
  0
LINE
  5
2A2
100
AcDbEntity
  8
L1_120
  6
CONTINUOUS
 62
         7
100
AcDbLine
 10
1431.2270047567
 20
-332.7689865872
 30
0.0
 11
1428.3421551767
 21
-327.7722805423
 31
0.0
  0
LINE
  5
2A3
100
AcDbEntity
  8
L1_120
  6
CONTINUOUS
 62
         7
100
AcDbLine
 10
1431.2270047567
 20
-343.5689865872
 30
0.0
 11
1428.342576159
 21
-348.5649634691
 31
0.0
  0
LINE
  5
2A4
100
AcDbEntity
  8
L1_120
  6
CONTINUOUS
 62
         7
100
AcDbLine
 10
1431.2270047567
 20
-343.5689865872
 30
0.0
 11
1431.2270047567
 21
-332.7689865872
 31
0.0
  0
LINE
  5
2A5
100
AcDbEntity
  8
L1_120
  6
CONTINUOUS
 62
         7
100
AcDbLine
 10
1500.2270047567
 20
-350.7445960955
 30
0.0
 11
1500.2270047567
 21
-325.5933770788
 31
0.0
  0
ARC
  5
2A6
100
AcDbEntity
  8
L1_120
  6
CONTINUOUS
 62
         7
100
AcDbCircle
 10
1499.2270047567
 20
-347.1497365872
 30
0.0
 40
1.0
100
AcDbArc
 50
0.0
 51
90.0
  0
ARC
  5
2A7
100
AcDbEntity
  8
L1_120
  6
CONTINUOUS
 62
         7
100
AcDbCircle
 10
1499.2270047567
 20
-329.1882365872
 30
0.0
 40
1.0
100
AcDbArc
 50
270.0
 51
360.0
  0
LINE
  5
2A8
100
AcDbEntity
  8
L1_120
  6
CONTINUOUS
 62
         7
100
AcDbLine
 10
1461.2270047567
 20
-330.1882365872
 30
0.0
 11
1499.2270047567
 21
-330.1882365872
 31
0.0
  0
LINE
  5
2A9
100
AcDbEntity
  8
L1_120
  6
CONTINUOUS
 62
         7
100
AcDbLine
 10
1461.2270047567
 20
-346.1497365872
 30
0.0
 11
1499.2270047567
 21
-346.1497365872
 31
0.0
  0
LINE
  5
2AA
100
AcDbEntity
  8
L1_120
  6
CONTINUOUS
 62
         7
100
AcDbLine
 10
1451.2270047567
 20
-346.6689865872
 30
0.0
 11
1461.2270047567
 21
-346.6689865872
 31
0.0
  0
LINE
  5
2AB
100
AcDbEntity
  8
L1_120
  6
CONTINUOUS
 62
         7
100
AcDbLine
 10
1461.2270047567
 20
-329.6689865872
 30
0.0
 11
1461.2270047567
 21
-346.6689865872
 31
0.0
  0
LINE
  5
2AC
100
AcDbEntity
  8
L1_120
  6
CONTINUOUS
 62
         7
100
AcDbLine
 10
1451.2270047567
 20
-329.6689865872
 30
0.0
 11
1461.2270047567
 21
-329.6689865872
 31
0.0
  0
LINE
  5
2AD
100
AcDbEntity
  8
L1_120
  6
CONTINUOUS
 62
         7
100
AcDbLine
 10
1451.2270047567
 20
-329.6689865872
 30
0.0
 11
1451.2270047567
 21
-346.6689865872
 31
0.0
  0
LINE
  5
2AE
100
AcDbEntity
  8
L1_120
  6
CONTINUOUS
 62
         7
100
AcDbLine
 10
1431.2270047567
 20
-343.5689865872
 30
0.0
 11
1451.2270047567
 21
-343.5689865872
 31
0.0
  0
LINE
  5
2AF
100
AcDbEntity
  8
L1_120
  6
CONTINUOUS
 62
         4
100
AcDbLine
 10
1430.9383296221
 20
-344.0689865872
 30
0.0
 11
1451.2270047567
 21
-344.0689865872
 31
0.0
  0
LINE
  5
2B0
100
AcDbEntity
  8
L1_120
  6
CONTINUOUS
 62
         4
100
AcDbLine
 10
1430.9383296221
 20
-332.2689865872
 30
0.0
 11
1451.2270047567
 21
-332.2689865872
 31
0.0
  0
LINE
  5
2B1
100
AcDbEntity
  8
L1_120
  6
CONTINUOUS
 62
         7
100
AcDbLine
 10
1431.2270047567
 20
-332.7689865872
 30
0.0
 11
1451.2270047567
 21
-332.7689865872
 31
0.0
  0
LINE
  5
2B2
100
AcDbEntity
  8
L1_120
  6
CONTINUOUS
 62
         7
100
AcDbLine
 10
1442.3275047567
 20
-321.1689865871
 30
0.0
 11
1455.7552881795
 21
-321.1689865871
 31
0.0
  0
LINE
  5
2B3
100
AcDbEntity
  8
L1_120
  6
CONTINUOUS
 62
         7
100
AcDbLine
 10
1455.7552881801
 20
-355.1689865872
 30
0.0
 11
1499.3054638524
 21
-351.7415134293
 31
0.0
  0
LINE
  5
2B4
100
AcDbEntity
  8
L1_120
  6
CONTINUOUS
 62
         7
100
AcDbLine
 10
1442.3275047567
 20
-355.1689865871
 30
0.0
 11
1455.7552881808
 21
-355.1689865871
 31
0.0
  0
ARC
  5
2B5
100
AcDbEntity
  8
L1_120
  6
CONTINUOUS
 62
         7
100
AcDbCircle
 10
1499.2270047567
 20
-325.5933770788
 30
0.0
 40
1.0
100
AcDbArc
 50
0.0
 51
85.5
  0
LINE
  5
2B6
100
AcDbEntity
  8
L1_120
  6
CONTINUOUS
 62
         7
100
AcDbLine
 10
1455.7552881795
 20
-321.1689865871
 30
0.0
 11
1499.3054638524
 21
-324.5964597451
 31
0.0
  0
ARC
  5
2B7
100
AcDbEntity
  8
L1_120
  6
CONTINUOUS
 62
         7
100
AcDbCircle
 10
1499.2270047567
 20
-350.7445960955
 30
0.0
 40
1.0
100
AcDbArc
 50
274.5
 51
360.0
  0
LINE
  5
2B8
100
AcDbEntity
  8
L1_120
  6
CONTINUOUS
 62
         7
100
AcDbLine
 10
1433.6921765455
 20
-299.467903346
 30
0.0
 11
1433.8304023408
 21
-299.8476755973
 31
0.0
  0
LINE
  5
2B9
100
AcDbEntity
  8
L1_120
  6
CONTINUOUS
 62
         7
100
AcDbLine
 10
1433.8304023408
 20
-299.8476755973
 30
0.0
 11
1436.3583490031
 21
-301.9688747092
 31
0.0
  0
LINE
  5
2BA
100
AcDbEntity
  8
L1_120
  6
CONTINUOUS
 62
         7
100
AcDbLine
 10
1436.756354318
 20
-302.0390537847
 30
0.0
 11
1436.3583490031
 21
-301.9688747092
 31
0.0
  0
LINE
  5
2BB
100
AcDbEntity
  8
L1_120
  6
CONTINUOUS
 62
         4
100
AcDbLine
 10
1433.6921765455
 20
-299.467903346
 30
0.0
 11
1436.756354318
 21
-302.0390537847
 31
0.0
  0
LINE
  5
2BC
100
AcDbEntity
  8
L1_120
  6
CONTINUOUS
 62
         7
100
AcDbLine
 10
1434.1412014415
 20
-303.6704331865
 30
0.0
 11
1431.5249162175
 21
-304.8904270224
 31
0.0
  0
LINE
  5
2BD
100
AcDbEntity
  8
L1_120
  6
CONTINUOUS
 62
         7
100
AcDbLine
 10
1434.1412014415
 20
-303.6704331865
 30
0.0
 11
1434.3927983992
 21
-300.794666801
 31
0.0
  0
LINE
  5
2BE
100
AcDbEntity
  8
L1_120
  6
CONTINUOUS
 62
         7
100
AcDbLine
 10
1431.5249162175
 20
-304.8904270224
 30
0.0
 11
1434.3927983992
 21
-300.794666801
 31
0.0
  0
LINE
  5
2BF
100
AcDbEntity
  8
L1_120
  6
CONTINUOUS
 62
         7
100
AcDbLine
 10
1426.9263210185
 20
-294.8951570313
 30
0.0
 11
1423.4275047567
 21
-292.44525951
 31
0.0
  0
LINE
  5
2C0
100
AcDbEntity
  8
L1_120
  6
CENTER
 62
         1
100
AcDbLine
 10
1435.5133236171
 20
-304.32600983
 30
0.0
 11
1422.3567383181
 21
-295.1136696265
 31
0.0
  0
LINE
  5
2C1
100
AcDbEntity
  8
L1_120
  6
CONTINUOUS
 62
         7
100
AcDbLine
 10
1423.4561835785
 20
-299.8510268992
 30
0.0
 11
1426.8976421966
 21
-294.9361146335
 31
0.0
  0
LINE
  5
2C2
100
AcDbEntity
  8
L1_120
  6
CONTINUOUS
 62
         7
100
AcDbLine
 10
1430.296188151
 20
-304.0300623679
 30
0.0
 11
1423.7429717967
 21
-299.4414508771
 31
0.0
  0
LINE
  5
2C3
100
AcDbEntity
  8
L1_120
  6
CONTINUOUS
 62
         4
100
AcDbLine
 10
1427.5519438
 20
-302.718909081
 30
0.0
 11
1423.4561835785
 21
-299.8510268992
 31
0.0
  0
LINE
  5
2C4
100
AcDbEntity
  8
L1_120
  6
CONTINUOUS
 62
         7
100
AcDbLine
 10
1439.3275047567
 20
-298.9748760122
 30
0.0
 11
1436.756354318
 21
-302.0390537847
 31
0.0
  0
LINE
  5
2C5
100
AcDbEntity
  8
L1_120
  6
CONTINUOUS
 62
         7
100
AcDbLine
 10
1439.3275047567
 20
-292.7519807048
 30
0.0
 11
1433.6921765455
 21
-299.467903346
 31
0.0
  0
LINE
  5
2C6
100
AcDbEntity
  8
L1_120
  6
CONTINUOUS
 62
         7
100
AcDbLine
 10
1427.5519438
 20
-302.718909081
 30
0.0
 11
1430.9934024181
 21
-297.8039968152
 31
0.0
  0
LINE
  5
2C7
100
AcDbEntity
  8
L1_120
  6
CONTINUOUS
 62
         7
100
AcDbLine
 10
1429.6775047567
 20
-296.8825953532
 30
0.0
 11
1430.9934024181
 21
-297.8039968152
 31
0.0
  0
LINE
  5
2C8
100
AcDbEntity
  8
L1_120
  6
CONTINUOUS
 62
         4
100
AcDbLine
 10
1426.8976421966
 20
-294.9361146335
 30
0.0
 11
1430.9934024181
 21
-297.8039968152
 31
0.0
  0
LINE
  5
2C9
100
AcDbEntity
  8
L1_120
  6
CONTINUOUS
 62
         7
100
AcDbLine
 10
1426.8976421966
 20
-294.9361146335
 30
0.0
 11
1426.9263210185
 21
-294.8951570313
 31
0.0
  0
LINE
  5
2CA
100
AcDbEntity
  8
L1_120
  6
CONTINUOUS
 62
         7
100
AcDbLine
 10
1433.1640703328
 20
-299.9343021464
 30
0.0
 11
1426.6108539785
 21
-295.3456906556
 31
0.0
  0
LINE
  5
2CB
100
AcDbEntity
  8
L1_120
  6
CONTINUOUS
 62
         7
100
AcDbLine
 10
1434.3927983992
 20
-300.794666801
 30
0.0
 11
1433.1640703328
 21
-299.9343021464
 31
0.0
  0
LINE
  5
2CC
100
AcDbEntity
  8
L1_120
  6
CONTINUOUS
 62
         7
100
AcDbLine
 10
1433.5380087841
 20
-300.1961366689
 30
0.0
 11
1433.8304023408
 21
-299.8476755973
 31
0.0
  0
LINE
  5
2CD
100
AcDbEntity
  8
L1_120
  6
CONTINUOUS
 62
         4
100
AcDbLine
 10
1433.5380087841
 20
-300.1961366689
 30
0.0
 11
1430.3117940145
 21
-304.0409897111
 31
0.0
  0
LINE
  5
2CE
100
AcDbEntity
  8
L1_120
  6
CONTINUOUS
 62
         4
100
AcDbLine
 10
1431.5249162175
 20
-304.8904270224
 30
0.0
 11
1430.296188151
 21
-304.0300623679
 31
0.0
  0
LINE
  5
2CF
100
AcDbEntity
  8
L1_120
  6
CONTINUOUS
 62
         7
100
AcDbLine
 10
1436.3583490031
 20
-301.9688747092
 30
0.0
 11
1414.7067206854
 21
-327.7722805423
 31
0.0
  0
ARC
  5
2D0
100
AcDbEntity
  8
L1_120
  6
CONTINUOUS
 62
         7
100
AcDbCircle
 10
1422.6275047567
 20
-374.0686236533
 30
0.0
 40
0.8
100
AcDbArc
 50
0.0
 51
90.0000000001
  0
LINE
  5
2D1
100
AcDbEntity
  8
L1_120
  6
CONTINUOUS
 62
         7
100
AcDbLine
 10
1422.6275047567
 20
-373.2686236533
 30
0.0
 11
1421.4275047567
 21
-373.2686236533
 31
0.0
  0
ARC
  5
2D2
100
AcDbEntity
  8
L1_120
  6
CONTINUOUS
 62
         7
100
AcDbCircle
 10
1422.6275047567
 20
-302.2686203581
 30
0.0
 40
0.8
100
AcDbArc
 50
270.0
 51
360.0
  0
LINE
  5
2D3
100
AcDbEntity
  8
L1_120
  6
CONTINUOUS
 62
         7
100
AcDbLine
 10
1422.6275047567
 20
-303.0686203581
 30
0.0
 11
1421.4275047567
 21
-303.0686203581
 31
0.0
  0
LINE
  5
2D4
100
AcDbEntity
  8
L1_120
  6
CONTINUOUS
 62
         7
100
AcDbLine
 10
1438.8275047567
 20
-386.9186220057
 30
0.0
 11
1439.3275047567
 21
-386.4186220057
 31
0.0
  0
LINE
  5
2D5
100
AcDbEntity
  8
L1_120
  6
CONTINUOUS
 62
         7
100
AcDbLine
 10
1423.4275047567
 20
-386.4186220057
 30
0.0
 11
1423.9275047567
 21
-386.9186220057
 31
0.0
  0
LINE
  5
2D6
100
AcDbEntity
  8
L1_120
  6
CONTINUOUS
 62
         7
100
AcDbLine
 10
1438.8275047567
 20
-289.4186220057
 30
0.0
 11
1439.3275047567
 21
-289.9186220057
 31
0.0
  0
LINE
  5
2D7
100
AcDbEntity
  8
L1_120
  6
CONTINUOUS
 62
         7
100
AcDbLine
 10
1423.9275047567
 20
-289.4186220057
 30
0.0
 11
1423.4275047567
 21
-289.9186220057
 31
0.0
  0
LINE
  5
2D8
100
AcDbEntity
  8
L1_120
  6
CONTINUOUS
 62
         7
100
AcDbLine
 10
1423.4275047567
 20
-384.4186220057
 30
0.0
 11
1423.4275047567
 21
-386.4186220057
 31
0.0
  0
LINE
  5
2D9
100
AcDbEntity
  8
L1_120
  6
CONTINUOUS
 62
         7
100
AcDbLine
 10
1439.3275047567
 20
-358.1689865871
 30
0.0
 11
1439.3275047567
 21
-386.4186220057
 31
0.0
  0
LINE
  5
2DA
100
AcDbEntity
  8
L1_120
  6
CONTINUOUS
 62
         7
100
AcDbLine
 10
1436.8275047567
 20
-386.9186220057
 30
0.0
 11
1438.8275047567
 21
-386.9186220057
 31
0.0
  0
LINE
  5
2DB
100
AcDbEntity
  8
L1_120
  6
CONTINUOUS
 62
         7
100
AcDbLine
 10
1423.9275047567
 20
-386.9186220057
 30
0.0
 11
1425.9275047567
 21
-386.9186220057
 31
0.0
  0
LINE
  5
2DC
100
AcDbEntity
  8
L1_120
  6
CONTINUOUS
 62
         7
100
AcDbLine
 10
1439.3275047567
 20
-289.9186220057
 30
0.0
 11
1439.3275047567
 21
-318.1689865871
 31
0.0
  0
LINE
  5
2DD
100
AcDbEntity
  8
L1_120
  6
CONTINUOUS
 62
         7
100
AcDbLine
 10
1436.8275047567
 20
-289.4186220057
 30
0.0
 11
1438.8275047567
 21
-289.4186220057
 31
0.0
  0
LINE
  5
2DE
100
AcDbEntity
  8
L1_120
  6
CONTINUOUS
 62
         7
100
AcDbLine
 10
1423.9275047567
 20
-289.4186220057
 30
0.0
 11
1425.9275047567
 21
-289.4186220057
 31
0.0
  0
LINE
  5
2DF
100
AcDbEntity
  8
L1_120
  6
CONTINUOUS
 62
         7
100
AcDbLine
 10
1423.4275047567
 20
-289.9186220057
 30
0.0
 11
1423.4275047567
 21
-302.2686203581
 31
0.0
  0
ARC
  5
2E0
100
AcDbEntity
  8
L1_120
  6
CONTINUOUS
 62
         7
100
AcDbCircle
 10
1432.7708804297
 20
-292.0436220057
 30
0.0
 40
0.5
100
AcDbArc
 50
270.0
 51
330.0
  0
ARC
  5
2E1
100
AcDbEntity
  8
L1_120
  6
CONTINUOUS
 62
         7
100
AcDbCircle
 10
1429.8841290837
 20
-292.0436220057
 30
0.0
 40
0.5
100
AcDbArc
 50
210.0
 51
270.0
  0
LINE
  5
2E2
100
AcDbEntity
  8
L1_120
  6
CONTINUOUS
 62
         7
100
AcDbLine
 10
1423.4275047567
 20
-290.9186220057
 30
0.0
 11
1423.4275047567
 21
-302.2686203581
 31
0.0
  0
LINE
  5
2E3
100
AcDbEntity
  8
L1_120
  6
CONTINUOUS
 62
         7
100
AcDbLine
 10
1429.8841290837
 20
-292.5436220057
 30
0.0
 11
1432.7708804297
 21
-292.5436220057
 31
0.0
  0
LINE
  5
2E4
100
AcDbEntity
  8
L1_120
  6
CONTINUOUS
 62
         7
100
AcDbLine
 10
1433.2038931316
 20
-292.2936220057
 30
0.0
 11
1434.8637751555
 21
-289.4186220057
 31
0.0
  0
LINE
  5
2E5
100
AcDbEntity
  8
L1_120
  6
CONTINUOUS
 62
         7
100
AcDbLine
 10
1424.9275047567
 20
-289.4186220057
 30
0.0
 11
1427.7912343579
 21
-289.4186220057
 31
0.0
  0
LINE
  5
2E6
100
AcDbEntity
  8
L1_120
  6
CONTINUOUS
 62
         7
100
AcDbLine
 10
1429.8841290837
 20
-292.5436220057
 30
0.0
 11
1432.7708804297
 21
-292.5436220057
 31
0.0
  0
ARC
  5
2E7
100
AcDbEntity
  8
L1_120
  6
CONTINUOUS
 62
         7
100
AcDbCircle
 10
1429.8841290837
 20
-292.0436220057
 30
0.0
 40
0.5
100
AcDbArc
 50
210.0
 51
270.0
  0
ARC
  5
2E8
100
AcDbEntity
  8
L1_120
  6
CONTINUOUS
 62
         7
100
AcDbCircle
 10
1432.7708804297
 20
-292.0436220057
 30
0.0
 40
0.5
100
AcDbArc
 50
270.0
 51
330.0
  0
LINE
  5
2E9
100
AcDbEntity
  8
L1_120
  6
CONTINUOUS
 62
         7
100
AcDbLine
 10
1429.4511163819
 20
-292.2936220057
 30
0.0
 11
1427.7912343579
 21
-289.4186220057
 31
0.0
  0
LINE
  5
2EA
100
AcDbEntity
  8
L1_120
  6
CONTINUOUS
 62
         7
100
AcDbLine
 10
1434.8637751555
 20
-289.4186220057
 30
0.0
 11
1437.8275047567
 21
-289.4186220057
 31
0.0
  0
LINE
  5
2EB
100
AcDbEntity
  8
L1_120
  6
CONTINUOUS
 62
         7
100
AcDbLine
 10
1433.3482306989
 20
-384.2936220057
 30
0.0
 11
1434.8637751555
 21
-386.9186220057
 31
0.0
  0
LINE
  5
2EC
100
AcDbEntity
  8
L1_120
  6
CONTINUOUS
 62
         7
100
AcDbLine
 10
1423.4275047567
 20
-374.0686236533
 30
0.0
 11
1423.4275047567
 21
-385.4186220057
 31
0.0
  0
LINE
  5
2ED
100
AcDbEntity
  8
L1_120
  6
CONTINUOUS
 62
         7
100
AcDbLine
 10
1429.8841290837
 20
-383.7936220057
 30
0.0
 11
1432.4822052951
 21
-383.7936220057
 31
0.0
  0
LINE
  5
2EE
100
AcDbEntity
  8
L1_120
  6
CONTINUOUS
 62
         7
100
AcDbLine
 10
1424.9275047567
 20
-386.9186220057
 30
0.0
 11
1427.7912343579
 21
-386.9186220057
 31
0.0
  0
LINE
  5
2EF
100
AcDbEntity
  8
L1_120
  6
CONTINUOUS
 62
         7
100
AcDbLine
 10
1429.4511163819
 20
-384.0436220057
 30
0.0
 11
1427.7912343579
 21
-386.9186220057
 31
0.0
  0
ARC
  5
2F0
100
AcDbEntity
  8
L1_120
  6
CONTINUOUS
 62
         7
100
AcDbCircle
 10
1429.8841290837
 20
-384.2936220057
 30
0.0
 40
0.5
100
AcDbArc
 50
90.0
 51
150.0
  0
LINE
  5
2F1
100
AcDbEntity
  8
L1_120
  6
CONTINUOUS
 62
         7
100
AcDbLine
 10
1434.8637751555
 20
-386.9186220057
 30
0.0
 11
1437.8275047567
 21
-386.9186220057
 31
0.0
  0
ARC
  5
2F2
100
AcDbEntity
  8
L1_120
  6
CONTINUOUS
 62
         7
100
AcDbCircle
 10
1432.4822052951
 20
-384.7936220057
 30
0.0
 40
1.0
100
AcDbArc
 50
30.0
 51
90.0
  0
LINE
  5
2F3
100
AcDbEntity
  8
L1_120
  6
CONTINUOUS
 62
         7
100
AcDbLine
 10
1410.3988766306
 20
-327.7722805423
 30
0.0
 11
1430.3117940145
 21
-304.0409897111
 31
0.0
  0
LINE
  5
2F4
100
AcDbEntity
  8
L1_120
  6
CONTINUOUS
 62
         7
100
AcDbLine
 10
1326.7468487183
 20
-348.5649634691
 30
0.0
 11
1428.342576159
 21
-348.5649634691
 31
0.0
  0
LINE
  5
2F5
100
AcDbEntity
  8
L1_120
  6
CONTINUOUS
 62
         7
100
AcDbLine
 10
1326.7468487183
 20
-327.7722805423
 30
0.0
 11
1428.3421551767
 21
-327.7722805423
 31
0.0
  0
INSERT
  5
363
100
AcDbEntity
  8
0
  6
CONTINUOUS
100
AcDbBlockReference
  2
*X4
 10
0.0
 20
0.0
 30
0.0
  0
DIMENSION
  5
366
100
AcDbEntity
  8
L1_120
  6
CONTINUOUS
 62
         4
100
AcDbDimension
  2
*D5
 10
1533.3407624607
 20
-208.041010117
 30
0.0
 11
1529.2807624607
 21
-233.0798566023
 31
0.0
  3
DIMSTYLE1
100
AcDbAlignedDimension
 13
1455.4552881801
 23
-208.041010117
 33
0.0
 14
1455.4552881801
 24
-242.041010117
 34
0.0
 50
90.0
100
AcDbRotatedDimension
  0
DIMENSION
  5
374
100
AcDbEntity
  8
L1_120
  6
CONTINUOUS
 62
         4
100
AcDbDimension
  2
*D6
 10
1451.2270047567
 20
-371.1880443187
 30
0.0
 11
1472.124209418
 21
-367.1280443187
 31
0.0
  3
DIMSTYLE1
100
AcDbAlignedDimension
 13
1451.2270047567
 23
-346.6689865872
 33
0.0
 14
1500.2270047567
 24
-350.7445960955
 34
0.0
100
AcDbRotatedDimension
  0
CIRCLE
  5
380
100
AcDbEntity
  8
L1_120
  6
CONTINUOUS
 62
         7
100
AcDbCircle
 10
1534.3938903695
 20
-298.5724758877
 30
0.0
 40
2.5
  0
LINE
  5
381
100
AcDbEntity
  8
L1_120
  6
CENTER
 62
         1
100
AcDbLine
 10
1575.9417918262
 20
-298.5724758877
 30
0.0
 11
1550.0078518382
 21
-298.5724758877
 31
0.0
  0
LINE
  5
382
100
AcDbEntity
  8
L1_120
  6
CONTINUOUS
 62
         7
100
AcDbLine
 10
1553.4804454246
 20
-292.5724758877
 30
0.0
 11
1570.4804454246
 21
-292.5724758877
 31
0.0
  0
LINE
  5
383
100
AcDbEntity
  8
L1_120
  6
CONTINUOUS
 62
         7
100
AcDbLine
 10
1553.4804454246
 20
-304.5724758877
 30
0.0
 11
1570.4804454246
 21
-304.5724758877
 31
0.0
  0
LINE
  5
384
100
AcDbEntity
  8
L1_120
  6
CONTINUOUS
 62
         7
100
AcDbLine
 10
1572.4804454246
 20
-294.5724758877
 30
0.0
 11
1572.4804454246
 21
-302.5724758877
 31
0.0
  0
LINE
  5
385
100
AcDbEntity
  8
L1_120
  6
CONTINUOUS
 62
         7
100
AcDbLine
 10
1552.4804454246
 20
-302.8404250801
 30
0.0
 11
1552.4804454246
 21
-294.3045266953
 31
0.0
  0
LINE
  5
386
100
AcDbEntity
  8
L1_120
  6
CONTINUOUS
 62
         4
100
AcDbLine
 10
1570.4804454246
 20
-292.5724758877
 30
0.0
 11
1570.4804454246
 21
-304.5724758877
 31
0.0
  0
LINE
  5
387
100
AcDbEntity
  8
L1_120
  6
CONTINUOUS
 62
         4
100
AcDbLine
 10
1553.4804454246
 20
-304.5724758877
 30
0.0
 11
1553.4804454246
 21
-292.5724758877
 31
0.0
  0
LINE
  5
388
100
AcDbEntity
  8
L1_120
  6
CONTINUOUS
 62
         7
100
AcDbLine
 10
1570.4804454246
 20
-304.5724758877
 30
0.0
 11
1572.4804454246
 21
-302.5724758877
 31
0.0
  0
LINE
  5
389
100
AcDbEntity
  8
L1_120
  6
CONTINUOUS
 62
         7
100
AcDbLine
 10
1570.4804454246
 20
-292.5724758877
 30
0.0
 11
1572.4804454246
 21
-294.5724758877
 31
0.0
  0
LINE
  5
38A
100
AcDbEntity
  8
L1_120
  6
CONTINUOUS
 62
         7
100
AcDbLine
 10
1553.4804454246
 20
-304.5724758877
 30
0.0
 11
1552.4804454246
 21
-302.8404250801
 31
0.0
  0
LINE
  5
38B
100
AcDbEntity
  8
L1_120
  6
CONTINUOUS
 62
         7
100
AcDbLine
 10
1553.4804454246
 20
-292.5724758877
 30
0.0
 11
1552.4804454246
 21
-294.3045266953
 31
0.0
  0
LINE
  5
38C
100
AcDbEntity
  8
L1_120
  6
CONTINUOUS
 62
         4
100
AcDbLine
 10
1572.2124962322
 20
-294.3045266953
 30
0.0
 11
1552.4804454246
 21
-294.3045266953
 31
0.0
  0
LINE
  5
38D
100
AcDbEntity
  8
L1_120
  6
CONTINUOUS
 62
         4
100
AcDbLine
 10
1552.4804454246
 20
-302.8404250801
 30
0.0
 11
1572.2124962322
 21
-302.8404250801
 31
0.0
  0
LINE
  5
38E
100
AcDbEntity
  8
L1_120
  6
CENTER
 62
         1
100
AcDbLine
 10
1545.6454943819
 20
-298.5724758877
 30
0.0
 11
1523.1422863571
 21
-298.5724758877
 31
0.0
  0
LINE
  5
38F
100
AcDbEntity
  8
L1_120
  6
CENTER
 62
         1
100
AcDbLine
 10
1534.3938903695
 20
-307.9061340782
 30
0.0
 11
1534.3938903695
 21
-290.3725473215
 31
0.0
  0
CIRCLE
  5
390
100
AcDbEntity
  8
L1_120
  6
CONTINUOUS
 62
         7
100
AcDbCircle
 10
1534.3938903695
 20
-298.5724758877
 30
0.0
 40
4.2679491924
  0
CIRCLE
  5
391
100
AcDbEntity
  8
L1_120
  6
CONTINUOUS
 62
         7
100
AcDbCircle
 10
1534.3938903695
 20
-298.5724758877
 30
0.0
 40
6.0
  0
LINE
  5
392
100
AcDbEntity
  8
L1_120
  6
DASHED
 62
         2
100
AcDbLine
 10
1557.4804454246
 20
-295.1083742725
 30
0.0
 11
1557.4804454246
 21
-302.0365775028
 31
0.0
  0
DIMENSION
  5
395
100
AcDbEntity
  8
L1_120
  6
CONTINUOUS
 62
         4
100
AcDbDimension
  2
*D7
 10
1552.4804454246
 20
-320.7623042609
 30
0.0
 11
1559.2830838991
 21
-318.1373042609
 31
0.0
  3
DIMSTYLE1
100
AcDbAlignedDimension
 13
1552.4804454246
 23
-302.8404250801
 33
0.0
 14
1572.4804454246
 24
-302.5724758877
 34
0.0
100
AcDbRotatedDimension
  0
LINE
  5
3A1
100
AcDbEntity
  8
L1_120
  6
CONTINUOUS
 62
         7
100
AcDbLine
 10
1537.3938903695
 20
-296.8404250801
 30
0.0
 11
1534.3938903695
 21
-295.1083742725
 31
0.0
  0
LINE
  5
3A2
100
AcDbEntity
  8
L1_120
  6
CONTINUOUS
 62
         7
100
AcDbLine
 10
1534.3938903695
 20
-295.1083742725
 30
0.0
 11
1531.3938903695
 21
-296.8404250801
 31
0.0
  0
LINE
  5
3A3
100
AcDbEntity
  8
L1_120
  6
CONTINUOUS
 62
         7
100
AcDbLine
 10
1531.3938903695
 20
-296.8404250801
 30
0.0
 11
1531.3938903695
 21
-300.3045266953
 31
0.0
  0
LINE
  5
3A4
100
AcDbEntity
  8
L1_120
  6
CONTINUOUS
 62
         7
100
AcDbLine
 10
1531.3938903695
 20
-300.3045266953
 30
0.0
 11
1534.3938903695
 21
-302.0365775028
 31
0.0
  0
LINE
  5
3A5
100
AcDbEntity
  8
L1_120
  6
CONTINUOUS
 62
         7
100
AcDbLine
 10
1534.3938903695
 20
-302.0365775028
 30
0.0
 11
1537.3938903695
 21
-300.3045266953
 31
0.0
  0
LINE
  5
3A6
100
AcDbEntity
  8
L1_120
  6
CONTINUOUS
 62
         7
100
AcDbLine
 10
1537.3938903695
 20
-300.3045266953
 30
0.0
 11
1537.3938903695
 21
-296.8404250801
 31
0.0
  0
LINE
  5
3A7
100
AcDbEntity
  8
L1_120
  6
DASHED
 62
         2
100
AcDbLine
 10
1552.4804454246
 20
-295.1083742725
 30
0.0
 11
1557.4804454246
 21
-295.1083742725
 31
0.0
  0
LINE
  5
3A8
100
AcDbEntity
  8
L1_120
  6
DASHED
 62
         2
100
AcDbLine
 10
1552.4804454246
 20
-296.8404250801
 30
0.0
 11
1557.4804454246
 21
-296.8404250801
 31
0.0
  0
LINE
  5
3A9
100
AcDbEntity
  8
L1_120
  6
DASHED
 62
         2
100
AcDbLine
 10
1552.4804454246
 20
-302.0365775028
 30
0.0
 11
1557.4804454246
 21
-302.0365775028
 31
0.0
  0
LINE
  5
3AA
100
AcDbEntity
  8
L1_120
  6
DASHED
 62
         2
100
AcDbLine
 10
1552.4804454246
 20
-300.3045266953
 30
0.0
 11
1557.4804454246
 21
-300.3045266953
 31
0.0
  0
CIRCLE
  5
3AB
100
AcDbEntity
  8
L1_120
  6
CONTINUOUS
 62
         7
100
AcDbCircle
 10
1534.3938903695
 20
-298.5724758877
 30
0.0
 40
3.4641016151
  0
DIMENSION
  5
3AE
100
AcDbEntity
  8
L1_120
  6
CONTINUOUS
 62
         4
100
AcDbDimension
  2
*D8
 10
1531.3938903695
 20
-289.770008307
 30
0.0
 11
1533.4678943712
 21
-287.145008307
 31
0.0
  3
DIMSTYLE1
100
AcDbAlignedDimension
 13
1531.3938903695
 23
-296.8404250801
 33
0.0
 14
1537.3938903695
 24
-296.8404250801
 34
0.0
100
AcDbRotatedDimension
  0
LINE
  5
3BC
100
AcDbEntity
  8
L1_120
  6
DASHED
 62
         2
100
AcDbLine
 10
1572.4804454246
 20
-296.0724758877
 30
0.0
 11
1557.4804454246
 21
-296.0724758877
 31
0.0
  0
LINE
  5
3BD
100
AcDbEntity
  8
L1_120
  6
DASHED
 62
         2
100
AcDbLine
 10
1557.4804454246
 20
-301.0724758877
 30
0.0
 11
1572.4804454246
 21
-301.0724758877
 31
0.0
  0
DIMENSION
  5
3C0
100
AcDbEntity
  8
L1_120
  6
CONTINUOUS
 62
         4
100
AcDbDimension
  2
*D9
 10
1594.5874623937
 20
-292.5724758877
 30
0.0
 11
1591.9624623937
 21
-338.4906631772
 31
0.0
  3
DIMSTYLE1
100
AcDbAlignedDimension
 13
1570.4804454246
 23
-292.5724758877
 33
0.0
 14
1570.4804454246
 24
-304.5724758877
 34
0.0
 50
90.0
100
AcDbRotatedDimension
  0
TEXT
  5
3CE
100
AcDbEntity
  8
L1_120
  6
CONTINUOUS
 62
         2
100
AcDbText
 10
1547.6226987406
 20
-148.7880356239
 30
0.0
 40
4.5
  1
531916
 41
0.98
  7
BOX
100
AcDbText
  0
ENDSEC
  0
SECTION
  2
OBJECTS
  0
DICTIONARY
  5
19
100
AcDbDictionary
  3
ACAD_GROUP
350
1A
  3
ACAD_MLINESTYLE
350
1B
  0
DICTIONARY
  5
1A
102
{ACAD_REACTORS
330
19
102
}
100
AcDbDictionary
  0
DICTIONARY
  5
1B
102
{ACAD_REACTORS
330
19
102
}
100
AcDbDictionary
  3
STANDARD
350
1C
  0
MLINESTYLE
  5
1C
102
{ACAD_REACTORS
330
1B
102
}
100
AcDbMlineStyle
  2
STANDARD
 70
         0
  3

 62
         0
 51
90.0
 52
90.0
 71
         2
 49
0.5
 62
       256
  6
BYLAYER
 49
-0.5
 62
       256
  6
BYLAYER
  0
ENDSEC
  0
EOF
