  0
SECTION
  2
HEADER
  9
$ACADVER
  1
AC1014
  9
$ACADMAINTVER
 70
         0
  9
$DWGCODEPAGE
  3
BIG5
  9
$INSBASE
 10
0.0
 20
0.0
 30
0.0
  9
$EXTMIN
 10
1070.3260404145
 20
-226.8518383045
 30
0.0
  9
$EXTMAX
 10
2015.4313594523
 20
249.6409490036
 30
0.0
  9
$LIMMIN
 10
0.0
 20
0.0
  9
$LIMMAX
 10
0.0
 20
0.0
  9
$ORTHOMODE
 70
         0
  9
$REGENMODE
 70
         1
  9
$FILLMODE
 70
         1
  9
$QTEXTMODE
 70
         0
  9
$MIRRTEXT
 70
         1
  9
$DRAGMODE
 70
         2
  9
$LTSCALE
 40
1.0
  9
$OSMODE
 70
         0
  9
$ATTMODE
 70
         1
  9
$TEXTSIZE
 40
9.0
  9
$TRACEWID
 40
0.05
  9
$TEXTSTYLE
  7
STANDARD
  9
$CLAYER
  8
0
  9
$CELTYPE
  6
CONTINUOUS
  9
$CECOLOR
 62
         4
  9
$CELTSCALE
 40
1.0
  9
$DELOBJ
 70
         1
  9
$DISPSILH
 70
         0
  9
$DIMSCALE
 40
1.0
  9
$DIMASZ
 40
0.18
  9
$DIMEXO
 40
0.0625
  9
$DIMDLI
 40
0.38
  9
$DIMRND
 40
0.0
  9
$DIMDLE
 40
0.0
  9
$DIMEXE
 40
0.25
  9
$DIMTP
 40
0.01
  9
$DIMTM
 40
-0.01
  9
$DIMTXT
 40
3.5
  9
$DIMCEN
 40
0.09
  9
$DIMTSZ
 40
0.0
  9
$DIMTOL
 70
         0
  9
$DIMLIM
 70
         0
  9
$DIMTIH
 70
         1
  9
$DIMTOH
 70
         1
  9
$DIMSE1
 70
         0
  9
$DIMSE2
 70
         0
  9
$DIMTAD
 70
         0
  9
$DIMZIN
 70
         0
  9
$DIMBLK
  1

  9
$DIMASO
 70
         1
  9
$DIMSHO
 70
         1
  9
$DIMPOST
  1

  9
$DIMAPOST
  1

  9
$DIMALT
 70
         0
  9
$DIMALTD
 70
         2
  9
$DIMALTF
 40
25.4
  9
$DIMLFAC
 40
1.0
  9
$DIMTOFL
 70
         0
  9
$DIMTVP
 40
0.0
  9
$DIMTIX
 70
         0
  9
$DIMSOXD
 70
         0
  9
$DIMSAH
 70
         0
  9
$DIMBLK1
  1

  9
$DIMBLK2
  1

  9
$DIMSTYLE
  2
STANDARD
  9
$DIMCLRD
 70
         0
  9
$DIMCLRE
 70
         0
  9
$DIMCLRT
 70
         4
  9
$DIMTFAC
 40
1.0
  9
$DIMGAP
 40
0.09
  9
$DIMJUST
 70
         0
  9
$DIMSD1
 70
         0
  9
$DIMSD2
 70
         0
  9
$DIMTOLJ
 70
         1
  9
$DIMTZIN
 70
         0
  9
$DIMALTZ
 70
         0
  9
$DIMALTTZ
 70
         0
  9
$DIMFIT
 70
         3
  9
$DIMUPT
 70
         0
  9
$DIMUNIT
 70
         2
  9
$DIMDEC
 70
         4
  9
$DIMTDEC
 70
         4
  9
$DIMALTU
 70
         2
  9
$DIMALTTD
 70
         2
  9
$DIMTXSTY
  7
STANDARD
  9
$DIMAUNIT
 70
         0
  9
$LUNITS
 70
         2
  9
$LUPREC
 70
        10
  9
$SKETCHINC
 40
0.1
  9
$FILLETRAD
 40
0.0
  9
$AUNITS
 70
         0
  9
$AUPREC
 70
         0
  9
$MENU
  1
acad
  9
$ELEVATION
 40
0.0
  9
$PELEVATION
 40
0.0
  9
$THICKNESS
 40
0.0
  9
$LIMCHECK
 70
         0
  9
$BLIPMODE
 70
         1
  9
$CHAMFERA
 40
0.0
  9
$CHAMFERB
 40
0.0
  9
$CHAMFERC
 40
0.0
  9
$CHAMFERD
 40
0.0
  9
$SKPOLY
 70
         0
  9
$TDCREATE
 40
0.000000000
  9
$TDUPDATE
 40
0.000000000
  9
$TDINDWG
 40
0.0000000000
  9
$TDUSRTIMER
 40
0.0000000000
  9
$USRTIMER
 70
         1
  9
$ANGBASE
 50
0.0
  9
$ANGDIR
 70
         0
  9
$PDMODE
 70
         2
  9
$PDSIZE
 40
0.0
  9
$PLINEWID
 40
0.0
  9
$COORDS
 70
         1
  9
$SPLFRAME
 70
         0
  9
$SPLINETYPE
 70
         6
  9
$SPLINESEGS
 70
         8
  9
$ATTDIA
 70
         0
  9
$ATTREQ
 70
         1
  9
$HANDLING
 70
         1
  9
$HANDSEED
  5
487
  9
$SURFTAB1
 70
         6
  9
$SURFTAB2
 70
         6
  9
$SURFTYPE
 70
         6
  9
$SURFU
 70
         6
  9
$SURFV
 70
         6
  9
$UCSNAME
  2

  9
$UCSORG
 10
0.0
 20
0.0
 30
0.0
  9
$UCSXDIR
 10
1.0
 20
0.0
 30
0.0
  9
$UCSYDIR
 10
0.0
 20
1.0
 30
0.0
  9
$PUCSNAME
  2

  9
$PUCSORG
 10
0.0
 20
0.0
 30
0.0
  9
$PUCSXDIR
 10
1.0
 20
0.0
 30
0.0
  9
$PUCSYDIR
 10
0.0
 20
1.0
 30
0.0
  9
$USERI1
 70
         0
  9
$USERI2
 70
         0
  9
$USERI3
 70
         0
  9
$USERI4
 70
         0
  9
$USERI5
 70
         0
  9
$USERR1
 40
0.0
  9
$USERR2
 40
0.0
  9
$USERR3
 40
0.0
  9
$USERR4
 40
0.0
  9
$USERR5
 40
0.0
  9
$WORLDVIEW
 70
         1
  9
$SHADEDGE
 70
         3
  9
$SHADEDIF
 70
        70
  9
$TILEMODE
 70
         1
  9
$MAXACTVP
 70
        16
  9
$PINSBASE
 10
0.0
 20
0.0
 30
0.0
  9
$PLIMCHECK
 70
         0
  9
$PEXTMIN
 10
1.0000000000E+20
 20
1.0000000000E+20
 30
1.0000000000E+20
  9
$PEXTMAX
 10
-1.0000000000E+20
 20
-1.0000000000E+20
 30
-1.0000000000E+20
  9
$PLIMMIN
 10
0.0
 20
0.0
  9
$PLIMMAX
 10
12.0
 20
9.0
  9
$UNITMODE
 70
         0
  9
$VISRETAIN
 70
         0
  9
$PLINEGEN
 70
         1
  9
$PSLTSCALE
 70
         0
  9
$TREEDEPTH
 70
      3020
  9
$PICKSTYLE
 70
         1
  9
$CMLSTYLE
  2
STANDARD
  9
$CMLJUST
 70
         0
  9
$CMLSCALE
 40
1.0
  9
$PROXYGRAPHICS
 70
         0
  9
$MEASUREMENT
 70
         0
  0
ENDSEC
  0
SECTION
  2
CLASSES
  0
CLASS
  1
LWPOLYLINE
  2
AcDbPolyline
  3
"AutoCAD"
 90
        0
280
         0
281
         1
  0
CLASS
  1
IMAGE
  2
AcDbRasterImage
  3
ISM
 90
      127
280
         0
281
         1
  0
CLASS
  1
OLE2FRAME
  2
AcDbOle2Frame
  3
""
 90
        0
280
         0
281
         1
  0
CLASS
  1
HATCH
  2
AcDbHatch
  3
"ACAD_SEDONA"
 90
        0
280
         0
281
         1
  0
CLASS
  1
DICTIONARYVAR
  2
AcDbDictionaryVar
  3
"AutoCAD"
 90
        0
280
         0
281
         0
  0
CLASS
  1
RASTERVARIABLES
  2
AcDbRasterVariables
  3
ISM
 90
        0
280
         0
281
         0
  0
CLASS
  1
IMAGEDEF
  2
AcDbRasterImageDef
  3
ISM
 90
        0
280
         0
281
         0
  0
CLASS
  1
IMAGEDEF_REACTOR
  2
AcDbRasterImageDefReactor
  3
ISM
 90
        1
280
         0
281
         0
  0
CLASS
  1
IDBUFFER
  2
AcDbIdBuffer
  3
"Acad"
 90
        0
280
         0
281
         0
  0
CLASS
  1
SPATIAL_FILTER
  2
AcDbSpatialFilter
  3
"Acad"
 90
        0
280
         0
281
         0
  0
CLASS
  1
XRECORD
  2
AcDbXrecord
  3
"<Built In>"
 90
        0
280
         0
281
         0
  0
CLASS
  1
SORTENTSTABLE
  2
AcDbSortentsTable
  3
"AutoCAD"
 90
        0
280
         0
281
         0
  0
CLASS
  1
LAYER_INDEX
  2
AcDbLayerIndex
  3
"Acad"
 90
        0
280
         0
281
         0
  0
CLASS
  1
SPATIAL_INDEX
  2
AcDbSpatialIndex
  3
"Acad"
 90
        0
280
         0
281
         0
  0
CLASS
  1
OBJECT_PTR
  2
CAseDLPNTableRecord
  3
"ASE-LPNTableRecord"
 90
        1
280
         0
281
         0
  0
CLASS
  1
LAYOUT
  2
AcDbLayout
  3
"AutoCAD 2000"
 90
        1
280
         0
281
         0
  0
CLASS
  1
PLOTSETTINGS
  2
AcDbPlotSettings
  3
"AutoCAD 2000"
 90
        1
280
         0
281
         0
  0
CLASS
  1
ACDBDICTIONARYWDFLT
  2
AcDbDictionaryWithDefault
  3
"AutoCAD 2000"
 90
        1
280
         0
281
         0
  0
CLASS
  1
ACDBPLACEHOLDER
  2
AcDbPlaceHolder
  3
"AutoCAD 2000"
 90
        1
280
         0
281
         0
  0
CLASS
  1
VBA_PROJECT
  2
AcDbVbaProject
  3
"acadvba"
 90
        1
280
         0
281
         0
  0
CLASS
  1
WIPEOUT
  2
AcDbWipeout
  3
WipeOut|AutoCAD Express Tool|expresstools@autodesk.com
 90
      127
280
         0
281
         1
  0
CLASS
  1
WIPEOUTVARIABLES
  2
AcDbWipeoutVariables
  3
WipeOut|AutoCAD Express Tool|expresstools@autodesk.com
 90
        0
280
         0
281
         0
  0
CLASS
  1
RTEXT
  2
RText
  3
RText|AutoCAD Express Tool|expresstools@autodesk.com
 90
        0
280
         0
281
         1
  0
CLASS
  1
ARCALIGNEDTEXT
  2
AcDbArcAlignedText
  3
ATEXT|AutoCAD Express Tool|expresstools@autodesk.com
 90
        0
280
         0
281
         1
  0
ENDSEC
  0
SECTION
  2
TABLES
  0
TABLE
  2
VPORT
  5
7
100
AcDbSymbolTable
 70
         1
  0
VPORT
  5
15
100
AcDbSymbolTableRecord
100
AcDbViewportTableRecord
  2
*ACTIVE
 70
         0
 10
0.0
 20
0.0
 11
1.0
 21
1.0
 12
1542.8786999334
 22
11.3945553495
 13
0.0
 23
0.0
 14
1.0
 24
1.0
 15
0.0
 25
0.0
 16
0.0
 26
0.0
 36
1.0
 17
0.0
 27
0.0
 37
0.0
 40
476.4927873081
 41
1.9834619625
 42
50.0
 43
0.0
 44
0.0
 50
0.0
 51
0.0
 71
         0
 72
       100
 73
         1
 74
         1
 75
         0
 76
         0
 77
         0
 78
         0
  0
ENDTAB
  0
TABLE
  2
LTYPE
  5
4
100
AcDbSymbolTable
 70
         6
  0
LTYPE
  5
11
100
AcDbSymbolTableRecord
100
AcDbLinetypeTableRecord
  2
BYBLOCK
 70
        64
  3

 72
        65
 73
         0
 40
0.0
  0
LTYPE
  5
12
100
AcDbSymbolTableRecord
100
AcDbLinetypeTableRecord
  2
BYLAYER
 70
        64
  3

 72
        65
 73
         0
 40
0.0
  0
LTYPE
  5
13
100
AcDbSymbolTableRecord
100
AcDbLinetypeTableRecord
  2
CONTINUOUS
 70
        64
  3
Solid line
 72
        65
 73
         0
 40
0.0
  0
LTYPE
  5
1D
100
AcDbSymbolTableRecord
100
AcDbLinetypeTableRecord
  2
DASHED
 70
        64
  3
_ _ _ _ _ _ _ _ _ _ _ _ _ _ _ _
 72
        65
 73
         2
 40
0.2
 49
0.1
 74
         0
 49
-0.1
 74
         0
  0
LTYPE
  5
1E
100
AcDbSymbolTableRecord
100
AcDbLinetypeTableRecord
  2
CENTER
 70
        64
  3
___ _ ___ _ ___ _ ___ _ ___ _ ___ _ ___ _ ___ _
 72
        65
 73
         4
 40
0.95
 49
0.625
 74
         0
 49
-0.125
 74
         0
 49
0.075
 74
         0
 49
-0.125
 74
         0
  0
LTYPE
  5
1F
100
AcDbSymbolTableRecord
100
AcDbLinetypeTableRecord
  2
PHANTOM
 70
        64
  3
______  __  __  ______  __  __  ______  __  __  
 72
        65
 73
         6
 40
1.025
 49
0.625
 74
         0
 49
-0.125
 74
         0
 49
0.075
 74
         0
 49
-0.125
 74
         0
 49
0.075
 74
         0
 49
-0.125
 74
         0
  0
ENDTAB
  0
TABLE
  2
LAYER
  5
2
100
AcDbSymbolTable
 70
         8
  0
LAYER
  5
14
100
AcDbSymbolTableRecord
100
AcDbLayerTableRecord
  2
0
 70
         0
 62
         7
  6
CONTINUOUS
  0
LAYER
  5
21
100
AcDbSymbolTableRecord
100
AcDbLayerTableRecord
  2
_____U
 70
         1
 62
         7
  6
CONTINUOUS
  0
LAYER
  5
22
100
AcDbSymbolTableRecord
100
AcDbLayerTableRecord
  2
___T______
 70
         0
 62
         7
  6
CONTINUOUS
  0
LAYER
  5
23
100
AcDbSymbolTableRecord
100
AcDbLayerTableRecord
  2
_____T______
 70
         1
 62
         7
  6
CONTINUOUS
  0
LAYER
  5
24
100
AcDbSymbolTableRecord
100
AcDbLayerTableRecord
  2
_Y__________
 70
         0
 62
         7
  6
CONTINUOUS
  0
LAYER
  5
25
100
AcDbSymbolTableRecord
100
AcDbLayerTableRecord
  2
_X______
 70
         0
 62
         7
  6
CONTINUOUS
  0
LAYER
  5
26
100
AcDbSymbolTableRecord
100
AcDbLayerTableRecord
  2
L1_45
 70
         0
 62
         7
  6
CONTINUOUS
  0
LAYER
  5
35A
100
AcDbSymbolTableRecord
100
AcDbLayerTableRecord
  2
DEFPOINTS
 70
         0
 62
        -7
  6
CONTINUOUS
  0
ENDTAB
  0
TABLE
  2
STYLE
  5
3
100
AcDbSymbolTable
 70
        12
  0
STYLE
  5
17
100
AcDbSymbolTableRecord
100
AcDbTextStyleTableRecord
  2
STANDARD
 70
         0
 40
0.0
 41
1.0
 50
0.0
 71
         0
 42
0.0
  3
txt
  4

  0
STYLE
  5
364
100
AcDbSymbolTableRecord
100
AcDbTextStyleTableRecord
  2
BOX
 70
         0
 40
1.0
 41
1.0
 50
0.0
 71
         0
 42
0.2
  3
txt.shx
  4

  0
STYLE
  5
372
100
AcDbSymbolTableRecord
100
AcDbTextStyleTableRecord
  2
BOX
 70
         0
 40
1.0
 41
1.0
 50
0.0
 71
         0
 42
0.2
  3
txt.shx
  4

  0
STYLE
  5
39B
100
AcDbSymbolTableRecord
100
AcDbTextStyleTableRecord
  2
BOX
 70
         0
 40
1.0
 41
1.0
 50
0.0
 71
         0
 42
0.2
  3
txt.shx
  4

  0
STYLE
  5
3A9
100
AcDbSymbolTableRecord
100
AcDbTextStyleTableRecord
  2
BOX
 70
         0
 40
1.0
 41
1.0
 50
0.0
 71
         0
 42
0.2
  3
txt.shx
  4

  0
STYLE
  5
3B8
100
AcDbSymbolTableRecord
100
AcDbTextStyleTableRecord
  2
BOX
 70
         0
 40
1.0
 41
1.0
 50
0.0
 71
         0
 42
0.2
  3
txt.shx
  4

  0
STYLE
  5
3C6
100
AcDbSymbolTableRecord
100
AcDbTextStyleTableRecord
  2
BOX
 70
         0
 40
1.0
 41
1.0
 50
0.0
 71
         0
 42
0.2
  3
txt.shx
  4

  0
STYLE
  5
3D4
100
AcDbSymbolTableRecord
100
AcDbTextStyleTableRecord
  2
BOX
 70
         0
 40
1.0
 41
1.0
 50
0.0
 71
         0
 42
0.2
  3
txt.shx
  4

  0
STYLE
  5
3E2
100
AcDbSymbolTableRecord
100
AcDbTextStyleTableRecord
  2
BOX
 70
         0
 40
1.0
 41
1.0
 50
0.0
 71
         0
 42
0.2
  3
txt.shx
  4

  0
STYLE
  5
405
100
AcDbSymbolTableRecord
100
AcDbTextStyleTableRecord
  2
BOX
 70
         0
 40
1.0
 41
1.0
 50
0.0
 71
         0
 42
0.2
  3
txt.shx
  4

  0
STYLE
  5
418
100
AcDbSymbolTableRecord
100
AcDbTextStyleTableRecord
  2
BOX
 70
         0
 40
1.0
 41
1.0
 50
0.0
 71
         0
 42
0.2
  3
txt.shx
  4

  0
STYLE
  5
485
100
AcDbSymbolTableRecord
100
AcDbTextStyleTableRecord
  2
BOX
 70
         0
 40
1.0
 41
1.0
 50
0.0
 71
         0
 42
0.2
  3
txt.shx
  4

  0
ENDTAB
  0
TABLE
  2
VIEW
  5
5
100
AcDbSymbolTable
 70
         0
  0
ENDTAB
  0
TABLE
  2
UCS
  5
6
100
AcDbSymbolTable
 70
         1
  0
UCS
  5
20
100
AcDbSymbolTableRecord
100
AcDbUCSTableRecord
  2
CK_VIEW_1
 70
         0
 10
0.0
 20
0.0
 30
1.0
 11
1.0
 21
0.0
 31
0.0
 12
0.0
 22
1.0
 32
0.0
  0
ENDTAB
  0
TABLE
  2
APPID
  5
8
100
AcDbSymbolTable
 70
         1
  0
APPID
  5
16
100
AcDbSymbolTableRecord
100
AcDbRegAppTableRecord
  2
ACAD
 70
         0
  0
ENDTAB
  0
TABLE
  2
DIMSTYLE
  5
9
100
AcDbSymbolTable
 70
         2
  0
DIMSTYLE
105
18
100
AcDbSymbolTableRecord
100
AcDbDimStyleTableRecord
  2
STANDARD
 70
         0
  3

  4

  5

  6

  7

 40
1.0
 41
0.18
 42
0.0625
 43
0.38
 44
0.18
 45
0.0
 46
0.0
 47
0.0
 48
0.0
 71
         0
 72
         0
 73
         1
 74
         1
 75
         0
 76
         0
 77
         0
 78
         0
140
0.18
141
0.09
142
0.0
143
25.4
144
1.0
145
0.0
146
1.0
147
0.09
170
         0
171
         2
172
         0
173
         0
174
         0
175
         0
176
         0
177
         0
178
         0
270
         2
271
         4
272
         4
273
         2
274
         2
275
         0
280
         0
281
         0
282
         0
283
         1
284
         0
285
         0
286
         0
287
         0
288
         0
340
17
  0
DIMSTYLE
105
356
100
AcDbSymbolTableRecord
100
AcDbDimStyleTableRecord
  2
DIMSTYLE1
 70
         0
  3

  4

  5

  6

  7

 40
1.0
 41
3.5
 42
0.0625
 43
0.38
 44
3.5
 45
0.0
 46
0.0
 47
0.0
 48
0.0
 71
         0
 72
         0
 73
         1
 74
         1
 75
         0
 76
         0
 77
         0
 78
         0
140
3.5
141
0.09
142
0.0
143
25.4
144
1.0
145
0.0
146
1.0
147
0.09
170
         0
171
         2
172
         0
173
         0
174
         0
175
         0
176
         0
177
         0
178
         0
270
         2
271
         4
272
         4
273
         2
274
         2
275
         0
280
         0
281
         0
282
         0
283
         1
284
         0
285
         0
286
         0
287
         0
288
         0
340
17
  0
ENDTAB
  0
TABLE
  2
BLOCK_RECORD
  5
1
100
AcDbSymbolTable
 70
        11
  0
BLOCK_RECORD
  5
A
100
AcDbSymbolTableRecord
100
AcDbBlockTableRecord
  2
*MODEL_SPACE
  0
BLOCK_RECORD
  5
B
100
AcDbSymbolTableRecord
100
AcDbBlockTableRecord
  2
*PAPER_SPACE
  0
BLOCK_RECORD
  5
357
100
AcDbSymbolTableRecord
100
AcDbBlockTableRecord
  2
*D0
  0
BLOCK_RECORD
  5
367
100
AcDbSymbolTableRecord
100
AcDbBlockTableRecord
  2
*D1
  0
BLOCK_RECORD
  5
390
100
AcDbSymbolTableRecord
100
AcDbBlockTableRecord
  2
*D2
  0
BLOCK_RECORD
  5
39E
100
AcDbSymbolTableRecord
100
AcDbBlockTableRecord
  2
*D3
  0
BLOCK_RECORD
  5
3AD
100
AcDbSymbolTableRecord
100
AcDbBlockTableRecord
  2
*D4
  0
BLOCK_RECORD
  5
3BB
100
AcDbSymbolTableRecord
100
AcDbBlockTableRecord
  2
*D5
  0
BLOCK_RECORD
  5
3C9
100
AcDbSymbolTableRecord
100
AcDbBlockTableRecord
  2
*D6
  0
BLOCK_RECORD
  5
3D7
100
AcDbSymbolTableRecord
100
AcDbBlockTableRecord
  2
*D7
  0
BLOCK_RECORD
  5
3FA
100
AcDbSymbolTableRecord
100
AcDbBlockTableRecord
  2
*D8
  0
BLOCK_RECORD
  5
40D
100
AcDbSymbolTableRecord
100
AcDbBlockTableRecord
  2
*D9
  0
BLOCK_RECORD
  5
421
100
AcDbSymbolTableRecord
100
AcDbBlockTableRecord
  2
*X10
  0
ENDTAB
  0
ENDSEC
  0
SECTION
  2
BLOCKS
  0
BLOCK
  5
D
100
AcDbEntity
  8
0
100
AcDbBlockBegin
  2
*MODEL_SPACE
 70
         0
 10
0.0
 20
0.0
 30
0.0
  3
*MODEL_SPACE
  1

  0
ENDBLK
  5
E
100
AcDbEntity
  8
0
100
AcDbBlockEnd
  0
BLOCK
  5
F
100
AcDbEntity
 67
         1
  8
0
100
AcDbBlockBegin
  2
*PAPER_SPACE
 70
         0
 10
0.0
 20
0.0
 30
0.0
  3
*PAPER_SPACE
  1

  0
ENDBLK
  5
10
100
AcDbEntity
 67
         1
  8
0
100
AcDbBlockEnd
  0
BLOCK
  5
358
100
AcDbEntity
  8
0
100
AcDbBlockBegin
  2
*D0
 70
        65
 10
0.0
 20
0.0
 30
0.0
  3
*D0
  1

  0
POINT
  5
35B
100
AcDbEntity
  8
DEFPOINTS
  6
CONTINUOUS
 62
         0
100
AcDbPoint
 10
1499.6073536673
 20
-134.6941194867
 30
0.0
  0
POINT
  5
35C
100
AcDbEntity
  8
DEFPOINTS
  6
CONTINUOUS
 62
         0
100
AcDbPoint
 10
1496.8786999334
 20
-134.6941194867
 30
0.0
  0
POINT
  5
35D
100
AcDbEntity
  8
DEFPOINTS
  6
CONTINUOUS
 62
         0
100
AcDbPoint
 10
1496.8786999334
 20
-118.7859137397
 30
0.0
  0
LINE
  5
35E
100
AcDbEntity
  8
L1_45
  6
CONTINUOUS
 62
         4
100
AcDbLine
 10
1495.1286999334
 20
-134.6941194867
 30
0.0
 11
1498.7323536673
 21
-134.6941194867
 31
0.0
  0
LINE
  5
35F
100
AcDbEntity
  8
L1_45
  6
CONTINUOUS
 62
         4
100
AcDbLine
 10
1495.1286999334
 20
-118.7859137397
 30
0.0
 11
1498.7323536673
 21
-118.7859137397
 31
0.0
  0
LINE
  5
360
100
AcDbEntity
  8
L1_45
  6
CONTINUOUS
 62
         4
100
AcDbLine
 10
1499.6073536673
 20
-134.6941194867
 30
0.0
 11
1499.6073536673
 21
-118.7859137397
 31
0.0
  0
SOLID
  5
361
100
AcDbEntity
  8
L1_45
  6
CONTINUOUS
 62
         4
100
AcDbTrace
 10
1499.6073536673
 20
-134.6941194867
 30
0.0
 11
1499.0823536673
 21
-131.1941194867
 31
0.0
 12
1500.1323536673
 22
-131.1941194867
 32
0.0
 13
1499.6073536673
 23
-134.6941194867
 33
0.0
  0
LINE
  5
362
100
AcDbEntity
  8
L1_45
  6
CONTINUOUS
 62
         4
100
AcDbLine
 10
1499.6073536673
 20
-134.6941194867
 30
0.0
 11
1499.6073536673
 21
-188.3566165715
 31
0.0
  0
SOLID
  5
363
100
AcDbEntity
  8
L1_45
  6
CONTINUOUS
 62
         4
100
AcDbTrace
 10
1499.6073536673
 20
-118.7859137397
 30
0.0
 11
1500.1323536673
 21
-122.2859137397
 31
0.0
 12
1499.0823536673
 22
-122.2859137397
 32
0.0
 13
1499.6073536673
 23
-118.7859137397
 33
0.0
  0
TEXT
  5
365
100
AcDbEntity
  8
L1_45
  6
CONTINUOUS
 62
         4
100
AcDbText
 10
1496.9823536673
 20
-186.6066165715
 30
0.0
 40
3.5
  1
崷15.99
 50
90.0
  7
BOX
100
AcDbText
  0
ENDBLK
  5
366
100
AcDbEntity
  8
0
  6
CONTINUOUS
100
AcDbBlockEnd
  0
BLOCK
  5
368
100
AcDbEntity
  8
0
100
AcDbBlockBegin
  2
*D1
 70
        65
 10
0.0
 20
0.0
 30
0.0
  3
*D1
  1

  0
POINT
  5
36A
100
AcDbEntity
  8
DEFPOINTS
  6
CONTINUOUS
 62
         0
100
AcDbPoint
 10
1487.2586999334
 20
-204.3180752451
 30
0.0
  0
POINT
  5
36B
100
AcDbEntity
  8
DEFPOINTS
  6
CONTINUOUS
 62
         0
100
AcDbPoint
 10
1487.2586999334
 20
-139.2400166132
 30
0.0
  0
POINT
  5
36C
100
AcDbEntity
  8
DEFPOINTS
  6
CONTINUOUS
 62
         0
100
AcDbPoint
 10
1549.8786999334
 20
-140.7400166132
 30
0.0
  0
LINE
  5
36D
100
AcDbEntity
  8
L1_45
  6
CONTINUOUS
 62
         4
100
AcDbLine
 10
1487.2586999334
 20
-140.9900166132
 30
0.0
 11
1487.2586999334
 21
-205.1930752451
 31
0.0
  0
LINE
  5
36E
100
AcDbEntity
  8
L1_45
  6
CONTINUOUS
 62
         4
100
AcDbLine
 10
1549.8786999334
 20
-142.4900166132
 30
0.0
 11
1549.8786999334
 21
-205.1930752451
 31
0.0
  0
LINE
  5
36F
100
AcDbEntity
  8
L1_45
  6
CONTINUOUS
 62
         4
100
AcDbLine
 10
1487.2586999334
 20
-204.3180752451
 30
0.0
 11
1549.8786999334
 21
-204.3180752451
 31
0.0
  0
SOLID
  5
370
100
AcDbEntity
  8
L1_45
  6
CONTINUOUS
 62
         4
100
AcDbTrace
 10
1487.2586999334
 20
-204.3180752451
 30
0.0
 11
1490.7586999334
 21
-203.7930752451
 31
0.0
 12
1490.7586999334
 22
-204.8430752451
 32
0.0
 13
1487.2586999334
 23
-204.3180752451
 33
0.0
  0
SOLID
  5
371
100
AcDbEntity
  8
L1_45
  6
CONTINUOUS
 62
         4
100
AcDbTrace
 10
1549.8786999334
 20
-204.3180752451
 30
0.0
 11
1546.3786999334
 21
-204.8430752451
 31
0.0
 12
1546.3786999334
 22
-203.7930752451
 32
0.0
 13
1549.8786999334
 23
-204.3180752451
 33
0.0
  0
TEXT
  5
373
100
AcDbEntity
  8
L1_45
  6
CONTINUOUS
 62
         4
100
AcDbText
 10
1515.7748019036
 20
-201.6930752451
 30
0.0
 40
3.5
  1
62
  7
BOX
100
AcDbText
  0
ENDBLK
  5
374
100
AcDbEntity
  8
0
  6
CONTINUOUS
100
AcDbBlockEnd
  0
BLOCK
  5
391
100
AcDbEntity
  8
0
100
AcDbBlockBegin
  2
*D2
 70
        65
 10
0.0
 20
0.0
 30
0.0
  3
*D2
  1

  0
POINT
  5
393
100
AcDbEntity
  8
DEFPOINTS
  6
CONTINUOUS
 62
         0
100
AcDbPoint
 10
1403.0836999334
 20
221.8571859441
 30
0.0
  0
POINT
  5
394
100
AcDbEntity
  8
DEFPOINTS
  6
CONTINUOUS
 62
         0
100
AcDbPoint
 10
1403.0836999334
 20
131.5419817744
 30
0.0
  0
POINT
  5
395
100
AcDbEntity
  8
DEFPOINTS
  6
CONTINUOUS
 62
         0
100
AcDbPoint
 10
1549.8786999334
 20
112.2524144385
 30
0.0
  0
LINE
  5
396
100
AcDbEntity
  8
L1_45
  6
CONTINUOUS
 62
         4
100
AcDbLine
 10
1403.0836999334
 20
133.2919817744
 30
0.0
 11
1403.0836999334
 21
222.7321859441
 31
0.0
  0
LINE
  5
397
100
AcDbEntity
  8
L1_45
  6
CONTINUOUS
 62
         4
100
AcDbLine
 10
1549.8786999334
 20
114.0024144385
 30
0.0
 11
1549.8786999334
 21
222.7321859441
 31
0.0
  0
LINE
  5
398
100
AcDbEntity
  8
L1_45
  6
CONTINUOUS
 62
         4
100
AcDbLine
 10
1403.0836999334
 20
221.8571859441
 30
0.0
 11
1549.8786999334
 21
221.8571859441
 31
0.0
  0
SOLID
  5
399
100
AcDbEntity
  8
L1_45
  6
CONTINUOUS
 62
         4
100
AcDbTrace
 10
1403.0836999334
 20
221.8571859441
 30
0.0
 11
1406.5836999334
 21
222.3821859441
 31
0.0
 12
1406.5836999334
 22
221.3321859441
 32
0.0
 13
1403.0836999334
 23
221.8571859441
 33
0.0
  0
SOLID
  5
39A
100
AcDbEntity
  8
L1_45
  6
CONTINUOUS
 62
         4
100
AcDbTrace
 10
1549.8786999334
 20
221.8571859441
 30
0.0
 11
1546.3786999334
 21
221.3321859441
 31
0.0
 12
1546.3786999334
 22
222.3821859441
 32
0.0
 13
1549.8786999334
 23
221.8571859441
 33
0.0
  0
TEXT
  5
39C
100
AcDbEntity
  8
L1_45
  6
CONTINUOUS
 62
         4
100
AcDbText
 10
1461.7168717828
 20
224.4821859441
 30
0.0
 40
3.5
  1
146.8
  7
BOX
100
AcDbText
  0
ENDBLK
  5
39D
100
AcDbEntity
  8
0
  6
CONTINUOUS
100
AcDbBlockEnd
  0
BLOCK
  5
39F
100
AcDbEntity
  8
0
100
AcDbBlockBegin
  2
*D3
 70
        65
 10
0.0
 20
0.0
 30
0.0
  3
*D3
  1

  0
POINT
  5
3A1
100
AcDbEntity
  8
DEFPOINTS
  6
CONTINUOUS
 62
         0
100
AcDbPoint
 10
1549.8786999334
 20
212.3276247161
 30
0.0
  0
POINT
  5
3A2
100
AcDbEntity
  8
DEFPOINTS
  6
CONTINUOUS
 62
         0
100
AcDbPoint
 10
1549.8786999334
 20
112.2524144385
 30
0.0
  0
POINT
  5
3A3
100
AcDbEntity
  8
DEFPOINTS
  6
CONTINUOUS
 62
         0
100
AcDbPoint
 10
1504.8786999334
 20
147.2532077601
 30
0.0
  0
LINE
  5
3A4
100
AcDbEntity
  8
L1_45
  6
CONTINUOUS
 62
         4
100
AcDbLine
 10
1549.8786999334
 20
114.0024144385
 30
0.0
 11
1549.8786999334
 21
213.2026247161
 31
0.0
  0
LINE
  5
3A5
100
AcDbEntity
  8
L1_45
  6
CONTINUOUS
 62
         4
100
AcDbLine
 10
1504.8786999334
 20
149.0032077601
 30
0.0
 11
1504.8786999334
 21
213.2026247161
 31
0.0
  0
LINE
  5
3A6
100
AcDbEntity
  8
L1_45
  6
CONTINUOUS
 62
         4
100
AcDbLine
 10
1549.8786999334
 20
212.3276247161
 30
0.0
 11
1504.8786999334
 21
212.3276247161
 31
0.0
  0
SOLID
  5
3A7
100
AcDbEntity
  8
L1_45
  6
CONTINUOUS
 62
         4
100
AcDbTrace
 10
1549.8786999334
 20
212.3276247161
 30
0.0
 11
1546.3786999334
 21
211.8026247161
 31
0.0
 12
1546.3786999334
 22
212.8526247161
 32
0.0
 13
1549.8786999334
 23
212.3276247161
 33
0.0
  0
SOLID
  5
3A8
100
AcDbEntity
  8
L1_45
  6
CONTINUOUS
 62
         4
100
AcDbTrace
 10
1504.8786999334
 20
212.3276247161
 30
0.0
 11
1508.3786999334
 21
212.8526247161
 31
0.0
 12
1508.3786999334
 22
211.8026247161
 32
0.0
 13
1504.8786999334
 23
212.3276247161
 33
0.0
  0
TEXT
  5
3AA
100
AcDbEntity
  8
L1_45
  6
CONTINUOUS
 62
         4
100
AcDbText
 10
1524.1442391511
 20
214.9526247161
 30
0.0
 40
3.5
  1
45
  7
BOX
100
AcDbText
  0
ENDBLK
  5
3AB
100
AcDbEntity
  8
0
  6
CONTINUOUS
100
AcDbBlockEnd
  0
BLOCK
  5
3AE
100
AcDbEntity
  8
0
100
AcDbBlockBegin
  2
*D4
 70
        65
 10
0.0
 20
0.0
 30
0.0
  3
*D4
  1

  0
POINT
  5
3B0
100
AcDbEntity
  8
DEFPOINTS
  6
CONTINUOUS
 62
         0
100
AcDbPoint
 10
1482.8786999334
 20
-89.9820337647
 30
0.0
  0
POINT
  5
3B1
100
AcDbEntity
  8
DEFPOINTS
  6
CONTINUOUS
 62
         0
100
AcDbPoint
 10
1482.8786999334
 20
-119.7859137397
 30
0.0
  0
POINT
  5
3B2
100
AcDbEntity
  8
DEFPOINTS
  6
CONTINUOUS
 62
         0
100
AcDbPoint
 10
1496.8786999334
 20
-118.7859137397
 30
0.0
  0
LINE
  5
3B3
100
AcDbEntity
  8
L1_45
  6
CONTINUOUS
 62
         4
100
AcDbLine
 10
1482.8786999334
 20
-118.0359137397
 30
0.0
 11
1482.8786999334
 21
-89.1070337647
 31
0.0
  0
LINE
  5
3B4
100
AcDbEntity
  8
L1_45
  6
CONTINUOUS
 62
         4
100
AcDbLine
 10
1496.8786999334
 20
-117.0359137397
 30
0.0
 11
1496.8786999334
 21
-89.1070337647
 31
0.0
  0
LINE
  5
3B5
100
AcDbEntity
  8
L1_45
  6
CONTINUOUS
 62
         4
100
AcDbLine
 10
1482.8786999334
 20
-89.9820337647
 30
0.0
 11
1496.8786999334
 21
-89.9820337647
 31
0.0
  0
SOLID
  5
3B6
100
AcDbEntity
  8
L1_45
  6
CONTINUOUS
 62
         4
100
AcDbTrace
 10
1482.8786999334
 20
-89.9820337647
 30
0.0
 11
1486.3786999334
 21
-89.4570337647
 31
0.0
 12
1486.3786999334
 22
-90.5070337647
 32
0.0
 13
1482.8786999334
 23
-89.9820337647
 33
0.0
  0
SOLID
  5
3B7
100
AcDbEntity
  8
L1_45
  6
CONTINUOUS
 62
         4
100
AcDbTrace
 10
1496.8786999334
 20
-89.9820337647
 30
0.0
 11
1493.3786999334
 21
-90.5070337647
 31
0.0
 12
1493.3786999334
 22
-89.4570337647
 32
0.0
 13
1496.8786999334
 23
-89.9820337647
 33
0.0
  0
TEXT
  5
3B9
100
AcDbEntity
  8
L1_45
  6
CONTINUOUS
 62
         4
100
AcDbText
 10
1486.66925904
 20
-87.3570337647
 30
0.0
 40
3.5
  1
14
  7
BOX
100
AcDbText
  0
ENDBLK
  5
3BA
100
AcDbEntity
  8
0
  6
CONTINUOUS
100
AcDbBlockEnd
  0
BLOCK
  5
3BC
100
AcDbEntity
  8
0
100
AcDbBlockBegin
  2
*D5
 70
        65
 10
0.0
 20
0.0
 30
0.0
  3
*D5
  1

  0
POINT
  5
3BE
100
AcDbEntity
  8
DEFPOINTS
  6
CONTINUOUS
 62
         0
100
AcDbPoint
 10
1482.8786999334
 20
-65.7031984855
 30
0.0
  0
POINT
  5
3BF
100
AcDbEntity
  8
DEFPOINTS
  6
CONTINUOUS
 62
         0
100
AcDbPoint
 10
1482.8786999334
 20
-119.7859137397
 30
0.0
  0
POINT
  5
3C0
100
AcDbEntity
  8
DEFPOINTS
  6
CONTINUOUS
 62
         0
100
AcDbPoint
 10
1549.8786999334
 20
-112.7400166132
 30
0.0
  0
LINE
  5
3C1
100
AcDbEntity
  8
L1_45
  6
CONTINUOUS
 62
         4
100
AcDbLine
 10
1482.8786999334
 20
-118.0359137397
 30
0.0
 11
1482.8786999334
 21
-64.8281984855
 31
0.0
  0
LINE
  5
3C2
100
AcDbEntity
  8
L1_45
  6
CONTINUOUS
 62
         4
100
AcDbLine
 10
1549.8786999334
 20
-110.9900166132
 30
0.0
 11
1549.8786999334
 21
-64.8281984855
 31
0.0
  0
LINE
  5
3C3
100
AcDbEntity
  8
L1_45
  6
CONTINUOUS
 62
         4
100
AcDbLine
 10
1482.8786999334
 20
-65.7031984855
 30
0.0
 11
1549.8786999334
 21
-65.7031984855
 31
0.0
  0
SOLID
  5
3C4
100
AcDbEntity
  8
L1_45
  6
CONTINUOUS
 62
         4
100
AcDbTrace
 10
1482.8786999334
 20
-65.7031984855
 30
0.0
 11
1486.3786999334
 21
-65.1781984855
 31
0.0
 12
1486.3786999334
 22
-66.2281984855
 32
0.0
 13
1482.8786999334
 23
-65.7031984855
 33
0.0
  0
SOLID
  5
3C5
100
AcDbEntity
  8
L1_45
  6
CONTINUOUS
 62
         4
100
AcDbTrace
 10
1549.8786999334
 20
-65.7031984855
 30
0.0
 11
1546.3786999334
 21
-66.2281984855
 31
0.0
 12
1546.3786999334
 22
-65.1781984855
 32
0.0
 13
1549.8786999334
 23
-65.7031984855
 33
0.0
  0
TEXT
  5
3C7
100
AcDbEntity
  8
L1_45
  6
CONTINUOUS
 62
         4
100
AcDbText
 10
1517.154935546
 20
-63.0781984855
 30
0.0
 40
3.5
  1
67
  7
BOX
100
AcDbText
  0
ENDBLK
  5
3C8
100
AcDbEntity
  8
0
  6
CONTINUOUS
100
AcDbBlockEnd
  0
BLOCK
  5
3CA
100
AcDbEntity
  8
0
100
AcDbBlockBegin
  2
*D6
 70
        65
 10
0.0
 20
0.0
 30
0.0
  3
*D6
  1

  0
POINT
  5
3CC
100
AcDbEntity
  8
DEFPOINTS
  6
CONTINUOUS
 62
         0
100
AcDbPoint
 10
1549.8786999334
 20
-186.2310958379
 30
0.0
  0
POINT
  5
3CD
100
AcDbEntity
  8
DEFPOINTS
  6
CONTINUOUS
 62
         0
100
AcDbPoint
 10
1549.8786999334
 20
-140.7400166132
 30
0.0
  0
POINT
  5
3CE
100
AcDbEntity
  8
DEFPOINTS
  6
CONTINUOUS
 62
         0
100
AcDbPoint
 10
1527.8786999334
 20
-136.4900166132
 30
0.0
  0
LINE
  5
3CF
100
AcDbEntity
  8
L1_45
  6
CONTINUOUS
 62
         4
100
AcDbLine
 10
1549.8786999334
 20
-142.4900166132
 30
0.0
 11
1549.8786999334
 21
-187.1060958379
 31
0.0
  0
LINE
  5
3D0
100
AcDbEntity
  8
L1_45
  6
CONTINUOUS
 62
         4
100
AcDbLine
 10
1527.8786999334
 20
-138.2400166132
 30
0.0
 11
1527.8786999334
 21
-187.1060958379
 31
0.0
  0
LINE
  5
3D1
100
AcDbEntity
  8
L1_45
  6
CONTINUOUS
 62
         4
100
AcDbLine
 10
1549.8786999334
 20
-186.2310958379
 30
0.0
 11
1527.8786999334
 21
-186.2310958379
 31
0.0
  0
SOLID
  5
3D2
100
AcDbEntity
  8
L1_45
  6
CONTINUOUS
 62
         4
100
AcDbTrace
 10
1549.8786999334
 20
-186.2310958379
 30
0.0
 11
1546.3786999334
 21
-186.7560958379
 31
0.0
 12
1546.3786999334
 22
-185.7060958379
 32
0.0
 13
1549.8786999334
 23
-186.2310958379
 33
0.0
  0
SOLID
  5
3D3
100
AcDbEntity
  8
L1_45
  6
CONTINUOUS
 62
         4
100
AcDbTrace
 10
1527.8786999334
 20
-186.2310958379
 30
0.0
 11
1531.3786999334
 21
-185.7060958379
 31
0.0
 12
1531.3786999334
 22
-186.7560958379
 32
0.0
 13
1527.8786999334
 23
-186.2310958379
 33
0.0
  0
TEXT
  5
3D5
100
AcDbEntity
  8
L1_45
  6
CONTINUOUS
 62
         4
100
AcDbText
 10
1534.3320938635
 20
-183.6060958379
 30
0.0
 40
3.5
  1
22.2
  7
BOX
100
AcDbText
  0
ENDBLK
  5
3D6
100
AcDbEntity
  8
0
  6
CONTINUOUS
100
AcDbBlockEnd
  0
BLOCK
  5
3D8
100
AcDbEntity
  8
0
100
AcDbBlockBegin
  2
*D7
 70
        65
 10
0.0
 20
0.0
 30
0.0
  3
*D7
  1

  0
POINT
  5
3DA
100
AcDbEntity
  8
DEFPOINTS
  6
CONTINUOUS
 62
         0
100
AcDbPoint
 10
1549.8786999334
 20
-194.6128667827
 30
0.0
  0
POINT
  5
3DB
100
AcDbEntity
  8
DEFPOINTS
  6
CONTINUOUS
 62
         0
100
AcDbPoint
 10
1549.8786999334
 20
-140.7400166132
 30
0.0
  0
POINT
  5
3DC
100
AcDbEntity
  8
DEFPOINTS
  6
CONTINUOUS
 62
         0
100
AcDbPoint
 10
1509.8786999334
 20
-136.4900166132
 30
0.0
  0
LINE
  5
3DD
100
AcDbEntity
  8
L1_45
  6
CONTINUOUS
 62
         4
100
AcDbLine
 10
1549.8786999334
 20
-142.4900166132
 30
0.0
 11
1549.8786999334
 21
-195.4878667827
 31
0.0
  0
LINE
  5
3DE
100
AcDbEntity
  8
L1_45
  6
CONTINUOUS
 62
         4
100
AcDbLine
 10
1509.8786999334
 20
-138.2400166132
 30
0.0
 11
1509.8786999334
 21
-195.4878667827
 31
0.0
  0
LINE
  5
3DF
100
AcDbEntity
  8
L1_45
  6
CONTINUOUS
 62
         4
100
AcDbLine
 10
1549.8786999334
 20
-194.6128667827
 30
0.0
 11
1509.8786999334
 21
-194.6128667827
 31
0.0
  0
SOLID
  5
3E0
100
AcDbEntity
  8
L1_45
  6
CONTINUOUS
 62
         4
100
AcDbTrace
 10
1549.8786999334
 20
-194.6128667827
 30
0.0
 11
1546.3786999334
 21
-195.1378667827
 31
0.0
 12
1546.3786999334
 22
-194.0878667827
 32
0.0
 13
1549.8786999334
 23
-194.6128667827
 33
0.0
  0
SOLID
  5
3E1
100
AcDbEntity
  8
L1_45
  6
CONTINUOUS
 62
         4
100
AcDbTrace
 10
1509.8786999334
 20
-194.6128667827
 30
0.0
 11
1513.3786999334
 21
-194.0878667827
 31
0.0
 12
1513.3786999334
 22
-195.1378667827
 32
0.0
 13
1509.8786999334
 23
-194.6128667827
 33
0.0
  0
TEXT
  5
3E3
100
AcDbEntity
  8
L1_45
  6
CONTINUOUS
 62
         4
100
AcDbText
 10
1521.7594374464
 20
-191.9878667827
 30
0.0
 40
3.5
  1
39.2
  7
BOX
100
AcDbText
  0
ENDBLK
  5
3E4
100
AcDbEntity
  8
0
  6
CONTINUOUS
100
AcDbBlockEnd
  0
BLOCK
  5
3FB
100
AcDbEntity
  8
0
100
AcDbBlockBegin
  2
*D8
 70
        65
 10
0.0
 20
0.0
 30
0.0
  3
*D8
  1

  0
POINT
  5
3FD
100
AcDbEntity
  8
DEFPOINTS
  6
CONTINUOUS
 62
         0
100
AcDbPoint
 10
1569.8707352512
 20
-116.9900166132
 30
0.0
  0
POINT
  5
3FE
100
AcDbEntity
  8
DEFPOINTS
  6
CONTINUOUS
 62
         0
100
AcDbPoint
 10
1526.4693132067
 20
-116.9900166132
 30
0.0
  0
POINT
  5
3FF
100
AcDbEntity
  8
DEFPOINTS
  6
CONTINUOUS
 62
         0
100
AcDbPoint
 10
1511.5378078994
 20
-136.4900166132
 30
0.0
  0
LINE
  5
400
100
AcDbEntity
  8
L1_45
  6
CONTINUOUS
 62
         4
100
AcDbLine
 10
1528.2193132067
 20
-116.9900166132
 30
0.0
 11
1570.7457352512
 21
-116.9900166132
 31
0.0
  0
LINE
  5
401
100
AcDbEntity
  8
L1_45
  6
CONTINUOUS
 62
         4
100
AcDbLine
 10
1513.2878078994
 20
-136.4900166132
 30
0.0
 11
1570.7457352512
 21
-136.4900166132
 31
0.0
  0
LINE
  5
402
100
AcDbEntity
  8
L1_45
  6
CONTINUOUS
 62
         4
100
AcDbLine
 10
1569.8707352512
 20
-116.9900166132
 30
0.0
 11
1569.8707352512
 21
-136.4900166132
 31
0.0
  0
SOLID
  5
403
100
AcDbEntity
  8
L1_45
  6
CONTINUOUS
 62
         4
100
AcDbTrace
 10
1569.8707352512
 20
-116.9900166132
 30
0.0
 11
1570.3957352512
 21
-120.4900166132
 31
0.0
 12
1569.3457352512
 22
-120.4900166132
 32
0.0
 13
1569.8707352512
 23
-116.9900166132
 33
0.0
  0
SOLID
  5
404
100
AcDbEntity
  8
L1_45
  6
CONTINUOUS
 62
         4
100
AcDbTrace
 10
1569.8707352512
 20
-136.4900166132
 30
0.0
 11
1569.3457352512
 21
-132.9900166132
 31
0.0
 12
1570.3957352512
 22
-132.9900166132
 32
0.0
 13
1569.8707352512
 23
-136.4900166132
 33
0.0
  0
TEXT
  5
406
100
AcDbEntity
  8
L1_45
  6
CONTINUOUS
 62
         4
100
AcDbText
 10
1567.2457352512
 20
-140.9877448899
 30
0.0
 40
3.5
  1
崷19.5
 50
90.0
  7
BOX
100
AcDbText
  0
ENDBLK
  5
407
100
AcDbEntity
  8
0
  6
CONTINUOUS
100
AcDbBlockEnd
  0
BLOCK
  5
40E
100
AcDbEntity
  8
0
100
AcDbBlockBegin
  2
*D9
 70
        65
 10
0.0
 20
0.0
 30
0.0
  3
*D9
  1

  0
POINT
  5
410
100
AcDbEntity
  8
DEFPOINTS
  6
CONTINUOUS
 62
         0
100
AcDbPoint
 10
1568.350691333
 20
128.2524144385
 30
0.0
  0
POINT
  5
411
100
AcDbEntity
  8
DEFPOINTS
  6
CONTINUOUS
 62
         0
100
AcDbPoint
 10
1547.8786999334
 20
128.2524144385
 30
0.0
  0
POINT
  5
412
100
AcDbEntity
  8
DEFPOINTS
  6
CONTINUOUS
 62
         0
100
AcDbPoint
 10
1547.8786999334
 20
96.2524144385
 30
0.0
  0
LINE
  5
413
100
AcDbEntity
  8
L1_45
  6
CONTINUOUS
 62
         4
100
AcDbLine
 10
1549.6286999334
 20
128.2524144385
 30
0.0
 11
1569.225691333
 21
128.2524144385
 31
0.0
  0
LINE
  5
414
100
AcDbEntity
  8
L1_45
  6
CONTINUOUS
 62
         4
100
AcDbLine
 10
1549.6286999334
 20
96.2524144385
 30
0.0
 11
1569.225691333
 21
96.2524144385
 31
0.0
  0
LINE
  5
415
100
AcDbEntity
  8
L1_45
  6
CONTINUOUS
 62
         4
100
AcDbLine
 10
1568.350691333
 20
128.2524144385
 30
0.0
 11
1568.350691333
 21
96.2524144385
 31
0.0
  0
SOLID
  5
416
100
AcDbEntity
  8
L1_45
  6
CONTINUOUS
 62
         4
100
AcDbTrace
 10
1568.350691333
 20
128.2524144385
 30
0.0
 11
1568.875691333
 21
124.7524144385
 31
0.0
 12
1567.825691333
 22
124.7524144385
 32
0.0
 13
1568.350691333
 23
128.2524144385
 33
0.0
  0
SOLID
  5
417
100
AcDbEntity
  8
L1_45
  6
CONTINUOUS
 62
         4
100
AcDbTrace
 10
1568.350691333
 20
96.2524144385
 30
0.0
 11
1567.825691333
 21
99.7524144385
 31
0.0
 12
1568.875691333
 22
99.7524144385
 32
0.0
 13
1568.350691333
 23
96.2524144385
 33
0.0
  0
TEXT
  5
419
100
AcDbEntity
  8
L1_45
  6
CONTINUOUS
 62
         4
100
AcDbText
 10
1565.725691333
 20
105.1752499959
 30
0.0
 40
3.5
  1
崷32
 50
90.0
  7
BOX
100
AcDbText
  0
ENDBLK
  5
41A
100
AcDbEntity
  8
0
  6
CONTINUOUS
100
AcDbBlockEnd
  0
BLOCK
  5
422
100
AcDbEntity
  8
0
100
AcDbBlockBegin
  2
*X10
 70
        65
 10
0.0
 20
0.0
 30
0.0
  3
*X10
  1

  0
LINE
  5
423
100
AcDbEntity
  8
L1_45
  6
CONTINUOUS
 62
         4
100
AcDbLine
 10
1539.4393742968
 20
-176.7400166132
 30
0.0
 11
1542.8786999334
 21
-173.3006909766
 31
0.0
  0
LINE
  5
424
100
AcDbEntity
  8
L1_45
  6
CONTINUOUS
 62
         4
100
AcDbLine
 10
1535.4224629486
 20
-176.5142872743
 30
0.0
 11
1542.8786999334
 21
-169.0580502895
 31
0.0
  0
LINE
  5
425
100
AcDbEntity
  8
L1_45
  6
CONTINUOUS
 62
         4
100
AcDbLine
 10
1533.869548678
 20
-173.8245608578
 30
0.0
 11
1542.8786999334
 21
-164.8154096024
 31
0.0
  0
LINE
  5
426
100
AcDbEntity
  8
L1_45
  6
CONTINUOUS
 62
         4
100
AcDbLine
 10
1532.3166344074
 20
-171.1348344413
 30
0.0
 11
1542.8786999334
 21
-160.5727689153
 31
0.0
  0
LINE
  5
427
100
AcDbEntity
  8
L1_45
  6
CONTINUOUS
 62
         4
100
AcDbLine
 10
1529.9688115484
 20
-169.2400166132
 30
0.0
 11
1542.8786999334
 21
-156.3301282282
 31
0.0
  0
LINE
  5
428
100
AcDbEntity
  8
L1_45
  6
CONTINUOUS
 62
         4
100
AcDbLine
 10
1518.2261708612
 20
-176.7400166132
 30
0.0
 11
1523.8536230728
 21
-171.1125644016
 31
0.0
  0
LINE
  5
429
100
AcDbEntity
  8
L1_45
  6
CONTINUOUS
 62
         4
100
AcDbLine
 10
1525.7261708612
 20
-169.2400166132
 30
0.0
 11
1542.8786999334
 21
-152.087487541
 31
0.0
  0
LINE
  5
42A
100
AcDbEntity
  8
L1_45
  6
CONTINUOUS
 62
         4
100
AcDbLine
 10
1513.9835301741
 20
-176.7400166132
 30
0.0
 11
1542.8786999334
 21
-147.8448468539
 31
0.0
  0
LINE
  5
42B
100
AcDbEntity
  8
L1_45
  6
CONTINUOUS
 62
         4
100
AcDbLine
 10
1547.9864339359
 20
-142.7371128514
 30
0.0
 11
1549.8757961716
 21
-140.8477506157
 31
0.0
  0
LINE
  5
42C
100
AcDbEntity
  8
L1_45
  6
CONTINUOUS
 62
         4
100
AcDbLine
 10
1509.740889487
 20
-176.7400166132
 30
0.0
 11
1542.8786999334
 21
-143.6022061668
 31
0.0
  0
LINE
  5
42D
100
AcDbEntity
  8
L1_45
  6
CONTINUOUS
 62
         4
100
AcDbLine
 10
1543.740889487
 20
-142.7400166132
 30
0.0
 11
1549.8786949875
 21
-136.6022111127
 31
0.0
  0
LINE
  5
42E
100
AcDbEntity
  8
L1_45
  6
CONTINUOUS
 62
         4
100
AcDbLine
 10
1507.8786999334
 20
-174.3595654797
 30
0.0
 11
1546.687929124
 21
-135.5503362891
 31
0.0
  0
LINE
  5
42F
100
AcDbEntity
  8
L1_45
  6
CONTINUOUS
 62
         4
100
AcDbLine
 10
1507.8786999334
 20
-170.1169247926
 30
0.0
 11
1542.5486549057
 21
-135.4469698203
 31
0.0
  0
LINE
  5
430
100
AcDbEntity
  8
L1_45
  6
CONTINUOUS
 62
         4
100
AcDbLine
 10
1507.8786999334
 20
-165.8742841054
 30
0.0
 11
1538.4093806873
 21
-135.3436033515
 31
0.0
  0
LINE
  5
431
100
AcDbEntity
  8
L1_45
  6
CONTINUOUS
 62
         4
100
AcDbLine
 10
1507.7886158
 20
-161.7217275518
 30
0.0
 11
1534.270106469
 21
-135.2402368827
 31
0.0
  0
LINE
  5
432
100
AcDbEntity
  8
L1_45
  6
CONTINUOUS
 62
         4
100
AcDbLine
 10
1503.6989400941
 20
-161.5687625705
 30
0.0
 11
1530.1308322507
 21
-135.1368704139
 31
0.0
  0
LINE
  5
433
100
AcDbEntity
  8
L1_45
  6
CONTINUOUS
 62
         4
100
AcDbLine
 10
1547.3546552959
 20
-117.9130473687
 30
0.0
 11
1549.8786999334
 21
-115.3890027312
 31
0.0
  0
LINE
  5
434
100
AcDbEntity
  8
L1_45
  6
CONTINUOUS
 62
         4
100
AcDbLine
 10
1499.9962692679
 20
-161.0287927096
 30
0.0
 11
1524.5350453643
 21
-136.4900166132
 31
0.0
  0
LINE
  5
435
100
AcDbEntity
  8
L1_45
  6
CONTINUOUS
 62
         4
100
AcDbLine
 10
1543.0033533575
 20
-118.02170862
 30
0.0
 11
1549.4814157342
 21
-111.5436462433
 31
0.0
  0
LINE
  5
436
100
AcDbEntity
  8
L1_45
  6
CONTINUOUS
 62
         4
100
AcDbLine
 10
1496.2935984417
 20
-160.4888228487
 30
0.0
 11
1520.2924046772
 21
-136.4900166132
 31
0.0
  0
LINE
  5
437
100
AcDbEntity
  8
L1_45
  6
CONTINUOUS
 62
         4
100
AcDbLine
 10
1538.652051419
 20
-118.1303698713
 30
0.0
 11
1546.0424046772
 21
-110.7400166132
 31
0.0
  0
LINE
  5
438
100
AcDbEntity
  8
L1_45
  6
CONTINUOUS
 62
         4
100
AcDbLine
 10
1492.5909276154
 20
-159.9488529878
 30
0.0
 11
1516.04976399
 21
-136.4900166132
 31
0.0
  0
LINE
  5
439
100
AcDbEntity
  8
L1_45
  6
CONTINUOUS
 62
         4
100
AcDbLine
 10
1534.3007494806
 20
-118.2390311226
 30
0.0
 11
1542.8786999334
 21
-109.6610806698
 31
0.0
  0
LINE
  5
43A
100
AcDbEntity
  8
L1_45
  6
CONTINUOUS
 62
         4
100
AcDbLine
 10
1489.0134736069
 20
-159.2836663092
 30
0.0
 11
1511.8071233029
 21
-136.4900166132
 31
0.0
  0
LINE
  5
43B
100
AcDbEntity
  8
L1_45
  6
CONTINUOUS
 62
         4
100
AcDbLine
 10
1529.9494475422
 20
-118.3476923739
 30
0.0
 11
1542.8786999334
 21
-105.4184399827
 31
0.0
  0
LINE
  5
43C
100
AcDbEntity
  8
L1_45
  6
CONTINUOUS
 62
         4
100
AcDbLine
 10
1488.2586999334
 20
-155.7957992956
 30
0.0
 11
1509.2489927098
 21
-134.8055065192
 31
0.0
  0
LINE
  5
43D
100
AcDbEntity
  8
L1_45
  6
CONTINUOUS
 62
         4
100
AcDbLine
 10
1526.7668979113
 20
-117.2876013177
 30
0.0
 11
1542.8786999334
 21
-101.1757992956
 31
0.0
  0
LINE
  5
43E
100
AcDbEntity
  8
L1_45
  6
CONTINUOUS
 62
         4
100
AcDbLine
 10
1488.2586999334
 20
-151.5531586085
 30
0.0
 11
1505.1708621176
 21
-134.6409964243
 31
0.0
  0
LINE
  5
43F
100
AcDbEntity
  8
L1_45
  6
CONTINUOUS
 62
         4
100
AcDbLine
 10
1522.8218419287
 20
-116.9900166132
 30
0.0
 11
1542.8786999334
 21
-96.9331586085
 31
0.0
  0
LINE
  5
440
100
AcDbEntity
  8
L1_45
  6
CONTINUOUS
 62
         4
100
AcDbLine
 10
1488.2586999334
 20
-147.3105179214
 30
0.0
 11
1501.0927315254
 21
-134.4764863293
 31
0.0
  0
LINE
  5
441
100
AcDbEntity
  8
L1_45
  6
CONTINUOUS
 62
         4
100
AcDbLine
 10
1518.5792012416
 20
-116.9900166132
 30
0.0
 11
1542.8786999334
 21
-92.6905179214
 31
0.0
  0
LINE
  5
442
100
AcDbEntity
  8
L1_45
  6
CONTINUOUS
 62
         4
100
AcDbLine
 10
1488.2586999334
 20
-143.0678772342
 30
0.0
 11
1496.6324576809
 21
-134.6941194867
 31
0.0
  0
LINE
  5
443
100
AcDbEntity
  8
L1_45
  6
CONTINUOUS
 62
         4
100
AcDbLine
 10
1496.8786999334
 20
-134.4478772342
 30
0.0
 11
1497.0146009333
 21
-134.3119762344
 31
0.0
  0
LINE
  5
444
100
AcDbEntity
  8
L1_45
  6
CONTINUOUS
 62
         4
100
AcDbLine
 10
1487.8439198673
 20
-139.2400166132
 30
0.0
 11
1492.3898169938
 21
-134.6941194867
 31
0.0
  0
LINE
  5
445
100
AcDbEntity
  8
L1_45
  6
CONTINUOUS
 62
         4
100
AcDbLine
 10
1508.3741176778
 20
-118.7098188028
 30
0.0
 11
1526.4134367255
 21
-100.6704997551
 31
0.0
  0
LINE
  5
446
100
AcDbEntity
  8
L1_45
  6
CONTINUOUS
 62
         4
100
AcDbLine
 10
1487.2586999334
 20
-135.58259586
 30
0.0
 11
1488.1471763067
 21
-134.6941194867
 31
0.0
  0
LINE
  5
447
100
AcDbEntity
  8
L1_45
  6
CONTINUOUS
 62
         4
100
AcDbLine
 10
1503.9531364431
 20
-118.8881593503
 30
0.0
 11
1523.9180703706
 21
-98.9232254228
 31
0.0
  0
LINE
  5
448
100
AcDbEntity
  8
L1_45
  6
CONTINUOUS
 62
         4
100
AcDbLine
 10
1527.5081455859
 20
-95.3331502075
 30
0.0
 11
1542.8786999334
 21
-79.96259586
 31
0.0
  0
LINE
  5
449
100
AcDbEntity
  8
L1_45
  6
CONTINUOUS
 62
         4
100
AcDbLine
 10
1463.4399475873
 20
-155.158707519
 30
0.0
 11
1464.0086999334
 21
-154.5899551729
 31
0.0
  0
LINE
  5
44A
100
AcDbEntity
  8
L1_45
  6
CONTINUOUS
 62
         4
100
AcDbLine
 10
1499.5321552085
 20
-119.0664998978
 30
0.0
 11
1521.4227040157
 21
-97.1759510905
 31
0.0
  0
LINE
  5
44B
100
AcDbEntity
  8
L1_45
  6
CONTINUOUS
 62
         4
100
AcDbLine
 10
1525.0127792311
 20
-93.5858758752
 30
0.0
 11
1541.8586384931
 21
-76.7400166132
 31
0.0
  0
LINE
  5
44C
100
AcDbEntity
  8
L1_45
  6
CONTINUOUS
 62
         4
100
AcDbLine
 10
1459.2668901794
 20
-155.0891242397
 30
0.0
 11
1464.0086999334
 21
-150.3473144858
 31
0.0
  0
LINE
  5
44D
100
AcDbEntity
  8
L1_45
  6
CONTINUOUS
 62
         4
100
AcDbLine
 10
1495.5701006795
 20
-118.7859137397
 30
0.0
 11
1518.9273376609
 21
-95.4286767583
 31
0.0
  0
LINE
  5
44E
100
AcDbEntity
  8
L1_45
  6
CONTINUOUS
 62
         4
100
AcDbLine
 10
1522.5174128762
 20
-91.838601543
 30
0.0
 11
1530.115997806
 21
-84.2400166132
 31
0.0
  0
LINE
  5
44F
100
AcDbEntity
  8
L1_45
  6
CONTINUOUS
 62
         4
100
AcDbLine
 10
1532.7343906207
 20
-81.6216237985
 30
0.0
 11
1537.615997806
 21
-76.7400166132
 31
0.0
  0
LINE
  5
450
100
AcDbEntity
  8
L1_45
  6
CONTINUOUS
 62
         4
100
AcDbLine
 10
1455.5642193532
 20
-154.5491543788
 30
0.0
 11
1464.0086999334
 21
-146.1046737987
 31
0.0
  0
LINE
  5
451
100
AcDbEntity
  8
L1_45
  6
CONTINUOUS
 62
         4
100
AcDbLine
 10
1491.3274599924
 20
-118.7859137397
 30
0.0
 11
1516.431971306
 21
-93.681402426
 31
0.0
  0
LINE
  5
452
100
AcDbEntity
  8
L1_45
  6
CONTINUOUS
 62
         4
100
AcDbLine
 10
1520.0220465213
 20
-90.0913272107
 30
0.0
 11
1525.8733571188
 21
-84.2400166132
 31
0.0
  0
LINE
  5
453
100
AcDbEntity
  8
L1_45
  6
CONTINUOUS
 62
         4
100
AcDbLine
 10
1451.861548527
 20
-154.0091845179
 30
0.0
 11
1464.0086999334
 21
-141.8620331115
 31
0.0
  0
LINE
  5
454
100
AcDbEntity
  8
L1_45
  6
CONTINUOUS
 62
         4
100
AcDbLine
 10
1487.2586999334
 20
-118.6120331115
 30
0.0
 11
1513.9366049512
 21
-91.9341280937
 31
0.0
  0
LINE
  5
455
100
AcDbEntity
  8
L1_45
  6
CONTINUOUS
 62
         4
100
AcDbLine
 10
1517.5266801665
 20
-88.3440528784
 30
0.0
 11
1523.7253828323
 21
-82.1453502126
 31
0.0
  0
LINE
  5
456
100
AcDbEntity
  8
L1_45
  6
CONTINUOUS
 62
         4
100
AcDbLine
 10
1448.1588777008
 20
-153.469214657
 30
0.0
 11
1465.0086999334
 21
-136.6193924244
 31
0.0
  0
LINE
  5
457
100
AcDbEntity
  8
L1_45
  6
CONTINUOUS
 62
         4
100
AcDbLine
 10
1487.2586999334
 20
-114.3693924244
 30
0.0
 11
1487.3880757446
 21
-114.2400166132
 31
0.0
  0
LINE
  5
458
100
AcDbEntity
  8
L1_45
  6
CONTINUOUS
 62
         4
100
AcDbLine
 10
1488.2586999334
 20
-113.3693924244
 30
0.0
 11
1511.4412385963
 21
-90.1868537615
 31
0.0
  0
LINE
  5
459
100
AcDbEntity
  8
L1_45
  6
CONTINUOUS
 62
         4
100
AcDbLine
 10
1515.0313138116
 20
-86.5967785462
 30
0.0
 11
1522.1724685617
 21
-79.4556237961
 31
0.0
  0
LINE
  5
45A
100
AcDbEntity
  8
L1_45
  6
CONTINUOUS
 62
         4
100
AcDbLine
 10
1444.4562068745
 20
-152.9292447961
 30
0.0
 11
1465.0086999334
 21
-132.3767517373
 31
0.0
  0
LINE
  5
45B
100
AcDbEntity
  8
L1_45
  6
CONTINUOUS
 62
         4
100
AcDbLine
 10
1488.2586999334
 20
-109.1267517373
 30
0.0
 11
1505.587423904
 21
-91.7980277667
 31
0.0
  0
LINE
  5
45C
100
AcDbEntity
  8
L1_45
  6
CONTINUOUS
 62
         4
100
AcDbLine
 10
1507.8786999334
 20
-89.5067517373
 30
0.0
 11
1508.9458722415
 21
-88.4395794292
 31
0.0
  0
LINE
  5
45D
100
AcDbEntity
  8
L1_45
  6
CONTINUOUS
 62
         4
100
AcDbLine
 10
1512.5359474568
 20
-84.8495042139
 30
0.0
 11
1520.6195542911
 21
-76.7658973796
 31
0.0
  0
LINE
  5
45E
100
AcDbEntity
  8
L1_45
  6
CONTINUOUS
 62
         4
100
AcDbLine
 10
1440.7535360483
 20
-152.3892749352
 30
0.0
 11
1455.9027943704
 21
-137.2400166132
 31
0.0
  0
LINE
  5
45F
100
AcDbEntity
  8
L1_45
  6
CONTINUOUS
 62
         4
100
AcDbLine
 10
1488.2586999334
 20
-104.8841110502
 30
0.0
 11
1500.8102796637
 21
-92.3325313199
 31
0.0
  0
LINE
  5
460
100
AcDbEntity
  8
L1_45
  6
CONTINUOUS
 62
         4
100
AcDbLine
 10
1510.4354893756
 20
-82.707321608
 30
0.0
 11
1516.4027943704
 21
-76.7400166132
 31
0.0
  0
LINE
  5
461
100
AcDbEntity
  8
L1_45
  6
CONTINUOUS
 62
         4
100
AcDbLine
 10
1437.0508652221
 20
-151.8493050744
 30
0.0
 11
1451.6601536832
 21
-137.2400166132
 31
0.0
  0
LINE
  5
462
100
AcDbEntity
  8
L1_45
  6
CONTINUOUS
 62
         4
100
AcDbLine
 10
1488.2586999334
 20
-100.6414703631
 30
0.0
 11
1495.8432903496
 21
-93.0568799468
 31
0.0
  0
LINE
  5
463
100
AcDbEntity
  8
L1_45
  6
CONTINUOUS
 62
         4
100
AcDbLine
 10
1507.9401230208
 20
-80.9600472757
 30
0.0
 11
1512.1601536832
 21
-76.7400166132
 31
0.0
  0
LINE
  5
464
100
AcDbEntity
  8
L1_45
  6
CONTINUOUS
 62
         4
100
AcDbLine
 10
1433.3481943959
 20
-151.3093352135
 30
0.0
 11
1447.4175129961
 21
-137.2400166132
 31
0.0
  0
LINE
  5
465
100
AcDbEntity
  8
L1_45
  6
CONTINUOUS
 62
         4
100
AcDbLine
 10
1463.1675129961
 20
-121.4900166132
 30
0.0
 11
1465.0086999334
 21
-119.6488296759
 31
0.0
  0
LINE
  5
466
100
AcDbEntity
  8
L1_45
  6
CONTINUOUS
 62
         4
100
AcDbLine
 10
1488.2586999334
 20
-96.3988296759
 30
0.0
 11
1490.8763010356
 21
-93.7812285738
 31
0.0
  0
LINE
  5
467
100
AcDbEntity
  8
L1_45
  6
CONTINUOUS
 62
         4
100
AcDbLine
 10
1429.6455235697
 20
-150.7693653526
 30
0.0
 11
1443.174872309
 21
-137.2400166132
 31
0.0
  0
LINE
  5
468
100
AcDbEntity
  8
L1_45
  6
CONTINUOUS
 62
         4
100
AcDbLine
 10
1460.6544440407
 20
-119.7604448815
 30
0.0
 11
1465.0086999334
 21
-115.4061889888
 31
0.0
  0
LINE
  5
469
100
AcDbEntity
  8
L1_45
  6
CONTINUOUS
 62
         4
100
AcDbLine
 10
1425.9428527434
 20
-150.2293954917
 30
0.0
 11
1438.9322316219
 21
-137.2400166132
 31
0.0
  0
LINE
  5
46A
100
AcDbEntity
  8
L1_45
  6
CONTINUOUS
 62
         4
100
AcDbLine
 10
1459.1015297701
 20
-117.070718465
 30
0.0
 11
1464.0086999334
 21
-112.1635483017
 31
0.0
  0
LINE
  5
46B
100
AcDbEntity
  8
L1_45
  6
CONTINUOUS
 62
         4
100
AcDbLine
 10
1422.2401819172
 20
-149.6894256308
 30
0.0
 11
1434.6895909348
 21
-137.2400166132
 31
0.0
  0
LINE
  5
46C
100
AcDbEntity
  8
L1_45
  6
CONTINUOUS
 62
         4
100
AcDbLine
 10
1455.6895909348
 20
-116.2400166132
 30
0.0
 11
1464.0086999334
 21
-107.9209076146
 31
0.0
  0
LINE
  5
46D
100
AcDbEntity
  8
L1_45
  6
CONTINUOUS
 62
         4
100
AcDbLine
 10
1418.537511091
 20
-149.1494557699
 30
0.0
 11
1430.4469502477
 21
-137.2400166132
 31
0.0
  0
LINE
  5
46E
100
AcDbEntity
  8
L1_45
  6
CONTINUOUS
 62
         4
100
AcDbLine
 10
1451.4469502477
 20
-116.2400166132
 30
0.0
 11
1464.0086999334
 21
-103.6782669275
 31
0.0
  0
LINE
  5
46F
100
AcDbEntity
  8
L1_45
  6
CONTINUOUS
 62
         4
100
AcDbLine
 10
1414.8348402648
 20
-148.609485909
 30
0.0
 11
1426.2043095605
 21
-137.2400166132
 31
0.0
  0
LINE
  5
470
100
AcDbEntity
  8
L1_45
  6
CONTINUOUS
 62
         4
100
AcDbLine
 10
1447.2043095605
 20
-116.2400166132
 30
0.0
 11
1464.0086999334
 21
-99.4356262403
 31
0.0
  0
LINE
  5
471
100
AcDbEntity
  8
L1_45
  6
CONTINUOUS
 62
         4
100
AcDbLine
 10
1411.1321694385
 20
-148.0695160481
 30
0.0
 11
1421.9616688734
 21
-137.2400166132
 31
0.0
  0
LINE
  5
472
100
AcDbEntity
  8
L1_45
  6
CONTINUOUS
 62
         4
100
AcDbLine
 10
1442.9616688734
 20
-116.2400166132
 30
0.0
 11
1461.0743651512
 21
-98.1273203354
 31
0.0
  0
LINE
  5
473
100
AcDbEntity
  8
L1_45
  6
CONTINUOUS
 62
         4
100
AcDbLine
 10
1407.4294986123
 20
-147.5295461872
 30
0.0
 11
1415.4190281863
 21
-139.5400166132
 31
0.0
  0
LINE
  5
474
100
AcDbEntity
  8
L1_45
  6
CONTINUOUS
 62
         4
100
AcDbLine
 10
1416.0786999334
 20
-138.8803448661
 30
0.0
 11
1417.7190281863
 21
-137.2400166132
 31
0.0
  0
LINE
  5
475
100
AcDbEntity
  8
L1_45
  6
CONTINUOUS
 62
         4
100
AcDbLine
 10
1438.7190281863
 20
-116.2400166132
 30
0.0
 11
1456.1073758371
 21
-98.8516689624
 31
0.0
  0
LINE
  5
476
100
AcDbEntity
  8
L1_45
  6
CONTINUOUS
 62
         4
100
AcDbLine
 10
1403.7430623585
 20
-146.9733417539
 30
0.0
 11
1411.4763874992
 21
-139.2400166132
 31
0.0
  0
LINE
  5
477
100
AcDbEntity
  8
L1_45
  6
CONTINUOUS
 62
         4
100
AcDbLine
 10
1434.4763874992
 20
-116.2400166132
 30
0.0
 11
1451.1403865231
 21
-99.5760175893
 31
0.0
  0
LINE
  5
478
100
AcDbEntity
  8
L1_45
  6
CONTINUOUS
 62
         4
100
AcDbLine
 10
1403.0736999334
 20
-143.4000634919
 30
0.0
 11
1407.2337468121
 21
-139.2400166132
 31
0.0
  0
LINE
  5
479
100
AcDbEntity
  8
L1_45
  6
CONTINUOUS
 62
         4
100
AcDbLine
 10
1430.2337468121
 20
-116.2400166132
 30
0.0
 11
1446.173397209
 21
-100.3003662162
 31
0.0
  0
LINE
  5
47A
100
AcDbEntity
  8
L1_45
  6
CONTINUOUS
 62
         4
100
AcDbLine
 10
1425.9911061249
 20
-116.2400166132
 30
0.0
 11
1441.2064078949
 21
-101.0247148432
 31
0.0
  0
LINE
  5
47B
100
AcDbEntity
  8
L1_45
  6
CONTINUOUS
 62
         4
100
AcDbLine
 10
1421.7484654378
 20
-116.2400166132
 30
0.0
 11
1436.2394185809
 21
-101.7490634701
 31
0.0
  0
LINE
  5
47C
100
AcDbEntity
  8
L1_45
  6
CONTINUOUS
 62
         4
100
AcDbLine
 10
1417.5058247507
 20
-116.2400166132
 30
0.0
 11
1431.2724292668
 21
-102.4734120971
 31
0.0
  0
LINE
  5
47D
100
AcDbEntity
  8
L1_45
  6
CONTINUOUS
 62
         4
100
AcDbLine
 10
1415.5579299018
 20
-113.945270775
 30
0.0
 11
1426.3054399528
 21
-103.197760724
 31
0.0
  0
LINE
  5
47E
100
AcDbEntity
  8
L1_45
  6
CONTINUOUS
 62
         4
100
AcDbLine
 10
1411.0205433765
 20
-114.2400166132
 30
0.0
 11
1421.3384506387
 21
-103.922109351
 31
0.0
  0
LINE
  5
47F
100
AcDbEntity
  8
L1_45
  6
CONTINUOUS
 62
         4
100
AcDbLine
 10
1406.7779026893
 20
-114.2400166132
 30
0.0
 11
1416.3714613246
 21
-104.6464579779
 31
0.0
  0
LINE
  5
480
100
AcDbEntity
  8
L1_45
  6
CONTINUOUS
 62
         4
100
AcDbLine
 10
1403.3681486866
 20
-113.4071299288
 30
0.0
 11
1411.4044720106
 21
-105.3708066048
 31
0.0
  0
LINE
  5
481
100
AcDbEntity
  8
L1_45
  6
CONTINUOUS
 62
         4
100
AcDbLine
 10
1403.0736999334
 20
-109.4589379949
 30
0.0
 11
1406.4374826965
 21
-106.0951552318
 31
0.0
  0
ENDBLK
  5
482
100
AcDbEntity
  8
0
  6
CONTINUOUS
100
AcDbBlockEnd
  0
ENDSEC
  0
SECTION
  2
ENTITIES
  0
LINE
  5
27
100
AcDbEntity
  8
_Y__________
  6
CONTINUOUS
 62
         5
100
AcDbLine
 10
1448.0686999334
 20
-114.7400166132
 30
0.0
 11
1454.0736999334
 21
-116.2400166132
 31
0.0
  0
LINE
  5
28
100
AcDbEntity
  8
_Y__________
  6
CONTINUOUS
 62
         5
100
AcDbLine
 10
1448.0686999334
 20
-138.7400166132
 30
0.0
 11
1454.0736999334
 21
-137.2400166132
 31
0.0
  0
LINE
  5
29
100
AcDbEntity
  8
_X______
  6
CONTINUOUS
 62
         4
100
AcDbLine
 10
1529.77053762
 20
-96.9172941642
 30
0.0
 11
1531.635298259
 21
-98.2230136205
 31
0.0
  0
LINE
  5
2A
100
AcDbEntity
  8
_X______
  6
CONTINUOUS
 62
         4
100
AcDbLine
 10
1531.3837013013
 20
-101.0987800061
 30
0.0
 11
1528.7674160772
 21
-102.318773842
 31
0.0
  0
LINE
  5
2B
100
AcDbEntity
  8
_X______
  6
CONTINUOUS
 62
         4
100
AcDbLine
 10
1531.635298259
 20
-98.2230136205
 30
0.0
 11
1531.3837013013
 21
-101.0987800061
 31
0.0
  0
LINE
  5
2C
100
AcDbEntity
  8
_X______
  6
CONTINUOUS
 62
         4
100
AcDbLine
 10
1531.635298259
 20
-98.2230136205
 30
0.0
 11
1528.7674160772
 21
-102.318773842
 31
0.0
  0
LINE
  5
2D
100
AcDbEntity
  8
_X______
  6
CONTINUOUS
 62
         4
100
AcDbLine
 10
1526.5443228504
 20
-100.7621472064
 30
0.0
 11
1528.7674160772
 21
-102.318773842
 31
0.0
  0
LINE
  5
2E
100
AcDbEntity
  8
_X______
  6
CONTINUOUS
 62
         7
100
AcDbLine
 10
1518.5407749604
 20
-116.9900166132
 30
0.0
 11
1538.8810840036
 21
-92.7493802366
 31
0.0
  0
LINE
  5
2F
100
AcDbEntity
  8
_X______
  6
CONTINUOUS
 62
         7
100
AcDbLine
 10
1512.9275236163
 20
-116.9900166132
 30
0.0
 11
1535.5870928981
 21
-89.9853935149
 31
0.0
  0
LINE
  5
30
100
AcDbEntity
  8
_X______
  6
CONTINUOUS
 62
         7
100
AcDbLine
 10
1535.4488671029
 20
-89.6056212636
 30
0.0
 11
1535.5870928981
 21
-89.9853935149
 31
0.0
  0
LINE
  5
31
100
AcDbEntity
  8
_X______
  6
CONTINUOUS
 62
         7
100
AcDbLine
 10
1535.4488671029
 20
-89.6056212636
 30
0.0
 11
1542.8786999334
 21
-80.7510912955
 31
0.0
  0
LINE
  5
32
100
AcDbEntity
  8
_X______
  6
CONTINUOUS
 62
         7
100
AcDbLine
 10
1535.4488671029
 20
-89.6056212636
 30
0.0
 11
1539.2790893185
 21
-92.8195593121
 31
0.0
  0
LINE
  5
33
100
AcDbEntity
  8
_X______
  6
CONTINUOUS
 62
         7
100
AcDbLine
 10
1535.5870928981
 20
-89.9853935149
 30
0.0
 11
1538.8810840036
 21
-92.7493802366
 31
0.0
  0
LINE
  5
34
100
AcDbEntity
  8
_X______
  6
CONTINUOUS
 62
         7
100
AcDbLine
 10
1539.2790893185
 20
-92.8195593121
 30
0.0
 11
1538.8810840036
 21
-92.7493802366
 31
0.0
  0
LINE
  5
35
100
AcDbEntity
  8
_X______
  6
CONTINUOUS
 62
         7
100
AcDbLine
 10
1539.2790893185
 20
-92.8195593121
 30
0.0
 11
1542.8786999334
 21
-88.5297104298
 31
0.0
  0
LINE
  5
36
100
AcDbEntity
  8
_X______
  6
CENTER
 62
         1
100
AcDbLine
 10
1545.9454542509
 20
-80.9855853871
 30
0.0
 11
1515.7341492884
 21
-116.9900166132
 31
0.0
  0
LINE
  5
37
100
AcDbEntity
  8
_X______
  6
CONTINUOUS
 62
         4
100
AcDbLine
 10
1511.5097334289
 20
-83.5205541214
 30
0.0
 11
1515.6054936503
 21
-86.3884363031
 31
0.0
  0
LINE
  5
38
100
AcDbEntity
  8
_X______
  6
CONTINUOUS
 62
         4
100
AcDbLine
 10
1508.0682748107
 20
-88.4354663871
 30
0.0
 11
1512.1640350322
 21
-91.3033485688
 31
0.0
  0
LINE
  5
39
100
AcDbEntity
  8
_X______
  6
CONTINUOUS
 62
         7
100
AcDbLine
 10
1515.6054936503
 20
-86.3884363031
 30
0.0
 11
1512.1640350322
 21
-91.3033485688
 31
0.0
  0
LINE
  5
3A
100
AcDbEntity
  8
_X______
  6
CONTINUOUS
 62
         7
100
AcDbLine
 10
1511.5384122507
 20
-83.4795965191
 30
0.0
 11
1508.0682748107
 21
-88.4354663871
 31
0.0
  0
LINE
  5
3B
100
AcDbEntity
  8
_X______
  6
CONTINUOUS
 62
         7
100
AcDbLine
 10
1508.0682748107
 20
-88.4354663871
 30
0.0
 11
1507.9536658886
 21
-88.5991448907
 31
0.0
  0
LINE
  5
3C
100
AcDbEntity
  8
_X______
  6
CONTINUOUS
 62
         7
100
AcDbLine
 10
1507.8786999334
 20
-88.5394425703
 30
0.0
 11
1507.9536658886
 21
-88.5991448907
 31
0.0
  0
LINE
  5
3D
100
AcDbEntity
  8
_X______
  6
CONTINUOUS
 62
         7
100
AcDbLine
 10
1507.8786999334
 20
-80.9170383669
 30
0.0
 11
1511.5384122507
 21
-83.4795965191
 31
0.0
  0
LINE
  5
3E
100
AcDbEntity
  8
_X______
  6
CONTINUOUS
 62
         7
100
AcDbLine
 10
1508.3550630289
 20
-88.0258903649
 30
0.0
 11
1526.5443228504
 21
-100.7621472064
 31
0.0
  0
LINE
  5
3F
100
AcDbEntity
  8
_X______
  6
CONTINUOUS
 62
         7
100
AcDbLine
 10
1511.2229452107
 20
-83.9301301435
 30
0.0
 11
1529.77053762
 21
-96.9172941642
 31
0.0
  0
LINE
  5
40
100
AcDbEntity
  8
_X______
  6
CENTER
 62
         1
100
AcDbLine
 10
1505.1906090244
 20
-82.7581793447
 30
0.0
 11
1531.3837013013
 21
-101.0987800061
 31
0.0
  0
LINE
  5
41
100
AcDbEntity
  8
_X______
  6
CENTER
 62
         1
100
AcDbLine
 10
1863.7361129304
 20
63.1908673872
 30
0.0
 11
1825.980360309
 21
166.6625523489
 31
0.0
  0
LINE
  5
42
100
AcDbEntity
  8
_X______
  6
DASHED
 62
         2
100
AcDbLine
 10
1858.0285633198
 20
71.5394671569
 30
0.0
 11
1856.1432581733
 21
76.7062480217
 31
0.0
  0
LINE
  5
43
100
AcDbEntity
  8
_X______
  6
DASHED
 62
         2
100
AcDbLine
 10
1862.7256368333
 20
73.2533809265
 30
0.0
 11
1860.8403316867
 21
78.4201617913
 31
0.0
  0
LINE
  5
44
100
AcDbEntity
  8
_X______
  6
DASHED
 62
         2
100
AcDbLine
 10
1856.1432581733
 20
76.7062480217
 30
0.0
 11
1860.8403316867
 21
78.4201617913
 31
0.0
  0
LINE
  5
45
100
AcDbEntity
  8
_X______
  6
DASHED
 62
         2
100
AcDbLine
 10
1860.5115365408
 20
78.3001878274
 30
0.0
 11
1850.316773309
 21
106.2394886264
 31
0.0
  0
LINE
  5
46
100
AcDbEntity
  8
_X______
  6
DASHED
 62
         2
100
AcDbLine
 10
1856.4720533193
 20
76.8262219855
 30
0.0
 11
1846.2772900874
 21
104.7655227846
 31
0.0
  0
POLYLINE
  5
48
100
AcDbEntity
  8
_X______
  6
CONTINUOUS
 62
         7
100
AcDb2dPolyline
 66
         1
 10
0.0
 20
0.0
 30
0.0
 70
         2
  0
VERTEX
  5
4A
100
AcDbEntity
  8
_X______
  6
CONTINUOUS
 62
         7
100
AcDbVertex
100
AcDb2dVertex
 10
1861.0882728493
 20
70.4486004867
 30
0.0
 70
         1
  0
VERTEX
  5
4C
100
AcDbEntity
  8
_X______
  6
CONTINUOUS
 62
         7
100
AcDbVertex
100
AcDb2dVertex
 10
1861.4391313819
 20
70.6216402806
 30
0.0
 70
         1
  0
VERTEX
  5
4E
100
AcDbEntity
  8
_X______
  6
CONTINUOUS
 62
         7
100
AcDbVertex
100
AcDb2dVertex
 10
1861.5844166275
 20
70.723966012
 30
0.0
 70
         1
  0
VERTEX
  5
50
100
AcDbEntity
  8
_X______
  6
CONTINUOUS
 62
         7
100
AcDbVertex
100
AcDb2dVertex
 10
1861.7246710025
 20
70.8440463999
 30
0.0
 70
         1
  0
VERTEX
  5
52
100
AcDbEntity
  8
_X______
  6
CONTINUOUS
 62
         7
100
AcDbVertex
100
AcDb2dVertex
 10
1861.8582397276
 20
70.982019299
 30
0.0
 70
         1
  0
VERTEX
  5
54
100
AcDbEntity
  8
_X______
  6
CONTINUOUS
 62
         7
100
AcDbVertex
100
AcDb2dVertex
 10
1861.9834606882
 20
71.1376848799
 30
0.0
 70
         1
  0
VERTEX
  5
56
100
AcDbEntity
  8
_X______
  6
CONTINUOUS
 62
         7
100
AcDbVertex
100
AcDb2dVertex
 10
1862.0987184677
 20
71.310479204
 30
0.0
 70
         1
  0
VERTEX
  5
58
100
AcDbEntity
  8
_X______
  6
CONTINUOUS
 62
         7
100
AcDbVertex
100
AcDb2dVertex
 10
1862.2025019021
 20
71.4994631038
 30
0.0
 70
         1
  0
VERTEX
  5
5A
100
AcDbEntity
  8
_X______
  6
CONTINUOUS
 62
         7
100
AcDbVertex
100
AcDb2dVertex
 10
1862.2934615158
 20
71.7033289191
 30
0.0
 70
         1
  0
VERTEX
  5
5C
100
AcDbEntity
  8
_X______
  6
CONTINUOUS
 62
         7
100
AcDbVertex
100
AcDb2dVertex
 10
1862.3704627766
 20
71.9204262618
 30
0.0
 70
         1
  0
VERTEX
  5
5E
100
AcDbEntity
  8
_X______
  6
CONTINUOUS
 62
         7
100
AcDbVertex
100
AcDb2dVertex
 10
1862.4326311283
 20
72.1488063006
 30
0.0
 70
         1
  0
VERTEX
  5
60
100
AcDbEntity
  8
_X______
  6
CONTINUOUS
 62
         7
100
AcDbVertex
100
AcDb2dVertex
 10
1862.479385265
 20
72.3862822908
 30
0.0
 70
         1
  0
VERTEX
  5
62
100
AcDbEntity
  8
_X______
  6
CONTINUOUS
 62
         7
100
AcDbVertex
100
AcDb2dVertex
 10
1862.5174576784
 20
72.7147945964
 30
0.0
 70
         1
  0
VERTEX
  5
64
100
AcDbEntity
  8
_X______
  6
CONTINUOUS
 62
         7
100
AcDbVertex
100
AcDb2dVertex
 10
1862.5276168079
 20
73.0495517258
 30
0.0
 70
         1
  0
VERTEX
  5
66
100
AcDbEntity
  8
_X______
  6
CONTINUOUS
 62
         7
100
AcDbVertex
100
AcDb2dVertex
 10
1862.5110487773
 20
73.384763853
 30
0.0
 70
         1
  0
VERTEX
  5
68
100
AcDbEntity
  8
_X______
  6
CONTINUOUS
 62
         7
100
AcDbVertex
100
AcDb2dVertex
 10
1862.4697527287
 20
73.7150349606
 30
0.0
 70
         1
  0
VERTEX
  5
6A
100
AcDbEntity
  8
_X______
  6
CONTINUOUS
 62
         7
100
AcDbVertex
100
AcDb2dVertex
 10
1862.4063516508
 20
74.0356156851
 30
0.0
 70
         1
  0
VERTEX
  5
6C
100
AcDbEntity
  8
_X______
  6
CONTINUOUS
 62
         7
100
AcDbVertex
100
AcDb2dVertex
 10
1862.3238790606
 20
74.3425723866
 30
0.0
 70
         1
  0
VERTEX
  5
6E
100
AcDbEntity
  8
_X______
  6
CONTINUOUS
 62
         7
100
AcDbVertex
100
AcDb2dVertex
 10
1862.1887685927
 20
74.7282358345
 30
0.0
 70
         1
  0
VERTEX
  5
70
100
AcDbEntity
  8
_X______
  6
CONTINUOUS
 62
         7
100
AcDbVertex
100
AcDb2dVertex
 10
1862.0328782299
 20
75.0791165428
 30
0.0
 70
         1
  0
VERTEX
  5
72
100
AcDbEntity
  8
_X______
  6
CONTINUOUS
 62
         7
100
AcDbVertex
100
AcDb2dVertex
 10
1861.8634266887
 20
75.3929908767
 30
0.0
 70
         1
  0
VERTEX
  5
74
100
AcDbEntity
  8
_X______
  6
CONTINUOUS
 62
         7
100
AcDbVertex
100
AcDb2dVertex
 10
1861.6866703724
 20
75.6697506259
 30
0.0
 70
         1
  0
VERTEX
  5
76
100
AcDbEntity
  8
_X______
  6
CONTINUOUS
 62
         7
100
AcDbVertex
100
AcDb2dVertex
 10
1861.5077321809
 20
75.910839172
 30
0.0
 70
         1
  0
VERTEX
  5
78
100
AcDbEntity
  8
_X______
  6
CONTINUOUS
 62
         7
100
AcDbVertex
100
AcDb2dVertex
 10
1861.3305941018
 20
76.1187193449
 30
0.0
 70
         1
  0
VERTEX
  5
7A
100
AcDbEntity
  8
_X______
  6
CONTINUOUS
 62
         7
100
AcDbVertex
100
AcDb2dVertex
 10
1861.099935543
 20
76.35158232
 30
0.0
 70
         1
  0
VERTEX
  5
7C
100
AcDbEntity
  8
_X______
  6
CONTINUOUS
 62
         7
100
AcDbVertex
100
AcDb2dVertex
 10
1860.8824565229
 20
76.5377224713
 30
0.0
 70
         1
  0
VERTEX
  5
7E
100
AcDbEntity
  8
_X______
  6
CONTINUOUS
 62
         7
100
AcDbVertex
100
AcDb2dVertex
 10
1860.6806450327
 20
76.6849157526
 30
0.0
 70
         1
  0
VERTEX
  5
80
100
AcDbEntity
  8
_X______
  6
CONTINUOUS
 62
         7
100
AcDbVertex
100
AcDb2dVertex
 10
1860.4343027863
 20
76.834328544
 30
0.0
 70
         1
  0
VERTEX
  5
82
100
AcDbEntity
  8
_X______
  6
CONTINUOUS
 62
         7
100
AcDbVertex
100
AcDb2dVertex
 10
1860.2177539549
 20
76.9400109731
 30
0.0
 70
         1
  0
VERTEX
  5
84
100
AcDbEntity
  8
_X______
  6
CONTINUOUS
 62
         7
100
AcDbVertex
100
AcDb2dVertex
 10
1860.0288325888
 20
77.0134419759
 30
0.0
 70
         1
  0
VERTEX
  5
86
100
AcDbEntity
  8
_X______
  6
CONTINUOUS
 62
         7
100
AcDbVertex
100
AcDb2dVertex
 10
1859.8112767341
 20
77.076788496
 30
0.0
 70
         1
  0
VERTEX
  5
88
100
AcDbEntity
  8
_X______
  6
CONTINUOUS
 62
         7
100
AcDbVertex
100
AcDb2dVertex
 10
1859.574047209
 20
77.1200219412
 30
0.0
 70
         1
  0
VERTEX
  5
8A
100
AcDbEntity
  8
_X______
  6
CONTINUOUS
 62
         7
100
AcDbVertex
100
AcDb2dVertex
 10
1859.3912821641
 20
77.1346166601
 30
0.0
 70
         1
  0
VERTEX
  5
8C
100
AcDbEntity
  8
_X______
  6
CONTINUOUS
 62
         7
100
AcDbVertex
100
AcDb2dVertex
 10
1859.2041001626
 20
77.1320703036
 30
0.0
 70
         1
  0
VERTEX
  5
8E
100
AcDbEntity
  8
_X______
  6
CONTINUOUS
 62
         7
100
AcDbVertex
100
AcDb2dVertex
 10
1859.0278776379
 20
77.1126772122
 30
0.0
 70
         1
  0
VERTEX
  5
90
100
AcDbEntity
  8
_X______
  6
CONTINUOUS
 62
         7
100
AcDbVertex
100
AcDb2dVertex
 10
1858.8324710833
 20
77.0705239626
 30
0.0
 70
         1
  0
VERTEX
  5
92
100
AcDbEntity
  8
_X______
  6
CONTINUOUS
 62
         7
100
AcDbVertex
100
AcDb2dVertex
 10
1858.694131846
 20
77.0264488322
 30
0.0
 70
         1
  0
VERTEX
  5
94
100
AcDbEntity
  8
_X______
  6
CONTINUOUS
 62
         7
100
AcDbVertex
100
AcDb2dVertex
 10
1858.694131846
 20
77.0264488322
 30
0.0
 70
         1
  0
VERTEX
  5
96
100
AcDbEntity
  8
_X______
  6
CONTINUOUS
 62
         7
100
AcDbVertex
100
AcDb2dVertex
 10
1858.3432733134
 20
76.8534090383
 30
0.0
 70
         1
  0
VERTEX
  5
98
100
AcDbEntity
  8
_X______
  6
CONTINUOUS
 62
         7
100
AcDbVertex
100
AcDb2dVertex
 10
1858.1979880678
 20
76.751083307
 30
0.0
 70
         1
  0
VERTEX
  5
9A
100
AcDbEntity
  8
_X______
  6
CONTINUOUS
 62
         7
100
AcDbVertex
100
AcDb2dVertex
 10
1858.0577336928
 20
76.6310029191
 30
0.0
 70
         1
  0
VERTEX
  5
9C
100
AcDbEntity
  8
_X______
  6
CONTINUOUS
 62
         7
100
AcDbVertex
100
AcDb2dVertex
 10
1857.9241649677
 20
76.49303002
 30
0.0
 70
         1
  0
VERTEX
  5
9E
100
AcDbEntity
  8
_X______
  6
CONTINUOUS
 62
         7
100
AcDbVertex
100
AcDb2dVertex
 10
1857.7989440071
 20
76.337364439
 30
0.0
 70
         1
  0
VERTEX
  5
A0
100
AcDbEntity
  8
_X______
  6
CONTINUOUS
 62
         7
100
AcDbVertex
100
AcDb2dVertex
 10
1857.6836862276
 20
76.1645701149
 30
0.0
 70
         1
  0
VERTEX
  5
A2
100
AcDbEntity
  8
_X______
  6
CONTINUOUS
 62
         7
100
AcDbVertex
100
AcDb2dVertex
 10
1857.5799027932
 20
75.9755862152
 30
0.0
 70
         1
  0
VERTEX
  5
A4
100
AcDbEntity
  8
_X______
  6
CONTINUOUS
 62
         7
100
AcDbVertex
100
AcDb2dVertex
 10
1857.4889431796
 20
75.7717203998
 30
0.0
 70
         1
  0
VERTEX
  5
A6
100
AcDbEntity
  8
_X______
  6
CONTINUOUS
 62
         7
100
AcDbVertex
100
AcDb2dVertex
 10
1857.4119419188
 20
75.5546230571
 30
0.0
 70
         1
  0
VERTEX
  5
A8
100
AcDbEntity
  8
_X______
  6
CONTINUOUS
 62
         7
100
AcDbVertex
100
AcDb2dVertex
 10
1857.3497735671
 20
75.3262430183
 30
0.0
 70
         1
  0
VERTEX
  5
AA
100
AcDbEntity
  8
_X______
  6
CONTINUOUS
 62
         7
100
AcDbVertex
100
AcDb2dVertex
 10
1857.3030194304
 20
75.0887670281
 30
0.0
 70
         1
  0
VERTEX
  5
AC
100
AcDbEntity
  8
_X______
  6
CONTINUOUS
 62
         7
100
AcDbVertex
100
AcDb2dVertex
 10
1857.264947017
 20
74.7602547225
 30
0.0
 70
         1
  0
VERTEX
  5
AE
100
AcDbEntity
  8
_X______
  6
CONTINUOUS
 62
         7
100
AcDbVertex
100
AcDb2dVertex
 10
1857.2547878875
 20
74.4254975932
 30
0.0
 70
         1
  0
VERTEX
  5
B0
100
AcDbEntity
  8
_X______
  6
CONTINUOUS
 62
         7
100
AcDbVertex
100
AcDb2dVertex
 10
1857.2713559181
 20
74.090285466
 30
0.0
 70
         1
  0
VERTEX
  5
B2
100
AcDbEntity
  8
_X______
  6
CONTINUOUS
 62
         7
100
AcDbVertex
100
AcDb2dVertex
 10
1857.3126519667
 20
73.7600143584
 30
0.0
 70
         1
  0
VERTEX
  5
B4
100
AcDbEntity
  8
_X______
  6
CONTINUOUS
 62
         7
100
AcDbVertex
100
AcDb2dVertex
 10
1857.3760530446
 20
73.4394336339
 30
0.0
 70
         1
  0
VERTEX
  5
B6
100
AcDbEntity
  8
_X______
  6
CONTINUOUS
 62
         7
100
AcDbVertex
100
AcDb2dVertex
 10
1857.4585256347
 20
73.1324769323
 30
0.0
 70
         1
  0
VERTEX
  5
B8
100
AcDbEntity
  8
_X______
  6
CONTINUOUS
 62
         7
100
AcDbVertex
100
AcDb2dVertex
 10
1857.5936361027
 20
72.7468134844
 30
0.0
 70
         1
  0
VERTEX
  5
BA
100
AcDbEntity
  8
_X______
  6
CONTINUOUS
 62
         7
100
AcDbVertex
100
AcDb2dVertex
 10
1857.7495264654
 20
72.3959327762
 30
0.0
 70
         1
  0
VERTEX
  5
BC
100
AcDbEntity
  8
_X______
  6
CONTINUOUS
 62
         7
100
AcDbVertex
100
AcDb2dVertex
 10
1857.9189780066
 20
72.0820584423
 30
0.0
 70
         1
  0
VERTEX
  5
BE
100
AcDbEntity
  8
_X______
  6
CONTINUOUS
 62
         7
100
AcDbVertex
100
AcDb2dVertex
 10
1858.0957343229
 20
71.805298693
 30
0.0
 70
         1
  0
VERTEX
  5
C0
100
AcDbEntity
  8
_X______
  6
CONTINUOUS
 62
         7
100
AcDbVertex
100
AcDb2dVertex
 10
1858.2746725145
 20
71.564210147
 30
0.0
 70
         1
  0
VERTEX
  5
C2
100
AcDbEntity
  8
_X______
  6
CONTINUOUS
 62
         7
100
AcDbVertex
100
AcDb2dVertex
 10
1858.4518105935
 20
71.3563299741
 30
0.0
 70
         1
  0
VERTEX
  5
C4
100
AcDbEntity
  8
_X______
  6
CONTINUOUS
 62
         7
100
AcDbVertex
100
AcDb2dVertex
 10
1858.6824691523
 20
71.123466999
 30
0.0
 70
         1
  0
VERTEX
  5
C6
100
AcDbEntity
  8
_X______
  6
CONTINUOUS
 62
         7
100
AcDbVertex
100
AcDb2dVertex
 10
1858.8999481724
 20
70.9373268476
 30
0.0
 70
         1
  0
VERTEX
  5
C8
100
AcDbEntity
  8
_X______
  6
CONTINUOUS
 62
         7
100
AcDbVertex
100
AcDb2dVertex
 10
1859.1017596626
 20
70.7901335664
 30
0.0
 70
         1
  0
VERTEX
  5
CA
100
AcDbEntity
  8
_X______
  6
CONTINUOUS
 62
         7
100
AcDbVertex
100
AcDb2dVertex
 10
1859.3481019091
 20
70.640720775
 30
0.0
 70
         1
  0
VERTEX
  5
CC
100
AcDbEntity
  8
_X______
  6
CONTINUOUS
 62
         7
100
AcDbVertex
100
AcDb2dVertex
 10
1859.5646507405
 20
70.5350383459
 30
0.0
 70
         1
  0
VERTEX
  5
CE
100
AcDbEntity
  8
_X______
  6
CONTINUOUS
 62
         7
100
AcDbVertex
100
AcDb2dVertex
 10
1859.7535721065
 20
70.461607343
 30
0.0
 70
         1
  0
VERTEX
  5
D0
100
AcDbEntity
  8
_X______
  6
CONTINUOUS
 62
         7
100
AcDbVertex
100
AcDb2dVertex
 10
1859.9711279612
 20
70.398260823
 30
0.0
 70
         1
  0
VERTEX
  5
D2
100
AcDbEntity
  8
_X______
  6
CONTINUOUS
 62
         7
100
AcDbVertex
100
AcDb2dVertex
 10
1860.2083574864
 20
70.3550273778
 30
0.0
 70
         1
  0
VERTEX
  5
D4
100
AcDbEntity
  8
_X______
  6
CONTINUOUS
 62
         7
100
AcDbVertex
100
AcDb2dVertex
 10
1860.3911225313
 20
70.3404326588
 30
0.0
 70
         1
  0
VERTEX
  5
D6
100
AcDbEntity
  8
_X______
  6
CONTINUOUS
 62
         7
100
AcDbVertex
100
AcDb2dVertex
 10
1860.5783045327
 20
70.3429790154
 30
0.0
 70
         1
  0
VERTEX
  5
D8
100
AcDbEntity
  8
_X______
  6
CONTINUOUS
 62
         7
100
AcDbVertex
100
AcDb2dVertex
 10
1860.7545270575
 20
70.3623721068
 30
0.0
 70
         1
  0
VERTEX
  5
DA
100
AcDbEntity
  8
_X______
  6
CONTINUOUS
 62
         7
100
AcDbVertex
100
AcDb2dVertex
 10
1860.949933612
 20
70.4045253564
 30
0.0
 70
         1
  0
VERTEX
  5
DC
100
AcDbEntity
  8
_X______
  6
CONTINUOUS
 62
         7
100
AcDbVertex
100
AcDb2dVertex
 10
1861.0882728493
 20
70.4486004867
 30
0.0
 70
         1
  0
SEQEND
  5
DE
100
AcDbEntity
  8
_X______
  6
CONTINUOUS
 62
         7
  0
LINE
  5
DF
100
AcDbEntity
  8
_X______
  6
CENTER
 62
         1
100
AcDbLine
 10
1855.1927392438
 20
72.0274239428
 30
0.0
 11
1864.5896654516
 21
75.4476253761
 31
0.0
  0
LINE
  5
E0
100
AcDbEntity
  8
_X______
  6
DASHED
 62
         2
100
AcDbLine
 10
1835.5248608078
 20
147.7985808554
 30
0.0
 11
1833.6395556612
 21
152.9653617202
 31
0.0
  0
LINE
  5
E1
100
AcDbEntity
  8
_X______
  6
DASHED
 62
         2
100
AcDbLine
 10
1830.8277872943
 20
146.0846670858
 30
0.0
 11
1828.9424821478
 21
151.2514479506
 31
0.0
  0
LINE
  5
E2
100
AcDbEntity
  8
_X______
  6
DASHED
 62
         2
100
AcDbLine
 10
1830.8277872943
 20
146.0846670858
 30
0.0
 11
1835.5248608078
 21
147.7985808554
 31
0.0
  0
LINE
  5
E3
100
AcDbEntity
  8
_X______
  6
DASHED
 62
         2
100
AcDbLine
 10
1845.3908288936
 20
119.7393060925
 30
0.0
 11
1835.1960656618
 21
147.6786068915
 31
0.0
  0
LINE
  5
E4
100
AcDbEntity
  8
_X______
  6
DASHED
 62
         2
100
AcDbLine
 10
1841.3513456721
 20
118.2653402507
 30
0.0
 11
1831.1565824403
 21
146.2046410497
 31
0.0
  0
POLYLINE
  5
E6
100
AcDbEntity
  8
_X______
  6
CONTINUOUS
 62
         7
100
AcDb2dPolyline
 66
         1
 10
0.0
 20
0.0
 30
0.0
 70
         2
  0
VERTEX
  5
E8
100
AcDbEntity
  8
_X______
  6
CONTINUOUS
 62
         7
100
AcDbVertex
100
AcDb2dVertex
 10
1832.973987135
 20
147.4783800449
 30
0.0
 70
         1
  0
VERTEX
  5
EA
100
AcDbEntity
  8
_X______
  6
CONTINUOUS
 62
         7
100
AcDbVertex
100
AcDb2dVertex
 10
1833.3248456676
 20
147.6514198387
 30
0.0
 70
         1
  0
VERTEX
  5
EC
100
AcDbEntity
  8
_X______
  6
CONTINUOUS
 62
         7
100
AcDbVertex
100
AcDb2dVertex
 10
1833.4701309132
 20
147.7537455701
 30
0.0
 70
         1
  0
VERTEX
  5
EE
100
AcDbEntity
  8
_X______
  6
CONTINUOUS
 62
         7
100
AcDbVertex
100
AcDb2dVertex
 10
1833.6103852882
 20
147.873825958
 30
0.0
 70
         1
  0
VERTEX
  5
F0
100
AcDbEntity
  8
_X______
  6
CONTINUOUS
 62
         7
100
AcDbVertex
100
AcDb2dVertex
 10
1833.7439540133
 20
148.0117988571
 30
0.0
 70
         1
  0
VERTEX
  5
F2
100
AcDbEntity
  8
_X______
  6
CONTINUOUS
 62
         7
100
AcDbVertex
100
AcDb2dVertex
 10
1833.8691749739
 20
148.1674644381
 30
0.0
 70
         1
  0
VERTEX
  5
F4
100
AcDbEntity
  8
_X______
  6
CONTINUOUS
 62
         7
100
AcDbVertex
100
AcDb2dVertex
 10
1833.9844327534
 20
148.3402587622
 30
0.0
 70
         1
  0
VERTEX
  5
F6
100
AcDbEntity
  8
_X______
  6
CONTINUOUS
 62
         7
100
AcDbVertex
100
AcDb2dVertex
 10
1834.0882161878
 20
148.5292426619
 30
0.0
 70
         1
  0
VERTEX
  5
F8
100
AcDbEntity
  8
_X______
  6
CONTINUOUS
 62
         7
100
AcDbVertex
100
AcDb2dVertex
 10
1834.1791758015
 20
148.7331084773
 30
0.0
 70
         1
  0
VERTEX
  5
FA
100
AcDbEntity
  8
_X______
  6
CONTINUOUS
 62
         7
100
AcDbVertex
100
AcDb2dVertex
 10
1834.2561770623
 20
148.95020582
 30
0.0
 70
         1
  0
VERTEX
  5
FC
100
AcDbEntity
  8
_X______
  6
CONTINUOUS
 62
         7
100
AcDbVertex
100
AcDb2dVertex
 10
1834.318345414
 20
149.1785858588
 30
0.0
 70
         1
  0
VERTEX
  5
FE
100
AcDbEntity
  8
_X______
  6
CONTINUOUS
 62
         7
100
AcDbVertex
100
AcDb2dVertex
 10
1834.3650995507
 20
149.416061849
 30
0.0
 70
         1
  0
VERTEX
  5
100
100
AcDbEntity
  8
_X______
  6
CONTINUOUS
 62
         7
100
AcDbVertex
100
AcDb2dVertex
 10
1834.4031719641
 20
149.7445741546
 30
0.0
 70
         1
  0
VERTEX
  5
102
100
AcDbEntity
  8
_X______
  6
CONTINUOUS
 62
         7
100
AcDbVertex
100
AcDb2dVertex
 10
1834.4133310936
 20
150.0793312839
 30
0.0
 70
         1
  0
VERTEX
  5
104
100
AcDbEntity
  8
_X______
  6
CONTINUOUS
 62
         7
100
AcDbVertex
100
AcDb2dVertex
 10
1834.396763063
 20
150.4145434111
 30
0.0
 70
         1
  0
VERTEX
  5
106
100
AcDbEntity
  8
_X______
  6
CONTINUOUS
 62
         7
100
AcDbVertex
100
AcDb2dVertex
 10
1834.3554670144
 20
150.7448145187
 30
0.0
 70
         1
  0
VERTEX
  5
108
100
AcDbEntity
  8
_X______
  6
CONTINUOUS
 62
         7
100
AcDbVertex
100
AcDb2dVertex
 10
1834.2920659365
 20
151.0653952432
 30
0.0
 70
         1
  0
VERTEX
  5
10A
100
AcDbEntity
  8
_X______
  6
CONTINUOUS
 62
         7
100
AcDbVertex
100
AcDb2dVertex
 10
1834.2095933463
 20
151.3723519447
 30
0.0
 70
         1
  0
VERTEX
  5
10C
100
AcDbEntity
  8
_X______
  6
CONTINUOUS
 62
         7
100
AcDbVertex
100
AcDb2dVertex
 10
1834.0744828784
 20
151.7580153927
 30
0.0
 70
         1
  0
VERTEX
  5
10E
100
AcDbEntity
  8
_X______
  6
CONTINUOUS
 62
         7
100
AcDbVertex
100
AcDb2dVertex
 10
1833.9185925156
 20
152.1088961009
 30
0.0
 70
         1
  0
VERTEX
  5
110
100
AcDbEntity
  8
_X______
  6
CONTINUOUS
 62
         7
100
AcDbVertex
100
AcDb2dVertex
 10
1833.7491409744
 20
152.4227704348
 30
0.0
 70
         1
  0
VERTEX
  5
112
100
AcDbEntity
  8
_X______
  6
CONTINUOUS
 62
         7
100
AcDbVertex
100
AcDb2dVertex
 10
1833.5723846582
 20
152.699530184
 30
0.0
 70
         1
  0
VERTEX
  5
114
100
AcDbEntity
  8
_X______
  6
CONTINUOUS
 62
         7
100
AcDbVertex
100
AcDb2dVertex
 10
1833.3934464666
 20
152.9406187301
 30
0.0
 70
         1
  0
VERTEX
  5
116
100
AcDbEntity
  8
_X______
  6
CONTINUOUS
 62
         7
100
AcDbVertex
100
AcDb2dVertex
 10
1833.2163083876
 20
153.148498903
 30
0.0
 70
         1
  0
VERTEX
  5
118
100
AcDbEntity
  8
_X______
  6
CONTINUOUS
 62
         7
100
AcDbVertex
100
AcDb2dVertex
 10
1832.9856498287
 20
153.3813618781
 30
0.0
 70
         1
  0
VERTEX
  5
11A
100
AcDbEntity
  8
_X______
  6
CONTINUOUS
 62
         7
100
AcDbVertex
100
AcDb2dVertex
 10
1832.7681708086
 20
153.5675020295
 30
0.0
 70
         1
  0
VERTEX
  5
11C
100
AcDbEntity
  8
_X______
  6
CONTINUOUS
 62
         7
100
AcDbVertex
100
AcDb2dVertex
 10
1832.5663593185
 20
153.7146953107
 30
0.0
 70
         1
  0
VERTEX
  5
11E
100
AcDbEntity
  8
_X______
  6
CONTINUOUS
 62
         7
100
AcDbVertex
100
AcDb2dVertex
 10
1832.320017072
 20
153.8641081021
 30
0.0
 70
         1
  0
VERTEX
  5
120
100
AcDbEntity
  8
_X______
  6
CONTINUOUS
 62
         7
100
AcDbVertex
100
AcDb2dVertex
 10
1832.1034682406
 20
153.9697905312
 30
0.0
 70
         1
  0
VERTEX
  5
122
100
AcDbEntity
  8
_X______
  6
CONTINUOUS
 62
         7
100
AcDbVertex
100
AcDb2dVertex
 10
1831.9145468746
 20
154.0432215341
 30
0.0
 70
         1
  0
VERTEX
  5
124
100
AcDbEntity
  8
_X______
  6
CONTINUOUS
 62
         7
100
AcDbVertex
100
AcDb2dVertex
 10
1831.6969910199
 20
154.1065680541
 30
0.0
 70
         1
  0
VERTEX
  5
126
100
AcDbEntity
  8
_X______
  6
CONTINUOUS
 62
         7
100
AcDbVertex
100
AcDb2dVertex
 10
1831.4597614947
 20
154.1498014993
 30
0.0
 70
         1
  0
VERTEX
  5
128
100
AcDbEntity
  8
_X______
  6
CONTINUOUS
 62
         7
100
AcDbVertex
100
AcDb2dVertex
 10
1831.2769964498
 20
154.1643962183
 30
0.0
 70
         1
  0
VERTEX
  5
12A
100
AcDbEntity
  8
_X______
  6
CONTINUOUS
 62
         7
100
AcDbVertex
100
AcDb2dVertex
 10
1831.0898144484
 20
154.1618498617
 30
0.0
 70
         1
  0
VERTEX
  5
12C
100
AcDbEntity
  8
_X______
  6
CONTINUOUS
 62
         7
100
AcDbVertex
100
AcDb2dVertex
 10
1830.9135919236
 20
154.1424567703
 30
0.0
 70
         1
  0
VERTEX
  5
12E
100
AcDbEntity
  8
_X______
  6
CONTINUOUS
 62
         7
100
AcDbVertex
100
AcDb2dVertex
 10
1830.7181853691
 20
154.1003035207
 30
0.0
 70
         1
  0
VERTEX
  5
130
100
AcDbEntity
  8
_X______
  6
CONTINUOUS
 62
         7
100
AcDbVertex
100
AcDb2dVertex
 10
1830.5798461318
 20
154.0562283904
 30
0.0
 70
         1
  0
VERTEX
  5
132
100
AcDbEntity
  8
_X______
  6
CONTINUOUS
 62
         7
100
AcDbVertex
100
AcDb2dVertex
 10
1830.5798461318
 20
154.0562283904
 30
0.0
 70
         1
  0
VERTEX
  5
134
100
AcDbEntity
  8
_X______
  6
CONTINUOUS
 62
         7
100
AcDbVertex
100
AcDb2dVertex
 10
1830.2289875992
 20
153.8831885965
 30
0.0
 70
         1
  0
VERTEX
  5
136
100
AcDbEntity
  8
_X______
  6
CONTINUOUS
 62
         7
100
AcDbVertex
100
AcDb2dVertex
 10
1830.0837023536
 20
153.7808628651
 30
0.0
 70
         1
  0
VERTEX
  5
138
100
AcDbEntity
  8
_X______
  6
CONTINUOUS
 62
         7
100
AcDbVertex
100
AcDb2dVertex
 10
1829.9434479786
 20
153.6607824772
 30
0.0
 70
         1
  0
VERTEX
  5
13A
100
AcDbEntity
  8
_X______
  6
CONTINUOUS
 62
         7
100
AcDbVertex
100
AcDb2dVertex
 10
1829.8098792534
 20
153.5228095781
 30
0.0
 70
         1
  0
VERTEX
  5
13C
100
AcDbEntity
  8
_X______
  6
CONTINUOUS
 62
         7
100
AcDbVertex
100
AcDb2dVertex
 10
1829.6846582928
 20
153.3671439972
 30
0.0
 70
         1
  0
VERTEX
  5
13E
100
AcDbEntity
  8
_X______
  6
CONTINUOUS
 62
         7
100
AcDbVertex
100
AcDb2dVertex
 10
1829.5694005134
 20
153.1943496731
 30
0.0
 70
         1
  0
VERTEX
  5
140
100
AcDbEntity
  8
_X______
  6
CONTINUOUS
 62
         7
100
AcDbVertex
100
AcDb2dVertex
 10
1829.465617079
 20
153.0053657733
 30
0.0
 70
         1
  0
VERTEX
  5
142
100
AcDbEntity
  8
_X______
  6
CONTINUOUS
 62
         7
100
AcDbVertex
100
AcDb2dVertex
 10
1829.3746574653
 20
152.801499958
 30
0.0
 70
         1
  0
VERTEX
  5
144
100
AcDbEntity
  8
_X______
  6
CONTINUOUS
 62
         7
100
AcDbVertex
100
AcDb2dVertex
 10
1829.2976562045
 20
152.5844026153
 30
0.0
 70
         1
  0
VERTEX
  5
146
100
AcDbEntity
  8
_X______
  6
CONTINUOUS
 62
         7
100
AcDbVertex
100
AcDb2dVertex
 10
1829.2354878528
 20
152.3560225765
 30
0.0
 70
         1
  0
VERTEX
  5
148
100
AcDbEntity
  8
_X______
  6
CONTINUOUS
 62
         7
100
AcDbVertex
100
AcDb2dVertex
 10
1829.1887337161
 20
152.1185465863
 30
0.0
 70
         1
  0
VERTEX
  5
14A
100
AcDbEntity
  8
_X______
  6
CONTINUOUS
 62
         7
100
AcDbVertex
100
AcDb2dVertex
 10
1829.1506613027
 20
151.7900342807
 30
0.0
 70
         1
  0
VERTEX
  5
14C
100
AcDbEntity
  8
_X______
  6
CONTINUOUS
 62
         7
100
AcDbVertex
100
AcDb2dVertex
 10
1829.1405021732
 20
151.4552771513
 30
0.0
 70
         1
  0
VERTEX
  5
14E
100
AcDbEntity
  8
_X______
  6
CONTINUOUS
 62
         7
100
AcDbVertex
100
AcDb2dVertex
 10
1829.1570702038
 20
151.1200650241
 30
0.0
 70
         1
  0
VERTEX
  5
150
100
AcDbEntity
  8
_X______
  6
CONTINUOUS
 62
         7
100
AcDbVertex
100
AcDb2dVertex
 10
1829.1983662524
 20
150.7897939165
 30
0.0
 70
         1
  0
VERTEX
  5
152
100
AcDbEntity
  8
_X______
  6
CONTINUOUS
 62
         7
100
AcDbVertex
100
AcDb2dVertex
 10
1829.2617673303
 20
150.469213192
 30
0.0
 70
         1
  0
VERTEX
  5
154
100
AcDbEntity
  8
_X______
  6
CONTINUOUS
 62
         7
100
AcDbVertex
100
AcDb2dVertex
 10
1829.3442399204
 20
150.1622564905
 30
0.0
 70
         1
  0
VERTEX
  5
156
100
AcDbEntity
  8
_X______
  6
CONTINUOUS
 62
         7
100
AcDbVertex
100
AcDb2dVertex
 10
1829.4793503884
 20
149.7765930426
 30
0.0
 70
         1
  0
VERTEX
  5
158
100
AcDbEntity
  8
_X______
  6
CONTINUOUS
 62
         7
100
AcDbVertex
100
AcDb2dVertex
 10
1829.6352407511
 20
149.4257123343
 30
0.0
 70
         1
  0
VERTEX
  5
15A
100
AcDbEntity
  8
_X______
  6
CONTINUOUS
 62
         7
100
AcDbVertex
100
AcDb2dVertex
 10
1829.8046922923
 20
149.1118380004
 30
0.0
 70
         1
  0
VERTEX
  5
15C
100
AcDbEntity
  8
_X______
  6
CONTINUOUS
 62
         7
100
AcDbVertex
100
AcDb2dVertex
 10
1829.9814486086
 20
148.8350782512
 30
0.0
 70
         1
  0
VERTEX
  5
15E
100
AcDbEntity
  8
_X______
  6
CONTINUOUS
 62
         7
100
AcDbVertex
100
AcDb2dVertex
 10
1830.1603868002
 20
148.5939897051
 30
0.0
 70
         1
  0
VERTEX
  5
160
100
AcDbEntity
  8
_X______
  6
CONTINUOUS
 62
         7
100
AcDbVertex
100
AcDb2dVertex
 10
1830.3375248792
 20
148.3861095322
 30
0.0
 70
         1
  0
VERTEX
  5
162
100
AcDbEntity
  8
_X______
  6
CONTINUOUS
 62
         7
100
AcDbVertex
100
AcDb2dVertex
 10
1830.568183438
 20
148.1532465571
 30
0.0
 70
         1
  0
VERTEX
  5
164
100
AcDbEntity
  8
_X______
  6
CONTINUOUS
 62
         7
100
AcDbVertex
100
AcDb2dVertex
 10
1830.7856624581
 20
147.9671064058
 30
0.0
 70
         1
  0
VERTEX
  5
166
100
AcDbEntity
  8
_X______
  6
CONTINUOUS
 62
         7
100
AcDbVertex
100
AcDb2dVertex
 10
1830.9874739483
 20
147.8199131245
 30
0.0
 70
         1
  0
VERTEX
  5
168
100
AcDbEntity
  8
_X______
  6
CONTINUOUS
 62
         7
100
AcDbVertex
100
AcDb2dVertex
 10
1831.2338161948
 20
147.6705003331
 30
0.0
 70
         1
  0
VERTEX
  5
16A
100
AcDbEntity
  8
_X______
  6
CONTINUOUS
 62
         7
100
AcDbVertex
100
AcDb2dVertex
 10
1831.4503650262
 20
147.564817904
 30
0.0
 70
         1
  0
VERTEX
  5
16C
100
AcDbEntity
  8
_X______
  6
CONTINUOUS
 62
         7
100
AcDbVertex
100
AcDb2dVertex
 10
1831.6392863922
 20
147.4913869012
 30
0.0
 70
         1
  0
VERTEX
  5
16E
100
AcDbEntity
  8
_X______
  6
CONTINUOUS
 62
         7
100
AcDbVertex
100
AcDb2dVertex
 10
1831.8568422469
 20
147.4280403811
 30
0.0
 70
         1
  0
VERTEX
  5
170
100
AcDbEntity
  8
_X______
  6
CONTINUOUS
 62
         7
100
AcDbVertex
100
AcDb2dVertex
 10
1832.0940717721
 20
147.3848069359
 30
0.0
 70
         1
  0
VERTEX
  5
172
100
AcDbEntity
  8
_X______
  6
CONTINUOUS
 62
         7
100
AcDbVertex
100
AcDb2dVertex
 10
1832.276836817
 20
147.370212217
 30
0.0
 70
         1
  0
VERTEX
  5
174
100
AcDbEntity
  8
_X______
  6
CONTINUOUS
 62
         7
100
AcDbVertex
100
AcDb2dVertex
 10
1832.4640188184
 20
147.3727585735
 30
0.0
 70
         1
  0
VERTEX
  5
176
100
AcDbEntity
  8
_X______
  6
CONTINUOUS
 62
         7
100
AcDbVertex
100
AcDb2dVertex
 10
1832.6402413432
 20
147.3921516649
 30
0.0
 70
         1
  0
VERTEX
  5
178
100
AcDbEntity
  8
_X______
  6
CONTINUOUS
 62
         7
100
AcDbVertex
100
AcDb2dVertex
 10
1832.8356478977
 20
147.4343049145
 30
0.0
 70
         1
  0
VERTEX
  5
17A
100
AcDbEntity
  8
_X______
  6
CONTINUOUS
 62
         7
100
AcDbVertex
100
AcDb2dVertex
 10
1832.973987135
 20
147.4783800449
 30
0.0
 70
         1
  0
SEQEND
  5
17C
100
AcDbEntity
  8
_X______
  6
CONTINUOUS
 62
         7
  0
LINE
  5
17D
100
AcDbEntity
  8
_X______
  6
CENTER
 62
         1
100
AcDbLine
 10
1827.0784535295
 20
149.057203501
 30
0.0
 11
1836.4753797373
 21
152.4774049342
 31
0.0
  0
POLYLINE
  5
17F
100
AcDbEntity
  8
_X______
  6
CONTINUOUS
 62
         7
100
AcDb2dPolyline
 66
         1
 10
0.0
 20
0.0
 30
0.0
 70
         2
  0
VERTEX
  5
181
100
AcDbEntity
  8
_X______
  6
CONTINUOUS
 62
         7
100
AcDbVertex
100
AcDb2dVertex
 10
1227.0632680208
 20
77.0264488322
 30
0.0
 70
         1
  0
VERTEX
  5
183
100
AcDbEntity
  8
_X______
  6
CONTINUOUS
 62
         7
100
AcDbVertex
100
AcDb2dVertex
 10
1226.683266956
 20
77.1194201772
 30
0.0
 70
         1
  0
VERTEX
  5
185
100
AcDbEntity
  8
_X______
  6
CONTINUOUS
 62
         7
100
AcDbVertex
100
AcDb2dVertex
 10
1226.5061982887
 20
77.134421675
 30
0.0
 70
         1
  0
VERTEX
  5
187
100
AcDbEntity
  8
_X______
  6
CONTINUOUS
 62
         7
100
AcDbVertex
100
AcDb2dVertex
 10
1226.3215710186
 20
77.1325885356
 30
0.0
 70
         1
  0
VERTEX
  5
189
100
AcDbEntity
  8
_X______
  6
CONTINUOUS
 62
         7
100
AcDbVertex
100
AcDb2dVertex
 10
1226.130564169
 20
77.1127514845
 30
0.0
 70
         1
  0
VERTEX
  5
18B
100
AcDbEntity
  8
_X______
  6
CONTINUOUS
 62
         7
100
AcDbVertex
100
AcDb2dVertex
 10
1225.9345794412
 20
77.0739952132
 30
0.0
 70
         1
  0
VERTEX
  5
18D
100
AcDbEntity
  8
_X______
  6
CONTINUOUS
 62
         7
100
AcDbVertex
100
AcDb2dVertex
 10
1225.7352168092
 20
77.015713354
 30
0.0
 70
         1
  0
VERTEX
  5
18F
100
AcDbEntity
  8
_X______
  6
CONTINUOUS
 62
         7
100
AcDbVertex
100
AcDb2dVertex
 10
1225.5342375768
 20
76.9376539934
 30
0.0
 70
         1
  0
VERTEX
  5
191
100
AcDbEntity
  8
_X______
  6
CONTINUOUS
 62
         7
100
AcDbVertex
100
AcDb2dVertex
 10
1225.33351605
 20
76.8399514311
 30
0.0
 70
         1
  0
VERTEX
  5
193
100
AcDbEntity
  8
_X______
  6
CONTINUOUS
 62
         7
100
AcDbVertex
100
AcDb2dVertex
 10
1225.1349821801
 20
76.7231406745
 30
0.0
 70
         1
  0
VERTEX
  5
195
100
AcDbEntity
  8
_X______
  6
CONTINUOUS
 62
         7
100
AcDbVertex
100
AcDb2dVertex
 10
1224.9405586005
 20
76.588152461
 30
0.0
 70
         1
  0
VERTEX
  5
197
100
AcDbEntity
  8
_X______
  6
CONTINUOUS
 62
         7
100
AcDbVertex
100
AcDb2dVertex
 10
1224.7520962298
 20
76.4362882781
 30
0.0
 70
         1
  0
VERTEX
  5
199
100
AcDbEntity
  8
_X______
  6
CONTINUOUS
 62
         7
100
AcDbVertex
100
AcDb2dVertex
 10
1224.5117674294
 20
76.2091057275
 30
0.0
 70
         1
  0
VERTEX
  5
19B
100
AcDbEntity
  8
_X______
  6
CONTINUOUS
 62
         7
100
AcDbVertex
100
AcDb2dVertex
 10
1224.2888073497
 20
75.9591970514
 30
0.0
 70
         1
  0
VERTEX
  5
19D
100
AcDbEntity
  8
_X______
  6
CONTINUOUS
 62
         7
100
AcDbVertex
100
AcDb2dVertex
 10
1224.0860289955
 20
75.6917599393
 30
0.0
 70
         1
  0
VERTEX
  5
19F
100
AcDbEntity
  8
_X______
  6
CONTINUOUS
 62
         7
100
AcDbVertex
100
AcDb2dVertex
 10
1223.9053694283
 20
75.4122130042
 30
0.0
 70
         1
  0
VERTEX
  5
1A1
100
AcDbEntity
  8
_X______
  6
CONTINUOUS
 62
         7
100
AcDbVertex
100
AcDb2dVertex
 10
1223.747872154
 20
75.1258804943
 30
0.0
 70
         1
  0
VERTEX
  5
1A3
100
AcDbEntity
  8
_X______
  6
CONTINUOUS
 62
         7
100
AcDbVertex
100
AcDb2dVertex
 10
1223.613741859
 20
74.8377256597
 30
0.0
 70
         1
  0
VERTEX
  5
1A5
100
AcDbEntity
  8
_X______
  6
CONTINUOUS
 62
         7
100
AcDbVertex
100
AcDb2dVertex
 10
1223.4693427963
 20
74.4554429838
 30
0.0
 70
         1
  0
VERTEX
  5
1A7
100
AcDbEntity
  8
_X______
  6
CONTINUOUS
 62
         7
100
AcDbVertex
100
AcDb2dVertex
 10
1223.3632199707
 20
74.0864483734
 30
0.0
 70
         1
  0
VERTEX
  5
1A9
100
AcDbEntity
  8
_X______
  6
CONTINUOUS
 62
         7
100
AcDbVertex
100
AcDb2dVertex
 10
1223.2912728494
 20
73.737085333
 30
0.0
 70
         1
  0
VERTEX
  5
1AB
100
AcDbEntity
  8
_X______
  6
CONTINUOUS
 62
         7
100
AcDbVertex
100
AcDb2dVertex
 10
1223.2487783056
 20
73.411458295
 30
0.0
 70
         1
  0
VERTEX
  5
1AD
100
AcDbEntity
  8
_X______
  6
CONTINUOUS
 62
         7
100
AcDbVertex
100
AcDb2dVertex
 10
1223.2308841827
 20
73.1117545015
 30
0.0
 70
         1
  0
VERTEX
  5
1AF
100
AcDbEntity
  8
_X______
  6
CONTINUOUS
 62
         7
100
AcDbVertex
100
AcDb2dVertex
 10
1223.2329570243
 20
72.8386468878
 30
0.0
 70
         1
  0
VERTEX
  5
1B1
100
AcDbEntity
  8
_X______
  6
CONTINUOUS
 62
         7
100
AcDbVertex
100
AcDb2dVertex
 10
1223.2599702964
 20
72.5119990361
 30
0.0
 70
         1
  0
VERTEX
  5
1B3
100
AcDbEntity
  8
_X______
  6
CONTINUOUS
 62
         7
100
AcDbVertex
100
AcDb2dVertex
 10
1223.3069203083
 20
72.229614588
 30
0.0
 70
         1
  0
VERTEX
  5
1B5
100
AcDbEntity
  8
_X______
  6
CONTINUOUS
 62
         7
100
AcDbVertex
100
AcDb2dVertex
 10
1223.3669028615
 20
71.9871360674
 30
0.0
 70
         1
  0
VERTEX
  5
1B7
100
AcDbEntity
  8
_X______
  6
CONTINUOUS
 62
         7
100
AcDbVertex
100
AcDb2dVertex
 10
1223.4595712795
 20
71.7143334851
 30
0.0
 70
         1
  0
VERTEX
  5
1B9
100
AcDbEntity
  8
_X______
  6
CONTINUOUS
 62
         7
100
AcDbVertex
100
AcDb2dVertex
 10
1223.5575259524
 20
71.4941811418
 30
0.0
 70
         1
  0
VERTEX
  5
1BB
100
AcDbEntity
  8
_X______
  6
CONTINUOUS
 62
         7
100
AcDbVertex
100
AcDb2dVertex
 10
1223.6550475763
 20
71.3164934168
 30
0.0
 70
         1
  0
VERTEX
  5
1BD
100
AcDbEntity
  8
_X______
  6
CONTINUOUS
 62
         7
100
AcDbVertex
100
AcDb2dVertex
 10
1223.7809866716
 20
71.1281249593
 30
0.0
 70
         1
  0
VERTEX
  5
1BF
100
AcDbEntity
  8
_X______
  6
CONTINUOUS
 62
         7
100
AcDbVertex
100
AcDb2dVertex
 10
1223.9349251082
 20
70.9425180195
 30
0.0
 70
         1
  0
VERTEX
  5
1C1
100
AcDbEntity
  8
_X______
  6
CONTINUOUS
 62
         7
100
AcDbVertex
100
AcDb2dVertex
 10
1224.0655499508
 20
70.8138587098
 30
0.0
 70
         1
  0
VERTEX
  5
1C3
100
AcDbEntity
  8
_X______
  6
CONTINUOUS
 62
         7
100
AcDbVertex
100
AcDb2dVertex
 10
1224.2105764493
 20
70.6954910608
 30
0.0
 70
         1
  0
VERTEX
  5
1C5
100
AcDbEntity
  8
_X______
  6
CONTINUOUS
 62
         7
100
AcDbVertex
100
AcDb2dVertex
 10
1224.358036374
 20
70.5970733752
 30
0.0
 70
         1
  0
VERTEX
  5
1C7
100
AcDbEntity
  8
_X______
  6
CONTINUOUS
 62
         7
100
AcDbVertex
100
AcDb2dVertex
 10
1224.5348220658
 20
70.5037597257
 30
0.0
 70
         1
  0
VERTEX
  5
1C9
100
AcDbEntity
  8
_X______
  6
CONTINUOUS
 62
         7
100
AcDbVertex
100
AcDb2dVertex
 10
1224.6691270175
 20
70.4486004867
 30
0.0
 70
         1
  0
VERTEX
  5
1CB
100
AcDbEntity
  8
_X______
  6
CONTINUOUS
 62
         7
100
AcDbVertex
100
AcDb2dVertex
 10
1224.6691270175
 20
70.4486004867
 30
0.0
 70
         1
  0
VERTEX
  5
1CD
100
AcDbEntity
  8
_X______
  6
CONTINUOUS
 62
         7
100
AcDbVertex
100
AcDb2dVertex
 10
1225.0491280822
 20
70.3556291418
 30
0.0
 70
         1
  0
VERTEX
  5
1CF
100
AcDbEntity
  8
_X______
  6
CONTINUOUS
 62
         7
100
AcDbVertex
100
AcDb2dVertex
 10
1225.2261967495
 20
70.3406276439
 30
0.0
 70
         1
  0
VERTEX
  5
1D1
100
AcDbEntity
  8
_X______
  6
CONTINUOUS
 62
         7
100
AcDbVertex
100
AcDb2dVertex
 10
1225.4108240196
 20
70.3424607834
 30
0.0
 70
         1
  0
VERTEX
  5
1D3
100
AcDbEntity
  8
_X______
  6
CONTINUOUS
 62
         7
100
AcDbVertex
100
AcDb2dVertex
 10
1225.6018308693
 20
70.3622978345
 30
0.0
 70
         1
  0
VERTEX
  5
1D5
100
AcDbEntity
  8
_X______
  6
CONTINUOUS
 62
         7
100
AcDbVertex
100
AcDb2dVertex
 10
1225.797815597
 20
70.4010541058
 30
0.0
 70
         1
  0
VERTEX
  5
1D7
100
AcDbEntity
  8
_X______
  6
CONTINUOUS
 62
         7
100
AcDbVertex
100
AcDb2dVertex
 10
1225.997178229
 20
70.459335965
 30
0.0
 70
         1
  0
VERTEX
  5
1D9
100
AcDbEntity
  8
_X______
  6
CONTINUOUS
 62
         7
100
AcDbVertex
100
AcDb2dVertex
 10
1226.1981574615
 20
70.5373953255
 30
0.0
 70
         1
  0
VERTEX
  5
1DB
100
AcDbEntity
  8
_X______
  6
CONTINUOUS
 62
         7
100
AcDbVertex
100
AcDb2dVertex
 10
1226.3988789882
 20
70.6350978879
 30
0.0
 70
         1
  0
VERTEX
  5
1DD
100
AcDbEntity
  8
_X______
  6
CONTINUOUS
 62
         7
100
AcDbVertex
100
AcDb2dVertex
 10
1226.5974128582
 20
70.7519086445
 30
0.0
 70
         1
  0
VERTEX
  5
1DF
100
AcDbEntity
  8
_X______
  6
CONTINUOUS
 62
         7
100
AcDbVertex
100
AcDb2dVertex
 10
1226.7918364377
 20
70.8868968579
 30
0.0
 70
         1
  0
VERTEX
  5
1E1
100
AcDbEntity
  8
_X______
  6
CONTINUOUS
 62
         7
100
AcDbVertex
100
AcDb2dVertex
 10
1226.9802988084
 20
71.0387610408
 30
0.0
 70
         1
  0
VERTEX
  5
1E3
100
AcDbEntity
  8
_X______
  6
CONTINUOUS
 62
         7
100
AcDbVertex
100
AcDb2dVertex
 10
1227.2206276088
 20
71.2659435914
 30
0.0
 70
         1
  0
VERTEX
  5
1E5
100
AcDbEntity
  8
_X______
  6
CONTINUOUS
 62
         7
100
AcDbVertex
100
AcDb2dVertex
 10
1227.4435876885
 20
71.5158522676
 30
0.0
 70
         1
  0
VERTEX
  5
1E7
100
AcDbEntity
  8
_X______
  6
CONTINUOUS
 62
         7
100
AcDbVertex
100
AcDb2dVertex
 10
1227.6463660427
 20
71.7832893797
 30
0.0
 70
         1
  0
VERTEX
  5
1E9
100
AcDbEntity
  8
_X______
  6
CONTINUOUS
 62
         7
100
AcDbVertex
100
AcDb2dVertex
 10
1227.82702561
 20
72.0628363148
 30
0.0
 70
         1
  0
VERTEX
  5
1EB
100
AcDbEntity
  8
_X______
  6
CONTINUOUS
 62
         7
100
AcDbVertex
100
AcDb2dVertex
 10
1227.9845228842
 20
72.3491688246
 30
0.0
 70
         1
  0
VERTEX
  5
1ED
100
AcDbEntity
  8
_X______
  6
CONTINUOUS
 62
         7
100
AcDbVertex
100
AcDb2dVertex
 10
1228.1186531792
 20
72.6373236592
 30
0.0
 70
         1
  0
VERTEX
  5
1EF
100
AcDbEntity
  8
_X______
  6
CONTINUOUS
 62
         7
100
AcDbVertex
100
AcDb2dVertex
 10
1228.2630522419
 20
73.0196063351
 30
0.0
 70
         1
  0
VERTEX
  5
1F1
100
AcDbEntity
  8
_X______
  6
CONTINUOUS
 62
         7
100
AcDbVertex
100
AcDb2dVertex
 10
1228.3691750675
 20
73.3886009455
 30
0.0
 70
         1
  0
VERTEX
  5
1F3
100
AcDbEntity
  8
_X______
  6
CONTINUOUS
 62
         7
100
AcDbVertex
100
AcDb2dVertex
 10
1228.4411221888
 20
73.737963986
 30
0.0
 70
         1
  0
VERTEX
  5
1F5
100
AcDbEntity
  8
_X______
  6
CONTINUOUS
 62
         7
100
AcDbVertex
100
AcDb2dVertex
 10
1228.4836167326
 20
74.063591024
 30
0.0
 70
         1
  0
VERTEX
  5
1F7
100
AcDbEntity
  8
_X______
  6
CONTINUOUS
 62
         7
100
AcDbVertex
100
AcDb2dVertex
 10
1228.5015108555
 20
74.3632948175
 30
0.0
 70
         1
  0
VERTEX
  5
1F9
100
AcDbEntity
  8
_X______
  6
CONTINUOUS
 62
         7
100
AcDbVertex
100
AcDb2dVertex
 10
1228.4994380139
 20
74.6364024312
 30
0.0
 70
         1
  0
VERTEX
  5
1FB
100
AcDbEntity
  8
_X______
  6
CONTINUOUS
 62
         7
100
AcDbVertex
100
AcDb2dVertex
 10
1228.4724247418
 20
74.9630502829
 30
0.0
 70
         1
  0
VERTEX
  5
1FD
100
AcDbEntity
  8
_X______
  6
CONTINUOUS
 62
         7
100
AcDbVertex
100
AcDb2dVertex
 10
1228.4254747299
 20
75.245434731
 30
0.0
 70
         1
  0
VERTEX
  5
1FF
100
AcDbEntity
  8
_X______
  6
CONTINUOUS
 62
         7
100
AcDbVertex
100
AcDb2dVertex
 10
1228.3654921767
 20
75.4879132516
 30
0.0
 70
         1
  0
VERTEX
  5
201
100
AcDbEntity
  8
_X______
  6
CONTINUOUS
 62
         7
100
AcDbVertex
100
AcDb2dVertex
 10
1228.2728237587
 20
75.7607158339
 30
0.0
 70
         1
  0
VERTEX
  5
203
100
AcDbEntity
  8
_X______
  6
CONTINUOUS
 62
         7
100
AcDbVertex
100
AcDb2dVertex
 10
1228.1748690858
 20
75.9808681771
 30
0.0
 70
         1
  0
VERTEX
  5
205
100
AcDbEntity
  8
_X______
  6
CONTINUOUS
 62
         7
100
AcDbVertex
100
AcDb2dVertex
 10
1228.0773474619
 20
76.1585559021
 30
0.0
 70
         1
  0
VERTEX
  5
207
100
AcDbEntity
  8
_X______
  6
CONTINUOUS
 62
         7
100
AcDbVertex
100
AcDb2dVertex
 10
1227.9514083666
 20
76.3469243596
 30
0.0
 70
         1
  0
VERTEX
  5
209
100
AcDbEntity
  8
_X______
  6
CONTINUOUS
 62
         7
100
AcDbVertex
100
AcDb2dVertex
 10
1227.79746993
 20
76.5325312995
 30
0.0
 70
         1
  0
VERTEX
  5
20B
100
AcDbEntity
  8
_X______
  6
CONTINUOUS
 62
         7
100
AcDbVertex
100
AcDb2dVertex
 10
1227.6668450875
 20
76.6611906092
 30
0.0
 70
         1
  0
VERTEX
  5
20D
100
AcDbEntity
  8
_X______
  6
CONTINUOUS
 62
         7
100
AcDbVertex
100
AcDb2dVertex
 10
1227.521818589
 20
76.7795582582
 30
0.0
 70
         1
  0
VERTEX
  5
20F
100
AcDbEntity
  8
_X______
  6
CONTINUOUS
 62
         7
100
AcDbVertex
100
AcDb2dVertex
 10
1227.3743586643
 20
76.8779759438
 30
0.0
 70
         1
  0
VERTEX
  5
211
100
AcDbEntity
  8
_X______
  6
CONTINUOUS
 62
         7
100
AcDbVertex
100
AcDb2dVertex
 10
1227.1975729724
 20
76.9712895933
 30
0.0
 70
         1
  0
VERTEX
  5
213
100
AcDbEntity
  8
_X______
  6
CONTINUOUS
 62
         7
100
AcDbVertex
100
AcDb2dVertex
 10
1227.0632680208
 20
77.0264488322
 30
0.0
 70
         1
  0
SEQEND
  5
215
100
AcDbEntity
  8
_X______
  6
CONTINUOUS
 62
         7
  0
LINE
  5
216
100
AcDbEntity
  8
_X______
  6
CENTER
 62
         1
100
AcDbLine
 10
1230.564660623
 20
72.0274239428
 30
0.0
 11
1221.1677344152
 21
75.4476253761
 31
0.0
  0
POLYLINE
  5
218
100
AcDbEntity
  8
_X______
  6
CONTINUOUS
 62
         7
100
AcDb2dPolyline
 66
         1
 10
0.0
 20
0.0
 30
0.0
 70
         2
  0
VERTEX
  5
21A
100
AcDbEntity
  8
_X______
  6
CONTINUOUS
 62
         7
100
AcDbVertex
100
AcDb2dVertex
 10
1255.177553735
 20
154.0562283904
 30
0.0
 70
         1
  0
VERTEX
  5
21C
100
AcDbEntity
  8
_X______
  6
CONTINUOUS
 62
         7
100
AcDbVertex
100
AcDb2dVertex
 10
1254.7975526703
 20
154.1491997353
 30
0.0
 70
         1
  0
VERTEX
  5
21E
100
AcDbEntity
  8
_X______
  6
CONTINUOUS
 62
         7
100
AcDbVertex
100
AcDb2dVertex
 10
1254.620484003
 20
154.1642012332
 30
0.0
 70
         1
  0
VERTEX
  5
220
100
AcDbEntity
  8
_X______
  6
CONTINUOUS
 62
         7
100
AcDbVertex
100
AcDb2dVertex
 10
1254.4358567329
 20
154.1623680937
 30
0.0
 70
         1
  0
VERTEX
  5
222
100
AcDbEntity
  8
_X______
  6
CONTINUOUS
 62
         7
100
AcDbVertex
100
AcDb2dVertex
 10
1254.2448498832
 20
154.1425310426
 30
0.0
 70
         1
  0
VERTEX
  5
224
100
AcDbEntity
  8
_X______
  6
CONTINUOUS
 62
         7
100
AcDbVertex
100
AcDb2dVertex
 10
1254.0488651555
 20
154.1037747713
 30
0.0
 70
         1
  0
VERTEX
  5
226
100
AcDbEntity
  8
_X______
  6
CONTINUOUS
 62
         7
100
AcDbVertex
100
AcDb2dVertex
 10
1253.8495025235
 20
154.0454929121
 30
0.0
 70
         1
  0
VERTEX
  5
228
100
AcDbEntity
  8
_X______
  6
CONTINUOUS
 62
         7
100
AcDbVertex
100
AcDb2dVertex
 10
1253.6485232911
 20
153.9674335516
 30
0.0
 70
         1
  0
VERTEX
  5
22A
100
AcDbEntity
  8
_X______
  6
CONTINUOUS
 62
         7
100
AcDbVertex
100
AcDb2dVertex
 10
1253.4478017643
 20
153.8697309892
 30
0.0
 70
         1
  0
VERTEX
  5
22C
100
AcDbEntity
  8
_X______
  6
CONTINUOUS
 62
         7
100
AcDbVertex
100
AcDb2dVertex
 10
1253.2492678944
 20
153.7529202326
 30
0.0
 70
         1
  0
VERTEX
  5
22E
100
AcDbEntity
  8
_X______
  6
CONTINUOUS
 62
         7
100
AcDbVertex
100
AcDb2dVertex
 10
1253.0548443148
 20
153.6179320192
 30
0.0
 70
         1
  0
VERTEX
  5
230
100
AcDbEntity
  8
_X______
  6
CONTINUOUS
 62
         7
100
AcDbVertex
100
AcDb2dVertex
 10
1252.8663819441
 20
153.4660678363
 30
0.0
 70
         1
  0
VERTEX
  5
232
100
AcDbEntity
  8
_X______
  6
CONTINUOUS
 62
         7
100
AcDbVertex
100
AcDb2dVertex
 10
1252.6260531437
 20
153.2388852857
 30
0.0
 70
         1
  0
VERTEX
  5
234
100
AcDbEntity
  8
_X______
  6
CONTINUOUS
 62
         7
100
AcDbVertex
100
AcDb2dVertex
 10
1252.403093064
 20
152.9889766095
 30
0.0
 70
         1
  0
VERTEX
  5
236
100
AcDbEntity
  8
_X______
  6
CONTINUOUS
 62
         7
100
AcDbVertex
100
AcDb2dVertex
 10
1252.2003147098
 20
152.7215394974
 30
0.0
 70
         1
  0
VERTEX
  5
238
100
AcDbEntity
  8
_X______
  6
CONTINUOUS
 62
         7
100
AcDbVertex
100
AcDb2dVertex
 10
1252.0196551425
 20
152.4419925623
 30
0.0
 70
         1
  0
VERTEX
  5
23A
100
AcDbEntity
  8
_X______
  6
CONTINUOUS
 62
         7
100
AcDbVertex
100
AcDb2dVertex
 10
1251.8621578683
 20
152.1556600525
 30
0.0
 70
         1
  0
VERTEX
  5
23C
100
AcDbEntity
  8
_X______
  6
CONTINUOUS
 62
         7
100
AcDbVertex
100
AcDb2dVertex
 10
1251.7280275733
 20
151.8675052179
 30
0.0
 70
         1
  0
VERTEX
  5
23E
100
AcDbEntity
  8
_X______
  6
CONTINUOUS
 62
         7
100
AcDbVertex
100
AcDb2dVertex
 10
1251.5836285106
 20
151.485222542
 30
0.0
 70
         1
  0
VERTEX
  5
240
100
AcDbEntity
  8
_X______
  6
CONTINUOUS
 62
         7
100
AcDbVertex
100
AcDb2dVertex
 10
1251.477505685
 20
151.1162279316
 30
0.0
 70
         1
  0
VERTEX
  5
242
100
AcDbEntity
  8
_X______
  6
CONTINUOUS
 62
         7
100
AcDbVertex
100
AcDb2dVertex
 10
1251.4055585637
 20
150.7668648911
 30
0.0
 70
         1
  0
VERTEX
  5
244
100
AcDbEntity
  8
_X______
  6
CONTINUOUS
 62
         7
100
AcDbVertex
100
AcDb2dVertex
 10
1251.3630640199
 20
150.4412378531
 30
0.0
 70
         1
  0
VERTEX
  5
246
100
AcDbEntity
  8
_X______
  6
CONTINUOUS
 62
         7
100
AcDbVertex
100
AcDb2dVertex
 10
1251.345169897
 20
150.1415340596
 30
0.0
 70
         1
  0
VERTEX
  5
248
100
AcDbEntity
  8
_X______
  6
CONTINUOUS
 62
         7
100
AcDbVertex
100
AcDb2dVertex
 10
1251.3472427386
 20
149.8684264459
 30
0.0
 70
         1
  0
VERTEX
  5
24A
100
AcDbEntity
  8
_X______
  6
CONTINUOUS
 62
         7
100
AcDbVertex
100
AcDb2dVertex
 10
1251.3742560107
 20
149.5417785942
 30
0.0
 70
         1
  0
VERTEX
  5
24C
100
AcDbEntity
  8
_X______
  6
CONTINUOUS
 62
         7
100
AcDbVertex
100
AcDb2dVertex
 10
1251.4212060226
 20
149.2593941461
 30
0.0
 70
         1
  0
VERTEX
  5
24E
100
AcDbEntity
  8
_X______
  6
CONTINUOUS
 62
         7
100
AcDbVertex
100
AcDb2dVertex
 10
1251.4811885758
 20
149.0169156255
 30
0.0
 70
         1
  0
VERTEX
  5
250
100
AcDbEntity
  8
_X______
  6
CONTINUOUS
 62
         7
100
AcDbVertex
100
AcDb2dVertex
 10
1251.5738569938
 20
148.7441130432
 30
0.0
 70
         1
  0
VERTEX
  5
252
100
AcDbEntity
  8
_X______
  6
CONTINUOUS
 62
         7
100
AcDbVertex
100
AcDb2dVertex
 10
1251.6718116667
 20
148.5239607
 30
0.0
 70
         1
  0
VERTEX
  5
254
100
AcDbEntity
  8
_X______
  6
CONTINUOUS
 62
         7
100
AcDbVertex
100
AcDb2dVertex
 10
1251.7693332906
 20
148.346272975
 30
0.0
 70
         1
  0
VERTEX
  5
256
100
AcDbEntity
  8
_X______
  6
CONTINUOUS
 62
         7
100
AcDbVertex
100
AcDb2dVertex
 10
1251.8952723859
 20
148.1579045175
 30
0.0
 70
         1
  0
VERTEX
  5
258
100
AcDbEntity
  8
_X______
  6
CONTINUOUS
 62
         7
100
AcDbVertex
100
AcDb2dVertex
 10
1252.0492108225
 20
147.9722975776
 30
0.0
 70
         1
  0
VERTEX
  5
25A
100
AcDbEntity
  8
_X______
  6
CONTINUOUS
 62
         7
100
AcDbVertex
100
AcDb2dVertex
 10
1252.1798356651
 20
147.8436382679
 30
0.0
 70
         1
  0
VERTEX
  5
25C
100
AcDbEntity
  8
_X______
  6
CONTINUOUS
 62
         7
100
AcDbVertex
100
AcDb2dVertex
 10
1252.3248621636
 20
147.7252706189
 30
0.0
 70
         1
  0
VERTEX
  5
25E
100
AcDbEntity
  8
_X______
  6
CONTINUOUS
 62
         7
100
AcDbVertex
100
AcDb2dVertex
 10
1252.4723220883
 20
147.6268529333
 30
0.0
 70
         1
  0
VERTEX
  5
260
100
AcDbEntity
  8
_X______
  6
CONTINUOUS
 62
         7
100
AcDbVertex
100
AcDb2dVertex
 10
1252.6491077801
 20
147.5335392838
 30
0.0
 70
         1
  0
VERTEX
  5
262
100
AcDbEntity
  8
_X______
  6
CONTINUOUS
 62
         7
100
AcDbVertex
100
AcDb2dVertex
 10
1252.7834127318
 20
147.4783800449
 30
0.0
 70
         1
  0
VERTEX
  5
264
100
AcDbEntity
  8
_X______
  6
CONTINUOUS
 62
         7
100
AcDbVertex
100
AcDb2dVertex
 10
1252.7834127318
 20
147.4783800449
 30
0.0
 70
         1
  0
VERTEX
  5
266
100
AcDbEntity
  8
_X______
  6
CONTINUOUS
 62
         7
100
AcDbVertex
100
AcDb2dVertex
 10
1253.1634137965
 20
147.3854086999
 30
0.0
 70
         1
  0
VERTEX
  5
268
100
AcDbEntity
  8
_X______
  6
CONTINUOUS
 62
         7
100
AcDbVertex
100
AcDb2dVertex
 10
1253.3404824638
 20
147.3704072021
 30
0.0
 70
         1
  0
VERTEX
  5
26A
100
AcDbEntity
  8
_X______
  6
CONTINUOUS
 62
         7
100
AcDbVertex
100
AcDb2dVertex
 10
1253.5251097339
 20
147.3722403415
 30
0.0
 70
         1
  0
VERTEX
  5
26C
100
AcDbEntity
  8
_X______
  6
CONTINUOUS
 62
         7
100
AcDbVertex
100
AcDb2dVertex
 10
1253.7161165836
 20
147.3920773926
 30
0.0
 70
         1
  0
VERTEX
  5
26E
100
AcDbEntity
  8
_X______
  6
CONTINUOUS
 62
         7
100
AcDbVertex
100
AcDb2dVertex
 10
1253.9121013113
 20
147.4308336639
 30
0.0
 70
         1
  0
VERTEX
  5
270
100
AcDbEntity
  8
_X______
  6
CONTINUOUS
 62
         7
100
AcDbVertex
100
AcDb2dVertex
 10
1254.1114639433
 20
147.4891155231
 30
0.0
 70
         1
  0
VERTEX
  5
272
100
AcDbEntity
  8
_X______
  6
CONTINUOUS
 62
         7
100
AcDbVertex
100
AcDb2dVertex
 10
1254.3124431757
 20
147.5671748836
 30
0.0
 70
         1
  0
VERTEX
  5
274
100
AcDbEntity
  8
_X______
  6
CONTINUOUS
 62
         7
100
AcDbVertex
100
AcDb2dVertex
 10
1254.5131647025
 20
147.664877446
 30
0.0
 70
         1
  0
VERTEX
  5
276
100
AcDbEntity
  8
_X______
  6
CONTINUOUS
 62
         7
100
AcDbVertex
100
AcDb2dVertex
 10
1254.7116985724
 20
147.7816882026
 30
0.0
 70
         1
  0
VERTEX
  5
278
100
AcDbEntity
  8
_X______
  6
CONTINUOUS
 62
         7
100
AcDbVertex
100
AcDb2dVertex
 10
1254.906122152
 20
147.9166764161
 30
0.0
 70
         1
  0
VERTEX
  5
27A
100
AcDbEntity
  8
_X______
  6
CONTINUOUS
 62
         7
100
AcDbVertex
100
AcDb2dVertex
 10
1255.0945845227
 20
148.068540599
 30
0.0
 70
         1
  0
VERTEX
  5
27C
100
AcDbEntity
  8
_X______
  6
CONTINUOUS
 62
         7
100
AcDbVertex
100
AcDb2dVertex
 10
1255.3349133231
 20
148.2957231496
 30
0.0
 70
         1
  0
VERTEX
  5
27E
100
AcDbEntity
  8
_X______
  6
CONTINUOUS
 62
         7
100
AcDbVertex
100
AcDb2dVertex
 10
1255.5578734028
 20
148.5456318257
 30
0.0
 70
         1
  0
VERTEX
  5
280
100
AcDbEntity
  8
_X______
  6
CONTINUOUS
 62
         7
100
AcDbVertex
100
AcDb2dVertex
 10
1255.760651757
 20
148.8130689378
 30
0.0
 70
         1
  0
VERTEX
  5
282
100
AcDbEntity
  8
_X______
  6
CONTINUOUS
 62
         7
100
AcDbVertex
100
AcDb2dVertex
 10
1255.9413113243
 20
149.0926158729
 30
0.0
 70
         1
  0
VERTEX
  5
284
100
AcDbEntity
  8
_X______
  6
CONTINUOUS
 62
         7
100
AcDbVertex
100
AcDb2dVertex
 10
1256.0988085985
 20
149.3789483828
 30
0.0
 70
         1
  0
VERTEX
  5
286
100
AcDbEntity
  8
_X______
  6
CONTINUOUS
 62
         7
100
AcDbVertex
100
AcDb2dVertex
 10
1256.2329388935
 20
149.6671032174
 30
0.0
 70
         1
  0
VERTEX
  5
288
100
AcDbEntity
  8
_X______
  6
CONTINUOUS
 62
         7
100
AcDbVertex
100
AcDb2dVertex
 10
1256.3773379562
 20
150.0493858933
 30
0.0
 70
         1
  0
VERTEX
  5
28A
100
AcDbEntity
  8
_X______
  6
CONTINUOUS
 62
         7
100
AcDbVertex
100
AcDb2dVertex
 10
1256.4834607818
 20
150.4183805037
 30
0.0
 70
         1
  0
VERTEX
  5
28C
100
AcDbEntity
  8
_X______
  6
CONTINUOUS
 62
         7
100
AcDbVertex
100
AcDb2dVertex
 10
1256.5554079031
 20
150.7677435441
 30
0.0
 70
         1
  0
VERTEX
  5
28E
100
AcDbEntity
  8
_X______
  6
CONTINUOUS
 62
         7
100
AcDbVertex
100
AcDb2dVertex
 10
1256.5979024469
 20
151.0933705821
 30
0.0
 70
         1
  0
VERTEX
  5
290
100
AcDbEntity
  8
_X______
  6
CONTINUOUS
 62
         7
100
AcDbVertex
100
AcDb2dVertex
 10
1256.6157965698
 20
151.3930743756
 30
0.0
 70
         1
  0
VERTEX
  5
292
100
AcDbEntity
  8
_X______
  6
CONTINUOUS
 62
         7
100
AcDbVertex
100
AcDb2dVertex
 10
1256.6137237282
 20
151.6661819893
 30
0.0
 70
         1
  0
VERTEX
  5
294
100
AcDbEntity
  8
_X______
  6
CONTINUOUS
 62
         7
100
AcDbVertex
100
AcDb2dVertex
 10
1256.5867104561
 20
151.992829841
 30
0.0
 70
         1
  0
VERTEX
  5
296
100
AcDbEntity
  8
_X______
  6
CONTINUOUS
 62
         7
100
AcDbVertex
100
AcDb2dVertex
 10
1256.5397604442
 20
152.2752142891
 30
0.0
 70
         1
  0
VERTEX
  5
298
100
AcDbEntity
  8
_X______
  6
CONTINUOUS
 62
         7
100
AcDbVertex
100
AcDb2dVertex
 10
1256.479777891
 20
152.5176928097
 30
0.0
 70
         1
  0
VERTEX
  5
29A
100
AcDbEntity
  8
_X______
  6
CONTINUOUS
 62
         7
100
AcDbVertex
100
AcDb2dVertex
 10
1256.387109473
 20
152.790495392
 30
0.0
 70
         1
  0
VERTEX
  5
29C
100
AcDbEntity
  8
_X______
  6
CONTINUOUS
 62
         7
100
AcDbVertex
100
AcDb2dVertex
 10
1256.2891548001
 20
153.0106477353
 30
0.0
 70
         1
  0
VERTEX
  5
29E
100
AcDbEntity
  8
_X______
  6
CONTINUOUS
 62
         7
100
AcDbVertex
100
AcDb2dVertex
 10
1256.1916331762
 20
153.1883354603
 30
0.0
 70
         1
  0
VERTEX
  5
2A0
100
AcDbEntity
  8
_X______
  6
CONTINUOUS
 62
         7
100
AcDbVertex
100
AcDb2dVertex
 10
1256.0656940809
 20
153.3767039178
 30
0.0
 70
         1
  0
VERTEX
  5
2A2
100
AcDbEntity
  8
_X______
  6
CONTINUOUS
 62
         7
100
AcDbVertex
100
AcDb2dVertex
 10
1255.9117556443
 20
153.5623108576
 30
0.0
 70
         1
  0
VERTEX
  5
2A4
100
AcDbEntity
  8
_X______
  6
CONTINUOUS
 62
         7
100
AcDbVertex
100
AcDb2dVertex
 10
1255.7811308018
 20
153.6909701673
 30
0.0
 70
         1
  0
VERTEX
  5
2A6
100
AcDbEntity
  8
_X______
  6
CONTINUOUS
 62
         7
100
AcDbVertex
100
AcDb2dVertex
 10
1255.6361043033
 20
153.8093378163
 30
0.0
 70
         1
  0
VERTEX
  5
2A8
100
AcDbEntity
  8
_X______
  6
CONTINUOUS
 62
         7
100
AcDbVertex
100
AcDb2dVertex
 10
1255.4886443785
 20
153.9077555019
 30
0.0
 70
         1
  0
VERTEX
  5
2AA
100
AcDbEntity
  8
_X______
  6
CONTINUOUS
 62
         7
100
AcDbVertex
100
AcDb2dVertex
 10
1255.3118586867
 20
154.0010691514
 30
0.0
 70
         1
  0
VERTEX
  5
2AC
100
AcDbEntity
  8
_X______
  6
CONTINUOUS
 62
         7
100
AcDbVertex
100
AcDb2dVertex
 10
1255.177553735
 20
154.0562283904
 30
0.0
 70
         1
  0
SEQEND
  5
2AE
100
AcDbEntity
  8
_X______
  6
CONTINUOUS
 62
         7
  0
LINE
  5
2AF
100
AcDbEntity
  8
_X______
  6
CENTER
 62
         1
100
AcDbLine
 10
1258.6789463373
 20
149.057203501
 30
0.0
 11
1249.2820201295
 21
152.4774049342
 31
0.0
  0
LINE
  5
2B0
100
AcDbEntity
  8
_X______
  6
CENTER
 62
         1
100
AcDbLine
 10
1257.3639808204
 20
160.1701802397
 30
0.0
 11
1219.8166451685
 21
57.0097233753
 31
0.0
  0
LINE
  5
2B1
100
AcDbEntity
  8
L1_45
  6
CONTINUOUS
 62
         7
100
AcDbLine
 10
1458.6219238324
 20
-116.2400166132
 30
0.0
 11
1458.6219238324
 21
-137.2400166132
 31
0.0
  0
LINE
  5
2B2
100
AcDbEntity
  8
L1_45
  6
CONTINUOUS
 62
         7
100
AcDbLine
 10
1461.6530127456
 20
-121.4900166132
 30
0.0
 11
1458.6219238324
 21
-116.2400166132
 31
0.0
  0
LINE
  5
2B3
100
AcDbEntity
  8
L1_45
  6
CONTINUOUS
 62
         7
100
AcDbLine
 10
1461.6530127456
 20
-131.9900166132
 30
0.0
 11
1458.6219238324
 21
-137.2400166132
 31
0.0
  0
LINE
  5
2B4
100
AcDbEntity
  8
L1_45
  6
CONTINUOUS
 62
         7
100
AcDbLine
 10
1458.6219238324
 20
-137.2400166132
 30
0.0
 11
1440.0411879237
 21
-137.2400166132
 31
0.0
  0
LINE
  5
2B5
100
AcDbEntity
  8
L1_45
  6
CONTINUOUS
 62
         7
100
AcDbLine
 10
1458.6219238324
 20
-116.2400166132
 30
0.0
 11
1440.0411879237
 21
-116.2400166132
 31
0.0
  0
LINE
  5
2B6
100
AcDbEntity
  8
L1_45
  6
CONTINUOUS
 62
         7
100
AcDbLine
 10
1461.6530127456
 20
-131.9900166132
 30
0.0
 11
1461.6530127456
 21
-121.4900166132
 31
0.0
  0
ARC
  5
2B7
100
AcDbEntity
  8
L1_45
  6
CONTINUOUS
 62
         7
100
AcDbCircle
 10
1543.3786999334
 20
-143.2400166132
 30
0.0
 40
0.5
100
AcDbArc
 50
90.0
 51
180.0
  0
ARC
  5
2B8
100
AcDbEntity
  8
L1_45
  6
CONTINUOUS
 62
         7
100
AcDbCircle
 10
1543.3786999334
 20
-110.2400166132
 30
0.0
 40
0.5
100
AcDbArc
 50
180.0
 51
270.0
  0
ARC
  5
2B9
100
AcDbEntity
  8
L1_45
  6
CONTINUOUS
 62
         7
100
AcDbCircle
 10
1543.3786999334
 20
95.7524144385
 30
0.0
 40
0.5
100
AcDbArc
 50
90.0
 51
180.0
  0
ARC
  5
2BA
100
AcDbEntity
  8
L1_45
  6
CONTINUOUS
 62
         7
100
AcDbCircle
 10
1543.3786999334
 20
128.7524144385
 30
0.0
 40
0.5
100
AcDbArc
 50
180.0
 51
270.0
  0
ARC
  5
2BB
100
AcDbEntity
  8
_Y__________
  6
CONTINUOUS
 62
         7
100
AcDbCircle
 10
1404.0786999334
 20
92.96211794
 30
0.0
 40
1.0
100
AcDbArc
 50
180.0
 51
261.7029
  0
ARC
  5
2BC
100
AcDbEntity
  8
_Y__________
  6
CONTINUOUS
 62
         7
100
AcDbCircle
 10
1404.0786999334
 20
131.5427109371
 30
0.0
 40
1.0
100
AcDbArc
 50
98.2971
 51
180.0
  0
LINE
  5
2BD
100
AcDbEntity
  8
_Y__________
  6
CONTINUOUS
 62
         7
100
AcDbLine
 10
1403.929393817
 20
-147.0191170434
 30
0.0
 11
1505.1955277024
 21
-161.7870137304
 31
0.0
  0
LINE
  5
2BE
100
AcDbEntity
  8
_Y__________
  6
CONTINUOUS
 62
         7
100
AcDbLine
 10
1403.929393817
 20
-106.460916183
 30
0.0
 11
1505.1955277024
 21
-91.693019496
 31
0.0
  0
ARC
  5
2BF
100
AcDbEntity
  8
_Y__________
  6
CONTINUOUS
 62
         7
100
AcDbCircle
 10
1404.0736999334
 20
-146.0295839491
 30
0.0
 40
1.0
100
AcDbArc
 50
180.0
 51
261.7029
  0
LINE
  5
2C0
100
AcDbEntity
  8
_Y__________
  6
CONTINUOUS
 62
         7
100
AcDbLine
 10
1403.0736999334
 20
-107.4504492773
 30
0.0
 11
1403.0736999334
 21
-146.0295839491
 31
0.0
  0
ARC
  5
2C1
100
AcDbEntity
  8
_Y__________
  6
CONTINUOUS
 62
         7
100
AcDbCircle
 10
1404.0736999334
 20
-107.4504492773
 30
0.0
 40
1.0
100
AcDbArc
 50
98.2971
 51
180.0
  0
LINE
  5
2C2
100
AcDbEntity
  8
_Y__________
  6
CONTINUOUS
 62
         7
100
AcDbLine
 10
1403.0786999334
 20
131.5427109371
 30
0.0
 11
1403.0786999334
 21
92.96211794
 31
0.0
  0
LINE
  5
2C3
100
AcDbEntity
  8
_Y__________
  6
CONTINUOUS
 62
         7
100
AcDbLine
 10
1520.6046120236
 20
126.1024144385
 30
0.0
 11
1524.5786999334
 21
125.1024144385
 31
0.0
  0
LINE
  5
2C4
100
AcDbEntity
  8
_Y__________
  6
CONTINUOUS
 62
         7
100
AcDbLine
 10
1507.8786999334
 20
125.1024144385
 30
0.0
 11
1526.0286999334
 21
125.1024144385
 31
0.0
  0
LINE
  5
2C5
100
AcDbEntity
  8
_Y__________
  6
CONTINUOUS
 62
         7
100
AcDbLine
 10
1507.8386999334
 20
126.1024144385
 30
0.0
 11
1520.6046120236
 21
126.1024144385
 31
0.0
  0
LINE
  5
2C6
100
AcDbEntity
  8
_Y__________
  6
CONTINUOUS
 62
         7
100
AcDbLine
 10
1531.5786999334
 20
123.8420649941
 30
0.0
 11
1535.5527878432
 21
122.3079725775
 31
0.0
  0
LINE
  5
2C7
100
AcDbEntity
  8
_Y__________
  6
CONTINUOUS
 62
         7
100
AcDbLine
 10
1520.6046120236
 20
98.4024144385
 30
0.0
 11
1524.5786999334
 21
99.4024144385
 31
0.0
  0
LINE
  5
2C8
100
AcDbEntity
  8
_Y__________
  6
CONTINUOUS
 62
         7
100
AcDbLine
 10
1507.8786999334
 20
99.4024144385
 30
0.0
 11
1526.0286999334
 21
99.4024144385
 31
0.0
  0
LINE
  5
2C9
100
AcDbEntity
  8
_Y__________
  6
CONTINUOUS
 62
         7
100
AcDbLine
 10
1507.8386999334
 20
98.4024144385
 30
0.0
 11
1520.6046120236
 21
98.4024144385
 31
0.0
  0
LINE
  5
2CA
100
AcDbEntity
  8
_Y__________
  6
CONTINUOUS
 62
         7
100
AcDbLine
 10
1531.5786999334
 20
100.662763883
 30
0.0
 11
1535.5527878432
 21
102.1968562996
 31
0.0
  0
ARC
  5
2CB
100
AcDbEntity
  8
_Y__________
  6
CONTINUOUS
 62
         7
100
AcDbCircle
 10
1526.0286999334
 20
112.2524144385
 30
0.0
 40
13.85
100
AcDbArc
 50
313.4451442301
 51
406.5548557699
  0
ARC
  5
2CC
100
AcDbEntity
  8
_Y__________
  6
CONTINUOUS
 62
         7
100
AcDbCircle
 10
1526.0286999334
 20
112.2524144385
 30
0.0
 40
12.85
100
AcDbArc
 50
270.0
 51
450.0
  0
LINE
  5
2CD
100
AcDbEntity
  8
_Y__________
  6
CONTINUOUS
 62
         7
100
AcDbLine
 10
1535.5527878432
 20
102.1968562996
 30
0.0
 11
1535.5527878432
 21
62.1774144385
 31
0.0
  0
LINE
  5
2CE
100
AcDbEntity
  8
_Y__________
  6
CONTINUOUS
 62
         7
100
AcDbLine
 10
1531.5786999334
 20
100.662763883
 30
0.0
 11
1531.5786999334
 21
68.9857366121
 31
0.0
  0
LINE
  5
2CF
100
AcDbEntity
  8
_Y__________
  6
CONTINUOUS
 62
         7
100
AcDbLine
 10
1524.5786999334
 20
99.4024144385
 30
0.0
 11
1524.5786999334
 21
68.9857366121
 31
0.0
  0
LINE
  5
2D0
100
AcDbEntity
  8
_Y__________
  6
CONTINUOUS
 62
         7
100
AcDbLine
 10
1520.6046120236
 20
98.4024144385
 30
0.0
 11
1520.6046120236
 21
62.1774144385
 31
0.0
  0
LINE
  5
2D1
100
AcDbEntity
  8
_Y__________
  6
CONTINUOUS
 62
         7
100
AcDbLine
 10
1535.5527878432
 20
162.3274144385
 30
0.0
 11
1535.5527878432
 21
122.3079725775
 31
0.0
  0
LINE
  5
2D2
100
AcDbEntity
  8
_Y__________
  6
CONTINUOUS
 62
         7
100
AcDbLine
 10
1531.5786999334
 20
155.519092265
 30
0.0
 11
1531.5786999334
 21
123.8420649941
 31
0.0
  0
LINE
  5
2D3
100
AcDbEntity
  8
_Y__________
  6
CONTINUOUS
 62
         7
100
AcDbLine
 10
1524.5786999334
 20
155.519092265
 30
0.0
 11
1524.5786999334
 21
125.1024144385
 31
0.0
  0
LINE
  5
2D4
100
AcDbEntity
  8
_Y__________
  6
CONTINUOUS
 62
         7
100
AcDbLine
 10
1520.6046120236
 20
162.3274144385
 30
0.0
 11
1520.6046120236
 21
126.1024144385
 31
0.0
  0
LINE
  5
2D5
100
AcDbEntity
  8
_Y__________
  6
CONTINUOUS
 62
         7
100
AcDbLine
 10
1403.934393817
 20
91.9725848457
 30
0.0
 11
1505.1955277024
 21
77.2054173213
 31
0.0
  0
LINE
  5
2D6
100
AcDbEntity
  8
_Y__________
  6
CENTER
 62
         1
100
AcDbLine
 10
1528.0786999334
 20
162.322642964
 30
0.0
 11
1528.0786999334
 21
61.1649935715
 31
0.0
  0
LINE
  5
2D7
100
AcDbEntity
  8
_Y__________
  6
CENTER
 62
         1
100
AcDbLine
 10
1504.8786999334
 20
147.2532077601
 30
0.0
 11
1504.8786999334
 21
77.251621117
 31
0.0
  0
LINE
  5
2D8
100
AcDbEntity
  8
_Y__________
  6
CONTINUOUS
 62
         7
100
AcDbLine
 10
1506.4983151757
 20
146.9503307044
 30
0.0
 11
1506.4983151757
 21
77.5544981727
 31
0.0
  0
LINE
  5
2D9
100
AcDbEntity
  8
_Y__________
  6
CONTINUOUS
 62
         7
100
AcDbLine
 10
1507.8386999334
 20
161.3274144385
 30
0.0
 11
1507.8386999334
 21
63.1774144385
 31
0.0
  0
LINE
  5
2DA
100
AcDbEntity
  8
_Y__________
  6
CONTINUOUS
 62
         7
100
AcDbLine
 10
1542.8786999334
 20
161.3274144385
 30
0.0
 11
1542.8786999334
 21
63.1774144385
 31
0.0
  0
LINE
  5
2DB
100
AcDbEntity
  8
_Y__________
  6
CONTINUOUS
 62
         7
100
AcDbLine
 10
1535.509486573
 20
62.1774144385
 30
0.0
 11
1541.8786999334
 21
62.1774144385
 31
0.0
  0
LINE
  5
2DC
100
AcDbEntity
  8
_Y__________
  6
CONTINUOUS
 62
         7
100
AcDbLine
 10
1505.1955277024
 20
77.2054173213
 30
0.0
 11
1506.4983151757
 21
77.5544981727
 31
0.0
  0
LINE
  5
2DD
100
AcDbEntity
  8
_Y__________
  6
CONTINUOUS
 62
         7
100
AcDbLine
 10
1506.4983151757
 20
77.5544981727
 30
0.0
 11
1507.8386999334
 21
77.5544981727
 31
0.0
  0
LINE
  5
2DE
100
AcDbEntity
  8
_Y__________
  6
CONTINUOUS
 62
         7
100
AcDbLine
 10
1524.5786999334
 20
68.9857366121
 30
0.0
 11
1520.6479132938
 21
62.1774144385
 31
0.0
  0
LINE
  5
2DF
100
AcDbEntity
  8
_Y__________
  6
CONTINUOUS
 62
         7
100
AcDbLine
 10
1531.5786999334
 20
68.9857366121
 30
0.0
 11
1535.509486573
 21
62.1774144385
 31
0.0
  0
LINE
  5
2E0
100
AcDbEntity
  8
_Y__________
  6
CONTINUOUS
 62
         7
100
AcDbLine
 10
1508.8386999334
 20
62.1774144385
 30
0.0
 11
1520.6479132938
 21
62.1774144385
 31
0.0
  0
LINE
  5
2E1
100
AcDbEntity
  8
_Y__________
  6
CONTINUOUS
 62
         7
100
AcDbLine
 10
1524.5786999334
 20
69.7524144385
 30
0.0
 11
1531.5786999334
 21
69.7524144385
 31
0.0
  0
LINE
  5
2E2
100
AcDbEntity
  8
_Y__________
  6
CONTINUOUS
 62
         7
100
AcDbLine
 10
1403.934393817
 20
132.5322440314
 30
0.0
 11
1505.1955277024
 21
147.2994115558
 31
0.0
  0
LINE
  5
2E3
100
AcDbEntity
  8
_Y__________
  6
CENTER
 62
         1
100
AcDbLine
 10
1400.3626759545
 20
112.2524144385
 30
0.0
 11
1468.6206362027
 21
112.2524144385
 31
0.0
  0
LINE
  5
2E4
100
AcDbEntity
  8
_Y__________
  6
CONTINUOUS
 62
         7
100
AcDbLine
 10
1535.509486573
 20
162.3274144385
 30
0.0
 11
1541.8786999334
 21
162.3274144385
 31
0.0
  0
LINE
  5
2E5
100
AcDbEntity
  8
_Y__________
  6
CENTER
 62
         1
100
AcDbLine
 10
1488.1913479344
 20
112.2524144385
 30
0.0
 11
1542.8786999334
 21
112.2524144385
 31
0.0
  0
LINE
  5
2E6
100
AcDbEntity
  8
_Y__________
  6
CONTINUOUS
 62
         7
100
AcDbLine
 10
1506.4983151757
 20
146.9503307044
 30
0.0
 11
1507.8386999334
 21
146.9503307044
 31
0.0
  0
LINE
  5
2E7
100
AcDbEntity
  8
_Y__________
  6
CONTINUOUS
 62
         7
100
AcDbLine
 10
1505.1955277024
 20
147.2994115558
 30
0.0
 11
1506.4983151757
 21
146.9503307044
 31
0.0
  0
LINE
  5
2E8
100
AcDbEntity
  8
_Y__________
  6
CONTINUOUS
 62
         7
100
AcDbLine
 10
1524.5786999334
 20
154.7524144385
 30
0.0
 11
1531.5786999334
 21
154.7524144385
 31
0.0
  0
LINE
  5
2E9
100
AcDbEntity
  8
_Y__________
  6
CONTINUOUS
 62
         7
100
AcDbLine
 10
1508.8386999334
 20
162.3274144385
 30
0.0
 11
1520.6479132938
 21
162.3274144385
 31
0.0
  0
LINE
  5
2EA
100
AcDbEntity
  8
_Y__________
  6
CONTINUOUS
 62
         7
100
AcDbLine
 10
1524.5786999334
 20
155.519092265
 30
0.0
 11
1520.6479132938
 21
162.3274144385
 31
0.0
  0
LINE
  5
2EB
100
AcDbEntity
  8
_Y__________
  6
CONTINUOUS
 62
         7
100
AcDbLine
 10
1531.5786999334
 20
155.519092265
 30
0.0
 11
1535.509486573
 21
162.3274144385
 31
0.0
  0
LINE
  5
2EC
100
AcDbEntity
  8
_Y__________
  6
CONTINUOUS
 62
         7
100
AcDbLine
 10
1416.0786999334
 20
-137.2400166132
 30
0.0
 11
1448.0686999334
 21
-137.2400166132
 31
0.0
  0
LINE
  5
2ED
100
AcDbEntity
  8
_Y__________
  6
CONTINUOUS
 62
         7
100
AcDbLine
 10
1416.0786999334
 20
-116.2400166132
 30
0.0
 11
1448.0686999334
 21
-116.2400166132
 31
0.0
  0
LINE
  5
2EE
100
AcDbEntity
  8
_Y__________
  6
CONTINUOUS
 62
         5
100
AcDbLine
 10
1416.0786999334
 20
-138.7400166132
 30
0.0
 11
1448.0686999334
 21
-138.7400166132
 31
0.0
  0
LINE
  5
2EF
100
AcDbEntity
  8
_Y__________
  6
CONTINUOUS
 62
         5
100
AcDbLine
 10
1416.0786999334
 20
-114.7400166132
 30
0.0
 11
1448.0686999334
 21
-114.7400166132
 31
0.0
  0
LINE
  5
2F0
100
AcDbEntity
  8
_Y__________
  6
CONTINUOUS
 62
         7
100
AcDbLine
 10
1404.810750741
 20
-114.2400166132
 30
0.0
 11
1413.5786999334
 21
-114.2400166132
 31
0.0
  0
LINE
  5
2F1
100
AcDbEntity
  8
_Y__________
  6
CONTINUOUS
 62
         7
100
AcDbLine
 10
1404.810750741
 20
-139.2400166132
 30
0.0
 11
1413.5786999334
 21
-139.2400166132
 31
0.0
  0
LINE
  5
2F2
100
AcDbEntity
  8
_Y__________
  6
CONTINUOUS
 62
         7
100
AcDbLine
 10
1403.0786999334
 20
-113.2400166132
 30
0.0
 11
1404.810750741
 21
-114.2400166132
 31
0.0
  0
LINE
  5
2F3
100
AcDbEntity
  8
_Y__________
  6
CONTINUOUS
 62
         7
100
AcDbLine
 10
1403.0786999334
 20
-140.2400166132
 30
0.0
 11
1404.810750741
 21
-139.2400166132
 31
0.0
  0
ARC
  5
2F4
100
AcDbEntity
  8
_Y__________
  6
CONTINUOUS
 62
         7
100
AcDbCircle
 10
1414.7773066742
 20
-114.5400166132
 30
0.0
 40
0.6
100
AcDbArc
 50
90.0
 51
105.0
  0
LINE
  5
2F5
100
AcDbEntity
  8
_Y__________
  6
CONTINUOUS
 62
         7
100
AcDbLine
 10
1414.7773066742
 20
-113.9400166132
 30
0.0
 11
1415.4786999334
 21
-113.9400166132
 31
0.0
  0
LINE
  5
2F6
100
AcDbEntity
  8
_Y__________
  6
CONTINUOUS
 62
         7
100
AcDbLine
 10
1413.5786999334
 20
-114.2400166132
 30
0.0
 11
1414.6220152472
 21
-113.9604611174
 31
0.0
  0
ARC
  5
2F7
100
AcDbEntity
  8
_Y__________
  6
CONTINUOUS
 62
         7
100
AcDbCircle
 10
1415.4786999334
 20
-114.5400166132
 30
0.0
 40
0.6
100
AcDbArc
 50
0.0
 51
90.0
  0
LINE
  5
2F8
100
AcDbEntity
  8
_Y__________
  6
CONTINUOUS
 62
         7
100
AcDbLine
 10
1414.7773066742
 20
-139.5400166132
 30
0.0
 11
1415.4786999334
 21
-139.5400166132
 31
0.0
  0
LINE
  5
2F9
100
AcDbEntity
  8
_Y__________
  6
CONTINUOUS
 62
         7
100
AcDbLine
 10
1413.5786999334
 20
-139.2400166132
 30
0.0
 11
1414.6220152472
 21
-139.519572109
 31
0.0
  0
ARC
  5
2FA
100
AcDbEntity
  8
_Y__________
  6
CONTINUOUS
 62
         7
100
AcDbCircle
 10
1415.4786999334
 20
-138.9400166132
 30
0.0
 40
0.6
100
AcDbArc
 50
270.0
 51
360.0
  0
ARC
  5
2FB
100
AcDbEntity
  8
_Y__________
  6
CONTINUOUS
 62
         7
100
AcDbCircle
 10
1414.7773066742
 20
-138.9400166132
 30
0.0
 40
0.6
100
AcDbArc
 50
255.0
 51
270.0
  0
LINE
  5
2FC
100
AcDbEntity
  8
_Y__________
  6
CONTINUOUS
 62
         7
100
AcDbLine
 10
1416.0786999334
 20
-114.5400166132
 30
0.0
 11
1416.0786999334
 21
-138.9400166132
 31
0.0
  0
LINE
  5
2FD
100
AcDbEntity
  8
_Y__________
  6
CONTINUOUS
 62
         7
100
AcDbLine
 10
1413.5786999334
 20
-114.2400166132
 30
0.0
 11
1413.5786999334
 21
-139.2400166132
 31
0.0
  0
LINE
  5
2FE
100
AcDbEntity
  8
_Y__________
  6
CONTINUOUS
 62
         7
100
AcDbLine
 10
1535.5527878432
 20
-176.7400166132
 30
0.0
 11
1541.8786999334
 21
-176.7400166132
 31
0.0
  0
LINE
  5
2FF
100
AcDbEntity
  8
_Y__________
  6
CONTINUOUS
 62
         7
100
AcDbLine
 10
1448.0686999334
 20
-114.7400166132
 30
0.0
 11
1448.0686999334
 21
-138.7400166132
 31
0.0
  0
LINE
  5
300
100
AcDbEntity
  8
_Y__________
  6
CONTINUOUS
 62
         7
100
AcDbLine
 10
1506.4983151757
 20
-161.4379328791
 30
0.0
 11
1507.2786999334
 21
-161.4379328791
 31
0.0
  0
LINE
  5
301
100
AcDbEntity
  8
_Y__________
  6
CONTINUOUS
 62
         7
100
AcDbLine
 10
1507.8786999334
 20
-162.0379328791
 30
0.0
 11
1507.8786999334
 21
-175.7400166132
 31
0.0
  0
LINE
  5
302
100
AcDbEntity
  8
_Y__________
  6
CONTINUOUS
 62
         7
100
AcDbLine
 10
1524.5786999334
 20
-169.2400166132
 30
0.0
 11
1531.5786999334
 21
-169.2400166132
 31
0.0
  0
LINE
  5
303
100
AcDbEntity
  8
_Y__________
  6
CONTINUOUS
 62
         7
100
AcDbLine
 10
1524.5786999334
 20
-169.2400166132
 30
0.0
 11
1524.5786999334
 21
-169.8566944397
 31
0.0
  0
LINE
  5
304
100
AcDbEntity
  8
_Y__________
  6
CONTINUOUS
 62
         7
100
AcDbLine
 10
1524.5786999334
 20
-169.8566944397
 30
0.0
 11
1520.6046120236
 21
-176.7400166132
 31
0.0
  0
LINE
  5
305
100
AcDbEntity
  8
_Y__________
  6
CONTINUOUS
 62
         7
100
AcDbLine
 10
1508.8786999334
 20
-176.7400166132
 30
0.0
 11
1520.6046120236
 21
-176.7400166132
 31
0.0
  0
LINE
  5
306
100
AcDbEntity
  8
_Y__________
  6
CONTINUOUS
 62
         7
100
AcDbLine
 10
1531.5786999334
 20
-169.2400166132
 30
0.0
 11
1531.5786999334
 21
-169.8566944397
 31
0.0
  0
LINE
  5
307
100
AcDbEntity
  8
_Y__________
  6
CONTINUOUS
 62
         7
100
AcDbLine
 10
1531.5786999334
 20
-169.8566944397
 30
0.0
 11
1535.5527878432
 21
-176.7400166132
 31
0.0
  0
ARC
  5
308
100
AcDbEntity
  8
_Y__________
  6
CONTINUOUS
 62
         7
100
AcDbCircle
 10
1507.2786999334
 20
-162.0379328791
 30
0.0
 40
0.6
100
AcDbArc
 50
0.0
 51
90.0
  0
LINE
  5
309
100
AcDbEntity
  8
_Y__________
  6
CONTINUOUS
 62
         7
100
AcDbLine
 10
1505.1955277024
 20
-161.7870137304
 30
0.0
 11
1506.4983151757
 21
-161.4379328791
 31
0.0
  0
LINE
  5
30A
100
AcDbEntity
  8
_Y__________
  6
CONTINUOUS
 62
         7
100
AcDbLine
 10
1535.5527878432
 20
-76.7400166132
 30
0.0
 11
1541.8786999334
 21
-76.7400166132
 31
0.0
  0
LINE
  5
30B
100
AcDbEntity
  8
_Y__________
  6
CONTINUOUS
 62
         7
100
AcDbLine
 10
1524.5786999334
 20
-84.2400166132
 30
0.0
 11
1531.5786999334
 21
-84.2400166132
 31
0.0
  0
LINE
  5
30C
100
AcDbEntity
  8
_Y__________
  6
CONTINUOUS
 62
         7
100
AcDbLine
 10
1524.5786999334
 20
-83.6233387867
 30
0.0
 11
1524.5786999334
 21
-84.2400166132
 31
0.0
  0
LINE
  5
30D
100
AcDbEntity
  8
_Y__________
  6
CONTINUOUS
 62
         7
100
AcDbLine
 10
1524.5786999334
 20
-83.6233387867
 30
0.0
 11
1520.6046120236
 21
-76.7400166132
 31
0.0
  0
LINE
  5
30E
100
AcDbEntity
  8
_Y__________
  6
CONTINUOUS
 62
         7
100
AcDbLine
 10
1507.8786999334
 20
-77.7400166132
 30
0.0
 11
1507.8786999334
 21
-91.4421003473
 31
0.0
  0
LINE
  5
30F
100
AcDbEntity
  8
_Y__________
  6
CONTINUOUS
 62
         7
100
AcDbLine
 10
1505.1955277024
 20
-91.693019496
 30
0.0
 11
1506.4983151757
 21
-92.0421003473
 31
0.0
  0
LINE
  5
310
100
AcDbEntity
  8
_Y__________
  6
CONTINUOUS
 62
         7
100
AcDbLine
 10
1506.4983151757
 20
-92.0421003473
 30
0.0
 11
1507.2786999334
 21
-92.0421003473
 31
0.0
  0
ARC
  5
311
100
AcDbEntity
  8
_Y__________
  6
CONTINUOUS
 62
         7
100
AcDbCircle
 10
1507.2786999334
 20
-91.4421003473
 30
0.0
 40
0.6
100
AcDbArc
 50
270.0
 51
360.0
  0
LINE
  5
312
100
AcDbEntity
  8
_Y__________
  6
CONTINUOUS
 62
         7
100
AcDbLine
 10
1508.8786999334
 20
-76.7400166132
 30
0.0
 11
1520.6046120236
 21
-76.7400166132
 31
0.0
  0
LINE
  5
313
100
AcDbEntity
  8
_Y__________
  6
CONTINUOUS
 62
         7
100
AcDbLine
 10
1531.5786999334
 20
-83.6233387867
 30
0.0
 11
1531.5786999334
 21
-84.2400166132
 31
0.0
  0
LINE
  5
314
100
AcDbEntity
  8
_Y__________
  6
CONTINUOUS
 62
         7
100
AcDbLine
 10
1531.5786999334
 20
-83.6233387867
 30
0.0
 11
1535.5527878432
 21
-76.7400166132
 31
0.0
  0
LINE
  5
315
100
AcDbEntity
  8
_Y__________
  6
CONTINUOUS
 62
         7
100
AcDbLine
 10
1524.5786999334
 20
-84.2400166132
 30
0.0
 11
1531.5786999334
 21
-84.2400166132
 31
0.0
  0
LINE
  5
316
100
AcDbEntity
  8
_Y__________
  6
CONTINUOUS
 62
         7
100
AcDbLine
 10
1275.3233403763
 20
124.3024144385
 30
0.0
 11
1275.3233403763
 21
100.2024144385
 31
0.0
  0
LINE
  5
317
100
AcDbEntity
  8
_Y__________
  6
CONTINUOUS
 62
         7
100
AcDbLine
 10
1288.2439105302
 20
99.4024144385
 30
0.0
 11
1276.1233403763
 21
99.4024144385
 31
0.0
  0
LINE
  5
318
100
AcDbEntity
  8
_Y__________
  6
CONTINUOUS
 62
         7
100
AcDbLine
 10
1288.2439105302
 20
125.1024144385
 30
0.0
 11
1276.1233403763
 21
125.1024144385
 31
0.0
  0
ARC
  5
319
100
AcDbEntity
  8
_Y__________
  6
CONTINUOUS
 62
         5
100
AcDbCircle
 10
1239.9233403763
 20
112.2524144385
 30
0.0
 40
12.0
100
AcDbArc
 50
254.3467118715
 51
525.9849549731
  0
CIRCLE
  5
31A
100
AcDbEntity
  8
_Y__________
  6
CONTINUOUS
 62
         7
100
AcDbCircle
 10
1239.9233403763
 20
112.2524144385
 30
0.0
 40
10.5
  0
CIRCLE
  5
31B
100
AcDbEntity
  8
_Y__________
  6
CONTINUOUS
 62
         7
100
AcDbCircle
 10
1239.9233403763
 20
112.2524144385
 30
0.0
 40
13.5
  0
CIRCLE
  5
31C
100
AcDbEntity
  8
_Y__________
  6
CONTINUOUS
 62
         7
100
AcDbCircle
 10
1239.9233403763
 20
112.2524144385
 30
0.0
 40
12.5
  0
LINE
  5
31D
100
AcDbEntity
  8
_Y__________
  6
CONTINUOUS
 62
         7
100
AcDbLine
 10
1204.5233403763
 20
124.3024144385
 30
0.0
 11
1204.5233403763
 21
100.2024144385
 31
0.0
  0
LINE
  5
31E
100
AcDbEntity
  8
_Y__________
  6
CONTINUOUS
 62
         7
100
AcDbLine
 10
1191.6027702223
 20
99.4024144385
 30
0.0
 11
1203.7233403763
 21
99.4024144385
 31
0.0
  0
LINE
  5
31F
100
AcDbEntity
  8
_Y__________
  6
CONTINUOUS
 62
         7
100
AcDbLine
 10
1191.6027702223
 20
125.1024144385
 30
0.0
 11
1203.7233403763
 21
125.1024144385
 31
0.0
  0
CIRCLE
  5
320
100
AcDbEntity
  8
_Y__________
  6
CONTINUOUS
 62
         7
100
AcDbCircle
 10
1239.9233403763
 20
112.2524144385
 30
0.0
 40
20.0792482659
  0
LINE
  5
321
100
AcDbEntity
  8
_Y__________
  6
CENTER
 62
         1
100
AcDbLine
 10
1294.9233403763
 20
112.2524144385
 30
0.0
 11
1184.9233403763
 21
112.2524144385
 31
0.0
  0
LINE
  5
322
100
AcDbEntity
  8
_Y__________
  6
CENTER
 62
         1
100
AcDbLine
 10
1239.9233403763
 20
167.2524144385
 30
0.0
 11
1239.9233403763
 21
57.2524144385
 31
0.0
  0
CIRCLE
  5
323
100
AcDbEntity
  8
_Y__________
  6
CONTINUOUS
 62
         7
100
AcDbCircle
 10
1239.9233403763
 20
112.2524144385
 30
0.0
 40
50.0
  0
CIRCLE
  5
324
100
AcDbEntity
  8
_Y__________
  6
CONTINUOUS
 62
         7
100
AcDbCircle
 10
1239.9233403763
 20
112.2524144385
 30
0.0
 40
34.9979162659
  0
LINE
  5
325
100
AcDbEntity
  8
_Y__________
  6
CONTINUOUS
 62
         7
100
AcDbLine
 10
1203.7233403763
 20
125.1024144385
 30
0.0
 11
1204.5233403763
 21
124.3024144385
 31
0.0
  0
LINE
  5
326
100
AcDbEntity
  8
_Y__________
  6
CONTINUOUS
 62
         7
100
AcDbLine
 10
1204.5233403763
 20
100.2024144385
 30
0.0
 11
1203.7233403763
 21
99.4024144385
 31
0.0
  0
LINE
  5
327
100
AcDbEntity
  8
_Y__________
  6
CONTINUOUS
 62
         7
100
AcDbLine
 10
1276.1233403763
 20
125.1024144385
 30
0.0
 11
1275.3233403763
 21
124.3024144385
 31
0.0
  0
LINE
  5
328
100
AcDbEntity
  8
_Y__________
  6
CONTINUOUS
 62
         7
100
AcDbLine
 10
1275.3233403763
 20
100.2024144385
 30
0.0
 11
1276.1233403763
 21
99.4024144385
 31
0.0
  0
LINE
  5
329
100
AcDbEntity
  8
_Y__________
  6
CENTER
 62
         1
100
AcDbLine
 10
1900.8340594905
 20
112.2524144385
 30
0.0
 11
1790.8340594905
 21
112.2524144385
 31
0.0
  0
LINE
  5
32A
100
AcDbEntity
  8
_Y__________
  6
CENTER
 62
         1
100
AcDbLine
 10
1845.8340594905
 20
167.2524144385
 30
0.0
 11
1845.8340594905
 21
57.2524144385
 31
0.0
  0
CIRCLE
  5
32B
100
AcDbEntity
  8
_Y__________
  6
CONTINUOUS
 62
         7
100
AcDbCircle
 10
1845.8340594905
 20
112.2524144385
 30
0.0
 40
50.0
  0
ARC
  5
32C
100
AcDbEntity
  8
_Y__________
  6
DASHED
 62
         2
100
AcDbCircle
 10
1845.8340594905
 20
112.2524144385
 30
0.0
 40
42.5
100
AcDbArc
 50
17.5989811731
 51
162.4010188269
  0
ARC
  5
32D
100
AcDbEntity
  8
_Y__________
  6
DASHED
 62
         2
100
AcDbCircle
 10
1845.8340594905
 20
112.2524144385
 30
0.0
 40
42.5
100
AcDbArc
 50
197.5989811731
 51
342.4010188269
  0
LINE
  5
32E
100
AcDbEntity
  8
_Y__________
  6
DASHED
 62
         2
100
AcDbLine
 10
1798.5489931376
 20
125.1024144385
 30
0.0
 11
1809.6340594905
 21
125.1024144385
 31
0.0
  0
LINE
  5
32F
100
AcDbEntity
  8
_Y__________
  6
DASHED
 62
         2
100
AcDbLine
 10
1798.5489931376
 20
125.1024144385
 30
0.0
 11
1797.7905635728
 21
126.1024144385
 31
0.0
  0
LINE
  5
330
100
AcDbEntity
  8
_Y__________
  6
DASHED
 62
         2
100
AcDbLine
 10
1798.5489931376
 20
99.4024144385
 30
0.0
 11
1809.6340594905
 21
99.4024144385
 31
0.0
  0
LINE
  5
331
100
AcDbEntity
  8
_Y__________
  6
DASHED
 62
         2
100
AcDbLine
 10
1798.5489931376
 20
99.4024144385
 30
0.0
 11
1797.7905635728
 21
98.4024144385
 31
0.0
  0
LINE
  5
332
100
AcDbEntity
  8
_Y__________
  6
DASHED
 62
         2
100
AcDbLine
 10
1810.4340594905
 20
124.3024144385
 30
0.0
 11
1810.4340594905
 21
100.2024144385
 31
0.0
  0
LINE
  5
333
100
AcDbEntity
  8
_Y__________
  6
DASHED
 62
         2
100
AcDbLine
 10
1893.1191258435
 20
125.1024144385
 30
0.0
 11
1882.0340594905
 21
125.1024144385
 31
0.0
  0
LINE
  5
334
100
AcDbEntity
  8
_Y__________
  6
DASHED
 62
         2
100
AcDbLine
 10
1893.1191258435
 20
125.1024144385
 30
0.0
 11
1893.8775554083
 21
126.1024144385
 31
0.0
  0
LINE
  5
335
100
AcDbEntity
  8
_Y__________
  6
DASHED
 62
         2
100
AcDbLine
 10
1893.1191258435
 20
99.4024144385
 30
0.0
 11
1882.0340594905
 21
99.4024144385
 31
0.0
  0
LINE
  5
336
100
AcDbEntity
  8
_Y__________
  6
DASHED
 62
         2
100
AcDbLine
 10
1893.1191258435
 20
99.4024144385
 30
0.0
 11
1893.8775554083
 21
98.4024144385
 31
0.0
  0
LINE
  5
337
100
AcDbEntity
  8
_Y__________
  6
DASHED
 62
         2
100
AcDbLine
 10
1881.2340594905
 20
124.3024144385
 30
0.0
 11
1881.2340594905
 21
100.2024144385
 31
0.0
  0
LINE
  5
338
100
AcDbEntity
  8
_Y__________
  6
CONTINUOUS
 62
         2
100
AcDbLine
 10
1882.0340594905
 20
99.4024144385
 30
0.0
 11
1881.2340594905
 21
100.2024144385
 31
0.0
  0
LINE
  5
339
100
AcDbEntity
  8
_Y__________
  6
DASHED
 62
         2
100
AcDbLine
 10
1881.2340594905
 20
124.3024144385
 30
0.0
 11
1882.0340594905
 21
125.1024144385
 31
0.0
  0
LINE
  5
33A
100
AcDbEntity
  8
_Y__________
  6
DASHED
 62
         2
100
AcDbLine
 10
1810.4340594905
 20
124.3024144385
 30
0.0
 11
1809.6340594905
 21
125.1024144385
 31
0.0
  0
LINE
  5
33B
100
AcDbEntity
  8
_Y__________
  6
DASHED
 62
         2
100
AcDbLine
 10
1810.4340594905
 20
100.2024144385
 30
0.0
 11
1809.6340594905
 21
99.4024144385
 31
0.0
  0
LINE
  5
33C
100
AcDbEntity
  8
_Y__________
  6
CONTINUOUS
 62
         7
100
AcDbLine
 10
1507.8386999334
 20
161.3274144385
 30
0.0
 11
1507.8386999334
 21
160.3274144385
 31
0.0
  0
ARC
  5
33D
100
AcDbEntity
  8
_Y__________
  6
CONTINUOUS
 62
         7
100
AcDbCircle
 10
1508.8386999334
 20
161.3274144385
 30
0.0
 40
1.0
100
AcDbArc
 50
90.0
 51
180.0
  0
LINE
  5
33E
100
AcDbEntity
  8
_Y__________
  6
CONTINUOUS
 62
         7
100
AcDbLine
 10
1508.8386999334
 20
162.3274144385
 30
0.0
 11
1509.8386999334
 21
162.3274144385
 31
0.0
  0
LINE
  5
33F
100
AcDbEntity
  8
_Y__________
  6
CONTINUOUS
 62
         7
100
AcDbLine
 10
1540.8786999334
 20
162.3274144385
 30
0.0
 11
1541.8786999334
 21
162.3274144385
 31
0.0
  0
ARC
  5
340
100
AcDbEntity
  8
_Y__________
  6
CONTINUOUS
 62
         7
100
AcDbCircle
 10
1541.8786999334
 20
161.3274144385
 30
0.0
 40
1.0
100
AcDbArc
 50
0.0
 51
90.0
  0
LINE
  5
341
100
AcDbEntity
  8
_Y__________
  6
CONTINUOUS
 62
         7
100
AcDbLine
 10
1542.8786999334
 20
161.3274144385
 30
0.0
 11
1542.8786999334
 21
160.3274144385
 31
0.0
  0
ARC
  5
342
100
AcDbEntity
  8
_Y__________
  6
CONTINUOUS
 62
         7
100
AcDbCircle
 10
1541.8786999334
 20
63.1774144385
 30
0.0
 40
1.0
100
AcDbArc
 50
270.0
 51
360.0
  0
LINE
  5
343
100
AcDbEntity
  8
_Y__________
  6
CONTINUOUS
 62
         7
100
AcDbLine
 10
1540.8786999334
 20
62.1774144385
 30
0.0
 11
1541.8786999334
 21
62.1774144385
 31
0.0
  0
LINE
  5
344
100
AcDbEntity
  8
_Y__________
  6
CONTINUOUS
 62
         7
100
AcDbLine
 10
1508.8386999334
 20
62.1774144385
 30
0.0
 11
1509.8386999334
 21
62.1774144385
 31
0.0
  0
ARC
  5
345
100
AcDbEntity
  8
_Y__________
  6
CONTINUOUS
 62
         7
100
AcDbCircle
 10
1508.8386999334
 20
63.1774144385
 30
0.0
 40
1.0
100
AcDbArc
 50
180.0
 51
270.0
  0
LINE
  5
346
100
AcDbEntity
  8
_Y__________
  6
CONTINUOUS
 62
         7
100
AcDbLine
 10
1542.8786999334
 20
64.1774144385
 30
0.0
 11
1542.8786999334
 21
63.1774144385
 31
0.0
  0
LINE
  5
347
100
AcDbEntity
  8
_Y__________
  6
CONTINUOUS
 62
         7
100
AcDbLine
 10
1507.8386999334
 20
64.1774144385
 30
0.0
 11
1507.8386999334
 21
63.1774144385
 31
0.0
  0
LINE
  5
348
100
AcDbEntity
  8
_Y__________
  6
CONTINUOUS
 62
         7
100
AcDbLine
 10
1540.8786999334
 20
-76.7400166132
 30
0.0
 11
1541.8786999334
 21
-76.7400166132
 31
0.0
  0
ARC
  5
349
100
AcDbEntity
  8
_Y__________
  6
CONTINUOUS
 62
         7
100
AcDbCircle
 10
1541.8786999334
 20
-77.7400166132
 30
0.0
 40
1.0
100
AcDbArc
 50
0.0
 51
90.0
  0
LINE
  5
34A
100
AcDbEntity
  8
_Y__________
  6
CONTINUOUS
 62
         7
100
AcDbLine
 10
1542.8786999334
 20
-77.7400166132
 30
0.0
 11
1542.8786999334
 21
-110.2400166132
 31
0.0
  0
LINE
  5
34B
100
AcDbEntity
  8
_Y__________
  6
CONTINUOUS
 62
         7
100
AcDbLine
 10
1507.8786999334
 20
-77.7400166132
 30
0.0
 11
1507.8786999334
 21
-78.7400166132
 31
0.0
  0
ARC
  5
34C
100
AcDbEntity
  8
_Y__________
  6
CONTINUOUS
 62
         7
100
AcDbCircle
 10
1508.8786999334
 20
-77.7400166132
 30
0.0
 40
1.0
100
AcDbArc
 50
90.0
 51
180.0
  0
LINE
  5
34D
100
AcDbEntity
  8
_Y__________
  6
CONTINUOUS
 62
         7
100
AcDbLine
 10
1508.8786999334
 20
-76.7400166132
 30
0.0
 11
1509.8786999334
 21
-76.7400166132
 31
0.0
  0
ARC
  5
34E
100
AcDbEntity
  8
_Y__________
  6
CONTINUOUS
 62
         7
100
AcDbCircle
 10
1541.8786999334
 20
-175.7400166132
 30
0.0
 40
1.0
100
AcDbArc
 50
270.0
 51
360.0
  0
LINE
  5
34F
100
AcDbEntity
  8
_Y__________
  6
CONTINUOUS
 62
         7
100
AcDbLine
 10
1540.8786999334
 20
-176.7400166132
 30
0.0
 11
1541.8786999334
 21
-176.7400166132
 31
0.0
  0
LINE
  5
350
100
AcDbEntity
  8
_Y__________
  6
CONTINUOUS
 62
         7
100
AcDbLine
 10
1542.8786999334
 20
-143.2400166132
 30
0.0
 11
1542.8786999334
 21
-175.7400166132
 31
0.0
  0
LINE
  5
351
100
AcDbEntity
  8
_Y__________
  6
CONTINUOUS
 62
         7
100
AcDbLine
 10
1508.8786999334
 20
-176.7400166132
 30
0.0
 11
1509.8786999334
 21
-176.7400166132
 31
0.0
  0
ARC
  5
352
100
AcDbEntity
  8
_Y__________
  6
CONTINUOUS
 62
         7
100
AcDbCircle
 10
1508.8786999334
 20
-175.7400166132
 30
0.0
 40
1.0
100
AcDbArc
 50
180.0
 51
270.0
  0
LINE
  5
353
100
AcDbEntity
  8
_Y__________
  6
CONTINUOUS
 62
         7
100
AcDbLine
 10
1507.8786999334
 20
-174.7400166132
 30
0.0
 11
1507.8786999334
 21
-175.7400166132
 31
0.0
  0
LINE
  5
354
100
AcDbEntity
  8
L1_45
  6
CONTINUOUS
 62
         7
100
AcDbLine
 10
1482.8786999334
 20
-131.9900166132
 30
0.0
 11
1461.6530127456
 21
-131.9900166132
 31
0.0
  0
LINE
  5
355
100
AcDbEntity
  8
L1_45
  6
CONTINUOUS
 62
         7
100
AcDbLine
 10
1482.8786999334
 20
-121.4900166132
 30
0.0
 11
1461.6530127456
 21
-121.4900166132
 31
0.0
  0
DIMENSION
  5
359
100
AcDbEntity
  8
L1_45
  6
CONTINUOUS
 62
         4
100
AcDbDimension
  2
*D0
 10
1499.6073536673
 20
-134.6941194867
 30
0.0
 11
1496.9823536673
 21
-186.6066165715
 31
0.0
  3
DIMSTYLE1
100
AcDbAlignedDimension
 13
1496.8786999334
 23
-134.6941194867
 33
0.0
 14
1496.8786999334
 24
-118.7859137397
 34
0.0
 50
90.0
100
AcDbRotatedDimension
  0
DIMENSION
  5
369
100
AcDbEntity
  8
L1_45
  6
CONTINUOUS
 62
         4
100
AcDbDimension
  2
*D1
 10
1487.2586999334
 20
-204.3180752451
 30
0.0
 11
1515.7748019036
 21
-201.6930752451
 31
0.0
  3
DIMSTYLE1
100
AcDbAlignedDimension
 13
1487.2586999334
 23
-139.2400166132
 33
0.0
 14
1549.8786999334
 24
-140.7400166132
 34
0.0
100
AcDbRotatedDimension
  0
LINE
  5
375
100
AcDbEntity
  8
L1_45
  6
CENTER
 62
         1
100
AcDbLine
 10
1469.1786999334
 20
-159.5573966536
 30
0.0
 11
1469.1786999334
 21
-94.698670999
 31
0.0
  0
LINE
  5
376
100
AcDbEntity
  8
L1_45
  6
CENTER
 62
         1
100
AcDbLine
 10
1484.5786999334
 20
-162.2598435559
 30
0.0
 11
1484.5786999334
 21
-92.7683517831
 31
0.0
  0
LINE
  5
377
100
AcDbEntity
  8
L1_45
  6
CONTINUOUS
 62
         7
100
AcDbLine
 10
1496.8786999334
 20
-118.7859137397
 30
0.0
 11
1496.8786999334
 21
-134.6941194867
 31
0.0
  0
LINE
  5
378
100
AcDbEntity
  8
L1_45
  6
CONTINUOUS
 62
         7
100
AcDbLine
 10
1464.0086999334
 20
-139.2400166132
 30
0.0
 11
1488.2586999334
 21
-139.2400166132
 31
0.0
  0
LINE
  5
379
100
AcDbEntity
  8
L1_45
  6
CONTINUOUS
 62
         7
100
AcDbLine
 10
1483.8786999334
 20
-134.6941194867
 30
0.0
 11
1496.8786999334
 21
-134.6941194867
 31
0.0
  0
LINE
  5
37A
100
AcDbEntity
  8
L1_45
  6
CONTINUOUS
 62
         7
100
AcDbLine
 10
1483.8786999334
 20
-118.7859137397
 30
0.0
 11
1496.8786999334
 21
-118.7859137397
 31
0.0
  0
LINE
  5
37B
100
AcDbEntity
  8
L1_45
  6
CONTINUOUS
 62
         7
100
AcDbLine
 10
1464.0086999334
 20
-114.2400166132
 30
0.0
 11
1488.2586999334
 21
-114.2400166132
 31
0.0
  0
LINE
  5
37C
100
AcDbEntity
  8
L1_45
  6
CONTINUOUS
 62
         7
100
AcDbLine
 10
1488.2586999334
 20
-114.2400166132
 30
0.0
 11
1488.2586999334
 21
-95.2088665281
 31
0.0
  0
LINE
  5
37D
100
AcDbEntity
  8
L1_45
  6
CONTINUOUS
 62
         7
100
AcDbLine
 10
1487.2586999334
 20
-118.7859137397
 30
0.0
 11
1487.2586999334
 21
-114.2400166132
 31
0.0
  0
LINE
  5
37E
100
AcDbEntity
  8
L1_45
  6
CONTINUOUS
 62
         7
100
AcDbLine
 10
1488.2586999334
 20
-139.2400166132
 30
0.0
 11
1488.2586999334
 21
-158.2711666983
 31
0.0
  0
LINE
  5
37F
100
AcDbEntity
  8
L1_45
  6
CONTINUOUS
 62
         7
100
AcDbLine
 10
1487.2586999334
 20
-139.2400166132
 30
0.0
 11
1487.2586999334
 21
-134.6941194867
 31
0.0
  0
LINE
  5
380
100
AcDbEntity
  8
L1_45
  6
CONTINUOUS
 62
         7
100
AcDbLine
 10
1464.0086999334
 20
-114.2400166132
 30
0.0
 11
1464.0086999334
 21
-98.7453054235
 31
0.0
  0
LINE
  5
381
100
AcDbEntity
  8
L1_45
  6
CONTINUOUS
 62
         7
100
AcDbLine
 10
1465.0086999334
 20
-114.2400166132
 30
0.0
 11
1465.0086999334
 21
-121.4900166132
 31
0.0
  0
LINE
  5
382
100
AcDbEntity
  8
L1_45
  6
CONTINUOUS
 62
         7
100
AcDbLine
 10
1465.0086999334
 20
-139.2400166132
 30
0.0
 11
1465.0086999334
 21
-131.9900166132
 31
0.0
  0
LINE
  5
383
100
AcDbEntity
  8
L1_45
  6
CONTINUOUS
 62
         7
100
AcDbLine
 10
1464.0086999334
 20
-139.2400166132
 30
0.0
 11
1464.0086999334
 21
-154.7347278029
 31
0.0
  0
LINE
  5
384
100
AcDbEntity
  8
L1_45
  6
CONTINUOUS
 62
         7
100
AcDbLine
 10
1464.0086999334
 20
-98.7453054235
 30
0.0
 11
1488.2586999334
 21
-95.2088665281
 31
0.0
  0
LINE
  5
385
100
AcDbEntity
  8
L1_45
  6
CONTINUOUS
 62
         7
100
AcDbLine
 10
1464.0086999334
 20
-98.7453054235
 30
0.0
 11
1462.8748607227
 21
-97.9000784456
 31
0.0
  0
LINE
  5
386
100
AcDbEntity
  8
L1_45
  6
CONTINUOUS
 62
         7
100
AcDbLine
 10
1489.1039269113
 20
-94.0750273174
 30
0.0
 11
1488.2586999334
 21
-95.2088665281
 31
0.0
  0
LINE
  5
387
100
AcDbEntity
  8
L1_45
  6
CONTINUOUS
 62
         7
100
AcDbLine
 10
1464.0086999334
 20
-154.7347278029
 30
0.0
 11
1462.8748607227
 21
-155.5799547808
 31
0.0
  0
LINE
  5
388
100
AcDbEntity
  8
L1_45
  6
CONTINUOUS
 62
         7
100
AcDbLine
 10
1464.0086999334
 20
-154.7347278029
 30
0.0
 11
1488.2586999334
 21
-158.2711666983
 31
0.0
  0
LINE
  5
389
100
AcDbEntity
  8
L1_45
  6
CONTINUOUS
 62
         7
100
AcDbLine
 10
1489.1039269113
 20
-159.405005909
 30
0.0
 11
1488.2586999334
 21
-158.2711666983
 31
0.0
  0
LINE
  5
38A
100
AcDbEntity
  8
L1_45
  6
CONTINUOUS
 62
         7
100
AcDbLine
 10
1482.8786999334
 20
-133.6941194867
 30
0.0
 11
1482.8786999334
 21
-119.7859137397
 31
0.0
  0
ARC
  5
38B
100
AcDbEntity
  8
L1_45
  6
CONTINUOUS
 62
         7
100
AcDbCircle
 10
1483.8786999334
 20
-119.7859137397
 30
0.0
 40
1.0
100
AcDbArc
 50
90.0
 51
180.0
  0
ARC
  5
38C
100
AcDbEntity
  8
L1_45
  6
CONTINUOUS
 62
         7
100
AcDbCircle
 10
1483.8786999334
 20
-133.6941194867
 30
0.0
 40
1.0
100
AcDbArc
 50
180.0
 51
270.0
  0
LINE
  5
38D
100
AcDbEntity
  8
L1_45
  6
CONTINUOUS
 62
         7
100
AcDbLine
 10
1403.0836999334
 20
131.5419817744
 30
0.0
 11
1403.0836999334
 21
92.9628471027
 31
0.0
  0
LINE
  5
38E
100
AcDbEntity
  8
L1_45
  6
CENTER
 62
         1
100
AcDbLine
 10
1504.8786999334
 20
147.2532077601
 30
0.0
 11
1504.8786999334
 21
77.251621117
 31
0.0
  0
LINE
  5
38F
100
AcDbEntity
  8
L1_45
  6
CONTINUOUS
 62
         7
100
AcDbLine
 10
1507.8386999334
 20
161.3274144385
 30
0.0
 11
1507.8386999334
 21
63.1774144385
 31
0.0
  0
DIMENSION
  5
392
100
AcDbEntity
  8
L1_45
  6
CONTINUOUS
 62
         4
100
AcDbDimension
  2
*D2
 10
1403.0836999334
 20
221.8571859441
 30
0.0
 11
1461.7168717828
 21
224.4821859441
 31
0.0
  3
DIMSTYLE1
100
AcDbAlignedDimension
 13
1403.0836999334
 23
131.5419817744
 33
0.0
 14
1549.8786999334
 24
112.2524144385
 34
0.0
100
AcDbRotatedDimension
  0
DIMENSION
  5
3A0
100
AcDbEntity
  8
L1_45
  6
CONTINUOUS
 62
         4
100
AcDbDimension
  2
*D3
 10
1549.8786999334
 20
212.3276247161
 30
0.0
 11
1524.1442391511
 21
214.9526247161
 31
0.0
  3
DIMSTYLE1
100
AcDbAlignedDimension
 13
1549.8786999334
 23
112.2524144385
 33
0.0
 14
1504.8786999334
 24
147.2532077601
 34
0.0
100
AcDbRotatedDimension
  0
LINE
  5
3AC
100
AcDbEntity
  8
L1_45
  6
CENTER
 62
         1
100
AcDbLine
 10
1399.323749746
 20
-126.7400166132
 30
0.0
 11
1556.3267023089
 21
-126.7400166132
 31
0.0
  0
DIMENSION
  5
3AF
100
AcDbEntity
  8
L1_45
  6
CONTINUOUS
 62
         4
100
AcDbDimension
  2
*D4
 10
1482.8786999334
 20
-89.9820337647
 30
0.0
 11
1486.66925904
 21
-87.3570337647
 31
0.0
  3
DIMSTYLE1
100
AcDbAlignedDimension
 13
1482.8786999334
 23
-119.7859137397
 33
0.0
 14
1496.8786999334
 24
-118.7859137397
 34
0.0
100
AcDbRotatedDimension
  0
DIMENSION
  5
3BD
100
AcDbEntity
  8
L1_45
  6
CONTINUOUS
 62
         4
100
AcDbDimension
  2
*D5
 10
1482.8786999334
 20
-65.7031984855
 30
0.0
 11
1517.154935546
 21
-63.0781984855
 31
0.0
  3
DIMSTYLE1
100
AcDbAlignedDimension
 13
1482.8786999334
 23
-119.7859137397
 33
0.0
 14
1549.8786999334
 24
-112.7400166132
 34
0.0
100
AcDbRotatedDimension
  0
DIMENSION
  5
3CB
100
AcDbEntity
  8
L1_45
  6
CONTINUOUS
 62
         4
100
AcDbDimension
  2
*D6
 10
1549.8786999334
 20
-186.2310958379
 30
0.0
 11
1534.3320938635
 21
-183.6060958379
 31
0.0
  3
DIMSTYLE1
100
AcDbAlignedDimension
 13
1549.8786999334
 23
-140.7400166132
 33
0.0
 14
1527.8786999334
 24
-136.4900166132
 34
0.0
100
AcDbRotatedDimension
  0
DIMENSION
  5
3D9
100
AcDbEntity
  8
L1_45
  6
CONTINUOUS
 62
         4
100
AcDbDimension
  2
*D7
 10
1549.8786999334
 20
-194.6128667827
 30
0.0
 11
1521.7594374464
 21
-191.9878667827
 31
0.0
  3
DIMSTYLE1
100
AcDbAlignedDimension
 13
1549.8786999334
 23
-140.7400166132
 33
0.0
 14
1509.8786999334
 24
-136.4900166132
 34
0.0
100
AcDbRotatedDimension
  0
LINE
  5
3E5
100
AcDbEntity
  8
L1_45
  6
CONTINUOUS
 62
         7
100
AcDbLine
 10
1549.8786999334
 20
-112.7400166132
 30
0.0
 11
1549.8786999334
 21
-140.7400166132
 31
0.0
  0
LINE
  5
3E6
100
AcDbEntity
  8
L1_45
  6
CONTINUOUS
 62
         7
100
AcDbLine
 10
1509.8786999334
 20
-118.6491245792
 30
0.0
 11
1496.8786999334
 21
-119.1735391819
 31
0.0
  0
LINE
  5
3E7
100
AcDbEntity
  8
L1_45
  6
CONTINUOUS
 62
         7
100
AcDbLine
 10
1526.4693132067
 20
-116.9900166132
 30
0.0
 11
1527.8786999334
 21
-118.3994033398
 31
0.0
  0
LINE
  5
3E8
100
AcDbEntity
  8
L1_45
  6
CONTINUOUS
 62
         7
100
AcDbLine
 10
1511.5378078994
 20
-116.9900166132
 30
0.0
 11
1526.4693132067
 21
-116.9900166132
 31
0.0
  0
LINE
  5
3E9
100
AcDbEntity
  8
L1_45
  6
CONTINUOUS
 62
         7
100
AcDbLine
 10
1511.5378078994
 20
-116.9900166132
 30
0.0
 11
1509.8786999334
 21
-118.6491245792
 31
0.0
  0
LINE
  5
3EA
100
AcDbEntity
  8
L1_45
  6
CONTINUOUS
 62
         7
100
AcDbLine
 10
1543.3786999334
 20
-110.7400166132
 30
0.0
 11
1547.8786999334
 21
-110.7400166132
 31
0.0
  0
ARC
  5
3EB
100
AcDbEntity
  8
L1_45
  6
CONTINUOUS
 62
         7
100
AcDbCircle
 10
1547.8786999334
 20
-112.7400166132
 30
0.0
 40
2.0
100
AcDbArc
 50
0.0
 51
90.0
  0
LINE
  5
3EC
100
AcDbEntity
  8
L1_45
  6
CONTINUOUS
 62
         7
100
AcDbLine
 10
1509.8786999334
 20
-134.8309086472
 30
0.0
 11
1496.8786999334
 21
-134.3064940445
 31
0.0
  0
LINE
  5
3ED
100
AcDbEntity
  8
L1_45
  6
CONTINUOUS
 62
         7
100
AcDbLine
 10
1526.4693132067
 20
-136.4900166132
 30
0.0
 11
1527.8786999334
 21
-135.0806298866
 31
0.0
  0
LINE
  5
3EE
100
AcDbEntity
  8
L1_45
  6
CONTINUOUS
 62
         7
100
AcDbLine
 10
1527.8786999334
 20
-135.0806298866
 30
0.0
 11
1527.8786999334
 21
-118.3994033398
 31
0.0
  0
LINE
  5
3EF
100
AcDbEntity
  8
L1_45
  6
CONTINUOUS
 62
         7
100
AcDbLine
 10
1509.8786999334
 20
-134.8309086472
 30
0.0
 11
1509.8786999334
 21
-118.6491245792
 31
0.0
  0
LINE
  5
3F0
100
AcDbEntity
  8
L1_45
  6
CONTINUOUS
 62
         7
100
AcDbLine
 10
1511.5378078994
 20
-136.4900166132
 30
0.0
 11
1526.4693132067
 21
-136.4900166132
 31
0.0
  0
LINE
  5
3F1
100
AcDbEntity
  8
L1_45
  6
CONTINUOUS
 62
         7
100
AcDbLine
 10
1511.5378078994
 20
-136.4900166132
 30
0.0
 11
1509.8786999334
 21
-134.8309086472
 31
0.0
  0
LINE
  5
3F2
100
AcDbEntity
  8
L1_45
  6
CONTINUOUS
 62
         7
100
AcDbLine
 10
1526.4693132067
 20
-136.4900166132
 30
0.0
 11
1526.4693132067
 21
-116.9900166132
 31
0.0
  0
LINE
  5
3F3
100
AcDbEntity
  8
L1_45
  6
CONTINUOUS
 62
         7
100
AcDbLine
 10
1511.5378078994
 20
-136.4900166132
 30
0.0
 11
1511.5378078994
 21
-116.9900166132
 31
0.0
  0
LINE
  5
3F4
100
AcDbEntity
  8
L1_45
  6
CONTINUOUS
 62
         7
100
AcDbLine
 10
1543.3786999334
 20
-142.7400166132
 30
0.0
 11
1547.8786999334
 21
-142.7400166132
 31
0.0
  0
ARC
  5
3F5
100
AcDbEntity
  8
L1_45
  6
CONTINUOUS
 62
         7
100
AcDbCircle
 10
1547.8786999334
 20
-140.7400166132
 30
0.0
 40
2.0
100
AcDbArc
 50
270.0
 51
360.0
  0
ARC
  5
3F6
100
AcDbEntity
  8
L1_45
  6
CONTINUOUS
 62
         7
100
AcDbCircle
 10
1548.8786999334
 20
-116.8746769822
 30
0.0
 40
1.0
100
AcDbArc
 50
271.4305
 51
360.0
  0
ARC
  5
3F7
100
AcDbEntity
  8
L1_45
  6
CONTINUOUS
 62
         7
100
AcDbCircle
 10
1548.8786999334
 20
-136.6053562442
 30
0.0
 40
1.0
100
AcDbArc
 50
0.0
 51
88.5695
  0
LINE
  5
3F8
100
AcDbEntity
  8
L1_45
  6
CONTINUOUS
 62
         7
100
AcDbLine
 10
1548.9036642746
 20
-135.6056679019
 30
0.0
 11
1527.8786999334
 21
-135.0806298866
 31
0.0
  0
LINE
  5
3F9
100
AcDbEntity
  8
L1_45
  6
CONTINUOUS
 62
         7
100
AcDbLine
 10
1548.9036642746
 20
-117.8743653245
 30
0.0
 11
1527.8786999334
 21
-118.3994033398
 31
0.0
  0
DIMENSION
  5
3FC
100
AcDbEntity
  8
L1_45
  6
CONTINUOUS
 62
         4
100
AcDbDimension
  2
*D8
 10
1569.8707352512
 20
-116.9900166132
 30
0.0
 11
1567.2457352512
 21
-140.9877448899
 31
0.0
  3
DIMSTYLE1
100
AcDbAlignedDimension
 13
1526.4693132067
 23
-116.9900166132
 33
0.0
 14
1511.5378078994
 24
-136.4900166132
 34
0.0
 50
90.0
100
AcDbRotatedDimension
  0
CIRCLE
  5
408
100
AcDbEntity
  8
L1_45
  6
CONTINUOUS
 62
         7
100
AcDbCircle
 10
1845.8340594905
 20
112.2524144385
 30
0.0
 40
8.89
  0
CIRCLE
  5
409
100
AcDbEntity
  8
L1_45
  6
CONTINUOUS
 62
         7
100
AcDbCircle
 10
1845.8340594905
 20
112.2524144385
 30
0.0
 40
7.35
  0
CIRCLE
  5
40A
100
AcDbEntity
  8
L1_45
  6
CONTINUOUS
 62
         7
100
AcDbCircle
 10
1845.8340594905
 20
112.2524144385
 30
0.0
 40
16.0
  0
LINE
  5
40B
100
AcDbEntity
  8
L1_45
  6
CENTER
 62
         1
100
AcDbLine
 10
1817.9997016981
 20
112.2524144385
 30
0.0
 11
1873.3201288898
 21
112.2524144385
 31
0.0
  0
LINE
  5
40C
100
AcDbEntity
  8
L1_45
  6
CENTER
 62
         1
100
AcDbLine
 10
1845.8340594905
 20
147.0274144385
 30
0.0
 11
1845.8340594905
 21
77.4774144385
 31
0.0
  0
DIMENSION
  5
40F
100
AcDbEntity
  8
L1_45
  6
CONTINUOUS
 62
         4
100
AcDbDimension
  2
*D9
 10
1568.350691333
 20
128.2524144385
 30
0.0
 11
1565.725691333
 21
105.1752499959
 31
0.0
  3
DIMSTYLE1
100
AcDbAlignedDimension
 13
1547.8786999334
 23
128.2524144385
 33
0.0
 14
1547.8786999334
 24
96.2524144385
 34
0.0
 50
90.0
100
AcDbRotatedDimension
  0
ARC
  5
41B
100
AcDbEntity
  8
L1_45
  6
CONTINUOUS
 62
         7
100
AcDbCircle
 10
1547.8786999334
 20
98.2524144385
 30
0.0
 40
2.0
100
AcDbArc
 50
270.0
 51
360.0
  0
ARC
  5
41C
100
AcDbEntity
  8
L1_45
  6
CONTINUOUS
 62
         7
100
AcDbCircle
 10
1547.8786999334
 20
126.2524144385
 30
0.0
 40
2.0
100
AcDbArc
 50
0.0
 51
90.0
  0
LINE
  5
41D
100
AcDbEntity
  8
L1_45
  6
CONTINUOUS
 62
         7
100
AcDbLine
 10
1543.3786999334
 20
96.2524144385
 30
0.0
 11
1547.8786999334
 21
96.2524144385
 31
0.0
  0
LINE
  5
41E
100
AcDbEntity
  8
L1_45
  6
CONTINUOUS
 62
         7
100
AcDbLine
 10
1543.3786999334
 20
128.2524144385
 30
0.0
 11
1547.8786999334
 21
128.2524144385
 31
0.0
  0
LINE
  5
41F
100
AcDbEntity
  8
L1_45
  6
CENTER
 62
         1
100
AcDbLine
 10
1496.526208515
 20
112.2524144385
 30
0.0
 11
1555.66253869
 21
112.2524144385
 31
0.0
  0
LINE
  5
420
100
AcDbEntity
  8
L1_45
  6
CONTINUOUS
 62
         7
100
AcDbLine
 10
1549.8786999334
 20
126.2524144385
 30
0.0
 11
1549.8786999334
 21
98.2524144385
 31
0.0
  0
INSERT
  5
484
100
AcDbEntity
  8
0
  6
CONTINUOUS
100
AcDbBlockReference
  2
*X10
 10
0.0
 20
0.0
 30
0.0
  0
TEXT
  5
486
100
AcDbEntity
  8
___T______
  6
CONTINUOUS
 62
         2
100
AcDbText
 10
1830.4058372732
 20
186.4382511173
 30
0.0
 40
4.5
  1
532241
 41
0.98
  7
BOX
100
AcDbText
  0
ENDSEC
  0
SECTION
  2
OBJECTS
  0
DICTIONARY
  5
19
100
AcDbDictionary
  3
ACAD_GROUP
350
1A
  3
ACAD_MLINESTYLE
350
1B
  0
DICTIONARY
  5
1A
102
{ACAD_REACTORS
330
19
102
}
100
AcDbDictionary
  0
DICTIONARY
  5
1B
102
{ACAD_REACTORS
330
19
102
}
100
AcDbDictionary
  3
STANDARD
350
1C
  0
MLINESTYLE
  5
1C
102
{ACAD_REACTORS
330
1B
102
}
100
AcDbMlineStyle
  2
STANDARD
 70
         0
  3

 62
         0
 51
90.0
 52
90.0
 71
         2
 49
0.5
 62
       256
  6
BYLAYER
 49
-0.5
 62
       256
  6
BYLAYER
  0
ENDSEC
  0
EOF
