  0
SECTION
  2
HEADER
  9
$ACADVER
  1
AC1014
  9
$ACADMAINTVER
 70
         0
  9
$DWGCODEPAGE
  3
BIG5
  9
$INSBASE
 10
0.0
 20
0.0
 30
0.0
  9
$EXTMIN
 10
-10367.0201653367
 20
11637.569508927
 30
0.0
  9
$EXTMAX
 10
-9424.520931717
 20
12112.7483888008
 30
0.0
  9
$LIMMIN
 10
0.0
 20
0.0
  9
$LIMMAX
 10
0.0
 20
0.0
  9
$ORTHOMODE
 70
         0
  9
$REGENMODE
 70
         1
  9
$FILLMODE
 70
         1
  9
$QTEXTMODE
 70
         0
  9
$MIRRTEXT
 70
         1
  9
$DRAGMODE
 70
         2
  9
$LTSCALE
 40
1.0
  9
$OSMODE
 70
         0
  9
$ATTMODE
 70
         1
  9
$TEXTSIZE
 40
4.0
  9
$TRACEWID
 40
0.05
  9
$TEXTSTYLE
  7
STANDARD
  9
$CLAYER
  8
0
  9
$CELTYPE
  6
CONTINUOUS
  9
$CECOLOR
 62
         4
  9
$CELTSCALE
 40
1.0
  9
$DELOBJ
 70
         1
  9
$DISPSILH
 70
         0
  9
$DIMSCALE
 40
1.0
  9
$DIMASZ
 40
0.18
  9
$DIMEXO
 40
0.0625
  9
$DIMDLI
 40
0.38
  9
$DIMRND
 40
0.0
  9
$DIMDLE
 40
0.0
  9
$DIMEXE
 40
0.25
  9
$DIMTP
 40
0.0
  9
$DIMTM
 40
0.0
  9
$DIMTXT
 40
3.5
  9
$DIMCEN
 40
0.09
  9
$DIMTSZ
 40
0.0
  9
$DIMTOL
 70
         0
  9
$DIMLIM
 70
         0
  9
$DIMTIH
 70
         1
  9
$DIMTOH
 70
         1
  9
$DIMSE1
 70
         0
  9
$DIMSE2
 70
         0
  9
$DIMTAD
 70
         0
  9
$DIMZIN
 70
         0
  9
$DIMBLK
  1

  9
$DIMASO
 70
         1
  9
$DIMSHO
 70
         1
  9
$DIMPOST
  1

  9
$DIMAPOST
  1

  9
$DIMALT
 70
         0
  9
$DIMALTD
 70
         2
  9
$DIMALTF
 40
25.4
  9
$DIMLFAC
 40
1.0
  9
$DIMTOFL
 70
         0
  9
$DIMTVP
 40
0.0
  9
$DIMTIX
 70
         0
  9
$DIMSOXD
 70
         0
  9
$DIMSAH
 70
         0
  9
$DIMBLK1
  1

  9
$DIMBLK2
  1

  9
$DIMSTYLE
  2
STANDARD
  9
$DIMCLRD
 70
         0
  9
$DIMCLRE
 70
         0
  9
$DIMCLRT
 70
         4
  9
$DIMTFAC
 40
0.7
  9
$DIMGAP
 40
0.09
  9
$DIMJUST
 70
         0
  9
$DIMSD1
 70
         0
  9
$DIMSD2
 70
         0
  9
$DIMTOLJ
 70
         1
  9
$DIMTZIN
 70
         0
  9
$DIMALTZ
 70
         0
  9
$DIMALTTZ
 70
         0
  9
$DIMFIT
 70
         3
  9
$DIMUPT
 70
         0
  9
$DIMUNIT
 70
         2
  9
$DIMDEC
 70
         4
  9
$DIMTDEC
 70
         4
  9
$DIMALTU
 70
         2
  9
$DIMALTTD
 70
         2
  9
$DIMTXSTY
  7
STANDARD
  9
$DIMAUNIT
 70
         0
  9
$LUNITS
 70
         2
  9
$LUPREC
 70
        10
  9
$SKETCHINC
 40
0.1
  9
$FILLETRAD
 40
0.0
  9
$AUNITS
 70
         0
  9
$AUPREC
 70
         0
  9
$MENU
  1
acad
  9
$ELEVATION
 40
0.0
  9
$PELEVATION
 40
0.0
  9
$THICKNESS
 40
0.0
  9
$LIMCHECK
 70
         0
  9
$BLIPMODE
 70
         1
  9
$CHAMFERA
 40
0.0
  9
$CHAMFERB
 40
0.0
  9
$CHAMFERC
 40
0.0
  9
$CHAMFERD
 40
0.0
  9
$SKPOLY
 70
         0
  9
$TDCREATE
 40
0.000000000
  9
$TDUPDATE
 40
0.000000000
  9
$TDINDWG
 40
0.0000000000
  9
$TDUSRTIMER
 40
0.0000000000
  9
$USRTIMER
 70
         1
  9
$ANGBASE
 50
0.0
  9
$ANGDIR
 70
         0
  9
$PDMODE
 70
         2
  9
$PDSIZE
 40
0.0
  9
$PLINEWID
 40
0.0
  9
$COORDS
 70
         1
  9
$SPLFRAME
 70
         0
  9
$SPLINETYPE
 70
         6
  9
$SPLINESEGS
 70
         8
  9
$ATTDIA
 70
         0
  9
$ATTREQ
 70
         1
  9
$HANDLING
 70
         1
  9
$HANDSEED
  5
35A
  9
$SURFTAB1
 70
         6
  9
$SURFTAB2
 70
         6
  9
$SURFTYPE
 70
         6
  9
$SURFU
 70
         6
  9
$SURFV
 70
         6
  9
$UCSNAME
  2

  9
$UCSORG
 10
0.0
 20
0.0
 30
0.0
  9
$UCSXDIR
 10
1.0
 20
0.0
 30
0.0
  9
$UCSYDIR
 10
0.0
 20
1.0
 30
0.0
  9
$PUCSNAME
  2

  9
$PUCSORG
 10
0.0
 20
0.0
 30
0.0
  9
$PUCSXDIR
 10
1.0
 20
0.0
 30
0.0
  9
$PUCSYDIR
 10
0.0
 20
1.0
 30
0.0
  9
$USERI1
 70
         0
  9
$USERI2
 70
         0
  9
$USERI3
 70
         0
  9
$USERI4
 70
         0
  9
$USERI5
 70
         0
  9
$USERR1
 40
0.0
  9
$USERR2
 40
0.0
  9
$USERR3
 40
0.0
  9
$USERR4
 40
0.0
  9
$USERR5
 40
0.0
  9
$WORLDVIEW
 70
         1
  9
$SHADEDGE
 70
         3
  9
$SHADEDIF
 70
        70
  9
$TILEMODE
 70
         1
  9
$MAXACTVP
 70
        16
  9
$PINSBASE
 10
0.0
 20
0.0
 30
0.0
  9
$PLIMCHECK
 70
         0
  9
$PEXTMIN
 10
1.0000000000E+20
 20
1.0000000000E+20
 30
1.0000000000E+20
  9
$PEXTMAX
 10
-1.0000000000E+20
 20
-1.0000000000E+20
 30
-1.0000000000E+20
  9
$PLIMMIN
 10
0.0
 20
0.0
  9
$PLIMMAX
 10
12.0
 20
9.0
  9
$UNITMODE
 70
         0
  9
$VISRETAIN
 70
         0
  9
$PLINEGEN
 70
         1
  9
$PSLTSCALE
 70
         0
  9
$TREEDEPTH
 70
      3020
  9
$PICKSTYLE
 70
         1
  9
$CMLSTYLE
  2
STANDARD
  9
$CMLJUST
 70
         0
  9
$CMLSCALE
 40
1.0
  9
$PROXYGRAPHICS
 70
         0
  9
$MEASUREMENT
 70
         0
  0
ENDSEC
  0
SECTION
  2
CLASSES
  0
CLASS
  1
LWPOLYLINE
  2
AcDbPolyline
  3
"AutoCAD"
 90
        0
280
         0
281
         1
  0
CLASS
  1
IMAGE
  2
AcDbRasterImage
  3
ISM
 90
      127
280
         0
281
         1
  0
CLASS
  1
OLE2FRAME
  2
AcDbOle2Frame
  3
""
 90
        0
280
         0
281
         1
  0
CLASS
  1
HATCH
  2
AcDbHatch
  3
"ACAD_SEDONA"
 90
        0
280
         0
281
         1
  0
CLASS
  1
DICTIONARYVAR
  2
AcDbDictionaryVar
  3
"AutoCAD"
 90
        0
280
         0
281
         0
  0
CLASS
  1
RASTERVARIABLES
  2
AcDbRasterVariables
  3
ISM
 90
        0
280
         0
281
         0
  0
CLASS
  1
IMAGEDEF
  2
AcDbRasterImageDef
  3
ISM
 90
        0
280
         0
281
         0
  0
CLASS
  1
IMAGEDEF_REACTOR
  2
AcDbRasterImageDefReactor
  3
ISM
 90
        1
280
         0
281
         0
  0
CLASS
  1
IDBUFFER
  2
AcDbIdBuffer
  3
"Acad"
 90
        0
280
         0
281
         0
  0
CLASS
  1
SPATIAL_FILTER
  2
AcDbSpatialFilter
  3
"Acad"
 90
        0
280
         0
281
         0
  0
CLASS
  1
XRECORD
  2
AcDbXrecord
  3
"<Built In>"
 90
        0
280
         0
281
         0
  0
CLASS
  1
SORTENTSTABLE
  2
AcDbSortentsTable
  3
"AutoCAD"
 90
        0
280
         0
281
         0
  0
CLASS
  1
LAYER_INDEX
  2
AcDbLayerIndex
  3
"Acad"
 90
        0
280
         0
281
         0
  0
CLASS
  1
SPATIAL_INDEX
  2
AcDbSpatialIndex
  3
"Acad"
 90
        0
280
         0
281
         0
  0
CLASS
  1
OBJECT_PTR
  2
CAseDLPNTableRecord
  3
"ASE-LPNTableRecord"
 90
        1
280
         0
281
         0
  0
CLASS
  1
LAYOUT
  2
AcDbLayout
  3
"AutoCAD 2000"
 90
        1
280
         0
281
         0
  0
CLASS
  1
PLOTSETTINGS
  2
AcDbPlotSettings
  3
"AutoCAD 2000"
 90
        1
280
         0
281
         0
  0
CLASS
  1
ACDBDICTIONARYWDFLT
  2
AcDbDictionaryWithDefault
  3
"AutoCAD 2000"
 90
        1
280
         0
281
         0
  0
CLASS
  1
ACDBPLACEHOLDER
  2
AcDbPlaceHolder
  3
"AutoCAD 2000"
 90
        1
280
         0
281
         0
  0
CLASS
  1
VBA_PROJECT
  2
AcDbVbaProject
  3
"acadvba"
 90
        1
280
         0
281
         0
  0
CLASS
  1
WIPEOUT
  2
AcDbWipeout
  3
WipeOut|AutoCAD Express Tool|expresstools@autodesk.com
 90
      127
280
         0
281
         1
  0
CLASS
  1
WIPEOUTVARIABLES
  2
AcDbWipeoutVariables
  3
WipeOut|AutoCAD Express Tool|expresstools@autodesk.com
 90
        0
280
         0
281
         0
  0
CLASS
  1
RTEXT
  2
RText
  3
RText|AutoCAD Express Tool|expresstools@autodesk.com
 90
        0
280
         0
281
         1
  0
CLASS
  1
ARCALIGNEDTEXT
  2
AcDbArcAlignedText
  3
ATEXT|AutoCAD Express Tool|expresstools@autodesk.com
 90
        0
280
         0
281
         1
  0
ENDSEC
  0
SECTION
  2
TABLES
  0
TABLE
  2
VPORT
  5
7
100
AcDbSymbolTable
 70
         1
  0
VPORT
  5
15
100
AcDbSymbolTableRecord
100
AcDbViewportTableRecord
  2
*ACTIVE
 70
         0
 10
0.0
 20
0.0
 11
1.0
 21
1.0
 12
-9895.7705485269
 22
11875.1589488639
 13
0.0
 23
0.0
 14
1.0
 24
1.0
 15
0.0
 25
0.0
 16
0.0
 26
0.0
 36
1.0
 17
0.0
 27
0.0
 37
0.0
 40
475.1788798739
 41
1.9834619625
 42
50.0
 43
0.0
 44
0.0
 50
0.0
 51
0.0
 71
         0
 72
       100
 73
         1
 74
         1
 75
         0
 76
         0
 77
         0
 78
         0
  0
ENDTAB
  0
TABLE
  2
LTYPE
  5
4
100
AcDbSymbolTable
 70
         6
  0
LTYPE
  5
11
100
AcDbSymbolTableRecord
100
AcDbLinetypeTableRecord
  2
BYBLOCK
 70
        64
  3

 72
        65
 73
         0
 40
0.0
  0
LTYPE
  5
12
100
AcDbSymbolTableRecord
100
AcDbLinetypeTableRecord
  2
BYLAYER
 70
        64
  3

 72
        65
 73
         0
 40
0.0
  0
LTYPE
  5
13
100
AcDbSymbolTableRecord
100
AcDbLinetypeTableRecord
  2
CONTINUOUS
 70
        64
  3
Solid line
 72
        65
 73
         0
 40
0.0
  0
LTYPE
  5
1D
100
AcDbSymbolTableRecord
100
AcDbLinetypeTableRecord
  2
DASHED
 70
        64
  3
_ _ _ _ _ _ _ _ _ _ _ _ _ _ _ _
 72
        65
 73
         2
 40
0.2
 49
0.1
 74
         0
 49
-0.1
 74
         0
  0
LTYPE
  5
1E
100
AcDbSymbolTableRecord
100
AcDbLinetypeTableRecord
  2
CENTER
 70
        64
  3
___ _ ___ _ ___ _ ___ _ ___ _ ___ _ ___ _ ___ _
 72
        65
 73
         4
 40
0.95
 49
0.625
 74
         0
 49
-0.125
 74
         0
 49
0.075
 74
         0
 49
-0.125
 74
         0
  0
LTYPE
  5
1F
100
AcDbSymbolTableRecord
100
AcDbLinetypeTableRecord
  2
PHANTOM
 70
        64
  3
______  __  __  ______  __  __  ______  __  __  
 72
        65
 73
         6
 40
1.025
 49
0.625
 74
         0
 49
-0.125
 74
         0
 49
0.075
 74
         0
 49
-0.125
 74
         0
 49
0.075
 74
         0
 49
-0.125
 74
         0
  0
ENDTAB
  0
TABLE
  2
LAYER
  5
2
100
AcDbSymbolTable
 70
         8
  0
LAYER
  5
14
100
AcDbSymbolTableRecord
100
AcDbLayerTableRecord
  2
0
 70
         0
 62
         7
  6
CONTINUOUS
  0
LAYER
  5
21
100
AcDbSymbolTableRecord
100
AcDbLayerTableRecord
  2
_____U
 70
         1
 62
         7
  6
CONTINUOUS
  0
LAYER
  5
22
100
AcDbSymbolTableRecord
100
AcDbLayerTableRecord
  2
ERP__________T_____
 70
         1
 62
         7
  6
CONTINUOUS
  0
LAYER
  5
23
100
AcDbSymbolTableRecord
100
AcDbLayerTableRecord
  2
ERP______L________
 70
         1
 62
         7
  6
CONTINUOUS
  0
LAYER
  5
24
100
AcDbSymbolTableRecord
100
AcDbLayerTableRecord
  2
_Y__________
 70
         0
 62
         7
  6
CONTINUOUS
  0
LAYER
  5
25
100
AcDbSymbolTableRecord
100
AcDbLayerTableRecord
  2
_X______
 70
         0
 62
         7
  6
CONTINUOUS
  0
LAYER
  5
26
100
AcDbSymbolTableRecord
100
AcDbLayerTableRecord
  2
L1_
 70
         0
 62
         7
  6
CONTINUOUS
  0
LAYER
  5
28C
100
AcDbSymbolTableRecord
100
AcDbLayerTableRecord
  2
DEFPOINTS
 70
         0
 62
        -7
  6
CONTINUOUS
  0
ENDTAB
  0
TABLE
  2
STYLE
  5
3
100
AcDbSymbolTable
 70
        12
  0
STYLE
  5
17
100
AcDbSymbolTableRecord
100
AcDbTextStyleTableRecord
  2
STANDARD
 70
         0
 40
0.0
 41
1.0
 50
0.0
 71
         0
 42
0.0
  3
txt
  4

  0
STYLE
  5
295
100
AcDbSymbolTableRecord
100
AcDbTextStyleTableRecord
  2
BOX
 70
         0
 40
1.0
 41
1.0
 50
0.0
 71
         0
 42
0.2
  3
txt.shx
  4

  0
STYLE
  5
2A8
100
AcDbSymbolTableRecord
100
AcDbTextStyleTableRecord
  2
BOX
 70
         0
 40
1.0
 41
1.0
 50
0.0
 71
         0
 42
0.2
  3
txt.shx
  4

  0
STYLE
  5
2B8
100
AcDbSymbolTableRecord
100
AcDbTextStyleTableRecord
  2
BOX
 70
         0
 40
1.0
 41
1.0
 50
0.0
 71
         0
 42
0.2
  3
txt.shx
  4

  0
STYLE
  5
2F7
100
AcDbSymbolTableRecord
100
AcDbTextStyleTableRecord
  2
BOX
 70
         0
 40
1.0
 41
1.0
 50
0.0
 71
         0
 42
0.2
  3
txt.shx
  4

  0
STYLE
  5
305
100
AcDbSymbolTableRecord
100
AcDbTextStyleTableRecord
  2
BOX
 70
         0
 40
1.0
 41
1.0
 50
0.0
 71
         0
 42
0.2
  3
txt.shx
  4

  0
STYLE
  5
313
100
AcDbSymbolTableRecord
100
AcDbTextStyleTableRecord
  2
BOX
 70
         0
 40
1.0
 41
1.0
 50
0.0
 71
         0
 42
0.2
  3
txt.shx
  4

  0
STYLE
  5
32B
100
AcDbSymbolTableRecord
100
AcDbTextStyleTableRecord
  2
BOX
 70
         0
 40
1.0
 41
1.0
 50
0.0
 71
         0
 42
0.2
  3
txt.shx
  4

  0
STYLE
  5
339
100
AcDbSymbolTableRecord
100
AcDbTextStyleTableRecord
  2
BOX
 70
         0
 40
1.0
 41
1.0
 50
0.0
 71
         0
 42
0.2
  3
txt.shx
  4

  0
STYLE
  5
347
100
AcDbSymbolTableRecord
100
AcDbTextStyleTableRecord
  2
BOX
 70
         0
 40
1.0
 41
1.0
 50
0.0
 71
         0
 42
0.2
  3
txt.shx
  4

  0
STYLE
  5
355
100
AcDbSymbolTableRecord
100
AcDbTextStyleTableRecord
  2
BOX
 70
         0
 40
1.0
 41
1.0
 50
0.0
 71
         0
 42
0.2
  3
txt.shx
  4

  0
STYLE
  5
358
100
AcDbSymbolTableRecord
100
AcDbTextStyleTableRecord
  2
BOX
 70
         0
 40
1.0
 41
1.0
 50
0.0
 71
         0
 42
0.2
  3
txt.shx
  4

  0
ENDTAB
  0
TABLE
  2
VIEW
  5
5
100
AcDbSymbolTable
 70
         0
  0
ENDTAB
  0
TABLE
  2
UCS
  5
6
100
AcDbSymbolTable
 70
         1
  0
UCS
  5
20
100
AcDbSymbolTableRecord
100
AcDbUCSTableRecord
  2
CK_VIEW_1
 70
         0
 10
0.0
 20
0.0
 30
1.0
 11
1.0
 21
0.0
 31
0.0
 12
0.0
 22
1.0
 32
0.0
  0
ENDTAB
  0
TABLE
  2
APPID
  5
8
100
AcDbSymbolTable
 70
         1
  0
APPID
  5
16
100
AcDbSymbolTableRecord
100
AcDbRegAppTableRecord
  2
ACAD
 70
         0
  0
ENDTAB
  0
TABLE
  2
DIMSTYLE
  5
9
100
AcDbSymbolTable
 70
         2
  0
DIMSTYLE
105
18
100
AcDbSymbolTableRecord
100
AcDbDimStyleTableRecord
  2
STANDARD
 70
         0
  3

  4

  5

  6

  7

 40
1.0
 41
0.18
 42
0.0625
 43
0.38
 44
0.18
 45
0.0
 46
0.0
 47
0.0
 48
0.0
 71
         0
 72
         0
 73
         1
 74
         1
 75
         0
 76
         0
 77
         0
 78
         0
140
0.18
141
0.09
142
0.0
143
25.4
144
1.0
145
0.0
146
1.0
147
0.09
170
         0
171
         2
172
         0
173
         0
174
         0
175
         0
176
         0
177
         0
178
         0
270
         2
271
         4
272
         4
273
         2
274
         2
275
         0
280
         0
281
         0
282
         0
283
         1
284
         0
285
         0
286
         0
287
         0
288
         0
340
17
  0
DIMSTYLE
105
288
100
AcDbSymbolTableRecord
100
AcDbDimStyleTableRecord
  2
DIMSTYLE1
 70
         0
  3

  4

  5

  6

  7

 40
1.0
 41
3.5
 42
0.0625
 43
0.38
 44
3.5
 45
0.0
 46
0.0
 47
0.0
 48
0.0
 71
         0
 72
         0
 73
         1
 74
         1
 75
         0
 76
         0
 77
         0
 78
         0
140
3.5
141
0.09
142
0.0
143
25.4
144
1.0
145
0.0
146
1.0
147
0.09
170
         0
171
         2
172
         0
173
         0
174
         0
175
         0
176
         0
177
         0
178
         0
270
         2
271
         4
272
         4
273
         2
274
         2
275
         0
280
         0
281
         0
282
         0
283
         1
284
         0
285
         0
286
         0
287
         0
288
         0
340
17
  0
ENDTAB
  0
TABLE
  2
BLOCK_RECORD
  5
1
100
AcDbSymbolTable
 70
        11
  0
BLOCK_RECORD
  5
A
100
AcDbSymbolTableRecord
100
AcDbBlockTableRecord
  2
*MODEL_SPACE
  0
BLOCK_RECORD
  5
B
100
AcDbSymbolTableRecord
100
AcDbBlockTableRecord
  2
*PAPER_SPACE
  0
BLOCK_RECORD
  5
27
100
AcDbSymbolTableRecord
100
AcDbBlockTableRecord
  2
*X0
  0
BLOCK_RECORD
  5
289
100
AcDbSymbolTableRecord
100
AcDbBlockTableRecord
  2
*D1
  0
BLOCK_RECORD
  5
29D
100
AcDbSymbolTableRecord
100
AcDbBlockTableRecord
  2
*D2
  0
BLOCK_RECORD
  5
2AD
100
AcDbSymbolTableRecord
100
AcDbBlockTableRecord
  2
*D3
  0
BLOCK_RECORD
  5
2EC
100
AcDbSymbolTableRecord
100
AcDbBlockTableRecord
  2
*D4
  0
BLOCK_RECORD
  5
2FA
100
AcDbSymbolTableRecord
100
AcDbBlockTableRecord
  2
*D5
  0
BLOCK_RECORD
  5
308
100
AcDbSymbolTableRecord
100
AcDbBlockTableRecord
  2
*D6
  0
BLOCK_RECORD
  5
320
100
AcDbSymbolTableRecord
100
AcDbBlockTableRecord
  2
*D7
  0
BLOCK_RECORD
  5
32E
100
AcDbSymbolTableRecord
100
AcDbBlockTableRecord
  2
*D8
  0
BLOCK_RECORD
  5
33C
100
AcDbSymbolTableRecord
100
AcDbBlockTableRecord
  2
*D9
  0
BLOCK_RECORD
  5
34A
100
AcDbSymbolTableRecord
100
AcDbBlockTableRecord
  2
*D10
  0
ENDTAB
  0
ENDSEC
  0
SECTION
  2
BLOCKS
  0
BLOCK
  5
D
100
AcDbEntity
  8
0
100
AcDbBlockBegin
  2
*MODEL_SPACE
 70
         0
 10
0.0
 20
0.0
 30
0.0
  3
*MODEL_SPACE
  1

  0
ENDBLK
  5
E
100
AcDbEntity
  8
0
100
AcDbBlockEnd
  0
BLOCK
  5
F
100
AcDbEntity
 67
         1
  8
0
100
AcDbBlockBegin
  2
*PAPER_SPACE
 70
         0
 10
0.0
 20
0.0
 30
0.0
  3
*PAPER_SPACE
  1

  0
ENDBLK
  5
10
100
AcDbEntity
 67
         1
  8
0
100
AcDbBlockEnd
  0
BLOCK
  5
28
100
AcDbEntity
  8
0
100
AcDbBlockBegin
  2
*X0
 70
        65
 10
0.0
 20
0.0
 30
0.0
  3
*X0
  1

  0
LINE
  5
29
100
AcDbEntity
  8
L1_
  6
CONTINUOUS
 62
         4
100
AcDbLine
 10
-9830.5054312525
 20
11707.8762135525
 30
0.0
 11
-9828.7938733118
 21
11709.5877714932
 31
0.0
  0
LINE
  5
2A
100
AcDbEntity
  8
L1_
  6
CONTINUOUS
 62
         4
100
AcDbLine
 10
-9834.7663967245
 20
11707.8578887676
 30
0.0
 11
-9828.7755485269
 21
11713.8487369652
 31
0.0
  0
LINE
  5
2B
100
AcDbEntity
  8
L1_
  6
CONTINUOUS
 62
         4
100
AcDbLine
 10
-9839.0090374117
 20
11707.8578887676
 30
0.0
 11
-9829.872226832
 21
11716.9946993473
 31
0.0
  0
LINE
  5
2C
100
AcDbEntity
  8
L1_
  6
CONTINUOUS
 62
         4
100
AcDbLine
 10
-9843.2516780988
 20
11707.8578887676
 30
0.0
 11
-9833.8184898807
 21
11717.2910769857
 31
0.0
  0
LINE
  5
2D
100
AcDbEntity
  8
L1_
  6
CONTINUOUS
 62
         4
100
AcDbLine
 10
-9847.4943187859
 20
11707.8578887676
 30
0.0
 11
-9837.9523614944
 21
11717.3998460591
 31
0.0
  0
LINE
  5
2E
100
AcDbEntity
  8
L1_
  6
CONTINUOUS
 62
         4
100
AcDbLine
 10
-9851.736959473
 20
11707.8578887676
 30
0.0
 11
-9842.0862331081
 21
11717.5086151325
 31
0.0
  0
LINE
  5
2F
100
AcDbEntity
  8
L1_
  6
CONTINUOUS
 62
         4
100
AcDbLine
 10
-9855.9796001601
 20
11707.8578887676
 30
0.0
 11
-9846.2201047218
 21
11717.6173842059
 31
0.0
  0
LINE
  5
30
100
AcDbEntity
  8
L1_
  6
CONTINUOUS
 62
         4
100
AcDbLine
 10
-9860.2222408473
 20
11707.8578887676
 30
0.0
 11
-9850.3539763356
 21
11717.7261532793
 31
0.0
  0
LINE
  5
31
100
AcDbEntity
  8
L1_
  6
CONTINUOUS
 62
         4
100
AcDbLine
 10
-9864.4648815344
 20
11707.8578887676
 30
0.0
 11
-9854.4878479493
 21
11717.8349223527
 31
0.0
  0
LINE
  5
32
100
AcDbEntity
  8
L1_
  6
CONTINUOUS
 62
         4
100
AcDbLine
 10
-9868.7075222215
 20
11707.8578887676
 30
0.0
 11
-9858.621719563
 21
11717.9436914261
 31
0.0
  0
LINE
  5
33
100
AcDbEntity
  8
L1_
  6
CONTINUOUS
 62
         4
100
AcDbLine
 10
-9872.9501629086
 20
11707.8578887676
 30
0.0
 11
-9862.7555911767
 21
11718.0524604995
 31
0.0
  0
LINE
  5
34
100
AcDbEntity
  8
L1_
  6
CONTINUOUS
 62
         4
100
AcDbLine
 10
-9877.1928035957
 20
11707.8578887676
 30
0.0
 11
-9866.8894627904
 21
11718.1612295729
 31
0.0
  0
LINE
  5
35
100
AcDbEntity
  8
L1_
  6
CONTINUOUS
 62
         4
100
AcDbLine
 10
-9899.9354442829
 20
11689.3578887676
 30
0.0
 11
-9895.7705485269
 21
11693.5227845236
 31
0.0
  0
LINE
  5
36
100
AcDbEntity
  8
L1_
  6
CONTINUOUS
 62
         4
100
AcDbLine
 10
-9881.4354442829
 20
11707.8578887676
 30
0.0
 11
-9871.0233344041
 21
11718.2699986463
 31
0.0
  0
LINE
  5
37
100
AcDbEntity
  8
L1_
  6
CONTINUOUS
 62
         4
100
AcDbLine
 10
-9903.4923626076
 20
11690.04361113
 30
0.0
 11
-9895.7705485269
 21
11697.7654252107
 31
0.0
  0
LINE
  5
38
100
AcDbEntity
  8
L1_
  6
CONTINUOUS
 62
         4
100
AcDbLine
 10
-9885.67808497
 20
11707.8578887676
 30
0.0
 11
-9875.1572060179
 21
11718.3787677197
 31
0.0
  0
LINE
  5
39
100
AcDbEntity
  8
L1_
  6
CONTINUOUS
 62
         4
100
AcDbLine
 10
-9832.0651396111
 20
11761.4708341264
 30
0.0
 11
-9828.7755485269
 21
11764.7604252107
 31
0.0
  0
LINE
  5
3A
100
AcDbEntity
  8
L1_
  6
CONTINUOUS
 62
         4
100
AcDbLine
 10
-9905.0452768782
 20
11692.7333375465
 30
0.0
 11
-9895.7705485269
 21
11702.0080658978
 31
0.0
  0
LINE
  5
3B
100
AcDbEntity
  8
L1_
  6
CONTINUOUS
 62
         4
100
AcDbLine
 10
-9889.9207256571
 20
11707.8578887676
 30
0.0
 11
-9879.2910776316
 21
11718.4875367931
 31
0.0
  0
LINE
  5
3C
100
AcDbEntity
  8
L1_
  6
CONTINUOUS
 62
         4
100
AcDbLine
 10
-9836.4224278362
 20
11761.3561865885
 30
0.0
 11
-9828.7804723364
 21
11768.9981420883
 31
0.0
  0
LINE
  5
3D
100
AcDbEntity
  8
L1_
  6
CONTINUOUS
 62
         4
100
AcDbLine
 10
-9906.5981911488
 20
11695.423063963
 30
0.0
 11
-9895.7210169314
 21
11706.3002381804
 31
0.0
  0
LINE
  5
3E
100
AcDbEntity
  8
L1_
  6
CONTINUOUS
 62
         4
100
AcDbLine
 10
-9894.2128979397
 20
11707.8083571721
 30
0.0
 11
-9884.6633663442
 21
11717.3578887676
 31
0.0
  0
LINE
  5
3F
100
AcDbEntity
  8
L1_
  6
CONTINUOUS
 62
         4
100
AcDbLine
 10
-9840.7797160613
 20
11761.2415390505
 30
0.0
 11
-9831.1633663442
 21
11770.8578887676
 31
0.0
  0
LINE
  5
40
100
AcDbEntity
  8
L1_
  6
CONTINUOUS
 62
         4
100
AcDbLine
 10
-9909.4060070313
 20
11696.8578887676
 30
0.0
 11
-9888.9060070313
 21
11717.3578887676
 31
0.0
  0
LINE
  5
41
100
AcDbEntity
  8
L1_
  6
CONTINUOUS
 62
         4
100
AcDbLine
 10
-9845.1370042864
 20
11761.1268915125
 30
0.0
 11
-9835.4060070313
 21
11770.8578887676
 31
0.0
  0
LINE
  5
42
100
AcDbEntity
  8
L1_
  6
CONTINUOUS
 62
         4
100
AcDbLine
 10
-9921.1486477185
 20
11689.3578887676
 30
0.0
 11
-9914.0705485269
 21
11696.4359879592
 31
0.0
  0
LINE
  5
43
100
AcDbEntity
  8
L1_
  6
CONTINUOUS
 62
         4
100
AcDbLine
 10
-9913.6486477185
 20
11696.8578887676
 30
0.0
 11
-9893.1486477185
 21
11717.3578887676
 31
0.0
  0
LINE
  5
44
100
AcDbEntity
  8
L1_
  6
CONTINUOUS
 62
         4
100
AcDbLine
 10
-9849.4942925115
 20
11761.0122439746
 30
0.0
 11
-9839.6486477185
 21
11770.8578887676
 31
0.0
  0
LINE
  5
45
100
AcDbEntity
  8
L1_
  6
CONTINUOUS
 62
         4
100
AcDbLine
 10
-9925.3912884056
 20
11689.3578887676
 30
0.0
 11
-9897.3912884056
 21
11717.3578887676
 31
0.0
  0
LINE
  5
46
100
AcDbEntity
  8
L1_
  6
CONTINUOUS
 62
         4
100
AcDbLine
 10
-9853.8515807366
 20
11760.8975964366
 30
0.0
 11
-9843.8912884056
 21
11770.8578887676
 31
0.0
  0
LINE
  5
47
100
AcDbEntity
  8
L1_
  6
CONTINUOUS
 62
         4
100
AcDbLine
 10
-9929.6339290927
 20
11689.3578887676
 30
0.0
 11
-9901.6339290927
 21
11717.3578887676
 31
0.0
  0
LINE
  5
48
100
AcDbEntity
  8
L1_
  6
CONTINUOUS
 62
         4
100
AcDbLine
 10
-9858.2088689617
 20
11760.7829488986
 30
0.0
 11
-9848.1339290927
 21
11770.8578887676
 31
0.0
  0
LINE
  5
49
100
AcDbEntity
  8
L1_
  6
CONTINUOUS
 62
         4
100
AcDbLine
 10
-9930.7705485269
 20
11692.4639100205
 30
0.0
 11
-9904.5443681461
 21
11718.6900904013
 31
0.0
  0
LINE
  5
4A
100
AcDbEntity
  8
L1_
  6
CONTINUOUS
 62
         4
100
AcDbLine
 10
-9862.5661571867
 20
11760.6683013606
 30
0.0
 11
-9852.3765697798
 21
11770.8578887676
 31
0.0
  0
LINE
  5
4B
100
AcDbEntity
  8
L1_
  6
CONTINUOUS
 62
         4
100
AcDbLine
 10
-9930.7705485269
 20
11696.7065507076
 30
0.0
 11
-9908.2281789276
 21
11719.2489203069
 31
0.0
  0
LINE
  5
4C
100
AcDbEntity
  8
L1_
  6
CONTINUOUS
 62
         4
100
AcDbLine
 10
-9866.9234454118
 20
11760.5536538227
 30
0.0
 11
-9856.6192104669
 21
11770.8578887676
 31
0.0
  0
LINE
  5
4D
100
AcDbEntity
  8
L1_
  6
CONTINUOUS
 62
         4
100
AcDbLine
 10
-9930.7705485269
 20
11700.9491913947
 30
0.0
 11
-9912.3620505413
 21
11719.3576893803
 31
0.0
  0
LINE
  5
4E
100
AcDbEntity
  8
L1_
  6
CONTINUOUS
 62
         4
100
AcDbLine
 10
-9871.2807336369
 20
11760.4390062847
 30
0.0
 11
-9860.861851154
 21
11770.8578887676
 31
0.0
  0
LINE
  5
4F
100
AcDbEntity
  8
L1_
  6
CONTINUOUS
 62
         4
100
AcDbLine
 10
-9931.3059010238
 20
11704.6564795849
 30
0.0
 11
-9916.495922155
 21
11719.4664584537
 31
0.0
  0
LINE
  5
50
100
AcDbEntity
  8
L1_
  6
CONTINUOUS
 62
         4
100
AcDbLine
 10
-9875.638021862
 20
11760.3243587467
 30
0.0
 11
-9865.1044918412
 21
11770.8578887676
 31
0.0
  0
LINE
  5
51
100
AcDbEntity
  8
L1_
  6
CONTINUOUS
 62
         4
100
AcDbLine
 10
-9935.5835336406
 20
11704.6214876552
 30
0.0
 11
-9920.6297937687
 21
11719.5752275271
 31
0.0
  0
LINE
  5
52
100
AcDbEntity
  8
L1_
  6
CONTINUOUS
 62
         4
100
AcDbLine
 10
-9879.9953100871
 20
11760.2097112088
 30
0.0
 11
-9869.3471325283
 21
11770.8578887676
 31
0.0
  0
LINE
  5
53
100
AcDbEntity
  8
L1_
  6
CONTINUOUS
 62
         4
100
AcDbLine
 10
-9939.2862044669
 20
11705.1614575161
 30
0.0
 11
-9924.7636653825
 21
11719.6839966005
 31
0.0
  0
LINE
  5
54
100
AcDbEntity
  8
L1_
  6
CONTINUOUS
 62
         4
100
AcDbLine
 10
-9883.0897732154
 20
11761.3578887676
 30
0.0
 11
-9873.5897732154
 21
11770.8578887676
 31
0.0
  0
LINE
  5
55
100
AcDbEntity
  8
L1_
  6
CONTINUOUS
 62
         4
100
AcDbLine
 10
-9942.9888752931
 20
11705.701427377
 30
0.0
 11
-9928.8975369962
 21
11719.7927656739
 31
0.0
  0
LINE
  5
56
100
AcDbEntity
  8
L1_
  6
CONTINUOUS
 62
         4
100
AcDbLine
 10
-9887.3324139025
 20
11761.3578887676
 30
0.0
 11
-9877.8324139025
 21
11770.8578887676
 31
0.0
  0
LINE
  5
57
100
AcDbEntity
  8
L1_
  6
CONTINUOUS
 62
         4
100
AcDbLine
 10
-9946.6915461193
 20
11706.2413972379
 30
0.0
 11
-9933.0314086099
 21
11719.9015347473
 31
0.0
  0
LINE
  5
58
100
AcDbEntity
  8
L1_
  6
CONTINUOUS
 62
         4
100
AcDbLine
 10
-9891.5750545896
 20
11761.3578887676
 30
0.0
 11
-9882.0750545896
 21
11770.8578887676
 31
0.0
  0
LINE
  5
59
100
AcDbEntity
  8
L1_
  6
CONTINUOUS
 62
         4
100
AcDbLine
 10
-9950.3942169455
 20
11706.7813670988
 30
0.0
 11
-9937.1652802236
 21
11720.0103038207
 31
0.0
  0
LINE
  5
5A
100
AcDbEntity
  8
L1_
  6
CONTINUOUS
 62
         4
100
AcDbLine
 10
-9895.8176952768
 20
11761.3578887676
 30
0.0
 11
-9886.3176952768
 21
11770.8578887676
 31
0.0
  0
LINE
  5
5B
100
AcDbEntity
  8
L1_
  6
CONTINUOUS
 62
         4
100
AcDbLine
 10
-9953.6815649937
 20
11707.7366597377
 30
0.0
 11
-9941.2991518373
 21
11720.1190728941
 31
0.0
  0
LINE
  5
5C
100
AcDbEntity
  8
L1_
  6
CONTINUOUS
 62
         4
100
AcDbLine
 10
-9899.0620035662
 20
11762.3562211653
 30
0.0
 11
-9890.5603359639
 21
11770.8578887676
 31
0.0
  0
LINE
  5
5D
100
AcDbEntity
  8
L1_
  6
CONTINUOUS
 62
         4
100
AcDbLine
 10
-9954.3955485269
 20
11711.2653168917
 30
0.0
 11
-9945.4330234511
 21
11720.2278419675
 31
0.0
  0
LINE
  5
5E
100
AcDbEntity
  8
L1_
  6
CONTINUOUS
 62
         4
100
AcDbLine
 10
-9906.1390394376
 20
11759.521825981
 30
0.0
 11
-9905.1474451363
 21
11760.5134202822
 31
0.0
  0
LINE
  5
5F
100
AcDbEntity
  8
L1_
  6
CONTINUOUS
 62
         4
100
AcDbLine
 10
-9901.557369921
 20
11764.1034954975
 30
0.0
 11
-9894.6156535424
 21
11771.0452118762
 31
0.0
  0
LINE
  5
60
100
AcDbEntity
  8
L1_
  6
CONTINUOUS
 62
         4
100
AcDbLine
 10
-9954.3955485269
 20
11715.5079575788
 30
0.0
 11
-9950.2192308871
 21
11719.6842752186
 31
0.0
  0
LINE
  5
61
100
AcDbEntity
  8
L1_
  6
CONTINUOUS
 62
         4
100
AcDbLine
 10
-9910.4963276627
 20
11759.407178443
 30
0.0
 11
-9907.6428114912
 21
11762.2606946145
 31
0.0
  0
LINE
  5
62
100
AcDbEntity
  8
L1_
  6
CONTINUOUS
 62
         4
100
AcDbLine
 10
-9904.0527362759
 20
11765.8507698298
 30
0.0
 11
-9895.7705485269
 21
11774.1329575788
 31
0.0
  0
LINE
  5
63
100
AcDbEntity
  8
L1_
  6
CONTINUOUS
 62
         4
100
AcDbLine
 10
-9914.8536158878
 20
11759.292530905
 30
0.0
 11
-9910.1381778461
 21
11764.0079689468
 31
0.0
  0
LINE
  5
64
100
AcDbEntity
  8
L1_
  6
CONTINUOUS
 62
         4
100
AcDbLine
 10
-9906.5481026307
 20
11767.5980441621
 30
0.0
 11
-9895.7705485269
 21
11778.3755982659
 31
0.0
  0
LINE
  5
65
100
AcDbEntity
  8
L1_
  6
CONTINUOUS
 62
         4
100
AcDbLine
 10
-9919.2109041129
 20
11759.1778833671
 30
0.0
 11
-9912.6335442009
 21
11765.755243279
 31
0.0
  0
LINE
  5
66
100
AcDbEntity
  8
L1_
  6
CONTINUOUS
 62
         4
100
AcDbLine
 10
-9909.0434689856
 20
11769.3453184943
 30
0.0
 11
-9895.7705485269
 21
11782.6182389531
 31
0.0
  0
LINE
  5
67
100
AcDbEntity
  8
L1_
  6
CONTINUOUS
 62
         4
100
AcDbLine
 10
-9923.568192338
 20
11759.0632358291
 30
0.0
 11
-9915.1289105558
 21
11767.5025176113
 31
0.0
  0
LINE
  5
68
100
AcDbEntity
  8
L1_
  6
CONTINUOUS
 62
         4
100
AcDbLine
 10
-9911.5388353405
 20
11771.0925928266
 30
0.0
 11
-9895.7705485269
 21
11786.8608796402
 31
0.0
  0
LINE
  5
69
100
AcDbEntity
  8
L1_
  6
CONTINUOUS
 62
         4
100
AcDbLine
 10
-9927.925480563
 20
11758.9485882911
 30
0.0
 11
-9917.6242769106
 21
11769.2497919436
 31
0.0
  0
LINE
  5
6A
100
AcDbEntity
  8
L1_
  6
CONTINUOUS
 62
         4
100
AcDbLine
 10
-9914.0342016953
 20
11772.8398671589
 30
0.0
 11
-9897.5161800866
 21
11789.3578887676
 31
0.0
  0
LINE
  5
6B
100
AcDbEntity
  8
L1_
  6
CONTINUOUS
 62
         4
100
AcDbLine
 10
-9932.2827687881
 20
11758.8339407532
 30
0.0
 11
-9920.1196432655
 21
11770.9970662758
 31
0.0
  0
LINE
  5
6C
100
AcDbEntity
  8
L1_
  6
CONTINUOUS
 62
         4
100
AcDbLine
 10
-9916.5295680502
 20
11774.5871414911
 30
0.0
 11
-9909.2588207737
 21
11781.8578887676
 31
0.0
  0
LINE
  5
6D
100
AcDbEntity
  8
L1_
  6
CONTINUOUS
 62
         4
100
AcDbLine
 10
-9904.9237106242
 20
11786.192998917
 30
0.0
 11
-9901.7588207737
 21
11789.3578887676
 31
0.0
  0
LINE
  5
6E
100
AcDbEntity
  8
L1_
  6
CONTINUOUS
 62
         4
100
AcDbLine
 10
-9936.6400570132
 20
11758.7192932152
 30
0.0
 11
-9922.6150096203
 21
11772.7443406081
 31
0.0
  0
LINE
  5
6F
100
AcDbEntity
  8
L1_
  6
CONTINUOUS
 62
         4
100
AcDbLine
 10
-9919.024934405
 20
11776.3344158234
 30
0.0
 11
-9913.5014614608
 21
11781.8578887676
 31
0.0
  0
LINE
  5
70
100
AcDbEntity
  8
L1_
  6
CONTINUOUS
 62
         4
100
AcDbLine
 10
-9940.9973452383
 20
11758.6046456772
 30
0.0
 11
-9925.1103759752
 21
11774.4916149404
 31
0.0
  0
LINE
  5
71
100
AcDbEntity
  8
L1_
  6
CONTINUOUS
 62
         4
100
AcDbLine
 10
-9921.5203007599
 20
11778.0816901557
 30
0.0
 11
-9915.1894427239
 21
11784.4125481916
 31
0.0
  0
LINE
  5
72
100
AcDbEntity
  8
L1_
  6
CONTINUOUS
 62
         4
100
AcDbLine
 10
-9945.3546334634
 20
11758.4899981393
 30
0.0
 11
-9927.60574233
 21
11776.2388892726
 31
0.0
  0
LINE
  5
73
100
AcDbEntity
  8
L1_
  6
CONTINUOUS
 62
         4
100
AcDbLine
 10
-9924.0156671147
 20
11779.8289644879
 30
0.0
 11
-9916.7423569945
 21
11787.1022746081
 31
0.0
  0
LINE
  5
74
100
AcDbEntity
  8
L1_
  6
CONTINUOUS
 62
         4
100
AcDbLine
 10
-9994.8262668602
 20
11713.2610054296
 30
0.0
 11
-9992.6455485269
 21
11715.4417237629
 31
0.0
  0
LINE
  5
75
100
AcDbEntity
  8
L1_
  6
CONTINUOUS
 62
         4
100
AcDbLine
 10
-9949.0557699732
 20
11759.0315023165
 30
0.0
 11
-9933.7214266301
 21
11774.3658456597
 31
0.0
  0
LINE
  5
76
100
AcDbEntity
  8
L1_
  6
CONTINUOUS
 62
         4
100
AcDbLine
 10
-9930.7705485269
 20
11777.3167237629
 30
0.0
 11
-9930.1011086849
 21
11777.9861636049
 31
0.0
  0
LINE
  5
77
100
AcDbEntity
  8
L1_
  6
CONTINUOUS
 62
         4
100
AcDbLine
 10
-9926.5110334696
 20
11781.5762388202
 30
0.0
 11
-9918.7293835222
 21
11789.3578887676
 31
0.0
  0
LINE
  5
78
100
AcDbEntity
  8
L1_
  6
CONTINUOUS
 62
         4
100
AcDbLine
 10
-9998.5289376864
 20
11713.8009752905
 30
0.0
 11
-9992.6455485269
 21
11719.68436445
 31
0.0
  0
LINE
  5
79
100
AcDbEntity
  8
L1_
  6
CONTINUOUS
 62
         4
100
AcDbLine
 10
-9953.2984106604
 20
11759.0315023165
 30
0.0
 11
-9938.6884159441
 21
11773.6414970328
 31
0.0
  0
LINE
  5
7A
100
AcDbEntity
  8
L1_
  6
CONTINUOUS
 62
         4
100
AcDbLine
 10
-9928.6114915508
 20
11783.7184214261
 30
0.0
 11
-9922.9720242093
 21
11789.3578887676
 31
0.0
  0
LINE
  5
7B
100
AcDbEntity
  8
L1_
  6
CONTINUOUS
 62
         4
100
AcDbLine
 10
-10002.2316085126
 20
11714.3409451514
 30
0.0
 11
-9992.6455485269
 21
11723.9270051371
 31
0.0
  0
LINE
  5
7C
100
AcDbEntity
  8
L1_
  6
CONTINUOUS
 62
         4
100
AcDbLine
 10
-9954.3955485269
 20
11762.1770051371
 30
0.0
 11
-9943.6554052582
 21
11772.9171484058
 31
0.0
  0
LINE
  5
7D
100
AcDbEntity
  8
L1_
  6
CONTINUOUS
 62
         4
100
AcDbLine
 10
-9930.7705485269
 20
11785.8020051371
 30
0.0
 11
-9927.2146648964
 21
11789.3578887676
 31
0.0
  0
LINE
  5
7E
100
AcDbEntity
  8
L1_
  6
CONTINUOUS
 62
         4
100
AcDbLine
 10
-10005.9342793389
 20
11714.8809150123
 30
0.0
 11
-9992.6455485269
 21
11728.1696458243
 31
0.0
  0
LINE
  5
7F
100
AcDbEntity
  8
L1_
  6
CONTINUOUS
 62
         4
100
AcDbLine
 10
-9954.3955485269
 20
11766.4196458242
 30
0.0
 11
-9948.6223945723
 21
11772.1927997789
 31
0.0
  0
LINE
  5
80
100
AcDbEntity
  8
L1_
  6
CONTINUOUS
 62
         4
100
AcDbLine
 10
-10009.6369501651
 20
11715.4208848732
 30
0.0
 11
-9996.1999462707
 21
11728.8578887676
 31
0.0
  0
LINE
  5
81
100
AcDbEntity
  8
L1_
  6
CONTINUOUS
 62
         4
100
AcDbLine
 10
-10013.3396209913
 20
11715.9608547341
 30
0.0
 11
-10000.4425869578
 21
11728.8578887676
 31
0.0
  0
LINE
  5
82
100
AcDbEntity
  8
L1_
  6
CONTINUOUS
 62
         4
100
AcDbLine
 10
-10017.0422918175
 20
11716.500824595
 30
0.0
 11
-10004.6852276449
 21
11728.8578887676
 31
0.0
  0
LINE
  5
83
100
AcDbEntity
  8
L1_
  6
CONTINUOUS
 62
         4
100
AcDbLine
 10
-10020.7449626437
 20
11717.0407944559
 30
0.0
 11
-10008.927868332
 21
11728.8578887676
 31
0.0
  0
LINE
  5
84
100
AcDbEntity
  8
L1_
  6
CONTINUOUS
 62
         4
100
AcDbLine
 10
-10024.44763347
 20
11717.5807643168
 30
0.0
 11
-10013.1705090192
 21
11728.8578887676
 31
0.0
  0
LINE
  5
85
100
AcDbEntity
  8
L1_
  6
CONTINUOUS
 62
         4
100
AcDbLine
 10
-10028.1503042962
 20
11718.1207341777
 30
0.0
 11
-10017.4131497063
 21
11728.8578887676
 31
0.0
  0
LINE
  5
86
100
AcDbEntity
  8
L1_
  6
CONTINUOUS
 62
         4
100
AcDbLine
 10
-9996.4131497063
 20
11749.8578887676
 30
0.0
 11
-9992.6455485269
 21
11753.625489947
 31
0.0
  0
LINE
  5
87
100
AcDbEntity
  8
L1_
  6
CONTINUOUS
 62
         4
100
AcDbLine
 10
-10031.8529751224
 20
11718.6607040386
 30
0.0
 11
-10023.9506107036
 21
11726.5630684574
 31
0.0
  0
LINE
  5
88
100
AcDbEntity
  8
L1_
  6
CONTINUOUS
 62
         4
100
AcDbLine
 10
-10022.5705485269
 20
11727.9431306341
 30
0.0
 11
-10021.6557903934
 21
11728.8578887676
 31
0.0
  0
LINE
  5
89
100
AcDbEntity
  8
L1_
  6
CONTINUOUS
 62
         4
100
AcDbLine
 10
-10000.6557903934
 20
11749.8578887676
 30
0.0
 11
-9992.6455485269
 21
11757.8681306341
 31
0.0
  0
LINE
  5
8A
100
AcDbEntity
  8
L1_
  6
CONTINUOUS
 62
         4
100
AcDbLine
 10
-10035.336641371
 20
11719.4196784771
 30
0.0
 11
-10027.8984310805
 21
11726.8578887676
 31
0.0
  0
LINE
  5
8B
100
AcDbEntity
  8
L1_
  6
CONTINUOUS
 62
         4
100
AcDbLine
 10
-10004.8984310805
 20
11749.8578887676
 30
0.0
 11
-9992.6455485269
 21
11762.1107713212
 31
0.0
  0
LINE
  5
8C
100
AcDbEntity
  8
L1_
  6
CONTINUOUS
 62
         4
100
AcDbLine
 10
-10035.5755485269
 20
11723.4234120083
 30
0.0
 11
-10032.1410717676
 21
11726.8578887676
 31
0.0
  0
LINE
  5
8D
100
AcDbEntity
  8
L1_
  6
CONTINUOUS
 62
         4
100
AcDbLine
 10
-10009.1410717676
 20
11749.8578887676
 30
0.0
 11
-9993.4787105942
 21
11765.520249941
 31
0.0
  0
LINE
  5
8E
100
AcDbEntity
  8
L1_
  6
CONTINUOUS
 62
         4
100
AcDbLine
 10
-10013.3837124548
 20
11749.8578887676
 30
0.0
 11
-9998.2922877129
 21
11764.9493135095
 31
0.0
  0
LINE
  5
8F
100
AcDbEntity
  8
L1_
  6
CONTINUOUS
 62
         4
100
AcDbLine
 10
-10017.6263531419
 20
11749.8578887676
 30
0.0
 11
-10003.2592770269
 21
11764.2249648825
 31
0.0
  0
LINE
  5
90
100
AcDbEntity
  8
L1_
  6
CONTINUOUS
 62
         4
100
AcDbLine
 10
-10021.868993829
 20
11749.8578887676
 30
0.0
 11
-10008.226266341
 21
11763.5006162556
 31
0.0
  0
LINE
  5
91
100
AcDbEntity
  8
L1_
  6
CONTINUOUS
 62
         4
100
AcDbLine
 10
-10023.8116345161
 20
11752.1578887676
 30
0.0
 11
-10013.193255655
 21
11762.7762676286
 31
0.0
  0
LINE
  5
92
100
AcDbEntity
  8
L1_
  6
CONTINUOUS
 62
         4
100
AcDbLine
 10
-10028.3542752032
 20
11751.8578887676
 30
0.0
 11
-10018.1602449691
 21
11762.0519190017
 31
0.0
  0
LINE
  5
93
100
AcDbEntity
  8
L1_
  6
CONTINUOUS
 62
         4
100
AcDbLine
 10
-10032.5969158903
 20
11751.8578887676
 30
0.0
 11
-10023.1272342832
 21
11761.3275703748
 31
0.0
  0
LINE
  5
94
100
AcDbEntity
  8
L1_
  6
CONTINUOUS
 62
         4
100
AcDbLine
 10
-10035.5755485269
 20
11753.1218968182
 30
0.0
 11
-10028.0942235972
 21
11760.6032217478
 31
0.0
  0
LINE
  5
95
100
AcDbEntity
  8
L1_
  6
CONTINUOUS
 62
         4
100
AcDbLine
 10
-10035.5755485269
 20
11757.3645375053
 30
0.0
 11
-10033.0612129113
 21
11759.8788731209
 31
0.0
  0
ENDBLK
  5
96
100
AcDbEntity
  8
0
  6
CONTINUOUS
100
AcDbBlockEnd
  0
BLOCK
  5
28A
100
AcDbEntity
  8
0
100
AcDbBlockBegin
  2
*D1
 70
        65
 10
0.0
 20
0.0
 30
0.0
  3
*D1
  1

  0
POINT
  5
28D
100
AcDbEntity
  8
DEFPOINTS
  6
CONTINUOUS
 62
         0
100
AcDbPoint
 10
-9795.6778383059
 20
12009.8503198193
 30
0.0
  0
POINT
  5
28E
100
AcDbEntity
  8
DEFPOINTS
  6
CONTINUOUS
 62
         0
100
AcDbPoint
 10
-9830.7705485269
 20
12009.8503198193
 30
0.0
  0
POINT
  5
28F
100
AcDbEntity
  8
DEFPOINTS
  6
CONTINUOUS
 62
         0
100
AcDbPoint
 10
-9830.7705485269
 20
11946.8503198193
 30
0.0
  0
LINE
  5
290
100
AcDbEntity
  8
L1_
  6
CONTINUOUS
 62
         4
100
AcDbLine
 10
-9829.0205485269
 20
12009.8503198193
 30
0.0
 11
-9794.8028383059
 21
12009.8503198193
 31
0.0
  0
LINE
  5
291
100
AcDbEntity
  8
L1_
  6
CONTINUOUS
 62
         4
100
AcDbLine
 10
-9829.0205485269
 20
11946.8503198193
 30
0.0
 11
-9794.8028383059
 21
11946.8503198193
 31
0.0
  0
LINE
  5
292
100
AcDbEntity
  8
L1_
  6
CONTINUOUS
 62
         4
100
AcDbLine
 10
-9795.6778383059
 20
12009.8503198193
 30
0.0
 11
-9795.6778383059
 21
11946.8503198193
 31
0.0
  0
SOLID
  5
293
100
AcDbEntity
  8
L1_
  6
CONTINUOUS
 62
         4
100
AcDbTrace
 10
-9795.6778383059
 20
12009.8503198193
 30
0.0
 11
-9795.1528383059
 21
12006.3503198193
 31
0.0
 12
-9796.2028383059
 22
12006.3503198193
 32
0.0
 13
-9795.6778383059
 23
12009.8503198193
 33
0.0
  0
SOLID
  5
294
100
AcDbEntity
  8
L1_
  6
CONTINUOUS
 62
         4
100
AcDbTrace
 10
-9795.6778383059
 20
11946.8503198193
 30
0.0
 11
-9796.2028383059
 21
11950.3503198193
 31
0.0
 12
-9795.1528383059
 22
11950.3503198193
 32
0.0
 13
-9795.6778383059
 23
11946.8503198193
 33
0.0
  0
TEXT
  5
296
100
AcDbEntity
  8
L1_
  6
CONTINUOUS
 62
         4
100
AcDbText
 10
-9798.3028383059
 20
11971.3503198193
 30
0.0
 40
3.5
  1
崷63
 50
90.0
  7
BOX
100
AcDbText
  0
ENDBLK
  5
297
100
AcDbEntity
  8
0
  6
CONTINUOUS
100
AcDbBlockEnd
  0
BLOCK
  5
29E
100
AcDbEntity
  8
0
100
AcDbBlockBegin
  2
*D2
 70
        65
 10
0.0
 20
0.0
 30
0.0
  3
*D2
  1

  0
POINT
  5
2A0
100
AcDbEntity
  8
DEFPOINTS
  6
CONTINUOUS
 62
         0
100
AcDbPoint
 10
-9963.7755485269
 20
11788.897049002
 30
0.0
  0
POINT
  5
2A1
100
AcDbEntity
  8
DEFPOINTS
  6
CONTINUOUS
 62
         0
100
AcDbPoint
 10
-9963.7755485269
 20
11756.9657673243
 30
0.0
  0
POINT
  5
2A2
100
AcDbEntity
  8
DEFPOINTS
  6
CONTINUOUS
 62
         0
100
AcDbPoint
 10
-9946.2755485269
 20
11739.3578887676
 30
0.0
  0
LINE
  5
2A3
100
AcDbEntity
  8
L1_
  6
CONTINUOUS
 62
         4
100
AcDbLine
 10
-9963.7755485269
 20
11758.7157673243
 30
0.0
 11
-9963.7755485269
 21
11789.772049002
 31
0.0
  0
LINE
  5
2A4
100
AcDbEntity
  8
L1_
  6
CONTINUOUS
 62
         4
100
AcDbLine
 10
-9946.2755485269
 20
11741.1078887676
 30
0.0
 11
-9946.2755485269
 21
11789.772049002
 31
0.0
  0
LINE
  5
2A5
100
AcDbEntity
  8
L1_
  6
CONTINUOUS
 62
         4
100
AcDbLine
 10
-9963.7755485269
 20
11788.897049002
 30
0.0
 11
-9946.2755485269
 21
11788.897049002
 31
0.0
  0
SOLID
  5
2A6
100
AcDbEntity
  8
L1_
  6
CONTINUOUS
 62
         4
100
AcDbTrace
 10
-9963.7755485269
 20
11788.897049002
 30
0.0
 11
-9960.2755485269
 21
11789.422049002
 31
0.0
 12
-9960.2755485269
 22
11788.372049002
 32
0.0
 13
-9963.7755485269
 23
11788.897049002
 33
0.0
  0
SOLID
  5
2A7
100
AcDbEntity
  8
L1_
  6
CONTINUOUS
 62
         4
100
AcDbTrace
 10
-9946.2755485269
 20
11788.897049002
 30
0.0
 11
-9949.7755485269
 21
11788.372049002
 31
0.0
 12
-9949.7755485269
 22
11789.422049002
 32
0.0
 13
-9946.2755485269
 23
11788.897049002
 33
0.0
  0
TEXT
  5
2A9
100
AcDbEntity
  8
L1_
  6
CONTINUOUS
 62
         4
100
AcDbText
 10
-9957.2524382149
 20
11791.522049002
 30
0.0
 40
3.5
  1
20
  7
BOX
100
AcDbText
  0
ENDBLK
  5
2AA
100
AcDbEntity
  8
0
  6
CONTINUOUS
100
AcDbBlockEnd
  0
BLOCK
  5
2AE
100
AcDbEntity
  8
0
100
AcDbBlockBegin
  2
*D3
 70
        65
 10
0.0
 20
0.0
 30
0.0
  3
*D3
  1

  0
POINT
  5
2B0
100
AcDbEntity
  8
DEFPOINTS
  6
CONTINUOUS
 62
         0
100
AcDbPoint
 10
-9932.6470709848
 20
11719.6842752186
 30
0.0
  0
POINT
  5
2B1
100
AcDbEntity
  8
DEFPOINTS
  6
CONTINUOUS
 62
         0
100
AcDbPoint
 10
-9946.2755485269
 20
11719.6842752186
 30
0.0
  0
POINT
  5
2B2
100
AcDbEntity
  8
DEFPOINTS
  6
CONTINUOUS
 62
         0
100
AcDbPoint
 10
-9946.2755485269
 20
11759.0315023165
 30
0.0
  0
LINE
  5
2B3
100
AcDbEntity
  8
L1_
  6
CONTINUOUS
 62
         4
100
AcDbLine
 10
-9944.5255485269
 20
11719.6842752186
 30
0.0
 11
-9931.7720709848
 21
11719.6842752186
 31
0.0
  0
LINE
  5
2B4
100
AcDbEntity
  8
L1_
  6
CONTINUOUS
 62
         4
100
AcDbLine
 10
-9944.5255485269
 20
11759.0315023165
 30
0.0
 11
-9931.7720709848
 21
11759.0315023165
 31
0.0
  0
LINE
  5
2B5
100
AcDbEntity
  8
L1_
  6
CONTINUOUS
 62
         4
100
AcDbLine
 10
-9932.6470709848
 20
11719.6842752186
 30
0.0
 11
-9932.6470709848
 21
11759.0315023165
 31
0.0
  0
SOLID
  5
2B6
100
AcDbEntity
  8
L1_
  6
CONTINUOUS
 62
         4
100
AcDbTrace
 10
-9932.6470709848
 20
11719.6842752186
 30
0.0
 11
-9933.1720709848
 21
11723.1842752186
 31
0.0
 12
-9932.1220709848
 22
11723.1842752186
 32
0.0
 13
-9932.6470709848
 23
11719.6842752186
 33
0.0
  0
SOLID
  5
2B7
100
AcDbEntity
  8
L1_
  6
CONTINUOUS
 62
         4
100
AcDbTrace
 10
-9932.6470709848
 20
11759.0315023165
 30
0.0
 11
-9932.1220709848
 21
11755.5315023165
 31
0.0
 12
-9933.1720709848
 22
11755.5315023165
 32
0.0
 13
-9932.6470709848
 23
11759.0315023165
 33
0.0
  0
TEXT
  5
2B9
100
AcDbEntity
  8
L1_
  6
CONTINUOUS
 62
         4
100
AcDbText
 10
-9935.2720709848
 20
11724.9629136497
 30
0.0
 40
3.5
  1
崷38.99
 50
90.0
  7
BOX
100
AcDbText
  0
ENDBLK
  5
2BA
100
AcDbEntity
  8
0
  6
CONTINUOUS
100
AcDbBlockEnd
  0
BLOCK
  5
2ED
100
AcDbEntity
  8
0
100
AcDbBlockBegin
  2
*D4
 70
        65
 10
0.0
 20
0.0
 30
0.0
  3
*D4
  1

  0
POINT
  5
2EF
100
AcDbEntity
  8
DEFPOINTS
  6
CONTINUOUS
 62
         0
100
AcDbPoint
 10
-9904.7755485269
 20
11680.3944915738
 30
0.0
  0
POINT
  5
2F0
100
AcDbEntity
  8
DEFPOINTS
  6
CONTINUOUS
 62
         0
100
AcDbPoint
 10
-9904.7755485269
 20
11717.3578887676
 30
0.0
  0
POINT
  5
2F1
100
AcDbEntity
  8
DEFPOINTS
  6
CONTINUOUS
 62
         0
100
AcDbPoint
 10
-9828.7755485269
 20
11709.8578887676
 30
0.0
  0
LINE
  5
2F2
100
AcDbEntity
  8
L1_
  6
CONTINUOUS
 62
         4
100
AcDbLine
 10
-9904.7755485269
 20
11715.6078887676
 30
0.0
 11
-9904.7755485269
 21
11679.5194915738
 31
0.0
  0
LINE
  5
2F3
100
AcDbEntity
  8
L1_
  6
CONTINUOUS
 62
         4
100
AcDbLine
 10
-9828.7755485269
 20
11708.1078887676
 30
0.0
 11
-9828.7755485269
 21
11679.5194915738
 31
0.0
  0
LINE
  5
2F4
100
AcDbEntity
  8
L1_
  6
CONTINUOUS
 62
         4
100
AcDbLine
 10
-9904.7755485269
 20
11680.3944915738
 30
0.0
 11
-9828.7755485269
 21
11680.3944915738
 31
0.0
  0
SOLID
  5
2F5
100
AcDbEntity
  8
L1_
  6
CONTINUOUS
 62
         4
100
AcDbTrace
 10
-9904.7755485269
 20
11680.3944915738
 30
0.0
 11
-9901.2755485269
 21
11680.9194915738
 31
0.0
 12
-9901.2755485269
 22
11679.8694915738
 32
0.0
 13
-9904.7755485269
 23
11680.3944915738
 33
0.0
  0
SOLID
  5
2F6
100
AcDbEntity
  8
L1_
  6
CONTINUOUS
 62
         4
100
AcDbTrace
 10
-9828.7755485269
 20
11680.3944915738
 30
0.0
 11
-9832.2755485269
 21
11679.8694915738
 31
0.0
 12
-9832.2755485269
 22
11680.9194915738
 32
0.0
 13
-9828.7755485269
 23
11680.3944915738
 33
0.0
  0
TEXT
  5
2F8
100
AcDbEntity
  8
L1_
  6
CONTINUOUS
 62
         4
100
AcDbText
 10
-9869.7139279549
 20
11683.0194915738
 30
0.0
 40
3.5
  1
76.2
  7
BOX
100
AcDbText
  0
ENDBLK
  5
2F9
100
AcDbEntity
  8
0
  6
CONTINUOUS
100
AcDbBlockEnd
  0
BLOCK
  5
2FB
100
AcDbEntity
  8
0
100
AcDbBlockBegin
  2
*D5
 70
        65
 10
0.0
 20
0.0
 30
0.0
  3
*D5
  1

  0
POINT
  5
2FD
100
AcDbEntity
  8
DEFPOINTS
  6
CONTINUOUS
 62
         0
100
AcDbPoint
 10
-9881.7755485269
 20
11689.8468897592
 30
0.0
  0
POINT
  5
2FE
100
AcDbEntity
  8
DEFPOINTS
  6
CONTINUOUS
 62
         0
100
AcDbPoint
 10
-9881.7755485269
 20
11717.3578887676
 30
0.0
  0
POINT
  5
2FF
100
AcDbEntity
  8
DEFPOINTS
  6
CONTINUOUS
 62
         0
100
AcDbPoint
 10
-9828.7755485269
 20
11709.8578887676
 30
0.0
  0
LINE
  5
300
100
AcDbEntity
  8
L1_
  6
CONTINUOUS
 62
         4
100
AcDbLine
 10
-9881.7755485269
 20
11715.6078887676
 30
0.0
 11
-9881.7755485269
 21
11688.9718897592
 31
0.0
  0
LINE
  5
301
100
AcDbEntity
  8
L1_
  6
CONTINUOUS
 62
         4
100
AcDbLine
 10
-9828.7755485269
 20
11708.1078887676
 30
0.0
 11
-9828.7755485269
 21
11688.9718897592
 31
0.0
  0
LINE
  5
302
100
AcDbEntity
  8
L1_
  6
CONTINUOUS
 62
         4
100
AcDbLine
 10
-9881.7755485269
 20
11689.8468897592
 30
0.0
 11
-9828.7755485269
 21
11689.8468897592
 31
0.0
  0
SOLID
  5
303
100
AcDbEntity
  8
L1_
  6
CONTINUOUS
 62
         4
100
AcDbTrace
 10
-9881.7755485269
 20
11689.8468897592
 30
0.0
 11
-9878.2755485269
 21
11690.3718897592
 31
0.0
 12
-9878.2755485269
 22
11689.3218897592
 32
0.0
 13
-9881.7755485269
 23
11689.8468897592
 33
0.0
  0
SOLID
  5
304
100
AcDbEntity
  8
L1_
  6
CONTINUOUS
 62
         4
100
AcDbTrace
 10
-9828.7755485269
 20
11689.8468897592
 30
0.0
 11
-9832.2755485269
 21
11689.3218897592
 31
0.0
 12
-9832.2755485269
 22
11690.3718897592
 32
0.0
 13
-9828.7755485269
 23
11689.8468897592
 33
0.0
  0
TEXT
  5
306
100
AcDbEntity
  8
L1_
  6
CONTINUOUS
 62
         4
100
AcDbText
 10
-9870.3547685098
 20
11692.4718897592
 30
0.0
 40
3.5
  1
53.2
  7
BOX
100
AcDbText
  0
ENDBLK
  5
307
100
AcDbEntity
  8
0
  6
CONTINUOUS
100
AcDbBlockEnd
  0
BLOCK
  5
309
100
AcDbEntity
  8
0
100
AcDbBlockBegin
  2
*D6
 70
        65
 10
0.0
 20
0.0
 30
0.0
  3
*D6
  1

  0
POINT
  5
30B
100
AcDbEntity
  8
DEFPOINTS
  6
CONTINUOUS
 62
         0
100
AcDbPoint
 10
-9805.9383924698
 20
11761.3578887676
 30
0.0
  0
POINT
  5
30C
100
AcDbEntity
  8
DEFPOINTS
  6
CONTINUOUS
 62
         0
100
AcDbPoint
 10
-9881.7755485269
 20
11761.3578887676
 30
0.0
  0
POINT
  5
30D
100
AcDbEntity
  8
DEFPOINTS
  6
CONTINUOUS
 62
         0
100
AcDbPoint
 10
-9881.7755485269
 20
11717.3578887676
 30
0.0
  0
LINE
  5
30E
100
AcDbEntity
  8
L1_
  6
CONTINUOUS
 62
         4
100
AcDbLine
 10
-9880.0255485269
 20
11761.3578887676
 30
0.0
 11
-9805.0633924698
 21
11761.3578887676
 31
0.0
  0
LINE
  5
30F
100
AcDbEntity
  8
L1_
  6
CONTINUOUS
 62
         4
100
AcDbLine
 10
-9880.0255485269
 20
11717.3578887676
 30
0.0
 11
-9805.0633924698
 21
11717.3578887676
 31
0.0
  0
LINE
  5
310
100
AcDbEntity
  8
L1_
  6
CONTINUOUS
 62
         4
100
AcDbLine
 10
-9805.9383924698
 20
11761.3578887676
 30
0.0
 11
-9805.9383924698
 21
11717.3578887676
 31
0.0
  0
SOLID
  5
311
100
AcDbEntity
  8
L1_
  6
CONTINUOUS
 62
         4
100
AcDbTrace
 10
-9805.9383924698
 20
11761.3578887676
 30
0.0
 11
-9805.4133924698
 21
11757.8578887676
 31
0.0
 12
-9806.4633924698
 22
11757.8578887676
 32
0.0
 13
-9805.9383924698
 23
11761.3578887676
 33
0.0
  0
SOLID
  5
312
100
AcDbEntity
  8
L1_
  6
CONTINUOUS
 62
         4
100
AcDbTrace
 10
-9805.9383924698
 20
11717.3578887676
 30
0.0
 11
-9806.4633924698
 21
11720.8578887676
 31
0.0
 12
-9805.4133924698
 22
11720.8578887676
 32
0.0
 13
-9805.9383924698
 23
11717.3578887676
 33
0.0
  0
TEXT
  5
314
100
AcDbEntity
  8
L1_
  6
CONTINUOUS
 62
         4
100
AcDbText
 10
-9808.5633924698
 20
11730.8244704544
 30
0.0
 40
3.5
  1
崷44
 50
90.0
  7
BOX
100
AcDbText
  0
ENDBLK
  5
315
100
AcDbEntity
  8
0
  6
CONTINUOUS
100
AcDbBlockEnd
  0
BLOCK
  5
321
100
AcDbEntity
  8
0
100
AcDbBlockBegin
  2
*D7
 70
        65
 10
0.0
 20
0.0
 30
0.0
  3
*D7
  1

  0
POINT
  5
323
100
AcDbEntity
  8
DEFPOINTS
  6
CONTINUOUS
 62
         0
100
AcDbPoint
 10
-10035.5705485269
 20
12085.0243488066
 30
0.0
  0
POINT
  5
324
100
AcDbEntity
  8
DEFPOINTS
  6
CONTINUOUS
 62
         0
100
AcDbPoint
 10
-10035.5705485269
 20
11997.6406163179
 30
0.0
  0
POINT
  5
325
100
AcDbEntity
  8
DEFPOINTS
  6
CONTINUOUS
 62
         0
100
AcDbPoint
 10
-9828.7705485269
 20
12007.8503198193
 30
0.0
  0
LINE
  5
326
100
AcDbEntity
  8
L1_
  6
CONTINUOUS
 62
         4
100
AcDbLine
 10
-10035.5705485269
 20
11999.3906163179
 30
0.0
 11
-10035.5705485269
 21
12085.8993488066
 31
0.0
  0
LINE
  5
327
100
AcDbEntity
  8
L1_
  6
CONTINUOUS
 62
         4
100
AcDbLine
 10
-9828.7705485269
 20
12009.6003198193
 30
0.0
 11
-9828.7705485269
 21
12085.8993488066
 31
0.0
  0
LINE
  5
328
100
AcDbEntity
  8
L1_
  6
CONTINUOUS
 62
         4
100
AcDbLine
 10
-10035.5705485269
 20
12085.0243488066
 30
0.0
 11
-9828.7705485269
 21
12085.0243488066
 31
0.0
  0
SOLID
  5
329
100
AcDbEntity
  8
L1_
  6
CONTINUOUS
 62
         4
100
AcDbTrace
 10
-10035.5705485269
 20
12085.0243488066
 30
0.0
 11
-10032.0705485269
 21
12085.5493488066
 31
0.0
 12
-10032.0705485269
 22
12084.4993488066
 32
0.0
 13
-10035.5705485269
 23
12085.0243488066
 33
0.0
  0
SOLID
  5
32A
100
AcDbEntity
  8
L1_
  6
CONTINUOUS
 62
         4
100
AcDbTrace
 10
-9828.7705485269
 20
12085.0243488066
 30
0.0
 11
-9832.2705485269
 21
12084.4993488066
 31
0.0
 12
-9832.2705485269
 22
12085.5493488066
 32
0.0
 13
-9828.7705485269
 23
12085.0243488066
 33
0.0
  0
TEXT
  5
32C
100
AcDbEntity
  8
L1_
  6
CONTINUOUS
 62
         4
100
AcDbText
 10
-9941.2271002705
 20
12087.6493488066
 30
0.0
 40
3.5
  1
206.8
  7
BOX
100
AcDbText
  0
ENDBLK
  5
32D
100
AcDbEntity
  8
0
  6
CONTINUOUS
100
AcDbBlockEnd
  0
BLOCK
  5
32F
100
AcDbEntity
  8
0
100
AcDbBlockBegin
  2
*D8
 70
        65
 10
0.0
 20
0.0
 30
0.0
  3
*D8
  1

  0
POINT
  5
331
100
AcDbEntity
  8
DEFPOINTS
  6
CONTINUOUS
 62
         0
100
AcDbPoint
 10
-9933.7705485269
 20
12075.485321266
 30
0.0
  0
POINT
  5
332
100
AcDbEntity
  8
DEFPOINTS
  6
CONTINUOUS
 62
         0
100
AcDbPoint
 10
-9933.7705485269
 20
12013.0482360852
 30
0.0
  0
POINT
  5
333
100
AcDbEntity
  8
DEFPOINTS
  6
CONTINUOUS
 62
         0
100
AcDbPoint
 10
-9828.7705485269
 20
12007.8503198193
 30
0.0
  0
LINE
  5
334
100
AcDbEntity
  8
L1_
  6
CONTINUOUS
 62
         4
100
AcDbLine
 10
-9933.7705485269
 20
12014.7982360852
 30
0.0
 11
-9933.7705485269
 21
12076.360321266
 31
0.0
  0
LINE
  5
335
100
AcDbEntity
  8
L1_
  6
CONTINUOUS
 62
         4
100
AcDbLine
 10
-9828.7705485269
 20
12009.6003198193
 30
0.0
 11
-9828.7705485269
 21
12076.360321266
 31
0.0
  0
LINE
  5
336
100
AcDbEntity
  8
L1_
  6
CONTINUOUS
 62
         4
100
AcDbLine
 10
-9933.7705485269
 20
12075.485321266
 30
0.0
 11
-9828.7705485269
 21
12075.485321266
 31
0.0
  0
SOLID
  5
337
100
AcDbEntity
  8
L1_
  6
CONTINUOUS
 62
         4
100
AcDbTrace
 10
-9933.7705485269
 20
12075.485321266
 30
0.0
 11
-9930.2705485269
 21
12076.010321266
 31
0.0
 12
-9930.2705485269
 22
12074.960321266
 32
0.0
 13
-9933.7705485269
 23
12075.485321266
 33
0.0
  0
SOLID
  5
338
100
AcDbEntity
  8
L1_
  6
CONTINUOUS
 62
         4
100
AcDbTrace
 10
-9828.7705485269
 20
12075.485321266
 30
0.0
 11
-9832.2705485269
 21
12074.960321266
 31
0.0
 12
-9832.2705485269
 22
12076.010321266
 32
0.0
 13
-9828.7705485269
 23
12075.485321266
 33
0.0
  0
TEXT
  5
33A
100
AcDbEntity
  8
L1_
  6
CONTINUOUS
 62
         4
100
AcDbText
 10
-9884.6559210344
 20
12078.110321266
 30
0.0
 40
3.5
  1
105
  7
BOX
100
AcDbText
  0
ENDBLK
  5
33B
100
AcDbEntity
  8
0
  6
CONTINUOUS
100
AcDbBlockEnd
  0
BLOCK
  5
33D
100
AcDbEntity
  8
0
100
AcDbBlockBegin
  2
*D9
 70
        65
 10
0.0
 20
0.0
 30
0.0
  3
*D9
  1

  0
POINT
  5
33F
100
AcDbEntity
  8
DEFPOINTS
  6
CONTINUOUS
 62
         0
100
AcDbPoint
 10
-9954.3955485269
 20
11660.0435489212
 30
0.0
  0
POINT
  5
340
100
AcDbEntity
  8
DEFPOINTS
  6
CONTINUOUS
 62
         0
100
AcDbPoint
 10
-9954.3955485269
 20
11708.4506432709
 30
0.0
  0
POINT
  5
341
100
AcDbEntity
  8
DEFPOINTS
  6
CONTINUOUS
 62
         0
100
AcDbPoint
 10
-9828.7755485269
 20
11709.8578887676
 30
0.0
  0
LINE
  5
342
100
AcDbEntity
  8
L1_
  6
CONTINUOUS
 62
         4
100
AcDbLine
 10
-9954.3955485269
 20
11706.7006432709
 30
0.0
 11
-9954.3955485269
 21
11659.1685489212
 31
0.0
  0
LINE
  5
343
100
AcDbEntity
  8
L1_
  6
CONTINUOUS
 62
         4
100
AcDbLine
 10
-9828.7755485269
 20
11708.1078887676
 30
0.0
 11
-9828.7755485269
 21
11659.1685489212
 31
0.0
  0
LINE
  5
344
100
AcDbEntity
  8
L1_
  6
CONTINUOUS
 62
         4
100
AcDbLine
 10
-9954.3955485269
 20
11660.0435489212
 30
0.0
 11
-9828.7755485269
 21
11660.0435489212
 31
0.0
  0
SOLID
  5
345
100
AcDbEntity
  8
L1_
  6
CONTINUOUS
 62
         4
100
AcDbTrace
 10
-9954.3955485269
 20
11660.0435489212
 30
0.0
 11
-9950.8955485269
 21
11660.5685489212
 31
0.0
 12
-9950.8955485269
 22
11659.5185489212
 32
0.0
 13
-9954.3955485269
 23
11660.0435489212
 33
0.0
  0
SOLID
  5
346
100
AcDbEntity
  8
L1_
  6
CONTINUOUS
 62
         4
100
AcDbTrace
 10
-9828.7755485269
 20
11660.0435489212
 30
0.0
 11
-9832.2755485269
 21
11659.5185489212
 31
0.0
 12
-9832.2755485269
 22
11660.5685489212
 32
0.0
 13
-9828.7755485269
 23
11660.0435489212
 33
0.0
  0
TEXT
  5
348
100
AcDbEntity
  8
L1_
  6
CONTINUOUS
 62
         4
100
AcDbText
 10
-9902.023441287
 20
11662.6685489212
 30
0.0
 40
3.5
  1
125
  7
BOX
100
AcDbText
  0
ENDBLK
  5
349
100
AcDbEntity
  8
0
  6
CONTINUOUS
100
AcDbBlockEnd
  0
BLOCK
  5
34B
100
AcDbEntity
  8
0
100
AcDbBlockBegin
  2
*D10
 70
        65
 10
0.0
 20
0.0
 30
0.0
  3
*D10
  1

  0
POINT
  5
34D
100
AcDbEntity
  8
DEFPOINTS
  6
CONTINUOUS
 62
         0
100
AcDbPoint
 10
-9963.7755485269
 20
11812.1119957955
 30
0.0
  0
POINT
  5
34E
100
AcDbEntity
  8
DEFPOINTS
  6
CONTINUOUS
 62
         0
100
AcDbPoint
 10
-9963.7755485269
 20
11757.0315023165
 30
0.0
  0
POINT
  5
34F
100
AcDbEntity
  8
DEFPOINTS
  6
CONTINUOUS
 62
         0
100
AcDbPoint
 10
-9828.7755485269
 20
11768.8578887676
 30
0.0
  0
LINE
  5
350
100
AcDbEntity
  8
L1_
  6
CONTINUOUS
 62
         4
100
AcDbLine
 10
-9963.7755485269
 20
11758.7815023165
 30
0.0
 11
-9963.7755485269
 21
11812.9869957955
 31
0.0
  0
LINE
  5
351
100
AcDbEntity
  8
L1_
  6
CONTINUOUS
 62
         4
100
AcDbLine
 10
-9828.7755485269
 20
11770.6078887676
 30
0.0
 11
-9828.7755485269
 21
11812.9869957955
 31
0.0
  0
LINE
  5
352
100
AcDbEntity
  8
L1_
  6
CONTINUOUS
 62
         4
100
AcDbLine
 10
-9963.7755485269
 20
11812.1119957955
 30
0.0
 11
-9828.7755485269
 21
11812.1119957955
 31
0.0
  0
SOLID
  5
353
100
AcDbEntity
  8
L1_
  6
CONTINUOUS
 62
         4
100
AcDbTrace
 10
-9963.7755485269
 20
11812.1119957955
 30
0.0
 11
-9960.2755485269
 21
11812.6369957955
 31
0.0
 12
-9960.2755485269
 22
11811.5869957955
 32
0.0
 13
-9963.7755485269
 23
11812.1119957955
 33
0.0
  0
SOLID
  5
354
100
AcDbEntity
  8
L1_
  6
CONTINUOUS
 62
         4
100
AcDbTrace
 10
-9828.7755485269
 20
11812.1119957955
 30
0.0
 11
-9832.2755485269
 21
11811.5869957955
 31
0.0
 12
-9832.2755485269
 22
11812.6369957955
 32
0.0
 13
-9828.7755485269
 23
11812.1119957955
 33
0.0
  0
TEXT
  5
356
100
AcDbEntity
  8
L1_
  6
CONTINUOUS
 62
         4
100
AcDbText
 10
-9906.0107575331
 20
11814.7369957955
 30
0.0
 40
3.5
  1
135
  7
BOX
100
AcDbText
  0
ENDBLK
  5
357
100
AcDbEntity
  8
0
  6
CONTINUOUS
100
AcDbBlockEnd
  0
ENDSEC
  0
SECTION
  2
ENTITIES
  0
INSERT
  5
98
100
AcDbEntity
  8
0
  6
CONTINUOUS
100
AcDbBlockReference
  2
*X0
 10
0.0
 20
0.0
 30
0.0
  0
LINE
  5
99
100
AcDbEntity
  8
_X______
  6
CONTINUOUS
 62
         7
100
AcDbLine
 10
-9930.7705485269
 20
11785.2302093962
 30
0.0
 11
-9927.1108362096
 21
11782.667651244
 31
0.0
  0
LINE
  5
9A
100
AcDbEntity
  8
_X______
  6
CONTINUOUS
 62
         7
100
AcDbLine
 10
-9927.4263032496
 20
11782.2171176196
 30
0.0
 11
-9897.6362371423
 21
11761.3578887676
 31
0.0
  0
LINE
  5
9B
100
AcDbEntity
  8
_X______
  6
CONTINUOUS
 62
         7
100
AcDbLine
 10
-9930.2941854314
 20
11778.1213573982
 30
0.0
 11
-9904.5058704379
 21
11760.0641848421
 31
0.0
  0
LINE
  5
9C
100
AcDbEntity
  8
_X______
  6
CENTER
 62
         1
100
AcDbLine
 10
-9930.7705485269
 20
11781.5068469005
 30
0.0
 11
-9901.9948541314
 21
11761.3578887676
 31
0.0
  0
LINE
  5
9D
100
AcDbEntity
  8
_X______
  6
CONTINUOUS
 62
         7
100
AcDbLine
 10
-9927.1108362096
 20
11782.667651244
 30
0.0
 11
-9930.5809736495
 21
11777.7117813761
 31
0.0
  0
LINE
  5
9E
100
AcDbEntity
  8
_X______
  6
CONTINUOUS
 62
         7
100
AcDbLine
 10
-9923.04375481
 20
11779.75881146
 30
0.0
 11
-9926.4852134281
 21
11774.8438991943
 31
0.0
  0
LINE
  5
9F
100
AcDbEntity
  8
_X______
  6
CONTINUOUS
 62
         7
100
AcDbLine
 10
-9930.5809736495
 20
11777.7117813761
 30
0.0
 11
-9930.6955825716
 21
11777.5481028724
 31
0.0
  0
LINE
  5
A0
100
AcDbEntity
  8
_X______
  6
CONTINUOUS
 62
         7
100
AcDbLine
 10
-9930.7705485269
 20
11777.6078051929
 30
0.0
 11
-9930.6955825716
 21
11777.5481028724
 31
0.0
  0
LINE
  5
A1
100
AcDbEntity
  8
_X______
  6
CONTINUOUS
 62
         4
100
AcDbLine
 10
-9930.5809736495
 20
11777.7117813761
 30
0.0
 11
-9926.4852134281
 21
11774.8438991943
 31
0.0
  0
LINE
  5
A2
100
AcDbEntity
  8
_X______
  6
CONTINUOUS
 62
         4
100
AcDbLine
 10
-9927.1395150314
 20
11782.6266936418
 30
0.0
 11
-9923.04375481
 21
11779.75881146
 31
0.0
  0
LINE
  5
A3
100
AcDbEntity
  8
_X______
  6
CENTER
 62
         1
100
AcDbLine
 10
-10181.2852676399
 20
12026.2680856205
 30
0.0
 11
-10218.8326032918
 21
11923.1076287561
 31
0.0
  0
LINE
  5
A4
100
AcDbEntity
  8
_X______
  6
CENTER
 62
         1
100
AcDbLine
 10
-10179.9703021229
 20
12015.1551088818
 30
0.0
 11
-10189.3672283308
 21
12018.575310315
 31
0.0
  0
POLYLINE
  5
A6
100
AcDbEntity
  8
_X______
  6
CONTINUOUS
 62
         7
100
AcDb2dPolyline
 66
         1
 10
0.0
 20
0.0
 30
0.0
 70
         2
  0
VERTEX
  5
A8
100
AcDbEntity
  8
_X______
  6
CONTINUOUS
 62
         7
100
AcDbVertex
100
AcDb2dVertex
 10
-10183.4716947252
 20
12020.1541337711
 30
0.0
 70
         1
  0
VERTEX
  5
AA
100
AcDbEntity
  8
_X______
  6
CONTINUOUS
 62
         7
100
AcDbVertex
100
AcDb2dVertex
 10
-10183.8516957899
 20
12020.2471051161
 30
0.0
 70
         1
  0
VERTEX
  5
AC
100
AcDbEntity
  8
_X______
  6
CONTINUOUS
 62
         7
100
AcDbVertex
100
AcDb2dVertex
 10
-10184.0287644573
 20
12020.262106614
 30
0.0
 70
         1
  0
VERTEX
  5
AE
100
AcDbEntity
  8
_X______
  6
CONTINUOUS
 62
         7
100
AcDbVertex
100
AcDb2dVertex
 10
-10184.2133917274
 20
12020.2602734745
 30
0.0
 70
         1
  0
VERTEX
  5
B0
100
AcDbEntity
  8
_X______
  6
CONTINUOUS
 62
         7
100
AcDbVertex
100
AcDb2dVertex
 10
-10184.404398577
 20
12020.2404364234
 30
0.0
 70
         1
  0
VERTEX
  5
B2
100
AcDbEntity
  8
_X______
  6
CONTINUOUS
 62
         7
100
AcDbVertex
100
AcDb2dVertex
 10
-10184.6003833048
 20
12020.2016801521
 30
0.0
 70
         1
  0
VERTEX
  5
B4
100
AcDbEntity
  8
_X______
  6
CONTINUOUS
 62
         7
100
AcDbVertex
100
AcDb2dVertex
 10
-10184.7997459368
 20
12020.1433982929
 30
0.0
 70
         1
  0
VERTEX
  5
B6
100
AcDbEntity
  8
_X______
  6
CONTINUOUS
 62
         7
100
AcDbVertex
100
AcDb2dVertex
 10
-10185.0007251692
 20
12020.0653389324
 30
0.0
 70
         1
  0
VERTEX
  5
B8
100
AcDbEntity
  8
_X______
  6
CONTINUOUS
 62
         7
100
AcDbVertex
100
AcDb2dVertex
 10
-10185.201446696
 20
12019.96763637
 30
0.0
 70
         1
  0
VERTEX
  5
BA
100
AcDbEntity
  8
_X______
  6
CONTINUOUS
 62
         7
100
AcDbVertex
100
AcDb2dVertex
 10
-10185.3999805659
 20
12019.8508256134
 30
0.0
 70
         1
  0
VERTEX
  5
BC
100
AcDbEntity
  8
_X______
  6
CONTINUOUS
 62
         7
100
AcDbVertex
100
AcDb2dVertex
 10
-10185.5944041455
 20
12019.7158374
 30
0.0
 70
         1
  0
VERTEX
  5
BE
100
AcDbEntity
  8
_X______
  6
CONTINUOUS
 62
         7
100
AcDbVertex
100
AcDb2dVertex
 10
-10185.7828665162
 20
12019.563973217
 30
0.0
 70
         1
  0
VERTEX
  5
C0
100
AcDbEntity
  8
_X______
  6
CONTINUOUS
 62
         7
100
AcDbVertex
100
AcDb2dVertex
 10
-10186.0231953166
 20
12019.3367906664
 30
0.0
 70
         1
  0
VERTEX
  5
C2
100
AcDbEntity
  8
_X______
  6
CONTINUOUS
 62
         7
100
AcDbVertex
100
AcDb2dVertex
 10
-10186.2461553963
 20
12019.0868819903
 30
0.0
 70
         1
  0
VERTEX
  5
C4
100
AcDbEntity
  8
_X______
  6
CONTINUOUS
 62
         7
100
AcDbVertex
100
AcDb2dVertex
 10
-10186.4489337505
 20
12018.8194448782
 30
0.0
 70
         1
  0
VERTEX
  5
C6
100
AcDbEntity
  8
_X______
  6
CONTINUOUS
 62
         7
100
AcDbVertex
100
AcDb2dVertex
 10
-10186.6295933177
 20
12018.5398979431
 30
0.0
 70
         1
  0
VERTEX
  5
C8
100
AcDbEntity
  8
_X______
  6
CONTINUOUS
 62
         7
100
AcDbVertex
100
AcDb2dVertex
 10
-10186.787090592
 20
12018.2535654333
 30
0.0
 70
         1
  0
VERTEX
  5
CA
100
AcDbEntity
  8
_X______
  6
CONTINUOUS
 62
         7
100
AcDbVertex
100
AcDb2dVertex
 10
-10186.921220887
 20
12017.9654105987
 30
0.0
 70
         1
  0
VERTEX
  5
CC
100
AcDbEntity
  8
_X______
  6
CONTINUOUS
 62
         7
100
AcDbVertex
100
AcDb2dVertex
 10
-10187.0656199497
 20
12017.5831279227
 30
0.0
 70
         1
  0
VERTEX
  5
CE
100
AcDbEntity
  8
_X______
  6
CONTINUOUS
 62
         7
100
AcDbVertex
100
AcDb2dVertex
 10
-10187.1717427753
 20
12017.2141333123
 30
0.0
 70
         1
  0
VERTEX
  5
D0
100
AcDbEntity
  8
_X______
  6
CONTINUOUS
 62
         7
100
AcDbVertex
100
AcDb2dVertex
 10
-10187.2436898966
 20
12016.8647702719
 30
0.0
 70
         1
  0
VERTEX
  5
D2
100
AcDbEntity
  8
_X______
  6
CONTINUOUS
 62
         7
100
AcDbVertex
100
AcDb2dVertex
 10
-10187.2861844404
 20
12016.5391432339
 30
0.0
 70
         1
  0
VERTEX
  5
D4
100
AcDbEntity
  8
_X______
  6
CONTINUOUS
 62
         7
100
AcDbVertex
100
AcDb2dVertex
 10
-10187.3040785633
 20
12016.2394394404
 30
0.0
 70
         1
  0
VERTEX
  5
D6
100
AcDbEntity
  8
_X______
  6
CONTINUOUS
 62
         7
100
AcDbVertex
100
AcDb2dVertex
 10
-10187.3020057216
 20
12015.9663318267
 30
0.0
 70
         1
  0
VERTEX
  5
D8
100
AcDbEntity
  8
_X______
  6
CONTINUOUS
 62
         7
100
AcDbVertex
100
AcDb2dVertex
 10
-10187.2749924495
 20
12015.639683975
 30
0.0
 70
         1
  0
VERTEX
  5
DA
100
AcDbEntity
  8
_X______
  6
CONTINUOUS
 62
         7
100
AcDbVertex
100
AcDb2dVertex
 10
-10187.2280424377
 20
12015.3572995269
 30
0.0
 70
         1
  0
VERTEX
  5
DC
100
AcDbEntity
  8
_X______
  6
CONTINUOUS
 62
         7
100
AcDbVertex
100
AcDb2dVertex
 10
-10187.1680598845
 20
12015.1148210063
 30
0.0
 70
         1
  0
VERTEX
  5
DE
100
AcDbEntity
  8
_X______
  6
CONTINUOUS
 62
         7
100
AcDbVertex
100
AcDb2dVertex
 10
-10187.0753914665
 20
12014.842018424
 30
0.0
 70
         1
  0
VERTEX
  5
E0
100
AcDbEntity
  8
_X______
  6
CONTINUOUS
 62
         7
100
AcDbVertex
100
AcDb2dVertex
 10
-10186.9774367935
 20
12014.6218660807
 30
0.0
 70
         1
  0
VERTEX
  5
E2
100
AcDbEntity
  8
_X______
  6
CONTINUOUS
 62
         7
100
AcDbVertex
100
AcDb2dVertex
 10
-10186.8799151697
 20
12014.4441783557
 30
0.0
 70
         1
  0
VERTEX
  5
E4
100
AcDbEntity
  8
_X______
  6
CONTINUOUS
 62
         7
100
AcDbVertex
100
AcDb2dVertex
 10
-10186.7539760743
 20
12014.2558098982
 30
0.0
 70
         1
  0
VERTEX
  5
E6
100
AcDbEntity
  8
_X______
  6
CONTINUOUS
 62
         7
100
AcDbVertex
100
AcDb2dVertex
 10
-10186.6000376378
 20
12014.0702029584
 30
0.0
 70
         1
  0
VERTEX
  5
E8
100
AcDbEntity
  8
_X______
  6
CONTINUOUS
 62
         7
100
AcDbVertex
100
AcDb2dVertex
 10
-10186.4694127952
 20
12013.9415436487
 30
0.0
 70
         1
  0
VERTEX
  5
EA
100
AcDbEntity
  8
_X______
  6
CONTINUOUS
 62
         7
100
AcDbVertex
100
AcDb2dVertex
 10
-10186.3243862967
 20
12013.8231759997
 30
0.0
 70
         1
  0
VERTEX
  5
EC
100
AcDbEntity
  8
_X______
  6
CONTINUOUS
 62
         7
100
AcDbVertex
100
AcDb2dVertex
 10
-10186.176926372
 20
12013.7247583141
 30
0.0
 70
         1
  0
VERTEX
  5
EE
100
AcDbEntity
  8
_X______
  6
CONTINUOUS
 62
         7
100
AcDbVertex
100
AcDb2dVertex
 10
-10186.0001406802
 20
12013.6314446646
 30
0.0
 70
         1
  0
VERTEX
  5
F0
100
AcDbEntity
  8
_X______
  6
CONTINUOUS
 62
         7
100
AcDbVertex
100
AcDb2dVertex
 10
-10185.8658357285
 20
12013.5762854256
 30
0.0
 70
         1
  0
VERTEX
  5
F2
100
AcDbEntity
  8
_X______
  6
CONTINUOUS
 62
         7
100
AcDbVertex
100
AcDb2dVertex
 10
-10185.8658357285
 20
12013.5762854256
 30
0.0
 70
         1
  0
VERTEX
  5
F4
100
AcDbEntity
  8
_X______
  6
CONTINUOUS
 62
         7
100
AcDbVertex
100
AcDb2dVertex
 10
-10185.4858346638
 20
12013.4833140807
 30
0.0
 70
         1
  0
VERTEX
  5
F6
100
AcDbEntity
  8
_X______
  6
CONTINUOUS
 62
         7
100
AcDbVertex
100
AcDb2dVertex
 10
-10185.3087659965
 20
12013.4683125828
 30
0.0
 70
         1
  0
VERTEX
  5
F8
100
AcDbEntity
  8
_X______
  6
CONTINUOUS
 62
         7
100
AcDbVertex
100
AcDb2dVertex
 10
-10185.1241387264
 20
12013.4701457223
 30
0.0
 70
         1
  0
VERTEX
  5
FA
100
AcDbEntity
  8
_X______
  6
CONTINUOUS
 62
         7
100
AcDbVertex
100
AcDb2dVertex
 10
-10184.9331318767
 20
12013.4899827734
 30
0.0
 70
         1
  0
VERTEX
  5
FC
100
AcDbEntity
  8
_X______
  6
CONTINUOUS
 62
         7
100
AcDbVertex
100
AcDb2dVertex
 10
-10184.737147149
 20
12013.5287390447
 30
0.0
 70
         1
  0
VERTEX
  5
FE
100
AcDbEntity
  8
_X______
  6
CONTINUOUS
 62
         7
100
AcDbVertex
100
AcDb2dVertex
 10
-10184.5377845169
 20
12013.5870209039
 30
0.0
 70
         1
  0
VERTEX
  5
100
100
AcDbEntity
  8
_X______
  6
CONTINUOUS
 62
         7
100
AcDbVertex
100
AcDb2dVertex
 10
-10184.3368052845
 20
12013.6650802644
 30
0.0
 70
         1
  0
VERTEX
  5
102
100
AcDbEntity
  8
_X______
  6
CONTINUOUS
 62
         7
100
AcDbVertex
100
AcDb2dVertex
 10
-10184.1360837578
 20
12013.7627828268
 30
0.0
 70
         1
  0
VERTEX
  5
104
100
AcDbEntity
  8
_X______
  6
CONTINUOUS
 62
         7
100
AcDbVertex
100
AcDb2dVertex
 10
-10183.9375498878
 20
12013.8795935834
 30
0.0
 70
         1
  0
VERTEX
  5
106
100
AcDbEntity
  8
_X______
  6
CONTINUOUS
 62
         7
100
AcDbVertex
100
AcDb2dVertex
 10
-10183.7431263083
 20
12014.0145817968
 30
0.0
 70
         1
  0
VERTEX
  5
108
100
AcDbEntity
  8
_X______
  6
CONTINUOUS
 62
         7
100
AcDbVertex
100
AcDb2dVertex
 10
-10183.5546639376
 20
12014.1664459797
 30
0.0
 70
         1
  0
VERTEX
  5
10A
100
AcDbEntity
  8
_X______
  6
CONTINUOUS
 62
         7
100
AcDbVertex
100
AcDb2dVertex
 10
-10183.3143351372
 20
12014.3936285304
 30
0.0
 70
         1
  0
VERTEX
  5
10C
100
AcDbEntity
  8
_X______
  6
CONTINUOUS
 62
         7
100
AcDbVertex
100
AcDb2dVertex
 10
-10183.0913750575
 20
12014.6435372065
 30
0.0
 70
         1
  0
VERTEX
  5
10E
100
AcDbEntity
  8
_X______
  6
CONTINUOUS
 62
         7
100
AcDbVertex
100
AcDb2dVertex
 10
-10182.8885967032
 20
12014.9109743186
 30
0.0
 70
         1
  0
VERTEX
  5
110
100
AcDbEntity
  8
_X______
  6
CONTINUOUS
 62
         7
100
AcDbVertex
100
AcDb2dVertex
 10
-10182.707937136
 20
12015.1905212537
 30
0.0
 70
         1
  0
VERTEX
  5
112
100
AcDbEntity
  8
_X______
  6
CONTINUOUS
 62
         7
100
AcDbVertex
100
AcDb2dVertex
 10
-10182.5504398618
 20
12015.4768537635
 30
0.0
 70
         1
  0
VERTEX
  5
114
100
AcDbEntity
  8
_X______
  6
CONTINUOUS
 62
         7
100
AcDbVertex
100
AcDb2dVertex
 10
-10182.4163095667
 20
12015.7650085981
 30
0.0
 70
         1
  0
VERTEX
  5
116
100
AcDbEntity
  8
_X______
  6
CONTINUOUS
 62
         7
100
AcDbVertex
100
AcDb2dVertex
 10
-10182.2719105041
 20
12016.1472912741
 30
0.0
 70
         1
  0
VERTEX
  5
118
100
AcDbEntity
  8
_X______
  6
CONTINUOUS
 62
         7
100
AcDbVertex
100
AcDb2dVertex
 10
-10182.1657876785
 20
12016.5162858845
 30
0.0
 70
         1
  0
VERTEX
  5
11A
100
AcDbEntity
  8
_X______
  6
CONTINUOUS
 62
         7
100
AcDbVertex
100
AcDb2dVertex
 10
-10182.0938405572
 20
12016.8656489249
 30
0.0
 70
         1
  0
VERTEX
  5
11C
100
AcDbEntity
  8
_X______
  6
CONTINUOUS
 62
         7
100
AcDbVertex
100
AcDb2dVertex
 10
-10182.0513460134
 20
12017.1912759629
 30
0.0
 70
         1
  0
VERTEX
  5
11E
100
AcDbEntity
  8
_X______
  6
CONTINUOUS
 62
         7
100
AcDbVertex
100
AcDb2dVertex
 10
-10182.0334518905
 20
12017.4909797564
 30
0.0
 70
         1
  0
VERTEX
  5
120
100
AcDbEntity
  8
_X______
  6
CONTINUOUS
 62
         7
100
AcDbVertex
100
AcDb2dVertex
 10
-10182.0355247321
 20
12017.7640873701
 30
0.0
 70
         1
  0
VERTEX
  5
122
100
AcDbEntity
  8
_X______
  6
CONTINUOUS
 62
         7
100
AcDbVertex
100
AcDb2dVertex
 10
-10182.0625380042
 20
12018.0907352218
 30
0.0
 70
         1
  0
VERTEX
  5
124
100
AcDbEntity
  8
_X______
  6
CONTINUOUS
 62
         7
100
AcDbVertex
100
AcDb2dVertex
 10
-10182.1094880161
 20
12018.3731196699
 30
0.0
 70
         1
  0
VERTEX
  5
126
100
AcDbEntity
  8
_X______
  6
CONTINUOUS
 62
         7
100
AcDbVertex
100
AcDb2dVertex
 10
-10182.1694705693
 20
12018.6155981905
 30
0.0
 70
         1
  0
VERTEX
  5
128
100
AcDbEntity
  8
_X______
  6
CONTINUOUS
 62
         7
100
AcDbVertex
100
AcDb2dVertex
 10
-10182.2621389872
 20
12018.8884007728
 30
0.0
 70
         1
  0
VERTEX
  5
12A
100
AcDbEntity
  8
_X______
  6
CONTINUOUS
 62
         7
100
AcDbVertex
100
AcDb2dVertex
 10
-10182.3600936602
 20
12019.1085531161
 30
0.0
 70
         1
  0
VERTEX
  5
12C
100
AcDbEntity
  8
_X______
  6
CONTINUOUS
 62
         7
100
AcDbVertex
100
AcDb2dVertex
 10
-10182.457615284
 20
12019.286240841
 30
0.0
 70
         1
  0
VERTEX
  5
12E
100
AcDbEntity
  8
_X______
  6
CONTINUOUS
 62
         7
100
AcDbVertex
100
AcDb2dVertex
 10
-10182.5835543794
 20
12019.4746092985
 30
0.0
 70
         1
  0
VERTEX
  5
130
100
AcDbEntity
  8
_X______
  6
CONTINUOUS
 62
         7
100
AcDbVertex
100
AcDb2dVertex
 10
-10182.737492816
 20
12019.6602162384
 30
0.0
 70
         1
  0
VERTEX
  5
132
100
AcDbEntity
  8
_X______
  6
CONTINUOUS
 62
         7
100
AcDbVertex
100
AcDb2dVertex
 10
-10182.8681176585
 20
12019.7888755481
 30
0.0
 70
         1
  0
VERTEX
  5
134
100
AcDbEntity
  8
_X______
  6
CONTINUOUS
 62
         7
100
AcDbVertex
100
AcDb2dVertex
 10
-10183.013144157
 20
12019.9072431971
 30
0.0
 70
         1
  0
VERTEX
  5
136
100
AcDbEntity
  8
_X______
  6
CONTINUOUS
 62
         7
100
AcDbVertex
100
AcDb2dVertex
 10
-10183.1606040817
 20
12020.0056608827
 30
0.0
 70
         1
  0
VERTEX
  5
138
100
AcDbEntity
  8
_X______
  6
CONTINUOUS
 62
         7
100
AcDbVertex
100
AcDb2dVertex
 10
-10183.3373897735
 20
12020.0989745322
 30
0.0
 70
         1
  0
VERTEX
  5
13A
100
AcDbEntity
  8
_X______
  6
CONTINUOUS
 62
         7
100
AcDbVertex
100
AcDb2dVertex
 10
-10183.4716947252
 20
12020.1541337711
 30
0.0
 70
         1
  0
SEQEND
  5
13C
100
AcDbEntity
  8
_X______
  6
CONTINUOUS
 62
         7
  0
LINE
  5
13D
100
AcDbEntity
  8
_X______
  6
CENTER
 62
         1
100
AcDbLine
 10
-10208.0845878372
 20
11938.1253293236
 30
0.0
 11
-10217.4815140451
 21
11941.5455307569
 31
0.0
  0
POLYLINE
  5
13F
100
AcDbEntity
  8
_X______
  6
CONTINUOUS
 62
         7
100
AcDb2dPolyline
 66
         1
 10
0.0
 20
0.0
 30
0.0
 70
         2
  0
VERTEX
  5
141
100
AcDbEntity
  8
_X______
  6
CONTINUOUS
 62
         7
100
AcDbVertex
100
AcDb2dVertex
 10
-10211.5859804395
 20
11943.124354213
 30
0.0
 70
         1
  0
VERTEX
  5
143
100
AcDbEntity
  8
_X______
  6
CONTINUOUS
 62
         7
100
AcDbVertex
100
AcDb2dVertex
 10
-10211.9659815042
 20
11943.217325558
 30
0.0
 70
         1
  0
VERTEX
  5
145
100
AcDbEntity
  8
_X______
  6
CONTINUOUS
 62
         7
100
AcDbVertex
100
AcDb2dVertex
 10
-10212.1430501716
 20
11943.2323270558
 30
0.0
 70
         1
  0
VERTEX
  5
147
100
AcDbEntity
  8
_X______
  6
CONTINUOUS
 62
         7
100
AcDbVertex
100
AcDb2dVertex
 10
-10212.3276774417
 20
11943.2304939164
 30
0.0
 70
         1
  0
VERTEX
  5
149
100
AcDbEntity
  8
_X______
  6
CONTINUOUS
 62
         7
100
AcDbVertex
100
AcDb2dVertex
 10
-10212.5186842913
 20
11943.2106568653
 30
0.0
 70
         1
  0
VERTEX
  5
14B
100
AcDbEntity
  8
_X______
  6
CONTINUOUS
 62
         7
100
AcDbVertex
100
AcDb2dVertex
 10
-10212.714669019
 20
11943.1719005939
 30
0.0
 70
         1
  0
VERTEX
  5
14D
100
AcDbEntity
  8
_X______
  6
CONTINUOUS
 62
         7
100
AcDbVertex
100
AcDb2dVertex
 10
-10212.9140316511
 20
11943.1136187348
 30
0.0
 70
         1
  0
VERTEX
  5
14F
100
AcDbEntity
  8
_X______
  6
CONTINUOUS
 62
         7
100
AcDbVertex
100
AcDb2dVertex
 10
-10213.1150108835
 20
11943.0355593742
 30
0.0
 70
         1
  0
VERTEX
  5
151
100
AcDbEntity
  8
_X______
  6
CONTINUOUS
 62
         7
100
AcDbVertex
100
AcDb2dVertex
 10
-10213.3157324103
 20
11942.9378568119
 30
0.0
 70
         1
  0
VERTEX
  5
153
100
AcDbEntity
  8
_X______
  6
CONTINUOUS
 62
         7
100
AcDbVertex
100
AcDb2dVertex
 10
-10213.5142662802
 20
11942.8210460553
 30
0.0
 70
         1
  0
VERTEX
  5
155
100
AcDbEntity
  8
_X______
  6
CONTINUOUS
 62
         7
100
AcDbVertex
100
AcDb2dVertex
 10
-10213.7086898598
 20
11942.6860578418
 30
0.0
 70
         1
  0
VERTEX
  5
157
100
AcDbEntity
  8
_X______
  6
CONTINUOUS
 62
         7
100
AcDbVertex
100
AcDb2dVertex
 10
-10213.8971522305
 20
11942.5341936589
 30
0.0
 70
         1
  0
VERTEX
  5
159
100
AcDbEntity
  8
_X______
  6
CONTINUOUS
 62
         7
100
AcDbVertex
100
AcDb2dVertex
 10
-10214.1374810309
 20
11942.3070111083
 30
0.0
 70
         1
  0
VERTEX
  5
15B
100
AcDbEntity
  8
_X______
  6
CONTINUOUS
 62
         7
100
AcDbVertex
100
AcDb2dVertex
 10
-10214.3604411106
 20
11942.0571024322
 30
0.0
 70
         1
  0
VERTEX
  5
15D
100
AcDbEntity
  8
_X______
  6
CONTINUOUS
 62
         7
100
AcDbVertex
100
AcDb2dVertex
 10
-10214.5632194648
 20
11941.7896653201
 30
0.0
 70
         1
  0
VERTEX
  5
15F
100
AcDbEntity
  8
_X______
  6
CONTINUOUS
 62
         7
100
AcDbVertex
100
AcDb2dVertex
 10
-10214.743879032
 20
11941.510118385
 30
0.0
 70
         1
  0
VERTEX
  5
161
100
AcDbEntity
  8
_X______
  6
CONTINUOUS
 62
         7
100
AcDbVertex
100
AcDb2dVertex
 10
-10214.9013763063
 20
11941.2237858751
 30
0.0
 70
         1
  0
VERTEX
  5
163
100
AcDbEntity
  8
_X______
  6
CONTINUOUS
 62
         7
100
AcDbVertex
100
AcDb2dVertex
 10
-10215.0355066013
 20
11940.9356310405
 30
0.0
 70
         1
  0
VERTEX
  5
165
100
AcDbEntity
  8
_X______
  6
CONTINUOUS
 62
         7
100
AcDbVertex
100
AcDb2dVertex
 10
-10215.179905664
 20
11940.5533483646
 30
0.0
 70
         1
  0
VERTEX
  5
167
100
AcDbEntity
  8
_X______
  6
CONTINUOUS
 62
         7
100
AcDbVertex
100
AcDb2dVertex
 10
-10215.2860284896
 20
11940.1843537542
 30
0.0
 70
         1
  0
VERTEX
  5
169
100
AcDbEntity
  8
_X______
  6
CONTINUOUS
 62
         7
100
AcDbVertex
100
AcDb2dVertex
 10
-10215.3579756109
 20
11939.8349907138
 30
0.0
 70
         1
  0
VERTEX
  5
16B
100
AcDbEntity
  8
_X______
  6
CONTINUOUS
 62
         7
100
AcDbVertex
100
AcDb2dVertex
 10
-10215.4004701547
 20
11939.5093636757
 30
0.0
 70
         1
  0
VERTEX
  5
16D
100
AcDbEntity
  8
_X______
  6
CONTINUOUS
 62
         7
100
AcDbVertex
100
AcDb2dVertex
 10
-10215.4183642776
 20
11939.2096598823
 30
0.0
 70
         1
  0
VERTEX
  5
16F
100
AcDbEntity
  8
_X______
  6
CONTINUOUS
 62
         7
100
AcDbVertex
100
AcDb2dVertex
 10
-10215.4162914359
 20
11938.9365522686
 30
0.0
 70
         1
  0
VERTEX
  5
171
100
AcDbEntity
  8
_X______
  6
CONTINUOUS
 62
         7
100
AcDbVertex
100
AcDb2dVertex
 10
-10215.3892781638
 20
11938.6099044168
 30
0.0
 70
         1
  0
VERTEX
  5
173
100
AcDbEntity
  8
_X______
  6
CONTINUOUS
 62
         7
100
AcDbVertex
100
AcDb2dVertex
 10
-10215.342328152
 20
11938.3275199687
 30
0.0
 70
         1
  0
VERTEX
  5
175
100
AcDbEntity
  8
_X______
  6
CONTINUOUS
 62
         7
100
AcDbVertex
100
AcDb2dVertex
 10
-10215.2823455988
 20
11938.0850414482
 30
0.0
 70
         1
  0
VERTEX
  5
177
100
AcDbEntity
  8
_X______
  6
CONTINUOUS
 62
         7
100
AcDbVertex
100
AcDb2dVertex
 10
-10215.1896771808
 20
11937.8122388659
 30
0.0
 70
         1
  0
VERTEX
  5
179
100
AcDbEntity
  8
_X______
  6
CONTINUOUS
 62
         7
100
AcDbVertex
100
AcDb2dVertex
 10
-10215.0917225078
 20
11937.5920865226
 30
0.0
 70
         1
  0
VERTEX
  5
17B
100
AcDbEntity
  8
_X______
  6
CONTINUOUS
 62
         7
100
AcDbVertex
100
AcDb2dVertex
 10
-10214.994200884
 20
11937.4143987976
 30
0.0
 70
         1
  0
VERTEX
  5
17D
100
AcDbEntity
  8
_X______
  6
CONTINUOUS
 62
         7
100
AcDbVertex
100
AcDb2dVertex
 10
-10214.8682617886
 20
11937.2260303401
 30
0.0
 70
         1
  0
VERTEX
  5
17F
100
AcDbEntity
  8
_X______
  6
CONTINUOUS
 62
         7
100
AcDbVertex
100
AcDb2dVertex
 10
-10214.714323352
 20
11937.0404234003
 30
0.0
 70
         1
  0
VERTEX
  5
181
100
AcDbEntity
  8
_X______
  6
CONTINUOUS
 62
         7
100
AcDbVertex
100
AcDb2dVertex
 10
-10214.5836985095
 20
11936.9117640906
 30
0.0
 70
         1
  0
VERTEX
  5
183
100
AcDbEntity
  8
_X______
  6
CONTINUOUS
 62
         7
100
AcDbVertex
100
AcDb2dVertex
 10
-10214.438672011
 20
11936.7933964415
 30
0.0
 70
         1
  0
VERTEX
  5
185
100
AcDbEntity
  8
_X______
  6
CONTINUOUS
 62
         7
100
AcDbVertex
100
AcDb2dVertex
 10
-10214.2912120863
 20
11936.694978756
 30
0.0
 70
         1
  0
VERTEX
  5
187
100
AcDbEntity
  8
_X______
  6
CONTINUOUS
 62
         7
100
AcDbVertex
100
AcDb2dVertex
 10
-10214.1144263945
 20
11936.6016651065
 30
0.0
 70
         1
  0
VERTEX
  5
189
100
AcDbEntity
  8
_X______
  6
CONTINUOUS
 62
         7
100
AcDbVertex
100
AcDb2dVertex
 10
-10213.9801214428
 20
11936.5465058675
 30
0.0
 70
         1
  0
VERTEX
  5
18B
100
AcDbEntity
  8
_X______
  6
CONTINUOUS
 62
         7
100
AcDbVertex
100
AcDb2dVertex
 10
-10213.9801214428
 20
11936.5465058675
 30
0.0
 70
         1
  0
VERTEX
  5
18D
100
AcDbEntity
  8
_X______
  6
CONTINUOUS
 62
         7
100
AcDbVertex
100
AcDb2dVertex
 10
-10213.6001203781
 20
11936.4535345225
 30
0.0
 70
         1
  0
VERTEX
  5
18F
100
AcDbEntity
  8
_X______
  6
CONTINUOUS
 62
         7
100
AcDbVertex
100
AcDb2dVertex
 10
-10213.4230517108
 20
11936.4385330247
 30
0.0
 70
         1
  0
VERTEX
  5
191
100
AcDbEntity
  8
_X______
  6
CONTINUOUS
 62
         7
100
AcDbVertex
100
AcDb2dVertex
 10
-10213.2384244406
 20
11936.4403661641
 30
0.0
 70
         1
  0
VERTEX
  5
193
100
AcDbEntity
  8
_X______
  6
CONTINUOUS
 62
         7
100
AcDbVertex
100
AcDb2dVertex
 10
-10213.047417591
 20
11936.4602032152
 30
0.0
 70
         1
  0
VERTEX
  5
195
100
AcDbEntity
  8
_X______
  6
CONTINUOUS
 62
         7
100
AcDbVertex
100
AcDb2dVertex
 10
-10212.8514328633
 20
11936.4989594866
 30
0.0
 70
         1
  0
VERTEX
  5
197
100
AcDbEntity
  8
_X______
  6
CONTINUOUS
 62
         7
100
AcDbVertex
100
AcDb2dVertex
 10
-10212.6520702312
 20
11936.5572413458
 30
0.0
 70
         1
  0
VERTEX
  5
199
100
AcDbEntity
  8
_X______
  6
CONTINUOUS
 62
         7
100
AcDbVertex
100
AcDb2dVertex
 10
-10212.4510909988
 20
11936.6353007063
 30
0.0
 70
         1
  0
VERTEX
  5
19B
100
AcDbEntity
  8
_X______
  6
CONTINUOUS
 62
         7
100
AcDbVertex
100
AcDb2dVertex
 10
-10212.2503694721
 20
11936.7330032686
 30
0.0
 70
         1
  0
VERTEX
  5
19D
100
AcDbEntity
  8
_X______
  6
CONTINUOUS
 62
         7
100
AcDbVertex
100
AcDb2dVertex
 10
-10212.0518356021
 20
11936.8498140253
 30
0.0
 70
         1
  0
VERTEX
  5
19F
100
AcDbEntity
  8
_X______
  6
CONTINUOUS
 62
         7
100
AcDbVertex
100
AcDb2dVertex
 10
-10211.8574120226
 20
11936.9848022387
 30
0.0
 70
         1
  0
VERTEX
  5
1A1
100
AcDbEntity
  8
_X______
  6
CONTINUOUS
 62
         7
100
AcDbVertex
100
AcDb2dVertex
 10
-10211.6689496518
 20
11937.1366664216
 30
0.0
 70
         1
  0
VERTEX
  5
1A3
100
AcDbEntity
  8
_X______
  6
CONTINUOUS
 62
         7
100
AcDbVertex
100
AcDb2dVertex
 10
-10211.4286208515
 20
11937.3638489722
 30
0.0
 70
         1
  0
VERTEX
  5
1A5
100
AcDbEntity
  8
_X______
  6
CONTINUOUS
 62
         7
100
AcDbVertex
100
AcDb2dVertex
 10
-10211.2056607717
 20
11937.6137576483
 30
0.0
 70
         1
  0
VERTEX
  5
1A7
100
AcDbEntity
  8
_X______
  6
CONTINUOUS
 62
         7
100
AcDbVertex
100
AcDb2dVertex
 10
-10211.0028824175
 20
11937.8811947604
 30
0.0
 70
         1
  0
VERTEX
  5
1A9
100
AcDbEntity
  8
_X______
  6
CONTINUOUS
 62
         7
100
AcDbVertex
100
AcDb2dVertex
 10
-10210.8222228503
 20
11938.1607416955
 30
0.0
 70
         1
  0
VERTEX
  5
1AB
100
AcDbEntity
  8
_X______
  6
CONTINUOUS
 62
         7
100
AcDbVertex
100
AcDb2dVertex
 10
-10210.6647255761
 20
11938.4470742054
 30
0.0
 70
         1
  0
VERTEX
  5
1AD
100
AcDbEntity
  8
_X______
  6
CONTINUOUS
 62
         7
100
AcDbVertex
100
AcDb2dVertex
 10
-10210.530595281
 20
11938.73522904
 30
0.0
 70
         1
  0
VERTEX
  5
1AF
100
AcDbEntity
  8
_X______
  6
CONTINUOUS
 62
         7
100
AcDbVertex
100
AcDb2dVertex
 10
-10210.3861962184
 20
11939.1175117159
 30
0.0
 70
         1
  0
VERTEX
  5
1B1
100
AcDbEntity
  8
_X______
  6
CONTINUOUS
 62
         7
100
AcDbVertex
100
AcDb2dVertex
 10
-10210.2800733928
 20
11939.4865063263
 30
0.0
 70
         1
  0
VERTEX
  5
1B3
100
AcDbEntity
  8
_X______
  6
CONTINUOUS
 62
         7
100
AcDbVertex
100
AcDb2dVertex
 10
-10210.2081262715
 20
11939.8358693667
 30
0.0
 70
         1
  0
VERTEX
  5
1B5
100
AcDbEntity
  8
_X______
  6
CONTINUOUS
 62
         7
100
AcDbVertex
100
AcDb2dVertex
 10
-10210.1656317277
 20
11940.1614964048
 30
0.0
 70
         1
  0
VERTEX
  5
1B7
100
AcDbEntity
  8
_X______
  6
CONTINUOUS
 62
         7
100
AcDbVertex
100
AcDb2dVertex
 10
-10210.1477376048
 20
11940.4612001982
 30
0.0
 70
         1
  0
VERTEX
  5
1B9
100
AcDbEntity
  8
_X______
  6
CONTINUOUS
 62
         7
100
AcDbVertex
100
AcDb2dVertex
 10
-10210.1498104464
 20
11940.7343078119
 30
0.0
 70
         1
  0
VERTEX
  5
1BB
100
AcDbEntity
  8
_X______
  6
CONTINUOUS
 62
         7
100
AcDbVertex
100
AcDb2dVertex
 10
-10210.1768237185
 20
11941.0609556637
 30
0.0
 70
         1
  0
VERTEX
  5
1BD
100
AcDbEntity
  8
_X______
  6
CONTINUOUS
 62
         7
100
AcDbVertex
100
AcDb2dVertex
 10
-10210.2237737304
 20
11941.3433401118
 30
0.0
 70
         1
  0
VERTEX
  5
1BF
100
AcDbEntity
  8
_X______
  6
CONTINUOUS
 62
         7
100
AcDbVertex
100
AcDb2dVertex
 10
-10210.2837562836
 20
11941.5858186323
 30
0.0
 70
         1
  0
VERTEX
  5
1C1
100
AcDbEntity
  8
_X______
  6
CONTINUOUS
 62
         7
100
AcDbVertex
100
AcDb2dVertex
 10
-10210.3764247015
 20
11941.8586212146
 30
0.0
 70
         1
  0
VERTEX
  5
1C3
100
AcDbEntity
  8
_X______
  6
CONTINUOUS
 62
         7
100
AcDbVertex
100
AcDb2dVertex
 10
-10210.4743793745
 20
11942.0787735579
 30
0.0
 70
         1
  0
VERTEX
  5
1C5
100
AcDbEntity
  8
_X______
  6
CONTINUOUS
 62
         7
100
AcDbVertex
100
AcDb2dVertex
 10
-10210.5719009983
 20
11942.2564612829
 30
0.0
 70
         1
  0
VERTEX
  5
1C7
100
AcDbEntity
  8
_X______
  6
CONTINUOUS
 62
         7
100
AcDbVertex
100
AcDb2dVertex
 10
-10210.6978400937
 20
11942.4448297404
 30
0.0
 70
         1
  0
VERTEX
  5
1C9
100
AcDbEntity
  8
_X______
  6
CONTINUOUS
 62
         7
100
AcDbVertex
100
AcDb2dVertex
 10
-10210.8517785303
 20
11942.6304366802
 30
0.0
 70
         1
  0
VERTEX
  5
1CB
100
AcDbEntity
  8
_X______
  6
CONTINUOUS
 62
         7
100
AcDbVertex
100
AcDb2dVertex
 10
-10210.9824033728
 20
11942.7590959899
 30
0.0
 70
         1
  0
VERTEX
  5
1CD
100
AcDbEntity
  8
_X______
  6
CONTINUOUS
 62
         7
100
AcDbVertex
100
AcDb2dVertex
 10
-10211.1274298713
 20
11942.877463639
 30
0.0
 70
         1
  0
VERTEX
  5
1CF
100
AcDbEntity
  8
_X______
  6
CONTINUOUS
 62
         7
100
AcDbVertex
100
AcDb2dVertex
 10
-10211.274889796
 20
11942.9758813245
 30
0.0
 70
         1
  0
VERTEX
  5
1D1
100
AcDbEntity
  8
_X______
  6
CONTINUOUS
 62
         7
100
AcDbVertex
100
AcDb2dVertex
 10
-10211.4516754878
 20
11943.069194974
 30
0.0
 70
         1
  0
VERTEX
  5
1D3
100
AcDbEntity
  8
_X______
  6
CONTINUOUS
 62
         7
100
AcDbVertex
100
AcDb2dVertex
 10
-10211.5859804395
 20
11943.124354213
 30
0.0
 70
         1
  0
SEQEND
  5
1D5
100
AcDbEntity
  8
_X______
  6
CONTINUOUS
 62
         7
  0
LINE
  5
1D6
100
AcDbEntity
  8
_X______
  6
DASHED
 62
         2
100
AcDbLine
 10
-9603.1243876525
 20
12013.8964862362
 30
0.0
 11
-9605.0096927991
 21
12019.063267101
 31
0.0
  0
LINE
  5
1D7
100
AcDbEntity
  8
_X______
  6
DASHED
 62
         2
100
AcDbLine
 10
-9607.8214611659
 20
12012.1825724666
 30
0.0
 11
-9609.7067663125
 21
12017.3493533314
 31
0.0
  0
LINE
  5
1D8
100
AcDbEntity
  8
_X______
  6
DASHED
 62
         2
100
AcDbLine
 10
-9607.8214611659
 20
12012.1825724666
 30
0.0
 11
-9603.1243876525
 21
12013.8964862362
 31
0.0
  0
LINE
  5
1D9
100
AcDbEntity
  8
_X______
  6
DASHED
 62
         2
100
AcDbLine
 10
-9595.2250109927
 20
11991.2267617897
 30
0.0
 11
-9603.4531827985
 21
12013.7765122723
 31
0.0
  0
LINE
  5
1DA
100
AcDbEntity
  8
_X______
  6
DASHED
 62
         2
100
AcDbLine
 10
-9599.2644942143
 20
11989.7527959479
 30
0.0
 11
-9607.49266602
 21
12012.3025464305
 31
0.0
  0
LINE
  5
1DB
100
AcDbEntity
  8
_X______
  6
DASHED
 62
         2
100
AcDbLine
 10
-9580.6206851404
 20
11937.6373725377
 30
0.0
 11
-9582.505990287
 21
11942.8041534025
 31
0.0
  0
LINE
  5
1DC
100
AcDbEntity
  8
_X______
  6
DASHED
 62
         2
100
AcDbLine
 10
-9575.923611627
 20
11939.3512863073
 30
0.0
 11
-9577.8089167735
 21
11944.518067172
 31
0.0
  0
LINE
  5
1DD
100
AcDbEntity
  8
_X______
  6
DASHED
 62
         2
100
AcDbLine
 10
-9582.505990287
 20
11942.8041534025
 30
0.0
 11
-9577.8089167735
 21
11944.518067172
 31
0.0
  0
LINE
  5
1DE
100
AcDbEntity
  8
_X______
  6
DASHED
 62
         2
100
AcDbLine
 10
-9578.1377119195
 20
11944.3980932082
 30
0.0
 11
-9586.3658837252
 21
11966.9478436907
 31
0.0
  0
LINE
  5
1DF
100
AcDbEntity
  8
_X______
  6
DASHED
 62
         2
100
AcDbLine
 10
-9582.177195141
 20
11942.9241273663
 30
0.0
 11
-9590.4053669468
 21
11965.4738778489
 31
0.0
  0
LINE
  5
1E0
100
AcDbEntity
  8
_X______
  6
CENTER
 62
         1
100
AcDbLine
 10
-9574.9131355299
 20
11929.2887727679
 30
0.0
 11
-9612.6688881513
 21
12032.7604577297
 31
0.0
  0
LINE
  5
1E1
100
AcDbEntity
  8
L1_
  6
CENTER
 62
         1
100
AcDbLine
 10
-9937.1230399453
 20
11978.3503198193
 30
0.0
 11
-9816.2564252384
 21
11978.3503198193
 31
0.0
  0
LINE
  5
1E2
100
AcDbEntity
  8
L1_
  6
CENTER
 62
         1
100
AcDbLine
 10
-9620.6495467622
 20
11978.3503198193
 30
0.0
 11
-9565.3291195705
 21
11978.3503198193
 31
0.0
  0
LINE
  5
1E3
100
AcDbEntity
  8
L1_
  6
CENTER
 62
         1
100
AcDbLine
 10
-9592.8151889697
 20
12013.1253198193
 30
0.0
 11
-9592.8151889697
 21
11943.5753198193
 31
0.0
  0
LINE
  5
1E4
100
AcDbEntity
  8
L1_
  6
CENTER
 62
         1
100
AcDbLine
 10
-10005.2182815023
 20
11739.3578887676
 30
0.0
 11
-9817.7629112637
 21
11739.3578887676
 31
0.0
  0
LINE
  5
1E5
100
AcDbEntity
  8
L1_
  6
CONTINUOUS
 62
         7
100
AcDbLine
 10
-9930.8105485269
 20
12027.4253198193
 30
0.0
 11
-9930.8105485269
 21
11929.2753198193
 31
0.0
  0
LINE
  5
1E6
100
AcDbEntity
  8
L1_
  6
CENTER
 62
         1
100
AcDbLine
 10
-9933.7705485269
 20
12013.3511131409
 30
0.0
 11
-9933.7705485269
 21
11943.3495264978
 31
0.0
  0
LINE
  5
1E7
100
AcDbEntity
  8
L1_
  6
CONTINUOUS
 62
         7
100
AcDbLine
 10
-10035.5655485269
 20
11997.6398871552
 30
0.0
 11
-10035.5655485269
 21
11959.0607524834
 31
0.0
  0
LINE
  5
1E8
100
AcDbEntity
  8
_Y__________
  6
CONTINUOUS
 62
         7
100
AcDbLine
 10
-9930.7705485269
 20
11691.3578887676
 30
0.0
 11
-9930.7705485269
 21
11690.3578887676
 31
0.0
  0
ARC
  5
1E9
100
AcDbEntity
  8
_Y__________
  6
CONTINUOUS
 62
         7
100
AcDbCircle
 10
-9929.7705485269
 20
11690.3578887676
 30
0.0
 40
1.0
100
AcDbArc
 50
180.0
 51
270.0
  0
LINE
  5
1EA
100
AcDbEntity
  8
_Y__________
  6
CONTINUOUS
 62
         7
100
AcDbLine
 10
-9929.7705485269
 20
11689.3578887676
 30
0.0
 11
-9928.7705485269
 21
11689.3578887676
 31
0.0
  0
LINE
  5
1EB
100
AcDbEntity
  8
_Y__________
  6
CONTINUOUS
 62
         7
100
AcDbLine
 10
-9895.7705485269
 20
11705.8578887676
 30
0.0
 11
-9895.7705485269
 21
11690.3578887676
 31
0.0
  0
LINE
  5
1EC
100
AcDbEntity
  8
_Y__________
  6
CONTINUOUS
 62
         7
100
AcDbLine
 10
-9897.7705485269
 20
11689.3578887676
 30
0.0
 11
-9896.7705485269
 21
11689.3578887676
 31
0.0
  0
ARC
  5
1ED
100
AcDbEntity
  8
_Y__________
  6
CONTINUOUS
 62
         7
100
AcDbCircle
 10
-9896.7705485269
 20
11690.3578887676
 30
0.0
 40
1.0
100
AcDbArc
 50
270.0
 51
360.0
  0
LINE
  5
1EE
100
AcDbEntity
  8
_Y__________
  6
CONTINUOUS
 62
         7
100
AcDbLine
 10
-9929.7705485269
 20
11789.3578887676
 30
0.0
 11
-9928.7705485269
 21
11789.3578887676
 31
0.0
  0
ARC
  5
1EF
100
AcDbEntity
  8
_Y__________
  6
CONTINUOUS
 62
         7
100
AcDbCircle
 10
-9929.7705485269
 20
11788.3578887676
 30
0.0
 40
1.0
100
AcDbArc
 50
90.0
 51
180.0
  0
LINE
  5
1F0
100
AcDbEntity
  8
_Y__________
  6
CONTINUOUS
 62
         7
100
AcDbLine
 10
-9930.7705485269
 20
11788.3578887676
 30
0.0
 11
-9930.7705485269
 21
11787.3578887676
 31
0.0
  0
LINE
  5
1F1
100
AcDbEntity
  8
_Y__________
  6
CONTINUOUS
 62
         7
100
AcDbLine
 10
-9895.7705485269
 20
11788.3578887676
 30
0.0
 11
-9895.7705485269
 21
11772.8578887676
 31
0.0
  0
ARC
  5
1F2
100
AcDbEntity
  8
_Y__________
  6
CONTINUOUS
 62
         7
100
AcDbCircle
 10
-9896.7705485269
 20
11788.3578887676
 30
0.0
 40
1.0
100
AcDbArc
 50
0.0
 51
90.0
  0
LINE
  5
1F3
100
AcDbEntity
  8
_Y__________
  6
CONTINUOUS
 62
         7
100
AcDbLine
 10
-9897.7705485269
 20
11789.3578887676
 30
0.0
 11
-9896.7705485269
 21
11789.3578887676
 31
0.0
  0
LINE
  5
1F4
100
AcDbEntity
  8
_Y__________
  6
CONTINUOUS
 62
         7
100
AcDbLine
 10
-9930.8105485269
 20
11930.2753198193
 30
0.0
 11
-9930.8105485269
 21
11929.2753198193
 31
0.0
  0
LINE
  5
1F5
100
AcDbEntity
  8
_Y__________
  6
CONTINUOUS
 62
         7
100
AcDbLine
 10
-9895.7705485269
 20
11930.2753198193
 30
0.0
 11
-9895.7705485269
 21
11929.2753198193
 31
0.0
  0
ARC
  5
1F6
100
AcDbEntity
  8
_Y__________
  6
CONTINUOUS
 62
         7
100
AcDbCircle
 10
-9929.8105485269
 20
11929.2753198193
 30
0.0
 40
1.0
100
AcDbArc
 50
180.0
 51
270.0
  0
LINE
  5
1F7
100
AcDbEntity
  8
_Y__________
  6
CONTINUOUS
 62
         7
100
AcDbLine
 10
-9929.8105485269
 20
11928.2753198193
 30
0.0
 11
-9928.8105485269
 21
11928.2753198193
 31
0.0
  0
LINE
  5
1F8
100
AcDbEntity
  8
_Y__________
  6
CONTINUOUS
 62
         7
100
AcDbLine
 10
-9897.7705485269
 20
11928.2753198193
 30
0.0
 11
-9896.7705485269
 21
11928.2753198193
 31
0.0
  0
ARC
  5
1F9
100
AcDbEntity
  8
_Y__________
  6
CONTINUOUS
 62
         7
100
AcDbCircle
 10
-9896.7705485269
 20
11929.2753198193
 30
0.0
 40
1.0
100
AcDbArc
 50
270.0
 51
360.0
  0
LINE
  5
1FA
100
AcDbEntity
  8
_Y__________
  6
CONTINUOUS
 62
         7
100
AcDbLine
 10
-9895.7705485269
 20
12027.4253198193
 30
0.0
 11
-9895.7705485269
 21
12026.4253198193
 31
0.0
  0
ARC
  5
1FB
100
AcDbEntity
  8
_Y__________
  6
CONTINUOUS
 62
         7
100
AcDbCircle
 10
-9896.7705485269
 20
12027.4253198193
 30
0.0
 40
1.0
100
AcDbArc
 50
0.0
 51
90.0
  0
LINE
  5
1FC
100
AcDbEntity
  8
_Y__________
  6
CONTINUOUS
 62
         7
100
AcDbLine
 10
-9897.7705485269
 20
12028.4253198193
 30
0.0
 11
-9896.7705485269
 21
12028.4253198193
 31
0.0
  0
LINE
  5
1FD
100
AcDbEntity
  8
_Y__________
  6
CONTINUOUS
 62
         7
100
AcDbLine
 10
-9929.8105485269
 20
12028.4253198193
 30
0.0
 11
-9928.8105485269
 21
12028.4253198193
 31
0.0
  0
ARC
  5
1FE
100
AcDbEntity
  8
_Y__________
  6
CONTINUOUS
 62
         7
100
AcDbCircle
 10
-9929.8105485269
 20
12027.4253198193
 30
0.0
 40
1.0
100
AcDbArc
 50
90.0
 51
180.0
  0
LINE
  5
1FF
100
AcDbEntity
  8
_Y__________
  6
CONTINUOUS
 62
         7
100
AcDbLine
 10
-9930.8105485269
 20
12027.4253198193
 30
0.0
 11
-9930.8105485269
 21
12026.4253198193
 31
0.0
  0
LINE
  5
200
100
AcDbEntity
  8
_Y__________
  6
DASHED
 62
         2
100
AcDbLine
 10
-9628.2151889697
 20
11966.3003198193
 30
0.0
 11
-9629.0151889697
 21
11965.5003198193
 31
0.0
  0
LINE
  5
201
100
AcDbEntity
  8
_Y__________
  6
DASHED
 62
         2
100
AcDbLine
 10
-9628.2151889697
 20
11990.4003198193
 30
0.0
 11
-9629.0151889697
 21
11991.2003198193
 31
0.0
  0
LINE
  5
202
100
AcDbEntity
  8
_Y__________
  6
DASHED
 62
         2
100
AcDbLine
 10
-9557.4151889697
 20
11990.4003198193
 30
0.0
 11
-9556.6151889697
 21
11991.2003198193
 31
0.0
  0
LINE
  5
203
100
AcDbEntity
  8
_Y__________
  6
CONTINUOUS
 62
         2
100
AcDbLine
 10
-9556.6151889697
 20
11965.5003198193
 30
0.0
 11
-9557.4151889697
 21
11966.3003198193
 31
0.0
  0
LINE
  5
204
100
AcDbEntity
  8
_Y__________
  6
DASHED
 62
         2
100
AcDbLine
 10
-9557.4151889697
 20
11990.4003198193
 30
0.0
 11
-9557.4151889697
 21
11966.3003198193
 31
0.0
  0
LINE
  5
205
100
AcDbEntity
  8
_Y__________
  6
DASHED
 62
         2
100
AcDbLine
 10
-9545.5301226168
 20
11965.5003198193
 30
0.0
 11
-9544.771693052
 21
11964.5003198193
 31
0.0
  0
LINE
  5
206
100
AcDbEntity
  8
_Y__________
  6
DASHED
 62
         2
100
AcDbLine
 10
-9545.5301226168
 20
11965.5003198193
 30
0.0
 11
-9556.6151889697
 21
11965.5003198193
 31
0.0
  0
LINE
  5
207
100
AcDbEntity
  8
_Y__________
  6
DASHED
 62
         2
100
AcDbLine
 10
-9545.5301226168
 20
11991.2003198193
 30
0.0
 11
-9544.771693052
 21
11992.2003198193
 31
0.0
  0
LINE
  5
208
100
AcDbEntity
  8
_Y__________
  6
DASHED
 62
         2
100
AcDbLine
 10
-9545.5301226168
 20
11991.2003198193
 30
0.0
 11
-9556.6151889697
 21
11991.2003198193
 31
0.0
  0
LINE
  5
209
100
AcDbEntity
  8
_Y__________
  6
DASHED
 62
         2
100
AcDbLine
 10
-9628.2151889697
 20
11990.4003198193
 30
0.0
 11
-9628.2151889697
 21
11966.3003198193
 31
0.0
  0
LINE
  5
20A
100
AcDbEntity
  8
_Y__________
  6
DASHED
 62
         2
100
AcDbLine
 10
-9640.1002553227
 20
11965.5003198193
 30
0.0
 11
-9640.8586848875
 21
11964.5003198193
 31
0.0
  0
LINE
  5
20B
100
AcDbEntity
  8
_Y__________
  6
DASHED
 62
         2
100
AcDbLine
 10
-9640.1002553227
 20
11965.5003198193
 30
0.0
 11
-9629.0151889697
 21
11965.5003198193
 31
0.0
  0
LINE
  5
20C
100
AcDbEntity
  8
_Y__________
  6
DASHED
 62
         2
100
AcDbLine
 10
-9640.1002553227
 20
11991.2003198193
 30
0.0
 11
-9640.8586848875
 21
11992.2003198193
 31
0.0
  0
LINE
  5
20D
100
AcDbEntity
  8
_Y__________
  6
DASHED
 62
         2
100
AcDbLine
 10
-9640.1002553227
 20
11991.2003198193
 30
0.0
 11
-9629.0151889697
 21
11991.2003198193
 31
0.0
  0
ARC
  5
20E
100
AcDbEntity
  8
_Y__________
  6
DASHED
 62
         2
100
AcDbCircle
 10
-9592.8151889697
 20
11978.3503198193
 30
0.0
 40
42.5
100
AcDbArc
 50
197.5989811731
 51
342.4010188269
  0
ARC
  5
20F
100
AcDbEntity
  8
_Y__________
  6
DASHED
 62
         2
100
AcDbCircle
 10
-9592.8151889697
 20
11978.3503198193
 30
0.0
 40
42.5
100
AcDbArc
 50
17.5989811731
 51
162.4010188269
  0
CIRCLE
  5
210
100
AcDbEntity
  8
_Y__________
  6
CONTINUOUS
 62
         7
100
AcDbCircle
 10
-9592.8151889697
 20
11978.3503198193
 30
0.0
 40
50.0
  0
LINE
  5
211
100
AcDbEntity
  8
_Y__________
  6
CENTER
 62
         1
100
AcDbLine
 10
-9592.8151889697
 20
12033.3503198193
 30
0.0
 11
-9592.8151889697
 21
11923.3503198193
 31
0.0
  0
LINE
  5
212
100
AcDbEntity
  8
_Y__________
  6
CENTER
 62
         1
100
AcDbLine
 10
-9537.8151889697
 20
11978.3503198193
 30
0.0
 11
-9647.8151889697
 21
11978.3503198193
 31
0.0
  0
LINE
  5
213
100
AcDbEntity
  8
_Y__________
  6
CONTINUOUS
 62
         7
100
AcDbLine
 10
-10163.325908084
 20
11966.3003198193
 30
0.0
 11
-10162.525908084
 21
11965.5003198193
 31
0.0
  0
LINE
  5
214
100
AcDbEntity
  8
_Y__________
  6
CONTINUOUS
 62
         7
100
AcDbLine
 10
-10162.525908084
 20
11991.2003198193
 30
0.0
 11
-10163.325908084
 21
11990.4003198193
 31
0.0
  0
LINE
  5
215
100
AcDbEntity
  8
_Y__________
  6
CONTINUOUS
 62
         7
100
AcDbLine
 10
-10234.125908084
 20
11966.3003198193
 30
0.0
 11
-10234.925908084
 21
11965.5003198193
 31
0.0
  0
LINE
  5
216
100
AcDbEntity
  8
_Y__________
  6
CONTINUOUS
 62
         7
100
AcDbLine
 10
-10234.925908084
 20
11991.2003198193
 30
0.0
 11
-10234.125908084
 21
11990.4003198193
 31
0.0
  0
CIRCLE
  5
217
100
AcDbEntity
  8
_Y__________
  6
CONTINUOUS
 62
         7
100
AcDbCircle
 10
-10198.725908084
 20
11978.3503198193
 30
0.0
 40
34.9979162659
  0
CIRCLE
  5
218
100
AcDbEntity
  8
_Y__________
  6
CONTINUOUS
 62
         7
100
AcDbCircle
 10
-10198.725908084
 20
11978.3503198193
 30
0.0
 40
50.0
  0
LINE
  5
219
100
AcDbEntity
  8
_Y__________
  6
CENTER
 62
         1
100
AcDbLine
 10
-10198.725908084
 20
12033.3503198193
 30
0.0
 11
-10198.725908084
 21
11923.3503198193
 31
0.0
  0
LINE
  5
21A
100
AcDbEntity
  8
_Y__________
  6
CENTER
 62
         1
100
AcDbLine
 10
-10143.725908084
 20
11978.3503198193
 30
0.0
 11
-10253.725908084
 21
11978.3503198193
 31
0.0
  0
CIRCLE
  5
21B
100
AcDbEntity
  8
_Y__________
  6
CONTINUOUS
 62
         7
100
AcDbCircle
 10
-10198.725908084
 20
11978.3503198193
 30
0.0
 40
20.0792482659
  0
LINE
  5
21C
100
AcDbEntity
  8
_Y__________
  6
CONTINUOUS
 62
         7
100
AcDbLine
 10
-10247.0464782379
 20
11991.2003198193
 30
0.0
 11
-10234.925908084
 21
11991.2003198193
 31
0.0
  0
LINE
  5
21D
100
AcDbEntity
  8
_Y__________
  6
CONTINUOUS
 62
         7
100
AcDbLine
 10
-10247.0464782379
 20
11965.5003198193
 30
0.0
 11
-10234.925908084
 21
11965.5003198193
 31
0.0
  0
LINE
  5
21E
100
AcDbEntity
  8
_Y__________
  6
CONTINUOUS
 62
         7
100
AcDbLine
 10
-10234.125908084
 20
11990.4003198193
 30
0.0
 11
-10234.125908084
 21
11966.3003198193
 31
0.0
  0
CIRCLE
  5
21F
100
AcDbEntity
  8
_Y__________
  6
CONTINUOUS
 62
         7
100
AcDbCircle
 10
-10198.725908084
 20
11978.3503198193
 30
0.0
 40
12.5
  0
CIRCLE
  5
220
100
AcDbEntity
  8
_Y__________
  6
CONTINUOUS
 62
         7
100
AcDbCircle
 10
-10198.725908084
 20
11978.3503198193
 30
0.0
 40
13.5
  0
CIRCLE
  5
221
100
AcDbEntity
  8
_Y__________
  6
CONTINUOUS
 62
         7
100
AcDbCircle
 10
-10198.725908084
 20
11978.3503198193
 30
0.0
 40
10.5
  0
ARC
  5
222
100
AcDbEntity
  8
_Y__________
  6
CONTINUOUS
 62
         5
100
AcDbCircle
 10
-10198.725908084
 20
11978.3503198193
 30
0.0
 40
12.0
100
AcDbArc
 50
254.3467118714
 51
525.9849549731
  0
LINE
  5
223
100
AcDbEntity
  8
_Y__________
  6
CONTINUOUS
 62
         7
100
AcDbLine
 10
-10150.4053379301
 20
11991.2003198193
 30
0.0
 11
-10162.525908084
 21
11991.2003198193
 31
0.0
  0
LINE
  5
224
100
AcDbEntity
  8
_Y__________
  6
CONTINUOUS
 62
         7
100
AcDbLine
 10
-10150.4053379301
 20
11965.5003198193
 30
0.0
 11
-10162.525908084
 21
11965.5003198193
 31
0.0
  0
LINE
  5
225
100
AcDbEntity
  8
_Y__________
  6
CONTINUOUS
 62
         7
100
AcDbLine
 10
-10163.325908084
 20
11990.4003198193
 30
0.0
 11
-10163.325908084
 21
11966.3003198193
 31
0.0
  0
LINE
  5
226
100
AcDbEntity
  8
_Y__________
  6
CONTINUOUS
 62
         7
100
AcDbLine
 10
-9914.0705485269
 20
11781.8578887676
 30
0.0
 11
-9907.0705485269
 21
11781.8578887676
 31
0.0
  0
LINE
  5
227
100
AcDbEntity
  8
_Y__________
  6
CONTINUOUS
 62
         7
100
AcDbLine
 10
-9907.0705485269
 20
11782.4745665941
 30
0.0
 11
-9903.0964606171
 21
11789.3578887676
 31
0.0
  0
LINE
  5
228
100
AcDbEntity
  8
_Y__________
  6
CONTINUOUS
 62
         7
100
AcDbLine
 10
-9907.0705485269
 20
11782.4745665941
 30
0.0
 11
-9907.0705485269
 21
11781.8578887676
 31
0.0
  0
LINE
  5
229
100
AcDbEntity
  8
_Y__________
  6
CONTINUOUS
 62
         7
100
AcDbLine
 10
-9929.7705485269
 20
11789.3578887676
 30
0.0
 11
-9918.0446364367
 21
11789.3578887676
 31
0.0
  0
ARC
  5
22A
100
AcDbEntity
  8
_Y__________
  6
CONTINUOUS
 62
         7
100
AcDbCircle
 10
-9931.3705485269
 20
11774.6558050335
 30
0.0
 40
0.6
100
AcDbArc
 50
270.0
 51
360.0
  0
LINE
  5
22B
100
AcDbEntity
  8
_Y__________
  6
CONTINUOUS
 62
         7
100
AcDbLine
 10
-9932.1509332846
 20
11774.0558050335
 30
0.0
 11
-9931.3705485269
 21
11774.0558050335
 31
0.0
  0
LINE
  5
22C
100
AcDbEntity
  8
_Y__________
  6
CONTINUOUS
 62
         7
100
AcDbLine
 10
-9933.4537207578
 20
11774.4048858848
 30
0.0
 11
-9932.1509332846
 21
11774.0558050335
 31
0.0
  0
LINE
  5
22D
100
AcDbEntity
  8
_Y__________
  6
CONTINUOUS
 62
         7
100
AcDbLine
 10
-9930.7705485269
 20
11788.3578887676
 30
0.0
 11
-9930.7705485269
 21
11774.6558050335
 31
0.0
  0
LINE
  5
22E
100
AcDbEntity
  8
_Y__________
  6
CONTINUOUS
 62
         7
100
AcDbLine
 10
-9914.0705485269
 20
11782.4745665941
 30
0.0
 11
-9918.0446364367
 21
11789.3578887676
 31
0.0
  0
LINE
  5
22F
100
AcDbEntity
  8
_Y__________
  6
CONTINUOUS
 62
         7
100
AcDbLine
 10
-9914.0705485269
 20
11782.4745665941
 30
0.0
 11
-9914.0705485269
 21
11781.8578887676
 31
0.0
  0
LINE
  5
230
100
AcDbEntity
  8
_Y__________
  6
CONTINUOUS
 62
         7
100
AcDbLine
 10
-9914.0705485269
 20
11781.8578887676
 30
0.0
 11
-9907.0705485269
 21
11781.8578887676
 31
0.0
  0
LINE
  5
231
100
AcDbEntity
  8
_Y__________
  6
CONTINUOUS
 62
         7
100
AcDbLine
 10
-9903.0964606171
 20
11789.3578887676
 30
0.0
 11
-9896.7705485269
 21
11789.3578887676
 31
0.0
  0
LINE
  5
232
100
AcDbEntity
  8
_Y__________
  6
CONTINUOUS
 62
         7
100
AcDbLine
 10
-9933.4537207578
 20
11704.3108916503
 30
0.0
 11
-9932.1509332846
 21
11704.6599725017
 31
0.0
  0
ARC
  5
233
100
AcDbEntity
  8
_Y__________
  6
CONTINUOUS
 62
         7
100
AcDbCircle
 10
-9931.3705485269
 20
11704.0599725017
 30
0.0
 40
0.6
100
AcDbArc
 50
0.0
 51
90.0
  0
LINE
  5
234
100
AcDbEntity
  8
_Y__________
  6
CONTINUOUS
 62
         7
100
AcDbLine
 10
-9907.0705485269
 20
11696.2412109411
 30
0.0
 11
-9903.0964606171
 21
11689.3578887676
 31
0.0
  0
LINE
  5
235
100
AcDbEntity
  8
_Y__________
  6
CONTINUOUS
 62
         7
100
AcDbLine
 10
-9907.0705485269
 20
11696.8578887676
 30
0.0
 11
-9907.0705485269
 21
11696.2412109411
 31
0.0
  0
LINE
  5
236
100
AcDbEntity
  8
_Y__________
  6
CONTINUOUS
 62
         7
100
AcDbLine
 10
-9929.7705485269
 20
11689.3578887676
 30
0.0
 11
-9918.0446364367
 21
11689.3578887676
 31
0.0
  0
LINE
  5
237
100
AcDbEntity
  8
_Y__________
  6
CONTINUOUS
 62
         7
100
AcDbLine
 10
-9914.0705485269
 20
11696.2412109411
 30
0.0
 11
-9918.0446364367
 21
11689.3578887676
 31
0.0
  0
LINE
  5
238
100
AcDbEntity
  8
_Y__________
  6
CONTINUOUS
 62
         7
100
AcDbLine
 10
-9914.0705485269
 20
11696.8578887676
 30
0.0
 11
-9914.0705485269
 21
11696.2412109411
 31
0.0
  0
LINE
  5
239
100
AcDbEntity
  8
_Y__________
  6
CONTINUOUS
 62
         7
100
AcDbLine
 10
-9914.0705485269
 20
11696.8578887676
 30
0.0
 11
-9907.0705485269
 21
11696.8578887676
 31
0.0
  0
LINE
  5
23A
100
AcDbEntity
  8
_Y__________
  6
CONTINUOUS
 62
         7
100
AcDbLine
 10
-9930.7705485269
 20
11704.0599725017
 30
0.0
 11
-9930.7705485269
 21
11690.3578887676
 31
0.0
  0
LINE
  5
23B
100
AcDbEntity
  8
_Y__________
  6
CONTINUOUS
 62
         7
100
AcDbLine
 10
-9932.1509332846
 20
11704.6599725017
 30
0.0
 11
-9931.3705485269
 21
11704.6599725017
 31
0.0
  0
LINE
  5
23C
100
AcDbEntity
  8
_Y__________
  6
CONTINUOUS
 62
         7
100
AcDbLine
 10
-9990.5805485269
 20
11747.3078887676
 30
0.0
 11
-9990.5805485269
 21
11731.4078887676
 31
0.0
  0
LINE
  5
23D
100
AcDbEntity
  8
_Y__________
  6
CONTINUOUS
 62
         7
100
AcDbLine
 10
-9903.0964606171
 20
11689.3578887676
 30
0.0
 11
-9896.7705485269
 21
11689.3578887676
 31
0.0
  0
LINE
  5
23E
100
AcDbEntity
  8
_Y__________
  6
CONTINUOUS
 62
         7
100
AcDbLine
 10
-10025.0705485269
 20
11751.8578887676
 30
0.0
 11
-10025.0705485269
 21
11726.8578887676
 31
0.0
  0
LINE
  5
23F
100
AcDbEntity
  8
_Y__________
  6
CONTINUOUS
 62
         7
100
AcDbLine
 10
-10022.5705485269
 20
11751.5578887676
 30
0.0
 11
-10022.5705485269
 21
11727.1578887676
 31
0.0
  0
ARC
  5
240
100
AcDbEntity
  8
_Y__________
  6
CONTINUOUS
 62
         7
100
AcDbCircle
 10
-10023.8719417861
 20
11727.1578887676
 30
0.0
 40
0.6
100
AcDbArc
 50
255.0
 51
270.0
  0
ARC
  5
241
100
AcDbEntity
  8
_Y__________
  6
CONTINUOUS
 62
         7
100
AcDbCircle
 10
-10023.1705485269
 20
11727.1578887676
 30
0.0
 40
0.6
100
AcDbArc
 50
270.0
 51
360.0
  0
LINE
  5
242
100
AcDbEntity
  8
_Y__________
  6
CONTINUOUS
 62
         7
100
AcDbLine
 10
-10025.0705485269
 20
11726.8578887676
 30
0.0
 11
-10024.0272332131
 21
11726.5783332718
 31
0.0
  0
LINE
  5
243
100
AcDbEntity
  8
_Y__________
  6
CONTINUOUS
 62
         7
100
AcDbLine
 10
-10023.8719417861
 20
11726.5578887676
 30
0.0
 11
-10023.1705485269
 21
11726.5578887676
 31
0.0
  0
ARC
  5
244
100
AcDbEntity
  8
_Y__________
  6
CONTINUOUS
 62
         7
100
AcDbCircle
 10
-10023.1705485269
 20
11751.5578887676
 30
0.0
 40
0.6
100
AcDbArc
 50
0.0
 51
90.0
  0
LINE
  5
245
100
AcDbEntity
  8
_Y__________
  6
CONTINUOUS
 62
         7
100
AcDbLine
 10
-10025.0705485269
 20
11751.8578887676
 30
0.0
 11
-10024.0272332131
 21
11752.1374442634
 31
0.0
  0
LINE
  5
246
100
AcDbEntity
  8
_Y__________
  6
CONTINUOUS
 62
         7
100
AcDbLine
 10
-10023.8719417861
 20
11752.1578887676
 30
0.0
 11
-10023.1705485269
 21
11752.1578887676
 31
0.0
  0
ARC
  5
247
100
AcDbEntity
  8
_Y__________
  6
CONTINUOUS
 62
         7
100
AcDbCircle
 10
-10023.8719417861
 20
11751.5578887676
 30
0.0
 40
0.6
100
AcDbArc
 50
90.0
 51
105.0
  0
LINE
  5
248
100
AcDbEntity
  8
_Y__________
  6
CONTINUOUS
 62
         7
100
AcDbLine
 10
-10035.5705485269
 20
11725.8578887676
 30
0.0
 11
-10033.8384977193
 21
11726.8578887676
 31
0.0
  0
LINE
  5
249
100
AcDbEntity
  8
_Y__________
  6
CONTINUOUS
 62
         7
100
AcDbLine
 10
-10035.5705485269
 20
11752.8578887676
 30
0.0
 11
-10033.8384977193
 21
11751.8578887676
 31
0.0
  0
LINE
  5
24A
100
AcDbEntity
  8
_Y__________
  6
CONTINUOUS
 62
         7
100
AcDbLine
 10
-10033.8384977193
 20
11726.8578887676
 30
0.0
 11
-10025.0705485269
 21
11726.8578887676
 31
0.0
  0
LINE
  5
24B
100
AcDbEntity
  8
_Y__________
  6
CONTINUOUS
 62
         7
100
AcDbLine
 10
-10033.8384977193
 20
11751.8578887676
 30
0.0
 11
-10025.0705485269
 21
11751.8578887676
 31
0.0
  0
LINE
  5
24C
100
AcDbEntity
  8
_Y__________
  6
CONTINUOUS
 62
         5
100
AcDbLine
 10
-10022.5705485269
 20
11751.3578887676
 30
0.0
 11
-9992.6455485269
 21
11751.3578887676
 31
0.0
  0
LINE
  5
24D
100
AcDbEntity
  8
_Y__________
  6
CONTINUOUS
 62
         5
100
AcDbLine
 10
-10022.5705485269
 20
11727.3578887676
 30
0.0
 11
-9992.6455485269
 21
11727.3578887676
 31
0.0
  0
LINE
  5
24E
100
AcDbEntity
  8
_Y__________
  6
CONTINUOUS
 62
         7
100
AcDbLine
 10
-10022.5705485269
 20
11749.8578887676
 30
0.0
 11
-9992.6455485269
 21
11749.8578887676
 31
0.0
  0
LINE
  5
24F
100
AcDbEntity
  8
_Y__________
  6
CONTINUOUS
 62
         7
100
AcDbLine
 10
-10022.5705485269
 20
11728.8578887676
 30
0.0
 11
-9992.6455485269
 21
11728.8578887676
 31
0.0
  0
LINE
  5
250
100
AcDbEntity
  8
_Y__________
  6
CENTER
 62
         1
100
AcDbLine
 10
-10040.059409113
 20
11739.3578887676
 30
0.0
 11
-9895.7705485269
 21
11739.3578887676
 31
0.0
  0
LINE
  5
251
100
AcDbEntity
  8
_Y__________
  6
CONTINUOUS
 62
         7
100
AcDbLine
 10
-9907.0705485269
 20
12021.6169976458
 30
0.0
 11
-9903.1397618873
 21
12028.4253198193
 31
0.0
  0
LINE
  5
252
100
AcDbEntity
  8
_Y__________
  6
CONTINUOUS
 62
         7
100
AcDbLine
 10
-9914.0705485269
 20
12021.6169976458
 30
0.0
 11
-9918.0013351665
 21
12028.4253198193
 31
0.0
  0
LINE
  5
253
100
AcDbEntity
  8
_Y__________
  6
CONTINUOUS
 62
         7
100
AcDbLine
 10
-9929.8105485269
 20
12028.4253198193
 30
0.0
 11
-9918.0013351665
 21
12028.4253198193
 31
0.0
  0
LINE
  5
254
100
AcDbEntity
  8
_Y__________
  6
CONTINUOUS
 62
         7
100
AcDbLine
 10
-9914.0705485269
 20
12020.8503198193
 30
0.0
 11
-9907.0705485269
 21
12020.8503198193
 31
0.0
  0
LINE
  5
255
100
AcDbEntity
  8
_Y__________
  6
CONTINUOUS
 62
         7
100
AcDbLine
 10
-9933.4537207578
 20
12013.3973169366
 30
0.0
 11
-9932.1509332846
 21
12013.0482360852
 31
0.0
  0
LINE
  5
256
100
AcDbEntity
  8
_Y__________
  6
CONTINUOUS
 62
         7
100
AcDbLine
 10
-9932.1509332846
 20
12013.0482360852
 30
0.0
 11
-9930.8105485269
 21
12013.0482360852
 31
0.0
  0
LINE
  5
257
100
AcDbEntity
  8
_Y__________
  6
CENTER
 62
         1
100
AcDbLine
 10
-9950.4579005259
 20
11978.3503198193
 30
0.0
 11
-9895.7705485269
 21
11978.3503198193
 31
0.0
  0
LINE
  5
258
100
AcDbEntity
  8
_Y__________
  6
CONTINUOUS
 62
         7
100
AcDbLine
 10
-9903.1397618873
 20
12028.4253198193
 30
0.0
 11
-9896.7705485269
 21
12028.4253198193
 31
0.0
  0
LINE
  5
259
100
AcDbEntity
  8
_Y__________
  6
CENTER
 62
         1
100
AcDbLine
 10
-10038.2865725057
 20
11978.3503198193
 30
0.0
 11
-9970.0286122576
 21
11978.3503198193
 31
0.0
  0
LINE
  5
25A
100
AcDbEntity
  8
_Y__________
  6
CONTINUOUS
 62
         7
100
AcDbLine
 10
-10034.7148546433
 20
11998.6301494122
 30
0.0
 11
-9933.4537207578
 21
12013.3973169366
 31
0.0
  0
LINE
  5
25B
100
AcDbEntity
  8
_Y__________
  6
CONTINUOUS
 62
         7
100
AcDbLine
 10
-9914.0705485269
 20
11935.8503198193
 30
0.0
 11
-9907.0705485269
 21
11935.8503198193
 31
0.0
  0
LINE
  5
25C
100
AcDbEntity
  8
_Y__________
  6
CONTINUOUS
 62
         7
100
AcDbLine
 10
-9929.8105485269
 20
11928.2753198193
 30
0.0
 11
-9918.0013351665
 21
11928.2753198193
 31
0.0
  0
LINE
  5
25D
100
AcDbEntity
  8
_Y__________
  6
CONTINUOUS
 62
         7
100
AcDbLine
 10
-9907.0705485269
 20
11935.0836419928
 30
0.0
 11
-9903.1397618873
 21
11928.2753198193
 31
0.0
  0
LINE
  5
25E
100
AcDbEntity
  8
_Y__________
  6
CONTINUOUS
 62
         7
100
AcDbLine
 10
-9914.0705485269
 20
11935.0836419928
 30
0.0
 11
-9918.0013351665
 21
11928.2753198193
 31
0.0
  0
LINE
  5
25F
100
AcDbEntity
  8
_Y__________
  6
CONTINUOUS
 62
         7
100
AcDbLine
 10
-9932.1509332846
 20
11943.6524035534
 30
0.0
 11
-9930.8105485269
 21
11943.6524035534
 31
0.0
  0
LINE
  5
260
100
AcDbEntity
  8
_Y__________
  6
CONTINUOUS
 62
         7
100
AcDbLine
 10
-9933.4537207578
 20
11943.3033227021
 30
0.0
 11
-9932.1509332846
 21
11943.6524035534
 31
0.0
  0
LINE
  5
261
100
AcDbEntity
  8
_Y__________
  6
CONTINUOUS
 62
         7
100
AcDbLine
 10
-9903.1397618873
 20
11928.2753198193
 30
0.0
 11
-9896.7705485269
 21
11928.2753198193
 31
0.0
  0
LINE
  5
262
100
AcDbEntity
  8
_Y__________
  6
CONTINUOUS
 62
         7
100
AcDbLine
 10
-9895.7705485269
 20
12027.4253198193
 30
0.0
 11
-9895.7705485269
 21
11929.2753198193
 31
0.0
  0
LINE
  5
263
100
AcDbEntity
  8
_Y__________
  6
CONTINUOUS
 62
         7
100
AcDbLine
 10
-9930.8105485269
 20
12027.4253198193
 30
0.0
 11
-9930.8105485269
 21
11929.2753198193
 31
0.0
  0
LINE
  5
264
100
AcDbEntity
  8
_Y__________
  6
CONTINUOUS
 62
         7
100
AcDbLine
 10
-9932.1509332846
 20
12013.0482360852
 30
0.0
 11
-9932.1509332846
 21
11943.6524035534
 31
0.0
  0
LINE
  5
265
100
AcDbEntity
  8
_Y__________
  6
CENTER
 62
         1
100
AcDbLine
 10
-9933.7705485269
 20
12013.3511131409
 30
0.0
 11
-9933.7705485269
 21
11943.3495264978
 31
0.0
  0
LINE
  5
266
100
AcDbEntity
  8
_Y__________
  6
CENTER
 62
         1
100
AcDbLine
 10
-9910.5705485269
 20
12028.4205483448
 30
0.0
 11
-9910.5705485269
 21
11927.2628989523
 31
0.0
  0
LINE
  5
267
100
AcDbEntity
  8
_Y__________
  6
CONTINUOUS
 62
         7
100
AcDbLine
 10
-10034.7148546433
 20
11958.0704902265
 30
0.0
 11
-9933.4537207578
 21
11943.3033227021
 31
0.0
  0
LINE
  5
268
100
AcDbEntity
  8
_Y__________
  6
CONTINUOUS
 62
         7
100
AcDbLine
 10
-9918.0446364367
 20
12028.4253198193
 30
0.0
 11
-9918.0446364367
 21
11992.2003198193
 31
0.0
  0
LINE
  5
269
100
AcDbEntity
  8
_Y__________
  6
CONTINUOUS
 62
         7
100
AcDbLine
 10
-9914.0705485269
 20
12021.6169976458
 30
0.0
 11
-9914.0705485269
 21
11991.2003198193
 31
0.0
  0
LINE
  5
26A
100
AcDbEntity
  8
_Y__________
  6
CONTINUOUS
 62
         7
100
AcDbLine
 10
-9907.0705485269
 20
12021.6169976458
 30
0.0
 11
-9907.0705485269
 21
11989.9399703749
 31
0.0
  0
LINE
  5
26B
100
AcDbEntity
  8
_Y__________
  6
CONTINUOUS
 62
         7
100
AcDbLine
 10
-9903.0964606171
 20
12028.4253198193
 30
0.0
 11
-9903.0964606171
 21
11988.4058779583
 31
0.0
  0
LINE
  5
26C
100
AcDbEntity
  8
_Y__________
  6
CONTINUOUS
 62
         7
100
AcDbLine
 10
-9918.0446364367
 20
11964.5003198193
 30
0.0
 11
-9918.0446364367
 21
11928.2753198193
 31
0.0
  0
LINE
  5
26D
100
AcDbEntity
  8
_Y__________
  6
CONTINUOUS
 62
         7
100
AcDbLine
 10
-9914.0705485269
 20
11965.5003198193
 30
0.0
 11
-9914.0705485269
 21
11935.0836419928
 31
0.0
  0
LINE
  5
26E
100
AcDbEntity
  8
_Y__________
  6
CONTINUOUS
 62
         7
100
AcDbLine
 10
-9907.0705485269
 20
11966.7606692638
 30
0.0
 11
-9907.0705485269
 21
11935.0836419928
 31
0.0
  0
LINE
  5
26F
100
AcDbEntity
  8
_Y__________
  6
CONTINUOUS
 62
         7
100
AcDbLine
 10
-9903.0964606171
 20
11968.2947616803
 30
0.0
 11
-9903.0964606171
 21
11928.2753198193
 31
0.0
  0
ARC
  5
270
100
AcDbEntity
  8
_Y__________
  6
CONTINUOUS
 62
         7
100
AcDbCircle
 10
-9912.6205485269
 20
11978.3503198193
 30
0.0
 40
12.85
100
AcDbArc
 50
270.0
 51
450.0
  0
ARC
  5
271
100
AcDbEntity
  8
_Y__________
  6
CONTINUOUS
 62
         7
100
AcDbCircle
 10
-9912.6205485269
 20
11978.3503198193
 30
0.0
 40
13.85
100
AcDbArc
 50
313.4451442301
 51
406.5548557699
  0
LINE
  5
272
100
AcDbEntity
  8
_Y__________
  6
CONTINUOUS
 62
         7
100
AcDbLine
 10
-9907.0705485269
 20
11966.7606692638
 30
0.0
 11
-9903.0964606171
 21
11968.2947616803
 31
0.0
  0
LINE
  5
273
100
AcDbEntity
  8
_Y__________
  6
CONTINUOUS
 62
         7
100
AcDbLine
 10
-9930.8105485269
 20
11964.5003198193
 30
0.0
 11
-9918.0446364367
 21
11964.5003198193
 31
0.0
  0
LINE
  5
274
100
AcDbEntity
  8
_Y__________
  6
CONTINUOUS
 62
         7
100
AcDbLine
 10
-9930.7705485269
 20
11965.5003198193
 30
0.0
 11
-9912.6205485269
 21
11965.5003198193
 31
0.0
  0
LINE
  5
275
100
AcDbEntity
  8
_Y__________
  6
CONTINUOUS
 62
         7
100
AcDbLine
 10
-9918.0446364367
 20
11964.5003198193
 30
0.0
 11
-9914.0705485269
 21
11965.5003198193
 31
0.0
  0
LINE
  5
276
100
AcDbEntity
  8
_Y__________
  6
CONTINUOUS
 62
         7
100
AcDbLine
 10
-9907.0705485269
 20
11989.9399703749
 30
0.0
 11
-9903.0964606171
 21
11988.4058779583
 31
0.0
  0
LINE
  5
277
100
AcDbEntity
  8
_Y__________
  6
CONTINUOUS
 62
         7
100
AcDbLine
 10
-9930.8105485269
 20
11992.2003198193
 30
0.0
 11
-9918.0446364367
 21
11992.2003198193
 31
0.0
  0
LINE
  5
278
100
AcDbEntity
  8
_Y__________
  6
CONTINUOUS
 62
         7
100
AcDbLine
 10
-9930.7705485269
 20
11991.2003198193
 30
0.0
 11
-9912.6205485269
 21
11991.2003198193
 31
0.0
  0
LINE
  5
279
100
AcDbEntity
  8
_Y__________
  6
CONTINUOUS
 62
         7
100
AcDbLine
 10
-9918.0446364367
 20
11992.2003198193
 30
0.0
 11
-9914.0705485269
 21
11991.2003198193
 31
0.0
  0
LINE
  5
27A
100
AcDbEntity
  8
_Y__________
  6
CONTINUOUS
 62
         7
100
AcDbLine
 10
-10035.5705485269
 20
11997.6406163179
 30
0.0
 11
-10035.5705485269
 21
11959.0600233208
 31
0.0
  0
ARC
  5
27B
100
AcDbEntity
  8
_Y__________
  6
CONTINUOUS
 62
         7
100
AcDbCircle
 10
-10034.5755485269
 20
11758.6474561035
 30
0.0
 40
1.0
100
AcDbArc
 50
98.2971
 51
180.0
  0
LINE
  5
27C
100
AcDbEntity
  8
_Y__________
  6
CONTINUOUS
 62
         7
100
AcDbLine
 10
-10035.5755485269
 20
11758.6474561035
 30
0.0
 11
-10035.5755485269
 21
11720.0683214317
 31
0.0
  0
ARC
  5
27D
100
AcDbEntity
  8
_Y__________
  6
CONTINUOUS
 62
         7
100
AcDbCircle
 10
-10034.5755485269
 20
11720.0683214317
 30
0.0
 40
1.0
100
AcDbArc
 50
180.0
 51
261.7029
  0
LINE
  5
27E
100
AcDbEntity
  8
_Y__________
  6
CONTINUOUS
 62
         7
100
AcDbLine
 10
-10034.7198546433
 20
11759.6369891978
 30
0.0
 11
-9933.4537207578
 21
11774.4048858848
 31
0.0
  0
LINE
  5
27F
100
AcDbEntity
  8
_Y__________
  6
CONTINUOUS
 62
         7
100
AcDbLine
 10
-10034.7198546433
 20
11719.0787883374
 30
0.0
 11
-9933.4537207578
 21
11704.3108916503
 31
0.0
  0
ARC
  5
280
100
AcDbEntity
  8
_Y__________
  6
CONTINUOUS
 62
         7
100
AcDbCircle
 10
-10034.5705485269
 20
11997.6406163179
 30
0.0
 40
1.0
100
AcDbArc
 50
98.2971
 51
180.0
  0
ARC
  5
281
100
AcDbEntity
  8
_Y__________
  6
CONTINUOUS
 62
         7
100
AcDbCircle
 10
-10034.5705485269
 20
11959.0600233208
 30
0.0
 40
1.0
100
AcDbArc
 50
180.0
 51
261.7029
  0
LINE
  5
282
100
AcDbEntity
  8
L1_
  6
CONTINUOUS
 62
       163
100
AcDbLine
 10
-9828.7705485269
 20
11997.6406163179
 30
0.0
 11
-9828.7705485269
 21
11959.0600233208
 31
0.0
  0
LINE
  5
283
100
AcDbEntity
  8
L1_
  6
CONTINUOUS
 62
       163
100
AcDbLine
 10
-9828.7755485269
 20
11758.6474561035
 30
0.0
 11
-9828.7755485269
 21
11720.0683214317
 31
0.0
  0
CIRCLE
  5
284
100
AcDbEntity
  8
L1_
  6
CONTINUOUS
 62
         7
100
AcDbCircle
 10
-9592.8151889697
 20
11978.3503198193
 30
0.0
 40
31.5
  0
CIRCLE
  5
285
100
AcDbEntity
  8
L1_
  6
CONTINUOUS
 62
         7
100
AcDbCircle
 10
-9592.8151889697
 20
11978.3503198193
 30
0.0
 40
19.173613549
  0
CIRCLE
  5
286
100
AcDbEntity
  8
L1_
  6
CONTINUOUS
 62
         7
100
AcDbCircle
 10
-9592.8151889697
 20
11978.3503198193
 30
0.0
 40
17.1
  0
ARC
  5
287
100
AcDbEntity
  8
L1_
  6
CONTINUOUS
 62
         4
100
AcDbCircle
 10
-9592.8151889697
 20
11978.3503198193
 30
0.0
 40
18.0
100
AcDbArc
 50
270.0
 51
540.0
  0
DIMENSION
  5
28B
100
AcDbEntity
  8
L1_
  6
CONTINUOUS
 62
         4
100
AcDbDimension
  2
*D1
 10
-9795.6778383059
 20
12009.8503198193
 30
0.0
 11
-9798.3028383059
 21
11971.3503198193
 31
0.0
  3
DIMSTYLE1
100
AcDbAlignedDimension
 13
-9830.7705485269
 23
12009.8503198193
 33
0.0
 14
-9830.7705485269
 24
11946.8503198193
 34
0.0
 50
90.0
100
AcDbRotatedDimension
  0
LINE
  5
298
100
AcDbEntity
  8
L1_
  6
CONTINUOUS
 62
         7
100
AcDbLine
 10
-9893.7705485269
 20
12009.8503198193
 30
0.0
 11
-9830.7705485269
 21
12009.8503198193
 31
0.0
  0
LINE
  5
299
100
AcDbEntity
  8
L1_
  6
CONTINUOUS
 62
         7
100
AcDbLine
 10
-9893.7705485269
 20
11946.8503198193
 30
0.0
 11
-9830.7705485269
 21
11946.8503198193
 31
0.0
  0
ARC
  5
29A
100
AcDbEntity
  8
L1_
  6
CONTINUOUS
 62
         7
100
AcDbCircle
 10
-9830.7705485269
 20
11948.8503198193
 30
0.0
 40
2.0
100
AcDbArc
 50
270.0
 51
360.0
  0
ARC
  5
29B
100
AcDbEntity
  8
L1_
  6
CONTINUOUS
 62
         7
100
AcDbCircle
 10
-9830.7705485269
 20
12007.8503198193
 30
0.0
 40
2.0
100
AcDbArc
 50
0.0
 51
90.0
  0
LINE
  5
29C
100
AcDbEntity
  8
L1_
  6
CONTINUOUS
 62
         7
100
AcDbLine
 10
-9828.7705485269
 20
12007.8503198193
 30
0.0
 11
-9828.7705485269
 21
11948.8503198193
 31
0.0
  0
DIMENSION
  5
29F
100
AcDbEntity
  8
L1_
  6
CONTINUOUS
 62
         4
100
AcDbDimension
  2
*D2
 10
-9963.7755485269
 20
11788.897049002
 30
0.0
 11
-9957.2524382149
 21
11791.522049002
 31
0.0
  3
DIMSTYLE1
100
AcDbAlignedDimension
 13
-9963.7755485269
 23
11756.9657673243
 33
0.0
 14
-9946.2755485269
 24
11739.3578887676
 34
0.0
100
AcDbRotatedDimension
  0
LINE
  5
2AB
100
AcDbEntity
  8
L1_
  6
CENTER
 62
         1
100
AcDbLine
 10
-9992.6455485269
 20
11727.8578887676
 30
0.0
 11
-9963.7755485269
 21
11727.8578887676
 31
0.0
  0
LINE
  5
2AC
100
AcDbEntity
  8
L1_
  6
CENTER
 62
         1
100
AcDbLine
 10
-9992.6455485269
 20
11750.8578887676
 30
0.0
 11
-9963.7755485269
 21
11750.8578887676
 31
0.0
  0
DIMENSION
  5
2AF
100
AcDbEntity
  8
L1_
  6
CONTINUOUS
 62
         4
100
AcDbDimension
  2
*D3
 10
-9932.6470709848
 20
11719.6842752186
 30
0.0
 11
-9935.2720709848
 21
11724.9629136497
 31
0.0
  3
DIMSTYLE1
100
AcDbAlignedDimension
 13
-9946.2755485269
 23
11719.6842752186
 33
0.0
 14
-9946.2755485269
 24
11759.0315023165
 34
0.0
 50
90.0
100
AcDbRotatedDimension
  0
LINE
  5
2BB
100
AcDbEntity
  8
L1_
  6
CENTER
 62
         1
100
AcDbLine
 10
-9984.3955485269
 20
11708.7581296916
 30
0.0
 11
-9984.3955485269
 21
11768.6773503272
 31
0.0
  0
LINE
  5
2BC
100
AcDbEntity
  8
L1_
  6
CENTER
 62
         1
100
AcDbLine
 10
-9962.3455485269
 20
11705.4015185983
 30
0.0
 11
-9962.3455485269
 21
11771.8933416539
 31
0.0
  0
LINE
  5
2BD
100
AcDbEntity
  8
L1_
  6
CONTINUOUS
 62
         7
100
AcDbLine
 10
-9963.7755485269
 20
11747.4278126258
 30
0.0
 11
-9963.7755485269
 21
11731.4078887676
 31
0.0
  0
LINE
  5
2BE
100
AcDbEntity
  8
L1_
  6
CONTINUOUS
 62
         7
100
AcDbLine
 10
-9946.2755485269
 20
11719.6842752186
 30
0.0
 11
-9946.2755485269
 21
11739.3578887676
 31
0.0
  0
LINE
  5
2BF
100
AcDbEntity
  8
L1_
  6
CONTINUOUS
 62
         7
100
AcDbLine
 10
-9946.2755485269
 20
11759.0315023165
 30
0.0
 11
-9946.2755485269
 21
11739.3578887676
 31
0.0
  0
LINE
  5
2C0
100
AcDbEntity
  8
L1_
  6
CONTINUOUS
 62
         7
100
AcDbLine
 10
-9946.2755485269
 20
11759.0315023165
 30
0.0
 11
-9954.3955485269
 21
11759.0315023165
 31
0.0
  0
LINE
  5
2C1
100
AcDbEntity
  8
L1_
  6
CONTINUOUS
 62
         7
100
AcDbLine
 10
-9946.2755485269
 20
11719.6842752186
 30
0.0
 11
-9954.3955485269
 21
11719.6842752186
 31
0.0
  0
LINE
  5
2C2
100
AcDbEntity
  8
L1_
  6
CONTINUOUS
 62
         7
100
AcDbLine
 10
-9954.3955485269
 20
11759.0315023165
 30
0.0
 11
-9954.3955485269
 21
11770.2651822139
 31
0.0
  0
LINE
  5
2C3
100
AcDbEntity
  8
L1_
  6
CONTINUOUS
 62
         7
100
AcDbLine
 10
-9954.3955485269
 20
11708.4506432709
 30
0.0
 11
-9954.3955485269
 21
11719.6842752186
 31
0.0
  0
LINE
  5
2C4
100
AcDbEntity
  8
L1_
  6
CONTINUOUS
 62
         7
100
AcDbLine
 10
-9992.6455485269
 20
11747.3078887676
 30
0.0
 11
-9992.6455485269
 21
11764.6870878737
 31
0.0
  0
LINE
  5
2C5
100
AcDbEntity
  8
L1_
  6
CONTINUOUS
 62
         7
100
AcDbLine
 10
-9992.6455485269
 20
11714.0287376111
 30
0.0
 11
-9992.6455485269
 21
11731.4078887676
 31
0.0
  0
LINE
  5
2C6
100
AcDbEntity
  8
L1_
  6
CONTINUOUS
 62
         7
100
AcDbLine
 10
-9992.6455485269
 20
11747.3078887676
 30
0.0
 11
-9963.7755485269
 21
11747.3078887676
 31
0.0
  0
LINE
  5
2C7
100
AcDbEntity
  8
L1_
  6
CONTINUOUS
 62
         7
100
AcDbLine
 10
-9992.6455485269
 20
11731.4078887676
 30
0.0
 11
-9963.7755485269
 21
11731.4078887676
 31
0.0
  0
LINE
  5
2C8
100
AcDbEntity
  8
L1_
  6
CONTINUOUS
 62
         7
100
AcDbLine
 10
-9954.3955485269
 20
11759.0315023165
 30
0.0
 11
-9961.7755485269
 21
11759.0315023165
 31
0.0
  0
LINE
  5
2C9
100
AcDbEntity
  8
L1_
  6
CONTINUOUS
 62
         7
100
AcDbLine
 10
-9963.7755485269
 20
11757.0315023165
 30
0.0
 11
-9963.7755485269
 21
11747.4278126258
 31
0.0
  0
LINE
  5
2CA
100
AcDbEntity
  8
L1_
  6
CONTINUOUS
 62
         7
100
AcDbLine
 10
-9963.7755485269
 20
11731.4078887676
 30
0.0
 11
-9963.7755485269
 21
11721.6842752186
 31
0.0
  0
LINE
  5
2CB
100
AcDbEntity
  8
L1_
  6
CONTINUOUS
 62
         7
100
AcDbLine
 10
-9954.3955485269
 20
11719.6842752186
 30
0.0
 11
-9961.7755485269
 21
11719.6842752186
 31
0.0
  0
ARC
  5
2CC
100
AcDbEntity
  8
L1_
  6
CONTINUOUS
 62
         7
100
AcDbCircle
 10
-9961.7755485269
 20
11757.0315023165
 30
0.0
 40
2.0
100
AcDbArc
 50
90.0
 51
180.0
  0
ARC
  5
2CD
100
AcDbEntity
  8
L1_
  6
CONTINUOUS
 62
         7
100
AcDbCircle
 10
-9961.7755485269
 20
11721.6842752186
 30
0.0
 40
2.0
100
AcDbArc
 50
180.0
 51
270.0
  0
LINE
  5
2CE
100
AcDbEntity
  8
L1_
  6
CONTINUOUS
 62
         7
100
AcDbLine
 10
-9992.6455485269
 20
11764.6870878737
 30
0.0
 11
-9954.3955485269
 21
11770.2651822139
 31
0.0
  0
LINE
  5
2CF
100
AcDbEntity
  8
L1_
  6
CONTINUOUS
 62
         7
100
AcDbLine
 10
-9992.6455485269
 20
11714.0287376111
 30
0.0
 11
-9954.3955485269
 21
11708.4506432709
 31
0.0
  0
LINE
  5
2D0
100
AcDbEntity
  8
L1_
  6
CONTINUOUS
 62
         7
100
AcDbLine
 10
-9993.5275077946
 20
11765.5690471414
 30
0.0
 11
-9953.212434374
 21
11771.4482963668
 31
0.0
  0
LINE
  5
2D1
100
AcDbEntity
  8
L1_
  6
CONTINUOUS
 62
         7
100
AcDbLine
 10
-9993.5275077946
 20
11713.1467783433
 30
0.0
 11
-9953.212434374
 21
11707.2675291179
 31
0.0
  0
LINE
  5
2D2
100
AcDbEntity
  8
L1_
  6
CONTINUOUS
 62
         7
100
AcDbLine
 10
-9993.5275077946
 20
11765.5690471414
 30
0.0
 11
-9992.6455485269
 21
11764.6870878737
 31
0.0
  0
LINE
  5
2D3
100
AcDbEntity
  8
L1_
  6
CONTINUOUS
 62
         7
100
AcDbLine
 10
-9953.212434374
 20
11707.2675291179
 30
0.0
 11
-9954.3955485269
 21
11708.4506432709
 31
0.0
  0
LINE
  5
2D4
100
AcDbEntity
  8
L1_
  6
CONTINUOUS
 62
         7
100
AcDbLine
 10
-9993.5275077946
 20
11713.1467783433
 30
0.0
 11
-9992.6455485269
 21
11714.0287376111
 31
0.0
  0
LINE
  5
2D5
100
AcDbEntity
  8
L1_
  6
CONTINUOUS
 62
         7
100
AcDbLine
 10
-9953.212434374
 20
11771.4482963668
 30
0.0
 11
-9954.3955485269
 21
11770.2651822139
 31
0.0
  0
LINE
  5
2D6
100
AcDbEntity
  8
L1_
  6
CONTINUOUS
 62
         7
100
AcDbLine
 10
-9946.2755485269
 20
11719.6842752186
 30
0.0
 11
-9946.2755485269
 21
11739.3578887676
 31
0.0
  0
LINE
  5
2D7
100
AcDbEntity
  8
L1_
  6
CONTINUOUS
 62
         7
100
AcDbLine
 10
-9946.2755485269
 20
11759.0315023165
 30
0.0
 11
-9946.2755485269
 21
11739.3578887676
 31
0.0
  0
LINE
  5
2D8
100
AcDbEntity
  8
L1_
  6
CONTINUOUS
 62
         7
100
AcDbLine
 10
-9946.2755485269
 20
11759.0315023165
 30
0.0
 11
-9953.7755485269
 21
11759.0315023165
 31
0.0
  0
LINE
  5
2D9
100
AcDbEntity
  8
L1_
  6
CONTINUOUS
 62
         7
100
AcDbLine
 10
-9946.2755485269
 20
11719.6842752186
 30
0.0
 11
-9953.7755485269
 21
11719.6842752186
 31
0.0
  0
LINE
  5
2DA
100
AcDbEntity
  8
L1_
  6
CONTINUOUS
 62
         7
100
AcDbLine
 10
-9882.9705671353
 20
11761.3578887676
 30
0.0
 11
-9882.9705671353
 21
11717.3578887676
 31
0.0
  0
LINE
  5
2DB
100
AcDbEntity
  8
L1_
  6
CONTINUOUS
 62
         7
100
AcDbLine
 10
-9903.2121665124
 20
11761.3578887676
 30
0.0
 11
-9903.2121665124
 21
11717.3578887676
 31
0.0
  0
LINE
  5
2DC
100
AcDbEntity
  8
L1_
  6
CONTINUOUS
 62
         7
100
AcDbLine
 10
-9881.7755485269
 20
11718.552907376
 30
0.0
 11
-9881.7755485269
 21
11739.3578887676
 31
0.0
  0
LINE
  5
2DD
100
AcDbEntity
  8
L1_
  6
CONTINUOUS
 62
         7
100
AcDbLine
 10
-9904.7755485269
 20
11718.921270782
 30
0.0
 11
-9904.7755485269
 21
11739.3578887676
 31
0.0
  0
LINE
  5
2DE
100
AcDbEntity
  8
L1_
  6
CONTINUOUS
 62
         7
100
AcDbLine
 10
-9903.2121665124
 20
11717.3578887676
 30
0.0
 11
-9904.7755485269
 21
11718.921270782
 31
0.0
  0
LINE
  5
2DF
100
AcDbEntity
  8
L1_
  6
CONTINUOUS
 62
         7
100
AcDbLine
 10
-9903.2121665124
 20
11717.3578887676
 30
0.0
 11
-9882.9705671353
 21
11717.3578887676
 31
0.0
  0
LINE
  5
2E0
100
AcDbEntity
  8
L1_
  6
CONTINUOUS
 62
         7
100
AcDbLine
 10
-9882.9705671353
 20
11717.3578887676
 30
0.0
 11
-9881.7755485269
 21
11718.552907376
 31
0.0
  0
LINE
  5
2E1
100
AcDbEntity
  8
L1_
  6
CONTINUOUS
 62
         7
100
AcDbLine
 10
-9903.2121665124
 20
11761.3578887676
 30
0.0
 11
-9904.7755485269
 21
11759.7945067531
 31
0.0
  0
LINE
  5
2E2
100
AcDbEntity
  8
L1_
  6
CONTINUOUS
 62
         7
100
AcDbLine
 10
-9904.7755485269
 20
11759.7945067531
 30
0.0
 11
-9904.7755485269
 21
11739.3578887676
 31
0.0
  0
LINE
  5
2E3
100
AcDbEntity
  8
L1_
  6
CONTINUOUS
 62
         7
100
AcDbLine
 10
-9903.2121665124
 20
11761.3578887676
 30
0.0
 11
-9882.9705671353
 21
11761.3578887676
 31
0.0
  0
LINE
  5
2E4
100
AcDbEntity
  8
L1_
  6
CONTINUOUS
 62
         7
100
AcDbLine
 10
-9881.7755485269
 20
11760.1628701591
 30
0.0
 11
-9881.7755485269
 21
11739.3578887676
 31
0.0
  0
LINE
  5
2E5
100
AcDbEntity
  8
L1_
  6
CONTINUOUS
 62
         7
100
AcDbLine
 10
-9882.9705671353
 20
11761.3578887676
 30
0.0
 11
-9881.7755485269
 21
11760.1628701591
 31
0.0
  0
LINE
  5
2E6
100
AcDbEntity
  8
L1_
  6
CONTINUOUS
 62
         7
100
AcDbLine
 10
-9830.7229433894
 20
11761.506149553
 30
0.0
 11
-9881.7755485269
 21
11760.1628701591
 31
0.0
  0
LINE
  5
2E7
100
AcDbEntity
  8
L1_
  6
CONTINUOUS
 62
         7
100
AcDbLine
 10
-9830.7229433894
 20
11717.2096279822
 30
0.0
 11
-9881.7755485269
 21
11718.552907376
 31
0.0
  0
ARC
  5
2E8
100
AcDbEntity
  8
L1_
  6
CONTINUOUS
 62
         7
100
AcDbCircle
 10
-9830.7755485269
 20
11715.210319927
 30
0.0
 40
2.0
100
AcDbArc
 50
0.0
 51
88.4928
  0
ARC
  5
2E9
100
AcDbEntity
  8
L1_
  6
CONTINUOUS
 62
         7
100
AcDbCircle
 10
-9830.7755485269
 20
11763.5054576082
 30
0.0
 40
2.0
100
AcDbArc
 50
271.5072
 51
360.0
  0
LINE
  5
2EA
100
AcDbEntity
  8
L1_
  6
CONTINUOUS
 62
         7
100
AcDbLine
 10
-9904.7755485269
 20
11719.1580758288
 30
0.0
 11
-9946.2755485269
 21
11720.2500102109
 31
0.0
  0
LINE
  5
2EB
100
AcDbEntity
  8
L1_
  6
CONTINUOUS
 62
         7
100
AcDbLine
 10
-9904.7755485269
 20
11759.5577017064
 30
0.0
 11
-9946.2755485269
 21
11758.4657673243
 31
0.0
  0
DIMENSION
  5
2EE
100
AcDbEntity
  8
L1_
  6
CONTINUOUS
 62
         4
100
AcDbDimension
  2
*D4
 10
-9904.7755485269
 20
11680.3944915738
 30
0.0
 11
-9869.7139279549
 21
11683.0194915738
 31
0.0
  3
DIMSTYLE1
100
AcDbAlignedDimension
 13
-9904.7755485269
 23
11717.3578887676
 33
0.0
 14
-9828.7755485269
 24
11709.8578887676
 34
0.0
100
AcDbRotatedDimension
  0
DIMENSION
  5
2FC
100
AcDbEntity
  8
L1_
  6
CONTINUOUS
 62
         4
100
AcDbDimension
  2
*D5
 10
-9881.7755485269
 20
11689.8468897592
 30
0.0
 11
-9870.3547685098
 21
11692.4718897592
 31
0.0
  3
DIMSTYLE1
100
AcDbAlignedDimension
 13
-9881.7755485269
 23
11717.3578887676
 33
0.0
 14
-9828.7755485269
 24
11709.8578887676
 34
0.0
100
AcDbRotatedDimension
  0
DIMENSION
  5
30A
100
AcDbEntity
  8
L1_
  6
CONTINUOUS
 62
         4
100
AcDbDimension
  2
*D6
 10
-9805.9383924698
 20
11761.3578887676
 30
0.0
 11
-9808.5633924698
 21
11730.8244704544
 31
0.0
  3
DIMSTYLE1
100
AcDbAlignedDimension
 13
-9881.7755485269
 23
11761.3578887676
 33
0.0
 14
-9881.7755485269
 24
11717.3578887676
 34
0.0
 50
90.0
100
AcDbRotatedDimension
  0
LINE
  5
316
100
AcDbEntity
  8
L1_
  6
CONTINUOUS
 62
         7
100
AcDbLine
 10
-9828.7755485269
 20
11768.8578887676
 30
0.0
 11
-9828.7755485269
 21
11709.8578887676
 31
0.0
  0
LINE
  5
317
100
AcDbEntity
  8
L1_
  6
CENTER
 62
         1
100
AcDbLine
 10
-9995.2232815023
 20
11739.3578887676
 30
0.0
 11
-9823.3050356296
 21
11739.3578887676
 31
0.0
  0
LINE
  5
318
100
AcDbEntity
  8
L1_
  6
CONTINUOUS
 62
         7
100
AcDbLine
 10
-9893.7705485269
 20
11707.8578887676
 30
0.0
 11
-9830.7755485269
 21
11707.8578887676
 31
0.0
  0
ARC
  5
319
100
AcDbEntity
  8
L1_
  6
CONTINUOUS
 62
         7
100
AcDbCircle
 10
-9830.7755485269
 20
11768.8578887676
 30
0.0
 40
2.0
100
AcDbArc
 50
0.0
 51
90.0
  0
ARC
  5
31A
100
AcDbEntity
  8
L1_
  6
CONTINUOUS
 62
         7
100
AcDbCircle
 10
-9830.7755485269
 20
11709.8578887676
 30
0.0
 40
2.0
100
AcDbArc
 50
270.0
 51
360.0
  0
ARC
  5
31B
100
AcDbEntity
  8
L1_
  6
CONTINUOUS
 62
         7
100
AcDbCircle
 10
-9893.7705485269
 20
12011.8503198193
 30
0.0000000008
 40
2.0
100
AcDbArc
 50
180.0
 51
270.0
  0
ARC
  5
31C
100
AcDbEntity
  8
L1_
  6
CONTINUOUS
 62
         7
100
AcDbCircle
 10
-9893.7705485269
 20
11944.8503198193
 30
0.0
 40
2.0
100
AcDbArc
 50
90.0
 51
180.0
  0
ARC
  5
31D
100
AcDbEntity
  8
L1_
  6
CONTINUOUS
 62
         7
100
AcDbCircle
 10
-9893.7705485269
 20
11705.8578887676
 30
0.0000000001
 40
2.0
100
AcDbArc
 50
90.0
 51
180.0
  0
ARC
  5
31E
100
AcDbEntity
  8
L1_
  6
CONTINUOUS
 62
         7
100
AcDbCircle
 10
-9893.7705485269
 20
11772.8578887676
 30
0.0000000001
 40
2.0
100
AcDbArc
 50
180.0
 51
270.0
  0
LINE
  5
31F
100
AcDbEntity
  8
L1_
  6
CONTINUOUS
 62
         7
100
AcDbLine
 10
-9893.7705485269
 20
11770.8578887676
 30
0.0
 11
-9830.7755485269
 21
11770.8578887676
 31
0.0
  0
DIMENSION
  5
322
100
AcDbEntity
  8
L1_
  6
CONTINUOUS
 62
         4
100
AcDbDimension
  2
*D7
 10
-10035.5705485269
 20
12085.0243488066
 30
0.0
 11
-9941.2271002705
 21
12087.6493488066
 31
0.0
  3
DIMSTYLE1
100
AcDbAlignedDimension
 13
-10035.5705485269
 23
11997.6406163179
 33
0.0
 14
-9828.7705485269
 24
12007.8503198193
 34
0.0
100
AcDbRotatedDimension
  0
DIMENSION
  5
330
100
AcDbEntity
  8
L1_
  6
CONTINUOUS
 62
         4
100
AcDbDimension
  2
*D8
 10
-9933.7705485269
 20
12075.485321266
 30
0.0
 11
-9884.6559210344
 21
12078.110321266
 31
0.0
  3
DIMSTYLE1
100
AcDbAlignedDimension
 13
-9933.7705485269
 23
12013.0482360852
 33
0.0
 14
-9828.7705485269
 24
12007.8503198193
 34
0.0
100
AcDbRotatedDimension
  0
DIMENSION
  5
33E
100
AcDbEntity
  8
L1_
  6
CONTINUOUS
 62
         4
100
AcDbDimension
  2
*D9
 10
-9954.3955485269
 20
11660.0435489212
 30
0.0
 11
-9902.023441287
 21
11662.6685489212
 31
0.0
  3
DIMSTYLE1
100
AcDbAlignedDimension
 13
-9954.3955485269
 23
11708.4506432709
 33
0.0
 14
-9828.7755485269
 24
11709.8578887676
 34
0.0
100
AcDbRotatedDimension
  0
DIMENSION
  5
34C
100
AcDbEntity
  8
L1_
  6
CONTINUOUS
 62
         4
100
AcDbDimension
  2
*D10
 10
-9963.7755485269
 20
11812.1119957955
 30
0.0
 11
-9906.0107575331
 21
11814.7369957955
 31
0.0
  3
DIMSTYLE1
100
AcDbAlignedDimension
 13
-9963.7755485269
 23
11757.0315023165
 33
0.0
 14
-9828.7755485269
 24
11768.8578887676
 34
0.0
100
AcDbRotatedDimension
  0
TEXT
  5
359
100
AcDbEntity
  8
L1_
  6
CONTINUOUS
 62
         2
100
AcDbText
 10
-9608.2434111871
 20
12052.5361564981
 30
0.0
 40
4.5
  1
532247
 41
0.98
  7
BOX
100
AcDbText
  0
ENDSEC
  0
SECTION
  2
OBJECTS
  0
DICTIONARY
  5
19
100
AcDbDictionary
  3
ACAD_GROUP
350
1A
  3
ACAD_MLINESTYLE
350
1B
  0
DICTIONARY
  5
1A
102
{ACAD_REACTORS
330
19
102
}
100
AcDbDictionary
  0
DICTIONARY
  5
1B
102
{ACAD_REACTORS
330
19
102
}
100
AcDbDictionary
  3
STANDARD
350
1C
  0
MLINESTYLE
  5
1C
102
{ACAD_REACTORS
330
1B
102
}
100
AcDbMlineStyle
  2
STANDARD
 70
         0
  3

 62
         0
 51
90.0
 52
90.0
 71
         2
 49
0.5
 62
       256
  6
BYLAYER
 49
-0.5
 62
       256
  6
BYLAYER
  0
ENDSEC
  0
EOF
