  0
SECTION
  2
HEADER
  9
$ACADVER
  1
AC1014
  9
$ACADMAINTVER
 70
         0
  9
$DWGCODEPAGE
  3
BIG5
  9
$INSBASE
 10
0.0
 20
0.0
 30
0.0
  9
$EXTMIN
 10
2209.0356837548
 20
361.1629774736
 30
0.0
  9
$EXTMAX
 10
3129.1907471747
 20
825.076619787
 30
0.0
  9
$LIMMIN
 10
0.0
 20
0.0
  9
$LIMMAX
 10
0.0
 20
0.0
  9
$ORTHOMODE
 70
         0
  9
$REGENMODE
 70
         1
  9
$FILLMODE
 70
         1
  9
$QTEXTMODE
 70
         0
  9
$MIRRTEXT
 70
         1
  9
$DRAGMODE
 70
         2
  9
$LTSCALE
 40
1.0
  9
$OSMODE
 70
         0
  9
$ATTMODE
 70
         1
  9
$TEXTSIZE
 40
5.5
  9
$TRACEWID
 40
0.05
  9
$TEXTSTYLE
  7
STANDARD
  9
$CLAYER
  8
0
  9
$CELTYPE
  6
CONTINUOUS
  9
$CECOLOR
 62
         4
  9
$CELTSCALE
 40
1.0
  9
$DELOBJ
 70
         1
  9
$DISPSILH
 70
         0
  9
$DIMSCALE
 40
1.0
  9
$DIMASZ
 40
0.18
  9
$DIMEXO
 40
0.0625
  9
$DIMDLI
 40
0.38
  9
$DIMRND
 40
0.0
  9
$DIMDLE
 40
0.0
  9
$DIMEXE
 40
0.25
  9
$DIMTP
 40
0.01
  9
$DIMTM
 40
-0.01
  9
$DIMTXT
 40
3.5
  9
$DIMCEN
 40
0.09
  9
$DIMTSZ
 40
0.0
  9
$DIMTOL
 70
         0
  9
$DIMLIM
 70
         0
  9
$DIMTIH
 70
         1
  9
$DIMTOH
 70
         1
  9
$DIMSE1
 70
         0
  9
$DIMSE2
 70
         0
  9
$DIMTAD
 70
         0
  9
$DIMZIN
 70
         0
  9
$DIMBLK
  1

  9
$DIMASO
 70
         1
  9
$DIMSHO
 70
         1
  9
$DIMPOST
  1

  9
$DIMAPOST
  1

  9
$DIMALT
 70
         0
  9
$DIMALTD
 70
         2
  9
$DIMALTF
 40
25.4
  9
$DIMLFAC
 40
1.0
  9
$DIMTOFL
 70
         0
  9
$DIMTVP
 40
0.0
  9
$DIMTIX
 70
         0
  9
$DIMSOXD
 70
         0
  9
$DIMSAH
 70
         0
  9
$DIMBLK1
  1

  9
$DIMBLK2
  1

  9
$DIMSTYLE
  2
STANDARD
  9
$DIMCLRD
 70
         0
  9
$DIMCLRE
 70
         0
  9
$DIMCLRT
 70
         4
  9
$DIMTFAC
 40
1.0
  9
$DIMGAP
 40
0.09
  9
$DIMJUST
 70
         0
  9
$DIMSD1
 70
         0
  9
$DIMSD2
 70
         0
  9
$DIMTOLJ
 70
         1
  9
$DIMTZIN
 70
         0
  9
$DIMALTZ
 70
         0
  9
$DIMALTTZ
 70
         0
  9
$DIMFIT
 70
         3
  9
$DIMUPT
 70
         0
  9
$DIMUNIT
 70
         2
  9
$DIMDEC
 70
         4
  9
$DIMTDEC
 70
         4
  9
$DIMALTU
 70
         2
  9
$DIMALTTD
 70
         2
  9
$DIMTXSTY
  7
STANDARD
  9
$DIMAUNIT
 70
         0
  9
$LUNITS
 70
         2
  9
$LUPREC
 70
        10
  9
$SKETCHINC
 40
0.1
  9
$FILLETRAD
 40
0.0
  9
$AUNITS
 70
         0
  9
$AUPREC
 70
         0
  9
$MENU
  1
acad
  9
$ELEVATION
 40
0.0
  9
$PELEVATION
 40
0.0
  9
$THICKNESS
 40
0.0
  9
$LIMCHECK
 70
         0
  9
$BLIPMODE
 70
         1
  9
$CHAMFERA
 40
0.0
  9
$CHAMFERB
 40
0.0
  9
$CHAMFERC
 40
0.0
  9
$CHAMFERD
 40
0.0
  9
$SKPOLY
 70
         0
  9
$TDCREATE
 40
0.000000000
  9
$TDUPDATE
 40
0.000000000
  9
$TDINDWG
 40
0.0000000000
  9
$TDUSRTIMER
 40
0.0000000000
  9
$USRTIMER
 70
         1
  9
$ANGBASE
 50
0.0
  9
$ANGDIR
 70
         0
  9
$PDMODE
 70
         2
  9
$PDSIZE
 40
0.0
  9
$PLINEWID
 40
0.0
  9
$COORDS
 70
         1
  9
$SPLFRAME
 70
         0
  9
$SPLINETYPE
 70
         6
  9
$SPLINESEGS
 70
         8
  9
$ATTDIA
 70
         0
  9
$ATTREQ
 70
         1
  9
$HANDLING
 70
         1
  9
$HANDSEED
  5
1AE
  9
$SURFTAB1
 70
         6
  9
$SURFTAB2
 70
         6
  9
$SURFTYPE
 70
         6
  9
$SURFU
 70
         6
  9
$SURFV
 70
         6
  9
$UCSNAME
  2

  9
$UCSORG
 10
0.0
 20
0.0
 30
0.0
  9
$UCSXDIR
 10
1.0
 20
0.0
 30
0.0
  9
$UCSYDIR
 10
0.0
 20
1.0
 30
0.0
  9
$PUCSNAME
  2

  9
$PUCSORG
 10
0.0
 20
0.0
 30
0.0
  9
$PUCSXDIR
 10
1.0
 20
0.0
 30
0.0
  9
$PUCSYDIR
 10
0.0
 20
1.0
 30
0.0
  9
$USERI1
 70
         0
  9
$USERI2
 70
         0
  9
$USERI3
 70
         0
  9
$USERI4
 70
         0
  9
$USERI5
 70
         0
  9
$USERR1
 40
0.0
  9
$USERR2
 40
0.0
  9
$USERR3
 40
0.0
  9
$USERR4
 40
0.0
  9
$USERR5
 40
0.0
  9
$WORLDVIEW
 70
         1
  9
$SHADEDGE
 70
         3
  9
$SHADEDIF
 70
        70
  9
$TILEMODE
 70
         1
  9
$MAXACTVP
 70
        16
  9
$PINSBASE
 10
0.0
 20
0.0
 30
0.0
  9
$PLIMCHECK
 70
         0
  9
$PEXTMIN
 10
1.0000000000E+20
 20
1.0000000000E+20
 30
1.0000000000E+20
  9
$PEXTMAX
 10
-1.0000000000E+20
 20
-1.0000000000E+20
 30
-1.0000000000E+20
  9
$PLIMMIN
 10
0.0
 20
0.0
  9
$PLIMMAX
 10
12.0
 20
9.0
  9
$UNITMODE
 70
         0
  9
$VISRETAIN
 70
         0
  9
$PLINEGEN
 70
         1
  9
$PSLTSCALE
 70
         0
  9
$TREEDEPTH
 70
      3020
  9
$PICKSTYLE
 70
         1
  9
$CMLSTYLE
  2
STANDARD
  9
$CMLJUST
 70
         0
  9
$CMLSCALE
 40
1.0
  9
$PROXYGRAPHICS
 70
         0
  9
$MEASUREMENT
 70
         0
  0
ENDSEC
  0
SECTION
  2
CLASSES
  0
CLASS
  1
LWPOLYLINE
  2
AcDbPolyline
  3
"AutoCAD"
 90
        0
280
         0
281
         1
  0
CLASS
  1
IMAGE
  2
AcDbRasterImage
  3
ISM
 90
      127
280
         0
281
         1
  0
CLASS
  1
OLE2FRAME
  2
AcDbOle2Frame
  3
""
 90
        0
280
         0
281
         1
  0
CLASS
  1
HATCH
  2
AcDbHatch
  3
"ACAD_SEDONA"
 90
        0
280
         0
281
         1
  0
CLASS
  1
DICTIONARYVAR
  2
AcDbDictionaryVar
  3
"AutoCAD"
 90
        0
280
         0
281
         0
  0
CLASS
  1
RASTERVARIABLES
  2
AcDbRasterVariables
  3
ISM
 90
        0
280
         0
281
         0
  0
CLASS
  1
IMAGEDEF
  2
AcDbRasterImageDef
  3
ISM
 90
        0
280
         0
281
         0
  0
CLASS
  1
IMAGEDEF_REACTOR
  2
AcDbRasterImageDefReactor
  3
ISM
 90
        1
280
         0
281
         0
  0
CLASS
  1
IDBUFFER
  2
AcDbIdBuffer
  3
"Acad"
 90
        0
280
         0
281
         0
  0
CLASS
  1
SPATIAL_FILTER
  2
AcDbSpatialFilter
  3
"Acad"
 90
        0
280
         0
281
         0
  0
CLASS
  1
XRECORD
  2
AcDbXrecord
  3
"<Built In>"
 90
        0
280
         0
281
         0
  0
CLASS
  1
SORTENTSTABLE
  2
AcDbSortentsTable
  3
"AutoCAD"
 90
        0
280
         0
281
         0
  0
CLASS
  1
LAYER_INDEX
  2
AcDbLayerIndex
  3
"Acad"
 90
        0
280
         0
281
         0
  0
CLASS
  1
SPATIAL_INDEX
  2
AcDbSpatialIndex
  3
"Acad"
 90
        0
280
         0
281
         0
  0
CLASS
  1
OBJECT_PTR
  2
CAseDLPNTableRecord
  3
"ASE-LPNTableRecord"
 90
        1
280
         0
281
         0
  0
CLASS
  1
LAYOUT
  2
AcDbLayout
  3
"AutoCAD 2000"
 90
        1
280
         0
281
         0
  0
CLASS
  1
PLOTSETTINGS
  2
AcDbPlotSettings
  3
"AutoCAD 2000"
 90
        1
280
         0
281
         0
  0
CLASS
  1
ACDBDICTIONARYWDFLT
  2
AcDbDictionaryWithDefault
  3
"AutoCAD 2000"
 90
        1
280
         0
281
         0
  0
CLASS
  1
ACDBPLACEHOLDER
  2
AcDbPlaceHolder
  3
"AutoCAD 2000"
 90
        1
280
         0
281
         0
  0
CLASS
  1
VBA_PROJECT
  2
AcDbVbaProject
  3
"acadvba"
 90
        1
280
         0
281
         0
  0
CLASS
  1
WIPEOUT
  2
AcDbWipeout
  3
WipeOut|AutoCAD Express Tool|expresstools@autodesk.com
 90
      127
280
         0
281
         1
  0
CLASS
  1
WIPEOUTVARIABLES
  2
AcDbWipeoutVariables
  3
WipeOut|AutoCAD Express Tool|expresstools@autodesk.com
 90
        0
280
         0
281
         0
  0
CLASS
  1
RTEXT
  2
RText
  3
RText|AutoCAD Express Tool|expresstools@autodesk.com
 90
        0
280
         0
281
         1
  0
CLASS
  1
ARCALIGNEDTEXT
  2
AcDbArcAlignedText
  3
ATEXT|AutoCAD Express Tool|expresstools@autodesk.com
 90
        0
280
         0
281
         1
  0
ENDSEC
  0
SECTION
  2
TABLES
  0
TABLE
  2
VPORT
  5
7
100
AcDbSymbolTable
 70
         1
  0
VPORT
  5
15
100
AcDbSymbolTableRecord
100
AcDbViewportTableRecord
  2
*ACTIVE
 70
         0
 10
0.0
 20
0.0
 11
1.0
 21
1.0
 12
2669.1132154648
 22
593.1197986303
 13
0.0
 23
0.0
 14
1.0
 24
1.0
 15
0.0
 25
0.0
 16
0.0
 26
0.0
 36
1.0
 17
0.0
 27
0.0
 37
0.0
 40
463.9136423134
 41
1.9834619625
 42
50.0
 43
0.0
 44
0.0
 50
0.0
 51
0.0
 71
         0
 72
       100
 73
         1
 74
         1
 75
         0
 76
         0
 77
         0
 78
         0
  0
ENDTAB
  0
TABLE
  2
LTYPE
  5
4
100
AcDbSymbolTable
 70
         6
  0
LTYPE
  5
11
100
AcDbSymbolTableRecord
100
AcDbLinetypeTableRecord
  2
BYBLOCK
 70
        64
  3

 72
        65
 73
         0
 40
0.0
  0
LTYPE
  5
12
100
AcDbSymbolTableRecord
100
AcDbLinetypeTableRecord
  2
BYLAYER
 70
        64
  3

 72
        65
 73
         0
 40
0.0
  0
LTYPE
  5
13
100
AcDbSymbolTableRecord
100
AcDbLinetypeTableRecord
  2
CONTINUOUS
 70
        64
  3
Solid line
 72
        65
 73
         0
 40
0.0
  0
LTYPE
  5
1D
100
AcDbSymbolTableRecord
100
AcDbLinetypeTableRecord
  2
DASHED
 70
        64
  3
_ _ _ _ _ _ _ _ _ _ _ _ _ _ _ _
 72
        65
 73
         2
 40
0.2
 49
0.1
 74
         0
 49
-0.1
 74
         0
  0
LTYPE
  5
1E
100
AcDbSymbolTableRecord
100
AcDbLinetypeTableRecord
  2
CENTER
 70
        64
  3
___ _ ___ _ ___ _ ___ _ ___ _ ___ _ ___ _ ___ _
 72
        65
 73
         4
 40
0.95
 49
0.625
 74
         0
 49
-0.125
 74
         0
 49
0.075
 74
         0
 49
-0.125
 74
         0
  0
LTYPE
  5
1F
100
AcDbSymbolTableRecord
100
AcDbLinetypeTableRecord
  2
PHANTOM
 70
        64
  3
______  __  __  ______  __  __  ______  __  __  
 72
        65
 73
         6
 40
1.025
 49
0.625
 74
         0
 49
-0.125
 74
         0
 49
0.075
 74
         0
 49
-0.125
 74
         0
 49
0.075
 74
         0
 49
-0.125
 74
         0
  0
ENDTAB
  0
TABLE
  2
LAYER
  5
2
100
AcDbSymbolTable
 70
         9
  0
LAYER
  5
14
100
AcDbSymbolTableRecord
100
AcDbLayerTableRecord
  2
0
 70
         0
 62
         7
  6
CONTINUOUS
  0
LAYER
  5
21
100
AcDbSymbolTableRecord
100
AcDbLayerTableRecord
  2
______
 70
         0
 62
         7
  6
CONTINUOUS
  0
LAYER
  5
22
100
AcDbSymbolTableRecord
100
AcDbLayerTableRecord
  2
______
 70
         1
 62
         7
  6
CONTINUOUS
  0
LAYER
  5
23
100
AcDbSymbolTableRecord
100
AcDbLayerTableRecord
  2
______
 70
         1
 62
         7
  6
CONTINUOUS
  0
LAYER
  5
24
100
AcDbSymbolTableRecord
100
AcDbLayerTableRecord
  2
______
 70
         1
 62
         7
  6
CONTINUOUS
  0
LAYER
  5
25
100
AcDbSymbolTableRecord
100
AcDbLayerTableRecord
  2
___G__
 70
         1
 62
         7
  6
CONTINUOUS
  0
LAYER
  5
26
100
AcDbSymbolTableRecord
100
AcDbLayerTableRecord
  2
______
 70
         1
 62
         7
  6
CONTINUOUS
  0
LAYER
  5
27
100
AcDbSymbolTableRecord
100
AcDbLayerTableRecord
  2
_____I
 70
         1
 62
         7
  6
CONTINUOUS
  0
LAYER
  5
94
100
AcDbSymbolTableRecord
100
AcDbLayerTableRecord
  2
DEFPOINTS
 70
         0
 62
        -7
  6
CONTINUOUS
  0
ENDTAB
  0
TABLE
  2
STYLE
  5
3
100
AcDbSymbolTable
 70
        10
  0
STYLE
  5
17
100
AcDbSymbolTableRecord
100
AcDbTextStyleTableRecord
  2
STANDARD
 70
         0
 40
0.0
 41
1.0
 50
0.0
 71
         0
 42
0.0
  3
txt
  4

  0
STYLE
  5
9F
100
AcDbSymbolTableRecord
100
AcDbTextStyleTableRecord
  2
BOX
 70
         0
 40
1.0
 41
1.0
 50
0.0
 71
         0
 42
0.2
  3
txt.shx
  4

  0
STYLE
  5
AD
100
AcDbSymbolTableRecord
100
AcDbTextStyleTableRecord
  2
BOX
 70
         0
 40
1.0
 41
1.0
 50
0.0
 71
         0
 42
0.2
  3
txt.shx
  4

  0
STYLE
  5
161
100
AcDbSymbolTableRecord
100
AcDbTextStyleTableRecord
  2
BOX
 70
         0
 40
1.0
 41
1.0
 50
0.0
 71
         0
 42
0.2
  3
txt.shx
  4

  0
STYLE
  5
16F
100
AcDbSymbolTableRecord
100
AcDbTextStyleTableRecord
  2
BOX
 70
         0
 40
1.0
 41
1.0
 50
0.0
 71
         0
 42
0.2
  3
txt.shx
  4

  0
STYLE
  5
17D
100
AcDbSymbolTableRecord
100
AcDbTextStyleTableRecord
  2
BOX
 70
         0
 40
1.0
 41
1.0
 50
0.0
 71
         0
 42
0.2
  3
txt.shx
  4

  0
STYLE
  5
18D
100
AcDbSymbolTableRecord
100
AcDbTextStyleTableRecord
  2
BOX
 70
         0
 40
1.0
 41
1.0
 50
0.0
 71
         0
 42
0.2
  3
txt.shx
  4

  0
STYLE
  5
19B
100
AcDbSymbolTableRecord
100
AcDbTextStyleTableRecord
  2
BOX
 70
         0
 40
1.0
 41
1.0
 50
0.0
 71
         0
 42
0.2
  3
txt.shx
  4

  0
STYLE
  5
1A9
100
AcDbSymbolTableRecord
100
AcDbTextStyleTableRecord
  2
BOX
 70
         0
 40
1.0
 41
1.0
 50
0.0
 71
         0
 42
0.2
  3
txt.shx
  4

  0
STYLE
  5
1AC
100
AcDbSymbolTableRecord
100
AcDbTextStyleTableRecord
  2
BOX
 70
         0
 40
1.0
 41
1.0
 50
0.0
 71
         0
 42
0.2
  3
txt.shx
  4

  0
ENDTAB
  0
TABLE
  2
VIEW
  5
5
100
AcDbSymbolTable
 70
         0
  0
ENDTAB
  0
TABLE
  2
UCS
  5
6
100
AcDbSymbolTable
 70
         1
  0
UCS
  5
20
100
AcDbSymbolTableRecord
100
AcDbUCSTableRecord
  2
CK_VIEW_1
 70
         0
 10
0.0
 20
0.0
 30
1.0
 11
1.0
 21
0.0
 31
0.0
 12
0.0
 22
1.0
 32
0.0
  0
ENDTAB
  0
TABLE
  2
APPID
  5
8
100
AcDbSymbolTable
 70
         1
  0
APPID
  5
16
100
AcDbSymbolTableRecord
100
AcDbRegAppTableRecord
  2
ACAD
 70
         0
  0
ENDTAB
  0
TABLE
  2
DIMSTYLE
  5
9
100
AcDbSymbolTable
 70
         2
  0
DIMSTYLE
105
18
100
AcDbSymbolTableRecord
100
AcDbDimStyleTableRecord
  2
STANDARD
 70
         0
  3

  4

  5

  6

  7

 40
1.0
 41
0.18
 42
0.0625
 43
0.38
 44
0.18
 45
0.0
 46
0.0
 47
0.0
 48
0.0
 71
         0
 72
         0
 73
         1
 74
         1
 75
         0
 76
         0
 77
         0
 78
         0
140
0.18
141
0.09
142
0.0
143
25.4
144
1.0
145
0.0
146
1.0
147
0.09
170
         0
171
         2
172
         0
173
         0
174
         0
175
         0
176
         0
177
         0
178
         0
270
         2
271
         4
272
         4
273
         2
274
         2
275
         0
280
         0
281
         0
282
         0
283
         1
284
         0
285
         0
286
         0
287
         0
288
         0
340
17
  0
DIMSTYLE
105
90
100
AcDbSymbolTableRecord
100
AcDbDimStyleTableRecord
  2
DIMSTYLE1
 70
         0
  3

  4

  5

  6

  7

 40
1.0
 41
3.5
 42
0.0625
 43
0.38
 44
3.5
 45
0.0
 46
0.0
 47
0.0
 48
0.0
 71
         0
 72
         0
 73
         1
 74
         1
 75
         0
 76
         0
 77
         0
 78
         0
140
3.5
141
0.09
142
0.0
143
25.4
144
1.0
145
0.0
146
1.0
147
0.09
170
         0
171
         2
172
         0
173
         0
174
         0
175
         0
176
         0
177
         0
178
         0
270
         2
271
         4
272
         4
273
         2
274
         2
275
         0
280
         0
281
         0
282
         0
283
         1
284
         0
285
         0
286
         0
287
         0
288
         0
340
17
  0
ENDTAB
  0
TABLE
  2
BLOCK_RECORD
  5
1
100
AcDbSymbolTable
 70
         9
  0
BLOCK_RECORD
  5
A
100
AcDbSymbolTableRecord
100
AcDbBlockTableRecord
  2
*MODEL_SPACE
  0
BLOCK_RECORD
  5
B
100
AcDbSymbolTableRecord
100
AcDbBlockTableRecord
  2
*PAPER_SPACE
  0
BLOCK_RECORD
  5
28
100
AcDbSymbolTableRecord
100
AcDbBlockTableRecord
  2
*X0
  0
BLOCK_RECORD
  5
91
100
AcDbSymbolTableRecord
100
AcDbBlockTableRecord
  2
*D1
  0
BLOCK_RECORD
  5
A2
100
AcDbSymbolTableRecord
100
AcDbBlockTableRecord
  2
*D2
  0
BLOCK_RECORD
  5
156
100
AcDbSymbolTableRecord
100
AcDbBlockTableRecord
  2
*D3
  0
BLOCK_RECORD
  5
164
100
AcDbSymbolTableRecord
100
AcDbBlockTableRecord
  2
*D4
  0
BLOCK_RECORD
  5
172
100
AcDbSymbolTableRecord
100
AcDbBlockTableRecord
  2
*D5
  0
BLOCK_RECORD
  5
180
100
AcDbSymbolTableRecord
100
AcDbBlockTableRecord
  2
*D6
  0
BLOCK_RECORD
  5
190
100
AcDbSymbolTableRecord
100
AcDbBlockTableRecord
  2
*D7
  0
BLOCK_RECORD
  5
19E
100
AcDbSymbolTableRecord
100
AcDbBlockTableRecord
  2
*D8
  0
ENDTAB
  0
ENDSEC
  0
SECTION
  2
BLOCKS
  0
BLOCK
  5
D
100
AcDbEntity
  8
0
100
AcDbBlockBegin
  2
*MODEL_SPACE
 70
         0
 10
0.0
 20
0.0
 30
0.0
  3
*MODEL_SPACE
  1

  0
ENDBLK
  5
E
100
AcDbEntity
  8
0
100
AcDbBlockEnd
  0
BLOCK
  5
F
100
AcDbEntity
 67
         1
  8
0
100
AcDbBlockBegin
  2
*PAPER_SPACE
 70
         0
 10
0.0
 20
0.0
 30
0.0
  3
*PAPER_SPACE
  1

  0
ENDBLK
  5
10
100
AcDbEntity
 67
         1
  8
0
100
AcDbBlockEnd
  0
BLOCK
  5
29
100
AcDbEntity
  8
0
100
AcDbBlockBegin
  2
*X0
 70
        65
 10
0.0
 20
0.0
 30
0.0
  3
*X0
  1

  0
LINE
  5
2A
100
AcDbEntity
  8
______
  6
CONTINUOUS
 62
         4
100
AcDbLine
 10
2759.7478749228
 20
482.6173908033
 30
0.0
 11
2762.6557952478
 21
485.5253111283
 31
0.0
  0
LINE
  5
2B
100
AcDbEntity
  8
______
  6
CONTINUOUS
 62
         4
100
AcDbLine
 10
2755.3911710839
 20
482.5033276516
 30
0.0
 11
2762.6557952478
 21
489.7679518154
 31
0.0
  0
LINE
  5
2C
100
AcDbEntity
  8
______
  6
CONTINUOUS
 62
         4
100
AcDbLine
 10
2751.0344672451
 20
482.3892644998
 30
0.0
 11
2762.5846347334
 21
493.9394319882
 31
0.0
  0
LINE
  5
2D
100
AcDbEntity
  8
______
  6
CONTINUOUS
 62
         4
100
AcDbLine
 10
2746.6777634062
 20
482.2752013481
 30
0.0
 11
2759.6200323453
 21
495.2174702872
 31
0.0
  0
LINE
  5
2E
100
AcDbEntity
  8
______
  6
CONTINUOUS
 62
         4
100
AcDbLine
 10
2761.5795240225
 20
497.1769619644
 30
0.0
 11
2762.6557952478
 21
498.2532331897
 31
0.0
  0
LINE
  5
2F
100
AcDbEntity
  8
______
  6
CONTINUOUS
 62
         4
100
AcDbLine
 10
2742.3210595674
 20
482.1611381963
 30
0.0
 11
2762.6557952478
 21
502.4958738768
 31
0.0
  0
LINE
  5
30
100
AcDbEntity
  8
______
  6
CONTINUOUS
 62
         4
100
AcDbLine
 10
2737.9643557285
 20
482.0470750446
 30
0.0
 11
2762.6557952478
 21
506.7385145639
 31
0.0
  0
LINE
  5
31
100
AcDbEntity
  8
______
  6
CONTINUOUS
 62
         4
100
AcDbLine
 10
2733.6076518896
 20
481.9330118929
 30
0.0
 11
2760.7648477267
 21
509.0902077299
 31
0.0
  0
LINE
  5
32
100
AcDbEntity
  8
______
  6
CONTINUOUS
 62
         4
100
AcDbLine
 10
2694.5461677777
 20
447.114168468
 30
0.0
 11
2699.8041123372
 21
452.3721130276
 31
0.0
  0
LINE
  5
33
100
AcDbEntity
  8
______
  6
CONTINUOUS
 62
         4
100
AcDbLine
 10
2729.2509480508
 20
481.8189487411
 30
0.0
 11
2756.6304499808
 21
509.1984506711
 31
0.0
  0
LINE
  5
34
100
AcDbEntity
  8
______
  6
CONTINUOUS
 62
         4
100
AcDbLine
 10
2690.3035270906
 20
447.114168468
 30
0.0
 11
2699.8041123372
 21
456.6147537147
 31
0.0
  0
LINE
  5
35
100
AcDbEntity
  8
______
  6
CONTINUOUS
 62
         4
100
AcDbLine
 10
2724.8942442119
 20
481.7048855894
 30
0.0
 11
2752.4960522349
 21
509.3066936123
 31
0.0
  0
LINE
  5
36
100
AcDbEntity
  8
______
  6
CONTINUOUS
 62
         4
100
AcDbLine
 10
2687.8188159162
 20
448.8720979808
 30
0.0
 11
2699.8041123372
 21
460.8573944018
 31
0.0
  0
LINE
  5
37
100
AcDbEntity
  8
______
  6
CONTINUOUS
 62
         4
100
AcDbLine
 10
2720.5375403731
 20
481.5908224376
 30
0.0
 11
2748.361654489
 21
509.4149365535
 31
0.0
  0
LINE
  5
38
100
AcDbEntity
  8
______
  6
CONTINUOUS
 62
         4
100
AcDbLine
 10
2687.8041123372
 20
453.1000350889
 30
0.0
 11
2699.8041123372
 21
465.1000350889
 31
0.0
  0
LINE
  5
39
100
AcDbEntity
  8
______
  6
CONTINUOUS
 62
         4
100
AcDbLine
 10
2713.0711892311
 20
478.3671119828
 30
0.0
 11
2744.227256743
 21
509.5231794947
 31
0.0
  0
LINE
  5
3A
100
AcDbEntity
  8
______
  6
CONTINUOUS
 62
         4
100
AcDbLine
 10
2687.8041123372
 20
457.342675776
 30
0.0
 11
2699.8041123372
 21
469.342675776
 31
0.0
  0
LINE
  5
3B
100
AcDbEntity
  8
______
  6
CONTINUOUS
 62
         4
100
AcDbLine
 10
2708.828548544
 20
478.3671119828
 30
0.0
 11
2740.0928589971
 21
509.6314224359
 31
0.0
  0
LINE
  5
3C
100
AcDbEntity
  8
______
  6
CONTINUOUS
 62
         4
100
AcDbLine
 10
2687.3402361724
 20
461.1214402983
 30
0.0
 11
2699.8041123372
 21
473.5853164632
 31
0.0
  0
LINE
  5
3D
100
AcDbEntity
  8
______
  6
CONTINUOUS
 62
         4
100
AcDbLine
 10
2704.5859078568
 20
478.3671119828
 30
0.0
 11
2735.9584612512
 21
509.7396653771
 31
0.0
  0
LINE
  5
3E
100
AcDbEntity
  8
______
  6
CONTINUOUS
 62
         4
100
AcDbLine
 10
2683.1302593653
 20
461.1541041784
 30
0.0
 11
2731.8240635053
 21
509.8479083183
 31
0.0
  0
LINE
  5
3F
100
AcDbEntity
  8
______
  6
CONTINUOUS
 62
         4
100
AcDbLine
 10
2679.4275885391
 20
461.6940740393
 30
0.0
 11
2727.6896657593
 21
509.9561512595
 31
0.0
  0
LINE
  5
40
100
AcDbEntity
  8
______
  6
CONTINUOUS
 62
         4
100
AcDbLine
 10
2675.7249177129
 20
462.2340439002
 30
0.0
 11
2723.5552680134
 21
510.0643942007
 31
0.0
  0
LINE
  5
41
100
AcDbEntity
  8
______
  6
CONTINUOUS
 62
         4
100
AcDbLine
 10
2672.0222468867
 20
462.7740137611
 30
0.0
 11
2719.4208702675
 21
510.1726371419
 31
0.0
  0
LINE
  5
42
100
AcDbEntity
  8
______
  6
CONTINUOUS
 62
         4
100
AcDbLine
 10
2668.3195760604
 20
463.313983622
 30
0.0
 11
2716.0041436062
 21
510.9985511677
 31
0.0
  0
LINE
  5
43
100
AcDbEntity
  8
______
  6
CONTINUOUS
 62
         4
100
AcDbLine
 10
2664.6169052342
 20
463.8539534829
 30
0.0
 11
2714.1300637341
 21
513.3671119828
 31
0.0
  0
LINE
  5
44
100
AcDbEntity
  8
______
  6
CONTINUOUS
 62
         4
100
AcDbLine
 10
2660.914234408
 20
464.3939233438
 30
0.0
 11
2709.887423047
 21
513.3671119828
 31
0.0
  0
LINE
  5
45
100
AcDbEntity
  8
______
  6
CONTINUOUS
 62
         4
100
AcDbLine
 10
2657.2115635818
 20
464.9338932047
 30
0.0
 11
2705.6447823599
 21
513.3671119828
 31
0.0
  0
LINE
  5
46
100
AcDbEntity
  8
______
  6
CONTINUOUS
 62
         4
100
AcDbLine
 10
2653.5088927555
 20
465.4738630656
 30
0.0
 11
2701.6380378058
 21
513.6030081158
 31
0.0
  0
LINE
  5
47
100
AcDbEntity
  8
______
  6
CONTINUOUS
 62
         4
100
AcDbLine
 10
2649.8062219293
 20
466.0138329264
 30
0.0
 11
2699.82303974
 21
516.0306507371
 31
0.0
  0
LINE
  5
48
100
AcDbEntity
  8
______
  6
CONTINUOUS
 62
         4
100
AcDbLine
 10
2646.1035511031
 20
466.5538027873
 30
0.0
 11
2699.8041123372
 21
520.2543640215
 31
0.0
  0
LINE
  5
49
100
AcDbEntity
  8
______
  6
CONTINUOUS
 62
         4
100
AcDbLine
 10
2642.4008802769
 20
467.0937726482
 30
0.0
 11
2699.8041123372
 21
524.4970047086
 31
0.0
  0
LINE
  5
4A
100
AcDbEntity
  8
______
  6
CONTINUOUS
 62
         4
100
AcDbLine
 10
2638.6982094507
 20
467.6337425091
 30
0.0
 11
2699.8041123372
 21
528.7396453957
 31
0.0
  0
LINE
  5
4B
100
AcDbEntity
  8
______
  6
CONTINUOUS
 62
         4
100
AcDbLine
 10
2634.9955386244
 20
468.17371237
 30
0.0
 11
2699.8041123372
 21
532.9822860828
 31
0.0
  0
LINE
  5
4C
100
AcDbEntity
  8
______
  6
CONTINUOUS
 62
         4
100
AcDbLine
 10
2631.2928677982
 20
468.7136822309
 30
0.0
 11
2699.8041123372
 21
537.22492677
 31
0.0
  0
LINE
  5
4D
100
AcDbEntity
  8
______
  6
CONTINUOUS
 62
         4
100
AcDbLine
 10
2627.590196972
 20
469.2536520918
 30
0.0
 11
2699.8041123372
 21
541.4675674571
 31
0.0
  0
LINE
  5
4E
100
AcDbEntity
  8
______
  6
CONTINUOUS
 62
         4
100
AcDbLine
 10
2623.8875261458
 20
469.7936219527
 30
0.0
 11
2684.9306997269
 21
530.8367955339
 31
0.0
  0
LINE
  5
4F
100
AcDbEntity
  8
______
  6
CONTINUOUS
 62
         4
100
AcDbLine
 10
2687.8041123372
 20
533.7102081442
 30
0.0
 11
2698.5598080575
 21
544.4659038645
 31
0.0
  0
LINE
  5
50
100
AcDbEntity
  8
______
  6
CONTINUOUS
 62
         4
100
AcDbLine
 10
2620.1848553195
 20
470.3335918136
 30
0.0
 11
2679.9637104129
 21
530.112446907
 31
0.0
  0
LINE
  5
51
100
AcDbEntity
  8
______
  6
CONTINUOUS
 62
         4
100
AcDbLine
 10
2687.8041123372
 20
537.9528488313
 30
0.0
 11
2694.4654319739
 21
544.614168468
 31
0.0
  0
LINE
  5
52
100
AcDbEntity
  8
______
  6
CONTINUOUS
 62
         4
100
AcDbLine
 10
2616.4821844933
 20
470.8735616745
 30
0.0
 11
2674.9967210988
 21
529.38809828
 31
0.0
  0
LINE
  5
53
100
AcDbEntity
  8
______
  6
CONTINUOUS
 62
         4
100
AcDbLine
 10
2687.8041123372
 20
542.1954895184
 30
0.0
 11
2690.2227912868
 21
544.614168468
 31
0.0
  0
LINE
  5
54
100
AcDbEntity
  8
______
  6
CONTINUOUS
 62
         4
100
AcDbLine
 10
2612.7795136671
 20
471.4135315354
 30
0.0
 11
2670.0297317848
 21
528.6637496531
 31
0.0
  0
LINE
  5
55
100
AcDbEntity
  8
______
  6
CONTINUOUS
 62
         4
100
AcDbLine
 10
2609.0768428409
 20
471.9535013963
 30
0.0
 11
2665.0627424707
 21
527.9394010261
 31
0.0
  0
LINE
  5
56
100
AcDbEntity
  8
______
  6
CONTINUOUS
 62
         4
100
AcDbLine
 10
2605.3741720147
 20
472.4934712572
 30
0.0
 11
2660.0957531566
 21
527.2150523992
 31
0.0
  0
LINE
  5
57
100
AcDbEntity
  8
______
  6
CONTINUOUS
 62
         4
100
AcDbLine
 10
2601.6715011884
 20
473.0334411181
 30
0.0
 11
2614.0022285383
 21
485.364168468
 31
0.0
  0
LINE
  5
58
100
AcDbEntity
  8
______
  6
CONTINUOUS
 62
         4
100
AcDbLine
 10
2622.9895403569
 20
494.3514802865
 30
0.0
 11
2655.1287638426
 21
526.4907037723
 31
0.0
  0
LINE
  5
59
100
AcDbEntity
  8
______
  6
CONTINUOUS
 62
         4
100
AcDbLine
 10
2597.9688303622
 20
473.573410979
 30
0.0
 11
2609.7595878512
 21
485.364168468
 31
0.0
  0
LINE
  5
5A
100
AcDbEntity
  8
______
  6
CONTINUOUS
 62
         4
100
AcDbLine
 10
2622.5461454935
 20
498.1507261103
 30
0.0
 11
2650.1617745285
 21
525.7663551453
 31
0.0
  0
LINE
  5
5B
100
AcDbEntity
  8
______
  6
CONTINUOUS
 62
         4
100
AcDbLine
 10
2594.266159536
 20
474.1133808399
 30
0.0
 11
2605.5169471641
 21
485.364168468
 31
0.0
  0
LINE
  5
5C
100
AcDbEntity
  8
______
  6
CONTINUOUS
 62
         4
100
AcDbLine
 10
2620.9932312228
 20
500.8404525268
 30
0.0
 11
2645.1947852145
 21
525.0420065184
 31
0.0
  0
LINE
  5
5D
100
AcDbEntity
  8
______
  6
CONTINUOUS
 62
         4
100
AcDbLine
 10
2590.5634887098
 20
474.6533507008
 30
0.0
 11
2601.274306477
 21
485.364168468
 31
0.0
  0
LINE
  5
5E
100
AcDbEntity
  8
______
  6
CONTINUOUS
 62
         4
100
AcDbLine
 10
2619.4403169522
 20
503.5301789433
 30
0.0
 11
2640.2277959004
 21
524.3176578914
 31
0.0
  0
LINE
  5
5F
100
AcDbEntity
  8
______
  6
CONTINUOUS
 62
         4
100
AcDbLine
 10
2586.8608178835
 20
475.1933205617
 30
0.0
 11
2597.0316657899
 21
485.364168468
 31
0.0
  0
LINE
  5
60
100
AcDbEntity
  8
______
  6
CONTINUOUS
 62
         4
100
AcDbLine
 10
2617.8874026816
 20
506.2199053598
 30
0.0
 11
2635.2608065863
 21
523.5933092645
 31
0.0
  0
LINE
  5
61
100
AcDbEntity
  8
______
  6
CONTINUOUS
 62
         4
100
AcDbLine
 10
2583.5272633978
 20
476.102406763
 30
0.0
 11
2592.7890251028
 21
485.364168468
 31
0.0
  0
LINE
  5
62
100
AcDbEntity
  8
______
  6
CONTINUOUS
 62
         4
100
AcDbLine
 10
2613.7890251028
 20
506.364168468
 30
0.0
 11
2630.2938172723
 21
522.8689606376
 31
0.0
  0
LINE
  5
63
100
AcDbEntity
  8
______
  6
CONTINUOUS
 62
         4
100
AcDbLine
 10
2580.0493279304
 20
476.8671119828
 30
0.0
 11
2588.5463844156
 21
485.364168468
 31
0.0
  0
LINE
  5
64
100
AcDbEntity
  8
______
  6
CONTINUOUS
 62
         4
100
AcDbLine
 10
2609.5463844156
 20
506.364168468
 30
0.0
 11
2625.3268279582
 21
522.1446120106
 31
0.0
  0
LINE
  5
65
100
AcDbEntity
  8
______
  6
CONTINUOUS
 62
         4
100
AcDbLine
 10
2575.8066872433
 20
476.8671119828
 30
0.0
 11
2584.3037437285
 21
485.364168468
 31
0.0
  0
LINE
  5
66
100
AcDbEntity
  8
______
  6
CONTINUOUS
 62
         4
100
AcDbLine
 10
2605.3037437285
 20
506.364168468
 30
0.0
 11
2620.3598386442
 21
521.4202633837
 31
0.0
  0
LINE
  5
67
100
AcDbEntity
  8
______
  6
CONTINUOUS
 62
         4
100
AcDbLine
 10
2570.9140465562
 20
476.2171119828
 30
0.0
 11
2580.0611030414
 21
485.364168468
 31
0.0
  0
LINE
  5
68
100
AcDbEntity
  8
______
  6
CONTINUOUS
 62
         4
100
AcDbLine
 10
2601.0611030414
 20
506.364168468
 30
0.0
 11
2615.3928493301
 21
520.6959147567
 31
0.0
  0
LINE
  5
69
100
AcDbEntity
  8
______
  6
CONTINUOUS
 62
         4
100
AcDbLine
 10
2566.671405869
 20
476.2171119828
 30
0.0
 11
2575.8184623543
 21
485.364168468
 31
0.0
  0
LINE
  5
6A
100
AcDbEntity
  8
______
  6
CONTINUOUS
 62
         4
100
AcDbLine
 10
2596.8184623543
 20
506.364168468
 30
0.0
 11
2610.425860016
 21
519.9715661298
 31
0.0
  0
LINE
  5
6B
100
AcDbEntity
  8
______
  6
CONTINUOUS
 62
         4
100
AcDbLine
 10
2562.4287651819
 20
476.2171119828
 30
0.0
 11
2568.7875366862
 21
482.5758834871
 31
0.0
  0
LINE
  5
6C
100
AcDbEntity
  8
______
  6
CONTINUOUS
 62
         4
100
AcDbLine
 10
2592.5758216672
 20
506.364168468
 30
0.0
 11
2605.458870702
 21
519.2472175028
 31
0.0
  0
LINE
  5
6D
100
AcDbEntity
  8
______
  6
CONTINUOUS
 62
         4
100
AcDbLine
 10
2558.5938630225
 20
476.6248505105
 30
0.0
 11
2564.8390680096
 21
482.8700554975
 31
0.0
  0
LINE
  5
6E
100
AcDbEntity
  8
______
  6
CONTINUOUS
 62
         4
100
AcDbLine
 10
2588.33318098
 20
506.364168468
 30
0.0
 11
2600.4918813879
 21
518.5228688759
 31
0.0
  0
LINE
  5
6F
100
AcDbEntity
  8
______
  6
CONTINUOUS
 62
         4
100
AcDbLine
 10
2557.8041123372
 20
480.0777405123
 30
0.0
 11
2560.5964273224
 21
482.8700554975
 31
0.0
  0
LINE
  5
70
100
AcDbEntity
  8
______
  6
CONTINUOUS
 62
         4
100
AcDbLine
 10
2584.0905402929
 20
506.364168468
 30
0.0
 11
2595.5248920738
 21
517.798520249
 31
0.0
  0
LINE
  5
71
100
AcDbEntity
  8
______
  6
CONTINUOUS
 62
         4
100
AcDbLine
 10
2579.8478996058
 20
506.364168468
 30
0.0
 11
2590.5579027598
 21
517.074171622
 31
0.0
  0
LINE
  5
72
100
AcDbEntity
  8
______
  6
CONTINUOUS
 62
         4
100
AcDbLine
 10
2575.6052589187
 20
506.364168468
 30
0.0
 11
2585.5909134457
 21
516.3498229951
 31
0.0
  0
LINE
  5
73
100
AcDbEntity
  8
______
  6
CONTINUOUS
 62
         4
100
AcDbLine
 10
2571.8159385919
 20
506.8174888283
 30
0.0
 11
2579.8655617463
 21
514.8671119828
 31
0.0
  0
LINE
  5
74
100
AcDbEntity
  8
______
  6
CONTINUOUS
 62
         4
100
AcDbLine
 10
2569.4711032221
 20
508.7152941457
 30
0.0
 11
2575.6229210592
 21
514.8671119828
 31
0.0
  0
LINE
  5
75
100
AcDbEntity
  8
______
  6
CONTINUOUS
 62
         4
100
AcDbLine
 10
2565.3773368573
 20
508.864168468
 30
0.0
 11
2572.0302803721
 21
515.5171119828
 31
0.0
  0
LINE
  5
76
100
AcDbEntity
  8
______
  6
CONTINUOUS
 62
         4
100
AcDbLine
 10
2561.1346961702
 20
508.864168468
 30
0.0
 11
2567.787639685
 21
515.5171119828
 31
0.0
  0
LINE
  5
77
100
AcDbEntity
  8
______
  6
CONTINUOUS
 62
         4
100
AcDbLine
 10
2558.0038456628
 20
509.9759586478
 30
0.0
 11
2563.5449989978
 21
515.5171119828
 31
0.0
  0
LINE
  5
78
100
AcDbEntity
  8
______
  6
CONTINUOUS
 62
         4
100
AcDbLine
 10
2557.8934575601
 20
514.1082112322
 30
0.0
 11
2559.2130130879
 21
515.4277667599
 31
0.0
  0
ENDBLK
  5
79
100
AcDbEntity
  8
0
  6
CONTINUOUS
100
AcDbBlockEnd
  0
BLOCK
  5
92
100
AcDbEntity
  8
0
100
AcDbBlockBegin
  2
*D1
 70
        65
 10
0.0
 20
0.0
 30
0.0
  3
*D1
  1

  0
POINT
  5
95
100
AcDbEntity
  8
DEFPOINTS
  6
CONTINUOUS
 62
         0
100
AcDbPoint
 10
2699.6675961542
 20
510.1421119828
 30
0.0
  0
POINT
  5
96
100
AcDbEntity
  8
DEFPOINTS
  6
CONTINUOUS
 62
         0
100
AcDbPoint
 10
2794.7119239644
 20
510.1421119828
 30
0.0
  0
POINT
  5
97
100
AcDbEntity
  8
DEFPOINTS
  6
CONTINUOUS
 62
         0
100
AcDbPoint
 10
2717.3941279957
 20
510.2270977998
 30
0.0
  0
POINT
  5
98
100
AcDbEntity
  8
DEFPOINTS
  6
CONTINUOUS
 62
         0
100
AcDbPoint
 10
2750.0427952478
 20
509.3580208053
 30
0.0
  0
ARC
  5
99
100
AcDbEntity
  8
______
  6
CONTINUOUS
 62
         4
100
AcDbCircle
 10
2720.5867952478
 20
510.1421119828
 30
0.0
 40
16.3895470892
100
AcDbArc
 50
334.0040871371
 51
358.4752
  0
SOLID
  5
9A
100
AcDbEntity
  8
______
  6
CONTINUOUS
 62
         4
100
AcDbTrace
 10
2736.9705388125
 20
509.7059920485
 30
0.0
 11
2737.0261174485
 21
506.167272504
 31
0.0
 12
2735.9854163219
 22
506.3067040821
 32
0.0
 13
2736.9705388125
 23
509.7059920485
 33
0.0
  0
ARC
  5
9B
100
AcDbEntity
  8
______
  6
CONTINUOUS
 62
         4
100
AcDbCircle
 10
2720.5867952478
 20
510.1421119828
 30
0.0
 40
16.3895470892
100
AcDbArc
 50
0.0
 51
31.761896231
  0
SOLID
  5
9C
100
AcDbEntity
  8
______
  6
CONTINUOUS
 62
         4
100
AcDbTrace
 10
2736.976342337
 20
510.1421119828
 30
0.0
 11
2736.0820225037
 21
513.5664100182
 31
0.0
 12
2737.126065343
 22
513.6780995424
 32
0.0
 13
2736.976342337
 23
510.1421119828
 33
0.0
  0
ARC
  5
9D
100
AcDbEntity
  8
______
  6
CONTINUOUS
 62
         4
100
AcDbCircle
 10
2720.5867952478
 20
510.1421119828
 30
0.0
 40
16.3895470892
100
AcDbArc
 50
358.4752
 51
360.0
  0
SOLID
  5
9E
100
AcDbEntity
  8
______
  6
CONTINUOUS
 62
         4
100
AcDbTrace
 10
2720.5867952478
 20
510.1421119828
 30
0.0
 11
2721.9786978583
 21
513.3960683628
 31
0.0
 12
2722.8721465591
 22
512.8444802745
 32
0.0
 13
2720.5867952478
 23
510.1421119828
 33
0.0
  0
TEXT
  5
A0
100
AcDbEntity
  8
______
  6
CONTINUOUS
 62
         4
100
AcDbText
 10
2736.2718921094
 20
520.5194133713
 30
0.0
 40
3.5
  1
1.4997%%d 
  7
BOX
100
AcDbText
  0
ENDBLK
  5
A1
100
AcDbEntity
  8
0
  6
CONTINUOUS
100
AcDbBlockEnd
  0
BLOCK
  5
A3
100
AcDbEntity
  8
0
100
AcDbBlockBegin
  2
*D2
 70
        65
 10
0.0
 20
0.0
 30
0.0
  3
*D2
  1

  0
POINT
  5
A5
100
AcDbEntity
  8
DEFPOINTS
  6
CONTINUOUS
 62
         0
100
AcDbPoint
 10
2786.7372280708
 20
509.0407007077
 30
0.0
  0
POINT
  5
A6
100
AcDbEntity
  8
DEFPOINTS
  6
CONTINUOUS
 62
         0
100
AcDbPoint
 10
2762.6557952478
 20
509.0407007077
 30
0.0
  0
POINT
  5
A7
100
AcDbEntity
  8
DEFPOINTS
  6
CONTINUOUS
 62
         0
100
AcDbPoint
 10
2762.6557952478
 20
482.6935232579
 30
0.0
  0
LINE
  5
A8
100
AcDbEntity
  8
______
  6
CONTINUOUS
 62
         4
100
AcDbLine
 10
2764.4057952478
 20
509.0407007077
 30
0.0
 11
2787.6122280708
 21
509.0407007077
 31
0.0
  0
LINE
  5
A9
100
AcDbEntity
  8
______
  6
CONTINUOUS
 62
         4
100
AcDbLine
 10
2764.4057952478
 20
482.6935232579
 30
0.0
 11
2787.6122280708
 21
482.6935232579
 31
0.0
  0
LINE
  5
AA
100
AcDbEntity
  8
______
  6
CONTINUOUS
 62
         4
100
AcDbLine
 10
2786.7372280708
 20
509.0407007077
 30
0.0
 11
2786.7372280708
 21
482.6935232579
 31
0.0
  0
SOLID
  5
AB
100
AcDbEntity
  8
______
  6
CONTINUOUS
 62
         4
100
AcDbTrace
 10
2786.7372280708
 20
509.0407007077
 30
0.0
 11
2787.2622280708
 21
505.5407007077
 31
0.0
 12
2786.2122280708
 22
505.5407007077
 32
0.0
 13
2786.7372280708
 23
509.0407007077
 33
0.0
  0
SOLID
  5
AC
100
AcDbEntity
  8
______
  6
CONTINUOUS
 62
         4
100
AcDbTrace
 10
2786.7372280708
 20
482.6935232579
 30
0.0
 11
2786.2122280708
 21
486.1935232579
 31
0.0
 12
2787.2622280708
 22
486.1935232579
 32
0.0
 13
2786.7372280708
 23
482.6935232579
 33
0.0
  0
TEXT
  5
AE
100
AcDbEntity
  8
______
  6
CONTINUOUS
 62
         4
100
AcDbText
 10
2784.1122280708
 20
482.4536474709
 30
0.0
 40
3.5
  1
崷26.35
 50
90.0
  7
BOX
100
AcDbText
  0
ENDBLK
  5
AF
100
AcDbEntity
  8
0
  6
CONTINUOUS
100
AcDbBlockEnd
  0
BLOCK
  5
157
100
AcDbEntity
  8
0
100
AcDbBlockBegin
  2
*D3
 70
        65
 10
0.0
 20
0.0
 30
0.0
  3
*D3
  1

  0
POINT
  5
159
100
AcDbEntity
  8
DEFPOINTS
  6
CONTINUOUS
 62
         0
100
AcDbPoint
 10
2557.7957952478
 20
797.8646360455
 30
0.0
  0
POINT
  5
15A
100
AcDbEntity
  8
DEFPOINTS
  6
CONTINUOUS
 62
         0
100
AcDbPoint
 10
2557.7957952478
 20
723.5171119828
 30
0.0
  0
POINT
  5
15B
100
AcDbEntity
  8
DEFPOINTS
  6
CONTINUOUS
 62
         0
100
AcDbPoint
 10
2762.6557952478
 20
718.0407007077
 30
0.0
  0
LINE
  5
15C
100
AcDbEntity
  8
______
  6
CONTINUOUS
 62
         4
100
AcDbLine
 10
2557.7957952478
 20
725.2671119828
 30
0.0
 11
2557.7957952478
 21
798.7396360455
 31
0.0
  0
LINE
  5
15D
100
AcDbEntity
  8
______
  6
CONTINUOUS
 62
         4
100
AcDbLine
 10
2762.6557952478
 20
719.7907007077
 30
0.0
 11
2762.6557952478
 21
798.7396360455
 31
0.0
  0
LINE
  5
15E
100
AcDbEntity
  8
______
  6
CONTINUOUS
 62
         4
100
AcDbLine
 10
2557.7957952478
 20
797.8646360455
 30
0.0
 11
2762.6557952478
 21
797.8646360455
 31
0.0
  0
SOLID
  5
15F
100
AcDbEntity
  8
______
  6
CONTINUOUS
 62
         4
100
AcDbTrace
 10
2557.7957952478
 20
797.8646360455
 30
0.0
 11
2561.2957952478
 21
798.3896360455
 31
0.0
 12
2561.2957952478
 22
797.3396360455
 32
0.0
 13
2557.7957952478
 23
797.8646360455
 33
0.0
  0
SOLID
  5
160
100
AcDbEntity
  8
______
  6
CONTINUOUS
 62
         4
100
AcDbTrace
 10
2762.6557952478
 20
797.8646360455
 30
0.0
 11
2759.1557952478
 21
797.3396360455
 31
0.0
 12
2759.1557952478
 22
798.3896360455
 32
0.0
 13
2762.6557952478
 23
797.8646360455
 33
0.0
  0
TEXT
  5
162
100
AcDbEntity
  8
______
  6
CONTINUOUS
 62
         4
100
AcDbText
 10
2649.7257952478
 20
800.4896360455
 30
0.0
 40
3.5
  1
204.86
  7
BOX
100
AcDbText
  0
ENDBLK
  5
163
100
AcDbEntity
  8
0
  6
CONTINUOUS
100
AcDbBlockEnd
  0
BLOCK
  5
165
100
AcDbEntity
  8
0
100
AcDbBlockBegin
  2
*D4
 70
        65
 10
0.0
 20
0.0
 30
0.0
  3
*D4
  1

  0
POINT
  5
167
100
AcDbEntity
  8
DEFPOINTS
  6
CONTINUOUS
 62
         0
100
AcDbPoint
 10
2715.5867952478
 20
786.2093927484
 30
0.0
  0
POINT
  5
168
100
AcDbEntity
  8
DEFPOINTS
  6
CONTINUOUS
 62
         0
100
AcDbPoint
 10
2715.5867952478
 20
722.3671119828
 30
0.0
  0
POINT
  5
169
100
AcDbEntity
  8
DEFPOINTS
  6
CONTINUOUS
 62
         0
100
AcDbPoint
 10
2684.5957952478
 20
740.7921119828
 30
0.0
  0
LINE
  5
16A
100
AcDbEntity
  8
______
  6
CONTINUOUS
 62
         4
100
AcDbLine
 10
2715.5867952478
 20
724.1171119828
 30
0.0
 11
2715.5867952478
 21
787.0843927484
 31
0.0
  0
LINE
  5
16B
100
AcDbEntity
  8
______
  6
CONTINUOUS
 62
         4
100
AcDbLine
 10
2684.5957952478
 20
742.5421119828
 30
0.0
 11
2684.5957952478
 21
787.0843927484
 31
0.0
  0
LINE
  5
16C
100
AcDbEntity
  8
______
  6
CONTINUOUS
 62
         4
100
AcDbLine
 10
2715.5867952478
 20
786.2093927484
 30
0.0
 11
2684.5957952478
 21
786.2093927484
 31
0.0
  0
SOLID
  5
16D
100
AcDbEntity
  8
______
  6
CONTINUOUS
 62
         4
100
AcDbTrace
 10
2715.5867952478
 20
786.2093927484
 30
0.0
 11
2712.0867952478
 21
785.6843927484
 31
0.0
 12
2712.0867952478
 22
786.7343927484
 32
0.0
 13
2715.5867952478
 23
786.2093927484
 33
0.0
  0
SOLID
  5
16E
100
AcDbEntity
  8
______
  6
CONTINUOUS
 62
         4
100
AcDbTrace
 10
2684.5957952478
 20
786.2093927484
 30
0.0
 11
2688.0957952478
 21
786.7343927484
 31
0.0
 12
2688.0957952478
 22
785.6843927484
 32
0.0
 13
2684.5957952478
 23
786.2093927484
 33
0.0
  0
TEXT
  5
170
100
AcDbEntity
  8
______
  6
CONTINUOUS
 62
         4
100
AcDbText
 10
2696.5912952478
 20
788.8343927484
 30
0.0
 40
3.5
  1
31
  7
BOX
100
AcDbText
  0
ENDBLK
  5
171
100
AcDbEntity
  8
0
  6
CONTINUOUS
100
AcDbBlockEnd
  0
BLOCK
  5
173
100
AcDbEntity
  8
0
100
AcDbBlockBegin
  2
*D5
 70
        65
 10
0.0
 20
0.0
 30
0.0
  3
*D5
  1

  0
POINT
  5
175
100
AcDbEntity
  8
DEFPOINTS
  6
CONTINUOUS
 62
         0
100
AcDbPoint
 10
2720.5867952478
 20
743.6106828751
 30
0.0
  0
POINT
  5
176
100
AcDbEntity
  8
DEFPOINTS
  6
CONTINUOUS
 62
         0
100
AcDbPoint
 10
2720.5867952478
 20
724.3703784139
 30
0.0
  0
POINT
  5
177
100
AcDbEntity
  8
DEFPOINTS
  6
CONTINUOUS
 62
         0
100
AcDbPoint
 10
2762.6557952478
 20
718.0407007077
 30
0.0
  0
LINE
  5
178
100
AcDbEntity
  8
______
  6
CONTINUOUS
 62
         4
100
AcDbLine
 10
2720.5867952478
 20
726.1203784139
 30
0.0
 11
2720.5867952478
 21
744.4856828751
 31
0.0
  0
LINE
  5
179
100
AcDbEntity
  8
______
  6
CONTINUOUS
 62
         4
100
AcDbLine
 10
2762.6557952478
 20
719.7907007077
 30
0.0
 11
2762.6557952478
 21
744.4856828751
 31
0.0
  0
LINE
  5
17A
100
AcDbEntity
  8
______
  6
CONTINUOUS
 62
         4
100
AcDbLine
 10
2720.5867952478
 20
743.6106828751
 30
0.0
 11
2762.6557952478
 21
743.6106828751
 31
0.0
  0
SOLID
  5
17B
100
AcDbEntity
  8
______
  6
CONTINUOUS
 62
         4
100
AcDbTrace
 10
2720.5867952478
 20
743.6106828751
 30
0.0
 11
2724.0867952478
 21
744.1356828751
 31
0.0
 12
2724.0867952478
 22
743.0856828751
 32
0.0
 13
2720.5867952478
 23
743.6106828751
 33
0.0
  0
SOLID
  5
17C
100
AcDbEntity
  8
______
  6
CONTINUOUS
 62
         4
100
AcDbTrace
 10
2762.6557952478
 20
743.6106828751
 30
0.0
 11
2759.1557952478
 21
743.0856828751
 31
0.0
 12
2759.1557952478
 22
744.1356828751
 32
0.0
 13
2762.6557952478
 23
743.6106828751
 33
0.0
  0
TEXT
  5
17E
100
AcDbEntity
  8
______
  6
CONTINUOUS
 62
         4
100
AcDbText
 10
2731.8808706257
 20
746.2356828751
 30
0.0
 40
3.5
  1
42.069
  7
BOX
100
AcDbText
  0
ENDBLK
  5
17F
100
AcDbEntity
  8
0
  6
CONTINUOUS
100
AcDbBlockEnd
  0
BLOCK
  5
181
100
AcDbEntity
  8
0
100
AcDbBlockBegin
  2
*D6
 70
        65
 10
0.0
 20
0.0
 30
0.0
  3
*D6
  1

  0
POINT
  5
183
100
AcDbEntity
  8
DEFPOINTS
  6
CONTINUOUS
 62
         0
100
AcDbPoint
 10
2715.5867952478
 20
674.548599204
 30
0.0
  0
POINT
  5
184
100
AcDbEntity
  8
DEFPOINTS
  6
CONTINUOUS
 62
         0
100
AcDbPoint
 10
2715.5867952478
 20
687.6432402003
 30
0.0
  0
POINT
  5
185
100
AcDbEntity
  8
DEFPOINTS
  6
CONTINUOUS
 62
         0
100
AcDbPoint
 10
2720.5867952478
 20
689.8248755107
 30
0.0
  0
LINE
  5
186
100
AcDbEntity
  8
______
  6
CONTINUOUS
 62
         4
100
AcDbLine
 10
2715.5867952478
 20
685.8932402003
 30
0.0
 11
2715.5867952478
 21
673.673599204
 31
0.0
  0
LINE
  5
187
100
AcDbEntity
  8
______
  6
CONTINUOUS
 62
         4
100
AcDbLine
 10
2720.5867952478
 20
688.0748755107
 30
0.0
 11
2720.5867952478
 21
673.673599204
 31
0.0
  0
LINE
  5
188
100
AcDbEntity
  8
______
  6
CONTINUOUS
 62
         4
100
AcDbLine
 10
2715.5867952478
 20
674.548599204
 30
0.0
 11
2708.5867952478
 21
674.548599204
 31
0.0
  0
SOLID
  5
189
100
AcDbEntity
  8
______
  6
CONTINUOUS
 62
         4
100
AcDbTrace
 10
2715.5867952478
 20
674.548599204
 30
0.0
 11
2712.0867952478
 21
674.023599204
 31
0.0
 12
2712.0867952478
 22
675.073599204
 32
0.0
 13
2715.5867952478
 23
674.548599204
 33
0.0
  0
LINE
  5
18A
100
AcDbEntity
  8
______
  6
CONTINUOUS
 62
         4
100
AcDbLine
 10
2720.5867952478
 20
674.548599204
 30
0.0
 11
2728.0965399821
 21
674.548599204
 31
0.0
  0
SOLID
  5
18B
100
AcDbEntity
  8
______
  6
CONTINUOUS
 62
         4
100
AcDbTrace
 10
2720.5867952478
 20
674.548599204
 30
0.0
 11
2724.0867952478
 21
675.073599204
 31
0.0
 12
2724.0867952478
 22
674.023599204
 32
0.0
 13
2720.5867952478
 23
674.548599204
 33
0.0
  0
LINE
  5
18C
100
AcDbEntity
  8
______
  6
CONTINUOUS
 62
         4
100
AcDbLine
 10
2715.5867952478
 20
674.548599204
 30
0.0
 11
2720.5867952478
 21
674.548599204
 31
0.0
  0
TEXT
  5
18E
100
AcDbEntity
  8
______
  6
CONTINUOUS
 62
         4
100
AcDbText
 10
2722.8465399821
 20
677.173599204
 30
0.0
 40
3.5
  1
5
  7
BOX
100
AcDbText
  0
ENDBLK
  5
18F
100
AcDbEntity
  8
0
  6
CONTINUOUS
100
AcDbBlockEnd
  0
BLOCK
  5
191
100
AcDbEntity
  8
0
100
AcDbBlockBegin
  2
*D7
 70
        65
 10
0.0
 20
0.0
 30
0.0
  3
*D7
  1

  0
POINT
  5
193
100
AcDbEntity
  8
DEFPOINTS
  6
CONTINUOUS
 62
         0
100
AcDbPoint
 10
2731.4198269062
 20
720.1421119828
 30
0.0
  0
POINT
  5
194
100
AcDbEntity
  8
DEFPOINTS
  6
CONTINUOUS
 62
         0
100
AcDbPoint
 10
2720.5867952478
 20
720.1421119828
 30
0.0
  0
POINT
  5
195
100
AcDbEntity
  8
DEFPOINTS
  6
CONTINUOUS
 62
         0
100
AcDbPoint
 10
2720.5867952478
 20
691.5921119828
 30
0.0
  0
LINE
  5
196
100
AcDbEntity
  8
______
  6
CONTINUOUS
 62
         4
100
AcDbLine
 10
2722.3367952478
 20
720.1421119828
 30
0.0
 11
2732.2948269062
 21
720.1421119828
 31
0.0
  0
LINE
  5
197
100
AcDbEntity
  8
______
  6
CONTINUOUS
 62
         4
100
AcDbLine
 10
2722.3367952478
 20
691.5921119828
 30
0.0
 11
2732.2948269062
 21
691.5921119828
 31
0.0
  0
LINE
  5
198
100
AcDbEntity
  8
______
  6
CONTINUOUS
 62
         4
100
AcDbLine
 10
2731.4198269062
 20
720.1421119828
 30
0.0
 11
2731.4198269062
 21
691.5921119828
 31
0.0
  0
SOLID
  5
199
100
AcDbEntity
  8
______
  6
CONTINUOUS
 62
         4
100
AcDbTrace
 10
2731.4198269062
 20
720.1421119828
 30
0.0
 11
2731.9448269062
 21
716.6421119828
 31
0.0
 12
2730.8948269062
 22
716.6421119828
 32
0.0
 13
2731.4198269062
 23
720.1421119828
 33
0.0
  0
SOLID
  5
19A
100
AcDbEntity
  8
______
  6
CONTINUOUS
 62
         4
100
AcDbTrace
 10
2731.4198269062
 20
691.5921119828
 30
0.0
 11
2730.8948269062
 21
695.0921119828
 31
0.0
 12
2731.9448269062
 22
695.0921119828
 32
0.0
 13
2731.4198269062
 23
691.5921119828
 33
0.0
  0
TEXT
  5
19C
100
AcDbEntity
  8
______
  6
CONTINUOUS
 62
         4
100
AcDbText
 10
2728.7948269062
 20
692.7744796934
 30
0.0
 40
3.5
  1
崷28.55
 50
90.0
  7
BOX
100
AcDbText
  0
ENDBLK
  5
19D
100
AcDbEntity
  8
0
  6
CONTINUOUS
100
AcDbBlockEnd
  0
BLOCK
  5
19F
100
AcDbEntity
  8
0
100
AcDbBlockBegin
  2
*D8
 70
        65
 10
0.0
 20
0.0
 30
0.0
  3
*D8
  1

  0
POINT
  5
1A1
100
AcDbEntity
  8
DEFPOINTS
  6
CONTINUOUS
 62
         0
100
AcDbPoint
 10
2785.540203199
 20
723.3671119828
 30
0.0
  0
POINT
  5
1A2
100
AcDbEntity
  8
DEFPOINTS
  6
CONTINUOUS
 62
         0
100
AcDbPoint
 10
2702.5763223759
 20
723.3671119828
 30
0.0
  0
POINT
  5
1A3
100
AcDbEntity
  8
DEFPOINTS
  6
CONTINUOUS
 62
         0
100
AcDbPoint
 10
2702.2817064162
 20
688.3671119828
 30
0.0
  0
LINE
  5
1A4
100
AcDbEntity
  8
______
  6
CONTINUOUS
 62
         4
100
AcDbLine
 10
2704.3263223759
 20
723.3671119828
 30
0.0
 11
2786.415203199
 21
723.3671119828
 31
0.0
  0
LINE
  5
1A5
100
AcDbEntity
  8
______
  6
CONTINUOUS
 62
         4
100
AcDbLine
 10
2704.0317064162
 20
688.3671119828
 30
0.0
 11
2786.415203199
 21
688.3671119828
 31
0.0
  0
LINE
  5
1A6
100
AcDbEntity
  8
______
  6
CONTINUOUS
 62
         4
100
AcDbLine
 10
2785.540203199
 20
723.3671119828
 30
0.0
 11
2785.540203199
 21
688.3671119828
 31
0.0
  0
SOLID
  5
1A7
100
AcDbEntity
  8
______
  6
CONTINUOUS
 62
         4
100
AcDbTrace
 10
2785.540203199
 20
723.3671119828
 30
0.0
 11
2786.065203199
 21
719.8671119828
 31
0.0
 12
2785.015203199
 22
719.8671119828
 32
0.0
 13
2785.540203199
 23
723.3671119828
 33
0.0
  0
SOLID
  5
1A8
100
AcDbEntity
  8
______
  6
CONTINUOUS
 62
         4
100
AcDbTrace
 10
2785.540203199
 20
688.3671119828
 30
0.0
 11
2785.015203199
 21
691.8671119828
 31
0.0
 12
2786.065203199
 22
691.8671119828
 32
0.0
 13
2785.540203199
 23
688.3671119828
 33
0.0
  0
TEXT
  5
1AA
100
AcDbEntity
  8
______
  6
CONTINUOUS
 62
         4
100
AcDbText
 10
2782.915203199
 20
698.1065077129
 30
0.0
 40
3.5
  1
崷35
 50
90.0
  7
BOX
100
AcDbText
  0
ENDBLK
  5
1AB
100
AcDbEntity
  8
0
  6
CONTINUOUS
100
AcDbBlockEnd
  0
ENDSEC
  0
SECTION
  2
ENTITIES
  0
INSERT
  5
7B
100
AcDbEntity
  8
0
  6
CONTINUOUS
100
AcDbBlockReference
  2
*X0
 10
0.0
 20
0.0
 30
0.0
  0
LINE
  5
7C
100
AcDbEntity
  8
______
  6
CONTINUOUS
 62
         7
100
AcDbLine
 10
2617.8041123372
 20
485.3700554975
 30
0.0
 11
2623.8645907247
 21
495.8671119828
 31
0.0
  0
LINE
  5
7D
100
AcDbEntity
  8
______
  6
CONTINUOUS
 62
         7
100
AcDbLine
 10
2617.8041123372
 20
506.364168468
 30
0.0
 11
2623.8645907247
 21
495.8671119828
 31
0.0
  0
LINE
  5
7E
100
AcDbEntity
  8
______
  6
CONTINUOUS
 62
         7
100
AcDbLine
 10
2617.8041123372
 20
506.364168468
 30
0.0
 11
2617.8041123372
 21
485.364168468
 31
0.0
  0
ARC
  5
7F
100
AcDbEntity
  8
______
  6
CONTINUOUS
 62
         7
100
AcDbCircle
 10
2702.8041123372
 20
475.3671119828
 30
0.0
 40
3.0
100
AcDbArc
 50
90.0
 51
180.0
  0
ARC
  5
80
100
AcDbEntity
  8
______
  6
CONTINUOUS
 62
         7
100
AcDbCircle
 10
2702.7957952478
 20
726.3671119828
 30
0.0
 40
3.0
100
AcDbArc
 50
180.0
 51
270.0
  0
ARC
  5
81
100
AcDbEntity
  8
______
  6
CONTINUOUS
 62
         7
100
AcDbCircle
 10
2702.7957952478
 20
685.3671119828
 30
0.0
 40
3.0
100
AcDbArc
 50
90.0
 51
180.0
  0
LINE
  5
82
100
AcDbEntity
  8
______
  6
CENTER
 62
         1
100
AcDbLine
 10
2720.5867952478
 20
475.8248755107
 30
0.0
 11
2720.5867952478
 21
514.3703784139
 31
0.0
  0
LINE
  5
83
100
AcDbEntity
  8
______
  6
CONTINUOUS
 62
         7
100
AcDbLine
 10
2717.5344510519
 20
481.5121983572
 30
0.0
 11
2761.6561377959
 21
482.66735116
 31
0.0
  0
LINE
  5
84
100
AcDbEntity
  8
______
  6
CONTINUOUS
 62
         7
100
AcDbLine
 10
2717.5344510519
 20
510.2220256083
 30
0.0
 11
2761.6561377959
 21
509.0668728056
 31
0.0
  0
LINE
  5
85
100
AcDbEntity
  8
______
  6
CONTINUOUS
 62
         7
100
AcDbLine
 10
2762.6557952478
 20
483.6935232579
 30
0.0
 11
2762.6557952478
 21
508.0407007077
 31
0.0
  0
LINE
  5
86
100
AcDbEntity
  8
______
  6
CONTINUOUS
 62
         7
100
AcDbLine
 10
2715.5867952478
 20
479.3671119828
 30
0.0
 11
2715.5867952478
 21
479.5128834533
 31
0.0
  0
ARC
  5
87
100
AcDbEntity
  8
______
  6
CONTINUOUS
 62
         7
100
AcDbCircle
 10
2717.5867952478
 20
512.2213405123
 30
0.0
 40
2.0
100
AcDbArc
 50
180.0
 51
268.500278
  0
ARC
  5
88
100
AcDbEntity
  8
______
  6
CONTINUOUS
 62
         7
100
AcDbCircle
 10
2717.5867952478
 20
479.5128834533
 30
0.0
 40
2.0
100
AcDbArc
 50
91.499722
 51
180.0
  0
LINE
  5
89
100
AcDbEntity
  8
______
  6
CONTINUOUS
 62
         7
100
AcDbLine
 10
2762.6557952478
 20
508.0407007077
 30
0.0
 11
2761.6561377959
 21
509.0668728056
 31
0.0
  0
LINE
  5
8A
100
AcDbEntity
  8
______
  6
CONTINUOUS
 62
         7
100
AcDbLine
 10
2762.6557952478
 20
483.6935232579
 30
0.0
 11
2761.6561377959
 21
482.66735116
 31
0.0
  0
LINE
  5
8B
100
AcDbEntity
  8
______
  6
CONTINUOUS
 62
         7
100
AcDbLine
 10
2714.5867952478
 20
513.3671119828
 30
0.0
 11
2702.8041123372
 21
513.3671119828
 31
0.0
  0
LINE
  5
8C
100
AcDbEntity
  8
______
  6
CONTINUOUS
 62
         7
100
AcDbLine
 10
2714.5867952478
 20
478.3671119828
 30
0.0
 11
2702.8041123372
 21
478.3671119828
 31
0.0
  0
ARC
  5
8D
100
AcDbEntity
  8
______
  6
CONTINUOUS
 62
         7
100
AcDbCircle
 10
2714.5867952478
 20
512.3671119828
 30
0.0
 40
1.0
100
AcDbArc
 50
0.0
 51
90.0
  0
ARC
  5
8E
100
AcDbEntity
  8
______
  6
CONTINUOUS
 62
         7
100
AcDbCircle
 10
2714.5867952478
 20
479.3671119828
 30
0.0
 40
1.0
100
AcDbArc
 50
270.0
 51
360.0
  0
LINE
  5
8F
100
AcDbEntity
  8
______
  6
CONTINUOUS
 62
         7
100
AcDbLine
 10
2715.5867952478
 20
512.2213405123
 30
0.0
 11
2715.5867952478
 21
512.3671119828
 31
0.0
  0
DIMENSION
  5
93
100
AcDbEntity
  8
______
  6
CONTINUOUS
 62
         4
100
AcDbDimension
  2
*D1
 10
2717.3941279957
 20
510.2270977998
 30
0.0
 11
2736.2718921094
 21
520.5194133713
 31
0.0
 70
         2
  3
DIMSTYLE1
100
AcDb2LineAngularDimension
 13
2699.6675961542
 23
510.1421119828
 33
0.0
 14
2794.7119239644
 24
510.1421119828
 34
0.0
 15
2750.0427952478
 25
509.3580208053
 35
0.0
 16
2734.5218921094
 26
518.7694133713
 36
0.0
  0
DIMENSION
  5
A4
100
AcDbEntity
  8
______
  6
CONTINUOUS
 62
         4
100
AcDbDimension
  2
*D2
 10
2786.7372280708
 20
509.0407007077
 30
0.0
 11
2784.1122280708
 21
482.4536474709
 31
0.0
  3
DIMSTYLE1
100
AcDbAlignedDimension
 13
2762.6557952478
 23
509.0407007077
 33
0.0
 14
2762.6557952478
 24
482.6935232579
 34
0.0
 50
90.0
100
AcDbRotatedDimension
  0
LINE
  5
B0
100
AcDbEntity
  8
______
  6
CONTINUOUS
 62
         7
100
AcDbLine
 10
2759.7176754632
 20
496.648347446
 30
0.0
 11
2760.6639368191
 21
496.648347446
 31
0.0
  0
LINE
  5
B1
100
AcDbEntity
  8
______
  6
CONTINUOUS
 62
         7
100
AcDbLine
 10
2759.7176754632
 20
495.048347446
 30
0.0
 11
2760.6639368191
 21
495.048347446
 31
0.0
  0
LINE
  5
B2
100
AcDbEntity
  8
______
  6
CONTINUOUS
 62
         7
100
AcDbLine
 10
2762.6557952478
 20
497.798347446
 30
0.0
 11
2760.6639368191
 21
496.648347446
 31
0.0
  0
LINE
  5
B3
100
AcDbEntity
  8
______
  6
CONTINUOUS
 62
         7
100
AcDbLine
 10
2762.6557952478
 20
493.898347446
 30
0.0
 11
2760.6639368191
 21
495.048347446
 31
0.0
  0
LINE
  5
B4
100
AcDbEntity
  8
______
  6
CONTINUOUS
 62
         7
100
AcDbLine
 10
2760.6639368191
 20
496.648347446
 30
0.0
 11
2760.6639368191
 21
495.048347446
 31
0.0
  0
LINE
  5
B5
100
AcDbEntity
  8
______
  6
CONTINUOUS
 62
         7
100
AcDbLine
 10
2759.7176754632
 20
496.648347446
 30
0.0
 11
2759.2557952478
 21
495.848347446
 31
0.0
  0
LINE
  5
B6
100
AcDbEntity
  8
______
  6
CONTINUOUS
 62
         7
100
AcDbLine
 10
2759.7176754632
 20
495.048347446
 30
0.0
 11
2759.2557952478
 21
495.848347446
 31
0.0
  0
LINE
  5
B7
100
AcDbEntity
  8
______
  6
CONTINUOUS
 62
         7
100
AcDbLine
 10
2759.7176754632
 20
496.648347446
 30
0.0
 11
2759.7176754632
 21
495.048347446
 31
0.0
  0
CIRCLE
  5
B8
100
AcDbEntity
  8
______
  6
CONTINUOUS
 62
         7
100
AcDbCircle
 10
2914.1132154648
 20
705.8671119828
 30
0.0
 40
13.1735887249
  0
CIRCLE
  5
B9
100
AcDbEntity
  8
______
  6
CONTINUOUS
 62
         7
100
AcDbCircle
 10
2914.1132154648
 20
705.8671119828
 30
0.0
 40
14.275
  0
CIRCLE
  5
BA
100
AcDbEntity
  8
______
  6
CONTINUOUS
 62
         7
100
AcDbCircle
 10
2914.1132154648
 20
705.8671119828
 30
0.0
 40
17.5
  0
CIRCLE
  5
BB
100
AcDbEntity
  8
______
  6
CONTINUOUS
 62
         7
100
AcDbCircle
 10
2914.1132154648
 20
705.8671119828
 30
0.0
 40
1.9312354632
  0
CIRCLE
  5
BC
100
AcDbEntity
  8
______
  6
CONTINUOUS
 62
         7
100
AcDbCircle
 10
2914.1132154648
 20
705.8671119828
 30
0.0
 40
0.7812354632
  0
LINE
  5
BD
100
AcDbEntity
  8
______
  6
CENTER
 62
         1
100
AcDbLine
 10
2764.2496250206
 20
705.8671119828
 30
0.0
 11
2729.9534529214
 21
705.8671119828
 31
0.0
  0
LINE
  5
BE
100
AcDbEntity
  8
______
  6
CENTER
 62
         1
100
AcDbLine
 10
2720.5867952478
 20
685.8248755107
 30
0.0
 11
2720.5867952478
 21
724.3703784139
 31
0.0
  0
LINE
  5
BF
100
AcDbEntity
  8
______
  6
CONTINUOUS
 62
         7
100
AcDbLine
 10
2717.5344510519
 20
691.5121983572
 30
0.0
 11
2761.6561377959
 21
692.66735116
 31
0.0
  0
LINE
  5
C0
100
AcDbEntity
  8
______
  6
CONTINUOUS
 62
         7
100
AcDbLine
 10
2717.5344510519
 20
720.2220256083
 30
0.0
 11
2761.6561377959
 21
719.0668728056
 31
0.0
  0
LINE
  5
C1
100
AcDbEntity
  8
______
  6
CONTINUOUS
 62
         7
100
AcDbLine
 10
2762.6557952478
 20
693.6935232579
 30
0.0
 11
2762.6557952478
 21
718.0407007077
 31
0.0
  0
LINE
  5
C2
100
AcDbEntity
  8
______
  6
CONTINUOUS
 62
         7
100
AcDbLine
 10
2715.5867952478
 20
689.3671119828
 30
0.0
 11
2715.5867952478
 21
722.3671119828
 31
0.0
  0
ARC
  5
C3
100
AcDbEntity
  8
______
  6
CONTINUOUS
 62
         7
100
AcDbCircle
 10
2717.5867952478
 20
722.2213405123
 30
0.0
 40
2.0
100
AcDbArc
 50
180.0
 51
268.500278
  0
ARC
  5
C4
100
AcDbEntity
  8
______
  6
CONTINUOUS
 62
         7
100
AcDbCircle
 10
2717.5867952478
 20
689.5128834533
 30
0.0
 40
2.0
100
AcDbArc
 50
91.499722
 51
180.0
  0
LINE
  5
C5
100
AcDbEntity
  8
______
  6
CONTINUOUS
 62
         7
100
AcDbLine
 10
2762.6557952478
 20
718.0407007077
 30
0.0
 11
2761.6561377959
 21
719.0668728056
 31
0.0
  0
LINE
  5
C6
100
AcDbEntity
  8
______
  6
CONTINUOUS
 62
         7
100
AcDbLine
 10
2762.6557952478
 20
693.6935232579
 30
0.0
 11
2761.6561377959
 21
692.66735116
 31
0.0
  0
LINE
  5
C7
100
AcDbEntity
  8
______
  6
CONTINUOUS
 62
         7
100
AcDbLine
 10
2761.6561377959
 20
719.0668728056
 30
0.0
 11
2761.6561377959
 21
692.66735116
 31
0.0
  0
LINE
  5
C8
100
AcDbEntity
  8
______
  6
CONTINUOUS
 62
         7
100
AcDbLine
 10
2714.5867952478
 20
723.3671119828
 30
0.0
 11
2702.5763223759
 21
723.3671119828
 31
0.0
  0
LINE
  5
C9
100
AcDbEntity
  8
______
  6
CONTINUOUS
 62
         7
100
AcDbLine
 10
2714.5867952478
 20
688.3671119828
 30
0.0
 11
2702.2817064162
 21
688.3671119828
 31
0.0
  0
ARC
  5
CA
100
AcDbEntity
  8
______
  6
CONTINUOUS
 62
         7
100
AcDbCircle
 10
2714.5867952478
 20
722.3671119828
 30
0.0
 40
1.0
100
AcDbArc
 50
0.0
 51
90.0
  0
ARC
  5
CB
100
AcDbEntity
  8
______
  6
CONTINUOUS
 62
         7
100
AcDbCircle
 10
2714.5867952478
 20
689.3671119828
 30
0.0
 40
1.0
100
AcDbArc
 50
270.0
 51
360.0
  0
LINE
  5
CC
100
AcDbEntity
  8
______
  6
CONTINUOUS
 62
         7
100
AcDbLine
 10
2960.8544178455
 20
692.0171119828
 30
0.0
 11
2959.8544178455
 21
693.0171119828
 31
0.0
  0
LINE
  5
CD
100
AcDbEntity
  8
______
  6
CONTINUOUS
 62
         7
100
AcDbLine
 10
2960.8544178455
 20
719.7171119828
 30
0.0
 11
2959.8544178455
 21
718.7171119828
 31
0.0
  0
LINE
  5
CE
100
AcDbEntity
  8
______
  6
CONTINUOUS
 62
         7
100
AcDbLine
 10
2867.372013084
 20
692.0171119828
 30
0.0
 11
2868.372013084
 21
693.0171119828
 31
0.0
  0
LINE
  5
CF
100
AcDbEntity
  8
______
  6
CONTINUOUS
 62
         7
100
AcDbLine
 10
2867.372013084
 20
719.7171119828
 30
0.0
 11
2868.372013084
 21
718.7171119828
 31
0.0
  0
CIRCLE
  5
D0
100
AcDbEntity
  8
______
  6
CONTINUOUS
 62
         7
100
AcDbCircle
 10
2424.1132154648
 20
705.8671119828
 30
0.0
 40
10.5
  0
CIRCLE
  5
D1
100
AcDbEntity
  8
______
  6
CONTINUOUS
 62
         7
100
AcDbCircle
 10
2424.1132154648
 20
705.8671119828
 30
0.0
 40
13.0
  0
LINE
  5
D2
100
AcDbEntity
  8
______
  6
CONTINUOUS
 62
         7
100
AcDbLine
 10
2699.7957952478
 20
695.0171119828
 30
0.0
 11
2687.7957952478
 21
695.0171119828
 31
0.0
  0
LINE
  5
D3
100
AcDbEntity
  8
______
  6
CONTINUOUS
 62
         7
100
AcDbLine
 10
2699.7957952478
 20
716.7171119828
 30
0.0
 11
2687.7957952478
 21
716.7171119828
 31
0.0
  0
CIRCLE
  5
D4
100
AcDbEntity
  8
______
  6
CONTINUOUS
 62
         7
100
AcDbCircle
 10
2424.1132154648
 20
705.8671119828
 30
0.0
 40
35.0270827722
  0
CIRCLE
  5
D5
100
AcDbEntity
  8
______
  6
CONTINUOUS
 62
         7
100
AcDbCircle
 10
2424.1132154648
 20
705.8671119828
 30
0.0
 40
19.895
  0
LINE
  5
D6
100
AcDbEntity
  8
______
  6
CENTER
 62
         1
100
AcDbLine
 10
2472.8632154648
 20
705.8671119828
 30
0.0
 11
2375.3632154648
 21
705.8671119828
 31
0.0
  0
LINE
  5
D7
100
AcDbEntity
  8
______
  6
CENTER
 62
         1
100
AcDbLine
 10
2424.1132154648
 20
646.9254607729
 30
0.0
 11
2424.1132154648
 21
769.2110441959
 31
0.0
  0
ARC
  5
D8
100
AcDbEntity
  8
______
  6
CONTINUOUS
 62
         7
100
AcDbCircle
 10
2424.1132154648
 20
705.8671119828
 30
0.0
 40
48.75
100
AcDbArc
 50
196.2356055887
 51
343.7643944113
  0
LINE
  5
D9
100
AcDbEntity
  8
______
  6
CONTINUOUS
 62
         7
100
AcDbLine
 10
2470.1391657476
 20
718.7171119828
 30
0.0
 11
2461.4132154648
 21
718.7171119828
 31
0.0
  0
LINE
  5
DA
100
AcDbEntity
  8
______
  6
CONTINUOUS
 62
         7
100
AcDbLine
 10
2470.1391657476
 20
693.0171119828
 30
0.0
 11
2461.4132154648
 21
693.0171119828
 31
0.0
  0
LINE
  5
DB
100
AcDbEntity
  8
______
  6
CONTINUOUS
 62
         7
100
AcDbLine
 10
2459.4132154648
 20
695.0171119828
 30
0.0
 11
2459.4132154648
 21
716.7171119828
 31
0.0
  0
LINE
  5
DC
100
AcDbEntity
  8
______
  6
CONTINUOUS
 62
         7
100
AcDbLine
 10
2388.8132154648
 20
695.0171119828
 30
0.0
 11
2388.8132154648
 21
716.7171119828
 31
0.0
  0
LINE
  5
DD
100
AcDbEntity
  8
______
  6
CONTINUOUS
 62
         7
100
AcDbLine
 10
2386.8132154648
 20
718.7171119828
 30
0.0
 11
2378.087265182
 21
718.7171119828
 31
0.0
  0
LINE
  5
DE
100
AcDbEntity
  8
______
  6
CONTINUOUS
 62
         7
100
AcDbLine
 10
2386.8132154648
 20
693.0171119828
 30
0.0
 11
2378.087265182
 21
693.0171119828
 31
0.0
  0
ARC
  5
DF
100
AcDbEntity
  8
______
  6
CONTINUOUS
 62
         7
100
AcDbCircle
 10
2424.1132154648
 20
705.8671119828
 30
0.0
 40
48.75
100
AcDbArc
 50
16.2356055887
 51
163.7643944113
  0
LINE
  5
E0
100
AcDbEntity
  8
______
  6
CONTINUOUS
 62
         7
100
AcDbLine
 10
2687.1957952478
 20
671.1400292105
 30
0.0
 11
2686.4944019887
 21
671.1400292105
 31
0.0
  0
LINE
  5
E1
100
AcDbEntity
  8
______
  6
CONTINUOUS
 62
         7
100
AcDbLine
 10
2686.3391105616
 20
671.1195847063
 30
0.0
 11
2685.2957952478
 21
670.8400292105
 31
0.0
  0
ARC
  5
E2
100
AcDbEntity
  8
______
  6
CONTINUOUS
 62
         7
100
AcDbCircle
 10
2687.1957952478
 20
670.5400292105
 30
0.0
 40
0.6
100
AcDbArc
 50
0.0
 51
90.0
  0
ARC
  5
E3
100
AcDbEntity
  8
______
  6
CONTINUOUS
 62
         7
100
AcDbCircle
 10
2686.4944019887
 20
670.5400292105
 30
0.0
 40
0.6
100
AcDbArc
 50
90.0
 51
105.0
  0
ARC
  5
E4
100
AcDbEntity
  8
______
  6
CONTINUOUS
 62
         7
100
AcDbCircle
 10
2686.4944019887
 20
741.194194755
 30
0.0
 40
0.6
100
AcDbArc
 50
255.0
 51
270.0
  0
ARC
  5
E5
100
AcDbEntity
  8
______
  6
CONTINUOUS
 62
         7
100
AcDbCircle
 10
2687.1957952478
 20
741.194194755
 30
0.0
 40
0.6
100
AcDbArc
 50
270.0
 51
360.0
  0
LINE
  5
E6
100
AcDbEntity
  8
______
  6
CONTINUOUS
 62
         7
100
AcDbLine
 10
2686.3391105616
 20
740.6146392592
 30
0.0
 11
2685.2957952478
 21
740.894194755
 31
0.0
  0
LINE
  5
E7
100
AcDbEntity
  8
______
  6
CONTINUOUS
 62
         7
100
AcDbLine
 10
2687.1957952478
 20
740.594194755
 30
0.0
 11
2686.4944019887
 21
740.594194755
 31
0.0
  0
LINE
  5
E8
100
AcDbEntity
  8
______
  6
CONTINUOUS
 62
         7
100
AcDbLine
 10
2685.2957952478
 20
670.8400292105
 30
0.0
 11
2685.2957952478
 21
740.894194755
 31
0.0
  0
LINE
  5
E9
100
AcDbEntity
  8
______
  6
CENTER
 62
         1
100
AcDbLine
 10
2764.2496250206
 20
495.8671119828
 30
0.0
 11
2554.5849863312
 21
495.8671119828
 31
0.0
  0
ARC
  5
EA
100
AcDbEntity
  8
______
  6
CONTINUOUS
 62
         7
100
AcDbCircle
 10
2914.1132154648
 20
705.8671119828
 30
0.0
 40
48.75
100
AcDbArc
 50
16.5052120024
 51
163.4947879976
  0
LINE
  5
EB
100
AcDbEntity
  8
______
  6
CONTINUOUS
 62
         7
100
AcDbLine
 10
2876.8132154648
 20
693.0171119828
 30
0.0
 11
2868.372013084
 21
693.0171119828
 31
0.0
  0
LINE
  5
EC
100
AcDbEntity
  8
______
  6
CONTINUOUS
 62
         7
100
AcDbLine
 10
2876.8132154648
 20
718.7171119828
 30
0.0
 11
2868.372013084
 21
718.7171119828
 31
0.0
  0
LINE
  5
ED
100
AcDbEntity
  8
______
  6
CONTINUOUS
 62
         7
100
AcDbLine
 10
2878.8132154648
 20
695.0171119828
 30
0.0
 11
2878.8132154648
 21
716.7171119828
 31
0.0
  0
LINE
  5
EE
100
AcDbEntity
  8
______
  6
CONTINUOUS
 62
         7
100
AcDbLine
 10
2949.4132154648
 20
695.0171119828
 30
0.0
 11
2949.4132154648
 21
716.7171119828
 31
0.0
  0
LINE
  5
EF
100
AcDbEntity
  8
______
  6
CONTINUOUS
 62
         7
100
AcDbLine
 10
2959.8544178455
 20
693.0171119828
 30
0.0
 11
2951.4132154648
 21
693.0171119828
 31
0.0
  0
LINE
  5
F0
100
AcDbEntity
  8
______
  6
CONTINUOUS
 62
         7
100
AcDbLine
 10
2959.8544178455
 20
718.7171119828
 30
0.0
 11
2951.4132154648
 21
718.7171119828
 31
0.0
  0
ARC
  5
F1
100
AcDbEntity
  8
______
  6
CONTINUOUS
 62
         7
100
AcDbCircle
 10
2914.1132154648
 20
705.8671119828
 30
0.0
 40
48.75
100
AcDbArc
 50
196.5052120024
 51
343.4947879976
  0
LINE
  5
F2
100
AcDbEntity
  8
______
  6
CENTER
 62
         1
100
AcDbLine
 10
2914.1132154648
 20
653.702489108
 30
0.0
 11
2914.1132154648
 21
758.0317348576
 31
0.0
  0
LINE
  5
F3
100
AcDbEntity
  8
______
  6
CONTINUOUS
 62
         7
100
AcDbLine
 10
2699.7957952478
 20
693.0171119828
 30
0.0
 11
2687.7957952478
 21
693.0171119828
 31
0.0
  0
LINE
  5
F4
100
AcDbEntity
  8
______
  6
CONTINUOUS
 62
         7
100
AcDbLine
 10
2699.7957952478
 20
718.7171119828
 30
0.0
 11
2687.7957952478
 21
718.7171119828
 31
0.0
  0
LINE
  5
F5
100
AcDbEntity
  8
______
  6
CONTINUOUS
 62
         7
100
AcDbLine
 10
2685.2957952478
 20
670.8400292105
 30
0.0
 11
2584.0106555009
 21
685.6106975705
 31
0.0
  0
LINE
  5
F6
100
AcDbEntity
  8
______
  6
CONTINUOUS
 62
         7
100
AcDbLine
 10
2685.2957952478
 20
740.894194755
 30
0.0
 11
2584.059304227
 21
726.130620962
 31
0.0
  0
LINE
  5
F7
100
AcDbEntity
  8
______
  6
CENTER
 62
         1
100
AcDbLine
 10
2684.5957952478
 20
670.9421119828
 30
0.0
 11
2684.5957952478
 21
740.7921119828
 31
0.0
  0
LINE
  5
F8
100
AcDbEntity
  8
______
  6
CONTINUOUS
 62
         7
100
AcDbLine
 10
2697.7957952478
 20
657.1171119828
 30
0.0
 11
2689.7957952478
 21
657.1171119828
 31
0.0
  0
LINE
  5
F9
100
AcDbEntity
  8
______
  6
CONTINUOUS
 62
         7
100
AcDbLine
 10
2697.7957952478
 20
754.6171119828
 30
0.0
 11
2689.7957952478
 21
754.6171119828
 31
0.0
  0
LINE
  5
FA
100
AcDbEntity
  8
______
  6
CONTINUOUS
 62
         7
100
AcDbLine
 10
2687.7957952478
 20
659.1171119828
 30
0.0
 11
2687.7957952478
 21
752.6171119828
 31
0.0
  0
LINE
  5
FB
100
AcDbEntity
  8
______
  6
CONTINUOUS
 62
         7
100
AcDbLine
 10
2699.7957952478
 20
659.1171119828
 30
0.0
 11
2699.7957952478
 21
752.6171119828
 31
0.0
  0
LINE
  5
FC
100
AcDbEntity
  8
______
  6
CENTER
 62
         1
100
AcDbLine
 10
2724.2400803916
 20
705.8671119828
 30
0.0
 11
2675.6205337494
 21
705.8671119828
 31
0.0
  0
LINE
  5
FD
100
AcDbEntity
  8
______
  6
CENTER
 62
         1
100
AcDbLine
 10
2663.5086170405
 20
705.8671119828
 30
0.0
 11
2552.6242267385
 21
705.8671119828
 31
0.0
  0
ARC
  5
FE
100
AcDbEntity
  8
______
  6
CONTINUOUS
 62
         7
100
AcDbCircle
 10
2689.7957952478
 20
752.6171119828
 30
0.0
 40
2.0
100
AcDbArc
 50
90.0
 51
180.0
  0
ARC
  5
FF
100
AcDbEntity
  8
______
  6
CONTINUOUS
 62
         7
100
AcDbCircle
 10
2697.7957952478
 20
752.6171119828
 30
0.0
 40
2.0
100
AcDbArc
 50
0.0
 51
90.0
  0
ARC
  5
100
100
AcDbEntity
  8
______
  6
CONTINUOUS
 62
         7
100
AcDbCircle
 10
2689.7957952478
 20
659.1171119828
 30
0.0
 40
2.0
100
AcDbArc
 50
180.0
 51
270.0
  0
ARC
  5
101
100
AcDbEntity
  8
______
  6
CONTINUOUS
 62
         7
100
AcDbCircle
 10
2697.7957952478
 20
659.1171119828
 30
0.0
 40
2.0
100
AcDbArc
 50
270.0
 51
360.0
  0
LINE
  5
102
100
AcDbEntity
  8
______
  6
CONTINUOUS
 62
         7
100
AcDbLine
 10
2699.8041123372
 20
516.3671119828
 30
0.0
 11
2699.8041123372
 21
535.664168468
 31
0.0
  0
LINE
  5
103
100
AcDbEntity
  8
______
  6
CONTINUOUS
 62
         7
100
AcDbLine
 10
2699.8041123372
 20
456.064168468
 30
0.0
 11
2699.8041123372
 21
475.3671119828
 31
0.0
  0
LINE
  5
104
100
AcDbEntity
  8
______
  6
CONTINUOUS
 62
         7
100
AcDbLine
 10
2617.8007134592
 20
485.364168468
 30
0.0
 11
2572.3687653176
 21
485.364168468
 31
0.0
  0
LINE
  5
105
100
AcDbEntity
  8
______
  6
CONTINUOUS
 62
         7
100
AcDbLine
 10
2617.8041123372
 20
506.364168468
 30
0.0
 11
2572.3760390431
 21
506.364168468
 31
0.0
  0
LINE
  5
106
100
AcDbEntity
  8
______
  6
CONTINUOUS
 62
         7
100
AcDbLine
 10
2687.8041123372
 20
460.5370856958
 30
0.0
 11
2687.8041123372
 21
449.114168468
 31
0.0
  0
LINE
  5
107
100
AcDbEntity
  8
______
  6
CONTINUOUS
 62
         7
100
AcDbLine
 10
2686.347427651
 20
461.1166411916
 30
0.0
 11
2685.3041123372
 21
460.8370856958
 31
0.0
  0
LINE
  5
108
100
AcDbEntity
  8
______
  6
CONTINUOUS
 62
         7
100
AcDbLine
 10
2687.2041123372
 20
461.1370856958
 30
0.0
 11
2686.5027190781
 21
461.1370856958
 31
0.0
  0
ARC
  5
109
100
AcDbEntity
  8
______
  6
CONTINUOUS
 62
         7
100
AcDbCircle
 10
2687.2041123372
 20
460.5370856958
 30
0.0
 40
0.6
100
AcDbArc
 50
0.0
 51
90.0
  0
ARC
  5
10A
100
AcDbEntity
  8
______
  6
CONTINUOUS
 62
         7
100
AcDbCircle
 10
2686.5027190781
 20
460.5370856958
 30
0.0
 40
0.6
100
AcDbArc
 50
90.0
 51
105.0
  0
LINE
  5
10B
100
AcDbEntity
  8
______
  6
CONTINUOUS
 62
         7
100
AcDbLine
 10
2687.2041123372
 20
530.5912512403
 30
0.0
 11
2686.5027190781
 21
530.5912512403
 31
0.0
  0
LINE
  5
10C
100
AcDbEntity
  8
______
  6
CONTINUOUS
 62
         7
100
AcDbLine
 10
2686.347427651
 20
530.6116957445
 30
0.0
 11
2685.3041123372
 21
530.8912512403
 31
0.0
  0
ARC
  5
10D
100
AcDbEntity
  8
______
  6
CONTINUOUS
 62
         7
100
AcDbCircle
 10
2687.2041123372
 20
531.1912512403
 30
0.0
 40
0.6
100
AcDbArc
 50
270.0
 51
360.0
  0
ARC
  5
10E
100
AcDbEntity
  8
______
  6
CONTINUOUS
 62
         7
100
AcDbCircle
 10
2686.5027190781
 20
531.1912512403
 30
0.0
 40
0.6
100
AcDbArc
 50
255.0
 51
270.0
  0
LINE
  5
10F
100
AcDbEntity
  8
______
  6
CONTINUOUS
 62
         7
100
AcDbLine
 10
2685.3041123372
 20
460.8370856958
 30
0.0
 11
2584.0189690569
 21
475.607754571
 31
0.0
  0
LINE
  5
110
100
AcDbEntity
  8
______
  6
CONTINUOUS
 62
         7
100
AcDbLine
 10
2685.3041123372
 20
530.8912512403
 30
0.0
 11
2584.0676177818
 21
516.1276769318
 31
0.0
  0
LINE
  5
111
100
AcDbEntity
  8
______
  6
CONTINUOUS
 62
         7
100
AcDbLine
 10
2697.8041123372
 20
447.114168468
 30
0.0
 11
2689.8041123372
 21
447.114168468
 31
0.0
  0
LINE
  5
112
100
AcDbEntity
  8
______
  6
CONTINUOUS
 62
         7
100
AcDbLine
 10
2697.8041123372
 20
544.614168468
 30
0.0
 11
2689.8041123372
 21
544.614168468
 31
0.0
  0
LINE
  5
113
100
AcDbEntity
  8
______
  6
CONTINUOUS
 62
         7
100
AcDbLine
 10
2687.8041123372
 20
531.1912512403
 30
0.0
 11
2687.8041123372
 21
542.614168468
 31
0.0
  0
LINE
  5
114
100
AcDbEntity
  8
______
  6
CONTINUOUS
 62
         7
100
AcDbLine
 10
2699.8041123372
 20
449.114168468
 30
0.0
 11
2699.8041123372
 21
456.064168468
 31
0.0
  0
ARC
  5
115
100
AcDbEntity
  8
______
  6
CONTINUOUS
 62
         7
100
AcDbCircle
 10
2689.8041123372
 20
542.614168468
 30
0.0
 40
2.0
100
AcDbArc
 50
90.0
 51
180.0
  0
ARC
  5
116
100
AcDbEntity
  8
______
  6
CONTINUOUS
 62
         7
100
AcDbCircle
 10
2697.8041123372
 20
542.614168468
 30
0.0
 40
2.0
100
AcDbArc
 50
0.0
 51
90.0
  0
ARC
  5
117
100
AcDbEntity
  8
______
  6
CONTINUOUS
 62
         7
100
AcDbCircle
 10
2697.8041123372
 20
449.114168468
 30
0.0
 40
2.0
100
AcDbArc
 50
270.0
 51
360.0
  0
ARC
  5
118
100
AcDbEntity
  8
______
  6
CONTINUOUS
 62
         7
100
AcDbCircle
 10
2689.8041123372
 20
449.114168468
 30
0.0
 40
2.0
100
AcDbArc
 50
180.0
 51
270.0
  0
LINE
  5
119
100
AcDbEntity
  8
______
  6
CONTINUOUS
 62
         7
100
AcDbLine
 10
2699.8041123372
 20
535.664168468
 30
0.0
 11
2699.8041123372
 21
542.614168468
 31
0.0
  0
ARC
  5
11A
100
AcDbEntity
  8
______
  6
CONTINUOUS
 62
         7
100
AcDbCircle
 10
2386.8132154648
 20
716.7171119828
 30
0.0
 40
2.0
100
AcDbArc
 50
0.0
 51
90.0
  0
ARC
  5
11B
100
AcDbEntity
  8
______
  6
CONTINUOUS
 62
         7
100
AcDbCircle
 10
2386.8132154648
 20
695.0171119828
 30
0.0
 40
2.0
100
AcDbArc
 50
270.0
 51
360.0
  0
ARC
  5
11C
100
AcDbEntity
  8
______
  6
CONTINUOUS
 62
         7
100
AcDbCircle
 10
2461.4132154648
 20
716.7171119828
 30
0.0
 40
2.0
100
AcDbArc
 50
90.0
 51
180.0
  0
ARC
  5
11D
100
AcDbEntity
  8
______
  6
CONTINUOUS
 62
         7
100
AcDbCircle
 10
2461.4132154648
 20
695.0171119828
 30
0.0
 40
2.0
100
AcDbArc
 50
180.0
 51
270.0
  0
ARC
  5
11E
100
AcDbEntity
  8
______
  6
CONTINUOUS
 62
         7
100
AcDbCircle
 10
2876.8132154648
 20
716.7171119828
 30
0.0
 40
2.0
100
AcDbArc
 50
0.0
 51
90.0
  0
ARC
  5
11F
100
AcDbEntity
  8
______
  6
CONTINUOUS
 62
         7
100
AcDbCircle
 10
2876.8132154648
 20
695.0171119828
 30
0.0
 40
2.0
100
AcDbArc
 50
270.0
 51
360.0
  0
ARC
  5
120
100
AcDbEntity
  8
______
  6
CONTINUOUS
 62
         7
100
AcDbCircle
 10
2951.4132154648
 20
695.0171119828
 30
0.0
 40
2.0
100
AcDbArc
 50
180.0
 51
270.0
  0
ARC
  5
121
100
AcDbEntity
  8
______
  6
CONTINUOUS
 62
         7
100
AcDbCircle
 10
2951.4132154648
 20
716.7171119828
 30
0.0
 40
2.0
100
AcDbArc
 50
90.0
 51
180.0
  0
LINE
  5
122
100
AcDbEntity
  8
______
  6
CONTINUOUS
 62
         7
100
AcDbLine
 10
2574.7957952478
 20
724.8671119828
 30
0.0
 11
2574.7542410886
 21
686.8255578236
 31
0.0
  0
LINE
  5
123
100
AcDbEntity
  8
______
  6
CONTINUOUS
 62
         7
100
AcDbLine
 10
2582.7957952478
 20
686.8255578236
 30
0.0
 11
2574.7542410886
 21
686.8255578236
 31
0.0
  0
LINE
  5
124
100
AcDbEntity
  8
______
  6
CONTINUOUS
 62
         7
100
AcDbLine
 10
2574.7542410886
 20
686.8255578236
 30
0.0
 11
2574.1457952478
 21
686.2171119828
 31
0.0
  0
LINE
  5
125
100
AcDbEntity
  8
______
  6
CONTINUOUS
 62
         7
100
AcDbLine
 10
2584.0106555009
 20
685.6106975705
 30
0.0
 11
2582.7957952478
 21
686.8255578236
 31
0.0
  0
LINE
  5
126
100
AcDbEntity
  8
______
  6
CONTINUOUS
 62
         7
100
AcDbLine
 10
2584.059304227
 20
726.130620962
 30
0.0
 11
2582.7957952478
 21
724.8671119828
 31
0.0
  0
LINE
  5
127
100
AcDbEntity
  8
______
  6
CONTINUOUS
 62
         7
100
AcDbLine
 10
2574.7957952478
 20
724.8671119828
 30
0.0
 11
2574.1457952478
 21
725.5171119828
 31
0.0
  0
LINE
  5
128
100
AcDbEntity
  8
______
  6
CONTINUOUS
 62
         7
100
AcDbLine
 10
2557.7957952478
 20
688.2171119828
 30
0.0
 11
2557.7957952478
 21
723.5171119828
 31
0.0
  0
LINE
  5
129
100
AcDbEntity
  8
______
  6
CONTINUOUS
 62
         7
100
AcDbLine
 10
2574.1457952478
 20
725.5171119828
 30
0.0
 11
2559.7957952478
 21
725.5171119828
 31
0.0
  0
LINE
  5
12A
100
AcDbEntity
  8
______
  6
CONTINUOUS
 62
         7
100
AcDbLine
 10
2582.7957952478
 20
724.8671119828
 30
0.0
 11
2574.7957952478
 21
724.8671119828
 31
0.0
  0
LINE
  5
12B
100
AcDbEntity
  8
______
  6
CONTINUOUS
 62
         7
100
AcDbLine
 10
2574.1457952478
 20
686.2171119828
 30
0.0
 11
2559.7957952478
 21
686.2171119828
 31
0.0
  0
LINE
  5
12C
100
AcDbEntity
  8
______
  6
CONTINUOUS
 62
         7
100
AcDbLine
 10
2582.7957952478
 20
686.8255578236
 30
0.0
 11
2582.7957952478
 21
724.8671119828
 31
0.0
  0
LINE
  5
12D
100
AcDbEntity
  8
______
  6
CONTINUOUS
 62
         7
100
AcDbLine
 10
2566.8041123372
 20
508.864168468
 30
0.0
 11
2559.7957952478
 21
508.864168468
 31
0.0
  0
LINE
  5
12E
100
AcDbEntity
  8
______
  6
CONTINUOUS
 62
         7
100
AcDbLine
 10
2569.3041123372
 20
485.364168468
 30
0.0
 11
2569.3041123372
 21
506.364168468
 31
0.0
  0
ARC
  5
12F
100
AcDbEntity
  8
______
  6
CONTINUOUS
 62
         7
100
AcDbCircle
 10
2559.7957952478
 20
510.864168468
 30
0.0
 40
2.0
100
AcDbArc
 50
180.0
 51
270.0
  0
LINE
  5
130
100
AcDbEntity
  8
______
  6
CONTINUOUS
 62
         7
100
AcDbLine
 10
2566.8041123372
 20
482.864168468
 30
0.0
 11
2566.8041123372
 21
508.864168468
 31
0.0
  0
ARC
  5
131
100
AcDbEntity
  8
______
  6
CONTINUOUS
 62
         7
100
AcDbCircle
 10
2568.0027190781
 20
508.564168468
 30
0.0
 40
0.6
100
AcDbArc
 50
90.0
 51
105.0
  0
ARC
  5
132
100
AcDbEntity
  8
______
  6
CONTINUOUS
 62
         7
100
AcDbCircle
 10
2568.7041123372
 20
508.564168468
 30
0.0
 40
0.6
100
AcDbArc
 50
0.0
 51
90.0
  0
LINE
  5
133
100
AcDbEntity
  8
______
  6
CONTINUOUS
 62
         7
100
AcDbLine
 10
2568.7041123372
 20
509.164168468
 30
0.0
 11
2568.0027190781
 21
509.164168468
 31
0.0
  0
LINE
  5
134
100
AcDbEntity
  8
______
  6
CONTINUOUS
 62
         7
100
AcDbLine
 10
2567.847427651
 20
509.1437239638
 30
0.0
 11
2566.8041123372
 21
508.864168468
 31
0.0
  0
LINE
  5
135
100
AcDbEntity
  8
______
  6
CONTINUOUS
 62
         4
100
AcDbLine
 10
2604.8041123372
 20
507.864168468
 30
0.0
 11
2570.5227124546
 21
507.864168468
 31
0.0
  0
LINE
  5
136
100
AcDbEntity
  8
______
  6
CONTINUOUS
 62
         4
100
AcDbLine
 10
2604.8041123372
 20
483.864168468
 30
0.0
 11
2570.515438729
 21
483.864168468
 31
0.0
  0
LINE
  5
137
100
AcDbEntity
  8
______
  6
CONTINUOUS
 62
         7
100
AcDbLine
 10
2604.8041123372
 20
483.864168468
 30
0.0
 11
2604.8041123372
 21
507.864168468
 31
0.0
  0
LINE
  5
138
100
AcDbEntity
  8
______
  6
CONTINUOUS
 62
         4
100
AcDbLine
 10
2559.7957952478
 20
482.864168468
 30
0.0
 11
2559.7957952478
 21
508.864168468
 31
0.0
  0
LINE
  5
139
100
AcDbEntity
  8
______
  6
CONTINUOUS
 62
         7
100
AcDbLine
 10
2569.3041123372
 20
506.364168468
 30
0.0
 11
2569.3041123372
 21
508.564168468
 31
0.0
  0
LINE
  5
13A
100
AcDbEntity
  8
______
  6
CONTINUOUS
 62
         7
100
AcDbLine
 10
2569.3041123372
 20
485.3700554975
 30
0.0
 11
2569.3041123372
 21
483.1700554975
 31
0.0
  0
LINE
  5
13B
100
AcDbEntity
  8
______
  6
CONTINUOUS
 62
         7
100
AcDbLine
 10
2567.847427651
 20
482.5905000018
 30
0.0
 11
2566.8041123372
 21
482.8700554975
 31
0.0
  0
LINE
  5
13C
100
AcDbEntity
  8
______
  6
CONTINUOUS
 62
         7
100
AcDbLine
 10
2568.7041123372
 20
482.5700554975
 30
0.0
 11
2568.0027190781
 21
482.5700554975
 31
0.0
  0
ARC
  5
13D
100
AcDbEntity
  8
______
  6
CONTINUOUS
 62
         7
100
AcDbCircle
 10
2568.7041123372
 20
483.1700554975
 30
0.0
 40
0.6
100
AcDbArc
 50
270.0
 51
360.0
  0
ARC
  5
13E
100
AcDbEntity
  8
______
  6
CONTINUOUS
 62
         7
100
AcDbCircle
 10
2568.0027190781
 20
483.1700554975
 30
0.0
 40
0.6
100
AcDbArc
 50
255.0
 51
270.0
  0
ARC
  5
13F
100
AcDbEntity
  8
______
  6
CONTINUOUS
 62
         7
100
AcDbCircle
 10
2559.7957952478
 20
480.8700554975
 30
0.0
 40
2.0
100
AcDbArc
 50
90.0
 51
180.0
  0
LINE
  5
140
100
AcDbEntity
  8
______
  6
CONTINUOUS
 62
         7
100
AcDbLine
 10
2566.8041123372
 20
482.8700554975
 30
0.0
 11
2559.7957952478
 21
482.8700554975
 31
0.0
  0
LINE
  5
141
100
AcDbEntity
  8
______
  6
CONTINUOUS
 62
         7
100
AcDbLine
 10
2582.7957952478
 20
514.8671119828
 30
0.0
 11
2574.7957952478
 21
514.8671119828
 31
0.0
  0
LINE
  5
142
100
AcDbEntity
  8
______
  6
CONTINUOUS
 62
         7
100
AcDbLine
 10
2582.7957952478
 20
476.8671119828
 30
0.0
 11
2574.7957952478
 21
476.8671119828
 31
0.0
  0
LINE
  5
143
100
AcDbEntity
  8
______
  6
CONTINUOUS
 62
         7
100
AcDbLine
 10
2584.0676213164
 20
516.130620962
 30
0.0
 11
2582.8041123372
 21
514.8671119828
 31
0.0
  0
LINE
  5
144
100
AcDbEntity
  8
______
  6
CONTINUOUS
 62
         7
100
AcDbLine
 10
2584.0189725903
 20
475.6106975705
 30
0.0
 11
2582.8041123372
 21
476.8255578236
 31
0.0
  0
LINE
  5
145
100
AcDbEntity
  8
______
  6
CONTINUOUS
 62
         7
100
AcDbLine
 10
2574.1541123372
 20
476.2171119828
 30
0.0
 11
2559.8041123372
 21
476.2171119828
 31
0.0
  0
LINE
  5
146
100
AcDbEntity
  8
______
  6
CONTINUOUS
 62
         7
100
AcDbLine
 10
2574.1541123372
 20
515.5171119828
 30
0.0
 11
2559.8041123372
 21
515.5171119828
 31
0.0
  0
LINE
  5
147
100
AcDbEntity
  8
______
  6
CONTINUOUS
 62
         7
100
AcDbLine
 10
2557.8041123372
 20
478.2171119828
 30
0.0
 11
2557.8041123372
 21
513.5171119828
 31
0.0
  0
LINE
  5
148
100
AcDbEntity
  8
______
  6
CONTINUOUS
 62
         7
100
AcDbLine
 10
2574.8041123372
 20
514.8671119828
 30
0.0
 11
2574.1541123372
 21
515.5171119828
 31
0.0
  0
LINE
  5
149
100
AcDbEntity
  8
______
  6
CONTINUOUS
 62
         7
100
AcDbLine
 10
2574.762558178
 20
476.8255578236
 30
0.0
 11
2574.1541123372
 21
476.2171119828
 31
0.0
  0
LINE
  5
14A
100
AcDbEntity
  8
______
  6
CONTINUOUS
 62
         7
100
AcDbLine
 10
2569.0815838413
 20
509.0305537847
 30
0.0
 11
2572.3760390431
 21
506.364168468
 31
0.0
  0
LINE
  5
14B
100
AcDbEntity
  8
______
  6
CONTINUOUS
 62
         7
100
AcDbLine
 10
2569.0815838413
 20
482.7036701809
 30
0.0
 11
2572.3760390431
 21
485.3700554975
 31
0.0
  0
LINE
  5
14C
100
AcDbEntity
  8
______
  6
CONTINUOUS
 62
         7
100
AcDbLine
 10
2572.3760390431
 20
485.3700554975
 30
0.0
 11
2572.3760390431
 21
506.364168468
 31
0.0
  0
ARC
  5
14D
100
AcDbEntity
  8
______
  6
CONTINUOUS
 62
         7
100
AcDbCircle
 10
2559.8041123372
 20
513.5171119828
 30
0.0
 40
2.0
100
AcDbArc
 50
90.0
 51
180.0
  0
ARC
  5
14E
100
AcDbEntity
  8
______
  6
CONTINUOUS
 62
         7
100
AcDbCircle
 10
2559.8041123372
 20
478.2171119828
 30
0.0
 40
2.0
100
AcDbArc
 50
180.0
 51
270.0
  0
ARC
  5
14F
100
AcDbEntity
  8
______
  6
CONTINUOUS
 62
         7
100
AcDbCircle
 10
2559.7957952478
 20
688.2171119828
 30
0.0
 40
2.0
100
AcDbArc
 50
180.0
 51
270.0
  0
ARC
  5
150
100
AcDbEntity
  8
______
  6
CONTINUOUS
 62
         7
100
AcDbCircle
 10
2559.7957952478
 20
723.5171119828
 30
0.0
 40
2.0
100
AcDbArc
 50
90.0
 51
180.0
  0
LINE
  5
151
100
AcDbEntity
  8
______
  6
CONTINUOUS
 62
         7
100
AcDbLine
 10
2377.3073593469
 20
719.4970178179
 30
0.0
 11
2378.087265182
 21
718.7171119828
 31
0.0
  0
LINE
  5
152
100
AcDbEntity
  8
______
  6
CONTINUOUS
 62
         7
100
AcDbLine
 10
2377.3073593469
 20
692.2372061477
 30
0.0
 11
2378.087265182
 21
693.0171119828
 31
0.0
  0
LINE
  5
153
100
AcDbEntity
  8
______
  6
CONTINUOUS
 62
         7
100
AcDbLine
 10
2470.9190715826
 20
719.4970178179
 30
0.0
 11
2470.1391657476
 21
718.7171119828
 31
0.0
  0
LINE
  5
154
100
AcDbEntity
  8
______
  6
CONTINUOUS
 62
         7
100
AcDbLine
 10
2470.9190715826
 20
692.2372061477
 30
0.0
 11
2470.1391657476
 21
693.0171119828
 31
0.0
  0
LINE
  5
155
100
AcDbEntity
  8
______
  6
CENTER
 62
         1
100
AcDbLine
 10
2962.8632154648
 20
705.8671119828
 30
0.0
 11
2865.3632154648
 21
705.8671119828
 31
0.0
  0
DIMENSION
  5
158
100
AcDbEntity
  8
______
  6
CONTINUOUS
 62
         4
100
AcDbDimension
  2
*D3
 10
2557.7957952478
 20
797.8646360455
 30
0.0
 11
2649.7257952478
 21
800.4896360455
 31
0.0
  3
DIMSTYLE1
100
AcDbAlignedDimension
 13
2557.7957952478
 23
723.5171119828
 33
0.0
 14
2762.6557952478
 24
718.0407007077
 34
0.0
100
AcDbRotatedDimension
  0
DIMENSION
  5
166
100
AcDbEntity
  8
______
  6
CONTINUOUS
 62
         4
100
AcDbDimension
  2
*D4
 10
2715.5867952478
 20
786.2093927484
 30
0.0
 11
2696.5912952478
 21
788.8343927484
 31
0.0
  3
DIMSTYLE1
100
AcDbAlignedDimension
 13
2715.5867952478
 23
722.3671119828
 33
0.0
 14
2684.5957952478
 24
740.7921119828
 34
0.0
100
AcDbRotatedDimension
  0
DIMENSION
  5
174
100
AcDbEntity
  8
______
  6
CONTINUOUS
 62
         4
100
AcDbDimension
  2
*D5
 10
2720.5867952478
 20
743.6106828751
 30
0.0
 11
2731.8808706257
 21
746.2356828751
 31
0.0
  3
DIMSTYLE1
100
AcDbAlignedDimension
 13
2720.5867952478
 23
724.3703784139
 33
0.0
 14
2762.6557952478
 24
718.0407007077
 34
0.0
100
AcDbRotatedDimension
  0
DIMENSION
  5
182
100
AcDbEntity
  8
______
  6
CONTINUOUS
 62
         4
100
AcDbDimension
  2
*D6
 10
2715.5867952478
 20
674.548599204
 30
0.0
 11
2722.8465399821
 21
677.173599204
 31
0.0
  3
DIMSTYLE1
100
AcDbAlignedDimension
 13
2715.5867952478
 23
687.6432402003
 33
0.0
 14
2720.5867952478
 24
689.8248755107
 34
0.0
100
AcDbRotatedDimension
  0
DIMENSION
  5
192
100
AcDbEntity
  8
______
  6
CONTINUOUS
 62
         4
100
AcDbDimension
  2
*D7
 10
2731.4198269062
 20
720.1421119828
 30
0.0
 11
2728.7948269062
 21
692.7744796934
 31
0.0
  3
DIMSTYLE1
100
AcDbAlignedDimension
 13
2720.5867952478
 23
720.1421119828
 33
0.0
 14
2720.5867952478
 24
691.5921119828
 34
0.0
 50
90.0
100
AcDbRotatedDimension
  0
DIMENSION
  5
1A0
100
AcDbEntity
  8
______
  6
CONTINUOUS
 62
         4
100
AcDbDimension
  2
*D8
 10
2785.540203199
 20
723.3671119828
 30
0.0
 11
2782.915203199
 21
698.1065077129
 31
0.0
  3
DIMSTYLE1
100
AcDbAlignedDimension
 13
2702.5763223759
 23
723.3671119828
 33
0.0
 14
2702.2817064162
 24
688.3671119828
 34
0.0
 50
90.0
100
AcDbRotatedDimension
  0
TEXT
  5
1AD
100
AcDbEntity
  8
______
  6
CONTINUOUS
 62
         2
100
AcDbText
 10
2898.6849932474
 20
780.0529486616
 30
0.0
 40
4.5
  1
534454
 41
0.98
  7
BOX
100
AcDbText
  0
ENDSEC
  0
SECTION
  2
OBJECTS
  0
DICTIONARY
  5
19
100
AcDbDictionary
  3
ACAD_GROUP
350
1A
  3
ACAD_MLINESTYLE
350
1B
  0
DICTIONARY
  5
1A
102
{ACAD_REACTORS
330
19
102
}
100
AcDbDictionary
  0
DICTIONARY
  5
1B
102
{ACAD_REACTORS
330
19
102
}
100
AcDbDictionary
  3
STANDARD
350
1C
  0
MLINESTYLE
  5
1C
102
{ACAD_REACTORS
330
1B
102
}
100
AcDbMlineStyle
  2
STANDARD
 70
         0
  3

 62
         0
 51
90.0
 52
90.0
 71
         2
 49
0.5
 62
       256
  6
BYLAYER
 49
-0.5
 62
       256
  6
BYLAYER
  0
ENDSEC
  0
EOF
