  0
SECTION
  2
HEADER
  9
$ACADVER
  1
AC1014
  9
$ACADMAINTVER
 70
         0
  9
$DWGCODEPAGE
  3
BIG5
  9
$INSBASE
 10
0.0
 20
0.0
 30
0.0
  9
$EXTMIN
 10
692.4020027602
 20
3024.5003741076
 30
0.0
  9
$EXTMAX
 10
1142.8140828478
 20
3251.5841743518
 30
0.0
  9
$LIMMIN
 10
0.0
 20
0.0
  9
$LIMMAX
 10
0.0
 20
0.0
  9
$ORTHOMODE
 70
         0
  9
$REGENMODE
 70
         1
  9
$FILLMODE
 70
         1
  9
$QTEXTMODE
 70
         0
  9
$MIRRTEXT
 70
         1
  9
$DRAGMODE
 70
         2
  9
$LTSCALE
 40
1.0
  9
$OSMODE
 70
         0
  9
$ATTMODE
 70
         1
  9
$TEXTSIZE
 40
2.5
  9
$TRACEWID
 40
0.05
  9
$TEXTSTYLE
  7
STANDARD
  9
$CLAYER
  8
0
  9
$CELTYPE
  6
CONTINUOUS
  9
$CECOLOR
 62
         4
  9
$CELTSCALE
 40
1.0
  9
$DELOBJ
 70
         1
  9
$DISPSILH
 70
         0
  9
$DIMSCALE
 40
1.0
  9
$DIMASZ
 40
0.18
  9
$DIMEXO
 40
0.0625
  9
$DIMDLI
 40
0.38
  9
$DIMRND
 40
0.0
  9
$DIMDLE
 40
0.0
  9
$DIMEXE
 40
0.25
  9
$DIMTP
 40
0.01
  9
$DIMTM
 40
-0.01
  9
$DIMTXT
 40
2.7
  9
$DIMCEN
 40
0.09
  9
$DIMTSZ
 40
0.0
  9
$DIMTOL
 70
         0
  9
$DIMLIM
 70
         0
  9
$DIMTIH
 70
         1
  9
$DIMTOH
 70
         1
  9
$DIMSE1
 70
         0
  9
$DIMSE2
 70
         0
  9
$DIMTAD
 70
         0
  9
$DIMZIN
 70
         0
  9
$DIMBLK
  1

  9
$DIMASO
 70
         1
  9
$DIMSHO
 70
         1
  9
$DIMPOST
  1

  9
$DIMAPOST
  1

  9
$DIMALT
 70
         0
  9
$DIMALTD
 70
         2
  9
$DIMALTF
 40
25.4
  9
$DIMLFAC
 40
1.0
  9
$DIMTOFL
 70
         0
  9
$DIMTVP
 40
0.0
  9
$DIMTIX
 70
         0
  9
$DIMSOXD
 70
         0
  9
$DIMSAH
 70
         0
  9
$DIMBLK1
  1

  9
$DIMBLK2
  1

  9
$DIMSTYLE
  2
STANDARD
  9
$DIMCLRD
 70
         0
  9
$DIMCLRE
 70
         0
  9
$DIMCLRT
 70
         4
  9
$DIMTFAC
 40
1.0
  9
$DIMGAP
 40
0.09
  9
$DIMJUST
 70
         0
  9
$DIMSD1
 70
         0
  9
$DIMSD2
 70
         0
  9
$DIMTOLJ
 70
         1
  9
$DIMTZIN
 70
         0
  9
$DIMALTZ
 70
         0
  9
$DIMALTTZ
 70
         0
  9
$DIMFIT
 70
         3
  9
$DIMUPT
 70
         0
  9
$DIMUNIT
 70
         2
  9
$DIMDEC
 70
         4
  9
$DIMTDEC
 70
         4
  9
$DIMALTU
 70
         2
  9
$DIMALTTD
 70
         2
  9
$DIMTXSTY
  7
STANDARD
  9
$DIMAUNIT
 70
         0
  9
$LUNITS
 70
         2
  9
$LUPREC
 70
        10
  9
$SKETCHINC
 40
0.1
  9
$FILLETRAD
 40
0.0
  9
$AUNITS
 70
         0
  9
$AUPREC
 70
         0
  9
$MENU
  1
acad
  9
$ELEVATION
 40
0.0
  9
$PELEVATION
 40
0.0
  9
$THICKNESS
 40
0.0
  9
$LIMCHECK
 70
         0
  9
$BLIPMODE
 70
         1
  9
$CHAMFERA
 40
0.0
  9
$CHAMFERB
 40
0.0
  9
$CHAMFERC
 40
0.0
  9
$CHAMFERD
 40
0.0
  9
$SKPOLY
 70
         0
  9
$TDCREATE
 40
0.000000000
  9
$TDUPDATE
 40
0.000000000
  9
$TDINDWG
 40
0.0000000000
  9
$TDUSRTIMER
 40
0.0000000000
  9
$USRTIMER
 70
         1
  9
$ANGBASE
 50
0.0
  9
$ANGDIR
 70
         0
  9
$PDMODE
 70
         2
  9
$PDSIZE
 40
0.0
  9
$PLINEWID
 40
0.0
  9
$COORDS
 70
         1
  9
$SPLFRAME
 70
         0
  9
$SPLINETYPE
 70
         6
  9
$SPLINESEGS
 70
         8
  9
$ATTDIA
 70
         0
  9
$ATTREQ
 70
         1
  9
$HANDLING
 70
         1
  9
$HANDSEED
  5
184
  9
$SURFTAB1
 70
         6
  9
$SURFTAB2
 70
         6
  9
$SURFTYPE
 70
         6
  9
$SURFU
 70
         6
  9
$SURFV
 70
         6
  9
$UCSNAME
  2

  9
$UCSORG
 10
0.0
 20
0.0
 30
0.0
  9
$UCSXDIR
 10
1.0
 20
0.0
 30
0.0
  9
$UCSYDIR
 10
0.0
 20
1.0
 30
0.0
  9
$PUCSNAME
  2

  9
$PUCSORG
 10
0.0
 20
0.0
 30
0.0
  9
$PUCSXDIR
 10
1.0
 20
0.0
 30
0.0
  9
$PUCSYDIR
 10
0.0
 20
1.0
 30
0.0
  9
$USERI1
 70
         0
  9
$USERI2
 70
         0
  9
$USERI3
 70
         0
  9
$USERI4
 70
         0
  9
$USERI5
 70
         0
  9
$USERR1
 40
0.0
  9
$USERR2
 40
0.0
  9
$USERR3
 40
0.0
  9
$USERR4
 40
0.0
  9
$USERR5
 40
0.0
  9
$WORLDVIEW
 70
         1
  9
$SHADEDGE
 70
         3
  9
$SHADEDIF
 70
        70
  9
$TILEMODE
 70
         1
  9
$MAXACTVP
 70
        16
  9
$PINSBASE
 10
0.0
 20
0.0
 30
0.0
  9
$PLIMCHECK
 70
         0
  9
$PEXTMIN
 10
1.0000000000E+20
 20
1.0000000000E+20
 30
1.0000000000E+20
  9
$PEXTMAX
 10
-1.0000000000E+20
 20
-1.0000000000E+20
 30
-1.0000000000E+20
  9
$PLIMMIN
 10
0.0
 20
0.0
  9
$PLIMMAX
 10
12.0
 20
9.0
  9
$UNITMODE
 70
         0
  9
$VISRETAIN
 70
         0
  9
$PLINEGEN
 70
         1
  9
$PSLTSCALE
 70
         0
  9
$TREEDEPTH
 70
      3020
  9
$PICKSTYLE
 70
         1
  9
$CMLSTYLE
  2
STANDARD
  9
$CMLJUST
 70
         0
  9
$CMLSCALE
 40
1.0
  9
$PROXYGRAPHICS
 70
         0
  9
$MEASUREMENT
 70
         0
  0
ENDSEC
  0
SECTION
  2
CLASSES
  0
CLASS
  1
LWPOLYLINE
  2
AcDbPolyline
  3
"AutoCAD"
 90
        0
280
         0
281
         1
  0
CLASS
  1
IMAGE
  2
AcDbRasterImage
  3
ISM
 90
      127
280
         0
281
         1
  0
CLASS
  1
OLE2FRAME
  2
AcDbOle2Frame
  3
""
 90
        0
280
         0
281
         1
  0
CLASS
  1
HATCH
  2
AcDbHatch
  3
"ACAD_SEDONA"
 90
        0
280
         0
281
         1
  0
CLASS
  1
DICTIONARYVAR
  2
AcDbDictionaryVar
  3
"AutoCAD"
 90
        0
280
         0
281
         0
  0
CLASS
  1
RASTERVARIABLES
  2
AcDbRasterVariables
  3
ISM
 90
        0
280
         0
281
         0
  0
CLASS
  1
IMAGEDEF
  2
AcDbRasterImageDef
  3
ISM
 90
        0
280
         0
281
         0
  0
CLASS
  1
IMAGEDEF_REACTOR
  2
AcDbRasterImageDefReactor
  3
ISM
 90
        1
280
         0
281
         0
  0
CLASS
  1
IDBUFFER
  2
AcDbIdBuffer
  3
"Acad"
 90
        0
280
         0
281
         0
  0
CLASS
  1
SPATIAL_FILTER
  2
AcDbSpatialFilter
  3
"Acad"
 90
        0
280
         0
281
         0
  0
CLASS
  1
XRECORD
  2
AcDbXrecord
  3
"<Built In>"
 90
        0
280
         0
281
         0
  0
CLASS
  1
SORTENTSTABLE
  2
AcDbSortentsTable
  3
"AutoCAD"
 90
        0
280
         0
281
         0
  0
CLASS
  1
LAYER_INDEX
  2
AcDbLayerIndex
  3
"Acad"
 90
        0
280
         0
281
         0
  0
CLASS
  1
SPATIAL_INDEX
  2
AcDbSpatialIndex
  3
"Acad"
 90
        0
280
         0
281
         0
  0
CLASS
  1
OBJECT_PTR
  2
CAseDLPNTableRecord
  3
"ASE-LPNTableRecord"
 90
        1
280
         0
281
         0
  0
CLASS
  1
LAYOUT
  2
AcDbLayout
  3
"AutoCAD 2000"
 90
        1
280
         0
281
         0
  0
CLASS
  1
PLOTSETTINGS
  2
AcDbPlotSettings
  3
"AutoCAD 2000"
 90
        1
280
         0
281
         0
  0
CLASS
  1
ACDBDICTIONARYWDFLT
  2
AcDbDictionaryWithDefault
  3
"AutoCAD 2000"
 90
        1
280
         0
281
         0
  0
CLASS
  1
ACDBPLACEHOLDER
  2
AcDbPlaceHolder
  3
"AutoCAD 2000"
 90
        1
280
         0
281
         0
  0
CLASS
  1
VBA_PROJECT
  2
AcDbVbaProject
  3
"acadvba"
 90
        1
280
         0
281
         0
  0
CLASS
  1
WIPEOUT
  2
AcDbWipeout
  3
WipeOut|AutoCAD Express Tool|expresstools@autodesk.com
 90
      127
280
         0
281
         1
  0
CLASS
  1
WIPEOUTVARIABLES
  2
AcDbWipeoutVariables
  3
WipeOut|AutoCAD Express Tool|expresstools@autodesk.com
 90
        0
280
         0
281
         0
  0
CLASS
  1
RTEXT
  2
RText
  3
RText|AutoCAD Express Tool|expresstools@autodesk.com
 90
        0
280
         0
281
         1
  0
CLASS
  1
ARCALIGNEDTEXT
  2
AcDbArcAlignedText
  3
ATEXT|AutoCAD Express Tool|expresstools@autodesk.com
 90
        0
280
         0
281
         1
  0
ENDSEC
  0
SECTION
  2
TABLES
  0
TABLE
  2
VPORT
  5
7
100
AcDbSymbolTable
 70
         1
  0
VPORT
  5
15
100
AcDbSymbolTableRecord
100
AcDbViewportTableRecord
  2
*ACTIVE
 70
         0
 10
0.0
 20
0.0
 11
1.0
 21
1.0
 12
917.608042804
 22
3138.0422742297
 13
0.0
 23
0.0
 14
1.0
 24
1.0
 15
0.0
 25
0.0
 16
0.0
 26
0.0
 36
1.0
 17
0.0
 27
0.0
 37
0.0
 40
227.0838002442
 41
1.9834619625
 42
50.0
 43
0.0
 44
0.0
 50
0.0
 51
0.0
 71
         0
 72
       100
 73
         1
 74
         1
 75
         0
 76
         0
 77
         0
 78
         0
  0
ENDTAB
  0
TABLE
  2
LTYPE
  5
4
100
AcDbSymbolTable
 70
         6
  0
LTYPE
  5
11
100
AcDbSymbolTableRecord
100
AcDbLinetypeTableRecord
  2
BYBLOCK
 70
        64
  3

 72
        65
 73
         0
 40
0.0
  0
LTYPE
  5
12
100
AcDbSymbolTableRecord
100
AcDbLinetypeTableRecord
  2
BYLAYER
 70
        64
  3

 72
        65
 73
         0
 40
0.0
  0
LTYPE
  5
13
100
AcDbSymbolTableRecord
100
AcDbLinetypeTableRecord
  2
CONTINUOUS
 70
        64
  3
Solid line
 72
        65
 73
         0
 40
0.0
  0
LTYPE
  5
1D
100
AcDbSymbolTableRecord
100
AcDbLinetypeTableRecord
  2
DASHED
 70
        64
  3
_ _ _ _ _ _ _ _ _ _ _ _ _ _ _ _
 72
        65
 73
         2
 40
0.2
 49
0.1
 74
         0
 49
-0.1
 74
         0
  0
LTYPE
  5
1E
100
AcDbSymbolTableRecord
100
AcDbLinetypeTableRecord
  2
CENTER
 70
        64
  3
___ _ ___ _ ___ _ ___ _ ___ _ ___ _ ___ _ ___ _
 72
        65
 73
         4
 40
0.95
 49
0.625
 74
         0
 49
-0.125
 74
         0
 49
0.075
 74
         0
 49
-0.125
 74
         0
  0
LTYPE
  5
1F
100
AcDbSymbolTableRecord
100
AcDbLinetypeTableRecord
  2
PHANTOM
 70
        64
  3
______  __  __  ______  __  __  ______  __  __  
 72
        65
 73
         6
 40
1.025
 49
0.625
 74
         0
 49
-0.125
 74
         0
 49
0.075
 74
         0
 49
-0.125
 74
         0
 49
0.075
 74
         0
 49
-0.125
 74
         0
  0
ENDTAB
  0
TABLE
  2
LAYER
  5
2
100
AcDbSymbolTable
 70
         9
  0
LAYER
  5
14
100
AcDbSymbolTableRecord
100
AcDbLayerTableRecord
  2
0
 70
         0
 62
         7
  6
CONTINUOUS
  0
LAYER
  5
21
100
AcDbSymbolTableRecord
100
AcDbLayerTableRecord
  2
____
 70
         0
 62
         7
  6
CONTINUOUS
  0
LAYER
  5
22
100
AcDbSymbolTableRecord
100
AcDbLayerTableRecord
  2
____
 70
         1
 62
         7
  6
CONTINUOUS
  0
LAYER
  5
23
100
AcDbSymbolTableRecord
100
AcDbLayerTableRecord
  2
____
 70
         1
 62
         7
  6
CONTINUOUS
  0
LAYER
  5
24
100
AcDbSymbolTableRecord
100
AcDbLayerTableRecord
  2
______
 70
         1
 62
         7
  6
CONTINUOUS
  0
LAYER
  5
25
100
AcDbSymbolTableRecord
100
AcDbLayerTableRecord
  2
_____I
 70
         1
 62
         7
  6
CONTINUOUS
  0
LAYER
  5
26
100
AcDbSymbolTableRecord
100
AcDbLayerTableRecord
  2
CK_LEVEL_6
 70
         1
 62
         7
  6
CONTINUOUS
  0
LAYER
  5
27
100
AcDbSymbolTableRecord
100
AcDbLayerTableRecord
  2
CK_LEVEL_7
 70
         1
 62
         7
  6
CONTINUOUS
  0
LAYER
  5
92
100
AcDbSymbolTableRecord
100
AcDbLayerTableRecord
  2
DEFPOINTS
 70
         0
 62
        -7
  6
CONTINUOUS
  0
ENDTAB
  0
TABLE
  2
STYLE
  5
3
100
AcDbSymbolTable
 70
        12
  0
STYLE
  5
17
100
AcDbSymbolTableRecord
100
AcDbTextStyleTableRecord
  2
STANDARD
 70
         0
 40
0.0
 41
1.0
 50
0.0
 71
         0
 42
0.0
  3
txt
  4

  0
STYLE
  5
9B
100
AcDbSymbolTableRecord
100
AcDbTextStyleTableRecord
  2
BOX
 70
         0
 40
1.0
 41
1.0
 50
0.0
 71
         0
 42
0.2
  3
txt.shx
  4

  0
STYLE
  5
B5
100
AcDbSymbolTableRecord
100
AcDbTextStyleTableRecord
  2
BOX
 70
         0
 40
1.0
 41
1.0
 50
0.0
 71
         0
 42
0.2
  3
txt.shx
  4

  0
STYLE
  5
C7
100
AcDbSymbolTableRecord
100
AcDbTextStyleTableRecord
  2
BOX
 70
         0
 40
1.0
 41
1.0
 50
0.0
 71
         0
 42
0.2
  3
txt.shx
  4

  0
STYLE
  5
D6
100
AcDbSymbolTableRecord
100
AcDbTextStyleTableRecord
  2
BOX
 70
         0
 40
1.0
 41
1.0
 50
0.0
 71
         0
 42
0.2
  3
txt.shx
  4

  0
STYLE
  5
ED
100
AcDbSymbolTableRecord
100
AcDbTextStyleTableRecord
  2
BOX
 70
         0
 40
1.0
 41
1.0
 50
0.0
 71
         0
 42
0.2
  3
txt.shx
  4

  0
STYLE
  5
FE
100
AcDbSymbolTableRecord
100
AcDbTextStyleTableRecord
  2
BOX
 70
         0
 40
1.0
 41
1.0
 50
0.0
 71
         0
 42
0.2
  3
txt.shx
  4

  0
STYLE
  5
11D
100
AcDbSymbolTableRecord
100
AcDbTextStyleTableRecord
  2
BOX
 70
         0
 40
1.0
 41
1.0
 50
0.0
 71
         0
 42
0.2
  3
txt.shx
  4

  0
STYLE
  5
13D
100
AcDbSymbolTableRecord
100
AcDbTextStyleTableRecord
  2
BOX
 70
         0
 40
1.0
 41
1.0
 50
0.0
 71
         0
 42
0.2
  3
txt.shx
  4

  0
STYLE
  5
165
100
AcDbSymbolTableRecord
100
AcDbTextStyleTableRecord
  2
BOX
 70
         0
 40
1.0
 41
1.0
 50
0.0
 71
         0
 42
0.2
  3
txt.shx
  4

  0
STYLE
  5
173
100
AcDbSymbolTableRecord
100
AcDbTextStyleTableRecord
  2
BOX
 70
         0
 40
1.0
 41
1.0
 50
0.0
 71
         0
 42
0.2
  3
txt.shx
  4

  0
STYLE
  5
182
100
AcDbSymbolTableRecord
100
AcDbTextStyleTableRecord
  2
BOX
 70
         0
 40
1.0
 41
1.0
 50
0.0
 71
         0
 42
0.2
  3
txt.shx
  4

  0
ENDTAB
  0
TABLE
  2
VIEW
  5
5
100
AcDbSymbolTable
 70
         0
  0
ENDTAB
  0
TABLE
  2
UCS
  5
6
100
AcDbSymbolTable
 70
         1
  0
UCS
  5
20
100
AcDbSymbolTableRecord
100
AcDbUCSTableRecord
  2
CK_VIEW_1
 70
         0
 10
0.0
 20
0.0
 30
1.0
 11
1.0
 21
0.0
 31
0.0
 12
0.0
 22
1.0
 32
0.0
  0
ENDTAB
  0
TABLE
  2
APPID
  5
8
100
AcDbSymbolTable
 70
         1
  0
APPID
  5
16
100
AcDbSymbolTableRecord
100
AcDbRegAppTableRecord
  2
ACAD
 70
         0
  0
ENDTAB
  0
TABLE
  2
DIMSTYLE
  5
9
100
AcDbSymbolTable
 70
         2
  0
DIMSTYLE
105
18
100
AcDbSymbolTableRecord
100
AcDbDimStyleTableRecord
  2
STANDARD
 70
         0
  3

  4

  5

  6

  7

 40
1.0
 41
0.18
 42
0.0625
 43
0.38
 44
0.18
 45
0.0
 46
0.0
 47
0.0
 48
0.0
 71
         0
 72
         0
 73
         1
 74
         1
 75
         0
 76
         0
 77
         0
 78
         0
140
0.18
141
0.09
142
0.0
143
25.4
144
1.0
145
0.0
146
1.0
147
0.09
170
         0
171
         2
172
         0
173
         0
174
         0
175
         0
176
         0
177
         0
178
         0
270
         2
271
         4
272
         4
273
         2
274
         2
275
         0
280
         0
281
         0
282
         0
283
         1
284
         0
285
         0
286
         0
287
         0
288
         0
340
17
  0
DIMSTYLE
105
8E
100
AcDbSymbolTableRecord
100
AcDbDimStyleTableRecord
  2
DIMSTYLE1
 70
         0
  3

  4

  5

  6

  7

 40
1.0
 41
2.7
 42
0.0625
 43
0.38
 44
2.7
 45
0.0
 46
0.0
 47
0.0
 48
0.0
 71
         0
 72
         0
 73
         1
 74
         1
 75
         0
 76
         0
 77
         0
 78
         0
140
2.7
141
0.09
142
0.0
143
25.4
144
1.0
145
0.0
146
1.0
147
0.09
170
         0
171
         2
172
         0
173
         0
174
         0
175
         0
176
         0
177
         0
178
         0
270
         2
271
         4
272
         4
273
         2
274
         2
275
         0
280
         0
281
         0
282
         0
283
         1
284
         0
285
         0
286
         0
287
         0
288
         0
340
17
  0
ENDTAB
  0
TABLE
  2
BLOCK_RECORD
  5
1
100
AcDbSymbolTable
 70
        11
  0
BLOCK_RECORD
  5
A
100
AcDbSymbolTableRecord
100
AcDbBlockTableRecord
  2
*MODEL_SPACE
  0
BLOCK_RECORD
  5
B
100
AcDbSymbolTableRecord
100
AcDbBlockTableRecord
  2
*PAPER_SPACE
  0
BLOCK_RECORD
  5
28
100
AcDbSymbolTableRecord
100
AcDbBlockTableRecord
  2
*X0
  0
BLOCK_RECORD
  5
8F
100
AcDbSymbolTableRecord
100
AcDbBlockTableRecord
  2
*D1
  0
BLOCK_RECORD
  5
A9
100
AcDbSymbolTableRecord
100
AcDbBlockTableRecord
  2
*D2
  0
BLOCK_RECORD
  5
B9
100
AcDbSymbolTableRecord
100
AcDbBlockTableRecord
  2
*D3
  0
BLOCK_RECORD
  5
CB
100
AcDbSymbolTableRecord
100
AcDbBlockTableRecord
  2
*D4
  0
BLOCK_RECORD
  5
E1
100
AcDbSymbolTableRecord
100
AcDbBlockTableRecord
  2
*D5
  0
BLOCK_RECORD
  5
F2
100
AcDbSymbolTableRecord
100
AcDbBlockTableRecord
  2
*D6
  0
BLOCK_RECORD
  5
112
100
AcDbSymbolTableRecord
100
AcDbBlockTableRecord
  2
*D7
  0
BLOCK_RECORD
  5
132
100
AcDbSymbolTableRecord
100
AcDbBlockTableRecord
  2
*D8
  0
BLOCK_RECORD
  5
15A
100
AcDbSymbolTableRecord
100
AcDbBlockTableRecord
  2
*D9
  0
BLOCK_RECORD
  5
168
100
AcDbSymbolTableRecord
100
AcDbBlockTableRecord
  2
*D10
  0
ENDTAB
  0
ENDSEC
  0
SECTION
  2
BLOCKS
  0
BLOCK
  5
D
100
AcDbEntity
  8
0
100
AcDbBlockBegin
  2
*MODEL_SPACE
 70
         0
 10
0.0
 20
0.0
 30
0.0
  3
*MODEL_SPACE
  1

  0
ENDBLK
  5
E
100
AcDbEntity
  8
0
100
AcDbBlockEnd
  0
BLOCK
  5
F
100
AcDbEntity
 67
         1
  8
0
100
AcDbBlockBegin
  2
*PAPER_SPACE
 70
         0
 10
0.0
 20
0.0
 30
0.0
  3
*PAPER_SPACE
  1

  0
ENDBLK
  5
10
100
AcDbEntity
 67
         1
  8
0
100
AcDbBlockEnd
  0
BLOCK
  5
29
100
AcDbEntity
  8
0
100
AcDbBlockBegin
  2
*X0
 70
        65
 10
0.0
 20
0.0
 30
0.0
  3
*X0
  1

  0
LINE
  5
2A
100
AcDbEntity
  8
____
  6
CONTINUOUS
 62
         4
100
AcDbLine
 10
959.3214932233
 20
3042.8282945956
 30
0.0
 11
962.8511363617
 21
3046.3579377339
 31
0.0
  0
LINE
  5
2B
100
AcDbEntity
  8
____
  6
CONTINUOUS
 62
         4
100
AcDbLine
 10
954.9658457776
 20
3042.715287837
 30
0.0
 11
962.8511363617
 21
3050.600578421
 31
0.0
  0
LINE
  5
2C
100
AcDbEntity
  8
____
  6
CONTINUOUS
 62
         4
100
AcDbLine
 10
950.610198332
 20
3042.6022810785
 30
0.0
 11
962.8511363617
 21
3054.8432191082
 31
0.0
  0
LINE
  5
2D
100
AcDbEntity
  8
____
  6
CONTINUOUS
 62
         4
100
AcDbLine
 10
946.2545508863
 20
3042.48927432
 30
0.0
 11
961.9636005104
 21
3058.198323944
 31
0.0
  0
LINE
  5
2E
100
AcDbEntity
  8
____
  6
CONTINUOUS
 62
         4
100
AcDbLine
 10
941.8989034407
 20
3042.3762675614
 30
0.0
 11
958.4097381999
 21
3058.8871023206
 31
0.0
  0
LINE
  5
2F
100
AcDbEntity
  8
____
  6
CONTINUOUS
 62
         4
100
AcDbLine
 10
930.1023602199
 20
3034.8223650278
 30
0.0
 11
933.6511363617
 21
3038.3711411695
 31
0.0
  0
LINE
  5
30
100
AcDbEntity
  8
____
  6
CONTINUOUS
 62
         4
100
AcDbLine
 10
937.543255995
 20
3042.2632608029
 30
0.0
 11
954.2743886679
 21
3058.9943934758
 31
0.0
  0
LINE
  5
31
100
AcDbEntity
  8
____
  6
CONTINUOUS
 62
         4
100
AcDbLine
 10
925.8978918365
 20
3034.8605373314
 30
0.0
 11
950.139039136
 21
3059.101684631
 31
0.0
  0
LINE
  5
32
100
AcDbEntity
  8
____
  6
CONTINUOUS
 62
         4
100
AcDbLine
 10
922.2023172748
 20
3035.4076034569
 30
0.0
 11
946.0036896041
 21
3059.2089757862
 31
0.0
  0
LINE
  5
33
100
AcDbEntity
  8
____
  6
CONTINUOUS
 62
         4
100
AcDbLine
 10
918.5067427132
 20
3035.9546695824
 30
0.0
 11
941.8683400721
 21
3059.3162669413
 31
0.0
  0
LINE
  5
34
100
AcDbEntity
  8
____
  6
CONTINUOUS
 62
         4
100
AcDbLine
 10
914.8111681515
 20
3036.5017357079
 30
0.0
 11
937.7329905402
 21
3059.4235580965
 31
0.0
  0
LINE
  5
35
100
AcDbEntity
  8
____
  6
CONTINUOUS
 62
         4
100
AcDbLine
 10
911.1155935899
 20
3037.0488018333
 30
0.0
 11
934.1848681441
 21
3060.1180763876
 31
0.0
  0
LINE
  5
36
100
AcDbEntity
  8
____
  6
CONTINUOUS
 62
         4
100
AcDbLine
 10
907.4200190282
 20
3037.5958679588
 30
0.0
 11
933.6511363617
 21
3063.8269852922
 31
0.0
  0
LINE
  5
37
100
AcDbEntity
  8
____
  6
CONTINUOUS
 62
         4
100
AcDbLine
 10
903.7244444666
 20
3038.1429340843
 30
0.0
 11
932.4508868943
 21
3066.869376512
 31
0.0
  0
LINE
  5
38
100
AcDbEntity
  8
____
  6
CONTINUOUS
 62
         4
100
AcDbLine
 10
900.4347404651
 20
3039.0958707699
 30
0.0
 11
928.2082462072
 21
3066.869376512
 31
0.0
  0
LINE
  5
39
100
AcDbEntity
  8
____
  6
CONTINUOUS
 62
         4
100
AcDbLine
 10
896.192099778
 20
3039.0958707699
 30
0.0
 11
923.58505803
 21
3066.4888290219
 31
0.0
  0
LINE
  5
3A
100
AcDbEntity
  8
____
  6
CONTINUOUS
 62
         4
100
AcDbLine
 10
891.9494590908
 20
3039.0958707699
 30
0.0
 11
918.605241296
 21
3065.7516529751
 31
0.0
  0
LINE
  5
3B
100
AcDbEntity
  8
____
  6
CONTINUOUS
 62
         4
100
AcDbLine
 10
887.7068184037
 20
3039.0958707699
 30
0.0
 11
913.6254245621
 21
3065.0144769282
 31
0.0
  0
LINE
  5
3C
100
AcDbEntity
  8
____
  6
CONTINUOUS
 62
         4
100
AcDbLine
 10
883.4641777166
 20
3039.0958707699
 30
0.0
 11
908.6456078281
 21
3064.2773008814
 31
0.0
  0
LINE
  5
3D
100
AcDbEntity
  8
____
  6
CONTINUOUS
 62
         4
100
AcDbLine
 10
879.2215370295
 20
3039.0958707699
 30
0.0
 11
903.6657910941
 21
3063.5401248345
 31
0.0
  0
LINE
  5
3E
100
AcDbEntity
  8
____
  6
CONTINUOUS
 62
         4
100
AcDbLine
 10
874.9788963424
 20
3039.0958707699
 30
0.0
 11
898.4788963424
 21
3062.5958707699
 31
0.0
  0
LINE
  5
3F
100
AcDbEntity
  8
____
  6
CONTINUOUS
 62
         4
100
AcDbLine
 10
870.7362556552
 20
3039.0958707699
 30
0.0
 11
892.9456651659
 21
3061.3052802805
 31
0.0
  0
LINE
  5
40
100
AcDbEntity
  8
____
  6
CONTINUOUS
 62
         4
100
AcDbLine
 10
866.4936149681
 20
3039.0958707699
 30
0.0
 11
873.6791149681
 21
3046.2813707699
 31
0.0
  0
LINE
  5
41
100
AcDbEntity
  8
____
  6
CONTINUOUS
 62
         4
100
AcDbLine
 10
879.4119266192
 20
3052.0141824209
 30
0.0
 11
888.6936149681
 21
3061.2958707699
 31
0.0
  0
LINE
  5
42
100
AcDbEntity
  8
____
  6
CONTINUOUS
 62
         4
100
AcDbLine
 10
862.250974281
 20
3039.0958707699
 30
0.0
 11
869.436474281
 21
3046.2813707699
 31
0.0
  0
LINE
  5
43
100
AcDbEntity
  8
____
  6
CONTINUOUS
 62
         4
100
AcDbLine
 10
877.8590123485
 20
3054.7039088374
 30
0.0
 11
884.450974281
 21
3061.2958707699
 31
0.0
  0
LINE
  5
44
100
AcDbEntity
  8
____
  6
CONTINUOUS
 62
         4
100
AcDbLine
 10
858.0083335939
 20
3039.0958707699
 30
0.0
 11
865.1938335939
 21
3046.2813707699
 31
0.0
  0
LINE
  5
45
100
AcDbEntity
  8
____
  6
CONTINUOUS
 62
         4
100
AcDbLine
 10
874.3228335939
 20
3055.4103707699
 30
0.0
 11
880.2083335939
 21
3061.2958707699
 31
0.0
  0
LINE
  5
46
100
AcDbEntity
  8
____
  6
CONTINUOUS
 62
         4
100
AcDbLine
 10
853.7656929068
 20
3039.0958707699
 30
0.0
 11
860.9511929068
 21
3046.2813707699
 31
0.0
  0
LINE
  5
47
100
AcDbEntity
  8
____
  6
CONTINUOUS
 62
         4
100
AcDbLine
 10
870.0801929068
 20
3055.4103707699
 30
0.0
 11
875.9656929068
 21
3061.2958707699
 31
0.0
  0
LINE
  5
48
100
AcDbEntity
  8
____
  6
CONTINUOUS
 62
         4
100
AcDbLine
 10
849.2230522196
 20
3038.7958707699
 30
0.0
 11
856.7085522196
 21
3046.2813707699
 31
0.0
  0
LINE
  5
49
100
AcDbEntity
  8
____
  6
CONTINUOUS
 62
         4
100
AcDbLine
 10
865.8375522196
 20
3055.4103707699
 30
0.0
 11
871.7230522196
 21
3061.2958707699
 31
0.0
  0
LINE
  5
4A
100
AcDbEntity
  8
____
  6
CONTINUOUS
 62
         4
100
AcDbLine
 10
844.9804115325
 20
3038.7958707699
 30
0.0
 11
852.4659115325
 21
3046.2813707699
 31
0.0
  0
LINE
  5
4B
100
AcDbEntity
  8
____
  6
CONTINUOUS
 62
         4
100
AcDbLine
 10
861.5949115325
 20
3055.4103707699
 30
0.0
 11
867.4804115325
 21
3061.2958707699
 31
0.0
  0
LINE
  5
4C
100
AcDbEntity
  8
____
  6
CONTINUOUS
 62
         4
100
AcDbLine
 10
840.7377708454
 20
3038.7958707699
 30
0.0
 11
848.2232708454
 21
3046.2813707699
 31
0.0
  0
LINE
  5
4D
100
AcDbEntity
  8
____
  6
CONTINUOUS
 62
         4
100
AcDbLine
 10
857.3522708454
 20
3055.4103707699
 30
0.0
 11
863.2377708454
 21
3061.2958707699
 31
0.0
  0
LINE
  5
4E
100
AcDbEntity
  8
____
  6
CONTINUOUS
 62
         4
100
AcDbLine
 10
836.4951301583
 20
3038.7958707699
 30
0.0
 11
843.9806301583
 21
3046.2813707699
 31
0.0
  0
LINE
  5
4F
100
AcDbEntity
  8
____
  6
CONTINUOUS
 62
         4
100
AcDbLine
 10
853.1096301583
 20
3055.4103707699
 30
0.0
 11
858.9951301583
 21
3061.2958707699
 31
0.0
  0
LINE
  5
50
100
AcDbEntity
  8
____
  6
CONTINUOUS
 62
         4
100
AcDbLine
 10
832.2524894712
 20
3038.7958707699
 30
0.0
 11
839.7379894712
 21
3046.2813707699
 31
0.0
  0
LINE
  5
51
100
AcDbEntity
  8
____
  6
CONTINUOUS
 62
         4
100
AcDbLine
 10
848.8669894712
 20
3055.4103707699
 30
0.0
 11
854.7524894712
 21
3061.2958707699
 31
0.0
  0
LINE
  5
52
100
AcDbEntity
  8
____
  6
CONTINUOUS
 62
         4
100
AcDbLine
 10
828.0098487841
 20
3038.7958707699
 30
0.0
 11
835.4953487841
 21
3046.2813707699
 31
0.0
  0
LINE
  5
53
100
AcDbEntity
  8
____
  6
CONTINUOUS
 62
         4
100
AcDbLine
 10
844.6243487841
 20
3055.4103707699
 30
0.0
 11
850.5098487841
 21
3061.2958707699
 31
0.0
  0
LINE
  5
54
100
AcDbEntity
  8
____
  6
CONTINUOUS
 62
         4
100
AcDbLine
 10
823.7672080969
 20
3038.7958707699
 30
0.0
 11
831.2527080969
 21
3046.2813707699
 31
0.0
  0
LINE
  5
55
100
AcDbEntity
  8
____
  6
CONTINUOUS
 62
         4
100
AcDbLine
 10
840.3817080969
 20
3055.4103707699
 30
0.0
 11
846.2672080969
 21
3061.2958707699
 31
0.0
  0
LINE
  5
56
100
AcDbEntity
  8
____
  6
CONTINUOUS
 62
         4
100
AcDbLine
 10
822.4511363617
 20
3041.7224397217
 30
0.0
 11
825.5745674098
 21
3044.8458707699
 31
0.0
  0
LINE
  5
57
100
AcDbEntity
  8
____
  6
CONTINUOUS
 62
         4
100
AcDbLine
 10
836.1390674098
 20
3055.4103707699
 30
0.0
 11
842.0245674098
 21
3061.2958707699
 31
0.0
  0
LINE
  5
58
100
AcDbEntity
  8
____
  6
CONTINUOUS
 62
         4
100
AcDbLine
 10
831.8964267227
 20
3055.4103707699
 30
0.0
 11
837.7819267227
 21
3061.2958707699
 31
0.0
  0
LINE
  5
59
100
AcDbEntity
  8
____
  6
CONTINUOUS
 62
         4
100
AcDbLine
 10
827.6537860356
 20
3055.4103707699
 30
0.0
 11
833.5392860356
 21
3061.2958707699
 31
0.0
  0
LINE
  5
5A
100
AcDbEntity
  8
____
  6
CONTINUOUS
 62
         4
100
AcDbLine
 10
824.8466453485
 20
3056.8458707699
 30
0.0
 11
829.2966453485
 21
3061.2958707699
 31
0.0
  0
LINE
  5
5B
100
AcDbEntity
  8
____
  6
CONTINUOUS
 62
         4
100
AcDbLine
 10
822.4511363617
 20
3058.6930024702
 30
0.0
 11
825.0540046613
 21
3061.2958707699
 31
0.0
  0
ENDBLK
  5
5C
100
AcDbEntity
  8
0
  6
CONTINUOUS
100
AcDbBlockEnd
  0
BLOCK
  5
90
100
AcDbEntity
  8
0
100
AcDbBlockBegin
  2
*D1
 70
        65
 10
0.0
 20
0.0
 30
0.0
  3
*D1
  1

  0
POINT
  5
93
100
AcDbEntity
  8
DEFPOINTS
  6
CONTINUOUS
 62
         0
100
AcDbPoint
 10
822.4511363617
 20
3229.7238760196
 30
0.0
  0
POINT
  5
94
100
AcDbEntity
  8
DEFPOINTS
  6
CONTINUOUS
 62
         0
100
AcDbPoint
 10
822.4511363617
 20
3173.6263467528
 30
0.0
  0
POINT
  5
95
100
AcDbEntity
  8
DEFPOINTS
  6
CONTINUOUS
 62
         0
100
AcDbPoint
 10
962.8511363617
 20
3169.0412640757
 30
0.0
  0
LINE
  5
96
100
AcDbEntity
  8
____
  6
CONTINUOUS
 62
         4
100
AcDbLine
 10
822.4511363617
 20
3174.9763467528
 30
0.0
 11
822.4511363617
 21
3230.3988760196
 31
0.0
  0
LINE
  5
97
100
AcDbEntity
  8
____
  6
CONTINUOUS
 62
         4
100
AcDbLine
 10
962.8511363617
 20
3170.3912640757
 30
0.0
 11
962.8511363617
 21
3230.3988760196
 31
0.0
  0
LINE
  5
98
100
AcDbEntity
  8
____
  6
CONTINUOUS
 62
         4
100
AcDbLine
 10
822.4511363617
 20
3229.7238760196
 30
0.0
 11
962.8511363617
 21
3229.7238760196
 31
0.0
  0
SOLID
  5
99
100
AcDbEntity
  8
____
  6
CONTINUOUS
 62
         4
100
AcDbTrace
 10
822.4511363617
 20
3229.7238760196
 30
0.0
 11
825.1511363617
 21
3230.1288760196
 31
0.0
 12
825.1511363617
 22
3229.3188760196
 32
0.0
 13
822.4511363617
 23
3229.7238760196
 33
0.0
  0
SOLID
  5
9A
100
AcDbEntity
  8
____
  6
CONTINUOUS
 62
         4
100
AcDbTrace
 10
962.8511363617
 20
3229.7238760196
 30
0.0
 11
960.1511363617
 21
3229.3188760196
 31
0.0
 12
960.1511363617
 22
3230.1288760196
 32
0.0
 13
962.8511363617
 23
3229.7238760196
 33
0.0
  0
TEXT
  5
9C
100
AcDbEntity
  8
____
  6
CONTINUOUS
 62
         4
100
AcDbText
 10
885.9011363617
 20
3231.7488760196
 30
0.0
 40
2.7
  1
140.4
  7
BOX
100
AcDbText
  0
ENDBLK
  5
9D
100
AcDbEntity
  8
0
  6
CONTINUOUS
100
AcDbBlockEnd
  0
BLOCK
  5
AA
100
AcDbEntity
  8
0
100
AcDbBlockBegin
  2
*D2
 70
        65
 10
0.0
 20
0.0
 30
0.0
  3
*D2
  1

  0
POINT
  5
AC
100
AcDbEntity
  8
DEFPOINTS
  6
CONTINUOUS
 62
         0
100
AcDbPoint
 10
979.7075437474
 20
3042.9198707699
 30
0.0
  0
POINT
  5
AD
100
AcDbEntity
  8
DEFPOINTS
  6
CONTINUOUS
 62
         0
100
AcDbPoint
 10
962.8511363617
 20
3042.9198707699
 30
0.0
  0
POINT
  5
AE
100
AcDbEntity
  8
DEFPOINTS
  6
CONTINUOUS
 62
         0
100
AcDbPoint
 10
962.8511363617
 20
3058.7718707699
 30
0.0
  0
LINE
  5
AF
100
AcDbEntity
  8
____
  6
CONTINUOUS
 62
         4
100
AcDbLine
 10
964.2011363617
 20
3042.9198707699
 30
0.0
 11
980.3825437474
 21
3042.9198707699
 31
0.0
  0
LINE
  5
B0
100
AcDbEntity
  8
____
  6
CONTINUOUS
 62
         4
100
AcDbLine
 10
964.2011363617
 20
3058.7718707699
 30
0.0
 11
980.3825437474
 21
3058.7718707699
 31
0.0
  0
LINE
  5
B1
100
AcDbEntity
  8
____
  6
CONTINUOUS
 62
         4
100
AcDbLine
 10
979.7075437474
 20
3042.9198707699
 30
0.0
 11
979.7075437474
 21
3058.7718707699
 31
0.0
  0
SOLID
  5
B2
100
AcDbEntity
  8
____
  6
CONTINUOUS
 62
         4
100
AcDbTrace
 10
979.7075437474
 20
3042.9198707699
 30
0.0
 11
979.3025437474
 21
3045.6198707699
 31
0.0
 12
980.1125437474
 22
3045.6198707699
 32
0.0
 13
979.7075437474
 23
3042.9198707699
 33
0.0
  0
LINE
  5
B3
100
AcDbEntity
  8
____
  6
CONTINUOUS
 62
         4
100
AcDbLine
 10
979.7075437474
 20
3058.7718707699
 30
0.0
 11
979.7075437474
 21
3084.5273834285
 31
0.0
  0
SOLID
  5
B4
100
AcDbEntity
  8
____
  6
CONTINUOUS
 62
         4
100
AcDbTrace
 10
979.7075437474
 20
3058.7718707699
 30
0.0
 11
980.1125437474
 21
3056.0718707699
 31
0.0
 12
979.3025437474
 22
3056.0718707699
 32
0.0
 13
979.7075437474
 23
3058.7718707699
 33
0.0
  0
TEXT
  5
B6
100
AcDbEntity
  8
____
  6
CONTINUOUS
 62
         4
100
AcDbText
 10
977.6825437474
 20
3061.5773834285
 30
0.0
 40
2.7
  1
崷15.852
 50
90.0
  7
BOX
100
AcDbText
  0
ENDBLK
  5
B7
100
AcDbEntity
  8
0
  6
CONTINUOUS
100
AcDbBlockEnd
  0
BLOCK
  5
BA
100
AcDbEntity
  8
0
100
AcDbBlockBegin
  2
*D3
 70
        65
 10
0.0
 20
0.0
 30
0.0
  3
*D3
  1

  0
POINT
  5
BC
100
AcDbEntity
  8
DEFPOINTS
  6
CONTINUOUS
 62
         0
100
AcDbPoint
 10
937.4511363617
 20
3059.4308707699
 30
0.0
  0
POINT
  5
BD
100
AcDbEntity
  8
DEFPOINTS
  6
CONTINUOUS
 62
         0
100
AcDbPoint
 10
937.4922834529
 20
3059.4308707699
 30
0.0
  0
POINT
  5
BE
100
AcDbEntity
  8
DEFPOINTS
  6
CONTINUOUS
 62
         0
100
AcDbPoint
 10
935.5992640535
 20
3059.4789173782
 30
0.0
  0
POINT
  5
BF
100
AcDbEntity
  8
DEFPOINTS
  6
CONTINUOUS
 62
         0
100
AcDbPoint
 10
961.3511363617
 20
3058.8107880927
 30
0.0
  0
LINE
  5
C0
100
AcDbEntity
  8
____
  6
CONTINUOUS
 62
         4
100
AcDbLine
 10
938.8422834529
 20
3059.4308707699
 30
0.0
 11
944.8771428973
 21
3059.4308707699
 31
0.0
  0
ARC
  5
C1
100
AcDbEntity
  8
____
  6
CONTINUOUS
 62
         4
100
AcDbCircle
 10
937.4511363617
 20
3059.4308707699
 30
0.0
 40
6.7510065356
100
AcDbArc
 50
358.5138011797
 51
359.2569005898
  0
SOLID
  5
C2
100
AcDbEntity
  8
____
  6
CONTINUOUS
 62
         4
100
AcDbTrace
 10
944.1998718679
 20
3059.2557756243
 30
0.0
 11
943.3369182083
 21
3061.8460142197
 31
0.0
 12
944.134868813
 22
3061.9852077269
 32
0.0
 13
944.1998718679
 23
3059.2557756243
 33
0.0
  0
ARC
  5
C3
100
AcDbEntity
  8
____
  6
CONTINUOUS
 62
         4
100
AcDbCircle
 10
937.4511363617
 20
3059.4308707699
 30
0.0
 40
6.7510065356
100
AcDbArc
 50
359.2569005898
 51
360.0
  0
SOLID
  5
C4
100
AcDbEntity
  8
____
  6
CONTINUOUS
 62
         4
100
AcDbTrace
 10
944.2021428973
 20
3059.4308707699
 30
0.0
 11
944.0663707378
 21
3056.7040427737
 31
0.0
 12
943.2722987068
 22
3056.8638852262
 32
0.0
 13
944.2021428973
 23
3059.4308707699
 33
0.0
  0
ARC
  5
C5
100
AcDbEntity
  8
____
  6
CONTINUOUS
 62
         4
100
AcDbCircle
 10
937.4511363617
 20
3059.4308707699
 30
0.0
 40
6.7510065356
100
AcDbArc
 50
0.0
 51
2.5382632488
  0
SOLID
  5
C6
100
AcDbEntity
  8
____
  6
CONTINUOUS
 62
         4
100
AcDbTrace
 10
937.4511363617
 20
3059.4308707699
 30
0.0
 11
938.524889804
 21
3061.9410656916
 31
0.0
 12
939.2141216589
 22
3061.5155548807
 32
0.0
 13
937.4511363617
 23
3059.4308707699
 33
0.0
  0
TEXT
  5
C8
100
AcDbEntity
  8
____
  6
CONTINUOUS
 62
         4
100
AcDbText
 10
945.5455192749
 20
3061.079849637
 30
0.0
 40
2.7
  1
1.4862%%d
  7
BOX
100
AcDbText
  0
ENDBLK
  5
C9
100
AcDbEntity
  8
0
  6
CONTINUOUS
100
AcDbBlockEnd
  0
BLOCK
  5
CC
100
AcDbEntity
  8
0
100
AcDbBlockBegin
  2
*D4
 70
        65
 10
0.0
 20
0.0
 30
0.0
  3
*D4
  1

  0
POINT
  5
CE
100
AcDbEntity
  8
DEFPOINTS
  6
CONTINUOUS
 62
         0
100
AcDbPoint
 10
962.8511363617
 20
3202.2103612621
 30
0.0
  0
POINT
  5
CF
100
AcDbEntity
  8
DEFPOINTS
  6
CONTINUOUS
 62
         0
100
AcDbPoint
 10
962.8511363617
 20
3169.0412640757
 30
0.0
  0
POINT
  5
D0
100
AcDbEntity
  8
DEFPOINTS
  6
CONTINUOUS
 62
         0
100
AcDbPoint
 10
937.4511363617
 20
3171.1613467528
 30
0.0
  0
LINE
  5
D1
100
AcDbEntity
  8
____
  6
CONTINUOUS
 62
         4
100
AcDbLine
 10
962.8511363617
 20
3170.3912640757
 30
0.0
 11
962.8511363617
 21
3202.8853612621
 31
0.0
  0
LINE
  5
D2
100
AcDbEntity
  8
____
  6
CONTINUOUS
 62
         4
100
AcDbLine
 10
937.4511363617
 20
3172.5113467528
 30
0.0
 11
937.4511363617
 21
3202.8853612621
 31
0.0
  0
LINE
  5
D3
100
AcDbEntity
  8
____
  6
CONTINUOUS
 62
         4
100
AcDbLine
 10
962.8511363617
 20
3202.2103612621
 30
0.0
 11
937.4511363617
 21
3202.2103612621
 31
0.0
  0
SOLID
  5
D4
100
AcDbEntity
  8
____
  6
CONTINUOUS
 62
         4
100
AcDbTrace
 10
962.8511363617
 20
3202.2103612621
 30
0.0
 11
960.1511363617
 21
3201.8053612621
 31
0.0
 12
960.1511363617
 22
3202.6153612621
 32
0.0
 13
962.8511363617
 23
3202.2103612621
 33
0.0
  0
SOLID
  5
D5
100
AcDbEntity
  8
____
  6
CONTINUOUS
 62
         4
100
AcDbTrace
 10
937.4511363617
 20
3202.2103612621
 30
0.0
 11
940.1511363617
 21
3202.6153612621
 31
0.0
 12
940.1511363617
 22
3201.8053612621
 32
0.0
 13
937.4511363617
 23
3202.2103612621
 33
0.0
  0
TEXT
  5
D7
100
AcDbEntity
  8
____
  6
CONTINUOUS
 62
         4
100
AcDbText
 10
944.3206043981
 20
3204.2353612621
 30
0.0
 40
2.7
  1
25.4
  7
BOX
100
AcDbText
  0
ENDBLK
  5
D8
100
AcDbEntity
  8
0
  6
CONTINUOUS
100
AcDbBlockEnd
  0
BLOCK
  5
E2
100
AcDbEntity
  8
0
100
AcDbBlockBegin
  2
*D5
 70
        65
 10
0.0
 20
0.0
 30
0.0
  3
*D5
  1

  0
POINT
  5
E4
100
AcDbEntity
  8
DEFPOINTS
  6
CONTINUOUS
 62
         0
100
AcDbPoint
 10
978.5512480316
 20
3171.1613467528
 30
0.0
  0
POINT
  5
E5
100
AcDbEntity
  8
DEFPOINTS
  6
CONTINUOUS
 62
         0
100
AcDbPoint
 10
937.4511363617
 20
3171.1613467528
 30
0.0
  0
POINT
  5
E6
100
AcDbEntity
  8
DEFPOINTS
  6
CONTINUOUS
 62
         0
100
AcDbPoint
 10
937.4511363617
 20
3153.9913467528
 30
0.0
  0
LINE
  5
E7
100
AcDbEntity
  8
____
  6
CONTINUOUS
 62
         4
100
AcDbLine
 10
938.8011363617
 20
3171.1613467528
 30
0.0
 11
979.2262480316
 21
3171.1613467528
 31
0.0
  0
LINE
  5
E8
100
AcDbEntity
  8
____
  6
CONTINUOUS
 62
         4
100
AcDbLine
 10
938.8011363617
 20
3153.9913467528
 30
0.0
 11
979.2262480316
 21
3153.9913467528
 31
0.0
  0
LINE
  5
E9
100
AcDbEntity
  8
____
  6
CONTINUOUS
 62
         4
100
AcDbLine
 10
978.5512480316
 20
3171.1613467528
 30
0.0
 11
978.5512480316
 21
3153.9913467528
 31
0.0
  0
SOLID
  5
EA
100
AcDbEntity
  8
____
  6
CONTINUOUS
 62
         4
100
AcDbTrace
 10
978.5512480316
 20
3171.1613467528
 30
0.0
 11
978.9562480316
 21
3168.4613467528
 31
0.0
 12
978.1462480316
 22
3168.4613467528
 32
0.0
 13
978.5512480316
 23
3171.1613467528
 33
0.0
  0
LINE
  5
EB
100
AcDbEntity
  8
____
  6
CONTINUOUS
 62
         4
100
AcDbLine
 10
978.5512480316
 20
3171.1613467528
 30
0.0
 11
978.5512480316
 21
3199.2703575601
 31
0.0
  0
SOLID
  5
EC
100
AcDbEntity
  8
____
  6
CONTINUOUS
 62
         4
100
AcDbTrace
 10
978.5512480316
 20
3153.9913467528
 30
0.0
 11
978.1462480316
 21
3156.6913467528
 31
0.0
 12
978.9562480316
 22
3156.6913467528
 32
0.0
 13
978.5512480316
 23
3153.9913467528
 33
0.0
  0
TEXT
  5
EE
100
AcDbEntity
  8
____
  6
CONTINUOUS
 62
         4
100
AcDbText
 10
976.5262480316
 20
3179.0203575601
 30
0.0
 40
2.7
  1
崷17.17
 50
90.0
  7
BOX
100
AcDbText
  0
ENDBLK
  5
EF
100
AcDbEntity
  8
0
  6
CONTINUOUS
100
AcDbBlockEnd
  0
BLOCK
  5
F3
100
AcDbEntity
  8
0
100
AcDbBlockBegin
  2
*D6
 70
        65
 10
0.0
 20
0.0
 30
0.0
  3
*D6
  1

  0
POINT
  5
F5
100
AcDbEntity
  8
DEFPOINTS
  6
CONTINUOUS
 62
         0
100
AcDbPoint
 10
933.4511363617
 20
3139.1144718233
 30
0.0
  0
POINT
  5
F6
100
AcDbEntity
  8
DEFPOINTS
  6
CONTINUOUS
 62
         0
100
AcDbPoint
 10
933.4511363617
 20
3151.9439729418
 30
0.0
  0
POINT
  5
F7
100
AcDbEntity
  8
DEFPOINTS
  6
CONTINUOUS
 62
         0
100
AcDbPoint
 10
937.4511363617
 20
3152.8157527305
 30
0.0
  0
LINE
  5
F8
100
AcDbEntity
  8
____
  6
CONTINUOUS
 62
         4
100
AcDbLine
 10
933.4511363617
 20
3150.5939729418
 30
0.0
 11
933.4511363617
 21
3138.4394718233
 31
0.0
  0
LINE
  5
F9
100
AcDbEntity
  8
____
  6
CONTINUOUS
 62
         4
100
AcDbLine
 10
937.4511363617
 20
3151.4657527305
 30
0.0
 11
937.4511363617
 21
3138.4394718233
 31
0.0
  0
LINE
  5
FA
100
AcDbEntity
  8
____
  6
CONTINUOUS
 62
         4
100
AcDbLine
 10
933.4511363617
 20
3139.1144718233
 30
0.0
 11
937.4511363617
 21
3139.1144718233
 31
0.0
  0
SOLID
  5
FB
100
AcDbEntity
  8
____
  6
CONTINUOUS
 62
         4
100
AcDbTrace
 10
933.4511363617
 20
3139.1144718233
 30
0.0
 11
936.1511363617
 21
3139.5194718233
 31
0.0
 12
936.1511363617
 22
3138.7094718233
 32
0.0
 13
933.4511363617
 23
3139.1144718233
 33
0.0
  0
LINE
  5
FC
100
AcDbEntity
  8
____
  6
CONTINUOUS
 62
         4
100
AcDbLine
 10
937.4511363617
 20
3139.1144718233
 30
0.0
 11
944.6549564672
 21
3139.1144718233
 31
0.0
  0
SOLID
  5
FD
100
AcDbEntity
  8
____
  6
CONTINUOUS
 62
         4
100
AcDbTrace
 10
937.4511363617
 20
3139.1144718233
 30
0.0
 11
934.7511363617
 21
3138.7094718233
 31
0.0
 12
934.7511363617
 22
3139.5194718233
 32
0.0
 13
937.4511363617
 23
3139.1144718233
 33
0.0
  0
TEXT
  5
FF
100
AcDbEntity
  8
____
  6
CONTINUOUS
 62
         4
100
AcDbText
 10
940.6049564672
 20
3141.1394718233
 30
0.0
 40
2.7
  1
4
  7
BOX
100
AcDbText
  0
ENDBLK
  5
100
100
AcDbEntity
  8
0
  6
CONTINUOUS
100
AcDbBlockEnd
  0
BLOCK
  5
113
100
AcDbEntity
  8
0
100
AcDbBlockBegin
  2
*D7
 70
        65
 10
0.0
 20
0.0
 30
0.0
  3
*D7
  1

  0
POINT
  5
115
100
AcDbEntity
  8
DEFPOINTS
  6
CONTINUOUS
 62
         0
100
AcDbPoint
 10
990.5259423476
 20
3178.599852495
 30
0.0
  0
POINT
  5
116
100
AcDbEntity
  8
DEFPOINTS
  6
CONTINUOUS
 62
         0
100
AcDbPoint
 10
926.1557557177
 20
3178.599852495
 30
0.0
  0
POINT
  5
117
100
AcDbEntity
  8
DEFPOINTS
  6
CONTINUOUS
 62
         0
100
AcDbPoint
 10
926.1557557177
 20
3146.5528410107
 30
0.0
  0
LINE
  5
118
100
AcDbEntity
  8
____
  6
CONTINUOUS
 62
         4
100
AcDbLine
 10
927.5057557177
 20
3178.599852495
 30
0.0
 11
991.2009423476
 21
3178.599852495
 31
0.0
  0
LINE
  5
119
100
AcDbEntity
  8
____
  6
CONTINUOUS
 62
         4
100
AcDbLine
 10
927.5057557177
 20
3146.5528410107
 30
0.0
 11
991.2009423476
 21
3146.5528410107
 31
0.0
  0
LINE
  5
11A
100
AcDbEntity
  8
____
  6
CONTINUOUS
 62
         4
100
AcDbLine
 10
990.5259423476
 20
3178.599852495
 30
0.0
 11
990.5259423476
 21
3146.5528410107
 31
0.0
  0
SOLID
  5
11B
100
AcDbEntity
  8
____
  6
CONTINUOUS
 62
         4
100
AcDbTrace
 10
990.5259423476
 20
3178.599852495
 30
0.0
 11
990.9309423476
 21
3175.899852495
 31
0.0
 12
990.1209423476
 22
3175.899852495
 32
0.0
 13
990.5259423476
 23
3178.599852495
 33
0.0
  0
SOLID
  5
11C
100
AcDbEntity
  8
____
  6
CONTINUOUS
 62
         4
100
AcDbTrace
 10
990.5259423476
 20
3146.5528410107
 30
0.0
 11
990.1209423476
 21
3149.2528410107
 31
0.0
 12
990.9309423476
 22
3149.2528410107
 32
0.0
 13
990.5259423476
 23
3146.5528410107
 33
0.0
  0
TEXT
  5
11E
100
AcDbEntity
  8
____
  6
CONTINUOUS
 62
         4
100
AcDbText
 10
988.5009423476
 20
3151.8396843592
 30
0.0
 40
2.7
  1
崷32.05
 50
90.0
  7
BOX
100
AcDbText
  0
ENDBLK
  5
11F
100
AcDbEntity
  8
0
  6
CONTINUOUS
100
AcDbBlockEnd
  0
BLOCK
  5
133
100
AcDbEntity
  8
0
100
AcDbBlockBegin
  2
*D8
 70
        65
 10
0.0
 20
0.0
 30
0.0
  3
*D8
  1

  0
POINT
  5
135
100
AcDbEntity
  8
DEFPOINTS
  6
CONTINUOUS
 62
         0
100
AcDbPoint
 10
916.2991927852
 20
3178.3363467528
 30
0.0
  0
POINT
  5
136
100
AcDbEntity
  8
DEFPOINTS
  6
CONTINUOUS
 62
         0
100
AcDbPoint
 10
925.4511363617
 20
3178.3363467528
 30
0.0
  0
POINT
  5
137
100
AcDbEntity
  8
DEFPOINTS
  6
CONTINUOUS
 62
         0
100
AcDbPoint
 10
925.4511363617
 20
3146.8163467528
 30
0.0
  0
LINE
  5
138
100
AcDbEntity
  8
____
  6
CONTINUOUS
 62
         4
100
AcDbLine
 10
924.1011363617
 20
3178.3363467528
 30
0.0
 11
915.6241927852
 21
3178.3363467528
 31
0.0
  0
LINE
  5
139
100
AcDbEntity
  8
____
  6
CONTINUOUS
 62
         4
100
AcDbLine
 10
924.1011363617
 20
3146.8163467528
 30
0.0
 11
915.6241927852
 21
3146.8163467528
 31
0.0
  0
LINE
  5
13A
100
AcDbEntity
  8
____
  6
CONTINUOUS
 62
         4
100
AcDbLine
 10
916.2991927852
 20
3178.3363467528
 30
0.0
 11
916.2991927852
 21
3146.8163467528
 31
0.0
  0
SOLID
  5
13B
100
AcDbEntity
  8
____
  6
CONTINUOUS
 62
         4
100
AcDbTrace
 10
916.2991927852
 20
3178.3363467528
 30
0.0
 11
916.7041927852
 21
3175.6363467528
 31
0.0
 12
915.8941927852
 22
3175.6363467528
 32
0.0
 13
916.2991927852
 23
3178.3363467528
 33
0.0
  0
SOLID
  5
13C
100
AcDbEntity
  8
____
  6
CONTINUOUS
 62
         4
100
AcDbTrace
 10
916.2991927852
 20
3146.8163467528
 30
0.0
 11
915.8941927852
 21
3149.5163467528
 31
0.0
 12
916.7041927852
 22
3149.5163467528
 32
0.0
 13
916.2991927852
 23
3146.8163467528
 33
0.0
  0
TEXT
  5
13E
100
AcDbEntity
  8
____
  6
CONTINUOUS
 62
         4
100
AcDbText
 10
914.2741927852
 20
3152.4029356528
 30
0.0
 40
2.7
  1
崷31.52
 50
90.0
  7
BOX
100
AcDbText
  0
ENDBLK
  5
13F
100
AcDbEntity
  8
0
  6
CONTINUOUS
100
AcDbBlockEnd
  0
BLOCK
  5
15B
100
AcDbEntity
  8
0
100
AcDbBlockBegin
  2
*D9
 70
        65
 10
0.0
 20
0.0
 30
0.0
  3
*D9
  1

  0
POINT
  5
15D
100
AcDbEntity
  8
DEFPOINTS
  6
CONTINUOUS
 62
         0
100
AcDbPoint
 10
822.4511363617
 20
3215.3841606336
 30
0.0
  0
POINT
  5
15E
100
AcDbEntity
  8
DEFPOINTS
  6
CONTINUOUS
 62
         0
100
AcDbPoint
 10
822.4511363617
 20
3173.6263467528
 30
0.0
  0
POINT
  5
15F
100
AcDbEntity
  8
DEFPOINTS
  6
CONTINUOUS
 62
         0
100
AcDbPoint
 10
933.4511363617
 20
3176.5763467528
 30
0.0
  0
LINE
  5
160
100
AcDbEntity
  8
____
  6
CONTINUOUS
 62
         4
100
AcDbLine
 10
822.4511363617
 20
3174.9763467528
 30
0.0
 11
822.4511363617
 21
3216.0591606336
 31
0.0
  0
LINE
  5
161
100
AcDbEntity
  8
____
  6
CONTINUOUS
 62
         4
100
AcDbLine
 10
933.4511363617
 20
3177.9263467528
 30
0.0
 11
933.4511363617
 21
3216.0591606336
 31
0.0
  0
LINE
  5
162
100
AcDbEntity
  8
____
  6
CONTINUOUS
 62
         4
100
AcDbLine
 10
822.4511363617
 20
3215.3841606336
 30
0.0
 11
933.4511363617
 21
3215.3841606336
 31
0.0
  0
SOLID
  5
163
100
AcDbEntity
  8
____
  6
CONTINUOUS
 62
         4
100
AcDbTrace
 10
822.4511363617
 20
3215.3841606336
 30
0.0
 11
825.1511363617
 21
3215.7891606336
 31
0.0
 12
825.1511363617
 22
3214.9791606336
 32
0.0
 13
822.4511363617
 23
3215.3841606336
 33
0.0
  0
SOLID
  5
164
100
AcDbEntity
  8
____
  6
CONTINUOUS
 62
         4
100
AcDbTrace
 10
933.4511363617
 20
3215.3841606336
 30
0.0
 11
930.7511363617
 21
3214.9791606336
 31
0.0
 12
930.7511363617
 22
3215.7891606336
 32
0.0
 13
933.4511363617
 23
3215.3841606336
 33
0.0
  0
TEXT
  5
166
100
AcDbEntity
  8
____
  6
CONTINUOUS
 62
         4
100
AcDbText
 10
875.7720667695
 20
3217.4091606336
 30
0.0
 40
2.7
  1
111
  7
BOX
100
AcDbText
  0
ENDBLK
  5
167
100
AcDbEntity
  8
0
  6
CONTINUOUS
100
AcDbBlockEnd
  0
BLOCK
  5
169
100
AcDbEntity
  8
0
100
AcDbBlockBegin
  2
*D10
 70
        65
 10
0.0
 20
0.0
 30
0.0
  3
*D10
  1

  0
POINT
  5
16B
100
AcDbEntity
  8
DEFPOINTS
  6
CONTINUOUS
 62
         0
100
AcDbPoint
 10
924.4511363617
 20
3200.2822979484
 30
0.0
  0
POINT
  5
16C
100
AcDbEntity
  8
DEFPOINTS
  6
CONTINUOUS
 62
         0
100
AcDbPoint
 10
924.4511363617
 20
3181.8511634048
 30
0.0
  0
POINT
  5
16D
100
AcDbEntity
  8
DEFPOINTS
  6
CONTINUOUS
 62
         0
100
AcDbPoint
 10
933.4511363617
 20
3176.5763467528
 30
0.0
  0
LINE
  5
16E
100
AcDbEntity
  8
____
  6
CONTINUOUS
 62
         4
100
AcDbLine
 10
924.4511363617
 20
3183.2011634048
 30
0.0
 11
924.4511363617
 21
3200.9572979484
 31
0.0
  0
LINE
  5
16F
100
AcDbEntity
  8
____
  6
CONTINUOUS
 62
         4
100
AcDbLine
 10
933.4511363617
 20
3177.9263467528
 30
0.0
 11
933.4511363617
 21
3200.9572979484
 31
0.0
  0
LINE
  5
170
100
AcDbEntity
  8
____
  6
CONTINUOUS
 62
         4
100
AcDbLine
 10
924.4511363617
 20
3200.2822979484
 30
0.0
 11
933.4511363617
 21
3200.2822979484
 31
0.0
  0
SOLID
  5
171
100
AcDbEntity
  8
____
  6
CONTINUOUS
 62
         4
100
AcDbTrace
 10
924.4511363617
 20
3200.2822979484
 30
0.0
 11
927.1511363617
 21
3200.6872979484
 31
0.0
 12
927.1511363617
 22
3199.8772979484
 32
0.0
 13
924.4511363617
 23
3200.2822979484
 33
0.0
  0
SOLID
  5
172
100
AcDbEntity
  8
____
  6
CONTINUOUS
 62
         4
100
AcDbTrace
 10
933.4511363617
 20
3200.2822979484
 30
0.0
 11
930.7511363617
 21
3199.8772979484
 31
0.0
 12
930.7511363617
 22
3200.6872979484
 32
0.0
 13
933.4511363617
 23
3200.2822979484
 33
0.0
  0
TEXT
  5
174
100
AcDbEntity
  8
____
  6
CONTINUOUS
 62
         4
100
AcDbText
 10
921.93826686
 20
3202.3072979484
 30
0.0
 40
2.7
  1
8.9
  7
BOX
100
AcDbText
  0
ENDBLK
  5
175
100
AcDbEntity
  8
0
  6
CONTINUOUS
100
AcDbBlockEnd
  0
ENDSEC
  0
SECTION
  2
ENTITIES
  0
INSERT
  5
5E
100
AcDbEntity
  8
0
  6
CONTINUOUS
100
AcDbBlockReference
  2
*X0
 10
0.0
 20
0.0
 30
0.0
  0
LINE
  5
5F
100
AcDbEntity
  8
____
  6
CONTINUOUS
 62
         7
100
AcDbLine
 10
900.4511363617
 20
3062.5958707699
 30
0.0
 11
898.4642127557
 21
3062.5958707699
 31
0.0
  0
LINE
  5
60
100
AcDbEntity
  8
____
  6
CONTINUOUS
 62
         7
100
AcDbLine
 10
822.4511363617
 20
3057.8458707699
 30
0.0
 11
822.4511363617
 21
3061.2958707699
 31
0.0
  0
LINE
  5
61
100
AcDbEntity
  8
____
  6
CONTINUOUS
 62
         7
100
AcDbLine
 10
822.4511363617
 20
3039.7958707699
 30
0.0
 11
822.4511363617
 21
3043.8458707699
 31
0.0
  0
LINE
  5
62
100
AcDbEntity
  8
____
  6
CONTINUOUS
 62
         7
100
AcDbLine
 10
892.4511363617
 20
3061.2958707699
 30
0.0
 11
822.4511363617
 21
3061.2958707699
 31
0.0
  0
ARC
  5
63
100
AcDbEntity
  8
____
  6
CONTINUOUS
 62
         7
100
AcDbCircle
 10
900.7511363617
 20
3062.8053911899
 30
0.0
 40
0.3
100
AcDbArc
 50
98.4205
 51
180.0
  0
LINE
  5
64
100
AcDbEntity
  8
____
  6
CONTINUOUS
 62
         7
100
AcDbLine
 10
900.4511363617
 20
3062.8053911899
 30
0.0
 11
900.4511363617
 21
3062.5958707699
 31
0.0
  0
ARC
  5
65
100
AcDbEntity
  8
____
  6
CONTINUOUS
 62
         7
100
AcDbCircle
 10
892.4511363617
 20
3074.2958707699
 30
0.0
 40
13.0
100
AcDbArc
 50
270.0
 51
295.8419327632
  0
ARC
  5
66
100
AcDbEntity
  8
____
  6
CONTINUOUS
 62
         7
100
AcDbCircle
 10
932.6511363617
 20
3035.8223650278
 30
0.0
 40
1.0
100
AcDbArc
 50
270.0
 51
360.0
  0
ARC
  5
67
100
AcDbEntity
  8
____
  6
CONTINUOUS
 62
         7
100
AcDbCircle
 10
932.6511363617
 20
3065.869376512
 30
0.0
 40
1.0
100
AcDbArc
 50
0.0
 51
90.0
  0
LINE
  5
68
100
AcDbEntity
  8
____
  6
CONTINUOUS
 62
         7
100
AcDbLine
 10
877.4511363617
 20
3046.2813707699
 30
0.0
 11
880.0864516654
 21
3050.8458707699
 31
0.0
  0
LINE
  5
69
100
AcDbEntity
  8
____
  6
CONTINUOUS
 62
         7
100
AcDbLine
 10
877.4511363617
 20
3055.4103707699
 30
0.0
 11
880.0864516654
 21
3050.8458707699
 31
0.0
  0
LINE
  5
6A
100
AcDbEntity
  8
____
  6
CONTINUOUS
 62
         7
100
AcDbLine
 10
877.4511363617
 20
3046.2813707699
 30
0.0
 11
827.0799226731
 21
3046.2813707699
 31
0.0
  0
LINE
  5
6B
100
AcDbEntity
  8
____
  6
CONTINUOUS
 62
         7
100
AcDbLine
 10
877.4511363617
 20
3055.4103707699
 30
0.0
 11
827.0799226731
 21
3055.4103707699
 31
0.0
  0
LINE
  5
6C
100
AcDbEntity
  8
____
  6
CONTINUOUS
 62
         7
100
AcDbLine
 10
900.4511363617
 20
3039.0958707699
 30
0.0
 11
850.4511363617
 21
3039.0958707699
 31
0.0
  0
LINE
  5
6D
100
AcDbEntity
  8
____
  6
CONTINUOUS
 62
         7
100
AcDbLine
 10
850.1511363617
 20
3038.7958707699
 30
0.0
 11
823.4511363617
 21
3038.7958707699
 31
0.0
  0
LINE
  5
6E
100
AcDbEntity
  8
____
  6
CONTINUOUS
 62
         7
100
AcDbLine
 10
822.4511363617
 20
3039.7958707699
 30
0.0
 11
823.4511363617
 21
3038.7958707699
 31
0.0
  0
LINE
  5
6F
100
AcDbEntity
  8
____
  6
CONTINUOUS
 62
         7
100
AcDbLine
 10
850.1511363617
 20
3038.7958707699
 30
0.0
 11
850.4511363617
 21
3039.0958707699
 31
0.0
  0
LINE
  5
70
100
AcDbEntity
  8
____
  6
CONTINUOUS
 62
         7
100
AcDbLine
 10
932.6511363617
 20
3066.869376512
 30
0.0
 11
926.1557557177
 21
3066.869376512
 31
0.0
  0
LINE
  5
71
100
AcDbEntity
  8
____
  6
CONTINUOUS
 62
         7
100
AcDbLine
 10
932.6511363617
 20
3034.8223650278
 30
0.0
 11
926.1557557177
 21
3034.8223650278
 31
0.0
  0
LINE
  5
72
100
AcDbEntity
  8
____
  6
CONTINUOUS
 62
         7
100
AcDbLine
 10
926.1557557177
 20
3066.869376512
 30
0.0
 11
900.7072052696
 21
3063.1021571905
 31
0.0
  0
LINE
  5
73
100
AcDbEntity
  8
____
  6
CONTINUOUS
 62
         7
100
AcDbLine
 10
926.1557557177
 20
3034.8223650278
 30
0.0
 11
900.7072052696
 21
3038.5895843492
 31
0.0
  0
ARC
  5
74
100
AcDbEntity
  8
____
  6
CONTINUOUS
 62
         7
100
AcDbCircle
 10
900.7511363617
 20
3038.8863503499
 30
0.0
 40
0.3
100
AcDbArc
 50
180.0
 51
261.5795
  0
LINE
  5
75
100
AcDbEntity
  8
____
  6
CONTINUOUS
 62
         7
100
AcDbLine
 10
900.4511363617
 20
3039.0958707699
 30
0.0
 11
900.4511363617
 21
3038.8863503499
 31
0.0
  0
LINE
  5
76
100
AcDbEntity
  8
____
  6
CONTINUOUS
 62
         4
100
AcDbLine
 10
937.4922834529
 20
3059.4308707699
 30
0.0
 11
937.4511363617
 21
3059.4308707699
 31
0.0
  0
LINE
  5
77
100
AcDbEntity
  8
____
  6
CONTINUOUS
 62
         7
100
AcDbLine
 10
935.5992640535
 20
3059.4789173782
 30
0.0
 11
961.3511363617
 21
3058.8107880927
 31
0.0
  0
LINE
  5
78
100
AcDbEntity
  8
____
  6
CONTINUOUS
 62
         7
100
AcDbLine
 10
961.3511363617
 20
3042.8809534471
 30
0.0
 11
935.5992640535
 21
3042.2128241616
 31
0.0
  0
ARC
  5
79
100
AcDbEntity
  8
____
  6
CONTINUOUS
 62
         7
100
AcDbCircle
 10
935.6511363617
 20
3040.2134969588
 30
0.0
 40
2.0
100
AcDbArc
 50
91.4861988203
 51
180.0
  0
ARC
  5
7A
100
AcDbEntity
  8
____
  6
CONTINUOUS
 62
         7
100
AcDbCircle
 10
935.6511363617
 20
3061.4782445809
 30
0.0
 40
2.0
100
AcDbArc
 50
180.0
 51
268.5138011797
  0
LINE
  5
7B
100
AcDbEntity
  8
____
  6
CONTINUOUS
 62
         7
100
AcDbLine
 10
962.8511363617
 20
3044.3809534471
 30
0.0
 11
962.8511363617
 21
3057.3107880927
 31
0.0
  0
LINE
  5
7C
100
AcDbEntity
  8
____
  6
CONTINUOUS
 62
         7
100
AcDbLine
 10
961.3511363617
 20
3058.8107880927
 30
0.0
 11
962.8511363617
 21
3057.3107880927
 31
0.0
  0
LINE
  5
7D
100
AcDbEntity
  8
____
  6
CONTINUOUS
 62
         7
100
AcDbLine
 10
961.3511363617
 20
3042.8809534471
 30
0.0
 11
962.8511363617
 21
3044.3809534471
 31
0.0
  0
LINE
  5
7E
100
AcDbEntity
  8
____
  6
CONTINUOUS
 62
         7
100
AcDbLine
 10
933.6511363617
 20
3035.8223650278
 30
0.0
 11
933.6511363617
 21
3040.2134969588
 31
0.0
  0
LINE
  5
7F
100
AcDbEntity
  8
____
  6
CONTINUOUS
 62
         7
100
AcDbLine
 10
933.6511363617
 20
3061.4782445809
 30
0.0
 11
933.6511363617
 21
3065.869376512
 31
0.0
  0
ARC
  5
80
100
AcDbEntity
  8
____
  6
CONTINUOUS
 62
         7
100
AcDbCircle
 10
823.4511363617
 20
3057.8458707699
 30
0.0
 40
1.0
100
AcDbArc
 50
180.0
 51
270.0
  0
LINE
  5
81
100
AcDbEntity
  8
____
  6
CONTINUOUS
 62
         7
100
AcDbLine
 10
826.2511363617
 20
3056.8458707699
 30
0.0
 11
827.0799226731
 21
3055.4103707699
 31
0.0
  0
LINE
  5
82
100
AcDbEntity
  8
____
  6
CONTINUOUS
 62
         7
100
AcDbLine
 10
826.2511363617
 20
3056.8458707699
 30
0.0
 11
823.4511363617
 21
3056.8458707699
 31
0.0
  0
LINE
  5
83
100
AcDbEntity
  8
____
  6
CONTINUOUS
 62
         7
100
AcDbLine
 10
826.2511363617
 20
3044.8458707699
 30
0.0
 11
827.0799226731
 21
3046.2813707699
 31
0.0
  0
LINE
  5
84
100
AcDbEntity
  8
____
  6
CONTINUOUS
 62
         7
100
AcDbLine
 10
826.2511363617
 20
3044.8458707699
 30
0.0
 11
823.4511363617
 21
3044.8458707699
 31
0.0
  0
ARC
  5
85
100
AcDbEntity
  8
____
  6
CONTINUOUS
 62
         7
100
AcDbCircle
 10
823.4511363617
 20
3043.8458707699
 30
0.0
 40
1.0
100
AcDbArc
 50
90.0
 51
180.0
  0
ARC
  5
86
100
AcDbEntity
  8
____
  6
CONTINUOUS
 62
         7
100
AcDbCircle
 10
823.4511363617
 20
3043.8458707699
 30
0.0
 40
1.0
100
AcDbArc
 50
90.0
 51
180.0
  0
LINE
  5
87
100
AcDbEntity
  8
____
  6
CONTINUOUS
 62
         7
100
AcDbLine
 10
826.2511363617
 20
3044.8458707699
 30
0.0
 11
823.4511363617
 21
3044.8458707699
 31
0.0
  0
LINE
  5
88
100
AcDbEntity
  8
____
  6
CONTINUOUS
 62
         7
100
AcDbLine
 10
826.2511363617
 20
3044.8458707699
 30
0.0
 11
827.0799226731
 21
3046.2813707699
 31
0.0
  0
LINE
  5
89
100
AcDbEntity
  8
____
  6
CONTINUOUS
 62
         7
100
AcDbLine
 10
827.0799226731
 20
3055.4103707699
 30
0.0
 11
827.0799226731
 21
3046.2813707699
 31
0.0
  0
LINE
  5
8A
100
AcDbEntity
  8
____
  6
CONTINUOUS
 62
         7
100
AcDbLine
 10
826.2511363617
 20
3056.8458707699
 30
0.0
 11
823.4511363617
 21
3056.8458707699
 31
0.0
  0
LINE
  5
8B
100
AcDbEntity
  8
____
  6
CONTINUOUS
 62
         7
100
AcDbLine
 10
826.2511363617
 20
3056.8458707699
 30
0.0
 11
827.0799226731
 21
3055.4103707699
 31
0.0
  0
LINE
  5
8C
100
AcDbEntity
  8
____
  6
CONTINUOUS
 62
         7
100
AcDbLine
 10
826.2511363617
 20
3044.8458707699
 30
0.0
 11
826.2511363617
 21
3056.8458707699
 31
0.0
  0
ARC
  5
8D
100
AcDbEntity
  8
____
  6
CONTINUOUS
 62
         7
100
AcDbCircle
 10
823.4511363617
 20
3057.8458707699
 30
0.0
 40
1.0
100
AcDbArc
 50
180.0
 51
270.0
  0
DIMENSION
  5
91
100
AcDbEntity
  8
____
  6
CONTINUOUS
 62
         4
100
AcDbDimension
  2
*D1
 10
822.4511363617
 20
3229.7238760196
 30
0.0
 11
885.9011363617
 21
3231.7488760196
 31
0.0
  3
DIMSTYLE1
100
AcDbAlignedDimension
 13
822.4511363617
 23
3173.6263467528
 33
0.0
 14
962.8511363617
 24
3169.0412640757
 34
0.0
100
AcDbRotatedDimension
  0
LINE
  5
9E
100
AcDbEntity
  8
____
  6
CONTINUOUS
 62
         7
100
AcDbLine
 10
933.6511363617
 20
3061.4782445809
 30
0.0
 11
933.6511363617
 21
3065.869376512
 31
0.0
  0
LINE
  5
9F
100
AcDbEntity
  8
____
  6
CONTINUOUS
 62
         7
100
AcDbLine
 10
933.6511363617
 20
3035.8223650278
 30
0.0
 11
933.6511363617
 21
3040.2134969588
 31
0.0
  0
LINE
  5
A0
100
AcDbEntity
  8
____
  6
CONTINUOUS
 62
         7
100
AcDbLine
 10
961.3511363617
 20
3042.8809534471
 30
0.0
 11
962.8511363617
 21
3044.3809534471
 31
0.0
  0
LINE
  5
A1
100
AcDbEntity
  8
____
  6
CONTINUOUS
 62
         7
100
AcDbLine
 10
961.3511363617
 20
3058.8107880927
 30
0.0
 11
962.8511363617
 21
3057.3107880927
 31
0.0
  0
LINE
  5
A2
100
AcDbEntity
  8
____
  6
CONTINUOUS
 62
         7
100
AcDbLine
 10
962.8511363617
 20
3044.3809534471
 30
0.0
 11
962.8511363617
 21
3057.3107880927
 31
0.0
  0
ARC
  5
A3
100
AcDbEntity
  8
____
  6
CONTINUOUS
 62
         7
100
AcDbCircle
 10
935.6511363617
 20
3061.4782445809
 30
0.0
 40
2.0
100
AcDbArc
 50
180.0
 51
268.5138011797
  0
ARC
  5
A4
100
AcDbEntity
  8
____
  6
CONTINUOUS
 62
         7
100
AcDbCircle
 10
935.6511363617
 20
3040.2134969588
 30
0.0
 40
2.0
100
AcDbArc
 50
91.4861988203
 51
180.0
  0
LINE
  5
A5
100
AcDbEntity
  8
____
  6
CONTINUOUS
 62
         7
100
AcDbLine
 10
961.3511363617
 20
3042.8809534471
 30
0.0
 11
935.5992640535
 21
3042.2128241616
 31
0.0
  0
LINE
  5
A6
100
AcDbEntity
  8
____
  6
CONTINUOUS
 62
         7
100
AcDbLine
 10
935.5992640535
 20
3059.4789173782
 30
0.0
 11
961.3511363617
 21
3058.8107880927
 31
0.0
  0
LINE
  5
A7
100
AcDbEntity
  8
____
  6
CENTER
 62
         1
100
AcDbLine
 10
937.4511363617
 20
3041.2259247981
 30
0.0
 11
937.4511363617
 21
3061.0336537139
 31
0.0
  0
LINE
  5
A8
100
AcDbEntity
  8
____
  6
CENTER
 62
         1
100
AcDbLine
 10
966.1462094451
 20
3050.8458707699
 30
0.0
 11
927.8521168532
 21
3050.8458707699
 31
0.0
  0
DIMENSION
  5
AB
100
AcDbEntity
  8
____
  6
CONTINUOUS
 62
         4
100
AcDbDimension
  2
*D2
 10
979.7075437474
 20
3042.9198707699
 30
0.0
 11
977.6825437474
 21
3061.5773834285
 31
0.0
  3
DIMSTYLE1
100
AcDbAlignedDimension
 13
962.8511363617
 23
3042.9198707699
 33
0.0
 14
962.8511363617
 24
3058.7718707699
 34
0.0
 50
90.0
100
AcDbRotatedDimension
  0
LINE
  5
B8
100
AcDbEntity
  8
____
  6
CONTINUOUS
 62
         4
100
AcDbLine
 10
937.4922834529
 20
3059.4308707699
 30
0.0
 11
937.4511363617
 21
3059.4308707699
 31
0.0
  0
DIMENSION
  5
BB
100
AcDbEntity
  8
____
  6
CONTINUOUS
 62
         4
100
AcDbDimension
  2
*D3
 10
935.5992640535
 20
3059.4789173782
 30
0.0
 11
945.5455192749
 21
3061.079849637
 31
0.0
 70
         2
  3
DIMSTYLE1
100
AcDb2LineAngularDimension
 13
937.4511363617
 23
3059.4308707699
 33
0.0
 14
937.4922834529
 24
3059.4308707699
 34
0.0
 15
961.3511363617
 25
3058.8107880927
 35
0.0
 16
944.1955192749
 26
3059.729849637
 36
0.0
  0
LINE
  5
CA
100
AcDbEntity
  8
____
  6
CONTINUOUS
 62
         7
100
AcDbLine
 10
933.4511363617
 20
3147.5528410107
 30
0.0
 11
933.4511363617
 21
3177.599852495
 31
0.0
  0
DIMENSION
  5
CD
100
AcDbEntity
  8
____
  6
CONTINUOUS
 62
         4
100
AcDbDimension
  2
*D4
 10
962.8511363617
 20
3202.2103612621
 30
0.0
 11
944.3206043981
 21
3204.2353612621
 31
0.0
  3
DIMSTYLE1
100
AcDbAlignedDimension
 13
962.8511363617
 23
3169.0412640757
 33
0.0
 14
937.4511363617
 24
3171.1613467528
 34
0.0
100
AcDbRotatedDimension
  0
LINE
  5
D9
100
AcDbEntity
  8
____
  6
CENTER
 62
         1
100
AcDbLine
 10
966.1462094451
 20
3162.5763467528
 30
0.0
 11
927.8521168532
 21
3162.5763467528
 31
0.0
  0
LINE
  5
DA
100
AcDbEntity
  8
____
  6
CONTINUOUS
 62
         7
100
AcDbLine
 10
962.8511363617
 20
3156.11142943
 30
0.0
 11
962.8511363617
 21
3169.0412640757
 31
0.0
  0
LINE
  5
DB
100
AcDbEntity
  8
____
  6
CENTER
 62
         1
100
AcDbLine
 10
937.4511363617
 20
3152.9564007811
 30
0.0
 11
937.4511363617
 21
3172.7641296969
 31
0.0
  0
LINE
  5
DC
100
AcDbEntity
  8
____
  6
CONTINUOUS
 62
         7
100
AcDbLine
 10
935.3992640535
 20
3171.2093933611
 30
0.0
 11
961.3511363617
 21
3170.5412640757
 31
0.0
  0
LINE
  5
DD
100
AcDbEntity
  8
____
  6
CONTINUOUS
 62
         7
100
AcDbLine
 10
961.3511363617
 20
3154.61142943
 30
0.0
 11
935.3992640535
 21
3153.9433001445
 31
0.0
  0
LINE
  5
DE
100
AcDbEntity
  8
____
  6
CONTINUOUS
 62
         7
100
AcDbLine
 10
961.3511363617
 20
3154.61142943
 30
0.0
 11
961.3511363617
 21
3170.5412640757
 31
0.0
  0
LINE
  5
DF
100
AcDbEntity
  8
____
  6
CONTINUOUS
 62
         7
100
AcDbLine
 10
961.3511363617
 20
3170.5412640757
 30
0.0
 11
962.8511363617
 21
3169.0412640757
 31
0.0
  0
LINE
  5
E0
100
AcDbEntity
  8
____
  6
CONTINUOUS
 62
         7
100
AcDbLine
 10
961.3511363617
 20
3154.61142943
 30
0.0
 11
962.8511363617
 21
3156.11142943
 31
0.0
  0
DIMENSION
  5
E3
100
AcDbEntity
  8
____
  6
CONTINUOUS
 62
         4
100
AcDbDimension
  2
*D5
 10
978.5512480316
 20
3171.1613467528
 30
0.0
 11
976.5262480316
 21
3179.0203575601
 31
0.0
  3
DIMSTYLE1
100
AcDbAlignedDimension
 13
937.4511363617
 23
3171.1613467528
 33
0.0
 14
937.4511363617
 24
3153.9913467528
 34
0.0
 50
90.0
100
AcDbRotatedDimension
  0
ARC
  5
F0
100
AcDbEntity
  8
____
  6
CONTINUOUS
 62
         7
100
AcDbCircle
 10
935.4511363617
 20
3173.2087205639
 30
0.0
 40
2.0
100
AcDbArc
 50
180.0
 51
268.5138011797
  0
ARC
  5
F1
100
AcDbEntity
  8
____
  6
CONTINUOUS
 62
         7
100
AcDbCircle
 10
935.4511363617
 20
3151.9439729418
 30
0.0
 40
2.0
100
AcDbArc
 50
91.4861988203
 51
180.0
  0
DIMENSION
  5
F4
100
AcDbEntity
  8
____
  6
CONTINUOUS
 62
         4
100
AcDbDimension
  2
*D6
 10
933.4511363617
 20
3139.1144718233
 30
0.0
 11
940.6049564672
 21
3141.1394718233
 31
0.0
  3
DIMSTYLE1
100
AcDbAlignedDimension
 13
933.4511363617
 23
3151.9439729418
 33
0.0
 14
937.4511363617
 24
3152.8157527305
 34
0.0
100
AcDbRotatedDimension
  0
CIRCLE
  5
101
100
AcDbEntity
  8
____
  6
CONTINUOUS
 62
         7
100
AcDbCircle
 10
1082.0716897063
 20
3162.5763467528
 30
0.0
 40
7.926
  0
CIRCLE
  5
102
100
AcDbEntity
  8
____
  6
CONTINUOUS
 62
         7
100
AcDbCircle
 10
1082.0716897063
 20
3162.5763467528
 30
0.0
 40
8.585
  0
LINE
  5
103
100
AcDbEntity
  8
____
  6
CENTER
 62
         1
100
AcDbLine
 10
1082.0716897063
 20
3150.3618658765
 30
0.0
 11
1082.0716897063
 21
3174.0848379315
 31
0.0
  0
LINE
  5
104
100
AcDbEntity
  8
____
  6
CENTER
 62
         1
100
AcDbLine
 10
1095.1563420443
 20
3162.5763467528
 30
0.0
 11
1069.686893519
 21
3162.5763467528
 31
0.0
  0
CIRCLE
  5
105
100
AcDbEntity
  8
____
  6
CONTINUOUS
 62
         7
100
AcDbCircle
 10
1082.0716897063
 20
3162.5763467528
 30
0.0
 40
15.0
  0
LINE
  5
106
100
AcDbEntity
  8
____
  6
CONTINUOUS
 62
         7
100
AcDbLine
 10
900.4511363617
 20
3039.0958707699
 30
0.0
 11
900.4511363617
 21
3038.8863503499
 31
0.0
  0
ARC
  5
107
100
AcDbEntity
  8
____
  6
CONTINUOUS
 62
         7
100
AcDbCircle
 10
900.7511363617
 20
3038.8863503499
 30
0.0
 40
0.3
100
AcDbArc
 50
180.0
 51
261.5795
  0
LINE
  5
108
100
AcDbEntity
  8
____
  6
CONTINUOUS
 62
         7
100
AcDbLine
 10
926.1557557177
 20
3034.8223650278
 30
0.0
 11
900.7072052696
 21
3038.5895843492
 31
0.0
  0
LINE
  5
109
100
AcDbEntity
  8
____
  6
CONTINUOUS
 62
         7
100
AcDbLine
 10
926.1557557177
 20
3066.869376512
 30
0.0
 11
900.7072052696
 21
3063.1021571905
 31
0.0
  0
ARC
  5
10A
100
AcDbEntity
  8
____
  6
CONTINUOUS
 62
         7
100
AcDbCircle
 10
900.7511363617
 20
3150.6168263329
 30
0.0
 40
0.3
100
AcDbArc
 50
180.0
 51
261.5795
  0
ARC
  5
10B
100
AcDbEntity
  8
____
  6
CONTINUOUS
 62
         7
100
AcDbCircle
 10
900.7511363617
 20
3174.5358671728
 30
0.0
 40
0.3
100
AcDbArc
 50
98.4205
 51
180.0
  0
LINE
  5
10C
100
AcDbEntity
  8
____
  6
CONTINUOUS
 62
         7
100
AcDbLine
 10
926.1557557177
 20
3146.5528410107
 30
0.0
 11
900.7072052696
 21
3150.3200603322
 31
0.0
  0
LINE
  5
10D
100
AcDbEntity
  8
____
  6
CONTINUOUS
 62
         7
100
AcDbLine
 10
926.1557557177
 20
3178.599852495
 30
0.0
 11
900.7072052696
 21
3174.8326331735
 31
0.0
  0
LINE
  5
10E
100
AcDbEntity
  8
____
  6
CONTINUOUS
 62
         7
100
AcDbLine
 10
932.6511363617
 20
3034.8223650278
 30
0.0
 11
926.1557557177
 21
3034.8223650278
 31
0.0
  0
LINE
  5
10F
100
AcDbEntity
  8
____
  6
CONTINUOUS
 62
         7
100
AcDbLine
 10
932.6511363617
 20
3066.869376512
 30
0.0
 11
926.1557557177
 21
3066.869376512
 31
0.0
  0
LINE
  5
110
100
AcDbEntity
  8
____
  6
CONTINUOUS
 62
         7
100
AcDbLine
 10
932.4511363617
 20
3146.5528410107
 30
0.0
 11
926.1557557177
 21
3146.5528410107
 31
0.0
  0
LINE
  5
111
100
AcDbEntity
  8
____
  6
CONTINUOUS
 62
         7
100
AcDbLine
 10
932.4511363617
 20
3178.599852495
 30
0.0
 11
926.1557557177
 21
3178.599852495
 31
0.0
  0
DIMENSION
  5
114
100
AcDbEntity
  8
____
  6
CONTINUOUS
 62
         4
100
AcDbDimension
  2
*D7
 10
990.5259423476
 20
3178.599852495
 30
0.0
 11
988.5009423476
 21
3151.8396843592
 31
0.0
  3
DIMSTYLE1
100
AcDbAlignedDimension
 13
926.1557557177
 23
3178.599852495
 33
0.0
 14
926.1557557177
 24
3146.5528410107
 34
0.0
 50
90.0
100
AcDbRotatedDimension
  0
LINE
  5
120
100
AcDbEntity
  8
____
  6
CENTER
 62
         1
100
AcDbLine
 10
924.4511363617
 20
3143.3015301008
 30
0.0
 11
924.4511363617
 21
3181.8511634048
 31
0.0
  0
CIRCLE
  5
121
100
AcDbEntity
  8
____
  6
CONTINUOUS
 62
         4
100
AcDbCircle
 10
754.8305830171
 20
3162.5763467528
 30
0.0
 40
4.8645
  0
CIRCLE
  5
122
100
AcDbEntity
  8
____
  6
CONTINUOUS
 62
         7
100
AcDbCircle
 10
754.8305830171
 20
3162.5763467528
 30
0.0
 40
5.1435
  0
LINE
  5
123
100
AcDbEntity
  8
____
  6
CONTINUOUS
 62
         7
100
AcDbLine
 10
752.7805830171
 20
3173.0263467528
 30
0.0
 11
752.7805830171
 21
3174.4506888399
 31
0.0
  0
LINE
  5
124
100
AcDbEntity
  8
____
  6
CONTINUOUS
 62
         7
100
AcDbLine
 10
756.8805830171
 20
3173.0263467528
 30
0.0
 11
756.8805830171
 21
3174.4506888399
 31
0.0
  0
LINE
  5
125
100
AcDbEntity
  8
____
  6
CONTINUOUS
 62
         7
100
AcDbLine
 10
756.8805830171
 20
3173.0263467528
 30
0.0
 11
752.7805830171
 21
3173.0263467528
 31
0.0
  0
CIRCLE
  5
126
100
AcDbEntity
  8
____
  6
CONTINUOUS
 62
         7
100
AcDbCircle
 10
754.8305830171
 20
3162.5763467528
 30
0.0
 40
12.05
  0
CIRCLE
  5
127
100
AcDbEntity
  8
____
  6
CONTINUOUS
 62
         7
100
AcDbCircle
 10
754.8305830171
 20
3162.5763467528
 30
0.0
 40
6.0
  0
LINE
  5
128
100
AcDbEntity
  8
____
  6
CENTER
 62
         1
100
AcDbLine
 10
754.8305830171
 20
3143.3918944864
 30
0.0
 11
754.8305830171
 21
3181.9415277904
 31
0.0
  0
LINE
  5
129
100
AcDbEntity
  8
____
  6
CENTER
 62
         1
100
AcDbLine
 10
773.8990117666
 20
3162.5763467528
 30
0.0
 11
734.0759671522
 21
3162.5763467528
 31
0.0
  0
LINE
  5
12A
100
AcDbEntity
  8
____
  6
CONTINUOUS
 62
         4
100
AcDbLine
 10
900.8059909698
 20
3150.3054368117
 30
0.0
 11
900.8059909698
 21
3174.8472566939
 31
0.0
  0
LINE
  5
12B
100
AcDbEntity
  8
____
  6
CONTINUOUS
 62
         4
100
AcDbLine
 10
850.1511363617
 20
3150.5263467528
 30
0.0
 11
850.1511363617
 21
3174.6263467528
 31
0.0
  0
LINE
  5
12C
100
AcDbEntity
  8
____
  6
CONTINUOUS
 62
         4
100
AcDbLine
 10
823.4511363617
 20
3150.5263467528
 30
0.0
 11
823.4511363617
 21
3174.6263467528
 31
0.0
  0
LINE
  5
12D
100
AcDbEntity
  8
____
  6
CONTINUOUS
 62
         7
100
AcDbLine
 10
850.1511363617
 20
3038.7958707699
 30
0.0
 11
850.4511363617
 21
3039.0958707699
 31
0.0
  0
LINE
  5
12E
100
AcDbEntity
  8
____
  6
CONTINUOUS
 62
         7
100
AcDbLine
 10
850.1511363617
 20
3150.5263467528
 30
0.0
 11
850.4511363617
 21
3150.8263467528
 31
0.0
  0
LINE
  5
12F
100
AcDbEntity
  8
____
  6
CONTINUOUS
 62
         7
100
AcDbLine
 10
850.1511363617
 20
3174.6263467528
 30
0.0
 11
850.4511363617
 21
3174.3263467528
 31
0.0
  0
LINE
  5
130
100
AcDbEntity
  8
____
  6
CENTER
 62
         1
100
AcDbLine
 10
965.2896786916
 20
3050.8458707699
 30
0.0
 11
818.002100986
 21
3050.8458707699
 31
0.0
  0
LINE
  5
131
100
AcDbEntity
  8
____
  6
CENTER
 62
         1
100
AcDbLine
 10
965.7601633763
 20
3162.5763467528
 30
0.0
 11
816.5135461273
 21
3162.5763467528
 31
0.0
  0
DIMENSION
  5
134
100
AcDbEntity
  8
____
  6
CONTINUOUS
 62
         4
100
AcDbDimension
  2
*D8
 10
916.2991927852
 20
3178.3363467528
 30
0.0
 11
914.2741927852
 21
3152.4029356528
 31
0.0
  3
DIMSTYLE1
100
AcDbAlignedDimension
 13
925.4511363617
 23
3178.3363467528
 33
0.0
 14
925.4511363617
 24
3146.8163467528
 34
0.0
 50
90.0
100
AcDbRotatedDimension
  0
LINE
  5
140
100
AcDbEntity
  8
____
  6
CONTINUOUS
 62
         4
100
AcDbLine
 10
855.4511363617
 20
3045.7023707699
 30
0.0
 11
826.7456368672
 21
3045.7023707699
 31
0.0
  0
LINE
  5
141
100
AcDbEntity
  8
____
  6
CONTINUOUS
 62
         4
100
AcDbLine
 10
855.4511363617
 20
3055.9893707699
 30
0.0
 11
826.7456368672
 21
3055.9893707699
 31
0.0
  0
LINE
  5
142
100
AcDbEntity
  8
____
  6
CONTINUOUS
 62
         7
100
AcDbLine
 10
877.4511363617
 20
3046.2813707699
 30
0.0
 11
877.4511363617
 21
3055.4103707699
 31
0.0
  0
LINE
  5
143
100
AcDbEntity
  8
____
  6
CONTINUOUS
 62
         7
100
AcDbLine
 10
855.4511363617
 20
3045.7023707699
 30
0.0
 11
855.4511363617
 21
3055.9893707699
 31
0.0
  0
LINE
  5
144
100
AcDbEntity
  8
____
  6
CONTINUOUS
 62
         7
100
AcDbLine
 10
822.4511363617
 20
3039.7958707699
 30
0.0
 11
823.4511363617
 21
3038.7958707699
 31
0.0
  0
LINE
  5
145
100
AcDbEntity
  8
____
  6
CONTINUOUS
 62
         7
100
AcDbLine
 10
850.1511363617
 20
3038.7958707699
 30
0.0
 11
823.4511363617
 21
3038.7958707699
 31
0.0
  0
LINE
  5
146
100
AcDbEntity
  8
____
  6
CONTINUOUS
 62
         7
100
AcDbLine
 10
822.4511363617
 20
3039.7958707699
 30
0.0
 11
822.4511363617
 21
3061.8958707699
 31
0.0
  0
LINE
  5
147
100
AcDbEntity
  8
____
  6
CONTINUOUS
 62
         7
100
AcDbLine
 10
900.4511363617
 20
3039.0958707699
 30
0.0
 11
850.4511363617
 21
3039.0958707699
 31
0.0
  0
LINE
  5
148
100
AcDbEntity
  8
____
  6
CONTINUOUS
 62
         7
100
AcDbLine
 10
822.4511363617
 20
3151.5263467528
 30
0.0
 11
823.4511363617
 21
3150.5263467528
 31
0.0
  0
LINE
  5
149
100
AcDbEntity
  8
____
  6
CONTINUOUS
 62
         7
100
AcDbLine
 10
850.1511363617
 20
3150.5263467528
 30
0.0
 11
823.4511363617
 21
3150.5263467528
 31
0.0
  0
LINE
  5
14A
100
AcDbEntity
  8
____
  6
CONTINUOUS
 62
         7
100
AcDbLine
 10
822.4511363617
 20
3151.5263467528
 30
0.0
 11
822.4511363617
 21
3173.6263467528
 31
0.0
  0
LINE
  5
14B
100
AcDbEntity
  8
____
  6
CONTINUOUS
 62
         7
100
AcDbLine
 10
822.4511363617
 20
3173.6263467528
 30
0.0
 11
823.4511363617
 21
3174.6263467528
 31
0.0
  0
LINE
  5
14C
100
AcDbEntity
  8
____
  6
CONTINUOUS
 62
         7
100
AcDbLine
 10
850.1511363617
 20
3174.6263467528
 30
0.0
 11
823.4511363617
 21
3174.6263467528
 31
0.0
  0
LINE
  5
14D
100
AcDbEntity
  8
____
  6
CONTINUOUS
 62
         7
100
AcDbLine
 10
900.4511363617
 20
3150.8263467528
 30
0.0
 11
850.4511363617
 21
3150.8263467528
 31
0.0
  0
LINE
  5
14E
100
AcDbEntity
  8
____
  6
CONTINUOUS
 62
         7
100
AcDbLine
 10
900.4511363617
 20
3174.3263467528
 30
0.0
 11
850.4511363617
 21
3174.3263467528
 31
0.0
  0
LINE
  5
14F
100
AcDbEntity
  8
____
  6
CONTINUOUS
 62
         7
100
AcDbLine
 10
850.4511363617
 20
3150.8263467528
 30
0.0
 11
850.4511363617
 21
3174.3263467528
 31
0.0
  0
LINE
  5
150
100
AcDbEntity
  8
____
  6
CONTINUOUS
 62
         7
100
AcDbLine
 10
900.4511363617
 20
3174.5358671728
 30
0.0
 11
900.4511363617
 21
3150.6168263329
 31
0.0
  0
LINE
  5
151
100
AcDbEntity
  8
____
  6
CONTINUOUS
 62
         7
100
AcDbLine
 10
926.1557557177
 20
3178.599852495
 30
0.0
 11
926.1557557177
 21
3146.5528410107
 31
0.0
  0
LINE
  5
152
100
AcDbEntity
  8
____
  6
CENTER
 62
         1
100
AcDbLine
 10
1101.1401184558
 20
3162.5763467528
 30
0.0
 11
1061.3170738414
 21
3162.5763467528
 31
0.0
  0
LINE
  5
153
100
AcDbEntity
  8
____
  6
CENTER
 62
         1
100
AcDbLine
 10
1082.0716897063
 20
3143.3918944864
 30
0.0
 11
1082.0716897063
 21
3181.9415277904
 31
0.0
  0
CIRCLE
  5
154
100
AcDbEntity
  8
____
  6
CONTINUOUS
 62
         7
100
AcDbCircle
 10
1082.0716897063
 20
3162.5763467528
 30
0.0
 40
16.0235057421
  0
CIRCLE
  5
155
100
AcDbEntity
  8
____
  6
CONTINUOUS
 62
         7
100
AcDbCircle
 10
754.8305830171
 20
3162.5763467528
 30
0.0
 40
16.0235057421
  0
LINE
  5
156
100
AcDbEntity
  8
____
  6
CONTINUOUS
 62
         7
100
AcDbLine
 10
877.4511363617
 20
3055.4103707699
 30
0.0
 11
827.0799226731
 21
3055.4103707699
 31
0.0
  0
LINE
  5
157
100
AcDbEntity
  8
____
  6
CONTINUOUS
 62
         7
100
AcDbLine
 10
877.4511363617
 20
3046.2813707699
 30
0.0
 11
827.0799226731
 21
3046.2813707699
 31
0.0
  0
LINE
  5
158
100
AcDbEntity
  8
____
  6
CONTINUOUS
 62
         7
100
AcDbLine
 10
877.4511363617
 20
3055.4103707699
 30
0.0
 11
880.0864516654
 21
3050.8458707699
 31
0.0
  0
LINE
  5
159
100
AcDbEntity
  8
____
  6
CONTINUOUS
 62
         7
100
AcDbLine
 10
877.4511363617
 20
3046.2813707699
 30
0.0
 11
880.0864516654
 21
3050.8458707699
 31
0.0
  0
DIMENSION
  5
15C
100
AcDbEntity
  8
____
  6
CONTINUOUS
 62
         4
100
AcDbDimension
  2
*D9
 10
822.4511363617
 20
3215.3841606336
 30
0.0
 11
875.7720667695
 21
3217.4091606336
 31
0.0
  3
DIMSTYLE1
100
AcDbAlignedDimension
 13
822.4511363617
 23
3173.6263467528
 33
0.0
 14
933.4511363617
 24
3176.5763467528
 34
0.0
100
AcDbRotatedDimension
  0
DIMENSION
  5
16A
100
AcDbEntity
  8
____
  6
CONTINUOUS
 62
         4
100
AcDbDimension
  2
*D10
 10
924.4511363617
 20
3200.2822979484
 30
0.0
 11
921.93826686
 21
3202.3072979484
 31
0.0
  3
DIMSTYLE1
100
AcDbAlignedDimension
 13
924.4511363617
 23
3181.8511634048
 33
0.0
 14
933.4511363617
 24
3176.5763467528
 34
0.0
100
AcDbRotatedDimension
  0
ARC
  5
176
100
AcDbEntity
  8
____
  6
CONTINUOUS
 62
         7
100
AcDbCircle
 10
932.4511363617
 20
3177.599852495
 30
0.0
 40
1.0
100
AcDbArc
 50
0.0
 51
90.0
  0
ARC
  5
177
100
AcDbEntity
  8
____
  6
CONTINUOUS
 62
         7
100
AcDbCircle
 10
932.4511363617
 20
3147.5528410107
 30
0.0
 40
1.0
100
AcDbArc
 50
270.0
 51
360.0
  0
ARC
  5
178
100
AcDbEntity
  8
____
  6
CONTINUOUS
 62
         7
100
AcDbCircle
 10
932.6511363617
 20
3065.869376512
 30
0.0
 40
1.0
100
AcDbArc
 50
0.0
 51
90.0
  0
ARC
  5
179
100
AcDbEntity
  8
____
  6
CONTINUOUS
 62
         7
100
AcDbCircle
 10
932.6511363617
 20
3035.8223650278
 30
0.0
 40
1.0
100
AcDbArc
 50
270.0
 51
360.0
  0
ARC
  5
17A
100
AcDbEntity
  8
____
  6
CONTINUOUS
 62
         7
100
AcDbCircle
 10
892.4511363617
 20
3074.2958707699
 30
0.0
 40
13.0
100
AcDbArc
 50
270.0
 51
295.8419327632
  0
LINE
  5
17B
100
AcDbEntity
  8
____
  6
CONTINUOUS
 62
         7
100
AcDbLine
 10
900.4511363617
 20
3062.8053911899
 30
0.0
 11
900.4511363617
 21
3062.5958707699
 31
0.0
  0
ARC
  5
17C
100
AcDbEntity
  8
____
  6
CONTINUOUS
 62
         7
100
AcDbCircle
 10
900.7511363617
 20
3062.8053911899
 30
0.0
 40
0.3
100
AcDbArc
 50
98.4205
 51
180.0
  0
LINE
  5
17D
100
AcDbEntity
  8
____
  6
CONTINUOUS
 62
         7
100
AcDbLine
 10
850.1511363617
 20
3062.8958707699
 30
0.0
 11
850.4511363617
 21
3062.5958707699
 31
0.0
  0
LINE
  5
17E
100
AcDbEntity
  8
____
  6
CONTINUOUS
 62
         7
100
AcDbLine
 10
822.4511363617
 20
3061.8958707699
 30
0.0
 11
823.4511363617
 21
3062.8958707699
 31
0.0
  0
LINE
  5
17F
100
AcDbEntity
  8
____
  6
CONTINUOUS
 62
         7
100
AcDbLine
 10
850.1511363617
 20
3062.8958707699
 30
0.0
 11
823.4511363617
 21
3062.8958707699
 31
0.0
  0
LINE
  5
180
100
AcDbEntity
  8
____
  6
CONTINUOUS
 62
         7
100
AcDbLine
 10
900.4511363617
 20
3062.5958707699
 30
0.0
 11
850.4511363617
 21
3062.5958707699
 31
0.0
  0
LINE
  5
181
100
AcDbEntity
  8
____
  6
CONTINUOUS
 62
         7
100
AcDbLine
 10
892.4511363617
 20
3061.2958707699
 30
0.0
 11
822.4511363617
 21
3061.2958707699
 31
0.0
  0
TEXT
  5
183
100
AcDbEntity
  8
____
  6
CONTINUOUS
 62
         2
100
AcDbText
 10
1066.6434674889
 20
3236.7621834316
 30
0.0
 40
4.5
  1
534466
 41
0.98
  7
BOX
100
AcDbText
  0
ENDSEC
  0
SECTION
  2
OBJECTS
  0
DICTIONARY
  5
19
100
AcDbDictionary
  3
ACAD_GROUP
350
1A
  3
ACAD_MLINESTYLE
350
1B
  0
DICTIONARY
  5
1A
102
{ACAD_REACTORS
330
19
102
}
100
AcDbDictionary
  0
DICTIONARY
  5
1B
102
{ACAD_REACTORS
330
19
102
}
100
AcDbDictionary
  3
STANDARD
350
1C
  0
MLINESTYLE
  5
1C
102
{ACAD_REACTORS
330
1B
102
}
100
AcDbMlineStyle
  2
STANDARD
 70
         0
  3

 62
         0
 51
90.0
 52
90.0
 71
         2
 49
0.5
 62
       256
  6
BYLAYER
 49
-0.5
 62
       256
  6
BYLAYER
  0
ENDSEC
  0
EOF
