  0
SECTION
  2
HEADER
  9
$ACADVER
  1
AC1014
  9
$ACADMAINTVER
 70
         0
  9
$DWGCODEPAGE
  3
BIG5
  9
$INSBASE
 10
0.0
 20
0.0
 30
0.0
  9
$EXTMIN
 10
-90.5604411905
 20
-120.6520983424
 30
0.0
  9
$EXTMAX
 10
697.0932520291
 20
276.4584629417
 30
0.0
  9
$LIMMIN
 10
0.0
 20
0.0
  9
$LIMMAX
 10
0.0
 20
0.0
  9
$ORTHOMODE
 70
         0
  9
$REGENMODE
 70
         1
  9
$FILLMODE
 70
         1
  9
$QTEXTMODE
 70
         0
  9
$MIRRTEXT
 70
         1
  9
$DRAGMODE
 70
         2
  9
$LTSCALE
 40
1.0
  9
$OSMODE
 70
         0
  9
$ATTMODE
 70
         1
  9
$TEXTSIZE
 40
5.0
  9
$TRACEWID
 40
0.05
  9
$TEXTSTYLE
  7
STANDARD
  9
$CLAYER
  8
0
  9
$CELTYPE
  6
CONTINUOUS
  9
$CECOLOR
 62
         3
  9
$CELTSCALE
 40
1.0
  9
$DELOBJ
 70
         1
  9
$DISPSILH
 70
         0
  9
$DIMSCALE
 40
1.0
  9
$DIMASZ
 40
0.18
  9
$DIMEXO
 40
0.0625
  9
$DIMDLI
 40
0.38
  9
$DIMRND
 40
0.0
  9
$DIMDLE
 40
0.0
  9
$DIMEXE
 40
0.25
  9
$DIMTP
 40
0.01
  9
$DIMTM
 40
-0.01
  9
$DIMTXT
 40
5.0
  9
$DIMCEN
 40
0.09
  9
$DIMTSZ
 40
0.0
  9
$DIMTOL
 70
         0
  9
$DIMLIM
 70
         0
  9
$DIMTIH
 70
         1
  9
$DIMTOH
 70
         1
  9
$DIMSE1
 70
         0
  9
$DIMSE2
 70
         0
  9
$DIMTAD
 70
         0
  9
$DIMZIN
 70
         0
  9
$DIMBLK
  1

  9
$DIMASO
 70
         1
  9
$DIMSHO
 70
         1
  9
$DIMPOST
  1

  9
$DIMAPOST
  1

  9
$DIMALT
 70
         0
  9
$DIMALTD
 70
         2
  9
$DIMALTF
 40
25.4
  9
$DIMLFAC
 40
1.0
  9
$DIMTOFL
 70
         0
  9
$DIMTVP
 40
0.0
  9
$DIMTIX
 70
         0
  9
$DIMSOXD
 70
         0
  9
$DIMSAH
 70
         0
  9
$DIMBLK1
  1

  9
$DIMBLK2
  1

  9
$DIMSTYLE
  2
STANDARD
  9
$DIMCLRD
 70
         0
  9
$DIMCLRE
 70
         0
  9
$DIMCLRT
 70
         3
  9
$DIMTFAC
 40
1.0
  9
$DIMGAP
 40
0.09
  9
$DIMJUST
 70
         0
  9
$DIMSD1
 70
         0
  9
$DIMSD2
 70
         0
  9
$DIMTOLJ
 70
         1
  9
$DIMTZIN
 70
         0
  9
$DIMALTZ
 70
         0
  9
$DIMALTTZ
 70
         0
  9
$DIMFIT
 70
         3
  9
$DIMUPT
 70
         0
  9
$DIMUNIT
 70
         2
  9
$DIMDEC
 70
         4
  9
$DIMTDEC
 70
         4
  9
$DIMALTU
 70
         2
  9
$DIMALTTD
 70
         2
  9
$DIMTXSTY
  7
STANDARD
  9
$DIMAUNIT
 70
         0
  9
$LUNITS
 70
         2
  9
$LUPREC
 70
        10
  9
$SKETCHINC
 40
0.1
  9
$FILLETRAD
 40
0.0
  9
$AUNITS
 70
         0
  9
$AUPREC
 70
         0
  9
$MENU
  1
acad
  9
$ELEVATION
 40
0.0
  9
$PELEVATION
 40
0.0
  9
$THICKNESS
 40
0.0
  9
$LIMCHECK
 70
         0
  9
$BLIPMODE
 70
         1
  9
$CHAMFERA
 40
0.0
  9
$CHAMFERB
 40
0.0
  9
$CHAMFERC
 40
0.0
  9
$CHAMFERD
 40
0.0
  9
$SKPOLY
 70
         0
  9
$TDCREATE
 40
0.000000000
  9
$TDUPDATE
 40
0.000000000
  9
$TDINDWG
 40
0.0000000000
  9
$TDUSRTIMER
 40
0.0000000000
  9
$USRTIMER
 70
         1
  9
$ANGBASE
 50
0.0
  9
$ANGDIR
 70
         0
  9
$PDMODE
 70
         2
  9
$PDSIZE
 40
0.0
  9
$PLINEWID
 40
0.0
  9
$COORDS
 70
         1
  9
$SPLFRAME
 70
         0
  9
$SPLINETYPE
 70
         6
  9
$SPLINESEGS
 70
         8
  9
$ATTDIA
 70
         0
  9
$ATTREQ
 70
         1
  9
$HANDLING
 70
         1
  9
$HANDSEED
  5
17B
  9
$SURFTAB1
 70
         6
  9
$SURFTAB2
 70
         6
  9
$SURFTYPE
 70
         6
  9
$SURFU
 70
         6
  9
$SURFV
 70
         6
  9
$UCSNAME
  2

  9
$UCSORG
 10
0.0
 20
0.0
 30
0.0
  9
$UCSXDIR
 10
1.0
 20
0.0
 30
0.0
  9
$UCSYDIR
 10
0.0
 20
1.0
 30
0.0
  9
$PUCSNAME
  2

  9
$PUCSORG
 10
0.0
 20
0.0
 30
0.0
  9
$PUCSXDIR
 10
1.0
 20
0.0
 30
0.0
  9
$PUCSYDIR
 10
0.0
 20
1.0
 30
0.0
  9
$USERI1
 70
         0
  9
$USERI2
 70
         0
  9
$USERI3
 70
         0
  9
$USERI4
 70
         0
  9
$USERI5
 70
         0
  9
$USERR1
 40
0.0
  9
$USERR2
 40
0.0
  9
$USERR3
 40
0.0
  9
$USERR4
 40
0.0
  9
$USERR5
 40
0.0
  9
$WORLDVIEW
 70
         1
  9
$SHADEDGE
 70
         3
  9
$SHADEDIF
 70
        70
  9
$TILEMODE
 70
         1
  9
$MAXACTVP
 70
        16
  9
$PINSBASE
 10
0.0
 20
0.0
 30
0.0
  9
$PLIMCHECK
 70
         0
  9
$PEXTMIN
 10
1.0000000000E+20
 20
1.0000000000E+20
 30
1.0000000000E+20
  9
$PEXTMAX
 10
-1.0000000000E+20
 20
-1.0000000000E+20
 30
-1.0000000000E+20
  9
$PLIMMIN
 10
0.0
 20
0.0
  9
$PLIMMAX
 10
12.0
 20
9.0
  9
$UNITMODE
 70
         0
  9
$VISRETAIN
 70
         0
  9
$PLINEGEN
 70
         1
  9
$PSLTSCALE
 70
         0
  9
$TREEDEPTH
 70
      3020
  9
$PICKSTYLE
 70
         1
  9
$CMLSTYLE
  2
STANDARD
  9
$CMLJUST
 70
         0
  9
$CMLSCALE
 40
1.0
  9
$PROXYGRAPHICS
 70
         0
  9
$MEASUREMENT
 70
         0
  0
ENDSEC
  0
SECTION
  2
CLASSES
  0
CLASS
  1
LWPOLYLINE
  2
AcDbPolyline
  3
"AutoCAD"
 90
        0
280
         0
281
         1
  0
CLASS
  1
IMAGE
  2
AcDbRasterImage
  3
ISM
 90
      127
280
         0
281
         1
  0
CLASS
  1
OLE2FRAME
  2
AcDbOle2Frame
  3
""
 90
        0
280
         0
281
         1
  0
CLASS
  1
HATCH
  2
AcDbHatch
  3
"ACAD_SEDONA"
 90
        0
280
         0
281
         1
  0
CLASS
  1
DICTIONARYVAR
  2
AcDbDictionaryVar
  3
"AutoCAD"
 90
        0
280
         0
281
         0
  0
CLASS
  1
RASTERVARIABLES
  2
AcDbRasterVariables
  3
ISM
 90
        0
280
         0
281
         0
  0
CLASS
  1
IMAGEDEF
  2
AcDbRasterImageDef
  3
ISM
 90
        0
280
         0
281
         0
  0
CLASS
  1
IMAGEDEF_REACTOR
  2
AcDbRasterImageDefReactor
  3
ISM
 90
        1
280
         0
281
         0
  0
CLASS
  1
IDBUFFER
  2
AcDbIdBuffer
  3
"Acad"
 90
        0
280
         0
281
         0
  0
CLASS
  1
SPATIAL_FILTER
  2
AcDbSpatialFilter
  3
"Acad"
 90
        0
280
         0
281
         0
  0
CLASS
  1
XRECORD
  2
AcDbXrecord
  3
"<Built In>"
 90
        0
280
         0
281
         0
  0
CLASS
  1
SORTENTSTABLE
  2
AcDbSortentsTable
  3
"AutoCAD"
 90
        0
280
         0
281
         0
  0
CLASS
  1
LAYER_INDEX
  2
AcDbLayerIndex
  3
"Acad"
 90
        0
280
         0
281
         0
  0
CLASS
  1
SPATIAL_INDEX
  2
AcDbSpatialIndex
  3
"Acad"
 90
        0
280
         0
281
         0
  0
CLASS
  1
OBJECT_PTR
  2
CAseDLPNTableRecord
  3
"ASE-LPNTableRecord"
 90
        1
280
         0
281
         0
  0
CLASS
  1
LAYOUT
  2
AcDbLayout
  3
"AutoCAD 2000"
 90
        1
280
         0
281
         0
  0
CLASS
  1
PLOTSETTINGS
  2
AcDbPlotSettings
  3
"AutoCAD 2000"
 90
        1
280
         0
281
         0
  0
CLASS
  1
ACDBDICTIONARYWDFLT
  2
AcDbDictionaryWithDefault
  3
"AutoCAD 2000"
 90
        1
280
         0
281
         0
  0
CLASS
  1
ACDBPLACEHOLDER
  2
AcDbPlaceHolder
  3
"AutoCAD 2000"
 90
        1
280
         0
281
         0
  0
CLASS
  1
VBA_PROJECT
  2
AcDbVbaProject
  3
"acadvba"
 90
        1
280
         0
281
         0
  0
CLASS
  1
WIPEOUT
  2
AcDbWipeout
  3
WipeOut|AutoCAD Express Tool|expresstools@autodesk.com
 90
      127
280
         0
281
         1
  0
CLASS
  1
WIPEOUTVARIABLES
  2
AcDbWipeoutVariables
  3
WipeOut|AutoCAD Express Tool|expresstools@autodesk.com
 90
        0
280
         0
281
         0
  0
CLASS
  1
RTEXT
  2
RText
  3
RText|AutoCAD Express Tool|expresstools@autodesk.com
 90
        0
280
         0
281
         1
  0
CLASS
  1
ARCALIGNEDTEXT
  2
AcDbArcAlignedText
  3
ATEXT|AutoCAD Express Tool|expresstools@autodesk.com
 90
        0
280
         0
281
         1
  0
ENDSEC
  0
SECTION
  2
TABLES
  0
TABLE
  2
VPORT
  5
7
100
AcDbSymbolTable
 70
         1
  0
VPORT
  5
15
100
AcDbSymbolTableRecord
100
AcDbViewportTableRecord
  2
*ACTIVE
 70
         0
 10
0.0
 20
0.0
 11
1.0
 21
1.0
 12
303.2664054193
 22
77.9031822997
 13
0.0
 23
0.0
 14
1.0
 24
1.0
 15
0.0
 25
0.0
 16
0.0
 26
0.0
 36
1.0
 17
0.0
 27
0.0
 37
0.0
 40
397.1105612841
 41
1.9834619625
 42
50.0
 43
0.0
 44
0.0
 50
0.0
 51
0.0
 71
         0
 72
       100
 73
         1
 74
         1
 75
         0
 76
         0
 77
         0
 78
         0
  0
ENDTAB
  0
TABLE
  2
LTYPE
  5
4
100
AcDbSymbolTable
 70
         6
  0
LTYPE
  5
11
100
AcDbSymbolTableRecord
100
AcDbLinetypeTableRecord
  2
BYBLOCK
 70
        64
  3

 72
        65
 73
         0
 40
0.0
  0
LTYPE
  5
12
100
AcDbSymbolTableRecord
100
AcDbLinetypeTableRecord
  2
BYLAYER
 70
        64
  3

 72
        65
 73
         0
 40
0.0
  0
LTYPE
  5
13
100
AcDbSymbolTableRecord
100
AcDbLinetypeTableRecord
  2
CONTINUOUS
 70
        64
  3
Solid line
 72
        65
 73
         0
 40
0.0
  0
LTYPE
  5
1D
100
AcDbSymbolTableRecord
100
AcDbLinetypeTableRecord
  2
DASHED
 70
        64
  3
_ _ _ _ _ _ _ _ _ _ _ _ _ _ _ _
 72
        65
 73
         2
 40
0.2
 49
0.1
 74
         0
 49
-0.1
 74
         0
  0
LTYPE
  5
1E
100
AcDbSymbolTableRecord
100
AcDbLinetypeTableRecord
  2
CENTER
 70
        64
  3
___ _ ___ _ ___ _ ___ _ ___ _ ___ _ ___ _ ___ _
 72
        65
 73
         4
 40
0.95
 49
0.625
 74
         0
 49
-0.125
 74
         0
 49
0.075
 74
         0
 49
-0.125
 74
         0
  0
LTYPE
  5
1F
100
AcDbSymbolTableRecord
100
AcDbLinetypeTableRecord
  2
PHANTOM
 70
        64
  3
______  __  __  ______  __  __  ______  __  __  
 72
        65
 73
         6
 40
1.025
 49
0.625
 74
         0
 49
-0.125
 74
         0
 49
0.075
 74
         0
 49
-0.125
 74
         0
 49
0.075
 74
         0
 49
-0.125
 74
         0
  0
ENDTAB
  0
TABLE
  2
LAYER
  5
2
100
AcDbSymbolTable
 70
         3
  0
LAYER
  5
14
100
AcDbSymbolTableRecord
100
AcDbLayerTableRecord
  2
0
 70
         0
 62
         7
  6
CONTINUOUS
  0
LAYER
  5
21
100
AcDbSymbolTableRecord
100
AcDbLayerTableRecord
  2
CK_LEVEL_1
 70
         0
 62
         7
  6
CONTINUOUS
  0
LAYER
  5
159
100
AcDbSymbolTableRecord
100
AcDbLayerTableRecord
  2
DEFPOINTS
 70
         0
 62
        -7
  6
CONTINUOUS
  0
ENDTAB
  0
TABLE
  2
STYLE
  5
3
100
AcDbSymbolTable
 70
         4
  0
STYLE
  5
17
100
AcDbSymbolTableRecord
100
AcDbTextStyleTableRecord
  2
STANDARD
 70
         0
 40
0.0
 41
1.0
 50
0.0
 71
         0
 42
0.0
  3
txt
  4

  0
STYLE
  5
162
100
AcDbSymbolTableRecord
100
AcDbTextStyleTableRecord
  2
BOX
 70
         0
 40
1.0
 41
1.0
 50
0.0
 71
         0
 42
0.2
  3
txt.shx
  4

  0
STYLE
  5
176
100
AcDbSymbolTableRecord
100
AcDbTextStyleTableRecord
  2
BOX
 70
         0
 40
1.0
 41
1.0
 50
0.0
 71
         0
 42
0.2
  3
txt.shx
  4

  0
STYLE
  5
179
100
AcDbSymbolTableRecord
100
AcDbTextStyleTableRecord
  2
BOX
 70
         0
 40
1.0
 41
1.0
 50
0.0
 71
         0
 42
0.2
  3
txt.shx
  4

  0
ENDTAB
  0
TABLE
  2
VIEW
  5
5
100
AcDbSymbolTable
 70
         0
  0
ENDTAB
  0
TABLE
  2
UCS
  5
6
100
AcDbSymbolTable
 70
         1
  0
UCS
  5
20
100
AcDbSymbolTableRecord
100
AcDbUCSTableRecord
  2
CK_VIEW_1
 70
         0
 10
0.0
 20
0.0
 30
1.0
 11
1.0
 21
0.0
 31
0.0
 12
0.0
 22
1.0
 32
0.0
  0
ENDTAB
  0
TABLE
  2
APPID
  5
8
100
AcDbSymbolTable
 70
         1
  0
APPID
  5
16
100
AcDbSymbolTableRecord
100
AcDbRegAppTableRecord
  2
ACAD
 70
         0
  0
ENDTAB
  0
TABLE
  2
DIMSTYLE
  5
9
100
AcDbSymbolTable
 70
         2
  0
DIMSTYLE
105
18
100
AcDbSymbolTableRecord
100
AcDbDimStyleTableRecord
  2
STANDARD
 70
         0
  3

  4

  5

  6

  7

 40
1.0
 41
0.18
 42
0.0625
 43
0.38
 44
0.18
 45
0.0
 46
0.0
 47
0.0
 48
0.0
 71
         0
 72
         0
 73
         1
 74
         1
 75
         0
 76
         0
 77
         0
 78
         0
140
0.18
141
0.09
142
0.0
143
25.4
144
1.0
145
0.0
146
1.0
147
0.09
170
         0
171
         2
172
         0
173
         0
174
         0
175
         0
176
         0
177
         0
178
         0
270
         2
271
         4
272
         4
273
         2
274
         2
275
         0
280
         0
281
         0
282
         0
283
         1
284
         0
285
         0
286
         0
287
         0
288
         0
340
17
  0
DIMSTYLE
105
155
100
AcDbSymbolTableRecord
100
AcDbDimStyleTableRecord
  2
DIMSTYLE1
 70
         0
  3

  4

  5

  6

  7

 40
1.0
 41
3.5
 42
0.0625
 43
0.38
 44
3.5
 45
0.0
 46
0.0
 47
0.0
 48
0.0
 71
         0
 72
         0
 73
         1
 74
         1
 75
         0
 76
         0
 77
         0
 78
         0
140
3.5
141
0.09
142
0.0
143
25.4
144
1.0
145
0.0
146
1.0
147
0.09
170
         0
171
         2
172
         0
173
         0
174
         0
175
         0
176
         0
177
         0
178
         0
270
         2
271
         4
272
         4
273
         2
274
         2
275
         0
280
         0
281
         0
282
         0
283
         1
284
         0
285
         0
286
         0
287
         0
288
         0
340
17
  0
ENDTAB
  0
TABLE
  2
BLOCK_RECORD
  5
1
100
AcDbSymbolTable
 70
         5
  0
BLOCK_RECORD
  5
A
100
AcDbSymbolTableRecord
100
AcDbBlockTableRecord
  2
*MODEL_SPACE
  0
BLOCK_RECORD
  5
B
100
AcDbSymbolTableRecord
100
AcDbBlockTableRecord
  2
*PAPER_SPACE
  0
BLOCK_RECORD
  5
22
100
AcDbSymbolTableRecord
100
AcDbBlockTableRecord
  2
CKCOLL14
  0
BLOCK_RECORD
  5
3A
100
AcDbSymbolTableRecord
100
AcDbBlockTableRecord
  2
CKCOLL22
  0
BLOCK_RECORD
  5
AA
100
AcDbSymbolTableRecord
100
AcDbBlockTableRecord
  2
*X2
  0
BLOCK_RECORD
  5
156
100
AcDbSymbolTableRecord
100
AcDbBlockTableRecord
  2
*D3
  0
BLOCK_RECORD
  5
16B
100
AcDbSymbolTableRecord
100
AcDbBlockTableRecord
  2
*D4
  0
ENDTAB
  0
ENDSEC
  0
SECTION
  2
BLOCKS
  0
BLOCK
  5
D
100
AcDbEntity
  8
0
100
AcDbBlockBegin
  2
*MODEL_SPACE
 70
         0
 10
0.0
 20
0.0
 30
0.0
  3
*MODEL_SPACE
  1

  0
ENDBLK
  5
E
100
AcDbEntity
  8
0
100
AcDbBlockEnd
  0
BLOCK
  5
F
100
AcDbEntity
 67
         1
  8
0
100
AcDbBlockBegin
  2
*PAPER_SPACE
 70
         0
 10
0.0
 20
0.0
 30
0.0
  3
*PAPER_SPACE
  1

  0
ENDBLK
  5
10
100
AcDbEntity
 67
         1
  8
0
100
AcDbBlockEnd
  0
BLOCK
  5
23
100
AcDbEntity
  8
0
100
AcDbBlockBegin
  2
CKCOLL14
 70
        64
 10
0.0
 20
0.0
 30
0.0
  3
CKCOLL14
  1

  0
LINE
  5
24
100
AcDbEntity
  8
CK_LEVEL_1
  6
CONTINUOUS
 62
         4
100
AcDbLine
 10
299.2261454849
 20
150.4398294503
 30
0.0
 11
305.1261454849
 21
150.4398294503
 31
0.0
  0
CIRCLE
  5
25
100
AcDbEntity
  8
CK_LEVEL_1
  6
CONTINUOUS
 62
         4
100
AcDbCircle
 10
302.1761454849
 20
150.4398294503
 30
0.0
 40
2.5
  0
LINE
  5
26
100
AcDbEntity
  8
CK_LEVEL_1
  6
CONTINUOUS
 62
         4
100
AcDbLine
 10
302.1761454849
 20
150.4398294503
 30
0.0
 11
299.6761454849
 21
150.4398294503
 31
0.0
  0
LINE
  5
27
100
AcDbEntity
  8
CK_LEVEL_1
  6
CONTINUOUS
 62
         4
100
AcDbLine
 10
299.6761454849
 20
150.4398294503
 30
0.0
 11
299.7523204849
 21
149.7927794503
 31
0.0
  0
LINE
  5
28
100
AcDbEntity
  8
CK_LEVEL_1
  6
CONTINUOUS
 62
         4
100
AcDbLine
 10
299.7523204849
 20
149.7927794503
 30
0.0
 11
300.0110704849
 21
149.1898294503
 31
0.0
  0
LINE
  5
29
100
AcDbEntity
  8
CK_LEVEL_1
  6
CONTINUOUS
 62
         4
100
AcDbLine
 10
300.0110704849
 20
149.1898294503
 30
0.0
 11
300.4083704849
 21
148.6720544503
 31
0.0
  0
LINE
  5
2A
100
AcDbEntity
  8
CK_LEVEL_1
  6
CONTINUOUS
 62
         4
100
AcDbLine
 10
300.4083704849
 20
148.6720544503
 30
0.0
 11
300.9261454849
 21
148.2747544503
 31
0.0
  0
LINE
  5
2B
100
AcDbEntity
  8
CK_LEVEL_1
  6
CONTINUOUS
 62
         4
100
AcDbLine
 10
300.9261454849
 20
148.2747544503
 30
0.0
 11
301.5290954849
 21
148.0250044503
 31
0.0
  0
LINE
  5
2C
100
AcDbEntity
  8
CK_LEVEL_1
  6
CONTINUOUS
 62
         4
100
AcDbLine
 10
301.5290954849
 20
148.0250044503
 30
0.0
 11
302.1761454849
 21
147.9398294503
 31
0.0
  0
LINE
  5
2D
100
AcDbEntity
  8
CK_LEVEL_1
  6
CONTINUOUS
 62
         4
100
AcDbLine
 10
302.1761454849
 20
147.9398294503
 30
0.0
 11
302.1761454849
 21
150.4398294503
 31
0.0
  0
LINE
  5
2E
100
AcDbEntity
  8
CK_LEVEL_1
  6
CONTINUOUS
 62
         4
100
AcDbLine
 10
302.1761454849
 20
150.4398294503
 30
0.0
 11
304.6761454849
 21
150.4398294503
 31
0.0
  0
LINE
  5
2F
100
AcDbEntity
  8
CK_LEVEL_1
  6
CONTINUOUS
 62
         4
100
AcDbLine
 10
304.6761454849
 20
150.4398294503
 30
0.0
 11
304.5999704849
 21
151.0868794503
 31
0.0
  0
LINE
  5
30
100
AcDbEntity
  8
CK_LEVEL_1
  6
CONTINUOUS
 62
         4
100
AcDbLine
 10
304.5999704849
 20
151.0868794503
 30
0.0
 11
304.3412204849
 21
151.6898294503
 31
0.0
  0
LINE
  5
31
100
AcDbEntity
  8
CK_LEVEL_1
  6
CONTINUOUS
 62
         4
100
AcDbLine
 10
304.3412204849
 20
151.6898294503
 30
0.0
 11
303.9439204849
 21
152.2076044503
 31
0.0
  0
LINE
  5
32
100
AcDbEntity
  8
CK_LEVEL_1
  6
CONTINUOUS
 62
         4
100
AcDbLine
 10
303.9439204849
 20
152.2076044503
 30
0.0
 11
303.4261454849
 21
152.6049044503
 31
0.0
  0
LINE
  5
33
100
AcDbEntity
  8
CK_LEVEL_1
  6
CONTINUOUS
 62
         4
100
AcDbLine
 10
303.4261454849
 20
152.6049044503
 30
0.0
 11
302.8231954849
 21
152.8546544503
 31
0.0
  0
LINE
  5
34
100
AcDbEntity
  8
CK_LEVEL_1
  6
CONTINUOUS
 62
         4
100
AcDbLine
 10
302.8231954849
 20
152.8546544503
 30
0.0
 11
302.1761454849
 21
152.9398294503
 31
0.0
  0
LINE
  5
35
100
AcDbEntity
  8
CK_LEVEL_1
  6
CONTINUOUS
 62
         4
100
AcDbLine
 10
302.1761454849
 20
152.9398294503
 30
0.0
 11
302.1761454849
 21
150.4398294503
 31
0.0
  0
LINE
  5
36
100
AcDbEntity
  8
CK_LEVEL_1
  6
CONTINUOUS
 62
         4
100
AcDbLine
 10
302.1761454849
 20
153.3898294503
 30
0.0
 11
302.1761454849
 21
147.4898294503
 31
0.0
  0
ENDBLK
  5
37
100
AcDbEntity
  8
0
  6
CONTINUOUS
100
AcDbBlockEnd
  0
BLOCK
  5
3B
100
AcDbEntity
  8
0
100
AcDbBlockBegin
  2
CKCOLL22
 70
        64
 10
0.0
 20
0.0
 30
0.0
  3
CKCOLL22
  1

  0
LINE
  5
3C
100
AcDbEntity
  8
CK_LEVEL_1
  6
CONTINUOUS
 62
         4
100
AcDbLine
 10
299.2261454849
 20
150.4398294503
 30
0.0
 11
305.1261454849
 21
150.4398294503
 31
0.0
  0
CIRCLE
  5
3D
100
AcDbEntity
  8
CK_LEVEL_1
  6
CONTINUOUS
 62
         4
100
AcDbCircle
 10
302.1761454849
 20
150.4398294503
 30
0.0
 40
2.5
  0
LINE
  5
3E
100
AcDbEntity
  8
CK_LEVEL_1
  6
CONTINUOUS
 62
         4
100
AcDbLine
 10
302.1761454849
 20
150.4398294503
 30
0.0
 11
299.6761454849
 21
150.4398294503
 31
0.0
  0
LINE
  5
3F
100
AcDbEntity
  8
CK_LEVEL_1
  6
CONTINUOUS
 62
         4
100
AcDbLine
 10
299.6761454849
 20
150.4398294503
 30
0.0
 11
299.7523204849
 21
149.7927794503
 31
0.0
  0
LINE
  5
40
100
AcDbEntity
  8
CK_LEVEL_1
  6
CONTINUOUS
 62
         4
100
AcDbLine
 10
299.7523204849
 20
149.7927794503
 30
0.0
 11
300.0110704849
 21
149.1898294503
 31
0.0
  0
LINE
  5
41
100
AcDbEntity
  8
CK_LEVEL_1
  6
CONTINUOUS
 62
         4
100
AcDbLine
 10
300.0110704849
 20
149.1898294503
 30
0.0
 11
300.4083704849
 21
148.6720544503
 31
0.0
  0
LINE
  5
42
100
AcDbEntity
  8
CK_LEVEL_1
  6
CONTINUOUS
 62
         4
100
AcDbLine
 10
300.4083704849
 20
148.6720544503
 30
0.0
 11
300.9261454849
 21
148.2747544503
 31
0.0
  0
LINE
  5
43
100
AcDbEntity
  8
CK_LEVEL_1
  6
CONTINUOUS
 62
         4
100
AcDbLine
 10
300.9261454849
 20
148.2747544503
 30
0.0
 11
301.5290954849
 21
148.0250044503
 31
0.0
  0
LINE
  5
44
100
AcDbEntity
  8
CK_LEVEL_1
  6
CONTINUOUS
 62
         4
100
AcDbLine
 10
301.5290954849
 20
148.0250044503
 30
0.0
 11
302.1761454849
 21
147.9398294503
 31
0.0
  0
LINE
  5
45
100
AcDbEntity
  8
CK_LEVEL_1
  6
CONTINUOUS
 62
         4
100
AcDbLine
 10
302.1761454849
 20
147.9398294503
 30
0.0
 11
302.1761454849
 21
150.4398294503
 31
0.0
  0
LINE
  5
46
100
AcDbEntity
  8
CK_LEVEL_1
  6
CONTINUOUS
 62
         4
100
AcDbLine
 10
302.1761454849
 20
150.4398294503
 30
0.0
 11
304.6761454849
 21
150.4398294503
 31
0.0
  0
LINE
  5
47
100
AcDbEntity
  8
CK_LEVEL_1
  6
CONTINUOUS
 62
         4
100
AcDbLine
 10
304.6761454849
 20
150.4398294503
 30
0.0
 11
304.5999704849
 21
151.0868794503
 31
0.0
  0
LINE
  5
48
100
AcDbEntity
  8
CK_LEVEL_1
  6
CONTINUOUS
 62
         4
100
AcDbLine
 10
304.5999704849
 20
151.0868794503
 30
0.0
 11
304.3412204849
 21
151.6898294503
 31
0.0
  0
LINE
  5
49
100
AcDbEntity
  8
CK_LEVEL_1
  6
CONTINUOUS
 62
         4
100
AcDbLine
 10
304.3412204849
 20
151.6898294503
 30
0.0
 11
303.9439204849
 21
152.2076044503
 31
0.0
  0
LINE
  5
4A
100
AcDbEntity
  8
CK_LEVEL_1
  6
CONTINUOUS
 62
         4
100
AcDbLine
 10
303.9439204849
 20
152.2076044503
 30
0.0
 11
303.4261454849
 21
152.6049044503
 31
0.0
  0
LINE
  5
4B
100
AcDbEntity
  8
CK_LEVEL_1
  6
CONTINUOUS
 62
         4
100
AcDbLine
 10
303.4261454849
 20
152.6049044503
 30
0.0
 11
302.8231954849
 21
152.8546544503
 31
0.0
  0
LINE
  5
4C
100
AcDbEntity
  8
CK_LEVEL_1
  6
CONTINUOUS
 62
         4
100
AcDbLine
 10
302.8231954849
 20
152.8546544503
 30
0.0
 11
302.1761454849
 21
152.9398294503
 31
0.0
  0
LINE
  5
4D
100
AcDbEntity
  8
CK_LEVEL_1
  6
CONTINUOUS
 62
         4
100
AcDbLine
 10
302.1761454849
 20
152.9398294503
 30
0.0
 11
302.1761454849
 21
150.4398294503
 31
0.0
  0
LINE
  5
4E
100
AcDbEntity
  8
CK_LEVEL_1
  6
CONTINUOUS
 62
         4
100
AcDbLine
 10
302.1761454849
 20
153.3898294503
 30
0.0
 11
302.1761454849
 21
147.4898294503
 31
0.0
  0
ENDBLK
  5
4F
100
AcDbEntity
  8
0
  6
CONTINUOUS
100
AcDbBlockEnd
  0
BLOCK
  5
AB
100
AcDbEntity
  8
0
100
AcDbBlockBegin
  2
*X2
 70
        65
 10
0.0
 20
0.0
 30
0.0
  3
*X2
  1

  0
LINE
  5
AC
100
AcDbEntity
  8
CK_LEVEL_1
  6
CONTINUOUS
 62
         4
100
AcDbLine
 10
341.0005451595
 20
-91.4406747693
 30
0.0
 11
343.8961454849
 21
-88.5450744438
 31
0.0
  0
LINE
  5
AD
100
AcDbEntity
  8
CK_LEVEL_1
  6
CONTINUOUS
 62
         4
100
AcDbLine
 10
336.7579044724
 20
-91.4406747693
 30
0.0
 11
343.8961454849
 21
-84.3024337567
 31
0.0
  0
LINE
  5
AE
100
AcDbEntity
  8
CK_LEVEL_1
  6
CONTINUOUS
 62
         4
100
AcDbLine
 10
355.2999044724
 20
-72.8986747693
 30
0.0
 11
356.6761454849
 21
-71.5224337567
 31
0.0
  0
LINE
  5
AF
100
AcDbEntity
  8
CK_LEVEL_1
  6
CONTINUOUS
 62
         4
100
AcDbLine
 10
332.5152637852
 20
-91.4406747693
 30
0.0
 11
343.8961454849
 21
-80.0597930696
 31
0.0
  0
LINE
  5
B0
100
AcDbEntity
  8
CK_LEVEL_1
  6
CONTINUOUS
 62
         4
100
AcDbLine
 10
351.0572637852
 20
-72.8986747693
 30
0.0
 11
356.6761454849
 21
-67.2797930696
 31
0.0
  0
LINE
  5
B1
100
AcDbEntity
  8
CK_LEVEL_1
  6
CONTINUOUS
 62
         4
100
AcDbLine
 10
328.2726230981
 20
-91.4406747693
 30
0.0
 11
343.8961454849
 21
-75.8171523825
 31
0.0
  0
LINE
  5
B2
100
AcDbEntity
  8
CK_LEVEL_1
  6
CONTINUOUS
 62
         4
100
AcDbLine
 10
347.45073508
 20
-72.2625627873
 30
0.0
 11
356.6761454849
 21
-63.0371523825
 31
0.0
  0
LINE
  5
B3
100
AcDbEntity
  8
CK_LEVEL_1
  6
CONTINUOUS
 62
         4
100
AcDbLine
 10
313.0814839692
 20
-102.389173211
 30
0.0
 11
313.9720175014
 21
-101.4986396789
 31
0.0
  0
LINE
  5
B4
100
AcDbEntity
  8
CK_LEVEL_1
  6
CONTINUOUS
 62
         4
100
AcDbLine
 10
324.029982411
 20
-91.4406747693
 30
0.0
 11
356.6761454849
 21
-58.7945116953
 31
0.0
  0
LINE
  5
B5
100
AcDbEntity
  8
CK_LEVEL_1
  6
CONTINUOUS
 62
         4
100
AcDbLine
 10
308.6263982091
 20
-102.601618284
 30
0.0
 11
314.1844625743
 21
-97.0435539188
 31
0.0
  0
LINE
  5
B6
100
AcDbEntity
  8
CK_LEVEL_1
  6
CONTINUOUS
 62
         4
100
AcDbLine
 10
319.7873417239
 20
-91.4406747693
 30
0.0
 11
355.7747580196
 21
-55.4532584735
 31
0.0
  0
LINE
  5
B7
100
AcDbEntity
  8
CK_LEVEL_1
  6
CONTINUOUS
 62
         4
100
AcDbLine
 10
304.383757522
 20
-102.601618284
 30
0.0
 11
314.1844625743
 21
-92.8009132317
 31
0.0
  0
LINE
  5
B8
100
AcDbEntity
  8
CK_LEVEL_1
  6
CONTINUOUS
 62
         4
100
AcDbLine
 10
315.5447010368
 20
-91.4406747693
 30
0.0
 11
353.0349128956
 21
-53.9504629104
 31
0.0
  0
LINE
  5
B9
100
AcDbEntity
  8
CK_LEVEL_1
  6
CONTINUOUS
 62
         4
100
AcDbLine
 10
354.1367010368
 20
-52.8486747693
 30
0.0
 11
356.6761454849
 21
-50.3092303211
 31
0.0
  0
LINE
  5
BA
100
AcDbEntity
  8
CK_LEVEL_1
  6
CONTINUOUS
 62
         4
100
AcDbLine
 10
302.1844625743
 20
-100.5582725446
 30
0.0
 11
356.6761454849
 21
-46.066589634
 31
0.0
  0
LINE
  5
BB
100
AcDbEntity
  8
CK_LEVEL_1
  6
CONTINUOUS
 62
         4
100
AcDbLine
 10
302.1844625743
 20
-96.3156318575
 30
0.0
 11
356.6761454849
 21
-41.8239489469
 31
0.0
  0
LINE
  5
BC
100
AcDbEntity
  8
CK_LEVEL_1
  6
CONTINUOUS
 62
         4
100
AcDbLine
 10
302.1844625743
 20
-92.0729911703
 30
0.0
 11
356.6761454849
 21
-37.5813082597
 31
0.0
  0
LINE
  5
BD
100
AcDbEntity
  8
CK_LEVEL_1
  6
CONTINUOUS
 62
         4
100
AcDbLine
 10
301.4361120013
 20
-88.5787010563
 30
0.0
 11
355.2161382883
 21
-34.7986747693
 31
0.0
  0
LINE
  5
BE
100
AcDbEntity
  8
CK_LEVEL_1
  6
CONTINUOUS
 62
         4
100
AcDbLine
 10
297.2486866797
 20
-88.5234856907
 30
0.0
 11
350.9734976012
 21
-34.7986747693
 31
0.0
  0
LINE
  5
BF
100
AcDbEntity
  8
CK_LEVEL_1
  6
CONTINUOUS
 62
         4
100
AcDbLine
 10
293.5460158535
 20
-87.9835158298
 30
0.0
 11
345.680856914
 21
-35.8486747693
 31
0.0
  0
LINE
  5
C0
100
AcDbEntity
  8
CK_LEVEL_1
  6
CONTINUOUS
 62
         4
100
AcDbLine
 10
289.8433450273
 20
-87.4435459689
 30
0.0
 11
343.3961454849
 21
-33.8907455113
 31
0.0
  0
LINE
  5
C1
100
AcDbEntity
  8
CK_LEVEL_1
  6
CONTINUOUS
 62
         4
100
AcDbLine
 10
286.140674201
 20
-86.903576108
 30
0.0
 11
343.8961454849
 21
-29.1481048241
 31
0.0
  0
LINE
  5
C2
100
AcDbEntity
  8
CK_LEVEL_1
  6
CONTINUOUS
 62
         4
100
AcDbLine
 10
282.4380033748
 20
-86.3636062471
 30
0.0
 11
343.8961454849
 21
-24.905464137
 31
0.0
  0
LINE
  5
C3
100
AcDbEntity
  8
CK_LEVEL_1
  6
CONTINUOUS
 62
         4
100
AcDbLine
 10
278.7353325486
 20
-85.8236363862
 30
0.0
 11
343.8961454849
 21
-20.6628234499
 31
0.0
  0
LINE
  5
C4
100
AcDbEntity
  8
CK_LEVEL_1
  6
CONTINUOUS
 62
         4
100
AcDbLine
 10
275.0326617224
 20
-85.2836665253
 30
0.0
 11
343.6802642616
 21
-16.6360639861
 31
0.0
  0
LINE
  5
C5
100
AcDbEntity
  8
CK_LEVEL_1
  6
CONTINUOUS
 62
         4
100
AcDbLine
 10
271.3299908961
 20
-84.7436966644
 30
0.0
 11
339.8170127913
 21
-16.2566747693
 31
0.0
  0
LINE
  5
C6
100
AcDbEntity
  8
CK_LEVEL_1
  6
CONTINUOUS
 62
         4
100
AcDbLine
 10
267.6273200699
 20
-84.2037268035
 30
0.0
 11
335.5743721042
 21
-16.2566747693
 31
0.0
  0
LINE
  5
C7
100
AcDbEntity
  8
CK_LEVEL_1
  6
CONTINUOUS
 62
         4
100
AcDbLine
 10
263.9246492437
 20
-83.6637569426
 30
0.0
 11
331.3317314171
 21
-16.2566747693
 31
0.0
  0
LINE
  5
C8
100
AcDbEntity
  8
CK_LEVEL_1
  6
CONTINUOUS
 62
         4
100
AcDbLine
 10
260.2219784175
 20
-83.1237870818
 30
0.0
 11
327.08909073
 21
-16.2566747693
 31
0.0
  0
LINE
  5
C9
100
AcDbEntity
  8
CK_LEVEL_1
  6
CONTINUOUS
 62
         4
100
AcDbLine
 10
256.5193075913
 20
-82.5838172209
 30
0.0
 11
322.8464500428
 21
-16.2566747693
 31
0.0
  0
LINE
  5
CA
100
AcDbEntity
  8
CK_LEVEL_1
  6
CONTINUOUS
 62
         4
100
AcDbLine
 10
252.816636765
 20
-82.04384736
 30
0.0
 11
318.6038093557
 21
-16.2566747693
 31
0.0
  0
LINE
  5
CB
100
AcDbEntity
  8
CK_LEVEL_1
  6
CONTINUOUS
 62
         4
100
AcDbLine
 10
249.1139659388
 20
-81.5038774991
 30
0.0
 11
314.5712504149
 21
-16.046593023
 31
0.0
  0
LINE
  5
CC
100
AcDbEntity
  8
CK_LEVEL_1
  6
CONTINUOUS
 62
         4
100
AcDbLine
 10
245.4112951126
 20
-80.9639076382
 30
0.0
 11
314.1844625743
 21
-12.1907401764
 31
0.0
  0
LINE
  5
CD
100
AcDbEntity
  8
CK_LEVEL_1
  6
CONTINUOUS
 62
         4
100
AcDbLine
 10
241.7086242864
 20
-80.4239377773
 30
0.0
 11
314.1844625743
 21
-7.9480994893
 31
0.0
  0
LINE
  5
CE
100
AcDbEntity
  8
CK_LEVEL_1
  6
CONTINUOUS
 62
         4
100
AcDbLine
 10
238.0059534601
 20
-79.8839679164
 30
0.0
 11
298.9596905213
 21
-18.9302308552
 31
0.0
  0
LINE
  5
CF
100
AcDbEntity
  8
CK_LEVEL_1
  6
CONTINUOUS
 62
         4
100
AcDbLine
 10
302.1844625743
 20
-15.7054588022
 30
0.0
 11
312.7162952999
 21
-5.1736260766
 31
0.0
  0
LINE
  5
D0
100
AcDbEntity
  8
CK_LEVEL_1
  6
CONTINUOUS
 62
         4
100
AcDbLine
 10
234.3032826339
 20
-79.3439980555
 30
0.0
 11
293.9927012072
 21
-19.6545794822
 31
0.0
  0
LINE
  5
D1
100
AcDbEntity
  8
CK_LEVEL_1
  6
CONTINUOUS
 62
         4
100
AcDbLine
 10
302.1844625743
 20
-11.4628181151
 30
0.0
 11
308.5456624054
 21
-5.101618284
 31
0.0
  0
LINE
  5
D2
100
AcDbEntity
  8
CK_LEVEL_1
  6
CONTINUOUS
 62
         4
100
AcDbLine
 10
230.6006118077
 20
-78.8040281946
 30
0.0
 11
289.0257118932
 21
-20.3789281091
 31
0.0
  0
LINE
  5
D3
100
AcDbEntity
  8
CK_LEVEL_1
  6
CONTINUOUS
 62
         4
100
AcDbLine
 10
302.1844625743
 20
-7.2201774279
 30
0.0
 11
304.3030217183
 21
-5.101618284
 31
0.0
  0
LINE
  5
D4
100
AcDbEntity
  8
CK_LEVEL_1
  6
CONTINUOUS
 62
         4
100
AcDbLine
 10
226.8979409815
 20
-78.2640583337
 30
0.0
 11
284.0587225791
 21
-21.1032767361
 31
0.0
  0
LINE
  5
D5
100
AcDbEntity
  8
CK_LEVEL_1
  6
CONTINUOUS
 62
         4
100
AcDbLine
 10
223.1952701553
 20
-77.7240884728
 30
0.0
 11
279.091733265
 21
-21.827625363
 31
0.0
  0
LINE
  5
D6
100
AcDbEntity
  8
CK_LEVEL_1
  6
CONTINUOUS
 62
         4
100
AcDbLine
 10
219.492599329
 20
-77.1841186119
 30
0.0
 11
274.124743951
 21
-22.5519739899
 31
0.0
  0
LINE
  5
D7
100
AcDbEntity
  8
CK_LEVEL_1
  6
CONTINUOUS
 62
         4
100
AcDbLine
 10
215.7899285028
 20
-76.644148751
 30
0.0
 11
269.1577546369
 21
-23.2763226169
 31
0.0
  0
LINE
  5
D8
100
AcDbEntity
  8
CK_LEVEL_1
  6
CONTINUOUS
 62
         4
100
AcDbLine
 10
212.0872576766
 20
-76.1041788901
 30
0.0
 11
223.8398182827
 21
-64.351618284
 31
0.0
  0
LINE
  5
D9
100
AcDbEntity
  8
CK_LEVEL_1
  6
CONTINUOUS
 62
         4
100
AcDbLine
 10
231.7452898115
 20
-56.4461467552
 30
0.0
 11
264.1907653229
 21
-24.0006712438
 31
0.0
  0
LINE
  5
DA
100
AcDbEntity
  8
CK_LEVEL_1
  6
CONTINUOUS
 62
         4
100
AcDbLine
 10
208.3845868504
 20
-75.5642090292
 30
0.0
 11
219.5971775955
 21
-64.351618284
 31
0.0
  0
LINE
  5
DB
100
AcDbEntity
  8
CK_LEVEL_1
  6
CONTINUOUS
 62
         4
100
AcDbLine
 10
232.0938570058
 20
-51.8549388737
 30
0.0
 11
259.2237760088
 21
-24.7250198708
 31
0.0
  0
LINE
  5
DC
100
AcDbEntity
  8
CK_LEVEL_1
  6
CONTINUOUS
 62
         4
100
AcDbLine
 10
204.6819160242
 20
-75.0242391683
 30
0.0
 11
215.3545369084
 21
-64.351618284
 31
0.0
  0
LINE
  5
DD
100
AcDbEntity
  8
CK_LEVEL_1
  6
CONTINUOUS
 62
         4
100
AcDbLine
 10
230.5409427352
 20
-49.1652124572
 30
0.0
 11
254.2567866947
 21
-25.4493684977
 31
0.0
  0
LINE
  5
DE
100
AcDbEntity
  8
CK_LEVEL_1
  6
CONTINUOUS
 62
         4
100
AcDbLine
 10
200.9792451979
 20
-74.4842693074
 30
0.0
 11
211.1118962213
 21
-64.351618284
 31
0.0
  0
LINE
  5
DF
100
AcDbEntity
  8
CK_LEVEL_1
  6
CONTINUOUS
 62
         4
100
AcDbLine
 10
228.9880284646
 20
-46.4754860407
 30
0.0
 11
249.2897973807
 21
-26.1737171247
 31
0.0
  0
LINE
  5
E0
100
AcDbEntity
  8
CK_LEVEL_1
  6
CONTINUOUS
 62
         4
100
AcDbLine
 10
197.757553732
 20
-73.4633200862
 30
0.0
 11
206.8692555342
 21
-64.351618284
 31
0.0
  0
LINE
  5
E1
100
AcDbEntity
  8
CK_LEVEL_1
  6
CONTINUOUS
 62
         4
100
AcDbLine
 10
227.435114194
 20
-43.7857596242
 30
0.0
 11
244.3228080666
 21
-26.8980657516
 31
0.0
  0
LINE
  5
E2
100
AcDbEntity
  8
CK_LEVEL_1
  6
CONTINUOUS
 62
         4
100
AcDbLine
 10
194.1295583618
 20
-72.8486747693
 30
0.0
 11
202.6266148471
 21
-64.351618284
 31
0.0
  0
LINE
  5
E3
100
AcDbEntity
  8
CK_LEVEL_1
  6
CONTINUOUS
 62
         4
100
AcDbLine
 10
223.6266148471
 20
-43.351618284
 30
0.0
 11
239.3558187525
 21
-27.6224143785
 31
0.0
  0
LINE
  5
E4
100
AcDbEntity
  8
CK_LEVEL_1
  6
CONTINUOUS
 62
         4
100
AcDbLine
 10
189.8869176747
 20
-72.8486747693
 30
0.0
 11
198.3839741599
 21
-64.351618284
 31
0.0
  0
LINE
  5
E5
100
AcDbEntity
  8
CK_LEVEL_1
  6
CONTINUOUS
 62
         4
100
AcDbLine
 10
219.3839741599
 20
-43.351618284
 30
0.0
 11
234.3888294385
 21
-28.3467630055
 31
0.0
  0
LINE
  5
E6
100
AcDbEntity
  8
CK_LEVEL_1
  6
CONTINUOUS
 62
         4
100
AcDbLine
 10
184.9942769876
 20
-73.4986747693
 30
0.0
 11
194.1413334728
 21
-64.351618284
 31
0.0
  0
LINE
  5
E7
100
AcDbEntity
  8
CK_LEVEL_1
  6
CONTINUOUS
 62
         4
100
AcDbLine
 10
215.1413334728
 20
-43.351618284
 30
0.0
 11
229.4218401244
 21
-29.0711116324
 31
0.0
  0
LINE
  5
E8
100
AcDbEntity
  8
CK_LEVEL_1
  6
CONTINUOUS
 62
         4
100
AcDbLine
 10
180.7516363005
 20
-73.4986747693
 30
0.0
 11
189.8986927857
 21
-64.351618284
 31
0.0
  0
LINE
  5
E9
100
AcDbEntity
  8
CK_LEVEL_1
  6
CONTINUOUS
 62
         4
100
AcDbLine
 10
210.8986927857
 20
-43.351618284
 30
0.0
 11
224.4548508104
 21
-29.7954602594
 31
0.0
  0
LINE
  5
EA
100
AcDbEntity
  8
CK_LEVEL_1
  6
CONTINUOUS
 62
         4
100
AcDbLine
 10
176.5089956133
 20
-73.4986747693
 30
0.0
 11
182.8619391281
 21
-67.1457312545
 31
0.0
  0
LINE
  5
EB
100
AcDbEntity
  8
CK_LEVEL_1
  6
CONTINUOUS
 62
         4
100
AcDbLine
 10
206.6560520986
 20
-43.351618284
 30
0.0
 11
219.4878614963
 21
-30.5198088863
 31
0.0
  0
LINE
  5
EC
100
AcDbEntity
  8
CK_LEVEL_1
  6
CONTINUOUS
 62
         4
100
AcDbLine
 10
172.811788076
 20
-72.9532416195
 30
0.0
 11
178.919298441
 21
-66.8457312545
 31
0.0
  0
LINE
  5
ED
100
AcDbEntity
  8
CK_LEVEL_1
  6
CONTINUOUS
 62
         4
100
AcDbLine
 10
202.4134114115
 20
-43.351618284
 30
0.0
 11
214.5208721822
 21
-31.2441575132
 31
0.0
  0
LINE
  5
EE
100
AcDbEntity
  8
CK_LEVEL_1
  6
CONTINUOUS
 62
         4
100
AcDbLine
 10
172.1844625743
 20
-69.337926434
 30
0.0
 11
174.6766577539
 21
-66.8457312545
 31
0.0
  0
LINE
  5
EF
100
AcDbEntity
  8
CK_LEVEL_1
  6
CONTINUOUS
 62
         4
100
AcDbLine
 10
198.1707707243
 20
-43.351618284
 30
0.0
 11
209.5538828682
 21
-31.9685061402
 31
0.0
  0
LINE
  5
F0
100
AcDbEntity
  8
CK_LEVEL_1
  6
CONTINUOUS
 62
         4
100
AcDbLine
 10
193.9281300372
 20
-43.351618284
 30
0.0
 11
204.5868935541
 21
-32.6928547671
 31
0.0
  0
LINE
  5
F1
100
AcDbEntity
  8
CK_LEVEL_1
  6
CONTINUOUS
 62
         4
100
AcDbLine
 10
189.6854893501
 20
-43.351618284
 30
0.0
 11
199.6199042401
 21
-33.4172033941
 31
0.0
  0
LINE
  5
F2
100
AcDbEntity
  8
CK_LEVEL_1
  6
CONTINUOUS
 62
         4
100
AcDbLine
 10
186.0304177153
 20
-42.7640492317
 30
0.0
 11
193.9457921777
 21
-34.8486747693
 31
0.0
  0
LINE
  5
F3
100
AcDbEntity
  8
CK_LEVEL_1
  6
CONTINUOUS
 62
         4
100
AcDbLine
 10
183.6855823456
 20
-40.8662439143
 30
0.0
 11
189.7031514906
 21
-34.8486747693
 31
0.0
  0
LINE
  5
F4
100
AcDbEntity
  8
CK_LEVEL_1
  6
CONTINUOUS
 62
         4
100
AcDbLine
 10
179.4575672888
 20
-40.851618284
 30
0.0
 11
186.1105108035
 21
-34.1986747693
 31
0.0
  0
LINE
  5
F5
100
AcDbEntity
  8
CK_LEVEL_1
  6
CONTINUOUS
 62
         4
100
AcDbLine
 10
175.2149266016
 20
-40.851618284
 30
0.0
 11
181.8678701164
 21
-34.1986747693
 31
0.0
  0
LINE
  5
F6
100
AcDbEntity
  8
CK_LEVEL_1
  6
CONTINUOUS
 62
         4
100
AcDbLine
 10
172.2944967721
 20
-39.5294074264
 30
0.0
 11
177.6252294293
 21
-34.1986747693
 31
0.0
  0
LINE
  5
F7
100
AcDbEntity
  8
CK_LEVEL_1
  6
CONTINUOUS
 62
         4
100
AcDbLine
 10
172.5901975508
 20
-34.9910659606
 30
0.0
 11
172.9768537657
 21
-34.6044097457
 31
0.0
  0
ENDBLK
  5
F8
100
AcDbEntity
  8
0
  6
CONTINUOUS
100
AcDbBlockEnd
  0
BLOCK
  5
157
100
AcDbEntity
  8
0
100
AcDbBlockBegin
  2
*D3
 70
        65
 10
0.0
 20
0.0
 30
0.0
  3
*D3
  1

  0
POINT
  5
15A
100
AcDbEntity
  8
DEFPOINTS
  6
CONTINUOUS
 62
         0
100
AcDbPoint
 10
172.1761454849
 20
252.2829828834
 30
0.0
  0
POINT
  5
15B
100
AcDbEntity
  8
DEFPOINTS
  6
CONTINUOUS
 62
         0
100
AcDbPoint
 10
172.1761454849
 20
168.0898294503
 30
0.0
  0
POINT
  5
15C
100
AcDbEntity
  8
DEFPOINTS
  6
CONTINUOUS
 62
         0
100
AcDbPoint
 10
356.6761454849
 20
168.4898294503
 30
0.0
  0
LINE
  5
15D
100
AcDbEntity
  8
CK_LEVEL_1
  6
CONTINUOUS
 62
         4
100
AcDbLine
 10
172.1761454849
 20
169.8398294503
 30
0.0
 11
172.1761454849
 21
253.1579828834
 31
0.0
  0
LINE
  5
15E
100
AcDbEntity
  8
CK_LEVEL_1
  6
CONTINUOUS
 62
         4
100
AcDbLine
 10
356.6761454849
 20
170.2398294503
 30
0.0
 11
356.6761454849
 21
253.1579828834
 31
0.0
  0
LINE
  5
15F
100
AcDbEntity
  8
CK_LEVEL_1
  6
CONTINUOUS
 62
         4
100
AcDbLine
 10
172.1761454849
 20
252.2829828834
 30
0.0
 11
356.6761454849
 21
252.2829828834
 31
0.0
  0
SOLID
  5
160
100
AcDbEntity
  8
CK_LEVEL_1
  6
CONTINUOUS
 62
         4
100
AcDbTrace
 10
172.1761454849
 20
252.2829828834
 30
0.0
 11
175.6761454849
 21
252.8079828834
 31
0.0
 12
175.6761454849
 22
251.7579828834
 32
0.0
 13
172.1761454849
 23
252.2829828834
 33
0.0
  0
SOLID
  5
161
100
AcDbEntity
  8
CK_LEVEL_1
  6
CONTINUOUS
 62
         4
100
AcDbTrace
 10
356.6761454849
 20
252.2829828834
 30
0.0
 11
353.1761454849
 21
251.7579828834
 31
0.0
 12
353.1761454849
 22
252.8079828834
 32
0.0
 13
356.6761454849
 23
252.2829828834
 33
0.0
  0
TEXT
  5
163
100
AcDbEntity
  8
CK_LEVEL_1
  6
CONTINUOUS
 62
         4
100
AcDbText
 10
254.5395277929
 20
254.9079828834
 30
0.0
 40
3.5
  1
184.51
  7
BOX
100
AcDbText
  0
ENDBLK
  5
164
100
AcDbEntity
  8
0
  6
CONTINUOUS
100
AcDbBlockEnd
  0
BLOCK
  5
16C
100
AcDbEntity
  8
0
100
AcDbBlockBegin
  2
*D4
 70
        65
 10
0.0
 20
0.0
 30
0.0
  3
*D4
  1

  0
POINT
  5
16E
100
AcDbEntity
  8
DEFPOINTS
  6
CONTINUOUS
 62
         0
100
AcDbPoint
 10
302.1761454849
 20
241.3687460284
 30
0.0
  0
POINT
  5
16F
100
AcDbEntity
  8
DEFPOINTS
  6
CONTINUOUS
 62
         0
100
AcDbPoint
 10
302.1761454849
 20
197.1898294503
 30
0.0
  0
POINT
  5
170
100
AcDbEntity
  8
DEFPOINTS
  6
CONTINUOUS
 62
         0
100
AcDbPoint
 10
356.6761454849
 20
168.4898294503
 30
0.0
  0
LINE
  5
171
100
AcDbEntity
  8
CK_LEVEL_1
  6
CONTINUOUS
 62
         4
100
AcDbLine
 10
302.1761454849
 20
198.9398294503
 30
0.0
 11
302.1761454849
 21
242.2437460284
 31
0.0
  0
LINE
  5
172
100
AcDbEntity
  8
CK_LEVEL_1
  6
CONTINUOUS
 62
         4
100
AcDbLine
 10
356.6761454849
 20
170.2398294503
 30
0.0
 11
356.6761454849
 21
242.2437460284
 31
0.0
  0
LINE
  5
173
100
AcDbEntity
  8
CK_LEVEL_1
  6
CONTINUOUS
 62
         4
100
AcDbLine
 10
302.1761454849
 20
241.3687460284
 30
0.0
 11
356.6761454849
 21
241.3687460284
 31
0.0
  0
SOLID
  5
174
100
AcDbEntity
  8
CK_LEVEL_1
  6
CONTINUOUS
 62
         4
100
AcDbTrace
 10
302.1761454849
 20
241.3687460284
 30
0.0
 11
305.6761454849
 21
241.8937460284
 31
0.0
 12
305.6761454849
 22
240.8437460284
 32
0.0
 13
302.1761454849
 23
241.3687460284
 33
0.0
  0
SOLID
  5
175
100
AcDbEntity
  8
CK_LEVEL_1
  6
CONTINUOUS
 62
         4
100
AcDbTrace
 10
356.6761454849
 20
241.3687460284
 30
0.0
 11
353.1761454849
 21
240.8437460284
 31
0.0
 12
353.1761454849
 22
241.8937460284
 32
0.0
 13
356.6761454849
 23
241.3687460284
 33
0.0
  0
TEXT
  5
177
100
AcDbEntity
  8
CK_LEVEL_1
  6
CONTINUOUS
 62
         4
100
AcDbText
 10
314.3566785605
 20
243.9937460284
 30
0.0
 40
3.5
  1
54.55
  7
BOX
100
AcDbText
  0
ENDBLK
  5
178
100
AcDbEntity
  8
0
  6
CONTINUOUS
100
AcDbBlockEnd
  0
ENDSEC
  0
SECTION
  2
ENTITIES
  0
INSERT
  5
39
100
AcDbEntity
  8
0
  6
CONTINUOUS
100
AcDbBlockReference
  2
CKCOLL14
 10
0.0
 20
0.0
 30
0.0
  0
INSERT
  5
51
100
AcDbEntity
  8
0
  6
CONTINUOUS
100
AcDbBlockReference
  2
CKCOLL22
 10
0.0
 20
0.0
 30
0.0
  0
LINE
  5
52
100
AcDbEntity
  8
CK_LEVEL_1
  6
CENTER
 62
         1
100
AcDbLine
 10
361.5394154476
 20
-53.8486747693
 30
0.0
 11
168.9736536577
 21
-53.8486747693
 31
0.0
  0
CIRCLE
  5
53
100
AcDbEntity
  8
CK_LEVEL_1
  6
CONTINUOUS
 62
         7
100
AcDbCircle
 10
38.4935657019
 20
150.4398294503
 30
0.0
 40
10.5
  0
ARC
  5
54
100
AcDbEntity
  8
CK_LEVEL_1
  6
CONTINUOUS
 62
         4
100
AcDbCircle
 10
38.4935657019
 20
150.4398294503
 30
0.0
 40
12.0
100
AcDbArc
 50
270.0
 51
540.0
  0
CIRCLE
  5
55
100
AcDbEntity
  8
CK_LEVEL_1
  6
CONTINUOUS
 62
         7
100
AcDbCircle
 10
38.4935657019
 20
150.4398294503
 30
0.0
 40
13.0
  0
CIRCLE
  5
56
100
AcDbEntity
  8
CK_LEVEL_1
  6
CONTINUOUS
 62
         7
100
AcDbCircle
 10
38.4935657019
 20
150.4398294503
 30
0.0
 40
35.0270827722
  0
CIRCLE
  5
57
100
AcDbEntity
  8
CK_LEVEL_1
  6
CONTINUOUS
 62
         7
100
AcDbCircle
 10
38.4935657019
 20
150.4398294503
 30
0.0
 40
19.895
  0
LINE
  5
58
100
AcDbEntity
  8
CK_LEVEL_1
  6
CENTER
 62
         1
100
AcDbLine
 10
93.702536571
 20
150.4398294503
 30
0.0
 11
-17.1697257325
 21
150.4398294503
 31
0.0
  0
LINE
  5
59
100
AcDbEntity
  8
CK_LEVEL_1
  6
CENTER
 62
         1
100
AcDbLine
 10
38.4935657019
 20
91.4981782404
 30
0.0
 11
38.4935657019
 21
213.7837616634
 31
0.0
  0
CIRCLE
  5
5A
100
AcDbEntity
  8
CK_LEVEL_1
  6
CONTINUOUS
 62
         7
100
AcDbCircle
 10
38.4935657019
 20
150.4398294503
 30
0.0
 40
48.75
  0
CIRCLE
  5
5B
100
AcDbEntity
  8
CK_LEVEL_1
  6
CONTINUOUS
 62
         7
100
AcDbCircle
 10
568.4935657019
 20
150.4398294503
 30
0.0
 40
48.75
  0
LINE
  5
5C
100
AcDbEntity
  8
CK_LEVEL_1
  6
CENTER
 62
         1
100
AcDbLine
 10
568.4935657019
 20
91.4981782404
 30
0.0
 11
568.4935657019
 21
213.7837616634
 31
0.0
  0
LINE
  5
5D
100
AcDbEntity
  8
CK_LEVEL_1
  6
CENTER
 62
         1
100
AcDbLine
 10
623.702536571
 20
150.4398294503
 30
0.0
 11
512.8302742675
 21
150.4398294503
 31
0.0
  0
LINE
  5
5E
100
AcDbEntity
  8
CK_LEVEL_1
  6
CENTER
 62
         1
100
AcDbLine
 10
298.9761454849
 20
115.5148294503
 30
0.0
 11
298.9761454849
 21
185.3648294503
 31
0.0
  0
LINE
  5
5F
100
AcDbEntity
  8
CK_LEVEL_1
  6
CENTER
 62
         1
100
AcDbLine
 10
357.5366035767
 20
150.4398294503
 30
0.0
 11
290.0008839865
 21
150.4398294503
 31
0.0
  0
LINE
  5
60
100
AcDbEntity
  8
CK_LEVEL_1
  6
CENTER
 62
         1
100
AcDbLine
 10
277.8889672776
 20
150.4398294503
 30
0.0
 11
153.4119591718
 21
150.4398294503
 31
0.0
  0
LINE
  5
61
100
AcDbEntity
  8
CK_LEVEL_1
  6
CONTINUOUS
 62
         4
100
AcDbLine
 10
188.5261454849
 20
170.0898294503
 30
0.0
 11
188.5261454849
 21
130.7898294503
 31
0.0
  0
LINE
  5
62
100
AcDbEntity
  8
CK_LEVEL_1
  6
CONTINUOUS
 62
         4
100
AcDbLine
 10
198.4396544641
 20
130.176320471
 30
0.0
 11
198.4396544641
 21
170.7033384295
 31
0.0
  0
LINE
  5
63
100
AcDbEntity
  8
CK_LEVEL_1
  6
CONTINUOUS
 62
         4
100
AcDbLine
 10
219.1844625743
 20
-41.851618284
 30
0.0
 11
184.9030626917
 21
-41.851618284
 31
0.0
  0
LINE
  5
64
100
AcDbEntity
  8
CK_LEVEL_1
  6
CONTINUOUS
 62
         4
100
AcDbLine
 10
219.1844625743
 20
-65.851618284
 30
0.0
 11
184.8957889661
 21
-65.851618284
 31
0.0
  0
LINE
  5
65
100
AcDbEntity
  8
CK_LEVEL_1
  6
CONTINUOUS
 62
         4
100
AcDbLine
 10
174.1761454849
 20
-66.851618284
 30
0.0
 11
174.1761454849
 21
-40.851618284
 31
0.0
  0
ARC
  5
66
100
AcDbEntity
  8
CK_LEVEL_1
  6
CONTINUOUS
 62
         7
100
AcDbCircle
 10
315.1761454849
 20
111.8478294503
 30
0.0
 40
1.0
100
AcDbArc
 50
90.0
 51
180.0
  0
ARC
  5
67
100
AcDbEntity
  8
CK_LEVEL_1
  6
CONTINUOUS
 62
         7
100
AcDbCircle
 10
315.1761454849
 20
189.0318294503
 30
0.0
 40
1.0
100
AcDbArc
 50
180.0
 51
270.0
  0
LINE
  5
68
100
AcDbEntity
  8
CK_LEVEL_1
  6
DASHED
 62
         2
100
AcDbLine
 10
353.5534957541
 20
151.4398294503
 30
0.0
 11
352.9761454849
 21
150.4398294503
 31
0.0
  0
LINE
  5
69
100
AcDbEntity
  8
CK_LEVEL_1
  6
DASHED
 62
         2
100
AcDbLine
 10
356.6761454849
 20
152.5648294503
 30
0.0
 11
354.7275883264
 21
151.4398294503
 31
0.0
  0
LINE
  5
6A
100
AcDbEntity
  8
CK_LEVEL_1
  6
DASHED
 62
         2
100
AcDbLine
 10
354.7275883264
 20
151.4398294503
 30
0.0
 11
353.5534957541
 21
151.4398294503
 31
0.0
  0
LINE
  5
6B
100
AcDbEntity
  8
CK_LEVEL_1
  6
DASHED
 62
         2
100
AcDbLine
 10
354.7275883264
 20
149.4398294503
 30
0.0
 11
353.5534957541
 21
149.4398294503
 31
0.0
  0
LINE
  5
6C
100
AcDbEntity
  8
CK_LEVEL_1
  6
DASHED
 62
         2
100
AcDbLine
 10
356.6761454849
 20
148.3148294503
 30
0.0
 11
354.7275883264
 21
149.4398294503
 31
0.0
  0
LINE
  5
6D
100
AcDbEntity
  8
CK_LEVEL_1
  6
DASHED
 62
         2
100
AcDbLine
 10
353.5534957541
 20
149.4398294503
 30
0.0
 11
352.9761454849
 21
150.4398294503
 31
0.0
  0
LINE
  5
6E
100
AcDbEntity
  8
CK_LEVEL_1
  6
DASHED
 62
         2
100
AcDbLine
 10
353.5534957541
 20
149.4398294503
 30
0.0
 11
353.5534957541
 21
151.4398294503
 31
0.0
  0
LINE
  5
6F
100
AcDbEntity
  8
CK_LEVEL_1
  6
DASHED
 62
         2
100
AcDbLine
 10
354.7275883264
 20
151.4398294503
 30
0.0
 11
354.7275883264
 21
149.4398294503
 31
0.0
  0
ARC
  5
70
100
AcDbEntity
  8
CK_LEVEL_1
  6
CONTINUOUS
 62
         7
100
AcDbCircle
 10
346.9527007496
 20
132.0398294503
 30
0.0
 40
0.4
100
AcDbArc
 50
35.0
 51
90.0
  0
LINE
  5
71
100
AcDbEntity
  8
CK_LEVEL_1
  6
CONTINUOUS
 62
         7
100
AcDbLine
 10
347.8961454849
 20
131.3898294503
 30
0.0
 11
347.2803615673
 21
132.2692600248
 31
0.0
  0
ARC
  5
72
100
AcDbEntity
  8
CK_LEVEL_1
  6
CONTINUOUS
 62
         7
100
AcDbCircle
 10
346.9527007496
 20
168.8398294503
 30
0.0
 40
0.4
100
AcDbArc
 50
270.0
 51
325.0
  0
LINE
  5
73
100
AcDbEntity
  8
CK_LEVEL_1
  6
CONTINUOUS
 62
         7
100
AcDbLine
 10
347.8961454849
 20
169.4898294503
 30
0.0
 11
347.2803615673
 21
168.6103988757
 31
0.0
  0
LINE
  5
74
100
AcDbEntity
  8
CK_LEVEL_1
  6
DASHED
 62
         2
100
AcDbLine
 10
343.8961454849
 20
128.5738040465
 30
0.0
 11
343.3961454849
 21
129.4398294503
 31
0.0
  0
LINE
  5
75
100
AcDbEntity
  8
CK_LEVEL_1
  6
CONTINUOUS
 62
         7
100
AcDbLine
 10
346.9527007496
 20
132.4398294503
 30
0.0
 11
343.8961454849
 21
132.4398294503
 31
0.0
  0
ARC
  5
76
100
AcDbEntity
  8
CK_LEVEL_1
  6
DASHED
 62
         2
100
AcDbCircle
 10
343.8961454849
 20
131.9398294503
 30
0.0
 40
0.5
100
AcDbArc
 50
90.0
 51
180.0
  0
LINE
  5
77
100
AcDbEntity
  8
CK_LEVEL_1
  6
CONTINUOUS
 62
         7
100
AcDbLine
 10
346.9527007496
 20
168.4398294503
 30
0.0
 11
343.8961454849
 21
168.4398294503
 31
0.0
  0
ARC
  5
78
100
AcDbEntity
  8
CK_LEVEL_1
  6
DASHED
 62
         2
100
AcDbCircle
 10
343.8961454849
 20
168.9398294503
 30
0.0
 40
0.5
100
AcDbArc
 50
180.0
 51
270.0
  0
LINE
  5
79
100
AcDbEntity
  8
CK_LEVEL_1
  6
DASHED
 62
         2
100
AcDbLine
 10
343.3961454849
 20
171.4398294503
 30
0.0
 11
343.3961454849
 21
150.5023294503
 31
0.0
  0
LINE
  5
7A
100
AcDbEntity
  8
CK_LEVEL_1
  6
DASHED
 62
         2
100
AcDbLine
 10
343.8961454849
 20
172.305854854
 30
0.0
 11
343.3961454849
 21
171.4398294503
 31
0.0
  0
LINE
  5
7B
100
AcDbEntity
  8
CK_LEVEL_1
  6
DASHED
 62
         2
100
AcDbLine
 10
343.3961454849
 20
129.4398294503
 30
0.0
 11
343.3961454849
 21
150.4398294503
 31
0.0
  0
LINE
  5
7C
100
AcDbEntity
  8
CK_LEVEL_1
  6
CONTINUOUS
 62
         4
100
AcDbLine
 10
356.655941382
 20
132.1898294503
 30
0.0
 11
347.8961454849
 21
132.1898294503
 31
0.0
  0
LINE
  5
7D
100
AcDbEntity
  8
CK_LEVEL_1
  6
CONTINUOUS
 62
         4
100
AcDbLine
 10
347.8961454849
 20
168.6898294503
 30
0.0
 11
356.655941382
 21
168.6898294503
 31
0.0
  0
LINE
  5
7E
100
AcDbEntity
  8
CK_LEVEL_1
  6
CONTINUOUS
 62
         7
100
AcDbLine
 10
347.8961454849
 20
169.4898294503
 30
0.0
 11
347.8961454849
 21
131.3898294503
 31
0.0
  0
LINE
  5
7F
100
AcDbEntity
  8
CK_LEVEL_1
  6
CONTINUOUS
 62
         7
100
AcDbLine
 10
343.8961454849
 20
187.0318294503
 30
0.0
 11
343.8961454849
 21
113.8478294503
 31
0.0
  0
LINE
  5
80
100
AcDbEntity
  8
CK_LEVEL_1
  6
CONTINUOUS
 62
         7
100
AcDbLine
 10
315.1761454849
 20
188.0318294503
 30
0.0
 11
342.8961454849
 21
188.0318294503
 31
0.0
  0
LINE
  5
81
100
AcDbEntity
  8
CK_LEVEL_1
  6
CONTINUOUS
 62
         7
100
AcDbLine
 10
342.8961454849
 20
112.8478294503
 30
0.0
 11
315.1761454849
 21
112.8478294503
 31
0.0
  0
LINE
  5
82
100
AcDbEntity
  8
CK_LEVEL_1
  6
CONTINUOUS
 62
         7
100
AcDbLine
 10
347.8961454849
 20
169.4898294503
 30
0.0
 11
355.6761454849
 21
169.4898294503
 31
0.0
  0
LINE
  5
83
100
AcDbEntity
  8
CK_LEVEL_1
  6
CONTINUOUS
 62
         7
100
AcDbLine
 10
355.6761454849
 20
131.3898294503
 30
0.0
 11
347.8961454849
 21
131.3898294503
 31
0.0
  0
LINE
  5
84
100
AcDbEntity
  8
CK_LEVEL_1
  6
CONTINUOUS
 62
         7
100
AcDbLine
 10
356.6761454849
 20
168.4898294503
 30
0.0
 11
356.6761454849
 21
132.3898294503
 31
0.0
  0
ARC
  5
85
100
AcDbEntity
  8
CK_LEVEL_1
  6
CONTINUOUS
 62
         7
100
AcDbCircle
 10
342.8961454849
 20
187.0318294503
 30
0.0
 40
1.0
100
AcDbArc
 50
0.0
 51
90.0
  0
ARC
  5
86
100
AcDbEntity
  8
CK_LEVEL_1
  6
CONTINUOUS
 62
         7
100
AcDbCircle
 10
355.6761454849
 20
168.4898294503
 30
0.0
 40
1.0
100
AcDbArc
 50
0.0
 51
90.0
  0
ARC
  5
87
100
AcDbEntity
  8
CK_LEVEL_1
  6
CONTINUOUS
 62
         7
100
AcDbCircle
 10
355.6761454849
 20
132.3898294503
 30
0.0
 40
1.0
100
AcDbArc
 50
270.0
 51
360.0
  0
ARC
  5
88
100
AcDbEntity
  8
CK_LEVEL_1
  6
CONTINUOUS
 62
         7
100
AcDbCircle
 10
342.8961454849
 20
113.8478294503
 30
0.0
 40
1.0
100
AcDbArc
 50
270.0
 51
360.0
  0
ARC
  5
89
100
AcDbEntity
  8
CK_LEVEL_1
  6
CONTINUOUS
 62
         7
100
AcDbCircle
 10
312.1761454849
 20
103.6898294503
 30
0.0
 40
2.0
100
AcDbArc
 50
270.0
 51
360.0
  0
ARC
  5
8A
100
AcDbEntity
  8
CK_LEVEL_1
  6
CONTINUOUS
 62
         7
100
AcDbCircle
 10
304.1761454849
 20
103.6898294503
 30
0.0
 40
2.0
100
AcDbArc
 50
180.0
 51
270.0
  0
ARC
  5
8B
100
AcDbEntity
  8
CK_LEVEL_1
  6
CONTINUOUS
 62
         7
100
AcDbCircle
 10
312.1761454849
 20
197.1898294503
 30
0.0
 40
2.0
100
AcDbArc
 50
0.0
 51
90.0
  0
ARC
  5
8C
100
AcDbEntity
  8
CK_LEVEL_1
  6
CONTINUOUS
 62
         7
100
AcDbCircle
 10
304.1761454849
 20
197.1898294503
 30
0.0
 40
2.0
100
AcDbArc
 50
90.0
 51
180.0
  0
LINE
  5
8D
100
AcDbEntity
  8
CK_LEVEL_1
  6
CONTINUOUS
 62
         7
100
AcDbLine
 10
314.1761454849
 20
103.6898294503
 30
0.0
 11
314.1761454849
 21
139.5898294503
 31
0.0
  0
LINE
  5
8E
100
AcDbEntity
  8
CK_LEVEL_1
  6
CONTINUOUS
 62
         7
100
AcDbLine
 10
302.1761454849
 20
103.6898294503
 30
0.0
 11
302.1761454849
 21
197.1898294503
 31
0.0
  0
LINE
  5
8F
100
AcDbEntity
  8
CK_LEVEL_1
  6
CONTINUOUS
 62
         7
100
AcDbLine
 10
312.1761454849
 20
199.1898294503
 30
0.0
 11
304.1761454849
 21
199.1898294503
 31
0.0
  0
LINE
  5
90
100
AcDbEntity
  8
CK_LEVEL_1
  6
CONTINUOUS
 62
         7
100
AcDbLine
 10
312.1761454849
 20
101.6898294503
 30
0.0
 11
304.1761454849
 21
101.6898294503
 31
0.0
  0
LINE
  5
91
100
AcDbEntity
  8
CK_LEVEL_1
  6
CONTINUOUS
 62
         7
100
AcDbLine
 10
299.6761454849
 20
185.4669122225
 30
0.0
 11
198.4396544641
 21
170.7033384295
 31
0.0
  0
LINE
  5
92
100
AcDbEntity
  8
CK_LEVEL_1
  6
CONTINUOUS
 62
         7
100
AcDbLine
 10
299.6761454849
 20
115.412746678
 30
0.0
 11
198.391005738
 21
130.1834150379
 31
0.0
  0
LINE
  5
93
100
AcDbEntity
  8
CK_LEVEL_1
  6
CONTINUOUS
 62
         7
100
AcDbLine
 10
299.6761454849
 20
115.412746678
 30
0.0
 11
299.6761454849
 21
185.4669122225
 31
0.0
  0
LINE
  5
94
100
AcDbEntity
  8
CK_LEVEL_1
  6
CONTINUOUS
 62
         7
100
AcDbLine
 10
301.5761454849
 20
185.1669122225
 30
0.0
 11
300.8747522258
 21
185.1669122225
 31
0.0
  0
LINE
  5
95
100
AcDbEntity
  8
CK_LEVEL_1
  6
CONTINUOUS
 62
         7
100
AcDbLine
 10
300.7194607987
 20
185.1873567267
 30
0.0
 11
299.6761454849
 21
185.4669122225
 31
0.0
  0
ARC
  5
96
100
AcDbEntity
  8
CK_LEVEL_1
  6
CONTINUOUS
 62
         7
100
AcDbCircle
 10
301.5761454849
 20
185.7669122225
 30
0.0
 40
0.6
100
AcDbArc
 50
270.0
 51
360.0
  0
ARC
  5
97
100
AcDbEntity
  8
CK_LEVEL_1
  6
CONTINUOUS
 62
         7
100
AcDbCircle
 10
300.8747522258
 20
185.7669122225
 30
0.0
 40
0.6
100
AcDbArc
 50
255.0
 51
270.0
  0
ARC
  5
98
100
AcDbEntity
  8
CK_LEVEL_1
  6
CONTINUOUS
 62
         7
100
AcDbCircle
 10
300.8747522258
 20
115.112746678
 30
0.0
 40
0.6
100
AcDbArc
 50
90.0
 51
105.0
  0
ARC
  5
99
100
AcDbEntity
  8
CK_LEVEL_1
  6
CONTINUOUS
 62
         7
100
AcDbCircle
 10
301.5761454849
 20
115.112746678
 30
0.0
 40
0.6
100
AcDbArc
 50
0.0
 51
90.0
  0
LINE
  5
9A
100
AcDbEntity
  8
CK_LEVEL_1
  6
CONTINUOUS
 62
         7
100
AcDbLine
 10
300.7194607987
 20
115.6923021738
 30
0.0
 11
299.6761454849
 21
115.412746678
 31
0.0
  0
LINE
  5
9B
100
AcDbEntity
  8
CK_LEVEL_1
  6
CONTINUOUS
 62
         7
100
AcDbLine
 10
301.5761454849
 20
115.712746678
 30
0.0
 11
300.8747522258
 21
115.712746678
 31
0.0
  0
ARC
  5
9C
100
AcDbEntity
  8
CK_LEVEL_1
  6
CONTINUOUS
 62
         7
100
AcDbCircle
 10
174.1761454849
 20
168.0898294503
 30
0.0
 40
2.0
100
AcDbArc
 50
90.0
 51
180.0
  0
ARC
  5
9D
100
AcDbEntity
  8
CK_LEVEL_1
  6
CONTINUOUS
 62
         7
100
AcDbCircle
 10
174.1761454849
 20
132.7898294503
 30
0.0
 40
2.0
100
AcDbArc
 50
180.0
 51
270.0
  0
LINE
  5
9E
100
AcDbEntity
  8
CK_LEVEL_1
  6
CONTINUOUS
 62
         7
100
AcDbLine
 10
197.1761454849
 20
131.398275291
 30
0.0
 11
197.1761454849
 21
169.4398294503
 31
0.0
  0
LINE
  5
9F
100
AcDbEntity
  8
CK_LEVEL_1
  6
CONTINUOUS
 62
         7
100
AcDbLine
 10
188.5261454849
 20
130.7898294503
 30
0.0
 11
174.1761454849
 21
130.7898294503
 31
0.0
  0
LINE
  5
A0
100
AcDbEntity
  8
CK_LEVEL_1
  6
CONTINUOUS
 62
         7
100
AcDbLine
 10
197.1761454849
 20
169.4398294503
 30
0.0
 11
189.1761454849
 21
169.4398294503
 31
0.0
  0
LINE
  5
A1
100
AcDbEntity
  8
CK_LEVEL_1
  6
CONTINUOUS
 62
         7
100
AcDbLine
 10
188.5261454849
 20
170.0898294503
 30
0.0
 11
174.1761454849
 21
170.0898294503
 31
0.0
  0
LINE
  5
A2
100
AcDbEntity
  8
CK_LEVEL_1
  6
CONTINUOUS
 62
         7
100
AcDbLine
 10
172.1761454849
 20
132.7898294503
 30
0.0
 11
172.1761454849
 21
168.0898294503
 31
0.0
  0
LINE
  5
A3
100
AcDbEntity
  8
CK_LEVEL_1
  6
CONTINUOUS
 62
         7
100
AcDbLine
 10
189.1761454849
 20
169.4398294503
 30
0.0
 11
188.5261454849
 21
170.0898294503
 31
0.0
  0
LINE
  5
A4
100
AcDbEntity
  8
CK_LEVEL_1
  6
CONTINUOUS
 62
         7
100
AcDbLine
 10
198.4396544641
 20
170.7033384295
 30
0.0
 11
197.1761454849
 21
169.4398294503
 31
0.0
  0
LINE
  5
A5
100
AcDbEntity
  8
CK_LEVEL_1
  6
CONTINUOUS
 62
         7
100
AcDbLine
 10
198.391005738
 20
130.1834150379
 30
0.0
 11
197.1761454849
 21
131.398275291
 31
0.0
  0
LINE
  5
A6
100
AcDbEntity
  8
CK_LEVEL_1
  6
CONTINUOUS
 62
         7
100
AcDbLine
 10
189.1345913257
 20
131.398275291
 30
0.0
 11
188.5261454849
 21
130.7898294503
 31
0.0
  0
LINE
  5
A7
100
AcDbEntity
  8
CK_LEVEL_1
  6
CONTINUOUS
 62
         7
100
AcDbLine
 10
197.1761454849
 20
131.398275291
 30
0.0
 11
189.1345913257
 21
131.398275291
 31
0.0
  0
LINE
  5
A8
100
AcDbEntity
  8
CK_LEVEL_1
  6
CONTINUOUS
 62
         7
100
AcDbLine
 10
189.1761454849
 20
169.4398294503
 30
0.0
 11
189.1345913257
 21
131.398275291
 31
0.0
  0
LINE
  5
A9
100
AcDbEntity
  8
CK_LEVEL_1
  6
CONTINUOUS
 62
         7
100
AcDbLine
 10
314.1761454849
 20
139.5898294503
 30
0.0
 11
314.1761454849
 21
197.1898294503
 31
0.0
  0
INSERT
  5
FA
100
AcDbEntity
  8
0
  6
CONTINUOUS
100
AcDbBlockReference
  2
*X2
 10
0.0
 20
0.0
 30
0.0
  0
LINE
  5
FB
100
AcDbEntity
  8
CK_LEVEL_1
  6
CONTINUOUS
 62
         7
100
AcDbLine
 10
227.1844625743
 20
-64.3457312545
 30
0.0
 11
233.2449409618
 21
-53.8486747693
 31
0.0
  0
LINE
  5
FC
100
AcDbEntity
  8
CK_LEVEL_1
  6
CONTINUOUS
 62
         7
100
AcDbLine
 10
227.1844625743
 20
-43.351618284
 30
0.0
 11
233.2449409618
 21
-53.8486747693
 31
0.0
  0
LINE
  5
FD
100
AcDbEntity
  8
CK_LEVEL_1
  6
CONTINUOUS
 62
         7
100
AcDbLine
 10
227.1844625743
 20
-64.351618284
 30
0.0
 11
227.1844625743
 21
-43.351618284
 31
0.0
  0
ARC
  5
FE
100
AcDbEntity
  8
CK_LEVEL_1
  6
CONTINUOUS
 62
         7
100
AcDbCircle
 10
315.1844625743
 20
-92.4406747693
 30
0.0
 40
1.0
100
AcDbArc
 50
90.0
 51
180.0
  0
ARC
  5
FF
100
AcDbEntity
  8
CK_LEVEL_1
  6
CONTINUOUS
 62
         7
100
AcDbCircle
 10
315.1844625743
 20
-15.2566747693
 30
0.0
 40
1.0
100
AcDbArc
 50
180.0
 51
270.0
  0
LINE
  5
100
100
AcDbEntity
  8
CK_LEVEL_1
  6
CONTINUOUS
 62
         4
100
AcDbLine
 10
354.7275883264
 20
-52.8486747693
 30
0.0
 11
354.7275883264
 21
-54.8486747693
 31
0.0
  0
LINE
  5
101
100
AcDbEntity
  8
CK_LEVEL_1
  6
CONTINUOUS
 62
         4
100
AcDbLine
 10
353.5534957541
 20
-54.8486747693
 30
0.0
 11
353.5534957541
 21
-52.8486747693
 31
0.0
  0
LINE
  5
102
100
AcDbEntity
  8
CK_LEVEL_1
  6
CONTINUOUS
 62
         7
100
AcDbLine
 10
353.5534957541
 20
-54.8486747693
 30
0.0
 11
352.9761454849
 21
-53.8486747693
 31
0.0
  0
LINE
  5
103
100
AcDbEntity
  8
CK_LEVEL_1
  6
CONTINUOUS
 62
         7
100
AcDbLine
 10
356.6761454849
 20
-55.9736747693
 30
0.0
 11
354.7275883264
 21
-54.8486747693
 31
0.0
  0
LINE
  5
104
100
AcDbEntity
  8
CK_LEVEL_1
  6
CONTINUOUS
 62
         7
100
AcDbLine
 10
354.7275883264
 20
-54.8486747693
 30
0.0
 11
353.5534957541
 21
-54.8486747693
 31
0.0
  0
LINE
  5
105
100
AcDbEntity
  8
CK_LEVEL_1
  6
CONTINUOUS
 62
         7
100
AcDbLine
 10
354.7275883264
 20
-52.8486747693
 30
0.0
 11
353.5534957541
 21
-52.8486747693
 31
0.0
  0
LINE
  5
106
100
AcDbEntity
  8
CK_LEVEL_1
  6
CONTINUOUS
 62
         7
100
AcDbLine
 10
356.6761454849
 20
-51.7236747693
 30
0.0
 11
354.7275883264
 21
-52.8486747693
 31
0.0
  0
LINE
  5
107
100
AcDbEntity
  8
CK_LEVEL_1
  6
CONTINUOUS
 62
         7
100
AcDbLine
 10
353.5534957541
 20
-52.8486747693
 30
0.0
 11
352.9761454849
 21
-53.8486747693
 31
0.0
  0
LINE
  5
108
100
AcDbEntity
  8
CK_LEVEL_1
  6
CONTINUOUS
 62
         7
100
AcDbLine
 10
356.6761454849
 20
-55.9736747693
 30
0.0
 11
356.6761454849
 21
-51.7236747693
 31
0.0
  0
LINE
  5
109
100
AcDbEntity
  8
CK_LEVEL_1
  6
CONTINUOUS
 62
         7
100
AcDbLine
 10
343.8961454849
 20
-71.8486747693
 30
0.0
 11
343.8961454849
 21
-90.4406747693
 31
0.0
  0
ARC
  5
10A
100
AcDbEntity
  8
CK_LEVEL_1
  6
CONTINUOUS
 62
         7
100
AcDbCircle
 10
342.8961454849
 20
-90.4406747693
 30
0.0
 40
1.0
100
AcDbArc
 50
270.0
 51
360.0
  0
ARC
  5
10B
100
AcDbEntity
  8
CK_LEVEL_1
  6
CONTINUOUS
 62
         7
100
AcDbCircle
 10
355.6761454849
 20
-71.8986747693
 30
0.0
 40
1.0
100
AcDbArc
 50
270.0
 51
360.0
  0
ARC
  5
10C
100
AcDbEntity
  8
CK_LEVEL_1
  6
CONTINUOUS
 62
         7
100
AcDbCircle
 10
355.6761454849
 20
-35.7986747693
 30
0.0
 40
1.0
100
AcDbArc
 50
0.0
 51
90.0
  0
ARC
  5
10D
100
AcDbEntity
  8
CK_LEVEL_1
  6
CONTINUOUS
 62
         7
100
AcDbCircle
 10
342.8961454849
 20
-17.2566747693
 30
0.0
 40
1.0
100
AcDbArc
 50
0.0
 51
90.0
  0
LINE
  5
10E
100
AcDbEntity
  8
CK_LEVEL_1
  6
CONTINUOUS
 62
         7
100
AcDbLine
 10
356.6761454849
 20
-35.7986747693
 30
0.0
 11
356.6761454849
 21
-71.8986747693
 31
0.0
  0
LINE
  5
10F
100
AcDbEntity
  8
CK_LEVEL_1
  6
CONTINUOUS
 62
         7
100
AcDbLine
 10
355.6761454849
 20
-72.8986747693
 30
0.0
 11
347.8961454849
 21
-72.8986747693
 31
0.0
  0
LINE
  5
110
100
AcDbEntity
  8
CK_LEVEL_1
  6
CONTINUOUS
 62
         7
100
AcDbLine
 10
347.8961454849
 20
-34.7986747693
 30
0.0
 11
355.6761454849
 21
-34.7986747693
 31
0.0
  0
LINE
  5
111
100
AcDbEntity
  8
CK_LEVEL_1
  6
CONTINUOUS
 62
         7
100
AcDbLine
 10
342.8961454849
 20
-91.4406747693
 30
0.0
 11
315.1844625743
 21
-91.4406747693
 31
0.0
  0
LINE
  5
112
100
AcDbEntity
  8
CK_LEVEL_1
  6
CONTINUOUS
 62
         7
100
AcDbLine
 10
315.1844625743
 20
-16.2566747693
 30
0.0
 11
342.8961454849
 21
-16.2566747693
 31
0.0
  0
LINE
  5
113
100
AcDbEntity
  8
CK_LEVEL_1
  6
CONTINUOUS
 62
         7
100
AcDbLine
 10
343.8961454849
 20
-17.2566747693
 30
0.0
 11
343.8961454849
 21
-35.8486747693
 31
0.0
  0
LINE
  5
114
100
AcDbEntity
  8
CK_LEVEL_1
  6
CONTINUOUS
 62
         7
100
AcDbLine
 10
343.3961454849
 20
-74.8486747693
 30
0.0
 11
343.3961454849
 21
-72.3486747693
 31
0.0
  0
LINE
  5
115
100
AcDbEntity
  8
CK_LEVEL_1
  6
CONTINUOUS
 62
         7
100
AcDbLine
 10
343.8961454849
 20
-31.9826493655
 30
0.0
 11
343.3961454849
 21
-32.8486747693
 31
0.0
  0
LINE
  5
116
100
AcDbEntity
  8
CK_LEVEL_1
  6
CONTINUOUS
 62
         7
100
AcDbLine
 10
343.3961454849
 20
-32.8486747693
 30
0.0
 11
343.3961454849
 21
-35.3486747693
 31
0.0
  0
ARC
  5
117
100
AcDbEntity
  8
CK_LEVEL_1
  6
CONTINUOUS
 62
         7
100
AcDbCircle
 10
343.8961454849
 20
-35.3486747693
 30
0.0
 40
0.5
100
AcDbArc
 50
180.0
 51
270.0
  0
LINE
  5
118
100
AcDbEntity
  8
CK_LEVEL_1
  6
CONTINUOUS
 62
         7
100
AcDbLine
 10
346.9527007496
 20
-35.8486747693
 30
0.0
 11
343.8961454849
 21
-35.8486747693
 31
0.0
  0
ARC
  5
119
100
AcDbEntity
  8
CK_LEVEL_1
  6
CONTINUOUS
 62
         7
100
AcDbCircle
 10
343.8961454849
 20
-72.3486747693
 30
0.0
 40
0.5
100
AcDbArc
 50
90.0
 51
180.0
  0
LINE
  5
11A
100
AcDbEntity
  8
CK_LEVEL_1
  6
CONTINUOUS
 62
         7
100
AcDbLine
 10
346.9527007496
 20
-71.8486747693
 30
0.0
 11
343.8961454849
 21
-71.8486747693
 31
0.0
  0
LINE
  5
11B
100
AcDbEntity
  8
CK_LEVEL_1
  6
CONTINUOUS
 62
         7
100
AcDbLine
 10
343.8961454849
 20
-75.714700173
 30
0.0
 11
343.3961454849
 21
-74.8486747693
 31
0.0
  0
LINE
  5
11C
100
AcDbEntity
  8
CK_LEVEL_1
  6
CONTINUOUS
 62
         7
100
AcDbLine
 10
347.8961454849
 20
-34.7986747693
 30
0.0
 11
347.2803615673
 21
-35.6781053438
 31
0.0
  0
ARC
  5
11D
100
AcDbEntity
  8
CK_LEVEL_1
  6
CONTINUOUS
 62
         7
100
AcDbCircle
 10
346.9527007496
 20
-35.4486747693
 30
0.0
 40
0.4
100
AcDbArc
 50
270.0
 51
325.0
  0
LINE
  5
11E
100
AcDbEntity
  8
CK_LEVEL_1
  6
CONTINUOUS
 62
         7
100
AcDbLine
 10
347.8961454849
 20
-72.8986747693
 30
0.0
 11
347.2803615673
 21
-72.0192441947
 31
0.0
  0
ARC
  5
11F
100
AcDbEntity
  8
CK_LEVEL_1
  6
CONTINUOUS
 62
         7
100
AcDbCircle
 10
346.9527007496
 20
-72.2486747693
 30
0.0
 40
0.4
100
AcDbArc
 50
35.0
 51
90.0
  0
LINE
  5
120
100
AcDbEntity
  8
CK_LEVEL_1
  6
CONTINUOUS
 62
         7
100
AcDbLine
 10
314.1844625743
 20
-15.2566747693
 30
0.0
 11
314.1844625743
 21
-7.101618284
 31
0.0
  0
ARC
  5
121
100
AcDbEntity
  8
CK_LEVEL_1
  6
CONTINUOUS
 62
         7
100
AcDbCircle
 10
304.1844625743
 20
-100.601618284
 30
0.0
 40
2.0
100
AcDbArc
 50
180.0
 51
270.0
  0
ARC
  5
122
100
AcDbEntity
  8
CK_LEVEL_1
  6
CONTINUOUS
 62
         7
100
AcDbCircle
 10
312.1844625743
 20
-100.601618284
 30
0.0
 40
2.0
100
AcDbArc
 50
270.0
 51
360.0
  0
ARC
  5
123
100
AcDbEntity
  8
CK_LEVEL_1
  6
CONTINUOUS
 62
         7
100
AcDbCircle
 10
312.1844625743
 20
-7.101618284
 30
0.0
 40
2.0
100
AcDbArc
 50
0.0
 51
90.0
  0
ARC
  5
124
100
AcDbEntity
  8
CK_LEVEL_1
  6
CONTINUOUS
 62
         7
100
AcDbCircle
 10
304.1844625743
 20
-7.101618284
 30
0.0
 40
2.0
100
AcDbArc
 50
90.0
 51
180.0
  0
LINE
  5
125
100
AcDbEntity
  8
CK_LEVEL_1
  6
CONTINUOUS
 62
         7
100
AcDbLine
 10
314.1844625743
 20
-100.601618284
 30
0.0
 11
314.1844625743
 21
-92.4406747693
 31
0.0
  0
LINE
  5
126
100
AcDbEntity
  8
CK_LEVEL_1
  6
CONTINUOUS
 62
         7
100
AcDbLine
 10
302.1844625743
 20
-18.5245355118
 30
0.0
 11
302.1844625743
 21
-7.101618284
 31
0.0
  0
LINE
  5
127
100
AcDbEntity
  8
CK_LEVEL_1
  6
CONTINUOUS
 62
         7
100
AcDbLine
 10
312.1844625743
 20
-5.101618284
 30
0.0
 11
304.1844625743
 21
-5.101618284
 31
0.0
  0
LINE
  5
128
100
AcDbEntity
  8
CK_LEVEL_1
  6
CONTINUOUS
 62
         7
100
AcDbLine
 10
312.1844625743
 20
-102.601618284
 30
0.0
 11
304.1844625743
 21
-102.601618284
 31
0.0
  0
LINE
  5
129
100
AcDbEntity
  8
CK_LEVEL_1
  6
CONTINUOUS
 62
         7
100
AcDbLine
 10
299.6844625743
 20
-18.8245355118
 30
0.0
 11
198.4445254907
 21
-33.5886118529
 31
0.0
  0
LINE
  5
12A
100
AcDbEntity
  8
CK_LEVEL_1
  6
CONTINUOUS
 62
         7
100
AcDbLine
 10
299.6844625743
 20
-88.8787010563
 30
0.0
 11
198.4027688902
 21
-74.1085352444
 31
0.0
  0
ARC
  5
12B
100
AcDbEntity
  8
CK_LEVEL_1
  6
CONTINUOUS
 62
         7
100
AcDbCircle
 10
300.8830693152
 20
-18.5245355118
 30
0.0
 40
0.6
100
AcDbArc
 50
255.0
 51
270.0
  0
ARC
  5
12C
100
AcDbEntity
  8
CK_LEVEL_1
  6
CONTINUOUS
 62
         7
100
AcDbCircle
 10
301.5844625743
 20
-18.5245355118
 30
0.0
 40
0.6
100
AcDbArc
 50
270.0
 51
360.0
  0
LINE
  5
12D
100
AcDbEntity
  8
CK_LEVEL_1
  6
CONTINUOUS
 62
         7
100
AcDbLine
 10
300.7277778881
 20
-19.1040910076
 30
0.0
 11
299.6844625743
 21
-18.8245355118
 31
0.0
  0
LINE
  5
12E
100
AcDbEntity
  8
CK_LEVEL_1
  6
CONTINUOUS
 62
         7
100
AcDbLine
 10
301.5844625743
 20
-19.1245355118
 30
0.0
 11
300.8830693152
 21
-19.1245355118
 31
0.0
  0
ARC
  5
12F
100
AcDbEntity
  8
CK_LEVEL_1
  6
CONTINUOUS
 62
         7
100
AcDbCircle
 10
300.8830693152
 20
-89.1787010563
 30
0.0
 40
0.6
100
AcDbArc
 50
90.0
 51
105.0
  0
ARC
  5
130
100
AcDbEntity
  8
CK_LEVEL_1
  6
CONTINUOUS
 62
         7
100
AcDbCircle
 10
301.5844625743
 20
-89.1787010563
 30
0.0
 40
0.6
100
AcDbArc
 50
0.0
 51
90.0
  0
LINE
  5
131
100
AcDbEntity
  8
CK_LEVEL_1
  6
CONTINUOUS
 62
         7
100
AcDbLine
 10
301.5844625743
 20
-88.5787010563
 30
0.0
 11
300.8830693152
 21
-88.5787010563
 31
0.0
  0
LINE
  5
132
100
AcDbEntity
  8
CK_LEVEL_1
  6
CONTINUOUS
 62
         7
100
AcDbLine
 10
300.7277778881
 20
-88.5991455605
 30
0.0
 11
299.6844625743
 21
-88.8787010563
 31
0.0
  0
LINE
  5
133
100
AcDbEntity
  8
CK_LEVEL_1
  6
CONTINUOUS
 62
         7
100
AcDbLine
 10
302.1844625743
 20
-89.1787010563
 30
0.0
 11
302.1844625743
 21
-100.601618284
 31
0.0
  0
LINE
  5
134
100
AcDbEntity
  8
CK_LEVEL_1
  6
CONTINUOUS
 62
         7
100
AcDbLine
 10
227.1844625743
 20
-43.351618284
 30
0.0
 11
186.7563892802
 21
-43.351618284
 31
0.0
  0
LINE
  5
135
100
AcDbEntity
  8
CK_LEVEL_1
  6
CONTINUOUS
 62
         7
100
AcDbLine
 10
227.1844625743
 20
-64.351618284
 30
0.0
 11
186.7563892802
 21
-64.351618284
 31
0.0
  0
LINE
  5
136
100
AcDbEntity
  8
CK_LEVEL_1
  6
CONTINUOUS
 62
         7
100
AcDbLine
 10
181.1844625743
 20
-40.851618284
 30
0.0
 11
174.1761454849
 21
-40.851618284
 31
0.0
  0
LINE
  5
137
100
AcDbEntity
  8
CK_LEVEL_1
  6
CONTINUOUS
 62
         7
100
AcDbLine
 10
183.6844625743
 20
-64.351618284
 30
0.0
 11
183.6844625743
 21
-43.351618284
 31
0.0
  0
ARC
  5
138
100
AcDbEntity
  8
CK_LEVEL_1
  6
CONTINUOUS
 62
         7
100
AcDbCircle
 10
174.1761454849
 20
-38.851618284
 30
0.0
 40
2.0
100
AcDbArc
 50
180.0
 51
270.0
  0
LINE
  5
139
100
AcDbEntity
  8
CK_LEVEL_1
  6
CONTINUOUS
 62
         7
100
AcDbLine
 10
181.1844625743
 20
-66.851618284
 30
0.0
 11
181.1844625743
 21
-40.851618284
 31
0.0
  0
ARC
  5
13A
100
AcDbEntity
  8
CK_LEVEL_1
  6
CONTINUOUS
 62
         7
100
AcDbCircle
 10
182.3830693152
 20
-41.151618284
 30
0.0
 40
0.6
100
AcDbArc
 50
90.0
 51
105.0
  0
ARC
  5
13B
100
AcDbEntity
  8
CK_LEVEL_1
  6
CONTINUOUS
 62
         7
100
AcDbCircle
 10
183.0844625743
 20
-41.151618284
 30
0.0
 40
0.6
100
AcDbArc
 50
0.0
 51
90.0
  0
LINE
  5
13C
100
AcDbEntity
  8
CK_LEVEL_1
  6
CONTINUOUS
 62
         7
100
AcDbLine
 10
183.0844625743
 20
-40.551618284
 30
0.0
 11
182.3830693152
 21
-40.551618284
 31
0.0
  0
LINE
  5
13D
100
AcDbEntity
  8
CK_LEVEL_1
  6
CONTINUOUS
 62
         7
100
AcDbLine
 10
182.2277778881
 20
-40.5720627882
 30
0.0
 11
181.1844625743
 21
-40.851618284
 31
0.0
  0
LINE
  5
13E
100
AcDbEntity
  8
CK_LEVEL_1
  6
CONTINUOUS
 62
         7
100
AcDbLine
 10
219.1844625743
 20
-65.851618284
 30
0.0
 11
219.1844625743
 21
-41.851618284
 31
0.0
  0
LINE
  5
13F
100
AcDbEntity
  8
CK_LEVEL_1
  6
CONTINUOUS
 62
         7
100
AcDbLine
 10
183.6844625743
 20
-43.351618284
 30
0.0
 11
183.6844625743
 21
-41.151618284
 31
0.0
  0
LINE
  5
140
100
AcDbEntity
  8
CK_LEVEL_1
  6
CONTINUOUS
 62
         7
100
AcDbLine
 10
183.6844625743
 20
-64.3457312545
 30
0.0
 11
183.6844625743
 21
-66.5457312545
 31
0.0
  0
LINE
  5
141
100
AcDbEntity
  8
CK_LEVEL_1
  6
CONTINUOUS
 62
         7
100
AcDbLine
 10
182.2277778881
 20
-67.1252867503
 30
0.0
 11
181.1844625743
 21
-66.8457312545
 31
0.0
  0
LINE
  5
142
100
AcDbEntity
  8
CK_LEVEL_1
  6
CONTINUOUS
 62
         7
100
AcDbLine
 10
183.0844625743
 20
-67.1457312545
 30
0.0
 11
182.3830693152
 21
-67.1457312545
 31
0.0
  0
ARC
  5
143
100
AcDbEntity
  8
CK_LEVEL_1
  6
CONTINUOUS
 62
         7
100
AcDbCircle
 10
183.0844625743
 20
-66.5457312545
 30
0.0
 40
0.6
100
AcDbArc
 50
270.0
 51
360.0
  0
ARC
  5
144
100
AcDbEntity
  8
CK_LEVEL_1
  6
CONTINUOUS
 62
         7
100
AcDbCircle
 10
182.3830693152
 20
-66.5457312545
 30
0.0
 40
0.6
100
AcDbArc
 50
255.0
 51
270.0
  0
ARC
  5
145
100
AcDbEntity
  8
CK_LEVEL_1
  6
CONTINUOUS
 62
         7
100
AcDbCircle
 10
174.1761454849
 20
-68.8457312545
 30
0.0
 40
2.0
100
AcDbArc
 50
90.0
 51
180.0
  0
LINE
  5
146
100
AcDbEntity
  8
CK_LEVEL_1
  6
CONTINUOUS
 62
         7
100
AcDbLine
 10
181.1844625743
 20
-66.8457312545
 30
0.0
 11
174.1761454849
 21
-66.8457312545
 31
0.0
  0
LINE
  5
147
100
AcDbEntity
  8
CK_LEVEL_1
  6
CONTINUOUS
 62
         7
100
AcDbLine
 10
197.1761454849
 20
-34.8486747693
 30
0.0
 11
189.1761454849
 21
-34.8486747693
 31
0.0
  0
LINE
  5
148
100
AcDbEntity
  8
CK_LEVEL_1
  6
CONTINUOUS
 62
         7
100
AcDbLine
 10
197.1761454849
 20
-72.8486747693
 30
0.0
 11
189.1761454849
 21
-72.8486747693
 31
0.0
  0
LINE
  5
149
100
AcDbEntity
  8
CK_LEVEL_1
  6
CONTINUOUS
 62
         7
100
AcDbLine
 10
198.4479715535
 20
-33.5851657901
 30
0.0
 11
197.1844625743
 21
-34.8486747693
 31
0.0
  0
LINE
  5
14A
100
AcDbEntity
  8
CK_LEVEL_1
  6
CONTINUOUS
 62
         7
100
AcDbLine
 10
198.3993228274
 20
-74.1050891816
 30
0.0
 11
197.1844625743
 21
-72.8902289285
 31
0.0
  0
LINE
  5
14B
100
AcDbEntity
  8
CK_LEVEL_1
  6
CONTINUOUS
 62
         7
100
AcDbLine
 10
188.5344625743
 20
-73.4986747693
 30
0.0
 11
174.1844625743
 21
-73.4986747693
 31
0.0
  0
LINE
  5
14C
100
AcDbEntity
  8
CK_LEVEL_1
  6
CONTINUOUS
 62
         7
100
AcDbLine
 10
188.5344625743
 20
-34.1986747693
 30
0.0
 11
174.1844625743
 21
-34.1986747693
 31
0.0
  0
LINE
  5
14D
100
AcDbEntity
  8
CK_LEVEL_1
  6
CONTINUOUS
 62
         7
100
AcDbLine
 10
172.1844625743
 20
-71.4986747693
 30
0.0
 11
172.1844625743
 21
-36.1986747693
 31
0.0
  0
LINE
  5
14E
100
AcDbEntity
  8
CK_LEVEL_1
  6
CONTINUOUS
 62
         7
100
AcDbLine
 10
189.1844625743
 20
-34.8486747693
 30
0.0
 11
188.5344625743
 21
-34.1986747693
 31
0.0
  0
LINE
  5
14F
100
AcDbEntity
  8
CK_LEVEL_1
  6
CONTINUOUS
 62
         7
100
AcDbLine
 10
189.1429084151
 20
-72.8902289285
 30
0.0
 11
188.5344625743
 21
-73.4986747693
 31
0.0
  0
LINE
  5
150
100
AcDbEntity
  8
CK_LEVEL_1
  6
CONTINUOUS
 62
         7
100
AcDbLine
 10
183.4619340784
 20
-40.6852329674
 30
0.0
 11
186.7563892802
 21
-43.351618284
 31
0.0
  0
LINE
  5
151
100
AcDbEntity
  8
CK_LEVEL_1
  6
CONTINUOUS
 62
         7
100
AcDbLine
 10
183.4619340784
 20
-67.0121165712
 30
0.0
 11
186.7563892802
 21
-64.3457312545
 31
0.0
  0
LINE
  5
152
100
AcDbEntity
  8
CK_LEVEL_1
  6
CONTINUOUS
 62
         7
100
AcDbLine
 10
186.7563892802
 20
-64.3457312545
 30
0.0
 11
186.7563892802
 21
-43.351618284
 31
0.0
  0
ARC
  5
153
100
AcDbEntity
  8
CK_LEVEL_1
  6
CONTINUOUS
 62
         7
100
AcDbCircle
 10
174.1844625743
 20
-36.1986747693
 30
0.0
 40
2.0
100
AcDbArc
 50
90.0
 51
180.0
  0
ARC
  5
154
100
AcDbEntity
  8
CK_LEVEL_1
  6
CONTINUOUS
 62
         7
100
AcDbCircle
 10
174.1844625743
 20
-71.4986747693
 30
0.0
 40
2.0
100
AcDbArc
 50
180.0
 51
270.0
  0
DIMENSION
  5
158
100
AcDbEntity
  8
CK_LEVEL_1
  6
CONTINUOUS
 62
         4
100
AcDbDimension
  2
*D3
 10
172.1761454849
 20
252.2829828834
 30
0.0
 11
254.5395277929
 21
254.9079828834
 31
0.0
  3
DIMSTYLE1
100
AcDbAlignedDimension
 13
172.1761454849
 23
168.0898294503
 33
0.0
 14
356.6761454849
 24
168.4898294503
 34
0.0
100
AcDbRotatedDimension
  0
CIRCLE
  5
165
100
AcDbEntity
  8
CK_LEVEL_1
  6
CONTINUOUS
 62
         7
100
AcDbCircle
 10
568.4935657019
 20
150.4398294503
 30
0.0
 40
0.8
  0
CIRCLE
  5
166
100
AcDbEntity
  8
CK_LEVEL_1
  6
CONTINUOUS
 62
         7
100
AcDbCircle
 10
568.4935657019
 20
150.4398294503
 30
0.0
 40
1.95
  0
ARC
  5
167
100
AcDbEntity
  8
CK_LEVEL_1
  6
CONTINUOUS
 62
         4
100
AcDbCircle
 10
568.4935657019
 20
150.4398294503
 30
0.0
 40
18.25
100
AcDbArc
 50
269.5997291322
 51
540.0
  0
CIRCLE
  5
168
100
AcDbEntity
  8
CK_LEVEL_1
  6
CONTINUOUS
 62
         7
100
AcDbCircle
 10
568.4935657019
 20
150.4398294503
 30
0.0
 40
19.05
  0
CIRCLE
  5
169
100
AcDbEntity
  8
CK_LEVEL_1
  6
CONTINUOUS
 62
         7
100
AcDbCircle
 10
568.4935657019
 20
150.4398294503
 30
0.0
 40
21.0
  0
CIRCLE
  5
16A
100
AcDbEntity
  8
CK_LEVEL_1
  6
CONTINUOUS
 62
         7
100
AcDbCircle
 10
568.4935657019
 20
150.4398294503
 30
0.0
 40
37.592
  0
DIMENSION
  5
16D
100
AcDbEntity
  8
CK_LEVEL_1
  6
CONTINUOUS
 62
         4
100
AcDbDimension
  2
*D4
 10
302.1761454849
 20
241.3687460284
 30
0.0
 11
314.3566785605
 21
243.9937460284
 31
0.0
  3
DIMSTYLE1
100
AcDbAlignedDimension
 13
302.1761454849
 23
197.1898294503
 33
0.0
 14
356.6761454849
 24
168.4898294503
 34
0.0
100
AcDbRotatedDimension
  0
TEXT
  5
17A
100
AcDbEntity
  8
CK_LEVEL_1
  6
CONTINUOUS
 62
         2
100
AcDbText
 10
553.0653434845
 20
224.6256661291
 30
0.0
 40
4.5
  1
534498
 41
0.98
  7
BOX
100
AcDbText
  0
ENDSEC
  0
SECTION
  2
OBJECTS
  0
DICTIONARY
  5
19
100
AcDbDictionary
  3
ACAD_GROUP
350
1A
  3
ACAD_MLINESTYLE
350
1B
  0
DICTIONARY
  5
1A
102
{ACAD_REACTORS
330
19
102
}
100
AcDbDictionary
  0
DICTIONARY
  5
1B
102
{ACAD_REACTORS
330
19
102
}
100
AcDbDictionary
  3
STANDARD
350
1C
  0
MLINESTYLE
  5
1C
102
{ACAD_REACTORS
330
1B
102
}
100
AcDbMlineStyle
  2
STANDARD
 70
         0
  3

 62
         0
 51
90.0
 52
90.0
 71
         2
 49
0.5
 62
       256
  6
BYLAYER
 49
-0.5
 62
       256
  6
BYLAYER
  0
ENDSEC
  0
EOF
