  0
SECTION
  2
HEADER
  9
$ACADVER
  1
AC1014
  9
$ACADMAINTVER
 70
         0
  9
$DWGCODEPAGE
  3
BIG5
  9
$INSBASE
 10
0.0
 20
0.0
 30
0.0
  9
$EXTMIN
 10
1101.0992092549
 20
-58.1090253981
 30
0.0
  9
$EXTMAX
 10
1696.7545724868
 20
242.5361690656
 30
0.0
  9
$LIMMIN
 10
0.0
 20
0.0
  9
$LIMMAX
 10
0.0
 20
0.0
  9
$ORTHOMODE
 70
         0
  9
$REGENMODE
 70
         1
  9
$FILLMODE
 70
         1
  9
$QTEXTMODE
 70
         0
  9
$MIRRTEXT
 70
         1
  9
$DRAGMODE
 70
         2
  9
$LTSCALE
 40
1.0
  9
$OSMODE
 70
         0
  9
$ATTMODE
 70
         1
  9
$TEXTSIZE
 40
1.5
  9
$TRACEWID
 40
0.05
  9
$TEXTSTYLE
  7
STANDARD
  9
$CLAYER
  8
0
  9
$CELTYPE
  6
CONTINUOUS
  9
$CECOLOR
 62
         4
  9
$CELTSCALE
 40
1.0
  9
$DELOBJ
 70
         1
  9
$DISPSILH
 70
         0
  9
$DIMSCALE
 40
1.0
  9
$DIMASZ
 40
0.18
  9
$DIMEXO
 40
0.0625
  9
$DIMDLI
 40
0.38
  9
$DIMRND
 40
0.0
  9
$DIMDLE
 40
0.0
  9
$DIMEXE
 40
0.25
  9
$DIMTP
 40
0.01
  9
$DIMTM
 40
-0.01
  9
$DIMTXT
 40
2.7
  9
$DIMCEN
 40
0.09
  9
$DIMTSZ
 40
0.0
  9
$DIMTOL
 70
         0
  9
$DIMLIM
 70
         0
  9
$DIMTIH
 70
         1
  9
$DIMTOH
 70
         1
  9
$DIMSE1
 70
         0
  9
$DIMSE2
 70
         0
  9
$DIMTAD
 70
         0
  9
$DIMZIN
 70
         0
  9
$DIMBLK
  1

  9
$DIMASO
 70
         1
  9
$DIMSHO
 70
         1
  9
$DIMPOST
  1

  9
$DIMAPOST
  1

  9
$DIMALT
 70
         0
  9
$DIMALTD
 70
         2
  9
$DIMALTF
 40
25.4
  9
$DIMLFAC
 40
1.0
  9
$DIMTOFL
 70
         0
  9
$DIMTVP
 40
0.0
  9
$DIMTIX
 70
         0
  9
$DIMSOXD
 70
         0
  9
$DIMSAH
 70
         0
  9
$DIMBLK1
  1

  9
$DIMBLK2
  1

  9
$DIMSTYLE
  2
STANDARD
  9
$DIMCLRD
 70
         0
  9
$DIMCLRE
 70
         0
  9
$DIMCLRT
 70
         4
  9
$DIMTFAC
 40
0.7
  9
$DIMGAP
 40
0.09
  9
$DIMJUST
 70
         0
  9
$DIMSD1
 70
         0
  9
$DIMSD2
 70
         0
  9
$DIMTOLJ
 70
         1
  9
$DIMTZIN
 70
         0
  9
$DIMALTZ
 70
         0
  9
$DIMALTTZ
 70
         0
  9
$DIMFIT
 70
         3
  9
$DIMUPT
 70
         0
  9
$DIMUNIT
 70
         2
  9
$DIMDEC
 70
         4
  9
$DIMTDEC
 70
         4
  9
$DIMALTU
 70
         2
  9
$DIMALTTD
 70
         2
  9
$DIMTXSTY
  7
STANDARD
  9
$DIMAUNIT
 70
         0
  9
$LUNITS
 70
         2
  9
$LUPREC
 70
        10
  9
$SKETCHINC
 40
0.1
  9
$FILLETRAD
 40
0.0
  9
$AUNITS
 70
         0
  9
$AUPREC
 70
         0
  9
$MENU
  1
acad
  9
$ELEVATION
 40
0.0
  9
$PELEVATION
 40
0.0
  9
$THICKNESS
 40
0.0
  9
$LIMCHECK
 70
         0
  9
$BLIPMODE
 70
         1
  9
$CHAMFERA
 40
0.0
  9
$CHAMFERB
 40
0.0
  9
$CHAMFERC
 40
0.0
  9
$CHAMFERD
 40
0.0
  9
$SKPOLY
 70
         0
  9
$TDCREATE
 40
0.000000000
  9
$TDUPDATE
 40
0.000000000
  9
$TDINDWG
 40
0.0000000000
  9
$TDUSRTIMER
 40
0.0000000000
  9
$USRTIMER
 70
         1
  9
$ANGBASE
 50
0.0
  9
$ANGDIR
 70
         0
  9
$PDMODE
 70
         2
  9
$PDSIZE
 40
0.0
  9
$PLINEWID
 40
0.0
  9
$COORDS
 70
         1
  9
$SPLFRAME
 70
         0
  9
$SPLINETYPE
 70
         6
  9
$SPLINESEGS
 70
         8
  9
$ATTDIA
 70
         0
  9
$ATTREQ
 70
         1
  9
$HANDLING
 70
         1
  9
$HANDSEED
  5
27A
  9
$SURFTAB1
 70
         6
  9
$SURFTAB2
 70
         6
  9
$SURFTYPE
 70
         6
  9
$SURFU
 70
         6
  9
$SURFV
 70
         6
  9
$UCSNAME
  2

  9
$UCSORG
 10
0.0
 20
0.0
 30
0.0
  9
$UCSXDIR
 10
1.0
 20
0.0
 30
0.0
  9
$UCSYDIR
 10
0.0
 20
1.0
 30
0.0
  9
$PUCSNAME
  2

  9
$PUCSORG
 10
0.0
 20
0.0
 30
0.0
  9
$PUCSXDIR
 10
1.0
 20
0.0
 30
0.0
  9
$PUCSYDIR
 10
0.0
 20
1.0
 30
0.0
  9
$USERI1
 70
         0
  9
$USERI2
 70
         0
  9
$USERI3
 70
         0
  9
$USERI4
 70
         0
  9
$USERI5
 70
         0
  9
$USERR1
 40
0.0
  9
$USERR2
 40
0.0
  9
$USERR3
 40
0.0
  9
$USERR4
 40
0.0
  9
$USERR5
 40
0.0
  9
$WORLDVIEW
 70
         1
  9
$SHADEDGE
 70
         3
  9
$SHADEDIF
 70
        70
  9
$TILEMODE
 70
         1
  9
$MAXACTVP
 70
        16
  9
$PINSBASE
 10
0.0
 20
0.0
 30
0.0
  9
$PLIMCHECK
 70
         0
  9
$PEXTMIN
 10
1.0000000000E+20
 20
1.0000000000E+20
 30
1.0000000000E+20
  9
$PEXTMAX
 10
-1.0000000000E+20
 20
-1.0000000000E+20
 30
-1.0000000000E+20
  9
$PLIMMIN
 10
0.0
 20
0.0
  9
$PLIMMAX
 10
12.0
 20
9.0
  9
$UNITMODE
 70
         0
  9
$VISRETAIN
 70
         0
  9
$PLINEGEN
 70
         1
  9
$PSLTSCALE
 70
         0
  9
$TREEDEPTH
 70
      3020
  9
$PICKSTYLE
 70
         1
  9
$CMLSTYLE
  2
STANDARD
  9
$CMLJUST
 70
         0
  9
$CMLSCALE
 40
1.0
  9
$PROXYGRAPHICS
 70
         0
  9
$MEASUREMENT
 70
         0
  0
ENDSEC
  0
SECTION
  2
CLASSES
  0
CLASS
  1
LWPOLYLINE
  2
AcDbPolyline
  3
"AutoCAD"
 90
        0
280
         0
281
         1
  0
CLASS
  1
IMAGE
  2
AcDbRasterImage
  3
ISM
 90
      127
280
         0
281
         1
  0
CLASS
  1
OLE2FRAME
  2
AcDbOle2Frame
  3
""
 90
        0
280
         0
281
         1
  0
CLASS
  1
HATCH
  2
AcDbHatch
  3
"ACAD_SEDONA"
 90
        0
280
         0
281
         1
  0
CLASS
  1
DICTIONARYVAR
  2
AcDbDictionaryVar
  3
"AutoCAD"
 90
        0
280
         0
281
         0
  0
CLASS
  1
RASTERVARIABLES
  2
AcDbRasterVariables
  3
ISM
 90
        0
280
         0
281
         0
  0
CLASS
  1
IMAGEDEF
  2
AcDbRasterImageDef
  3
ISM
 90
        0
280
         0
281
         0
  0
CLASS
  1
IMAGEDEF_REACTOR
  2
AcDbRasterImageDefReactor
  3
ISM
 90
        1
280
         0
281
         0
  0
CLASS
  1
IDBUFFER
  2
AcDbIdBuffer
  3
"Acad"
 90
        0
280
         0
281
         0
  0
CLASS
  1
SPATIAL_FILTER
  2
AcDbSpatialFilter
  3
"Acad"
 90
        0
280
         0
281
         0
  0
CLASS
  1
XRECORD
  2
AcDbXrecord
  3
"<Built In>"
 90
        0
280
         0
281
         0
  0
CLASS
  1
SORTENTSTABLE
  2
AcDbSortentsTable
  3
"AutoCAD"
 90
        0
280
         0
281
         0
  0
CLASS
  1
LAYER_INDEX
  2
AcDbLayerIndex
  3
"Acad"
 90
        0
280
         0
281
         0
  0
CLASS
  1
SPATIAL_INDEX
  2
AcDbSpatialIndex
  3
"Acad"
 90
        0
280
         0
281
         0
  0
CLASS
  1
OBJECT_PTR
  2
CAseDLPNTableRecord
  3
"ASE-LPNTableRecord"
 90
        1
280
         0
281
         0
  0
CLASS
  1
LAYOUT
  2
AcDbLayout
  3
"AutoCAD 2000"
 90
        1
280
         0
281
         0
  0
CLASS
  1
PLOTSETTINGS
  2
AcDbPlotSettings
  3
"AutoCAD 2000"
 90
        1
280
         0
281
         0
  0
CLASS
  1
ACDBDICTIONARYWDFLT
  2
AcDbDictionaryWithDefault
  3
"AutoCAD 2000"
 90
        1
280
         0
281
         0
  0
CLASS
  1
ACDBPLACEHOLDER
  2
AcDbPlaceHolder
  3
"AutoCAD 2000"
 90
        1
280
         0
281
         0
  0
CLASS
  1
VBA_PROJECT
  2
AcDbVbaProject
  3
"acadvba"
 90
        1
280
         0
281
         0
  0
CLASS
  1
WIPEOUT
  2
AcDbWipeout
  3
WipeOut|AutoCAD Express Tool|expresstools@autodesk.com
 90
      127
280
         0
281
         1
  0
CLASS
  1
WIPEOUTVARIABLES
  2
AcDbWipeoutVariables
  3
WipeOut|AutoCAD Express Tool|expresstools@autodesk.com
 90
        0
280
         0
281
         0
  0
CLASS
  1
RTEXT
  2
RText
  3
RText|AutoCAD Express Tool|expresstools@autodesk.com
 90
        0
280
         0
281
         1
  0
CLASS
  1
ARCALIGNEDTEXT
  2
AcDbArcAlignedText
  3
ATEXT|AutoCAD Express Tool|expresstools@autodesk.com
 90
        0
280
         0
281
         1
  0
ENDSEC
  0
SECTION
  2
TABLES
  0
TABLE
  2
VPORT
  5
7
100
AcDbSymbolTable
 70
         1
  0
VPORT
  5
15
100
AcDbSymbolTableRecord
100
AcDbViewportTableRecord
  2
*ACTIVE
 70
         0
 10
0.0
 20
0.0
 11
1.0
 21
1.0
 12
1398.9268908709
 22
92.2135718338
 13
0.0
 23
0.0
 14
1.0
 24
1.0
 15
0.0
 25
0.0
 16
0.0
 26
0.0
 36
1.0
 17
0.0
 27
0.0
 37
0.0
 40
300.6451944637
 41
1.9812568908
 42
50.0
 43
0.0
 44
0.0
 50
0.0
 51
0.0
 71
         0
 72
       100
 73
         1
 74
         1
 75
         0
 76
         0
 77
         0
 78
         0
  0
ENDTAB
  0
TABLE
  2
LTYPE
  5
4
100
AcDbSymbolTable
 70
         6
  0
LTYPE
  5
11
100
AcDbSymbolTableRecord
100
AcDbLinetypeTableRecord
  2
BYBLOCK
 70
        64
  3

 72
        65
 73
         0
 40
0.0
  0
LTYPE
  5
12
100
AcDbSymbolTableRecord
100
AcDbLinetypeTableRecord
  2
BYLAYER
 70
        64
  3

 72
        65
 73
         0
 40
0.0
  0
LTYPE
  5
13
100
AcDbSymbolTableRecord
100
AcDbLinetypeTableRecord
  2
CONTINUOUS
 70
        64
  3
Solid line
 72
        65
 73
         0
 40
0.0
  0
LTYPE
  5
1D
100
AcDbSymbolTableRecord
100
AcDbLinetypeTableRecord
  2
DASHED
 70
        64
  3
_ _ _ _ _ _ _ _ _ _ _ _ _ _ _ _
 72
        65
 73
         2
 40
0.2
 49
0.1
 74
         0
 49
-0.1
 74
         0
  0
LTYPE
  5
1E
100
AcDbSymbolTableRecord
100
AcDbLinetypeTableRecord
  2
CENTER
 70
        64
  3
___ _ ___ _ ___ _ ___ _ ___ _ ___ _ ___ _ ___ _
 72
        65
 73
         4
 40
0.95
 49
0.625
 74
         0
 49
-0.125
 74
         0
 49
0.075
 74
         0
 49
-0.125
 74
         0
  0
LTYPE
  5
1F
100
AcDbSymbolTableRecord
100
AcDbLinetypeTableRecord
  2
PHANTOM
 70
        64
  3
______  __  __  ______  __  __  ______  __  __  
 72
        65
 73
         6
 40
1.025
 49
0.625
 74
         0
 49
-0.125
 74
         0
 49
0.075
 74
         0
 49
-0.125
 74
         0
 49
0.075
 74
         0
 49
-0.125
 74
         0
  0
ENDTAB
  0
TABLE
  2
LAYER
  5
2
100
AcDbSymbolTable
 70
         5
  0
LAYER
  5
14
100
AcDbSymbolTableRecord
100
AcDbLayerTableRecord
  2
0
 70
         0
 62
         7
  6
CONTINUOUS
  0
LAYER
  5
21
100
AcDbSymbolTableRecord
100
AcDbLayerTableRecord
  2
_____U
 70
         1
 62
         7
  6
CONTINUOUS
  0
LAYER
  5
22
100
AcDbSymbolTableRecord
100
AcDbLayerTableRecord
  2
_Y__________
 70
         0
 62
         7
  6
CONTINUOUS
  0
LAYER
  5
23
100
AcDbSymbolTableRecord
100
AcDbLayerTableRecord
  2
L1_100
 70
         0
 62
         7
  6
CONTINUOUS
  0
LAYER
  5
140
100
AcDbSymbolTableRecord
100
AcDbLayerTableRecord
  2
DEFPOINTS
 70
         0
 62
        -7
  6
CONTINUOUS
  0
ENDTAB
  0
TABLE
  2
STYLE
  5
3
100
AcDbSymbolTable
 70
         5
  0
STYLE
  5
17
100
AcDbSymbolTableRecord
100
AcDbTextStyleTableRecord
  2
STANDARD
 70
         0
 40
0.0
 41
1.0
 50
0.0
 71
         0
 42
0.0
  3
txt
  4

  0
STYLE
  5
149
100
AcDbSymbolTableRecord
100
AcDbTextStyleTableRecord
  2
BOX
 70
         0
 40
1.0
 41
1.0
 50
0.0
 71
         0
 42
0.2
  3
txt.shx
  4

  0
STYLE
  5
157
100
AcDbSymbolTableRecord
100
AcDbTextStyleTableRecord
  2
BOX
 70
         0
 40
1.0
 41
1.0
 50
0.0
 71
         0
 42
0.2
  3
txt.shx
  4

  0
STYLE
  5
1BE
100
AcDbSymbolTableRecord
100
AcDbTextStyleTableRecord
  2
BOX
 70
         0
 40
1.0
 41
1.0
 50
0.0
 71
         0
 42
0.2
  3
txt.shx
  4

  0
STYLE
  5
278
100
AcDbSymbolTableRecord
100
AcDbTextStyleTableRecord
  2
BOX
 70
         0
 40
1.0
 41
1.0
 50
0.0
 71
         0
 42
0.2
  3
txt.shx
  4

  0
ENDTAB
  0
TABLE
  2
VIEW
  5
5
100
AcDbSymbolTable
 70
         0
  0
ENDTAB
  0
TABLE
  2
UCS
  5
6
100
AcDbSymbolTable
 70
         1
  0
UCS
  5
20
100
AcDbSymbolTableRecord
100
AcDbUCSTableRecord
  2
CK_VIEW_1
 70
         0
 10
0.0
 20
0.0
 30
1.0
 11
1.0
 21
0.0
 31
0.0
 12
0.0
 22
1.0
 32
0.0
  0
ENDTAB
  0
TABLE
  2
APPID
  5
8
100
AcDbSymbolTable
 70
         1
  0
APPID
  5
16
100
AcDbSymbolTableRecord
100
AcDbRegAppTableRecord
  2
ACAD
 70
         0
  0
ENDTAB
  0
TABLE
  2
DIMSTYLE
  5
9
100
AcDbSymbolTable
 70
         2
  0
DIMSTYLE
105
18
100
AcDbSymbolTableRecord
100
AcDbDimStyleTableRecord
  2
STANDARD
 70
         0
  3

  4

  5

  6

  7

 40
1.0
 41
0.18
 42
0.0625
 43
0.38
 44
0.18
 45
0.0
 46
0.0
 47
0.0
 48
0.0
 71
         0
 72
         0
 73
         1
 74
         1
 75
         0
 76
         0
 77
         0
 78
         0
140
0.18
141
0.09
142
0.0
143
25.4
144
1.0
145
0.0
146
1.0
147
0.09
170
         0
171
         2
172
         0
173
         0
174
         0
175
         0
176
         0
177
         0
178
         0
270
         2
271
         4
272
         4
273
         2
274
         2
275
         0
280
         0
281
         0
282
         0
283
         1
284
         0
285
         0
286
         0
287
         0
288
         0
340
17
  0
DIMSTYLE
105
13C
100
AcDbSymbolTableRecord
100
AcDbDimStyleTableRecord
  2
DIMSTYLE1
 70
         0
  3

  4

  5

  6

  7

 40
1.0
 41
2.7
 42
0.0625
 43
0.38
 44
2.7
 45
0.0
 46
0.0
 47
0.0
 48
0.0
 71
         0
 72
         0
 73
         1
 74
         1
 75
         0
 76
         0
 77
         0
 78
         0
140
2.7
141
0.09
142
0.0
143
25.4
144
1.0
145
0.0
146
1.0
147
0.09
170
         0
171
         2
172
         0
173
         0
174
         0
175
         0
176
         0
177
         0
178
         0
270
         2
271
         4
272
         4
273
         2
274
         2
275
         0
280
         0
281
         0
282
         0
283
         1
284
         0
285
         0
286
         0
287
         0
288
         0
340
17
  0
ENDTAB
  0
TABLE
  2
BLOCK_RECORD
  5
1
100
AcDbSymbolTable
 70
         4
  0
BLOCK_RECORD
  5
A
100
AcDbSymbolTableRecord
100
AcDbBlockTableRecord
  2
*MODEL_SPACE
  0
BLOCK_RECORD
  5
B
100
AcDbSymbolTableRecord
100
AcDbBlockTableRecord
  2
*PAPER_SPACE
  0
BLOCK_RECORD
  5
24
100
AcDbSymbolTableRecord
100
AcDbBlockTableRecord
  2
*X0
  0
BLOCK_RECORD
  5
13D
100
AcDbSymbolTableRecord
100
AcDbBlockTableRecord
  2
*D1
  0
BLOCK_RECORD
  5
14C
100
AcDbSymbolTableRecord
100
AcDbBlockTableRecord
  2
*D2
  0
BLOCK_RECORD
  5
1B3
100
AcDbSymbolTableRecord
100
AcDbBlockTableRecord
  2
*D3
  0
ENDTAB
  0
ENDSEC
  0
SECTION
  2
BLOCKS
  0
BLOCK
  5
D
100
AcDbEntity
  8
0
100
AcDbBlockBegin
  2
*MODEL_SPACE
 70
         0
 10
0.0
 20
0.0
 30
0.0
  3
*MODEL_SPACE
  1

  0
ENDBLK
  5
E
100
AcDbEntity
  8
0
100
AcDbBlockEnd
  0
BLOCK
  5
F
100
AcDbEntity
 67
         1
  8
0
100
AcDbBlockBegin
  2
*PAPER_SPACE
 70
         0
 10
0.0
 20
0.0
 30
0.0
  3
*PAPER_SPACE
  1

  0
ENDBLK
  5
10
100
AcDbEntity
 67
         1
  8
0
100
AcDbBlockEnd
  0
BLOCK
  5
25
100
AcDbEntity
  8
0
100
AcDbBlockBegin
  2
*X0
 70
        65
 10
0.0
 20
0.0
 30
0.0
  3
*X0
  1

  0
LINE
  5
26
100
AcDbEntity
  8
L1_100
  6
CONTINUOUS
 62
         4
100
AcDbLine
 10
1467.2186180825
 20
-31.6850695028
 30
0.0
 11
1468.4795634414
 21
-30.4241241439
 31
0.0
  0
LINE
  5
27
100
AcDbEntity
  8
L1_100
  6
CONTINUOUS
 62
         4
100
AcDbLine
 10
1461.2177121575
 20
-33.4433347407
 30
0.0
 11
1464.7177121575
 21
-29.9433347407
 31
0.0
  0
LINE
  5
28
100
AcDbEntity
  8
L1_100
  6
CONTINUOUS
 62
         4
100
AcDbLine
 10
1456.9750714704
 20
-33.4433347407
 30
0.0
 11
1460.4750714704
 21
-29.9433347407
 31
0.0
  0
LINE
  5
29
100
AcDbEntity
  8
L1_100
  6
CONTINUOUS
 62
         4
100
AcDbLine
 10
1452.7324307833
 20
-33.4433347407
 30
0.0
 11
1456.2324307833
 21
-29.9433347407
 31
0.0
  0
LINE
  5
2A
100
AcDbEntity
  8
L1_100
  6
CONTINUOUS
 62
         4
100
AcDbLine
 10
1449.4897900962
 20
-32.4433347407
 30
0.0
 11
1451.9897900962
 21
-29.9433347407
 31
0.0
  0
LINE
  5
2B
100
AcDbEntity
  8
L1_100
  6
CONTINUOUS
 62
         4
100
AcDbLine
 10
1444.247149409
 20
-33.4433347407
 30
0.0
 11
1447.247149409
 21
-30.4433347407
 31
0.0
  0
LINE
  5
2C
100
AcDbEntity
  8
L1_100
  6
CONTINUOUS
 62
         4
100
AcDbLine
 10
1440.0045087219
 20
-33.4433347407
 30
0.0
 11
1443.5033403763
 21
-29.9445030863
 31
0.0
  0
LINE
  5
2D
100
AcDbEntity
  8
L1_100
  6
CONTINUOUS
 62
         4
100
AcDbLine
 10
1435.7618680348
 20
-33.4433347407
 30
0.0
 11
1440.2618680348
 21
-28.9433347407
 31
0.0
  0
LINE
  5
2E
100
AcDbEntity
  8
L1_100
  6
CONTINUOUS
 62
         4
100
AcDbLine
 10
1431.5192273477
 20
-33.4433347407
 30
0.0
 11
1436.0192273477
 21
-28.9433347407
 31
0.0
  0
LINE
  5
2F
100
AcDbEntity
  8
L1_100
  6
CONTINUOUS
 62
         4
100
AcDbLine
 10
1427.2765866606
 20
-33.4433347407
 30
0.0
 11
1431.7765866606
 21
-28.9433347407
 31
0.0
  0
LINE
  5
30
100
AcDbEntity
  8
L1_100
  6
CONTINUOUS
 62
         4
100
AcDbLine
 10
1464.7765866606
 20
4.0566652593
 30
0.0
 11
1466.7746477904
 21
6.0547263891
 31
0.0
  0
LINE
  5
31
100
AcDbEntity
  8
L1_100
  6
CONTINUOUS
 62
         4
100
AcDbLine
 10
1423.0339459734
 20
-33.4433347407
 30
0.0
 11
1427.5339459734
 21
-28.9433347407
 31
0.0
  0
LINE
  5
32
100
AcDbEntity
  8
L1_100
  6
CONTINUOUS
 62
         4
100
AcDbLine
 10
1460.5339459734
 20
4.0566652593
 30
0.0
 11
1464.0006635039
 21
7.5233827898
 31
0.0
  0
LINE
  5
33
100
AcDbEntity
  8
L1_100
  6
CONTINUOUS
 62
         4
100
AcDbLine
 10
1418.7913052863
 20
-33.4433347407
 30
0.0
 11
1423.2913052863
 21
-28.9433347407
 31
0.0
  0
LINE
  5
34
100
AcDbEntity
  8
L1_100
  6
CONTINUOUS
 62
         4
100
AcDbLine
 10
1456.2913052863
 20
4.0566652593
 30
0.0
 11
1459.7913052863
 21
7.5566652593
 31
0.0
  0
LINE
  5
35
100
AcDbEntity
  8
L1_100
  6
CONTINUOUS
 62
         4
100
AcDbLine
 10
1412.5486645992
 20
-35.4433347407
 30
0.0
 11
1419.0486645992
 21
-28.9433347407
 31
0.0
  0
LINE
  5
36
100
AcDbEntity
  8
L1_100
  6
CONTINUOUS
 62
         4
100
AcDbLine
 10
1452.0486645992
 20
4.0566652593
 30
0.0
 11
1455.5486645992
 21
7.5566652593
 31
0.0
  0
LINE
  5
37
100
AcDbEntity
  8
L1_100
  6
CONTINUOUS
 62
         4
100
AcDbLine
 10
1408.3060239121
 20
-35.4433347407
 30
0.0
 11
1414.8060239121
 21
-28.9433347407
 31
0.0
  0
LINE
  5
38
100
AcDbEntity
  8
L1_100
  6
CONTINUOUS
 62
         4
100
AcDbLine
 10
1448.3060239121
 20
4.5566652593
 30
0.0
 11
1450.3060239121
 21
6.5566652593
 31
0.0
  0
LINE
  5
39
100
AcDbEntity
  8
L1_100
  6
CONTINUOUS
 62
         4
100
AcDbLine
 10
1450.5033403763
 20
6.7539817235
 30
0.0
 11
1451.3060239121
 21
7.5566652593
 31
0.0
  0
LINE
  5
3A
100
AcDbEntity
  8
L1_100
  6
CONTINUOUS
 62
         4
100
AcDbLine
 10
1395.063383225
 20
-44.4433347407
 30
0.0
 11
1399.1033403763
 21
-40.4033775894
 31
0.0
  0
LINE
  5
3B
100
AcDbEntity
  8
L1_100
  6
CONTINUOUS
 62
         4
100
AcDbLine
 10
1406.0033403763
 20
-33.5033775894
 30
0.0
 11
1410.563383225
 21
-28.9433347407
 31
0.0
  0
LINE
  5
3C
100
AcDbEntity
  8
L1_100
  6
CONTINUOUS
 62
         4
100
AcDbLine
 10
1444.063383225
 20
4.5566652593
 30
0.0
 11
1447.063383225
 21
7.5566652593
 31
0.0
  0
LINE
  5
3D
100
AcDbEntity
  8
L1_100
  6
CONTINUOUS
 62
         4
100
AcDbLine
 10
1390.8207425378
 20
-44.4433347407
 30
0.0
 11
1399.1641560827
 21
-36.0999211958
 31
0.0
  0
LINE
  5
3E
100
AcDbEntity
  8
L1_100
  6
CONTINUOUS
 62
         4
100
AcDbLine
 10
1399.7599268314
 20
-35.5041504472
 30
0.0
 11
1404.0033403763
 21
-31.2607369023
 31
0.0
  0
LINE
  5
3F
100
AcDbEntity
  8
L1_100
  6
CONTINUOUS
 62
         4
100
AcDbLine
 10
1389.1033403763
 20
-41.9180962151
 30
0.0
 11
1402.5033403763
 21
-28.5180962151
 31
0.0
  0
LINE
  5
40
100
AcDbEntity
  8
L1_100
  6
CONTINUOUS
 62
         4
100
AcDbLine
 10
1389.1033403763
 20
-37.675455528
 30
0.0
 11
1402.5033403763
 21
-24.275455528
 31
0.0
  0
LINE
  5
41
100
AcDbEntity
  8
L1_100
  6
CONTINUOUS
 62
         4
100
AcDbLine
 10
1387.385068381
 20
-35.1510868362
 30
0.0
 11
1402.5033403763
 21
-20.0328148409
 31
0.0
  0
LINE
  5
42
100
AcDbEntity
  8
L1_100
  6
CONTINUOUS
 62
         4
100
AcDbLine
 10
1383.6823975548
 20
-34.6111169753
 30
0.0
 11
1402.5033403763
 21
-15.7901741538
 31
0.0
  0
LINE
  5
43
100
AcDbEntity
  8
L1_100
  6
CONTINUOUS
 62
         4
100
AcDbLine
 10
1379.9797267285
 20
-34.0711471144
 30
0.0
 11
1398.6075391022
 21
-15.4433347407
 31
0.0
  0
LINE
  5
44
100
AcDbEntity
  8
L1_100
  6
CONTINUOUS
 62
         4
100
AcDbLine
 10
1417.1075391022
 20
3.0566652593
 30
0.0
 11
1419.1083403763
 21
5.0574665333
 31
0.0
  0
LINE
  5
45
100
AcDbEntity
  8
L1_100
  6
CONTINUOUS
 62
         4
100
AcDbLine
 10
1376.2770559023
 20
-33.5311772535
 30
0.0
 11
1394.3648984151
 21
-15.4433347407
 31
0.0
  0
LINE
  5
46
100
AcDbEntity
  8
L1_100
  6
CONTINUOUS
 62
         4
100
AcDbLine
 10
1399.3648984151
 20
-10.4433347407
 30
0.0
 11
1402.5033403763
 21
-7.3048927796
 31
0.0
  0
LINE
  5
47
100
AcDbEntity
  8
L1_100
  6
CONTINUOUS
 62
         4
100
AcDbLine
 10
1412.8648984151
 20
3.0566652593
 30
0.0
 11
1417.1648984151
 21
7.3566652593
 31
0.0
  0
LINE
  5
48
100
AcDbEntity
  8
L1_100
  6
CONTINUOUS
 62
         4
100
AcDbLine
 10
1372.5743850761
 20
-32.9912073926
 30
0.0
 11
1390.122257728
 21
-15.4433347407
 31
0.0
  0
LINE
  5
49
100
AcDbEntity
  8
L1_100
  6
CONTINUOUS
 62
         4
100
AcDbLine
 10
1395.122257728
 20
-10.4433347407
 30
0.0
 11
1402.5033403763
 21
-3.0622520924
 31
0.0
  0
LINE
  5
4A
100
AcDbEntity
  8
L1_100
  6
CONTINUOUS
 62
         4
100
AcDbLine
 10
1408.622257728
 20
3.0566652593
 30
0.0
 11
1415.1106144376
 21
9.5450219689
 31
0.0
  0
LINE
  5
4B
100
AcDbEntity
  8
L1_100
  6
CONTINUOUS
 62
         4
100
AcDbLine
 10
1368.8717142499
 20
-32.4512375317
 30
0.0
 11
1386.9081764558
 21
-14.4147753258
 31
0.0
  0
LINE
  5
4C
100
AcDbEntity
  8
L1_100
  6
CONTINUOUS
 62
         4
100
AcDbLine
 10
1390.8796170409
 20
-10.4433347407
 30
0.0
 11
1402.5033403763
 21
1.1803885947
 31
0.0
  0
LINE
  5
4D
100
AcDbEntity
  8
L1_100
  6
CONTINUOUS
 62
         4
100
AcDbLine
 10
1404.8796170409
 20
3.5566652593
 30
0.0
 11
1410.8796170409
 21
9.5566652593
 31
0.0
  0
LINE
  5
4E
100
AcDbEntity
  8
L1_100
  6
CONTINUOUS
 62
         4
100
AcDbLine
 10
1365.1690434237
 20
-31.9112676708
 30
0.0
 11
1406.6369763538
 21
9.5566652593
 31
0.0
  0
LINE
  5
4F
100
AcDbEntity
  8
L1_100
  6
CONTINUOUS
 62
         4
100
AcDbLine
 10
1361.4663725974
 20
-31.3712978099
 30
0.0
 11
1402.3943356667
 21
9.5566652593
 31
0.0
  0
LINE
  5
50
100
AcDbEntity
  8
L1_100
  6
CONTINUOUS
 62
         4
100
AcDbLine
 10
1357.7637017712
 20
-30.831327949
 30
0.0
 11
1399.1044567257
 21
10.5094270055
 31
0.0
  0
LINE
  5
51
100
AcDbEntity
  8
L1_100
  6
CONTINUOUS
 62
         4
100
AcDbLine
 10
1354.061030945
 20
-30.2913580881
 30
0.0
 11
1399.1033403763
 21
14.7509513432
 31
0.0
  0
LINE
  5
52
100
AcDbEntity
  8
L1_100
  6
CONTINUOUS
 62
         4
100
AcDbLine
 10
1350.3583601188
 20
-29.7513882272
 30
0.0
 11
1398.5573900012
 21
18.4476416552
 31
0.0
  0
LINE
  5
53
100
AcDbEntity
  8
L1_100
  6
CONTINUOUS
 62
         4
100
AcDbLine
 10
1346.6556892926
 20
-29.2114183663
 30
0.0
 11
1384.7467761829
 21
8.879668524
 31
0.0
  0
LINE
  5
54
100
AcDbEntity
  8
L1_100
  6
CONTINUOUS
 62
         4
100
AcDbLine
 10
1389.1033403763
 20
13.2362327174
 30
0.0
 11
1394.4237729182
 21
18.5566652593
 31
0.0
  0
LINE
  5
55
100
AcDbEntity
  8
L1_100
  6
CONTINUOUS
 62
         4
100
AcDbLine
 10
1342.9530184663
 20
-28.6714485054
 30
0.0
 11
1379.7797868688
 21
8.1553198971
 31
0.0
  0
LINE
  5
56
100
AcDbEntity
  8
L1_100
  6
CONTINUOUS
 62
         4
100
AcDbLine
 10
1389.1033403763
 20
17.4788734045
 30
0.0
 11
1390.1811322311
 21
18.5566652593
 31
0.0
  0
LINE
  5
57
100
AcDbEntity
  8
L1_100
  6
CONTINUOUS
 62
         4
100
AcDbLine
 10
1339.2503476401
 20
-28.1314786445
 30
0.0
 11
1374.8127975547
 21
7.4309712701
 31
0.0
  0
LINE
  5
58
100
AcDbEntity
  8
L1_100
  6
CONTINUOUS
 62
         4
100
AcDbLine
 10
1335.5476768139
 20
-27.5915087836
 30
0.0
 11
1369.8458082407
 21
6.7066226432
 31
0.0
  0
LINE
  5
59
100
AcDbEntity
  8
L1_100
  6
CONTINUOUS
 62
         4
100
AcDbLine
 10
1331.8450059877
 20
-27.0515389227
 30
0.0
 11
1364.8788189266
 21
5.9822740163
 31
0.0
  0
LINE
  5
5A
100
AcDbEntity
  8
L1_100
  6
CONTINUOUS
 62
         4
100
AcDbLine
 10
1328.1423351614
 20
-26.5115690618
 30
0.0
 11
1334.7930694826
 21
-19.8608347407
 31
0.0
  0
LINE
  5
5B
100
AcDbEntity
  8
L1_100
  6
CONTINUOUS
 62
         4
100
AcDbLine
 10
1337.8932037029
 20
-16.7607005204
 30
0.0
 11
1359.9118296126
 21
5.2579253893
 31
0.0
  0
LINE
  5
5C
100
AcDbEntity
  8
L1_100
  6
CONTINUOUS
 62
         4
100
AcDbLine
 10
1324.4396643352
 20
-25.9715992009
 30
0.0
 11
1330.5504287955
 21
-19.8608347407
 31
0.0
  0
LINE
  5
5D
100
AcDbEntity
  8
L1_100
  6
CONTINUOUS
 62
         4
100
AcDbLine
 10
1339.1347951341
 20
-11.2764684021
 30
0.0
 11
1354.9448402985
 21
4.5335767624
 31
0.0
  0
LINE
  5
5E
100
AcDbEntity
  8
L1_100
  6
CONTINUOUS
 62
         4
100
AcDbLine
 10
1321.2252881083
 20
-24.9433347407
 30
0.0
 11
1326.3077881083
 21
-19.8608347407
 31
0.0
  0
LINE
  5
5F
100
AcDbEntity
  8
L1_100
  6
CONTINUOUS
 62
         4
100
AcDbLine
 10
1337.5818808635
 20
-8.5867419856
 30
0.0
 11
1349.9778509844
 21
3.8092281354
 31
0.0
  0
LINE
  5
60
100
AcDbEntity
  8
L1_100
  6
CONTINUOUS
 62
         4
100
AcDbLine
 10
1316.4826474212
 20
-25.4433347407
 30
0.0
 11
1322.0651474212
 21
-19.8608347407
 31
0.0
  0
LINE
  5
61
100
AcDbEntity
  8
L1_100
  6
CONTINUOUS
 62
         4
100
AcDbLine
 10
1335.9001474212
 20
-6.0258347407
 30
0.0
 11
1345.0108616704
 21
3.0848795085
 31
0.0
  0
LINE
  5
62
100
AcDbEntity
  8
L1_100
  6
CONTINUOUS
 62
         4
100
AcDbLine
 10
1312.2400067341
 20
-25.4433347407
 30
0.0
 11
1317.8225067341
 21
-19.8608347407
 31
0.0
  0
LINE
  5
63
100
AcDbEntity
  8
L1_100
  6
CONTINUOUS
 62
         4
100
AcDbLine
 10
1331.6575067341
 20
-6.0258347407
 30
0.0
 11
1340.0438723563
 21
2.3605308815
 31
0.0
  0
LINE
  5
64
100
AcDbEntity
  8
L1_100
  6
CONTINUOUS
 62
         4
100
AcDbLine
 10
1307.997366047
 20
-25.4433347407
 30
0.0
 11
1313.579866047
 21
-19.8608347407
 31
0.0
  0
LINE
  5
65
100
AcDbEntity
  8
L1_100
  6
CONTINUOUS
 62
         4
100
AcDbLine
 10
1327.414866047
 20
-6.0258347407
 30
0.0
 11
1335.0768830423
 21
1.6361822546
 31
0.0
  0
LINE
  5
66
100
AcDbEntity
  8
L1_100
  6
CONTINUOUS
 62
         4
100
AcDbLine
 10
1303.7547253599
 20
-25.4433347407
 30
0.0
 11
1309.3372253599
 21
-19.8608347407
 31
0.0
  0
LINE
  5
67
100
AcDbEntity
  8
L1_100
  6
CONTINUOUS
 62
         4
100
AcDbLine
 10
1323.1722253599
 20
-6.0258347407
 30
0.0
 11
1330.1098937282
 21
0.9118336277
 31
0.0
  0
LINE
  5
68
100
AcDbEntity
  8
L1_100
  6
CONTINUOUS
 62
         4
100
AcDbLine
 10
1299.5120846727
 20
-25.4433347407
 30
0.0
 11
1305.0945846727
 21
-19.8608347407
 31
0.0
  0
LINE
  5
69
100
AcDbEntity
  8
L1_100
  6
CONTINUOUS
 62
         4
100
AcDbLine
 10
1318.9295846727
 20
-6.0258347407
 30
0.0
 11
1325.1429044141
 21
0.1874850007
 31
0.0
  0
LINE
  5
6A
100
AcDbEntity
  8
L1_100
  6
CONTINUOUS
 62
         4
100
AcDbLine
 10
1295.2694439856
 20
-25.4433347407
 30
0.0
 11
1299.2694439856
 21
-21.4433347407
 31
0.0
  0
LINE
  5
6B
100
AcDbEntity
  8
L1_100
  6
CONTINUOUS
 62
         4
100
AcDbLine
 10
1314.6869439856
 20
-6.0258347407
 30
0.0
 11
1319.7694439856
 21
-0.9433347407
 31
0.0
  0
LINE
  5
6C
100
AcDbEntity
  8
L1_100
  6
CONTINUOUS
 62
         4
100
AcDbLine
 10
1294.3482805987
 20
-22.1218574405
 30
0.0
 11
1294.3831788408
 21
-22.0869591984
 31
0.0
  0
LINE
  5
6D
100
AcDbEntity
  8
L1_100
  6
CONTINUOUS
 62
         4
100
AcDbLine
 10
1310.4443032985
 20
-6.0258347407
 30
0.0
 11
1316.0268032985
 21
-0.4433347407
 31
0.0
  0
LINE
  5
6E
100
AcDbEntity
  8
L1_100
  6
CONTINUOUS
 62
         4
100
AcDbLine
 10
1306.2016626114
 20
-6.0258347407
 30
0.0
 11
1311.7841626114
 21
-0.4433347407
 31
0.0
  0
LINE
  5
6F
100
AcDbEntity
  8
L1_100
  6
CONTINUOUS
 62
         4
100
AcDbLine
 10
1302.9224311503
 20
-5.0624255147
 30
0.0
 11
1307.5415219243
 21
-0.4433347407
 31
0.0
  0
LINE
  5
70
100
AcDbEntity
  8
L1_100
  6
CONTINUOUS
 62
         4
100
AcDbLine
 10
1299.2988812371
 20
-4.4433347407
 30
0.0
 11
1303.2988812371
 21
-0.4433347407
 31
0.0
  0
LINE
  5
71
100
AcDbEntity
  8
L1_100
  6
CONTINUOUS
 62
         4
100
AcDbLine
 10
1295.2179244218
 20
-4.2816508689
 30
0.0
 11
1299.05624055
 21
-0.4433347407
 31
0.0
  0
LINE
  5
72
100
AcDbEntity
  8
L1_100
  6
CONTINUOUS
 62
         4
100
AcDbLine
 10
1294.168397108
 20
-1.0885374956
 30
0.0
 11
1294.7485431312
 21
-0.5083914724
 31
0.0
  0
ENDBLK
  5
73
100
AcDbEntity
  8
0
  6
CONTINUOUS
100
AcDbBlockEnd
  0
BLOCK
  5
13E
100
AcDbEntity
  8
0
100
AcDbBlockBegin
  2
*D1
 70
        65
 10
0.0
 20
0.0
 30
0.0
  3
*D1
  1

  0
POINT
  5
141
100
AcDbEntity
  8
DEFPOINTS
  6
CONTINUOUS
 62
         0
100
AcDbPoint
 10
1468.5033403763
 20
207.2076524814
 30
0.0
  0
POINT
  5
142
100
AcDbEntity
  8
DEFPOINTS
  6
CONTINUOUS
 62
         0
100
AcDbPoint
 10
1468.5033403763
 20
150.1846417294
 30
0.0
  0
POINT
  5
143
100
AcDbEntity
  8
DEFPOINTS
  6
CONTINUOUS
 62
         0
100
AcDbPoint
 10
1387.5033403763
 20
172.4096417294
 30
0.0
  0
LINE
  5
144
100
AcDbEntity
  8
L1_100
  6
CONTINUOUS
 62
         4
100
AcDbLine
 10
1468.5033403763
 20
151.5346417294
 30
0.0
 11
1468.5033403763
 21
207.8826524814
 31
0.0
  0
LINE
  5
145
100
AcDbEntity
  8
L1_100
  6
CONTINUOUS
 62
         4
100
AcDbLine
 10
1387.5033403763
 20
173.7596417294
 30
0.0
 11
1387.5033403763
 21
207.8826524814
 31
0.0
  0
LINE
  5
146
100
AcDbEntity
  8
L1_100
  6
CONTINUOUS
 62
         4
100
AcDbLine
 10
1468.5033403763
 20
207.2076524814
 30
0.0
 11
1387.5033403763
 21
207.2076524814
 31
0.0
  0
SOLID
  5
147
100
AcDbEntity
  8
L1_100
  6
CONTINUOUS
 62
         4
100
AcDbTrace
 10
1468.5033403763
 20
207.2076524814
 30
0.0
 11
1465.8033403763
 21
206.8026524814
 31
0.0
 12
1465.8033403763
 22
207.6126524814
 32
0.0
 13
1468.5033403763
 23
207.2076524814
 33
0.0
  0
SOLID
  5
148
100
AcDbEntity
  8
L1_100
  6
CONTINUOUS
 62
         4
100
AcDbTrace
 10
1387.5033403763
 20
207.2076524814
 30
0.0
 11
1390.2033403763
 21
207.6126524814
 31
0.0
 12
1390.2033403763
 22
206.8026524814
 32
0.0
 13
1387.5033403763
 23
207.2076524814
 33
0.0
  0
TEXT
  5
14A
100
AcDbEntity
  8
L1_100
  6
CONTINUOUS
 62
         4
100
AcDbText
 10
1417.5271339151
 20
209.2326524814
 30
0.0
 40
2.7
  1
81
  7
BOX
100
AcDbText
  0
ENDBLK
  5
14B
100
AcDbEntity
  8
0
  6
CONTINUOUS
100
AcDbBlockEnd
  0
BLOCK
  5
14D
100
AcDbEntity
  8
0
100
AcDbBlockBegin
  2
*D2
 70
        65
 10
0.0
 20
0.0
 30
0.0
  3
*D2
  1

  0
POINT
  5
14F
100
AcDbEntity
  8
DEFPOINTS
  6
CONTINUOUS
 62
         0
100
AcDbPoint
 10
1294.1033403763
 20
216.8484646434
 30
0.0
  0
POINT
  5
150
100
AcDbEntity
  8
DEFPOINTS
  6
CONTINUOUS
 62
         0
100
AcDbPoint
 10
1294.1033403763
 20
161.6846417294
 30
0.0
  0
POINT
  5
151
100
AcDbEntity
  8
DEFPOINTS
  6
CONTINUOUS
 62
         0
100
AcDbPoint
 10
1468.5033403763
 20
150.1846417294
 30
0.0
  0
LINE
  5
152
100
AcDbEntity
  8
L1_100
  6
CONTINUOUS
 62
         4
100
AcDbLine
 10
1294.1033403763
 20
163.0346417294
 30
0.0
 11
1294.1033403763
 21
217.5234646434
 31
0.0
  0
LINE
  5
153
100
AcDbEntity
  8
L1_100
  6
CONTINUOUS
 62
         4
100
AcDbLine
 10
1468.5033403763
 20
151.5346417294
 30
0.0
 11
1468.5033403763
 21
217.5234646434
 31
0.0
  0
LINE
  5
154
100
AcDbEntity
  8
L1_100
  6
CONTINUOUS
 62
         4
100
AcDbLine
 10
1294.1033403763
 20
216.8484646434
 30
0.0
 11
1468.5033403763
 21
216.8484646434
 31
0.0
  0
SOLID
  5
155
100
AcDbEntity
  8
L1_100
  6
CONTINUOUS
 62
         4
100
AcDbTrace
 10
1294.1033403763
 20
216.8484646434
 30
0.0
 11
1296.8033403763
 21
217.2534646434
 31
0.0
 12
1296.8033403763
 22
216.4434646434
 32
0.0
 13
1294.1033403763
 23
216.8484646434
 33
0.0
  0
SOLID
  5
156
100
AcDbEntity
  8
L1_100
  6
CONTINUOUS
 62
         4
100
AcDbTrace
 10
1468.5033403763
 20
216.8484646434
 30
0.0
 11
1465.8033403763
 21
216.4434646434
 31
0.0
 12
1465.8033403763
 22
217.2534646434
 32
0.0
 13
1468.5033403763
 23
216.8484646434
 33
0.0
  0
TEXT
  5
158
100
AcDbEntity
  8
L1_100
  6
CONTINUOUS
 62
         4
100
AcDbText
 10
1382.9635387158
 20
218.8734646434
 30
0.0
 40
2.7
  1
174.4
  7
BOX
100
AcDbText
  0
ENDBLK
  5
159
100
AcDbEntity
  8
0
  6
CONTINUOUS
100
AcDbBlockEnd
  0
BLOCK
  5
1B4
100
AcDbEntity
  8
0
100
AcDbBlockBegin
  2
*D3
 70
        65
 10
0.0
 20
0.0
 30
0.0
  3
*D3
  1

  0
POINT
  5
1B6
100
AcDbEntity
  8
DEFPOINTS
  6
CONTINUOUS
 62
         0
100
AcDbPoint
 10
1484.332287024
 20
172.6846417294
 30
0.0
  0
POINT
  5
1B7
100
AcDbEntity
  8
DEFPOINTS
  6
CONTINUOUS
 62
         0
100
AcDbPoint
 10
1414.5033403763
 20
172.6846417294
 30
0.0
  0
POINT
  5
1B8
100
AcDbEntity
  8
DEFPOINTS
  6
CONTINUOUS
 62
         0
100
AcDbPoint
 10
1414.5033403763
 20
127.6846417294
 30
0.0
  0
LINE
  5
1B9
100
AcDbEntity
  8
L1_100
  6
CONTINUOUS
 62
         4
100
AcDbLine
 10
1415.8533403763
 20
172.6846417294
 30
0.0
 11
1485.007287024
 21
172.6846417294
 31
0.0
  0
LINE
  5
1BA
100
AcDbEntity
  8
L1_100
  6
CONTINUOUS
 62
         4
100
AcDbLine
 10
1415.8533403763
 20
127.6846417294
 30
0.0
 11
1485.007287024
 21
127.6846417294
 31
0.0
  0
LINE
  5
1BB
100
AcDbEntity
  8
L1_100
  6
CONTINUOUS
 62
         4
100
AcDbLine
 10
1484.332287024
 20
172.6846417294
 30
0.0
 11
1484.332287024
 21
127.6846417294
 31
0.0
  0
SOLID
  5
1BC
100
AcDbEntity
  8
L1_100
  6
CONTINUOUS
 62
         4
100
AcDbTrace
 10
1484.332287024
 20
172.6846417294
 30
0.0
 11
1484.737287024
 21
169.9846417294
 31
0.0
 12
1483.927287024
 22
169.9846417294
 32
0.0
 13
1484.332287024
 23
172.6846417294
 33
0.0
  0
SOLID
  5
1BD
100
AcDbEntity
  8
L1_100
  6
CONTINUOUS
 62
         4
100
AcDbTrace
 10
1484.332287024
 20
127.6846417294
 30
0.0
 11
1483.927287024
 21
130.3846417294
 31
0.0
 12
1484.737287024
 22
130.3846417294
 32
0.0
 13
1484.332287024
 23
127.6846417294
 33
0.0
  0
TEXT
  5
1BF
100
AcDbEntity
  8
L1_100
  6
CONTINUOUS
 62
         4
100
AcDbText
 10
1481.200287024
 20
144.3684490925
 30
0.0
 40
2.7
  1
崷45
 50
90.0
  7
BOX
100
AcDbText
  0
ENDBLK
  5
1C0
100
AcDbEntity
  8
0
  6
CONTINUOUS
100
AcDbBlockEnd
  0
ENDSEC
  0
SECTION
  2
ENTITIES
  0
INSERT
  5
75
100
AcDbEntity
  8
0
  6
CONTINUOUS
100
AcDbBlockReference
  2
*X0
 10
0.0
 20
0.0
 30
0.0
  0
ARC
  5
76
100
AcDbEntity
  8
L1_100
  6
CONTINUOUS
 62
         7
100
AcDbCircle
 10
1400.1033403763
 20
-36.4433347407
 30
0.0
 40
1.0
100
AcDbArc
 50
90.0
 51
180.0
  0
ARC
  5
77
100
AcDbEntity
  8
L1_100
  6
CONTINUOUS
 62
         7
100
AcDbCircle
 10
1400.1033403763
 20
10.5566652593
 30
0.0
 40
1.0
100
AcDbArc
 50
180.0
 51
270.0
  0
LINE
  5
78
100
AcDbEntity
  8
L1_100
  6
CONTINUOUS
 62
         7
100
AcDbLine
 10
1399.1033403763
 20
-36.4433347407
 30
0.0
 11
1399.1033403763
 21
-43.4433347407
 31
0.0
  0
LINE
  5
79
100
AcDbEntity
  8
L1_100
  6
CONTINUOUS
 62
         7
100
AcDbLine
 10
1399.1033403763
 20
17.5566652593
 30
0.0
 11
1399.1033403763
 21
10.5566652593
 31
0.0
  0
ARC
  5
7A
100
AcDbEntity
  8
L1_100
  6
CONTINUOUS
 62
         7
100
AcDbCircle
 10
1400.1033403763
 20
126.6846417294
 30
0.0
 40
1.0
100
AcDbArc
 50
90.0
 51
180.0
  0
ARC
  5
7B
100
AcDbEntity
  8
L1_100
  6
CONTINUOUS
 62
         7
100
AcDbCircle
 10
1400.1033403763
 20
173.6846417294
 30
0.0
 40
1.0
100
AcDbArc
 50
180.0
 51
270.0
  0
LINE
  5
7C
100
AcDbEntity
  8
L1_100
  6
DASHED
 62
         2
100
AcDbLine
 10
1616.1143616913
 20
162.80862256
 30
0.0
 11
1617.4053262881
 21
165.0446388325
 31
0.0
  0
LINE
  5
7D
100
AcDbEntity
  8
L1_100
  6
DASHED
 62
         2
100
AcDbLine
 10
1607.800517815
 20
167.60862256
 30
0.0
 11
1609.0914824118
 21
169.8446388325
 31
0.0
  0
LINE
  5
7E
100
AcDbEntity
  8
L1_100
  6
DASHED
 62
         2
100
AcDbLine
 10
1607.800517815
 20
132.7606608987
 30
0.0
 11
1609.0914824118
 21
130.5246446263
 31
0.0
  0
LINE
  5
7F
100
AcDbEntity
  8
L1_100
  6
DASHED
 62
         2
100
AcDbLine
 10
1616.1143616913
 20
137.5606608987
 30
0.0
 11
1617.4053262881
 21
135.3246446263
 31
0.0
  0
LINE
  5
80
100
AcDbEntity
  8
L1_100
  6
DASHED
 62
         2
100
AcDbLine
 10
1585.9351416225
 20
145.3846417294
 30
0.0
 11
1583.3532124288
 21
145.3846417294
 31
0.0
  0
LINE
  5
81
100
AcDbEntity
  8
L1_100
  6
DASHED
 62
         2
100
AcDbLine
 10
1585.9351416225
 20
154.9846417294
 30
0.0
 11
1583.3532124288
 21
154.9846417294
 31
0.0
  0
LINE
  5
82
100
AcDbEntity
  8
L1_100
  6
CONTINUOUS
 62
         7
100
AcDbLine
 10
1419.1083403763
 20
3.0566652593
 30
0.0
 11
1419.1083403763
 21
7.5566652593
 31
0.0
  0
LINE
  5
83
100
AcDbEntity
  8
L1_100
  6
CONTINUOUS
 62
         7
100
AcDbLine
 10
1443.7082741959
 20
4.5566652593
 30
0.0
 11
1443.7082741959
 21
7.5566652593
 31
0.0
  0
ARC
  5
84
100
AcDbEntity
  8
L1_100
  6
CONTINUOUS
 62
         7
100
AcDbCircle
 10
1423.9083403763
 20
150.1846417294
 30
0.0
 40
4.8
100
AcDbArc
 50
90.0
 51
270.0
  0
ARC
  5
85
100
AcDbEntity
  8
L1_100
  6
CONTINUOUS
 62
         7
100
AcDbCircle
 10
1438.9082741959
 20
150.1846417294
 30
0.0
 40
4.8
100
AcDbArc
 50
270.0
 51
450.0
  0
LINE
  5
86
100
AcDbEntity
  8
L1_100
  6
CONTINUOUS
 62
         7
100
AcDbLine
 10
1438.9082741959
 20
145.3846417294
 30
0.0
 11
1423.9083403763
 21
145.3846417294
 31
0.0
  0
LINE
  5
87
100
AcDbEntity
  8
L1_100
  6
CONTINUOUS
 62
         7
100
AcDbLine
 10
1438.9082741959
 20
154.9846417294
 30
0.0
 11
1423.9083403763
 21
154.9846417294
 31
0.0
  0
LINE
  5
88
100
AcDbEntity
  8
L1_100
  6
CONTINUOUS
 62
         7
100
AcDbLine
 10
1443.5033403763
 20
-25.5806430779
 30
0.0
 11
1443.5033403763
 21
4.5566652593
 31
0.0
  0
LINE
  5
89
100
AcDbEntity
  8
L1_100
  6
CONTINUOUS
 62
         4
100
AcDbLine
 10
1442.5033403763
 20
-24.6572882157
 30
0.0
 11
1442.5033403763
 21
3.0566652593
 31
0.0
  0
POLYLINE
  5
8B
100
AcDbEntity
  8
L1_100
  6
CONTINUOUS
 62
         7
100
AcDb2dPolyline
 66
         1
 10
0.0
 20
0.0
 30
0.0
 70
         2
  0
VERTEX
  5
8D
100
AcDbEntity
  8
L1_100
  6
CONTINUOUS
 62
         7
100
AcDbVertex
100
AcDb2dVertex
 10
1439.1532741959
 20
-28.555793389
 30
0.0
 70
         1
  0
VERTEX
  5
8F
100
AcDbEntity
  8
L1_100
  6
CONTINUOUS
 62
         7
100
AcDbVertex
100
AcDb2dVertex
 10
1440.1818757807
 20
-28.5142144948
 30
0.0
 70
         1
  0
VERTEX
  5
91
100
AcDbEntity
  8
L1_100
  6
CONTINUOUS
 62
         7
100
AcDbVertex
100
AcDb2dVertex
 10
1440.6334173717
 20
-28.46854881
 30
0.0
 70
         1
  0
VERTEX
  5
93
100
AcDbEntity
  8
L1_100
  6
CONTINUOUS
 62
         7
100
AcDbVertex
100
AcDb2dVertex
 10
1441.0403817474
 20
-28.4115787889
 30
0.0
 70
         1
  0
VERTEX
  5
95
100
AcDbEntity
  8
L1_100
  6
CONTINUOUS
 62
         7
100
AcDbVertex
100
AcDb2dVertex
 10
1441.4034759438
 20
-28.3467172746
 30
0.0
 70
         1
  0
VERTEX
  5
97
100
AcDbEntity
  8
L1_100
  6
CONTINUOUS
 62
         7
100
AcDbVertex
100
AcDb2dVertex
 10
1441.7248356266
 20
-28.2768329894
 30
0.0
 70
         1
  0
VERTEX
  5
99
100
AcDbEntity
  8
L1_100
  6
CONTINUOUS
 62
         7
100
AcDbVertex
100
AcDb2dVertex
 10
1442.0074782947
 20
-28.2042493303
 30
0.0
 70
         1
  0
VERTEX
  5
9B
100
AcDbEntity
  8
L1_100
  6
CONTINUOUS
 62
         7
100
AcDbVertex
100
AcDb2dVertex
 10
1442.3330704075
 20
-28.105380338
 30
0.0
 70
         1
  0
VERTEX
  5
9D
100
AcDbEntity
  8
L1_100
  6
CONTINUOUS
 62
         7
100
AcDbVertex
100
AcDb2dVertex
 10
1442.6035582159
 20
-28.008088282
 30
0.0
 70
         1
  0
VERTEX
  5
9F
100
AcDbEntity
  8
L1_100
  6
CONTINUOUS
 62
         7
100
AcDbVertex
100
AcDb2dVertex
 10
1442.8273796738
 20
-27.9144702006
 30
0.0
 70
         1
  0
VERTEX
  5
A1
100
AcDbEntity
  8
L1_100
  6
CONTINUOUS
 62
         7
100
AcDbVertex
100
AcDb2dVertex
 10
1443.0121680588
 20
-27.825786137
 30
0.0
 70
         1
  0
VERTEX
  5
A3
100
AcDbEntity
  8
L1_100
  6
CONTINUOUS
 62
         7
100
AcDbVertex
100
AcDb2dVertex
 10
1443.2115368066
 20
-27.7148859904
 30
0.0
 70
         1
  0
VERTEX
  5
A5
100
AcDbEntity
  8
L1_100
  6
CONTINUOUS
 62
         7
100
AcDbVertex
100
AcDb2dVertex
 10
1443.3652222817
 20
-27.6146892033
 30
0.0
 70
         1
  0
VERTEX
  5
A7
100
AcDbEntity
  8
L1_100
  6
CONTINUOUS
 62
         7
100
AcDbVertex
100
AcDb2dVertex
 10
1443.5194727235
 20
-27.4952086406
 30
0.0
 70
         1
  0
VERTEX
  5
A9
100
AcDbEntity
  8
L1_100
  6
CONTINUOUS
 62
         7
100
AcDbVertex
100
AcDb2dVertex
 10
1443.62848735
 20
-27.3932216393
 30
0.0
 70
         1
  0
VERTEX
  5
AB
100
AcDbEntity
  8
L1_100
  6
CONTINUOUS
 62
         7
100
AcDbVertex
100
AcDb2dVertex
 10
1443.7284835226
 20
-27.2780585908
 30
0.0
 70
         1
  0
VERTEX
  5
AD
100
AcDbEntity
  8
L1_100
  6
CONTINUOUS
 62
         7
100
AcDbVertex
100
AcDb2dVertex
 10
1443.8094033716
 20
-27.155980512
 30
0.0
 70
         1
  0
VERTEX
  5
AF
100
AcDbEntity
  8
L1_100
  6
CONTINUOUS
 62
         7
100
AcDbVertex
100
AcDb2dVertex
 10
1443.8646742951
 20
-27.0369998626
 30
0.0
 70
         1
  0
VERTEX
  5
B1
100
AcDbEntity
  8
L1_100
  6
CONTINUOUS
 62
         7
100
AcDbVertex
100
AcDb2dVertex
 10
1443.9005020396
 20
-26.9001034487
 30
0.0
 70
         1
  0
VERTEX
  5
B3
100
AcDbEntity
  8
L1_100
  6
CONTINUOUS
 62
         7
100
AcDbVertex
100
AcDb2dVertex
 10
1443.9082741959
 20
-26.7997412012
 30
0.0
 70
         1
  0
SEQEND
  5
B5
100
AcDbEntity
  8
L1_100
  6
CONTINUOUS
 62
         7
  0
POLYLINE
  5
B7
100
AcDbEntity
  8
L1_100
  6
CONTINUOUS
 62
         7
100
AcDb2dPolyline
 66
         1
 10
0.0
 20
0.0
 30
0.0
 70
         2
  0
VERTEX
  5
B9
100
AcDbEntity
  8
L1_100
  6
CONTINUOUS
 62
         7
100
AcDbVertex
100
AcDb2dVertex
 10
1443.9082741959
 20
-26.7997412012
 30
0.0
 70
         1
  0
VERTEX
  5
BB
100
AcDbEntity
  8
L1_100
  6
CONTINUOUS
 62
         7
100
AcDbVertex
100
AcDb2dVertex
 10
1443.8436953644
 20
-26.303879188
 30
0.0
 70
         1
  0
VERTEX
  5
BD
100
AcDbEntity
  8
L1_100
  6
CONTINUOUS
 62
         7
100
AcDbVertex
100
AcDb2dVertex
 10
1443.7700860658
 20
-26.0772172717
 30
0.0
 70
         1
  0
VERTEX
  5
BF
100
AcDbEntity
  8
L1_100
  6
CONTINUOUS
 62
         7
100
AcDbVertex
100
AcDb2dVertex
 10
1443.6751135935
 20
-25.8659867446
 30
0.0
 70
         1
  0
VERTEX
  5
C1
100
AcDbEntity
  8
L1_100
  6
CONTINUOUS
 62
         7
100
AcDbVertex
100
AcDb2dVertex
 10
1443.5630799965
 20
-25.6704694554
 30
0.0
 70
         1
  0
VERTEX
  5
C3
100
AcDbEntity
  8
L1_100
  6
CONTINUOUS
 62
         7
100
AcDbVertex
100
AcDb2dVertex
 10
1443.3925348213
 20
-25.4323179417
 30
0.0
 70
         1
  0
VERTEX
  5
C5
100
AcDbEntity
  8
L1_100
  6
CONTINUOUS
 62
         7
100
AcDbVertex
100
AcDb2dVertex
 10
1443.2063846546
 20
-25.2211094049
 30
0.0
 70
         1
  0
VERTEX
  5
C7
100
AcDbEntity
  8
L1_100
  6
CONTINUOUS
 62
         7
100
AcDbVertex
100
AcDb2dVertex
 10
1443.0113227132
 20
-25.0350528979
 30
0.0
 70
         1
  0
VERTEX
  5
C9
100
AcDbEntity
  8
L1_100
  6
CONTINUOUS
 62
         7
100
AcDbVertex
100
AcDb2dVertex
 10
1442.743696699
 20
-24.8204329025
 30
0.0
 70
         1
  0
VERTEX
  5
CB
100
AcDbEntity
  8
L1_100
  6
CONTINUOUS
 62
         7
100
AcDbVertex
100
AcDb2dVertex
 10
1442.4788192027
 20
-24.641943858
 30
0.0
 70
         1
  0
VERTEX
  5
CD
100
AcDbEntity
  8
L1_100
  6
CONTINUOUS
 62
         7
100
AcDbVertex
100
AcDb2dVertex
 10
1442.1358978364
 20
-24.4485558922
 30
0.0
 70
         1
  0
VERTEX
  5
CF
100
AcDbEntity
  8
L1_100
  6
CONTINUOUS
 62
         7
100
AcDbVertex
100
AcDb2dVertex
 10
1441.8178235669
 20
-24.2993163516
 30
0.0
 70
         1
  0
VERTEX
  5
D1
100
AcDbEntity
  8
L1_100
  6
CONTINUOUS
 62
         7
100
AcDbVertex
100
AcDb2dVertex
 10
1441.4314641061
 20
-24.1498526392
 30
0.0
 70
         1
  0
VERTEX
  5
D3
100
AcDbEntity
  8
L1_100
  6
CONTINUOUS
 62
         7
100
AcDbVertex
100
AcDb2dVertex
 10
1441.0977358477
 20
-24.0447526734
 30
0.0
 70
         1
  0
VERTEX
  5
D5
100
AcDbEntity
  8
L1_100
  6
CONTINUOUS
 62
         7
100
AcDbVertex
100
AcDb2dVertex
 10
1440.7185870831
 20
-23.9490615515
 30
0.0
 70
         1
  0
VERTEX
  5
D7
100
AcDbEntity
  8
L1_100
  6
CONTINUOUS
 62
         7
100
AcDbVertex
100
AcDb2dVertex
 10
1440.3159979368
 20
-23.872440803
 30
0.0
 70
         1
  0
VERTEX
  5
D9
100
AcDbEntity
  8
L1_100
  6
CONTINUOUS
 62
         7
100
AcDbVertex
100
AcDb2dVertex
 10
1439.9247064987
 20
-23.8207884671
 30
0.0
 70
         1
  0
VERTEX
  5
DB
100
AcDbEntity
  8
L1_100
  6
CONTINUOUS
 62
         7
100
AcDbVertex
100
AcDb2dVertex
 10
1439.5863788912
 20
-23.7933425279
 30
0.0
 70
         1
  0
VERTEX
  5
DD
100
AcDbEntity
  8
L1_100
  6
CONTINUOUS
 62
         7
100
AcDbVertex
100
AcDb2dVertex
 10
1439.2581722611
 20
-23.781528093
 30
0.0
 70
         1
  0
VERTEX
  5
DF
100
AcDbEntity
  8
L1_100
  6
CONTINUOUS
 62
         7
100
AcDbVertex
100
AcDb2dVertex
 10
1439.1532741959
 20
-23.780793389
 30
0.0
 70
         1
  0
SEQEND
  5
E1
100
AcDbEntity
  8
L1_100
  6
CONTINUOUS
 62
         7
  0
LINE
  5
E2
100
AcDbEntity
  8
L1_100
  6
CONTINUOUS
 62
         7
100
AcDbLine
 10
1439.1532741959
 20
-23.780793389
 30
0.0
 11
1423.6633403763
 21
-23.7807932717
 31
0.0
  0
LINE
  5
E3
100
AcDbEntity
  8
L1_100
  6
CONTINUOUS
 62
         7
100
AcDbLine
 10
1439.1532780192
 20
-28.555793389
 30
0.0
 11
1423.6633403632
 21
-28.5557932717
 31
0.0
  0
POLYLINE
  5
E5
100
AcDbEntity
  8
L1_100
  6
CONTINUOUS
 62
         7
100
AcDb2dPolyline
 66
         1
 10
0.0
 20
0.0
 30
0.0
 70
         2
  0
VERTEX
  5
E7
100
AcDbEntity
  8
L1_100
  6
CONTINUOUS
 62
         7
100
AcDbVertex
100
AcDb2dVertex
 10
1418.9083403763
 20
-26.7997410839
 30
0.0
 70
         1
  0
VERTEX
  5
E9
100
AcDbEntity
  8
L1_100
  6
CONTINUOUS
 62
         7
100
AcDbVertex
100
AcDb2dVertex
 10
1418.9656955029
 20
-27.0716664298
 30
0.0
 70
         1
  0
VERTEX
  5
EB
100
AcDbEntity
  8
L1_100
  6
CONTINUOUS
 62
         7
100
AcDbVertex
100
AcDb2dVertex
 10
1419.0357868256
 20
-27.2035829066
 30
0.0
 70
         1
  0
VERTEX
  5
ED
100
AcDbEntity
  8
L1_100
  6
CONTINUOUS
 62
         7
100
AcDbVertex
100
AcDb2dVertex
 10
1419.1310372714
 20
-27.330856354
 30
0.0
 70
         1
  0
VERTEX
  5
EF
100
AcDbEntity
  8
L1_100
  6
CONTINUOUS
 62
         7
100
AcDbVertex
100
AcDb2dVertex
 10
1419.2488111988
 20
-27.4522709073
 30
0.0
 70
         1
  0
VERTEX
  5
F1
100
AcDbEntity
  8
L1_100
  6
CONTINUOUS
 62
         7
100
AcDbVertex
100
AcDb2dVertex
 10
1419.3860308305
 20
-27.566854512
 30
0.0
 70
         1
  0
VERTEX
  5
F3
100
AcDbEntity
  8
L1_100
  6
CONTINUOUS
 62
         7
100
AcDbVertex
100
AcDb2dVertex
 10
1419.5393565047
 20
-27.6738967172
 30
0.0
 70
         1
  0
VERTEX
  5
F5
100
AcDbEntity
  8
L1_100
  6
CONTINUOUS
 62
         7
100
AcDbVertex
100
AcDb2dVertex
 10
1419.7053607744
 20
-27.7729475013
 30
0.0
 70
         1
  0
VERTEX
  5
F7
100
AcDbEntity
  8
L1_100
  6
CONTINUOUS
 62
         7
100
AcDbVertex
100
AcDb2dVertex
 10
1419.8806822679
 20
-27.8638002456
 30
0.0
 70
         1
  0
VERTEX
  5
F9
100
AcDbEntity
  8
L1_100
  6
CONTINUOUS
 62
         7
100
AcDbVertex
100
AcDb2dVertex
 10
1420.1268416869
 20
-27.9736013858
 30
0.0
 70
         1
  0
VERTEX
  5
FB
100
AcDbEntity
  8
L1_100
  6
CONTINUOUS
 62
         7
100
AcDbVertex
100
AcDb2dVertex
 10
1420.3772832493
 20
-28.0689874369
 30
0.0
 70
         1
  0
VERTEX
  5
FD
100
AcDbEntity
  8
L1_100
  6
CONTINUOUS
 62
         7
100
AcDbVertex
100
AcDb2dVertex
 10
1420.6261894914
 20
-28.1509051343
 30
0.0
 70
         1
  0
VERTEX
  5
FF
100
AcDbEntity
  8
L1_100
  6
CONTINUOUS
 62
         7
100
AcDbVertex
100
AcDb2dVertex
 10
1420.9537735911
 20
-28.242792659
 30
0.0
 70
         1
  0
VERTEX
  5
101
100
AcDbEntity
  8
L1_100
  6
CONTINUOUS
 62
         7
100
AcDbVertex
100
AcDb2dVertex
 10
1421.2621399662
 20
-28.315439811
 30
0.0
 70
         1
  0
VERTEX
  5
103
100
AcDbEntity
  8
L1_100
  6
CONTINUOUS
 62
         7
100
AcDbVertex
100
AcDb2dVertex
 10
1421.6447036819
 20
-28.3896956925
 30
0.0
 70
         1
  0
VERTEX
  5
105
100
AcDbEntity
  8
L1_100
  6
CONTINUOUS
 62
         7
100
AcDbVertex
100
AcDb2dVertex
 10
1422.0926638464
 20
-28.457223677
 30
0.0
 70
         1
  0
VERTEX
  5
107
100
AcDbEntity
  8
L1_100
  6
CONTINUOUS
 62
         7
100
AcDbVertex
100
AcDb2dVertex
 10
1422.5733395777
 20
-28.5090325596
 30
0.0
 70
         1
  0
VERTEX
  5
109
100
AcDbEntity
  8
L1_100
  6
CONTINUOUS
 62
         7
100
AcDbVertex
100
AcDb2dVertex
 10
1423.1812752366
 20
-28.5467455739
 30
0.0
 70
         1
  0
VERTEX
  5
10B
100
AcDbEntity
  8
L1_100
  6
CONTINUOUS
 62
         7
100
AcDbVertex
100
AcDb2dVertex
 10
1423.6633403762
 20
-28.5557932717
 30
0.0
 70
         1
  0
SEQEND
  5
10D
100
AcDbEntity
  8
L1_100
  6
CONTINUOUS
 62
         7
  0
POLYLINE
  5
10F
100
AcDbEntity
  8
L1_100
  6
CONTINUOUS
 62
         7
100
AcDb2dPolyline
 66
         1
 10
0.0
 20
0.0
 30
0.0
 70
         2
  0
VERTEX
  5
111
100
AcDbEntity
  8
L1_100
  6
CONTINUOUS
 62
         7
100
AcDbVertex
100
AcDb2dVertex
 10
1423.6633403763
 20
-23.7807932717
 30
0.0
 70
         1
  0
VERTEX
  5
113
100
AcDbEntity
  8
L1_100
  6
CONTINUOUS
 62
         7
100
AcDbVertex
100
AcDb2dVertex
 10
1422.9270268265
 20
-23.8172080212
 30
0.0
 70
         1
  0
VERTEX
  5
115
100
AcDbEntity
  8
L1_100
  6
CONTINUOUS
 62
         7
100
AcDbVertex
100
AcDb2dVertex
 10
1422.5698262537
 20
-23.8617089771
 30
0.0
 70
         1
  0
VERTEX
  5
117
100
AcDbEntity
  8
L1_100
  6
CONTINUOUS
 62
         7
100
AcDbVertex
100
AcDb2dVertex
 10
1422.2251979753
 20
-23.9221834513
 30
0.0
 70
         1
  0
VERTEX
  5
119
100
AcDbEntity
  8
L1_100
  6
CONTINUOUS
 62
         7
100
AcDbVertex
100
AcDb2dVertex
 10
1421.8964342832
 20
-23.996958076
 30
0.0
 70
         1
  0
VERTEX
  5
11B
100
AcDbEntity
  8
L1_100
  6
CONTINUOUS
 62
         7
100
AcDbVertex
100
AcDb2dVertex
 10
1421.4818920548
 20
-24.1172387495
 30
0.0
 70
         1
  0
VERTEX
  5
11D
100
AcDbEntity
  8
L1_100
  6
CONTINUOUS
 62
         7
100
AcDbVertex
100
AcDb2dVertex
 10
1421.1054854529
 20
-24.2547988428
 30
0.0
 70
         1
  0
VERTEX
  5
11F
100
AcDbEntity
  8
L1_100
  6
CONTINUOUS
 62
         7
100
AcDbVertex
100
AcDb2dVertex
 10
1420.7693614076
 20
-24.4043167433
 30
0.0
 70
         1
  0
VERTEX
  5
121
100
AcDbEntity
  8
L1_100
  6
CONTINUOUS
 62
         7
100
AcDbVertex
100
AcDb2dVertex
 10
1420.4736517259
 20
-24.5607936753
 30
0.0
 70
         1
  0
VERTEX
  5
123
100
AcDbEntity
  8
L1_100
  6
CONTINUOUS
 62
         7
100
AcDbVertex
100
AcDb2dVertex
 10
1420.2168909215
 20
-24.7198258204
 30
0.0
 70
         1
  0
VERTEX
  5
125
100
AcDbEntity
  8
L1_100
  6
CONTINUOUS
 62
         7
100
AcDbVertex
100
AcDb2dVertex
 10
1419.9257447951
 20
-24.9334812217
 30
0.0
 70
         1
  0
VERTEX
  5
127
100
AcDbEntity
  8
L1_100
  6
CONTINUOUS
 62
         7
100
AcDbVertex
100
AcDb2dVertex
 10
1419.6931782752
 20
-25.138311958
 30
0.0
 70
         1
  0
VERTEX
  5
129
100
AcDbEntity
  8
L1_100
  6
CONTINUOUS
 62
         7
100
AcDbVertex
100
AcDb2dVertex
 10
1419.510007375
 20
-25.3298627061
 30
0.0
 70
         1
  0
VERTEX
  5
12B
100
AcDbEntity
  8
L1_100
  6
CONTINUOUS
 62
         7
100
AcDbVertex
100
AcDb2dVertex
 10
1419.3234141246
 20
-25.5661611148
 30
0.0
 70
         1
  0
VERTEX
  5
12D
100
AcDbEntity
  8
L1_100
  6
CONTINUOUS
 62
         7
100
AcDbVertex
100
AcDb2dVertex
 10
1419.1928404172
 20
-25.7711536684
 30
0.0
 70
         1
  0
VERTEX
  5
12F
100
AcDbEntity
  8
L1_100
  6
CONTINUOUS
 62
         7
100
AcDbVertex
100
AcDb2dVertex
 10
1419.0759324227
 20
-26.0053009057
 30
0.0
 70
         1
  0
VERTEX
  5
131
100
AcDbEntity
  8
L1_100
  6
CONTINUOUS
 62
         7
100
AcDbVertex
100
AcDb2dVertex
 10
1418.9873983751
 20
-26.2515202576
 30
0.0
 70
         1
  0
VERTEX
  5
133
100
AcDbEntity
  8
L1_100
  6
CONTINUOUS
 62
         7
100
AcDbVertex
100
AcDb2dVertex
 10
1418.9349108724
 20
-26.4810370018
 30
0.0
 70
         1
  0
VERTEX
  5
135
100
AcDbEntity
  8
L1_100
  6
CONTINUOUS
 62
         7
100
AcDbVertex
100
AcDb2dVertex
 10
1418.9100053935
 20
-26.7198558174
 30
0.0
 70
         1
  0
VERTEX
  5
137
100
AcDbEntity
  8
L1_100
  6
CONTINUOUS
 62
         7
100
AcDbVertex
100
AcDb2dVertex
 10
1418.9083403763
 20
-26.7997410839
 30
0.0
 70
         1
  0
SEQEND
  5
139
100
AcDbEntity
  8
L1_100
  6
CONTINUOUS
 62
         7
  0
LINE
  5
13A
100
AcDbEntity
  8
L1_100
  6
CONTINUOUS
 62
         7
100
AcDbLine
 10
1387.5020155108
 20
-15.4433347407
 30
0.0
 11
1387.5020155108
 21
-10.4433347407
 31
0.0
  0
LINE
  5
13B
100
AcDbEntity
  8
L1_100
  6
CONTINUOUS
 62
         4
100
AcDbLine
 10
1464.1732133573
 20
129.7577756414
 30
0.0
 11
1464.1732133573
 21
170.6115078174
 31
0.0
  0
DIMENSION
  5
13F
100
AcDbEntity
  8
L1_100
  6
CONTINUOUS
 62
         4
100
AcDbDimension
  2
*D1
 10
1468.5033403763
 20
207.2076524814
 30
0.0
 11
1417.5271339151
 21
209.2326524814
 31
0.0
  3
DIMSTYLE1
100
AcDbAlignedDimension
 13
1468.5033403763
 23
150.1846417294
 33
0.0
 14
1387.5033403763
 24
172.4096417294
 34
0.0
100
AcDbRotatedDimension
  0
DIMENSION
  5
14E
100
AcDbEntity
  8
L1_100
  6
CONTINUOUS
 62
         4
100
AcDbDimension
  2
*D2
 10
1294.1033403763
 20
216.8484646434
 30
0.0
 11
1382.9635387158
 21
218.8734646434
 31
0.0
  3
DIMSTYLE1
100
AcDbAlignedDimension
 13
1294.1033403763
 23
161.6846417294
 33
0.0
 14
1468.5033403763
 24
150.1846417294
 34
0.0
100
AcDbRotatedDimension
  0
LINE
  5
15A
100
AcDbEntity
  8
L1_100
  6
CONTINUOUS
 62
         7
100
AcDbLine
 10
1294.1033403763
 20
161.6846417294
 30
0.0
 11
1294.1033403763
 21
138.6846417294
 31
0.0
  0
LINE
  5
15B
100
AcDbEntity
  8
L1_100
  6
CONTINUOUS
 62
         7
100
AcDbLine
 10
1387.5033403763
 20
127.9596417294
 30
0.0
 11
1387.5033403763
 21
172.4096417294
 31
0.0
  0
LINE
  5
15C
100
AcDbEntity
  8
L1_100
  6
CONTINUOUS
 62
         7
100
AcDbLine
 10
1389.1033403763
 20
119.6846417294
 30
0.0
 11
1389.1033403763
 21
180.6846417294
 31
0.0
  0
LINE
  5
15D
100
AcDbEntity
  8
L1_100
  6
CENTER
 62
         1
100
AcDbLine
 10
1603.2833403763
 20
127.6846417294
 30
0.0
 11
1603.2833403763
 21
172.6846417294
 31
0.0
  0
LINE
  5
15E
100
AcDbEntity
  8
L1_100
  6
CENTER
 62
         1
100
AcDbLine
 10
1625.7833403763
 20
150.1846417294
 30
0.0
 11
1580.7833403763
 21
150.1846417294
 31
0.0
  0
CIRCLE
  5
15F
100
AcDbEntity
  8
L1_100
  6
CONTINUOUS
 62
         7
100
AcDbCircle
 10
1603.2833403763
 20
150.1846417294
 30
0.0
 40
18.0
  0
CIRCLE
  5
160
100
AcDbEntity
  8
L1_100
  6
CONTINUOUS
 62
         7
100
AcDbCircle
 10
1603.2833403763
 20
150.1846417294
 30
0.0
 40
22.5
  0
CIRCLE
  5
161
100
AcDbEntity
  8
L1_100
  6
CONTINUOUS
 62
         7
100
AcDbCircle
 10
1603.2833403763
 20
150.1846417294
 30
0.0
 40
20.5
  0
LINE
  5
162
100
AcDbEntity
  8
L1_100
  6
CENTER
 62
         1
100
AcDbLine
 10
1468.5033403763
 20
-12.9433347407
 30
0.0
 11
1399.1033403763
 21
-12.9433347407
 31
0.0
  0
LINE
  5
163
100
AcDbEntity
  8
L1_100
  6
CONTINUOUS
 62
         7
100
AcDbLine
 10
1450.5033403763
 20
-33.3433347407
 30
0.0
 11
1450.6033403763
 21
-33.4433347407
 31
0.0
  0
LINE
  5
164
100
AcDbEntity
  8
L1_100
  6
CONTINUOUS
 62
         7
100
AcDbLine
 10
1463.6373149725
 20
-33.4433347407
 30
0.0
 11
1450.6033403763
 21
-33.4433347407
 31
0.0
  0
LINE
  5
165
100
AcDbEntity
  8
L1_100
  6
CONTINUOUS
 62
         7
100
AcDbLine
 10
1450.5033403763
 20
-32.4433347407
 30
0.0
 11
1450.5033403763
 21
-33.3433347407
 31
0.0
  0
LINE
  5
166
100
AcDbEntity
  8
L1_100
  6
CONTINUOUS
 62
         7
100
AcDbLine
 10
1448.5033403763
 20
-33.3433347407
 30
0.0
 11
1448.4033403763
 21
-33.4433347407
 31
0.0
  0
LINE
  5
167
100
AcDbEntity
  8
L1_100
  6
CONTINUOUS
 62
         7
100
AcDbLine
 10
1448.4033403763
 20
-33.4433347407
 30
0.0
 11
1418.0033403763
 21
-33.4433347407
 31
0.0
  0
LINE
  5
168
100
AcDbEntity
  8
L1_100
  6
CONTINUOUS
 62
         7
100
AcDbLine
 10
1448.5033403763
 20
-32.4433347407
 30
0.0
 11
1448.5033403763
 21
-33.3433347407
 31
0.0
  0
LINE
  5
169
100
AcDbEntity
  8
L1_100
  6
CONTINUOUS
 62
         7
100
AcDbLine
 10
1450.5033403763
 20
7.4566652593
 30
0.0
 11
1450.6033403763
 21
7.5566652593
 31
0.0
  0
LINE
  5
16A
100
AcDbEntity
  8
L1_100
  6
CONTINUOUS
 62
         7
100
AcDbLine
 10
1463.6373149725
 20
7.5566652593
 30
0.0
 11
1450.6033403763
 21
7.5566652593
 31
0.0
  0
LINE
  5
16B
100
AcDbEntity
  8
L1_100
  6
CONTINUOUS
 62
         7
100
AcDbLine
 10
1450.5033403763
 20
6.5566652593
 30
0.0
 11
1450.5033403763
 21
7.4566652593
 31
0.0
  0
LINE
  5
16C
100
AcDbEntity
  8
L1_100
  6
CONTINUOUS
 62
         7
100
AcDbLine
 10
1448.4033403763
 20
7.5566652593
 30
0.0
 11
1448.5033403763
 21
7.4566652593
 31
0.0
  0
LINE
  5
16D
100
AcDbEntity
  8
L1_100
  6
CONTINUOUS
 62
         7
100
AcDbLine
 10
1448.5033403763
 20
6.5566652593
 30
0.0
 11
1448.5033403763
 21
7.4566652593
 31
0.0
  0
LINE
  5
16E
100
AcDbEntity
  8
L1_100
  6
CONTINUOUS
 62
         7
100
AcDbLine
 10
1448.4033403763
 20
7.5566652593
 30
0.0
 11
1418.0033403763
 21
7.5566652593
 31
0.0
  0
LINE
  5
16F
100
AcDbEntity
  8
L1_100
  6
CONTINUOUS
 62
         4
100
AcDbLine
 10
1442.5033403763
 20
-28.9433347407
 30
0.0
 11
1442.5033403763
 21
-28.0459566002
 31
0.0
  0
ARC
  5
170
100
AcDbEntity
  8
L1_100
  6
CONTINUOUS
 62
         7
100
AcDbCircle
 10
1442.5033403763
 20
4.0566652593
 30
0.0
 40
1.0
100
AcDbArc
 50
270.0
 51
360.0
  0
ARC
  5
171
100
AcDbEntity
  8
L1_100
  6
CONTINUOUS
 62
         7
100
AcDbCircle
 10
1442.5033403763
 20
-29.9433347407
 30
0.0
 40
1.0
100
AcDbArc
 50
0.0
 51
90.0
  0
ARC
  5
172
100
AcDbEntity
  8
L1_100
  6
CONTINUOUS
 62
         7
100
AcDbCircle
 10
1468.0033403763
 20
-30.6546596061
 30
0.0
 40
0.5
100
AcDbArc
 50
300.0
 51
360.0
  0
ARC
  5
173
100
AcDbEntity
  8
L1_100
  6
CONTINUOUS
 62
         7
100
AcDbCircle
 10
1468.0033403763
 20
4.7679901247
 30
0.0
 40
0.5
100
AcDbArc
 50
0.0
 51
60.0
  0
LINE
  5
174
100
AcDbEntity
  8
L1_100
  6
CENTER
 62
         1
100
AcDbLine
 10
1423.9083403763
 20
-0.354140038
 30
0.0
 11
1423.9083403763
 21
12.7589287345
 31
0.0
  0
LINE
  5
175
100
AcDbEntity
  8
L1_100
  6
CENTER
 62
         1
100
AcDbLine
 10
1438.9082741959
 20
-0.354140038
 30
0.0
 11
1438.9082741959
 21
12.7589287345
 31
0.0
  0
ARC
  5
176
100
AcDbEntity
  8
L1_100
  6
CONTINUOUS
 62
         7
100
AcDbCircle
 10
1415.0033403763
 20
-34.9433347407
 30
0.0
 40
0.5
100
AcDbArc
 50
270.0
 51
360.0
  0
ARC
  5
177
100
AcDbEntity
  8
L1_100
  6
CONTINUOUS
 62
         7
100
AcDbCircle
 10
1415.0033403763
 20
9.0566652593
 30
0.0
 40
0.5
100
AcDbArc
 50
0.0
 51
90.0
  0
LINE
  5
178
100
AcDbEntity
  8
L1_100
  6
CONTINUOUS
 62
         7
100
AcDbLine
 10
1387.5020155108
 20
-10.4433347407
 30
0.0
 11
1386.0586398379
 21
-12.9433347407
 31
0.0
  0
LINE
  5
179
100
AcDbEntity
  8
L1_100
  6
CONTINUOUS
 62
         7
100
AcDbLine
 10
1387.5020155108
 20
-15.4433347407
 30
0.0
 11
1386.0586398379
 21
-12.9433347407
 31
0.0
  0
LINE
  5
17A
100
AcDbEntity
  8
L1_100
  6
CONTINUOUS
 62
         7
100
AcDbLine
 10
1467.8033403763
 20
4.0566652593
 30
0.0
 11
1448.5033403763
 21
4.0566652593
 31
0.0
  0
LINE
  5
17B
100
AcDbEntity
  8
L1_100
  6
CONTINUOUS
 62
         7
100
AcDbLine
 10
1467.8033403763
 20
-29.9433347407
 30
0.0
 11
1448.5033403763
 21
-29.9433347407
 31
0.0
  0
LINE
  5
17C
100
AcDbEntity
  8
L1_100
  6
CONTINUOUS
 62
         7
100
AcDbLine
 10
1468.5033403763
 20
-30.6546596061
 30
0.0
 11
1468.5033403763
 21
4.7679901247
 31
0.0
  0
LINE
  5
17D
100
AcDbEntity
  8
L1_100
  6
CONTINUOUS
 62
         7
100
AcDbLine
 10
1443.5033403763
 20
-30.4433347407
 30
0.0
 11
1443.5033403763
 21
-27.5088624116
 31
0.0
  0
LINE
  5
17E
100
AcDbEntity
  8
L1_100
  6
CONTINUOUS
 62
         7
100
AcDbLine
 10
1448.5033403763
 20
-30.4433347407
 30
0.0
 11
1448.5033403763
 21
4.5566652593
 31
0.0
  0
LINE
  5
17F
100
AcDbEntity
  8
L1_100
  6
CONTINUOUS
 62
         7
100
AcDbLine
 10
1442.5033403763
 20
3.0566652593
 30
0.0
 11
1407.5033403763
 21
3.0566652593
 31
0.0
  0
LINE
  5
180
100
AcDbEntity
  8
L1_100
  6
CONTINUOUS
 62
         7
100
AcDbLine
 10
1442.5033403763
 20
-28.9433347407
 30
0.0
 11
1407.5033403763
 21
-28.9433347407
 31
0.0
  0
LINE
  5
181
100
AcDbEntity
  8
L1_100
  6
CONTINUOUS
 62
         7
100
AcDbLine
 10
1448.5033403763
 20
4.5566652593
 30
0.0
 11
1443.5033403763
 21
4.5566652593
 31
0.0
  0
LINE
  5
182
100
AcDbEntity
  8
L1_100
  6
CONTINUOUS
 62
         7
100
AcDbLine
 10
1448.5033403763
 20
-30.4433347407
 30
0.0
 11
1443.5033403763
 21
-30.4433347407
 31
0.0
  0
LINE
  5
183
100
AcDbEntity
  8
L1_100
  6
CONTINUOUS
 62
         7
100
AcDbLine
 10
1450.5033403763
 20
-32.4433347407
 30
0.0
 11
1448.5033403763
 21
-32.4433347407
 31
0.0
  0
LINE
  5
184
100
AcDbEntity
  8
L1_100
  6
CONTINUOUS
 62
         7
100
AcDbLine
 10
1450.5033403763
 20
6.5566652593
 30
0.0
 11
1448.5033403763
 21
6.5566652593
 31
0.0
  0
LINE
  5
185
100
AcDbEntity
  8
L1_100
  6
CONTINUOUS
 62
         7
100
AcDbLine
 10
1390.5033403763
 20
-15.9433347407
 30
0.0
 11
1390.5033403763
 21
-9.9433347407
 31
0.0
  0
LINE
  5
186
100
AcDbEntity
  8
L1_100
  6
CONTINUOUS
 62
         4
100
AcDbLine
 10
1402.5033403763
 20
-15.9433347407
 30
0.0
 11
1390.5033403763
 21
-15.9433347407
 31
0.0
  0
LINE
  5
187
100
AcDbEntity
  8
L1_100
  6
CONTINUOUS
 62
         4
100
AcDbLine
 10
1402.5033403763
 20
-9.9433347407
 30
0.0
 11
1390.5033403763
 21
-9.9433347407
 31
0.0
  0
LINE
  5
188
100
AcDbEntity
  8
L1_100
  6
CONTINUOUS
 62
         7
100
AcDbLine
 10
1402.5033403763
 20
-29.4433347407
 30
0.0
 11
1402.5033403763
 21
3.5566652593
 31
0.0
  0
LINE
  5
189
100
AcDbEntity
  8
L1_100
  6
CONTINUOUS
 62
         7
100
AcDbLine
 10
1407.5033403763
 20
-29.4433347407
 30
0.0
 11
1407.5033403763
 21
3.5566652593
 31
0.0
  0
LINE
  5
18A
100
AcDbEntity
  8
L1_100
  6
CONTINUOUS
 62
         7
100
AcDbLine
 10
1407.5033403763
 20
3.5566652593
 30
0.0
 11
1402.5033403763
 21
3.5566652593
 31
0.0
  0
LINE
  5
18B
100
AcDbEntity
  8
L1_100
  6
CONTINUOUS
 62
         7
100
AcDbLine
 10
1407.5033403763
 20
-29.4433347407
 30
0.0
 11
1402.5033403763
 21
-29.4433347407
 31
0.0
  0
LINE
  5
18C
100
AcDbEntity
  8
L1_100
  6
CONTINUOUS
 62
         7
100
AcDbLine
 10
1415.0033403763
 20
9.5566652593
 30
0.0
 11
1400.1033403763
 21
9.5566652593
 31
0.0
  0
LINE
  5
18D
100
AcDbEntity
  8
L1_100
  6
CONTINUOUS
 62
         7
100
AcDbLine
 10
1415.0033403763
 20
-35.4433347407
 30
0.0
 11
1400.1033403763
 21
-35.4433347407
 31
0.0
  0
LINE
  5
18E
100
AcDbEntity
  8
L1_100
  6
CONTINUOUS
 62
         7
100
AcDbLine
 10
1468.2533403763
 20
5.2010028266
 30
0.0
 11
1464.6373149725
 21
7.2887160669
 31
0.0
  0
ARC
  5
18F
100
AcDbEntity
  8
L1_100
  6
CONTINUOUS
 62
         7
100
AcDbCircle
 10
1463.6373149725
 20
5.5566652593
 30
0.0
 40
2.0
100
AcDbArc
 50
60.0
 51
90.0000000001
  0
ARC
  5
190
100
AcDbEntity
  8
L1_100
  6
CONTINUOUS
 62
         7
100
AcDbCircle
 10
1463.6373149725
 20
-31.4433347407
 30
0.0
 40
2.0
100
AcDbArc
 50
269.9999999999
 51
300.0
  0
LINE
  5
191
100
AcDbEntity
  8
L1_100
  6
CONTINUOUS
 62
         7
100
AcDbLine
 10
1468.2533403763
 20
-31.087672308
 30
0.0
 11
1464.6373149725
 21
-33.1753855482
 31
0.0
  0
LINE
  5
192
100
AcDbEntity
  8
L1_100
  6
CENTER
 62
         1
100
AcDbLine
 10
1405.0033403763
 20
-36.883636675
 30
0.0
 11
1405.0033403763
 21
-28.2483828809
 31
0.0
  0
LINE
  5
193
100
AcDbEntity
  8
L1_100
  6
CONTINUOUS
 62
         7
100
AcDbLine
 10
1406.0033403763
 20
-35.4433347407
 30
0.0
 11
1406.0033403763
 21
-29.4433347407
 31
0.0
  0
LINE
  5
194
100
AcDbEntity
  8
L1_100
  6
CONTINUOUS
 62
         7
100
AcDbLine
 10
1404.0033403763
 20
-35.4433347407
 30
0.0
 11
1404.0033403763
 21
-29.4433347407
 31
0.0
  0
LINE
  5
195
100
AcDbEntity
  8
L1_100
  6
CONTINUOUS
 62
         7
100
AcDbLine
 10
1417.2042692157
 20
-33.2433347407
 30
0.0
 11
1415.8033403763
 21
-33.2433347407
 31
0.0
  0
LINE
  5
196
100
AcDbEntity
  8
L1_100
  6
CONTINUOUS
 62
         7
100
AcDbLine
 10
1417.3077968337
 20
-33.2569644102
 30
0.0
 11
1418.0033403763
 21
-33.4433347407
 31
0.0
  0
ARC
  5
197
100
AcDbEntity
  8
L1_100
  6
CONTINUOUS
 62
         7
100
AcDbCircle
 10
1417.2042692157
 20
-33.6433347407
 30
0.0
 40
0.4
100
AcDbArc
 50
75.0
 51
90.0
  0
LINE
  5
198
100
AcDbEntity
  8
L1_100
  6
CONTINUOUS
 62
         7
100
AcDbLine
 10
1418.6398320494
 20
-33.4433347407
 30
0.0
 11
1418.0033403763
 21
-33.4433347407
 31
0.0
  0
LINE
  5
199
100
AcDbEntity
  8
L1_100
  6
CONTINUOUS
 62
         7
100
AcDbLine
 10
1415.4034794587
 20
-33.6327873912
 30
0.0
 11
1415.5033403763
 21
-34.3433347407
 31
0.0
  0
ARC
  5
19A
100
AcDbEntity
  8
L1_100
  6
CONTINUOUS
 62
         7
100
AcDbCircle
 10
1415.8033403763
 20
-33.6433347407
 30
0.0
 40
0.4
100
AcDbArc
 50
90.0
 51
178.4890283439
  0
LINE
  5
19B
100
AcDbEntity
  8
L1_100
  6
CONTINUOUS
 62
         7
100
AcDbLine
 10
1415.5033403763
 20
-34.3433347407
 30
0.0
 11
1415.5033403763
 21
-34.9433347407
 31
0.0
  0
LINE
  5
19C
100
AcDbEntity
  8
L1_100
  6
CONTINUOUS
 62
         7
100
AcDbLine
 10
1417.2042692157
 20
7.3566652593
 30
0.0
 11
1415.8033403763
 21
7.3566652593
 31
0.0
  0
LINE
  5
19D
100
AcDbEntity
  8
L1_100
  6
CONTINUOUS
 62
         7
100
AcDbLine
 10
1417.3077968337
 20
7.3702949288
 30
0.0
 11
1418.0033403763
 21
7.5566652593
 31
0.0
  0
ARC
  5
19E
100
AcDbEntity
  8
L1_100
  6
CONTINUOUS
 62
         7
100
AcDbCircle
 10
1417.2042692157
 20
7.7566652593
 30
0.0
 40
0.4
100
AcDbArc
 50
270.0
 51
285.0
  0
LINE
  5
19F
100
AcDbEntity
  8
L1_100
  6
CONTINUOUS
 62
         7
100
AcDbLine
 10
1418.6898320494
 20
7.5566652593
 30
0.0
 11
1418.0033403763
 21
7.5566652593
 31
0.0
  0
LINE
  5
1A0
100
AcDbEntity
  8
L1_100
  6
CONTINUOUS
 62
         7
100
AcDbLine
 10
1415.4034794587
 20
7.7461179098
 30
0.0
 11
1415.5033403763
 21
8.4566652593
 31
0.0
  0
ARC
  5
1A1
100
AcDbEntity
  8
L1_100
  6
CONTINUOUS
 62
         7
100
AcDbCircle
 10
1415.8033403763
 20
7.7566652593
 30
0.0
 40
0.4
100
AcDbArc
 50
181.5109716561
 51
270.0
  0
LINE
  5
1A2
100
AcDbEntity
  8
L1_100
  6
CONTINUOUS
 62
         7
100
AcDbLine
 10
1415.5033403763
 20
8.4566652593
 30
0.0
 11
1415.5033403763
 21
9.0566652593
 31
0.0
  0
LINE
  5
1A3
100
AcDbEntity
  8
L1_100
  6
CENTER
 62
         1
100
AcDbLine
 10
1468.5033403763
 20
150.1846417294
 30
0.0
 11
1399.1033403763
 21
150.1846417294
 31
0.0
  0
LINE
  5
1A4
100
AcDbEntity
  8
L1_100
  6
CONTINUOUS
 62
         7
100
AcDbLine
 10
1449.5033403763
 20
129.7846417294
 30
0.0
 11
1449.6033403763
 21
129.6846417294
 31
0.0
  0
LINE
  5
1A5
100
AcDbEntity
  8
L1_100
  6
CONTINUOUS
 62
         7
100
AcDbLine
 10
1463.6373149725
 20
129.6846417294
 30
0.0
 11
1449.6033403763
 21
129.6846417294
 31
0.0
  0
LINE
  5
1A6
100
AcDbEntity
  8
L1_100
  6
CONTINUOUS
 62
         7
100
AcDbLine
 10
1449.5033403763
 20
170.5846417294
 30
0.0
 11
1449.5033403763
 21
129.7846417294
 31
0.0
  0
LINE
  5
1A7
100
AcDbEntity
  8
L1_100
  6
CONTINUOUS
 62
         7
100
AcDbLine
 10
1447.5033403763
 20
129.7846417294
 30
0.0
 11
1447.4033403763
 21
129.6846417294
 31
0.0
  0
LINE
  5
1A8
100
AcDbEntity
  8
L1_100
  6
CONTINUOUS
 62
         7
100
AcDbLine
 10
1447.4033403763
 20
129.6846417294
 30
0.0
 11
1418.0033403763
 21
129.6846417294
 31
0.0
  0
LINE
  5
1A9
100
AcDbEntity
  8
L1_100
  6
CONTINUOUS
 62
         7
100
AcDbLine
 10
1447.5033403763
 20
170.5846417294
 30
0.0
 11
1447.5033403763
 21
129.7846417294
 31
0.0
  0
LINE
  5
1AA
100
AcDbEntity
  8
L1_100
  6
CONTINUOUS
 62
         7
100
AcDbLine
 10
1449.5033403763
 20
170.5846417294
 30
0.0
 11
1449.6033403763
 21
170.6846417294
 31
0.0
  0
LINE
  5
1AB
100
AcDbEntity
  8
L1_100
  6
CONTINUOUS
 62
         7
100
AcDbLine
 10
1463.6373149725
 20
170.6846417294
 30
0.0
 11
1449.6033403763
 21
170.6846417294
 31
0.0
  0
LINE
  5
1AC
100
AcDbEntity
  8
L1_100
  6
CONTINUOUS
 62
         7
100
AcDbLine
 10
1447.4033403763
 20
170.6846417294
 30
0.0
 11
1447.5033403763
 21
170.5846417294
 31
0.0
  0
LINE
  5
1AD
100
AcDbEntity
  8
L1_100
  6
CONTINUOUS
 62
         7
100
AcDbLine
 10
1447.4033403763
 20
170.6846417294
 30
0.0
 11
1418.0033403763
 21
170.6846417294
 31
0.0
  0
ARC
  5
1AE
100
AcDbEntity
  8
L1_100
  6
CONTINUOUS
 62
         7
100
AcDbCircle
 10
1415.0033403763
 20
128.1846417294
 30
0.0
 40
0.5
100
AcDbArc
 50
270.0
 51
360.0
  0
ARC
  5
1AF
100
AcDbEntity
  8
L1_100
  6
CONTINUOUS
 62
         7
100
AcDbCircle
 10
1415.0033403763
 20
172.1846417294
 30
0.0
 40
0.5
100
AcDbArc
 50
0.0
 51
90.0
  0
LINE
  5
1B0
100
AcDbEntity
  8
L1_100
  6
CONTINUOUS
 62
         4
100
AcDbLine
 10
1418.0033403763
 20
129.6846417294
 30
0.0
 11
1418.0033403763
 21
170.6846417294
 31
0.0
  0
LINE
  5
1B1
100
AcDbEntity
  8
L1_100
  6
CENTER
 62
         1
100
AcDbLine
 10
1423.9083403763
 20
145.1846417294
 30
0.0
 11
1423.9083403763
 21
155.0346417294
 31
0.0
  0
LINE
  5
1B2
100
AcDbEntity
  8
L1_100
  6
CENTER
 62
         1
100
AcDbLine
 10
1438.9082741959
 20
145.1846417294
 30
0.0
 11
1438.9082741959
 21
155.0346417294
 31
0.0
  0
DIMENSION
  5
1B5
100
AcDbEntity
  8
L1_100
  6
CONTINUOUS
 62
         4
100
AcDbDimension
  2
*D3
 10
1484.332287024
 20
172.6846417294
 30
0.0
 11
1481.200287024
 21
144.3684490925
 31
0.0
  3
DIMSTYLE1
100
AcDbAlignedDimension
 13
1414.5033403763
 23
172.6846417294
 33
0.0
 14
1414.5033403763
 24
127.6846417294
 34
0.0
 50
90.0
100
AcDbRotatedDimension
  0
LINE
  5
1C1
100
AcDbEntity
  8
L1_100
  6
CONTINUOUS
 62
         7
100
AcDbLine
 10
1468.5033403763
 20
132.7619919986
 30
0.0
 11
1468.5033403763
 21
167.6072914602
 31
0.0
  0
LINE
  5
1C2
100
AcDbEntity
  8
L1_100
  6
CONTINUOUS
 62
         7
100
AcDbLine
 10
1449.5033403763
 20
130.6846417294
 30
0.0
 11
1447.5033403763
 21
130.6846417294
 31
0.0
  0
LINE
  5
1C3
100
AcDbEntity
  8
L1_100
  6
CONTINUOUS
 62
         7
100
AcDbLine
 10
1449.5033403763
 20
169.6846417294
 30
0.0
 11
1447.5033403763
 21
169.6846417294
 31
0.0
  0
LINE
  5
1C4
100
AcDbEntity
  8
L1_100
  6
CONTINUOUS
 62
         7
100
AcDbLine
 10
1415.5033403763
 20
129.7492168605
 30
0.0
 11
1415.5033403763
 21
170.6200665983
 31
0.0
  0
LINE
  5
1C5
100
AcDbEntity
  8
L1_100
  6
CONTINUOUS
 62
         7
100
AcDbLine
 10
1415.0033403763
 20
172.6846417294
 30
0.0
 11
1400.1033403763
 21
172.6846417294
 31
0.0
  0
LINE
  5
1C6
100
AcDbEntity
  8
L1_100
  6
CONTINUOUS
 62
         7
100
AcDbLine
 10
1415.0033403763
 20
127.6846417294
 30
0.0
 11
1400.1033403763
 21
127.6846417294
 31
0.0
  0
ARC
  5
1C7
100
AcDbEntity
  8
L1_100
  6
CONTINUOUS
 62
         7
100
AcDbCircle
 10
1463.6373149725
 20
131.6846417294
 30
0.0
 40
2.0
100
AcDbArc
 50
269.9999999999
 51
300.0
  0
LINE
  5
1C8
100
AcDbEntity
  8
L1_100
  6
CONTINUOUS
 62
         7
100
AcDbLine
 10
1468.0033403763
 20
131.8959665948
 30
0.0
 11
1464.6373149725
 21
129.9525909218
 31
0.0
  0
ARC
  5
1C9
100
AcDbEntity
  8
L1_100
  6
CONTINUOUS
 62
         7
100
AcDbCircle
 10
1467.5033403763
 20
132.7619919986
 30
0.0
 40
1.0
100
AcDbArc
 50
300.0
 51
360.0
  0
ARC
  5
1CA
100
AcDbEntity
  8
L1_100
  6
CONTINUOUS
 62
         7
100
AcDbCircle
 10
1463.6373149725
 20
168.6846417294
 30
0.0
 40
2.0
100
AcDbArc
 50
60.0
 51
90.0000000001
  0
LINE
  5
1CB
100
AcDbEntity
  8
L1_100
  6
CONTINUOUS
 62
         7
100
AcDbLine
 10
1468.0033403763
 20
168.473316864
 30
0.0
 11
1464.6373149725
 21
170.416692537
 31
0.0
  0
ARC
  5
1CC
100
AcDbEntity
  8
L1_100
  6
CONTINUOUS
 62
         7
100
AcDbCircle
 10
1467.5033403763
 20
167.6072914602
 30
0.0
 40
1.0
100
AcDbArc
 50
0.0
 51
60.0
  0
LINE
  5
1CD
100
AcDbEntity
  8
L1_100
  6
CONTINUOUS
 62
         7
100
AcDbLine
 10
1417.2042692157
 20
170.4846417294
 30
0.0
 11
1415.8033403763
 21
170.4846417294
 31
0.0
  0
LINE
  5
1CE
100
AcDbEntity
  8
L1_100
  6
CONTINUOUS
 62
         7
100
AcDbLine
 10
1417.3077968337
 20
170.4982713989
 30
0.0
 11
1418.0033403763
 21
170.6846417294
 31
0.0
  0
ARC
  5
1CF
100
AcDbEntity
  8
L1_100
  6
CONTINUOUS
 62
         7
100
AcDbCircle
 10
1417.2042692157
 20
170.8846417294
 30
0.0
 40
0.4
100
AcDbArc
 50
270.0
 51
285.0
  0
LINE
  5
1D0
100
AcDbEntity
  8
L1_100
  6
CONTINUOUS
 62
         7
100
AcDbLine
 10
1418.6398320494
 20
170.6846417294
 30
0.0
 11
1418.0033403763
 21
170.6846417294
 31
0.0
  0
LINE
  5
1D1
100
AcDbEntity
  8
L1_100
  6
CONTINUOUS
 62
         7
100
AcDbLine
 10
1415.4034794587
 20
170.8740943799
 30
0.0
 11
1415.5033403763
 21
171.5846417294
 31
0.0
  0
ARC
  5
1D2
100
AcDbEntity
  8
L1_100
  6
CONTINUOUS
 62
         7
100
AcDbCircle
 10
1415.8033403763
 20
170.8846417294
 30
0.0
 40
0.4
100
AcDbArc
 50
181.5109716561
 51
270.0
  0
LINE
  5
1D3
100
AcDbEntity
  8
L1_100
  6
CONTINUOUS
 62
         7
100
AcDbLine
 10
1415.5033403763
 20
171.5846417294
 30
0.0
 11
1415.5033403763
 21
172.1846417294
 31
0.0
  0
LINE
  5
1D4
100
AcDbEntity
  8
L1_100
  6
CONTINUOUS
 62
         7
100
AcDbLine
 10
1417.2042692157
 20
129.8846417294
 30
0.0
 11
1415.8033403763
 21
129.8846417294
 31
0.0
  0
LINE
  5
1D5
100
AcDbEntity
  8
L1_100
  6
CONTINUOUS
 62
         7
100
AcDbLine
 10
1417.3077968337
 20
129.8710120599
 30
0.0
 11
1418.0033403763
 21
129.6846417294
 31
0.0
  0
ARC
  5
1D6
100
AcDbEntity
  8
L1_100
  6
CONTINUOUS
 62
         7
100
AcDbCircle
 10
1417.2042692157
 20
129.4846417294
 30
0.0
 40
0.4
100
AcDbArc
 50
75.0
 51
90.0
  0
LINE
  5
1D7
100
AcDbEntity
  8
L1_100
  6
CONTINUOUS
 62
         7
100
AcDbLine
 10
1418.6398320494
 20
129.6846417294
 30
0.0
 11
1418.0033403763
 21
129.6846417294
 31
0.0
  0
LINE
  5
1D8
100
AcDbEntity
  8
L1_100
  6
CONTINUOUS
 62
         7
100
AcDbLine
 10
1415.4034794587
 20
129.4951890789
 30
0.0
 11
1415.5033403763
 21
128.7846417294
 31
0.0
  0
ARC
  5
1D9
100
AcDbEntity
  8
L1_100
  6
CONTINUOUS
 62
         7
100
AcDbCircle
 10
1415.8033403763
 20
129.4846417294
 30
0.0
 40
0.4
100
AcDbArc
 50
90.0
 51
178.4890283439
  0
LINE
  5
1DA
100
AcDbEntity
  8
L1_100
  6
CONTINUOUS
 62
         7
100
AcDbLine
 10
1415.5033403763
 20
128.7846417294
 30
0.0
 11
1415.5033403763
 21
128.1846417294
 31
0.0
  0
CIRCLE
  5
1DB
100
AcDbEntity
  8
L1_100
  6
DASHED
 62
         2
100
AcDbCircle
 10
1603.2833403763
 20
150.1846417294
 30
0.0
 40
19.5
  0
CIRCLE
  5
1DC
100
AcDbEntity
  8
L1_100
  6
CONTINUOUS
 62
         7
100
AcDbCircle
 10
1603.2833403763
 20
150.1846417294
 30
0.0
 40
2.0
  0
ARC
  5
1DD
100
AcDbEntity
  8
L1_100
  6
CONTINUOUS
 62
         4
100
AcDbCircle
 10
1603.2833403763
 20
150.1846417294
 30
0.0
 40
3.0
100
AcDbArc
 50
270.0
 51
540.0
  0
CIRCLE
  5
1DE
100
AcDbEntity
  8
L1_100
  6
CONTINUOUS
 62
         7
100
AcDbCircle
 10
1603.2833403763
 20
150.1846417294
 30
0.0
 40
17.0
  0
CIRCLE
  5
1DF
100
AcDbEntity
  8
L1_100
  6
CONTINUOUS
 62
         7
100
AcDbCircle
 10
1603.2833403763
 20
150.1846417294
 30
0.0
 40
16.0
  0
CIRCLE
  5
1E0
100
AcDbEntity
  8
L1_100
  6
DASHED
 62
         2
100
AcDbCircle
 10
1603.2833403763
 20
150.1846417294
 30
0.0
 40
16.5
  0
CIRCLE
  5
1E1
100
AcDbEntity
  8
L1_100
  6
DASHED
 62
         2
100
AcDbCircle
 10
1603.2833403763
 20
150.1846417294
 30
0.0
 40
17.5
  0
LINE
  5
1E2
100
AcDbEntity
  8
L1_100
  6
CENTER
 62
         1
100
AcDbLine
 10
1603.2833403763
 20
150.1846417294
 30
0.0
 11
1614.5333403763
 21
130.6990701442
 31
0.0
  0
LINE
  5
1E3
100
AcDbEntity
  8
L1_100
  6
CENTER
 62
         1
100
AcDbLine
 10
1603.2833403763
 20
150.1846417294
 30
0.0
 11
1614.5333403763
 21
169.6702133145
 31
0.0
  0
LINE
  5
1E4
100
AcDbEntity
  8
L1_100
  6
CONTINUOUS
 62
         7
100
AcDbLine
 10
1402.5033403763
 20
-10.4433347407
 30
0.0
 11
1387.5020155108
 21
-10.4433347407
 31
0.0
  0
LINE
  5
1E5
100
AcDbEntity
  8
L1_100
  6
CONTINUOUS
 62
         7
100
AcDbLine
 10
1402.5033403763
 20
-15.4433347407
 30
0.0
 11
1387.5020155108
 21
-15.4433347407
 31
0.0
  0
LINE
  5
1E6
100
AcDbEntity
  8
_Y__________
  6
CONTINUOUS
 62
         7
100
AcDbLine
 10
1336.1033403763
 20
-19.8608347407
 30
0.0
 11
1336.1033403763
 21
-6.0258347407
 31
0.0
  0
LINE
  5
1E7
100
AcDbEntity
  8
_Y__________
  6
CONTINUOUS
 62
         7
100
AcDbLine
 10
1336.1033403763
 20
-6.0258347407
 30
0.0
 11
1303.8858403763
 21
-6.0258347407
 31
0.0
  0
LINE
  5
1E8
100
AcDbEntity
  8
_Y__________
  6
CONTINUOUS
 62
         7
100
AcDbLine
 10
1336.1033403763
 20
-19.8608347407
 30
0.0
 11
1303.8858403763
 21
-19.8608347407
 31
0.0
  0
LINE
  5
1E9
100
AcDbEntity
  8
_Y__________
  6
CONTINUOUS
 62
         7
100
AcDbLine
 10
1336.1033403763
 20
-6.0258347407
 30
0.0
 11
1340.0971608634
 21
-12.9433347407
 31
0.0
  0
LINE
  5
1EA
100
AcDbEntity
  8
_Y__________
  6
CONTINUOUS
 62
         7
100
AcDbLine
 10
1336.1033403763
 20
-19.8608347407
 30
0.0
 11
1340.0971608634
 21
-12.9433347407
 31
0.0
  0
LINE
  5
1EB
100
AcDbEntity
  8
_Y__________
  6
CONTINUOUS
 62
         7
100
AcDbLine
 10
1317.1033403763
 20
162.1846417294
 30
0.0
 11
1321.415787954
 21
162.1846417294
 31
0.0
  0
LINE
  5
1EC
100
AcDbEntity
  8
_Y__________
  6
CONTINUOUS
 62
         7
100
AcDbLine
 10
1322.9082790421
 20
162.9895803952
 30
0.0
 11
1322.1033403763
 21
162.1846417294
 31
0.0
  0
LINE
  5
1ED
100
AcDbEntity
  8
_Y__________
  6
CONTINUOUS
 62
         7
100
AcDbLine
 10
1317.1033403763
 20
162.1846417294
 30
0.0
 11
1322.1033403763
 21
162.1846417294
 31
0.0
  0
LINE
  5
1EE
100
AcDbEntity
  8
_Y__________
  6
CONTINUOUS
 62
         7
100
AcDbLine
 10
1317.1033403763
 20
162.1846417294
 30
0.0
 11
1316.6033403763
 21
162.6846417294
 31
0.0
  0
LINE
  5
1EF
100
AcDbEntity
  8
_Y__________
  6
CONTINUOUS
 62
         7
100
AcDbLine
 10
1294.1033403763
 20
161.6846417294
 30
0.0
 11
1294.1033403763
 21
138.6846417294
 31
0.0
  0
LINE
  5
1F0
100
AcDbEntity
  8
_Y__________
  6
CONTINUOUS
 62
         7
100
AcDbLine
 10
1316.6033403763
 20
162.6846417294
 30
0.0
 11
1295.1033403763
 21
162.6846417294
 31
0.0
  0
LINE
  5
1F1
100
AcDbEntity
  8
_Y__________
  6
CONTINUOUS
 62
         7
100
AcDbLine
 10
1316.6033403763
 20
137.6846417294
 30
0.0
 11
1295.1033403763
 21
137.6846417294
 31
0.0
  0
LINE
  5
1F2
100
AcDbEntity
  8
_Y__________
  6
CONTINUOUS
 62
         7
100
AcDbLine
 10
1322.1033403763
 20
162.1846417294
 30
0.0
 11
1322.1033403763
 21
138.1846417294
 31
0.0
  0
LINE
  5
1F3
100
AcDbEntity
  8
_Y__________
  6
CONTINUOUS
 62
         4
100
AcDbLine
 10
1361.611646325
 20
168.633774109
 30
0.0
 11
1365.0394903877
 21
169.1336591773
 31
0.0
  0
LINE
  5
1F4
100
AcDbEntity
  8
_Y__________
  6
CENTER
 62
         1
100
AcDbLine
 10
1371.2258413673
 20
150.1846417294
 30
0.0
 11
1290.0250730101
 21
150.1846417294
 31
0.0
  0
LINE
  5
1F5
100
AcDbEntity
  8
_Y__________
  6
CONTINUOUS
 62
         7
100
AcDbLine
 10
1387.5033403763
 20
127.9596417294
 30
0.0
 11
1322.9082790421
 21
137.3797030636
 31
0.0
  0
LINE
  5
1F6
100
AcDbEntity
  8
_Y__________
  6
CONTINUOUS
 62
         7
100
AcDbLine
 10
1387.5033403763
 20
172.4096417294
 30
0.0
 11
1322.9082790421
 21
162.9895803952
 31
0.0
  0
LINE
  5
1F7
100
AcDbEntity
  8
_Y__________
  6
CONTINUOUS
 62
         7
100
AcDbLine
 10
1387.5033403763
 20
127.9596417294
 30
0.0
 11
1387.5033403763
 21
172.4096417294
 31
0.0
  0
LINE
  5
1F8
100
AcDbEntity
  8
_Y__________
  6
CONTINUOUS
 62
         7
100
AcDbLine
 10
1389.1033403763
 20
119.6846417294
 30
0.0
 11
1389.1033403763
 21
180.6846417294
 31
0.0
  0
LINE
  5
1F9
100
AcDbEntity
  8
_Y__________
  6
CONTINUOUS
 62
         7
100
AcDbLine
 10
1398.1033403763
 20
181.6846417294
 30
0.0
 11
1390.1033403763
 21
181.6846417294
 31
0.0
  0
LINE
  5
1FA
100
AcDbEntity
  8
_Y__________
  6
CONTINUOUS
 62
         7
100
AcDbLine
 10
1398.1033403763
 20
118.6846417294
 30
0.0
 11
1390.1033403763
 21
118.6846417294
 31
0.0
  0
ARC
  5
1FB
100
AcDbEntity
  8
_Y__________
  6
CONTINUOUS
 62
         7
100
AcDbCircle
 10
1388.2122517787
 20
173.0771117516
 30
0.0
 40
0.9736896872
100
AcDbArc
 50
223.275406058
 51
336.2294438253
  0
ARC
  5
1FC
100
AcDbEntity
  8
_Y__________
  6
CONTINUOUS
 62
         7
100
AcDbCircle
 10
1388.2122517787
 20
127.2921717072
 30
0.0
 40
0.9736896872
100
AcDbArc
 50
23.7705561747
 51
136.724593942
  0
LINE
  5
1FD
100
AcDbEntity
  8
_Y__________
  6
CENTER
 62
         1
100
AcDbLine
 10
1399.1033403763
 20
150.1846417294
 30
0.0
 11
1381.0340129502
 21
150.1846417294
 31
0.0
  0
LINE
  5
1FE
100
AcDbEntity
  8
_Y__________
  6
CONTINUOUS
 62
         7
100
AcDbLine
 10
1317.1033403763
 20
138.1846417294
 30
0.0
 11
1316.6033403763
 21
137.6846417294
 31
0.0
  0
LINE
  5
1FF
100
AcDbEntity
  8
_Y__________
  6
CONTINUOUS
 62
         7
100
AcDbLine
 10
1317.1033403763
 20
138.1846417294
 30
0.0
 11
1321.415787954
 21
138.1846417294
 31
0.0
  0
LINE
  5
200
100
AcDbEntity
  8
_Y__________
  6
CONTINUOUS
 62
         7
100
AcDbLine
 10
1322.9082790421
 20
137.3797030636
 30
0.0
 11
1322.1033403763
 21
138.1846417294
 31
0.0
  0
LINE
  5
201
100
AcDbEntity
  8
_Y__________
  6
CONTINUOUS
 62
         7
100
AcDbLine
 10
1317.1033403763
 20
138.1846417294
 30
0.0
 11
1322.1033403763
 21
138.1846417294
 31
0.0
  0
LINE
  5
202
100
AcDbEntity
  8
_Y__________
  6
CONTINUOUS
 62
         7
100
AcDbLine
 10
1317.1033403763
 20
138.1846417294
 30
0.0
 11
1317.1033403763
 21
162.1846417294
 31
0.0
  0
LINE
  5
203
100
AcDbEntity
  8
_Y__________
  6
CONTINUOUS
 62
         4
100
AcDbLine
 10
1316.6033403763
 20
162.6846417294
 30
0.0
 11
1316.6033403763
 21
137.6846417294
 31
0.0
  0
LINE
  5
204
100
AcDbEntity
  8
_Y__________
  6
CONTINUOUS
 62
         4
100
AcDbLine
 10
1322.9082790421
 20
137.3797030636
 30
0.0
 11
1322.9082790421
 21
162.9895803952
 31
0.0
  0
ARC
  5
205
100
AcDbEntity
  8
_Y__________
  6
CONTINUOUS
 62
         7
100
AcDbCircle
 10
1295.1033403763
 20
161.6846417294
 30
0.0
 40
1.0
100
AcDbArc
 50
90.0
 51
180.0
  0
ARC
  5
206
100
AcDbEntity
  8
_Y__________
  6
CONTINUOUS
 62
         7
100
AcDbCircle
 10
1295.1033403763
 20
138.6846417294
 30
0.0
 40
1.0
100
AcDbArc
 50
180.0
 51
270.0
  0
LINE
  5
207
100
AcDbEntity
  8
_Y__________
  6
CONTINUOUS
 62
         7
100
AcDbLine
 10
1326.1033403763
 20
-19.8608347407
 30
0.0
 11
1303.8858403763
 21
-19.8608347407
 31
0.0
  0
LINE
  5
208
100
AcDbEntity
  8
_Y__________
  6
CONTINUOUS
 62
         7
100
AcDbLine
 10
1387.5033403763
 20
-35.1683347407
 30
0.0
 11
1322.9082790421
 21
-25.7482734065
 31
0.0
  0
LINE
  5
209
100
AcDbEntity
  8
_Y__________
  6
CONTINUOUS
 62
         7
100
AcDbLine
 10
1387.5033403763
 20
9.2816652593
 30
0.0
 11
1322.9082790421
 21
-0.1383960748
 31
0.0
  0
LINE
  5
20A
100
AcDbEntity
  8
_Y__________
  6
CONTINUOUS
 62
         7
100
AcDbLine
 10
1389.1033403763
 20
-43.4433347407
 30
0.0
 11
1389.1033403763
 21
-35.4433347407
 31
0.0
  0
LINE
  5
20B
100
AcDbEntity
  8
_Y__________
  6
CONTINUOUS
 62
         7
100
AcDbLine
 10
1398.1033403763
 20
18.5566652593
 30
0.0
 11
1390.1033403763
 21
18.5566652593
 31
0.0
  0
LINE
  5
20C
100
AcDbEntity
  8
_Y__________
  6
CONTINUOUS
 62
         7
100
AcDbLine
 10
1398.1033403763
 20
-44.4433347407
 30
0.0
 11
1390.1033403763
 21
-44.4433347407
 31
0.0
  0
ARC
  5
20D
100
AcDbEntity
  8
_Y__________
  6
CONTINUOUS
 62
         7
100
AcDbCircle
 10
1388.2122517787
 20
9.9491352815
 30
0.0
 40
0.9736896872
100
AcDbArc
 50
223.275406058
 51
336.2294438253
  0
ARC
  5
20E
100
AcDbEntity
  8
_Y__________
  6
CONTINUOUS
 62
         7
100
AcDbCircle
 10
1388.2122517787
 20
-35.8358047629
 30
0.0
 40
0.9736896872
100
AcDbArc
 50
23.7705561747
 51
136.724593942
  0
LINE
  5
20F
100
AcDbEntity
  8
_Y__________
  6
CONTINUOUS
 62
         7
100
AcDbLine
 10
1389.1033403763
 20
9.5566652593
 30
0.0
 11
1389.1033403763
 21
17.5566652593
 31
0.0
  0
LINE
  5
210
100
AcDbEntity
  8
_Y__________
  6
CONTINUOUS
 62
         7
100
AcDbLine
 10
1303.8858403763
 20
-6.0258347407
 30
0.0
 11
1326.1033403763
 21
-6.0258347407
 31
0.0
  0
LINE
  5
211
100
AcDbEntity
  8
_Y__________
  6
CENTER
 62
         1
100
AcDbLine
 10
1399.1033403763
 20
-12.9433347407
 30
0.0
 11
1290.0250730101
 21
-12.9433347407
 31
0.0
  0
LINE
  5
212
100
AcDbEntity
  8
_Y__________
  6
CONTINUOUS
 62
         7
100
AcDbLine
 10
1317.1033403763
 20
-0.9433347407
 30
0.0
 11
1316.6033403763
 21
-0.4433347407
 31
0.0
  0
LINE
  5
213
100
AcDbEntity
  8
_Y__________
  6
CONTINUOUS
 62
         7
100
AcDbLine
 10
1322.9082790421
 20
-0.1383960748
 30
0.0
 11
1322.1033403763
 21
-0.9433347407
 31
0.0
  0
LINE
  5
214
100
AcDbEntity
  8
_Y__________
  6
CONTINUOUS
 62
         7
100
AcDbLine
 10
1317.1033403763
 20
-0.9433347407
 30
0.0
 11
1322.1033403763
 21
-0.9433347407
 31
0.0
  0
LINE
  5
215
100
AcDbEntity
  8
_Y__________
  6
CONTINUOUS
 62
         7
100
AcDbLine
 10
1317.1033403763
 20
-24.9433347407
 30
0.0
 11
1316.6033403763
 21
-25.4433347407
 31
0.0
  0
LINE
  5
216
100
AcDbEntity
  8
_Y__________
  6
CONTINUOUS
 62
         7
100
AcDbLine
 10
1317.1033403763
 20
-24.9433347407
 30
0.0
 11
1322.1033403763
 21
-24.9433347407
 31
0.0
  0
LINE
  5
217
100
AcDbEntity
  8
_Y__________
  6
CONTINUOUS
 62
         7
100
AcDbLine
 10
1322.9082790421
 20
-25.7482734065
 30
0.0
 11
1322.1033403763
 21
-24.9433347407
 31
0.0
  0
ARC
  5
218
100
AcDbEntity
  8
_Y__________
  6
CONTINUOUS
 62
         7
100
AcDbCircle
 10
1295.6033403763
 20
-22.9433347407
 30
0.0
 40
1.5
100
AcDbArc
 50
145.690467044
 51
180.0
  0
LINE
  5
219
100
AcDbEntity
  8
_Y__________
  6
CONTINUOUS
 62
         7
100
AcDbLine
 10
1294.3643335921
 20
-22.0978395078
 30
0.0
 11
1295.4906234179
 21
-21.4475757737
 31
0.0
  0
ARC
  5
21A
100
AcDbEntity
  8
_Y__________
  6
CONTINUOUS
 62
         7
100
AcDbCircle
 10
1295.6033403763
 20
-2.9433347407
 30
0.0
 40
1.5
100
AcDbArc
 50
265.690467044
 51
270.0
  0
LINE
  5
21B
100
AcDbEntity
  8
_Y__________
  6
CONTINUOUS
 62
         7
100
AcDbLine
 10
1294.3643335921
 20
-3.7888299736
 30
0.0
 11
1295.4906234179
 21
-4.4390937077
 31
0.0
  0
LINE
  5
21C
100
AcDbEntity
  8
_Y__________
  6
CONTINUOUS
 62
         7
100
AcDbLine
 10
1302.3033403763
 20
-4.4433347407
 30
0.0
 11
1303.8858403763
 21
-6.0258347407
 31
0.0
  0
LINE
  5
21D
100
AcDbEntity
  8
_Y__________
  6
CONTINUOUS
 62
         7
100
AcDbLine
 10
1326.1033403763
 20
-20.9433347407
 30
0.0
 11
1326.1033403763
 21
-4.9433347407
 31
0.0
  0
LINE
  5
21E
100
AcDbEntity
  8
_Y__________
  6
CONTINUOUS
 62
         7
100
AcDbLine
 10
1302.3033403763
 20
-21.4433347407
 30
0.0
 11
1302.3033403763
 21
-4.4433347407
 31
0.0
  0
LINE
  5
21F
100
AcDbEntity
  8
_Y__________
  6
CONTINUOUS
 62
         5
100
AcDbLine
 10
1326.1033403763
 20
-4.9433347407
 30
0.0
 11
1302.8033403763
 21
-4.9433347407
 31
0.0
  0
LINE
  5
220
100
AcDbEntity
  8
_Y__________
  6
CONTINUOUS
 62
         5
100
AcDbLine
 10
1326.1033403763
 20
-20.9433347407
 30
0.0
 11
1302.8033403763
 21
-20.9433347407
 31
0.0
  0
LINE
  5
221
100
AcDbEntity
  8
_Y__________
  6
CONTINUOUS
 62
         7
100
AcDbLine
 10
1302.3033403763
 20
-4.4433347407
 30
0.0
 11
1295.6033403763
 21
-4.4433347407
 31
0.0
  0
LINE
  5
222
100
AcDbEntity
  8
_Y__________
  6
CONTINUOUS
 62
         7
100
AcDbLine
 10
1302.3033403763
 20
-21.4433347407
 30
0.0
 11
1295.6033403763
 21
-21.4433347407
 31
0.0
  0
LINE
  5
223
100
AcDbEntity
  8
_Y__________
  6
CONTINUOUS
 62
         7
100
AcDbLine
 10
1302.3033403763
 20
-21.4433347407
 30
0.0
 11
1303.8858403763
 21
-19.8608347407
 31
0.0
  0
LINE
  5
224
100
AcDbEntity
  8
_Y__________
  6
CONTINUOUS
 62
         7
100
AcDbLine
 10
1303.8858403763
 20
-6.0258347407
 30
0.0
 11
1303.8858403763
 21
-19.8608347407
 31
0.0
  0
ARC
  5
225
100
AcDbEntity
  8
_Y__________
  6
CONTINUOUS
 62
         7
100
AcDbCircle
 10
1295.6033403763
 20
-2.9433347407
 30
0.0
 40
1.5
100
AcDbArc
 50
180.0
 51
214.309532956
  0
ARC
  5
226
100
AcDbEntity
  8
_Y__________
  6
CONTINUOUS
 62
         7
100
AcDbCircle
 10
1295.6033403763
 20
-22.9433347407
 30
0.0
 40
1.5
100
AcDbArc
 50
90.0
 51
94.309532956
  0
LINE
  5
227
100
AcDbEntity
  8
_Y__________
  6
CONTINUOUS
 62
         4
100
AcDbLine
 10
1295.6033403763
 20
-21.4433347407
 30
0.0
 11
1295.6033403763
 21
-4.4433347407
 31
0.0
  0
LINE
  5
228
100
AcDbEntity
  8
_Y__________
  6
CONTINUOUS
 62
         7
100
AcDbLine
 10
1316.6033403763
 20
-0.4433347407
 30
0.0
 11
1295.1033403763
 21
-0.4433347407
 31
0.0
  0
ARC
  5
229
100
AcDbEntity
  8
_Y__________
  6
CONTINUOUS
 62
         7
100
AcDbCircle
 10
1295.1033403763
 20
-1.4433347407
 30
0.0
 40
1.0
100
AcDbArc
 50
90.0
 51
180.0
  0
LINE
  5
22A
100
AcDbEntity
  8
_Y__________
  6
CONTINUOUS
 62
         7
100
AcDbLine
 10
1294.1033403763
 20
-1.4433347407
 30
0.0
 11
1294.1033403763
 21
-24.4433347407
 31
0.0
  0
ARC
  5
22B
100
AcDbEntity
  8
_Y__________
  6
CONTINUOUS
 62
         7
100
AcDbCircle
 10
1295.1033403763
 20
-24.4433347407
 30
0.0
 40
1.0
100
AcDbArc
 50
180.0
 51
270.0
  0
LINE
  5
22C
100
AcDbEntity
  8
_Y__________
  6
CONTINUOUS
 62
         7
100
AcDbLine
 10
1316.6033403763
 20
-25.4433347407
 30
0.0
 11
1295.1033403763
 21
-25.4433347407
 31
0.0
  0
LINE
  5
22D
100
AcDbEntity
  8
_Y__________
  6
CONTINUOUS
 62
         7
100
AcDbLine
 10
1399.1033403763
 20
119.6846417294
 30
0.0
 11
1399.1033403763
 21
180.6846417294
 31
0.0
  0
ARC
  5
22E
100
AcDbEntity
  8
_Y__________
  6
CONTINUOUS
 62
         2
100
AcDbCircle
 10
1194.9233403763
 20
150.1846417294
 30
0.0
 40
8.0
100
AcDbArc
 50
253.393602324
 51
547.5053532215
  0
CIRCLE
  5
22F
100
AcDbEntity
  8
_Y__________
  6
CONTINUOUS
 62
         7
100
AcDbCircle
 10
1194.9233403763
 20
150.1846417294
 30
0.0
 40
6.9175
  0
CIRCLE
  5
230
100
AcDbEntity
  8
_Y__________
  6
CONTINUOUS
 62
         7
100
AcDbCircle
 10
1194.9233403763
 20
150.1846417294
 30
0.0
 40
8.5
  0
CIRCLE
  5
231
100
AcDbEntity
  8
_Y__________
  6
CONTINUOUS
 62
         7
100
AcDbCircle
 10
1194.9233403763
 20
150.1846417294
 30
0.0
 40
10.75
  0
CIRCLE
  5
232
100
AcDbEntity
  8
_Y__________
  6
CONTINUOUS
 62
         7
100
AcDbCircle
 10
1194.9233403763
 20
150.1846417294
 30
0.0
 40
22.225
  0
CIRCLE
  5
233
100
AcDbEntity
  8
_Y__________
  6
CONTINUOUS
 62
         7
100
AcDbCircle
 10
1194.9233403763
 20
150.1846417294
 30
0.0
 40
12.65
  0
LINE
  5
234
100
AcDbEntity
  8
_Y__________
  6
CENTER
 62
         1
100
AcDbLine
 10
1229.3782766045
 20
150.1846417294
 30
0.0
 11
1160.1155051372
 21
150.1846417294
 31
0.0
  0
ARC
  5
235
100
AcDbEntity
  8
_Y__________
  6
CONTINUOUS
 62
         7
100
AcDbCircle
 10
1194.9233403763
 20
150.1846417294
 30
0.0
 40
31.5
100
AcDbArc
 50
16.2836386031
 51
163.7163613969
  0
LINE
  5
236
100
AcDbEntity
  8
_Y__________
  6
CONTINUOUS
 62
         7
100
AcDbLine
 10
1217.4233403763
 20
156.6346417294
 30
0.0
 11
1217.4233403763
 21
143.7346417294
 31
0.0
  0
LINE
  5
237
100
AcDbEntity
  8
_Y__________
  6
CONTINUOUS
 62
         7
100
AcDbLine
 10
1219.0233403763
 20
142.1346417294
 30
0.0
 11
1224.377363099
 21
142.1346417294
 31
0.0
  0
LINE
  5
238
100
AcDbEntity
  8
_Y__________
  6
CONTINUOUS
 62
         7
100
AcDbLine
 10
1219.0233403763
 20
158.2346417294
 30
0.0
 11
1224.377363099
 21
158.2346417294
 31
0.0
  0
LINE
  5
239
100
AcDbEntity
  8
_Y__________
  6
CONTINUOUS
 62
         7
100
AcDbLine
 10
1170.8233403763
 20
142.1346417294
 30
0.0
 11
1165.4693176535
 21
142.1346417294
 31
0.0
  0
LINE
  5
23A
100
AcDbEntity
  8
_Y__________
  6
CONTINUOUS
 62
         7
100
AcDbLine
 10
1170.8233403763
 20
158.2346417294
 30
0.0
 11
1165.4693176535
 21
158.2346417294
 31
0.0
  0
LINE
  5
23B
100
AcDbEntity
  8
_Y__________
  6
CONTINUOUS
 62
         7
100
AcDbLine
 10
1172.4233403763
 20
156.6346417294
 30
0.0
 11
1172.4233403763
 21
143.7346417294
 31
0.0
  0
ARC
  5
23C
100
AcDbEntity
  8
_Y__________
  6
CONTINUOUS
 62
         7
100
AcDbCircle
 10
1194.9233403763
 20
150.1846417294
 30
0.0
 40
31.5
100
AcDbArc
 50
196.2836386031
 51
343.7163613969
  0
LINE
  5
23D
100
AcDbEntity
  8
_Y__________
  6
CENTER
 62
         1
100
AcDbLine
 10
1194.9233403763
 20
118.6846417294
 30
0.0
 11
1194.9233403763
 21
181.6846417294
 31
0.0
  0
ARC
  5
23E
100
AcDbEntity
  8
_Y__________
  6
CONTINUOUS
 62
         7
100
AcDbCircle
 10
1170.8233403763
 20
143.7346417294
 30
0.0
 40
1.6
100
AcDbArc
 50
270.0
 51
360.0
  0
ARC
  5
23F
100
AcDbEntity
  8
_Y__________
  6
CONTINUOUS
 62
         7
100
AcDbCircle
 10
1170.8233403763
 20
156.6346417294
 30
0.0
 40
1.6
100
AcDbArc
 50
0.0
 51
90.0
  0
ARC
  5
240
100
AcDbEntity
  8
_Y__________
  6
CONTINUOUS
 62
         7
100
AcDbCircle
 10
1219.0233403763
 20
156.6346417294
 30
0.0
 40
1.6
100
AcDbArc
 50
90.0
 51
180.0
  0
ARC
  5
241
100
AcDbEntity
  8
_Y__________
  6
CONTINUOUS
 62
         7
100
AcDbCircle
 10
1219.0233403763
 20
143.7346417294
 30
0.0
 40
1.6
100
AcDbArc
 50
180.0
 51
270.0
  0
LINE
  5
242
100
AcDbEntity
  8
_Y__________
  6
CONTINUOUS
 62
         7
100
AcDbLine
 10
1164.6869502733
 20
159.0170091096
 30
0.0
 11
1165.4693176535
 21
158.2346417294
 31
0.0
  0
LINE
  5
243
100
AcDbEntity
  8
_Y__________
  6
CONTINUOUS
 62
         7
100
AcDbLine
 10
1225.1597304793
 20
159.0170091096
 30
0.0
 11
1224.377363099
 21
158.2346417294
 31
0.0
  0
LINE
  5
244
100
AcDbEntity
  8
_Y__________
  6
CONTINUOUS
 62
         7
100
AcDbLine
 10
1225.1597304793
 20
141.3522743492
 30
0.0
 11
1224.377363099
 21
142.1346417294
 31
0.0
  0
LINE
  5
245
100
AcDbEntity
  8
_Y__________
  6
CENTER
 62
         1
100
AcDbLine
 10
1637.7382766045
 20
150.1846417294
 30
0.0
 11
1568.4755051372
 21
150.1846417294
 31
0.0
  0
LINE
  5
246
100
AcDbEntity
  8
_Y__________
  6
CENTER
 62
         1
100
AcDbLine
 10
1603.2833403763
 20
115.7297055011
 30
0.0
 11
1603.2833403763
 21
184.6395779577
 31
0.0
  0
ARC
  5
247
100
AcDbEntity
  8
_Y__________
  6
CONTINUOUS
 62
         7
100
AcDbCircle
 10
1603.2833403763
 20
150.1846417294
 30
0.0
 40
31.5
100
AcDbArc
 50
196.2836386031
 51
343.7163613969
  0
ARC
  5
248
100
AcDbEntity
  8
_Y__________
  6
CONTINUOUS
 62
         7
100
AcDbCircle
 10
1603.2833403763
 20
150.1846417294
 30
0.0
 40
31.5
100
AcDbArc
 50
16.2836386031
 51
163.7163613969
  0
LINE
  5
249
100
AcDbEntity
  8
_Y__________
  6
CONTINUOUS
 62
         7
100
AcDbLine
 10
1579.1833403763
 20
158.2346417294
 30
0.0
 11
1573.8293176535
 21
158.2346417294
 31
0.0
  0
LINE
  5
24A
100
AcDbEntity
  8
_Y__________
  6
CONTINUOUS
 62
         7
100
AcDbLine
 10
1579.1833403763
 20
142.1346417294
 30
0.0
 11
1573.8293176535
 21
142.1346417294
 31
0.0
  0
LINE
  5
24B
100
AcDbEntity
  8
_Y__________
  6
CONTINUOUS
 62
         7
100
AcDbLine
 10
1580.7833403763
 20
143.7346417294
 30
0.0
 11
1580.7833403763
 21
156.6346417294
 31
0.0
  0
LINE
  5
24C
100
AcDbEntity
  8
_Y__________
  6
CONTINUOUS
 62
         7
100
AcDbLine
 10
1579.1833403763
 20
158.2346417294
 30
0.0
 11
1573.8293176535
 21
158.2346417294
 31
0.0
  0
LINE
  5
24D
100
AcDbEntity
  8
_Y__________
  6
CONTINUOUS
 62
         7
100
AcDbLine
 10
1627.3833403763
 20
158.2346417294
 30
0.0
 11
1632.737363099
 21
158.2346417294
 31
0.0
  0
LINE
  5
24E
100
AcDbEntity
  8
_Y__________
  6
CONTINUOUS
 62
         7
100
AcDbLine
 10
1625.7833403763
 20
156.6346417294
 30
0.0
 11
1625.7833403763
 21
143.7346417294
 31
0.0
  0
LINE
  5
24F
100
AcDbEntity
  8
_Y__________
  6
CONTINUOUS
 62
         7
100
AcDbLine
 10
1627.3833403763
 20
142.1346417294
 30
0.0
 11
1632.737363099
 21
142.1346417294
 31
0.0
  0
LINE
  5
250
100
AcDbEntity
  8
_Y__________
  6
CENTER
 62
         1
100
AcDbLine
 10
1603.2833403763
 20
151.1846417294
 30
0.0
 11
1603.2833403763
 21
169.6846417294
 31
0.0
  0
ARC
  5
251
100
AcDbEntity
  8
_Y__________
  6
CONTINUOUS
 62
         7
100
AcDbCircle
 10
1627.3833403763
 20
156.6346417294
 30
0.0
 40
1.6
100
AcDbArc
 50
90.0
 51
180.0
  0
ARC
  5
252
100
AcDbEntity
  8
_Y__________
  6
CONTINUOUS
 62
         7
100
AcDbCircle
 10
1627.3833403763
 20
143.7346417294
 30
0.0
 40
1.6
100
AcDbArc
 50
180.0
 51
270.0
  0
ARC
  5
253
100
AcDbEntity
  8
_Y__________
  6
CONTINUOUS
 62
         7
100
AcDbCircle
 10
1579.1833403763
 20
143.7346417294
 30
0.0
 40
1.6
100
AcDbArc
 50
270.0
 51
360.0
  0
ARC
  5
254
100
AcDbEntity
  8
_Y__________
  6
CONTINUOUS
 62
         7
100
AcDbCircle
 10
1579.1833403763
 20
156.6346417294
 30
0.0
 40
1.6
100
AcDbArc
 50
0.0
 51
90.0
  0
LINE
  5
255
100
AcDbEntity
  8
_Y__________
  6
CONTINUOUS
 62
         7
100
AcDbLine
 10
1573.0469502733
 20
159.0170091096
 30
0.0
 11
1573.8293176535
 21
158.2346417294
 31
0.0
  0
LINE
  5
256
100
AcDbEntity
  8
_Y__________
  6
CONTINUOUS
 62
         7
100
AcDbLine
 10
1573.0469502733
 20
141.3522743492
 30
0.0
 11
1573.8293176535
 21
142.1346417294
 31
0.0
  0
LINE
  5
257
100
AcDbEntity
  8
_Y__________
  6
CONTINUOUS
 62
         7
100
AcDbLine
 10
1633.5197304793
 20
159.0170091096
 30
0.0
 11
1632.737363099
 21
158.2346417294
 31
0.0
  0
LINE
  5
258
100
AcDbEntity
  8
_Y__________
  6
CONTINUOUS
 62
         7
100
AcDbLine
 10
1633.5197304793
 20
141.3522743492
 30
0.0
 11
1632.737363099
 21
142.1346417294
 31
0.0
  0
ARC
  5
259
100
AcDbEntity
  8
_Y__________
  6
CONTINUOUS
 62
         7
100
AcDbCircle
 10
1390.1033403763
 20
180.6846417294
 30
0.0
 40
1.0
100
AcDbArc
 50
90.0
 51
180.0
  0
ARC
  5
25A
100
AcDbEntity
  8
_Y__________
  6
CONTINUOUS
 62
         7
100
AcDbCircle
 10
1390.1033403763
 20
119.6846417294
 30
0.0
 40
1.0
100
AcDbArc
 50
180.0
 51
270.0
  0
ARC
  5
25B
100
AcDbEntity
  8
_Y__________
  6
CONTINUOUS
 62
         7
100
AcDbCircle
 10
1398.1033403763
 20
180.6846417294
 30
0.0
 40
1.0
100
AcDbArc
 50
0.0
 51
90.0
  0
ARC
  5
25C
100
AcDbEntity
  8
_Y__________
  6
CONTINUOUS
 62
         7
100
AcDbCircle
 10
1398.1033403763
 20
119.6846417294
 30
0.0
 40
1.0
100
AcDbArc
 50
270.0
 51
360.0
  0
LINE
  5
25D
100
AcDbEntity
  8
_Y__________
  6
CONTINUOUS
 62
         7
100
AcDbLine
 10
1399.1033403763
 20
179.6846417294
 30
0.0
 11
1399.1033403763
 21
180.6846417294
 31
0.0
  0
LINE
  5
25E
100
AcDbEntity
  8
_Y__________
  6
CONTINUOUS
 62
         7
100
AcDbLine
 10
1398.1033403763
 20
181.6846417294
 30
0.0
 11
1397.1033403763
 21
181.6846417294
 31
0.0
  0
LINE
  5
25F
100
AcDbEntity
  8
_Y__________
  6
CONTINUOUS
 62
         7
100
AcDbLine
 10
1389.1033403763
 20
179.6846417294
 30
0.0
 11
1389.1033403763
 21
180.6846417294
 31
0.0
  0
LINE
  5
260
100
AcDbEntity
  8
_Y__________
  6
CONTINUOUS
 62
         7
100
AcDbLine
 10
1399.1033403763
 20
119.6846417294
 30
0.0
 11
1399.1033403763
 21
120.6846417294
 31
0.0
  0
LINE
  5
261
100
AcDbEntity
  8
_Y__________
  6
CONTINUOUS
 62
         7
100
AcDbLine
 10
1389.1033403763
 20
119.6846417294
 30
0.0
 11
1389.1033403763
 21
120.6846417294
 31
0.0
  0
LINE
  5
262
100
AcDbEntity
  8
_Y__________
  6
CONTINUOUS
 62
         7
100
AcDbLine
 10
1391.1033403763
 20
181.6846417294
 30
0.0
 11
1390.1033403763
 21
181.6846417294
 31
0.0
  0
LINE
  5
263
100
AcDbEntity
  8
_Y__________
  6
CONTINUOUS
 62
         7
100
AcDbLine
 10
1391.1033403763
 20
118.6846417294
 30
0.0
 11
1390.1033403763
 21
118.6846417294
 31
0.0
  0
LINE
  5
264
100
AcDbEntity
  8
_Y__________
  6
CONTINUOUS
 62
         7
100
AcDbLine
 10
1398.1033403763
 20
118.6846417294
 30
0.0
 11
1397.1033403763
 21
118.6846417294
 31
0.0
  0
LINE
  5
265
100
AcDbEntity
  8
_Y__________
  6
CONTINUOUS
 62
         7
100
AcDbLine
 10
1398.1033403763
 20
-44.4433347407
 30
0.0
 11
1397.1033403763
 21
-44.4433347407
 31
0.0
  0
LINE
  5
266
100
AcDbEntity
  8
_Y__________
  6
CONTINUOUS
 62
         7
100
AcDbLine
 10
1391.1033403763
 20
-44.4433347407
 30
0.0
 11
1390.1033403763
 21
-44.4433347407
 31
0.0
  0
LINE
  5
267
100
AcDbEntity
  8
_Y__________
  6
CONTINUOUS
 62
         7
100
AcDbLine
 10
1391.1033403763
 20
18.5566652593
 30
0.0
 11
1390.1033403763
 21
18.5566652593
 31
0.0
  0
LINE
  5
268
100
AcDbEntity
  8
_Y__________
  6
CONTINUOUS
 62
         7
100
AcDbLine
 10
1389.1033403763
 20
-43.4433347407
 30
0.0
 11
1389.1033403763
 21
-42.4433347407
 31
0.0
  0
LINE
  5
269
100
AcDbEntity
  8
_Y__________
  6
CONTINUOUS
 62
         7
100
AcDbLine
 10
1399.1033403763
 20
-43.4433347407
 30
0.0
 11
1399.1033403763
 21
-42.4433347407
 31
0.0
  0
LINE
  5
26A
100
AcDbEntity
  8
_Y__________
  6
CONTINUOUS
 62
         7
100
AcDbLine
 10
1389.1033403763
 20
16.5566652593
 30
0.0
 11
1389.1033403763
 21
17.5566652593
 31
0.0
  0
LINE
  5
26B
100
AcDbEntity
  8
_Y__________
  6
CONTINUOUS
 62
         7
100
AcDbLine
 10
1398.1033403763
 20
18.5566652593
 30
0.0
 11
1397.1033403763
 21
18.5566652593
 31
0.0
  0
LINE
  5
26C
100
AcDbEntity
  8
_Y__________
  6
CONTINUOUS
 62
         7
100
AcDbLine
 10
1399.1033403763
 20
16.5566652593
 30
0.0
 11
1399.1033403763
 21
17.5566652593
 31
0.0
  0
ARC
  5
26D
100
AcDbEntity
  8
_Y__________
  6
CONTINUOUS
 62
         7
100
AcDbCircle
 10
1398.1033403763
 20
-43.4433347407
 30
0.0
 40
1.0
100
AcDbArc
 50
270.0
 51
360.0
  0
ARC
  5
26E
100
AcDbEntity
  8
_Y__________
  6
CONTINUOUS
 62
         7
100
AcDbCircle
 10
1398.1033403763
 20
17.5566652593
 30
0.0
 40
1.0
100
AcDbArc
 50
0.0
 51
90.0
  0
ARC
  5
26F
100
AcDbEntity
  8
_Y__________
  6
CONTINUOUS
 62
         7
100
AcDbCircle
 10
1390.1033403763
 20
-43.4433347407
 30
0.0
 40
1.0
100
AcDbArc
 50
180.0
 51
270.0
  0
ARC
  5
270
100
AcDbEntity
  8
_Y__________
  6
CONTINUOUS
 62
         7
100
AcDbCircle
 10
1390.1033403763
 20
17.5566652593
 30
0.0
 40
1.0
100
AcDbArc
 50
90.0
 51
180.0
  0
LINE
  5
271
100
AcDbEntity
  8
_Y__________
  6
CONTINUOUS
 62
         4
100
AcDbLine
 10
1399.1033403763
 20
159.2346417294
 30
0.0
 11
1389.1033403763
 21
159.2346417294
 31
0.0
  0
LINE
  5
272
100
AcDbEntity
  8
_Y__________
  6
CONTINUOUS
 62
         7
100
AcDbLine
 10
1399.1033403763
 20
158.2346417294
 30
0.0
 11
1389.1033403763
 21
158.2346417294
 31
0.0
  0
LINE
  5
273
100
AcDbEntity
  8
_Y__________
  6
CONTINUOUS
 62
         7
100
AcDbLine
 10
1399.1033403763
 20
142.1346417294
 30
0.0
 11
1389.1033403763
 21
142.1346417294
 31
0.0
  0
LINE
  5
274
100
AcDbEntity
  8
_Y__________
  6
CONTINUOUS
 62
         4
100
AcDbLine
 10
1399.1033403763
 20
141.1346417294
 30
0.0
 11
1389.1033403763
 21
141.1346417294
 31
0.0
  0
ARC
  5
275
100
AcDbEntity
  8
L1_100
  6
CONTINUOUS
 62
         7
100
AcDbCircle
 10
1467.8033403763
 20
-30.6433347407
 30
0.0
 40
0.7
100
AcDbArc
 50
0.0
 51
90.0
  0
ARC
  5
276
100
AcDbEntity
  8
L1_100
  6
CONTINUOUS
 62
         7
100
AcDbCircle
 10
1467.8033403763
 20
4.7566652593
 30
0.0
 40
0.7
100
AcDbArc
 50
270.0
 51
360.0
  0
LINE
  5
277
100
AcDbEntity
  8
L1_100
  6
CONTINUOUS
 62
         4
100
AcDbLine
 10
1467.8033403763
 20
-29.9433347407
 30
0.0
 11
1467.8033403763
 21
4.0566652593
 31
0.0
  0
TEXT
  5
279
100
AcDbEntity
  8
L1_100
  6
CONTINUOUS
 62
         2
100
AcDbText
 10
1587.8551181589
 20
224.3704784082
 30
0.0
 40
4.5
  1
534500
 41
0.98
  7
BOX
100
AcDbText
  0
ENDSEC
  0
SECTION
  2
OBJECTS
  0
DICTIONARY
  5
19
100
AcDbDictionary
  3
ACAD_GROUP
350
1A
  3
ACAD_MLINESTYLE
350
1B
  0
DICTIONARY
  5
1A
102
{ACAD_REACTORS
330
19
102
}
100
AcDbDictionary
  0
DICTIONARY
  5
1B
102
{ACAD_REACTORS
330
19
102
}
100
AcDbDictionary
  3
STANDARD
350
1C
  0
MLINESTYLE
  5
1C
102
{ACAD_REACTORS
330
1B
102
}
100
AcDbMlineStyle
  2
STANDARD
 70
         0
  3

 62
         0
 51
90.0
 52
90.0
 71
         2
 49
0.5
 62
       256
  6
BYLAYER
 49
-0.5
 62
       256
  6
BYLAYER
  0
ENDSEC
  0
EOF
