  0
SECTION
  2
HEADER
  9
$ACADVER
  1
AC1014
  9
$ACADMAINTVER
 70
         0
  9
$DWGCODEPAGE
  3
BIG5
  9
$INSBASE
 10
0.0
 20
0.0
 30
0.0
  9
$EXTMIN
 10
1163.1141174934
 20
-89.3571180568
 30
0.0
  9
$EXTMAX
 10
1831.4359754384
 20
247.5900332251
 30
0.0
  9
$LIMMIN
 10
0.0
 20
0.0
  9
$LIMMAX
 10
0.0
 20
0.0
  9
$ORTHOMODE
 70
         0
  9
$REGENMODE
 70
         1
  9
$FILLMODE
 70
         1
  9
$QTEXTMODE
 70
         0
  9
$MIRRTEXT
 70
         1
  9
$DRAGMODE
 70
         2
  9
$LTSCALE
 40
1.0
  9
$OSMODE
 70
         0
  9
$ATTMODE
 70
         1
  9
$TEXTSIZE
 40
1.8
  9
$TRACEWID
 40
0.05
  9
$TEXTSTYLE
  7
STANDARD
  9
$CLAYER
  8
0
  9
$CELTYPE
  6
CONTINUOUS
  9
$CECOLOR
 62
         4
  9
$CELTSCALE
 40
1.0
  9
$DELOBJ
 70
         1
  9
$DISPSILH
 70
         0
  9
$DIMSCALE
 40
1.0
  9
$DIMASZ
 40
0.18
  9
$DIMEXO
 40
0.0625
  9
$DIMDLI
 40
0.38
  9
$DIMRND
 40
0.0
  9
$DIMDLE
 40
0.0
  9
$DIMEXE
 40
0.25
  9
$DIMTP
 40
0.01
  9
$DIMTM
 40
-0.01
  9
$DIMTXT
 40
2.7
  9
$DIMCEN
 40
0.09
  9
$DIMTSZ
 40
0.0
  9
$DIMTOL
 70
         0
  9
$DIMLIM
 70
         0
  9
$DIMTIH
 70
         1
  9
$DIMTOH
 70
         1
  9
$DIMSE1
 70
         0
  9
$DIMSE2
 70
         0
  9
$DIMTAD
 70
         0
  9
$DIMZIN
 70
         0
  9
$DIMBLK
  1

  9
$DIMASO
 70
         1
  9
$DIMSHO
 70
         1
  9
$DIMPOST
  1

  9
$DIMAPOST
  1

  9
$DIMALT
 70
         0
  9
$DIMALTD
 70
         2
  9
$DIMALTF
 40
25.4
  9
$DIMLFAC
 40
1.0
  9
$DIMTOFL
 70
         0
  9
$DIMTVP
 40
0.0
  9
$DIMTIX
 70
         0
  9
$DIMSOXD
 70
         0
  9
$DIMSAH
 70
         0
  9
$DIMBLK1
  1

  9
$DIMBLK2
  1

  9
$DIMSTYLE
  2
STANDARD
  9
$DIMCLRD
 70
         0
  9
$DIMCLRE
 70
         0
  9
$DIMCLRT
 70
         4
  9
$DIMTFAC
 40
1.0
  9
$DIMGAP
 40
0.09
  9
$DIMJUST
 70
         0
  9
$DIMSD1
 70
         0
  9
$DIMSD2
 70
         0
  9
$DIMTOLJ
 70
         1
  9
$DIMTZIN
 70
         0
  9
$DIMALTZ
 70
         0
  9
$DIMALTTZ
 70
         0
  9
$DIMFIT
 70
         3
  9
$DIMUPT
 70
         0
  9
$DIMUNIT
 70
         2
  9
$DIMDEC
 70
         4
  9
$DIMTDEC
 70
         4
  9
$DIMALTU
 70
         2
  9
$DIMALTTD
 70
         2
  9
$DIMTXSTY
  7
STANDARD
  9
$DIMAUNIT
 70
         0
  9
$LUNITS
 70
         2
  9
$LUPREC
 70
        10
  9
$SKETCHINC
 40
0.1
  9
$FILLETRAD
 40
0.0
  9
$AUNITS
 70
         0
  9
$AUPREC
 70
         0
  9
$MENU
  1
acad
  9
$ELEVATION
 40
0.0
  9
$PELEVATION
 40
0.0
  9
$THICKNESS
 40
0.0
  9
$LIMCHECK
 70
         0
  9
$BLIPMODE
 70
         1
  9
$CHAMFERA
 40
0.0
  9
$CHAMFERB
 40
0.0
  9
$CHAMFERC
 40
0.0
  9
$CHAMFERD
 40
0.0
  9
$SKPOLY
 70
         0
  9
$TDCREATE
 40
0.000000000
  9
$TDUPDATE
 40
0.000000000
  9
$TDINDWG
 40
0.0000000000
  9
$TDUSRTIMER
 40
0.0000000000
  9
$USRTIMER
 70
         1
  9
$ANGBASE
 50
0.0
  9
$ANGDIR
 70
         0
  9
$PDMODE
 70
         2
  9
$PDSIZE
 40
0.0
  9
$PLINEWID
 40
0.0
  9
$COORDS
 70
         1
  9
$SPLFRAME
 70
         0
  9
$SPLINETYPE
 70
         6
  9
$SPLINESEGS
 70
         8
  9
$ATTDIA
 70
         0
  9
$ATTREQ
 70
         1
  9
$HANDLING
 70
         1
  9
$HANDSEED
  5
6C5
  9
$SURFTAB1
 70
         6
  9
$SURFTAB2
 70
         6
  9
$SURFTYPE
 70
         6
  9
$SURFU
 70
         6
  9
$SURFV
 70
         6
  9
$UCSNAME
  2

  9
$UCSORG
 10
0.0
 20
0.0
 30
0.0
  9
$UCSXDIR
 10
1.0
 20
0.0
 30
0.0
  9
$UCSYDIR
 10
0.0
 20
1.0
 30
0.0
  9
$PUCSNAME
  2

  9
$PUCSORG
 10
0.0
 20
0.0
 30
0.0
  9
$PUCSXDIR
 10
1.0
 20
0.0
 30
0.0
  9
$PUCSYDIR
 10
0.0
 20
1.0
 30
0.0
  9
$USERI1
 70
         0
  9
$USERI2
 70
         0
  9
$USERI3
 70
         0
  9
$USERI4
 70
         0
  9
$USERI5
 70
         0
  9
$USERR1
 40
0.0
  9
$USERR2
 40
0.0
  9
$USERR3
 40
0.0
  9
$USERR4
 40
0.0
  9
$USERR5
 40
0.0
  9
$WORLDVIEW
 70
         1
  9
$SHADEDGE
 70
         3
  9
$SHADEDIF
 70
        70
  9
$TILEMODE
 70
         1
  9
$MAXACTVP
 70
        16
  9
$PINSBASE
 10
0.0
 20
0.0
 30
0.0
  9
$PLIMCHECK
 70
         0
  9
$PEXTMIN
 10
1.0000000000E+20
 20
1.0000000000E+20
 30
1.0000000000E+20
  9
$PEXTMAX
 10
-1.0000000000E+20
 20
-1.0000000000E+20
 30
-1.0000000000E+20
  9
$PLIMMIN
 10
0.0
 20
0.0
  9
$PLIMMAX
 10
12.0
 20
9.0
  9
$UNITMODE
 70
         0
  9
$VISRETAIN
 70
         0
  9
$PLINEGEN
 70
         1
  9
$PSLTSCALE
 70
         0
  9
$TREEDEPTH
 70
      3020
  9
$PICKSTYLE
 70
         1
  9
$CMLSTYLE
  2
STANDARD
  9
$CMLJUST
 70
         0
  9
$CMLSCALE
 40
1.0
  9
$PROXYGRAPHICS
 70
         0
  9
$MEASUREMENT
 70
         0
  0
ENDSEC
  0
SECTION
  2
CLASSES
  0
CLASS
  1
LWPOLYLINE
  2
AcDbPolyline
  3
"AutoCAD"
 90
        0
280
         0
281
         1
  0
CLASS
  1
IMAGE
  2
AcDbRasterImage
  3
ISM
 90
      127
280
         0
281
         1
  0
CLASS
  1
OLE2FRAME
  2
AcDbOle2Frame
  3
""
 90
        0
280
         0
281
         1
  0
CLASS
  1
HATCH
  2
AcDbHatch
  3
"ACAD_SEDONA"
 90
        0
280
         0
281
         1
  0
CLASS
  1
DICTIONARYVAR
  2
AcDbDictionaryVar
  3
"AutoCAD"
 90
        0
280
         0
281
         0
  0
CLASS
  1
RASTERVARIABLES
  2
AcDbRasterVariables
  3
ISM
 90
        0
280
         0
281
         0
  0
CLASS
  1
IMAGEDEF
  2
AcDbRasterImageDef
  3
ISM
 90
        0
280
         0
281
         0
  0
CLASS
  1
IMAGEDEF_REACTOR
  2
AcDbRasterImageDefReactor
  3
ISM
 90
        1
280
         0
281
         0
  0
CLASS
  1
IDBUFFER
  2
AcDbIdBuffer
  3
"Acad"
 90
        0
280
         0
281
         0
  0
CLASS
  1
SPATIAL_FILTER
  2
AcDbSpatialFilter
  3
"Acad"
 90
        0
280
         0
281
         0
  0
CLASS
  1
XRECORD
  2
AcDbXrecord
  3
"<Built In>"
 90
        0
280
         0
281
         0
  0
CLASS
  1
SORTENTSTABLE
  2
AcDbSortentsTable
  3
"AutoCAD"
 90
        0
280
         0
281
         0
  0
CLASS
  1
LAYER_INDEX
  2
AcDbLayerIndex
  3
"Acad"
 90
        0
280
         0
281
         0
  0
CLASS
  1
SPATIAL_INDEX
  2
AcDbSpatialIndex
  3
"Acad"
 90
        0
280
         0
281
         0
  0
CLASS
  1
OBJECT_PTR
  2
CAseDLPNTableRecord
  3
"ASE-LPNTableRecord"
 90
        1
280
         0
281
         0
  0
CLASS
  1
LAYOUT
  2
AcDbLayout
  3
"AutoCAD 2000"
 90
        1
280
         0
281
         0
  0
CLASS
  1
PLOTSETTINGS
  2
AcDbPlotSettings
  3
"AutoCAD 2000"
 90
        1
280
         0
281
         0
  0
CLASS
  1
ACDBDICTIONARYWDFLT
  2
AcDbDictionaryWithDefault
  3
"AutoCAD 2000"
 90
        1
280
         0
281
         0
  0
CLASS
  1
ACDBPLACEHOLDER
  2
AcDbPlaceHolder
  3
"AutoCAD 2000"
 90
        1
280
         0
281
         0
  0
CLASS
  1
VBA_PROJECT
  2
AcDbVbaProject
  3
"acadvba"
 90
        1
280
         0
281
         0
  0
CLASS
  1
WIPEOUT
  2
AcDbWipeout
  3
WipeOut|AutoCAD Express Tool|expresstools@autodesk.com
 90
      127
280
         0
281
         1
  0
CLASS
  1
WIPEOUTVARIABLES
  2
AcDbWipeoutVariables
  3
WipeOut|AutoCAD Express Tool|expresstools@autodesk.com
 90
        0
280
         0
281
         0
  0
CLASS
  1
RTEXT
  2
RText
  3
RText|AutoCAD Express Tool|expresstools@autodesk.com
 90
        0
280
         0
281
         1
  0
CLASS
  1
ARCALIGNEDTEXT
  2
AcDbArcAlignedText
  3
ATEXT|AutoCAD Express Tool|expresstools@autodesk.com
 90
        0
280
         0
281
         1
  0
ENDSEC
  0
SECTION
  2
TABLES
  0
TABLE
  2
VPORT
  5
7
100
AcDbSymbolTable
 70
         1
  0
VPORT
  5
15
100
AcDbSymbolTableRecord
100
AcDbViewportTableRecord
  2
*ACTIVE
 70
         0
 10
0.0
 20
0.0
 11
1.0
 21
1.0
 12
1497.2750464659
 22
79.1164575842
 13
0.0
 23
0.0
 14
1.0
 24
1.0
 15
0.0
 25
0.0
 16
0.0
 26
0.0
 36
1.0
 17
0.0
 27
0.0
 37
0.0
 40
336.9471512819
 41
1.9834619625
 42
50.0
 43
0.0
 44
0.0
 50
0.0
 51
0.0
 71
         0
 72
       100
 73
         1
 74
         1
 75
         0
 76
         0
 77
         0
 78
         0
  0
ENDTAB
  0
TABLE
  2
LTYPE
  5
4
100
AcDbSymbolTable
 70
         6
  0
LTYPE
  5
11
100
AcDbSymbolTableRecord
100
AcDbLinetypeTableRecord
  2
BYBLOCK
 70
        64
  3

 72
        65
 73
         0
 40
0.0
  0
LTYPE
  5
12
100
AcDbSymbolTableRecord
100
AcDbLinetypeTableRecord
  2
BYLAYER
 70
        64
  3

 72
        65
 73
         0
 40
0.0
  0
LTYPE
  5
13
100
AcDbSymbolTableRecord
100
AcDbLinetypeTableRecord
  2
CONTINUOUS
 70
        64
  3
Solid line
 72
        65
 73
         0
 40
0.0
  0
LTYPE
  5
1D
100
AcDbSymbolTableRecord
100
AcDbLinetypeTableRecord
  2
DASHED
 70
        64
  3
_ _ _ _ _ _ _ _ _ _ _ _ _ _ _ _
 72
        65
 73
         2
 40
0.2
 49
0.1
 74
         0
 49
-0.1
 74
         0
  0
LTYPE
  5
1E
100
AcDbSymbolTableRecord
100
AcDbLinetypeTableRecord
  2
CENTER
 70
        64
  3
___ _ ___ _ ___ _ ___ _ ___ _ ___ _ ___ _ ___ _
 72
        65
 73
         4
 40
0.95
 49
0.625
 74
         0
 49
-0.125
 74
         0
 49
0.075
 74
         0
 49
-0.125
 74
         0
  0
LTYPE
  5
1F
100
AcDbSymbolTableRecord
100
AcDbLinetypeTableRecord
  2
PHANTOM
 70
        64
  3
______  __  __  ______  __  __  ______  __  __  
 72
        65
 73
         6
 40
1.025
 49
0.625
 74
         0
 49
-0.125
 74
         0
 49
0.075
 74
         0
 49
-0.125
 74
         0
 49
0.075
 74
         0
 49
-0.125
 74
         0
  0
ENDTAB
  0
TABLE
  2
LAYER
  5
2
100
AcDbSymbolTable
 70
         5
  0
LAYER
  5
14
100
AcDbSymbolTableRecord
100
AcDbLayerTableRecord
  2
0
 70
         0
 62
         7
  6
CONTINUOUS
  0
LAYER
  5
21
100
AcDbSymbolTableRecord
100
AcDbLayerTableRecord
  2
_____U
 70
         1
 62
         7
  6
CONTINUOUS
  0
LAYER
  5
22
100
AcDbSymbolTableRecord
100
AcDbLayerTableRecord
  2
_Y__________
 70
         0
 62
         7
  6
CONTINUOUS
  0
LAYER
  5
23
100
AcDbSymbolTableRecord
100
AcDbLayerTableRecord
  2
L1_105
 70
         0
 62
         7
  6
CONTINUOUS
  0
LAYER
  5
151
100
AcDbSymbolTableRecord
100
AcDbLayerTableRecord
  2
DEFPOINTS
 70
         0
 62
        -7
  6
CONTINUOUS
  0
ENDTAB
  0
TABLE
  2
STYLE
  5
3
100
AcDbSymbolTable
 70
        52
  0
STYLE
  5
17
100
AcDbSymbolTableRecord
100
AcDbTextStyleTableRecord
  2
STANDARD
 70
         0
 40
0.0
 41
1.0
 50
0.0
 71
         0
 42
0.0
  3
txt
  4

  0
STYLE
  5
15A
100
AcDbSymbolTableRecord
100
AcDbTextStyleTableRecord
  2
BOX
 70
         0
 40
1.0
 41
1.0
 50
0.0
 71
         0
 42
0.2
  3
txt.shx
  4

  0
STYLE
  5
1C4
100
AcDbSymbolTableRecord
100
AcDbTextStyleTableRecord
  2
BOX
 70
         0
 40
1.0
 41
1.0
 50
0.0
 71
         0
 42
0.2
  3
txt.shx
  4

  0
STYLE
  5
1DE
100
AcDbSymbolTableRecord
100
AcDbTextStyleTableRecord
  2
BOX
 70
         0
 40
1.0
 41
1.0
 50
0.0
 71
         0
 42
0.2
  3
txt.shx
  4

  0
STYLE
  5
205
100
AcDbSymbolTableRecord
100
AcDbTextStyleTableRecord
  2
BOX
 70
         0
 40
1.0
 41
1.0
 50
0.0
 71
         0
 42
0.2
  3
txt.shx
  4

  0
STYLE
  5
24D
100
AcDbSymbolTableRecord
100
AcDbTextStyleTableRecord
  2
BOX
 70
         0
 40
1.0
 41
1.0
 50
0.0
 71
         0
 42
0.2
  3
txt.shx
  4

  0
STYLE
  5
25B
100
AcDbSymbolTableRecord
100
AcDbTextStyleTableRecord
  2
BOX
 70
         0
 40
1.0
 41
1.0
 50
0.0
 71
         0
 42
0.2
  3
txt.shx
  4

  0
STYLE
  5
26B
100
AcDbSymbolTableRecord
100
AcDbTextStyleTableRecord
  2
BOX
 70
         0
 40
1.0
 41
1.0
 50
0.0
 71
         0
 42
0.2
  3
txt.shx
  4

  0
STYLE
  5
279
100
AcDbSymbolTableRecord
100
AcDbTextStyleTableRecord
  2
BOX
 70
         0
 40
1.0
 41
1.0
 50
0.0
 71
         0
 42
0.2
  3
txt.shx
  4

  0
STYLE
  5
287
100
AcDbSymbolTableRecord
100
AcDbTextStyleTableRecord
  2
BOX
 70
         0
 40
1.0
 41
1.0
 50
0.0
 71
         0
 42
0.2
  3
txt.shx
  4

  0
STYLE
  5
295
100
AcDbSymbolTableRecord
100
AcDbTextStyleTableRecord
  2
BOX
 70
         0
 40
1.0
 41
1.0
 50
0.0
 71
         0
 42
0.2
  3
txt.shx
  4

  0
STYLE
  5
2A4
100
AcDbSymbolTableRecord
100
AcDbTextStyleTableRecord
  2
BOX
 70
         0
 40
1.0
 41
1.0
 50
0.0
 71
         0
 42
0.2
  3
txt.shx
  4

  0
STYLE
  5
2C5
100
AcDbSymbolTableRecord
100
AcDbTextStyleTableRecord
  2
BOX
 70
         0
 40
1.0
 41
1.0
 50
0.0
 71
         0
 42
0.2
  3
txt.shx
  4

  0
STYLE
  5
2D3
100
AcDbSymbolTableRecord
100
AcDbTextStyleTableRecord
  2
BOX
 70
         0
 40
1.0
 41
1.0
 50
0.0
 71
         0
 42
0.2
  3
txt.shx
  4

  0
STYLE
  5
2E1
100
AcDbSymbolTableRecord
100
AcDbTextStyleTableRecord
  2
BOX
 70
         0
 40
1.0
 41
1.0
 50
0.0
 71
         0
 42
0.2
  3
txt.shx
  4

  0
STYLE
  5
2FD
100
AcDbSymbolTableRecord
100
AcDbTextStyleTableRecord
  2
BOX
 70
         0
 40
1.0
 41
1.0
 50
0.0
 71
         0
 42
0.2
  3
txt.shx
  4

  0
STYLE
  5
30B
100
AcDbSymbolTableRecord
100
AcDbTextStyleTableRecord
  2
BOX
 70
         0
 40
1.0
 41
1.0
 50
0.0
 71
         0
 42
0.2
  3
txt.shx
  4

  0
STYLE
  5
440
100
AcDbSymbolTableRecord
100
AcDbTextStyleTableRecord
  2
BOX
 70
         0
 40
1.0
 41
1.0
 50
0.0
 71
         0
 42
0.2
  3
txt.shx
  4

  0
STYLE
  5
44E
100
AcDbSymbolTableRecord
100
AcDbTextStyleTableRecord
  2
BOX
 70
         0
 40
1.0
 41
1.0
 50
0.0
 71
         0
 42
0.2
  3
txt.shx
  4

  0
STYLE
  5
45C
100
AcDbSymbolTableRecord
100
AcDbTextStyleTableRecord
  2
BOX
 70
         0
 40
1.0
 41
1.0
 50
0.0
 71
         0
 42
0.2
  3
txt.shx
  4

  0
STYLE
  5
46A
100
AcDbSymbolTableRecord
100
AcDbTextStyleTableRecord
  2
BOX
 70
         0
 40
1.0
 41
1.0
 50
0.0
 71
         0
 42
0.2
  3
txt.shx
  4

  0
STYLE
  5
478
100
AcDbSymbolTableRecord
100
AcDbTextStyleTableRecord
  2
BOX
 70
         0
 40
1.0
 41
1.0
 50
0.0
 71
         0
 42
0.2
  3
txt.shx
  4

  0
STYLE
  5
49C
100
AcDbSymbolTableRecord
100
AcDbTextStyleTableRecord
  2
BOX
 70
         0
 40
1.0
 41
1.0
 50
0.0
 71
         0
 42
0.2
  3
txt.shx
  4

  0
STYLE
  5
4AA
100
AcDbSymbolTableRecord
100
AcDbTextStyleTableRecord
  2
BOX
 70
         0
 40
1.0
 41
1.0
 50
0.0
 71
         0
 42
0.2
  3
txt.shx
  4

  0
STYLE
  5
4BA
100
AcDbSymbolTableRecord
100
AcDbTextStyleTableRecord
  2
BOX
 70
         0
 40
1.0
 41
1.0
 50
0.0
 71
         0
 42
0.2
  3
txt.shx
  4

  0
STYLE
  5
4CA
100
AcDbSymbolTableRecord
100
AcDbTextStyleTableRecord
  2
BOX
 70
         0
 40
1.0
 41
1.0
 50
0.0
 71
         0
 42
0.2
  3
txt.shx
  4

  0
STYLE
  5
4F7
100
AcDbSymbolTableRecord
100
AcDbTextStyleTableRecord
  2
BOX
 70
         0
 40
1.0
 41
1.0
 50
0.0
 71
         0
 42
0.2
  3
txt.shx
  4

  0
STYLE
  5
505
100
AcDbSymbolTableRecord
100
AcDbTextStyleTableRecord
  2
BOX
 70
         0
 40
1.0
 41
1.0
 50
0.0
 71
         0
 42
0.2
  3
txt.shx
  4

  0
STYLE
  5
513
100
AcDbSymbolTableRecord
100
AcDbTextStyleTableRecord
  2
BOX
 70
         0
 40
1.0
 41
1.0
 50
0.0
 71
         0
 42
0.2
  3
txt.shx
  4

  0
STYLE
  5
521
100
AcDbSymbolTableRecord
100
AcDbTextStyleTableRecord
  2
BOX
 70
         0
 40
1.0
 41
1.0
 50
0.0
 71
         0
 42
0.2
  3
txt.shx
  4

  0
STYLE
  5
548
100
AcDbSymbolTableRecord
100
AcDbTextStyleTableRecord
  2
BOX
 70
         0
 40
1.0
 41
1.0
 50
0.0
 71
         0
 42
0.2
  3
txt.shx
  4

  0
STYLE
  5
556
100
AcDbSymbolTableRecord
100
AcDbTextStyleTableRecord
  2
BOX
 70
         0
 40
1.0
 41
1.0
 50
0.0
 71
         0
 42
0.2
  3
txt.shx
  4

  0
STYLE
  5
55F
100
AcDbSymbolTableRecord
100
AcDbTextStyleTableRecord
  2
BOX
 70
         0
 40
1.0
 41
1.0
 50
0.0
 71
         0
 42
0.2
  3
txt.shx
  4

  0
STYLE
  5
56C
100
AcDbSymbolTableRecord
100
AcDbTextStyleTableRecord
  2
BOX
 70
         0
 40
1.0
 41
1.0
 50
0.0
 71
         0
 42
0.2
  3
txt.shx
  4

  0
STYLE
  5
56F
100
AcDbSymbolTableRecord
100
AcDbTextStyleTableRecord
  2
BOX
 70
         0
 40
1.0
 41
1.0
 50
0.0
 71
         0
 42
0.2
  3
txt.shx
  4

  0
STYLE
  5
57C
100
AcDbSymbolTableRecord
100
AcDbTextStyleTableRecord
  2
BOX
 70
         0
 40
1.0
 41
1.0
 50
0.0
 71
         0
 42
0.2
  3
txt.shx
  4

  0
STYLE
  5
58D
100
AcDbSymbolTableRecord
100
AcDbTextStyleTableRecord
  2
BOX
 70
         0
 40
1.0
 41
1.0
 50
0.0
 71
         0
 42
0.2
  3
txt.shx
  4

  0
STYLE
  5
59C
100
AcDbSymbolTableRecord
100
AcDbTextStyleTableRecord
  2
BOX
 70
         0
 40
1.0
 41
1.0
 50
0.0
 71
         0
 42
0.2
  3
txt.shx
  4

  0
STYLE
  5
5AA
100
AcDbSymbolTableRecord
100
AcDbTextStyleTableRecord
  2
BOX
 70
         0
 40
1.0
 41
1.0
 50
0.0
 71
         0
 42
0.2
  3
txt.shx
  4

  0
STYLE
  5
5BE
100
AcDbSymbolTableRecord
100
AcDbTextStyleTableRecord
  2
BOX
 70
         0
 40
1.0
 41
1.0
 50
0.0
 71
         0
 42
0.2
  3
txt.shx
  4

  0
STYLE
  5
5CC
100
AcDbSymbolTableRecord
100
AcDbTextStyleTableRecord
  2
BOX
 70
         0
 40
1.0
 41
1.0
 50
0.0
 71
         0
 42
0.2
  3
txt.shx
  4

  0
STYLE
  5
5DA
100
AcDbSymbolTableRecord
100
AcDbTextStyleTableRecord
  2
BOX
 70
         0
 40
1.0
 41
1.0
 50
0.0
 71
         0
 42
0.2
  3
txt.shx
  4

  0
STYLE
  5
5EC
100
AcDbSymbolTableRecord
100
AcDbTextStyleTableRecord
  2
BOX
 70
         0
 40
1.0
 41
1.0
 50
0.0
 71
         0
 42
0.2
  3
txt.shx
  4

  0
STYLE
  5
5FE
100
AcDbSymbolTableRecord
100
AcDbTextStyleTableRecord
  2
BOX
 70
         0
 40
1.0
 41
1.0
 50
0.0
 71
         0
 42
0.2
  3
txt.shx
  4

  0
STYLE
  5
60B
100
AcDbSymbolTableRecord
100
AcDbTextStyleTableRecord
  2
BOX
 70
         0
 40
1.0
 41
1.0
 50
0.0
 71
         0
 42
0.2
  3
txt.shx
  4

  0
STYLE
  5
618
100
AcDbSymbolTableRecord
100
AcDbTextStyleTableRecord
  2
BOX
 70
         0
 40
1.0
 41
1.0
 50
0.0
 71
         0
 42
0.2
  3
txt.shx
  4

  0
STYLE
  5
628
100
AcDbSymbolTableRecord
100
AcDbTextStyleTableRecord
  2
BOX
 70
         0
 40
1.0
 41
1.0
 50
0.0
 71
         0
 42
0.2
  3
txt.shx
  4

  0
STYLE
  5
635
100
AcDbSymbolTableRecord
100
AcDbTextStyleTableRecord
  2
BOX
 70
         0
 40
1.0
 41
1.0
 50
0.0
 71
         0
 42
0.2
  3
txt.shx
  4

  0
STYLE
  5
645
100
AcDbSymbolTableRecord
100
AcDbTextStyleTableRecord
  2
BOX
 70
         0
 40
1.0
 41
1.0
 50
0.0
 71
         0
 42
0.2
  3
txt.shx
  4

  0
STYLE
  5
655
100
AcDbSymbolTableRecord
100
AcDbTextStyleTableRecord
  2
BOX
 70
         0
 40
1.0
 41
1.0
 50
0.0
 71
         0
 42
0.2
  3
txt.shx
  4

  0
STYLE
  5
665
100
AcDbSymbolTableRecord
100
AcDbTextStyleTableRecord
  2
BOX
 70
         0
 40
1.0
 41
1.0
 50
0.0
 71
         0
 42
0.2
  3
txt.shx
  4

  0
STYLE
  5
6C3
100
AcDbSymbolTableRecord
100
AcDbTextStyleTableRecord
  2
BOX
 70
         0
 40
1.0
 41
1.0
 50
0.0
 71
         0
 42
0.2
  3
txt.shx
  4

  0
ENDTAB
  0
TABLE
  2
VIEW
  5
5
100
AcDbSymbolTable
 70
         0
  0
ENDTAB
  0
TABLE
  2
UCS
  5
6
100
AcDbSymbolTable
 70
         1
  0
UCS
  5
20
100
AcDbSymbolTableRecord
100
AcDbUCSTableRecord
  2
CK_VIEW_1
 70
         0
 10
0.0
 20
0.0
 30
1.0
 11
1.0
 21
0.0
 31
0.0
 12
0.0
 22
1.0
 32
0.0
  0
ENDTAB
  0
TABLE
  2
APPID
  5
8
100
AcDbSymbolTable
 70
         1
  0
APPID
  5
16
100
AcDbSymbolTableRecord
100
AcDbRegAppTableRecord
  2
ACAD
 70
         0
  0
ENDTAB
  0
TABLE
  2
DIMSTYLE
  5
9
100
AcDbSymbolTable
 70
         2
  0
DIMSTYLE
105
18
100
AcDbSymbolTableRecord
100
AcDbDimStyleTableRecord
  2
STANDARD
 70
         0
  3

  4

  5

  6

  7

 40
1.0
 41
0.18
 42
0.0625
 43
0.38
 44
0.18
 45
0.0
 46
0.0
 47
0.0
 48
0.0
 71
         0
 72
         0
 73
         1
 74
         1
 75
         0
 76
         0
 77
         0
 78
         0
140
0.18
141
0.09
142
0.0
143
25.4
144
1.0
145
0.0
146
1.0
147
0.09
170
         0
171
         2
172
         0
173
         0
174
         0
175
         0
176
         0
177
         0
178
         0
270
         2
271
         4
272
         4
273
         2
274
         2
275
         0
280
         0
281
         0
282
         0
283
         1
284
         0
285
         0
286
         0
287
         0
288
         0
340
17
  0
DIMSTYLE
105
14D
100
AcDbSymbolTableRecord
100
AcDbDimStyleTableRecord
  2
DIMSTYLE1
 70
         0
  3

  4

  5

  6

  7

 40
1.0
 41
2.7
 42
0.0625
 43
0.38
 44
2.7
 45
0.0
 46
0.0
 47
0.0
 48
0.0
 71
         0
 72
         0
 73
         1
 74
         1
 75
         0
 76
         0
 77
         0
 78
         0
140
2.7
141
0.09
142
0.0
143
25.4
144
1.0
145
0.0
146
1.0
147
0.09
170
         0
171
         2
172
         0
173
         0
174
         0
175
         0
176
         0
177
         0
178
         0
270
         2
271
         4
272
         4
273
         2
274
         2
275
         0
280
         0
281
         0
282
         0
283
         1
284
         0
285
         0
286
         0
287
         0
288
         0
340
17
  0
ENDTAB
  0
TABLE
  2
BLOCK_RECORD
  5
1
100
AcDbSymbolTable
 70
        49
  0
BLOCK_RECORD
  5
A
100
AcDbSymbolTableRecord
100
AcDbBlockTableRecord
  2
*MODEL_SPACE
  0
BLOCK_RECORD
  5
B
100
AcDbSymbolTableRecord
100
AcDbBlockTableRecord
  2
*PAPER_SPACE
  0
BLOCK_RECORD
  5
14E
100
AcDbSymbolTableRecord
100
AcDbBlockTableRecord
  2
*D0
  0
BLOCK_RECORD
  5
1B9
100
AcDbSymbolTableRecord
100
AcDbBlockTableRecord
  2
*D1
  0
BLOCK_RECORD
  5
1D3
100
AcDbSymbolTableRecord
100
AcDbBlockTableRecord
  2
*D2
  0
BLOCK_RECORD
  5
1FA
100
AcDbSymbolTableRecord
100
AcDbBlockTableRecord
  2
*D3
  0
BLOCK_RECORD
  5
20F
100
AcDbSymbolTableRecord
100
AcDbBlockTableRecord
  2
*X4
  0
BLOCK_RECORD
  5
242
100
AcDbSymbolTableRecord
100
AcDbBlockTableRecord
  2
*D5
  0
BLOCK_RECORD
  5
250
100
AcDbSymbolTableRecord
100
AcDbBlockTableRecord
  2
*D6
  0
BLOCK_RECORD
  5
25E
100
AcDbSymbolTableRecord
100
AcDbBlockTableRecord
  2
*D7
  0
BLOCK_RECORD
  5
26E
100
AcDbSymbolTableRecord
100
AcDbBlockTableRecord
  2
*D8
  0
BLOCK_RECORD
  5
27C
100
AcDbSymbolTableRecord
100
AcDbBlockTableRecord
  2
*D9
  0
BLOCK_RECORD
  5
28A
100
AcDbSymbolTableRecord
100
AcDbBlockTableRecord
  2
*D10
  0
BLOCK_RECORD
  5
299
100
AcDbSymbolTableRecord
100
AcDbBlockTableRecord
  2
*D11
  0
BLOCK_RECORD
  5
2BA
100
AcDbSymbolTableRecord
100
AcDbBlockTableRecord
  2
*D12
  0
BLOCK_RECORD
  5
2C8
100
AcDbSymbolTableRecord
100
AcDbBlockTableRecord
  2
*D13
  0
BLOCK_RECORD
  5
2D6
100
AcDbSymbolTableRecord
100
AcDbBlockTableRecord
  2
*D14
  0
BLOCK_RECORD
  5
2F2
100
AcDbSymbolTableRecord
100
AcDbBlockTableRecord
  2
*D15
  0
BLOCK_RECORD
  5
300
100
AcDbSymbolTableRecord
100
AcDbBlockTableRecord
  2
*D16
  0
BLOCK_RECORD
  5
435
100
AcDbSymbolTableRecord
100
AcDbBlockTableRecord
  2
*D17
  0
BLOCK_RECORD
  5
443
100
AcDbSymbolTableRecord
100
AcDbBlockTableRecord
  2
*D18
  0
BLOCK_RECORD
  5
451
100
AcDbSymbolTableRecord
100
AcDbBlockTableRecord
  2
*D19
  0
BLOCK_RECORD
  5
45F
100
AcDbSymbolTableRecord
100
AcDbBlockTableRecord
  2
*D20
  0
BLOCK_RECORD
  5
46D
100
AcDbSymbolTableRecord
100
AcDbBlockTableRecord
  2
*D21
  0
BLOCK_RECORD
  5
491
100
AcDbSymbolTableRecord
100
AcDbBlockTableRecord
  2
*D22
  0
BLOCK_RECORD
  5
49F
100
AcDbSymbolTableRecord
100
AcDbBlockTableRecord
  2
*D23
  0
BLOCK_RECORD
  5
4AD
100
AcDbSymbolTableRecord
100
AcDbBlockTableRecord
  2
*D24
  0
BLOCK_RECORD
  5
4BD
100
AcDbSymbolTableRecord
100
AcDbBlockTableRecord
  2
*D25
  0
BLOCK_RECORD
  5
4EC
100
AcDbSymbolTableRecord
100
AcDbBlockTableRecord
  2
*D26
  0
BLOCK_RECORD
  5
4FA
100
AcDbSymbolTableRecord
100
AcDbBlockTableRecord
  2
*D27
  0
BLOCK_RECORD
  5
508
100
AcDbSymbolTableRecord
100
AcDbBlockTableRecord
  2
*D28
  0
BLOCK_RECORD
  5
516
100
AcDbSymbolTableRecord
100
AcDbBlockTableRecord
  2
*D29
  0
BLOCK_RECORD
  5
53D
100
AcDbSymbolTableRecord
100
AcDbBlockTableRecord
  2
*D30
  0
BLOCK_RECORD
  5
54B
100
AcDbSymbolTableRecord
100
AcDbBlockTableRecord
  2
*D31
  0
BLOCK_RECORD
  5
561
100
AcDbSymbolTableRecord
100
AcDbBlockTableRecord
  2
*D32
  0
BLOCK_RECORD
  5
571
100
AcDbSymbolTableRecord
100
AcDbBlockTableRecord
  2
*D33
  0
BLOCK_RECORD
  5
583
100
AcDbSymbolTableRecord
100
AcDbBlockTableRecord
  2
*D34
  0
BLOCK_RECORD
  5
591
100
AcDbSymbolTableRecord
100
AcDbBlockTableRecord
  2
*D35
  0
BLOCK_RECORD
  5
59F
100
AcDbSymbolTableRecord
100
AcDbBlockTableRecord
  2
*D36
  0
BLOCK_RECORD
  5
5B3
100
AcDbSymbolTableRecord
100
AcDbBlockTableRecord
  2
*D37
  0
BLOCK_RECORD
  5
5C1
100
AcDbSymbolTableRecord
100
AcDbBlockTableRecord
  2
*D38
  0
BLOCK_RECORD
  5
5CF
100
AcDbSymbolTableRecord
100
AcDbBlockTableRecord
  2
*D39
  0
BLOCK_RECORD
  5
5E1
100
AcDbSymbolTableRecord
100
AcDbBlockTableRecord
  2
*D40
  0
BLOCK_RECORD
  5
5F4
100
AcDbSymbolTableRecord
100
AcDbBlockTableRecord
  2
*D41
  0
BLOCK_RECORD
  5
601
100
AcDbSymbolTableRecord
100
AcDbBlockTableRecord
  2
*D42
  0
BLOCK_RECORD
  5
60E
100
AcDbSymbolTableRecord
100
AcDbBlockTableRecord
  2
*D43
  0
BLOCK_RECORD
  5
61B
100
AcDbSymbolTableRecord
100
AcDbBlockTableRecord
  2
*D44
  0
BLOCK_RECORD
  5
62B
100
AcDbSymbolTableRecord
100
AcDbBlockTableRecord
  2
*D45
  0
BLOCK_RECORD
  5
638
100
AcDbSymbolTableRecord
100
AcDbBlockTableRecord
  2
*D46
  0
BLOCK_RECORD
  5
648
100
AcDbSymbolTableRecord
100
AcDbBlockTableRecord
  2
*D47
  0
BLOCK_RECORD
  5
658
100
AcDbSymbolTableRecord
100
AcDbBlockTableRecord
  2
*D48
  0
ENDTAB
  0
ENDSEC
  0
SECTION
  2
BLOCKS
  0
BLOCK
  5
D
100
AcDbEntity
  8
0
100
AcDbBlockBegin
  2
*MODEL_SPACE
 70
         0
 10
0.0
 20
0.0
 30
0.0
  3
*MODEL_SPACE
  1

  0
ENDBLK
  5
E
100
AcDbEntity
  8
0
100
AcDbBlockEnd
  0
BLOCK
  5
F
100
AcDbEntity
 67
         1
  8
0
100
AcDbBlockBegin
  2
*PAPER_SPACE
 70
         0
 10
0.0
 20
0.0
 30
0.0
  3
*PAPER_SPACE
  1

  0
ENDBLK
  5
10
100
AcDbEntity
 67
         1
  8
0
100
AcDbBlockEnd
  0
BLOCK
  5
14F
100
AcDbEntity
  8
0
100
AcDbBlockBegin
  2
*D0
 70
        65
 10
0.0
 20
0.0
 30
0.0
  3
*D0
  1

  0
POINT
  5
152
100
AcDbEntity
  8
DEFPOINTS
  6
CONTINUOUS
 62
         0
100
AcDbPoint
 10
1445.1033403763
 20
206.1588373439
 30
0.0
  0
POINT
  5
153
100
AcDbEntity
  8
DEFPOINTS
  6
CONTINUOUS
 62
         0
100
AcDbPoint
 10
1445.1033403763
 20
150.1846417294
 30
0.0
  0
POINT
  5
154
100
AcDbEntity
  8
DEFPOINTS
  6
CONTINUOUS
 62
         0
100
AcDbPoint
 10
1359.1033403763
 20
163.8846417294
 30
0.0
  0
LINE
  5
155
100
AcDbEntity
  8
L1_105
  6
CONTINUOUS
 62
         4
100
AcDbLine
 10
1445.1033403763
 20
151.5346417294
 30
0.0
 11
1445.1033403763
 21
206.8338373439
 31
0.0
  0
LINE
  5
156
100
AcDbEntity
  8
L1_105
  6
CONTINUOUS
 62
         4
100
AcDbLine
 10
1359.1033403763
 20
165.2346417294
 30
0.0
 11
1359.1033403763
 21
206.8338373439
 31
0.0
  0
LINE
  5
157
100
AcDbEntity
  8
L1_105
  6
CONTINUOUS
 62
         4
100
AcDbLine
 10
1445.1033403763
 20
206.1588373439
 30
0.0
 11
1359.1033403763
 21
206.1588373439
 31
0.0
  0
SOLID
  5
158
100
AcDbEntity
  8
L1_105
  6
CONTINUOUS
 62
         4
100
AcDbTrace
 10
1445.1033403763
 20
206.1588373439
 30
0.0
 11
1442.4033403763
 21
205.7538373439
 31
0.0
 12
1442.4033403763
 22
206.5638373439
 32
0.0
 13
1445.1033403763
 23
206.1588373439
 33
0.0
  0
SOLID
  5
159
100
AcDbEntity
  8
L1_105
  6
CONTINUOUS
 62
         4
100
AcDbTrace
 10
1359.1033403763
 20
206.1588373439
 30
0.0
 11
1361.8033403763
 21
206.5638373439
 31
0.0
 12
1361.8033403763
 22
205.7538373439
 32
0.0
 13
1359.1033403763
 23
206.1588373439
 33
0.0
  0
TEXT
  5
15B
100
AcDbEntity
  8
L1_105
  6
CONTINUOUS
 62
         4
100
AcDbText
 10
1408.7276869875
 20
208.1838373439
 30
0.0
 40
2.7
  1
86
  7
BOX
100
AcDbText
  0
ENDBLK
  5
15C
100
AcDbEntity
  8
0
  6
CONTINUOUS
100
AcDbBlockEnd
  0
BLOCK
  5
1BA
100
AcDbEntity
  8
0
100
AcDbBlockBegin
  2
*D1
 70
        65
 10
0.0
 20
0.0
 30
0.0
  3
*D1
  1

  0
POINT
  5
1BC
100
AcDbEntity
  8
DEFPOINTS
  6
CONTINUOUS
 62
         0
100
AcDbPoint
 10
1492.6526483081
 20
172.6846417294
 30
0.0
  0
POINT
  5
1BD
100
AcDbEntity
  8
DEFPOINTS
  6
CONTINUOUS
 62
         0
100
AcDbPoint
 10
1391.1033403763
 20
172.6846417294
 30
0.0
  0
POINT
  5
1BE
100
AcDbEntity
  8
DEFPOINTS
  6
CONTINUOUS
 62
         0
100
AcDbPoint
 10
1391.1033403763
 20
127.6846417294
 30
0.0
  0
LINE
  5
1BF
100
AcDbEntity
  8
L1_105
  6
CONTINUOUS
 62
         4
100
AcDbLine
 10
1392.4533403763
 20
172.6846417294
 30
0.0
 11
1493.3276483081
 21
172.6846417294
 31
0.0
  0
LINE
  5
1C0
100
AcDbEntity
  8
L1_105
  6
CONTINUOUS
 62
         4
100
AcDbLine
 10
1392.4533403763
 20
127.6846417294
 30
0.0
 11
1493.3276483081
 21
127.6846417294
 31
0.0
  0
LINE
  5
1C1
100
AcDbEntity
  8
L1_105
  6
CONTINUOUS
 62
         4
100
AcDbLine
 10
1492.6526483081
 20
172.6846417294
 30
0.0
 11
1492.6526483081
 21
127.6846417294
 31
0.0
  0
SOLID
  5
1C2
100
AcDbEntity
  8
L1_105
  6
CONTINUOUS
 62
         4
100
AcDbTrace
 10
1492.6526483081
 20
172.6846417294
 30
0.0
 11
1493.0576483081
 21
169.9846417294
 31
0.0
 12
1492.2476483081
 22
169.9846417294
 32
0.0
 13
1492.6526483081
 23
172.6846417294
 33
0.0
  0
SOLID
  5
1C3
100
AcDbEntity
  8
L1_105
  6
CONTINUOUS
 62
         4
100
AcDbTrace
 10
1492.6526483081
 20
127.6846417294
 30
0.0
 11
1492.2476483081
 21
130.3846417294
 31
0.0
 12
1493.0576483081
 22
130.3846417294
 32
0.0
 13
1492.6526483081
 23
127.6846417294
 33
0.0
  0
TEXT
  5
1C5
100
AcDbEntity
  8
L1_105
  6
CONTINUOUS
 62
         4
100
AcDbText
 10
1489.5206483081
 20
144.1273538612
 30
0.0
 40
2.7
  1
崷45
 50
90.0
  7
BOX
100
AcDbText
  0
ENDBLK
  5
1C6
100
AcDbEntity
  8
0
  6
CONTINUOUS
100
AcDbBlockEnd
  0
BLOCK
  5
1D4
100
AcDbEntity
  8
0
100
AcDbBlockBegin
  2
*D2
 70
        65
 10
0.0
 20
0.0
 30
0.0
  3
*D2
  1

  0
POINT
  5
1D6
100
AcDbEntity
  8
DEFPOINTS
  6
CONTINUOUS
 62
         0
100
AcDbPoint
 10
1465.5367069289
 20
168.1846417294
 30
0.0
  0
POINT
  5
1D7
100
AcDbEntity
  8
DEFPOINTS
  6
CONTINUOUS
 62
         0
100
AcDbPoint
 10
1445.1033403763
 20
168.1846417294
 30
0.0
  0
POINT
  5
1D8
100
AcDbEntity
  8
DEFPOINTS
  6
CONTINUOUS
 62
         0
100
AcDbPoint
 10
1445.1033403763
 20
132.1846417294
 30
0.0
  0
LINE
  5
1D9
100
AcDbEntity
  8
L1_105
  6
CONTINUOUS
 62
         4
100
AcDbLine
 10
1446.4533403763
 20
168.1846417294
 30
0.0
 11
1466.2117069289
 21
168.1846417294
 31
0.0
  0
LINE
  5
1DA
100
AcDbEntity
  8
L1_105
  6
CONTINUOUS
 62
         4
100
AcDbLine
 10
1446.4533403763
 20
132.1846417294
 30
0.0
 11
1466.2117069289
 21
132.1846417294
 31
0.0
  0
LINE
  5
1DB
100
AcDbEntity
  8
L1_105
  6
CONTINUOUS
 62
         4
100
AcDbLine
 10
1465.5367069289
 20
168.1846417294
 30
0.0
 11
1465.5367069289
 21
132.1846417294
 31
0.0
  0
SOLID
  5
1DC
100
AcDbEntity
  8
L1_105
  6
CONTINUOUS
 62
         4
100
AcDbTrace
 10
1465.5367069289
 20
168.1846417294
 30
0.0
 11
1465.9417069289
 21
165.4846417294
 31
0.0
 12
1465.1317069289
 22
165.4846417294
 32
0.0
 13
1465.5367069289
 23
168.1846417294
 33
0.0
  0
SOLID
  5
1DD
100
AcDbEntity
  8
L1_105
  6
CONTINUOUS
 62
         4
100
AcDbTrace
 10
1465.5367069289
 20
132.1846417294
 30
0.0
 11
1465.1317069289
 21
134.8846417294
 31
0.0
 12
1465.9417069289
 22
134.8846417294
 32
0.0
 13
1465.5367069289
 23
132.1846417294
 33
0.0
  0
TEXT
  5
1DF
100
AcDbEntity
  8
L1_105
  6
CONTINUOUS
 62
         4
100
AcDbText
 10
1462.4047069289
 20
142.3329165641
 30
0.0
 40
2.7
  1
崷36
 50
90.0
  7
BOX
100
AcDbText
  0
ENDBLK
  5
1E0
100
AcDbEntity
  8
0
  6
CONTINUOUS
100
AcDbBlockEnd
  0
BLOCK
  5
1FB
100
AcDbEntity
  8
0
100
AcDbBlockBegin
  2
*D3
 70
        65
 10
0.0
 20
0.0
 30
0.0
  3
*D3
  1

  0
POINT
  5
1FD
100
AcDbEntity
  8
DEFPOINTS
  6
CONTINUOUS
 62
         0
100
AcDbPoint
 10
1301.1933403763
 20
214.9053014795
 30
0.0
  0
POINT
  5
1FE
100
AcDbEntity
  8
DEFPOINTS
  6
CONTINUOUS
 62
         0
100
AcDbPoint
 10
1301.1933403763
 20
161.3846417294
 30
0.0
  0
POINT
  5
1FF
100
AcDbEntity
  8
DEFPOINTS
  6
CONTINUOUS
 62
         0
100
AcDbPoint
 10
1445.1033403763
 20
150.1846417294
 30
0.0
  0
LINE
  5
200
100
AcDbEntity
  8
L1_105
  6
CONTINUOUS
 62
         4
100
AcDbLine
 10
1301.1933403763
 20
162.7346417294
 30
0.0
 11
1301.1933403763
 21
215.5803014795
 31
0.0
  0
LINE
  5
201
100
AcDbEntity
  8
L1_105
  6
CONTINUOUS
 62
         4
100
AcDbLine
 10
1445.1033403763
 20
151.5346417294
 30
0.0
 11
1445.1033403763
 21
215.5803014795
 31
0.0
  0
LINE
  5
202
100
AcDbEntity
  8
L1_105
  6
CONTINUOUS
 62
         4
100
AcDbLine
 10
1301.1933403763
 20
214.9053014795
 30
0.0
 11
1445.1033403763
 21
214.9053014795
 31
0.0
  0
SOLID
  5
203
100
AcDbEntity
  8
L1_105
  6
CONTINUOUS
 62
         4
100
AcDbTrace
 10
1301.1933403763
 20
214.9053014795
 30
0.0
 11
1303.8933403763
 21
215.3103014795
 31
0.0
 12
1303.8933403763
 22
214.5003014795
 32
0.0
 13
1301.1933403763
 23
214.9053014795
 33
0.0
  0
SOLID
  5
204
100
AcDbEntity
  8
L1_105
  6
CONTINUOUS
 62
         4
100
AcDbTrace
 10
1445.1033403763
 20
214.9053014795
 30
0.0
 11
1442.4033403763
 21
214.5003014795
 31
0.0
 12
1442.4033403763
 22
215.3103014795
 32
0.0
 13
1445.1033403763
 23
214.9053014795
 33
0.0
  0
TEXT
  5
206
100
AcDbEntity
  8
L1_105
  6
CONTINUOUS
 62
         4
100
AcDbText
 10
1373.6674959614
 20
216.9303014795
 30
0.0
 40
2.7
  1
143.91
  7
BOX
100
AcDbText
  0
ENDBLK
  5
207
100
AcDbEntity
  8
0
  6
CONTINUOUS
100
AcDbBlockEnd
  0
BLOCK
  5
210
100
AcDbEntity
  8
0
100
AcDbBlockBegin
  2
*X4
 70
        65
 10
0.0
 20
0.0
 30
0.0
  3
*X4
  1

  0
LINE
  5
211
100
AcDbEntity
  8
L1_105
  6
CONTINUOUS
 62
         4
100
AcDbLine
 10
1442.5092907138
 20
-32.4410100116
 30
0.0
 11
1444.8229923268
 21
-30.1273083986
 31
0.0
  0
LINE
  5
212
100
AcDbEntity
  8
L1_105
  6
CONTINUOUS
 62
         4
100
AcDbLine
 10
1437.2643252976
 20
-33.4433347407
 30
0.0
 11
1440.7643252976
 21
-29.9433347407
 31
0.0
  0
LINE
  5
213
100
AcDbEntity
  8
L1_105
  6
CONTINUOUS
 62
         4
100
AcDbLine
 10
1433.0216846105
 20
-33.4433347407
 30
0.0
 11
1436.5216846105
 21
-29.9433347407
 31
0.0
  0
LINE
  5
214
100
AcDbEntity
  8
L1_105
  6
CONTINUOUS
 62
         4
100
AcDbLine
 10
1428.7790439234
 20
-33.4433347407
 30
0.0
 11
1432.2790439234
 21
-29.9433347407
 31
0.0
  0
LINE
  5
215
100
AcDbEntity
  8
L1_105
  6
CONTINUOUS
 62
         4
100
AcDbLine
 10
1424.5364032362
 20
-33.4433347407
 30
0.0
 11
1425.1033403763
 21
-32.8763976007
 31
0.0
  0
LINE
  5
216
100
AcDbEntity
  8
L1_105
  6
CONTINUOUS
 62
         4
100
AcDbLine
 10
1425.5364032362
 20
-32.4433347407
 30
0.0
 11
1428.0364032362
 21
-29.9433347407
 31
0.0
  0
LINE
  5
217
100
AcDbEntity
  8
L1_105
  6
CONTINUOUS
 62
         4
100
AcDbLine
 10
1420.2937625491
 20
-33.4433347407
 30
0.0
 11
1423.2937625491
 21
-30.4433347407
 31
0.0
  0
LINE
  5
218
100
AcDbEntity
  8
L1_105
  6
CONTINUOUS
 62
         4
100
AcDbLine
 10
1416.051121862
 20
-33.4433347407
 30
0.0
 11
1419.9979567972
 21
-29.4964998055
 31
0.0
  0
LINE
  5
219
100
AcDbEntity
  8
L1_105
  6
CONTINUOUS
 62
         4
100
AcDbLine
 10
1411.8084811749
 20
-33.4433347407
 30
0.0
 11
1416.3084811749
 21
-28.9433347407
 31
0.0
  0
LINE
  5
21A
100
AcDbEntity
  8
L1_105
  6
CONTINUOUS
 62
         4
100
AcDbLine
 10
1407.5658404878
 20
-33.4433347407
 30
0.0
 11
1412.0658404878
 21
-28.9433347407
 31
0.0
  0
LINE
  5
21B
100
AcDbEntity
  8
L1_105
  6
CONTINUOUS
 62
         4
100
AcDbLine
 10
1403.3231998007
 20
-33.4433347407
 30
0.0
 11
1407.8231998007
 21
-28.9433347407
 31
0.0
  0
LINE
  5
21C
100
AcDbEntity
  8
L1_105
  6
CONTINUOUS
 62
         4
100
AcDbLine
 10
1440.8231998007
 20
4.0566652593
 30
0.0
 11
1443.0238145793
 21
6.257280038
 31
0.0
  0
LINE
  5
21D
100
AcDbEntity
  8
L1_105
  6
CONTINUOUS
 62
         4
100
AcDbLine
 10
1399.0805591135
 20
-33.4433347407
 30
0.0
 11
1403.5805591135
 21
-28.9433347407
 31
0.0
  0
LINE
  5
21E
100
AcDbEntity
  8
L1_105
  6
CONTINUOUS
 62
         4
100
AcDbLine
 10
1436.5805591135
 20
4.0566652593
 30
0.0
 11
1440.0805591135
 21
7.5566652593
 31
0.0
  0
LINE
  5
21F
100
AcDbEntity
  8
L1_105
  6
CONTINUOUS
 62
         4
100
AcDbLine
 10
1394.8379184264
 20
-33.4433347407
 30
0.0
 11
1399.3379184264
 21
-28.9433347407
 31
0.0
  0
LINE
  5
220
100
AcDbEntity
  8
L1_105
  6
CONTINUOUS
 62
         4
100
AcDbLine
 10
1432.3379184264
 20
4.0566652593
 30
0.0
 11
1435.8379184264
 21
7.5566652593
 31
0.0
  0
LINE
  5
221
100
AcDbEntity
  8
L1_105
  6
CONTINUOUS
 62
         4
100
AcDbLine
 10
1388.5952777393
 20
-35.4433347407
 30
0.0
 11
1395.0952777393
 21
-28.9433347407
 31
0.0
  0
LINE
  5
222
100
AcDbEntity
  8
L1_105
  6
CONTINUOUS
 62
         4
100
AcDbLine
 10
1428.0952777393
 20
4.0566652593
 30
0.0
 11
1431.5952777393
 21
7.5566652593
 31
0.0
  0
LINE
  5
223
100
AcDbEntity
  8
L1_105
  6
CONTINUOUS
 62
         4
100
AcDbLine
 10
1384.3526370522
 20
-35.4433347407
 30
0.0
 11
1390.8526370522
 21
-28.9433347407
 31
0.0
  0
LINE
  5
224
100
AcDbEntity
  8
L1_105
  6
CONTINUOUS
 62
         4
100
AcDbLine
 10
1424.3526370522
 20
4.5566652593
 30
0.0
 11
1426.3526370522
 21
6.5566652593
 31
0.0
  0
LINE
  5
225
100
AcDbEntity
  8
L1_105
  6
CONTINUOUS
 62
         4
100
AcDbLine
 10
1427.1033403763
 20
7.3073685834
 30
0.0
 11
1427.3526370522
 21
7.5566652593
 31
0.0
  0
LINE
  5
226
100
AcDbEntity
  8
L1_105
  6
CONTINUOUS
 62
         4
100
AcDbLine
 10
1380.1099963651
 20
-35.4433347407
 30
0.0
 11
1380.6033403763
 21
-34.9499907295
 31
0.0
  0
LINE
  5
227
100
AcDbEntity
  8
L1_105
  6
CONTINUOUS
 62
         4
100
AcDbLine
 10
1382.6033403763
 20
-32.9499907295
 30
0.0
 11
1386.6099963651
 21
-28.9433347407
 31
0.0
  0
LINE
  5
228
100
AcDbEntity
  8
L1_105
  6
CONTINUOUS
 62
         4
100
AcDbLine
 10
1420.3082741959
 20
4.7549430901
 30
0.0
 11
1423.1099963651
 21
7.5566652593
 31
0.0
  0
LINE
  5
229
100
AcDbEntity
  8
L1_105
  6
CONTINUOUS
 62
         4
100
AcDbLine
 10
1375.8673556779
 20
-35.4433347407
 30
0.0
 11
1380.6033403763
 21
-30.7073500424
 31
0.0
  0
LINE
  5
22A
100
AcDbEntity
  8
L1_105
  6
CONTINUOUS
 62
         4
100
AcDbLine
 10
1371.6247149908
 20
-35.4433347407
 30
0.0
 11
1379.1033403763
 21
-27.9647093552
 31
0.0
  0
LINE
  5
22B
100
AcDbEntity
  8
L1_105
  6
CONTINUOUS
 62
         4
100
AcDbLine
 10
1367.3820743037
 20
-35.4433347407
 30
0.0
 11
1379.1033403763
 21
-23.7220686681
 31
0.0
  0
LINE
  5
22C
100
AcDbEntity
  8
L1_105
  6
CONTINUOUS
 62
         4
100
AcDbLine
 10
1363.1394336166
 20
-35.4433347407
 30
0.0
 11
1379.1033403763
 21
-19.479427981
 31
0.0
  0
LINE
  5
22D
100
AcDbEntity
  8
L1_105
  6
CONTINUOUS
 62
         4
100
AcDbLine
 10
1359.5896289413
 20
-34.7504987288
 30
0.0
 11
1378.8967929295
 21
-15.4433347407
 31
0.0
  0
LINE
  5
22E
100
AcDbEntity
  8
L1_105
  6
CONTINUOUS
 62
         4
100
AcDbLine
 10
1359.1033403763
 20
-30.9941466068
 30
0.0
 11
1374.6541522423
 21
-15.4433347407
 31
0.0
  0
LINE
  5
22F
100
AcDbEntity
  8
L1_105
  6
CONTINUOUS
 62
         4
100
AcDbLine
 10
1393.1541522423
 20
3.0566652593
 30
0.0
 11
1395.7083403763
 21
5.6108533932
 31
0.0
  0
LINE
  5
230
100
AcDbEntity
  8
L1_105
  6
CONTINUOUS
 62
         4
100
AcDbLine
 10
1359.1033403763
 20
-26.7515059196
 30
0.0
 11
1370.4115115552
 21
-15.4433347407
 31
0.0
  0
LINE
  5
231
100
AcDbEntity
  8
L1_105
  6
CONTINUOUS
 62
         4
100
AcDbLine
 10
1375.4115115552
 20
-10.4433347407
 30
0.0
 11
1379.1033403763
 21
-6.7515059196
 31
0.0
  0
LINE
  5
232
100
AcDbEntity
  8
L1_105
  6
CONTINUOUS
 62
         4
100
AcDbLine
 10
1388.9115115552
 20
3.0566652593
 30
0.0
 11
1393.2115115552
 21
7.3566652593
 31
0.0
  0
LINE
  5
233
100
AcDbEntity
  8
L1_105
  6
CONTINUOUS
 62
         4
100
AcDbLine
 10
1359.1033403763
 20
-22.5088652325
 30
0.0
 11
1366.1688708681
 21
-15.4433347407
 31
0.0
  0
LINE
  5
234
100
AcDbEntity
  8
L1_105
  6
CONTINUOUS
 62
         4
100
AcDbLine
 10
1371.1688708681
 20
-10.4433347407
 30
0.0
 11
1379.1033403763
 21
-2.5088652325
 31
0.0
  0
LINE
  5
235
100
AcDbEntity
  8
L1_105
  6
CONTINUOUS
 62
         4
100
AcDbLine
 10
1384.6688708681
 20
3.0566652593
 30
0.0
 11
1391.1688708681
 21
9.5566652593
 31
0.0
  0
LINE
  5
236
100
AcDbEntity
  8
L1_105
  6
CONTINUOUS
 62
         4
100
AcDbLine
 10
1359.1033403763
 20
-18.2662245454
 30
0.0
 11
1363.3056228069
 21
-14.0639421147
 31
0.0
  0
LINE
  5
237
100
AcDbEntity
  8
L1_105
  6
CONTINUOUS
 62
         4
100
AcDbLine
 10
1366.926230181
 20
-10.4433347407
 30
0.0
 11
1379.1033403763
 21
1.7337754546
 31
0.0
  0
LINE
  5
238
100
AcDbEntity
  8
L1_105
  6
CONTINUOUS
 62
         4
100
AcDbLine
 10
1380.926230181
 20
3.5566652593
 30
0.0
 11
1386.926230181
 21
9.5566652593
 31
0.0
  0
LINE
  5
239
100
AcDbEntity
  8
L1_105
  6
CONTINUOUS
 62
         4
100
AcDbLine
 10
1359.1033403763
 20
-14.0235838583
 30
0.0
 11
1382.6835894939
 21
9.5566652593
 31
0.0
  0
LINE
  5
23A
100
AcDbEntity
  8
L1_105
  6
CONTINUOUS
 62
         4
100
AcDbLine
 10
1359.1033403763
 20
-9.7809431712
 30
0.0
 11
1378.4409488067
 21
9.5566652593
 31
0.0
  0
LINE
  5
23B
100
AcDbEntity
  8
L1_105
  6
CONTINUOUS
 62
         4
100
AcDbLine
 10
1359.1033403763
 20
-5.538302484
 30
0.0
 11
1374.1983081196
 21
9.5566652593
 31
0.0
  0
LINE
  5
23C
100
AcDbEntity
  8
L1_105
  6
CONTINUOUS
 62
         4
100
AcDbLine
 10
1359.1033403763
 20
-1.2956617969
 30
0.0
 11
1369.9556674325
 21
9.5566652593
 31
0.0
  0
LINE
  5
23D
100
AcDbEntity
  8
L1_105
  6
CONTINUOUS
 62
         4
100
AcDbLine
 10
1359.1033403763
 20
2.9469788902
 30
0.0
 11
1365.7130267454
 21
9.5566652593
 31
0.0
  0
LINE
  5
23E
100
AcDbEntity
  8
L1_105
  6
CONTINUOUS
 62
         4
100
AcDbLine
 10
1359.1033403763
 20
7.1896195773
 30
0.0
 11
1361.4703860583
 21
9.5566652593
 31
0.0
  0
ENDBLK
  5
23F
100
AcDbEntity
  8
0
  6
CONTINUOUS
100
AcDbBlockEnd
  0
BLOCK
  5
243
100
AcDbEntity
  8
0
100
AcDbBlockBegin
  2
*D5
 70
        65
 10
0.0
 20
0.0
 30
0.0
  3
*D5
  1

  0
POINT
  5
245
100
AcDbEntity
  8
DEFPOINTS
  6
CONTINUOUS
 62
         0
100
AcDbPoint
 10
1445.1033403763
 20
197.3655506794
 30
0.0
  0
POINT
  5
246
100
AcDbEntity
  8
DEFPOINTS
  6
CONTINUOUS
 62
         0
100
AcDbPoint
 10
1445.1033403763
 20
167.6072914602
 30
0.0
  0
POINT
  5
247
100
AcDbEntity
  8
DEFPOINTS
  6
CONTINUOUS
 62
         0
100
AcDbPoint
 10
1392.1033403763
 20
171.6846417294
 30
0.0
  0
LINE
  5
248
100
AcDbEntity
  8
L1_105
  6
CONTINUOUS
 62
         4
100
AcDbLine
 10
1445.1033403763
 20
168.9572914602
 30
0.0
 11
1445.1033403763
 21
198.0405506794
 31
0.0
  0
LINE
  5
249
100
AcDbEntity
  8
L1_105
  6
CONTINUOUS
 62
         4
100
AcDbLine
 10
1392.1033403763
 20
173.0346417294
 30
0.0
 11
1392.1033403763
 21
198.0405506794
 31
0.0
  0
LINE
  5
24A
100
AcDbEntity
  8
L1_105
  6
CONTINUOUS
 62
         4
100
AcDbLine
 10
1445.1033403763
 20
197.3655506794
 30
0.0
 11
1392.1033403763
 21
197.3655506794
 31
0.0
  0
SOLID
  5
24B
100
AcDbEntity
  8
L1_105
  6
CONTINUOUS
 62
         4
100
AcDbTrace
 10
1445.1033403763
 20
197.3655506794
 30
0.0
 11
1442.4033403763
 21
196.9605506794
 31
0.0
 12
1442.4033403763
 22
197.7705506794
 32
0.0
 13
1445.1033403763
 23
197.3655506794
 33
0.0
  0
SOLID
  5
24C
100
AcDbEntity
  8
L1_105
  6
CONTINUOUS
 62
         4
100
AcDbTrace
 10
1392.1033403763
 20
197.3655506794
 30
0.0
 11
1394.8033403763
 21
197.7705506794
 31
0.0
 12
1394.8033403763
 22
196.9605506794
 32
0.0
 13
1392.1033403763
 23
197.3655506794
 33
0.0
  0
TEXT
  5
24E
100
AcDbEntity
  8
L1_105
  6
CONTINUOUS
 62
         4
100
AcDbText
 10
1413.8822124973
 20
200.4975506794
 30
0.0
 40
2.7
  1
53
  7
BOX
100
AcDbText
  0
ENDBLK
  5
24F
100
AcDbEntity
  8
0
  6
CONTINUOUS
100
AcDbBlockEnd
  0
BLOCK
  5
251
100
AcDbEntity
  8
0
100
AcDbBlockBegin
  2
*D6
 70
        65
 10
0.0
 20
0.0
 30
0.0
  3
*D6
  1

  0
POINT
  5
253
100
AcDbEntity
  8
DEFPOINTS
  6
CONTINUOUS
 62
         0
100
AcDbPoint
 10
1445.1033403763
 20
188.6190865438
 30
0.0
  0
POINT
  5
254
100
AcDbEntity
  8
DEFPOINTS
  6
CONTINUOUS
 62
         0
100
AcDbPoint
 10
1445.1033403763
 20
167.6072914602
 30
0.0
  0
POINT
  5
255
100
AcDbEntity
  8
DEFPOINTS
  6
CONTINUOUS
 62
         0
100
AcDbPoint
 10
1424.1033403763
 20
170.6846417294
 30
0.0
  0
LINE
  5
256
100
AcDbEntity
  8
L1_105
  6
CONTINUOUS
 62
         4
100
AcDbLine
 10
1445.1033403763
 20
168.9572914602
 30
0.0
 11
1445.1033403763
 21
189.2940865438
 31
0.0
  0
LINE
  5
257
100
AcDbEntity
  8
L1_105
  6
CONTINUOUS
 62
         4
100
AcDbLine
 10
1424.1033403763
 20
172.0346417294
 30
0.0
 11
1424.1033403763
 21
189.2940865438
 31
0.0
  0
LINE
  5
258
100
AcDbEntity
  8
L1_105
  6
CONTINUOUS
 62
         4
100
AcDbLine
 10
1445.1033403763
 20
188.6190865438
 30
0.0
 11
1424.1033403763
 21
188.6190865438
 31
0.0
  0
SOLID
  5
259
100
AcDbEntity
  8
L1_105
  6
CONTINUOUS
 62
         4
100
AcDbTrace
 10
1445.1033403763
 20
188.6190865438
 30
0.0
 11
1442.4033403763
 21
188.2140865438
 31
0.0
 12
1442.4033403763
 22
189.0240865438
 32
0.0
 13
1445.1033403763
 23
188.6190865438
 33
0.0
  0
SOLID
  5
25A
100
AcDbEntity
  8
L1_105
  6
CONTINUOUS
 62
         4
100
AcDbTrace
 10
1424.1033403763
 20
188.6190865438
 30
0.0
 11
1426.8033403763
 21
189.0240865438
 31
0.0
 12
1426.8033403763
 22
188.2140865438
 32
0.0
 13
1424.1033403763
 23
188.6190865438
 33
0.0
  0
TEXT
  5
25C
100
AcDbEntity
  8
L1_105
  6
CONTINUOUS
 62
         4
100
AcDbText
 10
1426.8693865168
 20
191.7510865438
 30
0.0
 40
2.7
  1
21
  7
BOX
100
AcDbText
  0
ENDBLK
  5
25D
100
AcDbEntity
  8
0
  6
CONTINUOUS
100
AcDbBlockEnd
  0
BLOCK
  5
25F
100
AcDbEntity
  8
0
100
AcDbBlockBegin
  2
*D7
 70
        65
 10
0.0
 20
0.0
 30
0.0
  3
*D7
  1

  0
POINT
  5
261
100
AcDbEntity
  8
DEFPOINTS
  6
CONTINUOUS
 62
         0
100
AcDbPoint
 10
1424.1033403763
 20
180.137666776
 30
0.0
  0
POINT
  5
262
100
AcDbEntity
  8
DEFPOINTS
  6
CONTINUOUS
 62
         0
100
AcDbPoint
 10
1424.1033403763
 20
170.6846417294
 30
0.0
  0
POINT
  5
263
100
AcDbEntity
  8
DEFPOINTS
  6
CONTINUOUS
 62
         0
100
AcDbPoint
 10
1426.1033403763
 20
170.6846417294
 30
0.0
  0
LINE
  5
264
100
AcDbEntity
  8
L1_105
  6
CONTINUOUS
 62
         4
100
AcDbLine
 10
1424.1033403763
 20
172.0346417294
 30
0.0
 11
1424.1033403763
 21
180.812666776
 31
0.0
  0
LINE
  5
265
100
AcDbEntity
  8
L1_105
  6
CONTINUOUS
 62
         4
100
AcDbLine
 10
1426.1033403763
 20
172.0346417294
 30
0.0
 11
1426.1033403763
 21
180.812666776
 31
0.0
  0
LINE
  5
266
100
AcDbEntity
  8
L1_105
  6
CONTINUOUS
 62
         4
100
AcDbLine
 10
1424.1033403763
 20
180.137666776
 30
0.0
 11
1418.7033403763
 21
180.137666776
 31
0.0
  0
SOLID
  5
267
100
AcDbEntity
  8
L1_105
  6
CONTINUOUS
 62
         4
100
AcDbTrace
 10
1424.1033403763
 20
180.137666776
 30
0.0
 11
1421.4033403763
 21
179.732666776
 31
0.0
 12
1421.4033403763
 22
180.542666776
 32
0.0
 13
1424.1033403763
 23
180.137666776
 33
0.0
  0
LINE
  5
268
100
AcDbEntity
  8
L1_105
  6
CONTINUOUS
 62
         4
100
AcDbLine
 10
1426.1033403763
 20
180.137666776
 30
0.0
 11
1433.1693865168
 21
180.137666776
 31
0.0
  0
SOLID
  5
269
100
AcDbEntity
  8
L1_105
  6
CONTINUOUS
 62
         4
100
AcDbTrace
 10
1426.1033403763
 20
180.137666776
 30
0.0
 11
1428.8033403763
 21
180.542666776
 31
0.0
 12
1428.8033403763
 22
179.732666776
 32
0.0
 13
1426.1033403763
 23
180.137666776
 33
0.0
  0
LINE
  5
26A
100
AcDbEntity
  8
L1_105
  6
CONTINUOUS
 62
         4
100
AcDbLine
 10
1424.1033403763
 20
180.137666776
 30
0.0
 11
1426.1033403763
 21
180.137666776
 31
0.0
  0
TEXT
  5
26C
100
AcDbEntity
  8
L1_105
  6
CONTINUOUS
 62
         4
100
AcDbText
 10
1428.2193865168
 20
183.269666776
 30
0.0
 40
2.7
  1
2
  7
BOX
100
AcDbText
  0
ENDBLK
  5
26D
100
AcDbEntity
  8
0
  6
CONTINUOUS
100
AcDbBlockEnd
  0
BLOCK
  5
26F
100
AcDbEntity
  8
0
100
AcDbBlockBegin
  2
*D8
 70
        65
 10
0.0
 20
0.0
 30
0.0
  3
*D8
  1

  0
POINT
  5
271
100
AcDbEntity
  8
DEFPOINTS
  6
CONTINUOUS
 62
         0
100
AcDbPoint
 10
1415.5082741959
 20
115.714967216
 30
0.0
  0
POINT
  5
272
100
AcDbEntity
  8
DEFPOINTS
  6
CONTINUOUS
 62
         0
100
AcDbPoint
 10
1415.5082741959
 20
145.2146417294
 30
0.0
  0
POINT
  5
273
100
AcDbEntity
  8
DEFPOINTS
  6
CONTINUOUS
 62
         0
100
AcDbPoint
 10
1445.1033403763
 20
132.7619919986
 30
0.0
  0
LINE
  5
274
100
AcDbEntity
  8
L1_105
  6
CONTINUOUS
 62
         4
100
AcDbLine
 10
1415.5082741959
 20
143.8646417294
 30
0.0
 11
1415.5082741959
 21
115.039967216
 31
0.0
  0
LINE
  5
275
100
AcDbEntity
  8
L1_105
  6
CONTINUOUS
 62
         4
100
AcDbLine
 10
1445.1033403763
 20
131.4119919986
 30
0.0
 11
1445.1033403763
 21
115.039967216
 31
0.0
  0
LINE
  5
276
100
AcDbEntity
  8
L1_105
  6
CONTINUOUS
 62
         4
100
AcDbLine
 10
1415.5082741959
 20
115.714967216
 30
0.0
 11
1445.1033403763
 21
115.714967216
 31
0.0
  0
SOLID
  5
277
100
AcDbEntity
  8
L1_105
  6
CONTINUOUS
 62
         4
100
AcDbTrace
 10
1415.5082741959
 20
115.714967216
 30
0.0
 11
1418.2082741959
 21
116.119967216
 31
0.0
 12
1418.2082741959
 22
115.309967216
 32
0.0
 13
1415.5082741959
 23
115.714967216
 33
0.0
  0
SOLID
  5
278
100
AcDbEntity
  8
L1_105
  6
CONTINUOUS
 62
         4
100
AcDbTrace
 10
1445.1033403763
 20
115.714967216
 30
0.0
 11
1442.4033403763
 21
115.309967216
 31
0.0
 12
1442.4033403763
 22
116.119967216
 32
0.0
 13
1445.1033403763
 23
115.714967216
 33
0.0
  0
TEXT
  5
27A
100
AcDbEntity
  8
L1_105
  6
CONTINUOUS
 62
         4
100
AcDbText
 10
1424.6808072861
 20
118.846967216
 30
0.0
 40
2.7
  1
29.6
  7
BOX
100
AcDbText
  0
ENDBLK
  5
27B
100
AcDbEntity
  8
0
  6
CONTINUOUS
100
AcDbBlockEnd
  0
BLOCK
  5
27D
100
AcDbEntity
  8
0
100
AcDbBlockBegin
  2
*D9
 70
        65
 10
0.0
 20
0.0
 30
0.0
  3
*D9
  1

  0
POINT
  5
27F
100
AcDbEntity
  8
DEFPOINTS
  6
CONTINUOUS
 62
         0
100
AcDbPoint
 10
1474.7880281053
 20
169.6846417294
 30
0.0
  0
POINT
  5
280
100
AcDbEntity
  8
DEFPOINTS
  6
CONTINUOUS
 62
         0
100
AcDbPoint
 10
1426.1033403763
 20
169.6846417294
 30
0.0
  0
POINT
  5
281
100
AcDbEntity
  8
DEFPOINTS
  6
CONTINUOUS
 62
         0
100
AcDbPoint
 10
1426.1033403763
 20
130.6846417294
 30
0.0
  0
LINE
  5
282
100
AcDbEntity
  8
L1_105
  6
CONTINUOUS
 62
         4
100
AcDbLine
 10
1427.4533403763
 20
169.6846417294
 30
0.0
 11
1475.4630281053
 21
169.6846417294
 31
0.0
  0
LINE
  5
283
100
AcDbEntity
  8
L1_105
  6
CONTINUOUS
 62
         4
100
AcDbLine
 10
1427.4533403763
 20
130.6846417294
 30
0.0
 11
1475.4630281053
 21
130.6846417294
 31
0.0
  0
LINE
  5
284
100
AcDbEntity
  8
L1_105
  6
CONTINUOUS
 62
         4
100
AcDbLine
 10
1474.7880281053
 20
169.6846417294
 30
0.0
 11
1474.7880281053
 21
130.6846417294
 31
0.0
  0
SOLID
  5
285
100
AcDbEntity
  8
L1_105
  6
CONTINUOUS
 62
         4
100
AcDbTrace
 10
1474.7880281053
 20
169.6846417294
 30
0.0
 11
1475.1930281053
 21
166.9846417294
 31
0.0
 12
1474.3830281053
 22
166.9846417294
 32
0.0
 13
1474.7880281053
 23
169.6846417294
 33
0.0
  0
SOLID
  5
286
100
AcDbEntity
  8
L1_105
  6
CONTINUOUS
 62
         4
100
AcDbTrace
 10
1474.7880281053
 20
130.6846417294
 30
0.0
 11
1474.3830281053
 21
133.3846417294
 31
0.0
 12
1475.1930281053
 22
133.3846417294
 32
0.0
 13
1474.7880281053
 23
130.6846417294
 33
0.0
  0
TEXT
  5
288
100
AcDbEntity
  8
L1_105
  6
CONTINUOUS
 62
         4
100
AcDbText
 10
1471.6560281053
 20
140.3473538612
 30
0.0
 40
2.7
  1
崷39
 50
90.0
  7
BOX
100
AcDbText
  0
ENDBLK
  5
289
100
AcDbEntity
  8
0
  6
CONTINUOUS
100
AcDbBlockEnd
  0
BLOCK
  5
28B
100
AcDbEntity
  8
0
100
AcDbBlockBegin
  2
*D10
 70
        65
 10
0.0
 20
0.0
 30
0.0
  3
*D10
  1

  0
POINT
  5
28D
100
AcDbEntity
  8
DEFPOINTS
  6
CONTINUOUS
 62
         0
100
AcDbPoint
 10
1484.0393492817
 20
170.6846417294
 30
0.0
  0
POINT
  5
28E
100
AcDbEntity
  8
DEFPOINTS
  6
CONTINUOUS
 62
         0
100
AcDbPoint
 10
1439.3712895687
 20
170.6846417294
 30
0.0
  0
POINT
  5
28F
100
AcDbEntity
  8
DEFPOINTS
  6
CONTINUOUS
 62
         0
100
AcDbPoint
 10
1439.3712895687
 20
129.6846417294
 30
0.0
  0
LINE
  5
290
100
AcDbEntity
  8
L1_105
  6
CONTINUOUS
 62
         4
100
AcDbLine
 10
1440.7212895687
 20
170.6846417294
 30
0.0
 11
1484.7143492817
 21
170.6846417294
 31
0.0
  0
LINE
  5
291
100
AcDbEntity
  8
L1_105
  6
CONTINUOUS
 62
         4
100
AcDbLine
 10
1440.7212895687
 20
129.6846417294
 30
0.0
 11
1484.7143492817
 21
129.6846417294
 31
0.0
  0
LINE
  5
292
100
AcDbEntity
  8
L1_105
  6
CONTINUOUS
 62
         4
100
AcDbLine
 10
1484.0393492817
 20
170.6846417294
 30
0.0
 11
1484.0393492817
 21
129.6846417294
 31
0.0
  0
SOLID
  5
293
100
AcDbEntity
  8
L1_105
  6
CONTINUOUS
 62
         4
100
AcDbTrace
 10
1484.0393492817
 20
170.6846417294
 30
0.0
 11
1484.4443492817
 21
167.9846417294
 31
0.0
 12
1483.6343492817
 22
167.9846417294
 32
0.0
 13
1484.0393492817
 23
170.6846417294
 33
0.0
  0
SOLID
  5
294
100
AcDbEntity
  8
L1_105
  6
CONTINUOUS
 62
         4
100
AcDbTrace
 10
1484.0393492817
 20
129.6846417294
 30
0.0
 11
1483.6343492817
 21
132.3846417294
 31
0.0
 12
1484.4443492817
 22
132.3846417294
 32
0.0
 13
1484.0393492817
 23
129.6846417294
 33
0.0
  0
TEXT
  5
296
100
AcDbEntity
  8
L1_105
  6
CONTINUOUS
 62
         4
100
AcDbText
 10
1480.9073492817
 20
139.2528174198
 30
0.0
 40
2.7
  1
崷41
 50
90.0
  7
BOX
100
AcDbText
  0
ENDBLK
  5
297
100
AcDbEntity
  8
0
  6
CONTINUOUS
100
AcDbBlockEnd
  0
BLOCK
  5
29A
100
AcDbEntity
  8
0
100
AcDbBlockBegin
  2
*D11
 70
        65
 10
0.0
 20
0.0
 30
0.0
  3
*D11
  1

  0
POINT
  5
29C
100
AcDbEntity
  8
DEFPOINTS
  6
CONTINUOUS
 62
         0
100
AcDbPoint
 10
1395.7083403763
 20
14.1917360085
 30
0.0
  0
POINT
  5
29D
100
AcDbEntity
  8
DEFPOINTS
  6
CONTINUOUS
 62
         0
100
AcDbPoint
 10
1395.7083403763
 20
7.5566652593
 30
0.0
  0
POINT
  5
29E
100
AcDbEntity
  8
DEFPOINTS
  6
CONTINUOUS
 62
         0
100
AcDbPoint
 10
1420.3082741959
 20
7.5566652593
 30
0.0
  0
LINE
  5
29F
100
AcDbEntity
  8
L1_105
  6
CONTINUOUS
 62
         4
100
AcDbLine
 10
1395.7083403763
 20
8.9066652593
 30
0.0
 11
1395.7083403763
 21
14.8667360085
 31
0.0
  0
LINE
  5
2A0
100
AcDbEntity
  8
L1_105
  6
CONTINUOUS
 62
         4
100
AcDbLine
 10
1420.3082741959
 20
8.9066652593
 30
0.0
 11
1420.3082741959
 21
14.8667360085
 31
0.0
  0
LINE
  5
2A1
100
AcDbEntity
  8
L1_105
  6
CONTINUOUS
 62
         4
100
AcDbLine
 10
1395.7083403763
 20
14.1917360085
 30
0.0
 11
1420.3082741959
 21
14.1917360085
 31
0.0
  0
SOLID
  5
2A2
100
AcDbEntity
  8
L1_105
  6
CONTINUOUS
 62
         4
100
AcDbTrace
 10
1395.7083403763
 20
14.1917360085
 30
0.0
 11
1398.4083403763
 21
14.5967360085
 31
0.0
 12
1398.4083403763
 22
13.7867360085
 32
0.0
 13
1395.7083403763
 23
14.1917360085
 33
0.0
  0
SOLID
  5
2A3
100
AcDbEntity
  8
L1_105
  6
CONTINUOUS
 62
         4
100
AcDbTrace
 10
1420.3082741959
 20
14.1917360085
 30
0.0
 11
1417.6082741959
 21
13.7867360085
 31
0.0
 12
1417.6082741959
 22
14.5967360085
 32
0.0
 13
1420.3082741959
 23
14.1917360085
 33
0.0
  0
TEXT
  5
2A5
100
AcDbEntity
  8
L1_105
  6
CONTINUOUS
 62
         4
100
AcDbText
 10
1397.1425313366
 20
17.3237360085
 30
0.0
 40
2.7
  1
24.6
  7
BOX
100
AcDbText
  0
ENDBLK
  5
2A6
100
AcDbEntity
  8
0
  6
CONTINUOUS
100
AcDbBlockEnd
  0
BLOCK
  5
2BB
100
AcDbEntity
  8
0
100
AcDbBlockBegin
  2
*D12
 70
        65
 10
0.0
 20
0.0
 30
0.0
  3
*D12
  1

  0
POINT
  5
2BD
100
AcDbEntity
  8
DEFPOINTS
  6
CONTINUOUS
 62
         0
100
AcDbPoint
 10
1590.3012659414
 20
85.8608563818
 30
0.0
  0
POINT
  5
2BE
100
AcDbEntity
  8
DEFPOINTS
  6
CONTINUOUS
 62
         0
100
AcDbPoint
 10
1590.3012659414
 20
82.7872179209
 30
0.0
  0
POINT
  5
2BF
100
AcDbEntity
  8
DEFPOINTS
  6
CONTINUOUS
 62
         0
100
AcDbPoint
 10
1574.8012659414
 20
81.2872179209
 30
0.0
  0
LINE
  5
2C0
100
AcDbEntity
  8
L1_105
  6
CONTINUOUS
 62
         4
100
AcDbLine
 10
1590.3012659414
 20
84.1372179209
 30
0.0
 11
1590.3012659414
 21
86.5358563818
 31
0.0
  0
LINE
  5
2C1
100
AcDbEntity
  8
L1_105
  6
CONTINUOUS
 62
         4
100
AcDbLine
 10
1574.8012659414
 20
82.6372179209
 30
0.0
 11
1574.8012659414
 21
86.5358563818
 31
0.0
  0
LINE
  5
2C2
100
AcDbEntity
  8
L1_105
  6
CONTINUOUS
 62
         4
100
AcDbLine
 10
1590.3012659414
 20
85.8608563818
 30
0.0
 11
1574.8012659414
 21
85.8608563818
 31
0.0
  0
SOLID
  5
2C3
100
AcDbEntity
  8
L1_105
  6
CONTINUOUS
 62
         4
100
AcDbTrace
 10
1590.3012659414
 20
85.8608563818
 30
0.0
 11
1587.6012659414
 21
85.4558563818
 31
0.0
 12
1587.6012659414
 22
86.2658563818
 32
0.0
 13
1590.3012659414
 23
85.8608563818
 33
0.0
  0
SOLID
  5
2C4
100
AcDbEntity
  8
L1_105
  6
CONTINUOUS
 62
         4
100
AcDbTrace
 10
1574.8012659414
 20
85.8608563818
 30
0.0
 11
1577.5012659414
 21
86.2658563818
 31
0.0
 12
1577.5012659414
 22
85.4558563818
 32
0.0
 13
1574.8012659414
 23
85.8608563818
 33
0.0
  0
TEXT
  5
2C6
100
AcDbEntity
  8
L1_105
  6
CONTINUOUS
 62
         4
100
AcDbText
 10
1577.3036222668
 20
87.8858563818
 30
0.0
 40
2.7
  1
15.5
  7
BOX
100
AcDbText
  0
ENDBLK
  5
2C7
100
AcDbEntity
  8
0
  6
CONTINUOUS
100
AcDbBlockEnd
  0
BLOCK
  5
2C9
100
AcDbEntity
  8
0
100
AcDbBlockBegin
  2
*D13
 70
        65
 10
0.0
 20
0.0
 30
0.0
  3
*D13
  1

  0
POINT
  5
2CB
100
AcDbEntity
  8
DEFPOINTS
  6
CONTINUOUS
 62
         0
100
AcDbPoint
 10
1596.9961697435
 20
83.2872179209
 30
0.0
  0
POINT
  5
2CC
100
AcDbEntity
  8
DEFPOINTS
  6
CONTINUOUS
 62
         0
100
AcDbPoint
 10
1589.8012659414
 20
83.2872179209
 30
0.0
  0
POINT
  5
2CD
100
AcDbEntity
  8
DEFPOINTS
  6
CONTINUOUS
 62
         0
100
AcDbPoint
 10
1589.8012659414
 20
64.4872179209
 30
0.0
  0
LINE
  5
2CE
100
AcDbEntity
  8
L1_105
  6
CONTINUOUS
 62
         4
100
AcDbLine
 10
1591.1512659414
 20
83.2872179209
 30
0.0
 11
1597.6711697435
 21
83.2872179209
 31
0.0
  0
LINE
  5
2CF
100
AcDbEntity
  8
L1_105
  6
CONTINUOUS
 62
         4
100
AcDbLine
 10
1591.1512659414
 20
64.4872179209
 30
0.0
 11
1597.6711697435
 21
64.4872179209
 31
0.0
  0
LINE
  5
2D0
100
AcDbEntity
  8
L1_105
  6
CONTINUOUS
 62
         4
100
AcDbLine
 10
1596.9961697435
 20
83.2872179209
 30
0.0
 11
1596.9961697435
 21
64.4872179209
 31
0.0
  0
SOLID
  5
2D1
100
AcDbEntity
  8
L1_105
  6
CONTINUOUS
 62
         4
100
AcDbTrace
 10
1596.9961697435
 20
83.2872179209
 30
0.0
 11
1597.4011697435
 21
80.5872179209
 31
0.0
 12
1596.5911697435
 22
80.5872179209
 32
0.0
 13
1596.9961697435
 23
83.2872179209
 33
0.0
  0
SOLID
  5
2D2
100
AcDbEntity
  8
L1_105
  6
CONTINUOUS
 62
         4
100
AcDbTrace
 10
1596.9961697435
 20
64.4872179209
 30
0.0
 11
1596.5911697435
 21
67.1872179209
 31
0.0
 12
1597.4011697435
 22
67.1872179209
 32
0.0
 13
1596.9961697435
 23
64.4872179209
 33
0.0
  0
TEXT
  5
2D4
100
AcDbEntity
  8
L1_105
  6
CONTINUOUS
 62
         4
100
AcDbText
 10
1594.9711697435
 20
65.7333698022
 30
0.0
 40
2.7
  1
崷18.8
 50
90.0
  7
BOX
100
AcDbText
  0
ENDBLK
  5
2D5
100
AcDbEntity
  8
0
  6
CONTINUOUS
100
AcDbBlockEnd
  0
BLOCK
  5
2D7
100
AcDbEntity
  8
0
100
AcDbBlockBegin
  2
*D14
 70
        65
 10
0.0
 20
0.0
 30
0.0
  3
*D14
  1

  0
POINT
  5
2D9
100
AcDbEntity
  8
DEFPOINTS
  6
CONTINUOUS
 62
         0
100
AcDbPoint
 10
1573.0411626588
 20
81.3872179209
 30
0.0
  0
POINT
  5
2DA
100
AcDbEntity
  8
DEFPOINTS
  6
CONTINUOUS
 62
         0
100
AcDbPoint
 10
1574.9012659414
 20
81.3872179209
 30
0.0
  0
POINT
  5
2DB
100
AcDbEntity
  8
DEFPOINTS
  6
CONTINUOUS
 62
         0
100
AcDbPoint
 10
1574.9012659414
 20
66.3872179209
 30
0.0
  0
LINE
  5
2DC
100
AcDbEntity
  8
L1_105
  6
CONTINUOUS
 62
         4
100
AcDbLine
 10
1573.5512659414
 20
81.3872179209
 30
0.0
 11
1572.3661626588
 21
81.3872179209
 31
0.0
  0
LINE
  5
2DD
100
AcDbEntity
  8
L1_105
  6
CONTINUOUS
 62
         4
100
AcDbLine
 10
1573.5512659414
 20
66.3872179209
 30
0.0
 11
1572.3661626588
 21
66.3872179209
 31
0.0
  0
LINE
  5
2DE
100
AcDbEntity
  8
L1_105
  6
CONTINUOUS
 62
         4
100
AcDbLine
 10
1573.0411626588
 20
81.3872179209
 30
0.0
 11
1573.0411626588
 21
66.3872179209
 31
0.0
  0
SOLID
  5
2DF
100
AcDbEntity
  8
L1_105
  6
CONTINUOUS
 62
         4
100
AcDbTrace
 10
1573.0411626588
 20
81.3872179209
 30
0.0
 11
1573.4461626588
 21
78.6872179209
 31
0.0
 12
1572.6361626588
 22
78.6872179209
 32
0.0
 13
1573.0411626588
 23
81.3872179209
 33
0.0
  0
SOLID
  5
2E0
100
AcDbEntity
  8
L1_105
  6
CONTINUOUS
 62
         4
100
AcDbTrace
 10
1573.0411626588
 20
66.3872179209
 30
0.0
 11
1572.6361626588
 21
69.0872179209
 31
0.0
 12
1573.4461626588
 22
69.0872179209
 32
0.0
 13
1573.0411626588
 23
66.3872179209
 33
0.0
  0
TEXT
  5
2E2
100
AcDbEntity
  8
L1_105
  6
CONTINUOUS
 62
         4
100
AcDbText
 10
1571.0161626588
 20
67.9365153964
 30
0.0
 40
2.7
  1
崷15
 50
90.0
  7
BOX
100
AcDbText
  0
ENDBLK
  5
2E3
100
AcDbEntity
  8
0
  6
CONTINUOUS
100
AcDbBlockEnd
  0
BLOCK
  5
2F3
100
AcDbEntity
  8
0
100
AcDbBlockBegin
  2
*D15
 70
        65
 10
0.0
 20
0.0
 30
0.0
  3
*D15
  1

  0
POINT
  5
2F5
100
AcDbEntity
  8
DEFPOINTS
  6
CONTINUOUS
 62
         0
100
AcDbPoint
 10
1518.9012659414
 20
99.3775292973
 30
0.0
  0
POINT
  5
2F6
100
AcDbEntity
  8
DEFPOINTS
  6
CONTINUOUS
 62
         0
100
AcDbPoint
 10
1518.9012659414
 20
95.8872179209
 30
0.0
  0
POINT
  5
2F7
100
AcDbEntity
  8
DEFPOINTS
  6
CONTINUOUS
 62
         0
100
AcDbPoint
 10
1550.9012659414
 20
95.0985427863
 30
0.0
  0
LINE
  5
2F8
100
AcDbEntity
  8
L1_105
  6
CONTINUOUS
 62
         4
100
AcDbLine
 10
1518.9012659414
 20
97.2372179209
 30
0.0
 11
1518.9012659414
 21
100.0525292973
 31
0.0
  0
LINE
  5
2F9
100
AcDbEntity
  8
L1_105
  6
CONTINUOUS
 62
         4
100
AcDbLine
 10
1550.9012659414
 20
96.4485427863
 30
0.0
 11
1550.9012659414
 21
100.0525292973
 31
0.0
  0
LINE
  5
2FA
100
AcDbEntity
  8
L1_105
  6
CONTINUOUS
 62
         4
100
AcDbLine
 10
1518.9012659414
 20
99.3775292973
 30
0.0
 11
1550.9012659414
 21
99.3775292973
 31
0.0
  0
SOLID
  5
2FB
100
AcDbEntity
  8
L1_105
  6
CONTINUOUS
 62
         4
100
AcDbTrace
 10
1518.9012659414
 20
99.3775292973
 30
0.0
 11
1521.6012659414
 21
99.7825292973
 31
0.0
 12
1521.6012659414
 22
98.9725292973
 32
0.0
 13
1518.9012659414
 23
99.3775292973
 33
0.0
  0
SOLID
  5
2FC
100
AcDbEntity
  8
L1_105
  6
CONTINUOUS
 62
         4
100
AcDbTrace
 10
1550.9012659414
 20
99.3775292973
 30
0.0
 11
1548.2012659414
 21
98.9725292973
 31
0.0
 12
1548.2012659414
 22
99.7825292973
 32
0.0
 13
1550.9012659414
 23
99.3775292973
 33
0.0
  0
TEXT
  5
2FE
100
AcDbEntity
  8
L1_105
  6
CONTINUOUS
 62
         4
100
AcDbText
 10
1532.9034903879
 20
101.4025292973
 30
0.0
 40
2.7
  1
32
  7
BOX
100
AcDbText
  0
ENDBLK
  5
2FF
100
AcDbEntity
  8
0
  6
CONTINUOUS
100
AcDbBlockEnd
  0
BLOCK
  5
301
100
AcDbEntity
  8
0
100
AcDbBlockBegin
  2
*D16
 70
        65
 10
0.0
 20
0.0
 30
0.0
  3
*D16
  1

  0
POINT
  5
303
100
AcDbEntity
  8
DEFPOINTS
  6
CONTINUOUS
 62
         0
100
AcDbPoint
 10
1557.8242796636
 20
96.3872179209
 30
0.0
  0
POINT
  5
304
100
AcDbEntity
  8
DEFPOINTS
  6
CONTINUOUS
 62
         0
100
AcDbPoint
 10
1547.7672913452
 20
96.3872179209
 30
0.0
  0
POINT
  5
305
100
AcDbEntity
  8
DEFPOINTS
  6
CONTINUOUS
 62
         0
100
AcDbPoint
 10
1547.7672913452
 20
51.3872179209
 30
0.0
  0
LINE
  5
306
100
AcDbEntity
  8
L1_105
  6
CONTINUOUS
 62
         4
100
AcDbLine
 10
1549.1172913452
 20
96.3872179209
 30
0.0
 11
1558.4992796636
 21
96.3872179209
 31
0.0
  0
LINE
  5
307
100
AcDbEntity
  8
L1_105
  6
CONTINUOUS
 62
         4
100
AcDbLine
 10
1549.1172913452
 20
51.3872179209
 30
0.0
 11
1558.4992796636
 21
51.3872179209
 31
0.0
  0
LINE
  5
308
100
AcDbEntity
  8
L1_105
  6
CONTINUOUS
 62
         4
100
AcDbLine
 10
1557.8242796636
 20
96.3872179209
 30
0.0
 11
1557.8242796636
 21
51.3872179209
 31
0.0
  0
SOLID
  5
309
100
AcDbEntity
  8
L1_105
  6
CONTINUOUS
 62
         4
100
AcDbTrace
 10
1557.8242796636
 20
96.3872179209
 30
0.0
 11
1558.2292796636
 21
93.6872179209
 31
0.0
 12
1557.4192796636
 22
93.6872179209
 32
0.0
 13
1557.8242796636
 23
96.3872179209
 33
0.0
  0
SOLID
  5
30A
100
AcDbEntity
  8
L1_105
  6
CONTINUOUS
 62
         4
100
AcDbTrace
 10
1557.8242796636
 20
51.3872179209
 30
0.0
 11
1557.4192796636
 21
54.0872179209
 31
0.0
 12
1558.2292796636
 22
54.0872179209
 32
0.0
 13
1557.8242796636
 23
51.3872179209
 33
0.0
  0
TEXT
  5
30C
100
AcDbEntity
  8
L1_105
  6
CONTINUOUS
 62
         4
100
AcDbText
 10
1555.7992796636
 20
68.583514695
 30
0.0
 40
2.7
  1
崷45
 50
90.0
  7
BOX
100
AcDbText
  0
ENDBLK
  5
30D
100
AcDbEntity
  8
0
  6
CONTINUOUS
100
AcDbBlockEnd
  0
BLOCK
  5
436
100
AcDbEntity
  8
0
100
AcDbBlockBegin
  2
*D17
 70
        65
 10
0.0
 20
0.0
 30
0.0
  3
*D17
  1

  0
POINT
  5
438
100
AcDbEntity
  8
DEFPOINTS
  6
CONTINUOUS
 62
         0
100
AcDbPoint
 10
1661.0012659414
 20
95.0177080503
 30
0.0
  0
POINT
  5
439
100
AcDbEntity
  8
DEFPOINTS
  6
CONTINUOUS
 62
         0
100
AcDbPoint
 10
1661.0012659414
 20
88.8872179209
 30
0.0
  0
POINT
  5
43A
100
AcDbEntity
  8
DEFPOINTS
  6
CONTINUOUS
 62
         0
100
AcDbPoint
 10
1692.5012659414
 20
86.0872179209
 30
0.0
  0
LINE
  5
43B
100
AcDbEntity
  8
L1_105
  6
CONTINUOUS
 62
         4
100
AcDbLine
 10
1661.0012659414
 20
90.2372179209
 30
0.0
 11
1661.0012659414
 21
95.6927080503
 31
0.0
  0
LINE
  5
43C
100
AcDbEntity
  8
L1_105
  6
CONTINUOUS
 62
         4
100
AcDbLine
 10
1692.5012659414
 20
87.4372179209
 30
0.0
 11
1692.5012659414
 21
95.6927080503
 31
0.0
  0
LINE
  5
43D
100
AcDbEntity
  8
L1_105
  6
CONTINUOUS
 62
         4
100
AcDbLine
 10
1661.0012659414
 20
95.0177080503
 30
0.0
 11
1692.5012659414
 21
95.0177080503
 31
0.0
  0
SOLID
  5
43E
100
AcDbEntity
  8
L1_105
  6
CONTINUOUS
 62
         4
100
AcDbTrace
 10
1661.0012659414
 20
95.0177080503
 30
0.0
 11
1663.7012659414
 21
95.4227080503
 31
0.0
 12
1663.7012659414
 22
94.6127080503
 32
0.0
 13
1661.0012659414
 23
95.0177080503
 33
0.0
  0
SOLID
  5
43F
100
AcDbEntity
  8
L1_105
  6
CONTINUOUS
 62
         4
100
AcDbTrace
 10
1692.5012659414
 20
95.0177080503
 30
0.0
 11
1689.8012659414
 21
94.6127080503
 31
0.0
 12
1689.8012659414
 22
95.4227080503
 32
0.0
 13
1692.5012659414
 23
95.0177080503
 33
0.0
  0
TEXT
  5
441
100
AcDbEntity
  8
L1_105
  6
CONTINUOUS
 62
         4
100
AcDbText
 10
1670.6575803425
 20
97.0427080503
 30
0.0
 40
2.7
  1
31.5
  7
BOX
100
AcDbText
  0
ENDBLK
  5
442
100
AcDbEntity
  8
0
  6
CONTINUOUS
100
AcDbBlockEnd
  0
BLOCK
  5
444
100
AcDbEntity
  8
0
100
AcDbBlockBegin
  2
*D18
 70
        65
 10
0.0
 20
0.0
 30
0.0
  3
*D18
  1

  0
POINT
  5
446
100
AcDbEntity
  8
DEFPOINTS
  6
CONTINUOUS
 62
         0
100
AcDbPoint
 10
1692.5012659414
 20
101.2852152854
 30
0.0
  0
POINT
  5
447
100
AcDbEntity
  8
DEFPOINTS
  6
CONTINUOUS
 62
         0
100
AcDbPoint
 10
1692.5012659414
 20
86.0872179209
 30
0.0
  0
POINT
  5
448
100
AcDbEntity
  8
DEFPOINTS
  6
CONTINUOUS
 62
         0
100
AcDbPoint
 10
1617.5012659414
 20
88.8872179209
 30
0.0
  0
LINE
  5
449
100
AcDbEntity
  8
L1_105
  6
CONTINUOUS
 62
         4
100
AcDbLine
 10
1692.5012659414
 20
87.4372179209
 30
0.0
 11
1692.5012659414
 21
101.9602152854
 31
0.0
  0
LINE
  5
44A
100
AcDbEntity
  8
L1_105
  6
CONTINUOUS
 62
         4
100
AcDbLine
 10
1617.5012659414
 20
90.2372179209
 30
0.0
 11
1617.5012659414
 21
101.9602152854
 31
0.0
  0
LINE
  5
44B
100
AcDbEntity
  8
L1_105
  6
CONTINUOUS
 62
         4
100
AcDbLine
 10
1692.5012659414
 20
101.2852152854
 30
0.0
 11
1617.5012659414
 21
101.2852152854
 31
0.0
  0
SOLID
  5
44C
100
AcDbEntity
  8
L1_105
  6
CONTINUOUS
 62
         4
100
AcDbTrace
 10
1692.5012659414
 20
101.2852152854
 30
0.0
 11
1689.8012659414
 21
100.8802152854
 31
0.0
 12
1689.8012659414
 22
101.6902152854
 32
0.0
 13
1692.5012659414
 23
101.2852152854
 33
0.0
  0
SOLID
  5
44D
100
AcDbEntity
  8
L1_105
  6
CONTINUOUS
 62
         4
100
AcDbTrace
 10
1617.5012659414
 20
101.2852152854
 30
0.0
 11
1620.2012659414
 21
101.6902152854
 31
0.0
 12
1620.2012659414
 22
100.8802152854
 32
0.0
 13
1617.5012659414
 23
101.2852152854
 33
0.0
  0
TEXT
  5
44F
100
AcDbEntity
  8
L1_105
  6
CONTINUOUS
 62
         4
100
AcDbText
 10
1653.4686907163
 20
103.3102152854
 30
0.0
 40
2.7
  1
75
  7
BOX
100
AcDbText
  0
ENDBLK
  5
450
100
AcDbEntity
  8
0
  6
CONTINUOUS
100
AcDbBlockEnd
  0
BLOCK
  5
452
100
AcDbEntity
  8
0
100
AcDbBlockBegin
  2
*D19
 70
        65
 10
0.0
 20
0.0
 30
0.0
  3
*D19
  1

  0
POINT
  5
454
100
AcDbEntity
  8
DEFPOINTS
  6
CONTINUOUS
 62
         0
100
AcDbPoint
 10
1612.5791698342
 20
89.8872179209
 30
0.0
  0
POINT
  5
455
100
AcDbEntity
  8
DEFPOINTS
  6
CONTINUOUS
 62
         0
100
AcDbPoint
 10
1618.5012659414
 20
89.8872179209
 30
0.0
  0
POINT
  5
456
100
AcDbEntity
  8
DEFPOINTS
  6
CONTINUOUS
 62
         0
100
AcDbPoint
 10
1618.5012659414
 20
57.8872179209
 30
0.0
  0
LINE
  5
457
100
AcDbEntity
  8
L1_105
  6
CONTINUOUS
 62
         4
100
AcDbLine
 10
1617.1512659414
 20
89.8872179209
 30
0.0
 11
1611.9041698342
 21
89.8872179209
 31
0.0
  0
LINE
  5
458
100
AcDbEntity
  8
L1_105
  6
CONTINUOUS
 62
         4
100
AcDbLine
 10
1617.1512659414
 20
57.8872179209
 30
0.0
 11
1611.9041698342
 21
57.8872179209
 31
0.0
  0
LINE
  5
459
100
AcDbEntity
  8
L1_105
  6
CONTINUOUS
 62
         4
100
AcDbLine
 10
1612.5791698342
 20
89.8872179209
 30
0.0
 11
1612.5791698342
 21
57.8872179209
 31
0.0
  0
SOLID
  5
45A
100
AcDbEntity
  8
L1_105
  6
CONTINUOUS
 62
         4
100
AcDbTrace
 10
1612.5791698342
 20
89.8872179209
 30
0.0
 11
1612.9841698342
 21
87.1872179209
 31
0.0
 12
1612.1741698342
 22
87.1872179209
 32
0.0
 13
1612.5791698342
 23
89.8872179209
 33
0.0
  0
SOLID
  5
45B
100
AcDbEntity
  8
L1_105
  6
CONTINUOUS
 62
         4
100
AcDbTrace
 10
1612.5791698342
 20
57.8872179209
 30
0.0
 11
1612.1741698342
 21
60.5872179209
 31
0.0
 12
1612.9841698342
 22
60.5872179209
 32
0.0
 13
1612.5791698342
 23
57.8872179209
 33
0.0
  0
TEXT
  5
45D
100
AcDbEntity
  8
L1_105
  6
CONTINUOUS
 62
         4
100
AcDbText
 10
1610.5541698342
 20
66.7895559185
 30
0.0
 40
2.7
  1
崷32f7
 50
90.0
  7
BOX
100
AcDbText
  0
ENDBLK
  5
45E
100
AcDbEntity
  8
0
  6
CONTINUOUS
100
AcDbBlockEnd
  0
BLOCK
  5
460
100
AcDbEntity
  8
0
100
AcDbBlockBegin
  2
*D20
 70
        65
 10
0.0
 20
0.0
 30
0.0
  3
*D20
  1

  0
POINT
  5
462
100
AcDbEntity
  8
DEFPOINTS
  6
CONTINUOUS
 62
         0
100
AcDbPoint
 10
1699.3178892242
 20
79.1372179209
 30
0.0
  0
POINT
  5
463
100
AcDbEntity
  8
DEFPOINTS
  6
CONTINUOUS
 62
         0
100
AcDbPoint
 10
1692.0012659414
 20
79.1372179209
 30
0.0
  0
POINT
  5
464
100
AcDbEntity
  8
DEFPOINTS
  6
CONTINUOUS
 62
         0
100
AcDbPoint
 10
1692.0012659414
 20
68.6372179209
 30
0.0
  0
LINE
  5
465
100
AcDbEntity
  8
L1_105
  6
CONTINUOUS
 62
         4
100
AcDbLine
 10
1693.3512659414
 20
79.1372179209
 30
0.0
 11
1699.9928892242
 21
79.1372179209
 31
0.0
  0
LINE
  5
466
100
AcDbEntity
  8
L1_105
  6
CONTINUOUS
 62
         4
100
AcDbLine
 10
1693.3512659414
 20
68.6372179209
 30
0.0
 11
1699.9928892242
 21
68.6372179209
 31
0.0
  0
LINE
  5
467
100
AcDbEntity
  8
L1_105
  6
CONTINUOUS
 62
         4
100
AcDbLine
 10
1699.3178892242
 20
79.1372179209
 30
0.0
 11
1699.3178892242
 21
68.6372179209
 31
0.0
  0
SOLID
  5
468
100
AcDbEntity
  8
L1_105
  6
CONTINUOUS
 62
         4
100
AcDbTrace
 10
1699.3178892242
 20
79.1372179209
 30
0.0
 11
1699.7228892242
 21
76.4372179209
 31
0.0
 12
1698.9128892242
 22
76.4372179209
 32
0.0
 13
1699.3178892242
 23
79.1372179209
 33
0.0
  0
SOLID
  5
469
100
AcDbEntity
  8
L1_105
  6
CONTINUOUS
 62
         4
100
AcDbTrace
 10
1699.3178892242
 20
68.6372179209
 30
0.0
 11
1698.9128892242
 21
71.3372179209
 31
0.0
 12
1699.7228892242
 22
71.3372179209
 32
0.0
 13
1699.3178892242
 23
68.6372179209
 33
0.0
  0
TEXT
  5
46B
100
AcDbEntity
  8
L1_105
  6
CONTINUOUS
 62
         4
100
AcDbText
 10
1697.2928892242
 20
68.3596655386
 30
0.0
 40
2.7
  1
10.5
 50
90.0
  7
BOX
100
AcDbText
  0
ENDBLK
  5
46C
100
AcDbEntity
  8
0
  6
CONTINUOUS
100
AcDbBlockEnd
  0
BLOCK
  5
46E
100
AcDbEntity
  8
0
100
AcDbBlockBegin
  2
*D21
 70
        65
 10
0.0
 20
0.0
 30
0.0
  3
*D21
  1

  0
POINT
  5
470
100
AcDbEntity
  8
DEFPOINTS
  6
CONTINUOUS
 62
         0
100
AcDbPoint
 10
1706.0387492221
 20
86.5872179209
 30
0.0
  0
POINT
  5
471
100
AcDbEntity
  8
DEFPOINTS
  6
CONTINUOUS
 62
         0
100
AcDbPoint
 10
1691.3012659414
 20
86.5872179209
 30
0.0
  0
POINT
  5
472
100
AcDbEntity
  8
DEFPOINTS
  6
CONTINUOUS
 62
         0
100
AcDbPoint
 10
1691.3012659414
 20
61.1872179209
 30
0.0
  0
LINE
  5
473
100
AcDbEntity
  8
L1_105
  6
CONTINUOUS
 62
         4
100
AcDbLine
 10
1692.6512659414
 20
86.5872179209
 30
0.0
 11
1706.7137492221
 21
86.5872179209
 31
0.0
  0
LINE
  5
474
100
AcDbEntity
  8
L1_105
  6
CONTINUOUS
 62
         4
100
AcDbLine
 10
1692.6512659414
 20
61.1872179209
 30
0.0
 11
1706.7137492221
 21
61.1872179209
 31
0.0
  0
LINE
  5
475
100
AcDbEntity
  8
L1_105
  6
CONTINUOUS
 62
         4
100
AcDbLine
 10
1706.0387492221
 20
86.5872179209
 30
0.0
 11
1706.0387492221
 21
61.1872179209
 31
0.0
  0
SOLID
  5
476
100
AcDbEntity
  8
L1_105
  6
CONTINUOUS
 62
         4
100
AcDbTrace
 10
1706.0387492221
 20
86.5872179209
 30
0.0
 11
1706.4437492221
 21
83.8872179209
 31
0.0
 12
1705.6337492221
 22
83.8872179209
 32
0.0
 13
1706.0387492221
 23
86.5872179209
 33
0.0
  0
SOLID
  5
477
100
AcDbEntity
  8
L1_105
  6
CONTINUOUS
 62
         4
100
AcDbTrace
 10
1706.0387492221
 20
61.1872179209
 30
0.0
 11
1705.6337492221
 21
63.8872179209
 31
0.0
 12
1706.4437492221
 22
63.8872179209
 32
0.0
 13
1706.0387492221
 23
61.1872179209
 33
0.0
  0
TEXT
  5
479
100
AcDbEntity
  8
L1_105
  6
CONTINUOUS
 62
         4
100
AcDbText
 10
1704.0137492221
 20
62.3995938721
 30
0.0
 40
2.7
  1
崷25.4g6
 50
90.0
  7
BOX
100
AcDbText
  0
ENDBLK
  5
47A
100
AcDbEntity
  8
0
  6
CONTINUOUS
100
AcDbBlockEnd
  0
BLOCK
  5
492
100
AcDbEntity
  8
0
100
AcDbBlockBegin
  2
*D22
 70
        65
 10
0.0
 20
0.0
 30
0.0
  3
*D22
  1

  0
POINT
  5
494
100
AcDbEntity
  8
DEFPOINTS
  6
CONTINUOUS
 62
         0
100
AcDbPoint
 10
1719.9371671559
 20
83.3872179209
 30
0.0
  0
POINT
  5
495
100
AcDbEntity
  8
DEFPOINTS
  6
CONTINUOUS
 62
         0
100
AcDbPoint
 10
1723.7612659414
 20
83.3872179209
 30
0.0
  0
POINT
  5
496
100
AcDbEntity
  8
DEFPOINTS
  6
CONTINUOUS
 62
         0
100
AcDbPoint
 10
1723.7612659414
 20
64.3872179209
 30
0.0
  0
LINE
  5
497
100
AcDbEntity
  8
L1_105
  6
CONTINUOUS
 62
         4
100
AcDbLine
 10
1722.4112659414
 20
83.3872179209
 30
0.0
 11
1719.2621671559
 21
83.3872179209
 31
0.0
  0
LINE
  5
498
100
AcDbEntity
  8
L1_105
  6
CONTINUOUS
 62
         4
100
AcDbLine
 10
1722.4112659414
 20
64.3872179209
 30
0.0
 11
1719.2621671559
 21
64.3872179209
 31
0.0
  0
LINE
  5
499
100
AcDbEntity
  8
L1_105
  6
CONTINUOUS
 62
         4
100
AcDbLine
 10
1719.9371671559
 20
83.3872179209
 30
0.0
 11
1719.9371671559
 21
64.3872179209
 31
0.0
  0
SOLID
  5
49A
100
AcDbEntity
  8
L1_105
  6
CONTINUOUS
 62
         4
100
AcDbTrace
 10
1719.9371671559
 20
83.3872179209
 30
0.0
 11
1720.3421671559
 21
80.6872179209
 31
0.0
 12
1719.5321671559
 22
80.6872179209
 32
0.0
 13
1719.9371671559
 23
83.3872179209
 33
0.0
  0
SOLID
  5
49B
100
AcDbEntity
  8
L1_105
  6
CONTINUOUS
 62
         4
100
AcDbTrace
 10
1719.9371671559
 20
64.3872179209
 30
0.0
 11
1719.5321671559
 21
67.0872179209
 31
0.0
 12
1720.3421671559
 22
67.0872179209
 32
0.0
 13
1719.9371671559
 23
64.3872179209
 33
0.0
  0
TEXT
  5
49D
100
AcDbEntity
  8
L1_105
  6
CONTINUOUS
 62
         4
100
AcDbText
 10
1717.9121671559
 20
68.6868227861
 30
0.0
 40
2.7
  1
崷19
 50
90.0
  7
BOX
100
AcDbText
  0
ENDBLK
  5
49E
100
AcDbEntity
  8
0
  6
CONTINUOUS
100
AcDbBlockEnd
  0
BLOCK
  5
4A0
100
AcDbEntity
  8
0
100
AcDbBlockBegin
  2
*D23
 70
        65
 10
0.0
 20
0.0
 30
0.0
  3
*D23
  1

  0
POINT
  5
4A2
100
AcDbEntity
  8
DEFPOINTS
  6
CONTINUOUS
 62
         0
100
AcDbPoint
 10
1723.2612659414
 20
91.940693068
 30
0.0
  0
POINT
  5
4A3
100
AcDbEntity
  8
DEFPOINTS
  6
CONTINUOUS
 62
         0
100
AcDbPoint
 10
1723.2612659414
 20
82.8872179209
 30
0.0
  0
POINT
  5
4A4
100
AcDbEntity
  8
DEFPOINTS
  6
CONTINUOUS
 62
         0
100
AcDbPoint
 10
1735.4112659414
 20
83.2872179209
 30
0.0
  0
LINE
  5
4A5
100
AcDbEntity
  8
L1_105
  6
CONTINUOUS
 62
         4
100
AcDbLine
 10
1723.2612659414
 20
84.2372179209
 30
0.0
 11
1723.2612659414
 21
92.615693068
 31
0.0
  0
LINE
  5
4A6
100
AcDbEntity
  8
L1_105
  6
CONTINUOUS
 62
         4
100
AcDbLine
 10
1735.4112659414
 20
84.6372179209
 30
0.0
 11
1735.4112659414
 21
92.615693068
 31
0.0
  0
LINE
  5
4A7
100
AcDbEntity
  8
L1_105
  6
CONTINUOUS
 62
         4
100
AcDbLine
 10
1723.2612659414
 20
91.940693068
 30
0.0
 11
1735.4112659414
 21
91.940693068
 31
0.0
  0
SOLID
  5
4A8
100
AcDbEntity
  8
L1_105
  6
CONTINUOUS
 62
         4
100
AcDbTrace
 10
1723.2612659414
 20
91.940693068
 30
0.0
 11
1725.9612659414
 21
92.345693068
 31
0.0
 12
1725.9612659414
 22
91.535693068
 32
0.0
 13
1723.2612659414
 23
91.940693068
 33
0.0
  0
SOLID
  5
4A9
100
AcDbEntity
  8
L1_105
  6
CONTINUOUS
 62
         4
100
AcDbTrace
 10
1735.4112659414
 20
91.940693068
 30
0.0
 11
1732.7112659414
 21
91.535693068
 31
0.0
 12
1732.7112659414
 22
92.345693068
 32
0.0
 13
1735.4112659414
 23
91.940693068
 33
0.0
  0
TEXT
  5
4AB
100
AcDbEntity
  8
L1_105
  6
CONTINUOUS
 62
         4
100
AcDbText
 10
1722.8115741434
 20
93.965693068
 30
0.0
 40
2.7
  1
12.15
  7
BOX
100
AcDbText
  0
ENDBLK
  5
4AC
100
AcDbEntity
  8
0
  6
CONTINUOUS
100
AcDbBlockEnd
  0
BLOCK
  5
4AE
100
AcDbEntity
  8
0
100
AcDbBlockBegin
  2
*D24
 70
        65
 10
0.0
 20
0.0
 30
0.0
  3
*D24
  1

  0
POINT
  5
4B0
100
AcDbEntity
  8
DEFPOINTS
  6
CONTINUOUS
 62
         0
100
AcDbPoint
 10
1723.2612659414
 20
86.3386300769
 30
0.0
  0
POINT
  5
4B1
100
AcDbEntity
  8
DEFPOINTS
  6
CONTINUOUS
 62
         0
100
AcDbPoint
 10
1723.2612659414
 20
83.0872179209
 30
0.0
  0
POINT
  5
4B2
100
AcDbEntity
  8
DEFPOINTS
  6
CONTINUOUS
 62
         0
100
AcDbPoint
 10
1727.7612659414
 20
83.0872179209
 30
0.0
  0
LINE
  5
4B3
100
AcDbEntity
  8
L1_105
  6
CONTINUOUS
 62
         4
100
AcDbLine
 10
1723.2612659414
 20
84.4372179209
 30
0.0
 11
1723.2612659414
 21
87.0136300769
 31
0.0
  0
LINE
  5
4B4
100
AcDbEntity
  8
L1_105
  6
CONTINUOUS
 62
         4
100
AcDbLine
 10
1727.7612659414
 20
84.4372179209
 30
0.0
 11
1727.7612659414
 21
87.0136300769
 31
0.0
  0
LINE
  5
4B5
100
AcDbEntity
  8
L1_105
  6
CONTINUOUS
 62
         4
100
AcDbLine
 10
1723.2612659414
 20
86.3386300769
 30
0.0
 11
1712.5250082111
 21
86.3386300769
 31
0.0
  0
SOLID
  5
4B6
100
AcDbEntity
  8
L1_105
  6
CONTINUOUS
 62
         4
100
AcDbTrace
 10
1723.2612659414
 20
86.3386300769
 30
0.0
 11
1720.5612659414
 21
85.9336300769
 31
0.0
 12
1720.5612659414
 22
86.7436300769
 32
0.0
 13
1723.2612659414
 23
86.3386300769
 33
0.0
  0
LINE
  5
4B7
100
AcDbEntity
  8
L1_105
  6
CONTINUOUS
 62
         4
100
AcDbLine
 10
1727.7612659414
 20
86.3386300769
 30
0.0
 11
1733.1612659414
 21
86.3386300769
 31
0.0
  0
SOLID
  5
4B8
100
AcDbEntity
  8
L1_105
  6
CONTINUOUS
 62
         4
100
AcDbTrace
 10
1727.7612659414
 20
86.3386300769
 30
0.0
 11
1730.4612659414
 21
86.7436300769
 31
0.0
 12
1730.4612659414
 22
85.9336300769
 32
0.0
 13
1727.7612659414
 23
86.3386300769
 33
0.0
  0
LINE
  5
4B9
100
AcDbEntity
  8
L1_105
  6
CONTINUOUS
 62
         4
100
AcDbLine
 10
1723.2612659414
 20
86.3386300769
 30
0.0
 11
1727.7612659414
 21
86.3386300769
 31
0.0
  0
TEXT
  5
4BB
100
AcDbEntity
  8
L1_105
  6
CONTINUOUS
 62
         4
100
AcDbText
 10
1713.8750082111
 20
88.3636300769
 30
0.0
 40
2.7
  1
4.5
  7
BOX
100
AcDbText
  0
ENDBLK
  5
4BC
100
AcDbEntity
  8
0
  6
CONTINUOUS
100
AcDbBlockEnd
  0
BLOCK
  5
4BE
100
AcDbEntity
  8
0
100
AcDbBlockBegin
  2
*D25
 70
        65
 10
0.0
 20
0.0
 30
0.0
  3
*D25
  1

  0
POINT
  5
4C0
100
AcDbEntity
  8
DEFPOINTS
  6
CONTINUOUS
 62
         0
100
AcDbPoint
 10
1733.9112659414
 20
88.402548021
 30
0.0
  0
POINT
  5
4C1
100
AcDbEntity
  8
DEFPOINTS
  6
CONTINUOUS
 62
         0
100
AcDbPoint
 10
1733.9112659414
 20
83.2872179209
 30
0.0
  0
POINT
  5
4C2
100
AcDbEntity
  8
DEFPOINTS
  6
CONTINUOUS
 62
         0
100
AcDbPoint
 10
1735.4112659414
 20
83.2872179209
 30
0.0
  0
LINE
  5
4C3
100
AcDbEntity
  8
L1_105
  6
CONTINUOUS
 62
         4
100
AcDbLine
 10
1733.9112659414
 20
84.6372179209
 30
0.0
 11
1733.9112659414
 21
89.077548021
 31
0.0
  0
LINE
  5
4C4
100
AcDbEntity
  8
L1_105
  6
CONTINUOUS
 62
         4
100
AcDbLine
 10
1735.4112659414
 20
84.6372179209
 30
0.0
 11
1735.4112659414
 21
89.077548021
 31
0.0
  0
LINE
  5
4C5
100
AcDbEntity
  8
L1_105
  6
CONTINUOUS
 62
         4
100
AcDbLine
 10
1733.9112659414
 20
88.402548021
 30
0.0
 11
1728.5112659414
 21
88.402548021
 31
0.0
  0
SOLID
  5
4C6
100
AcDbEntity
  8
L1_105
  6
CONTINUOUS
 62
         4
100
AcDbTrace
 10
1733.9112659414
 20
88.402548021
 30
0.0
 11
1731.2112659414
 21
87.997548021
 31
0.0
 12
1731.2112659414
 22
88.807548021
 32
0.0
 13
1733.9112659414
 23
88.402548021
 33
0.0
  0
LINE
  5
4C7
100
AcDbEntity
  8
L1_105
  6
CONTINUOUS
 62
         4
100
AcDbLine
 10
1735.4112659414
 20
88.402548021
 30
0.0
 11
1746.2836382937
 21
88.402548021
 31
0.0
  0
SOLID
  5
4C8
100
AcDbEntity
  8
L1_105
  6
CONTINUOUS
 62
         4
100
AcDbTrace
 10
1735.4112659414
 20
88.402548021
 30
0.0
 11
1738.1112659414
 21
88.807548021
 31
0.0
 12
1738.1112659414
 22
87.997548021
 32
0.0
 13
1735.4112659414
 23
88.402548021
 33
0.0
  0
LINE
  5
4C9
100
AcDbEntity
  8
L1_105
  6
CONTINUOUS
 62
         4
100
AcDbLine
 10
1733.9112659414
 20
88.402548021
 30
0.0
 11
1735.4112659414
 21
88.402548021
 31
0.0
  0
TEXT
  5
4CB
100
AcDbEntity
  8
L1_105
  6
CONTINUOUS
 62
         4
100
AcDbText
 10
1736.8336382937
 20
90.427548021
 30
0.0
 40
2.7
  1
1.5
  7
BOX
100
AcDbText
  0
ENDBLK
  5
4CC
100
AcDbEntity
  8
0
  6
CONTINUOUS
100
AcDbBlockEnd
  0
BLOCK
  5
4ED
100
AcDbEntity
  8
0
100
AcDbBlockBegin
  2
*D26
 70
        65
 10
0.0
 20
0.0
 30
0.0
  3
*D26
  1

  0
POINT
  5
4EF
100
AcDbEntity
  8
DEFPOINTS
  6
CONTINUOUS
 62
         0
100
AcDbPoint
 10
1752.5536550778
 20
90.8872179209
 30
0.0
  0
POINT
  5
4F0
100
AcDbEntity
  8
DEFPOINTS
  6
CONTINUOUS
 62
         0
100
AcDbPoint
 10
1755.5012659414
 20
90.8872179209
 30
0.0
  0
POINT
  5
4F1
100
AcDbEntity
  8
DEFPOINTS
  6
CONTINUOUS
 62
         0
100
AcDbPoint
 10
1755.5012659414
 20
56.8872179209
 30
0.0
  0
LINE
  5
4F2
100
AcDbEntity
  8
L1_105
  6
CONTINUOUS
 62
         4
100
AcDbLine
 10
1754.1512659414
 20
90.8872179209
 30
0.0
 11
1751.8786550778
 21
90.8872179209
 31
0.0
  0
LINE
  5
4F3
100
AcDbEntity
  8
L1_105
  6
CONTINUOUS
 62
         4
100
AcDbLine
 10
1754.1512659414
 20
56.8872179209
 30
0.0
 11
1751.8786550778
 21
56.8872179209
 31
0.0
  0
LINE
  5
4F4
100
AcDbEntity
  8
L1_105
  6
CONTINUOUS
 62
         4
100
AcDbLine
 10
1752.5536550778
 20
90.8872179209
 30
0.0
 11
1752.5536550778
 21
56.8872179209
 31
0.0
  0
SOLID
  5
4F5
100
AcDbEntity
  8
L1_105
  6
CONTINUOUS
 62
         4
100
AcDbTrace
 10
1752.5536550778
 20
90.8872179209
 30
0.0
 11
1752.9586550778
 21
88.1872179209
 31
0.0
 12
1752.1486550778
 22
88.1872179209
 32
0.0
 13
1752.5536550778
 23
90.8872179209
 33
0.0
  0
SOLID
  5
4F6
100
AcDbEntity
  8
L1_105
  6
CONTINUOUS
 62
         4
100
AcDbTrace
 10
1752.5536550778
 20
56.8872179209
 30
0.0
 11
1752.1486550778
 21
59.5872179209
 31
0.0
 12
1752.9586550778
 22
59.5872179209
 32
0.0
 13
1752.5536550778
 23
56.8872179209
 33
0.0
  0
TEXT
  5
4F8
100
AcDbEntity
  8
L1_105
  6
CONTINUOUS
 62
         4
100
AcDbText
 10
1750.5286550778
 20
62.7094334466
 30
0.0
 40
2.7
  1
崷33.99
 50
90.0
  7
BOX
100
AcDbText
  0
ENDBLK
  5
4F9
100
AcDbEntity
  8
0
  6
CONTINUOUS
100
AcDbBlockEnd
  0
BLOCK
  5
4FB
100
AcDbEntity
  8
0
100
AcDbBlockBegin
  2
*D27
 70
        65
 10
0.0
 20
0.0
 30
0.0
  3
*D27
  1

  0
POINT
  5
4FD
100
AcDbEntity
  8
DEFPOINTS
  6
CONTINUOUS
 62
         0
100
AcDbPoint
 10
1793.7435916127
 20
93.3872179209
 30
0.0
  0
POINT
  5
4FE
100
AcDbEntity
  8
DEFPOINTS
  6
CONTINUOUS
 62
         0
100
AcDbPoint
 10
1786.3012659414
 20
93.3872179209
 30
0.0
  0
POINT
  5
4FF
100
AcDbEntity
  8
DEFPOINTS
  6
CONTINUOUS
 62
         0
100
AcDbPoint
 10
1786.3012659414
 20
54.3872179209
 30
0.0
  0
LINE
  5
500
100
AcDbEntity
  8
L1_105
  6
CONTINUOUS
 62
         4
100
AcDbLine
 10
1787.6512659414
 20
93.3872179209
 30
0.0
 11
1794.4185916127
 21
93.3872179209
 31
0.0
  0
LINE
  5
501
100
AcDbEntity
  8
L1_105
  6
CONTINUOUS
 62
         4
100
AcDbLine
 10
1787.6512659414
 20
54.3872179209
 30
0.0
 11
1794.4185916127
 21
54.3872179209
 31
0.0
  0
LINE
  5
502
100
AcDbEntity
  8
L1_105
  6
CONTINUOUS
 62
         4
100
AcDbLine
 10
1793.7435916127
 20
93.3872179209
 30
0.0
 11
1793.7435916127
 21
54.3872179209
 31
0.0
  0
SOLID
  5
503
100
AcDbEntity
  8
L1_105
  6
CONTINUOUS
 62
         4
100
AcDbTrace
 10
1793.7435916127
 20
93.3872179209
 30
0.0
 11
1794.1485916127
 21
90.6872179209
 31
0.0
 12
1793.3385916127
 22
90.6872179209
 32
0.0
 13
1793.7435916127
 23
93.3872179209
 33
0.0
  0
SOLID
  5
504
100
AcDbEntity
  8
L1_105
  6
CONTINUOUS
 62
         4
100
AcDbTrace
 10
1793.7435916127
 20
54.3872179209
 30
0.0
 11
1793.3385916127
 21
57.0872179209
 31
0.0
 12
1794.1485916127
 22
57.0872179209
 32
0.0
 13
1793.7435916127
 23
54.3872179209
 33
0.0
  0
TEXT
  5
506
100
AcDbEntity
  8
L1_105
  6
CONTINUOUS
 62
         4
100
AcDbText
 10
1791.7185916127
 20
69.4182100876
 30
0.0
 40
2.7
  1
崷39
 50
90.0
  7
BOX
100
AcDbText
  0
ENDBLK
  5
507
100
AcDbEntity
  8
0
  6
CONTINUOUS
100
AcDbBlockEnd
  0
BLOCK
  5
509
100
AcDbEntity
  8
0
100
AcDbBlockBegin
  2
*D28
 70
        65
 10
0.0
 20
0.0
 30
0.0
  3
*D28
  1

  0
POINT
  5
50B
100
AcDbEntity
  8
DEFPOINTS
  6
CONTINUOUS
 62
         0
100
AcDbPoint
 10
1786.8012659414
 20
96.6382839722
 30
0.0
  0
POINT
  5
50C
100
AcDbEntity
  8
DEFPOINTS
  6
CONTINUOUS
 62
         0
100
AcDbPoint
 10
1786.8012659414
 20
92.8872179209
 30
0.0
  0
POINT
  5
50D
100
AcDbEntity
  8
DEFPOINTS
  6
CONTINUOUS
 62
         0
100
AcDbPoint
 10
1779.8012659414
 20
92.8872179209
 30
0.0
  0
LINE
  5
50E
100
AcDbEntity
  8
L1_105
  6
CONTINUOUS
 62
         4
100
AcDbLine
 10
1786.8012659414
 20
94.2372179209
 30
0.0
 11
1786.8012659414
 21
97.3132839722
 31
0.0
  0
LINE
  5
50F
100
AcDbEntity
  8
L1_105
  6
CONTINUOUS
 62
         4
100
AcDbLine
 10
1779.8012659414
 20
94.2372179209
 30
0.0
 11
1779.8012659414
 21
97.3132839722
 31
0.0
  0
LINE
  5
510
100
AcDbEntity
  8
L1_105
  6
CONTINUOUS
 62
         4
100
AcDbLine
 10
1786.8012659414
 20
96.6382839722
 30
0.0
 11
1779.8012659414
 21
96.6382839722
 31
0.0
  0
SOLID
  5
511
100
AcDbEntity
  8
L1_105
  6
CONTINUOUS
 62
         4
100
AcDbTrace
 10
1786.8012659414
 20
96.6382839722
 30
0.0
 11
1784.1012659414
 21
96.2332839722
 31
0.0
 12
1784.1012659414
 22
97.0432839722
 32
0.0
 13
1786.8012659414
 23
96.6382839722
 33
0.0
  0
SOLID
  5
512
100
AcDbEntity
  8
L1_105
  6
CONTINUOUS
 62
         4
100
AcDbTrace
 10
1779.8012659414
 20
96.6382839722
 30
0.0
 11
1782.5012659414
 21
97.0432839722
 31
0.0
 12
1782.5012659414
 22
96.2332839722
 32
0.0
 13
1779.8012659414
 23
96.6382839722
 33
0.0
  0
TEXT
  5
514
100
AcDbEntity
  8
L1_105
  6
CONTINUOUS
 62
         4
100
AcDbText
 10
1781.996045056
 20
98.6632839722
 30
0.0
 40
2.7
  1
7
  7
BOX
100
AcDbText
  0
ENDBLK
  5
515
100
AcDbEntity
  8
0
  6
CONTINUOUS
100
AcDbBlockEnd
  0
BLOCK
  5
517
100
AcDbEntity
  8
0
100
AcDbBlockBegin
  2
*D29
 70
        65
 10
0.0
 20
0.0
 30
0.0
  3
*D29
  1

  0
POINT
  5
519
100
AcDbEntity
  8
DEFPOINTS
  6
CONTINUOUS
 62
         0
100
AcDbPoint
 10
1786.8012659414
 20
103.3485297807
 30
0.0
  0
POINT
  5
51A
100
AcDbEntity
  8
DEFPOINTS
  6
CONTINUOUS
 62
         0
100
AcDbPoint
 10
1786.8012659414
 20
92.8872179209
 30
0.0
  0
POINT
  5
51B
100
AcDbEntity
  8
DEFPOINTS
  6
CONTINUOUS
 62
         0
100
AcDbPoint
 10
1755.3012659414
 20
90.6872179209
 30
0.0
  0
LINE
  5
51C
100
AcDbEntity
  8
L1_105
  6
CONTINUOUS
 62
         4
100
AcDbLine
 10
1786.8012659414
 20
94.2372179209
 30
0.0
 11
1786.8012659414
 21
104.0235297807
 31
0.0
  0
LINE
  5
51D
100
AcDbEntity
  8
L1_105
  6
CONTINUOUS
 62
         4
100
AcDbLine
 10
1755.3012659414
 20
92.0372179209
 30
0.0
 11
1755.3012659414
 21
104.0235297807
 31
0.0
  0
LINE
  5
51E
100
AcDbEntity
  8
L1_105
  6
CONTINUOUS
 62
         4
100
AcDbLine
 10
1786.8012659414
 20
103.3485297807
 30
0.0
 11
1755.3012659414
 21
103.3485297807
 31
0.0
  0
SOLID
  5
51F
100
AcDbEntity
  8
L1_105
  6
CONTINUOUS
 62
         4
100
AcDbTrace
 10
1786.8012659414
 20
103.3485297807
 30
0.0
 11
1784.1012659414
 21
102.9435297807
 31
0.0
 12
1784.1012659414
 22
103.7535297807
 32
0.0
 13
1786.8012659414
 23
103.3485297807
 33
0.0
  0
SOLID
  5
520
100
AcDbEntity
  8
L1_105
  6
CONTINUOUS
 62
         4
100
AcDbTrace
 10
1755.3012659414
 20
103.3485297807
 30
0.0
 11
1758.0012659414
 21
103.7535297807
 31
0.0
 12
1758.0012659414
 22
102.9435297807
 32
0.0
 13
1755.3012659414
 23
103.3485297807
 33
0.0
  0
TEXT
  5
522
100
AcDbEntity
  8
L1_105
  6
CONTINUOUS
 62
         4
100
AcDbText
 10
1764.5761968036
 20
105.3735297807
 30
0.0
 40
2.7
  1
31.5
  7
BOX
100
AcDbText
  0
ENDBLK
  5
523
100
AcDbEntity
  8
0
  6
CONTINUOUS
100
AcDbBlockEnd
  0
BLOCK
  5
53E
100
AcDbEntity
  8
0
100
AcDbBlockBegin
  2
*D30
 70
        65
 10
0.0
 20
0.0
 30
0.0
  3
*D30
  1

  0
POINT
  5
540
100
AcDbEntity
  8
DEFPOINTS
  6
CONTINUOUS
 62
         0
100
AcDbPoint
 10
1540.9823058991
 20
-18.0081191884
 30
0.0
  0
POINT
  5
541
100
AcDbEntity
  8
DEFPOINTS
  6
CONTINUOUS
 62
         0
100
AcDbPoint
 10
1540.9823058991
 20
-9.7951392792
 30
0.0
  0
POINT
  5
542
100
AcDbEntity
  8
DEFPOINTS
  6
CONTINUOUS
 62
         0
100
AcDbPoint
 10
1552.2323058991
 20
-10.2951392792
 30
0.0
  0
LINE
  5
543
100
AcDbEntity
  8
L1_105
  6
CONTINUOUS
 62
         4
100
AcDbLine
 10
1540.9823058991
 20
-11.1451392792
 30
0.0
 11
1540.9823058991
 21
-18.6831191884
 31
0.0
  0
LINE
  5
544
100
AcDbEntity
  8
L1_105
  6
CONTINUOUS
 62
         4
100
AcDbLine
 10
1552.2323058991
 20
-11.6451392792
 30
0.0
 11
1552.2323058991
 21
-18.6831191884
 31
0.0
  0
LINE
  5
545
100
AcDbEntity
  8
L1_105
  6
CONTINUOUS
 62
         4
100
AcDbLine
 10
1540.9823058991
 20
-18.0081191884
 30
0.0
 11
1552.2323058991
 21
-18.0081191884
 31
0.0
  0
SOLID
  5
546
100
AcDbEntity
  8
L1_105
  6
CONTINUOUS
 62
         4
100
AcDbTrace
 10
1540.9823058991
 20
-18.0081191884
 30
0.0
 11
1543.6823058991
 21
-17.6031191884
 31
0.0
 12
1543.6823058991
 22
-18.4131191884
 32
0.0
 13
1540.9823058991
 23
-18.0081191884
 33
0.0
  0
SOLID
  5
547
100
AcDbEntity
  8
L1_105
  6
CONTINUOUS
 62
         4
100
AcDbTrace
 10
1552.2323058991
 20
-18.0081191884
 30
0.0
 11
1549.5323058991
 21
-18.4131191884
 31
0.0
 12
1549.5323058991
 22
-17.6031191884
 32
0.0
 13
1552.2323058991
 23
-18.0081191884
 33
0.0
  0
TEXT
  5
549
100
AcDbEntity
  8
L1_105
  6
CONTINUOUS
 62
         4
100
AcDbText
 10
1539.8573058991
 20
-15.9831191884
 30
0.0
 40
2.7
  1
11.25
  7
BOX
100
AcDbText
  0
ENDBLK
  5
54A
100
AcDbEntity
  8
0
  6
CONTINUOUS
100
AcDbBlockEnd
  0
BLOCK
  5
54C
100
AcDbEntity
  8
0
100
AcDbBlockBegin
  2
*D31
 70
        65
 10
0.0
 20
0.0
 30
0.0
  3
*D31
  1

  0
POINT
  5
54E
100
AcDbEntity
  8
DEFPOINTS
  6
CONTINUOUS
 62
         0
100
AcDbPoint
 10
1565.2381342991
 20
-3.3196392792
 30
0.0
  0
POINT
  5
54F
100
AcDbEntity
  8
DEFPOINTS
  6
CONTINUOUS
 62
         0
100
AcDbPoint
 10
1553.2078058991
 20
-3.3196392792
 30
0.0
  0
POINT
  5
550
100
AcDbEntity
  8
DEFPOINTS
  6
CONTINUOUS
 62
         0
100
AcDbPoint
 10
1553.2078058991
 20
-11.2706392792
 30
0.0
  0
LINE
  5
551
100
AcDbEntity
  8
L1_105
  6
CONTINUOUS
 62
         4
100
AcDbLine
 10
1554.5578058991
 20
-3.3196392792
 30
0.0
 11
1565.9131342991
 21
-3.3196392792
 31
0.0
  0
LINE
  5
552
100
AcDbEntity
  8
L1_105
  6
CONTINUOUS
 62
         4
100
AcDbLine
 10
1554.5578058991
 20
-11.2706392792
 30
0.0
 11
1565.9131342991
 21
-11.2706392792
 31
0.0
  0
LINE
  5
553
100
AcDbEntity
  8
L1_105
  6
CONTINUOUS
 62
         4
100
AcDbLine
 10
1565.2381342991
 20
-3.3196392792
 30
0.0
 11
1565.2381342991
 21
-11.2706392792
 31
0.0
  0
SOLID
  5
554
100
AcDbEntity
  8
L1_105
  6
CONTINUOUS
 62
         4
100
AcDbTrace
 10
1565.2381342991
 20
-3.3196392792
 30
0.0
 11
1565.6431342991
 21
-6.0196392792
 31
0.0
 12
1564.8331342991
 22
-6.0196392792
 32
0.0
 13
1565.2381342991
 23
-3.3196392792
 33
0.0
  0
SOLID
  5
555
100
AcDbEntity
  8
L1_105
  6
CONTINUOUS
 62
         4
100
AcDbTrace
 10
1565.2381342991
 20
-11.2706392792
 30
0.0
 11
1564.8331342991
 21
-8.5706392792
 31
0.0
 12
1565.6431342991
 22
-8.5706392792
 32
0.0
 13
1565.2381342991
 23
-11.2706392792
 33
0.0
  0
TEXT
  5
557
100
AcDbEntity
  8
L1_105
  6
CONTINUOUS
 62
         4
100
AcDbText
 10
1563.2131342991
 20
-16.7451392792
 30
0.0
 40
2.7
  1
崷7.951
 50
90.0
  7
BOX
100
AcDbText
  0
ENDBLK
  5
558
100
AcDbEntity
  8
0
  6
CONTINUOUS
100
AcDbBlockEnd
  0
BLOCK
  5
562
100
AcDbEntity
  8
0
100
AcDbBlockBegin
  2
*D32
 70
        65
 10
0.0
 20
0.0
 30
0.0
  3
*D32
  1

  0
POINT
  5
564
100
AcDbEntity
  8
DEFPOINTS
  6
CONTINUOUS
 62
         0
100
AcDbPoint
 10
1725.9694191856
 20
14.2048607208
 30
0.0
  0
POINT
  5
565
100
AcDbEntity
  8
DEFPOINTS
  6
CONTINUOUS
 62
         0
100
AcDbPoint
 10
1735.2369502264
 20
14.2048607208
 30
0.0
  0
POINT
  5
566
100
AcDbEntity
  8
DEFPOINTS
  6
CONTINUOUS
 62
         0
100
AcDbPoint
 10
1735.2369502264
 20
-28.7951392792
 30
0.0
  0
LINE
  5
567
100
AcDbEntity
  8
L1_105
  6
CONTINUOUS
 62
         4
100
AcDbLine
 10
1733.8869502264
 20
14.2048607208
 30
0.0
 11
1725.2944191856
 21
14.2048607208
 31
0.0
  0
LINE
  5
568
100
AcDbEntity
  8
L1_105
  6
CONTINUOUS
 62
         4
100
AcDbLine
 10
1733.8869502264
 20
-28.7951392792
 30
0.0
 11
1725.2944191856
 21
-28.7951392792
 31
0.0
  0
LINE
  5
569
100
AcDbEntity
  8
L1_105
  6
CONTINUOUS
 62
         4
100
AcDbLine
 10
1725.9694191856
 20
14.2048607208
 30
0.0
 11
1725.9694191856
 21
-28.7951392792
 31
0.0
  0
SOLID
  5
56A
100
AcDbEntity
  8
L1_105
  6
CONTINUOUS
 62
         4
100
AcDbTrace
 10
1725.9694191856
 20
14.2048607208
 30
0.0
 11
1726.3744191856
 21
11.5048607208
 31
0.0
 12
1725.5644191856
 22
11.5048607208
 32
0.0
 13
1725.9694191856
 23
14.2048607208
 33
0.0
  0
SOLID
  5
56B
100
AcDbEntity
  8
L1_105
  6
CONTINUOUS
 62
         4
100
AcDbTrace
 10
1725.9694191856
 20
-28.7951392792
 30
0.0
 11
1725.5644191856
 21
-26.0951392792
 31
0.0
 12
1726.3744191856
 22
-26.0951392792
 32
0.0
 13
1725.9694191856
 23
-28.7951392792
 33
0.0
  0
TEXT
  5
56D
100
AcDbEntity
  8
L1_105
  6
CONTINUOUS
 62
         4
100
AcDbText
 10
1723.9444191856
 20
-12.6951392792
 30
0.0
 40
2.7
  1
崷42
 50
90.0
  7
BOX
100
AcDbText
  0
ENDBLK
  5
56E
100
AcDbEntity
  8
0
  6
CONTINUOUS
100
AcDbBlockEnd
  0
BLOCK
  5
572
100
AcDbEntity
  8
0
100
AcDbBlockBegin
  2
*D33
 70
        65
 10
0.0
 20
0.0
 30
0.0
  3
*D33
  1

  0
POINT
  5
574
100
AcDbEntity
  8
DEFPOINTS
  6
CONTINUOUS
 62
         0
100
AcDbPoint
 10
1699.227605368
 20
2.9548607208
 30
0.0
  0
POINT
  5
575
100
AcDbEntity
  8
DEFPOINTS
  6
CONTINUOUS
 62
         0
100
AcDbPoint
 10
1706.302057461
 20
2.9548607208
 30
0.0
  0
POINT
  5
576
100
AcDbEntity
  8
DEFPOINTS
  6
CONTINUOUS
 62
         0
100
AcDbPoint
 10
1706.302057461
 20
-17.5451392792
 30
0.0
  0
LINE
  5
577
100
AcDbEntity
  8
L1_105
  6
CONTINUOUS
 62
         4
100
AcDbLine
 10
1704.952057461
 20
2.9548607208
 30
0.0
 11
1698.552605368
 21
2.9548607208
 31
0.0
  0
LINE
  5
578
100
AcDbEntity
  8
L1_105
  6
CONTINUOUS
 62
         4
100
AcDbLine
 10
1704.952057461
 20
-17.5451392792
 30
0.0
 11
1698.552605368
 21
-17.5451392792
 31
0.0
  0
LINE
  5
579
100
AcDbEntity
  8
L1_105
  6
CONTINUOUS
 62
         4
100
AcDbLine
 10
1699.227605368
 20
2.9548607208
 30
0.0
 11
1699.227605368
 21
-17.5451392792
 31
0.0
  0
SOLID
  5
57A
100
AcDbEntity
  8
L1_105
  6
CONTINUOUS
 62
         4
100
AcDbTrace
 10
1699.227605368
 20
2.9548607208
 30
0.0
 11
1699.632605368
 21
0.2548607208
 31
0.0
 12
1698.822605368
 22
0.2548607208
 32
0.0
 13
1699.227605368
 23
2.9548607208
 33
0.0
  0
SOLID
  5
57B
100
AcDbEntity
  8
L1_105
  6
CONTINUOUS
 62
         4
100
AcDbTrace
 10
1699.227605368
 20
-17.5451392792
 30
0.0
 11
1698.822605368
 21
-14.8451392792
 31
0.0
 12
1699.632605368
 22
-14.8451392792
 32
0.0
 13
1699.227605368
 23
-17.5451392792
 33
0.0
  0
TEXT
  5
57D
100
AcDbEntity
  8
L1_105
  6
CONTINUOUS
 62
         4
100
AcDbText
 10
1697.202605368
 20
-15.3951392792
 30
0.0
 40
2.7
  1
崷20.5
 50
90.0
  7
BOX
100
AcDbText
  0
ENDBLK
  5
57E
100
AcDbEntity
  8
0
  6
CONTINUOUS
100
AcDbBlockEnd
  0
BLOCK
  5
584
100
AcDbEntity
  8
0
100
AcDbBlockBegin
  2
*D34
 70
        65
 10
0.0
 20
0.0
 30
0.0
  3
*D34
  1

  0
POINT
  5
586
100
AcDbEntity
  8
DEFPOINTS
  6
CONTINUOUS
 62
         0
100
AcDbPoint
 10
1663.3823292963
 20
-8.5875408034
 30
0.0
  0
POINT
  5
587
100
AcDbEntity
  8
DEFPOINTS
  6
CONTINUOUS
 62
         0
100
AcDbPoint
 10
1672.5499035775
 20
-6.002737755
 30
0.0
  0
LINE
  5
588
100
AcDbEntity
  8
L1_105
  6
CONTINUOUS
 62
         4
100
AcDbLine
 10
1672.5499035775
 20
-6.002737755
 30
0.0
 11
1667.9661164369
 21
-7.2951392792
 31
0.0
  0
SOLID
  5
589
100
AcDbEntity
  8
L1_105
  6
CONTINUOUS
 62
         4
100
AcDbTrace
 10
1672.5499035775
 20
-6.002737755
 30
0.0
 11
1670.0611261156
 21
-7.1252402027
 31
0.0
 12
1669.8413160926
 22
-6.3456354607
 32
0.0
 13
1672.5499035775
 23
-6.002737755
 33
0.0
  0
LINE
  5
58A
100
AcDbEntity
  8
L1_105
  6
CONTINUOUS
 62
         4
100
AcDbLine
 10
1667.9661164369
 20
-7.2951392792
 30
0.0
 11
1663.3823292963
 21
-8.5875408034
 31
0.0
  0
SOLID
  5
58B
100
AcDbEntity
  8
L1_105
  6
CONTINUOUS
 62
         4
100
AcDbTrace
 10
1663.3823292963
 20
-8.5875408034
 30
0.0
 11
1665.8711067582
 21
-7.4650383557
 31
0.0
 12
1666.0909167812
 22
-8.2446430977
 32
0.0
 13
1663.3823292963
 23
-8.5875408034
 33
0.0
  0
LINE
  5
58C
100
AcDbEntity
  8
L1_105
  6
CONTINUOUS
 62
         4
100
AcDbLine
 10
1672.5499035775
 20
-6.002737755
 30
0.0
 11
1690.4565954466
 21
-0.9539352788
 31
0.0
  0
TEXT
  5
58E
100
AcDbEntity
  8
L1_105
  6
CONTINUOUS
 62
         4
100
AcDbText
 10
1673.3877490369
 20
-4.4122608921
 30
0.0
 40
2.7
  1
崷9.53
 50
15.7458298425
  7
BOX
100
AcDbText
  0
ENDBLK
  5
58F
100
AcDbEntity
  8
0
  6
CONTINUOUS
100
AcDbBlockEnd
  0
BLOCK
  5
592
100
AcDbEntity
  8
0
100
AcDbBlockBegin
  2
*D35
 70
        65
 10
0.0
 20
0.0
 30
0.0
  3
*D35
  1

  0
POINT
  5
594
100
AcDbEntity
  8
DEFPOINTS
  6
CONTINUOUS
 62
         0
100
AcDbPoint
 10
1552.2323058991
 20
2.1044673842
 30
0.0
  0
POINT
  5
595
100
AcDbEntity
  8
DEFPOINTS
  6
CONTINUOUS
 62
         0
100
AcDbPoint
 10
1552.2323058991
 20
-4.2951392792
 30
0.0
  0
POINT
  5
596
100
AcDbEntity
  8
DEFPOINTS
  6
CONTINUOUS
 62
         0
100
AcDbPoint
 10
1587.2323058991
 20
-1.2951392792
 30
0.0
  0
LINE
  5
597
100
AcDbEntity
  8
L1_105
  6
CONTINUOUS
 62
         4
100
AcDbLine
 10
1552.2323058991
 20
-2.9451392792
 30
0.0
 11
1552.2323058991
 21
2.7794673842
 31
0.0
  0
LINE
  5
598
100
AcDbEntity
  8
L1_105
  6
CONTINUOUS
 62
         4
100
AcDbLine
 10
1587.2323058991
 20
0.0548607208
 30
0.0
 11
1587.2323058991
 21
2.7794673842
 31
0.0
  0
LINE
  5
599
100
AcDbEntity
  8
L1_105
  6
CONTINUOUS
 62
         4
100
AcDbLine
 10
1552.2323058991
 20
2.1044673842
 30
0.0
 11
1587.2323058991
 21
2.1044673842
 31
0.0
  0
SOLID
  5
59A
100
AcDbEntity
  8
L1_105
  6
CONTINUOUS
 62
         4
100
AcDbTrace
 10
1552.2323058991
 20
2.1044673842
 30
0.0
 11
1554.9323058991
 21
2.5094673842
 31
0.0
 12
1554.9323058991
 22
1.6994673842
 32
0.0
 13
1552.2323058991
 23
2.1044673842
 33
0.0
  0
SOLID
  5
59B
100
AcDbEntity
  8
L1_105
  6
CONTINUOUS
 62
         4
100
AcDbTrace
 10
1587.2323058991
 20
2.1044673842
 30
0.0
 11
1584.5323058991
 21
1.6994673842
 31
0.0
 12
1584.5323058991
 22
2.5094673842
 32
0.0
 13
1587.2323058991
 23
2.1044673842
 33
0.0
  0
TEXT
  5
59D
100
AcDbEntity
  8
L1_105
  6
CONTINUOUS
 62
         4
100
AcDbText
 10
1565.8404111802
 20
4.1294673842
 30
0.0
 40
2.7
  1
35
  7
BOX
100
AcDbText
  0
ENDBLK
  5
59E
100
AcDbEntity
  8
0
  6
CONTINUOUS
100
AcDbBlockEnd
  0
BLOCK
  5
5A0
100
AcDbEntity
  8
0
100
AcDbBlockBegin
  2
*D36
 70
        65
 10
0.0
 20
0.0
 30
0.0
  3
*D36
  1

  0
POINT
  5
5A2
100
AcDbEntity
  8
DEFPOINTS
  6
CONTINUOUS
 62
         0
100
AcDbPoint
 10
1616.9853517045
 20
-5.2951392792
 30
0.0
  0
POINT
  5
5A3
100
AcDbEntity
  8
DEFPOINTS
  6
CONTINUOUS
 62
         0
100
AcDbPoint
 10
1609.2958137226
 20
-5.2951392792
 30
0.0
  0
POINT
  5
5A4
100
AcDbEntity
  8
DEFPOINTS
  6
CONTINUOUS
 62
         0
100
AcDbPoint
 10
1609.2958137226
 20
-9.2951392792
 30
0.0
  0
LINE
  5
5A5
100
AcDbEntity
  8
L1_105
  6
CONTINUOUS
 62
         4
100
AcDbLine
 10
1610.6458137226
 20
-5.2951392792
 30
0.0
 11
1617.6603517045
 21
-5.2951392792
 31
0.0
  0
LINE
  5
5A6
100
AcDbEntity
  8
L1_105
  6
CONTINUOUS
 62
         4
100
AcDbLine
 10
1610.6458137226
 20
-9.2951392792
 30
0.0
 11
1617.6603517045
 21
-9.2951392792
 31
0.0
  0
LINE
  5
5A7
100
AcDbEntity
  8
L1_105
  6
CONTINUOUS
 62
         4
100
AcDbLine
 10
1616.9853517045
 20
-5.2951392792
 30
0.0
 11
1616.9853517045
 21
-9.2951392792
 31
0.0
  0
SOLID
  5
5A8
100
AcDbEntity
  8
L1_105
  6
CONTINUOUS
 62
         4
100
AcDbTrace
 10
1616.9853517045
 20
-5.2951392792
 30
0.0
 11
1617.3903517045
 21
-7.9951392792
 31
0.0
 12
1616.5803517045
 22
-7.9951392792
 32
0.0
 13
1616.9853517045
 23
-5.2951392792
 33
0.0
  0
SOLID
  5
5A9
100
AcDbEntity
  8
L1_105
  6
CONTINUOUS
 62
         4
100
AcDbTrace
 10
1616.9853517045
 20
-9.2951392792
 30
0.0
 11
1616.5803517045
 21
-6.5951392792
 31
0.0
 12
1617.3903517045
 22
-6.5951392792
 32
0.0
 13
1616.9853517045
 23
-9.2951392792
 33
0.0
  0
TEXT
  5
5AB
100
AcDbEntity
  8
L1_105
  6
CONTINUOUS
 62
         4
100
AcDbText
 10
1614.9603517045
 20
-8.6451392792
 30
0.0
 40
2.7
  1
4
 50
90.0
  7
BOX
100
AcDbText
  0
ENDBLK
  5
5AC
100
AcDbEntity
  8
0
  6
CONTINUOUS
100
AcDbBlockEnd
  0
BLOCK
  5
5B4
100
AcDbEntity
  8
0
100
AcDbBlockBegin
  2
*D37
 70
        65
 10
0.0
 20
0.0
 30
0.0
  3
*D37
  1

  0
POINT
  5
5B6
100
AcDbEntity
  8
DEFPOINTS
  6
CONTINUOUS
 62
         0
100
AcDbPoint
 10
1605.8317121074
 20
1.0279138461
 30
0.0
  0
POINT
  5
5B7
100
AcDbEntity
  8
DEFPOINTS
  6
CONTINUOUS
 62
         0
100
AcDbPoint
 10
1605.8317121074
 20
-7.2951392792
 30
0.0
  0
POINT
  5
5B8
100
AcDbEntity
  8
DEFPOINTS
  6
CONTINUOUS
 62
         0
100
AcDbPoint
 10
1610.450514261
 20
-7.2951392792
 30
0.0
  0
LINE
  5
5B9
100
AcDbEntity
  8
L1_105
  6
CONTINUOUS
 62
         4
100
AcDbLine
 10
1605.8317121074
 20
-5.9451392792
 30
0.0
 11
1605.8317121074
 21
1.7029138461
 31
0.0
  0
LINE
  5
5BA
100
AcDbEntity
  8
L1_105
  6
CONTINUOUS
 62
         4
100
AcDbLine
 10
1610.450514261
 20
-5.9451392792
 30
0.0
 11
1610.450514261
 21
1.7029138461
 31
0.0
  0
LINE
  5
5BB
100
AcDbEntity
  8
L1_105
  6
CONTINUOUS
 62
         4
100
AcDbLine
 10
1605.8317121074
 20
1.0279138461
 30
0.0
 11
1610.450514261
 21
1.0279138461
 31
0.0
  0
SOLID
  5
5BC
100
AcDbEntity
  8
L1_105
  6
CONTINUOUS
 62
         4
100
AcDbTrace
 10
1605.8317121074
 20
1.0279138461
 30
0.0
 11
1608.5317121074
 21
1.4329138461
 31
0.0
 12
1608.5317121074
 22
0.6229138461
 32
0.0
 13
1605.8317121074
 23
1.0279138461
 33
0.0
  0
SOLID
  5
5BD
100
AcDbEntity
  8
L1_105
  6
CONTINUOUS
 62
         4
100
AcDbTrace
 10
1610.450514261
 20
1.0279138461
 30
0.0
 11
1607.750514261
 21
0.6229138461
 31
0.0
 12
1607.750514261
 22
1.4329138461
 32
0.0
 13
1610.450514261
 23
1.0279138461
 33
0.0
  0
TEXT
  5
5BF
100
AcDbEntity
  8
L1_105
  6
CONTINUOUS
 62
         4
100
AcDbText
 10
1595.9911131842
 20
3.0529138461
 30
0.0
 40
2.7
  1
4.53~4.44
  7
BOX
100
AcDbText
  0
ENDBLK
  5
5C0
100
AcDbEntity
  8
0
  6
CONTINUOUS
100
AcDbBlockEnd
  0
BLOCK
  5
5C2
100
AcDbEntity
  8
0
100
AcDbBlockBegin
  2
*D38
 70
        65
 10
0.0
 20
0.0
 30
0.0
  3
*D38
  1

  0
POINT
  5
5C4
100
AcDbEntity
  8
DEFPOINTS
  6
CONTINUOUS
 62
         0
100
AcDbPoint
 10
1599.7665357018
 20
-0.7951392792
 30
0.0
  0
POINT
  5
5C5
100
AcDbEntity
  8
DEFPOINTS
  6
CONTINUOUS
 62
         0
100
AcDbPoint
 10
1592.2323058991
 20
-0.7951392792
 30
0.0
  0
POINT
  5
5C6
100
AcDbEntity
  8
DEFPOINTS
  6
CONTINUOUS
 62
         0
100
AcDbPoint
 10
1592.2323058991
 20
-13.7951392792
 30
0.0
  0
LINE
  5
5C7
100
AcDbEntity
  8
L1_105
  6
CONTINUOUS
 62
         4
100
AcDbLine
 10
1593.5823058991
 20
-0.7951392792
 30
0.0
 11
1600.4415357018
 21
-0.7951392792
 31
0.0
  0
LINE
  5
5C8
100
AcDbEntity
  8
L1_105
  6
CONTINUOUS
 62
         4
100
AcDbLine
 10
1593.5823058991
 20
-13.7951392792
 30
0.0
 11
1600.4415357018
 21
-13.7951392792
 31
0.0
  0
LINE
  5
5C9
100
AcDbEntity
  8
L1_105
  6
CONTINUOUS
 62
         4
100
AcDbLine
 10
1599.7665357018
 20
-0.7951392792
 30
0.0
 11
1599.7665357018
 21
-13.7951392792
 31
0.0
  0
SOLID
  5
5CA
100
AcDbEntity
  8
L1_105
  6
CONTINUOUS
 62
         4
100
AcDbTrace
 10
1599.7665357018
 20
-0.7951392792
 30
0.0
 11
1600.1715357018
 21
-3.4951392792
 31
0.0
 12
1599.3615357018
 22
-3.4951392792
 32
0.0
 13
1599.7665357018
 23
-0.7951392792
 33
0.0
  0
SOLID
  5
5CB
100
AcDbEntity
  8
L1_105
  6
CONTINUOUS
 62
         4
100
AcDbTrace
 10
1599.7665357018
 20
-13.7951392792
 30
0.0
 11
1599.3615357018
 21
-11.0951392792
 31
0.0
 12
1600.1715357018
 22
-11.0951392792
 32
0.0
 13
1599.7665357018
 23
-13.7951392792
 33
0.0
  0
TEXT
  5
5CD
100
AcDbEntity
  8
L1_105
  6
CONTINUOUS
 62
         4
100
AcDbText
 10
1597.7415357018
 20
-12.8757216845
 30
0.0
 40
2.7
  1
崷13
 50
90.0
  7
BOX
100
AcDbText
  0
ENDBLK
  5
5CE
100
AcDbEntity
  8
0
  6
CONTINUOUS
100
AcDbBlockEnd
  0
BLOCK
  5
5D0
100
AcDbEntity
  8
0
100
AcDbBlockBegin
  2
*D39
 70
        65
 10
0.0
 20
0.0
 30
0.0
  3
*D39
  1

  0
POINT
  5
5D2
100
AcDbEntity
  8
DEFPOINTS
  6
CONTINUOUS
 62
         0
100
AcDbPoint
 10
1752.6036038641
 20
3.1048607208
 30
0.0
  0
POINT
  5
5D3
100
AcDbEntity
  8
DEFPOINTS
  6
CONTINUOUS
 62
         0
100
AcDbPoint
 10
1756.5369502264
 20
3.1048607208
 30
0.0
  0
POINT
  5
5D4
100
AcDbEntity
  8
DEFPOINTS
  6
CONTINUOUS
 62
         0
100
AcDbPoint
 10
1756.5369502264
 20
-17.6951392792
 30
0.0
  0
LINE
  5
5D5
100
AcDbEntity
  8
L1_105
  6
CONTINUOUS
 62
         4
100
AcDbLine
 10
1755.1869502264
 20
3.1048607208
 30
0.0
 11
1751.9286038641
 21
3.1048607208
 31
0.0
  0
LINE
  5
5D6
100
AcDbEntity
  8
L1_105
  6
CONTINUOUS
 62
         4
100
AcDbLine
 10
1755.1869502264
 20
-17.6951392792
 30
0.0
 11
1751.9286038641
 21
-17.6951392792
 31
0.0
  0
LINE
  5
5D7
100
AcDbEntity
  8
L1_105
  6
CONTINUOUS
 62
         4
100
AcDbLine
 10
1752.6036038641
 20
3.1048607208
 30
0.0
 11
1752.6036038641
 21
-17.6951392792
 31
0.0
  0
SOLID
  5
5D8
100
AcDbEntity
  8
L1_105
  6
CONTINUOUS
 62
         4
100
AcDbTrace
 10
1752.6036038641
 20
3.1048607208
 30
0.0
 11
1753.0086038641
 21
0.4048607208
 31
0.0
 12
1752.1986038641
 22
0.4048607208
 32
0.0
 13
1752.6036038641
 23
3.1048607208
 33
0.0
  0
SOLID
  5
5D9
100
AcDbEntity
  8
L1_105
  6
CONTINUOUS
 62
         4
100
AcDbTrace
 10
1752.6036038641
 20
-17.6951392792
 30
0.0
 11
1752.1986038641
 21
-14.9951392792
 31
0.0
 12
1753.0086038641
 22
-14.9951392792
 32
0.0
 13
1752.6036038641
 23
-17.6951392792
 33
0.0
  0
TEXT
  5
5DB
100
AcDbEntity
  8
L1_105
  6
CONTINUOUS
 62
         4
100
AcDbText
 10
1750.5786038641
 20
-12.6951392792
 30
0.0
 40
2.7
  1
崷21
 50
90.0
  7
BOX
100
AcDbText
  0
ENDBLK
  5
5DC
100
AcDbEntity
  8
0
  6
CONTINUOUS
100
AcDbBlockEnd
  0
BLOCK
  5
5E2
100
AcDbEntity
  8
0
100
AcDbBlockBegin
  2
*D40
 70
        65
 10
0.0
 20
0.0
 30
0.0
  3
*D40
  1

  0
POINT
  5
5E4
100
AcDbEntity
  8
DEFPOINTS
  6
CONTINUOUS
 62
         0
100
AcDbPoint
 10
1780.8819776703
 20
6.4548607208
 30
0.0
  0
POINT
  5
5E5
100
AcDbEntity
  8
DEFPOINTS
  6
CONTINUOUS
 62
         0
100
AcDbPoint
 10
1784.9869502265
 20
6.4548607208
 30
0.0
  0
POINT
  5
5E6
100
AcDbEntity
  8
DEFPOINTS
  6
CONTINUOUS
 62
         0
100
AcDbPoint
 10
1784.9869502265
 20
-21.0451392792
 30
0.0
  0
LINE
  5
5E7
100
AcDbEntity
  8
L1_105
  6
CONTINUOUS
 62
         4
100
AcDbLine
 10
1783.6369502265
 20
6.4548607208
 30
0.0
 11
1780.2069776703
 21
6.4548607208
 31
0.0
  0
LINE
  5
5E8
100
AcDbEntity
  8
L1_105
  6
CONTINUOUS
 62
         4
100
AcDbLine
 10
1783.6369502265
 20
-21.0451392792
 30
0.0
 11
1780.2069776703
 21
-21.0451392792
 31
0.0
  0
LINE
  5
5E9
100
AcDbEntity
  8
L1_105
  6
CONTINUOUS
 62
         4
100
AcDbLine
 10
1780.8819776703
 20
6.4548607208
 30
0.0
 11
1780.8819776703
 21
-21.0451392792
 31
0.0
  0
SOLID
  5
5EA
100
AcDbEntity
  8
L1_105
  6
CONTINUOUS
 62
         4
100
AcDbTrace
 10
1780.8819776703
 20
6.4548607208
 30
0.0
 11
1781.2869776703
 21
3.7548607208
 31
0.0
 12
1780.4769776703
 22
3.7548607208
 32
0.0
 13
1780.8819776703
 23
6.4548607208
 33
0.0
  0
SOLID
  5
5EB
100
AcDbEntity
  8
L1_105
  6
CONTINUOUS
 62
         4
100
AcDbTrace
 10
1780.8819776703
 20
-21.0451392792
 30
0.0
 11
1780.4769776703
 21
-18.3451392792
 31
0.0
 12
1781.2869776703
 22
-18.3451392792
 32
0.0
 13
1780.8819776703
 23
-21.0451392792
 33
0.0
  0
TEXT
  5
5ED
100
AcDbEntity
  8
L1_105
  6
CONTINUOUS
 62
         4
100
AcDbText
 10
1778.8569776703
 20
-15.3951392792
 30
0.0
 40
2.7
  1
崷26.5
 50
90.0
  7
BOX
100
AcDbText
  0
ENDBLK
  5
5EE
100
AcDbEntity
  8
0
  6
CONTINUOUS
100
AcDbBlockEnd
  0
BLOCK
  5
5F5
100
AcDbEntity
  8
0
100
AcDbBlockBegin
  2
*D41
 70
        65
 10
0.0
 20
0.0
 30
0.0
  3
*D41
  1

  0
POINT
  5
5F7
100
AcDbEntity
  8
DEFPOINTS
  6
CONTINUOUS
 62
         0
100
AcDbPoint
 10
1734.7667890879
 20
14.0874413142
 30
0.0
  0
POINT
  5
5F8
100
AcDbEntity
  8
DEFPOINTS
  6
CONTINUOUS
 62
         0
100
AcDbPoint
 10
1735.707111365
 20
12.3222801275
 30
0.0
  0
LINE
  5
5F9
100
AcDbEntity
  8
L1_105
  6
CONTINUOUS
 62
         4
100
AcDbLine
 10
1735.707111365
 20
12.3222801275
 30
0.0
 11
1741.4724091612
 21
1.499735403
 31
0.0
  0
SOLID
  5
5FA
100
AcDbEntity
  8
L1_105
  6
CONTINUOUS
 62
         4
100
AcDbTrace
 10
1735.707111365
 20
12.3222801275
 30
0.0
 11
1737.3339915795
 21
10.1297277865
 31
0.0
 12
1736.6191012988
 22
9.7488972643
 32
0.0
 13
1735.707111365
 23
12.3222801275
 33
0.0
  0
LINE
  5
5FB
100
AcDbEntity
  8
L1_105
  6
CONTINUOUS
 62
         4
100
AcDbLine
 10
1734.7667890879
 20
14.0874413142
 30
0.0
 11
1732.2279189396
 21
18.8533765183
 31
0.0
  0
SOLID
  5
5FC
100
AcDbEntity
  8
L1_105
  6
CONTINUOUS
 62
         4
100
AcDbTrace
 10
1734.7667890879
 20
14.0874413142
 30
0.0
 11
1733.1399088734
 21
16.2799936551
 31
0.0
 12
1733.854799154
 22
16.6608241774
 32
0.0
 13
1734.7667890879
 23
14.0874413142
 33
0.0
  0
LINE
  5
5FD
100
AcDbEntity
  8
L1_105
  6
CONTINUOUS
 62
         4
100
AcDbLine
 10
1734.7667890879
 20
14.0874413142
 30
0.0
 11
1735.707111365
 21
12.3222801275
 31
0.0
  0
TEXT
  5
5FF
100
AcDbEntity
  8
L1_105
  6
CONTINUOUS
 62
         4
100
AcDbText
 10
1737.8065485808
 20
10.9291255106
 30
0.0
 40
2.7
  1
崷2
 50
298.0447568953
  7
BOX
100
AcDbText
  0
ENDBLK
  5
600
100
AcDbEntity
  8
0
  6
CONTINUOUS
100
AcDbBlockEnd
  0
BLOCK
  5
602
100
AcDbEntity
  8
0
100
AcDbBlockBegin
  2
*D42
 70
        65
 10
0.0
 20
0.0
 30
0.0
  3
*D42
  1

  0
POINT
  5
604
100
AcDbEntity
  8
DEFPOINTS
  6
CONTINUOUS
 62
         0
100
AcDbPoint
 10
1756.0149642643
 20
2.8934056636
 30
0.0
  0
POINT
  5
605
100
AcDbEntity
  8
DEFPOINTS
  6
CONTINUOUS
 62
         0
100
AcDbPoint
 10
1757.0589361886
 20
1.8163157781
 30
0.0
  0
LINE
  5
606
100
AcDbEntity
  8
L1_105
  6
CONTINUOUS
 62
         4
100
AcDbLine
 10
1757.0589361886
 20
1.8163157781
 30
0.0
 11
1769.7275936345
 21
-11.2542299727
 31
0.0
  0
SOLID
  5
607
100
AcDbEntity
  8
L1_105
  6
CONTINUOUS
 62
         4
100
AcDbTrace
 10
1757.0589361886
 20
1.8163157781
 30
0.0
 11
1759.2288999212
 21
0.1594264037
 31
0.0
 12
1758.647271383
 22
-0.4043184354
 32
0.0
 13
1757.0589361886
 23
1.8163157781
 33
0.0
  0
LINE
  5
608
100
AcDbEntity
  8
L1_105
  6
CONTINUOUS
 62
         4
100
AcDbLine
 10
1756.0149642643
 20
2.8934056636
 30
0.0
 11
1752.2566653372
 21
6.7709292514
 31
0.0
  0
SOLID
  5
609
100
AcDbEntity
  8
L1_105
  6
CONTINUOUS
 62
         4
100
AcDbTrace
 10
1756.0149642643
 20
2.8934056636
 30
0.0
 11
1753.8450005317
 21
4.5502950379
 31
0.0
 12
1754.4266290698
 22
5.114039877
 32
0.0
 13
1756.0149642643
 23
2.8934056636
 33
0.0
  0
LINE
  5
60A
100
AcDbEntity
  8
L1_105
  6
CONTINUOUS
 62
         4
100
AcDbLine
 10
1756.0149642643
 20
2.8934056636
 30
0.0
 11
1757.0589361886
 21
1.8163157781
 31
0.0
  0
TEXT
  5
60C
100
AcDbEntity
  8
L1_105
  6
CONTINUOUS
 62
         4
100
AcDbText
 10
1759.965321727
 20
0.6393901023
 30
0.0
 40
2.7
  1
崷1.5
 50
314.1054644321
  7
BOX
100
AcDbText
  0
ENDBLK
  5
60D
100
AcDbEntity
  8
0
  6
CONTINUOUS
100
AcDbBlockEnd
  0
BLOCK
  5
60F
100
AcDbEntity
  8
0
100
AcDbBlockBegin
  2
*D43
 70
        65
 10
0.0
 20
0.0
 30
0.0
  3
*D43
  1

  0
POINT
  5
611
100
AcDbEntity
  8
DEFPOINTS
  6
CONTINUOUS
 62
         0
100
AcDbPoint
 10
1784.5987243779
 20
6.3465621237
 30
0.0
  0
POINT
  5
612
100
AcDbEntity
  8
DEFPOINTS
  6
CONTINUOUS
 62
         0
100
AcDbPoint
 10
1785.375176075
 20
5.0631593179
 30
0.0
  0
LINE
  5
613
100
AcDbEntity
  8
L1_105
  6
CONTINUOUS
 62
         4
100
AcDbLine
 10
1785.375176075
 20
5.0631593179
 30
0.0
 11
1794.3437874032
 21
-9.7611252901
 31
0.0
  0
SOLID
  5
614
100
AcDbEntity
  8
L1_105
  6
CONTINUOUS
 62
         4
100
AcDbTrace
 10
1785.375176075
 20
5.0631593179
 30
0.0
 11
1787.1193078875
 21
2.9626762257
 31
0.0
 12
1786.4262703723
 22
2.5433923092
 32
0.0
 13
1785.375176075
 23
5.0631593179
 33
0.0
  0
LINE
  5
615
100
AcDbEntity
  8
L1_105
  6
CONTINUOUS
 62
         4
100
AcDbLine
 10
1784.5987243779
 20
6.3465621237
 30
0.0
 11
1781.8034982681
 21
10.9668122247
 31
0.0
  0
SOLID
  5
616
100
AcDbEntity
  8
L1_105
  6
CONTINUOUS
 62
         4
100
AcDbTrace
 10
1784.5987243779
 20
6.3465621237
 30
0.0
 11
1782.8545925654
 21
8.447045216
 31
0.0
 12
1783.5476300806
 22
8.8663291324
 32
0.0
 13
1784.5987243779
 23
6.3465621237
 33
0.0
  0
LINE
  5
617
100
AcDbEntity
  8
L1_105
  6
CONTINUOUS
 62
         4
100
AcDbLine
 10
1784.5987243779
 20
6.3465621237
 30
0.0
 11
1785.375176075
 21
5.0631593179
 31
0.0
  0
TEXT
  5
619
100
AcDbEntity
  8
L1_105
  6
CONTINUOUS
 62
         4
100
AcDbText
 10
1787.4292752744
 20
4.0868358769
 30
0.0
 40
2.7
  1
崷1.5
 50
301.1737094167
  7
BOX
100
AcDbText
  0
ENDBLK
  5
61A
100
AcDbEntity
  8
0
  6
CONTINUOUS
100
AcDbBlockEnd
  0
BLOCK
  5
61C
100
AcDbEntity
  8
0
100
AcDbBlockBegin
  2
*D44
 70
        65
 10
0.0
 20
0.0
 30
0.0
  3
*D44
  1

  0
POINT
  5
61E
100
AcDbEntity
  8
DEFPOINTS
  6
CONTINUOUS
 62
         0
100
AcDbPoint
 10
1706.302057461
 20
13.7958326227
 30
0.0
  0
POINT
  5
61F
100
AcDbEntity
  8
DEFPOINTS
  6
CONTINUOUS
 62
         0
100
AcDbPoint
 10
1706.302057461
 20
2.9548607208
 30
0.0
  0
POINT
  5
620
100
AcDbEntity
  8
DEFPOINTS
  6
CONTINUOUS
 62
         0
100
AcDbPoint
 10
1707.302057461
 20
2.9548607208
 30
0.0
  0
LINE
  5
621
100
AcDbEntity
  8
L1_105
  6
CONTINUOUS
 62
         4
100
AcDbLine
 10
1706.302057461
 20
4.3048607208
 30
0.0
 11
1706.302057461
 21
14.4708326227
 31
0.0
  0
LINE
  5
622
100
AcDbEntity
  8
L1_105
  6
CONTINUOUS
 62
         4
100
AcDbLine
 10
1707.302057461
 20
4.3048607208
 30
0.0
 11
1707.302057461
 21
14.4708326227
 31
0.0
  0
LINE
  5
623
100
AcDbEntity
  8
L1_105
  6
CONTINUOUS
 62
         4
100
AcDbLine
 10
1706.302057461
 20
13.7958326227
 30
0.0
 11
1700.902057461
 21
13.7958326227
 31
0.0
  0
SOLID
  5
624
100
AcDbEntity
  8
L1_105
  6
CONTINUOUS
 62
         4
100
AcDbTrace
 10
1706.302057461
 20
13.7958326227
 30
0.0
 11
1703.602057461
 21
13.3908326227
 31
0.0
 12
1703.602057461
 22
14.2008326227
 32
0.0
 13
1706.302057461
 23
13.7958326227
 33
0.0
  0
LINE
  5
625
100
AcDbEntity
  8
L1_105
  6
CONTINUOUS
 62
         4
100
AcDbLine
 10
1707.302057461
 20
13.7958326227
 30
0.0
 11
1712.702057461
 21
13.7958326227
 31
0.0
  0
SOLID
  5
626
100
AcDbEntity
  8
L1_105
  6
CONTINUOUS
 62
         4
100
AcDbTrace
 10
1707.302057461
 20
13.7958326227
 30
0.0
 11
1710.002057461
 21
14.2008326227
 31
0.0
 12
1710.002057461
 22
13.3908326227
 32
0.0
 13
1707.302057461
 23
13.7958326227
 33
0.0
  0
LINE
  5
627
100
AcDbEntity
  8
L1_105
  6
CONTINUOUS
 62
         4
100
AcDbLine
 10
1706.302057461
 20
13.7958326227
 30
0.0
 11
1707.302057461
 21
13.7958326227
 31
0.0
  0
TEXT
  5
629
100
AcDbEntity
  8
L1_105
  6
CONTINUOUS
 62
         4
100
AcDbText
 10
1705.452057461
 20
15.8208326227
 30
0.0
 40
2.7
  1
1
  7
BOX
100
AcDbText
  0
ENDBLK
  5
62A
100
AcDbEntity
  8
0
  6
CONTINUOUS
100
AcDbBlockEnd
  0
BLOCK
  5
62C
100
AcDbEntity
  8
0
100
AcDbBlockBegin
  2
*D45
 70
        65
 10
0.0
 20
0.0
 30
0.0
  3
*D45
  1

  0
POINT
  5
62E
100
AcDbEntity
  8
DEFPOINTS
  6
CONTINUOUS
 62
         0
100
AcDbPoint
 10
1633.7518827727
 20
-7.9846624674
 30
0.0
  0
POINT
  5
62F
100
AcDbEntity
  8
DEFPOINTS
  6
CONTINUOUS
 62
         0
100
AcDbPoint
 10
1638.3098291406
 20
-6.605616091
 30
0.0
  0
LINE
  5
630
100
AcDbEntity
  8
L1_105
  6
CONTINUOUS
 62
         4
100
AcDbLine
 10
1638.3098291406
 20
-6.605616091
 30
0.0
 11
1658.658715567
 21
-0.4488832503
 31
0.0
  0
SOLID
  5
631
100
AcDbEntity
  8
L1_105
  6
CONTINUOUS
 62
         4
100
AcDbTrace
 10
1638.3098291406
 20
-6.605616091
 30
0.0
 11
1640.7768474964
 21
-5.436066848
 31
0.0
 12
1641.0114185936
 22
-6.2113580194
 32
0.0
 13
1638.3098291406
 23
-6.605616091
 33
0.0
  0
LINE
  5
632
100
AcDbEntity
  8
L1_105
  6
CONTINUOUS
 62
         4
100
AcDbLine
 10
1633.7518827727
 20
-7.9846624674
 30
0.0
 11
1628.5832749638
 21
-9.548469782
 31
0.0
  0
SOLID
  5
633
100
AcDbEntity
  8
L1_105
  6
CONTINUOUS
 62
         4
100
AcDbTrace
 10
1633.7518827727
 20
-7.9846624674
 30
0.0
 11
1631.2848644169
 21
-9.1542117103
 31
0.0
 12
1631.0502933197
 22
-8.378920539
 32
0.0
 13
1633.7518827727
 23
-7.9846624674
 33
0.0
  0
LINE
  5
634
100
AcDbEntity
  8
L1_105
  6
CONTINUOUS
 62
         4
100
AcDbLine
 10
1633.7518827727
 20
-7.9846624674
 30
0.0
 11
1638.3098291406
 21
-6.605616091
 31
0.0
  0
TEXT
  5
636
100
AcDbEntity
  8
L1_105
  6
CONTINUOUS
 62
         4
100
AcDbText
 10
1641.6698740953
 20
-4.2254171697
 30
0.0
 40
2.7
  1
崷4.76
 50
16.8336477968
  7
BOX
100
AcDbText
  0
ENDBLK
  5
637
100
AcDbEntity
  8
0
  6
CONTINUOUS
100
AcDbBlockEnd
  0
BLOCK
  5
639
100
AcDbEntity
  8
0
100
AcDbBlockBegin
  2
*D46
 70
        65
 10
0.0
 20
0.0
 30
0.0
  3
*D46
  1

  0
POINT
  5
63B
100
AcDbEntity
  8
DEFPOINTS
  6
CONTINUOUS
 62
         0
100
AcDbPoint
 10
1533.0500323958
 20
-4.2951392792
 30
0.0
  0
POINT
  5
63C
100
AcDbEntity
  8
DEFPOINTS
  6
CONTINUOUS
 62
         0
100
AcDbPoint
 10
1541.4823058991
 20
-4.2951392792
 30
0.0
  0
POINT
  5
63D
100
AcDbEntity
  8
DEFPOINTS
  6
CONTINUOUS
 62
         0
100
AcDbPoint
 10
1541.4823058991
 20
-10.2951392792
 30
0.0
  0
LINE
  5
63E
100
AcDbEntity
  8
L1_105
  6
CONTINUOUS
 62
         4
100
AcDbLine
 10
1540.1323058991
 20
-4.2951392792
 30
0.0
 11
1532.3750323958
 21
-4.2951392792
 31
0.0
  0
LINE
  5
63F
100
AcDbEntity
  8
L1_105
  6
CONTINUOUS
 62
         4
100
AcDbLine
 10
1540.1323058991
 20
-10.2951392792
 30
0.0
 11
1532.3750323958
 21
-10.2951392792
 31
0.0
  0
LINE
  5
640
100
AcDbEntity
  8
L1_105
  6
CONTINUOUS
 62
         4
100
AcDbLine
 10
1533.0500323958
 20
-4.2951392792
 30
0.0
 11
1533.0500323958
 21
1.1048607208
 31
0.0
  0
SOLID
  5
641
100
AcDbEntity
  8
L1_105
  6
CONTINUOUS
 62
         4
100
AcDbTrace
 10
1533.0500323958
 20
-4.2951392792
 30
0.0
 11
1532.6450323958
 21
-1.5951392792
 31
0.0
 12
1533.4550323958
 22
-1.5951392792
 32
0.0
 13
1533.0500323958
 23
-4.2951392792
 33
0.0
  0
LINE
  5
642
100
AcDbEntity
  8
L1_105
  6
CONTINUOUS
 62
         4
100
AcDbLine
 10
1533.0500323958
 20
-10.2951392792
 30
0.0
 11
1533.0500323958
 21
-15.6951392792
 31
0.0
  0
SOLID
  5
643
100
AcDbEntity
  8
L1_105
  6
CONTINUOUS
 62
         4
100
AcDbTrace
 10
1533.0500323958
 20
-10.2951392792
 30
0.0
 11
1533.4550323958
 21
-12.9951392792
 31
0.0
 12
1532.6450323958
 22
-12.9951392792
 32
0.0
 13
1533.0500323958
 23
-10.2951392792
 33
0.0
  0
LINE
  5
644
100
AcDbEntity
  8
L1_105
  6
CONTINUOUS
 62
         4
100
AcDbLine
 10
1533.0500323958
 20
-4.2951392792
 30
0.0
 11
1533.0500323958
 21
-10.2951392792
 31
0.0
  0
TEXT
  5
646
100
AcDbEntity
  8
L1_105
  6
CONTINUOUS
 62
         4
100
AcDbText
 10
1531.0250323958
 20
-14.0451392792
 30
0.0
 40
2.7
  1
M6xP1
 50
90.0
  7
BOX
100
AcDbText
  0
ENDBLK
  5
647
100
AcDbEntity
  8
0
  6
CONTINUOUS
100
AcDbBlockEnd
  0
BLOCK
  5
649
100
AcDbEntity
  8
0
100
AcDbBlockBegin
  2
*D47
 70
        65
 10
0.0
 20
0.0
 30
0.0
  3
*D47
  1

  0
POINT
  5
64B
100
AcDbEntity
  8
DEFPOINTS
  6
CONTINUOUS
 62
         0
100
AcDbPoint
 10
1592.7323058991
 20
-20.4396216051
 30
0.0
  0
POINT
  5
64C
100
AcDbEntity
  8
DEFPOINTS
  6
CONTINUOUS
 62
         0
100
AcDbPoint
 10
1592.7323058991
 20
-13.2951392792
 30
0.0
  0
POINT
  5
64D
100
AcDbEntity
  8
DEFPOINTS
  6
CONTINUOUS
 62
         0
100
AcDbPoint
 10
1587.2323058991
 20
-13.2951392792
 30
0.0
  0
LINE
  5
64E
100
AcDbEntity
  8
L1_105
  6
CONTINUOUS
 62
         4
100
AcDbLine
 10
1592.7323058991
 20
-14.6451392792
 30
0.0
 11
1592.7323058991
 21
-21.1146216051
 31
0.0
  0
LINE
  5
64F
100
AcDbEntity
  8
L1_105
  6
CONTINUOUS
 62
         4
100
AcDbLine
 10
1587.2323058991
 20
-14.6451392792
 30
0.0
 11
1587.2323058991
 21
-21.1146216051
 31
0.0
  0
LINE
  5
650
100
AcDbEntity
  8
L1_105
  6
CONTINUOUS
 62
         4
100
AcDbLine
 10
1592.7323058991
 20
-20.4396216051
 30
0.0
 11
1598.1323058991
 21
-20.4396216051
 31
0.0
  0
SOLID
  5
651
100
AcDbEntity
  8
L1_105
  6
CONTINUOUS
 62
         4
100
AcDbTrace
 10
1592.7323058991
 20
-20.4396216051
 30
0.0
 11
1595.4323058991
 21
-20.0346216051
 31
0.0
 12
1595.4323058991
 22
-20.8446216051
 32
0.0
 13
1592.7323058991
 23
-20.4396216051
 33
0.0
  0
LINE
  5
652
100
AcDbEntity
  8
L1_105
  6
CONTINUOUS
 62
         4
100
AcDbLine
 10
1587.2323058991
 20
-20.4396216051
 30
0.0
 11
1581.8323058991
 21
-20.4396216051
 31
0.0
  0
SOLID
  5
653
100
AcDbEntity
  8
L1_105
  6
CONTINUOUS
 62
         4
100
AcDbTrace
 10
1587.2323058991
 20
-20.4396216051
 30
0.0
 11
1584.5323058991
 21
-20.8446216051
 31
0.0
 12
1584.5323058991
 22
-20.0346216051
 32
0.0
 13
1587.2323058991
 23
-20.4396216051
 33
0.0
  0
LINE
  5
654
100
AcDbEntity
  8
L1_105
  6
CONTINUOUS
 62
         4
100
AcDbLine
 10
1592.7323058991
 20
-20.4396216051
 30
0.0
 11
1587.2323058991
 21
-20.4396216051
 31
0.0
  0
TEXT
  5
656
100
AcDbEntity
  8
L1_105
  6
CONTINUOUS
 62
         4
100
AcDbText
 10
1585.9323058991
 20
-18.4146216051
 30
0.0
 40
2.7
  1
5.5
  7
BOX
100
AcDbText
  0
ENDBLK
  5
657
100
AcDbEntity
  8
0
  6
CONTINUOUS
100
AcDbBlockEnd
  0
BLOCK
  5
659
100
AcDbEntity
  8
0
100
AcDbBlockBegin
  2
*D48
 70
        65
 10
0.0
 20
0.0
 30
0.0
  3
*D48
  1

  0
POINT
  5
65B
100
AcDbEntity
  8
DEFPOINTS
  6
CONTINUOUS
 62
         0
100
AcDbPoint
 10
1585.3012659414
 20
58.8319767067
 30
0.0
  0
POINT
  5
65C
100
AcDbEntity
  8
DEFPOINTS
  6
CONTINUOUS
 62
         0
100
AcDbPoint
 10
1585.3012659414
 20
64.5872179209
 30
0.0
  0
POINT
  5
65D
100
AcDbEntity
  8
DEFPOINTS
  6
CONTINUOUS
 62
         0
100
AcDbPoint
 10
1590.3012659414
 20
64.9872179209
 30
0.0
  0
LINE
  5
65E
100
AcDbEntity
  8
L1_105
  6
CONTINUOUS
 62
         4
100
AcDbLine
 10
1585.3012659414
 20
63.2372179209
 30
0.0
 11
1585.3012659414
 21
58.1569767067
 31
0.0
  0
LINE
  5
65F
100
AcDbEntity
  8
L1_105
  6
CONTINUOUS
 62
         4
100
AcDbLine
 10
1590.3012659414
 20
63.6372179209
 30
0.0
 11
1590.3012659414
 21
58.1569767067
 31
0.0
  0
LINE
  5
660
100
AcDbEntity
  8
L1_105
  6
CONTINUOUS
 62
         4
100
AcDbLine
 10
1585.3012659414
 20
58.8319767067
 30
0.0
 11
1579.9012659414
 21
58.8319767067
 31
0.0
  0
SOLID
  5
661
100
AcDbEntity
  8
L1_105
  6
CONTINUOUS
 62
         4
100
AcDbTrace
 10
1585.3012659414
 20
58.8319767067
 30
0.0
 11
1582.6012659414
 21
58.4269767067
 31
0.0
 12
1582.6012659414
 22
59.2369767067
 32
0.0
 13
1585.3012659414
 23
58.8319767067
 33
0.0
  0
LINE
  5
662
100
AcDbEntity
  8
L1_105
  6
CONTINUOUS
 62
         4
100
AcDbLine
 10
1590.3012659414
 20
58.8319767067
 30
0.0
 11
1595.7012659414
 21
58.8319767067
 31
0.0
  0
SOLID
  5
663
100
AcDbEntity
  8
L1_105
  6
CONTINUOUS
 62
         4
100
AcDbTrace
 10
1590.3012659414
 20
58.8319767067
 30
0.0
 11
1593.0012659414
 21
59.2369767067
 31
0.0
 12
1593.0012659414
 22
58.4269767067
 32
0.0
 13
1590.3012659414
 23
58.8319767067
 33
0.0
  0
LINE
  5
664
100
AcDbEntity
  8
L1_105
  6
CONTINUOUS
 62
         4
100
AcDbLine
 10
1585.3012659414
 20
58.8319767067
 30
0.0
 11
1590.3012659414
 21
58.8319767067
 31
0.0
  0
TEXT
  5
666
100
AcDbEntity
  8
L1_105
  6
CONTINUOUS
 62
         4
100
AcDbText
 10
1586.5474069887
 20
60.8569767067
 30
0.0
 40
2.7
  1
5
  7
BOX
100
AcDbText
  0
ENDBLK
  5
667
100
AcDbEntity
  8
0
  6
CONTINUOUS
100
AcDbBlockEnd
  0
ENDSEC
  0
SECTION
  2
ENTITIES
  0
LINE
  5
24
100
AcDbEntity
  8
_Y__________
  6
DASHED
 62
         2
100
AcDbLine
 10
1304.1314601609
 20
-13.7433347407
 30
0.0
 11
1303.185198805
 21
-13.7433347407
 31
0.0
  0
LINE
  5
25
100
AcDbEntity
  8
_Y__________
  6
DASHED
 62
         2
100
AcDbLine
 10
1304.1314601609
 20
-12.1433347407
 30
0.0
 11
1303.185198805
 21
-12.1433347407
 31
0.0
  0
LINE
  5
26
100
AcDbEntity
  8
_Y__________
  6
DASHED
 62
         2
100
AcDbLine
 10
1301.1933403763
 20
-14.8933347407
 30
0.0
 11
1303.185198805
 21
-13.7433347407
 31
0.0
  0
LINE
  5
27
100
AcDbEntity
  8
_Y__________
  6
DASHED
 62
         2
100
AcDbLine
 10
1301.1933403763
 20
-10.9933347407
 30
0.0
 11
1303.185198805
 21
-12.1433347407
 31
0.0
  0
LINE
  5
28
100
AcDbEntity
  8
_Y__________
  6
DASHED
 62
         2
100
AcDbLine
 10
1303.185198805
 20
-13.7433347407
 30
0.0
 11
1303.185198805
 21
-12.1433347407
 31
0.0
  0
LINE
  5
29
100
AcDbEntity
  8
_Y__________
  6
DASHED
 62
         2
100
AcDbLine
 10
1304.1314601609
 20
-13.7433347407
 30
0.0
 11
1304.5933403763
 21
-12.9433347407
 31
0.0
  0
LINE
  5
2A
100
AcDbEntity
  8
_Y__________
  6
DASHED
 62
         2
100
AcDbLine
 10
1304.1314601609
 20
-12.1433347407
 30
0.0
 11
1304.5933403763
 21
-12.9433347407
 31
0.0
  0
LINE
  5
2B
100
AcDbEntity
  8
_Y__________
  6
DASHED
 62
         2
100
AcDbLine
 10
1304.1314601609
 20
-13.7433347407
 30
0.0
 11
1304.1314601609
 21
-12.1433347407
 31
0.0
  0
LINE
  5
2C
100
AcDbEntity
  8
_Y__________
  6
CONTINUOUS
 62
         7
100
AcDbLine
 10
1308.4933403763
 20
-0.2433347407
 30
0.0
 11
1302.6933403763
 21
-0.2433347407
 31
0.0
  0
ARC
  5
2D
100
AcDbEntity
  8
_Y__________
  6
CONTINUOUS
 62
         7
100
AcDbCircle
 10
1333.912796199
 20
-2.2611372181
 30
0.0
 40
1.6
100
AcDbArc
 50
265.0
 51
315.0
  0
LINE
  5
2E
100
AcDbEntity
  8
_Y__________
  6
CONTINUOUS
 62
         7
100
AcDbLine
 10
1338.1933403763
 20
-0.2433347407
 30
0.0
 11
1335.0441670489
 21
-3.392508068
 31
0.0
  0
LINE
  5
2F
100
AcDbEntity
  8
_Y__________
  6
CONTINUOUS
 62
         7
100
AcDbLine
 10
1308.4933403763
 20
-1.6433347407
 30
0.0
 11
1333.7733470106
 21
-3.855048735
 31
0.0
  0
LINE
  5
30
100
AcDbEntity
  8
_Y__________
  6
CONTINUOUS
 62
         7
100
AcDbLine
 10
1308.4933403763
 20
-0.2433347407
 30
0.0
 11
1308.4933403763
 21
-1.6433347407
 31
0.0
  0
LINE
  5
31
100
AcDbEntity
  8
_Y__________
  6
CONTINUOUS
 62
         7
100
AcDbLine
 10
1302.6933403763
 20
-6.2612691918
 30
0.0
 11
1302.6933403763
 21
-0.2433347407
 31
0.0
  0
LINE
  5
32
100
AcDbEntity
  8
_Y__________
  6
CONTINUOUS
 62
         7
100
AcDbLine
 10
1301.1933403763
 20
-1.7433347407
 30
0.0
 11
1302.6933403763
 21
-0.2433347407
 31
0.0
  0
LINE
  5
33
100
AcDbEntity
  8
_Y__________
  6
CONTINUOUS
 62
         4
100
AcDbLine
 10
1301.1933403763
 20
-6.2612691918
 30
0.0
 11
1313.8933403763
 21
-19.6254002896
 31
0.0
  0
LINE
  5
34
100
AcDbEntity
  8
_Y__________
  6
CONTINUOUS
 62
         4
100
AcDbLine
 10
1313.8933403763
 20
-6.2612691918
 30
0.0
 11
1301.1933403763
 21
-19.6254002896
 31
0.0
  0
LINE
  5
35
100
AcDbEntity
  8
_Y__________
  6
CONTINUOUS
 62
         4
100
AcDbLine
 10
1323.6533403763
 20
-6.2612691918
 30
0.0
 11
1336.7333403763
 21
-19.6254002896
 31
0.0
  0
LINE
  5
36
100
AcDbEntity
  8
_Y__________
  6
CONTINUOUS
 62
         4
100
AcDbLine
 10
1336.7333403763
 20
-6.2612691918
 30
0.0
 11
1323.6533403763
 21
-19.6254002896
 31
0.0
  0
LINE
  5
37
100
AcDbEntity
  8
_Y__________
  6
CONTINUOUS
 62
         7
100
AcDbLine
 10
1323.6533403763
 20
-19.6254002896
 30
0.0
 11
1336.7333403763
 21
-19.6254002896
 31
0.0
  0
LINE
  5
38
100
AcDbEntity
  8
_Y__________
  6
CONTINUOUS
 62
         7
100
AcDbLine
 10
1336.7333403763
 20
-6.2612691918
 30
0.0
 11
1323.6533403763
 21
-6.2612691918
 31
0.0
  0
ARC
  5
39
100
AcDbEntity
  8
_Y__________
  6
CONTINUOUS
 62
         7
100
AcDbCircle
 10
1325.9333403763
 20
-12.9433347407
 30
0.0
 40
12.7
100
AcDbArc
 50
328.2545162986
 51
391.7454837014
  0
ARC
  5
3A
100
AcDbEntity
  8
_Y__________
  6
CONTINUOUS
 62
         7
100
AcDbCircle
 10
1334.4533403763
 20
-12.9433347407
 30
0.0
 40
12.7
100
AcDbArc
 50
148.2545162986
 51
211.7454837014
  0
ARC
  5
3B
100
AcDbEntity
  8
_Y__________
  6
CONTINUOUS
 62
         7
100
AcDbCircle
 10
1303.0933403763
 20
-12.9433347407
 30
0.0
 40
12.7
100
AcDbArc
 50
328.2545162986
 51
391.7454837014
  0
LINE
  5
3C
100
AcDbEntity
  8
_Y__________
  6
CONTINUOUS
 62
         7
100
AcDbLine
 10
1313.8933403763
 20
-19.6254002896
 30
0.0
 11
1313.8933403763
 21
-6.2612691918
 31
0.0
  0
LINE
  5
3D
100
AcDbEntity
  8
_Y__________
  6
CONTINUOUS
 62
         7
100
AcDbLine
 10
1323.6533403763
 20
-19.6254002896
 30
0.0
 11
1323.6533403763
 21
-6.2612691918
 31
0.0
  0
LINE
  5
3E
100
AcDbEntity
  8
_Y__________
  6
CONTINUOUS
 62
         7
100
AcDbLine
 10
1336.7333403763
 20
-19.6254002896
 30
0.0
 11
1336.7333403763
 21
-6.2612691918
 31
0.0
  0
LINE
  5
3F
100
AcDbEntity
  8
_Y__________
  6
CONTINUOUS
 62
         7
100
AcDbLine
 10
1313.8933403763
 20
-19.6254002896
 30
0.0
 11
1301.1933403763
 21
-19.6254002896
 31
0.0
  0
LINE
  5
40
100
AcDbEntity
  8
_Y__________
  6
CONTINUOUS
 62
         7
100
AcDbLine
 10
1313.8933403763
 20
-6.2612691918
 30
0.0
 11
1301.1933403763
 21
-6.2612691918
 31
0.0
  0
LINE
  5
41
100
AcDbEntity
  8
_Y__________
  6
CENTER
 62
         1
100
AcDbLine
 10
1330.1933403763
 20
-17.6024439088
 30
0.0
 11
1330.1933403763
 21
1.2063186254
 31
0.0
  0
LINE
  5
42
100
AcDbEntity
  8
_Y__________
  6
CENTER
 62
         1
100
AcDbLine
 10
1359.1033403763
 20
-12.9433347407
 30
0.0
 11
1293.4943095065
 21
-12.9433347407
 31
0.0
  0
LINE
  5
43
100
AcDbEntity
  8
_Y__________
  6
CONTINUOUS
 62
         7
100
AcDbLine
 10
1301.1933403763
 20
-24.1433347407
 30
0.0
 11
1301.1933403763
 21
-1.7433347407
 31
0.0
  0
LINE
  5
44
100
AcDbEntity
  8
_Y__________
  6
CONTINUOUS
 62
         7
100
AcDbLine
 10
1357.6033403763
 20
-0.2433347407
 30
0.0
 11
1338.1933403763
 21
-0.2433347407
 31
0.0
  0
LINE
  5
45
100
AcDbEntity
  8
_Y__________
  6
CONTINUOUS
 62
         7
100
AcDbLine
 10
1357.6033403763
 20
-25.6433347407
 30
0.0
 11
1302.6933403763
 21
-25.6433347407
 31
0.0
  0
LINE
  5
46
100
AcDbEntity
  8
_Y__________
  6
CONTINUOUS
 62
         7
100
AcDbLine
 10
1359.1033403763
 20
0.7566652593
 30
0.0
 11
1359.1033403763
 21
-26.6433347407
 31
0.0
  0
LINE
  5
47
100
AcDbEntity
  8
_Y__________
  6
CONTINUOUS
 62
         7
100
AcDbLine
 10
1358.7033403763
 20
-0.4433347407
 30
0.0
 11
1358.4024115368
 21
-0.4433347407
 31
0.0
  0
LINE
  5
48
100
AcDbEntity
  8
_Y__________
  6
CONTINUOUS
 62
         7
100
AcDbLine
 10
1357.6033403763
 20
-0.2433347407
 30
0.0
 11
1358.2988839188
 21
-0.4297050712
 31
0.0
  0
ARC
  5
49
100
AcDbEntity
  8
_Y__________
  6
CONTINUOUS
 62
         7
100
AcDbCircle
 10
1358.7033403763
 20
-0.0433347407
 30
0.0
 40
0.4
100
AcDbArc
 50
270.0
 51
360.0
  0
ARC
  5
4A
100
AcDbEntity
  8
_Y__________
  6
CONTINUOUS
 62
         7
100
AcDbCircle
 10
1358.4024115368
 20
-0.0433347407
 30
0.0
 40
0.4
100
AcDbArc
 50
255.0
 51
270.0
  0
ARC
  5
4B
100
AcDbEntity
  8
_Y__________
  6
CONTINUOUS
 62
         7
100
AcDbCircle
 10
1358.4024115368
 20
-25.8433347407
 30
0.0
 40
0.4
100
AcDbArc
 50
90.0
 51
105.0
  0
ARC
  5
4C
100
AcDbEntity
  8
_Y__________
  6
CONTINUOUS
 62
         7
100
AcDbCircle
 10
1358.7033403763
 20
-25.8433347407
 30
0.0
 40
0.4
100
AcDbArc
 50
0.0
 51
90.0
  0
LINE
  5
4D
100
AcDbEntity
  8
_Y__________
  6
CONTINUOUS
 62
         7
100
AcDbLine
 10
1357.6033403763
 20
-25.6433347407
 30
0.0
 11
1358.2988839188
 21
-25.4569644102
 31
0.0
  0
LINE
  5
4E
100
AcDbEntity
  8
_Y__________
  6
CONTINUOUS
 62
         7
100
AcDbLine
 10
1358.7033403763
 20
-25.4433347407
 30
0.0
 11
1358.4024115368
 21
-25.4433347407
 31
0.0
  0
LINE
  5
4F
100
AcDbEntity
  8
_Y__________
  6
CONTINUOUS
 62
         4
100
AcDbLine
 10
1357.6033403763
 20
-0.2433347407
 30
0.0
 11
1357.6033403763
 21
-25.6433347407
 31
0.0
  0
LINE
  5
50
100
AcDbEntity
  8
_Y__________
  6
CONTINUOUS
 62
         4
100
AcDbLine
 10
1358.7033403763
 20
-25.4433347407
 30
0.0
 11
1358.7033403763
 21
-0.4433347407
 31
0.0
  0
LINE
  5
51
100
AcDbEntity
  8
_Y__________
  6
CONTINUOUS
 62
         4
100
AcDbLine
 10
1358.3497505378
 20
-25.4433347407
 30
0.0
 11
1358.3497505378
 21
-0.4398531125
 31
0.0
  0
LINE
  5
52
100
AcDbEntity
  8
_Y__________
  6
CONTINUOUS
 62
         7
100
AcDbLine
 10
1301.1933403763
 20
-24.1433347407
 30
0.0
 11
1302.6933403763
 21
-25.6433347407
 31
0.0
  0
LINE
  5
53
100
AcDbEntity
  8
_Y__________
  6
CONTINUOUS
 62
         7
100
AcDbLine
 10
1302.6933403763
 20
-25.6433347407
 30
0.0
 11
1302.6933403763
 21
-19.6254002896
 31
0.0
  0
CIRCLE
  5
54
100
AcDbEntity
  8
_Y__________
  6
CONTINUOUS
 62
         7
100
AcDbCircle
 10
1214.9233403763
 20
-12.9433347407
 30
0.0
 40
0.8
  0
CIRCLE
  5
55
100
AcDbEntity
  8
_Y__________
  6
CONTINUOUS
 62
         7
100
AcDbCircle
 10
1214.9233403763
 20
-12.9433347407
 30
0.0
 40
1.95
  0
LINE
  5
56
100
AcDbEntity
  8
_Y__________
  6
DASHED
 62
         2
100
AcDbLine
 10
1223.8603859128
 20
-3.9200749595
 30
0.0
 11
1205.9862948397
 21
-3.9200749595
 31
0.0
  0
LINE
  5
57
100
AcDbEntity
  8
_Y__________
  6
DASHED
 62
         2
100
AcDbLine
 10
1220.7198910747
 20
-1.6433347407
 30
0.0
 11
1209.1267896778
 21
-1.6433347407
 31
0.0
  0
LINE
  5
58
100
AcDbEntity
  8
_Y__________
  6
CONTINUOUS
 62
         7
100
AcDbLine
 10
1225.7233403763
 20
-19.6254002896
 30
0.0
 11
1225.7233403763
 21
-6.2612691918
 31
0.0
  0
LINE
  5
59
100
AcDbEntity
  8
_Y__________
  6
CENTER
 62
         1
100
AcDbLine
 10
1238.0237643223
 20
-12.9433347407
 30
0.0
 11
1193.4923837637
 21
-12.9433347407
 31
0.0
  0
LINE
  5
5A
100
AcDbEntity
  8
_Y__________
  6
CENTER
 62
         1
100
AcDbLine
 10
1214.9233403763
 20
-33.1230424648
 30
0.0
 11
1214.9233403763
 21
4.7501496632
 31
0.0
  0
ARC
  5
5B
100
AcDbEntity
  8
_Y__________
  6
CONTINUOUS
 62
         7
100
AcDbCircle
 10
1214.9233403763
 20
-12.9433347407
 30
0.0
 40
11.2
100
AcDbArc
 50
15.3588855808
 51
344.6411144192
  0
CIRCLE
  5
5C
100
AcDbEntity
  8
_Y__________
  6
CONTINUOUS
 62
         7
100
AcDbCircle
 10
1214.9233403763
 20
-12.9433347407
 30
0.0
 40
12.7
  0
LINE
  5
5D
100
AcDbEntity
  8
_Y__________
  6
DASHED
 62
         2
100
AcDbLine
 10
1304.1314601609
 20
149.3846417294
 30
0.0
 11
1303.185198805
 21
149.3846417294
 31
0.0
  0
LINE
  5
5E
100
AcDbEntity
  8
_Y__________
  6
DASHED
 62
         2
100
AcDbLine
 10
1304.1314601609
 20
150.9846417294
 30
0.0
 11
1303.185198805
 21
150.9846417294
 31
0.0
  0
LINE
  5
5F
100
AcDbEntity
  8
_Y__________
  6
DASHED
 62
         2
100
AcDbLine
 10
1301.1933403763
 20
148.2346417294
 30
0.0
 11
1303.185198805
 21
149.3846417294
 31
0.0
  0
LINE
  5
60
100
AcDbEntity
  8
_Y__________
  6
DASHED
 62
         2
100
AcDbLine
 10
1301.1933403763
 20
152.1346417294
 30
0.0
 11
1303.185198805
 21
150.9846417294
 31
0.0
  0
LINE
  5
61
100
AcDbEntity
  8
_Y__________
  6
DASHED
 62
         2
100
AcDbLine
 10
1303.185198805
 20
149.3846417294
 30
0.0
 11
1303.185198805
 21
150.9846417294
 31
0.0
  0
LINE
  5
62
100
AcDbEntity
  8
_Y__________
  6
DASHED
 62
         2
100
AcDbLine
 10
1304.1314601609
 20
149.3846417294
 30
0.0
 11
1304.5933403763
 21
150.1846417294
 31
0.0
  0
LINE
  5
63
100
AcDbEntity
  8
_Y__________
  6
DASHED
 62
         2
100
AcDbLine
 10
1304.1314601609
 20
150.9846417294
 30
0.0
 11
1304.5933403763
 21
150.1846417294
 31
0.0
  0
LINE
  5
64
100
AcDbEntity
  8
_Y__________
  6
DASHED
 62
         2
100
AcDbLine
 10
1304.1314601609
 20
149.3846417294
 30
0.0
 11
1304.1314601609
 21
150.9846417294
 31
0.0
  0
LINE
  5
65
100
AcDbEntity
  8
_Y__________
  6
CONTINUOUS
 62
         7
100
AcDbLine
 10
1301.1933403763
 20
161.3846417294
 30
0.0
 11
1302.6933403763
 21
162.8846417294
 31
0.0
  0
LINE
  5
66
100
AcDbEntity
  8
_Y__________
  6
CONTINUOUS
 62
         4
100
AcDbLine
 10
1334.5166001574
 20
159.1216872659
 30
0.0
 11
1308.4933403763
 21
144.3880910309
 31
0.0
  0
LINE
  5
67
100
AcDbEntity
  8
_Y__________
  6
CONTINUOUS
 62
         4
100
AcDbLine
 10
1308.4933403763
 20
155.9811924279
 30
0.0
 11
1334.5166001574
 21
141.2475961929
 31
0.0
  0
ARC
  5
68
100
AcDbEntity
  8
_Y__________
  6
CONTINUOUS
 62
         7
100
AcDbCircle
 10
1325.4933403763
 20
150.1846417294
 30
0.0
 40
12.7
100
AcDbArc
 50
315.2750328752
 51
404.7249671248
  0
LINE
  5
69
100
AcDbEntity
  8
_Y__________
  6
CONTINUOUS
 62
         7
100
AcDbLine
 10
1308.4933403763
 20
144.3880910309
 30
0.0
 11
1334.5166001574
 21
141.2475961929
 31
0.0
  0
LINE
  5
6A
100
AcDbEntity
  8
_Y__________
  6
CONTINUOUS
 62
         7
100
AcDbLine
 10
1334.5166001574
 20
159.1216872659
 30
0.0
 11
1308.4933403763
 21
155.9811924279
 31
0.0
  0
LINE
  5
6B
100
AcDbEntity
  8
_Y__________
  6
CONTINUOUS
 62
         4
100
AcDbLine
 10
1334.5166001574
 20
141.2475961929
 30
0.0
 11
1334.5166001574
 21
159.1216872659
 31
0.0
  0
LINE
  5
6C
100
AcDbEntity
  8
_Y__________
  6
CONTINUOUS
 62
         7
100
AcDbLine
 10
1308.4933403763
 20
144.3880910309
 30
0.0
 11
1308.4933403763
 21
155.9811924279
 31
0.0
  0
LINE
  5
6D
100
AcDbEntity
  8
_Y__________
  6
CONTINUOUS
 62
         7
100
AcDbLine
 10
1321.7533403763
 20
137.4846417294
 30
0.0
 11
1315.7933403763
 21
137.4846417294
 31
0.0
  0
LINE
  5
6E
100
AcDbEntity
  8
_Y__________
  6
CONTINUOUS
 62
         7
100
AcDbLine
 10
1321.7533403763
 20
137.4846417294
 30
0.0
 11
1323.6533403763
 21
139.3846417294
 31
0.0
  0
LINE
  5
6F
100
AcDbEntity
  8
_Y__________
  6
CONTINUOUS
 62
         7
100
AcDbLine
 10
1336.7333403763
 20
139.3846417294
 30
0.0
 11
1338.6333403763
 21
137.4846417294
 31
0.0
  0
LINE
  5
70
100
AcDbEntity
  8
_Y__________
  6
CONTINUOUS
 62
         7
100
AcDbLine
 10
1336.7333403763
 20
139.3846417294
 30
0.0
 11
1323.6533403763
 21
139.3846417294
 31
0.0
  0
LINE
  5
71
100
AcDbEntity
  8
_Y__________
  6
CENTER
 62
         1
100
AcDbLine
 10
1330.1933403763
 20
145.5255325612
 30
0.0
 11
1330.1933403763
 21
164.3342950955
 31
0.0
  0
LINE
  5
72
100
AcDbEntity
  8
_Y__________
  6
CONTINUOUS
 62
         7
100
AcDbLine
 10
1313.8933403763
 20
139.3846417294
 30
0.0
 11
1315.7933403763
 21
137.4846417294
 31
0.0
  0
LINE
  5
73
100
AcDbEntity
  8
_Y__________
  6
CONTINUOUS
 62
         7
100
AcDbLine
 10
1313.8933403763
 20
139.3846417294
 30
0.0
 11
1301.1933403763
 21
139.3846417294
 31
0.0
  0
LINE
  5
74
100
AcDbEntity
  8
_Y__________
  6
CENTER
 62
         1
100
AcDbLine
 10
1359.1033403763
 20
150.1846417294
 30
0.0
 11
1293.4943095065
 21
150.1846417294
 31
0.0
  0
LINE
  5
75
100
AcDbEntity
  8
_Y__________
  6
CONTINUOUS
 62
         7
100
AcDbLine
 10
1301.1933403763
 20
139.3846417294
 30
0.0
 11
1301.1933403763
 21
160.9846417294
 31
0.0
  0
LINE
  5
76
100
AcDbEntity
  8
_Y__________
  6
CONTINUOUS
 62
         7
100
AcDbLine
 10
1357.6033403763
 20
162.8846417294
 30
0.0
 11
1302.6933403763
 21
162.8846417294
 31
0.0
  0
LINE
  5
77
100
AcDbEntity
  8
_Y__________
  6
CONTINUOUS
 62
         7
100
AcDbLine
 10
1357.6033403763
 20
137.4846417294
 30
0.0
 11
1338.6333403763
 21
137.4846417294
 31
0.0
  0
LINE
  5
78
100
AcDbEntity
  8
_Y__________
  6
CONTINUOUS
 62
         7
100
AcDbLine
 10
1358.7033403763
 20
162.6846417294
 30
0.0
 11
1358.4024115368
 21
162.6846417294
 31
0.0
  0
LINE
  5
79
100
AcDbEntity
  8
_Y__________
  6
CONTINUOUS
 62
         7
100
AcDbLine
 10
1357.6033403763
 20
162.8846417294
 30
0.0
 11
1358.2988839188
 21
162.6982713989
 31
0.0
  0
ARC
  5
7A
100
AcDbEntity
  8
_Y__________
  6
CONTINUOUS
 62
         7
100
AcDbCircle
 10
1358.7033403763
 20
163.0846417294
 30
0.0
 40
0.4
100
AcDbArc
 50
270.0
 51
360.0
  0
ARC
  5
7B
100
AcDbEntity
  8
_Y__________
  6
CONTINUOUS
 62
         7
100
AcDbCircle
 10
1358.4024115368
 20
163.0846417294
 30
0.0
 40
0.4
100
AcDbArc
 50
255.0
 51
270.0
  0
ARC
  5
7C
100
AcDbEntity
  8
_Y__________
  6
CONTINUOUS
 62
         7
100
AcDbCircle
 10
1358.4024115368
 20
137.2846417294
 30
0.0
 40
0.4
100
AcDbArc
 50
90.0
 51
105.0
  0
ARC
  5
7D
100
AcDbEntity
  8
_Y__________
  6
CONTINUOUS
 62
         7
100
AcDbCircle
 10
1358.7033403763
 20
137.2846417294
 30
0.0
 40
0.4
100
AcDbArc
 50
0.0
 51
90.0
  0
LINE
  5
7E
100
AcDbEntity
  8
_Y__________
  6
CONTINUOUS
 62
         7
100
AcDbLine
 10
1357.6033403763
 20
137.4846417294
 30
0.0
 11
1358.2988839188
 21
137.6710120599
 31
0.0
  0
LINE
  5
7F
100
AcDbEntity
  8
_Y__________
  6
CONTINUOUS
 62
         7
100
AcDbLine
 10
1358.7033403763
 20
137.6846417294
 30
0.0
 11
1358.4024115368
 21
137.6846417294
 31
0.0
  0
LINE
  5
80
100
AcDbEntity
  8
_Y__________
  6
CONTINUOUS
 62
         4
100
AcDbLine
 10
1357.6033403763
 20
162.8846417294
 30
0.0
 11
1357.6033403763
 21
137.4846417294
 31
0.0
  0
LINE
  5
81
100
AcDbEntity
  8
_Y__________
  6
CONTINUOUS
 62
         4
100
AcDbLine
 10
1358.7033403763
 20
137.6846417294
 30
0.0
 11
1358.7033403763
 21
162.6846417294
 31
0.0
  0
LINE
  5
82
100
AcDbEntity
  8
_Y__________
  6
CONTINUOUS
 62
         4
100
AcDbLine
 10
1358.3497505378
 20
137.6846417294
 30
0.0
 11
1358.3497505378
 21
162.6881233576
 31
0.0
  0
LINE
  5
83
100
AcDbEntity
  8
_Y__________
  6
CONTINUOUS
 62
         7
100
AcDbLine
 10
1302.6933403763
 20
139.3846417294
 30
0.0
 11
1302.6933403763
 21
162.8846417294
 31
0.0
  0
CIRCLE
  5
84
100
AcDbEntity
  8
_Y__________
  6
CONTINUOUS
 62
         7
100
AcDbCircle
 10
1214.9233403763
 20
150.1846417294
 30
0.0
 40
0.8
  0
CIRCLE
  5
85
100
AcDbEntity
  8
_Y__________
  6
CONTINUOUS
 62
         7
100
AcDbCircle
 10
1214.9233403763
 20
150.1846417294
 30
0.0
 40
1.95
  0
LINE
  5
86
100
AcDbEntity
  8
_Y__________
  6
DASHED
 62
         2
100
AcDbLine
 10
1223.9466001574
 20
159.1216872659
 30
0.0
 11
1223.9466001574
 21
141.2475961929
 31
0.0
  0
LINE
  5
87
100
AcDbEntity
  8
_Y__________
  6
DASHED
 62
         2
100
AcDbLine
 10
1226.2233403763
 20
155.9811924279
 30
0.0
 11
1226.2233403763
 21
144.3880910309
 31
0.0
  0
LINE
  5
88
100
AcDbEntity
  8
_Y__________
  6
CONTINUOUS
 62
         7
100
AcDbLine
 10
1208.2412748273
 20
139.3846417294
 30
0.0
 11
1221.6054059252
 21
139.3846417294
 31
0.0
  0
LINE
  5
89
100
AcDbEntity
  8
_Y__________
  6
CENTER
 62
         1
100
AcDbLine
 10
1238.0237643223
 20
150.1846417294
 30
0.0
 11
1193.4923837637
 21
150.1846417294
 31
0.0
  0
LINE
  5
8A
100
AcDbEntity
  8
_Y__________
  6
CENTER
 62
         1
100
AcDbLine
 10
1214.9233403763
 20
130.0049340053
 30
0.0
 11
1214.9233403763
 21
167.8781261332
 31
0.0
  0
ARC
  5
8B
100
AcDbEntity
  8
_Y__________
  6
CONTINUOUS
 62
         7
100
AcDbCircle
 10
1214.9233403763
 20
150.1846417294
 30
0.0
 40
11.2
100
AcDbArc
 50
285.3588855808
 51
614.6411144192
  0
CIRCLE
  5
8C
100
AcDbEntity
  8
_Y__________
  6
CONTINUOUS
 62
         7
100
AcDbCircle
 10
1214.9233403763
 20
150.1846417294
 30
0.0
 40
12.7
  0
LINE
  5
8D
100
AcDbEntity
  8
_Y__________
  6
CONTINUOUS
 62
         7
100
AcDbLine
 10
1359.1033403763
 20
163.8846417294
 30
0.0
 11
1359.1033403763
 21
136.4846417294
 31
0.0
  0
LINE
  5
8E
100
AcDbEntity
  8
L1_105
  6
DASHED
 62
         2
100
AcDbLine
 10
1576.1143616913
 20
162.80862256
 30
0.0
 11
1577.4053262881
 21
165.0446388325
 31
0.0
  0
LINE
  5
8F
100
AcDbEntity
  8
L1_105
  6
DASHED
 62
         2
100
AcDbLine
 10
1567.800517815
 20
167.60862256
 30
0.0
 11
1569.0914824118
 21
169.8446388325
 31
0.0
  0
LINE
  5
90
100
AcDbEntity
  8
L1_105
  6
DASHED
 62
         2
100
AcDbLine
 10
1567.800517815
 20
132.7606608987
 30
0.0
 11
1569.0914824118
 21
130.5246446263
 31
0.0
  0
LINE
  5
91
100
AcDbEntity
  8
L1_105
  6
DASHED
 62
         2
100
AcDbLine
 10
1576.1143616913
 20
137.5606608987
 30
0.0
 11
1577.4053262881
 21
135.3246446263
 31
0.0
  0
LINE
  5
92
100
AcDbEntity
  8
L1_105
  6
DASHED
 62
         2
100
AcDbLine
 10
1545.9351416225
 20
145.3846417294
 30
0.0
 11
1543.3532124288
 21
145.3846417294
 31
0.0
  0
LINE
  5
93
100
AcDbEntity
  8
L1_105
  6
DASHED
 62
         2
100
AcDbLine
 10
1545.9351416225
 20
154.9846417294
 30
0.0
 11
1543.3532124288
 21
154.9846417294
 31
0.0
  0
LINE
  5
94
100
AcDbEntity
  8
L1_105
  6
CONTINUOUS
 62
         7
100
AcDbLine
 10
1395.7083403763
 20
3.0566652593
 30
0.0
 11
1395.7083403763
 21
7.5566652593
 31
0.0
  0
LINE
  5
95
100
AcDbEntity
  8
L1_105
  6
CONTINUOUS
 62
         7
100
AcDbLine
 10
1420.3082741959
 20
4.5566652593
 30
0.0
 11
1420.3082741959
 21
7.5566652593
 31
0.0
  0
ARC
  5
96
100
AcDbEntity
  8
L1_105
  6
CONTINUOUS
 62
         7
100
AcDbCircle
 10
1400.5083403763
 20
150.1846417294
 30
0.0
 40
4.8
100
AcDbArc
 50
90.0
 51
270.0
  0
ARC
  5
97
100
AcDbEntity
  8
L1_105
  6
CONTINUOUS
 62
         7
100
AcDbCircle
 10
1415.5082741959
 20
150.1846417294
 30
0.0
 40
4.8
100
AcDbArc
 50
270.0
 51
450.0
  0
LINE
  5
98
100
AcDbEntity
  8
L1_105
  6
CONTINUOUS
 62
         7
100
AcDbLine
 10
1415.5082741959
 20
145.3846417294
 30
0.0
 11
1400.5083403763
 21
145.3846417294
 31
0.0
  0
LINE
  5
99
100
AcDbEntity
  8
L1_105
  6
CONTINUOUS
 62
         7
100
AcDbLine
 10
1415.5082741959
 20
154.9846417294
 30
0.0
 11
1400.5083403763
 21
154.9846417294
 31
0.0
  0
LINE
  5
9A
100
AcDbEntity
  8
L1_105
  6
CONTINUOUS
 62
         4
100
AcDbLine
 10
1419.1033403763
 20
-24.6572882157
 30
0.0
 11
1419.1033403763
 21
3.0566652593
 31
0.0
  0
POLYLINE
  5
9C
100
AcDbEntity
  8
L1_105
  6
CONTINUOUS
 62
         7
100
AcDb2dPolyline
 66
         1
 10
0.0
 20
0.0
 30
0.0
 70
         2
  0
VERTEX
  5
9E
100
AcDbEntity
  8
L1_105
  6
CONTINUOUS
 62
         7
100
AcDbVertex
100
AcDb2dVertex
 10
1415.7532741959
 20
-28.555793389
 30
0.0
 70
         1
  0
VERTEX
  5
A0
100
AcDbEntity
  8
L1_105
  6
CONTINUOUS
 62
         7
100
AcDbVertex
100
AcDb2dVertex
 10
1416.7818757807
 20
-28.5142144948
 30
0.0
 70
         1
  0
VERTEX
  5
A2
100
AcDbEntity
  8
L1_105
  6
CONTINUOUS
 62
         7
100
AcDbVertex
100
AcDb2dVertex
 10
1417.2334173717
 20
-28.46854881
 30
0.0
 70
         1
  0
VERTEX
  5
A4
100
AcDbEntity
  8
L1_105
  6
CONTINUOUS
 62
         7
100
AcDbVertex
100
AcDb2dVertex
 10
1417.6403817474
 20
-28.4115787889
 30
0.0
 70
         1
  0
VERTEX
  5
A6
100
AcDbEntity
  8
L1_105
  6
CONTINUOUS
 62
         7
100
AcDbVertex
100
AcDb2dVertex
 10
1418.0034759438
 20
-28.3467172746
 30
0.0
 70
         1
  0
VERTEX
  5
A8
100
AcDbEntity
  8
L1_105
  6
CONTINUOUS
 62
         7
100
AcDbVertex
100
AcDb2dVertex
 10
1418.3248356266
 20
-28.2768329894
 30
0.0
 70
         1
  0
VERTEX
  5
AA
100
AcDbEntity
  8
L1_105
  6
CONTINUOUS
 62
         7
100
AcDbVertex
100
AcDb2dVertex
 10
1418.6074782947
 20
-28.2042493303
 30
0.0
 70
         1
  0
VERTEX
  5
AC
100
AcDbEntity
  8
L1_105
  6
CONTINUOUS
 62
         7
100
AcDbVertex
100
AcDb2dVertex
 10
1418.9330704075
 20
-28.105380338
 30
0.0
 70
         1
  0
VERTEX
  5
AE
100
AcDbEntity
  8
L1_105
  6
CONTINUOUS
 62
         7
100
AcDbVertex
100
AcDb2dVertex
 10
1419.2035582159
 20
-28.008088282
 30
0.0
 70
         1
  0
VERTEX
  5
B0
100
AcDbEntity
  8
L1_105
  6
CONTINUOUS
 62
         7
100
AcDbVertex
100
AcDb2dVertex
 10
1419.4273796738
 20
-27.9144702006
 30
0.0
 70
         1
  0
VERTEX
  5
B2
100
AcDbEntity
  8
L1_105
  6
CONTINUOUS
 62
         7
100
AcDbVertex
100
AcDb2dVertex
 10
1419.6121680588
 20
-27.825786137
 30
0.0
 70
         1
  0
VERTEX
  5
B4
100
AcDbEntity
  8
L1_105
  6
CONTINUOUS
 62
         7
100
AcDbVertex
100
AcDb2dVertex
 10
1419.8115368066
 20
-27.7148859904
 30
0.0
 70
         1
  0
VERTEX
  5
B6
100
AcDbEntity
  8
L1_105
  6
CONTINUOUS
 62
         7
100
AcDbVertex
100
AcDb2dVertex
 10
1419.9652222817
 20
-27.6146892033
 30
0.0
 70
         1
  0
VERTEX
  5
B8
100
AcDbEntity
  8
L1_105
  6
CONTINUOUS
 62
         7
100
AcDbVertex
100
AcDb2dVertex
 10
1420.1194727235
 20
-27.4952086406
 30
0.0
 70
         1
  0
VERTEX
  5
BA
100
AcDbEntity
  8
L1_105
  6
CONTINUOUS
 62
         7
100
AcDbVertex
100
AcDb2dVertex
 10
1420.22848735
 20
-27.3932216393
 30
0.0
 70
         1
  0
VERTEX
  5
BC
100
AcDbEntity
  8
L1_105
  6
CONTINUOUS
 62
         7
100
AcDbVertex
100
AcDb2dVertex
 10
1420.3284835226
 20
-27.2780585908
 30
0.0
 70
         1
  0
VERTEX
  5
BE
100
AcDbEntity
  8
L1_105
  6
CONTINUOUS
 62
         7
100
AcDbVertex
100
AcDb2dVertex
 10
1420.4094033716
 20
-27.155980512
 30
0.0
 70
         1
  0
VERTEX
  5
C0
100
AcDbEntity
  8
L1_105
  6
CONTINUOUS
 62
         7
100
AcDbVertex
100
AcDb2dVertex
 10
1420.4646742951
 20
-27.0369998626
 30
0.0
 70
         1
  0
VERTEX
  5
C2
100
AcDbEntity
  8
L1_105
  6
CONTINUOUS
 62
         7
100
AcDbVertex
100
AcDb2dVertex
 10
1420.5005020396
 20
-26.9001034487
 30
0.0
 70
         1
  0
VERTEX
  5
C4
100
AcDbEntity
  8
L1_105
  6
CONTINUOUS
 62
         7
100
AcDbVertex
100
AcDb2dVertex
 10
1420.5082741959
 20
-26.7997412012
 30
0.0
 70
         1
  0
SEQEND
  5
C6
100
AcDbEntity
  8
L1_105
  6
CONTINUOUS
 62
         7
  0
POLYLINE
  5
C8
100
AcDbEntity
  8
L1_105
  6
CONTINUOUS
 62
         7
100
AcDb2dPolyline
 66
         1
 10
0.0
 20
0.0
 30
0.0
 70
         2
  0
VERTEX
  5
CA
100
AcDbEntity
  8
L1_105
  6
CONTINUOUS
 62
         7
100
AcDbVertex
100
AcDb2dVertex
 10
1420.5082741959
 20
-26.7997412012
 30
0.0
 70
         1
  0
VERTEX
  5
CC
100
AcDbEntity
  8
L1_105
  6
CONTINUOUS
 62
         7
100
AcDbVertex
100
AcDb2dVertex
 10
1420.4436953644
 20
-26.303879188
 30
0.0
 70
         1
  0
VERTEX
  5
CE
100
AcDbEntity
  8
L1_105
  6
CONTINUOUS
 62
         7
100
AcDbVertex
100
AcDb2dVertex
 10
1420.3700860658
 20
-26.0772172717
 30
0.0
 70
         1
  0
VERTEX
  5
D0
100
AcDbEntity
  8
L1_105
  6
CONTINUOUS
 62
         7
100
AcDbVertex
100
AcDb2dVertex
 10
1420.2751135935
 20
-25.8659867446
 30
0.0
 70
         1
  0
VERTEX
  5
D2
100
AcDbEntity
  8
L1_105
  6
CONTINUOUS
 62
         7
100
AcDbVertex
100
AcDb2dVertex
 10
1420.1630799965
 20
-25.6704694554
 30
0.0
 70
         1
  0
VERTEX
  5
D4
100
AcDbEntity
  8
L1_105
  6
CONTINUOUS
 62
         7
100
AcDbVertex
100
AcDb2dVertex
 10
1419.9925348213
 20
-25.4323179417
 30
0.0
 70
         1
  0
VERTEX
  5
D6
100
AcDbEntity
  8
L1_105
  6
CONTINUOUS
 62
         7
100
AcDbVertex
100
AcDb2dVertex
 10
1419.8063846546
 20
-25.2211094049
 30
0.0
 70
         1
  0
VERTEX
  5
D8
100
AcDbEntity
  8
L1_105
  6
CONTINUOUS
 62
         7
100
AcDbVertex
100
AcDb2dVertex
 10
1419.6113227132
 20
-25.0350528979
 30
0.0
 70
         1
  0
VERTEX
  5
DA
100
AcDbEntity
  8
L1_105
  6
CONTINUOUS
 62
         7
100
AcDbVertex
100
AcDb2dVertex
 10
1419.343696699
 20
-24.8204329025
 30
0.0
 70
         1
  0
VERTEX
  5
DC
100
AcDbEntity
  8
L1_105
  6
CONTINUOUS
 62
         7
100
AcDbVertex
100
AcDb2dVertex
 10
1419.0788192027
 20
-24.641943858
 30
0.0
 70
         1
  0
VERTEX
  5
DE
100
AcDbEntity
  8
L1_105
  6
CONTINUOUS
 62
         7
100
AcDbVertex
100
AcDb2dVertex
 10
1418.7358978364
 20
-24.4485558922
 30
0.0
 70
         1
  0
VERTEX
  5
E0
100
AcDbEntity
  8
L1_105
  6
CONTINUOUS
 62
         7
100
AcDbVertex
100
AcDb2dVertex
 10
1418.4178235669
 20
-24.2993163516
 30
0.0
 70
         1
  0
VERTEX
  5
E2
100
AcDbEntity
  8
L1_105
  6
CONTINUOUS
 62
         7
100
AcDbVertex
100
AcDb2dVertex
 10
1418.0314641061
 20
-24.1498526392
 30
0.0
 70
         1
  0
VERTEX
  5
E4
100
AcDbEntity
  8
L1_105
  6
CONTINUOUS
 62
         7
100
AcDbVertex
100
AcDb2dVertex
 10
1417.6977358477
 20
-24.0447526734
 30
0.0
 70
         1
  0
VERTEX
  5
E6
100
AcDbEntity
  8
L1_105
  6
CONTINUOUS
 62
         7
100
AcDbVertex
100
AcDb2dVertex
 10
1417.3185870831
 20
-23.9490615515
 30
0.0
 70
         1
  0
VERTEX
  5
E8
100
AcDbEntity
  8
L1_105
  6
CONTINUOUS
 62
         7
100
AcDbVertex
100
AcDb2dVertex
 10
1416.9159979367
 20
-23.872440803
 30
0.0
 70
         1
  0
VERTEX
  5
EA
100
AcDbEntity
  8
L1_105
  6
CONTINUOUS
 62
         7
100
AcDbVertex
100
AcDb2dVertex
 10
1416.5247064987
 20
-23.8207884671
 30
0.0
 70
         1
  0
VERTEX
  5
EC
100
AcDbEntity
  8
L1_105
  6
CONTINUOUS
 62
         7
100
AcDbVertex
100
AcDb2dVertex
 10
1416.1863788912
 20
-23.7933425279
 30
0.0
 70
         1
  0
VERTEX
  5
EE
100
AcDbEntity
  8
L1_105
  6
CONTINUOUS
 62
         7
100
AcDbVertex
100
AcDb2dVertex
 10
1415.8581722611
 20
-23.781528093
 30
0.0
 70
         1
  0
VERTEX
  5
F0
100
AcDbEntity
  8
L1_105
  6
CONTINUOUS
 62
         7
100
AcDbVertex
100
AcDb2dVertex
 10
1415.7532741959
 20
-23.780793389
 30
0.0
 70
         1
  0
SEQEND
  5
F2
100
AcDbEntity
  8
L1_105
  6
CONTINUOUS
 62
         7
  0
LINE
  5
F3
100
AcDbEntity
  8
L1_105
  6
CONTINUOUS
 62
         7
100
AcDbLine
 10
1415.7532741959
 20
-23.780793389
 30
0.0
 11
1400.2633403763
 21
-23.7807932717
 31
0.0
  0
LINE
  5
F4
100
AcDbEntity
  8
L1_105
  6
CONTINUOUS
 62
         7
100
AcDbLine
 10
1415.7532780192
 20
-28.555793389
 30
0.0
 11
1400.2633403632
 21
-28.5557932717
 31
0.0
  0
POLYLINE
  5
F6
100
AcDbEntity
  8
L1_105
  6
CONTINUOUS
 62
         7
100
AcDb2dPolyline
 66
         1
 10
0.0
 20
0.0
 30
0.0
 70
         2
  0
VERTEX
  5
F8
100
AcDbEntity
  8
L1_105
  6
CONTINUOUS
 62
         7
100
AcDbVertex
100
AcDb2dVertex
 10
1395.5083403763
 20
-26.7997410839
 30
0.0
 70
         1
  0
VERTEX
  5
FA
100
AcDbEntity
  8
L1_105
  6
CONTINUOUS
 62
         7
100
AcDbVertex
100
AcDb2dVertex
 10
1395.5656955029
 20
-27.0716664298
 30
0.0
 70
         1
  0
VERTEX
  5
FC
100
AcDbEntity
  8
L1_105
  6
CONTINUOUS
 62
         7
100
AcDbVertex
100
AcDb2dVertex
 10
1395.6357868256
 20
-27.2035829066
 30
0.0
 70
         1
  0
VERTEX
  5
FE
100
AcDbEntity
  8
L1_105
  6
CONTINUOUS
 62
         7
100
AcDbVertex
100
AcDb2dVertex
 10
1395.7310372714
 20
-27.330856354
 30
0.0
 70
         1
  0
VERTEX
  5
100
100
AcDbEntity
  8
L1_105
  6
CONTINUOUS
 62
         7
100
AcDbVertex
100
AcDb2dVertex
 10
1395.8488111988
 20
-27.4522709073
 30
0.0
 70
         1
  0
VERTEX
  5
102
100
AcDbEntity
  8
L1_105
  6
CONTINUOUS
 62
         7
100
AcDbVertex
100
AcDb2dVertex
 10
1395.9860308305
 20
-27.566854512
 30
0.0
 70
         1
  0
VERTEX
  5
104
100
AcDbEntity
  8
L1_105
  6
CONTINUOUS
 62
         7
100
AcDbVertex
100
AcDb2dVertex
 10
1396.1393565047
 20
-27.6738967172
 30
0.0
 70
         1
  0
VERTEX
  5
106
100
AcDbEntity
  8
L1_105
  6
CONTINUOUS
 62
         7
100
AcDbVertex
100
AcDb2dVertex
 10
1396.3053607744
 20
-27.7729475013
 30
0.0
 70
         1
  0
VERTEX
  5
108
100
AcDbEntity
  8
L1_105
  6
CONTINUOUS
 62
         7
100
AcDbVertex
100
AcDb2dVertex
 10
1396.4806822679
 20
-27.8638002456
 30
0.0
 70
         1
  0
VERTEX
  5
10A
100
AcDbEntity
  8
L1_105
  6
CONTINUOUS
 62
         7
100
AcDbVertex
100
AcDb2dVertex
 10
1396.7268416869
 20
-27.9736013858
 30
0.0
 70
         1
  0
VERTEX
  5
10C
100
AcDbEntity
  8
L1_105
  6
CONTINUOUS
 62
         7
100
AcDbVertex
100
AcDb2dVertex
 10
1396.9772832493
 20
-28.0689874369
 30
0.0
 70
         1
  0
VERTEX
  5
10E
100
AcDbEntity
  8
L1_105
  6
CONTINUOUS
 62
         7
100
AcDbVertex
100
AcDb2dVertex
 10
1397.2261894914
 20
-28.1509051343
 30
0.0
 70
         1
  0
VERTEX
  5
110
100
AcDbEntity
  8
L1_105
  6
CONTINUOUS
 62
         7
100
AcDbVertex
100
AcDb2dVertex
 10
1397.5537735911
 20
-28.242792659
 30
0.0
 70
         1
  0
VERTEX
  5
112
100
AcDbEntity
  8
L1_105
  6
CONTINUOUS
 62
         7
100
AcDbVertex
100
AcDb2dVertex
 10
1397.8621399662
 20
-28.315439811
 30
0.0
 70
         1
  0
VERTEX
  5
114
100
AcDbEntity
  8
L1_105
  6
CONTINUOUS
 62
         7
100
AcDbVertex
100
AcDb2dVertex
 10
1398.2447036819
 20
-28.3896956925
 30
0.0
 70
         1
  0
VERTEX
  5
116
100
AcDbEntity
  8
L1_105
  6
CONTINUOUS
 62
         7
100
AcDbVertex
100
AcDb2dVertex
 10
1398.6926638464
 20
-28.457223677
 30
0.0
 70
         1
  0
VERTEX
  5
118
100
AcDbEntity
  8
L1_105
  6
CONTINUOUS
 62
         7
100
AcDbVertex
100
AcDb2dVertex
 10
1399.1733395777
 20
-28.5090325596
 30
0.0
 70
         1
  0
VERTEX
  5
11A
100
AcDbEntity
  8
L1_105
  6
CONTINUOUS
 62
         7
100
AcDbVertex
100
AcDb2dVertex
 10
1399.7812752366
 20
-28.5467455739
 30
0.0
 70
         1
  0
VERTEX
  5
11C
100
AcDbEntity
  8
L1_105
  6
CONTINUOUS
 62
         7
100
AcDbVertex
100
AcDb2dVertex
 10
1400.2633403762
 20
-28.5557932717
 30
0.0
 70
         1
  0
SEQEND
  5
11E
100
AcDbEntity
  8
L1_105
  6
CONTINUOUS
 62
         7
  0
POLYLINE
  5
120
100
AcDbEntity
  8
L1_105
  6
CONTINUOUS
 62
         7
100
AcDb2dPolyline
 66
         1
 10
0.0
 20
0.0
 30
0.0
 70
         2
  0
VERTEX
  5
122
100
AcDbEntity
  8
L1_105
  6
CONTINUOUS
 62
         7
100
AcDbVertex
100
AcDb2dVertex
 10
1400.2633403763
 20
-23.7807932717
 30
0.0
 70
         1
  0
VERTEX
  5
124
100
AcDbEntity
  8
L1_105
  6
CONTINUOUS
 62
         7
100
AcDbVertex
100
AcDb2dVertex
 10
1399.5270268265
 20
-23.8172080212
 30
0.0
 70
         1
  0
VERTEX
  5
126
100
AcDbEntity
  8
L1_105
  6
CONTINUOUS
 62
         7
100
AcDbVertex
100
AcDb2dVertex
 10
1399.1698262537
 20
-23.8617089771
 30
0.0
 70
         1
  0
VERTEX
  5
128
100
AcDbEntity
  8
L1_105
  6
CONTINUOUS
 62
         7
100
AcDbVertex
100
AcDb2dVertex
 10
1398.8251979753
 20
-23.9221834513
 30
0.0
 70
         1
  0
VERTEX
  5
12A
100
AcDbEntity
  8
L1_105
  6
CONTINUOUS
 62
         7
100
AcDbVertex
100
AcDb2dVertex
 10
1398.4964342832
 20
-23.996958076
 30
0.0
 70
         1
  0
VERTEX
  5
12C
100
AcDbEntity
  8
L1_105
  6
CONTINUOUS
 62
         7
100
AcDbVertex
100
AcDb2dVertex
 10
1398.0818920548
 20
-24.1172387495
 30
0.0
 70
         1
  0
VERTEX
  5
12E
100
AcDbEntity
  8
L1_105
  6
CONTINUOUS
 62
         7
100
AcDbVertex
100
AcDb2dVertex
 10
1397.7054854529
 20
-24.2547988428
 30
0.0
 70
         1
  0
VERTEX
  5
130
100
AcDbEntity
  8
L1_105
  6
CONTINUOUS
 62
         7
100
AcDbVertex
100
AcDb2dVertex
 10
1397.3693614076
 20
-24.4043167433
 30
0.0
 70
         1
  0
VERTEX
  5
132
100
AcDbEntity
  8
L1_105
  6
CONTINUOUS
 62
         7
100
AcDbVertex
100
AcDb2dVertex
 10
1397.0736517259
 20
-24.5607936753
 30
0.0
 70
         1
  0
VERTEX
  5
134
100
AcDbEntity
  8
L1_105
  6
CONTINUOUS
 62
         7
100
AcDbVertex
100
AcDb2dVertex
 10
1396.8168909215
 20
-24.7198258204
 30
0.0
 70
         1
  0
VERTEX
  5
136
100
AcDbEntity
  8
L1_105
  6
CONTINUOUS
 62
         7
100
AcDbVertex
100
AcDb2dVertex
 10
1396.5257447951
 20
-24.9334812217
 30
0.0
 70
         1
  0
VERTEX
  5
138
100
AcDbEntity
  8
L1_105
  6
CONTINUOUS
 62
         7
100
AcDbVertex
100
AcDb2dVertex
 10
1396.2931782752
 20
-25.138311958
 30
0.0
 70
         1
  0
VERTEX
  5
13A
100
AcDbEntity
  8
L1_105
  6
CONTINUOUS
 62
         7
100
AcDbVertex
100
AcDb2dVertex
 10
1396.110007375
 20
-25.3298627061
 30
0.0
 70
         1
  0
VERTEX
  5
13C
100
AcDbEntity
  8
L1_105
  6
CONTINUOUS
 62
         7
100
AcDbVertex
100
AcDb2dVertex
 10
1395.9234141246
 20
-25.5661611148
 30
0.0
 70
         1
  0
VERTEX
  5
13E
100
AcDbEntity
  8
L1_105
  6
CONTINUOUS
 62
         7
100
AcDbVertex
100
AcDb2dVertex
 10
1395.7928404172
 20
-25.7711536684
 30
0.0
 70
         1
  0
VERTEX
  5
140
100
AcDbEntity
  8
L1_105
  6
CONTINUOUS
 62
         7
100
AcDbVertex
100
AcDb2dVertex
 10
1395.6759324227
 20
-26.0053009057
 30
0.0
 70
         1
  0
VERTEX
  5
142
100
AcDbEntity
  8
L1_105
  6
CONTINUOUS
 62
         7
100
AcDbVertex
100
AcDb2dVertex
 10
1395.5873983751
 20
-26.2515202576
 30
0.0
 70
         1
  0
VERTEX
  5
144
100
AcDbEntity
  8
L1_105
  6
CONTINUOUS
 62
         7
100
AcDbVertex
100
AcDb2dVertex
 10
1395.5349108724
 20
-26.4810370018
 30
0.0
 70
         1
  0
VERTEX
  5
146
100
AcDbEntity
  8
L1_105
  6
CONTINUOUS
 62
         7
100
AcDbVertex
100
AcDb2dVertex
 10
1395.5100053935
 20
-26.7198558174
 30
0.0
 70
         1
  0
VERTEX
  5
148
100
AcDbEntity
  8
L1_105
  6
CONTINUOUS
 62
         7
100
AcDbVertex
100
AcDb2dVertex
 10
1395.5083403763
 20
-26.7997410839
 30
0.0
 70
         1
  0
SEQEND
  5
14A
100
AcDbEntity
  8
L1_105
  6
CONTINUOUS
 62
         7
  0
LINE
  5
14B
100
AcDbEntity
  8
L1_105
  6
CONTINUOUS
 62
         7
100
AcDbLine
 10
1364.1020155108
 20
-15.4433347407
 30
0.0
 11
1364.1020155108
 21
-10.4433347407
 31
0.0
  0
LINE
  5
14C
100
AcDbEntity
  8
L1_105
  6
CONTINUOUS
 62
         4
100
AcDbLine
 10
1440.7732133573
 20
129.7577756414
 30
0.0
 11
1440.7732133573
 21
170.6115078174
 31
0.0
  0
DIMENSION
  5
150
100
AcDbEntity
  8
L1_105
  6
CONTINUOUS
 62
         4
100
AcDbDimension
  2
*D0
 10
1445.1033403763
 20
206.1588373439
 30
0.0
 11
1408.7276869875
 21
208.1838373439
 31
0.0
  3
DIMSTYLE1
100
AcDbAlignedDimension
 13
1445.1033403763
 23
150.1846417294
 33
0.0
 14
1359.1033403763
 24
163.8846417294
 34
0.0
100
AcDbRotatedDimension
  0
LINE
  5
15D
100
AcDbEntity
  8
L1_105
  6
CONTINUOUS
 62
         7
100
AcDbLine
 10
1359.1033403763
 20
163.8846417294
 30
0.0
 11
1359.1033403763
 21
136.4846417294
 31
0.0
  0
LINE
  5
15E
100
AcDbEntity
  8
L1_105
  6
CENTER
 62
         1
100
AcDbLine
 10
1563.2833403763
 20
127.6846417294
 30
0.0
 11
1563.2833403763
 21
172.6846417294
 31
0.0
  0
LINE
  5
15F
100
AcDbEntity
  8
L1_105
  6
CENTER
 62
         1
100
AcDbLine
 10
1585.7833403763
 20
150.1846417294
 30
0.0
 11
1538.2833403763
 21
150.1846417294
 31
0.0
  0
CIRCLE
  5
160
100
AcDbEntity
  8
L1_105
  6
CONTINUOUS
 62
         7
100
AcDbCircle
 10
1563.2833403763
 20
150.1846417294
 30
0.0
 40
18.0
  0
CIRCLE
  5
161
100
AcDbEntity
  8
L1_105
  6
CONTINUOUS
 62
         7
100
AcDbCircle
 10
1563.2833403763
 20
150.1846417294
 30
0.0
 40
22.5
  0
CIRCLE
  5
162
100
AcDbEntity
  8
L1_105
  6
CONTINUOUS
 62
         7
100
AcDbCircle
 10
1563.2833403763
 20
150.1846417294
 30
0.0
 40
20.5
  0
LINE
  5
163
100
AcDbEntity
  8
L1_105
  6
CENTER
 62
         1
100
AcDbLine
 10
1445.1033403763
 20
-12.9433347407
 30
0.0
 11
1359.1033403763
 21
-12.9433347407
 31
0.0
  0
LINE
  5
164
100
AcDbEntity
  8
L1_105
  6
CONTINUOUS
 62
         7
100
AcDbLine
 10
1427.1033403763
 20
-33.3433347407
 30
0.0
 11
1427.2033403763
 21
-33.4433347407
 31
0.0
  0
LINE
  5
165
100
AcDbEntity
  8
L1_105
  6
CONTINUOUS
 62
         7
100
AcDbLine
 10
1440.2373149725
 20
-33.4433347407
 30
0.0
 11
1427.2033403763
 21
-33.4433347407
 31
0.0
  0
LINE
  5
166
100
AcDbEntity
  8
L1_105
  6
CONTINUOUS
 62
         7
100
AcDbLine
 10
1427.1033403763
 20
-32.4433347407
 30
0.0
 11
1427.1033403763
 21
-33.3433347407
 31
0.0
  0
LINE
  5
167
100
AcDbEntity
  8
L1_105
  6
CONTINUOUS
 62
         7
100
AcDbLine
 10
1425.1033403763
 20
-33.3433347407
 30
0.0
 11
1425.0033403763
 21
-33.4433347407
 31
0.0
  0
LINE
  5
168
100
AcDbEntity
  8
L1_105
  6
CONTINUOUS
 62
         7
100
AcDbLine
 10
1425.0033403763
 20
-33.4433347407
 30
0.0
 11
1394.6033403763
 21
-33.4433347407
 31
0.0
  0
LINE
  5
169
100
AcDbEntity
  8
L1_105
  6
CONTINUOUS
 62
         7
100
AcDbLine
 10
1425.1033403763
 20
-32.4433347407
 30
0.0
 11
1425.1033403763
 21
-33.3433347407
 31
0.0
  0
LINE
  5
16A
100
AcDbEntity
  8
L1_105
  6
CONTINUOUS
 62
         7
100
AcDbLine
 10
1427.1033403763
 20
7.4566652593
 30
0.0
 11
1427.2033403763
 21
7.5566652593
 31
0.0
  0
LINE
  5
16B
100
AcDbEntity
  8
L1_105
  6
CONTINUOUS
 62
         7
100
AcDbLine
 10
1440.2373149725
 20
7.5566652593
 30
0.0
 11
1427.2033403763
 21
7.5566652593
 31
0.0
  0
LINE
  5
16C
100
AcDbEntity
  8
L1_105
  6
CONTINUOUS
 62
         7
100
AcDbLine
 10
1427.1033403763
 20
6.5566652593
 30
0.0
 11
1427.1033403763
 21
7.4566652593
 31
0.0
  0
LINE
  5
16D
100
AcDbEntity
  8
L1_105
  6
CONTINUOUS
 62
         7
100
AcDbLine
 10
1425.0033403763
 20
7.5566652593
 30
0.0
 11
1425.1033403763
 21
7.4566652593
 31
0.0
  0
LINE
  5
16E
100
AcDbEntity
  8
L1_105
  6
CONTINUOUS
 62
         7
100
AcDbLine
 10
1425.1033403763
 20
6.5566652593
 30
0.0
 11
1425.1033403763
 21
7.4566652593
 31
0.0
  0
LINE
  5
16F
100
AcDbEntity
  8
L1_105
  6
CONTINUOUS
 62
         7
100
AcDbLine
 10
1425.0033403763
 20
7.5566652593
 30
0.0
 11
1394.6033403763
 21
7.5566652593
 31
0.0
  0
LINE
  5
170
100
AcDbEntity
  8
L1_105
  6
CONTINUOUS
 62
         4
100
AcDbLine
 10
1419.1033403763
 20
-28.9433347407
 30
0.0
 11
1419.1033403763
 21
-28.0459566002
 31
0.0
  0
ARC
  5
171
100
AcDbEntity
  8
L1_105
  6
CONTINUOUS
 62
         7
100
AcDbCircle
 10
1419.1033403763
 20
4.0566652593
 30
0.0
 40
1.0
100
AcDbArc
 50
270.0
 51
360.0
  0
ARC
  5
172
100
AcDbEntity
  8
L1_105
  6
CONTINUOUS
 62
         7
100
AcDbCircle
 10
1419.1033403763
 20
-29.9433347407
 30
0.0
 40
1.0
100
AcDbArc
 50
0.0
 51
90.0
  0
LINE
  5
173
100
AcDbEntity
  8
L1_105
  6
CONTINUOUS
 62
         7
100
AcDbLine
 10
1444.6469182476
 20
-30.0783803057
 30
0.0
 11
1443.1033403763
 21
-29.9433347407
 31
0.0
  0
ARC
  5
174
100
AcDbEntity
  8
L1_105
  6
CONTINUOUS
 62
         7
100
AcDbCircle
 10
1444.6033403763
 20
-30.5764776547
 30
0.0
 40
0.5
100
AcDbArc
 50
0.0
 51
85.0
  0
ARC
  5
175
100
AcDbEntity
  8
L1_105
  6
CONTINUOUS
 62
         7
100
AcDbCircle
 10
1444.6033403763
 20
-30.6546596061
 30
0.0
 40
0.5
100
AcDbArc
 50
300.0
 51
360.0
  0
ARC
  5
176
100
AcDbEntity
  8
L1_105
  6
CONTINUOUS
 62
         7
100
AcDbCircle
 10
1444.6033403763
 20
4.6898081734
 30
0.0
 40
0.5
100
AcDbArc
 50
275.0
 51
360.0
  0
ARC
  5
177
100
AcDbEntity
  8
L1_105
  6
CONTINUOUS
 62
         7
100
AcDbCircle
 10
1444.6033403763
 20
4.7679901247
 30
0.0
 40
0.5
100
AcDbArc
 50
0.0
 51
60.0
  0
LINE
  5
178
100
AcDbEntity
  8
L1_105
  6
CONTINUOUS
 62
         7
100
AcDbLine
 10
1444.6469182476
 20
4.1917108243
 30
0.0
 11
1443.1033403763
 21
4.0566652593
 31
0.0
  0
LINE
  5
179
100
AcDbEntity
  8
L1_105
  6
CONTINUOUS
 62
         4
100
AcDbLine
 10
1443.1033403763
 20
-29.9433347407
 30
0.0
 11
1443.1033403763
 21
4.0566652593
 31
0.0
  0
LINE
  5
17A
100
AcDbEntity
  8
L1_105
  6
CENTER
 62
         1
100
AcDbLine
 10
1400.5083403763
 20
-0.354140038
 30
0.0
 11
1400.5083403763
 21
12.7589287345
 31
0.0
  0
LINE
  5
17B
100
AcDbEntity
  8
L1_105
  6
CENTER
 62
         1
100
AcDbLine
 10
1415.5082741959
 20
-0.354140038
 30
0.0
 11
1415.5082741959
 21
12.7589287345
 31
0.0
  0
ARC
  5
17C
100
AcDbEntity
  8
L1_105
  6
CONTINUOUS
 62
         7
100
AcDbCircle
 10
1391.6033403763
 20
-34.9433347407
 30
0.0
 40
0.5
100
AcDbArc
 50
270.0
 51
360.0
  0
ARC
  5
17D
100
AcDbEntity
  8
L1_105
  6
CONTINUOUS
 62
         7
100
AcDbCircle
 10
1391.6033403763
 20
9.0566652593
 30
0.0
 40
0.5
100
AcDbArc
 50
0.0
 51
90.0
  0
LINE
  5
17E
100
AcDbEntity
  8
L1_105
  6
CONTINUOUS
 62
         7
100
AcDbLine
 10
1364.1020155108
 20
-10.4433347407
 30
0.0
 11
1362.6586398379
 21
-12.9433347407
 31
0.0
  0
LINE
  5
17F
100
AcDbEntity
  8
L1_105
  6
CONTINUOUS
 62
         7
100
AcDbLine
 10
1364.1020155108
 20
-15.4433347407
 30
0.0
 11
1362.6586398379
 21
-12.9433347407
 31
0.0
  0
LINE
  5
180
100
AcDbEntity
  8
L1_105
  6
CONTINUOUS
 62
         7
100
AcDbLine
 10
1443.1033403763
 20
4.0566652593
 30
0.0
 11
1425.1033403763
 21
4.0566652593
 31
0.0
  0
LINE
  5
181
100
AcDbEntity
  8
L1_105
  6
CONTINUOUS
 62
         7
100
AcDbLine
 10
1443.1033403763
 20
-29.9433347407
 30
0.0
 11
1425.1033403763
 21
-29.9433347407
 31
0.0
  0
LINE
  5
182
100
AcDbEntity
  8
L1_105
  6
CONTINUOUS
 62
         7
100
AcDbLine
 10
1445.1033403763
 20
-30.6546596061
 30
0.0
 11
1445.1033403763
 21
4.7679901247
 31
0.0
  0
LINE
  5
183
100
AcDbEntity
  8
L1_105
  6
CONTINUOUS
 62
         7
100
AcDbLine
 10
1420.1033403763
 20
-30.4433347407
 30
0.0
 11
1420.1033403763
 21
-27.5088624116
 31
0.0
  0
LINE
  5
184
100
AcDbEntity
  8
L1_105
  6
CONTINUOUS
 62
         7
100
AcDbLine
 10
1425.1033403763
 20
-30.4433347407
 30
0.0
 11
1425.1033403763
 21
4.5566652593
 31
0.0
  0
LINE
  5
185
100
AcDbEntity
  8
L1_105
  6
CONTINUOUS
 62
         7
100
AcDbLine
 10
1419.1033403763
 20
3.0566652593
 30
0.0
 11
1384.1033403763
 21
3.0566652593
 31
0.0
  0
LINE
  5
186
100
AcDbEntity
  8
L1_105
  6
CONTINUOUS
 62
         7
100
AcDbLine
 10
1419.1033403763
 20
-28.9433347407
 30
0.0
 11
1384.1033403763
 21
-28.9433347407
 31
0.0
  0
LINE
  5
187
100
AcDbEntity
  8
L1_105
  6
CONTINUOUS
 62
         7
100
AcDbLine
 10
1425.1033403763
 20
4.5566652593
 30
0.0
 11
1420.1033403763
 21
4.5566652593
 31
0.0
  0
LINE
  5
188
100
AcDbEntity
  8
L1_105
  6
CONTINUOUS
 62
         7
100
AcDbLine
 10
1425.1033403763
 20
-30.4433347407
 30
0.0
 11
1420.1033403763
 21
-30.4433347407
 31
0.0
  0
LINE
  5
189
100
AcDbEntity
  8
L1_105
  6
CONTINUOUS
 62
         7
100
AcDbLine
 10
1427.1033403763
 20
-32.4433347407
 30
0.0
 11
1425.1033403763
 21
-32.4433347407
 31
0.0
  0
LINE
  5
18A
100
AcDbEntity
  8
L1_105
  6
CONTINUOUS
 62
         7
100
AcDbLine
 10
1427.1033403763
 20
6.5566652593
 30
0.0
 11
1425.1033403763
 21
6.5566652593
 31
0.0
  0
LINE
  5
18B
100
AcDbEntity
  8
L1_105
  6
CONTINUOUS
 62
         7
100
AcDbLine
 10
1367.1033403763
 20
-15.9433347407
 30
0.0
 11
1367.1033403763
 21
-9.9433347407
 31
0.0
  0
LINE
  5
18C
100
AcDbEntity
  8
L1_105
  6
CONTINUOUS
 62
         4
100
AcDbLine
 10
1379.1033403763
 20
-15.9433347407
 30
0.0
 11
1367.1033403763
 21
-15.9433347407
 31
0.0
  0
LINE
  5
18D
100
AcDbEntity
  8
L1_105
  6
CONTINUOUS
 62
         4
100
AcDbLine
 10
1379.1033403763
 20
-9.9433347407
 30
0.0
 11
1367.1033403763
 21
-9.9433347407
 31
0.0
  0
LINE
  5
18E
100
AcDbEntity
  8
L1_105
  6
CONTINUOUS
 62
         7
100
AcDbLine
 10
1379.1033403763
 20
-29.4433347407
 30
0.0
 11
1379.1033403763
 21
3.5566652593
 31
0.0
  0
LINE
  5
18F
100
AcDbEntity
  8
L1_105
  6
CONTINUOUS
 62
         7
100
AcDbLine
 10
1384.1033403763
 20
-29.4433347407
 30
0.0
 11
1384.1033403763
 21
3.5566652593
 31
0.0
  0
LINE
  5
190
100
AcDbEntity
  8
L1_105
  6
CONTINUOUS
 62
         7
100
AcDbLine
 10
1384.1033403763
 20
3.5566652593
 30
0.0
 11
1379.1033403763
 21
3.5566652593
 31
0.0
  0
LINE
  5
191
100
AcDbEntity
  8
L1_105
  6
CONTINUOUS
 62
         7
100
AcDbLine
 10
1384.1033403763
 20
-29.4433347407
 30
0.0
 11
1379.1033403763
 21
-29.4433347407
 31
0.0
  0
LINE
  5
192
100
AcDbEntity
  8
L1_105
  6
CONTINUOUS
 62
         7
100
AcDbLine
 10
1391.6033403763
 20
9.5566652593
 30
0.0
 11
1361.1033403763
 21
9.5566652593
 31
0.0
  0
LINE
  5
193
100
AcDbEntity
  8
L1_105
  6
CONTINUOUS
 62
         7
100
AcDbLine
 10
1391.6033403763
 20
-35.4433347407
 30
0.0
 11
1361.1033403763
 21
-35.4433347407
 31
0.0
  0
LINE
  5
194
100
AcDbEntity
  8
L1_105
  6
CONTINUOUS
 62
         7
100
AcDbLine
 10
1444.8533403763
 20
5.2010028266
 30
0.0
 11
1441.2373149725
 21
7.2887160669
 31
0.0
  0
ARC
  5
195
100
AcDbEntity
  8
L1_105
  6
CONTINUOUS
 62
         7
100
AcDbCircle
 10
1440.2373149725
 20
5.5566652593
 30
0.0
 40
2.0
100
AcDbArc
 50
60.0
 51
90.0000000001
  0
ARC
  5
196
100
AcDbEntity
  8
L1_105
  6
CONTINUOUS
 62
         7
100
AcDbCircle
 10
1440.2373149725
 20
-31.4433347407
 30
0.0
 40
2.0
100
AcDbArc
 50
269.9999999999
 51
300.0
  0
LINE
  5
197
100
AcDbEntity
  8
L1_105
  6
CONTINUOUS
 62
         7
100
AcDbLine
 10
1444.8533403763
 20
-31.087672308
 30
0.0
 11
1441.2373149725
 21
-33.1753855482
 31
0.0
  0
LINE
  5
198
100
AcDbEntity
  8
L1_105
  6
CENTER
 62
         1
100
AcDbLine
 10
1381.6033403763
 20
-36.883636675
 30
0.0
 11
1381.6033403763
 21
-28.2483828809
 31
0.0
  0
LINE
  5
199
100
AcDbEntity
  8
L1_105
  6
CONTINUOUS
 62
         7
100
AcDbLine
 10
1382.6033403763
 20
-35.4433347407
 30
0.0
 11
1382.6033403763
 21
-29.4433347407
 31
0.0
  0
LINE
  5
19A
100
AcDbEntity
  8
L1_105
  6
CONTINUOUS
 62
         7
100
AcDbLine
 10
1380.6033403763
 20
-35.4433347407
 30
0.0
 11
1380.6033403763
 21
-29.4433347407
 31
0.0
  0
LINE
  5
19B
100
AcDbEntity
  8
L1_105
  6
CONTINUOUS
 62
         7
100
AcDbLine
 10
1393.8042692157
 20
-33.2433347407
 30
0.0
 11
1392.4033403763
 21
-33.2433347407
 31
0.0
  0
LINE
  5
19C
100
AcDbEntity
  8
L1_105
  6
CONTINUOUS
 62
         7
100
AcDbLine
 10
1393.9077968337
 20
-33.2569644102
 30
0.0
 11
1394.6033403763
 21
-33.4433347407
 31
0.0
  0
ARC
  5
19D
100
AcDbEntity
  8
L1_105
  6
CONTINUOUS
 62
         7
100
AcDbCircle
 10
1393.8042692157
 20
-33.6433347407
 30
0.0
 40
0.4
100
AcDbArc
 50
75.0
 51
90.0
  0
LINE
  5
19E
100
AcDbEntity
  8
L1_105
  6
CONTINUOUS
 62
         7
100
AcDbLine
 10
1395.2398320494
 20
-33.4433347407
 30
0.0
 11
1394.6033403763
 21
-33.4433347407
 31
0.0
  0
LINE
  5
19F
100
AcDbEntity
  8
L1_105
  6
CONTINUOUS
 62
         7
100
AcDbLine
 10
1392.0034794587
 20
-33.6327873912
 30
0.0
 11
1392.1033403763
 21
-34.3433347407
 31
0.0
  0
ARC
  5
1A0
100
AcDbEntity
  8
L1_105
  6
CONTINUOUS
 62
         7
100
AcDbCircle
 10
1392.4033403763
 20
-33.6433347407
 30
0.0
 40
0.4
100
AcDbArc
 50
90.0
 51
178.4890283439
  0
LINE
  5
1A1
100
AcDbEntity
  8
L1_105
  6
CONTINUOUS
 62
         7
100
AcDbLine
 10
1392.1033403763
 20
-34.3433347407
 30
0.0
 11
1392.1033403763
 21
-34.9433347407
 31
0.0
  0
LINE
  5
1A2
100
AcDbEntity
  8
L1_105
  6
CONTINUOUS
 62
         7
100
AcDbLine
 10
1393.8042692157
 20
7.3566652593
 30
0.0
 11
1392.4033403763
 21
7.3566652593
 31
0.0
  0
LINE
  5
1A3
100
AcDbEntity
  8
L1_105
  6
CONTINUOUS
 62
         7
100
AcDbLine
 10
1393.9077968337
 20
7.3702949288
 30
0.0
 11
1394.6033403763
 21
7.5566652593
 31
0.0
  0
ARC
  5
1A4
100
AcDbEntity
  8
L1_105
  6
CONTINUOUS
 62
         7
100
AcDbCircle
 10
1393.8042692157
 20
7.7566652593
 30
0.0
 40
0.4
100
AcDbArc
 50
270.0
 51
285.0
  0
LINE
  5
1A5
100
AcDbEntity
  8
L1_105
  6
CONTINUOUS
 62
         7
100
AcDbLine
 10
1395.2898320494
 20
7.5566652593
 30
0.0
 11
1394.6033403763
 21
7.5566652593
 31
0.0
  0
LINE
  5
1A6
100
AcDbEntity
  8
L1_105
  6
CONTINUOUS
 62
         7
100
AcDbLine
 10
1392.0034794587
 20
7.7461179098
 30
0.0
 11
1392.1033403763
 21
8.4566652593
 31
0.0
  0
ARC
  5
1A7
100
AcDbEntity
  8
L1_105
  6
CONTINUOUS
 62
         7
100
AcDbCircle
 10
1392.4033403763
 20
7.7566652593
 30
0.0
 40
0.4
100
AcDbArc
 50
181.5109716561
 51
270.0
  0
LINE
  5
1A8
100
AcDbEntity
  8
L1_105
  6
CONTINUOUS
 62
         7
100
AcDbLine
 10
1392.1033403763
 20
8.4566652593
 30
0.0
 11
1392.1033403763
 21
9.0566652593
 31
0.0
  0
LINE
  5
1A9
100
AcDbEntity
  8
L1_105
  6
CENTER
 62
         1
100
AcDbLine
 10
1445.1033403763
 20
150.1846417294
 30
0.0
 11
1359.1033403763
 21
150.1846417294
 31
0.0
  0
LINE
  5
1AA
100
AcDbEntity
  8
L1_105
  6
CONTINUOUS
 62
         7
100
AcDbLine
 10
1426.1033403763
 20
129.7846417294
 30
0.0
 11
1426.2033403763
 21
129.6846417294
 31
0.0
  0
LINE
  5
1AB
100
AcDbEntity
  8
L1_105
  6
CONTINUOUS
 62
         7
100
AcDbLine
 10
1440.2373149725
 20
129.6846417294
 30
0.0
 11
1426.2033403763
 21
129.6846417294
 31
0.0
  0
LINE
  5
1AC
100
AcDbEntity
  8
L1_105
  6
CONTINUOUS
 62
         7
100
AcDbLine
 10
1426.1033403763
 20
170.5846417294
 30
0.0
 11
1426.1033403763
 21
129.7846417294
 31
0.0
  0
LINE
  5
1AD
100
AcDbEntity
  8
L1_105
  6
CONTINUOUS
 62
         7
100
AcDbLine
 10
1424.1033403763
 20
129.7846417294
 30
0.0
 11
1424.0033403763
 21
129.6846417294
 31
0.0
  0
LINE
  5
1AE
100
AcDbEntity
  8
L1_105
  6
CONTINUOUS
 62
         7
100
AcDbLine
 10
1424.0033403763
 20
129.6846417294
 30
0.0
 11
1394.6033403763
 21
129.6846417294
 31
0.0
  0
LINE
  5
1AF
100
AcDbEntity
  8
L1_105
  6
CONTINUOUS
 62
         7
100
AcDbLine
 10
1424.1033403763
 20
170.5846417294
 30
0.0
 11
1424.1033403763
 21
129.7846417294
 31
0.0
  0
LINE
  5
1B0
100
AcDbEntity
  8
L1_105
  6
CONTINUOUS
 62
         7
100
AcDbLine
 10
1426.1033403763
 20
170.5846417294
 30
0.0
 11
1426.2033403763
 21
170.6846417294
 31
0.0
  0
LINE
  5
1B1
100
AcDbEntity
  8
L1_105
  6
CONTINUOUS
 62
         7
100
AcDbLine
 10
1440.2373149725
 20
170.6846417294
 30
0.0
 11
1426.2033403763
 21
170.6846417294
 31
0.0
  0
LINE
  5
1B2
100
AcDbEntity
  8
L1_105
  6
CONTINUOUS
 62
         7
100
AcDbLine
 10
1424.0033403763
 20
170.6846417294
 30
0.0
 11
1424.1033403763
 21
170.5846417294
 31
0.0
  0
LINE
  5
1B3
100
AcDbEntity
  8
L1_105
  6
CONTINUOUS
 62
         7
100
AcDbLine
 10
1424.0033403763
 20
170.6846417294
 30
0.0
 11
1394.6033403763
 21
170.6846417294
 31
0.0
  0
ARC
  5
1B4
100
AcDbEntity
  8
L1_105
  6
CONTINUOUS
 62
         7
100
AcDbCircle
 10
1391.6033403763
 20
128.1846417294
 30
0.0
 40
0.5
100
AcDbArc
 50
270.0
 51
360.0
  0
ARC
  5
1B5
100
AcDbEntity
  8
L1_105
  6
CONTINUOUS
 62
         7
100
AcDbCircle
 10
1391.6033403763
 20
172.1846417294
 30
0.0
 40
0.5
100
AcDbArc
 50
0.0
 51
90.0
  0
LINE
  5
1B6
100
AcDbEntity
  8
L1_105
  6
CONTINUOUS
 62
         4
100
AcDbLine
 10
1394.6033403763
 20
129.6846417294
 30
0.0
 11
1394.6033403763
 21
170.6846417294
 31
0.0
  0
LINE
  5
1B7
100
AcDbEntity
  8
L1_105
  6
CENTER
 62
         1
100
AcDbLine
 10
1400.5083403763
 20
145.1846417294
 30
0.0
 11
1400.5083403763
 21
155.0346417294
 31
0.0
  0
LINE
  5
1B8
100
AcDbEntity
  8
L1_105
  6
CENTER
 62
         1
100
AcDbLine
 10
1415.5082741959
 20
145.1846417294
 30
0.0
 11
1415.5082741959
 21
155.0346417294
 31
0.0
  0
DIMENSION
  5
1BB
100
AcDbEntity
  8
L1_105
  6
CONTINUOUS
 62
         4
100
AcDbDimension
  2
*D1
 10
1492.6526483081
 20
172.6846417294
 30
0.0
 11
1489.5206483081
 21
144.1273538612
 31
0.0
  3
DIMSTYLE1
100
AcDbAlignedDimension
 13
1391.1033403763
 23
172.6846417294
 33
0.0
 14
1391.1033403763
 24
127.6846417294
 34
0.0
 50
90.0
100
AcDbRotatedDimension
  0
LINE
  5
1C7
100
AcDbEntity
  8
L1_105
  6
CONTINUOUS
 62
         7
100
AcDbLine
 10
1445.1033403763
 20
132.7619919986
 30
0.0
 11
1445.1033403763
 21
167.6072914602
 31
0.0
  0
LINE
  5
1C8
100
AcDbEntity
  8
L1_105
  6
CONTINUOUS
 62
         7
100
AcDbLine
 10
1426.1033403763
 20
130.6846417294
 30
0.0
 11
1424.1033403763
 21
130.6846417294
 31
0.0
  0
LINE
  5
1C9
100
AcDbEntity
  8
L1_105
  6
CONTINUOUS
 62
         7
100
AcDbLine
 10
1426.1033403763
 20
169.6846417294
 30
0.0
 11
1424.1033403763
 21
169.6846417294
 31
0.0
  0
LINE
  5
1CA
100
AcDbEntity
  8
L1_105
  6
CONTINUOUS
 62
         7
100
AcDbLine
 10
1392.1033403763
 20
129.7492168605
 30
0.0
 11
1392.1033403763
 21
170.6200665983
 31
0.0
  0
LINE
  5
1CB
100
AcDbEntity
  8
L1_105
  6
CONTINUOUS
 62
         7
100
AcDbLine
 10
1391.6033403763
 20
172.6846417294
 30
0.0
 11
1361.1033403763
 21
172.6846417294
 31
0.0
  0
LINE
  5
1CC
100
AcDbEntity
  8
L1_105
  6
CONTINUOUS
 62
         7
100
AcDbLine
 10
1391.6033403763
 20
127.6846417294
 30
0.0
 11
1361.1033403763
 21
127.6846417294
 31
0.0
  0
ARC
  5
1CD
100
AcDbEntity
  8
L1_105
  6
CONTINUOUS
 62
         7
100
AcDbCircle
 10
1440.2373149725
 20
131.6846417294
 30
0.0
 40
2.0
100
AcDbArc
 50
269.9999999999
 51
300.0
  0
LINE
  5
1CE
100
AcDbEntity
  8
L1_105
  6
CONTINUOUS
 62
         7
100
AcDbLine
 10
1444.6033403763
 20
131.8959665948
 30
0.0
 11
1441.2373149725
 21
129.9525909218
 31
0.0
  0
ARC
  5
1CF
100
AcDbEntity
  8
L1_105
  6
CONTINUOUS
 62
         7
100
AcDbCircle
 10
1444.1033403763
 20
132.7619919986
 30
0.0
 40
1.0
100
AcDbArc
 50
300.0
 51
360.0
  0
ARC
  5
1D0
100
AcDbEntity
  8
L1_105
  6
CONTINUOUS
 62
         7
100
AcDbCircle
 10
1440.2373149725
 20
168.6846417294
 30
0.0
 40
2.0
100
AcDbArc
 50
60.0
 51
90.0000000001
  0
LINE
  5
1D1
100
AcDbEntity
  8
L1_105
  6
CONTINUOUS
 62
         7
100
AcDbLine
 10
1444.6033403763
 20
168.473316864
 30
0.0
 11
1441.2373149725
 21
170.416692537
 31
0.0
  0
ARC
  5
1D2
100
AcDbEntity
  8
L1_105
  6
CONTINUOUS
 62
         7
100
AcDbCircle
 10
1444.1033403763
 20
167.6072914602
 30
0.0
 40
1.0
100
AcDbArc
 50
0.0
 51
60.0
  0
DIMENSION
  5
1D5
100
AcDbEntity
  8
L1_105
  6
CONTINUOUS
 62
         4
100
AcDbDimension
  2
*D2
 10
1465.5367069289
 20
168.1846417294
 30
0.0
 11
1462.4047069289
 21
142.3329165641
 31
0.0
  3
DIMSTYLE1
100
AcDbAlignedDimension
 13
1445.1033403763
 23
168.1846417294
 33
0.0
 14
1445.1033403763
 24
132.1846417294
 34
0.0
 50
90.0
100
AcDbRotatedDimension
  0
LINE
  5
1E1
100
AcDbEntity
  8
L1_105
  6
CONTINUOUS
 62
         7
100
AcDbLine
 10
1393.8042692157
 20
170.4846417294
 30
0.0
 11
1392.4033403763
 21
170.4846417294
 31
0.0
  0
LINE
  5
1E2
100
AcDbEntity
  8
L1_105
  6
CONTINUOUS
 62
         7
100
AcDbLine
 10
1393.9077968337
 20
170.4982713989
 30
0.0
 11
1394.6033403763
 21
170.6846417294
 31
0.0
  0
ARC
  5
1E3
100
AcDbEntity
  8
L1_105
  6
CONTINUOUS
 62
         7
100
AcDbCircle
 10
1393.8042692157
 20
170.8846417294
 30
0.0
 40
0.4
100
AcDbArc
 50
270.0
 51
285.0
  0
LINE
  5
1E4
100
AcDbEntity
  8
L1_105
  6
CONTINUOUS
 62
         7
100
AcDbLine
 10
1395.2398320494
 20
170.6846417294
 30
0.0
 11
1394.6033403763
 21
170.6846417294
 31
0.0
  0
LINE
  5
1E5
100
AcDbEntity
  8
L1_105
  6
CONTINUOUS
 62
         7
100
AcDbLine
 10
1392.0034794587
 20
170.8740943799
 30
0.0
 11
1392.1033403763
 21
171.5846417294
 31
0.0
  0
ARC
  5
1E6
100
AcDbEntity
  8
L1_105
  6
CONTINUOUS
 62
         7
100
AcDbCircle
 10
1392.4033403763
 20
170.8846417294
 30
0.0
 40
0.4
100
AcDbArc
 50
181.5109716561
 51
270.0
  0
LINE
  5
1E7
100
AcDbEntity
  8
L1_105
  6
CONTINUOUS
 62
         7
100
AcDbLine
 10
1392.1033403763
 20
171.5846417294
 30
0.0
 11
1392.1033403763
 21
172.1846417294
 31
0.0
  0
LINE
  5
1E8
100
AcDbEntity
  8
L1_105
  6
CONTINUOUS
 62
         7
100
AcDbLine
 10
1393.8042692157
 20
129.8846417294
 30
0.0
 11
1392.4033403763
 21
129.8846417294
 31
0.0
  0
LINE
  5
1E9
100
AcDbEntity
  8
L1_105
  6
CONTINUOUS
 62
         7
100
AcDbLine
 10
1393.9077968337
 20
129.8710120599
 30
0.0
 11
1394.6033403763
 21
129.6846417294
 31
0.0
  0
ARC
  5
1EA
100
AcDbEntity
  8
L1_105
  6
CONTINUOUS
 62
         7
100
AcDbCircle
 10
1393.8042692157
 20
129.4846417294
 30
0.0
 40
0.4
100
AcDbArc
 50
75.0
 51
90.0
  0
LINE
  5
1EB
100
AcDbEntity
  8
L1_105
  6
CONTINUOUS
 62
         7
100
AcDbLine
 10
1395.2398320494
 20
129.6846417294
 30
0.0
 11
1394.6033403763
 21
129.6846417294
 31
0.0
  0
LINE
  5
1EC
100
AcDbEntity
  8
L1_105
  6
CONTINUOUS
 62
         7
100
AcDbLine
 10
1392.0034794587
 20
129.4951890789
 30
0.0
 11
1392.1033403763
 21
128.7846417294
 31
0.0
  0
ARC
  5
1ED
100
AcDbEntity
  8
L1_105
  6
CONTINUOUS
 62
         7
100
AcDbCircle
 10
1392.4033403763
 20
129.4846417294
 30
0.0
 40
0.4
100
AcDbArc
 50
90.0
 51
178.4890283439
  0
LINE
  5
1EE
100
AcDbEntity
  8
L1_105
  6
CONTINUOUS
 62
         7
100
AcDbLine
 10
1392.1033403763
 20
128.7846417294
 30
0.0
 11
1392.1033403763
 21
128.1846417294
 31
0.0
  0
CIRCLE
  5
1EF
100
AcDbEntity
  8
L1_105
  6
DASHED
 62
         2
100
AcDbCircle
 10
1563.2833403763
 20
150.1846417294
 30
0.0
 40
19.5
  0
CIRCLE
  5
1F0
100
AcDbEntity
  8
L1_105
  6
CONTINUOUS
 62
         7
100
AcDbCircle
 10
1563.2833403763
 20
150.1846417294
 30
0.0
 40
2.0
  0
ARC
  5
1F1
100
AcDbEntity
  8
L1_105
  6
CONTINUOUS
 62
         4
100
AcDbCircle
 10
1563.2833403763
 20
150.1846417294
 30
0.0
 40
3.0
100
AcDbArc
 50
270.0
 51
540.0
  0
CIRCLE
  5
1F2
100
AcDbEntity
  8
L1_105
  6
CONTINUOUS
 62
         7
100
AcDbCircle
 10
1563.2833403763
 20
150.1846417294
 30
0.0
 40
17.0
  0
CIRCLE
  5
1F3
100
AcDbEntity
  8
L1_105
  6
CONTINUOUS
 62
         7
100
AcDbCircle
 10
1563.2833403763
 20
150.1846417294
 30
0.0
 40
16.0
  0
CIRCLE
  5
1F4
100
AcDbEntity
  8
L1_105
  6
DASHED
 62
         2
100
AcDbCircle
 10
1563.2833403763
 20
150.1846417294
 30
0.0
 40
16.5
  0
CIRCLE
  5
1F5
100
AcDbEntity
  8
L1_105
  6
DASHED
 62
         2
100
AcDbCircle
 10
1563.2833403763
 20
150.1846417294
 30
0.0
 40
17.5
  0
LINE
  5
1F6
100
AcDbEntity
  8
L1_105
  6
CENTER
 62
         1
100
AcDbLine
 10
1563.2833403763
 20
150.1846417294
 30
0.0
 11
1576.9736141343
 21
126.4723920109
 31
0.0
  0
LINE
  5
1F7
100
AcDbEntity
  8
L1_105
  6
CENTER
 62
         1
100
AcDbLine
 10
1563.2833403763
 20
150.1846417294
 30
0.0
 11
1574.5333403763
 21
169.6702133145
 31
0.0
  0
LINE
  5
1F8
100
AcDbEntity
  8
L1_105
  6
CONTINUOUS
 62
         7
100
AcDbLine
 10
1379.1033403763
 20
-10.4433347407
 30
0.0
 11
1364.1020155108
 21
-10.4433347407
 31
0.0
  0
LINE
  5
1F9
100
AcDbEntity
  8
L1_105
  6
CONTINUOUS
 62
         7
100
AcDbLine
 10
1379.1033403763
 20
-15.4433347407
 30
0.0
 11
1364.1020155108
 21
-15.4433347407
 31
0.0
  0
DIMENSION
  5
1FC
100
AcDbEntity
  8
L1_105
  6
CONTINUOUS
 62
         4
100
AcDbDimension
  2
*D3
 10
1301.1933403763
 20
214.9053014795
 30
0.0
 11
1373.6674959614
 21
216.9303014795
 31
0.0
  3
DIMSTYLE1
100
AcDbAlignedDimension
 13
1301.1933403763
 23
161.3846417294
 33
0.0
 14
1445.1033403763
 24
150.1846417294
 34
0.0
100
AcDbRotatedDimension
  0
LINE
  5
208
100
AcDbEntity
  8
L1_105
  6
CONTINUOUS
 62
         7
100
AcDbLine
 10
1301.1933403763
 20
138.9846417294
 30
0.0
 11
1301.1933403763
 21
161.3846417294
 31
0.0
  0
LINE
  5
209
100
AcDbEntity
  8
L1_105
  6
CONTINUOUS
 62
         7
100
AcDbLine
 10
1359.1033403763
 20
129.6846417294
 30
0.0
 11
1359.1033403763
 21
170.6846417294
 31
0.0
  0
ARC
  5
20A
100
AcDbEntity
  8
L1_105
  6
CONTINUOUS
 62
         7
100
AcDbCircle
 10
1361.1033403763
 20
170.6846417294
 30
0.0
 40
2.0
100
AcDbArc
 50
90.0
 51
180.0
  0
ARC
  5
20B
100
AcDbEntity
  8
L1_105
  6
CONTINUOUS
 62
         7
100
AcDbCircle
 10
1361.1033403763
 20
129.6846417294
 30
0.0
 40
2.0
100
AcDbArc
 50
180.0
 51
270.0
  0
LINE
  5
20C
100
AcDbEntity
  8
L1_105
  6
CONTINUOUS
 62
         7
100
AcDbLine
 10
1359.1033403763
 20
-33.4433347407
 30
0.0
 11
1359.1033403763
 21
7.5566652593
 31
0.0
  0
ARC
  5
20D
100
AcDbEntity
  8
L1_105
  6
CONTINUOUS
 62
         7
100
AcDbCircle
 10
1361.1033403763
 20
7.5566652593
 30
0.0
 40
2.0
100
AcDbArc
 50
90.0
 51
180.0
  0
ARC
  5
20E
100
AcDbEntity
  8
L1_105
  6
CONTINUOUS
 62
         7
100
AcDbCircle
 10
1361.1033403763
 20
-33.4433347407
 30
0.0
 40
2.0
100
AcDbArc
 50
180.0
 51
270.0
  0
INSERT
  5
241
100
AcDbEntity
  8
0
  6
CONTINUOUS
100
AcDbBlockReference
  2
*X4
 10
0.0
 20
0.0
 30
0.0
  0
DIMENSION
  5
244
100
AcDbEntity
  8
L1_105
  6
CONTINUOUS
 62
         4
100
AcDbDimension
  2
*D5
 10
1445.1033403763
 20
197.3655506794
 30
0.0
 11
1413.8822124973
 21
200.4975506794
 31
0.0
  3
DIMSTYLE1
100
AcDbAlignedDimension
 13
1445.1033403763
 23
167.6072914602
 33
0.0
 14
1392.1033403763
 24
171.6846417294
 34
0.0
100
AcDbRotatedDimension
  0
DIMENSION
  5
252
100
AcDbEntity
  8
L1_105
  6
CONTINUOUS
 62
         4
100
AcDbDimension
  2
*D6
 10
1445.1033403763
 20
188.6190865438
 30
0.0
 11
1426.8693865168
 21
191.7510865438
 31
0.0
  3
DIMSTYLE1
100
AcDbAlignedDimension
 13
1445.1033403763
 23
167.6072914602
 33
0.0
 14
1424.1033403763
 24
170.6846417294
 34
0.0
100
AcDbRotatedDimension
  0
DIMENSION
  5
260
100
AcDbEntity
  8
L1_105
  6
CONTINUOUS
 62
         4
100
AcDbDimension
  2
*D7
 10
1424.1033403763
 20
180.137666776
 30
0.0
 11
1428.2193865168
 21
183.269666776
 31
0.0
  3
DIMSTYLE1
100
AcDbAlignedDimension
 13
1424.1033403763
 23
170.6846417294
 33
0.0
 14
1426.1033403763
 24
170.6846417294
 34
0.0
100
AcDbRotatedDimension
  0
DIMENSION
  5
270
100
AcDbEntity
  8
L1_105
  6
CONTINUOUS
 62
         4
100
AcDbDimension
  2
*D8
 10
1415.5082741959
 20
115.714967216
 30
0.0
 11
1424.6808072861
 21
118.846967216
 31
0.0
  3
DIMSTYLE1
100
AcDbAlignedDimension
 13
1415.5082741959
 23
145.2146417294
 33
0.0
 14
1445.1033403763
 24
132.7619919986
 34
0.0
100
AcDbRotatedDimension
  0
DIMENSION
  5
27E
100
AcDbEntity
  8
L1_105
  6
CONTINUOUS
 62
         4
100
AcDbDimension
  2
*D9
 10
1474.7880281053
 20
169.6846417294
 30
0.0
 11
1471.6560281053
 21
140.3473538612
 31
0.0
  3
DIMSTYLE1
100
AcDbAlignedDimension
 13
1426.1033403763
 23
169.6846417294
 33
0.0
 14
1426.1033403763
 24
130.6846417294
 34
0.0
 50
90.0
100
AcDbRotatedDimension
  0
DIMENSION
  5
28C
100
AcDbEntity
  8
L1_105
  6
CONTINUOUS
 62
         4
100
AcDbDimension
  2
*D10
 10
1484.0393492817
 20
170.6846417294
 30
0.0
 11
1480.9073492817
 21
139.2528174198
 31
0.0
  3
DIMSTYLE1
100
AcDbAlignedDimension
 13
1439.3712895687
 23
170.6846417294
 33
0.0
 14
1439.3712895687
 24
129.6846417294
 34
0.0
 50
90.0
100
AcDbRotatedDimension
  0
LINE
  5
298
100
AcDbEntity
  8
L1_105
  6
CONTINUOUS
 62
         7
100
AcDbLine
 10
1420.1033403763
 20
-25.5806430779
 30
0.0
 11
1420.1033403763
 21
4.5566652593
 31
0.0
  0
DIMENSION
  5
29B
100
AcDbEntity
  8
L1_105
  6
CONTINUOUS
 62
         4
100
AcDbDimension
  2
*D11
 10
1395.7083403763
 20
14.1917360085
 30
0.0
 11
1397.1425313366
 21
17.3237360085
 31
0.0
  3
DIMSTYLE1
100
AcDbAlignedDimension
 13
1395.7083403763
 23
7.5566652593
 33
0.0
 14
1420.3082741959
 24
7.5566652593
 34
0.0
100
AcDbRotatedDimension
  0
LINE
  5
2A7
100
AcDbEntity
  8
L1_105
  6
CONTINUOUS
 62
         4
100
AcDbLine
 10
1585.5012659414
 20
64.4872179209
 30
0.0
 11
1585.5012659414
 21
83.2872179209
 31
0.0
  0
LINE
  5
2A8
100
AcDbEntity
  8
L1_105
  6
CONTINUOUS
 62
         4
100
AcDbLine
 10
1575.3012659414
 20
66.3872179209
 30
0.0
 11
1575.3012659414
 21
81.3872179209
 31
0.0
  0
LINE
  5
2A9
100
AcDbEntity
  8
L1_105
  6
CONTINUOUS
 62
         7
100
AcDbLine
 10
1585.3012659414
 20
64.6872179209
 30
0.0
 11
1585.5012659414
 21
64.4872179209
 31
0.0
  0
LINE
  5
2AA
100
AcDbEntity
  8
L1_105
  6
CONTINUOUS
 62
         7
100
AcDbLine
 10
1585.3012659414
 20
83.0872179209
 30
0.0
 11
1585.5012659414
 21
83.2872179209
 31
0.0
  0
LINE
  5
2AB
100
AcDbEntity
  8
L1_105
  6
CONTINUOUS
 62
         7
100
AcDbLine
 10
1574.8012659414
 20
66.8872179209
 30
0.0
 11
1575.3012659414
 21
66.3872179209
 31
0.0
  0
LINE
  5
2AC
100
AcDbEntity
  8
L1_105
  6
CONTINUOUS
 62
         7
100
AcDbLine
 10
1574.8012659414
 20
80.8872179209
 30
0.0
 11
1575.3012659414
 21
81.3872179209
 31
0.0
  0
LINE
  5
2AD
100
AcDbEntity
  8
L1_105
  6
CONTINUOUS
 62
         4
100
AcDbLine
 10
1584.8012659414
 20
81.3872179209
 30
0.0
 11
1584.8012659414
 21
66.3872179209
 31
0.0
  0
LINE
  5
2AE
100
AcDbEntity
  8
L1_105
  6
CONTINUOUS
 62
         4
100
AcDbLine
 10
1589.8012659414
 20
83.2872179209
 30
0.0
 11
1589.8012659414
 21
64.4872179209
 31
0.0
  0
LINE
  5
2AF
100
AcDbEntity
  8
L1_105
  6
CONTINUOUS
 62
         7
100
AcDbLine
 10
1590.3012659414
 20
64.9872179209
 30
0.0
 11
1589.8012659414
 21
64.4872179209
 31
0.0
  0
LINE
  5
2B0
100
AcDbEntity
  8
L1_105
  6
CONTINUOUS
 62
         7
100
AcDbLine
 10
1589.8012659414
 20
64.4872179209
 30
0.0
 11
1585.5012659414
 21
64.4872179209
 31
0.0
  0
LINE
  5
2B1
100
AcDbEntity
  8
L1_105
  6
CONTINUOUS
 62
         7
100
AcDbLine
 10
1590.3012659414
 20
64.9872179209
 30
0.0
 11
1590.3012659414
 21
82.7872179209
 31
0.0
  0
LINE
  5
2B2
100
AcDbEntity
  8
L1_105
  6
CONTINUOUS
 62
         7
100
AcDbLine
 10
1589.8012659414
 20
83.2872179209
 30
0.0
 11
1590.3012659414
 21
82.7872179209
 31
0.0
  0
LINE
  5
2B3
100
AcDbEntity
  8
L1_105
  6
CONTINUOUS
 62
         7
100
AcDbLine
 10
1589.8012659414
 20
83.2872179209
 30
0.0
 11
1585.5012659414
 21
83.2872179209
 31
0.0
  0
ARC
  5
2B4
100
AcDbEntity
  8
L1_105
  6
CONTINUOUS
 62
         7
100
AcDbCircle
 10
1584.8012659414
 20
65.8872179209
 30
0.0
 40
0.5
100
AcDbArc
 50
0.0
 51
90.0
  0
LINE
  5
2B5
100
AcDbEntity
  8
L1_105
  6
CONTINUOUS
 62
         7
100
AcDbLine
 10
1584.8012659414
 20
66.3872179209
 30
0.0
 11
1575.3012659414
 21
66.3872179209
 31
0.0
  0
LINE
  5
2B6
100
AcDbEntity
  8
L1_105
  6
CONTINUOUS
 62
         7
100
AcDbLine
 10
1584.8012659414
 20
81.3872179209
 30
0.0
 11
1575.3012659414
 21
81.3872179209
 31
0.0
  0
LINE
  5
2B7
100
AcDbEntity
  8
L1_105
  6
CONTINUOUS
 62
         7
100
AcDbLine
 10
1585.3012659414
 20
64.6872179209
 30
0.0
 11
1585.3012659414
 21
83.0872179209
 31
0.0
  0
ARC
  5
2B8
100
AcDbEntity
  8
L1_105
  6
CONTINUOUS
 62
         7
100
AcDbCircle
 10
1584.8012659414
 20
81.8872179209
 30
0.0
 40
0.5
100
AcDbArc
 50
270.0
 51
360.0
  0
LINE
  5
2B9
100
AcDbEntity
  8
L1_105
  6
CONTINUOUS
 62
         7
100
AcDbLine
 10
1574.8012659414
 20
66.8872179209
 30
0.0
 11
1574.8012659414
 21
80.8872179209
 31
0.0
  0
DIMENSION
  5
2BC
100
AcDbEntity
  8
L1_105
  6
CONTINUOUS
 62
         4
100
AcDbDimension
  2
*D12
 10
1590.3012659414
 20
85.8608563818
 30
0.0
 11
1577.3036222668
 21
87.8858563818
 31
0.0
  3
DIMSTYLE1
100
AcDbAlignedDimension
 13
1590.3012659414
 23
82.7872179209
 33
0.0
 14
1574.8012659414
 24
81.2872179209
 34
0.0
100
AcDbRotatedDimension
  0
DIMENSION
  5
2CA
100
AcDbEntity
  8
L1_105
  6
CONTINUOUS
 62
         4
100
AcDbDimension
  2
*D13
 10
1596.9961697435
 20
83.2872179209
 30
0.0
 11
1594.9711697435
 21
65.7333698022
 31
0.0
  3
DIMSTYLE1
100
AcDbAlignedDimension
 13
1589.8012659414
 23
83.2872179209
 33
0.0
 14
1589.8012659414
 24
64.4872179209
 34
0.0
 50
90.0
100
AcDbRotatedDimension
  0
DIMENSION
  5
2D8
100
AcDbEntity
  8
L1_105
  6
CONTINUOUS
 62
         4
100
AcDbDimension
  2
*D14
 10
1573.0411626588
 20
81.3872179209
 30
0.0
 11
1571.0161626588
 21
67.9365153964
 31
0.0
  3
DIMSTYLE1
100
AcDbAlignedDimension
 13
1574.9012659414
 23
81.3872179209
 33
0.0
 14
1574.9012659414
 24
66.3872179209
 34
0.0
 50
90.0
100
AcDbRotatedDimension
  0
LINE
  5
2E4
100
AcDbEntity
  8
L1_105
  6
CONTINUOUS
 62
         4
100
AcDbLine
 10
1549.1692151338
 20
51.4603518329
 30
0.0
 11
1549.1692151338
 21
96.3140840089
 31
0.0
  0
ARC
  5
2E5
100
AcDbEntity
  8
L1_105
  6
CONTINUOUS
 62
         7
100
AcDbCircle
 10
1548.6333167489
 20
53.3872179209
 30
0.0
 40
2.0
100
AcDbArc
 50
270.0
 51
300.0
  0
LINE
  5
2E6
100
AcDbEntity
  8
L1_105
  6
CONTINUOUS
 62
         7
100
AcDbLine
 10
1549.6333167489
 20
51.6551671133
 30
0.0
 11
1550.6512659414
 21
52.2428803536
 31
0.0
  0
ARC
  5
2E7
100
AcDbEntity
  8
L1_105
  6
CONTINUOUS
 62
         7
100
AcDbCircle
 10
1550.4012659414
 20
52.6758930555
 30
0.0
 40
0.5
100
AcDbArc
 50
300.0
 51
360.0
  0
ARC
  5
2E8
100
AcDbEntity
  8
L1_105
  6
CONTINUOUS
 62
         7
100
AcDbCircle
 10
1550.4012659414
 20
95.0985427863
 30
0.0
 40
0.5
100
AcDbArc
 50
0.0
 51
60.0
  0
LINE
  5
2E9
100
AcDbEntity
  8
L1_105
  6
CONTINUOUS
 62
         7
100
AcDbLine
 10
1549.6333167489
 20
96.1192687285
 30
0.0
 11
1550.6512659414
 21
95.5315554882
 31
0.0
  0
ARC
  5
2EA
100
AcDbEntity
  8
L1_105
  6
CONTINUOUS
 62
         7
100
AcDbCircle
 10
1548.6333167489
 20
94.3872179209
 30
0.0
 40
2.0
100
AcDbArc
 50
60.0
 51
90.0
  0
LINE
  5
2EB
100
AcDbEntity
  8
L1_105
  6
CONTINUOUS
 62
         4
100
AcDbLine
 10
1519.4012659414
 20
96.3872179209
 30
0.0
 11
1519.4012659414
 21
51.3872179209
 31
0.0
  0
LINE
  5
2EC
100
AcDbEntity
  8
L1_105
  6
CONTINUOUS
 62
         7
100
AcDbLine
 10
1518.9012659414
 20
51.8872179209
 30
0.0
 11
1519.4012659414
 21
51.3872179209
 31
0.0
  0
LINE
  5
2ED
100
AcDbEntity
  8
L1_105
  6
CONTINUOUS
 62
         7
100
AcDbLine
 10
1548.6333167489
 20
51.3872179209
 30
0.0
 11
1519.4012659414
 21
51.3872179209
 31
0.0
  0
LINE
  5
2EE
100
AcDbEntity
  8
L1_105
  6
CONTINUOUS
 62
         7
100
AcDbLine
 10
1518.9012659414
 20
51.8872179209
 30
0.0
 11
1518.9012659414
 21
95.8872179209
 31
0.0
  0
LINE
  5
2EF
100
AcDbEntity
  8
L1_105
  6
CONTINUOUS
 62
         7
100
AcDbLine
 10
1518.9012659414
 20
95.8872179209
 30
0.0
 11
1519.4012659414
 21
96.3872179209
 31
0.0
  0
LINE
  5
2F0
100
AcDbEntity
  8
L1_105
  6
CONTINUOUS
 62
         7
100
AcDbLine
 10
1548.6333167489
 20
96.3872179209
 30
0.0
 11
1519.4012659414
 21
96.3872179209
 31
0.0
  0
LINE
  5
2F1
100
AcDbEntity
  8
L1_105
  6
CONTINUOUS
 62
         7
100
AcDbLine
 10
1550.9012659414
 20
52.6758930555
 30
0.0
 11
1550.9012659414
 21
95.0985427863
 31
0.0
  0
DIMENSION
  5
2F4
100
AcDbEntity
  8
L1_105
  6
CONTINUOUS
 62
         4
100
AcDbDimension
  2
*D15
 10
1518.9012659414
 20
99.3775292973
 30
0.0
 11
1532.9034903879
 21
101.4025292973
 31
0.0
  3
DIMSTYLE1
100
AcDbAlignedDimension
 13
1518.9012659414
 23
95.8872179209
 33
0.0
 14
1550.9012659414
 24
95.0985427863
 34
0.0
100
AcDbRotatedDimension
  0
DIMENSION
  5
302
100
AcDbEntity
  8
L1_105
  6
CONTINUOUS
 62
         4
100
AcDbDimension
  2
*D16
 10
1557.8242796636
 20
96.3872179209
 30
0.0
 11
1555.7992796636
 21
68.583514695
 31
0.0
  3
DIMSTYLE1
100
AcDbAlignedDimension
 13
1547.7672913452
 23
96.3872179209
 33
0.0
 14
1547.7672913452
 24
51.3872179209
 34
0.0
 50
90.0
100
AcDbRotatedDimension
  0
ARC
  5
30E
100
AcDbEntity
  8
L1_105
  6
CONTINUOUS
 62
         7
100
AcDbCircle
 10
1620.1352405376
 20
58.3872179209
 30
0.0
 40
0.5
100
AcDbArc
 50
240.0
 51
270.0
  0
ARC
  5
30F
100
AcDbEntity
  8
L1_105
  6
CONTINUOUS
 62
         7
100
AcDbCircle
 10
1618.0012659414
 20
59.6192687285
 30
0.0
 40
0.5
100
AcDbArc
 50
180.0
 51
240.0
  0
ARC
  5
310
100
AcDbEntity
  8
L1_105
  6
CONTINUOUS
 62
         7
100
AcDbCircle
 10
1618.0012659414
 20
88.1551671133
 30
0.0
 40
0.5
100
AcDbArc
 50
120.0
 51
180.0
  0
ARC
  5
311
100
AcDbEntity
  8
L1_105
  6
CONTINUOUS
 62
         7
100
AcDbCircle
 10
1620.1352405376
 20
89.3872179209
 30
0.0
 40
0.5
100
AcDbArc
 50
90.0
 51
120.0
  0
LINE
  5
312
100
AcDbEntity
  8
L1_105
  6
CONTINUOUS
 62
         7
100
AcDbLine
 10
1617.7512659414
 20
59.1862560266
 30
0.0
 11
1619.8852405376
 21
57.954205219
 31
0.0
  0
LINE
  5
313
100
AcDbEntity
  8
L1_105
  6
CONTINUOUS
 62
         7
100
AcDbLine
 10
1617.7512659414
 20
88.5881798152
 30
0.0
 11
1619.8852405376
 21
89.8202306228
 31
0.0
  0
LINE
  5
314
100
AcDbEntity
  8
L1_105
  6
CONTINUOUS
 62
         4
100
AcDbLine
 10
1620.0012659414
 20
57.8872179209
 30
0.0
 11
1620.0012659414
 21
89.8872179209
 31
0.0
  0
LINE
  5
315
100
AcDbEntity
  8
L1_105
  6
CONTINUOUS
 62
         7
100
AcDbLine
 10
1643.6008790013
 20
70.8872179209
 30
0.0
 11
1630.7046553748
 21
70.8872179209
 31
0.0
  0
LINE
  5
316
100
AcDbEntity
  8
L1_105
  6
CONTINUOUS
 62
         7
100
AcDbLine
 10
1643.6008790013
 20
76.8872179209
 30
0.0
 11
1630.7046553748
 21
76.8872179209
 31
0.0
  0
LINE
  5
317
100
AcDbEntity
  8
L1_105
  6
CONTINUOUS
 62
         4
100
AcDbLine
 10
1663.5012659414
 20
61.1872179209
 30
0.0
 11
1663.5012659414
 21
86.5872179209
 31
0.0
  0
ARC
  5
318
100
AcDbEntity
  8
L1_105
  6
CONTINUOUS
 62
         7
100
AcDbCircle
 10
1660.0012659414
 20
58.8872179209
 30
0.0
 40
1.0
100
AcDbArc
 50
270.0
 51
360.0
  0
ARC
  5
319
100
AcDbEntity
  8
L1_105
  6
CONTINUOUS
 62
         7
100
AcDbCircle
 10
1660.0012659414
 20
88.8872179209
 30
0.0
 40
1.0
100
AcDbArc
 50
0.0
 51
90.0
  0
LINE
  5
31A
100
AcDbEntity
  8
L1_105
  6
CENTER
 62
         1
100
AcDbLine
 10
1643.6008790013
 20
68.0361561243
 30
0.0
 11
1643.6008790013
 21
80.5572055209
 31
0.0
  0
LINE
  5
31B
100
AcDbEntity
  8
L1_105
  6
CENTER
 62
         1
100
AcDbLine
 10
1630.7046553748
 20
68.0361561243
 30
0.0
 11
1630.7046553748
 21
80.5572055209
 31
0.0
  0
LINE
  5
31C
100
AcDbEntity
  8
L1_105
  6
CENTER
 62
         1
100
AcDbLine
 10
1668.8012659414
 20
56.2117582463
 30
0.0
 11
1668.8012659414
 21
89.9280658189
 31
0.0
  0
LINE
  5
31D
100
AcDbEntity
  8
L1_105
  6
CENTER
 62
         1
100
AcDbLine
 10
1675.2012659414
 20
66.4153776433
 30
0.0
 11
1675.2012659414
 21
80.1680820479
 31
0.0
  0
CIRCLE
  5
31E
100
AcDbEntity
  8
L1_105
  6
CONTINUOUS
 62
         7
100
AcDbCircle
 10
1675.2012659414
 20
73.8872179209
 30
0.0
 40
2.5
  0
POLYLINE
  5
320
100
AcDbEntity
  8
L1_105
  6
CONTINUOUS
 62
         7
100
AcDb2dPolyline
 66
         1
 10
0.0
 20
0.0
 30
0.0
 70
         2
  0
VERTEX
  5
322
100
AcDbEntity
  8
L1_105
  6
CONTINUOUS
 62
         7
100
AcDbVertex
100
AcDb2dVertex
 10
1666.8012659414
 20
62.7629201903
 30
0.0
 70
         1
  0
VERTEX
  5
324
100
AcDbEntity
  8
L1_105
  6
CONTINUOUS
 62
         7
100
AcDbVertex
100
AcDb2dVertex
 10
1666.846045401
 20
62.5524964284
 30
0.0
 70
         1
  0
VERTEX
  5
326
100
AcDbEntity
  8
L1_105
  6
CONTINUOUS
 62
         7
100
AcDbVertex
100
AcDb2dVertex
 10
1666.8953393882
 20
62.4598344046
 30
0.0
 70
         1
  0
VERTEX
  5
328
100
AcDbEntity
  8
L1_105
  6
CONTINUOUS
 62
         7
100
AcDbVertex
100
AcDb2dVertex
 10
1666.9643032023
 20
62.3674559393
 30
0.0
 70
         1
  0
VERTEX
  5
32A
100
AcDbEntity
  8
L1_105
  6
CONTINUOUS
 62
         7
100
AcDbVertex
100
AcDb2dVertex
 10
1667.0533075458
 20
62.2769568564
 30
0.0
 70
         1
  0
VERTEX
  5
32C
100
AcDbEntity
  8
L1_105
  6
CONTINUOUS
 62
         7
100
AcDbVertex
100
AcDb2dVertex
 10
1667.1620355112
 20
62.1900057994
 30
0.0
 70
         1
  0
VERTEX
  5
32E
100
AcDbEntity
  8
L1_105
  6
CONTINUOUS
 62
         7
100
AcDbVertex
100
AcDb2dVertex
 10
1667.2894355054
 20
62.1082506681
 30
0.0
 70
         1
  0
VERTEX
  5
330
100
AcDbEntity
  8
L1_105
  6
CONTINUOUS
 62
         7
100
AcDbVertex
100
AcDb2dVertex
 10
1667.4337361116
 20
62.0332178255
 30
0.0
 70
         1
  0
VERTEX
  5
332
100
AcDbEntity
  8
L1_105
  6
CONTINUOUS
 62
         7
100
AcDbVertex
100
AcDb2dVertex
 10
1667.5925267102
 20
61.9662161249
 30
0.0
 70
         1
  0
VERTEX
  5
334
100
AcDbEntity
  8
L1_105
  6
CONTINUOUS
 62
         7
100
AcDbVertex
100
AcDb2dVertex
 10
1667.8234541003
 20
61.8905836721
 30
0.0
 70
         1
  0
VERTEX
  5
336
100
AcDbEntity
  8
L1_105
  6
CONTINUOUS
 62
         7
100
AcDbVertex
100
AcDb2dVertex
 10
1668.067377496
 20
61.8326772449
 30
0.0
 70
         1
  0
VERTEX
  5
338
100
AcDbEntity
  8
L1_105
  6
CONTINUOUS
 62
         7
100
AcDbVertex
100
AcDb2dVertex
 10
1668.3162783162
 20
61.792767238
 30
0.0
 70
         1
  0
VERTEX
  5
33A
100
AcDbEntity
  8
L1_105
  6
CONTINUOUS
 62
         7
100
AcDbVertex
100
AcDb2dVertex
 10
1668.6464690326
 20
61.7659199499
 30
0.0
 70
         1
  0
VERTEX
  5
33C
100
AcDbEntity
  8
L1_105
  6
CONTINUOUS
 62
         7
100
AcDbVertex
100
AcDb2dVertex
 10
1668.9579743244
 20
61.7659946059
 30
0.0
 70
         1
  0
VERTEX
  5
33E
100
AcDbEntity
  8
L1_105
  6
CONTINUOUS
 62
         7
100
AcDbVertex
100
AcDb2dVertex
 10
1669.2413112301
 20
61.7874254256
 30
0.0
 70
         1
  0
VERTEX
  5
340
100
AcDbEntity
  8
L1_105
  6
CONTINUOUS
 62
         7
100
AcDbVertex
100
AcDb2dVertex
 10
1669.4917564411
 20
61.8244076877
 30
0.0
 70
         1
  0
VERTEX
  5
342
100
AcDbEntity
  8
L1_105
  6
CONTINUOUS
 62
         7
100
AcDbVertex
100
AcDb2dVertex
 10
1669.7083420409
 20
61.871683276
 30
0.0
 70
         1
  0
VERTEX
  5
344
100
AcDbEntity
  8
L1_105
  6
CONTINUOUS
 62
         7
100
AcDbVertex
100
AcDb2dVertex
 10
1669.950254536
 20
61.9444116061
 30
0.0
 70
         1
  0
VERTEX
  5
346
100
AcDbEntity
  8
L1_105
  6
CONTINUOUS
 62
         7
100
AcDbVertex
100
AcDb2dVertex
 10
1670.1409170349
 20
62.0204016808
 30
0.0
 70
         1
  0
VERTEX
  5
348
100
AcDbEntity
  8
L1_105
  6
CONTINUOUS
 62
         7
100
AcDbVertex
100
AcDb2dVertex
 10
1670.28934421
 20
62.0947841513
 30
0.0
 70
         1
  0
VERTEX
  5
34A
100
AcDbEntity
  8
L1_105
  6
CONTINUOUS
 62
         7
100
AcDbVertex
100
AcDb2dVertex
 10
1670.4385026541
 20
62.1885823222
 30
0.0
 70
         1
  0
VERTEX
  5
34C
100
AcDbEntity
  8
L1_105
  6
CONTINUOUS
 62
         7
100
AcDbVertex
100
AcDb2dVertex
 10
1670.5432525823
 20
62.2716253341
 30
0.0
 70
         1
  0
VERTEX
  5
34E
100
AcDbEntity
  8
L1_105
  6
CONTINUOUS
 62
         7
100
AcDbVertex
100
AcDb2dVertex
 10
1670.6381083861
 20
62.3673162743
 30
0.0
 70
         1
  0
VERTEX
  5
350
100
AcDbEntity
  8
L1_105
  6
CONTINUOUS
 62
         7
100
AcDbVertex
100
AcDb2dVertex
 10
1670.7133146607
 20
62.4696329186
 30
0.0
 70
         1
  0
VERTEX
  5
352
100
AcDbEntity
  8
L1_105
  6
CONTINUOUS
 62
         7
100
AcDbVertex
100
AcDb2dVertex
 10
1670.7633261369
 20
62.5690647098
 30
0.0
 70
         1
  0
VERTEX
  5
354
100
AcDbEntity
  8
L1_105
  6
CONTINUOUS
 62
         7
100
AcDbVertex
100
AcDb2dVertex
 10
1670.7946903547
 20
62.6818968784
 30
0.0
 70
         1
  0
VERTEX
  5
356
100
AcDbEntity
  8
L1_105
  6
CONTINUOUS
 62
         7
100
AcDbVertex
100
AcDb2dVertex
 10
1670.8012659414
 20
62.7629201903
 30
0.0
 70
         1
  0
VERTEX
  5
358
100
AcDbEntity
  8
L1_105
  6
CONTINUOUS
 62
         7
100
AcDbVertex
100
AcDb2dVertex
 10
1670.8012659414
 20
62.7629201903
 30
0.0
 70
         1
  0
VERTEX
  5
35A
100
AcDbEntity
  8
L1_105
  6
CONTINUOUS
 62
         7
100
AcDbVertex
100
AcDb2dVertex
 10
1670.7564864818
 20
62.9733439522
 30
0.0
 70
         1
  0
VERTEX
  5
35C
100
AcDbEntity
  8
L1_105
  6
CONTINUOUS
 62
         7
100
AcDbVertex
100
AcDb2dVertex
 10
1670.7071924945
 20
63.0660059759
 30
0.0
 70
         1
  0
VERTEX
  5
35E
100
AcDbEntity
  8
L1_105
  6
CONTINUOUS
 62
         7
100
AcDbVertex
100
AcDb2dVertex
 10
1670.6382286805
 20
63.1583844412
 30
0.0
 70
         1
  0
VERTEX
  5
360
100
AcDbEntity
  8
L1_105
  6
CONTINUOUS
 62
         7
100
AcDbVertex
100
AcDb2dVertex
 10
1670.5492243369
 20
63.2488835241
 30
0.0
 70
         1
  0
VERTEX
  5
362
100
AcDbEntity
  8
L1_105
  6
CONTINUOUS
 62
         7
100
AcDbVertex
100
AcDb2dVertex
 10
1670.4404963715
 20
63.3358345811
 30
0.0
 70
         1
  0
VERTEX
  5
364
100
AcDbEntity
  8
L1_105
  6
CONTINUOUS
 62
         7
100
AcDbVertex
100
AcDb2dVertex
 10
1670.3130963773
 20
63.4175897124
 30
0.0
 70
         1
  0
VERTEX
  5
366
100
AcDbEntity
  8
L1_105
  6
CONTINUOUS
 62
         7
100
AcDbVertex
100
AcDb2dVertex
 10
1670.1687957712
 20
63.492622555
 30
0.0
 70
         1
  0
VERTEX
  5
368
100
AcDbEntity
  8
L1_105
  6
CONTINUOUS
 62
         7
100
AcDbVertex
100
AcDb2dVertex
 10
1670.0100051725
 20
63.5596242556
 30
0.0
 70
         1
  0
VERTEX
  5
36A
100
AcDbEntity
  8
L1_105
  6
CONTINUOUS
 62
         7
100
AcDbVertex
100
AcDb2dVertex
 10
1669.7790777824
 20
63.6352567084
 30
0.0
 70
         1
  0
VERTEX
  5
36C
100
AcDbEntity
  8
L1_105
  6
CONTINUOUS
 62
         7
100
AcDbVertex
100
AcDb2dVertex
 10
1669.5351543868
 20
63.6931631356
 30
0.0
 70
         1
  0
VERTEX
  5
36E
100
AcDbEntity
  8
L1_105
  6
CONTINUOUS
 62
         7
100
AcDbVertex
100
AcDb2dVertex
 10
1669.2862535666
 20
63.7330731426
 30
0.0
 70
         1
  0
VERTEX
  5
370
100
AcDbEntity
  8
L1_105
  6
CONTINUOUS
 62
         7
100
AcDbVertex
100
AcDb2dVertex
 10
1668.9560628502
 20
63.7599204306
 30
0.0
 70
         1
  0
VERTEX
  5
372
100
AcDbEntity
  8
L1_105
  6
CONTINUOUS
 62
         7
100
AcDbVertex
100
AcDb2dVertex
 10
1668.6445575584
 20
63.7598457746
 30
0.0
 70
         1
  0
VERTEX
  5
374
100
AcDbEntity
  8
L1_105
  6
CONTINUOUS
 62
         7
100
AcDbVertex
100
AcDb2dVertex
 10
1668.3612206527
 20
63.738414955
 30
0.0
 70
         1
  0
VERTEX
  5
376
100
AcDbEntity
  8
L1_105
  6
CONTINUOUS
 62
         7
100
AcDbVertex
100
AcDb2dVertex
 10
1668.1107754416
 20
63.7014326928
 30
0.0
 70
         1
  0
VERTEX
  5
378
100
AcDbEntity
  8
L1_105
  6
CONTINUOUS
 62
         7
100
AcDbVertex
100
AcDb2dVertex
 10
1667.8941898419
 20
63.6541571046
 30
0.0
 70
         1
  0
VERTEX
  5
37A
100
AcDbEntity
  8
L1_105
  6
CONTINUOUS
 62
         7
100
AcDbVertex
100
AcDb2dVertex
 10
1667.6522773468
 20
63.5814287744
 30
0.0
 70
         1
  0
VERTEX
  5
37C
100
AcDbEntity
  8
L1_105
  6
CONTINUOUS
 62
         7
100
AcDbVertex
100
AcDb2dVertex
 10
1667.4616148478
 20
63.5054386997
 30
0.0
 70
         1
  0
VERTEX
  5
37E
100
AcDbEntity
  8
L1_105
  6
CONTINUOUS
 62
         7
100
AcDbVertex
100
AcDb2dVertex
 10
1667.3131876727
 20
63.4310562293
 30
0.0
 70
         1
  0
VERTEX
  5
380
100
AcDbEntity
  8
L1_105
  6
CONTINUOUS
 62
         7
100
AcDbVertex
100
AcDb2dVertex
 10
1667.1640292287
 20
63.3372580583
 30
0.0
 70
         1
  0
VERTEX
  5
382
100
AcDbEntity
  8
L1_105
  6
CONTINUOUS
 62
         7
100
AcDbVertex
100
AcDb2dVertex
 10
1667.0592793005
 20
63.2542150465
 30
0.0
 70
         1
  0
VERTEX
  5
384
100
AcDbEntity
  8
L1_105
  6
CONTINUOUS
 62
         7
100
AcDbVertex
100
AcDb2dVertex
 10
1666.9644234966
 20
63.1585241062
 30
0.0
 70
         1
  0
VERTEX
  5
386
100
AcDbEntity
  8
L1_105
  6
CONTINUOUS
 62
         7
100
AcDbVertex
100
AcDb2dVertex
 10
1666.8892172221
 20
63.0562074619
 30
0.0
 70
         1
  0
VERTEX
  5
388
100
AcDbEntity
  8
L1_105
  6
CONTINUOUS
 62
         7
100
AcDbVertex
100
AcDb2dVertex
 10
1666.8392057459
 20
62.9567756707
 30
0.0
 70
         1
  0
VERTEX
  5
38A
100
AcDbEntity
  8
L1_105
  6
CONTINUOUS
 62
         7
100
AcDbVertex
100
AcDb2dVertex
 10
1666.807841528
 20
62.8439435021
 30
0.0
 70
         1
  0
VERTEX
  5
38C
100
AcDbEntity
  8
L1_105
  6
CONTINUOUS
 62
         7
100
AcDbVertex
100
AcDb2dVertex
 10
1666.8012659414
 20
62.7629201903
 30
0.0
 70
         1
  0
SEQEND
  5
38E
100
AcDbEntity
  8
L1_105
  6
CONTINUOUS
 62
         7
  0
POLYLINE
  5
390
100
AcDbEntity
  8
L1_105
  6
CONTINUOUS
 62
         7
100
AcDb2dPolyline
 66
         1
 10
0.0
 20
0.0
 30
0.0
 70
         2
  0
VERTEX
  5
392
100
AcDbEntity
  8
L1_105
  6
CONTINUOUS
 62
         7
100
AcDbVertex
100
AcDb2dVertex
 10
1666.8012659414
 20
85.0115156515
 30
0.0
 70
         1
  0
VERTEX
  5
394
100
AcDbEntity
  8
L1_105
  6
CONTINUOUS
 62
         7
100
AcDbVertex
100
AcDb2dVertex
 10
1666.846045401
 20
84.8010918896
 30
0.0
 70
         1
  0
VERTEX
  5
396
100
AcDbEntity
  8
L1_105
  6
CONTINUOUS
 62
         7
100
AcDbVertex
100
AcDb2dVertex
 10
1666.8953393882
 20
84.7084298659
 30
0.0
 70
         1
  0
VERTEX
  5
398
100
AcDbEntity
  8
L1_105
  6
CONTINUOUS
 62
         7
100
AcDbVertex
100
AcDb2dVertex
 10
1666.9643032023
 20
84.6160514006
 30
0.0
 70
         1
  0
VERTEX
  5
39A
100
AcDbEntity
  8
L1_105
  6
CONTINUOUS
 62
         7
100
AcDbVertex
100
AcDb2dVertex
 10
1667.0533075458
 20
84.5255523177
 30
0.0
 70
         1
  0
VERTEX
  5
39C
100
AcDbEntity
  8
L1_105
  6
CONTINUOUS
 62
         7
100
AcDbVertex
100
AcDb2dVertex
 10
1667.1620355112
 20
84.4386012607
 30
0.0
 70
         1
  0
VERTEX
  5
39E
100
AcDbEntity
  8
L1_105
  6
CONTINUOUS
 62
         7
100
AcDbVertex
100
AcDb2dVertex
 10
1667.2894355054
 20
84.3568461294
 30
0.0
 70
         1
  0
VERTEX
  5
3A0
100
AcDbEntity
  8
L1_105
  6
CONTINUOUS
 62
         7
100
AcDbVertex
100
AcDb2dVertex
 10
1667.4337361116
 20
84.2818132868
 30
0.0
 70
         1
  0
VERTEX
  5
3A2
100
AcDbEntity
  8
L1_105
  6
CONTINUOUS
 62
         7
100
AcDbVertex
100
AcDb2dVertex
 10
1667.5925267102
 20
84.2148115862
 30
0.0
 70
         1
  0
VERTEX
  5
3A4
100
AcDbEntity
  8
L1_105
  6
CONTINUOUS
 62
         7
100
AcDbVertex
100
AcDb2dVertex
 10
1667.8234541003
 20
84.1391791334
 30
0.0
 70
         1
  0
VERTEX
  5
3A6
100
AcDbEntity
  8
L1_105
  6
CONTINUOUS
 62
         7
100
AcDbVertex
100
AcDb2dVertex
 10
1668.067377496
 20
84.0812727062
 30
0.0
 70
         1
  0
VERTEX
  5
3A8
100
AcDbEntity
  8
L1_105
  6
CONTINUOUS
 62
         7
100
AcDbVertex
100
AcDb2dVertex
 10
1668.3162783162
 20
84.0413626993
 30
0.0
 70
         1
  0
VERTEX
  5
3AA
100
AcDbEntity
  8
L1_105
  6
CONTINUOUS
 62
         7
100
AcDbVertex
100
AcDb2dVertex
 10
1668.6464690326
 20
84.0145154112
 30
0.0
 70
         1
  0
VERTEX
  5
3AC
100
AcDbEntity
  8
L1_105
  6
CONTINUOUS
 62
         7
100
AcDbVertex
100
AcDb2dVertex
 10
1668.9579743244
 20
84.0145900672
 30
0.0
 70
         1
  0
VERTEX
  5
3AE
100
AcDbEntity
  8
L1_105
  6
CONTINUOUS
 62
         7
100
AcDbVertex
100
AcDb2dVertex
 10
1669.2413112301
 20
84.0360208868
 30
0.0
 70
         1
  0
VERTEX
  5
3B0
100
AcDbEntity
  8
L1_105
  6
CONTINUOUS
 62
         7
100
AcDbVertex
100
AcDb2dVertex
 10
1669.4917564411
 20
84.073003149
 30
0.0
 70
         1
  0
VERTEX
  5
3B2
100
AcDbEntity
  8
L1_105
  6
CONTINUOUS
 62
         7
100
AcDbVertex
100
AcDb2dVertex
 10
1669.7083420409
 20
84.1202787372
 30
0.0
 70
         1
  0
VERTEX
  5
3B4
100
AcDbEntity
  8
L1_105
  6
CONTINUOUS
 62
         7
100
AcDbVertex
100
AcDb2dVertex
 10
1669.950254536
 20
84.1930070674
 30
0.0
 70
         1
  0
VERTEX
  5
3B6
100
AcDbEntity
  8
L1_105
  6
CONTINUOUS
 62
         7
100
AcDbVertex
100
AcDb2dVertex
 10
1670.1409170349
 20
84.2689971421
 30
0.0
 70
         1
  0
VERTEX
  5
3B8
100
AcDbEntity
  8
L1_105
  6
CONTINUOUS
 62
         7
100
AcDbVertex
100
AcDb2dVertex
 10
1670.28934421
 20
84.3433796125
 30
0.0
 70
         1
  0
VERTEX
  5
3BA
100
AcDbEntity
  8
L1_105
  6
CONTINUOUS
 62
         7
100
AcDbVertex
100
AcDb2dVertex
 10
1670.4385026541
 20
84.4371777835
 30
0.0
 70
         1
  0
VERTEX
  5
3BC
100
AcDbEntity
  8
L1_105
  6
CONTINUOUS
 62
         7
100
AcDbVertex
100
AcDb2dVertex
 10
1670.5432525823
 20
84.5202207953
 30
0.0
 70
         1
  0
VERTEX
  5
3BE
100
AcDbEntity
  8
L1_105
  6
CONTINUOUS
 62
         7
100
AcDbVertex
100
AcDb2dVertex
 10
1670.6381083861
 20
84.6159117356
 30
0.0
 70
         1
  0
VERTEX
  5
3C0
100
AcDbEntity
  8
L1_105
  6
CONTINUOUS
 62
         7
100
AcDbVertex
100
AcDb2dVertex
 10
1670.7133146607
 20
84.7182283799
 30
0.0
 70
         1
  0
VERTEX
  5
3C2
100
AcDbEntity
  8
L1_105
  6
CONTINUOUS
 62
         7
100
AcDbVertex
100
AcDb2dVertex
 10
1670.7633261369
 20
84.8176601711
 30
0.0
 70
         1
  0
VERTEX
  5
3C4
100
AcDbEntity
  8
L1_105
  6
CONTINUOUS
 62
         7
100
AcDbVertex
100
AcDb2dVertex
 10
1670.7946903547
 20
84.9304923397
 30
0.0
 70
         1
  0
VERTEX
  5
3C6
100
AcDbEntity
  8
L1_105
  6
CONTINUOUS
 62
         7
100
AcDbVertex
100
AcDb2dVertex
 10
1670.8012659414
 20
85.0115156515
 30
0.0
 70
         1
  0
VERTEX
  5
3C8
100
AcDbEntity
  8
L1_105
  6
CONTINUOUS
 62
         7
100
AcDbVertex
100
AcDb2dVertex
 10
1670.8012659414
 20
85.0115156515
 30
0.0
 70
         1
  0
VERTEX
  5
3CA
100
AcDbEntity
  8
L1_105
  6
CONTINUOUS
 62
         7
100
AcDbVertex
100
AcDb2dVertex
 10
1670.7564864818
 20
85.2219394135
 30
0.0
 70
         1
  0
VERTEX
  5
3CC
100
AcDbEntity
  8
L1_105
  6
CONTINUOUS
 62
         7
100
AcDbVertex
100
AcDb2dVertex
 10
1670.7071924945
 20
85.3146014372
 30
0.0
 70
         1
  0
VERTEX
  5
3CE
100
AcDbEntity
  8
L1_105
  6
CONTINUOUS
 62
         7
100
AcDbVertex
100
AcDb2dVertex
 10
1670.6382286805
 20
85.4069799025
 30
0.0
 70
         1
  0
VERTEX
  5
3D0
100
AcDbEntity
  8
L1_105
  6
CONTINUOUS
 62
         7
100
AcDbVertex
100
AcDb2dVertex
 10
1670.5492243369
 20
85.4974789854
 30
0.0
 70
         1
  0
VERTEX
  5
3D2
100
AcDbEntity
  8
L1_105
  6
CONTINUOUS
 62
         7
100
AcDbVertex
100
AcDb2dVertex
 10
1670.4404963715
 20
85.5844300424
 30
0.0
 70
         1
  0
VERTEX
  5
3D4
100
AcDbEntity
  8
L1_105
  6
CONTINUOUS
 62
         7
100
AcDbVertex
100
AcDb2dVertex
 10
1670.3130963773
 20
85.6661851737
 30
0.0
 70
         1
  0
VERTEX
  5
3D6
100
AcDbEntity
  8
L1_105
  6
CONTINUOUS
 62
         7
100
AcDbVertex
100
AcDb2dVertex
 10
1670.1687957712
 20
85.7412180163
 30
0.0
 70
         1
  0
VERTEX
  5
3D8
100
AcDbEntity
  8
L1_105
  6
CONTINUOUS
 62
         7
100
AcDbVertex
100
AcDb2dVertex
 10
1670.0100051725
 20
85.8082197169
 30
0.0
 70
         1
  0
VERTEX
  5
3DA
100
AcDbEntity
  8
L1_105
  6
CONTINUOUS
 62
         7
100
AcDbVertex
100
AcDb2dVertex
 10
1669.7790777824
 20
85.8838521697
 30
0.0
 70
         1
  0
VERTEX
  5
3DC
100
AcDbEntity
  8
L1_105
  6
CONTINUOUS
 62
         7
100
AcDbVertex
100
AcDb2dVertex
 10
1669.5351543868
 20
85.9417585969
 30
0.0
 70
         1
  0
VERTEX
  5
3DE
100
AcDbEntity
  8
L1_105
  6
CONTINUOUS
 62
         7
100
AcDbVertex
100
AcDb2dVertex
 10
1669.2862535666
 20
85.9816686038
 30
0.0
 70
         1
  0
VERTEX
  5
3E0
100
AcDbEntity
  8
L1_105
  6
CONTINUOUS
 62
         7
100
AcDbVertex
100
AcDb2dVertex
 10
1668.9560628502
 20
86.0085158919
 30
0.0
 70
         1
  0
VERTEX
  5
3E2
100
AcDbEntity
  8
L1_105
  6
CONTINUOUS
 62
         7
100
AcDbVertex
100
AcDb2dVertex
 10
1668.6445575584
 20
86.0084412359
 30
0.0
 70
         1
  0
VERTEX
  5
3E4
100
AcDbEntity
  8
L1_105
  6
CONTINUOUS
 62
         7
100
AcDbVertex
100
AcDb2dVertex
 10
1668.3612206527
 20
85.9870104163
 30
0.0
 70
         1
  0
VERTEX
  5
3E6
100
AcDbEntity
  8
L1_105
  6
CONTINUOUS
 62
         7
100
AcDbVertex
100
AcDb2dVertex
 10
1668.1107754416
 20
85.9500281541
 30
0.0
 70
         1
  0
VERTEX
  5
3E8
100
AcDbEntity
  8
L1_105
  6
CONTINUOUS
 62
         7
100
AcDbVertex
100
AcDb2dVertex
 10
1667.8941898419
 20
85.9027525659
 30
0.0
 70
         1
  0
VERTEX
  5
3EA
100
AcDbEntity
  8
L1_105
  6
CONTINUOUS
 62
         7
100
AcDbVertex
100
AcDb2dVertex
 10
1667.6522773468
 20
85.8300242357
 30
0.0
 70
         1
  0
VERTEX
  5
3EC
100
AcDbEntity
  8
L1_105
  6
CONTINUOUS
 62
         7
100
AcDbVertex
100
AcDb2dVertex
 10
1667.4616148478
 20
85.754034161
 30
0.0
 70
         1
  0
VERTEX
  5
3EE
100
AcDbEntity
  8
L1_105
  6
CONTINUOUS
 62
         7
100
AcDbVertex
100
AcDb2dVertex
 10
1667.3131876727
 20
85.6796516905
 30
0.0
 70
         1
  0
VERTEX
  5
3F0
100
AcDbEntity
  8
L1_105
  6
CONTINUOUS
 62
         7
100
AcDbVertex
100
AcDb2dVertex
 10
1667.1640292287
 20
85.5858535196
 30
0.0
 70
         1
  0
VERTEX
  5
3F2
100
AcDbEntity
  8
L1_105
  6
CONTINUOUS
 62
         7
100
AcDbVertex
100
AcDb2dVertex
 10
1667.0592793005
 20
85.5028105078
 30
0.0
 70
         1
  0
VERTEX
  5
3F4
100
AcDbEntity
  8
L1_105
  6
CONTINUOUS
 62
         7
100
AcDbVertex
100
AcDb2dVertex
 10
1666.9644234966
 20
85.4071195675
 30
0.0
 70
         1
  0
VERTEX
  5
3F6
100
AcDbEntity
  8
L1_105
  6
CONTINUOUS
 62
         7
100
AcDbVertex
100
AcDb2dVertex
 10
1666.8892172221
 20
85.3048029232
 30
0.0
 70
         1
  0
VERTEX
  5
3F8
100
AcDbEntity
  8
L1_105
  6
CONTINUOUS
 62
         7
100
AcDbVertex
100
AcDb2dVertex
 10
1666.8392057459
 20
85.205371132
 30
0.0
 70
         1
  0
VERTEX
  5
3FA
100
AcDbEntity
  8
L1_105
  6
CONTINUOUS
 62
         7
100
AcDbVertex
100
AcDb2dVertex
 10
1666.807841528
 20
85.0925389634
 30
0.0
 70
         1
  0
VERTEX
  5
3FC
100
AcDbEntity
  8
L1_105
  6
CONTINUOUS
 62
         7
100
AcDbVertex
100
AcDb2dVertex
 10
1666.8012659414
 20
85.0115156515
 30
0.0
 70
         1
  0
SEQEND
  5
3FE
100
AcDbEntity
  8
L1_105
  6
CONTINUOUS
 62
         7
  0
LINE
  5
3FF
100
AcDbEntity
  8
L1_105
  6
CONTINUOUS
 62
         7
100
AcDbLine
 10
1692.5012659414
 20
79.6372179209
 30
0.0
 11
1692.5012659414
 21
86.0872179209
 31
0.0
  0
LINE
  5
400
100
AcDbEntity
  8
L1_105
  6
CONTINUOUS
 62
         7
100
AcDbLine
 10
1692.5012659414
 20
61.6872179209
 30
0.0
 11
1692.5012659414
 21
68.1372179209
 31
0.0
  0
LINE
  5
401
100
AcDbEntity
  8
L1_105
  6
CONTINUOUS
 62
         7
100
AcDbLine
 10
1692.5012659414
 20
79.6372179209
 30
0.0
 11
1692.0012659414
 21
79.1372179209
 31
0.0
  0
LINE
  5
402
100
AcDbEntity
  8
L1_105
  6
CONTINUOUS
 62
         4
100
AcDbLine
 10
1692.0012659414
 20
86.5872179209
 30
0.0
 11
1692.0012659414
 21
79.1372179209
 31
0.0
  0
LINE
  5
403
100
AcDbEntity
  8
L1_105
  6
CONTINUOUS
 62
         7
100
AcDbLine
 10
1692.0012659414
 20
68.6372179209
 30
0.0
 11
1692.5012659414
 21
68.1372179209
 31
0.0
  0
LINE
  5
404
100
AcDbEntity
  8
L1_105
  6
CONTINUOUS
 62
         4
100
AcDbLine
 10
1692.0012659414
 20
68.6372179209
 30
0.0
 11
1692.0012659414
 21
61.1872179209
 31
0.0
  0
LINE
  5
405
100
AcDbEntity
  8
L1_105
  6
CONTINUOUS
 62
         7
100
AcDbLine
 10
1692.0012659414
 20
68.6372179209
 30
0.0
 11
1688.1512659414
 21
68.6372179209
 31
0.0
  0
ARC
  5
406
100
AcDbEntity
  8
L1_105
  6
CONTINUOUS
 62
         7
100
AcDbCircle
 10
1688.1512659414
 20
69.1372179209
 30
0.0
 40
0.5
100
AcDbArc
 50
180.0
 51
270.0
  0
LINE
  5
407
100
AcDbEntity
  8
L1_105
  6
CONTINUOUS
 62
         7
100
AcDbLine
 10
1692.0012659414
 20
79.1372179209
 30
0.0
 11
1688.1512659414
 21
79.1372179209
 31
0.0
  0
ARC
  5
408
100
AcDbEntity
  8
L1_105
  6
CONTINUOUS
 62
         7
100
AcDbCircle
 10
1688.1512659414
 20
78.6372179209
 30
0.0
 40
0.5
100
AcDbArc
 50
90.0
 51
180.0
  0
LINE
  5
409
100
AcDbEntity
  8
L1_105
  6
CONTINUOUS
 62
         7
100
AcDbLine
 10
1687.6512659414
 20
69.1372179209
 30
0.0
 11
1687.6512659414
 21
78.6372179209
 31
0.0
  0
LINE
  5
40A
100
AcDbEntity
  8
L1_105
  6
CONTINUOUS
 62
         7
100
AcDbLine
 10
1687.6512659414
 20
61.2872179209
 30
0.0
 11
1687.6512659414
 21
86.4872179209
 31
0.0
  0
LINE
  5
40B
100
AcDbEntity
  8
L1_105
  6
CONTINUOUS
 62
         7
100
AcDbLine
 10
1686.1512659414
 20
61.2872179209
 30
0.0
 11
1686.1512659414
 21
86.4872179209
 31
0.0
  0
LINE
  5
40C
100
AcDbEntity
  8
L1_105
  6
CONTINUOUS
 62
         7
100
AcDbLine
 10
1661.0012659414
 20
61.251793052
 30
0.0
 11
1661.0012659414
 21
86.5226427898
 31
0.0
  0
LINE
  5
40D
100
AcDbEntity
  8
L1_105
  6
CONTINUOUS
 62
         4
100
AcDbLine
 10
1660.0012659414
 20
89.8872179209
 30
0.0
 11
1660.0012659414
 21
57.8872179209
 31
0.0
  0
LINE
  5
40E
100
AcDbEntity
  8
L1_105
  6
CONTINUOUS
 62
         7
100
AcDbLine
 10
1617.5012659414
 20
59.6192687285
 30
0.0
 11
1617.5012659414
 21
88.1551671133
 31
0.0
  0
LINE
  5
40F
100
AcDbEntity
  8
L1_105
  6
CONTINUOUS
 62
         7
100
AcDbLine
 10
1660.0012659414
 20
57.8872179209
 30
0.0
 11
1620.1352405376
 21
57.8872179209
 31
0.0
  0
LINE
  5
410
100
AcDbEntity
  8
L1_105
  6
CONTINUOUS
 62
         7
100
AcDbLine
 10
1660.0012659414
 20
89.8872179209
 30
0.0
 11
1620.1352405376
 21
89.8872179209
 31
0.0
  0
LINE
  5
411
100
AcDbEntity
  8
L1_105
  6
CONTINUOUS
 62
         7
100
AcDbLine
 10
1692.0012659414
 20
86.5872179209
 30
0.0
 11
1692.5012659414
 21
86.0872179209
 31
0.0
  0
LINE
  5
412
100
AcDbEntity
  8
L1_105
  6
CONTINUOUS
 62
         7
100
AcDbLine
 10
1692.5012659414
 20
61.6872179209
 30
0.0
 11
1692.0012659414
 21
61.1872179209
 31
0.0
  0
LINE
  5
413
100
AcDbEntity
  8
L1_105
  6
CONTINUOUS
 62
         7
100
AcDbLine
 10
1692.0012659414
 20
86.5872179209
 30
0.0
 11
1687.7512659414
 21
86.5872179209
 31
0.0
  0
LINE
  5
414
100
AcDbEntity
  8
L1_105
  6
CONTINUOUS
 62
         7
100
AcDbLine
 10
1692.0012659414
 20
61.1872179209
 30
0.0
 11
1687.7512659414
 21
61.1872179209
 31
0.0
  0
LINE
  5
415
100
AcDbEntity
  8
L1_105
  6
CONTINUOUS
 62
         7
100
AcDbLine
 10
1663.5012659414
 20
86.5872179209
 30
0.0
 11
1686.0512659414
 21
86.5872179209
 31
0.0
  0
LINE
  5
416
100
AcDbEntity
  8
L1_105
  6
CONTINUOUS
 62
         7
100
AcDbLine
 10
1686.0512659414
 20
61.1872179209
 30
0.0
 11
1663.5012659414
 21
61.1872179209
 31
0.0
  0
LINE
  5
417
100
AcDbEntity
  8
L1_105
  6
CONTINUOUS
 62
         7
100
AcDbLine
 10
1687.6512659414
 20
85.6872179209
 30
0.0
 11
1686.1512659414
 21
85.6872179209
 31
0.0
  0
LINE
  5
418
100
AcDbEntity
  8
L1_105
  6
CONTINUOUS
 62
         7
100
AcDbLine
 10
1687.6512659414
 20
62.0872179209
 30
0.0
 11
1686.1512659414
 21
62.0872179209
 31
0.0
  0
LINE
  5
419
100
AcDbEntity
  8
L1_105
  6
CONTINUOUS
 62
         7
100
AcDbLine
 10
1662.7021947808
 20
86.3872179209
 30
0.0
 11
1661.3012659414
 21
86.3872179209
 31
0.0
  0
LINE
  5
41A
100
AcDbEntity
  8
L1_105
  6
CONTINUOUS
 62
         7
100
AcDbLine
 10
1662.8057223989
 20
86.4008475904
 30
0.0
 11
1663.5012659414
 21
86.5872179209
 31
0.0
  0
ARC
  5
41B
100
AcDbEntity
  8
L1_105
  6
CONTINUOUS
 62
         7
100
AcDbCircle
 10
1662.7021947808
 20
86.7872179209
 30
0.0
 40
0.4
100
AcDbArc
 50
270.0
 51
285.0
  0
LINE
  5
41C
100
AcDbEntity
  8
L1_105
  6
CONTINUOUS
 62
         7
100
AcDbLine
 10
1664.1377576145
 20
86.5872179209
 30
0.0
 11
1663.5012659414
 21
86.5872179209
 31
0.0
  0
LINE
  5
41D
100
AcDbEntity
  8
L1_105
  6
CONTINUOUS
 62
         7
100
AcDbLine
 10
1660.9014050238
 20
86.7766705714
 30
0.0
 11
1661.0012659414
 21
87.4872179209
 31
0.0
  0
ARC
  5
41E
100
AcDbEntity
  8
L1_105
  6
CONTINUOUS
 62
         7
100
AcDbCircle
 10
1661.3012659414
 20
86.7872179209
 30
0.0
 40
0.4
100
AcDbArc
 50
181.5109716561
 51
270.0
  0
LINE
  5
41F
100
AcDbEntity
  8
L1_105
  6
CONTINUOUS
 62
         7
100
AcDbLine
 10
1661.0012659414
 20
87.4872179209
 30
0.0
 11
1661.0012659414
 21
88.8872179209
 31
0.0
  0
LINE
  5
420
100
AcDbEntity
  8
L1_105
  6
CONTINUOUS
 62
         7
100
AcDbLine
 10
1662.7021947808
 20
61.3872179209
 30
0.0
 11
1661.3012659414
 21
61.3872179209
 31
0.0
  0
LINE
  5
421
100
AcDbEntity
  8
L1_105
  6
CONTINUOUS
 62
         7
100
AcDbLine
 10
1662.8057223989
 20
61.3735882514
 30
0.0
 11
1663.5012659414
 21
61.1872179209
 31
0.0
  0
ARC
  5
422
100
AcDbEntity
  8
L1_105
  6
CONTINUOUS
 62
         7
100
AcDbCircle
 10
1662.7021947808
 20
60.9872179209
 30
0.0
 40
0.4
100
AcDbArc
 50
75.0
 51
90.0
  0
LINE
  5
423
100
AcDbEntity
  8
L1_105
  6
CONTINUOUS
 62
         7
100
AcDbLine
 10
1664.1377576145
 20
61.1872179209
 30
0.0
 11
1663.5012659414
 21
61.1872179209
 31
0.0
  0
LINE
  5
424
100
AcDbEntity
  8
L1_105
  6
CONTINUOUS
 62
         7
100
AcDbLine
 10
1660.9014050238
 20
60.9977652704
 30
0.0
 11
1661.0012659414
 21
60.2872179209
 31
0.0
  0
ARC
  5
425
100
AcDbEntity
  8
L1_105
  6
CONTINUOUS
 62
         7
100
AcDbCircle
 10
1661.3012659414
 20
60.9872179209
 30
0.0
 40
0.4
100
AcDbArc
 50
90.0
 51
178.4890283439
  0
LINE
  5
426
100
AcDbEntity
  8
L1_105
  6
CONTINUOUS
 62
         7
100
AcDbLine
 10
1661.0012659414
 20
60.2872179209
 30
0.0
 11
1661.0012659414
 21
58.8872179209
 31
0.0
  0
ARC
  5
427
100
AcDbEntity
  8
L1_105
  6
CONTINUOUS
 62
         7
100
AcDbCircle
 10
1643.6008790013
 20
73.8872179209
 30
0.0
 40
3.0
100
AcDbArc
 50
270.0
 51
450.0
  0
ARC
  5
428
100
AcDbEntity
  8
L1_105
  6
CONTINUOUS
 62
         7
100
AcDbCircle
 10
1630.7046553748
 20
73.8872179209
 30
0.0
 40
3.0
100
AcDbArc
 50
90.0
 51
270.0
  0
LINE
  5
429
100
AcDbEntity
  8
L1_105
  6
CONTINUOUS
 62
         7
100
AcDbLine
 10
1643.5477118233
 20
78.7272179209
 30
0.0
 11
1630.7578225528
 21
78.7272179209
 31
0.0
  0
LINE
  5
42A
100
AcDbEntity
  8
L1_105
  6
CONTINUOUS
 62
         7
100
AcDbLine
 10
1643.5477118233
 20
69.0472179209
 30
0.0
 11
1630.7578225528
 21
69.0472179209
 31
0.0
  0
ARC
  5
42B
100
AcDbEntity
  8
L1_105
  6
CONTINUOUS
 62
         7
100
AcDbCircle
 10
1630.7578225528
 20
73.8872179209
 30
0.0
 40
4.84
100
AcDbArc
 50
90.0
 51
270.0
  0
ARC
  5
42C
100
AcDbEntity
  8
L1_105
  6
CONTINUOUS
 62
         7
100
AcDbCircle
 10
1643.5477118233
 20
73.8872179209
 30
0.0
 40
4.84
100
AcDbArc
 50
270.0
 51
450.0
  0
LINE
  5
42D
100
AcDbEntity
  8
L1_105
  6
CONTINUOUS
 62
         4
100
AcDbLine
 10
1645.1371286327
 20
79.2272179209
 30
0.0
 11
1629.1684057391
 21
79.2272179209
 31
0.0
  0
LINE
  5
42E
100
AcDbEntity
  8
L1_105
  6
CONTINUOUS
 62
         4
100
AcDbLine
 10
1645.1371286327
 20
68.5472179209
 30
0.0
 11
1629.1684057391
 21
68.5472179209
 31
0.0
  0
ARC
  5
42F
100
AcDbEntity
  8
L1_105
  6
CONTINUOUS
 62
         4
100
AcDbCircle
 10
1645.1371286327
 20
73.8872179209
 30
0.0
 40
5.34
100
AcDbArc
 50
270.0
 51
450.0
  0
ARC
  5
430
100
AcDbEntity
  8
L1_105
  6
CONTINUOUS
 62
         4
100
AcDbCircle
 10
1629.1684057391
 20
73.8872179209
 30
0.0
 40
5.34
100
AcDbArc
 50
90.0
 51
270.0
  0
LINE
  5
431
100
AcDbEntity
  8
L1_105
  6
CONTINUOUS
 62
         7
100
AcDbLine
 10
1686.0512659414
 20
86.5872179209
 30
0.0
 11
1686.1512659414
 21
86.4872179209
 31
0.0
  0
LINE
  5
432
100
AcDbEntity
  8
L1_105
  6
CONTINUOUS
 62
         7
100
AcDbLine
 10
1687.6512659414
 20
86.4872179209
 30
0.0
 11
1687.7512659414
 21
86.5872179209
 31
0.0
  0
LINE
  5
433
100
AcDbEntity
  8
L1_105
  6
CONTINUOUS
 62
         7
100
AcDbLine
 10
1686.1512659414
 20
61.2872179209
 30
0.0
 11
1686.0512659414
 21
61.1872179209
 31
0.0
  0
LINE
  5
434
100
AcDbEntity
  8
L1_105
  6
CONTINUOUS
 62
         7
100
AcDbLine
 10
1687.6512659414
 20
61.2872179209
 30
0.0
 11
1687.7512659414
 21
61.1872179209
 31
0.0
  0
DIMENSION
  5
437
100
AcDbEntity
  8
L1_105
  6
CONTINUOUS
 62
         4
100
AcDbDimension
  2
*D17
 10
1661.0012659414
 20
95.0177080503
 30
0.0
 11
1670.6575803425
 21
97.0427080503
 31
0.0
  3
DIMSTYLE1
100
AcDbAlignedDimension
 13
1661.0012659414
 23
88.8872179209
 33
0.0
 14
1692.5012659414
 24
86.0872179209
 34
0.0
100
AcDbRotatedDimension
  0
DIMENSION
  5
445
100
AcDbEntity
  8
L1_105
  6
CONTINUOUS
 62
         4
100
AcDbDimension
  2
*D18
 10
1692.5012659414
 20
101.2852152854
 30
0.0
 11
1653.4686907163
 21
103.3102152854
 31
0.0
  3
DIMSTYLE1
100
AcDbAlignedDimension
 13
1692.5012659414
 23
86.0872179209
 33
0.0
 14
1617.5012659414
 24
88.8872179209
 34
0.0
100
AcDbRotatedDimension
  0
DIMENSION
  5
453
100
AcDbEntity
  8
L1_105
  6
CONTINUOUS
 62
         4
100
AcDbDimension
  2
*D19
 10
1612.5791698342
 20
89.8872179209
 30
0.0
 11
1610.5541698342
 21
66.7895559185
 31
0.0
  3
DIMSTYLE1
100
AcDbAlignedDimension
 13
1618.5012659414
 23
89.8872179209
 33
0.0
 14
1618.5012659414
 24
57.8872179209
 34
0.0
 50
90.0
100
AcDbRotatedDimension
  0
DIMENSION
  5
461
100
AcDbEntity
  8
L1_105
  6
CONTINUOUS
 62
         4
100
AcDbDimension
  2
*D20
 10
1699.3178892242
 20
79.1372179209
 30
0.0
 11
1697.2928892242
 21
68.3596655386
 31
0.0
  3
DIMSTYLE1
100
AcDbAlignedDimension
 13
1692.0012659414
 23
79.1372179209
 33
0.0
 14
1692.0012659414
 24
68.6372179209
 34
0.0
 50
90.0
100
AcDbRotatedDimension
  0
DIMENSION
  5
46F
100
AcDbEntity
  8
L1_105
  6
CONTINUOUS
 62
         4
100
AcDbDimension
  2
*D21
 10
1706.0387492221
 20
86.5872179209
 30
0.0
 11
1704.0137492221
 21
62.3995938721
 31
0.0
  3
DIMSTYLE1
100
AcDbAlignedDimension
 13
1691.3012659414
 23
86.5872179209
 33
0.0
 14
1691.3012659414
 24
61.1872179209
 34
0.0
 50
90.0
100
AcDbRotatedDimension
  0
LINE
  5
47B
100
AcDbEntity
  8
L1_105
  6
CONTINUOUS
 62
         7
100
AcDbLine
 10
1723.2612659414
 20
64.8872179209
 30
0.0
 11
1723.2612659414
 21
82.8872179209
 31
0.0
  0
LINE
  5
47C
100
AcDbEntity
  8
L1_105
  6
CONTINUOUS
 62
         7
100
AcDbLine
 10
1727.2612659414
 20
83.3872179209
 30
0.0
 11
1723.7612659414
 21
83.3872179209
 31
0.0
  0
LINE
  5
47D
100
AcDbEntity
  8
L1_105
  6
CONTINUOUS
 62
         7
100
AcDbLine
 10
1727.7612659414
 20
64.8872179209
 30
0.0
 11
1727.7612659414
 21
82.8872179209
 31
0.0
  0
LINE
  5
47E
100
AcDbEntity
  8
L1_105
  6
CONTINUOUS
 62
         7
100
AcDbLine
 10
1727.2612659414
 20
64.3872179209
 30
0.0
 11
1723.7612659414
 21
64.3872179209
 31
0.0
  0
LINE
  5
47F
100
AcDbEntity
  8
L1_105
  6
CONTINUOUS
 62
         7
100
AcDbLine
 10
1735.3112659414
 20
64.3872179209
 30
0.0
 11
1734.0112659414
 21
64.3872179209
 31
0.0
  0
LINE
  5
480
100
AcDbEntity
  8
L1_105
  6
CONTINUOUS
 62
         7
100
AcDbLine
 10
1735.3112659414
 20
83.3872179209
 30
0.0
 11
1734.0112659414
 21
83.3872179209
 31
0.0
  0
LINE
  5
481
100
AcDbEntity
  8
L1_105
  6
CONTINUOUS
 62
         7
100
AcDbLine
 10
1735.4112659414
 20
64.4872179209
 30
0.0
 11
1735.4112659414
 21
83.2872179209
 31
0.0
  0
LINE
  5
482
100
AcDbEntity
  8
L1_105
  6
CONTINUOUS
 62
         7
100
AcDbLine
 10
1733.9112659414
 20
64.4872179209
 30
0.0
 11
1733.9112659414
 21
83.2872179209
 31
0.0
  0
LINE
  5
483
100
AcDbEntity
  8
L1_105
  6
CONTINUOUS
 62
         7
100
AcDbLine
 10
1733.9112659414
 20
81.3872179209
 30
0.0
 11
1727.7612659414
 21
81.3872179209
 31
0.0
  0
LINE
  5
484
100
AcDbEntity
  8
L1_105
  6
CONTINUOUS
 62
         7
100
AcDbLine
 10
1733.9112659414
 20
66.3872179209
 30
0.0
 11
1727.7612659414
 21
66.3872179209
 31
0.0
  0
LINE
  5
485
100
AcDbEntity
  8
L1_105
  6
CONTINUOUS
 62
         7
100
AcDbLine
 10
1733.9112659414
 20
83.2872179209
 30
0.0
 11
1734.0112659414
 21
83.3872179209
 31
0.0
  0
LINE
  5
486
100
AcDbEntity
  8
L1_105
  6
CONTINUOUS
 62
         7
100
AcDbLine
 10
1735.3112659414
 20
83.3872179209
 30
0.0
 11
1735.4112659414
 21
83.2872179209
 31
0.0
  0
LINE
  5
487
100
AcDbEntity
  8
L1_105
  6
CONTINUOUS
 62
         7
100
AcDbLine
 10
1733.9112659414
 20
64.4872179209
 30
0.0
 11
1734.0112659414
 21
64.3872179209
 31
0.0
  0
LINE
  5
488
100
AcDbEntity
  8
L1_105
  6
CONTINUOUS
 62
         7
100
AcDbLine
 10
1735.4112659414
 20
64.4872179209
 30
0.0
 11
1735.3112659414
 21
64.3872179209
 31
0.0
  0
LINE
  5
489
100
AcDbEntity
  8
L1_105
  6
CONTINUOUS
 62
         7
100
AcDbLine
 10
1723.2612659414
 20
64.8872179209
 30
0.0
 11
1723.7612659414
 21
64.3872179209
 31
0.0
  0
LINE
  5
48A
100
AcDbEntity
  8
L1_105
  6
CONTINUOUS
 62
         7
100
AcDbLine
 10
1727.7612659414
 20
64.8872179209
 30
0.0
 11
1727.2612659414
 21
64.3872179209
 31
0.0
  0
LINE
  5
48B
100
AcDbEntity
  8
L1_105
  6
CONTINUOUS
 62
         7
100
AcDbLine
 10
1727.7612659414
 20
82.8872179209
 30
0.0
 11
1727.2612659414
 21
83.3872179209
 31
0.0
  0
LINE
  5
48C
100
AcDbEntity
  8
L1_105
  6
CONTINUOUS
 62
         7
100
AcDbLine
 10
1723.2612659414
 20
82.8872179209
 30
0.0
 11
1723.7612659414
 21
83.3872179209
 31
0.0
  0
LINE
  5
48D
100
AcDbEntity
  8
L1_105
  6
CONTINUOUS
 62
         4
100
AcDbLine
 10
1723.7612659414
 20
64.3872179209
 30
0.0
 11
1723.7612659414
 21
83.3872179209
 31
0.0
  0
LINE
  5
48E
100
AcDbEntity
  8
L1_105
  6
CONTINUOUS
 62
         4
100
AcDbLine
 10
1727.2612659414
 20
64.3872179209
 30
0.0
 11
1727.2612659414
 21
83.3872179209
 31
0.0
  0
LINE
  5
48F
100
AcDbEntity
  8
L1_105
  6
CONTINUOUS
 62
         4
100
AcDbLine
 10
1734.0112659414
 20
64.3872179209
 30
0.0
 11
1734.0112659414
 21
83.3872179209
 31
0.0
  0
LINE
  5
490
100
AcDbEntity
  8
L1_105
  6
CONTINUOUS
 62
         4
100
AcDbLine
 10
1735.3112659414
 20
64.3872179209
 30
0.0
 11
1735.3112659414
 21
83.3872179209
 31
0.0
  0
DIMENSION
  5
493
100
AcDbEntity
  8
L1_105
  6
CONTINUOUS
 62
         4
100
AcDbDimension
  2
*D22
 10
1719.9371671559
 20
83.3872179209
 30
0.0
 11
1717.9121671559
 21
68.6868227861
 31
0.0
  3
DIMSTYLE1
100
AcDbAlignedDimension
 13
1723.7612659414
 23
83.3872179209
 33
0.0
 14
1723.7612659414
 24
64.3872179209
 34
0.0
 50
90.0
100
AcDbRotatedDimension
  0
DIMENSION
  5
4A1
100
AcDbEntity
  8
L1_105
  6
CONTINUOUS
 62
         4
100
AcDbDimension
  2
*D23
 10
1723.2612659414
 20
91.940693068
 30
0.0
 11
1722.8115741434
 21
93.965693068
 31
0.0
  3
DIMSTYLE1
100
AcDbAlignedDimension
 13
1723.2612659414
 23
82.8872179209
 33
0.0
 14
1735.4112659414
 24
83.2872179209
 34
0.0
100
AcDbRotatedDimension
  0
DIMENSION
  5
4AF
100
AcDbEntity
  8
L1_105
  6
CONTINUOUS
 62
         4
100
AcDbDimension
  2
*D24
 10
1723.2612659414
 20
86.3386300769
 30
0.0
 11
1713.8750082111
 21
88.3636300769
 31
0.0
  3
DIMSTYLE1
100
AcDbAlignedDimension
 13
1723.2612659414
 23
83.0872179209
 33
0.0
 14
1727.7612659414
 24
83.0872179209
 34
0.0
100
AcDbRotatedDimension
  0
DIMENSION
  5
4BF
100
AcDbEntity
  8
L1_105
  6
CONTINUOUS
 62
         4
100
AcDbDimension
  2
*D25
 10
1733.9112659414
 20
88.402548021
 30
0.0
 11
1736.8336382937
 21
90.427548021
 31
0.0
  3
DIMSTYLE1
100
AcDbAlignedDimension
 13
1733.9112659414
 23
83.2872179209
 33
0.0
 14
1735.4112659414
 24
83.2872179209
 34
0.0
100
AcDbRotatedDimension
  0
LINE
  5
4CD
100
AcDbEntity
  8
L1_105
  6
CONTINUOUS
 62
         4
100
AcDbLine
 10
1755.8012659414
 20
56.8872179209
 30
0.0
 11
1755.8012659414
 21
90.8872179209
 31
0.0
  0
LINE
  5
4CE
100
AcDbEntity
  8
L1_105
  6
CONTINUOUS
 62
         7
100
AcDbLine
 10
1755.3012659414
 20
90.5985427863
 30
0.0
 11
1755.8012659414
 21
90.8872179209
 31
0.0
  0
LINE
  5
4CF
100
AcDbEntity
  8
L1_105
  6
CONTINUOUS
 62
         7
100
AcDbLine
 10
1755.3012659414
 20
57.1758930555
 30
0.0
 11
1755.8012659414
 21
56.8872179209
 31
0.0
  0
LINE
  5
4D0
100
AcDbEntity
  8
L1_105
  6
CONTINUOUS
 62
         4
100
AcDbLine
 10
1777.3012659414
 20
56.8872179209
 30
0.0
 11
1777.3012659414
 21
90.8872179209
 31
0.0
  0
LINE
  5
4D1
100
AcDbEntity
  8
L1_105
  6
CONTINUOUS
 62
         4
100
AcDbLine
 10
1780.3012659414
 20
54.3872179209
 30
0.0
 11
1780.3012659414
 21
93.3872179209
 31
0.0
  0
LINE
  5
4D2
100
AcDbEntity
  8
L1_105
  6
CONTINUOUS
 62
         4
100
AcDbLine
 10
1786.3012659414
 20
93.3872179209
 30
0.0
 11
1786.3012659414
 21
54.3872179209
 31
0.0
  0
LINE
  5
4D3
100
AcDbEntity
  8
L1_105
  6
CONTINUOUS
 62
         7
100
AcDbLine
 10
1777.3012659414
 20
56.8872179209
 30
0.0
 11
1755.8012659414
 21
56.8872179209
 31
0.0
  0
LINE
  5
4D4
100
AcDbEntity
  8
L1_105
  6
CONTINUOUS
 62
         7
100
AcDbLine
 10
1755.3012659414
 20
90.5985427863
 30
0.0
 11
1755.3012659414
 21
57.1758930555
 31
0.0
  0
LINE
  5
4D5
100
AcDbEntity
  8
L1_105
  6
CONTINUOUS
 62
         7
100
AcDbLine
 10
1777.3012659414
 20
90.8872179209
 30
0.0
 11
1755.8012659414
 21
90.8872179209
 31
0.0
  0
LINE
  5
4D6
100
AcDbEntity
  8
L1_105
  6
CONTINUOUS
 62
         7
100
AcDbLine
 10
1786.8012659414
 20
54.8872179209
 30
0.0
 11
1786.3012659414
 21
54.3872179209
 31
0.0
  0
LINE
  5
4D7
100
AcDbEntity
  8
L1_105
  6
CONTINUOUS
 62
         7
100
AcDbLine
 10
1786.3012659414
 20
54.3872179209
 30
0.0
 11
1780.3012659414
 21
54.3872179209
 31
0.0
  0
LINE
  5
4D8
100
AcDbEntity
  8
L1_105
  6
CONTINUOUS
 62
         7
100
AcDbLine
 10
1786.8012659414
 20
54.8872179209
 30
0.0
 11
1786.8012659414
 21
92.8872179209
 31
0.0
  0
LINE
  5
4D9
100
AcDbEntity
  8
L1_105
  6
CONTINUOUS
 62
         7
100
AcDbLine
 10
1779.8012659414
 20
54.8872179209
 30
0.0
 11
1780.3012659414
 21
54.3872179209
 31
0.0
  0
LINE
  5
4DA
100
AcDbEntity
  8
L1_105
  6
CONTINUOUS
 62
         7
100
AcDbLine
 10
1779.8012659414
 20
56.951793052
 30
0.0
 11
1779.8012659414
 21
90.8226427898
 31
0.0
  0
LINE
  5
4DB
100
AcDbEntity
  8
L1_105
  6
CONTINUOUS
 62
         7
100
AcDbLine
 10
1786.3012659414
 20
93.3872179209
 30
0.0
 11
1786.8012659414
 21
92.8872179209
 31
0.0
  0
LINE
  5
4DC
100
AcDbEntity
  8
L1_105
  6
CONTINUOUS
 62
         7
100
AcDbLine
 10
1786.3012659414
 20
93.3872179209
 30
0.0
 11
1780.3012659414
 21
93.3872179209
 31
0.0
  0
LINE
  5
4DD
100
AcDbEntity
  8
L1_105
  6
CONTINUOUS
 62
         7
100
AcDbLine
 10
1780.3012659414
 20
93.3872179209
 30
0.0
 11
1779.8012659414
 21
92.8872179209
 31
0.0
  0
LINE
  5
4DE
100
AcDbEntity
  8
L1_105
  6
CONTINUOUS
 62
         7
100
AcDbLine
 10
1778.1003371019
 20
90.6872179209
 30
0.0
 11
1779.5012659414
 21
90.6872179209
 31
0.0
  0
LINE
  5
4DF
100
AcDbEntity
  8
L1_105
  6
CONTINUOUS
 62
         7
100
AcDbLine
 10
1777.9968094839
 20
90.7008475904
 30
0.0
 11
1777.3012659414
 21
90.8872179209
 31
0.0
  0
ARC
  5
4E0
100
AcDbEntity
  8
L1_105
  6
CONTINUOUS
 62
         7
100
AcDbCircle
 10
1778.1003371019
 20
91.0872179209
 30
0.0
 40
0.4
100
AcDbArc
 50
255.0
 51
270.0
  0
LINE
  5
4E1
100
AcDbEntity
  8
L1_105
  6
CONTINUOUS
 62
         7
100
AcDbLine
 10
1776.6647742683
 20
90.8872179209
 30
0.0
 11
1777.3012659414
 21
90.8872179209
 31
0.0
  0
LINE
  5
4E2
100
AcDbEntity
  8
L1_105
  6
CONTINUOUS
 62
         7
100
AcDbLine
 10
1779.901126859
 20
91.0766705714
 30
0.0
 11
1779.8012659414
 21
91.7872179209
 31
0.0
  0
ARC
  5
4E3
100
AcDbEntity
  8
L1_105
  6
CONTINUOUS
 62
         7
100
AcDbCircle
 10
1779.5012659414
 20
91.0872179209
 30
0.0
 40
0.4
100
AcDbArc
 50
270.0
 51
358.4890283439
  0
LINE
  5
4E4
100
AcDbEntity
  8
L1_105
  6
CONTINUOUS
 62
         7
100
AcDbLine
 10
1779.8012659414
 20
91.7872179209
 30
0.0
 11
1779.8012659414
 21
92.8872179209
 31
0.0
  0
LINE
  5
4E5
100
AcDbEntity
  8
L1_105
  6
CONTINUOUS
 62
         7
100
AcDbLine
 10
1778.1003371019
 20
57.0872179209
 30
0.0
 11
1779.5012659414
 21
57.0872179209
 31
0.0
  0
LINE
  5
4E6
100
AcDbEntity
  8
L1_105
  6
CONTINUOUS
 62
         7
100
AcDbLine
 10
1777.9968094839
 20
57.0735882514
 30
0.0
 11
1777.3012659414
 21
56.8872179209
 31
0.0
  0
ARC
  5
4E7
100
AcDbEntity
  8
L1_105
  6
CONTINUOUS
 62
         7
100
AcDbCircle
 10
1778.1003371019
 20
56.6872179209
 30
0.0
 40
0.4
100
AcDbArc
 50
90.0
 51
105.0
  0
LINE
  5
4E8
100
AcDbEntity
  8
L1_105
  6
CONTINUOUS
 62
         7
100
AcDbLine
 10
1776.6647742683
 20
56.8872179209
 30
0.0
 11
1777.3012659414
 21
56.8872179209
 31
0.0
  0
LINE
  5
4E9
100
AcDbEntity
  8
L1_105
  6
CONTINUOUS
 62
         7
100
AcDbLine
 10
1779.901126859
 20
56.6977652704
 30
0.0
 11
1779.8012659414
 21
55.9872179209
 31
0.0
  0
ARC
  5
4EA
100
AcDbEntity
  8
L1_105
  6
CONTINUOUS
 62
         7
100
AcDbCircle
 10
1779.5012659414
 20
56.6872179209
 30
0.0
 40
0.4
100
AcDbArc
 50
1.5109716561
 51
90.0
  0
LINE
  5
4EB
100
AcDbEntity
  8
L1_105
  6
CONTINUOUS
 62
         7
100
AcDbLine
 10
1779.8012659414
 20
55.9872179209
 30
0.0
 11
1779.8012659414
 21
54.8872179209
 31
0.0
  0
DIMENSION
  5
4EE
100
AcDbEntity
  8
L1_105
  6
CONTINUOUS
 62
         4
100
AcDbDimension
  2
*D26
 10
1752.5536550778
 20
90.8872179209
 30
0.0
 11
1750.5286550778
 21
62.7094334466
 31
0.0
  3
DIMSTYLE1
100
AcDbAlignedDimension
 13
1755.5012659414
 23
90.8872179209
 33
0.0
 14
1755.5012659414
 24
56.8872179209
 34
0.0
 50
90.0
100
AcDbRotatedDimension
  0
DIMENSION
  5
4FC
100
AcDbEntity
  8
L1_105
  6
CONTINUOUS
 62
         4
100
AcDbDimension
  2
*D27
 10
1793.7435916127
 20
93.3872179209
 30
0.0
 11
1791.7185916127
 21
69.4182100876
 31
0.0
  3
DIMSTYLE1
100
AcDbAlignedDimension
 13
1786.3012659414
 23
93.3872179209
 33
0.0
 14
1786.3012659414
 24
54.3872179209
 34
0.0
 50
90.0
100
AcDbRotatedDimension
  0
DIMENSION
  5
50A
100
AcDbEntity
  8
L1_105
  6
CONTINUOUS
 62
         4
100
AcDbDimension
  2
*D28
 10
1786.8012659414
 20
96.6382839722
 30
0.0
 11
1781.996045056
 21
98.6632839722
 31
0.0
  3
DIMSTYLE1
100
AcDbAlignedDimension
 13
1786.8012659414
 23
92.8872179209
 33
0.0
 14
1779.8012659414
 24
92.8872179209
 34
0.0
100
AcDbRotatedDimension
  0
DIMENSION
  5
518
100
AcDbEntity
  8
L1_105
  6
CONTINUOUS
 62
         4
100
AcDbDimension
  2
*D29
 10
1786.8012659414
 20
103.3485297807
 30
0.0
 11
1764.5761968036
 21
105.3735297807
 31
0.0
  3
DIMSTYLE1
100
AcDbAlignedDimension
 13
1786.8012659414
 23
92.8872179209
 33
0.0
 14
1755.3012659414
 24
90.6872179209
 34
0.0
100
AcDbRotatedDimension
  0
LINE
  5
524
100
AcDbEntity
  8
L1_105
  6
CENTER
 62
         1
100
AcDbLine
 10
1801.0577091682
 20
73.8872179209
 30
0.0
 11
1503.1586054742
 21
73.8872179209
 31
0.0
  0
CIRCLE
  5
525
100
AcDbEntity
  8
L1_105
  6
CONTINUOUS
 62
         7
100
AcDbCircle
 10
1667.9661164369
 20
-7.2951392792
 30
0.0
 40
4.7625
  0
LINE
  5
526
100
AcDbEntity
  8
L1_105
  6
CONTINUOUS
 62
         7
100
AcDbLine
 10
1553.2078058991
 20
-3.3196392792
 30
0.0
 11
1552.2323058991
 21
-4.2951392792
 31
0.0
  0
LINE
  5
527
100
AcDbEntity
  8
L1_105
  6
CONTINUOUS
 62
         7
100
AcDbLine
 10
1553.2078058991
 20
-11.2706392792
 30
0.0
 11
1552.2323058991
 21
-10.2951392792
 31
0.0
  0
LINE
  5
528
100
AcDbEntity
  8
L1_105
  6
CONTINUOUS
 62
         7
100
AcDbLine
 10
1552.2323058991
 20
-10.2951392792
 30
0.0
 11
1552.2323058991
 21
-4.2951392792
 31
0.0
  0
LINE
  5
529
100
AcDbEntity
  8
L1_105
  6
CONTINUOUS
 62
         4
100
AcDbLine
 10
1553.2078058991
 20
-3.3196392792
 30
0.0
 11
1553.2078058991
 21
-11.2706392792
 31
0.0
  0
LINE
  5
52A
100
AcDbEntity
  8
L1_105
  6
CONTINUOUS
 62
         7
100
AcDbLine
 10
1552.2323058991
 20
-4.2951392792
 30
0.0
 11
1541.4823058991
 21
-4.2951392792
 31
0.0
  0
LINE
  5
52B
100
AcDbEntity
  8
L1_105
  6
CONTINUOUS
 62
         7
100
AcDbLine
 10
1541.4823058991
 20
-4.2951392792
 30
0.0
 11
1540.9823058991
 21
-4.7951392792
 31
0.0
  0
LINE
  5
52C
100
AcDbEntity
  8
L1_105
  6
CONTINUOUS
 62
         7
100
AcDbLine
 10
1540.9823058991
 20
-9.7951392792
 30
0.0
 11
1540.9823058991
 21
-4.7951392792
 31
0.0
  0
LINE
  5
52D
100
AcDbEntity
  8
L1_105
  6
CONTINUOUS
 62
         7
100
AcDbLine
 10
1541.4823058991
 20
-10.2951392792
 30
0.0
 11
1540.9823058991
 21
-9.7951392792
 31
0.0
  0
LINE
  5
52E
100
AcDbEntity
  8
L1_105
  6
CONTINUOUS
 62
         7
100
AcDbLine
 10
1552.2323058991
 20
-10.2951392792
 30
0.0
 11
1541.4823058991
 21
-10.2951392792
 31
0.0
  0
LINE
  5
52F
100
AcDbEntity
  8
L1_105
  6
CONTINUOUS
 62
         4
100
AcDbLine
 10
1552.2323058991
 20
-4.7951392792
 30
0.0
 11
1540.9823058991
 21
-4.7951392792
 31
0.0
  0
LINE
  5
530
100
AcDbEntity
  8
L1_105
  6
CONTINUOUS
 62
         4
100
AcDbLine
 10
1552.2323058991
 20
-9.7951392792
 30
0.0
 11
1540.9823058991
 21
-9.7951392792
 31
0.0
  0
LINE
  5
531
100
AcDbEntity
  8
L1_105
  6
CONTINUOUS
 62
         7
100
AcDbLine
 10
1587.7323058991
 20
-0.7951392792
 30
0.0
 11
1587.2323058991
 21
-1.2951392792
 31
0.0
  0
LINE
  5
532
100
AcDbEntity
  8
L1_105
  6
CONTINUOUS
 62
         7
100
AcDbLine
 10
1587.2323058991
 20
-13.2951392792
 30
0.0
 11
1587.2323058991
 21
-1.2951392792
 31
0.0
  0
LINE
  5
533
100
AcDbEntity
  8
L1_105
  6
CONTINUOUS
 62
         7
100
AcDbLine
 10
1587.2323058991
 20
-13.2951392792
 30
0.0
 11
1587.7323058991
 21
-13.7951392792
 31
0.0
  0
LINE
  5
534
100
AcDbEntity
  8
L1_105
  6
CONTINUOUS
 62
         7
100
AcDbLine
 10
1592.2323058991
 20
-13.7951392792
 30
0.0
 11
1587.7323058991
 21
-13.7951392792
 31
0.0
  0
LINE
  5
535
100
AcDbEntity
  8
L1_105
  6
CONTINUOUS
 62
         7
100
AcDbLine
 10
1592.7323058991
 20
-13.2951392792
 30
0.0
 11
1592.2323058991
 21
-13.7951392792
 31
0.0
  0
LINE
  5
536
100
AcDbEntity
  8
L1_105
  6
CONTINUOUS
 62
         7
100
AcDbLine
 10
1592.7323058991
 20
-13.2951392792
 30
0.0
 11
1592.7323058991
 21
-1.2951392792
 31
0.0
  0
LINE
  5
537
100
AcDbEntity
  8
L1_105
  6
CONTINUOUS
 62
         7
100
AcDbLine
 10
1592.2323058991
 20
-0.7951392792
 30
0.0
 11
1587.7323058991
 21
-0.7951392792
 31
0.0
  0
LINE
  5
538
100
AcDbEntity
  8
L1_105
  6
CONTINUOUS
 62
         7
100
AcDbLine
 10
1592.7323058991
 20
-1.2951392792
 30
0.0
 11
1592.2323058991
 21
-0.7951392792
 31
0.0
  0
LINE
  5
539
100
AcDbEntity
  8
L1_105
  6
CONTINUOUS
 62
         7
100
AcDbLine
 10
1587.2323058991
 20
-3.3196392792
 30
0.0
 11
1553.2078058991
 21
-3.3196392792
 31
0.0
  0
LINE
  5
53A
100
AcDbEntity
  8
L1_105
  6
CONTINUOUS
 62
         7
100
AcDbLine
 10
1587.2323058991
 20
-11.2706392792
 30
0.0
 11
1553.2078058991
 21
-11.2706392792
 31
0.0
  0
LINE
  5
53B
100
AcDbEntity
  8
L1_105
  6
CONTINUOUS
 62
         4
100
AcDbLine
 10
1592.2323058991
 20
-0.7951392792
 30
0.0
 11
1592.2323058991
 21
-13.7951392792
 31
0.0
  0
LINE
  5
53C
100
AcDbEntity
  8
L1_105
  6
CONTINUOUS
 62
         4
100
AcDbLine
 10
1587.7323058991
 20
-0.7951392792
 30
0.0
 11
1587.7323058991
 21
-13.7951392792
 31
0.0
  0
DIMENSION
  5
53F
100
AcDbEntity
  8
L1_105
  6
CONTINUOUS
 62
         4
100
AcDbDimension
  2
*D30
 10
1540.9823058991
 20
-18.0081191884
 30
0.0
 11
1539.8573058991
 21
-15.9831191884
 31
0.0
  3
DIMSTYLE1
100
AcDbAlignedDimension
 13
1540.9823058991
 23
-9.7951392792
 33
0.0
 14
1552.2323058991
 24
-10.2951392792
 34
0.0
100
AcDbRotatedDimension
  0
DIMENSION
  5
54D
100
AcDbEntity
  8
L1_105
  6
CONTINUOUS
 62
         4
100
AcDbDimension
  2
*D31
 10
1565.2381342991
 20
-3.3196392792
 30
0.0
 11
1563.2131342991
 21
-16.7451392792
 31
0.0
  3
DIMSTYLE1
100
AcDbAlignedDimension
 13
1553.2078058991
 23
-3.3196392792
 33
0.0
 14
1553.2078058991
 24
-11.2706392792
 34
0.0
 50
90.0
100
AcDbRotatedDimension
  0
LINE
  5
559
100
AcDbEntity
  8
L1_105
  6
CONTINUOUS
 62
         7
100
AcDbLine
 10
1707.302057461
 20
0.4548607208
 30
0.0
 11
1706.302057461
 21
0.4548607208
 31
0.0
  0
LINE
  5
55A
100
AcDbEntity
  8
L1_105
  6
CONTINUOUS
 62
         7
100
AcDbLine
 10
1707.302057461
 20
-15.0451392792
 30
0.0
 11
1706.302057461
 21
-15.0451392792
 31
0.0
  0
LINE
  5
55B
100
AcDbEntity
  8
L1_105
  6
CONTINUOUS
 62
         7
100
AcDbLine
 10
1707.302057461
 20
2.9548607208
 30
0.0
 11
1706.302057461
 21
2.9548607208
 31
0.0
  0
LINE
  5
55C
100
AcDbEntity
  8
L1_105
  6
CONTINUOUS
 62
         7
100
AcDbLine
 10
1707.302057461
 20
-17.5451392792
 30
0.0
 11
1706.302057461
 21
-17.5451392792
 31
0.0
  0
LINE
  5
55D
100
AcDbEntity
  8
L1_105
  6
CONTINUOUS
 62
         7
100
AcDbLine
 10
1707.302057461
 20
-17.5451392792
 30
0.0
 11
1707.302057461
 21
2.9548607208
 31
0.0
  0
LINE
  5
55E
100
AcDbEntity
  8
L1_105
  6
CONTINUOUS
 62
         7
100
AcDbLine
 10
1706.302057461
 20
-17.5451392792
 30
0.0
 11
1706.302057461
 21
2.9548607208
 31
0.0
  0
TEXT
  5
560
100
AcDbEntity
  8
L1_105
  6
CONTINUOUS
 62
         4
100
AcDbText
 10
1709.3441261135
 20
16.2331194507
 30
0.0
 40
1.7
  1
%%p 0.05
  7
BOX
100
AcDbText
  0
DIMENSION
  5
563
100
AcDbEntity
  8
L1_105
  6
CONTINUOUS
 62
         4
100
AcDbDimension
  2
*D32
 10
1725.9694191856
 20
14.2048607208
 30
0.0
 11
1723.9444191856
 21
-12.6951392792
 31
0.0
  3
DIMSTYLE1
100
AcDbAlignedDimension
 13
1735.2369502264
 23
14.2048607208
 33
0.0
 14
1735.2369502264
 24
-28.7951392792
 34
0.0
 50
90.0
100
AcDbRotatedDimension
  0
TEXT
  5
570
100
AcDbEntity
  8
L1_105
  6
CONTINUOUS
 62
         4
100
AcDbText
 10
1696.8299119917
 20
1.7465278916
 30
0.0
 40
1.7
  1
%%p 0.2
 50
90.0
  7
BOX
100
AcDbText
  0
DIMENSION
  5
573
100
AcDbEntity
  8
L1_105
  6
CONTINUOUS
 62
         4
100
AcDbDimension
  2
*D33
 10
1699.227605368
 20
2.9548607208
 30
0.0
 11
1697.202605368
 21
-15.3951392792
 31
0.0
  3
DIMSTYLE1
100
AcDbAlignedDimension
 13
1706.302057461
 23
2.9548607208
 33
0.0
 14
1706.302057461
 24
-17.5451392792
 34
0.0
 50
90.0
100
AcDbRotatedDimension
  0
CIRCLE
  5
57F
100
AcDbEntity
  8
L1_105
  6
CONTINUOUS
 62
         7
100
AcDbCircle
 10
1735.2369502264
 20
13.2048607208
 30
0.0
 40
1.0
  0
CIRCLE
  5
580
100
AcDbEntity
  8
L1_105
  6
CONTINUOUS
 62
         7
100
AcDbCircle
 10
1735.2369502264
 20
-27.7951392792
 30
0.0
 40
1.0
  0
LINE
  5
581
100
AcDbEntity
  8
L1_105
  6
CONTINUOUS
 62
         7
100
AcDbLine
 10
1736.2369502264
 20
-27.7951392792
 30
0.0
 11
1736.2369502264
 21
13.2048607208
 31
0.0
  0
LINE
  5
582
100
AcDbEntity
  8
L1_105
  6
CONTINUOUS
 62
         7
100
AcDbLine
 10
1734.2369502265
 20
-27.7951392792
 30
0.0
 11
1734.2369502265
 21
13.2048607208
 31
0.0
  0
DIMENSION
  5
585
100
AcDbEntity
  8
L1_105
  6
CONTINUOUS
 62
         4
100
AcDbDimension
  2
*D34
 10
1663.3823292963
 20
-8.5875408034
 30
0.0
 11
1673.3877490369
 21
-4.4122608921
 31
0.0
 70
         3
  3
DIMSTYLE1
100
AcDbDiametricDimension
 15
1672.5499035775
 25
-6.002737755
 35
0.0
 40
0.0
  0
LINE
  5
590
100
AcDbEntity
  8
L1_105
  6
CENTER
 62
         1
100
AcDbLine
 10
1794.4269815176
 20
-7.2951392792
 30
0.0
 11
1533.3370272569
 21
-7.2951392792
 31
0.0
  0
DIMENSION
  5
593
100
AcDbEntity
  8
L1_105
  6
CONTINUOUS
 62
         4
100
AcDbDimension
  2
*D35
 10
1552.2323058991
 20
2.1044673842
 30
0.0
 11
1565.8404111802
 21
4.1294673842
 31
0.0
  3
DIMSTYLE1
100
AcDbAlignedDimension
 13
1552.2323058991
 23
-4.2951392792
 33
0.0
 14
1587.2323058991
 24
-1.2951392792
 34
0.0
100
AcDbRotatedDimension
  0
DIMENSION
  5
5A1
100
AcDbEntity
  8
L1_105
  6
CONTINUOUS
 62
         4
100
AcDbDimension
  2
*D36
 10
1616.9853517045
 20
-5.2951392792
 30
0.0
 11
1614.9603517045
 21
-8.6451392792
 31
0.0
  3
DIMSTYLE1
100
AcDbAlignedDimension
 13
1609.2958137226
 23
-5.2951392792
 33
0.0
 14
1609.2958137226
 24
-9.2951392792
 34
0.0
 50
90.0
100
AcDbRotatedDimension
  0
LINE
  5
5AD
100
AcDbEntity
  8
L1_105
  6
CONTINUOUS
 62
         7
100
AcDbLine
 10
1609.2958137226
 20
-9.2951392792
 30
0.0
 11
1610.450514261
 21
-7.2951392792
 31
0.0
  0
LINE
  5
5AE
100
AcDbEntity
  8
L1_105
  6
CONTINUOUS
 62
         7
100
AcDbLine
 10
1610.450514261
 20
-7.2951392792
 30
0.0
 11
1609.2958137226
 21
-5.2951392792
 31
0.0
  0
LINE
  5
5AF
100
AcDbEntity
  8
L1_105
  6
CONTINUOUS
 62
         7
100
AcDbLine
 10
1609.2958137226
 20
-5.2951392792
 30
0.0
 11
1606.9864126458
 21
-5.2951392792
 31
0.0
  0
LINE
  5
5B0
100
AcDbEntity
  8
L1_105
  6
CONTINUOUS
 62
         7
100
AcDbLine
 10
1606.9864126458
 20
-5.2951392792
 30
0.0
 11
1605.8317121074
 21
-7.2951392792
 31
0.0
  0
LINE
  5
5B1
100
AcDbEntity
  8
L1_105
  6
CONTINUOUS
 62
         7
100
AcDbLine
 10
1605.8317121074
 20
-7.2951392792
 30
0.0
 11
1606.9864126458
 21
-9.2951392792
 31
0.0
  0
LINE
  5
5B2
100
AcDbEntity
  8
L1_105
  6
CONTINUOUS
 62
         7
100
AcDbLine
 10
1606.9864126458
 20
-9.2951392792
 30
0.0
 11
1609.2958137226
 21
-9.2951392792
 31
0.0
  0
DIMENSION
  5
5B5
100
AcDbEntity
  8
L1_105
  6
CONTINUOUS
 62
         4
100
AcDbDimension
  2
*D37
 10
1605.8317121074
 20
1.0279138461
 30
0.0
 11
1595.9911131842
 21
3.0529138461
 31
0.0
  3
DIMSTYLE1
100
AcDbAlignedDimension
 13
1605.8317121074
 23
-7.2951392792
 33
0.0
 14
1610.450514261
 24
-7.2951392792
 34
0.0
100
AcDbRotatedDimension
  0
DIMENSION
  5
5C3
100
AcDbEntity
  8
L1_105
  6
CONTINUOUS
 62
         4
100
AcDbDimension
  2
*D38
 10
1599.7665357018
 20
-0.7951392792
 30
0.0
 11
1597.7415357018
 21
-12.8757216845
 31
0.0
  3
DIMSTYLE1
100
AcDbAlignedDimension
 13
1592.2323058991
 23
-0.7951392792
 33
0.0
 14
1592.2323058991
 24
-13.7951392792
 34
0.0
 50
90.0
100
AcDbRotatedDimension
  0
DIMENSION
  5
5D1
100
AcDbEntity
  8
L1_105
  6
CONTINUOUS
 62
         4
100
AcDbDimension
  2
*D39
 10
1752.6036038641
 20
3.1048607208
 30
0.0
 11
1750.5786038641
 21
-12.6951392792
 31
0.0
  3
DIMSTYLE1
100
AcDbAlignedDimension
 13
1756.5369502264
 23
3.1048607208
 33
0.0
 14
1756.5369502264
 24
-17.6951392792
 34
0.0
 50
90.0
100
AcDbRotatedDimension
  0
LINE
  5
5DD
100
AcDbEntity
  8
L1_105
  6
CONTINUOUS
 62
         7
100
AcDbLine
 10
1757.2869502264
 20
-16.9451392792
 30
0.0
 11
1757.2869502264
 21
2.3548607208
 31
0.0
  0
LINE
  5
5DE
100
AcDbEntity
  8
L1_105
  6
CONTINUOUS
 62
         7
100
AcDbLine
 10
1755.7869502264
 20
-16.9451392792
 30
0.0
 11
1755.7869502264
 21
2.3548607208
 31
0.0
  0
CIRCLE
  5
5DF
100
AcDbEntity
  8
L1_105
  6
CONTINUOUS
 62
         7
100
AcDbCircle
 10
1756.5369502264
 20
-16.9451392792
 30
0.0
 40
0.75
  0
CIRCLE
  5
5E0
100
AcDbEntity
  8
L1_105
  6
CONTINUOUS
 62
         7
100
AcDbCircle
 10
1756.5369502264
 20
2.3548607208
 30
0.0
 40
0.75
  0
DIMENSION
  5
5E3
100
AcDbEntity
  8
L1_105
  6
CONTINUOUS
 62
         4
100
AcDbDimension
  2
*D40
 10
1780.8819776703
 20
6.4548607208
 30
0.0
 11
1778.8569776703
 21
-15.3951392792
 31
0.0
  3
DIMSTYLE1
100
AcDbAlignedDimension
 13
1784.9869502265
 23
6.4548607208
 33
0.0
 14
1784.9869502265
 24
-21.0451392792
 34
0.0
 50
90.0
100
AcDbRotatedDimension
  0
LINE
  5
5EF
100
AcDbEntity
  8
L1_105
  6
CONTINUOUS
 62
         7
100
AcDbLine
 10
1784.2369502265
 20
-20.2951392792
 30
0.0
 11
1784.2369502265
 21
5.7048607208
 31
0.0
  0
CIRCLE
  5
5F0
100
AcDbEntity
  8
L1_105
  6
CONTINUOUS
 62
         7
100
AcDbCircle
 10
1784.9869502265
 20
5.7048607208
 30
0.0
 40
0.75
  0
LINE
  5
5F1
100
AcDbEntity
  8
L1_105
  6
CONTINUOUS
 62
         7
100
AcDbLine
 10
1785.7369502265
 20
-20.2951392792
 30
0.0
 11
1785.7369502265
 21
5.7048607208
 31
0.0
  0
CIRCLE
  5
5F2
100
AcDbEntity
  8
L1_105
  6
CONTINUOUS
 62
         7
100
AcDbCircle
 10
1784.9869502265
 20
-20.2951392792
 30
0.0
 40
0.75
  0
CIRCLE
  5
5F3
100
AcDbEntity
  8
L1_105
  6
CONTINUOUS
 62
         7
100
AcDbCircle
 10
1636.0308559567
 20
-7.2951392792
 30
0.0
 40
2.381
  0
DIMENSION
  5
5F6
100
AcDbEntity
  8
L1_105
  6
CONTINUOUS
 62
         4
100
AcDbDimension
  2
*D41
 10
1734.7667890879
 20
14.0874413142
 30
0.0
 11
1737.8065485808
 21
10.9291255106
 31
0.0
 70
         3
  3
DIMSTYLE1
100
AcDbDiametricDimension
 15
1735.707111365
 25
12.3222801275
 35
0.0
 40
0.0
  0
DIMENSION
  5
603
100
AcDbEntity
  8
L1_105
  6
CONTINUOUS
 62
         4
100
AcDbDimension
  2
*D42
 10
1756.0149642643
 20
2.8934056636
 30
0.0
 11
1759.965321727
 21
0.6393901023
 31
0.0
 70
         3
  3
DIMSTYLE1
100
AcDbDiametricDimension
 15
1757.0589361886
 25
1.8163157781
 35
0.0
 40
0.0
  0
DIMENSION
  5
610
100
AcDbEntity
  8
L1_105
  6
CONTINUOUS
 62
         4
100
AcDbDimension
  2
*D43
 10
1784.5987243779
 20
6.3465621237
 30
0.0
 11
1787.4292752744
 21
4.0868358769
 31
0.0
 70
         3
  3
DIMSTYLE1
100
AcDbDiametricDimension
 15
1785.375176075
 25
5.0631593179
 35
0.0
 40
0.0
  0
DIMENSION
  5
61D
100
AcDbEntity
  8
L1_105
  6
CONTINUOUS
 62
         4
100
AcDbDimension
  2
*D44
 10
1706.302057461
 20
13.7958326227
 30
0.0
 11
1705.452057461
 21
15.8208326227
 31
0.0
  3
DIMSTYLE1
100
AcDbAlignedDimension
 13
1706.302057461
 23
2.9548607208
 33
0.0
 14
1707.302057461
 24
2.9548607208
 34
0.0
100
AcDbRotatedDimension
  0
DIMENSION
  5
62D
100
AcDbEntity
  8
L1_105
  6
CONTINUOUS
 62
         4
100
AcDbDimension
  2
*D45
 10
1633.7518827727
 20
-7.9846624674
 30
0.0
 11
1641.6698740953
 21
-4.2254171697
 31
0.0
 70
         3
  3
DIMSTYLE1
100
AcDbDiametricDimension
 15
1638.3098291406
 25
-6.605616091
 35
0.0
 40
0.0
  0
DIMENSION
  5
63A
100
AcDbEntity
  8
L1_105
  6
CONTINUOUS
 62
         4
100
AcDbDimension
  2
*D46
 10
1533.0500323958
 20
-4.2951392792
 30
0.0
 11
1531.0250323958
 21
-14.0451392792
 31
0.0
  3
DIMSTYLE1
100
AcDbAlignedDimension
 13
1541.4823058991
 23
-4.2951392792
 33
0.0
 14
1541.4823058991
 24
-10.2951392792
 34
0.0
 50
90.0
100
AcDbRotatedDimension
  0
DIMENSION
  5
64A
100
AcDbEntity
  8
L1_105
  6
CONTINUOUS
 62
         4
100
AcDbDimension
  2
*D47
 10
1592.7323058991
 20
-20.4396216051
 30
0.0
 11
1585.9323058991
 21
-18.4146216051
 31
0.0
  3
DIMSTYLE1
100
AcDbAlignedDimension
 13
1592.7323058991
 23
-13.2951392792
 33
0.0
 14
1587.2323058991
 24
-13.2951392792
 34
0.0
100
AcDbRotatedDimension
  0
DIMENSION
  5
65A
100
AcDbEntity
  8
L1_105
  6
CONTINUOUS
 62
         4
100
AcDbDimension
  2
*D48
 10
1585.3012659414
 20
58.8319767067
 30
0.0
 11
1586.5474069887
 21
60.8569767067
 31
0.0
  3
DIMSTYLE1
100
AcDbAlignedDimension
 13
1585.3012659414
 23
64.5872179209
 33
0.0
 14
1590.3012659414
 24
64.9872179209
 34
0.0
100
AcDbRotatedDimension
  0
LINE
  5
668
100
AcDbEntity
  8
L1_105
  6
CONTINUOUS
 62
         7
100
AcDbLine
 10
1697.6929422263
 20
-61.2375632398
 30
0.0
 11
1698.4429422263
 21
-50.9375632398
 31
0.0
  0
LINE
  5
669
100
AcDbEntity
  8
L1_105
  6
CONTINUOUS
 62
         7
100
AcDbLine
 10
1699.9429422263
 20
-50.9375632398
 30
0.0
 11
1699.1929422263
 21
-61.2375632398
 31
0.0
  0
LINE
  5
66A
100
AcDbEntity
  8
L1_105
  6
CONTINUOUS
 62
         7
100
AcDbLine
 10
1700.6929422263
 20
-61.2375632398
 30
0.0
 11
1701.4429422263
 21
-50.9375632398
 31
0.0
  0
LINE
  5
66B
100
AcDbEntity
  8
L1_105
  6
CONTINUOUS
 62
         7
100
AcDbLine
 10
1702.9429422263
 20
-50.9375632398
 30
0.0
 11
1702.1929422263
 21
-61.2375632398
 31
0.0
  0
LINE
  5
66C
100
AcDbEntity
  8
L1_105
  6
CONTINUOUS
 62
         7
100
AcDbLine
 10
1703.6929422263
 20
-61.2375632398
 30
0.0
 11
1704.4429422263
 21
-50.9375632398
 31
0.0
  0
LINE
  5
66D
100
AcDbEntity
  8
L1_105
  6
CONTINUOUS
 62
         7
100
AcDbLine
 10
1705.9429422263
 20
-50.9375632398
 30
0.0
 11
1705.1929422263
 21
-61.2375632398
 31
0.0
  0
LINE
  5
66E
100
AcDbEntity
  8
L1_105
  6
CONTINUOUS
 62
         7
100
AcDbLine
 10
1706.6929422263
 20
-61.2375632398
 30
0.0
 11
1707.4429422263
 21
-50.9375632398
 31
0.0
  0
LINE
  5
66F
100
AcDbEntity
  8
L1_105
  6
CONTINUOUS
 62
         7
100
AcDbLine
 10
1708.9429422263
 20
-50.9375632398
 30
0.0
 11
1708.1929422263
 21
-61.2375632398
 31
0.0
  0
LINE
  5
670
100
AcDbEntity
  8
L1_105
  6
CONTINUOUS
 62
         7
100
AcDbLine
 10
1709.6929422263
 20
-61.2375632398
 30
0.0
 11
1710.4429422263
 21
-50.9375632398
 31
0.0
  0
LINE
  5
671
100
AcDbEntity
  8
L1_105
  6
CONTINUOUS
 62
         7
100
AcDbLine
 10
1711.9429422263
 20
-50.9375632398
 30
0.0
 11
1711.1929422263
 21
-61.2375632398
 31
0.0
  0
LINE
  5
672
100
AcDbEntity
  8
L1_105
  6
CONTINUOUS
 62
         7
100
AcDbLine
 10
1713.4429422263
 20
-50.9375632398
 30
0.0
 11
1712.6929422263
 21
-61.2375632398
 31
0.0
  0
LINE
  5
673
100
AcDbEntity
  8
L1_105
  6
CONTINUOUS
 62
         7
100
AcDbLine
 10
1714.9429422263
 20
-50.9375632398
 30
0.0
 11
1714.1929422263
 21
-61.2375632398
 31
0.0
  0
CIRCLE
  5
674
100
AcDbEntity
  8
L1_105
  6
CONTINUOUS
 62
         7
100
AcDbCircle
 10
1707.4429422263
 20
-61.2375632398
 30
0.0
 40
0.75
  0
CIRCLE
  5
675
100
AcDbEntity
  8
L1_105
  6
CONTINUOUS
 62
         7
100
AcDbCircle
 10
1708.9429422263
 20
-61.2375632398
 30
0.0
 40
0.75
  0
CIRCLE
  5
676
100
AcDbEntity
  8
L1_105
  6
CONTINUOUS
 62
         7
100
AcDbCircle
 10
1710.4429422263
 20
-61.2375632398
 30
0.0
 40
0.75
  0
CIRCLE
  5
677
100
AcDbEntity
  8
L1_105
  6
CONTINUOUS
 62
         7
100
AcDbCircle
 10
1711.9429422263
 20
-61.2375632398
 30
0.0
 40
0.75
  0
CIRCLE
  5
678
100
AcDbEntity
  8
L1_105
  6
CONTINUOUS
 62
         7
100
AcDbCircle
 10
1713.4429422263
 20
-61.2375632398
 30
0.0
 40
0.75
  0
CIRCLE
  5
679
100
AcDbEntity
  8
L1_105
  6
CONTINUOUS
 62
         7
100
AcDbCircle
 10
1699.9429422263
 20
-61.2375632398
 30
0.0
 40
0.75
  0
CIRCLE
  5
67A
100
AcDbEntity
  8
L1_105
  6
CONTINUOUS
 62
         7
100
AcDbCircle
 10
1701.4429422263
 20
-61.2375632398
 30
0.0
 40
0.75
  0
CIRCLE
  5
67B
100
AcDbEntity
  8
L1_105
  6
CONTINUOUS
 62
         7
100
AcDbCircle
 10
1702.9429422263
 20
-61.2375632398
 30
0.0
 40
0.75
  0
CIRCLE
  5
67C
100
AcDbEntity
  8
L1_105
  6
CONTINUOUS
 62
         7
100
AcDbCircle
 10
1704.4429422263
 20
-61.2375632398
 30
0.0
 40
0.75
  0
CIRCLE
  5
67D
100
AcDbEntity
  8
L1_105
  6
CONTINUOUS
 62
         7
100
AcDbCircle
 10
1705.9429422263
 20
-61.2375632398
 30
0.0
 40
0.75
  0
CIRCLE
  5
67E
100
AcDbEntity
  8
L1_105
  6
CONTINUOUS
 62
         7
100
AcDbCircle
 10
1698.4429422263
 20
-61.2375632398
 30
0.0
 40
0.75
  0
CIRCLE
  5
67F
100
AcDbEntity
  8
L1_105
  6
CONTINUOUS
 62
         7
100
AcDbCircle
 10
1708.1929422263
 20
-50.9375632398
 30
0.0
 40
0.75
  0
CIRCLE
  5
680
100
AcDbEntity
  8
L1_105
  6
CONTINUOUS
 62
         7
100
AcDbCircle
 10
1709.6929422263
 20
-50.9375632398
 30
0.0
 40
0.75
  0
CIRCLE
  5
681
100
AcDbEntity
  8
L1_105
  6
CONTINUOUS
 62
         7
100
AcDbCircle
 10
1711.1929422263
 20
-50.9375632398
 30
0.0
 40
0.75
  0
CIRCLE
  5
682
100
AcDbEntity
  8
L1_105
  6
CONTINUOUS
 62
         7
100
AcDbCircle
 10
1712.6929422263
 20
-50.9375632398
 30
0.0
 40
0.75
  0
CIRCLE
  5
683
100
AcDbEntity
  8
L1_105
  6
CONTINUOUS
 62
         7
100
AcDbCircle
 10
1714.1929422263
 20
-50.9375632398
 30
0.0
 40
0.75
  0
CIRCLE
  5
684
100
AcDbEntity
  8
L1_105
  6
CONTINUOUS
 62
         7
100
AcDbCircle
 10
1700.6929422263
 20
-50.9375632398
 30
0.0
 40
0.75
  0
CIRCLE
  5
685
100
AcDbEntity
  8
L1_105
  6
CONTINUOUS
 62
         7
100
AcDbCircle
 10
1702.1929422263
 20
-50.9375632398
 30
0.0
 40
0.75
  0
CIRCLE
  5
686
100
AcDbEntity
  8
L1_105
  6
CONTINUOUS
 62
         7
100
AcDbCircle
 10
1703.6929422263
 20
-50.9375632398
 30
0.0
 40
0.75
  0
CIRCLE
  5
687
100
AcDbEntity
  8
L1_105
  6
CONTINUOUS
 62
         7
100
AcDbCircle
 10
1705.1929422263
 20
-50.9375632398
 30
0.0
 40
0.75
  0
CIRCLE
  5
688
100
AcDbEntity
  8
L1_105
  6
CONTINUOUS
 62
         7
100
AcDbCircle
 10
1706.6929422263
 20
-50.9375632398
 30
0.0
 40
0.75
  0
CIRCLE
  5
689
100
AcDbEntity
  8
L1_105
  6
CONTINUOUS
 62
         7
100
AcDbCircle
 10
1699.1929422263
 20
-50.9375632398
 30
0.0
 40
0.75
  0
LINE
  5
68A
100
AcDbEntity
  8
L1_105
  6
CONTINUOUS
 62
         7
100
AcDbLine
 10
1732.0257127914
 20
-47.4875632398
 30
0.0
 11
1729.0257127914
 21
-64.6875632398
 31
0.0
  0
LINE
  5
68B
100
AcDbEntity
  8
L1_105
  6
CONTINUOUS
 62
         7
100
AcDbLine
 10
1730.5257127914
 20
-64.6875632398
 30
0.0
 11
1732.0257127914
 21
-47.4875632398
 31
0.0
  0
LINE
  5
68C
100
AcDbEntity
  8
L1_105
  6
CONTINUOUS
 62
         7
100
AcDbLine
 10
1733.5257127914
 20
-47.4875632398
 30
0.0
 11
1732.0257127914
 21
-64.6875632398
 31
0.0
  0
LINE
  5
68D
100
AcDbEntity
  8
L1_105
  6
CONTINUOUS
 62
         7
100
AcDbLine
 10
1733.5257127914
 20
-64.6875632398
 30
0.0
 11
1735.0257127914
 21
-47.4875632398
 31
0.0
  0
LINE
  5
68E
100
AcDbEntity
  8
L1_105
  6
CONTINUOUS
 62
         7
100
AcDbLine
 10
1736.5257127914
 20
-47.4875632398
 30
0.0
 11
1735.0257127914
 21
-64.6875632398
 31
0.0
  0
LINE
  5
68F
100
AcDbEntity
  8
L1_105
  6
CONTINUOUS
 62
         7
100
AcDbLine
 10
1736.5257127914
 20
-64.6875632398
 30
0.0
 11
1738.0257127914
 21
-47.4875632398
 31
0.0
  0
LINE
  5
690
100
AcDbEntity
  8
L1_105
  6
CONTINUOUS
 62
         7
100
AcDbLine
 10
1739.5257127914
 20
-47.4875632398
 30
0.0
 11
1738.0257127914
 21
-64.6875632398
 31
0.0
  0
LINE
  5
691
100
AcDbEntity
  8
L1_105
  6
CONTINUOUS
 62
         7
100
AcDbLine
 10
1739.5257127914
 20
-64.6875632398
 30
0.0
 11
1741.0257127914
 21
-47.4875632398
 31
0.0
  0
LINE
  5
692
100
AcDbEntity
  8
L1_105
  6
CONTINUOUS
 62
         7
100
AcDbLine
 10
1742.5257127914
 20
-47.4875632398
 30
0.0
 11
1741.0257127914
 21
-64.6875632398
 31
0.0
  0
CIRCLE
  5
693
100
AcDbEntity
  8
L1_105
  6
CONTINUOUS
 62
         7
100
AcDbCircle
 10
1729.7757127914
 20
-64.6875632398
 30
0.0
 40
0.75
  0
CIRCLE
  5
694
100
AcDbEntity
  8
L1_105
  6
CONTINUOUS
 62
         7
100
AcDbCircle
 10
1731.2757127914
 20
-64.6875632398
 30
0.0
 40
0.75
  0
CIRCLE
  5
695
100
AcDbEntity
  8
L1_105
  6
CONTINUOUS
 62
         7
100
AcDbCircle
 10
1732.7757127914
 20
-64.6875632398
 30
0.0
 40
0.75
  0
CIRCLE
  5
696
100
AcDbEntity
  8
L1_105
  6
CONTINUOUS
 62
         7
100
AcDbCircle
 10
1734.2757127914
 20
-64.6875632398
 30
0.0
 40
0.75
  0
CIRCLE
  5
697
100
AcDbEntity
  8
L1_105
  6
CONTINUOUS
 62
         7
100
AcDbCircle
 10
1735.7757127914
 20
-64.6875632398
 30
0.0
 40
0.75
  0
CIRCLE
  5
698
100
AcDbEntity
  8
L1_105
  6
CONTINUOUS
 62
         7
100
AcDbCircle
 10
1737.2757127914
 20
-64.6875632398
 30
0.0
 40
0.75
  0
CIRCLE
  5
699
100
AcDbEntity
  8
L1_105
  6
CONTINUOUS
 62
         7
100
AcDbCircle
 10
1738.7757127914
 20
-64.6875632398
 30
0.0
 40
0.75
  0
CIRCLE
  5
69A
100
AcDbEntity
  8
L1_105
  6
CONTINUOUS
 62
         7
100
AcDbCircle
 10
1740.2757127914
 20
-64.6875632398
 30
0.0
 40
0.75
  0
CIRCLE
  5
69B
100
AcDbEntity
  8
L1_105
  6
CONTINUOUS
 62
         7
100
AcDbCircle
 10
1732.7757127914
 20
-47.4875632398
 30
0.0
 40
0.75
  0
CIRCLE
  5
69C
100
AcDbEntity
  8
L1_105
  6
CONTINUOUS
 62
         7
100
AcDbCircle
 10
1734.2757127914
 20
-47.4875632398
 30
0.0
 40
0.75
  0
CIRCLE
  5
69D
100
AcDbEntity
  8
L1_105
  6
CONTINUOUS
 62
         7
100
AcDbCircle
 10
1735.7757127914
 20
-47.4875632398
 30
0.0
 40
0.75
  0
CIRCLE
  5
69E
100
AcDbEntity
  8
L1_105
  6
CONTINUOUS
 62
         7
100
AcDbCircle
 10
1737.2757127914
 20
-47.4875632398
 30
0.0
 40
0.75
  0
CIRCLE
  5
69F
100
AcDbEntity
  8
L1_105
  6
CONTINUOUS
 62
         7
100
AcDbCircle
 10
1738.7757127914
 20
-47.4875632398
 30
0.0
 40
0.75
  0
CIRCLE
  5
6A0
100
AcDbEntity
  8
L1_105
  6
CONTINUOUS
 62
         7
100
AcDbCircle
 10
1740.2757127914
 20
-47.4875632398
 30
0.0
 40
0.75
  0
CIRCLE
  5
6A1
100
AcDbEntity
  8
L1_105
  6
CONTINUOUS
 62
         7
100
AcDbCircle
 10
1741.7757127914
 20
-47.4875632398
 30
0.0
 40
0.75
  0
LINE
  5
6A2
100
AcDbEntity
  8
L1_105
  6
CONTINUOUS
 62
         7
100
AcDbLine
 10
1759.734607678
 20
-42.2875632398
 30
0.0
 11
1758.234607678
 21
-69.8875632398
 31
0.0
  0
LINE
  5
6A3
100
AcDbEntity
  8
L1_105
  6
CONTINUOUS
 62
         7
100
AcDbLine
 10
1756.734607678
 20
-69.8875632398
 30
0.0
 11
1758.234607678
 21
-42.2875632398
 31
0.0
  0
LINE
  5
6A4
100
AcDbEntity
  8
L1_105
  6
CONTINUOUS
 62
         7
100
AcDbLine
 10
1756.734607678
 20
-42.2875632398
 30
0.0
 11
1755.234607678
 21
-69.8875632398
 31
0.0
  0
LINE
  5
6A5
100
AcDbEntity
  8
L1_105
  6
CONTINUOUS
 62
         7
100
AcDbLine
 10
1753.734607678
 20
-69.8875632398
 30
0.0
 11
1755.234607678
 21
-42.2875632398
 31
0.0
  0
LINE
  5
6A6
100
AcDbEntity
  8
L1_105
  6
CONTINUOUS
 62
         7
100
AcDbLine
 10
1761.234607678
 20
-42.2875632398
 30
0.0
 11
1759.734607678
 21
-69.8875632398
 31
0.0
  0
CIRCLE
  5
6A7
100
AcDbEntity
  8
L1_105
  6
CONTINUOUS
 62
         7
100
AcDbCircle
 10
1754.484607678
 20
-69.8875632398
 30
0.0
 40
0.75
  0
CIRCLE
  5
6A8
100
AcDbEntity
  8
L1_105
  6
CONTINUOUS
 62
         7
100
AcDbCircle
 10
1755.984607678
 20
-69.8875632398
 30
0.0
 40
0.75
  0
CIRCLE
  5
6A9
100
AcDbEntity
  8
L1_105
  6
CONTINUOUS
 62
         7
100
AcDbCircle
 10
1757.484607678
 20
-69.8875632398
 30
0.0
 40
0.75
  0
CIRCLE
  5
6AA
100
AcDbEntity
  8
L1_105
  6
CONTINUOUS
 62
         7
100
AcDbCircle
 10
1758.984607678
 20
-69.8875632398
 30
0.0
 40
0.75
  0
CIRCLE
  5
6AB
100
AcDbEntity
  8
L1_105
  6
CONTINUOUS
 62
         7
100
AcDbCircle
 10
1755.984607678
 20
-42.2875632398
 30
0.0
 40
0.75
  0
CIRCLE
  5
6AC
100
AcDbEntity
  8
L1_105
  6
CONTINUOUS
 62
         7
100
AcDbCircle
 10
1757.484607678
 20
-42.2875632398
 30
0.0
 40
0.75
  0
CIRCLE
  5
6AD
100
AcDbEntity
  8
L1_105
  6
CONTINUOUS
 62
         7
100
AcDbCircle
 10
1758.984607678
 20
-42.2875632398
 30
0.0
 40
0.75
  0
CIRCLE
  5
6AE
100
AcDbEntity
  8
L1_105
  6
CONTINUOUS
 62
         7
100
AcDbCircle
 10
1760.484607678
 20
-42.2875632398
 30
0.0
 40
0.75
  0
LINE
  5
6AF
100
AcDbEntity
  8
L1_105
  6
CONTINUOUS
 62
         7
100
AcDbLine
 10
1775.5098308608
 20
-61.8875632398
 30
0.0
 11
1776.7098308608
 21
-50.2875632398
 31
0.0
  0
LINE
  5
6B0
100
AcDbEntity
  8
L1_105
  6
CONTINUOUS
 62
         7
100
AcDbLine
 10
1775.5098308608
 20
-50.2875632398
 30
0.0
 11
1774.3098308608
 21
-61.8875632398
 31
0.0
  0
LINE
  5
6B1
100
AcDbEntity
  8
L1_105
  6
CONTINUOUS
 62
         7
100
AcDbLine
 10
1773.1098308608
 20
-61.8875632398
 30
0.0
 11
1774.3098308608
 21
-50.2875632398
 31
0.0
  0
LINE
  5
6B2
100
AcDbEntity
  8
L1_105
  6
CONTINUOUS
 62
         7
100
AcDbLine
 10
1773.1098308608
 20
-50.2875632398
 30
0.0
 11
1771.9098308608
 21
-61.8875632398
 31
0.0
  0
LINE
  5
6B3
100
AcDbEntity
  8
L1_105
  6
CONTINUOUS
 62
         7
100
AcDbLine
 10
1771.9098308608
 20
-50.2875632398
 30
0.0
 11
1770.7098308608
 21
-61.8875632398
 31
0.0
  0
LINE
  5
6B4
100
AcDbEntity
  8
L1_105
  6
CONTINUOUS
 62
         7
100
AcDbLine
 10
1770.7098308608
 20
-50.2875632398
 30
0.0
 11
1769.5098308608
 21
-61.8875632398
 31
0.0
  0
LINE
  5
6B5
100
AcDbEntity
  8
L1_105
  6
CONTINUOUS
 62
         7
100
AcDbLine
 10
1777.9098308608
 20
-50.2875632398
 30
0.0
 11
1776.7098308608
 21
-61.8875632398
 31
0.0
  0
CIRCLE
  5
6B6
100
AcDbEntity
  8
L1_105
  6
CONTINUOUS
 62
         7
100
AcDbCircle
 10
1770.1098308608
 20
-61.8875632398
 30
0.0
 40
0.6
  0
CIRCLE
  5
6B7
100
AcDbEntity
  8
L1_105
  6
CONTINUOUS
 62
         7
100
AcDbCircle
 10
1771.3098308608
 20
-61.8875632398
 30
0.0
 40
0.6
  0
CIRCLE
  5
6B8
100
AcDbEntity
  8
L1_105
  6
CONTINUOUS
 62
         7
100
AcDbCircle
 10
1772.5098308608
 20
-61.8875632398
 30
0.0
 40
0.6
  0
CIRCLE
  5
6B9
100
AcDbEntity
  8
L1_105
  6
CONTINUOUS
 62
         7
100
AcDbCircle
 10
1773.7098308608
 20
-61.8875632398
 30
0.0
 40
0.6
  0
CIRCLE
  5
6BA
100
AcDbEntity
  8
L1_105
  6
CONTINUOUS
 62
         7
100
AcDbCircle
 10
1774.9098308608
 20
-61.8875632398
 30
0.0
 40
0.6
  0
CIRCLE
  5
6BB
100
AcDbEntity
  8
L1_105
  6
CONTINUOUS
 62
         7
100
AcDbCircle
 10
1776.1098308608
 20
-61.8875632398
 30
0.0
 40
0.6
  0
CIRCLE
  5
6BC
100
AcDbEntity
  8
L1_105
  6
CONTINUOUS
 62
         7
100
AcDbCircle
 10
1771.3098308608
 20
-50.2875632398
 30
0.0
 40
0.6
  0
CIRCLE
  5
6BD
100
AcDbEntity
  8
L1_105
  6
CONTINUOUS
 62
         7
100
AcDbCircle
 10
1772.5098308608
 20
-50.2875632398
 30
0.0
 40
0.6
  0
CIRCLE
  5
6BE
100
AcDbEntity
  8
L1_105
  6
CONTINUOUS
 62
         7
100
AcDbCircle
 10
1773.7098308608
 20
-50.2875632398
 30
0.0
 40
0.6
  0
CIRCLE
  5
6BF
100
AcDbEntity
  8
L1_105
  6
CONTINUOUS
 62
         7
100
AcDbCircle
 10
1774.9098308608
 20
-50.2875632398
 30
0.0
 40
0.6
  0
CIRCLE
  5
6C0
100
AcDbEntity
  8
L1_105
  6
CONTINUOUS
 62
         7
100
AcDbCircle
 10
1776.1098308608
 20
-50.2875632398
 30
0.0
 40
0.6
  0
CIRCLE
  5
6C1
100
AcDbEntity
  8
L1_105
  6
CONTINUOUS
 62
         7
100
AcDbCircle
 10
1777.3098308608
 20
-50.2875632398
 30
0.0
 40
0.6
  0
LINE
  5
6C2
100
AcDbEntity
  8
L1_105
  6
CENTER
 62
         1
100
AcDbLine
 10
1783.298910304
 20
-56.0875632398
 30
0.0
 11
1694.885883136
 21
-56.0875632398
 31
0.0
  0
TEXT
  5
6C4
100
AcDbEntity
  8
L1_105
  6
CONTINUOUS
 62
         2
100
AcDbText
 10
1547.8551181589
 20
224.3704784082
 30
0.0
 40
4.5
  1
534520
 41
0.98
  7
BOX
100
AcDbText
  0
ENDSEC
  0
SECTION
  2
OBJECTS
  0
DICTIONARY
  5
19
100
AcDbDictionary
  3
ACAD_GROUP
350
1A
  3
ACAD_MLINESTYLE
350
1B
  0
DICTIONARY
  5
1A
102
{ACAD_REACTORS
330
19
102
}
100
AcDbDictionary
  0
DICTIONARY
  5
1B
102
{ACAD_REACTORS
330
19
102
}
100
AcDbDictionary
  3
STANDARD
350
1C
  0
MLINESTYLE
  5
1C
102
{ACAD_REACTORS
330
1B
102
}
100
AcDbMlineStyle
  2
STANDARD
 70
         0
  3

 62
         0
 51
90.0
 52
90.0
 71
         2
 49
0.5
 62
       256
  6
BYLAYER
 49
-0.5
 62
       256
  6
BYLAYER
  0
ENDSEC
  0
EOF
