  0
SECTION
  2
HEADER
  9
$ACADVER
  1
AC1014
  9
$ACADMAINTVER
 70
         0
  9
$DWGCODEPAGE
  3
BIG5
  9
$INSBASE
 10
0.0
 20
0.0
 30
0.0
  9
$EXTMIN
 10
1126.1657749927
 20
-129.2464549017
 30
0.0
  9
$EXTMAX
 10
1870.301438695
 20
245.9236657087
 30
0.0
  9
$LIMMIN
 10
0.0
 20
0.0
  9
$LIMMAX
 10
0.0
 20
0.0
  9
$ORTHOMODE
 70
         0
  9
$REGENMODE
 70
         1
  9
$FILLMODE
 70
         1
  9
$QTEXTMODE
 70
         0
  9
$MIRRTEXT
 70
         1
  9
$DRAGMODE
 70
         2
  9
$LTSCALE
 40
1.0
  9
$OSMODE
 70
         0
  9
$ATTMODE
 70
         1
  9
$TEXTSIZE
 40
1.5
  9
$TRACEWID
 40
0.05
  9
$TEXTSTYLE
  7
STANDARD
  9
$CLAYER
  8
0
  9
$CELTYPE
  6
CONTINUOUS
  9
$CECOLOR
 62
         4
  9
$CELTSCALE
 40
1.0
  9
$DELOBJ
 70
         1
  9
$DISPSILH
 70
         0
  9
$DIMSCALE
 40
1.0
  9
$DIMASZ
 40
0.18
  9
$DIMEXO
 40
0.0625
  9
$DIMDLI
 40
0.38
  9
$DIMRND
 40
0.0
  9
$DIMDLE
 40
0.0
  9
$DIMEXE
 40
0.25
  9
$DIMTP
 40
0.01
  9
$DIMTM
 40
-0.01
  9
$DIMTXT
 40
2.7
  9
$DIMCEN
 40
0.09
  9
$DIMTSZ
 40
0.0
  9
$DIMTOL
 70
         0
  9
$DIMLIM
 70
         0
  9
$DIMTIH
 70
         1
  9
$DIMTOH
 70
         1
  9
$DIMSE1
 70
         0
  9
$DIMSE2
 70
         0
  9
$DIMTAD
 70
         0
  9
$DIMZIN
 70
         0
  9
$DIMBLK
  1

  9
$DIMASO
 70
         1
  9
$DIMSHO
 70
         1
  9
$DIMPOST
  1

  9
$DIMAPOST
  1

  9
$DIMALT
 70
         0
  9
$DIMALTD
 70
         2
  9
$DIMALTF
 40
25.4
  9
$DIMLFAC
 40
1.0
  9
$DIMTOFL
 70
         0
  9
$DIMTVP
 40
0.0
  9
$DIMTIX
 70
         0
  9
$DIMSOXD
 70
         0
  9
$DIMSAH
 70
         0
  9
$DIMBLK1
  1

  9
$DIMBLK2
  1

  9
$DIMSTYLE
  2
STANDARD
  9
$DIMCLRD
 70
         0
  9
$DIMCLRE
 70
         0
  9
$DIMCLRT
 70
         4
  9
$DIMTFAC
 40
1.0
  9
$DIMGAP
 40
0.09
  9
$DIMJUST
 70
         0
  9
$DIMSD1
 70
         0
  9
$DIMSD2
 70
         0
  9
$DIMTOLJ
 70
         1
  9
$DIMTZIN
 70
         0
  9
$DIMALTZ
 70
         0
  9
$DIMALTTZ
 70
         0
  9
$DIMFIT
 70
         3
  9
$DIMUPT
 70
         0
  9
$DIMUNIT
 70
         2
  9
$DIMDEC
 70
         4
  9
$DIMTDEC
 70
         4
  9
$DIMALTU
 70
         2
  9
$DIMALTTD
 70
         2
  9
$DIMTXSTY
  7
STANDARD
  9
$DIMAUNIT
 70
         0
  9
$LUNITS
 70
         2
  9
$LUPREC
 70
        10
  9
$SKETCHINC
 40
0.1
  9
$FILLETRAD
 40
0.0
  9
$AUNITS
 70
         0
  9
$AUPREC
 70
         0
  9
$MENU
  1
acad
  9
$ELEVATION
 40
0.0
  9
$PELEVATION
 40
0.0
  9
$THICKNESS
 40
0.0
  9
$LIMCHECK
 70
         0
  9
$BLIPMODE
 70
         1
  9
$CHAMFERA
 40
0.0
  9
$CHAMFERB
 40
0.0
  9
$CHAMFERC
 40
0.0
  9
$CHAMFERD
 40
0.0
  9
$SKPOLY
 70
         0
  9
$TDCREATE
 40
0.000000000
  9
$TDUPDATE
 40
0.000000000
  9
$TDINDWG
 40
0.0000000000
  9
$TDUSRTIMER
 40
0.0000000000
  9
$USRTIMER
 70
         1
  9
$ANGBASE
 50
0.0
  9
$ANGDIR
 70
         0
  9
$PDMODE
 70
         2
  9
$PDSIZE
 40
0.0
  9
$PLINEWID
 40
0.0
  9
$COORDS
 70
         1
  9
$SPLFRAME
 70
         0
  9
$SPLINETYPE
 70
         6
  9
$SPLINESEGS
 70
         8
  9
$ATTDIA
 70
         0
  9
$ATTREQ
 70
         1
  9
$HANDLING
 70
         1
  9
$HANDSEED
  5
5CE
  9
$SURFTAB1
 70
         6
  9
$SURFTAB2
 70
         6
  9
$SURFTYPE
 70
         6
  9
$SURFU
 70
         6
  9
$SURFV
 70
         6
  9
$UCSNAME
  2

  9
$UCSORG
 10
0.0
 20
0.0
 30
0.0
  9
$UCSXDIR
 10
1.0
 20
0.0
 30
0.0
  9
$UCSYDIR
 10
0.0
 20
1.0
 30
0.0
  9
$PUCSNAME
  2

  9
$PUCSORG
 10
0.0
 20
0.0
 30
0.0
  9
$PUCSXDIR
 10
1.0
 20
0.0
 30
0.0
  9
$PUCSYDIR
 10
0.0
 20
1.0
 30
0.0
  9
$USERI1
 70
         0
  9
$USERI2
 70
         0
  9
$USERI3
 70
         0
  9
$USERI4
 70
         0
  9
$USERI5
 70
         0
  9
$USERR1
 40
0.0
  9
$USERR2
 40
0.0
  9
$USERR3
 40
0.0
  9
$USERR4
 40
0.0
  9
$USERR5
 40
0.0
  9
$WORLDVIEW
 70
         1
  9
$SHADEDGE
 70
         3
  9
$SHADEDIF
 70
        70
  9
$TILEMODE
 70
         1
  9
$MAXACTVP
 70
        16
  9
$PINSBASE
 10
0.0
 20
0.0
 30
0.0
  9
$PLIMCHECK
 70
         0
  9
$PEXTMIN
 10
1.0000000000E+20
 20
1.0000000000E+20
 30
1.0000000000E+20
  9
$PEXTMAX
 10
-1.0000000000E+20
 20
-1.0000000000E+20
 30
-1.0000000000E+20
  9
$PLIMMIN
 10
0.0
 20
0.0
  9
$PLIMMAX
 10
12.0
 20
9.0
  9
$UNITMODE
 70
         0
  9
$VISRETAIN
 70
         0
  9
$PLINEGEN
 70
         1
  9
$PSLTSCALE
 70
         0
  9
$TREEDEPTH
 70
      3020
  9
$PICKSTYLE
 70
         1
  9
$CMLSTYLE
  2
STANDARD
  9
$CMLJUST
 70
         0
  9
$CMLSCALE
 40
1.0
  9
$PROXYGRAPHICS
 70
         0
  9
$MEASUREMENT
 70
         0
  0
ENDSEC
  0
SECTION
  2
CLASSES
  0
CLASS
  1
LWPOLYLINE
  2
AcDbPolyline
  3
"AutoCAD"
 90
        0
280
         0
281
         1
  0
CLASS
  1
IMAGE
  2
AcDbRasterImage
  3
ISM
 90
      127
280
         0
281
         1
  0
CLASS
  1
OLE2FRAME
  2
AcDbOle2Frame
  3
""
 90
        0
280
         0
281
         1
  0
CLASS
  1
HATCH
  2
AcDbHatch
  3
"ACAD_SEDONA"
 90
        0
280
         0
281
         1
  0
CLASS
  1
DICTIONARYVAR
  2
AcDbDictionaryVar
  3
"AutoCAD"
 90
        0
280
         0
281
         0
  0
CLASS
  1
RASTERVARIABLES
  2
AcDbRasterVariables
  3
ISM
 90
        0
280
         0
281
         0
  0
CLASS
  1
IMAGEDEF
  2
AcDbRasterImageDef
  3
ISM
 90
        0
280
         0
281
         0
  0
CLASS
  1
IMAGEDEF_REACTOR
  2
AcDbRasterImageDefReactor
  3
ISM
 90
        1
280
         0
281
         0
  0
CLASS
  1
IDBUFFER
  2
AcDbIdBuffer
  3
"Acad"
 90
        0
280
         0
281
         0
  0
CLASS
  1
SPATIAL_FILTER
  2
AcDbSpatialFilter
  3
"Acad"
 90
        0
280
         0
281
         0
  0
CLASS
  1
XRECORD
  2
AcDbXrecord
  3
"<Built In>"
 90
        0
280
         0
281
         0
  0
CLASS
  1
SORTENTSTABLE
  2
AcDbSortentsTable
  3
"AutoCAD"
 90
        0
280
         0
281
         0
  0
CLASS
  1
LAYER_INDEX
  2
AcDbLayerIndex
  3
"Acad"
 90
        0
280
         0
281
         0
  0
CLASS
  1
SPATIAL_INDEX
  2
AcDbSpatialIndex
  3
"Acad"
 90
        0
280
         0
281
         0
  0
CLASS
  1
OBJECT_PTR
  2
CAseDLPNTableRecord
  3
"ASE-LPNTableRecord"
 90
        1
280
         0
281
         0
  0
CLASS
  1
LAYOUT
  2
AcDbLayout
  3
"AutoCAD 2000"
 90
        1
280
         0
281
         0
  0
CLASS
  1
PLOTSETTINGS
  2
AcDbPlotSettings
  3
"AutoCAD 2000"
 90
        1
280
         0
281
         0
  0
CLASS
  1
ACDBDICTIONARYWDFLT
  2
AcDbDictionaryWithDefault
  3
"AutoCAD 2000"
 90
        1
280
         0
281
         0
  0
CLASS
  1
ACDBPLACEHOLDER
  2
AcDbPlaceHolder
  3
"AutoCAD 2000"
 90
        1
280
         0
281
         0
  0
CLASS
  1
VBA_PROJECT
  2
AcDbVbaProject
  3
"acadvba"
 90
        1
280
         0
281
         0
  0
CLASS
  1
WIPEOUT
  2
AcDbWipeout
  3
WipeOut|AutoCAD Express Tool|expresstools@autodesk.com
 90
      127
280
         0
281
         1
  0
CLASS
  1
WIPEOUTVARIABLES
  2
AcDbWipeoutVariables
  3
WipeOut|AutoCAD Express Tool|expresstools@autodesk.com
 90
        0
280
         0
281
         0
  0
CLASS
  1
RTEXT
  2
RText
  3
RText|AutoCAD Express Tool|expresstools@autodesk.com
 90
        0
280
         0
281
         1
  0
CLASS
  1
ARCALIGNEDTEXT
  2
AcDbArcAlignedText
  3
ATEXT|AutoCAD Express Tool|expresstools@autodesk.com
 90
        0
280
         0
281
         1
  0
ENDSEC
  0
SECTION
  2
TABLES
  0
TABLE
  2
VPORT
  5
7
100
AcDbSymbolTable
 70
         1
  0
VPORT
  5
15
100
AcDbSymbolTableRecord
100
AcDbViewportTableRecord
  2
*ACTIVE
 70
         0
 10
0.0
 20
0.0
 11
1.0
 21
1.0
 12
1498.2336068439
 22
58.3386054035
 13
0.0
 23
0.0
 14
1.0
 24
1.0
 15
0.0
 25
0.0
 16
0.0
 26
0.0
 36
1.0
 17
0.0
 27
0.0
 37
0.0
 40
375.1701206104
 41
1.9834619625
 42
50.0
 43
0.0
 44
0.0
 50
0.0
 51
0.0
 71
         0
 72
       100
 73
         1
 74
         1
 75
         0
 76
         0
 77
         0
 78
         0
  0
ENDTAB
  0
TABLE
  2
LTYPE
  5
4
100
AcDbSymbolTable
 70
         6
  0
LTYPE
  5
11
100
AcDbSymbolTableRecord
100
AcDbLinetypeTableRecord
  2
BYBLOCK
 70
        64
  3

 72
        65
 73
         0
 40
0.0
  0
LTYPE
  5
12
100
AcDbSymbolTableRecord
100
AcDbLinetypeTableRecord
  2
BYLAYER
 70
        64
  3

 72
        65
 73
         0
 40
0.0
  0
LTYPE
  5
13
100
AcDbSymbolTableRecord
100
AcDbLinetypeTableRecord
  2
CONTINUOUS
 70
        64
  3
Solid line
 72
        65
 73
         0
 40
0.0
  0
LTYPE
  5
1D
100
AcDbSymbolTableRecord
100
AcDbLinetypeTableRecord
  2
DASHED
 70
        64
  3
_ _ _ _ _ _ _ _ _ _ _ _ _ _ _ _
 72
        65
 73
         2
 40
0.2
 49
0.1
 74
         0
 49
-0.1
 74
         0
  0
LTYPE
  5
1E
100
AcDbSymbolTableRecord
100
AcDbLinetypeTableRecord
  2
CENTER
 70
        64
  3
___ _ ___ _ ___ _ ___ _ ___ _ ___ _ ___ _ ___ _
 72
        65
 73
         4
 40
0.95
 49
0.625
 74
         0
 49
-0.125
 74
         0
 49
0.075
 74
         0
 49
-0.125
 74
         0
  0
LTYPE
  5
1F
100
AcDbSymbolTableRecord
100
AcDbLinetypeTableRecord
  2
PHANTOM
 70
        64
  3
______  __  __  ______  __  __  ______  __  __  
 72
        65
 73
         6
 40
1.025
 49
0.625
 74
         0
 49
-0.125
 74
         0
 49
0.075
 74
         0
 49
-0.125
 74
         0
 49
0.075
 74
         0
 49
-0.125
 74
         0
  0
ENDTAB
  0
TABLE
  2
LAYER
  5
2
100
AcDbSymbolTable
 70
         5
  0
LAYER
  5
14
100
AcDbSymbolTableRecord
100
AcDbLayerTableRecord
  2
0
 70
         0
 62
         7
  6
CONTINUOUS
  0
LAYER
  5
21
100
AcDbSymbolTableRecord
100
AcDbLayerTableRecord
  2
_____U
 70
         1
 62
         7
  6
CONTINUOUS
  0
LAYER
  5
22
100
AcDbSymbolTableRecord
100
AcDbLayerTableRecord
  2
_Y__________
 70
         0
 62
         7
  6
CONTINUOUS
  0
LAYER
  5
23
100
AcDbSymbolTableRecord
100
AcDbLayerTableRecord
  2
L1_100
 70
         0
 62
         7
  6
CONTINUOUS
  0
LAYER
  5
D9
100
AcDbSymbolTableRecord
100
AcDbLayerTableRecord
  2
DEFPOINTS
 70
         0
 62
        -7
  6
CONTINUOUS
  0
ENDTAB
  0
TABLE
  2
STYLE
  5
3
100
AcDbSymbolTable
 70
        35
  0
STYLE
  5
17
100
AcDbSymbolTableRecord
100
AcDbTextStyleTableRecord
  2
STANDARD
 70
         0
 40
0.0
 41
1.0
 50
0.0
 71
         0
 42
0.0
  3
txt
  4

  0
STYLE
  5
DF
100
AcDbSymbolTableRecord
100
AcDbTextStyleTableRecord
  2
BOX
 70
         0
 40
1.0
 41
1.0
 50
0.0
 71
         0
 42
0.2
  3
txt.shx
  4

  0
STYLE
  5
EA
100
AcDbSymbolTableRecord
100
AcDbTextStyleTableRecord
  2
BOX
 70
         0
 40
1.0
 41
1.0
 50
0.0
 71
         0
 42
0.2
  3
txt.shx
  4

  0
STYLE
  5
104
100
AcDbSymbolTableRecord
100
AcDbTextStyleTableRecord
  2
BOX
 70
         0
 40
1.0
 41
1.0
 50
0.0
 71
         0
 42
0.2
  3
txt.shx
  4

  0
STYLE
  5
112
100
AcDbSymbolTableRecord
100
AcDbTextStyleTableRecord
  2
BOX
 70
         0
 40
1.0
 41
1.0
 50
0.0
 71
         0
 42
0.2
  3
txt.shx
  4

  0
STYLE
  5
120
100
AcDbSymbolTableRecord
100
AcDbTextStyleTableRecord
  2
BOX
 70
         0
 40
1.0
 41
1.0
 50
0.0
 71
         0
 42
0.2
  3
txt.shx
  4

  0
STYLE
  5
12E
100
AcDbSymbolTableRecord
100
AcDbTextStyleTableRecord
  2
BOX
 70
         0
 40
1.0
 41
1.0
 50
0.0
 71
         0
 42
0.2
  3
txt.shx
  4

  0
STYLE
  5
142
100
AcDbSymbolTableRecord
100
AcDbTextStyleTableRecord
  2
BOX
 70
         0
 40
1.0
 41
1.0
 50
0.0
 71
         0
 42
0.2
  3
txt.shx
  4

  0
STYLE
  5
155
100
AcDbSymbolTableRecord
100
AcDbTextStyleTableRecord
  2
BOX
 70
         0
 40
1.0
 41
1.0
 50
0.0
 71
         0
 42
0.2
  3
txt.shx
  4

  0
STYLE
  5
176
100
AcDbSymbolTableRecord
100
AcDbTextStyleTableRecord
  2
BOX
 70
         0
 40
1.0
 41
1.0
 50
0.0
 71
         0
 42
0.2
  3
txt.shx
  4

  0
STYLE
  5
1B2
100
AcDbSymbolTableRecord
100
AcDbTextStyleTableRecord
  2
BOX
 70
         0
 40
1.0
 41
1.0
 50
0.0
 71
         0
 42
0.2
  3
txt.shx
  4

  0
STYLE
  5
1CA
100
AcDbSymbolTableRecord
100
AcDbTextStyleTableRecord
  2
BOX
 70
         0
 40
1.0
 41
1.0
 50
0.0
 71
         0
 42
0.2
  3
txt.shx
  4

  0
STYLE
  5
1ED
100
AcDbSymbolTableRecord
100
AcDbTextStyleTableRecord
  2
BOX
 70
         0
 40
1.0
 41
1.0
 50
0.0
 71
         0
 42
0.2
  3
txt.shx
  4

  0
STYLE
  5
1FB
100
AcDbSymbolTableRecord
100
AcDbTextStyleTableRecord
  2
BOX
 70
         0
 40
1.0
 41
1.0
 50
0.0
 71
         0
 42
0.2
  3
txt.shx
  4

  0
STYLE
  5
209
100
AcDbSymbolTableRecord
100
AcDbTextStyleTableRecord
  2
BOX
 70
         0
 40
1.0
 41
1.0
 50
0.0
 71
         0
 42
0.2
  3
txt.shx
  4

  0
STYLE
  5
22E
100
AcDbSymbolTableRecord
100
AcDbTextStyleTableRecord
  2
BOX
 70
         0
 40
1.0
 41
1.0
 50
0.0
 71
         0
 42
0.2
  3
txt.shx
  4

  0
STYLE
  5
4A6
100
AcDbSymbolTableRecord
100
AcDbTextStyleTableRecord
  2
BOX
 70
         0
 40
1.0
 41
1.0
 50
0.0
 71
         0
 42
0.2
  3
txt.shx
  4

  0
STYLE
  5
4BF
100
AcDbSymbolTableRecord
100
AcDbTextStyleTableRecord
  2
BOX
 70
         0
 40
1.0
 41
1.0
 50
0.0
 71
         0
 42
0.2
  3
txt.shx
  4

  0
STYLE
  5
4CF
100
AcDbSymbolTableRecord
100
AcDbTextStyleTableRecord
  2
BOX
 70
         0
 40
1.0
 41
1.0
 50
0.0
 71
         0
 42
0.2
  3
txt.shx
  4

  0
STYLE
  5
4DD
100
AcDbSymbolTableRecord
100
AcDbTextStyleTableRecord
  2
BOX
 70
         0
 40
1.0
 41
1.0
 50
0.0
 71
         0
 42
0.2
  3
txt.shx
  4

  0
STYLE
  5
504
100
AcDbSymbolTableRecord
100
AcDbTextStyleTableRecord
  2
BOX
 70
         0
 40
1.0
 41
1.0
 50
0.0
 71
         0
 42
0.2
  3
txt.shx
  4

  0
STYLE
  5
51E
100
AcDbSymbolTableRecord
100
AcDbTextStyleTableRecord
  2
BOX
 70
         0
 40
1.0
 41
1.0
 50
0.0
 71
         0
 42
0.2
  3
txt.shx
  4

  0
STYLE
  5
52E
100
AcDbSymbolTableRecord
100
AcDbTextStyleTableRecord
  2
BOX
 70
         0
 40
1.0
 41
1.0
 50
0.0
 71
         0
 42
0.2
  3
txt.shx
  4

  0
STYLE
  5
53C
100
AcDbSymbolTableRecord
100
AcDbTextStyleTableRecord
  2
BOX
 70
         0
 40
1.0
 41
1.0
 50
0.0
 71
         0
 42
0.2
  3
txt.shx
  4

  0
STYLE
  5
54B
100
AcDbSymbolTableRecord
100
AcDbTextStyleTableRecord
  2
BOX
 70
         0
 40
1.0
 41
1.0
 50
0.0
 71
         0
 42
0.2
  3
txt.shx
  4

  0
STYLE
  5
559
100
AcDbSymbolTableRecord
100
AcDbTextStyleTableRecord
  2
BOX
 70
         0
 40
1.0
 41
1.0
 50
0.0
 71
         0
 42
0.2
  3
txt.shx
  4

  0
STYLE
  5
567
100
AcDbSymbolTableRecord
100
AcDbTextStyleTableRecord
  2
BOX
 70
         0
 40
1.0
 41
1.0
 50
0.0
 71
         0
 42
0.2
  3
txt.shx
  4

  0
STYLE
  5
575
100
AcDbSymbolTableRecord
100
AcDbTextStyleTableRecord
  2
BOX
 70
         0
 40
1.0
 41
1.0
 50
0.0
 71
         0
 42
0.2
  3
txt.shx
  4

  0
STYLE
  5
583
100
AcDbSymbolTableRecord
100
AcDbTextStyleTableRecord
  2
BOX
 70
         0
 40
1.0
 41
1.0
 50
0.0
 71
         0
 42
0.2
  3
txt.shx
  4

  0
STYLE
  5
591
100
AcDbSymbolTableRecord
100
AcDbTextStyleTableRecord
  2
BOX
 70
         0
 40
1.0
 41
1.0
 50
0.0
 71
         0
 42
0.2
  3
txt.shx
  4

  0
STYLE
  5
59F
100
AcDbSymbolTableRecord
100
AcDbTextStyleTableRecord
  2
BOX
 70
         0
 40
1.0
 41
1.0
 50
0.0
 71
         0
 42
0.2
  3
txt.shx
  4

  0
STYLE
  5
5AD
100
AcDbSymbolTableRecord
100
AcDbTextStyleTableRecord
  2
BOX
 70
         0
 40
1.0
 41
1.0
 50
0.0
 71
         0
 42
0.2
  3
txt.shx
  4

  0
STYLE
  5
5BB
100
AcDbSymbolTableRecord
100
AcDbTextStyleTableRecord
  2
BOX
 70
         0
 40
1.0
 41
1.0
 50
0.0
 71
         0
 42
0.2
  3
txt.shx
  4

  0
STYLE
  5
5C9
100
AcDbSymbolTableRecord
100
AcDbTextStyleTableRecord
  2
BOX
 70
         0
 40
1.0
 41
1.0
 50
0.0
 71
         0
 42
0.2
  3
txt.shx
  4

  0
STYLE
  5
5CC
100
AcDbSymbolTableRecord
100
AcDbTextStyleTableRecord
  2
BOX
 70
         0
 40
1.0
 41
1.0
 50
0.0
 71
         0
 42
0.2
  3
txt.shx
  4

  0
ENDTAB
  0
TABLE
  2
VIEW
  5
5
100
AcDbSymbolTable
 70
         0
  0
ENDTAB
  0
TABLE
  2
UCS
  5
6
100
AcDbSymbolTable
 70
         1
  0
UCS
  5
20
100
AcDbSymbolTableRecord
100
AcDbUCSTableRecord
  2
CK_VIEW_1
 70
         0
 10
0.0
 20
0.0
 30
1.0
 11
1.0
 21
0.0
 31
0.0
 12
0.0
 22
1.0
 32
0.0
  0
ENDTAB
  0
TABLE
  2
APPID
  5
8
100
AcDbSymbolTable
 70
         1
  0
APPID
  5
16
100
AcDbSymbolTableRecord
100
AcDbRegAppTableRecord
  2
ACAD
 70
         0
  0
ENDTAB
  0
TABLE
  2
DIMSTYLE
  5
9
100
AcDbSymbolTable
 70
         2
  0
DIMSTYLE
105
18
100
AcDbSymbolTableRecord
100
AcDbDimStyleTableRecord
  2
STANDARD
 70
         0
  3

  4

  5

  6

  7

 40
1.0
 41
0.18
 42
0.0625
 43
0.38
 44
0.18
 45
0.0
 46
0.0
 47
0.0
 48
0.0
 71
         0
 72
         0
 73
         1
 74
         1
 75
         0
 76
         0
 77
         0
 78
         0
140
0.18
141
0.09
142
0.0
143
25.4
144
1.0
145
0.0
146
1.0
147
0.09
170
         0
171
         2
172
         0
173
         0
174
         0
175
         0
176
         0
177
         0
178
         0
270
         2
271
         4
272
         4
273
         2
274
         2
275
         0
280
         0
281
         0
282
         0
283
         1
284
         0
285
         0
286
         0
287
         0
288
         0
340
17
  0
DIMSTYLE
105
D5
100
AcDbSymbolTableRecord
100
AcDbDimStyleTableRecord
  2
DIMSTYLE1
 70
         0
  3

  4

  5

  6

  7

 40
1.0
 41
2.7
 42
0.0625
 43
0.38
 44
2.7
 45
0.0
 46
0.0
 47
0.0
 48
0.0
 71
         0
 72
         0
 73
         1
 74
         1
 75
         0
 76
         0
 77
         0
 78
         0
140
2.7
141
0.09
142
0.0
143
25.4
144
1.0
145
0.0
146
1.0
147
0.09
170
         0
171
         2
172
         0
173
         0
174
         0
175
         0
176
         0
177
         0
178
         0
270
         2
271
         4
272
         4
273
         2
274
         2
275
         0
280
         0
281
         0
282
         0
283
         1
284
         0
285
         0
286
         0
287
         0
288
         0
340
17
  0
ENDTAB
  0
TABLE
  2
BLOCK_RECORD
  5
1
100
AcDbSymbolTable
 70
        34
  0
BLOCK_RECORD
  5
A
100
AcDbSymbolTableRecord
100
AcDbBlockTableRecord
  2
*MODEL_SPACE
  0
BLOCK_RECORD
  5
B
100
AcDbSymbolTableRecord
100
AcDbBlockTableRecord
  2
*PAPER_SPACE
  0
BLOCK_RECORD
  5
24
100
AcDbSymbolTableRecord
100
AcDbBlockTableRecord
  2
*X0
  0
BLOCK_RECORD
  5
D6
100
AcDbSymbolTableRecord
100
AcDbBlockTableRecord
  2
*D1
  0
BLOCK_RECORD
  5
E2
100
AcDbSymbolTableRecord
100
AcDbBlockTableRecord
  2
*D2
  0
BLOCK_RECORD
  5
F9
100
AcDbSymbolTableRecord
100
AcDbBlockTableRecord
  2
*D3
  0
BLOCK_RECORD
  5
107
100
AcDbSymbolTableRecord
100
AcDbBlockTableRecord
  2
*D4
  0
BLOCK_RECORD
  5
115
100
AcDbSymbolTableRecord
100
AcDbBlockTableRecord
  2
*D5
  0
BLOCK_RECORD
  5
123
100
AcDbSymbolTableRecord
100
AcDbBlockTableRecord
  2
*D6
  0
BLOCK_RECORD
  5
137
100
AcDbSymbolTableRecord
100
AcDbBlockTableRecord
  2
*D7
  0
BLOCK_RECORD
  5
14A
100
AcDbSymbolTableRecord
100
AcDbBlockTableRecord
  2
*D8
  0
BLOCK_RECORD
  5
16B
100
AcDbSymbolTableRecord
100
AcDbBlockTableRecord
  2
*D9
  0
BLOCK_RECORD
  5
1A7
100
AcDbSymbolTableRecord
100
AcDbBlockTableRecord
  2
*D10
  0
BLOCK_RECORD
  5
1BF
100
AcDbSymbolTableRecord
100
AcDbBlockTableRecord
  2
*D11
  0
BLOCK_RECORD
  5
1E2
100
AcDbSymbolTableRecord
100
AcDbBlockTableRecord
  2
*D12
  0
BLOCK_RECORD
  5
1F0
100
AcDbSymbolTableRecord
100
AcDbBlockTableRecord
  2
*D13
  0
BLOCK_RECORD
  5
1FE
100
AcDbSymbolTableRecord
100
AcDbBlockTableRecord
  2
*D14
  0
BLOCK_RECORD
  5
223
100
AcDbSymbolTableRecord
100
AcDbBlockTableRecord
  2
*D15
  0
BLOCK_RECORD
  5
49B
100
AcDbSymbolTableRecord
100
AcDbBlockTableRecord
  2
*D16
  0
BLOCK_RECORD
  5
4B4
100
AcDbSymbolTableRecord
100
AcDbBlockTableRecord
  2
*D17
  0
BLOCK_RECORD
  5
4C4
100
AcDbSymbolTableRecord
100
AcDbBlockTableRecord
  2
*D18
  0
BLOCK_RECORD
  5
4D2
100
AcDbSymbolTableRecord
100
AcDbBlockTableRecord
  2
*D19
  0
BLOCK_RECORD
  5
4F9
100
AcDbSymbolTableRecord
100
AcDbBlockTableRecord
  2
*D20
  0
BLOCK_RECORD
  5
513
100
AcDbSymbolTableRecord
100
AcDbBlockTableRecord
  2
*D21
  0
BLOCK_RECORD
  5
521
100
AcDbSymbolTableRecord
100
AcDbBlockTableRecord
  2
*D22
  0
BLOCK_RECORD
  5
531
100
AcDbSymbolTableRecord
100
AcDbBlockTableRecord
  2
*D23
  0
BLOCK_RECORD
  5
53F
100
AcDbSymbolTableRecord
100
AcDbBlockTableRecord
  2
*D24
  0
BLOCK_RECORD
  5
54E
100
AcDbSymbolTableRecord
100
AcDbBlockTableRecord
  2
*D25
  0
BLOCK_RECORD
  5
55C
100
AcDbSymbolTableRecord
100
AcDbBlockTableRecord
  2
*D26
  0
BLOCK_RECORD
  5
56A
100
AcDbSymbolTableRecord
100
AcDbBlockTableRecord
  2
*D27
  0
BLOCK_RECORD
  5
578
100
AcDbSymbolTableRecord
100
AcDbBlockTableRecord
  2
*D28
  0
BLOCK_RECORD
  5
586
100
AcDbSymbolTableRecord
100
AcDbBlockTableRecord
  2
*D29
  0
BLOCK_RECORD
  5
594
100
AcDbSymbolTableRecord
100
AcDbBlockTableRecord
  2
*D30
  0
BLOCK_RECORD
  5
5A2
100
AcDbSymbolTableRecord
100
AcDbBlockTableRecord
  2
*D31
  0
BLOCK_RECORD
  5
5B0
100
AcDbSymbolTableRecord
100
AcDbBlockTableRecord
  2
*D32
  0
BLOCK_RECORD
  5
5BE
100
AcDbSymbolTableRecord
100
AcDbBlockTableRecord
  2
*D33
  0
ENDTAB
  0
ENDSEC
  0
SECTION
  2
BLOCKS
  0
BLOCK
  5
D
100
AcDbEntity
  8
0
100
AcDbBlockBegin
  2
*MODEL_SPACE
 70
         0
 10
0.0
 20
0.0
 30
0.0
  3
*MODEL_SPACE
  1

  0
ENDBLK
  5
E
100
AcDbEntity
  8
0
100
AcDbBlockEnd
  0
BLOCK
  5
F
100
AcDbEntity
 67
         1
  8
0
100
AcDbBlockBegin
  2
*PAPER_SPACE
 70
         0
 10
0.0
 20
0.0
 30
0.0
  3
*PAPER_SPACE
  1

  0
ENDBLK
  5
10
100
AcDbEntity
 67
         1
  8
0
100
AcDbBlockEnd
  0
BLOCK
  5
25
100
AcDbEntity
  8
0
100
AcDbBlockBegin
  2
*X0
 70
        65
 10
0.0
 20
0.0
 30
0.0
  3
*X0
  1

  0
LINE
  5
26
100
AcDbEntity
  8
L1_100
  6
CONTINUOUS
 62
         4
100
AcDbLine
 10
1442.3079876369
 20
-41.7282456346
 30
0.0
 11
1446.6587667757
 21
-37.3774664958
 31
0.0
  0
LINE
  5
27
100
AcDbEntity
  8
L1_100
  6
CONTINUOUS
 62
         4
100
AcDbLine
 10
1438.1033403763
 20
-41.6902522081
 30
0.0
 11
1442.8502578437
 21
-36.9433347407
 31
0.0
  0
LINE
  5
28
100
AcDbEntity
  8
L1_100
  6
CONTINUOUS
 62
         4
100
AcDbLine
 10
1433.6076171566
 20
-41.9433347407
 30
0.0
 11
1438.6076171566
 21
-36.9433347407
 31
0.0
  0
LINE
  5
29
100
AcDbEntity
  8
L1_100
  6
CONTINUOUS
 62
         4
100
AcDbLine
 10
1429.3649764695
 20
-41.9433347407
 30
0.0
 11
1434.3649764695
 21
-36.9433347407
 31
0.0
  0
LINE
  5
2A
100
AcDbEntity
  8
L1_100
  6
CONTINUOUS
 62
         4
100
AcDbLine
 10
1425.1223357824
 20
-41.9433347407
 30
0.0
 11
1430.1223357824
 21
-36.9433347407
 31
0.0
  0
LINE
  5
2B
100
AcDbEntity
  8
L1_100
  6
CONTINUOUS
 62
         4
100
AcDbLine
 10
1420.8796950952
 20
-41.9433347407
 30
0.0
 11
1425.8796950952
 21
-36.9433347407
 31
0.0
  0
LINE
  5
2C
100
AcDbEntity
  8
L1_100
  6
CONTINUOUS
 62
         4
100
AcDbLine
 10
1416.6370544081
 20
-41.9433347407
 30
0.0
 11
1421.6370544081
 21
-36.9433347407
 31
0.0
  0
LINE
  5
2D
100
AcDbEntity
  8
L1_100
  6
CONTINUOUS
 62
         4
100
AcDbLine
 10
1412.394413721
 20
-41.9433347407
 30
0.0
 11
1417.394413721
 21
-36.9433347407
 31
0.0
  0
LINE
  5
2E
100
AcDbEntity
  8
L1_100
  6
CONTINUOUS
 62
         4
100
AcDbLine
 10
1408.1517730339
 20
-41.9433347407
 30
0.0
 11
1413.1517730339
 21
-36.9433347407
 31
0.0
  0
LINE
  5
2F
100
AcDbEntity
  8
L1_100
  6
CONTINUOUS
 62
         4
100
AcDbLine
 10
1403.9091323468
 20
-41.9433347407
 30
0.0
 11
1408.9091323468
 21
-36.9433347407
 31
0.0
  0
LINE
  5
30
100
AcDbEntity
  8
L1_100
  6
CONTINUOUS
 62
         4
100
AcDbLine
 10
1399.6664916596
 20
-41.9433347407
 30
0.0
 11
1404.6664916596
 21
-36.9433347407
 31
0.0
  0
LINE
  5
31
100
AcDbEntity
  8
L1_100
  6
CONTINUOUS
 62
         4
100
AcDbLine
 10
1392.9238509725
 20
-44.4433347407
 30
0.0
 11
1396.6033403763
 21
-40.7638453369
 31
0.0
  0
LINE
  5
32
100
AcDbEntity
  8
L1_100
  6
CONTINUOUS
 62
         4
100
AcDbLine
 10
1398.6033403763
 20
-38.7638453369
 30
0.0
 11
1400.4238509725
 21
-36.9433347407
 31
0.0
  0
LINE
  5
33
100
AcDbEntity
  8
L1_100
  6
CONTINUOUS
 62
         4
100
AcDbLine
 10
1388.6812102854
 20
-44.4433347407
 30
0.0
 11
1395.6812102854
 21
-37.4433347407
 31
0.0
  0
LINE
  5
34
100
AcDbEntity
  8
L1_100
  6
CONTINUOUS
 62
         4
100
AcDbLine
 10
1444.1812102854
 20
11.0566652593
 30
0.0
 11
1446.9394540025
 21
13.8149089764
 31
0.0
  0
LINE
  5
35
100
AcDbEntity
  8
L1_100
  6
CONTINUOUS
 62
         4
100
AcDbLine
 10
1384.4385695983
 20
-44.4433347407
 30
0.0
 11
1394.1057015658
 21
-34.7762027732
 31
0.0
  0
LINE
  5
36
100
AcDbEntity
  8
L1_100
  6
CONTINUOUS
 62
         4
100
AcDbLine
 10
1439.9385695983
 20
11.0566652593
 30
0.0
 11
1444.2130267897
 21
15.3311224507
 31
0.0
  0
LINE
  5
37
100
AcDbEntity
  8
L1_100
  6
CONTINUOUS
 62
         4
100
AcDbLine
 10
1380.1959289112
 20
-44.4433347407
 30
0.0
 11
1393.6508152385
 21
-30.9884484134
 31
0.0
  0
LINE
  5
38
100
AcDbEntity
  8
L1_100
  6
CONTINUOUS
 62
         4
100
AcDbLine
 10
1435.6959289112
 20
11.0566652593
 30
0.0
 11
1440.6959289112
 21
16.0566652593
 31
0.0
  0
LINE
  5
39
100
AcDbEntity
  8
L1_100
  6
CONTINUOUS
 62
         4
100
AcDbLine
 10
1375.953288224
 20
-44.4433347407
 30
0.0
 11
1389.953288224
 21
-30.4433347407
 31
0.0
  0
LINE
  5
3A
100
AcDbEntity
  8
L1_100
  6
CONTINUOUS
 62
         4
100
AcDbLine
 10
1431.453288224
 20
11.0566652593
 30
0.0
 11
1436.1033403763
 21
15.7067174115
 31
0.0
  0
LINE
  5
3B
100
AcDbEntity
  8
L1_100
  6
CONTINUOUS
 62
         4
100
AcDbLine
 10
1371.7106475369
 20
-44.4433347407
 30
0.0
 11
1385.7106475369
 21
-30.4433347407
 31
0.0
  0
LINE
  5
3C
100
AcDbEntity
  8
L1_100
  6
CONTINUOUS
 62
         4
100
AcDbLine
 10
1431.0483403763
 20
14.8943580987
 30
0.0
 11
1432.2106475369
 21
16.0566652593
 31
0.0
  0
LINE
  5
3D
100
AcDbEntity
  8
L1_100
  6
CONTINUOUS
 62
         4
100
AcDbLine
 10
1367.4680068498
 20
-44.4433347407
 30
0.0
 11
1381.4680068498
 21
-30.4433347407
 31
0.0
  0
LINE
  5
3E
100
AcDbEntity
  8
L1_100
  6
CONTINUOUS
 62
         4
100
AcDbLine
 10
1363.2253661627
 20
-44.4433347407
 30
0.0
 11
1377.2253661627
 21
-30.4433347407
 31
0.0
  0
LINE
  5
3F
100
AcDbEntity
  8
L1_100
  6
CONTINUOUS
 62
         4
100
AcDbLine
 10
1358.9827254756
 20
-44.4433347407
 30
0.0
 11
1372.9827254756
 21
-30.4433347407
 31
0.0
  0
LINE
  5
40
100
AcDbEntity
  8
L1_100
  6
CONTINUOUS
 62
         4
100
AcDbLine
 10
1354.7400847884
 20
-44.4433347407
 30
0.0
 11
1368.2400847884
 21
-30.9433347407
 31
0.0
  0
LINE
  5
41
100
AcDbEntity
  8
L1_100
  6
CONTINUOUS
 62
         4
100
AcDbLine
 10
1350.4974441013
 20
-44.4433347407
 30
0.0
 11
1367.1033403763
 21
-27.8374384657
 31
0.0
  0
LINE
  5
42
100
AcDbEntity
  8
L1_100
  6
CONTINUOUS
 62
         4
100
AcDbLine
 10
1346.2548034142
 20
-44.4433347407
 30
0.0
 11
1367.1033403763
 21
-23.5947977786
 31
0.0
  0
LINE
  5
43
100
AcDbEntity
  8
L1_100
  6
CONTINUOUS
 62
         4
100
AcDbLine
 10
1401.7548034142
 20
11.0566652593
 30
0.0
 11
1403.0583403763
 21
12.3602022214
 31
0.0
  0
LINE
  5
44
100
AcDbEntity
  8
L1_100
  6
CONTINUOUS
 62
         4
100
AcDbLine
 10
1342.0121627271
 20
-44.4433347407
 30
0.0
 11
1367.1033403763
 21
-19.3521570915
 31
0.0
  0
LINE
  5
45
100
AcDbEntity
  8
L1_100
  6
CONTINUOUS
 62
         4
100
AcDbLine
 10
1391.0121627271
 20
4.5566652593
 30
0.0
 11
1394.1057015658
 21
7.650204098
 31
0.0
  0
LINE
  5
46
100
AcDbEntity
  8
L1_100
  6
CONTINUOUS
 62
         4
100
AcDbLine
 10
1398.0121627271
 20
11.5566652593
 30
0.0
 11
1402.5121627271
 21
16.0566652593
 31
0.0
  0
LINE
  5
47
100
AcDbEntity
  8
L1_100
  6
CONTINUOUS
 62
         4
100
AcDbLine
 10
1337.76952204
 20
-44.4433347407
 30
0.0
 11
1366.4364312081
 21
-15.7764255725
 31
0.0
  0
LINE
  5
48
100
AcDbEntity
  8
L1_100
  6
CONTINUOUS
 62
         4
100
AcDbLine
 10
1386.76952204
 20
4.5566652593
 30
0.0
 11
1398.1473360486
 21
15.934479268
 31
0.0
  0
LINE
  5
49
100
AcDbEntity
  8
L1_100
  6
CONTINUOUS
 62
         4
100
AcDbLine
 10
1333.5268813528
 20
-44.4433347407
 30
0.0
 11
1362.5268813528
 21
-15.4433347407
 31
0.0
  0
LINE
  5
4A
100
AcDbEntity
  8
L1_100
  6
CONTINUOUS
 62
         4
100
AcDbLine
 10
1382.5268813528
 20
4.5566652593
 30
0.0
 11
1396.0982243759
 21
18.1280082823
 31
0.0
  0
LINE
  5
4B
100
AcDbEntity
  8
L1_100
  6
CONTINUOUS
 62
         4
100
AcDbLine
 10
1329.7824724238
 20
-43.9451029826
 30
0.0
 11
1358.2842406657
 21
-15.4433347407
 31
0.0
  0
LINE
  5
4C
100
AcDbEntity
  8
L1_100
  6
CONTINUOUS
 62
         4
100
AcDbLine
 10
1363.2842406657
 20
-10.4433347407
 30
0.0
 11
1367.1033403763
 21
-6.6242350301
 31
0.0
  0
LINE
  5
4D
100
AcDbEntity
  8
L1_100
  6
CONTINUOUS
 62
         4
100
AcDbLine
 10
1378.2842406657
 20
4.5566652593
 30
0.0
 11
1392.2842406657
 21
18.5566652593
 31
0.0
  0
LINE
  5
4E
100
AcDbEntity
  8
L1_100
  6
CONTINUOUS
 62
         4
100
AcDbLine
 10
1329.1033403763
 20
-40.381594343
 30
0.0
 11
1354.0415999786
 21
-15.4433347407
 31
0.0
  0
LINE
  5
4F
100
AcDbEntity
  8
L1_100
  6
CONTINUOUS
 62
         4
100
AcDbLine
 10
1359.0415999786
 20
-10.4433347407
 30
0.0
 11
1367.1033403763
 21
-2.381594343
 31
0.0
  0
LINE
  5
50
100
AcDbEntity
  8
L1_100
  6
CONTINUOUS
 62
         4
100
AcDbLine
 10
1374.0415999786
 20
4.5566652593
 30
0.0
 11
1388.0415999786
 21
18.5566652593
 31
0.0
  0
LINE
  5
51
100
AcDbEntity
  8
L1_100
  6
CONTINUOUS
 62
         4
100
AcDbLine
 10
1329.1033403763
 20
-36.1389536559
 30
0.0
 11
1349.7989592915
 21
-15.4433347407
 31
0.0
  0
LINE
  5
52
100
AcDbEntity
  8
L1_100
  6
CONTINUOUS
 62
         4
100
AcDbLine
 10
1354.7989592915
 20
-10.4433347407
 30
0.0
 11
1367.1033403763
 21
1.8610463441
 31
0.0
  0
LINE
  5
53
100
AcDbEntity
  8
L1_100
  6
CONTINUOUS
 62
         4
100
AcDbLine
 10
1370.2989592915
 20
5.0566652593
 30
0.0
 11
1383.7989592915
 21
18.5566652593
 31
0.0
  0
LINE
  5
54
100
AcDbEntity
  8
L1_100
  6
CONTINUOUS
 62
         4
100
AcDbLine
 10
1329.1033403763
 20
-31.8963129688
 30
0.0
 11
1347.6962988924
 21
-13.3033544526
 31
0.0
  0
LINE
  5
55
100
AcDbEntity
  8
L1_100
  6
CONTINUOUS
 62
         4
100
AcDbLine
 10
1350.5563186044
 20
-10.4433347407
 30
0.0
 11
1379.5563186044
 21
18.5566652593
 31
0.0
  0
LINE
  5
56
100
AcDbEntity
  8
L1_100
  6
CONTINUOUS
 62
         4
100
AcDbLine
 10
1329.1033403763
 20
-27.6536722817
 30
0.0
 11
1375.3136779172
 21
18.5566652593
 31
0.0
  0
LINE
  5
57
100
AcDbEntity
  8
L1_100
  6
CONTINUOUS
 62
         4
100
AcDbLine
 10
1329.1033403763
 20
-23.4110315946
 30
0.0
 11
1371.0710372301
 21
18.5566652593
 31
0.0
  0
LINE
  5
58
100
AcDbEntity
  8
L1_100
  6
CONTINUOUS
 62
         4
100
AcDbLine
 10
1329.1033403763
 20
-19.1683909074
 30
0.0
 11
1366.828396543
 21
18.5566652593
 31
0.0
  0
LINE
  5
59
100
AcDbEntity
  8
L1_100
  6
CONTINUOUS
 62
         4
100
AcDbLine
 10
1329.1033403763
 20
-14.9257502203
 30
0.0
 11
1362.5857558559
 21
18.5566652593
 31
0.0
  0
LINE
  5
5A
100
AcDbEntity
  8
L1_100
  6
CONTINUOUS
 62
         4
100
AcDbLine
 10
1329.1033403763
 20
-10.6831095332
 30
0.0
 11
1358.3431151688
 21
18.5566652593
 31
0.0
  0
LINE
  5
5B
100
AcDbEntity
  8
L1_100
  6
CONTINUOUS
 62
         4
100
AcDbLine
 10
1329.1033403763
 20
-6.4404688461
 30
0.0
 11
1354.1004744817
 21
18.5566652593
 31
0.0
  0
LINE
  5
5C
100
AcDbEntity
  8
L1_100
  6
CONTINUOUS
 62
         4
100
AcDbLine
 10
1329.1033403763
 20
-2.197828159
 30
0.0
 11
1349.8578337945
 21
18.5566652593
 31
0.0
  0
LINE
  5
5D
100
AcDbEntity
  8
L1_100
  6
CONTINUOUS
 62
         4
100
AcDbLine
 10
1329.1033403763
 20
2.0448125282
 30
0.0
 11
1345.6151931074
 21
18.5566652593
 31
0.0
  0
LINE
  5
5E
100
AcDbEntity
  8
L1_100
  6
CONTINUOUS
 62
         4
100
AcDbLine
 10
1329.1033403763
 20
6.2874532153
 30
0.0
 11
1341.3725524203
 21
18.5566652593
 31
0.0
  0
LINE
  5
5F
100
AcDbEntity
  8
L1_100
  6
CONTINUOUS
 62
         4
100
AcDbLine
 10
1329.1033403763
 20
10.5300939024
 30
0.0
 11
1337.1299117332
 21
18.5566652593
 31
0.0
  0
LINE
  5
60
100
AcDbEntity
  8
L1_100
  6
CONTINUOUS
 62
         4
100
AcDbLine
 10
1329.1033403763
 20
14.7727345895
 30
0.0
 11
1332.8872710461
 21
18.5566652593
 31
0.0
  0
ENDBLK
  5
61
100
AcDbEntity
  8
0
  6
CONTINUOUS
100
AcDbBlockEnd
  0
BLOCK
  5
D7
100
AcDbEntity
  8
0
100
AcDbBlockBegin
  2
*D1
 70
        65
 10
0.0
 20
0.0
 30
0.0
  3
*D1
  1

  0
POINT
  5
DA
100
AcDbEntity
  8
DEFPOINTS
  6
CONTINUOUS
 62
         0
100
AcDbPoint
 10
1652.8085049251
 20
-82.1932676012
 30
0.0
  0
POINT
  5
DB
100
AcDbEntity
  8
DEFPOINTS
  6
CONTINUOUS
 62
         0
100
AcDbPoint
 10
1656.6894401233
 20
-79.4328784552
 30
0.0
  0
LINE
  5
DC
100
AcDbEntity
  8
L1_100
  6
CONTINUOUS
 62
         4
100
AcDbLine
 10
1656.6894401233
 20
-79.4328784552
 30
0.0
 11
1652.8085049251
 21
-82.1932676012
 31
0.0
  0
LINE
  5
DD
100
AcDbEntity
  8
L1_100
  6
CONTINUOUS
 62
         4
100
AcDbLine
 10
1656.6894401233
 20
-79.4328784552
 30
0.0
 11
1670.5470179247
 21
-69.5764120626
 31
0.0
  0
SOLID
  5
DE
100
AcDbEntity
  8
L1_100
  6
CONTINUOUS
 62
         4
100
AcDbTrace
 10
1656.6894401233
 20
-79.4328784552
 30
0.0
 11
1654.723966647
 21
-81.3278557675
 31
0.0
 12
1654.2544831387
 22
-80.6677911983
 32
0.0
 13
1656.6894401233
 23
-79.4328784552
 33
0.0
  0
TEXT
  5
E0
100
AcDbEntity
  8
L1_100
  6
CONTINUOUS
 62
         4
100
AcDbText
 10
1655.8147536788
 20
-78.467785042
 30
0.0
 40
2.7
  1
R4.763
 50
35.4230654293
  7
BOX
100
AcDbText
  0
ENDBLK
  5
E1
100
AcDbEntity
  8
0
  6
CONTINUOUS
100
AcDbBlockEnd
  0
BLOCK
  5
E3
100
AcDbEntity
  8
0
100
AcDbBlockBegin
  2
*D2
 70
        65
 10
0.0
 20
0.0
 30
0.0
  3
*D2
  1

  0
POINT
  5
E5
100
AcDbEntity
  8
DEFPOINTS
  6
CONTINUOUS
 62
         0
100
AcDbPoint
 10
1627.7489849373
 20
-82.1932676012
 30
0.0
  0
POINT
  5
E6
100
AcDbEntity
  8
DEFPOINTS
  6
CONTINUOUS
 62
         0
100
AcDbPoint
 10
1629.4945902717
 20
-79.5411953895
 30
0.0
  0
LINE
  5
E7
100
AcDbEntity
  8
L1_100
  6
CONTINUOUS
 62
         4
100
AcDbLine
 10
1629.4945902717
 20
-79.5411953895
 30
0.0
 11
1627.7489849373
 21
-82.1932676012
 31
0.0
  0
LINE
  5
E8
100
AcDbEntity
  8
L1_100
  6
CONTINUOUS
 62
         4
100
AcDbLine
 10
1629.4945902717
 20
-79.5411953895
 30
0.0
 11
1642.5790670441
 21
-59.6621445128
 31
0.0
  0
SOLID
  5
E9
100
AcDbEntity
  8
L1_100
  6
CONTINUOUS
 62
         4
100
AcDbTrace
 10
1629.4945902717
 20
-79.5411953895
 30
0.0
 11
1628.3484343167
 21
-82.0191686595
 31
0.0
 12
1627.6718426658
 22
-81.5738331253
 32
0.0
 13
1629.4945902717
 23
-79.5411953895
 33
0.0
  0
TEXT
  5
EB
100
AcDbEntity
  8
L1_100
  6
CONTINUOUS
 62
         4
100
AcDbText
 10
1632.1366635753
 20
-73.1243669588
 30
0.0
 40
2.7
  1
R3.175
 50
56.6469156004
  7
BOX
100
AcDbText
  0
ENDBLK
  5
EC
100
AcDbEntity
  8
0
  6
CONTINUOUS
100
AcDbBlockEnd
  0
BLOCK
  5
FA
100
AcDbEntity
  8
0
100
AcDbBlockBegin
  2
*D3
 70
        65
 10
0.0
 20
0.0
 30
0.0
  3
*D3
  1

  0
POINT
  5
FC
100
AcDbEntity
  8
DEFPOINTS
  6
CONTINUOUS
 62
         0
100
AcDbPoint
 10
1589.1118658434
 20
-65.9432676012
 30
0.0
  0
POINT
  5
FD
100
AcDbEntity
  8
DEFPOINTS
  6
CONTINUOUS
 62
         0
100
AcDbPoint
 10
1578.4832592285
 20
-65.9432676012
 30
0.0
  0
POINT
  5
FE
100
AcDbEntity
  8
DEFPOINTS
  6
CONTINUOUS
 62
         0
100
AcDbPoint
 10
1578.4832592285
 20
-98.4432676012
 30
0.0
  0
LINE
  5
FF
100
AcDbEntity
  8
L1_100
  6
CONTINUOUS
 62
         4
100
AcDbLine
 10
1579.8332592285
 20
-65.9432676012
 30
0.0
 11
1589.7868658434
 21
-65.9432676012
 31
0.0
  0
LINE
  5
100
100
AcDbEntity
  8
L1_100
  6
CONTINUOUS
 62
         4
100
AcDbLine
 10
1579.8332592285
 20
-98.4432676012
 30
0.0
 11
1589.7868658434
 21
-98.4432676012
 31
0.0
  0
LINE
  5
101
100
AcDbEntity
  8
L1_100
  6
CONTINUOUS
 62
         4
100
AcDbLine
 10
1589.1118658434
 20
-65.9432676012
 30
0.0
 11
1589.1118658434
 21
-98.4432676012
 31
0.0
  0
SOLID
  5
102
100
AcDbEntity
  8
L1_100
  6
CONTINUOUS
 62
         4
100
AcDbTrace
 10
1589.1118658434
 20
-65.9432676012
 30
0.0
 11
1589.5168658434
 21
-68.6432676012
 31
0.0
 12
1588.7068658434
 22
-68.6432676012
 32
0.0
 13
1589.1118658434
 23
-65.9432676012
 33
0.0
  0
SOLID
  5
103
100
AcDbEntity
  8
L1_100
  6
CONTINUOUS
 62
         4
100
AcDbTrace
 10
1589.1118658434
 20
-98.4432676012
 30
0.0
 11
1588.7068658434
 21
-95.7432676012
 31
0.0
 12
1589.5168658434
 22
-95.7432676012
 32
0.0
 13
1589.1118658434
 23
-98.4432676012
 33
0.0
  0
TEXT
  5
105
100
AcDbEntity
  8
L1_100
  6
CONTINUOUS
 62
         4
100
AcDbText
 10
1587.0868658434
 20
-90.2932676012
 30
0.0
 40
2.7
  1
崷33.5
 50
90.0
  7
BOX
100
AcDbText
  0
ENDBLK
  5
106
100
AcDbEntity
  8
0
  6
CONTINUOUS
100
AcDbBlockEnd
  0
BLOCK
  5
108
100
AcDbEntity
  8
0
100
AcDbBlockBegin
  2
*D4
 70
        65
 10
0.0
 20
0.0
 30
0.0
  3
*D4
  1

  0
POINT
  5
10A
100
AcDbEntity
  8
DEFPOINTS
  6
CONTINUOUS
 62
         0
100
AcDbPoint
 10
1613.7035302416
 20
-61.4432676012
 30
0.0
  0
POINT
  5
10B
100
AcDbEntity
  8
DEFPOINTS
  6
CONTINUOUS
 62
         0
100
AcDbPoint
 10
1603.5245183557
 20
-61.4432676012
 30
0.0
  0
POINT
  5
10C
100
AcDbEntity
  8
DEFPOINTS
  6
CONTINUOUS
 62
         0
100
AcDbPoint
 10
1603.5245183557
 20
-102.9432676012
 30
0.0
  0
LINE
  5
10D
100
AcDbEntity
  8
L1_100
  6
CONTINUOUS
 62
         4
100
AcDbLine
 10
1604.8745183557
 20
-61.4432676012
 30
0.0
 11
1614.3785302416
 21
-61.4432676012
 31
0.0
  0
LINE
  5
10E
100
AcDbEntity
  8
L1_100
  6
CONTINUOUS
 62
         4
100
AcDbLine
 10
1604.8745183557
 20
-102.9432676012
 30
0.0
 11
1614.3785302416
 21
-102.9432676012
 31
0.0
  0
LINE
  5
10F
100
AcDbEntity
  8
L1_100
  6
CONTINUOUS
 62
         4
100
AcDbLine
 10
1613.7035302416
 20
-61.4432676012
 30
0.0
 11
1613.7035302416
 21
-102.9432676012
 31
0.0
  0
SOLID
  5
110
100
AcDbEntity
  8
L1_100
  6
CONTINUOUS
 62
         4
100
AcDbTrace
 10
1613.7035302416
 20
-61.4432676012
 30
0.0
 11
1614.1085302416
 21
-64.1432676012
 31
0.0
 12
1613.2985302416
 22
-64.1432676012
 32
0.0
 13
1613.7035302416
 23
-61.4432676012
 33
0.0
  0
SOLID
  5
111
100
AcDbEntity
  8
L1_100
  6
CONTINUOUS
 62
         4
100
AcDbTrace
 10
1613.7035302416
 20
-102.9432676012
 30
0.0
 11
1613.2985302416
 21
-100.2432676012
 31
0.0
 12
1614.1085302416
 22
-100.2432676012
 32
0.0
 13
1613.7035302416
 23
-102.9432676012
 33
0.0
  0
TEXT
  5
113
100
AcDbEntity
  8
L1_100
  6
CONTINUOUS
 62
         4
100
AcDbText
 10
1611.6785302416
 20
-90.2932676012
 30
0.0
 40
2.7
  1
崷40.5
 50
90.0
  7
BOX
100
AcDbText
  0
ENDBLK
  5
114
100
AcDbEntity
  8
0
  6
CONTINUOUS
100
AcDbBlockEnd
  0
BLOCK
  5
116
100
AcDbEntity
  8
0
100
AcDbBlockBegin
  2
*D5
 70
        65
 10
0.0
 20
0.0
 30
0.0
  3
*D5
  1

  0
POINT
  5
118
100
AcDbEntity
  8
DEFPOINTS
  6
CONTINUOUS
 62
         0
100
AcDbPoint
 10
1552.4973551043
 20
-63.7979661799
 30
0.0
  0
POINT
  5
119
100
AcDbEntity
  8
DEFPOINTS
  6
CONTINUOUS
 62
         0
100
AcDbPoint
 10
1552.4973551043
 20
-69.2432676012
 30
0.0
  0
POINT
  5
11A
100
AcDbEntity
  8
DEFPOINTS
  6
CONTINUOUS
 62
         0
100
AcDbPoint
 10
1553.6973551043
 20
-69.2432676012
 30
0.0
  0
LINE
  5
11B
100
AcDbEntity
  8
L1_100
  6
CONTINUOUS
 62
         4
100
AcDbLine
 10
1552.4973551043
 20
-67.8932676012
 30
0.0
 11
1552.4973551043
 21
-63.1229661799
 31
0.0
  0
LINE
  5
11C
100
AcDbEntity
  8
L1_100
  6
CONTINUOUS
 62
         4
100
AcDbLine
 10
1553.6973551043
 20
-67.8932676012
 30
0.0
 11
1553.6973551043
 21
-63.1229661799
 31
0.0
  0
LINE
  5
11D
100
AcDbEntity
  8
L1_100
  6
CONTINUOUS
 62
         4
100
AcDbLine
 10
1552.4973551043
 20
-63.7979661799
 30
0.0
 11
1553.6973551043
 21
-63.7979661799
 31
0.0
  0
SOLID
  5
11E
100
AcDbEntity
  8
L1_100
  6
CONTINUOUS
 62
         4
100
AcDbTrace
 10
1552.4973551043
 20
-63.7979661799
 30
0.0
 11
1555.1973551043
 21
-63.3929661799
 31
0.0
 12
1555.1973551043
 22
-64.2029661799
 32
0.0
 13
1552.4973551043
 23
-63.7979661799
 33
0.0
  0
SOLID
  5
11F
100
AcDbEntity
  8
L1_100
  6
CONTINUOUS
 62
         4
100
AcDbTrace
 10
1553.6973551043
 20
-63.7979661799
 30
0.0
 11
1550.9973551043
 21
-64.2029661799
 31
0.0
 12
1550.9973551043
 22
-63.3929661799
 32
0.0
 13
1553.6973551043
 23
-63.7979661799
 33
0.0
  0
TEXT
  5
121
100
AcDbEntity
  8
L1_100
  6
CONTINUOUS
 62
         4
100
AcDbText
 10
1549.0473551043
 20
-61.7729661799
 30
0.0
 40
2.7
  1
1.2
  7
BOX
100
AcDbText
  0
ENDBLK
  5
122
100
AcDbEntity
  8
0
  6
CONTINUOUS
100
AcDbBlockEnd
  0
BLOCK
  5
124
100
AcDbEntity
  8
0
100
AcDbBlockBegin
  2
*D6
 70
        65
 10
0.0
 20
0.0
 30
0.0
  3
*D6
  1

  0
POINT
  5
126
100
AcDbEntity
  8
DEFPOINTS
  6
CONTINUOUS
 62
         0
100
AcDbPoint
 10
1561.1793989542
 20
-69.2432676012
 30
0.0
  0
POINT
  5
127
100
AcDbEntity
  8
DEFPOINTS
  6
CONTINUOUS
 62
         0
100
AcDbPoint
 10
1553.6973551043
 20
-69.2432676012
 30
0.0
  0
POINT
  5
128
100
AcDbEntity
  8
DEFPOINTS
  6
CONTINUOUS
 62
         0
100
AcDbPoint
 10
1553.6973551043
 20
-95.1432676012
 30
0.0
  0
LINE
  5
129
100
AcDbEntity
  8
L1_100
  6
CONTINUOUS
 62
         4
100
AcDbLine
 10
1555.0473551043
 20
-69.2432676012
 30
0.0
 11
1561.8543989542
 21
-69.2432676012
 31
0.0
  0
LINE
  5
12A
100
AcDbEntity
  8
L1_100
  6
CONTINUOUS
 62
         4
100
AcDbLine
 10
1555.0473551043
 20
-95.1432676012
 30
0.0
 11
1561.8543989542
 21
-95.1432676012
 31
0.0
  0
LINE
  5
12B
100
AcDbEntity
  8
L1_100
  6
CONTINUOUS
 62
         4
100
AcDbLine
 10
1561.1793989542
 20
-69.2432676012
 30
0.0
 11
1561.1793989542
 21
-95.1432676012
 31
0.0
  0
SOLID
  5
12C
100
AcDbEntity
  8
L1_100
  6
CONTINUOUS
 62
         4
100
AcDbTrace
 10
1561.1793989542
 20
-69.2432676012
 30
0.0
 11
1561.5843989542
 21
-71.9432676012
 31
0.0
 12
1560.7743989542
 22
-71.9432676012
 32
0.0
 13
1561.1793989542
 23
-69.2432676012
 33
0.0
  0
SOLID
  5
12D
100
AcDbEntity
  8
L1_100
  6
CONTINUOUS
 62
         4
100
AcDbTrace
 10
1561.1793989542
 20
-95.1432676012
 30
0.0
 11
1560.7743989542
 21
-92.4432676012
 31
0.0
 12
1561.5843989542
 22
-92.4432676012
 32
0.0
 13
1561.1793989542
 23
-95.1432676012
 33
0.0
  0
TEXT
  5
12F
100
AcDbEntity
  8
L1_100
  6
CONTINUOUS
 62
         4
100
AcDbText
 10
1559.1543989542
 20
-87.5932676012
 30
0.0
 40
2.7
  1
崷26
 50
90.0
  7
BOX
100
AcDbText
  0
ENDBLK
  5
130
100
AcDbEntity
  8
0
  6
CONTINUOUS
100
AcDbBlockEnd
  0
BLOCK
  5
138
100
AcDbEntity
  8
0
100
AcDbBlockBegin
  2
*D7
 70
        65
 10
0.0
 20
0.0
 30
0.0
  3
*D7
  1

  0
POINT
  5
13A
100
AcDbEntity
  8
DEFPOINTS
  6
CONTINUOUS
 62
         0
100
AcDbPoint
 10
1534.5363526134
 20
-52.1932676012
 30
0.0
  0
POINT
  5
13B
100
AcDbEntity
  8
DEFPOINTS
  6
CONTINUOUS
 62
         0
100
AcDbPoint
 10
1521.9828187736
 20
-52.1932676012
 30
0.0
  0
POINT
  5
13C
100
AcDbEntity
  8
DEFPOINTS
  6
CONTINUOUS
 62
         0
100
AcDbPoint
 10
1521.9828187736
 20
-112.1932676012
 30
0.0
  0
LINE
  5
13D
100
AcDbEntity
  8
L1_100
  6
CONTINUOUS
 62
         4
100
AcDbLine
 10
1523.3328187736
 20
-52.1932676012
 30
0.0
 11
1535.2113526134
 21
-52.1932676012
 31
0.0
  0
LINE
  5
13E
100
AcDbEntity
  8
L1_100
  6
CONTINUOUS
 62
         4
100
AcDbLine
 10
1523.3328187736
 20
-112.1932676012
 30
0.0
 11
1535.2113526134
 21
-112.1932676012
 31
0.0
  0
LINE
  5
13F
100
AcDbEntity
  8
L1_100
  6
CONTINUOUS
 62
         4
100
AcDbLine
 10
1534.5363526134
 20
-52.1932676012
 30
0.0
 11
1534.5363526134
 21
-112.1932676012
 31
0.0
  0
SOLID
  5
140
100
AcDbEntity
  8
L1_100
  6
CONTINUOUS
 62
         4
100
AcDbTrace
 10
1534.5363526134
 20
-52.1932676012
 30
0.0
 11
1534.9413526134
 21
-54.8932676012
 31
0.0
 12
1534.1313526134
 22
-54.8932676012
 32
0.0
 13
1534.5363526134
 23
-52.1932676012
 33
0.0
  0
SOLID
  5
141
100
AcDbEntity
  8
L1_100
  6
CONTINUOUS
 62
         4
100
AcDbTrace
 10
1534.5363526134
 20
-112.1932676012
 30
0.0
 11
1534.1313526134
 21
-109.4932676012
 31
0.0
 12
1534.9413526134
 22
-109.4932676012
 32
0.0
 13
1534.5363526134
 23
-112.1932676012
 33
0.0
  0
TEXT
  5
143
100
AcDbEntity
  8
L1_100
  6
CONTINUOUS
 62
         4
100
AcDbText
 10
1532.5113526134
 20
-87.5932676012
 30
0.0
 40
2.7
  1
崷59
 50
90.0
  7
BOX
100
AcDbText
  0
ENDBLK
  5
144
100
AcDbEntity
  8
0
  6
CONTINUOUS
100
AcDbBlockEnd
  0
BLOCK
  5
14B
100
AcDbEntity
  8
0
100
AcDbBlockBegin
  2
*D8
 70
        65
 10
0.0
 20
0.0
 30
0.0
  3
*D8
  1

  0
POINT
  5
14D
100
AcDbEntity
  8
DEFPOINTS
  6
CONTINUOUS
 62
         0
100
AcDbPoint
 10
1749.7630865105
 20
-4.5124661467
 30
0.0
  0
POINT
  5
14E
100
AcDbEntity
  8
DEFPOINTS
  6
CONTINUOUS
 62
         0
100
AcDbPoint
 10
1759.4816516804
 20
-4.5124661467
 30
0.0
  0
POINT
  5
14F
100
AcDbEntity
  8
DEFPOINTS
  6
CONTINUOUS
 62
         0
100
AcDbPoint
 10
1758.1116516804
 20
-24.6524661467
 30
0.0
  0
LINE
  5
150
100
AcDbEntity
  8
L1_100
  6
CONTINUOUS
 62
         4
100
AcDbLine
 10
1758.1316516804
 20
-4.5124661467
 30
0.0
 11
1749.0880865105
 21
-4.5124661467
 31
0.0
  0
LINE
  5
151
100
AcDbEntity
  8
L1_100
  6
CONTINUOUS
 62
         4
100
AcDbLine
 10
1756.7616516804
 20
-24.6524661467
 30
0.0
 11
1749.0880865105
 21
-24.6524661467
 31
0.0
  0
LINE
  5
152
100
AcDbEntity
  8
L1_100
  6
CONTINUOUS
 62
         4
100
AcDbLine
 10
1749.7630865105
 20
-4.5124661467
 30
0.0
 11
1749.7630865105
 21
-24.6524661467
 31
0.0
  0
SOLID
  5
153
100
AcDbEntity
  8
L1_100
  6
CONTINUOUS
 62
         4
100
AcDbTrace
 10
1749.7630865105
 20
-4.5124661467
 30
0.0
 11
1750.1680865105
 21
-7.2124661467
 31
0.0
 12
1749.3580865105
 22
-7.2124661467
 32
0.0
 13
1749.7630865105
 23
-4.5124661467
 33
0.0
  0
SOLID
  5
154
100
AcDbEntity
  8
L1_100
  6
CONTINUOUS
 62
         4
100
AcDbTrace
 10
1749.7630865105
 20
-24.6524661467
 30
0.0
 11
1749.3580865105
 21
-21.9524661467
 31
0.0
 12
1750.1680865105
 22
-21.9524661467
 32
0.0
 13
1749.7630865105
 23
-24.6524661467
 33
0.0
  0
TEXT
  5
156
100
AcDbEntity
  8
L1_100
  6
CONTINUOUS
 62
         4
100
AcDbText
 10
1747.7380865105
 20
-19.9824661467
 30
0.0
 40
2.7
  1
崷21
 50
90.0
  7
BOX
100
AcDbText
  0
ENDBLK
  5
157
100
AcDbEntity
  8
0
  6
CONTINUOUS
100
AcDbBlockEnd
  0
BLOCK
  5
16C
100
AcDbEntity
  8
0
100
AcDbBlockBegin
  2
*D9
 70
        65
 10
0.0
 20
0.0
 30
0.0
  3
*D9
  1

  0
POINT
  5
16E
100
AcDbEntity
  8
DEFPOINTS
  6
CONTINUOUS
 62
         0
100
AcDbPoint
 10
1710.4819298515
 20
-8.2374661467
 30
0.0
  0
POINT
  5
16F
100
AcDbEntity
  8
DEFPOINTS
  6
CONTINUOUS
 62
         0
100
AcDbPoint
 10
1717.8751215506
 20
-8.2374661467
 30
0.0
  0
POINT
  5
170
100
AcDbEntity
  8
DEFPOINTS
  6
CONTINUOUS
 62
         0
100
AcDbPoint
 10
1716.4051215506
 20
-20.9274661467
 30
0.0
  0
LINE
  5
171
100
AcDbEntity
  8
L1_100
  6
CONTINUOUS
 62
         4
100
AcDbLine
 10
1716.5251215506
 20
-8.2374661467
 30
0.0
 11
1709.8069298515
 21
-8.2374661467
 31
0.0
  0
LINE
  5
172
100
AcDbEntity
  8
L1_100
  6
CONTINUOUS
 62
         4
100
AcDbLine
 10
1715.0551215506
 20
-20.9274661467
 30
0.0
 11
1709.8069298515
 21
-20.9274661467
 31
0.0
  0
LINE
  5
173
100
AcDbEntity
  8
L1_100
  6
CONTINUOUS
 62
         4
100
AcDbLine
 10
1710.4819298515
 20
-8.2374661467
 30
0.0
 11
1710.4819298515
 21
-20.9274661467
 31
0.0
  0
SOLID
  5
174
100
AcDbEntity
  8
L1_100
  6
CONTINUOUS
 62
         4
100
AcDbTrace
 10
1710.4819298515
 20
-8.2374661467
 30
0.0
 11
1710.8869298515
 21
-10.9374661467
 31
0.0
 12
1710.0769298515
 22
-10.9374661467
 32
0.0
 13
1710.4819298515
 23
-8.2374661467
 33
0.0
  0
SOLID
  5
175
100
AcDbEntity
  8
L1_100
  6
CONTINUOUS
 62
         4
100
AcDbTrace
 10
1710.4819298515
 20
-20.9274661467
 30
0.0
 11
1710.0769298515
 21
-18.2274661467
 31
0.0
 12
1710.8869298515
 22
-18.2274661467
 32
0.0
 13
1710.4819298515
 23
-20.9274661467
 33
0.0
  0
TEXT
  5
177
100
AcDbEntity
  8
L1_100
  6
CONTINUOUS
 62
         4
100
AcDbText
 10
1708.4569298515
 20
-19.9824661467
 30
0.0
 40
2.7
  1
崷12
 50
90.0
  7
BOX
100
AcDbText
  0
ENDBLK
  5
178
100
AcDbEntity
  8
0
  6
CONTINUOUS
100
AcDbBlockEnd
  0
BLOCK
  5
1A8
100
AcDbEntity
  8
0
100
AcDbBlockBegin
  2
*D10
 70
        65
 10
0.0
 20
0.0
 30
0.0
  3
*D10
  1

  0
POINT
  5
1AA
100
AcDbEntity
  8
DEFPOINTS
  6
CONTINUOUS
 62
         0
100
AcDbPoint
 10
1688.0771909141
 20
7.2975338533
 30
0.0
  0
POINT
  5
1AB
100
AcDbEntity
  8
DEFPOINTS
  6
CONTINUOUS
 62
         0
100
AcDbPoint
 10
1694.9565820015
 20
7.2975338533
 30
0.0
  0
POINT
  5
1AC
100
AcDbEntity
  8
DEFPOINTS
  6
CONTINUOUS
 62
         0
100
AcDbPoint
 10
1693.1865820015
 20
-36.4624661467
 30
0.0
  0
LINE
  5
1AD
100
AcDbEntity
  8
L1_100
  6
CONTINUOUS
 62
         4
100
AcDbLine
 10
1693.6065820015
 20
7.2975338533
 30
0.0
 11
1687.4021909141
 21
7.2975338533
 31
0.0
  0
LINE
  5
1AE
100
AcDbEntity
  8
L1_100
  6
CONTINUOUS
 62
         4
100
AcDbLine
 10
1691.8365820015
 20
-36.4624661467
 30
0.0
 11
1687.4021909141
 21
-36.4624661467
 31
0.0
  0
LINE
  5
1AF
100
AcDbEntity
  8
L1_100
  6
CONTINUOUS
 62
         4
100
AcDbLine
 10
1688.0771909141
 20
7.2975338533
 30
0.0
 11
1688.0771909141
 21
-36.4624661467
 31
0.0
  0
SOLID
  5
1B0
100
AcDbEntity
  8
L1_100
  6
CONTINUOUS
 62
         4
100
AcDbTrace
 10
1688.0771909141
 20
7.2975338533
 30
0.0
 11
1688.4821909141
 21
4.5975338533
 31
0.0
 12
1687.6721909141
 22
4.5975338533
 32
0.0
 13
1688.0771909141
 23
7.2975338533
 33
0.0
  0
SOLID
  5
1B1
100
AcDbEntity
  8
L1_100
  6
CONTINUOUS
 62
         4
100
AcDbTrace
 10
1688.0771909141
 20
-36.4624661467
 30
0.0
 11
1687.6721909141
 21
-33.7624661467
 31
0.0
 12
1688.4821909141
 22
-33.7624661467
 32
0.0
 13
1688.0771909141
 23
-36.4624661467
 33
0.0
  0
TEXT
  5
1B3
100
AcDbEntity
  8
L1_100
  6
CONTINUOUS
 62
         4
100
AcDbText
 10
1686.0521909141
 20
-19.9824661467
 30
0.0
 40
2.7
  1
崷44
 50
90.0
  7
BOX
100
AcDbText
  0
ENDBLK
  5
1B4
100
AcDbEntity
  8
0
  6
CONTINUOUS
100
AcDbBlockEnd
  0
BLOCK
  5
1C0
100
AcDbEntity
  8
0
100
AcDbBlockBegin
  2
*D11
 70
        65
 10
0.0
 20
0.0
 30
0.0
  3
*D11
  1

  0
POINT
  5
1C2
100
AcDbEntity
  8
DEFPOINTS
  6
CONTINUOUS
 62
         0
100
AcDbPoint
 10
1659.9064845122
 20
-2.8974661467
 30
0.0
  0
POINT
  5
1C3
100
AcDbEntity
  8
DEFPOINTS
  6
CONTINUOUS
 62
         0
100
AcDbPoint
 10
1665.6198985789
 20
-2.8974661467
 30
0.0
  0
POINT
  5
1C4
100
AcDbEntity
  8
DEFPOINTS
  6
CONTINUOUS
 62
         0
100
AcDbPoint
 10
1664.0498985789
 20
-26.2674661467
 30
0.0
  0
LINE
  5
1C5
100
AcDbEntity
  8
L1_100
  6
CONTINUOUS
 62
         4
100
AcDbLine
 10
1664.2698985789
 20
-2.8974661467
 30
0.0
 11
1659.2314845122
 21
-2.8974661467
 31
0.0
  0
LINE
  5
1C6
100
AcDbEntity
  8
L1_100
  6
CONTINUOUS
 62
         4
100
AcDbLine
 10
1662.6998985789
 20
-26.2674661467
 30
0.0
 11
1659.2314845122
 21
-26.2674661467
 31
0.0
  0
LINE
  5
1C7
100
AcDbEntity
  8
L1_100
  6
CONTINUOUS
 62
         4
100
AcDbLine
 10
1659.9064845122
 20
-2.8974661467
 30
0.0
 11
1659.9064845122
 21
-26.2674661467
 31
0.0
  0
SOLID
  5
1C8
100
AcDbEntity
  8
L1_100
  6
CONTINUOUS
 62
         4
100
AcDbTrace
 10
1659.9064845122
 20
-2.8974661467
 30
0.0
 11
1660.3114845122
 21
-5.5974661467
 31
0.0
 12
1659.5014845122
 22
-5.5974661467
 32
0.0
 13
1659.9064845122
 23
-2.8974661467
 33
0.0
  0
SOLID
  5
1C9
100
AcDbEntity
  8
L1_100
  6
CONTINUOUS
 62
         4
100
AcDbTrace
 10
1659.9064845122
 20
-26.2674661467
 30
0.0
 11
1659.5014845122
 21
-23.5674661467
 31
0.0
 12
1660.3114845122
 22
-23.5674661467
 32
0.0
 13
1659.9064845122
 23
-26.2674661467
 33
0.0
  0
TEXT
  5
1CB
100
AcDbEntity
  8
L1_100
  6
CONTINUOUS
 62
         4
100
AcDbText
 10
1657.8814845122
 20
-22.6824661467
 30
0.0
 40
2.7
  1
崷23.5
 50
90.0
  7
BOX
100
AcDbText
  0
ENDBLK
  5
1CC
100
AcDbEntity
  8
0
  6
CONTINUOUS
100
AcDbBlockEnd
  0
BLOCK
  5
1E3
100
AcDbEntity
  8
0
100
AcDbBlockBegin
  2
*D12
 70
        65
 10
0.0
 20
0.0
 30
0.0
  3
*D12
  1

  0
POINT
  5
1E5
100
AcDbEntity
  8
DEFPOINTS
  6
CONTINUOUS
 62
         0
100
AcDbPoint
 10
1649.1728836755
 20
-8.0824661467
 30
0.0
  0
POINT
  5
1E6
100
AcDbEntity
  8
DEFPOINTS
  6
CONTINUOUS
 62
         0
100
AcDbPoint
 10
1641.3501378873
 20
-8.0824661467
 30
0.0
  0
POINT
  5
1E7
100
AcDbEntity
  8
DEFPOINTS
  6
CONTINUOUS
 62
         0
100
AcDbPoint
 10
1641.3501378873
 20
-21.0824661467
 30
0.0
  0
LINE
  5
1E8
100
AcDbEntity
  8
L1_100
  6
CONTINUOUS
 62
         4
100
AcDbLine
 10
1642.7001378873
 20
-8.0824661467
 30
0.0
 11
1649.8478836755
 21
-8.0824661467
 31
0.0
  0
LINE
  5
1E9
100
AcDbEntity
  8
L1_100
  6
CONTINUOUS
 62
         4
100
AcDbLine
 10
1642.7001378873
 20
-21.0824661467
 30
0.0
 11
1649.8478836755
 21
-21.0824661467
 31
0.0
  0
LINE
  5
1EA
100
AcDbEntity
  8
L1_100
  6
CONTINUOUS
 62
         4
100
AcDbLine
 10
1649.1728836755
 20
-8.0824661467
 30
0.0
 11
1649.1728836755
 21
-21.0824661467
 31
0.0
  0
SOLID
  5
1EB
100
AcDbEntity
  8
L1_100
  6
CONTINUOUS
 62
         4
100
AcDbTrace
 10
1649.1728836755
 20
-8.0824661467
 30
0.0
 11
1649.5778836755
 21
-10.7824661467
 31
0.0
 12
1648.7678836755
 22
-10.7824661467
 32
0.0
 13
1649.1728836755
 23
-8.0824661467
 33
0.0
  0
SOLID
  5
1EC
100
AcDbEntity
  8
L1_100
  6
CONTINUOUS
 62
         4
100
AcDbTrace
 10
1649.1728836755
 20
-21.0824661467
 30
0.0
 11
1648.7678836755
 21
-18.3824661467
 31
0.0
 12
1649.5778836755
 22
-18.3824661467
 32
0.0
 13
1649.1728836755
 23
-21.0824661467
 33
0.0
  0
TEXT
  5
1EE
100
AcDbEntity
  8
L1_100
  6
CONTINUOUS
 62
         4
100
AcDbText
 10
1647.1478836755
 20
-19.9824661467
 30
0.0
 40
2.7
  1
崷13
 50
90.0
  7
BOX
100
AcDbText
  0
ENDBLK
  5
1EF
100
AcDbEntity
  8
0
  6
CONTINUOUS
100
AcDbBlockEnd
  0
BLOCK
  5
1F1
100
AcDbEntity
  8
0
100
AcDbBlockBegin
  2
*D13
 70
        65
 10
0.0
 20
0.0
 30
0.0
  3
*D13
  1

  0
POINT
  5
1F3
100
AcDbEntity
  8
DEFPOINTS
  6
CONTINUOUS
 62
         0
100
AcDbPoint
 10
1580.1001378873
 20
3.363223056
 30
0.0
  0
POINT
  5
1F4
100
AcDbEntity
  8
DEFPOINTS
  6
CONTINUOUS
 62
         0
100
AcDbPoint
 10
1580.1001378873
 20
-12.0824661467
 30
0.0
  0
POINT
  5
1F5
100
AcDbEntity
  8
DEFPOINTS
  6
CONTINUOUS
 62
         0
100
AcDbPoint
 10
1591.3501378873
 20
-11.5824661467
 30
0.0
  0
LINE
  5
1F6
100
AcDbEntity
  8
L1_100
  6
CONTINUOUS
 62
         4
100
AcDbLine
 10
1580.1001378873
 20
-10.7324661467
 30
0.0
 11
1580.1001378873
 21
4.038223056
 31
0.0
  0
LINE
  5
1F7
100
AcDbEntity
  8
L1_100
  6
CONTINUOUS
 62
         4
100
AcDbLine
 10
1591.3501378873
 20
-10.2324661467
 30
0.0
 11
1591.3501378873
 21
4.038223056
 31
0.0
  0
LINE
  5
1F8
100
AcDbEntity
  8
L1_100
  6
CONTINUOUS
 62
         4
100
AcDbLine
 10
1580.1001378873
 20
3.363223056
 30
0.0
 11
1591.3501378873
 21
3.363223056
 31
0.0
  0
SOLID
  5
1F9
100
AcDbEntity
  8
L1_100
  6
CONTINUOUS
 62
         4
100
AcDbTrace
 10
1580.1001378873
 20
3.363223056
 30
0.0
 11
1582.8001378873
 21
3.768223056
 31
0.0
 12
1582.8001378873
 22
2.958223056
 32
0.0
 13
1580.1001378873
 23
3.363223056
 33
0.0
  0
SOLID
  5
1FA
100
AcDbEntity
  8
L1_100
  6
CONTINUOUS
 62
         4
100
AcDbTrace
 10
1591.3501378873
 20
3.363223056
 30
0.0
 11
1588.6501378873
 21
2.958223056
 31
0.0
 12
1588.6501378873
 22
3.768223056
 32
0.0
 13
1591.3501378873
 23
3.363223056
 33
0.0
  0
TEXT
  5
1FC
100
AcDbEntity
  8
L1_100
  6
CONTINUOUS
 62
         4
100
AcDbText
 10
1581.0924507798
 20
5.388223056
 30
0.0
 40
2.7
  1
11.25
  7
BOX
100
AcDbText
  0
ENDBLK
  5
1FD
100
AcDbEntity
  8
0
  6
CONTINUOUS
100
AcDbBlockEnd
  0
BLOCK
  5
1FF
100
AcDbEntity
  8
0
100
AcDbBlockBegin
  2
*D14
 70
        65
 10
0.0
 20
0.0
 30
0.0
  3
*D14
  1

  0
POINT
  5
201
100
AcDbEntity
  8
DEFPOINTS
  6
CONTINUOUS
 62
         0
100
AcDbPoint
 10
1580.1001378873
 20
12.488355591
 30
0.0
  0
POINT
  5
202
100
AcDbEntity
  8
DEFPOINTS
  6
CONTINUOUS
 62
         0
100
AcDbPoint
 10
1580.1001378873
 20
-12.0824661467
 30
0.0
  0
POINT
  5
203
100
AcDbEntity
  8
DEFPOINTS
  6
CONTINUOUS
 62
         0
100
AcDbPoint
 10
1641.8501378873
 20
-8.5824661467
 30
0.0
  0
LINE
  5
204
100
AcDbEntity
  8
L1_100
  6
CONTINUOUS
 62
         4
100
AcDbLine
 10
1580.1001378873
 20
-10.7324661467
 30
0.0
 11
1580.1001378873
 21
13.163355591
 31
0.0
  0
LINE
  5
205
100
AcDbEntity
  8
L1_100
  6
CONTINUOUS
 62
         4
100
AcDbLine
 10
1641.8501378873
 20
-7.2324661467
 30
0.0
 11
1641.8501378873
 21
13.163355591
 31
0.0
  0
LINE
  5
206
100
AcDbEntity
  8
L1_100
  6
CONTINUOUS
 62
         4
100
AcDbLine
 10
1580.1001378873
 20
12.488355591
 30
0.0
 11
1641.8501378873
 21
12.488355591
 31
0.0
  0
SOLID
  5
207
100
AcDbEntity
  8
L1_100
  6
CONTINUOUS
 62
         4
100
AcDbTrace
 10
1580.1001378873
 20
12.488355591
 30
0.0
 11
1582.8001378873
 21
12.893355591
 31
0.0
 12
1582.8001378873
 22
12.083355591
 32
0.0
 13
1580.1001378873
 23
12.488355591
 33
0.0
  0
SOLID
  5
208
100
AcDbEntity
  8
L1_100
  6
CONTINUOUS
 62
         4
100
AcDbTrace
 10
1641.8501378873
 20
12.488355591
 30
0.0
 11
1639.1501378873
 21
12.083355591
 31
0.0
 12
1639.1501378873
 22
12.893355591
 32
0.0
 13
1641.8501378873
 23
12.488355591
 33
0.0
  0
TEXT
  5
20A
100
AcDbEntity
  8
L1_100
  6
CONTINUOUS
 62
         4
100
AcDbText
 10
1606.0514044289
 20
14.513355591
 30
0.0
 40
2.7
  1
56.8
  7
BOX
100
AcDbText
  0
ENDBLK
  5
20B
100
AcDbEntity
  8
0
  6
CONTINUOUS
100
AcDbBlockEnd
  0
BLOCK
  5
224
100
AcDbEntity
  8
0
100
AcDbBlockBegin
  2
*D15
 70
        65
 10
0.0
 20
0.0
 30
0.0
  3
*D15
  1

  0
POINT
  5
226
100
AcDbEntity
  8
DEFPOINTS
  6
CONTINUOUS
 62
         0
100
AcDbPoint
 10
1579.2524031956
 20
-11.5824661467
 30
0.0
  0
POINT
  5
227
100
AcDbEntity
  8
DEFPOINTS
  6
CONTINUOUS
 62
         0
100
AcDbPoint
 10
1580.6001378873
 20
-11.5824661467
 30
0.0
  0
POINT
  5
228
100
AcDbEntity
  8
DEFPOINTS
  6
CONTINUOUS
 62
         0
100
AcDbPoint
 10
1580.6001378873
 20
-17.5824661467
 30
0.0
  0
LINE
  5
229
100
AcDbEntity
  8
L1_100
  6
CONTINUOUS
 62
         4
100
AcDbLine
 10
1579.2501378873
 20
-11.5824661467
 30
0.0
 11
1578.5774031956
 21
-11.5824661467
 31
0.0
  0
LINE
  5
22A
100
AcDbEntity
  8
L1_100
  6
CONTINUOUS
 62
         4
100
AcDbLine
 10
1579.2501378873
 20
-17.5824661467
 30
0.0
 11
1578.5774031956
 21
-17.5824661467
 31
0.0
  0
LINE
  5
22B
100
AcDbEntity
  8
L1_100
  6
CONTINUOUS
 62
         4
100
AcDbLine
 10
1579.2524031956
 20
-11.5824661467
 30
0.0
 11
1579.2524031956
 21
-17.5824661467
 31
0.0
  0
SOLID
  5
22C
100
AcDbEntity
  8
L1_100
  6
CONTINUOUS
 62
         4
100
AcDbTrace
 10
1579.2524031956
 20
-11.5824661467
 30
0.0
 11
1579.6574031956
 21
-14.2824661467
 31
0.0
 12
1578.8474031956
 22
-14.2824661467
 32
0.0
 13
1579.2524031956
 23
-11.5824661467
 33
0.0
  0
SOLID
  5
22D
100
AcDbEntity
  8
L1_100
  6
CONTINUOUS
 62
         4
100
AcDbTrace
 10
1579.2524031956
 20
-17.5824661467
 30
0.0
 11
1578.8474031956
 21
-14.8824661467
 31
0.0
 12
1579.6574031956
 22
-14.8824661467
 32
0.0
 13
1579.2524031956
 23
-17.5824661467
 33
0.0
  0
TEXT
  5
22F
100
AcDbEntity
  8
L1_100
  6
CONTINUOUS
 62
         4
100
AcDbText
 10
1577.2274031956
 20
-21.3324661467
 30
0.0
 40
2.7
  1
M6xP1
 50
90.0
  7
BOX
100
AcDbText
  0
ENDBLK
  5
230
100
AcDbEntity
  8
0
  6
CONTINUOUS
100
AcDbBlockEnd
  0
BLOCK
  5
49C
100
AcDbEntity
  8
0
100
AcDbBlockBegin
  2
*D16
 70
        65
 10
0.0
 20
0.0
 30
0.0
  3
*D16
  1

  0
POINT
  5
49E
100
AcDbEntity
  8
DEFPOINTS
  6
CONTINUOUS
 62
         0
100
AcDbPoint
 10
1485.9453893965
 20
181.6846417294
 30
0.0
  0
POINT
  5
49F
100
AcDbEntity
  8
DEFPOINTS
  6
CONTINUOUS
 62
         0
100
AcDbPoint
 10
1395.1033403763
 20
181.6846417294
 30
0.0
  0
POINT
  5
4A0
100
AcDbEntity
  8
DEFPOINTS
  6
CONTINUOUS
 62
         0
100
AcDbPoint
 10
1395.1033403763
 20
118.6846417294
 30
0.0
  0
LINE
  5
4A1
100
AcDbEntity
  8
L1_100
  6
CONTINUOUS
 62
         4
100
AcDbLine
 10
1396.4533403763
 20
181.6846417294
 30
0.0
 11
1486.6203893965
 21
181.6846417294
 31
0.0
  0
LINE
  5
4A2
100
AcDbEntity
  8
L1_100
  6
CONTINUOUS
 62
         4
100
AcDbLine
 10
1396.4533403763
 20
118.6846417294
 30
0.0
 11
1486.6203893965
 21
118.6846417294
 31
0.0
  0
LINE
  5
4A3
100
AcDbEntity
  8
L1_100
  6
CONTINUOUS
 62
         4
100
AcDbLine
 10
1485.9453893965
 20
181.6846417294
 30
0.0
 11
1485.9453893965
 21
118.6846417294
 31
0.0
  0
SOLID
  5
4A4
100
AcDbEntity
  8
L1_100
  6
CONTINUOUS
 62
         4
100
AcDbTrace
 10
1485.9453893965
 20
181.6846417294
 30
0.0
 11
1486.3503893965
 21
178.9846417294
 31
0.0
 12
1485.5403893965
 22
178.9846417294
 32
0.0
 13
1485.9453893965
 23
181.6846417294
 33
0.0
  0
SOLID
  5
4A5
100
AcDbEntity
  8
L1_100
  6
CONTINUOUS
 62
         4
100
AcDbTrace
 10
1485.9453893965
 20
118.6846417294
 30
0.0
 11
1485.5403893965
 21
121.3846417294
 31
0.0
 12
1486.3503893965
 22
121.3846417294
 32
0.0
 13
1485.9453893965
 23
118.6846417294
 33
0.0
  0
TEXT
  5
4A7
100
AcDbEntity
  8
L1_100
  6
CONTINUOUS
 62
         4
100
AcDbText
 10
1483.9203893965
 20
147.3479332009
 30
0.0
 40
2.7
  1
崷63
 50
90.0
  7
BOX
100
AcDbText
  0
ENDBLK
  5
4A8
100
AcDbEntity
  8
0
  6
CONTINUOUS
100
AcDbBlockEnd
  0
BLOCK
  5
4B5
100
AcDbEntity
  8
0
100
AcDbBlockBegin
  2
*D17
 70
        65
 10
0.0
 20
0.0
 30
0.0
  3
*D17
  1

  0
POINT
  5
4B7
100
AcDbEntity
  8
DEFPOINTS
  6
CONTINUOUS
 62
         0
100
AcDbPoint
 10
1460.5517177607
 20
177.6846417294
 30
0.0
  0
POINT
  5
4B8
100
AcDbEntity
  8
DEFPOINTS
  6
CONTINUOUS
 62
         0
100
AcDbPoint
 10
1447.1033403763
 20
177.6846417294
 30
0.0
  0
POINT
  5
4B9
100
AcDbEntity
  8
DEFPOINTS
  6
CONTINUOUS
 62
         0
100
AcDbPoint
 10
1447.1033403763
 20
122.6846417294
 30
0.0
  0
LINE
  5
4BA
100
AcDbEntity
  8
L1_100
  6
CONTINUOUS
 62
         4
100
AcDbLine
 10
1448.4533403763
 20
177.6846417294
 30
0.0
 11
1461.2267177607
 21
177.6846417294
 31
0.0
  0
LINE
  5
4BB
100
AcDbEntity
  8
L1_100
  6
CONTINUOUS
 62
         4
100
AcDbLine
 10
1448.4533403763
 20
122.6846417294
 30
0.0
 11
1461.2267177607
 21
122.6846417294
 31
0.0
  0
LINE
  5
4BC
100
AcDbEntity
  8
L1_100
  6
CONTINUOUS
 62
         4
100
AcDbLine
 10
1460.5517177607
 20
177.6846417294
 30
0.0
 11
1460.5517177607
 21
122.6846417294
 31
0.0
  0
SOLID
  5
4BD
100
AcDbEntity
  8
L1_100
  6
CONTINUOUS
 62
         4
100
AcDbTrace
 10
1460.5517177607
 20
177.6846417294
 30
0.0
 11
1460.9567177607
 21
174.9846417294
 31
0.0
 12
1460.1467177607
 22
174.9846417294
 32
0.0
 13
1460.5517177607
 23
177.6846417294
 33
0.0
  0
SOLID
  5
4BE
100
AcDbEntity
  8
L1_100
  6
CONTINUOUS
 62
         4
100
AcDbTrace
 10
1460.5517177607
 20
122.6846417294
 30
0.0
 11
1460.1467177607
 21
125.3846417294
 31
0.0
 12
1460.9567177607
 22
125.3846417294
 32
0.0
 13
1460.5517177607
 23
122.6846417294
 33
0.0
  0
TEXT
  5
4C0
100
AcDbEntity
  8
L1_100
  6
CONTINUOUS
 62
         4
100
AcDbText
 10
1458.5267177607
 20
144.974364398
 30
0.0
 40
2.7
  1
崷55
 50
90.0
  7
BOX
100
AcDbText
  0
ENDBLK
  5
4C1
100
AcDbEntity
  8
0
  6
CONTINUOUS
100
AcDbBlockEnd
  0
BLOCK
  5
4C5
100
AcDbEntity
  8
0
100
AcDbBlockBegin
  2
*D18
 70
        65
 10
0.0
 20
0.0
 30
0.0
  3
*D18
  1

  0
POINT
  5
4C7
100
AcDbEntity
  8
DEFPOINTS
  6
CONTINUOUS
 62
         0
100
AcDbPoint
 10
1271.1933403763
 20
221.6655227797
 30
0.0
  0
POINT
  5
4C8
100
AcDbEntity
  8
DEFPOINTS
  6
CONTINUOUS
 62
         0
100
AcDbPoint
 10
1271.1933403763
 20
161.3846417294
 30
0.0
  0
POINT
  5
4C9
100
AcDbEntity
  8
DEFPOINTS
  6
CONTINUOUS
 62
         0
100
AcDbPoint
 10
1447.1033403763
 20
150.1846417294
 30
0.0
  0
LINE
  5
4CA
100
AcDbEntity
  8
L1_100
  6
CONTINUOUS
 62
         4
100
AcDbLine
 10
1271.1933403763
 20
162.7346417294
 30
0.0
 11
1271.1933403763
 21
222.3405227797
 31
0.0
  0
LINE
  5
4CB
100
AcDbEntity
  8
L1_100
  6
CONTINUOUS
 62
         4
100
AcDbLine
 10
1447.1033403763
 20
151.5346417294
 30
0.0
 11
1447.1033403763
 21
222.3405227797
 31
0.0
  0
LINE
  5
4CC
100
AcDbEntity
  8
L1_100
  6
CONTINUOUS
 62
         4
100
AcDbLine
 10
1271.1933403763
 20
221.6655227797
 30
0.0
 11
1447.1033403763
 21
221.6655227797
 31
0.0
  0
SOLID
  5
4CD
100
AcDbEntity
  8
L1_100
  6
CONTINUOUS
 62
         4
100
AcDbTrace
 10
1271.1933403763
 20
221.6655227797
 30
0.0
 11
1273.8933403763
 21
222.0705227797
 31
0.0
 12
1273.8933403763
 22
221.2605227797
 32
0.0
 13
1271.1933403763
 23
221.6655227797
 33
0.0
  0
SOLID
  5
4CE
100
AcDbEntity
  8
L1_100
  6
CONTINUOUS
 62
         4
100
AcDbTrace
 10
1447.1033403763
 20
221.6655227797
 30
0.0
 11
1444.4033403763
 21
221.2605227797
 31
0.0
 12
1444.4033403763
 22
222.0705227797
 32
0.0
 13
1447.1033403763
 23
221.6655227797
 33
0.0
  0
TEXT
  5
4D0
100
AcDbEntity
  8
L1_100
  6
CONTINUOUS
 62
         4
100
AcDbText
 10
1365.3650730156
 20
223.6905227797
 30
0.0
 40
2.7
  1
175.91
  7
BOX
100
AcDbText
  0
ENDBLK
  5
4D1
100
AcDbEntity
  8
0
  6
CONTINUOUS
100
AcDbBlockEnd
  0
BLOCK
  5
4D3
100
AcDbEntity
  8
0
100
AcDbBlockBegin
  2
*D19
 70
        65
 10
0.0
 20
0.0
 30
0.0
  3
*D19
  1

  0
POINT
  5
4D5
100
AcDbEntity
  8
DEFPOINTS
  6
CONTINUOUS
 62
         0
100
AcDbPoint
 10
1447.1033403763
 20
214.045049963
 30
0.0
  0
POINT
  5
4D6
100
AcDbEntity
  8
DEFPOINTS
  6
CONTINUOUS
 62
         0
100
AcDbPoint
 10
1447.1033403763
 20
150.1846417294
 30
0.0
  0
POINT
  5
4D7
100
AcDbEntity
  8
DEFPOINTS
  6
CONTINUOUS
 62
         0
100
AcDbPoint
 10
1329.1033403763
 20
163.8846417294
 30
0.0
  0
LINE
  5
4D8
100
AcDbEntity
  8
L1_100
  6
CONTINUOUS
 62
         4
100
AcDbLine
 10
1447.1033403763
 20
151.5346417294
 30
0.0
 11
1447.1033403763
 21
214.720049963
 31
0.0
  0
LINE
  5
4D9
100
AcDbEntity
  8
L1_100
  6
CONTINUOUS
 62
         4
100
AcDbLine
 10
1329.1033403763
 20
165.2346417294
 30
0.0
 11
1329.1033403763
 21
214.720049963
 31
0.0
  0
LINE
  5
4DA
100
AcDbEntity
  8
L1_100
  6
CONTINUOUS
 62
         4
100
AcDbLine
 10
1447.1033403763
 20
214.045049963
 30
0.0
 11
1329.1033403763
 21
214.045049963
 31
0.0
  0
SOLID
  5
4DB
100
AcDbEntity
  8
L1_100
  6
CONTINUOUS
 62
         4
100
AcDbTrace
 10
1447.1033403763
 20
214.045049963
 30
0.0
 11
1444.4033403763
 21
213.640049963
 31
0.0
 12
1444.4033403763
 22
214.450049963
 32
0.0
 13
1447.1033403763
 23
214.045049963
 33
0.0
  0
SOLID
  5
4DC
100
AcDbEntity
  8
L1_100
  6
CONTINUOUS
 62
         4
100
AcDbTrace
 10
1329.1033403763
 20
214.045049963
 30
0.0
 11
1331.8033403763
 21
214.450049963
 31
0.0
 12
1331.8033403763
 22
213.640049963
 32
0.0
 13
1329.1033403763
 23
214.045049963
 33
0.0
  0
TEXT
  5
4DE
100
AcDbEntity
  8
L1_100
  6
CONTINUOUS
 62
         4
100
AcDbText
 10
1391.4273180633
 20
216.070049963
 30
0.0
 40
2.7
  1
118
  7
BOX
100
AcDbText
  0
ENDBLK
  5
4DF
100
AcDbEntity
  8
0
  6
CONTINUOUS
100
AcDbBlockEnd
  0
BLOCK
  5
4FA
100
AcDbEntity
  8
0
100
AcDbBlockBegin
  2
*D20
 70
        65
 10
0.0
 20
0.0
 30
0.0
  3
*D20
  1

  0
POINT
  5
4FC
100
AcDbEntity
  8
DEFPOINTS
  6
CONTINUOUS
 62
         0
100
AcDbPoint
 10
1447.1033403763
 20
-81.6427520553
 30
0.0
  0
POINT
  5
4FD
100
AcDbEntity
  8
DEFPOINTS
  6
CONTINUOUS
 62
         0
100
AcDbPoint
 10
1447.1033403763
 20
-38.9086807647
 30
0.0
  0
POINT
  5
4FE
100
AcDbEntity
  8
DEFPOINTS
  6
CONTINUOUS
 62
         0
100
AcDbPoint
 10
1349.1030155108
 20
-15.4433347407
 30
0.0
  0
LINE
  5
4FF
100
AcDbEntity
  8
L1_100
  6
CONTINUOUS
 62
         4
100
AcDbLine
 10
1447.1033403763
 20
-40.2586807647
 30
0.0
 11
1447.1033403763
 21
-82.3177520553
 31
0.0
  0
LINE
  5
500
100
AcDbEntity
  8
L1_100
  6
CONTINUOUS
 62
         4
100
AcDbLine
 10
1349.1030155108
 20
-16.7933347407
 30
0.0
 11
1349.1030155108
 21
-82.3177520553
 31
0.0
  0
LINE
  5
501
100
AcDbEntity
  8
L1_100
  6
CONTINUOUS
 62
         4
100
AcDbLine
 10
1447.1033403763
 20
-81.6427520553
 30
0.0
 11
1349.1030155108
 21
-81.6427520553
 31
0.0
  0
SOLID
  5
502
100
AcDbEntity
  8
L1_100
  6
CONTINUOUS
 62
         4
100
AcDbTrace
 10
1447.1033403763
 20
-81.6427520553
 30
0.0
 11
1444.4033403763
 21
-82.0477520553
 31
0.0
 12
1444.4033403763
 22
-81.2377520553
 32
0.0
 13
1447.1033403763
 23
-81.6427520553
 33
0.0
  0
SOLID
  5
503
100
AcDbEntity
  8
L1_100
  6
CONTINUOUS
 62
         4
100
AcDbTrace
 10
1349.1030155108
 20
-81.6427520553
 30
0.0
 11
1351.8030155108
 21
-81.2377520553
 31
0.0
 12
1351.8030155108
 22
-82.0477520553
 32
0.0
 13
1349.1030155108
 23
-81.6427520553
 33
0.0
  0
TEXT
  5
505
100
AcDbEntity
  8
L1_100
  6
CONTINUOUS
 62
         4
100
AcDbText
 10
1396.0460004431
 20
-78.5107520553
 30
0.0
 40
2.7
  1
98
  7
BOX
100
AcDbText
  0
ENDBLK
  5
506
100
AcDbEntity
  8
0
  6
CONTINUOUS
100
AcDbBlockEnd
  0
BLOCK
  5
514
100
AcDbEntity
  8
0
100
AcDbBlockBegin
  2
*D21
 70
        65
 10
0.0
 20
0.0
 30
0.0
  3
*D21
  1

  0
POINT
  5
516
100
AcDbEntity
  8
DEFPOINTS
  6
CONTINUOUS
 62
         0
100
AcDbPoint
 10
1447.1033403763
 20
205.5132409314
 30
0.0
  0
POINT
  5
517
100
AcDbEntity
  8
DEFPOINTS
  6
CONTINUOUS
 62
         0
100
AcDbPoint
 10
1447.1033403763
 20
174.5691716756
 30
0.0
  0
POINT
  5
518
100
AcDbEntity
  8
DEFPOINTS
  6
CONTINUOUS
 62
         0
100
AcDbPoint
 10
1396.1033403763
 20
180.6846417294
 30
0.0
  0
LINE
  5
519
100
AcDbEntity
  8
L1_100
  6
CONTINUOUS
 62
         4
100
AcDbLine
 10
1447.1033403763
 20
175.9191716756
 30
0.0
 11
1447.1033403763
 21
206.1882409314
 31
0.0
  0
LINE
  5
51A
100
AcDbEntity
  8
L1_100
  6
CONTINUOUS
 62
         4
100
AcDbLine
 10
1396.1033403763
 20
182.0346417294
 30
0.0
 11
1396.1033403763
 21
206.1882409314
 31
0.0
  0
LINE
  5
51B
100
AcDbEntity
  8
L1_100
  6
CONTINUOUS
 62
         4
100
AcDbLine
 10
1447.1033403763
 20
205.5132409314
 30
0.0
 11
1396.1033403763
 21
205.5132409314
 31
0.0
  0
SOLID
  5
51C
100
AcDbEntity
  8
L1_100
  6
CONTINUOUS
 62
         4
100
AcDbTrace
 10
1447.1033403763
 20
205.5132409314
 30
0.0
 11
1444.4033403763
 21
205.1082409314
 31
0.0
 12
1444.4033403763
 22
205.9182409314
 32
0.0
 13
1447.1033403763
 23
205.5132409314
 33
0.0
  0
SOLID
  5
51D
100
AcDbEntity
  8
L1_100
  6
CONTINUOUS
 62
         4
100
AcDbTrace
 10
1396.1033403763
 20
205.5132409314
 30
0.0
 11
1398.8033403763
 21
205.9182409314
 31
0.0
 12
1398.8033403763
 22
205.1082409314
 32
0.0
 13
1396.1033403763
 23
205.5132409314
 33
0.0
  0
TEXT
  5
51F
100
AcDbEntity
  8
L1_100
  6
CONTINUOUS
 62
         4
100
AcDbText
 10
1412.9022068822
 20
208.6452409314
 30
0.0
 40
2.7
  1
51
  7
BOX
100
AcDbText
  0
ENDBLK
  5
520
100
AcDbEntity
  8
0
  6
CONTINUOUS
100
AcDbBlockEnd
  0
BLOCK
  5
522
100
AcDbEntity
  8
0
100
AcDbBlockBegin
  2
*D22
 70
        65
 10
0.0
 20
0.0
 30
0.0
  3
*D22
  1

  0
POINT
  5
524
100
AcDbEntity
  8
DEFPOINTS
  6
CONTINUOUS
 62
         0
100
AcDbPoint
 10
1436.1033403763
 20
191.6669754401
 30
0.0
  0
POINT
  5
525
100
AcDbEntity
  8
DEFPOINTS
  6
CONTINUOUS
 62
         0
100
AcDbPoint
 10
1436.1033403763
 20
179.1846417294
 30
0.0
  0
POINT
  5
526
100
AcDbEntity
  8
DEFPOINTS
  6
CONTINUOUS
 62
         0
100
AcDbPoint
 10
1438.1033403763
 20
179.1846417294
 30
0.0
  0
LINE
  5
527
100
AcDbEntity
  8
L1_100
  6
CONTINUOUS
 62
         4
100
AcDbLine
 10
1436.1033403763
 20
180.5346417294
 30
0.0
 11
1436.1033403763
 21
192.3419754401
 31
0.0
  0
LINE
  5
528
100
AcDbEntity
  8
L1_100
  6
CONTINUOUS
 62
         4
100
AcDbLine
 10
1438.1033403763
 20
180.5346417294
 30
0.0
 11
1438.1033403763
 21
192.3419754401
 31
0.0
  0
LINE
  5
529
100
AcDbEntity
  8
L1_100
  6
CONTINUOUS
 62
         4
100
AcDbLine
 10
1436.1033403763
 20
191.6669754401
 30
0.0
 11
1421.5310390001
 21
191.6669754401
 31
0.0
  0
SOLID
  5
52A
100
AcDbEntity
  8
L1_100
  6
CONTINUOUS
 62
         4
100
AcDbTrace
 10
1436.1033403763
 20
191.6669754401
 30
0.0
 11
1433.4033403763
 21
191.2619754401
 31
0.0
 12
1433.4033403763
 22
192.0719754401
 32
0.0
 13
1436.1033403763
 23
191.6669754401
 33
0.0
  0
LINE
  5
52B
100
AcDbEntity
  8
L1_100
  6
CONTINUOUS
 62
         4
100
AcDbLine
 10
1438.1033403763
 20
191.6669754401
 30
0.0
 11
1443.5033403763
 21
191.6669754401
 31
0.0
  0
SOLID
  5
52C
100
AcDbEntity
  8
L1_100
  6
CONTINUOUS
 62
         4
100
AcDbTrace
 10
1438.1033403763
 20
191.6669754401
 30
0.0
 11
1440.8033403763
 21
192.0719754401
 31
0.0
 12
1440.8033403763
 22
191.2619754401
 32
0.0
 13
1438.1033403763
 23
191.6669754401
 33
0.0
  0
LINE
  5
52D
100
AcDbEntity
  8
L1_100
  6
CONTINUOUS
 62
         4
100
AcDbLine
 10
1436.1033403763
 20
191.6669754401
 30
0.0
 11
1438.1033403763
 21
191.6669754401
 31
0.0
  0
TEXT
  5
52F
100
AcDbEntity
  8
L1_100
  6
CONTINUOUS
 62
         4
100
AcDbText
 10
1422.8810390001
 20
194.7989754401
 30
0.0
 40
2.7
  1
2
  7
BOX
100
AcDbText
  0
ENDBLK
  5
530
100
AcDbEntity
  8
0
  6
CONTINUOUS
100
AcDbBlockEnd
  0
BLOCK
  5
532
100
AcDbEntity
  8
0
100
AcDbBlockBegin
  2
*D23
 70
        65
 10
0.0
 20
0.0
 30
0.0
  3
*D23
  1

  0
POINT
  5
534
100
AcDbEntity
  8
DEFPOINTS
  6
CONTINUOUS
 62
         0
100
AcDbPoint
 10
1447.1033403763
 20
196.6837382993
 30
0.0
  0
POINT
  5
535
100
AcDbEntity
  8
DEFPOINTS
  6
CONTINUOUS
 62
         0
100
AcDbPoint
 10
1447.1033403763
 20
174.5691716756
 30
0.0
  0
POINT
  5
536
100
AcDbEntity
  8
DEFPOINTS
  6
CONTINUOUS
 62
         0
100
AcDbPoint
 10
1436.1033403763
 20
179.1846417294
 30
0.0
  0
LINE
  5
537
100
AcDbEntity
  8
L1_100
  6
CONTINUOUS
 62
         4
100
AcDbLine
 10
1447.1033403763
 20
175.9191716756
 30
0.0
 11
1447.1033403763
 21
197.3587382993
 31
0.0
  0
LINE
  5
538
100
AcDbEntity
  8
L1_100
  6
CONTINUOUS
 62
         4
100
AcDbLine
 10
1436.1033403763
 20
180.5346417294
 30
0.0
 11
1436.1033403763
 21
197.3587382993
 31
0.0
  0
LINE
  5
539
100
AcDbEntity
  8
L1_100
  6
CONTINUOUS
 62
         4
100
AcDbLine
 10
1447.1033403763
 20
196.6837382993
 30
0.0
 11
1436.1033403763
 21
196.6837382993
 31
0.0
  0
SOLID
  5
53A
100
AcDbEntity
  8
L1_100
  6
CONTINUOUS
 62
         4
100
AcDbTrace
 10
1447.1033403763
 20
196.6837382993
 30
0.0
 11
1444.4033403763
 21
196.2787382993
 31
0.0
 12
1444.4033403763
 22
197.0887382993
 32
0.0
 13
1447.1033403763
 23
196.6837382993
 33
0.0
  0
SOLID
  5
53B
100
AcDbEntity
  8
L1_100
  6
CONTINUOUS
 62
         4
100
AcDbTrace
 10
1436.1033403763
 20
196.6837382993
 30
0.0
 11
1438.8033403763
 21
197.0887382993
 31
0.0
 12
1438.8033403763
 22
196.2787382993
 32
0.0
 13
1436.1033403763
 23
196.6837382993
 33
0.0
  0
TEXT
  5
53D
100
AcDbEntity
  8
L1_100
  6
CONTINUOUS
 62
         4
100
AcDbText
 10
1433.3705993477
 20
199.8157382993
 30
0.0
 40
2.7
  1
11
  7
BOX
100
AcDbText
  0
ENDBLK
  5
53E
100
AcDbEntity
  8
0
  6
CONTINUOUS
100
AcDbBlockEnd
  0
BLOCK
  5
540
100
AcDbEntity
  8
0
100
AcDbBlockBegin
  2
*D24
 70
        65
 10
0.0
 20
0.0
 30
0.0
  3
*D24
  1

  0
POINT
  5
542
100
AcDbEntity
  8
DEFPOINTS
  6
CONTINUOUS
 62
         0
100
AcDbPoint
 10
1417.0658763225
 20
155.1346417294
 30
0.0
  0
POINT
  5
543
100
AcDbEntity
  8
DEFPOINTS
  6
CONTINUOUS
 62
         0
100
AcDbPoint
 10
1408.0083403763
 20
155.1346417294
 30
0.0
  0
POINT
  5
544
100
AcDbEntity
  8
DEFPOINTS
  6
CONTINUOUS
 62
         0
100
AcDbPoint
 10
1408.0083403763
 20
145.2346417294
 30
0.0
  0
LINE
  5
545
100
AcDbEntity
  8
L1_100
  6
CONTINUOUS
 62
         4
100
AcDbLine
 10
1409.3583403763
 20
155.1346417294
 30
0.0
 11
1417.7408763225
 21
155.1346417294
 31
0.0
  0
LINE
  5
546
100
AcDbEntity
  8
L1_100
  6
CONTINUOUS
 62
         4
100
AcDbLine
 10
1409.3583403763
 20
145.2346417294
 30
0.0
 11
1417.7408763225
 21
145.2346417294
 31
0.0
  0
LINE
  5
547
100
AcDbEntity
  8
L1_100
  6
CONTINUOUS
 62
         4
100
AcDbLine
 10
1417.0658763225
 20
155.1346417294
 30
0.0
 11
1417.0658763225
 21
145.2346417294
 31
0.0
  0
SOLID
  5
548
100
AcDbEntity
  8
L1_100
  6
CONTINUOUS
 62
         4
100
AcDbTrace
 10
1417.0658763225
 20
155.1346417294
 30
0.0
 11
1417.4708763225
 21
152.4346417294
 31
0.0
 12
1416.6608763225
 22
152.4346417294
 32
0.0
 13
1417.0658763225
 23
155.1346417294
 33
0.0
  0
LINE
  5
549
100
AcDbEntity
  8
L1_100
  6
CONTINUOUS
 62
         4
100
AcDbLine
 10
1417.0658763225
 20
145.2346417294
 30
0.0
 11
1417.0658763225
 21
100.28836813
 31
0.0
  0
SOLID
  5
54A
100
AcDbEntity
  8
L1_100
  6
CONTINUOUS
 62
         4
100
AcDbTrace
 10
1417.0658763225
 20
145.2346417294
 30
0.0
 11
1416.6608763225
 21
147.9346417294
 31
0.0
 12
1417.4708763225
 22
147.9346417294
 32
0.0
 13
1417.0658763225
 23
145.2346417294
 33
0.0
  0
TEXT
  5
54C
100
AcDbEntity
  8
L1_100
  6
CONTINUOUS
 62
         4
100
AcDbText
 10
1413.9338763225
 20
101.63836813
 30
0.0
 40
2.7
  1
9.55
 50
90.0
  7
BOX
100
AcDbText
  0
ENDBLK
  5
54D
100
AcDbEntity
  8
0
  6
CONTINUOUS
100
AcDbBlockEnd
  0
BLOCK
  5
54F
100
AcDbEntity
  8
0
100
AcDbBlockBegin
  2
*D25
 70
        65
 10
0.0
 20
0.0
 30
0.0
  3
*D25
  1

  0
POINT
  5
551
100
AcDbEntity
  8
DEFPOINTS
  6
CONTINUOUS
 62
         0
100
AcDbPoint
 10
1447.1033403763
 20
100.5306055178
 30
0.0
  0
POINT
  5
552
100
AcDbEntity
  8
DEFPOINTS
  6
CONTINUOUS
 62
         0
100
AcDbPoint
 10
1447.1033403763
 20
125.8001117832
 30
0.0
  0
POINT
  5
553
100
AcDbEntity
  8
DEFPOINTS
  6
CONTINUOUS
 62
         0
100
AcDbPoint
 10
1408.0083403763
 20
142.3499119489
 30
0.0
  0
LINE
  5
554
100
AcDbEntity
  8
L1_100
  6
CONTINUOUS
 62
         4
100
AcDbLine
 10
1447.1033403763
 20
124.4501117832
 30
0.0
 11
1447.1033403763
 21
99.8556055178
 31
0.0
  0
LINE
  5
555
100
AcDbEntity
  8
L1_100
  6
CONTINUOUS
 62
         4
100
AcDbLine
 10
1408.0083403763
 20
140.9999119489
 30
0.0
 11
1408.0083403763
 21
99.8556055178
 31
0.0
  0
LINE
  5
556
100
AcDbEntity
  8
L1_100
  6
CONTINUOUS
 62
         4
100
AcDbLine
 10
1447.1033403763
 20
100.5306055178
 30
0.0
 11
1408.0083403763
 21
100.5306055178
 31
0.0
  0
SOLID
  5
557
100
AcDbEntity
  8
L1_100
  6
CONTINUOUS
 62
         4
100
AcDbTrace
 10
1447.1033403763
 20
100.5306055178
 30
0.0
 11
1444.4033403763
 21
100.1256055178
 31
0.0
 12
1444.4033403763
 22
100.9356055178
 32
0.0
 13
1447.1033403763
 23
100.5306055178
 33
0.0
  0
SOLID
  5
558
100
AcDbEntity
  8
L1_100
  6
CONTINUOUS
 62
         4
100
AcDbTrace
 10
1408.0083403763
 20
100.5306055178
 30
0.0
 11
1410.7083403763
 21
100.9356055178
 31
0.0
 12
1410.7083403763
 22
100.1256055178
 32
0.0
 13
1408.0083403763
 23
100.5306055178
 33
0.0
  0
TEXT
  5
55A
100
AcDbEntity
  8
L1_100
  6
CONTINUOUS
 62
         4
100
AcDbText
 10
1418.2473021024
 20
103.6626055178
 30
0.0
 40
2.7
  1
39.1
  7
BOX
100
AcDbText
  0
ENDBLK
  5
55B
100
AcDbEntity
  8
0
  6
CONTINUOUS
100
AcDbBlockEnd
  0
BLOCK
  5
55D
100
AcDbEntity
  8
0
100
AcDbBlockBegin
  2
*D26
 70
        65
 10
0.0
 20
0.0
 30
0.0
  3
*D26
  1

  0
POINT
  5
55F
100
AcDbEntity
  8
DEFPOINTS
  6
CONTINUOUS
 62
         0
100
AcDbPoint
 10
1426.0983403763
 20
110.4110370841
 30
0.0
  0
POINT
  5
560
100
AcDbEntity
  8
DEFPOINTS
  6
CONTINUOUS
 62
         0
100
AcDbPoint
 10
1426.0983403763
 20
142.3499119521
 30
0.0
  0
POINT
  5
561
100
AcDbEntity
  8
DEFPOINTS
  6
CONTINUOUS
 62
         0
100
AcDbPoint
 10
1447.1033403763
 20
125.8001117832
 30
0.0
  0
LINE
  5
562
100
AcDbEntity
  8
L1_100
  6
CONTINUOUS
 62
         4
100
AcDbLine
 10
1426.0983403763
 20
140.9999119521
 30
0.0
 11
1426.0983403763
 21
109.7360370841
 31
0.0
  0
LINE
  5
563
100
AcDbEntity
  8
L1_100
  6
CONTINUOUS
 62
         4
100
AcDbLine
 10
1447.1033403763
 20
124.4501117832
 30
0.0
 11
1447.1033403763
 21
109.7360370841
 31
0.0
  0
LINE
  5
564
100
AcDbEntity
  8
L1_100
  6
CONTINUOUS
 62
         4
100
AcDbLine
 10
1426.0983403763
 20
110.4110370841
 30
0.0
 11
1447.1033403763
 21
110.4110370841
 31
0.0
  0
SOLID
  5
565
100
AcDbEntity
  8
L1_100
  6
CONTINUOUS
 62
         4
100
AcDbTrace
 10
1426.0983403763
 20
110.4110370841
 30
0.0
 11
1428.7983403763
 21
110.8160370841
 31
0.0
 12
1428.7983403763
 22
110.0060370841
 32
0.0
 13
1426.0983403763
 23
110.4110370841
 33
0.0
  0
SOLID
  5
566
100
AcDbEntity
  8
L1_100
  6
CONTINUOUS
 62
         4
100
AcDbTrace
 10
1447.1033403763
 20
110.4110370841
 30
0.0
 11
1444.4033403763
 21
110.0060370841
 31
0.0
 12
1444.4033403763
 22
110.8160370841
 32
0.0
 13
1447.1033403763
 23
110.4110370841
 33
0.0
  0
TEXT
  5
568
100
AcDbEntity
  8
L1_100
  6
CONTINUOUS
 62
         4
100
AcDbText
 10
1429.8223564216
 20
113.5430370841
 30
0.0
 40
2.7
  1
21
  7
BOX
100
AcDbText
  0
ENDBLK
  5
569
100
AcDbEntity
  8
0
  6
CONTINUOUS
100
AcDbBlockEnd
  0
BLOCK
  5
56B
100
AcDbEntity
  8
0
100
AcDbBlockBegin
  2
*D27
 70
        65
 10
0.0
 20
0.0
 30
0.0
  3
*D27
  1

  0
POINT
  5
56D
100
AcDbEntity
  8
DEFPOINTS
  6
CONTINUOUS
 62
         0
100
AcDbPoint
 10
1469.4772817214
 20
178.1846417294
 30
0.0
  0
POINT
  5
56E
100
AcDbEntity
  8
DEFPOINTS
  6
CONTINUOUS
 62
         0
100
AcDbPoint
 10
1438.1033403763
 20
178.1846417294
 30
0.0
  0
POINT
  5
56F
100
AcDbEntity
  8
DEFPOINTS
  6
CONTINUOUS
 62
         0
100
AcDbPoint
 10
1438.1033403763
 20
122.1846417294
 30
0.0
  0
LINE
  5
570
100
AcDbEntity
  8
L1_100
  6
CONTINUOUS
 62
         4
100
AcDbLine
 10
1439.4533403763
 20
178.1846417294
 30
0.0
 11
1470.1522817214
 21
178.1846417294
 31
0.0
  0
LINE
  5
571
100
AcDbEntity
  8
L1_100
  6
CONTINUOUS
 62
         4
100
AcDbLine
 10
1439.4533403763
 20
122.1846417294
 30
0.0
 11
1470.1522817214
 21
122.1846417294
 31
0.0
  0
LINE
  5
572
100
AcDbEntity
  8
L1_100
  6
CONTINUOUS
 62
         4
100
AcDbLine
 10
1469.4772817214
 20
178.1846417294
 30
0.0
 11
1469.4772817214
 21
122.1846417294
 31
0.0
  0
SOLID
  5
573
100
AcDbEntity
  8
L1_100
  6
CONTINUOUS
 62
         4
100
AcDbTrace
 10
1469.4772817214
 20
178.1846417294
 30
0.0
 11
1469.8822817214
 21
175.4846417294
 31
0.0
 12
1469.0722817214
 22
175.4846417294
 32
0.0
 13
1469.4772817214
 23
178.1846417294
 33
0.0
  0
SOLID
  5
574
100
AcDbEntity
  8
L1_100
  6
CONTINUOUS
 62
         4
100
AcDbTrace
 10
1469.4772817214
 20
122.1846417294
 30
0.0
 11
1469.0722817214
 21
124.8846417294
 31
0.0
 12
1469.8822817214
 22
124.8846417294
 32
0.0
 13
1469.4772817214
 23
122.1846417294
 33
0.0
  0
TEXT
  5
576
100
AcDbEntity
  8
L1_100
  6
CONTINUOUS
 62
         4
100
AcDbText
 10
1466.3452817214
 20
141.4326489033
 30
0.0
 40
2.7
  1
崷56
 50
90.0
  7
BOX
100
AcDbText
  0
ENDBLK
  5
577
100
AcDbEntity
  8
0
  6
CONTINUOUS
100
AcDbBlockEnd
  0
BLOCK
  5
579
100
AcDbEntity
  8
0
100
AcDbBlockBegin
  2
*D28
 70
        65
 10
0.0
 20
0.0
 30
0.0
  3
*D28
  1

  0
POINT
  5
57B
100
AcDbEntity
  8
DEFPOINTS
  6
CONTINUOUS
 62
         0
100
AcDbPoint
 10
1477.9037032094
 20
179.1846417294
 30
0.0
  0
POINT
  5
57C
100
AcDbEntity
  8
DEFPOINTS
  6
CONTINUOUS
 62
         0
100
AcDbPoint
 10
1438.6432133573
 20
179.1846417294
 30
0.0
  0
POINT
  5
57D
100
AcDbEntity
  8
DEFPOINTS
  6
CONTINUOUS
 62
         0
100
AcDbPoint
 10
1438.1033403763
 20
121.1846417294
 30
0.0
  0
LINE
  5
57E
100
AcDbEntity
  8
L1_100
  6
CONTINUOUS
 62
         4
100
AcDbLine
 10
1439.9932133573
 20
179.1846417294
 30
0.0
 11
1478.5787032094
 21
179.1846417294
 31
0.0
  0
LINE
  5
57F
100
AcDbEntity
  8
L1_100
  6
CONTINUOUS
 62
         4
100
AcDbLine
 10
1439.4533403763
 20
121.1846417294
 30
0.0
 11
1478.5787032094
 21
121.1846417294
 31
0.0
  0
LINE
  5
580
100
AcDbEntity
  8
L1_100
  6
CONTINUOUS
 62
         4
100
AcDbLine
 10
1477.9037032094
 20
179.1846417294
 30
0.0
 11
1477.9037032094
 21
121.1846417294
 31
0.0
  0
SOLID
  5
581
100
AcDbEntity
  8
L1_100
  6
CONTINUOUS
 62
         4
100
AcDbTrace
 10
1477.9037032094
 20
179.1846417294
 30
0.0
 11
1478.3087032094
 21
176.4846417294
 31
0.0
 12
1477.4987032094
 22
176.4846417294
 32
0.0
 13
1477.9037032094
 23
179.1846417294
 33
0.0
  0
SOLID
  5
582
100
AcDbEntity
  8
L1_100
  6
CONTINUOUS
 62
         4
100
AcDbTrace
 10
1477.9037032094
 20
121.1846417294
 30
0.0
 11
1477.4987032094
 21
123.8846417294
 31
0.0
 12
1478.3087032094
 22
123.8846417294
 32
0.0
 13
1477.9037032094
 23
121.1846417294
 33
0.0
  0
TEXT
  5
584
100
AcDbEntity
  8
L1_100
  6
CONTINUOUS
 62
         4
100
AcDbText
 10
1474.7717032094
 20
141.4506685019
 30
0.0
 40
2.7
  1
崷58
 50
90.0
  7
BOX
100
AcDbText
  0
ENDBLK
  5
585
100
AcDbEntity
  8
0
  6
CONTINUOUS
100
AcDbBlockEnd
  0
BLOCK
  5
587
100
AcDbEntity
  8
0
100
AcDbBlockBegin
  2
*D29
 70
        65
 10
0.0
 20
0.0
 30
0.0
  3
*D29
  1

  0
POINT
  5
589
100
AcDbEntity
  8
DEFPOINTS
  6
CONTINUOUS
 62
         0
100
AcDbPoint
 10
1447.1033403763
 20
-73.3005499354
 30
0.0
  0
POINT
  5
58A
100
AcDbEntity
  8
DEFPOINTS
  6
CONTINUOUS
 62
         0
100
AcDbPoint
 10
1447.1033403763
 20
-37.3278646868
 30
0.0
  0
POINT
  5
58B
100
AcDbEntity
  8
DEFPOINTS
  6
CONTINUOUS
 62
         0
100
AcDbPoint
 10
1367.1033403763
 20
-30.9433347407
 30
0.0
  0
LINE
  5
58C
100
AcDbEntity
  8
L1_100
  6
CONTINUOUS
 62
         4
100
AcDbLine
 10
1447.1033403763
 20
-38.6778646868
 30
0.0
 11
1447.1033403763
 21
-73.9755499354
 31
0.0
  0
LINE
  5
58D
100
AcDbEntity
  8
L1_100
  6
CONTINUOUS
 62
         4
100
AcDbLine
 10
1367.1033403763
 20
-32.2933347407
 30
0.0
 11
1367.1033403763
 21
-73.9755499354
 31
0.0
  0
LINE
  5
58E
100
AcDbEntity
  8
L1_100
  6
CONTINUOUS
 62
         4
100
AcDbLine
 10
1447.1033403763
 20
-73.3005499354
 30
0.0
 11
1367.1033403763
 21
-73.3005499354
 31
0.0
  0
SOLID
  5
58F
100
AcDbEntity
  8
L1_100
  6
CONTINUOUS
 62
         4
100
AcDbTrace
 10
1447.1033403763
 20
-73.3005499354
 30
0.0
 11
1444.4033403763
 21
-73.7055499354
 31
0.0
 12
1444.4033403763
 22
-72.8955499354
 32
0.0
 13
1447.1033403763
 23
-73.3005499354
 33
0.0
  0
SOLID
  5
590
100
AcDbEntity
  8
L1_100
  6
CONTINUOUS
 62
         4
100
AcDbTrace
 10
1367.1033403763
 20
-73.3005499354
 30
0.0
 11
1369.8033403763
 21
-72.8955499354
 31
0.0
 12
1369.8033403763
 22
-73.7055499354
 32
0.0
 13
1367.1033403763
 23
-73.3005499354
 33
0.0
  0
TEXT
  5
592
100
AcDbEntity
  8
L1_100
  6
CONTINUOUS
 62
         4
100
AcDbText
 10
1405.0455441161
 20
-70.1685499354
 30
0.0
 40
2.7
  1
80
  7
BOX
100
AcDbText
  0
ENDBLK
  5
593
100
AcDbEntity
  8
0
  6
CONTINUOUS
100
AcDbBlockEnd
  0
BLOCK
  5
595
100
AcDbEntity
  8
0
100
AcDbBlockBegin
  2
*D30
 70
        65
 10
0.0
 20
0.0
 30
0.0
  3
*D30
  1

  0
POINT
  5
597
100
AcDbEntity
  8
DEFPOINTS
  6
CONTINUOUS
 62
         0
100
AcDbPoint
 10
1394.1057015658
 20
-63.7158921806
 30
0.0
  0
POINT
  5
598
100
AcDbEntity
  8
DEFPOINTS
  6
CONTINUOUS
 62
         0
100
AcDbPoint
 10
1394.1057015658
 20
-37.4433347407
 30
0.0
  0
POINT
  5
599
100
AcDbEntity
  8
DEFPOINTS
  6
CONTINUOUS
 62
         0
100
AcDbPoint
 10
1447.1033403763
 20
-37.7886342023
 30
0.0
  0
LINE
  5
59A
100
AcDbEntity
  8
L1_100
  6
CONTINUOUS
 62
         4
100
AcDbLine
 10
1394.1057015658
 20
-38.7933347407
 30
0.0
 11
1394.1057015658
 21
-64.3908921806
 31
0.0
  0
LINE
  5
59B
100
AcDbEntity
  8
L1_100
  6
CONTINUOUS
 62
         4
100
AcDbLine
 10
1447.1033403763
 20
-39.1386342023
 30
0.0
 11
1447.1033403763
 21
-64.3908921806
 31
0.0
  0
LINE
  5
59C
100
AcDbEntity
  8
L1_100
  6
CONTINUOUS
 62
         4
100
AcDbLine
 10
1394.1057015658
 20
-63.7158921806
 30
0.0
 11
1447.1033403763
 21
-63.7158921806
 31
0.0
  0
SOLID
  5
59D
100
AcDbEntity
  8
L1_100
  6
CONTINUOUS
 62
         4
100
AcDbTrace
 10
1394.1057015658
 20
-63.7158921806
 30
0.0
 11
1396.8057015658
 21
-63.3108921806
 31
0.0
 12
1396.8057015658
 22
-64.1208921806
 32
0.0
 13
1394.1057015658
 23
-63.7158921806
 33
0.0
  0
SOLID
  5
59E
100
AcDbEntity
  8
L1_100
  6
CONTINUOUS
 62
         4
100
AcDbTrace
 10
1447.1033403763
 20
-63.7158921806
 30
0.0
 11
1444.4033403763
 21
-64.1208921806
 31
0.0
 12
1444.4033403763
 22
-63.3108921806
 32
0.0
 13
1447.1033403763
 23
-63.7158921806
 33
0.0
  0
TEXT
  5
5A0
100
AcDbEntity
  8
L1_100
  6
CONTINUOUS
 62
         4
100
AcDbText
 10
1414.0977208845
 20
-60.5838921806
 30
0.0
 40
2.7
  1
53
  7
BOX
100
AcDbText
  0
ENDBLK
  5
5A1
100
AcDbEntity
  8
0
  6
CONTINUOUS
100
AcDbBlockEnd
  0
BLOCK
  5
5A3
100
AcDbEntity
  8
0
100
AcDbBlockBegin
  2
*D31
 70
        65
 10
0.0
 20
0.0
 30
0.0
  3
*D31
  1

  0
POINT
  5
5A5
100
AcDbEntity
  8
DEFPOINTS
  6
CONTINUOUS
 62
         0
100
AcDbPoint
 10
1463.0390544535
 20
4.5566652593
 30
0.0
  0
POINT
  5
5A6
100
AcDbEntity
  8
DEFPOINTS
  6
CONTINUOUS
 62
         0
100
AcDbPoint
 10
1393.1057015658
 20
4.5566652593
 30
0.0
  0
POINT
  5
5A7
100
AcDbEntity
  8
DEFPOINTS
  6
CONTINUOUS
 62
         0
100
AcDbPoint
 10
1393.1057015658
 20
-30.4433347407
 30
0.0
  0
LINE
  5
5A8
100
AcDbEntity
  8
L1_100
  6
CONTINUOUS
 62
         4
100
AcDbLine
 10
1394.4557015658
 20
4.5566652593
 30
0.0
 11
1463.7140544535
 21
4.5566652593
 31
0.0
  0
LINE
  5
5A9
100
AcDbEntity
  8
L1_100
  6
CONTINUOUS
 62
         4
100
AcDbLine
 10
1394.4557015658
 20
-30.4433347407
 30
0.0
 11
1463.7140544535
 21
-30.4433347407
 31
0.0
  0
LINE
  5
5AA
100
AcDbEntity
  8
L1_100
  6
CONTINUOUS
 62
         4
100
AcDbLine
 10
1463.0390544535
 20
4.5566652593
 30
0.0
 11
1463.0390544535
 21
-30.4433347407
 31
0.0
  0
SOLID
  5
5AB
100
AcDbEntity
  8
L1_100
  6
CONTINUOUS
 62
         4
100
AcDbTrace
 10
1463.0390544535
 20
4.5566652593
 30
0.0
 11
1463.4440544535
 21
1.8566652593
 31
0.0
 12
1462.6340544535
 22
1.8566652593
 32
0.0
 13
1463.0390544535
 23
4.5566652593
 33
0.0
  0
SOLID
  5
5AC
100
AcDbEntity
  8
L1_100
  6
CONTINUOUS
 62
         4
100
AcDbTrace
 10
1463.0390544535
 20
-30.4433347407
 30
0.0
 11
1462.6340544535
 21
-27.7433347407
 31
0.0
 12
1463.4440544535
 22
-27.7433347407
 32
0.0
 13
1463.0390544535
 23
-30.4433347407
 33
0.0
  0
TEXT
  5
5AE
100
AcDbEntity
  8
L1_100
  6
CONTINUOUS
 62
         4
100
AcDbText
 10
1461.0140544535
 20
-19.8342330444
 30
0.0
 40
2.7
  1
崷35
 50
90.0
  7
BOX
100
AcDbText
  0
ENDBLK
  5
5AF
100
AcDbEntity
  8
0
  6
CONTINUOUS
100
AcDbBlockEnd
  0
BLOCK
  5
5B1
100
AcDbEntity
  8
0
100
AcDbBlockBegin
  2
*D32
 70
        65
 10
0.0
 20
0.0
 30
0.0
  3
*D32
  1

  0
POINT
  5
5B3
100
AcDbEntity
  8
DEFPOINTS
  6
CONTINUOUS
 62
         0
100
AcDbPoint
 10
1481.8871677832
 20
11.0566652593
 30
0.0
  0
POINT
  5
5B4
100
AcDbEntity
  8
DEFPOINTS
  6
CONTINUOUS
 62
         0
100
AcDbPoint
 10
1446.9033403763
 20
11.0566652593
 30
0.0
  0
POINT
  5
5B5
100
AcDbEntity
  8
DEFPOINTS
  6
CONTINUOUS
 62
         0
100
AcDbPoint
 10
1446.9033403763
 20
-36.9433347407
 30
0.0
  0
LINE
  5
5B6
100
AcDbEntity
  8
L1_100
  6
CONTINUOUS
 62
         4
100
AcDbLine
 10
1448.2533403763
 20
11.0566652593
 30
0.0
 11
1482.5621677832
 21
11.0566652593
 31
0.0
  0
LINE
  5
5B7
100
AcDbEntity
  8
L1_100
  6
CONTINUOUS
 62
         4
100
AcDbLine
 10
1448.2533403763
 20
-36.9433347407
 30
0.0
 11
1482.5621677832
 21
-36.9433347407
 31
0.0
  0
LINE
  5
5B8
100
AcDbEntity
  8
L1_100
  6
CONTINUOUS
 62
         4
100
AcDbLine
 10
1481.8871677832
 20
11.0566652593
 30
0.0
 11
1481.8871677832
 21
-36.9433347407
 31
0.0
  0
SOLID
  5
5B9
100
AcDbEntity
  8
L1_100
  6
CONTINUOUS
 62
         4
100
AcDbTrace
 10
1481.8871677832
 20
11.0566652593
 30
0.0
 11
1482.2921677832
 21
8.3566652593
 31
0.0
 12
1481.4821677832
 22
8.3566652593
 32
0.0
 13
1481.8871677832
 23
11.0566652593
 33
0.0
  0
SOLID
  5
5BA
100
AcDbEntity
  8
L1_100
  6
CONTINUOUS
 62
         4
100
AcDbTrace
 10
1481.8871677832
 20
-36.9433347407
 30
0.0
 11
1481.4821677832
 21
-34.2433347407
 31
0.0
 12
1482.2921677832
 22
-34.2433347407
 32
0.0
 13
1481.8871677832
 23
-36.9433347407
 33
0.0
  0
TEXT
  5
5BC
100
AcDbEntity
  8
L1_100
  6
CONTINUOUS
 62
         4
100
AcDbText
 10
1479.8621677832
 20
-20.3134223664
 30
0.0
 40
2.7
  1
崷48
 50
90.0
  7
BOX
100
AcDbText
  0
ENDBLK
  5
5BD
100
AcDbEntity
  8
0
  6
CONTINUOUS
100
AcDbBlockEnd
  0
BLOCK
  5
5BF
100
AcDbEntity
  8
0
100
AcDbBlockBegin
  2
*D33
 70
        65
 10
0.0
 20
0.0
 30
0.0
  3
*D33
  1

  0
POINT
  5
5C1
100
AcDbEntity
  8
DEFPOINTS
  6
CONTINUOUS
 62
         0
100
AcDbPoint
 10
1403.0583403763
 20
22.5276946084
 30
0.0
  0
POINT
  5
5C2
100
AcDbEntity
  8
DEFPOINTS
  6
CONTINUOUS
 62
         0
100
AcDbPoint
 10
1403.0583403763
 20
16.0566652593
 30
0.0
  0
POINT
  5
5C3
100
AcDbEntity
  8
DEFPOINTS
  6
CONTINUOUS
 62
         0
100
AcDbPoint
 10
1431.0483403763
 20
16.0566652593
 30
0.0
  0
LINE
  5
5C4
100
AcDbEntity
  8
L1_100
  6
CONTINUOUS
 62
         4
100
AcDbLine
 10
1403.0583403763
 20
17.4066652593
 30
0.0
 11
1403.0583403763
 21
23.2026946084
 31
0.0
  0
LINE
  5
5C5
100
AcDbEntity
  8
L1_100
  6
CONTINUOUS
 62
         4
100
AcDbLine
 10
1431.0483403763
 20
17.4066652593
 30
0.0
 11
1431.0483403763
 21
23.2026946084
 31
0.0
  0
LINE
  5
5C6
100
AcDbEntity
  8
L1_100
  6
CONTINUOUS
 62
         4
100
AcDbLine
 10
1403.0583403763
 20
22.5276946084
 30
0.0
 11
1431.0483403763
 21
22.5276946084
 31
0.0
  0
SOLID
  5
5C7
100
AcDbEntity
  8
L1_100
  6
CONTINUOUS
 62
         4
100
AcDbTrace
 10
1403.0583403763
 20
22.5276946084
 30
0.0
 11
1405.7583403763
 21
22.9326946084
 31
0.0
 12
1405.7583403763
 22
22.1226946084
 32
0.0
 13
1403.0583403763
 23
22.5276946084
 33
0.0
  0
SOLID
  5
5C8
100
AcDbEntity
  8
L1_100
  6
CONTINUOUS
 62
         4
100
AcDbTrace
 10
1431.0483403763
 20
22.5276946084
 30
0.0
 11
1428.3483403763
 21
22.1226946084
 31
0.0
 12
1428.3483403763
 22
22.9326946084
 32
0.0
 13
1431.0483403763
 23
22.5276946084
 33
0.0
  0
TEXT
  5
5CA
100
AcDbEntity
  8
L1_100
  6
CONTINUOUS
 62
         4
100
AcDbText
 10
1411.4283403763
 20
25.6596946084
 30
0.0
 40
2.7
  1
27.7
  7
BOX
100
AcDbText
  0
ENDBLK
  5
5CB
100
AcDbEntity
  8
0
  6
CONTINUOUS
100
AcDbBlockEnd
  0
ENDSEC
  0
SECTION
  2
ENTITIES
  0
INSERT
  5
63
100
AcDbEntity
  8
0
  6
CONTINUOUS
100
AcDbBlockReference
  2
*X0
 10
0.0
 20
0.0
 30
0.0
  0
LINE
  5
64
100
AcDbEntity
  8
_Y__________
  6
DASHED
 62
         2
100
AcDbLine
 10
1274.1314601609
 20
-13.7433347407
 30
0.0
 11
1273.185198805
 21
-13.7433347407
 31
0.0
  0
LINE
  5
65
100
AcDbEntity
  8
_Y__________
  6
DASHED
 62
         2
100
AcDbLine
 10
1274.1314601609
 20
-12.1433347407
 30
0.0
 11
1273.185198805
 21
-12.1433347407
 31
0.0
  0
LINE
  5
66
100
AcDbEntity
  8
_Y__________
  6
DASHED
 62
         2
100
AcDbLine
 10
1271.1933403763
 20
-14.8933347407
 30
0.0
 11
1273.185198805
 21
-13.7433347407
 31
0.0
  0
LINE
  5
67
100
AcDbEntity
  8
_Y__________
  6
DASHED
 62
         2
100
AcDbLine
 10
1271.1933403763
 20
-10.9933347407
 30
0.0
 11
1273.185198805
 21
-12.1433347407
 31
0.0
  0
LINE
  5
68
100
AcDbEntity
  8
_Y__________
  6
DASHED
 62
         2
100
AcDbLine
 10
1273.185198805
 20
-13.7433347407
 30
0.0
 11
1273.185198805
 21
-12.1433347407
 31
0.0
  0
LINE
  5
69
100
AcDbEntity
  8
_Y__________
  6
DASHED
 62
         2
100
AcDbLine
 10
1274.1314601609
 20
-13.7433347407
 30
0.0
 11
1274.5933403763
 21
-12.9433347407
 31
0.0
  0
LINE
  5
6A
100
AcDbEntity
  8
_Y__________
  6
DASHED
 62
         2
100
AcDbLine
 10
1274.1314601609
 20
-12.1433347407
 30
0.0
 11
1274.5933403763
 21
-12.9433347407
 31
0.0
  0
LINE
  5
6B
100
AcDbEntity
  8
_Y__________
  6
DASHED
 62
         2
100
AcDbLine
 10
1274.1314601609
 20
-13.7433347407
 30
0.0
 11
1274.1314601609
 21
-12.1433347407
 31
0.0
  0
LINE
  5
6C
100
AcDbEntity
  8
_Y__________
  6
CONTINUOUS
 62
         7
100
AcDbLine
 10
1278.4933403763
 20
-0.2433347407
 30
0.0
 11
1272.6933403763
 21
-0.2433347407
 31
0.0
  0
ARC
  5
6D
100
AcDbEntity
  8
_Y__________
  6
CONTINUOUS
 62
         7
100
AcDbCircle
 10
1303.912796199
 20
-2.2611372181
 30
0.0
 40
1.6
100
AcDbArc
 50
265.0
 51
315.0
  0
LINE
  5
6E
100
AcDbEntity
  8
_Y__________
  6
CONTINUOUS
 62
         7
100
AcDbLine
 10
1308.1933403763
 20
-0.2433347407
 30
0.0
 11
1305.0441670489
 21
-3.392508068
 31
0.0
  0
LINE
  5
6F
100
AcDbEntity
  8
_Y__________
  6
CONTINUOUS
 62
         7
100
AcDbLine
 10
1278.4933403763
 20
-1.6433347407
 30
0.0
 11
1303.7733470106
 21
-3.855048735
 31
0.0
  0
LINE
  5
70
100
AcDbEntity
  8
_Y__________
  6
CONTINUOUS
 62
         7
100
AcDbLine
 10
1278.4933403763
 20
-0.2433347407
 30
0.0
 11
1278.4933403763
 21
-1.6433347407
 31
0.0
  0
LINE
  5
71
100
AcDbEntity
  8
_Y__________
  6
CONTINUOUS
 62
         7
100
AcDbLine
 10
1272.6933403763
 20
-6.2612691918
 30
0.0
 11
1272.6933403763
 21
-0.2433347407
 31
0.0
  0
LINE
  5
72
100
AcDbEntity
  8
_Y__________
  6
CONTINUOUS
 62
         7
100
AcDbLine
 10
1271.1933403763
 20
-1.7433347407
 30
0.0
 11
1272.6933403763
 21
-0.2433347407
 31
0.0
  0
LINE
  5
73
100
AcDbEntity
  8
_Y__________
  6
CONTINUOUS
 62
         4
100
AcDbLine
 10
1271.1933403763
 20
-6.2612691918
 30
0.0
 11
1283.8933403763
 21
-19.6254002896
 31
0.0
  0
LINE
  5
74
100
AcDbEntity
  8
_Y__________
  6
CONTINUOUS
 62
         4
100
AcDbLine
 10
1283.8933403763
 20
-6.2612691918
 30
0.0
 11
1271.1933403763
 21
-19.6254002896
 31
0.0
  0
LINE
  5
75
100
AcDbEntity
  8
_Y__________
  6
CONTINUOUS
 62
         4
100
AcDbLine
 10
1293.6533403763
 20
-6.2612691918
 30
0.0
 11
1306.7333403763
 21
-19.6254002896
 31
0.0
  0
LINE
  5
76
100
AcDbEntity
  8
_Y__________
  6
CONTINUOUS
 62
         4
100
AcDbLine
 10
1306.7333403763
 20
-6.2612691918
 30
0.0
 11
1293.6533403763
 21
-19.6254002896
 31
0.0
  0
LINE
  5
77
100
AcDbEntity
  8
_Y__________
  6
CONTINUOUS
 62
         7
100
AcDbLine
 10
1293.6533403763
 20
-19.6254002896
 30
0.0
 11
1306.7333403763
 21
-19.6254002896
 31
0.0
  0
LINE
  5
78
100
AcDbEntity
  8
_Y__________
  6
CONTINUOUS
 62
         7
100
AcDbLine
 10
1306.7333403763
 20
-6.2612691918
 30
0.0
 11
1293.6533403763
 21
-6.2612691918
 31
0.0
  0
ARC
  5
79
100
AcDbEntity
  8
_Y__________
  6
CONTINUOUS
 62
         7
100
AcDbCircle
 10
1295.9333403763
 20
-12.9433347407
 30
0.0
 40
12.7
100
AcDbArc
 50
328.2545162986
 51
391.7454837014
  0
ARC
  5
7A
100
AcDbEntity
  8
_Y__________
  6
CONTINUOUS
 62
         7
100
AcDbCircle
 10
1304.4533403763
 20
-12.9433347407
 30
0.0
 40
12.7
100
AcDbArc
 50
148.2545162986
 51
211.7454837014
  0
ARC
  5
7B
100
AcDbEntity
  8
_Y__________
  6
CONTINUOUS
 62
         7
100
AcDbCircle
 10
1273.0933403763
 20
-12.9433347407
 30
0.0
 40
12.7
100
AcDbArc
 50
328.2545162986
 51
391.7454837014
  0
LINE
  5
7C
100
AcDbEntity
  8
_Y__________
  6
CONTINUOUS
 62
         7
100
AcDbLine
 10
1283.8933403763
 20
-19.6254002896
 30
0.0
 11
1283.8933403763
 21
-6.2612691918
 31
0.0
  0
LINE
  5
7D
100
AcDbEntity
  8
_Y__________
  6
CONTINUOUS
 62
         7
100
AcDbLine
 10
1293.6533403763
 20
-19.6254002896
 30
0.0
 11
1293.6533403763
 21
-6.2612691918
 31
0.0
  0
LINE
  5
7E
100
AcDbEntity
  8
_Y__________
  6
CONTINUOUS
 62
         7
100
AcDbLine
 10
1306.7333403763
 20
-19.6254002896
 30
0.0
 11
1306.7333403763
 21
-6.2612691918
 31
0.0
  0
LINE
  5
7F
100
AcDbEntity
  8
_Y__________
  6
CONTINUOUS
 62
         7
100
AcDbLine
 10
1283.8933403763
 20
-19.6254002896
 30
0.0
 11
1271.1933403763
 21
-19.6254002896
 31
0.0
  0
LINE
  5
80
100
AcDbEntity
  8
_Y__________
  6
CONTINUOUS
 62
         7
100
AcDbLine
 10
1283.8933403763
 20
-6.2612691918
 30
0.0
 11
1271.1933403763
 21
-6.2612691918
 31
0.0
  0
LINE
  5
81
100
AcDbEntity
  8
_Y__________
  6
CENTER
 62
         1
100
AcDbLine
 10
1300.1933403763
 20
-17.6024439088
 30
0.0
 11
1300.1933403763
 21
1.2063186254
 31
0.0
  0
LINE
  5
82
100
AcDbEntity
  8
_Y__________
  6
CENTER
 62
         1
100
AcDbLine
 10
1329.1033403763
 20
-12.9433347407
 30
0.0
 11
1263.4943095065
 21
-12.9433347407
 31
0.0
  0
LINE
  5
83
100
AcDbEntity
  8
_Y__________
  6
CONTINUOUS
 62
         7
100
AcDbLine
 10
1271.1933403763
 20
-24.1433347407
 30
0.0
 11
1271.1933403763
 21
-1.7433347407
 31
0.0
  0
LINE
  5
84
100
AcDbEntity
  8
_Y__________
  6
CONTINUOUS
 62
         7
100
AcDbLine
 10
1327.6033403763
 20
-0.2433347407
 30
0.0
 11
1308.1933403763
 21
-0.2433347407
 31
0.0
  0
LINE
  5
85
100
AcDbEntity
  8
_Y__________
  6
CONTINUOUS
 62
         7
100
AcDbLine
 10
1327.6033403763
 20
-25.6433347407
 30
0.0
 11
1272.6933403763
 21
-25.6433347407
 31
0.0
  0
LINE
  5
86
100
AcDbEntity
  8
_Y__________
  6
CONTINUOUS
 62
         7
100
AcDbLine
 10
1329.1033403763
 20
0.7566652593
 30
0.0
 11
1329.1033403763
 21
-26.6433347407
 31
0.0
  0
LINE
  5
87
100
AcDbEntity
  8
_Y__________
  6
CONTINUOUS
 62
         7
100
AcDbLine
 10
1328.7033403763
 20
-0.4433347407
 30
0.0
 11
1328.4024115368
 21
-0.4433347407
 31
0.0
  0
LINE
  5
88
100
AcDbEntity
  8
_Y__________
  6
CONTINUOUS
 62
         7
100
AcDbLine
 10
1327.6033403763
 20
-0.2433347407
 30
0.0
 11
1328.2988839188
 21
-0.4297050712
 31
0.0
  0
ARC
  5
89
100
AcDbEntity
  8
_Y__________
  6
CONTINUOUS
 62
         7
100
AcDbCircle
 10
1328.7033403763
 20
-0.0433347407
 30
0.0
 40
0.4
100
AcDbArc
 50
270.0
 51
360.0
  0
ARC
  5
8A
100
AcDbEntity
  8
_Y__________
  6
CONTINUOUS
 62
         7
100
AcDbCircle
 10
1328.4024115368
 20
-0.0433347407
 30
0.0
 40
0.4
100
AcDbArc
 50
255.0
 51
270.0
  0
ARC
  5
8B
100
AcDbEntity
  8
_Y__________
  6
CONTINUOUS
 62
         7
100
AcDbCircle
 10
1328.4024115368
 20
-25.8433347407
 30
0.0
 40
0.4
100
AcDbArc
 50
90.0
 51
105.0
  0
ARC
  5
8C
100
AcDbEntity
  8
_Y__________
  6
CONTINUOUS
 62
         7
100
AcDbCircle
 10
1328.7033403763
 20
-25.8433347407
 30
0.0
 40
0.4
100
AcDbArc
 50
0.0
 51
90.0
  0
LINE
  5
8D
100
AcDbEntity
  8
_Y__________
  6
CONTINUOUS
 62
         7
100
AcDbLine
 10
1327.6033403763
 20
-25.6433347407
 30
0.0
 11
1328.2988839188
 21
-25.4569644102
 31
0.0
  0
LINE
  5
8E
100
AcDbEntity
  8
_Y__________
  6
CONTINUOUS
 62
         7
100
AcDbLine
 10
1328.7033403763
 20
-25.4433347407
 30
0.0
 11
1328.4024115368
 21
-25.4433347407
 31
0.0
  0
LINE
  5
8F
100
AcDbEntity
  8
_Y__________
  6
CONTINUOUS
 62
         4
100
AcDbLine
 10
1327.6033403763
 20
-0.2433347407
 30
0.0
 11
1327.6033403763
 21
-25.6433347407
 31
0.0
  0
LINE
  5
90
100
AcDbEntity
  8
_Y__________
  6
CONTINUOUS
 62
         4
100
AcDbLine
 10
1328.7033403763
 20
-25.4433347407
 30
0.0
 11
1328.7033403763
 21
-0.4433347407
 31
0.0
  0
LINE
  5
91
100
AcDbEntity
  8
_Y__________
  6
CONTINUOUS
 62
         4
100
AcDbLine
 10
1328.3497505378
 20
-25.4433347407
 30
0.0
 11
1328.3497505378
 21
-0.4398531125
 31
0.0
  0
LINE
  5
92
100
AcDbEntity
  8
_Y__________
  6
CONTINUOUS
 62
         7
100
AcDbLine
 10
1271.1933403763
 20
-24.1433347407
 30
0.0
 11
1272.6933403763
 21
-25.6433347407
 31
0.0
  0
LINE
  5
93
100
AcDbEntity
  8
_Y__________
  6
CONTINUOUS
 62
         7
100
AcDbLine
 10
1272.6933403763
 20
-25.6433347407
 30
0.0
 11
1272.6933403763
 21
-19.6254002896
 31
0.0
  0
CIRCLE
  5
94
100
AcDbEntity
  8
_Y__________
  6
CONTINUOUS
 62
         7
100
AcDbCircle
 10
1214.9233403763
 20
-12.9433347407
 30
0.0
 40
0.8
  0
CIRCLE
  5
95
100
AcDbEntity
  8
_Y__________
  6
CONTINUOUS
 62
         7
100
AcDbCircle
 10
1214.9233403763
 20
-12.9433347407
 30
0.0
 40
1.95
  0
LINE
  5
96
100
AcDbEntity
  8
_Y__________
  6
DASHED
 62
         2
100
AcDbLine
 10
1223.8603859128
 20
-3.9200749595
 30
0.0
 11
1205.9862948397
 21
-3.9200749595
 31
0.0
  0
LINE
  5
97
100
AcDbEntity
  8
_Y__________
  6
DASHED
 62
         2
100
AcDbLine
 10
1220.7198910747
 20
-1.6433347407
 30
0.0
 11
1209.1267896778
 21
-1.6433347407
 31
0.0
  0
LINE
  5
98
100
AcDbEntity
  8
_Y__________
  6
CONTINUOUS
 62
         7
100
AcDbLine
 10
1225.7233403763
 20
-19.6254002896
 30
0.0
 11
1225.7233403763
 21
-6.2612691918
 31
0.0
  0
LINE
  5
99
100
AcDbEntity
  8
_Y__________
  6
CENTER
 62
         1
100
AcDbLine
 10
1238.0237643223
 20
-12.9433347407
 30
0.0
 11
1193.4923837637
 21
-12.9433347407
 31
0.0
  0
LINE
  5
9A
100
AcDbEntity
  8
_Y__________
  6
CENTER
 62
         1
100
AcDbLine
 10
1214.9233403763
 20
-33.1230424648
 30
0.0
 11
1214.9233403763
 21
4.7501496632
 31
0.0
  0
ARC
  5
9B
100
AcDbEntity
  8
_Y__________
  6
CONTINUOUS
 62
         7
100
AcDbCircle
 10
1214.9233403763
 20
-12.9433347407
 30
0.0
 40
11.2
100
AcDbArc
 50
15.3588855808
 51
344.6411144192
  0
CIRCLE
  5
9C
100
AcDbEntity
  8
_Y__________
  6
CONTINUOUS
 62
         7
100
AcDbCircle
 10
1214.9233403763
 20
-12.9433347407
 30
0.0
 40
12.7
  0
LINE
  5
9D
100
AcDbEntity
  8
_Y__________
  6
CONTINUOUS
 62
         7
100
AcDbLine
 10
1329.1033403763
 20
163.8846417294
 30
0.0
 11
1329.1033403763
 21
136.4846417294
 31
0.0
  0
CIRCLE
  5
9E
100
AcDbEntity
  8
_Y__________
  6
CONTINUOUS
 62
         7
100
AcDbCircle
 10
1214.9233403763
 20
150.1846417294
 30
0.0
 40
12.7
  0
ARC
  5
9F
100
AcDbEntity
  8
_Y__________
  6
CONTINUOUS
 62
         7
100
AcDbCircle
 10
1214.9233403763
 20
150.1846417294
 30
0.0
 40
11.2
100
AcDbArc
 50
285.3588855808
 51
614.6411144192
  0
LINE
  5
A0
100
AcDbEntity
  8
_Y__________
  6
CENTER
 62
         1
100
AcDbLine
 10
1214.9233403763
 20
130.0049340053
 30
0.0
 11
1214.9233403763
 21
167.8781261332
 31
0.0
  0
LINE
  5
A1
100
AcDbEntity
  8
_Y__________
  6
CENTER
 62
         1
100
AcDbLine
 10
1238.0237643223
 20
150.1846417294
 30
0.0
 11
1193.4923837637
 21
150.1846417294
 31
0.0
  0
LINE
  5
A2
100
AcDbEntity
  8
_Y__________
  6
CONTINUOUS
 62
         7
100
AcDbLine
 10
1208.2412748273
 20
139.3846417294
 30
0.0
 11
1221.6054059252
 21
139.3846417294
 31
0.0
  0
LINE
  5
A3
100
AcDbEntity
  8
_Y__________
  6
DASHED
 62
         2
100
AcDbLine
 10
1226.2233403763
 20
155.9811924279
 30
0.0
 11
1226.2233403763
 21
144.3880910309
 31
0.0
  0
LINE
  5
A4
100
AcDbEntity
  8
_Y__________
  6
DASHED
 62
         2
100
AcDbLine
 10
1223.9466001574
 20
159.1216872659
 30
0.0
 11
1223.9466001574
 21
141.2475961929
 31
0.0
  0
CIRCLE
  5
A5
100
AcDbEntity
  8
_Y__________
  6
CONTINUOUS
 62
         7
100
AcDbCircle
 10
1214.9233403763
 20
150.1846417294
 30
0.0
 40
1.95
  0
CIRCLE
  5
A6
100
AcDbEntity
  8
_Y__________
  6
CONTINUOUS
 62
         7
100
AcDbCircle
 10
1214.9233403763
 20
150.1846417294
 30
0.0
 40
0.8
  0
LINE
  5
A7
100
AcDbEntity
  8
_Y__________
  6
CONTINUOUS
 62
         7
100
AcDbLine
 10
1272.6933403763
 20
139.3846417294
 30
0.0
 11
1272.6933403763
 21
162.8846417294
 31
0.0
  0
LINE
  5
A8
100
AcDbEntity
  8
_Y__________
  6
CONTINUOUS
 62
         4
100
AcDbLine
 10
1328.3497505378
 20
137.6846417294
 30
0.0
 11
1328.3497505378
 21
162.6881233576
 31
0.0
  0
LINE
  5
A9
100
AcDbEntity
  8
_Y__________
  6
CONTINUOUS
 62
         4
100
AcDbLine
 10
1328.7033403763
 20
137.6846417294
 30
0.0
 11
1328.7033403763
 21
162.6846417294
 31
0.0
  0
LINE
  5
AA
100
AcDbEntity
  8
_Y__________
  6
CONTINUOUS
 62
         4
100
AcDbLine
 10
1327.6033403763
 20
162.8846417294
 30
0.0
 11
1327.6033403763
 21
137.4846417294
 31
0.0
  0
LINE
  5
AB
100
AcDbEntity
  8
_Y__________
  6
CONTINUOUS
 62
         7
100
AcDbLine
 10
1328.7033403763
 20
137.6846417294
 30
0.0
 11
1328.4024115368
 21
137.6846417294
 31
0.0
  0
LINE
  5
AC
100
AcDbEntity
  8
_Y__________
  6
CONTINUOUS
 62
         7
100
AcDbLine
 10
1327.6033403763
 20
137.4846417294
 30
0.0
 11
1328.2988839188
 21
137.6710120599
 31
0.0
  0
ARC
  5
AD
100
AcDbEntity
  8
_Y__________
  6
CONTINUOUS
 62
         7
100
AcDbCircle
 10
1328.7033403763
 20
137.2846417294
 30
0.0
 40
0.4
100
AcDbArc
 50
0.0
 51
90.0
  0
ARC
  5
AE
100
AcDbEntity
  8
_Y__________
  6
CONTINUOUS
 62
         7
100
AcDbCircle
 10
1328.4024115368
 20
137.2846417294
 30
0.0
 40
0.4
100
AcDbArc
 50
90.0
 51
105.0
  0
ARC
  5
AF
100
AcDbEntity
  8
_Y__________
  6
CONTINUOUS
 62
         7
100
AcDbCircle
 10
1328.4024115368
 20
163.0846417294
 30
0.0
 40
0.4
100
AcDbArc
 50
255.0
 51
270.0
  0
ARC
  5
B0
100
AcDbEntity
  8
_Y__________
  6
CONTINUOUS
 62
         7
100
AcDbCircle
 10
1328.7033403763
 20
163.0846417294
 30
0.0
 40
0.4
100
AcDbArc
 50
270.0
 51
360.0
  0
LINE
  5
B1
100
AcDbEntity
  8
_Y__________
  6
CONTINUOUS
 62
         7
100
AcDbLine
 10
1327.6033403763
 20
162.8846417294
 30
0.0
 11
1328.2988839188
 21
162.6982713989
 31
0.0
  0
LINE
  5
B2
100
AcDbEntity
  8
_Y__________
  6
CONTINUOUS
 62
         7
100
AcDbLine
 10
1328.7033403763
 20
162.6846417294
 30
0.0
 11
1328.4024115368
 21
162.6846417294
 31
0.0
  0
LINE
  5
B3
100
AcDbEntity
  8
_Y__________
  6
CONTINUOUS
 62
         7
100
AcDbLine
 10
1327.6033403763
 20
137.4846417294
 30
0.0
 11
1308.6333403763
 21
137.4846417294
 31
0.0
  0
LINE
  5
B4
100
AcDbEntity
  8
_Y__________
  6
CONTINUOUS
 62
         7
100
AcDbLine
 10
1327.6033403763
 20
162.8846417294
 30
0.0
 11
1272.6933403763
 21
162.8846417294
 31
0.0
  0
LINE
  5
B5
100
AcDbEntity
  8
_Y__________
  6
CONTINUOUS
 62
         7
100
AcDbLine
 10
1271.1933403763
 20
139.3846417294
 30
0.0
 11
1271.1933403763
 21
160.9846417294
 31
0.0
  0
LINE
  5
B6
100
AcDbEntity
  8
_Y__________
  6
CENTER
 62
         1
100
AcDbLine
 10
1329.1033403763
 20
150.1846417294
 30
0.0
 11
1263.4943095065
 21
150.1846417294
 31
0.0
  0
LINE
  5
B7
100
AcDbEntity
  8
_Y__________
  6
CONTINUOUS
 62
         7
100
AcDbLine
 10
1283.8933403763
 20
139.3846417294
 30
0.0
 11
1271.1933403763
 21
139.3846417294
 31
0.0
  0
LINE
  5
B8
100
AcDbEntity
  8
_Y__________
  6
CONTINUOUS
 62
         7
100
AcDbLine
 10
1283.8933403763
 20
139.3846417294
 30
0.0
 11
1285.7933403763
 21
137.4846417294
 31
0.0
  0
LINE
  5
B9
100
AcDbEntity
  8
_Y__________
  6
CENTER
 62
         1
100
AcDbLine
 10
1300.1933403763
 20
145.5255325612
 30
0.0
 11
1300.1933403763
 21
164.3342950955
 31
0.0
  0
LINE
  5
BA
100
AcDbEntity
  8
_Y__________
  6
CONTINUOUS
 62
         7
100
AcDbLine
 10
1306.7333403763
 20
139.3846417294
 30
0.0
 11
1293.6533403763
 21
139.3846417294
 31
0.0
  0
LINE
  5
BB
100
AcDbEntity
  8
_Y__________
  6
CONTINUOUS
 62
         7
100
AcDbLine
 10
1306.7333403763
 20
139.3846417294
 30
0.0
 11
1308.6333403763
 21
137.4846417294
 31
0.0
  0
LINE
  5
BC
100
AcDbEntity
  8
_Y__________
  6
CONTINUOUS
 62
         7
100
AcDbLine
 10
1291.7533403763
 20
137.4846417294
 30
0.0
 11
1293.6533403763
 21
139.3846417294
 31
0.0
  0
LINE
  5
BD
100
AcDbEntity
  8
_Y__________
  6
CONTINUOUS
 62
         7
100
AcDbLine
 10
1291.7533403763
 20
137.4846417294
 30
0.0
 11
1285.7933403763
 21
137.4846417294
 31
0.0
  0
LINE
  5
BE
100
AcDbEntity
  8
_Y__________
  6
CONTINUOUS
 62
         7
100
AcDbLine
 10
1278.4933403763
 20
144.3880910309
 30
0.0
 11
1278.4933403763
 21
155.9811924279
 31
0.0
  0
LINE
  5
BF
100
AcDbEntity
  8
_Y__________
  6
CONTINUOUS
 62
         4
100
AcDbLine
 10
1304.5166001574
 20
141.2475961929
 30
0.0
 11
1304.5166001574
 21
159.1216872659
 31
0.0
  0
LINE
  5
C0
100
AcDbEntity
  8
_Y__________
  6
CONTINUOUS
 62
         7
100
AcDbLine
 10
1304.5166001574
 20
159.1216872659
 30
0.0
 11
1278.4933403763
 21
155.9811924279
 31
0.0
  0
LINE
  5
C1
100
AcDbEntity
  8
_Y__________
  6
CONTINUOUS
 62
         7
100
AcDbLine
 10
1278.4933403763
 20
144.3880910309
 30
0.0
 11
1304.5166001574
 21
141.2475961929
 31
0.0
  0
ARC
  5
C2
100
AcDbEntity
  8
_Y__________
  6
CONTINUOUS
 62
         7
100
AcDbCircle
 10
1295.4933403763
 20
150.1846417294
 30
0.0
 40
12.7
100
AcDbArc
 50
315.2750328752
 51
404.7249671248
  0
LINE
  5
C3
100
AcDbEntity
  8
_Y__________
  6
CONTINUOUS
 62
         4
100
AcDbLine
 10
1278.4933403763
 20
155.9811924279
 30
0.0
 11
1304.5166001574
 21
141.2475961929
 31
0.0
  0
LINE
  5
C4
100
AcDbEntity
  8
_Y__________
  6
CONTINUOUS
 62
         4
100
AcDbLine
 10
1304.5166001574
 20
159.1216872659
 30
0.0
 11
1278.4933403763
 21
144.3880910309
 31
0.0
  0
LINE
  5
C5
100
AcDbEntity
  8
_Y__________
  6
CONTINUOUS
 62
         7
100
AcDbLine
 10
1271.1933403763
 20
161.3846417294
 30
0.0
 11
1272.6933403763
 21
162.8846417294
 31
0.0
  0
LINE
  5
C6
100
AcDbEntity
  8
_Y__________
  6
DASHED
 62
         2
100
AcDbLine
 10
1274.1314601609
 20
149.3846417294
 30
0.0
 11
1274.1314601609
 21
150.9846417294
 31
0.0
  0
LINE
  5
C7
100
AcDbEntity
  8
_Y__________
  6
DASHED
 62
         2
100
AcDbLine
 10
1274.1314601609
 20
150.9846417294
 30
0.0
 11
1274.5933403763
 21
150.1846417294
 31
0.0
  0
LINE
  5
C8
100
AcDbEntity
  8
_Y__________
  6
DASHED
 62
         2
100
AcDbLine
 10
1274.1314601609
 20
149.3846417294
 30
0.0
 11
1274.5933403763
 21
150.1846417294
 31
0.0
  0
LINE
  5
C9
100
AcDbEntity
  8
_Y__________
  6
DASHED
 62
         2
100
AcDbLine
 10
1273.185198805
 20
149.3846417294
 30
0.0
 11
1273.185198805
 21
150.9846417294
 31
0.0
  0
LINE
  5
CA
100
AcDbEntity
  8
_Y__________
  6
DASHED
 62
         2
100
AcDbLine
 10
1271.1933403763
 20
152.1346417294
 30
0.0
 11
1273.185198805
 21
150.9846417294
 31
0.0
  0
LINE
  5
CB
100
AcDbEntity
  8
_Y__________
  6
DASHED
 62
         2
100
AcDbLine
 10
1271.1933403763
 20
148.2346417294
 30
0.0
 11
1273.185198805
 21
149.3846417294
 31
0.0
  0
LINE
  5
CC
100
AcDbEntity
  8
_Y__________
  6
DASHED
 62
         2
100
AcDbLine
 10
1274.1314601609
 20
150.9846417294
 30
0.0
 11
1273.185198805
 21
150.9846417294
 31
0.0
  0
LINE
  5
CD
100
AcDbEntity
  8
_Y__________
  6
DASHED
 62
         2
100
AcDbLine
 10
1274.1314601609
 20
149.3846417294
 30
0.0
 11
1273.185198805
 21
149.3846417294
 31
0.0
  0
ARC
  5
CE
100
AcDbEntity
  8
L1_100
  6
CONTINUOUS
 62
         7
100
AcDbCircle
 10
1331.1033403763
 20
-42.4433347407
 30
0.0
 40
2.0
100
AcDbArc
 50
180.0
 51
270.0
  0
ARC
  5
CF
100
AcDbEntity
  8
L1_100
  6
CONTINUOUS
 62
         7
100
AcDbCircle
 10
1331.1033403763
 20
16.5566652593
 30
0.0
 40
2.0
100
AcDbArc
 50
90.0
 51
180.0
  0
LINE
  5
D0
100
AcDbEntity
  8
L1_100
  6
CONTINUOUS
 62
         7
100
AcDbLine
 10
1329.1033403763
 20
-42.4433347407
 30
0.0
 11
1329.1033403763
 21
16.5566652593
 31
0.0
  0
ARC
  5
D1
100
AcDbEntity
  8
L1_100
  6
CONTINUOUS
 62
         7
100
AcDbCircle
 10
1331.1033403763
 20
120.6846417294
 30
0.0
 40
2.0
100
AcDbArc
 50
180.0
 51
270.0
  0
ARC
  5
D2
100
AcDbEntity
  8
L1_100
  6
CONTINUOUS
 62
         7
100
AcDbCircle
 10
1331.1033403763
 20
179.6846417294
 30
0.0
 40
2.0
100
AcDbArc
 50
90.0
 51
180.0
  0
LINE
  5
D3
100
AcDbEntity
  8
L1_100
  6
CONTINUOUS
 62
         7
100
AcDbLine
 10
1329.1033403763
 20
120.6846417294
 30
0.0
 11
1329.1033403763
 21
179.6846417294
 31
0.0
  0
LINE
  5
D4
100
AcDbEntity
  8
L1_100
  6
CENTER
 62
         1
100
AcDbLine
 10
1668.3911091627
 20
-82.1932676012
 30
0.0
 11
1514.8012686199
 21
-82.1932676012
 31
0.0
  0
DIMENSION
  5
D8
100
AcDbEntity
  8
L1_100
  6
CONTINUOUS
 62
         4
100
AcDbDimension
  2
*D1
 10
1652.8085049251
 20
-82.1932676012
 30
0.0
 11
1655.8147536788
 21
-78.467785042
 31
0.0
 70
         4
  3
DIMSTYLE1
100
AcDbRadialDimension
 15
1656.6894401233
 25
-79.4328784552
 35
0.0
 40
0.0
  0
DIMENSION
  5
E4
100
AcDbEntity
  8
L1_100
  6
CONTINUOUS
 62
         4
100
AcDbDimension
  2
*D2
 10
1627.7489849373
 20
-82.1932676012
 30
0.0
 11
1632.1366635753
 21
-73.1243669588
 31
0.0
 70
         4
  3
DIMSTYLE1
100
AcDbRadialDimension
 15
1629.4945902717
 25
-79.5411953895
 35
0.0
 40
0.0
  0
CIRCLE
  5
ED
100
AcDbEntity
  8
L1_100
  6
CONTINUOUS
 62
         7
100
AcDbCircle
 10
1652.8085049251
 20
-82.1932676012
 30
0.0
 40
4.7625
  0
CIRCLE
  5
EE
100
AcDbEntity
  8
L1_100
  6
CONTINUOUS
 62
         7
100
AcDbCircle
 10
1627.7489849373
 20
-82.1932676012
 30
0.0
 40
3.175
  0
LINE
  5
EF
100
AcDbEntity
  8
L1_100
  6
CENTER
 62
         1
100
AcDbLine
 10
1652.8085049251
 20
-90.4186358478
 30
0.0
 11
1652.8085049251
 21
-71.6380851077
 31
0.0
  0
LINE
  5
F0
100
AcDbEntity
  8
L1_100
  6
CENTER
 62
         1
100
AcDbLine
 10
1627.7489849373
 20
-90.4186358478
 30
0.0
 11
1627.7489849373
 21
-71.6380851077
 31
0.0
  0
CIRCLE
  5
F1
100
AcDbEntity
  8
L1_100
  6
CONTINUOUS
 62
         7
100
AcDbCircle
 10
1603.5245183557
 20
-62.1932676012
 30
0.0
 40
0.75
  0
LINE
  5
F2
100
AcDbEntity
  8
L1_100
  6
CONTINUOUS
 62
         7
100
AcDbLine
 10
1602.7745183557
 20
-102.1932676012
 30
0.0
 11
1602.7745183557
 21
-62.1932676012
 31
0.0
  0
LINE
  5
F3
100
AcDbEntity
  8
L1_100
  6
CONTINUOUS
 62
         7
100
AcDbLine
 10
1604.2745183557
 20
-62.1932676012
 30
0.0
 11
1604.2745183557
 21
-102.1932676012
 31
0.0
  0
CIRCLE
  5
F4
100
AcDbEntity
  8
L1_100
  6
CONTINUOUS
 62
         7
100
AcDbCircle
 10
1603.5245183557
 20
-102.1932676012
 30
0.0
 40
0.75
  0
CIRCLE
  5
F5
100
AcDbEntity
  8
L1_100
  6
CONTINUOUS
 62
         7
100
AcDbCircle
 10
1578.4832592285
 20
-66.6932676012
 30
0.0
 40
0.75
  0
LINE
  5
F6
100
AcDbEntity
  8
L1_100
  6
CONTINUOUS
 62
         7
100
AcDbLine
 10
1579.2332592285
 20
-97.6932676012
 30
0.0
 11
1579.2332592285
 21
-66.6932676012
 31
0.0
  0
LINE
  5
F7
100
AcDbEntity
  8
L1_100
  6
CONTINUOUS
 62
         7
100
AcDbLine
 10
1577.7332592285
 20
-66.6932676012
 30
0.0
 11
1577.7332592285
 21
-97.6932676012
 31
0.0
  0
CIRCLE
  5
F8
100
AcDbEntity
  8
L1_100
  6
CONTINUOUS
 62
         7
100
AcDbCircle
 10
1578.4832592285
 20
-97.6932676012
 30
0.0
 40
0.75
  0
DIMENSION
  5
FB
100
AcDbEntity
  8
L1_100
  6
CONTINUOUS
 62
         4
100
AcDbDimension
  2
*D3
 10
1589.1118658434
 20
-65.9432676012
 30
0.0
 11
1587.0868658434
 21
-90.2932676012
 31
0.0
  3
DIMSTYLE1
100
AcDbAlignedDimension
 13
1578.4832592285
 23
-65.9432676012
 33
0.0
 14
1578.4832592285
 24
-98.4432676012
 34
0.0
 50
90.0
100
AcDbRotatedDimension
  0
DIMENSION
  5
109
100
AcDbEntity
  8
L1_100
  6
CONTINUOUS
 62
         4
100
AcDbDimension
  2
*D4
 10
1613.7035302416
 20
-61.4432676012
 30
0.0
 11
1611.6785302416
 21
-90.2932676012
 31
0.0
  3
DIMSTYLE1
100
AcDbAlignedDimension
 13
1603.5245183557
 23
-61.4432676012
 33
0.0
 14
1603.5245183557
 24
-102.9432676012
 34
0.0
 50
90.0
100
AcDbRotatedDimension
  0
DIMENSION
  5
117
100
AcDbEntity
  8
L1_100
  6
CONTINUOUS
 62
         4
100
AcDbDimension
  2
*D5
 10
1552.4973551043
 20
-63.7979661799
 30
0.0
 11
1549.0473551043
 21
-61.7729661799
 31
0.0
  3
DIMSTYLE1
100
AcDbAlignedDimension
 13
1552.4973551043
 23
-69.2432676012
 33
0.0
 14
1553.6973551043
 24
-69.2432676012
 34
0.0
100
AcDbRotatedDimension
  0
DIMENSION
  5
125
100
AcDbEntity
  8
L1_100
  6
CONTINUOUS
 62
         4
100
AcDbDimension
  2
*D6
 10
1561.1793989542
 20
-69.2432676012
 30
0.0
 11
1559.1543989542
 21
-87.5932676012
 31
0.0
  3
DIMSTYLE1
100
AcDbAlignedDimension
 13
1553.6973551043
 23
-69.2432676012
 33
0.0
 14
1553.6973551043
 24
-95.1432676012
 34
0.0
 50
90.0
100
AcDbRotatedDimension
  0
LINE
  5
131
100
AcDbEntity
  8
L1_100
  6
CONTINUOUS
 62
         7
100
AcDbLine
 10
1553.6973551043
 20
-92.6432676012
 30
0.0
 11
1552.4973551043
 21
-92.6432676012
 31
0.0
  0
LINE
  5
132
100
AcDbEntity
  8
L1_100
  6
CONTINUOUS
 62
         7
100
AcDbLine
 10
1553.6973551043
 20
-71.7432676012
 30
0.0
 11
1552.4973551043
 21
-71.7432676012
 31
0.0
  0
LINE
  5
133
100
AcDbEntity
  8
L1_100
  6
CONTINUOUS
 62
         7
100
AcDbLine
 10
1553.6973551043
 20
-95.1432676012
 30
0.0
 11
1552.4973551043
 21
-95.1432676012
 31
0.0
  0
LINE
  5
134
100
AcDbEntity
  8
L1_100
  6
CONTINUOUS
 62
         7
100
AcDbLine
 10
1553.6973551043
 20
-69.2432676012
 30
0.0
 11
1552.4973551043
 21
-69.2432676012
 31
0.0
  0
LINE
  5
135
100
AcDbEntity
  8
L1_100
  6
CONTINUOUS
 62
         7
100
AcDbLine
 10
1552.4973551043
 20
-95.1432676012
 30
0.0
 11
1552.4973551043
 21
-69.2432676012
 31
0.0
  0
LINE
  5
136
100
AcDbEntity
  8
L1_100
  6
CONTINUOUS
 62
         7
100
AcDbLine
 10
1553.6973551043
 20
-95.1432676012
 30
0.0
 11
1553.6973551043
 21
-69.2432676012
 31
0.0
  0
DIMENSION
  5
139
100
AcDbEntity
  8
L1_100
  6
CONTINUOUS
 62
         4
100
AcDbDimension
  2
*D7
 10
1534.5363526134
 20
-52.1932676012
 30
0.0
 11
1532.5113526134
 21
-87.5932676012
 31
0.0
  3
DIMSTYLE1
100
AcDbAlignedDimension
 13
1521.9828187736
 23
-52.1932676012
 33
0.0
 14
1521.9828187736
 24
-112.1932676012
 34
0.0
 50
90.0
100
AcDbRotatedDimension
  0
LINE
  5
145
100
AcDbEntity
  8
L1_100
  6
CONTINUOUS
 62
         7
100
AcDbLine
 10
1520.9828187736
 20
-111.1932676012
 30
0.0
 11
1520.9828187736
 21
-53.1932676012
 31
0.0
  0
LINE
  5
146
100
AcDbEntity
  8
L1_100
  6
CONTINUOUS
 62
         7
100
AcDbLine
 10
1522.9828187736
 20
-53.1932676012
 30
0.0
 11
1522.9828187736
 21
-111.1932676012
 31
0.0
  0
CIRCLE
  5
147
100
AcDbEntity
  8
L1_100
  6
CONTINUOUS
 62
         7
100
AcDbCircle
 10
1521.9828187736
 20
-111.1932676012
 30
0.0
 40
1.0
  0
CIRCLE
  5
148
100
AcDbEntity
  8
L1_100
  6
CONTINUOUS
 62
         7
100
AcDbCircle
 10
1521.9828187736
 20
-53.1932676012
 30
0.0
 40
1.0
  0
LINE
  5
149
100
AcDbEntity
  8
L1_100
  6
CENTER
 62
         1
100
AcDbLine
 10
1768.4053938206
 20
-14.5824661467
 30
0.0
 11
1565.7329423084
 21
-14.5824661467
 31
0.0
  0
DIMENSION
  5
14C
100
AcDbEntity
  8
L1_100
  6
CONTINUOUS
 62
         4
100
AcDbDimension
  2
*D8
 10
1749.7630865105
 20
-4.5124661467
 30
0.0
 11
1747.7380865105
 21
-19.9824661467
 31
0.0
  3
DIMSTYLE1
100
AcDbAlignedDimension
 13
1759.4816516804
 23
-4.5124661467
 33
0.0
 14
1758.1116516804
 24
-24.6524661467
 34
0.0
 50
90.0
100
AcDbRotatedDimension
  0
LINE
  5
158
100
AcDbEntity
  8
L1_100
  6
CONTINUOUS
 62
         7
100
AcDbLine
 10
1758.7966516804
 20
-5.1974661467
 30
0.0
 11
1757.4266516804
 21
-23.9674661467
 31
0.0
  0
LINE
  5
159
100
AcDbEntity
  8
L1_100
  6
CONTINUOUS
 62
         7
100
AcDbLine
 10
1758.7966516804
 20
-23.9674661467
 30
0.0
 11
1760.1666516804
 21
-5.1974661467
 31
0.0
  0
LINE
  5
15A
100
AcDbEntity
  8
L1_100
  6
CONTINUOUS
 62
         7
100
AcDbLine
 10
1761.5366516804
 20
-5.1974661467
 30
0.0
 11
1760.1666516804
 21
-23.9674661467
 31
0.0
  0
LINE
  5
15B
100
AcDbEntity
  8
L1_100
  6
CONTINUOUS
 62
         7
100
AcDbLine
 10
1761.5366516804
 20
-23.9674661467
 30
0.0
 11
1762.9066516804
 21
-5.1974661467
 31
0.0
  0
LINE
  5
15C
100
AcDbEntity
  8
L1_100
  6
CONTINUOUS
 62
         7
100
AcDbLine
 10
1764.2766516804
 20
-5.1974661467
 30
0.0
 11
1762.9066516804
 21
-23.9674661467
 31
0.0
  0
LINE
  5
15D
100
AcDbEntity
  8
L1_100
  6
CONTINUOUS
 62
         7
100
AcDbLine
 10
1764.2766516804
 20
-23.9674661467
 30
0.0
 11
1765.6466516804
 21
-5.1974661467
 31
0.0
  0
LINE
  5
15E
100
AcDbEntity
  8
L1_100
  6
CONTINUOUS
 62
         7
100
AcDbLine
 10
1767.0166516804
 20
-5.1974661467
 30
0.0
 11
1765.6466516804
 21
-23.9674661467
 31
0.0
  0
CIRCLE
  5
15F
100
AcDbEntity
  8
L1_100
  6
CONTINUOUS
 62
         7
100
AcDbCircle
 10
1764.9616516804
 20
-23.9674661467
 30
0.0
 40
0.685
  0
CIRCLE
  5
160
100
AcDbEntity
  8
L1_100
  6
CONTINUOUS
 62
         7
100
AcDbCircle
 10
1763.5916516804
 20
-23.9674661467
 30
0.0
 40
0.685
  0
CIRCLE
  5
161
100
AcDbEntity
  8
L1_100
  6
CONTINUOUS
 62
         7
100
AcDbCircle
 10
1762.2216516804
 20
-23.9674661467
 30
0.0
 40
0.685
  0
CIRCLE
  5
162
100
AcDbEntity
  8
L1_100
  6
CONTINUOUS
 62
         7
100
AcDbCircle
 10
1760.8516516804
 20
-23.9674661467
 30
0.0
 40
0.685
  0
CIRCLE
  5
163
100
AcDbEntity
  8
L1_100
  6
CONTINUOUS
 62
         7
100
AcDbCircle
 10
1759.4816516804
 20
-23.9674661467
 30
0.0
 40
0.685
  0
CIRCLE
  5
164
100
AcDbEntity
  8
L1_100
  6
CONTINUOUS
 62
         7
100
AcDbCircle
 10
1758.1116516804
 20
-23.9674661467
 30
0.0
 40
0.685
  0
CIRCLE
  5
165
100
AcDbEntity
  8
L1_100
  6
CONTINUOUS
 62
         7
100
AcDbCircle
 10
1766.3316516804
 20
-5.1974661467
 30
0.0
 40
0.685
  0
CIRCLE
  5
166
100
AcDbEntity
  8
L1_100
  6
CONTINUOUS
 62
         7
100
AcDbCircle
 10
1764.9616516804
 20
-5.1974661467
 30
0.0
 40
0.685
  0
CIRCLE
  5
167
100
AcDbEntity
  8
L1_100
  6
CONTINUOUS
 62
         7
100
AcDbCircle
 10
1763.5916516804
 20
-5.1974661467
 30
0.0
 40
0.685
  0
CIRCLE
  5
168
100
AcDbEntity
  8
L1_100
  6
CONTINUOUS
 62
         7
100
AcDbCircle
 10
1762.2216516804
 20
-5.1974661467
 30
0.0
 40
0.685
  0
CIRCLE
  5
169
100
AcDbEntity
  8
L1_100
  6
CONTINUOUS
 62
         7
100
AcDbCircle
 10
1760.8516516804
 20
-5.1974661467
 30
0.0
 40
0.685
  0
CIRCLE
  5
16A
100
AcDbEntity
  8
L1_100
  6
CONTINUOUS
 62
         7
100
AcDbCircle
 10
1759.4816516804
 20
-5.1974661467
 30
0.0
 40
0.685
  0
DIMENSION
  5
16D
100
AcDbEntity
  8
L1_100
  6
CONTINUOUS
 62
         4
100
AcDbDimension
  2
*D9
 10
1710.4819298515
 20
-8.2374661467
 30
0.0
 11
1708.4569298515
 21
-19.9824661467
 31
0.0
  3
DIMSTYLE1
100
AcDbAlignedDimension
 13
1717.8751215506
 23
-8.2374661467
 33
0.0
 14
1716.4051215506
 24
-20.9274661467
 34
0.0
 50
90.0
100
AcDbRotatedDimension
  0
LINE
  5
179
100
AcDbEntity
  8
L1_100
  6
CONTINUOUS
 62
         7
100
AcDbLine
 10
1718.6101215506
 20
-8.9724661467
 30
0.0
 11
1717.1401215506
 21
-20.1924661467
 31
0.0
  0
LINE
  5
17A
100
AcDbEntity
  8
L1_100
  6
CONTINUOUS
 62
         7
100
AcDbLine
 10
1715.6701215506
 20
-20.1924661467
 30
0.0
 11
1717.1401215506
 21
-8.9724661467
 31
0.0
  0
LINE
  5
17B
100
AcDbEntity
  8
L1_100
  6
CONTINUOUS
 62
         7
100
AcDbLine
 10
1721.5501215506
 20
-8.9724661467
 30
0.0
 11
1720.0801215506
 21
-20.1924661467
 31
0.0
  0
LINE
  5
17C
100
AcDbEntity
  8
L1_100
  6
CONTINUOUS
 62
         7
100
AcDbLine
 10
1718.6101215506
 20
-20.1924661467
 30
0.0
 11
1720.0801215506
 21
-8.9724661467
 31
0.0
  0
LINE
  5
17D
100
AcDbEntity
  8
L1_100
  6
CONTINUOUS
 62
         7
100
AcDbLine
 10
1724.4901215506
 20
-8.9724661467
 30
0.0
 11
1723.0201215506
 21
-20.1924661467
 31
0.0
  0
LINE
  5
17E
100
AcDbEntity
  8
L1_100
  6
CONTINUOUS
 62
         7
100
AcDbLine
 10
1721.5501215506
 20
-20.1924661467
 30
0.0
 11
1723.0201215506
 21
-8.9724661467
 31
0.0
  0
LINE
  5
17F
100
AcDbEntity
  8
L1_100
  6
CONTINUOUS
 62
         7
100
AcDbLine
 10
1727.4301215506
 20
-8.9724661467
 30
0.0
 11
1725.9601215506
 21
-20.1924661467
 31
0.0
  0
LINE
  5
180
100
AcDbEntity
  8
L1_100
  6
CONTINUOUS
 62
         7
100
AcDbLine
 10
1724.4901215506
 20
-20.1924661467
 30
0.0
 11
1725.9601215506
 21
-8.9724661467
 31
0.0
  0
LINE
  5
181
100
AcDbEntity
  8
L1_100
  6
CONTINUOUS
 62
         7
100
AcDbLine
 10
1730.3701215506
 20
-8.9724661467
 30
0.0
 11
1728.9001215506
 21
-20.1924661467
 31
0.0
  0
LINE
  5
182
100
AcDbEntity
  8
L1_100
  6
CONTINUOUS
 62
         7
100
AcDbLine
 10
1727.4301215506
 20
-20.1924661467
 30
0.0
 11
1728.9001215506
 21
-8.9724661467
 31
0.0
  0
LINE
  5
183
100
AcDbEntity
  8
L1_100
  6
CONTINUOUS
 62
         7
100
AcDbLine
 10
1733.3101215506
 20
-8.9724661467
 30
0.0
 11
1731.8401215506
 21
-20.1924661467
 31
0.0
  0
LINE
  5
184
100
AcDbEntity
  8
L1_100
  6
CONTINUOUS
 62
         7
100
AcDbLine
 10
1730.3701215506
 20
-20.1924661467
 30
0.0
 11
1731.8401215506
 21
-8.9724661467
 31
0.0
  0
LINE
  5
185
100
AcDbEntity
  8
L1_100
  6
CONTINUOUS
 62
         7
100
AcDbLine
 10
1736.2501215506
 20
-8.9724661467
 30
0.0
 11
1734.7801215506
 21
-20.1924661467
 31
0.0
  0
LINE
  5
186
100
AcDbEntity
  8
L1_100
  6
CONTINUOUS
 62
         7
100
AcDbLine
 10
1733.3101215506
 20
-20.1924661467
 30
0.0
 11
1734.7801215506
 21
-8.9724661467
 31
0.0
  0
LINE
  5
187
100
AcDbEntity
  8
L1_100
  6
CONTINUOUS
 62
         7
100
AcDbLine
 10
1736.2501215506
 20
-20.1924661467
 30
0.0
 11
1737.7201215506
 21
-8.9724661467
 31
0.0
  0
LINE
  5
188
100
AcDbEntity
  8
L1_100
  6
CONTINUOUS
 62
         7
100
AcDbLine
 10
1739.1901215506
 20
-8.9724661467
 30
0.0
 11
1737.7201215506
 21
-20.1924661467
 31
0.0
  0
CIRCLE
  5
189
100
AcDbEntity
  8
L1_100
  6
CONTINUOUS
 62
         7
100
AcDbCircle
 10
1736.9851215506
 20
-20.1924661467
 30
0.0
 40
0.735
  0
CIRCLE
  5
18A
100
AcDbEntity
  8
L1_100
  6
CONTINUOUS
 62
         7
100
AcDbCircle
 10
1735.5151215506
 20
-20.1924661467
 30
0.0
 40
0.735
  0
CIRCLE
  5
18B
100
AcDbEntity
  8
L1_100
  6
CONTINUOUS
 62
         7
100
AcDbCircle
 10
1734.0451215506
 20
-20.1924661467
 30
0.0
 40
0.735
  0
CIRCLE
  5
18C
100
AcDbEntity
  8
L1_100
  6
CONTINUOUS
 62
         7
100
AcDbCircle
 10
1732.5751215506
 20
-20.1924661467
 30
0.0
 40
0.735
  0
CIRCLE
  5
18D
100
AcDbEntity
  8
L1_100
  6
CONTINUOUS
 62
         7
100
AcDbCircle
 10
1731.1051215506
 20
-20.1924661467
 30
0.0
 40
0.735
  0
CIRCLE
  5
18E
100
AcDbEntity
  8
L1_100
  6
CONTINUOUS
 62
         7
100
AcDbCircle
 10
1729.6351215506
 20
-20.1924661467
 30
0.0
 40
0.735
  0
CIRCLE
  5
18F
100
AcDbEntity
  8
L1_100
  6
CONTINUOUS
 62
         7
100
AcDbCircle
 10
1728.1651215506
 20
-20.1924661467
 30
0.0
 40
0.735
  0
CIRCLE
  5
190
100
AcDbEntity
  8
L1_100
  6
CONTINUOUS
 62
         7
100
AcDbCircle
 10
1726.6951215506
 20
-20.1924661467
 30
0.0
 40
0.735
  0
CIRCLE
  5
191
100
AcDbEntity
  8
L1_100
  6
CONTINUOUS
 62
         7
100
AcDbCircle
 10
1725.2251215506
 20
-20.1924661467
 30
0.0
 40
0.735
  0
CIRCLE
  5
192
100
AcDbEntity
  8
L1_100
  6
CONTINUOUS
 62
         7
100
AcDbCircle
 10
1723.7551215506
 20
-20.1924661467
 30
0.0
 40
0.735
  0
CIRCLE
  5
193
100
AcDbEntity
  8
L1_100
  6
CONTINUOUS
 62
         7
100
AcDbCircle
 10
1722.2851215506
 20
-20.1924661467
 30
0.0
 40
0.735
  0
CIRCLE
  5
194
100
AcDbEntity
  8
L1_100
  6
CONTINUOUS
 62
         7
100
AcDbCircle
 10
1720.8151215506
 20
-20.1924661467
 30
0.0
 40
0.735
  0
CIRCLE
  5
195
100
AcDbEntity
  8
L1_100
  6
CONTINUOUS
 62
         7
100
AcDbCircle
 10
1719.3451215506
 20
-20.1924661467
 30
0.0
 40
0.735
  0
CIRCLE
  5
196
100
AcDbEntity
  8
L1_100
  6
CONTINUOUS
 62
         7
100
AcDbCircle
 10
1717.8751215506
 20
-20.1924661467
 30
0.0
 40
0.735
  0
CIRCLE
  5
197
100
AcDbEntity
  8
L1_100
  6
CONTINUOUS
 62
         7
100
AcDbCircle
 10
1716.4051215506
 20
-20.1924661467
 30
0.0
 40
0.735
  0
CIRCLE
  5
198
100
AcDbEntity
  8
L1_100
  6
CONTINUOUS
 62
         7
100
AcDbCircle
 10
1738.4551215506
 20
-8.9724661467
 30
0.0
 40
0.735
  0
CIRCLE
  5
199
100
AcDbEntity
  8
L1_100
  6
CONTINUOUS
 62
         7
100
AcDbCircle
 10
1736.9851215506
 20
-8.9724661467
 30
0.0
 40
0.735
  0
CIRCLE
  5
19A
100
AcDbEntity
  8
L1_100
  6
CONTINUOUS
 62
         7
100
AcDbCircle
 10
1735.5151215506
 20
-8.9724661467
 30
0.0
 40
0.735
  0
CIRCLE
  5
19B
100
AcDbEntity
  8
L1_100
  6
CONTINUOUS
 62
         7
100
AcDbCircle
 10
1734.0451215506
 20
-8.9724661467
 30
0.0
 40
0.735
  0
CIRCLE
  5
19C
100
AcDbEntity
  8
L1_100
  6
CONTINUOUS
 62
         7
100
AcDbCircle
 10
1732.5751215506
 20
-8.9724661467
 30
0.0
 40
0.735
  0
CIRCLE
  5
19D
100
AcDbEntity
  8
L1_100
  6
CONTINUOUS
 62
         7
100
AcDbCircle
 10
1731.1051215506
 20
-8.9724661467
 30
0.0
 40
0.735
  0
CIRCLE
  5
19E
100
AcDbEntity
  8
L1_100
  6
CONTINUOUS
 62
         7
100
AcDbCircle
 10
1729.6351215506
 20
-8.9724661467
 30
0.0
 40
0.735
  0
CIRCLE
  5
19F
100
AcDbEntity
  8
L1_100
  6
CONTINUOUS
 62
         7
100
AcDbCircle
 10
1728.1651215506
 20
-8.9724661467
 30
0.0
 40
0.735
  0
CIRCLE
  5
1A0
100
AcDbEntity
  8
L1_100
  6
CONTINUOUS
 62
         7
100
AcDbCircle
 10
1726.6951215506
 20
-8.9724661467
 30
0.0
 40
0.735
  0
CIRCLE
  5
1A1
100
AcDbEntity
  8
L1_100
  6
CONTINUOUS
 62
         7
100
AcDbCircle
 10
1725.2251215506
 20
-8.9724661467
 30
0.0
 40
0.735
  0
CIRCLE
  5
1A2
100
AcDbEntity
  8
L1_100
  6
CONTINUOUS
 62
         7
100
AcDbCircle
 10
1723.7551215506
 20
-8.9724661467
 30
0.0
 40
0.735
  0
CIRCLE
  5
1A3
100
AcDbEntity
  8
L1_100
  6
CONTINUOUS
 62
         7
100
AcDbCircle
 10
1722.2851215506
 20
-8.9724661467
 30
0.0
 40
0.735
  0
CIRCLE
  5
1A4
100
AcDbEntity
  8
L1_100
  6
CONTINUOUS
 62
         7
100
AcDbCircle
 10
1720.8151215506
 20
-8.9724661467
 30
0.0
 40
0.735
  0
CIRCLE
  5
1A5
100
AcDbEntity
  8
L1_100
  6
CONTINUOUS
 62
         7
100
AcDbCircle
 10
1719.3451215506
 20
-8.9724661467
 30
0.0
 40
0.735
  0
CIRCLE
  5
1A6
100
AcDbEntity
  8
L1_100
  6
CONTINUOUS
 62
         7
100
AcDbCircle
 10
1717.8751215506
 20
-8.9724661467
 30
0.0
 40
0.735
  0
DIMENSION
  5
1A9
100
AcDbEntity
  8
L1_100
  6
CONTINUOUS
 62
         4
100
AcDbDimension
  2
*D10
 10
1688.0771909141
 20
7.2975338533
 30
0.0
 11
1686.0521909141
 21
-19.9824661467
 31
0.0
  3
DIMSTYLE1
100
AcDbAlignedDimension
 13
1694.9565820015
 23
7.2975338533
 33
0.0
 14
1693.1865820015
 24
-36.4624661467
 34
0.0
 50
90.0
100
AcDbRotatedDimension
  0
LINE
  5
1B5
100
AcDbEntity
  8
L1_100
  6
CONTINUOUS
 62
         7
100
AcDbLine
 10
1694.0715820015
 20
6.4125338533
 30
0.0
 11
1692.3015820015
 21
-35.5774661467
 31
0.0
  0
LINE
  5
1B6
100
AcDbEntity
  8
L1_100
  6
CONTINUOUS
 62
         7
100
AcDbLine
 10
1695.8415820015
 20
6.4125338533
 30
0.0
 11
1694.0715820015
 21
-35.5774661467
 31
0.0
  0
LINE
  5
1B7
100
AcDbEntity
  8
L1_100
  6
CONTINUOUS
 62
         7
100
AcDbLine
 10
1695.8415820015
 20
-35.5774661467
 30
0.0
 11
1697.6115820015
 21
6.4125338533
 31
0.0
  0
LINE
  5
1B8
100
AcDbEntity
  8
L1_100
  6
CONTINUOUS
 62
         7
100
AcDbLine
 10
1699.3815820015
 20
6.4125338533
 30
0.0
 11
1697.6115820015
 21
-35.5774661467
 31
0.0
  0
CIRCLE
  5
1B9
100
AcDbEntity
  8
L1_100
  6
CONTINUOUS
 62
         7
100
AcDbCircle
 10
1694.9565820015
 20
6.4125338533
 30
0.0
 40
0.885
  0
CIRCLE
  5
1BA
100
AcDbEntity
  8
L1_100
  6
CONTINUOUS
 62
         7
100
AcDbCircle
 10
1696.7265820015
 20
6.4125338533
 30
0.0
 40
0.885
  0
CIRCLE
  5
1BB
100
AcDbEntity
  8
L1_100
  6
CONTINUOUS
 62
         7
100
AcDbCircle
 10
1698.4965820015
 20
6.4125338533
 30
0.0
 40
0.885
  0
CIRCLE
  5
1BC
100
AcDbEntity
  8
L1_100
  6
CONTINUOUS
 62
         7
100
AcDbCircle
 10
1693.1865820015
 20
-35.5774661467
 30
0.0
 40
0.885
  0
CIRCLE
  5
1BD
100
AcDbEntity
  8
L1_100
  6
CONTINUOUS
 62
         7
100
AcDbCircle
 10
1694.9565820015
 20
-35.5774661467
 30
0.0
 40
0.885
  0
CIRCLE
  5
1BE
100
AcDbEntity
  8
L1_100
  6
CONTINUOUS
 62
         7
100
AcDbCircle
 10
1696.7265820015
 20
-35.5774661467
 30
0.0
 40
0.885
  0
DIMENSION
  5
1C1
100
AcDbEntity
  8
L1_100
  6
CONTINUOUS
 62
         4
100
AcDbDimension
  2
*D11
 10
1659.9064845122
 20
-2.8974661467
 30
0.0
 11
1657.8814845122
 21
-22.6824661467
 31
0.0
  3
DIMSTYLE1
100
AcDbAlignedDimension
 13
1665.6198985789
 23
-2.8974661467
 33
0.0
 14
1664.0498985789
 24
-26.2674661467
 34
0.0
 50
90.0
100
AcDbRotatedDimension
  0
LINE
  5
1CD
100
AcDbEntity
  8
L1_100
  6
CONTINUOUS
 62
         7
100
AcDbLine
 10
1672.6848985788
 20
-25.4824661467
 30
0.0
 11
1674.2548985788
 21
-3.6824661467
 31
0.0
  0
LINE
  5
1CE
100
AcDbEntity
  8
L1_100
  6
CONTINUOUS
 62
         7
100
AcDbLine
 10
1672.6848985788
 20
-3.6824661467
 30
0.0
 11
1671.1148985789
 21
-25.4824661467
 31
0.0
  0
LINE
  5
1CF
100
AcDbEntity
  8
L1_100
  6
CONTINUOUS
 62
         7
100
AcDbLine
 10
1669.5448985789
 20
-25.4824661467
 30
0.0
 11
1671.1148985789
 21
-3.6824661467
 31
0.0
  0
LINE
  5
1D0
100
AcDbEntity
  8
L1_100
  6
CONTINUOUS
 62
         7
100
AcDbLine
 10
1669.5448985789
 20
-3.6824661467
 30
0.0
 11
1667.9748985789
 21
-25.4824661467
 31
0.0
  0
LINE
  5
1D1
100
AcDbEntity
  8
L1_100
  6
CONTINUOUS
 62
         7
100
AcDbLine
 10
1666.4048985789
 20
-25.4824661467
 30
0.0
 11
1667.9748985789
 21
-3.6824661467
 31
0.0
  0
LINE
  5
1D2
100
AcDbEntity
  8
L1_100
  6
CONTINUOUS
 62
         7
100
AcDbLine
 10
1666.4048985789
 20
-3.6824661467
 30
0.0
 11
1664.8348985789
 21
-25.4824661467
 31
0.0
  0
LINE
  5
1D3
100
AcDbEntity
  8
L1_100
  6
CONTINUOUS
 62
         7
100
AcDbLine
 10
1672.6848985788
 20
-25.4824661467
 30
0.0
 11
1675.8248985788
 21
-3.6824661467
 31
0.0
  0
LINE
  5
1D4
100
AcDbEntity
  8
L1_100
  6
CONTINUOUS
 62
         7
100
AcDbLine
 10
1664.8348985789
 20
-3.6824661467
 30
0.0
 11
1663.2648985789
 21
-25.4824661467
 31
0.0
  0
CIRCLE
  5
1D5
100
AcDbEntity
  8
L1_100
  6
CONTINUOUS
 62
         7
100
AcDbCircle
 10
1675.0398985788
 20
-3.6824661467
 30
0.0
 40
0.785
  0
CIRCLE
  5
1D6
100
AcDbEntity
  8
L1_100
  6
CONTINUOUS
 62
         7
100
AcDbCircle
 10
1673.4698985788
 20
-3.6824661467
 30
0.0
 40
0.785
  0
CIRCLE
  5
1D7
100
AcDbEntity
  8
L1_100
  6
CONTINUOUS
 62
         7
100
AcDbCircle
 10
1671.8998985788
 20
-3.6824661467
 30
0.0
 40
0.785
  0
CIRCLE
  5
1D8
100
AcDbEntity
  8
L1_100
  6
CONTINUOUS
 62
         7
100
AcDbCircle
 10
1670.3298985789
 20
-3.6824661467
 30
0.0
 40
0.785
  0
CIRCLE
  5
1D9
100
AcDbEntity
  8
L1_100
  6
CONTINUOUS
 62
         7
100
AcDbCircle
 10
1668.7598985789
 20
-3.6824661467
 30
0.0
 40
0.785
  0
CIRCLE
  5
1DA
100
AcDbEntity
  8
L1_100
  6
CONTINUOUS
 62
         7
100
AcDbCircle
 10
1667.1898985789
 20
-3.6824661467
 30
0.0
 40
0.785
  0
CIRCLE
  5
1DB
100
AcDbEntity
  8
L1_100
  6
CONTINUOUS
 62
         7
100
AcDbCircle
 10
1665.6198985789
 20
-3.6824661467
 30
0.0
 40
0.785
  0
CIRCLE
  5
1DC
100
AcDbEntity
  8
L1_100
  6
CONTINUOUS
 62
         7
100
AcDbCircle
 10
1671.8998985788
 20
-25.4824661467
 30
0.0
 40
0.785
  0
CIRCLE
  5
1DD
100
AcDbEntity
  8
L1_100
  6
CONTINUOUS
 62
         7
100
AcDbCircle
 10
1670.3298985789
 20
-25.4824661467
 30
0.0
 40
0.785
  0
CIRCLE
  5
1DE
100
AcDbEntity
  8
L1_100
  6
CONTINUOUS
 62
         7
100
AcDbCircle
 10
1668.7598985789
 20
-25.4824661467
 30
0.0
 40
0.785
  0
CIRCLE
  5
1DF
100
AcDbEntity
  8
L1_100
  6
CONTINUOUS
 62
         7
100
AcDbCircle
 10
1667.1898985789
 20
-25.4824661467
 30
0.0
 40
0.785
  0
CIRCLE
  5
1E0
100
AcDbEntity
  8
L1_100
  6
CONTINUOUS
 62
         7
100
AcDbCircle
 10
1665.6198985789
 20
-25.4824661467
 30
0.0
 40
0.785
  0
CIRCLE
  5
1E1
100
AcDbEntity
  8
L1_100
  6
CONTINUOUS
 62
         7
100
AcDbCircle
 10
1664.0498985789
 20
-25.4824661467
 30
0.0
 40
0.785
  0
DIMENSION
  5
1E4
100
AcDbEntity
  8
L1_100
  6
CONTINUOUS
 62
         4
100
AcDbDimension
  2
*D12
 10
1649.1728836755
 20
-8.0824661467
 30
0.0
 11
1647.1478836755
 21
-19.9824661467
 31
0.0
  3
DIMSTYLE1
100
AcDbAlignedDimension
 13
1641.3501378873
 23
-8.0824661467
 33
0.0
 14
1641.3501378873
 24
-21.0824661467
 34
0.0
 50
90.0
100
AcDbRotatedDimension
  0
DIMENSION
  5
1F2
100
AcDbEntity
  8
L1_100
  6
CONTINUOUS
 62
         4
100
AcDbDimension
  2
*D13
 10
1580.1001378873
 20
3.363223056
 30
0.0
 11
1581.0924507798
 21
5.388223056
 31
0.0
  3
DIMSTYLE1
100
AcDbAlignedDimension
 13
1580.1001378873
 23
-12.0824661467
 33
0.0
 14
1591.3501378873
 24
-11.5824661467
 34
0.0
100
AcDbRotatedDimension
  0
DIMENSION
  5
200
100
AcDbEntity
  8
L1_100
  6
CONTINUOUS
 62
         4
100
AcDbDimension
  2
*D14
 10
1580.1001378873
 20
12.488355591
 30
0.0
 11
1606.0514044289
 21
14.513355591
 31
0.0
  3
DIMSTYLE1
100
AcDbAlignedDimension
 13
1580.1001378873
 23
-12.0824661467
 33
0.0
 14
1641.8501378873
 24
-8.5824661467
 34
0.0
100
AcDbRotatedDimension
  0
LINE
  5
20C
100
AcDbEntity
  8
L1_100
  6
CONTINUOUS
 62
         4
100
AcDbLine
 10
1591.3501378873
 20
-17.0824661467
 30
0.0
 11
1580.1001378873
 21
-17.0824661467
 31
0.0
  0
LINE
  5
20D
100
AcDbEntity
  8
L1_100
  6
CONTINUOUS
 62
         4
100
AcDbLine
 10
1591.3501378873
 20
-12.0824661467
 30
0.0
 11
1580.1001378873
 21
-12.0824661467
 31
0.0
  0
LINE
  5
20E
100
AcDbEntity
  8
L1_100
  6
CONTINUOUS
 62
         7
100
AcDbLine
 10
1591.3501378873
 20
-17.5824661467
 30
0.0
 11
1580.6001378873
 21
-17.5824661467
 31
0.0
  0
LINE
  5
20F
100
AcDbEntity
  8
L1_100
  6
CONTINUOUS
 62
         7
100
AcDbLine
 10
1580.6001378873
 20
-17.5824661467
 30
0.0
 11
1580.1001378873
 21
-17.0824661467
 31
0.0
  0
LINE
  5
210
100
AcDbEntity
  8
L1_100
  6
CONTINUOUS
 62
         7
100
AcDbLine
 10
1580.1001378873
 20
-17.0824661467
 30
0.0
 11
1580.1001378873
 21
-12.0824661467
 31
0.0
  0
LINE
  5
211
100
AcDbEntity
  8
L1_100
  6
CONTINUOUS
 62
         7
100
AcDbLine
 10
1580.6001378873
 20
-11.5824661467
 30
0.0
 11
1580.1001378873
 21
-12.0824661467
 31
0.0
  0
LINE
  5
212
100
AcDbEntity
  8
L1_100
  6
CONTINUOUS
 62
         7
100
AcDbLine
 10
1591.3501378873
 20
-11.5824661467
 30
0.0
 11
1580.6001378873
 21
-11.5824661467
 31
0.0
  0
LINE
  5
213
100
AcDbEntity
  8
L1_100
  6
CONTINUOUS
 62
         4
100
AcDbLine
 10
1592.3256378873
 20
-10.6069661467
 30
0.0
 11
1592.3256378873
 21
-18.5579661467
 31
0.0
  0
LINE
  5
214
100
AcDbEntity
  8
L1_100
  6
CONTINUOUS
 62
         7
100
AcDbLine
 10
1591.3501378873
 20
-17.5824661467
 30
0.0
 11
1591.3501378873
 21
-11.5824661467
 31
0.0
  0
LINE
  5
215
100
AcDbEntity
  8
L1_100
  6
CONTINUOUS
 62
         7
100
AcDbLine
 10
1636.3501378873
 20
-18.5579661467
 30
0.0
 11
1592.3256378873
 21
-18.5579661467
 31
0.0
  0
LINE
  5
216
100
AcDbEntity
  8
L1_100
  6
CONTINUOUS
 62
         7
100
AcDbLine
 10
1592.3256378873
 20
-18.5579661467
 30
0.0
 11
1591.3501378873
 21
-17.5824661467
 31
0.0
  0
LINE
  5
217
100
AcDbEntity
  8
L1_100
  6
CONTINUOUS
 62
         7
100
AcDbLine
 10
1592.3256378873
 20
-10.6069661467
 30
0.0
 11
1591.3501378873
 21
-11.5824661467
 31
0.0
  0
LINE
  5
218
100
AcDbEntity
  8
L1_100
  6
CONTINUOUS
 62
         7
100
AcDbLine
 10
1636.3501378873
 20
-10.6069661467
 30
0.0
 11
1592.3256378873
 21
-10.6069661467
 31
0.0
  0
LINE
  5
219
100
AcDbEntity
  8
L1_100
  6
CONTINUOUS
 62
         7
100
AcDbLine
 10
1641.8501378873
 20
-8.5824661467
 30
0.0
 11
1641.3501378873
 21
-8.0824661467
 31
0.0
  0
LINE
  5
21A
100
AcDbEntity
  8
L1_100
  6
CONTINUOUS
 62
         7
100
AcDbLine
 10
1641.3501378873
 20
-8.0824661467
 30
0.0
 11
1636.8501378873
 21
-8.0824661467
 31
0.0
  0
LINE
  5
21B
100
AcDbEntity
  8
L1_100
  6
CONTINUOUS
 62
         7
100
AcDbLine
 10
1641.8501378873
 20
-20.5824661467
 30
0.0
 11
1641.8501378873
 21
-8.5824661467
 31
0.0
  0
LINE
  5
21C
100
AcDbEntity
  8
L1_100
  6
CONTINUOUS
 62
         7
100
AcDbLine
 10
1641.8501378873
 20
-20.5824661467
 30
0.0
 11
1641.3501378873
 21
-21.0824661467
 31
0.0
  0
LINE
  5
21D
100
AcDbEntity
  8
L1_100
  6
CONTINUOUS
 62
         7
100
AcDbLine
 10
1641.3501378873
 20
-21.0824661467
 30
0.0
 11
1636.8501378873
 21
-21.0824661467
 31
0.0
  0
LINE
  5
21E
100
AcDbEntity
  8
L1_100
  6
CONTINUOUS
 62
         7
100
AcDbLine
 10
1636.3501378873
 20
-20.5824661467
 30
0.0
 11
1636.8501378873
 21
-21.0824661467
 31
0.0
  0
LINE
  5
21F
100
AcDbEntity
  8
L1_100
  6
CONTINUOUS
 62
         7
100
AcDbLine
 10
1636.3501378873
 20
-20.5824661467
 30
0.0
 11
1636.3501378873
 21
-8.5824661467
 31
0.0
  0
LINE
  5
220
100
AcDbEntity
  8
L1_100
  6
CONTINUOUS
 62
         7
100
AcDbLine
 10
1636.8501378873
 20
-8.0824661467
 30
0.0
 11
1636.3501378873
 21
-8.5824661467
 31
0.0
  0
LINE
  5
221
100
AcDbEntity
  8
L1_100
  6
CONTINUOUS
 62
         4
100
AcDbLine
 10
1636.8501378873
 20
-8.0824661467
 30
0.0
 11
1636.8501378873
 21
-21.0824661467
 31
0.0
  0
LINE
  5
222
100
AcDbEntity
  8
L1_100
  6
CONTINUOUS
 62
         4
100
AcDbLine
 10
1641.3501378873
 20
-8.0824661467
 30
0.0
 11
1641.3501378873
 21
-21.0824661467
 31
0.0
  0
DIMENSION
  5
225
100
AcDbEntity
  8
L1_100
  6
CONTINUOUS
 62
         4
100
AcDbDimension
  2
*D15
 10
1579.2524031956
 20
-11.5824661467
 30
0.0
 11
1577.2274031956
 21
-21.3324661467
 31
0.0
  3
DIMSTYLE1
100
AcDbAlignedDimension
 13
1580.6001378873
 23
-11.5824661467
 33
0.0
 14
1580.6001378873
 24
-17.5824661467
 34
0.0
 50
90.0
100
AcDbRotatedDimension
  0
LINE
  5
231
100
AcDbEntity
  8
L1_100
  6
CENTER
 62
         1
100
AcDbLine
 10
1802.9748299241
 20
59.3731144052
 30
0.0
 11
1543.637214787
 21
59.3731144052
 31
0.0
  0
LINE
  5
232
100
AcDbEntity
  8
L1_100
  6
CENTER
 62
         1
100
AcDbLine
 10
1646.467423679
 20
52.9485659585
 30
0.0
 11
1646.467423679
 21
66.2235223483
 31
0.0
  0
LINE
  5
233
100
AcDbEntity
  8
L1_100
  6
CENTER
 62
         1
100
AcDbLine
 10
1658.7745432841
 20
52.9485659647
 30
0.0
 11
1658.7745432841
 21
66.2235223546
 31
0.0
  0
CIRCLE
  5
234
100
AcDbEntity
  8
L1_100
  6
CONTINUOUS
 62
         7
100
AcDbCircle
 10
1690.5934118163
 20
59.3731144052
 30
0.0
 40
3.25
  0
LINE
  5
235
100
AcDbEntity
  8
L1_100
  6
CENTER
 62
         1
100
AcDbLine
 10
1690.5934118163
 20
62.6231144052
 30
0.0
 11
1690.5934118163
 21
56.1231144052
 31
0.0
  0
LINE
  5
236
100
AcDbEntity
  8
L1_100
  6
CONTINUOUS
 62
         7
100
AcDbLine
 10
1788.7434118163
 20
35.3731144052
 30
0.0
 11
1751.1934118163
 21
35.3731144052
 31
0.0
  0
ARC
  5
237
100
AcDbEntity
  8
L1_100
  6
CONTINUOUS
 62
         7
100
AcDbCircle
 10
1789.2434118163
 20
35.3731144052
 30
0.0
 40
0.5
100
AcDbArc
 50
359.9999999998
 51
540.0000000002
  0
LINE
  5
238
100
AcDbEntity
  8
L1_100
  6
CONTINUOUS
 62
         7
100
AcDbLine
 10
1798.2434118163
 20
32.8731144052
 30
0.0
 11
1790.2434118163
 21
32.8731144052
 31
0.0
  0
LINE
  5
239
100
AcDbEntity
  8
L1_100
  6
CONTINUOUS
 62
         7
100
AcDbLine
 10
1789.7434118163
 20
33.3731144052
 30
0.0
 11
1790.2434118163
 21
32.8731144052
 31
0.0
  0
LINE
  5
23A
100
AcDbEntity
  8
L1_100
  6
CONTINUOUS
 62
         7
100
AcDbLine
 10
1788.7434118163
 20
83.3731144052
 30
0.0
 11
1751.1934118163
 21
83.3731144052
 31
0.0
  0
ARC
  5
23B
100
AcDbEntity
  8
L1_100
  6
CONTINUOUS
 62
         7
100
AcDbCircle
 10
1789.2434118163
 20
83.3731144052
 30
0.0
 40
0.5
100
AcDbArc
 50
179.9999999998
 51
360.0000000002
  0
LINE
  5
23C
100
AcDbEntity
  8
L1_100
  6
CONTINUOUS
 62
         7
100
AcDbLine
 10
1798.2434118163
 20
85.8731144052
 30
0.0
 11
1790.2434118163
 21
85.8731144052
 31
0.0
  0
LINE
  5
23D
100
AcDbEntity
  8
L1_100
  6
CONTINUOUS
 62
         7
100
AcDbLine
 10
1790.2434118163
 20
85.8731144052
 30
0.0
 11
1789.7434118163
 21
85.3731144052
 31
0.0
  0
LINE
  5
23E
100
AcDbEntity
  8
L1_100
  6
CONTINUOUS
 62
         7
100
AcDbLine
 10
1789.7434118163
 20
33.3731144052
 30
0.0
 11
1789.7434118163
 21
85.3731144052
 31
0.0
  0
LINE
  5
23F
100
AcDbEntity
  8
L1_100
  6
CONTINUOUS
 62
         7
100
AcDbLine
 10
1750.9934118163
 20
35.5731144052
 30
0.0
 11
1751.1934118163
 21
35.3731144052
 31
0.0
  0
LINE
  5
240
100
AcDbEntity
  8
L1_100
  6
CONTINUOUS
 62
         7
100
AcDbLine
 10
1750.9934118163
 20
83.1731144052
 30
0.0
 11
1750.9934118163
 21
35.5731144052
 31
0.0
  0
LINE
  5
241
100
AcDbEntity
  8
L1_100
  6
CONTINUOUS
 62
         7
100
AcDbLine
 10
1751.1934118163
 20
83.3731144052
 30
0.0
 11
1750.9934118163
 21
83.1731144052
 31
0.0
  0
LINE
  5
242
100
AcDbEntity
  8
L1_100
  6
CONTINUOUS
 62
         7
100
AcDbLine
 10
1798.7434118163
 20
33.3731144052
 30
0.0
 11
1798.7434118163
 21
85.3731144052
 31
0.0
  0
LINE
  5
243
100
AcDbEntity
  8
L1_100
  6
CONTINUOUS
 62
         7
100
AcDbLine
 10
1798.7434118163
 20
33.3731144052
 30
0.0
 11
1798.2434118163
 21
32.8731144052
 31
0.0
  0
LINE
  5
244
100
AcDbEntity
  8
L1_100
  6
CONTINUOUS
 62
         7
100
AcDbLine
 10
1798.2434118163
 20
85.8731144052
 30
0.0
 11
1798.7434118163
 21
85.3731144052
 31
0.0
  0
LINE
  5
245
100
AcDbEntity
  8
L1_100
  6
CONTINUOUS
 62
         7
100
AcDbLine
 10
1731.3434118163
 20
43.9731144052
 30
0.0
 11
1731.2434118163
 21
43.8731144052
 31
0.0
  0
LINE
  5
246
100
AcDbEntity
  8
L1_100
  6
CONTINUOUS
 62
         7
100
AcDbLine
 10
1731.2434118163
 20
74.8731144052
 30
0.0
 11
1731.3434118163
 21
74.7731144052
 31
0.0
  0
LINE
  5
247
100
AcDbEntity
  8
L1_100
  6
CONTINUOUS
 62
         7
100
AcDbLine
 10
1740.0934118163
 20
72.8731144052
 30
0.0
 11
1731.3434118163
 21
72.8731144052
 31
0.0
  0
LINE
  5
248
100
AcDbEntity
  8
L1_100
  6
CONTINUOUS
 62
         7
100
AcDbLine
 10
1740.0934118163
 20
45.8731144052
 30
0.0
 11
1731.3434118163
 21
45.8731144052
 31
0.0
  0
LINE
  5
249
100
AcDbEntity
  8
L1_100
  6
CONTINUOUS
 62
         7
100
AcDbLine
 10
1725.8434118163
 20
74.8731144052
 30
0.0
 11
1725.3434118163
 21
74.3731144052
 31
0.0
  0
LINE
  5
24A
100
AcDbEntity
  8
L1_100
  6
CONTINUOUS
 62
         7
100
AcDbLine
 10
1725.3434118163
 20
44.3731144052
 30
0.0
 11
1725.3434118163
 21
74.3731144052
 31
0.0
  0
LINE
  5
24B
100
AcDbEntity
  8
L1_100
  6
CONTINUOUS
 62
         7
100
AcDbLine
 10
1725.3434118163
 20
44.3731144052
 30
0.0
 11
1725.8434118163
 21
43.8731144052
 31
0.0
  0
LINE
  5
24C
100
AcDbEntity
  8
L1_100
  6
CONTINUOUS
 62
         7
100
AcDbLine
 10
1731.2434118163
 20
74.8731144052
 30
0.0
 11
1725.8434118163
 21
74.8731144052
 31
0.0
  0
LINE
  5
24D
100
AcDbEntity
  8
L1_100
  6
CONTINUOUS
 62
         7
100
AcDbLine
 10
1731.2434118163
 20
43.8731144052
 30
0.0
 11
1725.8434118163
 21
43.8731144052
 31
0.0
  0
LINE
  5
24E
100
AcDbEntity
  8
L1_100
  6
CONTINUOUS
 62
         7
100
AcDbLine
 10
1740.0934118163
 20
43.9731144052
 30
0.0
 11
1740.1934118163
 21
43.8731144052
 31
0.0
  0
LINE
  5
24F
100
AcDbEntity
  8
L1_100
  6
CONTINUOUS
 62
         7
100
AcDbLine
 10
1740.1934118163
 20
74.8731144052
 30
0.0
 11
1740.0934118163
 21
74.7731144052
 31
0.0
  0
LINE
  5
250
100
AcDbEntity
  8
L1_100
  6
CONTINUOUS
 62
         7
100
AcDbLine
 10
1741.9934118163
 20
43.8731144052
 30
0.0
 11
1740.1934118163
 21
43.8731144052
 31
0.0
  0
LINE
  5
251
100
AcDbEntity
  8
L1_100
  6
CONTINUOUS
 62
         7
100
AcDbLine
 10
1742.0934118163
 20
43.9731144052
 30
0.0
 11
1741.9934118163
 21
43.8731144052
 31
0.0
  0
LINE
  5
252
100
AcDbEntity
  8
L1_100
  6
CONTINUOUS
 62
         7
100
AcDbLine
 10
1741.9934118163
 20
74.8731144052
 30
0.0
 11
1740.1934118163
 21
74.8731144052
 31
0.0
  0
LINE
  5
253
100
AcDbEntity
  8
L1_100
  6
CONTINUOUS
 62
         7
100
AcDbLine
 10
1742.0934118163
 20
43.9731144052
 30
0.0
 11
1742.0934118163
 21
74.7731144052
 31
0.0
  0
LINE
  5
254
100
AcDbEntity
  8
L1_100
  6
CONTINUOUS
 62
         7
100
AcDbLine
 10
1741.9934118163
 20
74.8731144052
 30
0.0
 11
1742.0934118163
 21
74.7731144052
 31
0.0
  0
LINE
  5
255
100
AcDbEntity
  8
L1_100
  6
CONTINUOUS
 62
         7
100
AcDbLine
 10
1731.3434118163
 20
43.9731144052
 30
0.0
 11
1731.3434118163
 21
74.7731144052
 31
0.0
  0
LINE
  5
256
100
AcDbEntity
  8
L1_100
  6
CONTINUOUS
 62
         7
100
AcDbLine
 10
1740.0934118163
 20
43.9731144052
 30
0.0
 11
1740.0934118163
 21
74.7731144052
 31
0.0
  0
ARC
  5
257
100
AcDbEntity
  8
L1_100
  6
CONTINUOUS
 62
         7
100
AcDbCircle
 10
1638.6857730058
 20
43.8731144052
 30
0.0
 40
0.5
100
AcDbArc
 50
0.0
 51
180.0
  0
ARC
  5
258
100
AcDbEntity
  8
L1_100
  6
CONTINUOUS
 62
         7
100
AcDbCircle
 10
1638.6857730058
 20
74.8731144052
 30
0.0
 40
0.5
100
AcDbArc
 50
180.0
 51
360.0
  0
LINE
  5
259
100
AcDbEntity
  8
L1_100
  6
CONTINUOUS
 62
         7
100
AcDbLine
 10
1639.1857730058
 20
36.3731144052
 30
0.0
 11
1640.1857730058
 21
35.3731144052
 31
0.0
  0
LINE
  5
25A
100
AcDbEntity
  8
L1_100
  6
CONTINUOUS
 62
         7
100
AcDbLine
 10
1639.1857730058
 20
82.3731144052
 30
0.0
 11
1639.1857730058
 21
36.3731144052
 31
0.0
  0
LINE
  5
25B
100
AcDbEntity
  8
L1_100
  6
CONTINUOUS
 62
         7
100
AcDbLine
 10
1638.1857730058
 20
43.8731144052
 30
0.0
 11
1619.1834118163
 21
43.8731144052
 31
0.0
  0
LINE
  5
25C
100
AcDbEntity
  8
L1_100
  6
CONTINUOUS
 62
         7
100
AcDbLine
 10
1618.1834118163
 20
44.8731144052
 30
0.0
 11
1619.1834118163
 21
43.8731144052
 31
0.0
  0
LINE
  5
25D
100
AcDbEntity
  8
L1_100
  6
CONTINUOUS
 62
         7
100
AcDbLine
 10
1618.1834118163
 20
73.8731144052
 30
0.0
 11
1619.1834118163
 21
74.8731144052
 31
0.0
  0
LINE
  5
25E
100
AcDbEntity
  8
L1_100
  6
CONTINUOUS
 62
         7
100
AcDbLine
 10
1638.1857730058
 20
74.8731144052
 30
0.0
 11
1619.1834118163
 21
74.8731144052
 31
0.0
  0
LINE
  5
25F
100
AcDbEntity
  8
L1_100
  6
CONTINUOUS
 62
         7
100
AcDbLine
 10
1639.1857730058
 20
82.3731144052
 30
0.0
 11
1640.1857730058
 21
83.3731144052
 31
0.0
  0
LINE
  5
260
100
AcDbEntity
  8
L1_100
  6
CONTINUOUS
 62
         7
100
AcDbLine
 10
1666.0434118163
 20
36.3731144052
 30
0.0
 11
1665.0434118163
 21
35.3731144052
 31
0.0
  0
LINE
  5
261
100
AcDbEntity
  8
L1_100
  6
CONTINUOUS
 62
         7
100
AcDbLine
 10
1665.0434118163
 20
83.3731144052
 30
0.0
 11
1666.0434118163
 21
82.3731144052
 31
0.0
  0
LINE
  5
262
100
AcDbEntity
  8
L1_100
  6
CONTINUOUS
 62
         7
100
AcDbLine
 10
1665.0434118163
 20
35.3731144052
 30
0.0
 11
1640.1857730058
 21
35.3731144052
 31
0.0
  0
LINE
  5
263
100
AcDbEntity
  8
L1_100
  6
CONTINUOUS
 62
         7
100
AcDbLine
 10
1665.0434118163
 20
83.3731144052
 30
0.0
 11
1640.1857730058
 21
83.3731144052
 31
0.0
  0
LINE
  5
264
100
AcDbEntity
  8
L1_100
  6
CONTINUOUS
 62
         7
100
AcDbLine
 10
1712.7934118163
 20
39.3731144052
 30
0.0
 11
1712.7934118163
 21
79.3731144052
 31
0.0
  0
LINE
  5
265
100
AcDbEntity
  8
L1_100
  6
CONTINUOUS
 62
         7
100
AcDbLine
 10
1712.7934118163
 20
39.8731144052
 30
0.0
 11
1711.2934118163
 21
39.8731144052
 31
0.0
  0
LINE
  5
266
100
AcDbEntity
  8
L1_100
  6
CONTINUOUS
 62
         7
100
AcDbLine
 10
1711.2934118163
 20
39.3731144052
 30
0.0
 11
1711.2934118163
 21
79.3731144052
 31
0.0
  0
LINE
  5
267
100
AcDbEntity
  8
L1_100
  6
CONTINUOUS
 62
         7
100
AcDbLine
 10
1712.7934118163
 20
78.8731144052
 30
0.0
 11
1711.2934118163
 21
78.8731144052
 31
0.0
  0
LINE
  5
268
100
AcDbEntity
  8
L1_100
  6
CONTINUOUS
 62
         7
100
AcDbLine
 10
1711.2934118163
 20
39.3731144052
 30
0.0
 11
1667.0434118163
 21
39.3731144052
 31
0.0
  0
LINE
  5
269
100
AcDbEntity
  8
L1_100
  6
CONTINUOUS
 62
         7
100
AcDbLine
 10
1667.0434118163
 20
79.3731144052
 30
0.0
 11
1711.2934118163
 21
79.3731144052
 31
0.0
  0
LINE
  5
26A
100
AcDbEntity
  8
L1_100
  6
CONTINUOUS
 62
         7
100
AcDbLine
 10
1719.7934118163
 20
79.3731144052
 30
0.0
 11
1712.7934118163
 21
79.3731144052
 31
0.0
  0
LINE
  5
26B
100
AcDbEntity
  8
L1_100
  6
CONTINUOUS
 62
         7
100
AcDbLine
 10
1719.7934118163
 20
39.3731144052
 30
0.0
 11
1712.7934118163
 21
39.3731144052
 31
0.0
  0
LINE
  5
26C
100
AcDbEntity
  8
L1_100
  6
CONTINUOUS
 62
         7
100
AcDbLine
 10
1618.1834118163
 20
44.8731144052
 30
0.0
 11
1618.1834118163
 21
73.8731144052
 31
0.0
  0
LINE
  5
26D
100
AcDbEntity
  8
L1_100
  6
CONTINUOUS
 62
         7
100
AcDbLine
 10
1666.0434118163
 20
36.3731144052
 30
0.0
 11
1666.0434118163
 21
82.3731144052
 31
0.0
  0
LINE
  5
26E
100
AcDbEntity
  8
L1_100
  6
CONTINUOUS
 62
         7
100
AcDbLine
 10
1719.7934118163
 20
79.3731144052
 30
0.0
 11
1720.2934118163
 21
78.8731144052
 31
0.0
  0
LINE
  5
26F
100
AcDbEntity
  8
L1_100
  6
CONTINUOUS
 62
         7
100
AcDbLine
 10
1720.2934118163
 20
39.8731144052
 30
0.0
 11
1719.7934118163
 21
39.3731144052
 31
0.0
  0
ARC
  5
270
100
AcDbEntity
  8
L1_100
  6
CONTINUOUS
 62
         7
100
AcDbCircle
 10
1666.5434118163
 20
79.3731144052
 30
0.0
 40
0.5
100
AcDbArc
 50
180.0
 51
360.0
  0
ARC
  5
271
100
AcDbEntity
  8
L1_100
  6
CONTINUOUS
 62
         7
100
AcDbCircle
 10
1666.5434118163
 20
39.3731144052
 30
0.0
 40
0.5
100
AcDbArc
 50
0.0
 51
180.0
  0
LINE
  5
272
100
AcDbEntity
  8
L1_100
  6
CENTER
 62
         1
100
AcDbLine
 10
1680.8434118163
 20
75.7804426169
 30
0.0
 11
1680.8434118163
 21
77.6068023448
 31
0.0
  0
LINE
  5
273
100
AcDbEntity
  8
L1_100
  6
CONTINUOUS
 62
         7
100
AcDbLine
 10
1581.59943722
 20
90.6051652127
 30
0.0
 11
1583.4834118163
 21
89.5174519725
 31
0.0
  0
LINE
  5
274
100
AcDbEntity
  8
L1_100
  6
CONTINUOUS
 62
         7
100
AcDbLine
 10
1581.59943722
 20
28.1410635976
 30
0.0
 11
1583.4834118163
 21
29.2287768379
 31
0.0
  0
LINE
  5
275
100
AcDbEntity
  8
L1_100
  6
CONTINUOUS
 62
         7
100
AcDbLine
 10
1583.7334118163
 20
29.6617895398
 30
0.0
 11
1583.7334118163
 21
89.0844392706
 31
0.0
  0
ARC
  5
276
100
AcDbEntity
  8
L1_100
  6
CONTINUOUS
 62
         7
100
AcDbCircle
 10
1580.59943722
 20
88.8731144052
 30
0.0
 40
2.0
100
AcDbArc
 50
60.0
 51
90.0
  0
ARC
  5
277
100
AcDbEntity
  8
L1_100
  6
CONTINUOUS
 62
         7
100
AcDbCircle
 10
1580.59943722
 20
29.8731144052
 30
0.0
 40
2.0
100
AcDbArc
 50
270.0
 51
300.0
  0
ARC
  5
278
100
AcDbEntity
  8
L1_100
  6
CONTINUOUS
 62
         7
100
AcDbCircle
 10
1583.2334118163
 20
89.0844392706
 30
0.0
 40
0.5
100
AcDbArc
 50
0.0
 51
59.9999999999
  0
ARC
  5
279
100
AcDbEntity
  8
L1_100
  6
CONTINUOUS
 62
         7
100
AcDbCircle
 10
1583.2334118163
 20
29.6617895398
 30
0.0
 40
0.5
100
AcDbArc
 50
300.0
 51
360.0
  0
LINE
  5
27A
100
AcDbEntity
  8
L1_100
  6
CONTINUOUS
 62
         7
100
AcDbLine
 10
1580.59943722
 20
90.8731144052
 30
0.0
 11
1547.1334118163
 21
90.8731144052
 31
0.0
  0
LINE
  5
27B
100
AcDbEntity
  8
L1_100
  6
CONTINUOUS
 62
         7
100
AcDbLine
 10
1546.6334118163
 20
90.3731144052
 30
0.0
 11
1547.1334118163
 21
90.8731144052
 31
0.0
  0
LINE
  5
27C
100
AcDbEntity
  8
L1_100
  6
CONTINUOUS
 62
         7
100
AcDbLine
 10
1546.6334118163
 20
28.3731144052
 30
0.0
 11
1546.6334118163
 21
90.3731144052
 31
0.0
  0
LINE
  5
27D
100
AcDbEntity
  8
L1_100
  6
CONTINUOUS
 62
         7
100
AcDbLine
 10
1580.59943722
 20
27.8731144052
 30
0.0
 11
1547.1334118163
 21
27.8731144052
 31
0.0
  0
LINE
  5
27E
100
AcDbEntity
  8
L1_100
  6
CONTINUOUS
 62
         7
100
AcDbLine
 10
1546.6334118163
 20
28.3731144052
 30
0.0
 11
1547.1334118163
 21
27.8731144052
 31
0.0
  0
LINE
  5
27F
100
AcDbEntity
  8
L1_100
  6
CONTINUOUS
 62
         7
100
AcDbLine
 10
1591.9434118163
 20
49.6231144052
 30
0.0
 11
1591.9434118163
 21
69.1231144052
 31
0.0
  0
LINE
  5
280
100
AcDbEntity
  8
L1_100
  6
CONTINUOUS
 62
         7
100
AcDbLine
 10
1611.8434118163
 20
47.8731144052
 30
0.0
 11
1611.3434118163
 21
47.3731144052
 31
0.0
  0
LINE
  5
281
100
AcDbEntity
  8
L1_100
  6
CONTINUOUS
 62
         7
100
AcDbLine
 10
1611.3434118163
 20
47.3731144052
 30
0.0
 11
1606.9434118163
 21
47.3731144052
 31
0.0
  0
LINE
  5
282
100
AcDbEntity
  8
L1_100
  6
CONTINUOUS
 62
         7
100
AcDbLine
 10
1611.8434118163
 20
47.8731144052
 30
0.0
 11
1611.8434118163
 21
70.8731144052
 31
0.0
  0
LINE
  5
283
100
AcDbEntity
  8
L1_100
  6
CONTINUOUS
 62
         7
100
AcDbLine
 10
1611.3434118163
 20
71.3731144052
 30
0.0
 11
1611.8434118163
 21
70.8731144052
 31
0.0
  0
LINE
  5
284
100
AcDbEntity
  8
L1_100
  6
CONTINUOUS
 62
         7
100
AcDbLine
 10
1611.3434118163
 20
71.3731144052
 30
0.0
 11
1606.9434118163
 21
71.3731144052
 31
0.0
  0
ARC
  5
285
100
AcDbEntity
  8
L1_100
  6
CONTINUOUS
 62
         7
100
AcDbCircle
 10
1606.3434118163
 20
48.6231144052
 30
0.0
 40
0.5
100
AcDbArc
 50
0.0
 51
90.0
  0
LINE
  5
286
100
AcDbEntity
  8
L1_100
  6
CONTINUOUS
 62
         7
100
AcDbLine
 10
1606.3434118163
 20
49.1231144052
 30
0.0
 11
1592.4434118163
 21
49.1231144052
 31
0.0
  0
LINE
  5
287
100
AcDbEntity
  8
L1_100
  6
CONTINUOUS
 62
         7
100
AcDbLine
 10
1606.3434118163
 20
69.6231144052
 30
0.0
 11
1592.4434118163
 21
69.6231144052
 31
0.0
  0
LINE
  5
288
100
AcDbEntity
  8
L1_100
  6
CONTINUOUS
 62
         7
100
AcDbLine
 10
1606.8434118163
 20
47.4731144052
 30
0.0
 11
1606.8434118163
 21
71.2731144052
 31
0.0
  0
ARC
  5
289
100
AcDbEntity
  8
L1_100
  6
CONTINUOUS
 62
         7
100
AcDbCircle
 10
1606.3434118163
 20
70.1231144052
 30
0.0
 40
0.5
100
AcDbArc
 50
270.0
 51
360.0
  0
LINE
  5
28A
100
AcDbEntity
  8
L1_100
  6
CONTINUOUS
 62
         7
100
AcDbLine
 10
1606.9434118163
 20
47.3731144052
 30
0.0
 11
1606.8434118163
 21
47.4731144052
 31
0.0
  0
LINE
  5
28B
100
AcDbEntity
  8
L1_100
  6
CONTINUOUS
 62
         7
100
AcDbLine
 10
1606.8434118163
 20
71.2731144052
 30
0.0
 11
1606.9434118163
 21
71.3731144052
 31
0.0
  0
POLYLINE
  5
28D
100
AcDbEntity
  8
L1_100
  6
CONTINUOUS
 62
         7
100
AcDb2dPolyline
 66
         1
 10
0.0
 20
0.0
 30
0.0
 70
         2
  0
VERTEX
  5
28F
100
AcDbEntity
  8
L1_100
  6
CONTINUOUS
 62
         7
100
AcDbVertex
100
AcDb2dVertex
 10
1682.8434118163
 20
76.6936224809
 30
0.0
 70
         1
  0
VERTEX
  5
291
100
AcDbEntity
  8
L1_100
  6
CONTINUOUS
 62
         7
100
AcDbVertex
100
AcDb2dVertex
 10
1682.7986323567
 20
76.8857772231
 30
0.0
 70
         1
  0
VERTEX
  5
293
100
AcDbEntity
  8
L1_100
  6
CONTINUOUS
 62
         7
100
AcDbVertex
100
AcDb2dVertex
 10
1682.7493383694
 20
76.9703943174
 30
0.0
 70
         1
  0
VERTEX
  5
295
100
AcDbEntity
  8
L1_100
  6
CONTINUOUS
 62
         7
100
AcDbVertex
100
AcDb2dVertex
 10
1682.6803745553
 20
77.0547524717
 30
0.0
 70
         1
  0
VERTEX
  5
297
100
AcDbEntity
  8
L1_100
  6
CONTINUOUS
 62
         7
100
AcDbVertex
100
AcDb2dVertex
 10
1682.5913702118
 20
77.1373944119
 30
0.0
 70
         1
  0
VERTEX
  5
299
100
AcDbEntity
  8
L1_100
  6
CONTINUOUS
 62
         7
100
AcDbVertex
100
AcDb2dVertex
 10
1682.4826422464
 20
77.2167963663
 30
0.0
 70
         1
  0
VERTEX
  5
29B
100
AcDbEntity
  8
L1_100
  6
CONTINUOUS
 62
         7
100
AcDbVertex
100
AcDb2dVertex
 10
1682.3552422522
 20
77.291453506
 30
0.0
 70
         1
  0
VERTEX
  5
29D
100
AcDbEntity
  8
L1_100
  6
CONTINUOUS
 62
         7
100
AcDbVertex
100
AcDb2dVertex
 10
1682.210941646
 20
77.359971987
 30
0.0
 70
         1
  0
VERTEX
  5
29F
100
AcDbEntity
  8
L1_100
  6
CONTINUOUS
 62
         7
100
AcDbVertex
100
AcDb2dVertex
 10
1682.0521510474
 20
77.4211565908
 30
0.0
 70
         1
  0
VERTEX
  5
2A1
100
AcDbEntity
  8
L1_100
  6
CONTINUOUS
 62
         7
100
AcDbVertex
100
AcDb2dVertex
 10
1681.8212236573
 20
77.4902226238
 30
0.0
 70
         1
  0
VERTEX
  5
2A3
100
AcDbEntity
  8
L1_100
  6
CONTINUOUS
 62
         7
100
AcDbVertex
100
AcDb2dVertex
 10
1681.5773002616
 20
77.5431016071
 30
0.0
 70
         1
  0
VERTEX
  5
2A5
100
AcDbEntity
  8
L1_100
  6
CONTINUOUS
 62
         7
100
AcDbVertex
100
AcDb2dVertex
 10
1681.3283994415
 20
77.5795466218
 30
0.0
 70
         1
  0
VERTEX
  5
2A7
100
AcDbEntity
  8
L1_100
  6
CONTINUOUS
 62
         7
100
AcDbVertex
100
AcDb2dVertex
 10
1680.998208725
 20
77.6040630247
 30
0.0
 70
         1
  0
VERTEX
  5
2A9
100
AcDbEntity
  8
L1_100
  6
CONTINUOUS
 62
         7
100
AcDbVertex
100
AcDb2dVertex
 10
1680.6867034332
 20
77.6039948503
 30
0.0
 70
         1
  0
VERTEX
  5
2AB
100
AcDbEntity
  8
L1_100
  6
CONTINUOUS
 62
         7
100
AcDbVertex
100
AcDb2dVertex
 10
1680.4033665276
 20
77.5844246574
 30
0.0
 70
         1
  0
VERTEX
  5
2AD
100
AcDbEntity
  8
L1_100
  6
CONTINUOUS
 62
         7
100
AcDbVertex
100
AcDb2dVertex
 10
1680.1529213165
 20
77.5506532002
 30
0.0
 70
         1
  0
VERTEX
  5
2AF
100
AcDbEntity
  8
L1_100
  6
CONTINUOUS
 62
         7
100
AcDbVertex
100
AcDb2dVertex
 10
1679.8680177431
 20
77.4908403223
 30
0.0
 70
         1
  0
VERTEX
  5
2B1
100
AcDbEntity
  8
L1_100
  6
CONTINUOUS
 62
         7
100
AcDbVertex
100
AcDb2dVertex
 10
1679.6402670264
 20
77.4230872543
 30
0.0
 70
         1
  0
VERTEX
  5
2B3
100
AcDbEntity
  8
L1_100
  6
CONTINUOUS
 62
         7
100
AcDbVertex
100
AcDb2dVertex
 10
1679.4614605116
 20
77.3537401429
 30
0.0
 70
         1
  0
VERTEX
  5
2B5
100
AcDbEntity
  8
L1_100
  6
CONTINUOUS
 62
         7
100
AcDbVertex
100
AcDb2dVertex
 10
1679.3225691004
 20
77.2866689034
 30
0.0
 70
         1
  0
VERTEX
  5
2B7
100
AcDbEntity
  8
L1_100
  6
CONTINUOUS
 62
         7
100
AcDbVertex
100
AcDb2dVertex
 10
1679.1831502711
 20
77.2027830275
 30
0.0
 70
         1
  0
VERTEX
  5
2B9
100
AcDbEntity
  8
L1_100
  6
CONTINUOUS
 62
         7
100
AcDbVertex
100
AcDb2dVertex
 10
1679.0852566322
 20
77.1289158753
 30
0.0
 70
         1
  0
VERTEX
  5
2BB
100
AcDbEntity
  8
L1_100
  6
CONTINUOUS
 62
         7
100
AcDbVertex
100
AcDb2dVertex
 10
1678.9965483194
 20
77.0440668464
 30
0.0
 70
         1
  0
VERTEX
  5
2BD
100
AcDbEntity
  8
L1_100
  6
CONTINUOUS
 62
         7
100
AcDbVertex
100
AcDb2dVertex
 10
1678.9261070157
 20
76.953494884
 30
0.0
 70
         1
  0
VERTEX
  5
2BF
100
AcDbEntity
  8
L1_100
  6
CONTINUOUS
 62
         7
100
AcDbVertex
100
AcDb2dVertex
 10
1678.8791564434
 20
76.8654974085
 30
0.0
 70
         1
  0
VERTEX
  5
2C1
100
AcDbEntity
  8
L1_100
  6
CONTINUOUS
 62
         7
100
AcDbVertex
100
AcDb2dVertex
 10
1678.8496232659
 20
76.7655367961
 30
0.0
 70
         1
  0
VERTEX
  5
2C3
100
AcDbEntity
  8
L1_100
  6
CONTINUOUS
 62
         7
100
AcDbVertex
100
AcDb2dVertex
 10
1678.8434118163
 20
76.6936224809
 30
0.0
 70
         1
  0
VERTEX
  5
2C5
100
AcDbEntity
  8
L1_100
  6
CONTINUOUS
 62
         7
100
AcDbVertex
100
AcDb2dVertex
 10
1678.8434118163
 20
76.6936224809
 30
0.0
 70
         1
  0
VERTEX
  5
2C7
100
AcDbEntity
  8
L1_100
  6
CONTINUOUS
 62
         7
100
AcDbVertex
100
AcDb2dVertex
 10
1678.8881912758
 20
76.5014677386
 30
0.0
 70
         1
  0
VERTEX
  5
2C9
100
AcDbEntity
  8
L1_100
  6
CONTINUOUS
 62
         7
100
AcDbVertex
100
AcDb2dVertex
 10
1678.9374852631
 20
76.4168506443
 30
0.0
 70
         1
  0
VERTEX
  5
2CB
100
AcDbEntity
  8
L1_100
  6
CONTINUOUS
 62
         7
100
AcDbVertex
100
AcDb2dVertex
 10
1679.0064490772
 20
76.33249249
 30
0.0
 70
         1
  0
VERTEX
  5
2CD
100
AcDbEntity
  8
L1_100
  6
CONTINUOUS
 62
         7
100
AcDbVertex
100
AcDb2dVertex
 10
1679.0954534207
 20
76.2498505498
 30
0.0
 70
         1
  0
VERTEX
  5
2CF
100
AcDbEntity
  8
L1_100
  6
CONTINUOUS
 62
         7
100
AcDbVertex
100
AcDb2dVertex
 10
1679.2041813861
 20
76.1704485954
 30
0.0
 70
         1
  0
VERTEX
  5
2D1
100
AcDbEntity
  8
L1_100
  6
CONTINUOUS
 62
         7
100
AcDbVertex
100
AcDb2dVertex
 10
1679.3315813803
 20
76.0957914557
 30
0.0
 70
         1
  0
VERTEX
  5
2D3
100
AcDbEntity
  8
L1_100
  6
CONTINUOUS
 62
         7
100
AcDbVertex
100
AcDb2dVertex
 10
1679.4758819865
 20
76.0272729747
 30
0.0
 70
         1
  0
VERTEX
  5
2D5
100
AcDbEntity
  8
L1_100
  6
CONTINUOUS
 62
         7
100
AcDbVertex
100
AcDb2dVertex
 10
1679.6346725851
 20
75.9660883709
 30
0.0
 70
         1
  0
VERTEX
  5
2D7
100
AcDbEntity
  8
L1_100
  6
CONTINUOUS
 62
         7
100
AcDbVertex
100
AcDb2dVertex
 10
1679.8655999752
 20
75.8970223379
 30
0.0
 70
         1
  0
VERTEX
  5
2D9
100
AcDbEntity
  8
L1_100
  6
CONTINUOUS
 62
         7
100
AcDbVertex
100
AcDb2dVertex
 10
1680.1095233709
 20
75.8441433546
 30
0.0
 70
         1
  0
VERTEX
  5
2DB
100
AcDbEntity
  8
L1_100
  6
CONTINUOUS
 62
         7
100
AcDbVertex
100
AcDb2dVertex
 10
1680.358424191
 20
75.8076983399
 30
0.0
 70
         1
  0
VERTEX
  5
2DD
100
AcDbEntity
  8
L1_100
  6
CONTINUOUS
 62
         7
100
AcDbVertex
100
AcDb2dVertex
 10
1680.6886149075
 20
75.783181937
 30
0.0
 70
         1
  0
VERTEX
  5
2DF
100
AcDbEntity
  8
L1_100
  6
CONTINUOUS
 62
         7
100
AcDbVertex
100
AcDb2dVertex
 10
1681.0001201993
 20
75.7832501114
 30
0.0
 70
         1
  0
VERTEX
  5
2E1
100
AcDbEntity
  8
L1_100
  6
CONTINUOUS
 62
         7
100
AcDbVertex
100
AcDb2dVertex
 10
1681.2834571049
 20
75.8028203044
 30
0.0
 70
         1
  0
VERTEX
  5
2E3
100
AcDbEntity
  8
L1_100
  6
CONTINUOUS
 62
         7
100
AcDbVertex
100
AcDb2dVertex
 10
1681.533902316
 20
75.8365917615
 30
0.0
 70
         1
  0
VERTEX
  5
2E5
100
AcDbEntity
  8
L1_100
  6
CONTINUOUS
 62
         7
100
AcDbVertex
100
AcDb2dVertex
 10
1681.8188058894
 20
75.8964046394
 30
0.0
 70
         1
  0
VERTEX
  5
2E7
100
AcDbEntity
  8
L1_100
  6
CONTINUOUS
 62
         7
100
AcDbVertex
100
AcDb2dVertex
 10
1682.0465566061
 20
75.9641577074
 30
0.0
 70
         1
  0
VERTEX
  5
2E9
100
AcDbEntity
  8
L1_100
  6
CONTINUOUS
 62
         7
100
AcDbVertex
100
AcDb2dVertex
 10
1682.225363121
 20
76.0335048188
 30
0.0
 70
         1
  0
VERTEX
  5
2EB
100
AcDbEntity
  8
L1_100
  6
CONTINUOUS
 62
         7
100
AcDbVertex
100
AcDb2dVertex
 10
1682.3642545321
 20
76.1005760583
 30
0.0
 70
         1
  0
VERTEX
  5
2ED
100
AcDbEntity
  8
L1_100
  6
CONTINUOUS
 62
         7
100
AcDbVertex
100
AcDb2dVertex
 10
1682.5036733614
 20
76.1844619342
 30
0.0
 70
         1
  0
VERTEX
  5
2EF
100
AcDbEntity
  8
L1_100
  6
CONTINUOUS
 62
         7
100
AcDbVertex
100
AcDb2dVertex
 10
1682.6015670003
 20
76.2583290864
 30
0.0
 70
         1
  0
VERTEX
  5
2F1
100
AcDbEntity
  8
L1_100
  6
CONTINUOUS
 62
         7
100
AcDbVertex
100
AcDb2dVertex
 10
1682.6902753131
 20
76.3431781153
 30
0.0
 70
         1
  0
VERTEX
  5
2F3
100
AcDbEntity
  8
L1_100
  6
CONTINUOUS
 62
         7
100
AcDbVertex
100
AcDb2dVertex
 10
1682.7607166169
 20
76.4337500777
 30
0.0
 70
         1
  0
VERTEX
  5
2F5
100
AcDbEntity
  8
L1_100
  6
CONTINUOUS
 62
         7
100
AcDbVertex
100
AcDb2dVertex
 10
1682.8076671891
 20
76.5217475532
 30
0.0
 70
         1
  0
VERTEX
  5
2F7
100
AcDbEntity
  8
L1_100
  6
CONTINUOUS
 62
         7
100
AcDbVertex
100
AcDb2dVertex
 10
1682.8372003666
 20
76.6217081656
 30
0.0
 70
         1
  0
VERTEX
  5
2F9
100
AcDbEntity
  8
L1_100
  6
CONTINUOUS
 62
         7
100
AcDbVertex
100
AcDb2dVertex
 10
1682.8434118163
 20
76.6936224809
 30
0.0
 70
         1
  0
SEQEND
  5
2FB
100
AcDbEntity
  8
L1_100
  6
CONTINUOUS
 62
         7
  0
POLYLINE
  5
2FD
100
AcDbEntity
  8
L1_100
  6
CONTINUOUS
 62
         7
100
AcDb2dPolyline
 66
         1
 10
0.0
 20
0.0
 30
0.0
 70
         2
  0
VERTEX
  5
2FF
100
AcDbEntity
  8
L1_100
  6
CONTINUOUS
 62
         7
100
AcDbVertex
100
AcDb2dVertex
 10
1678.8434118163
 20
42.0526063295
 30
0.0
 70
         1
  0
VERTEX
  5
301
100
AcDbEntity
  8
L1_100
  6
CONTINUOUS
 62
         7
100
AcDbVertex
100
AcDb2dVertex
 10
1678.8881912758
 20
41.8604515872
 30
0.0
 70
         1
  0
VERTEX
  5
303
100
AcDbEntity
  8
L1_100
  6
CONTINUOUS
 62
         7
100
AcDbVertex
100
AcDb2dVertex
 10
1678.9374852631
 20
41.7758344929
 30
0.0
 70
         1
  0
VERTEX
  5
305
100
AcDbEntity
  8
L1_100
  6
CONTINUOUS
 62
         7
100
AcDbVertex
100
AcDb2dVertex
 10
1679.0064490772
 20
41.6914763386
 30
0.0
 70
         1
  0
VERTEX
  5
307
100
AcDbEntity
  8
L1_100
  6
CONTINUOUS
 62
         7
100
AcDbVertex
100
AcDb2dVertex
 10
1679.0954534207
 20
41.6088343984
 30
0.0
 70
         1
  0
VERTEX
  5
309
100
AcDbEntity
  8
L1_100
  6
CONTINUOUS
 62
         7
100
AcDbVertex
100
AcDb2dVertex
 10
1679.2041813861
 20
41.529432444
 30
0.0
 70
         1
  0
VERTEX
  5
30B
100
AcDbEntity
  8
L1_100
  6
CONTINUOUS
 62
         7
100
AcDbVertex
100
AcDb2dVertex
 10
1679.3315813803
 20
41.4547753043
 30
0.0
 70
         1
  0
VERTEX
  5
30D
100
AcDbEntity
  8
L1_100
  6
CONTINUOUS
 62
         7
100
AcDbVertex
100
AcDb2dVertex
 10
1679.4758819865
 20
41.3862568233
 30
0.0
 70
         1
  0
VERTEX
  5
30F
100
AcDbEntity
  8
L1_100
  6
CONTINUOUS
 62
         7
100
AcDbVertex
100
AcDb2dVertex
 10
1679.6346725851
 20
41.3250722195
 30
0.0
 70
         1
  0
VERTEX
  5
311
100
AcDbEntity
  8
L1_100
  6
CONTINUOUS
 62
         7
100
AcDbVertex
100
AcDb2dVertex
 10
1679.8655999752
 20
41.2560061865
 30
0.0
 70
         1
  0
VERTEX
  5
313
100
AcDbEntity
  8
L1_100
  6
CONTINUOUS
 62
         7
100
AcDbVertex
100
AcDb2dVertex
 10
1680.1095233709
 20
41.2031272032
 30
0.0
 70
         1
  0
VERTEX
  5
315
100
AcDbEntity
  8
L1_100
  6
CONTINUOUS
 62
         7
100
AcDbVertex
100
AcDb2dVertex
 10
1680.358424191
 20
41.1666821885
 30
0.0
 70
         1
  0
VERTEX
  5
317
100
AcDbEntity
  8
L1_100
  6
CONTINUOUS
 62
         7
100
AcDbVertex
100
AcDb2dVertex
 10
1680.6886149075
 20
41.1421657857
 30
0.0
 70
         1
  0
VERTEX
  5
319
100
AcDbEntity
  8
L1_100
  6
CONTINUOUS
 62
         7
100
AcDbVertex
100
AcDb2dVertex
 10
1681.0001201993
 20
41.14223396
 30
0.0
 70
         1
  0
VERTEX
  5
31B
100
AcDbEntity
  8
L1_100
  6
CONTINUOUS
 62
         7
100
AcDbVertex
100
AcDb2dVertex
 10
1681.2834571049
 20
41.161804153
 30
0.0
 70
         1
  0
VERTEX
  5
31D
100
AcDbEntity
  8
L1_100
  6
CONTINUOUS
 62
         7
100
AcDbVertex
100
AcDb2dVertex
 10
1681.533902316
 20
41.1955756101
 30
0.0
 70
         1
  0
VERTEX
  5
31F
100
AcDbEntity
  8
L1_100
  6
CONTINUOUS
 62
         7
100
AcDbVertex
100
AcDb2dVertex
 10
1681.8188058894
 20
41.255388488
 30
0.0
 70
         1
  0
VERTEX
  5
321
100
AcDbEntity
  8
L1_100
  6
CONTINUOUS
 62
         7
100
AcDbVertex
100
AcDb2dVertex
 10
1682.0465566061
 20
41.323141556
 30
0.0
 70
         1
  0
VERTEX
  5
323
100
AcDbEntity
  8
L1_100
  6
CONTINUOUS
 62
         7
100
AcDbVertex
100
AcDb2dVertex
 10
1682.225363121
 20
41.3924886674
 30
0.0
 70
         1
  0
VERTEX
  5
325
100
AcDbEntity
  8
L1_100
  6
CONTINUOUS
 62
         7
100
AcDbVertex
100
AcDb2dVertex
 10
1682.3642545321
 20
41.4595599069
 30
0.0
 70
         1
  0
VERTEX
  5
327
100
AcDbEntity
  8
L1_100
  6
CONTINUOUS
 62
         7
100
AcDbVertex
100
AcDb2dVertex
 10
1682.5036733614
 20
41.5434457829
 30
0.0
 70
         1
  0
VERTEX
  5
329
100
AcDbEntity
  8
L1_100
  6
CONTINUOUS
 62
         7
100
AcDbVertex
100
AcDb2dVertex
 10
1682.6015670003
 20
41.617312935
 30
0.0
 70
         1
  0
VERTEX
  5
32B
100
AcDbEntity
  8
L1_100
  6
CONTINUOUS
 62
         7
100
AcDbVertex
100
AcDb2dVertex
 10
1682.6902753131
 20
41.702161964
 30
0.0
 70
         1
  0
VERTEX
  5
32D
100
AcDbEntity
  8
L1_100
  6
CONTINUOUS
 62
         7
100
AcDbVertex
100
AcDb2dVertex
 10
1682.7607166169
 20
41.7927339263
 30
0.0
 70
         1
  0
VERTEX
  5
32F
100
AcDbEntity
  8
L1_100
  6
CONTINUOUS
 62
         7
100
AcDbVertex
100
AcDb2dVertex
 10
1682.8076671891
 20
41.8807314018
 30
0.0
 70
         1
  0
VERTEX
  5
331
100
AcDbEntity
  8
L1_100
  6
CONTINUOUS
 62
         7
100
AcDbVertex
100
AcDb2dVertex
 10
1682.8372003666
 20
41.9806920142
 30
0.0
 70
         1
  0
VERTEX
  5
333
100
AcDbEntity
  8
L1_100
  6
CONTINUOUS
 62
         7
100
AcDbVertex
100
AcDb2dVertex
 10
1682.8434118163
 20
42.0526063295
 30
0.0
 70
         1
  0
VERTEX
  5
335
100
AcDbEntity
  8
L1_100
  6
CONTINUOUS
 62
         7
100
AcDbVertex
100
AcDb2dVertex
 10
1682.8434118163
 20
42.0526063295
 30
0.0
 70
         1
  0
VERTEX
  5
337
100
AcDbEntity
  8
L1_100
  6
CONTINUOUS
 62
         7
100
AcDbVertex
100
AcDb2dVertex
 10
1682.7986323567
 20
42.2447610717
 30
0.0
 70
         1
  0
VERTEX
  5
339
100
AcDbEntity
  8
L1_100
  6
CONTINUOUS
 62
         7
100
AcDbVertex
100
AcDb2dVertex
 10
1682.7493383694
 20
42.329378166
 30
0.0
 70
         1
  0
VERTEX
  5
33B
100
AcDbEntity
  8
L1_100
  6
CONTINUOUS
 62
         7
100
AcDbVertex
100
AcDb2dVertex
 10
1682.6803745553
 20
42.4137363204
 30
0.0
 70
         1
  0
VERTEX
  5
33D
100
AcDbEntity
  8
L1_100
  6
CONTINUOUS
 62
         7
100
AcDbVertex
100
AcDb2dVertex
 10
1682.5913702118
 20
42.4963782606
 30
0.0
 70
         1
  0
VERTEX
  5
33F
100
AcDbEntity
  8
L1_100
  6
CONTINUOUS
 62
         7
100
AcDbVertex
100
AcDb2dVertex
 10
1682.4826422464
 20
42.5757802149
 30
0.0
 70
         1
  0
VERTEX
  5
341
100
AcDbEntity
  8
L1_100
  6
CONTINUOUS
 62
         7
100
AcDbVertex
100
AcDb2dVertex
 10
1682.3552422522
 20
42.6504373546
 30
0.0
 70
         1
  0
VERTEX
  5
343
100
AcDbEntity
  8
L1_100
  6
CONTINUOUS
 62
         7
100
AcDbVertex
100
AcDb2dVertex
 10
1682.210941646
 20
42.7189558356
 30
0.0
 70
         1
  0
VERTEX
  5
345
100
AcDbEntity
  8
L1_100
  6
CONTINUOUS
 62
         7
100
AcDbVertex
100
AcDb2dVertex
 10
1682.0521510474
 20
42.7801404395
 30
0.0
 70
         1
  0
VERTEX
  5
347
100
AcDbEntity
  8
L1_100
  6
CONTINUOUS
 62
         7
100
AcDbVertex
100
AcDb2dVertex
 10
1681.8212236573
 20
42.8492064724
 30
0.0
 70
         1
  0
VERTEX
  5
349
100
AcDbEntity
  8
L1_100
  6
CONTINUOUS
 62
         7
100
AcDbVertex
100
AcDb2dVertex
 10
1681.5773002617
 20
42.9020854558
 30
0.0
 70
         1
  0
VERTEX
  5
34B
100
AcDbEntity
  8
L1_100
  6
CONTINUOUS
 62
         7
100
AcDbVertex
100
AcDb2dVertex
 10
1681.3283994415
 20
42.9385304704
 30
0.0
 70
         1
  0
VERTEX
  5
34D
100
AcDbEntity
  8
L1_100
  6
CONTINUOUS
 62
         7
100
AcDbVertex
100
AcDb2dVertex
 10
1680.998208725
 20
42.9630468733
 30
0.0
 70
         1
  0
VERTEX
  5
34F
100
AcDbEntity
  8
L1_100
  6
CONTINUOUS
 62
         7
100
AcDbVertex
100
AcDb2dVertex
 10
1680.6867034332
 20
42.9629786989
 30
0.0
 70
         1
  0
VERTEX
  5
351
100
AcDbEntity
  8
L1_100
  6
CONTINUOUS
 62
         7
100
AcDbVertex
100
AcDb2dVertex
 10
1680.4033665276
 20
42.943408506
 30
0.0
 70
         1
  0
VERTEX
  5
353
100
AcDbEntity
  8
L1_100
  6
CONTINUOUS
 62
         7
100
AcDbVertex
100
AcDb2dVertex
 10
1680.1529213165
 20
42.9096370488
 30
0.0
 70
         1
  0
VERTEX
  5
355
100
AcDbEntity
  8
L1_100
  6
CONTINUOUS
 62
         7
100
AcDbVertex
100
AcDb2dVertex
 10
1679.8680177431
 20
42.8498241709
 30
0.0
 70
         1
  0
VERTEX
  5
357
100
AcDbEntity
  8
L1_100
  6
CONTINUOUS
 62
         7
100
AcDbVertex
100
AcDb2dVertex
 10
1679.6402670264
 20
42.782071103
 30
0.0
 70
         1
  0
VERTEX
  5
359
100
AcDbEntity
  8
L1_100
  6
CONTINUOUS
 62
         7
100
AcDbVertex
100
AcDb2dVertex
 10
1679.4614605116
 20
42.7127239916
 30
0.0
 70
         1
  0
VERTEX
  5
35B
100
AcDbEntity
  8
L1_100
  6
CONTINUOUS
 62
         7
100
AcDbVertex
100
AcDb2dVertex
 10
1679.3225691004
 20
42.6456527521
 30
0.0
 70
         1
  0
VERTEX
  5
35D
100
AcDbEntity
  8
L1_100
  6
CONTINUOUS
 62
         7
100
AcDbVertex
100
AcDb2dVertex
 10
1679.1831502711
 20
42.5617668761
 30
0.0
 70
         1
  0
VERTEX
  5
35F
100
AcDbEntity
  8
L1_100
  6
CONTINUOUS
 62
         7
100
AcDbVertex
100
AcDb2dVertex
 10
1679.0852566323
 20
42.4878997239
 30
0.0
 70
         1
  0
VERTEX
  5
361
100
AcDbEntity
  8
L1_100
  6
CONTINUOUS
 62
         7
100
AcDbVertex
100
AcDb2dVertex
 10
1678.9965483194
 20
42.403050695
 30
0.0
 70
         1
  0
VERTEX
  5
363
100
AcDbEntity
  8
L1_100
  6
CONTINUOUS
 62
         7
100
AcDbVertex
100
AcDb2dVertex
 10
1678.9261070157
 20
42.3124787327
 30
0.0
 70
         1
  0
VERTEX
  5
365
100
AcDbEntity
  8
L1_100
  6
CONTINUOUS
 62
         7
100
AcDbVertex
100
AcDb2dVertex
 10
1678.8791564434
 20
42.2244812571
 30
0.0
 70
         1
  0
VERTEX
  5
367
100
AcDbEntity
  8
L1_100
  6
CONTINUOUS
 62
         7
100
AcDbVertex
100
AcDb2dVertex
 10
1678.8496232659
 20
42.1245206447
 30
0.0
 70
         1
  0
VERTEX
  5
369
100
AcDbEntity
  8
L1_100
  6
CONTINUOUS
 62
         7
100
AcDbVertex
100
AcDb2dVertex
 10
1678.8434118163
 20
42.0526063295
 30
0.0
 70
         1
  0
SEQEND
  5
36B
100
AcDbEntity
  8
L1_100
  6
CONTINUOUS
 62
         7
  0
LINE
  5
36C
100
AcDbEntity
  8
L1_100
  6
CENTER
 62
         1
100
AcDbLine
 10
1680.8434118163
 20
42.9657861934
 30
0.0
 11
1680.8434118163
 21
41.1394264656
 31
0.0
  0
LINE
  5
36D
100
AcDbEntity
  8
L1_100
  6
CONTINUOUS
 62
         7
100
AcDbLine
 10
1658.7745432841
 20
64.1281144052
 30
0.0
 11
1646.467423679
 21
64.128114402
 31
0.0
  0
LINE
  5
36E
100
AcDbEntity
  8
L1_100
  6
CONTINUOUS
 62
         7
100
AcDbLine
 10
1658.7745432841
 20
54.6181144052
 30
0.0
 11
1646.467423679
 21
54.618114402
 31
0.0
  0
ARC
  5
36F
100
AcDbEntity
  8
L1_100
  6
CONTINUOUS
 62
         7
100
AcDbCircle
 10
1646.467423679
 20
59.373114402
 30
0.0
 40
4.755
100
AcDbArc
 50
90.0
 51
270.0
  0
ARC
  5
370
100
AcDbEntity
  8
L1_100
  6
CONTINUOUS
 62
         7
100
AcDbCircle
 10
1658.7745432841
 20
59.3731144052
 30
0.0
 40
4.755
100
AcDbArc
 50
270.0
 51
450.0
  0
ARC
  5
371
100
AcDbEntity
  8
L1_100
  6
CONTINUOUS
 62
         7
100
AcDbCircle
 10
1714.2934118163
 20
67.1231144052
 30
0.0
 40
0.5
100
AcDbArc
 50
90.0
 51
180.0
  0
LINE
  5
372
100
AcDbEntity
  8
L1_100
  6
CONTINUOUS
 62
         7
100
AcDbLine
 10
1713.7934118163
 20
51.6231144052
 30
0.0
 11
1713.7934118163
 21
67.1231144052
 31
0.0
  0
LINE
  5
373
100
AcDbEntity
  8
L1_100
  6
CONTINUOUS
 62
         7
100
AcDbLine
 10
1719.7934118163
 20
67.6231144052
 30
0.0
 11
1714.2934118163
 21
67.6231144052
 31
0.0
  0
ARC
  5
374
100
AcDbEntity
  8
L1_100
  6
CONTINUOUS
 62
         7
100
AcDbCircle
 10
1714.2934118163
 20
51.6231144052
 30
0.0
 40
0.5
100
AcDbArc
 50
180.0
 51
270.0
  0
LINE
  5
375
100
AcDbEntity
  8
L1_100
  6
CONTINUOUS
 62
         7
100
AcDbLine
 10
1719.7934118163
 20
51.1231144052
 30
0.0
 11
1714.2934118163
 21
51.1231144052
 31
0.0
  0
LINE
  5
376
100
AcDbEntity
  8
L1_100
  6
CONTINUOUS
 62
         7
100
AcDbLine
 10
1720.2934118163
 20
50.6231144052
 30
0.0
 11
1719.7934118163
 21
51.1231144052
 31
0.0
  0
LINE
  5
377
100
AcDbEntity
  8
L1_100
  6
CONTINUOUS
 62
         7
100
AcDbLine
 10
1720.2934118163
 20
68.1231144052
 30
0.0
 11
1719.7934118163
 21
67.6231144052
 31
0.0
  0
LINE
  5
378
100
AcDbEntity
  8
L1_100
  6
CONTINUOUS
 62
         7
100
AcDbLine
 10
1720.2934118163
 20
39.8731144052
 30
0.0
 11
1720.2934118163
 21
50.6231144052
 31
0.0
  0
LINE
  5
379
100
AcDbEntity
  8
L1_100
  6
CONTINUOUS
 62
         7
100
AcDbLine
 10
1720.2934118163
 20
68.1231144052
 30
0.0
 11
1720.2934118163
 21
78.8731144052
 31
0.0
  0
LINE
  5
37A
100
AcDbEntity
  8
L1_100
  6
CONTINUOUS
 62
         7
100
AcDbLine
 10
1591.9434118163
 20
49.6231144052
 30
0.0
 11
1592.4434118163
 21
49.1231144052
 31
0.0
  0
LINE
  5
37B
100
AcDbEntity
  8
L1_100
  6
CONTINUOUS
 62
         7
100
AcDbLine
 10
1591.9434118163
 20
69.1231144052
 30
0.0
 11
1592.4434118163
 21
69.6231144052
 31
0.0
  0
LINE
  5
37C
100
AcDbEntity
  8
L1_100
  6
CONTINUOUS
 62
         4
100
AcDbLine
 10
1580.59943722
 20
27.8731144052
 30
0.0
 11
1580.59943722
 21
90.8731144052
 31
0.0
  0
LINE
  5
37D
100
AcDbEntity
  8
L1_100
  6
CONTINUOUS
 62
         4
100
AcDbLine
 10
1611.3434118163
 20
47.3731144052
 30
0.0
 11
1611.3434118163
 21
71.3731144052
 31
0.0
  0
LINE
  5
37E
100
AcDbEntity
  8
L1_100
  6
CONTINUOUS
 62
         4
100
AcDbLine
 10
1592.4434118163
 20
69.6231144052
 30
0.0
 11
1592.4434118163
 21
49.1231144052
 31
0.0
  0
LINE
  5
37F
100
AcDbEntity
  8
L1_100
  6
CONTINUOUS
 62
         4
100
AcDbLine
 10
1619.1834118163
 20
43.8731144052
 30
0.0
 11
1619.1834118163
 21
74.8731144052
 31
0.0
  0
LINE
  5
380
100
AcDbEntity
  8
L1_100
  6
CONTINUOUS
 62
         4
100
AcDbLine
 10
1640.1857730058
 20
83.3731144052
 30
0.0
 11
1640.1857730058
 21
35.3731144052
 31
0.0
  0
LINE
  5
381
100
AcDbEntity
  8
L1_100
  6
CONTINUOUS
 62
         4
100
AcDbLine
 10
1665.0434118163
 20
35.3731144052
 30
0.0
 11
1665.0434118163
 21
83.3731144052
 31
0.0
  0
LINE
  5
382
100
AcDbEntity
  8
L1_100
  6
CONTINUOUS
 62
         4
100
AcDbLine
 10
1719.7934118163
 20
67.6231144052
 30
0.0
 11
1719.7934118163
 21
79.3731144052
 31
0.0
  0
LINE
  5
383
100
AcDbEntity
  8
L1_100
  6
CONTINUOUS
 62
         4
100
AcDbLine
 10
1719.7934118163
 20
51.1231144052
 30
0.0
 11
1719.7934118163
 21
39.3731144052
 31
0.0
  0
LINE
  5
384
100
AcDbEntity
  8
L1_100
  6
CONTINUOUS
 62
         4
100
AcDbLine
 10
1725.8434118163
 20
74.8731144052
 30
0.0
 11
1725.8434118163
 21
43.8731144052
 31
0.0
  0
LINE
  5
385
100
AcDbEntity
  8
L1_100
  6
CONTINUOUS
 62
         4
100
AcDbLine
 10
1798.2434118163
 20
85.8731144052
 30
0.0
 11
1798.2434118163
 21
32.8731144052
 31
0.0
  0
LINE
  5
386
100
AcDbEntity
  8
L1_100
  6
CONTINUOUS
 62
         4
100
AcDbLine
 10
1790.2434118163
 20
32.8731144052
 30
0.0
 11
1790.2434118163
 21
85.8731144052
 31
0.0
  0
LINE
  5
387
100
AcDbEntity
  8
L1_100
  6
CENTER
 62
         1
100
AcDbLine
 10
1426.0983403763
 20
8.221935482
 30
0.0
 11
1426.0983403763
 21
18.8501239669
 31
0.0
  0
LINE
  5
388
100
AcDbEntity
  8
L1_100
  6
CENTER
 62
         1
100
AcDbLine
 10
1408.0083403763
 20
8.2219354789
 30
0.0
 11
1408.0083403763
 21
18.8501239669
 31
0.0
  0
LINE
  5
389
100
AcDbEntity
  8
L1_100
  6
CENTER
 62
         1
100
AcDbLine
 10
1583.2833403763
 20
150.1846417294
 30
0.0
 11
1599.0333403763
 21
177.4644419486
 31
0.0
  0
LINE
  5
38A
100
AcDbEntity
  8
L1_100
  6
CENTER
 62
         1
100
AcDbLine
 10
1583.2833403763
 20
150.1846417294
 30
0.0
 11
1600.2429524944
 21
120.8097318642
 31
0.0
  0
LINE
  5
38B
100
AcDbEntity
  8
L1_100
  6
CONTINUOUS
 62
         7
100
AcDbLine
 10
1349.1030155108
 20
-15.4433347407
 30
0.0
 11
1349.1030155108
 21
-10.4433347407
 31
0.0
  0
LINE
  5
38C
100
AcDbEntity
  8
L1_100
  6
CONTINUOUS
 62
         7
100
AcDbLine
 10
1366.1033403763
 20
-15.4433347407
 30
0.0
 11
1349.1030155108
 21
-15.4433347407
 31
0.0
  0
LINE
  5
38D
100
AcDbEntity
  8
L1_100
  6
CONTINUOUS
 62
         7
100
AcDbLine
 10
1366.1033403763
 20
-10.4433347407
 30
0.0
 11
1349.1030155108
 21
-10.4433347407
 31
0.0
  0
LINE
  5
38E
100
AcDbEntity
  8
L1_100
  6
CONTINUOUS
 62
         7
100
AcDbLine
 10
1349.1030155108
 20
-15.4433347407
 30
0.0
 11
1347.4596398379
 21
-12.9433347407
 31
0.0
  0
LINE
  5
38F
100
AcDbEntity
  8
L1_100
  6
CONTINUOUS
 62
         7
100
AcDbLine
 10
1349.1030155108
 20
-10.4433347407
 30
0.0
 11
1347.4596398379
 21
-12.9433347407
 31
0.0
  0
CIRCLE
  5
390
100
AcDbEntity
  8
L1_100
  6
DASHED
 62
         2
100
AcDbCircle
 10
1583.2833403763
 20
150.1846417294
 30
0.0
 40
24.5
  0
CIRCLE
  5
391
100
AcDbEntity
  8
L1_100
  6
CONTINUOUS
 62
         7
100
AcDbCircle
 10
1583.2833403763
 20
150.1846417294
 30
0.0
 40
24.0
  0
CIRCLE
  5
392
100
AcDbEntity
  8
L1_100
  6
DASHED
 62
         2
100
AcDbCircle
 10
1583.2833403763
 20
150.1846417294
 30
0.0
 40
18.0
  0
CIRCLE
  5
393
100
AcDbEntity
  8
L1_100
  6
CONTINUOUS
 62
         7
100
AcDbCircle
 10
1583.2833403763
 20
150.1846417294
 30
0.0
 40
17.5
  0
ARC
  5
394
100
AcDbEntity
  8
L1_100
  6
CONTINUOUS
 62
         4
100
AcDbCircle
 10
1583.2833403763
 20
150.1846417294
 30
0.0
 40
3.0
100
AcDbArc
 50
270.0
 51
540.0
  0
CIRCLE
  5
395
100
AcDbEntity
  8
L1_100
  6
CONTINUOUS
 62
         7
100
AcDbCircle
 10
1583.2833403763
 20
150.1846417294
 30
0.0
 40
2.0
  0
CIRCLE
  5
396
100
AcDbEntity
  8
L1_100
  6
CONTINUOUS
 62
         7
100
AcDbCircle
 10
1583.2833403763
 20
150.1846417294
 30
0.0
 40
27.5
  0
LINE
  5
397
100
AcDbEntity
  8
L1_100
  6
CENTER
 62
         1
100
AcDbLine
 10
1583.2833403763
 20
118.6846417294
 30
0.0
 11
1583.2833403763
 21
181.6846417294
 31
0.0
  0
LINE
  5
398
100
AcDbEntity
  8
L1_100
  6
CENTER
 62
         1
100
AcDbLine
 10
1614.7833403763
 20
150.1846417294
 30
0.0
 11
1549.36411614
 21
150.1846417294
 31
0.0
  0
CIRCLE
  5
399
100
AcDbEntity
  8
L1_100
  6
CONTINUOUS
 62
         7
100
AcDbCircle
 10
1583.2833403763
 20
150.1846417294
 30
0.0
 40
31.5
  0
CIRCLE
  5
39A
100
AcDbEntity
  8
L1_100
  6
CONTINUOUS
 62
         7
100
AcDbCircle
 10
1583.2833403763
 20
150.1846417294
 30
0.0
 40
29.0
  0
CIRCLE
  5
39B
100
AcDbEntity
  8
L1_100
  6
DASHED
 62
         2
100
AcDbCircle
 10
1583.2833403763
 20
150.1846417294
 30
0.0
 40
28.0
  0
LINE
  5
39C
100
AcDbEntity
  8
L1_100
  6
CENTER
 62
         1
100
AcDbLine
 10
1447.1033403763
 20
-12.9433347407
 30
0.0
 11
1329.1033403763
 21
-12.9433347407
 31
0.0
  0
LINE
  5
39D
100
AcDbEntity
  8
L1_100
  6
CONTINUOUS
 62
         7
100
AcDbLine
 10
1396.1033403763
 20
16.9566652593
 30
0.0
 11
1396.1033403763
 21
18.0566652593
 31
0.0
  0
ARC
  5
39E
100
AcDbEntity
  8
L1_100
  6
CONTINUOUS
 62
         7
100
AcDbCircle
 10
1396.4033403763
 20
16.2566652593
 30
0.0
 40
0.4
100
AcDbArc
 50
181.5109716561
 51
270.0
  0
LINE
  5
39F
100
AcDbEntity
  8
L1_100
  6
CONTINUOUS
 62
         7
100
AcDbLine
 10
1396.0034794587
 20
16.2461179098
 30
0.0
 11
1396.1033403763
 21
16.9566652593
 31
0.0
  0
LINE
  5
3A0
100
AcDbEntity
  8
L1_100
  6
CONTINUOUS
 62
         7
100
AcDbLine
 10
1399.2398320494
 20
16.0566652593
 30
0.0
 11
1398.6033403763
 21
16.0566652593
 31
0.0
  0
ARC
  5
3A1
100
AcDbEntity
  8
L1_100
  6
CONTINUOUS
 62
         7
100
AcDbCircle
 10
1397.8042692157
 20
16.2566652593
 30
0.0
 40
0.4
100
AcDbArc
 50
270.0
 51
285.0
  0
LINE
  5
3A2
100
AcDbEntity
  8
L1_100
  6
CONTINUOUS
 62
         7
100
AcDbLine
 10
1397.9077968337
 20
15.8702949288
 30
0.0
 11
1398.6033403763
 21
16.0566652593
 31
0.0
  0
LINE
  5
3A3
100
AcDbEntity
  8
L1_100
  6
CONTINUOUS
 62
         7
100
AcDbLine
 10
1397.8042692157
 20
15.8566652593
 30
0.0
 11
1396.4033403763
 21
15.8566652593
 31
0.0
  0
LINE
  5
3A4
100
AcDbEntity
  8
L1_100
  6
CONTINUOUS
 62
         7
100
AcDbLine
 10
1396.1033403763
 20
-42.8433347407
 30
0.0
 11
1396.1033403763
 21
-43.9433347407
 31
0.0
  0
ARC
  5
3A5
100
AcDbEntity
  8
L1_100
  6
CONTINUOUS
 62
         7
100
AcDbCircle
 10
1396.4033403763
 20
-42.1433347407
 30
0.0
 40
0.4
100
AcDbArc
 50
90.0
 51
178.4890283439
  0
LINE
  5
3A6
100
AcDbEntity
  8
L1_100
  6
CONTINUOUS
 62
         7
100
AcDbLine
 10
1396.0034794587
 20
-42.1327873912
 30
0.0
 11
1396.1033403763
 21
-42.8433347407
 31
0.0
  0
LINE
  5
3A7
100
AcDbEntity
  8
L1_100
  6
CONTINUOUS
 62
         7
100
AcDbLine
 10
1399.2398320494
 20
-41.9433347407
 30
0.0
 11
1398.6033403763
 21
-41.9433347407
 31
0.0
  0
ARC
  5
3A8
100
AcDbEntity
  8
L1_100
  6
CONTINUOUS
 62
         7
100
AcDbCircle
 10
1397.8042692157
 20
-42.1433347407
 30
0.0
 40
0.4
100
AcDbArc
 50
75.0
 51
90.0
  0
LINE
  5
3A9
100
AcDbEntity
  8
L1_100
  6
CONTINUOUS
 62
         7
100
AcDbLine
 10
1397.9077968337
 20
-41.7569644102
 30
0.0
 11
1398.6033403763
 21
-41.9433347407
 31
0.0
  0
LINE
  5
3AA
100
AcDbEntity
  8
L1_100
  6
CONTINUOUS
 62
         7
100
AcDbLine
 10
1397.8042692157
 20
-41.7433347407
 30
0.0
 11
1396.4033403763
 21
-41.7433347407
 31
0.0
  0
LINE
  5
3AB
100
AcDbEntity
  8
L1_100
  6
CONTINUOUS
 62
         7
100
AcDbLine
 10
1396.6033403763
 20
-41.7433347407
 30
0.0
 11
1396.6033403763
 21
-37.4433347407
 31
0.0
  0
LINE
  5
3AC
100
AcDbEntity
  8
L1_100
  6
CONTINUOUS
 62
         7
100
AcDbLine
 10
1398.6033403763
 20
-41.9433347407
 30
0.0
 11
1398.6033403763
 21
-37.4433347407
 31
0.0
  0
LINE
  5
3AD
100
AcDbEntity
  8
L1_100
  6
CENTER
 62
         1
100
AcDbLine
 10
1397.6033403763
 20
-44.4433347407
 30
0.0
 11
1397.6033403763
 21
-30.9433347407
 31
0.0
  0
LINE
  5
3AE
100
AcDbEntity
  8
L1_100
  6
CONTINUOUS
 62
         7
100
AcDbLine
 10
1372.1033403763
 20
-30.9433347407
 30
0.0
 11
1368.1033403763
 21
-30.9433347407
 31
0.0
  0
LINE
  5
3AF
100
AcDbEntity
  8
L1_100
  6
CONTINUOUS
 62
         7
100
AcDbLine
 10
1372.1033403763
 20
5.0566652593
 30
0.0
 11
1368.1033403763
 21
5.0566652593
 31
0.0
  0
LINE
  5
3B0
100
AcDbEntity
  8
L1_100
  6
CONTINUOUS
 62
         7
100
AcDbLine
 10
1393.1057015658
 20
-30.4433347407
 30
0.0
 11
1394.1057015658
 21
-31.4433347407
 31
0.0
  0
LINE
  5
3B1
100
AcDbEntity
  8
L1_100
  6
CONTINUOUS
 62
         7
100
AcDbLine
 10
1394.1057015658
 20
5.5566652593
 30
0.0
 11
1393.1057015658
 21
4.5566652593
 31
0.0
  0
LINE
  5
3B2
100
AcDbEntity
  8
L1_100
  6
CONTINUOUS
 62
         7
100
AcDbLine
 10
1399.1057015658
 20
-37.4433347407
 30
0.0
 11
1395.1057015658
 21
-37.4433347407
 31
0.0
  0
LINE
  5
3B3
100
AcDbEntity
  8
L1_100
  6
CONTINUOUS
 62
         7
100
AcDbLine
 10
1399.1057015658
 20
11.5566652593
 30
0.0
 11
1395.1057015658
 21
11.5566652593
 31
0.0
  0
LINE
  5
3B4
100
AcDbEntity
  8
L1_100
  6
CONTINUOUS
 62
         7
100
AcDbLine
 10
1393.1057015658
 20
-30.4433347407
 30
0.0
 11
1372.1033403763
 21
-30.4433347407
 31
0.0
  0
LINE
  5
3B5
100
AcDbEntity
  8
L1_100
  6
CONTINUOUS
 62
         7
100
AcDbLine
 10
1393.1057015658
 20
4.5566652593
 30
0.0
 11
1372.1033403763
 21
4.5566652593
 31
0.0
  0
LINE
  5
3B6
100
AcDbEntity
  8
L1_100
  6
CONTINUOUS
 62
         7
100
AcDbLine
 10
1367.1033403763
 20
-29.9433347407
 30
0.0
 11
1367.1033403763
 21
4.0566652593
 31
0.0
  0
LINE
  5
3B7
100
AcDbEntity
  8
L1_100
  6
CONTINUOUS
 62
         7
100
AcDbLine
 10
1394.1057015658
 20
-36.4433347407
 30
0.0
 11
1394.1057015658
 21
10.5566652593
 31
0.0
  0
LINE
  5
3B8
100
AcDbEntity
  8
L1_100
  6
CONTINUOUS
 62
         7
100
AcDbLine
 10
1436.1033403763
 20
-40.9433347407
 30
0.0
 11
1436.1033403763
 21
-41.8433347407
 31
0.0
  0
LINE
  5
3B9
100
AcDbEntity
  8
L1_100
  6
CONTINUOUS
 62
         7
100
AcDbLine
 10
1438.1033403763
 20
-40.9433347407
 30
0.0
 11
1436.1033403763
 21
-40.9433347407
 31
0.0
  0
LINE
  5
3BA
100
AcDbEntity
  8
L1_100
  6
CONTINUOUS
 62
         7
100
AcDbLine
 10
1438.1033403763
 20
-40.9433347407
 30
0.0
 11
1438.1033403763
 21
-41.8433347407
 31
0.0
  0
LINE
  5
3BB
100
AcDbEntity
  8
L1_100
  6
CONTINUOUS
 62
         7
100
AcDbLine
 10
1441.2419591697
 20
-41.9433347407
 30
0.0
 11
1438.2033403763
 21
-41.9433347407
 31
0.0
  0
LINE
  5
3BC
100
AcDbEntity
  8
L1_100
  6
CONTINUOUS
 62
         7
100
AcDbLine
 10
1436.0033403763
 20
-41.9433347407
 30
0.0
 11
1398.6033403763
 21
-41.9433347407
 31
0.0
  0
LINE
  5
3BD
100
AcDbEntity
  8
L1_100
  6
CONTINUOUS
 62
         7
100
AcDbLine
 10
1438.1033403763
 20
15.0566652593
 30
0.0
 11
1438.1033403763
 21
15.9566652593
 31
0.0
  0
LINE
  5
3BE
100
AcDbEntity
  8
L1_100
  6
CONTINUOUS
 62
         7
100
AcDbLine
 10
1441.2419591697
 20
16.0566652593
 30
0.0
 11
1438.2033403763
 21
16.0566652593
 31
0.0
  0
LINE
  5
3BF
100
AcDbEntity
  8
L1_100
  6
CONTINUOUS
 62
         7
100
AcDbLine
 10
1438.1033403763
 20
15.0566652593
 30
0.0
 11
1436.1033403763
 21
15.0566652593
 31
0.0
  0
LINE
  5
3C0
100
AcDbEntity
  8
L1_100
  6
CONTINUOUS
 62
         7
100
AcDbLine
 10
1436.1033403763
 20
15.0566652593
 30
0.0
 11
1436.1033403763
 21
15.9566652593
 31
0.0
  0
LINE
  5
3C1
100
AcDbEntity
  8
L1_100
  6
CONTINUOUS
 62
         7
100
AcDbLine
 10
1436.0033403763
 20
16.0566652593
 30
0.0
 11
1398.6033403763
 21
16.0566652593
 31
0.0
  0
LINE
  5
3C2
100
AcDbEntity
  8
L1_100
  6
CONTINUOUS
 62
         7
100
AcDbLine
 10
1447.1033403763
 20
-38.9086807647
 30
0.0
 11
1447.1033403763
 21
13.0220112834
 31
0.0
  0
LINE
  5
3C3
100
AcDbEntity
  8
L1_100
  6
CONTINUOUS
 62
         7
100
AcDbLine
 10
1395.6033403763
 20
18.5566652593
 30
0.0
 11
1331.1033403763
 21
18.5566652593
 31
0.0
  0
LINE
  5
3C4
100
AcDbEntity
  8
L1_100
  6
CONTINUOUS
 62
         7
100
AcDbLine
 10
1395.6033403763
 20
-44.4433347407
 30
0.0
 11
1331.1033403763
 21
-44.4433347407
 31
0.0
  0
LINE
  5
3C5
100
AcDbEntity
  8
L1_100
  6
CONTINUOUS
 62
         4
100
AcDbLine
 10
1366.6033403763
 20
-9.9433347407
 30
0.0
 11
1354.1033403763
 21
-9.9433347407
 31
0.0
  0
LINE
  5
3C6
100
AcDbEntity
  8
L1_100
  6
CONTINUOUS
 62
         4
100
AcDbLine
 10
1366.6033403763
 20
-15.9433347407
 30
0.0
 11
1354.1033403763
 21
-15.9433347407
 31
0.0
  0
LINE
  5
3C7
100
AcDbEntity
  8
L1_100
  6
CONTINUOUS
 62
         7
100
AcDbLine
 10
1354.1033403763
 20
-15.9433347407
 30
0.0
 11
1354.1033403763
 21
-9.9433347407
 31
0.0
  0
LINE
  5
3C8
100
AcDbEntity
  8
L1_100
  6
CONTINUOUS
 62
         7
100
AcDbLine
 10
1372.1033403763
 20
-30.9433347407
 30
0.0
 11
1372.1033403763
 21
5.0566652593
 31
0.0
  0
LINE
  5
3C9
100
AcDbEntity
  8
L1_100
  6
CONTINUOUS
 62
         7
100
AcDbLine
 10
1399.1057015658
 20
-37.4433347407
 30
0.0
 11
1399.1057015658
 21
11.5566652593
 31
0.0
  0
LINE
  5
3CA
100
AcDbEntity
  8
L1_100
  6
CONTINUOUS
 62
         4
100
AcDbLine
 10
1393.1057015658
 20
4.5566652593
 30
0.0
 11
1393.1057015658
 21
-30.4433347407
 31
0.0
  0
ARC
  5
3CB
100
AcDbEntity
  8
L1_100
  6
CONTINUOUS
 62
         7
100
AcDbCircle
 10
1395.6033403763
 20
18.0566652593
 30
0.0
 40
0.5
100
AcDbArc
 50
0.0
 51
90.0
  0
ARC
  5
3CC
100
AcDbEntity
  8
L1_100
  6
CONTINUOUS
 62
         7
100
AcDbCircle
 10
1395.6033403763
 20
-43.9433347407
 30
0.0
 40
0.5
100
AcDbArc
 50
270.0
 51
360.0
  0
LINE
  5
3CD
100
AcDbEntity
  8
L1_100
  6
CONTINUOUS
 62
         7
100
AcDbLine
 10
1436.0033403763
 20
16.0566652593
 30
0.0
 11
1436.1033403763
 21
15.9566652593
 31
0.0
  0
LINE
  5
3CE
100
AcDbEntity
  8
L1_100
  6
CONTINUOUS
 62
         7
100
AcDbLine
 10
1438.1033403763
 20
15.9566652593
 30
0.0
 11
1438.2033403763
 21
16.0566652593
 31
0.0
  0
LINE
  5
3CF
100
AcDbEntity
  8
L1_100
  6
CONTINUOUS
 62
         7
100
AcDbLine
 10
1436.1033403763
 20
-41.8433347407
 30
0.0
 11
1436.0033403763
 21
-41.9433347407
 31
0.0
  0
LINE
  5
3D0
100
AcDbEntity
  8
L1_100
  6
CONTINUOUS
 62
         7
100
AcDbLine
 10
1438.1033403763
 20
-41.8433347407
 30
0.0
 11
1438.2033403763
 21
-41.9433347407
 31
0.0
  0
POLYLINE
  5
3D2
100
AcDbEntity
  8
L1_100
  6
CONTINUOUS
 62
         7
100
AcDb2dPolyline
 66
         1
 10
0.0
 20
0.0
 30
0.0
 70
         2
  0
VERTEX
  5
3D4
100
AcDbEntity
  8
L1_100
  6
CONTINUOUS
 62
         7
100
AcDbVertex
100
AcDb2dVertex
 10
1407.8133403762
 20
-23.7807916884
 30
0.0
 70
         1
  0
VERTEX
  5
3D6
100
AcDbEntity
  8
L1_100
  6
CONTINUOUS
 62
         7
100
AcDbVertex
100
AcDb2dVertex
 10
1407.0770268265
 20
-23.8172064379
 30
0.0
 70
         1
  0
VERTEX
  5
3D8
100
AcDbEntity
  8
L1_100
  6
CONTINUOUS
 62
         7
100
AcDbVertex
100
AcDb2dVertex
 10
1406.7198262537
 20
-23.8617073938
 30
0.0
 70
         1
  0
VERTEX
  5
3DA
100
AcDbEntity
  8
L1_100
  6
CONTINUOUS
 62
         7
100
AcDbVertex
100
AcDb2dVertex
 10
1406.3751979753
 20
-23.922181868
 30
0.0
 70
         1
  0
VERTEX
  5
3DC
100
AcDbEntity
  8
L1_100
  6
CONTINUOUS
 62
         7
100
AcDbVertex
100
AcDb2dVertex
 10
1406.0464342832
 20
-23.9969564927
 30
0.0
 70
         1
  0
VERTEX
  5
3DE
100
AcDbEntity
  8
L1_100
  6
CONTINUOUS
 62
         7
100
AcDbVertex
100
AcDb2dVertex
 10
1405.6318920548
 20
-24.1172371662
 30
0.0
 70
         1
  0
VERTEX
  5
3E0
100
AcDbEntity
  8
L1_100
  6
CONTINUOUS
 62
         7
100
AcDbVertex
100
AcDb2dVertex
 10
1405.2554854529
 20
-24.2547972595
 30
0.0
 70
         1
  0
VERTEX
  5
3E2
100
AcDbEntity
  8
L1_100
  6
CONTINUOUS
 62
         7
100
AcDbVertex
100
AcDb2dVertex
 10
1404.9193614076
 20
-24.40431516
 30
0.0
 70
         1
  0
VERTEX
  5
3E4
100
AcDbEntity
  8
L1_100
  6
CONTINUOUS
 62
         7
100
AcDbVertex
100
AcDb2dVertex
 10
1404.6236517259
 20
-24.560792092
 30
0.0
 70
         1
  0
VERTEX
  5
3E6
100
AcDbEntity
  8
L1_100
  6
CONTINUOUS
 62
         7
100
AcDbVertex
100
AcDb2dVertex
 10
1404.3668909215
 20
-24.7198242371
 30
0.0
 70
         1
  0
VERTEX
  5
3E8
100
AcDbEntity
  8
L1_100
  6
CONTINUOUS
 62
         7
100
AcDbVertex
100
AcDb2dVertex
 10
1404.0757447951
 20
-24.9334796384
 30
0.0
 70
         1
  0
VERTEX
  5
3EA
100
AcDbEntity
  8
L1_100
  6
CONTINUOUS
 62
         7
100
AcDbVertex
100
AcDb2dVertex
 10
1403.8431782752
 20
-25.1383103747
 30
0.0
 70
         1
  0
VERTEX
  5
3EC
100
AcDbEntity
  8
L1_100
  6
CONTINUOUS
 62
         7
100
AcDbVertex
100
AcDb2dVertex
 10
1403.660007375
 20
-25.3298611228
 30
0.0
 70
         1
  0
VERTEX
  5
3EE
100
AcDbEntity
  8
L1_100
  6
CONTINUOUS
 62
         7
100
AcDbVertex
100
AcDb2dVertex
 10
1403.4734141246
 20
-25.5661595315
 30
0.0
 70
         1
  0
VERTEX
  5
3F0
100
AcDbEntity
  8
L1_100
  6
CONTINUOUS
 62
         7
100
AcDbVertex
100
AcDb2dVertex
 10
1403.3428404172
 20
-25.7711520851
 30
0.0
 70
         1
  0
VERTEX
  5
3F2
100
AcDbEntity
  8
L1_100
  6
CONTINUOUS
 62
         7
100
AcDbVertex
100
AcDb2dVertex
 10
1403.2259324227
 20
-26.0052993224
 30
0.0
 70
         1
  0
VERTEX
  5
3F4
100
AcDbEntity
  8
L1_100
  6
CONTINUOUS
 62
         7
100
AcDbVertex
100
AcDb2dVertex
 10
1403.1373983751
 20
-26.2515186743
 30
0.0
 70
         1
  0
VERTEX
  5
3F6
100
AcDbEntity
  8
L1_100
  6
CONTINUOUS
 62
         7
100
AcDbVertex
100
AcDb2dVertex
 10
1403.0849108724
 20
-26.4810354185
 30
0.0
 70
         1
  0
VERTEX
  5
3F8
100
AcDbEntity
  8
L1_100
  6
CONTINUOUS
 62
         7
100
AcDbVertex
100
AcDb2dVertex
 10
1403.0600053935
 20
-26.7198542341
 30
0.0
 70
         1
  0
VERTEX
  5
3FA
100
AcDbEntity
  8
L1_100
  6
CONTINUOUS
 62
         7
100
AcDbVertex
100
AcDb2dVertex
 10
1403.0583403762
 20
-26.7997395006
 30
0.0
 70
         1
  0
SEQEND
  5
3FC
100
AcDbEntity
  8
L1_100
  6
CONTINUOUS
 62
         7
  0
LINE
  5
3FD
100
AcDbEntity
  8
L1_100
  6
CONTINUOUS
 62
         7
100
AcDbLine
 10
1426.2933403763
 20
-23.7807944323
 30
0.0
 11
1407.8133403762
 21
-23.7807916884
 31
0.0
  0
POLYLINE
  5
3FF
100
AcDbEntity
  8
L1_100
  6
CONTINUOUS
 62
         7
100
AcDb2dPolyline
 66
         1
 10
0.0
 20
0.0
 30
0.0
 70
         2
  0
VERTEX
  5
401
100
AcDbEntity
  8
L1_100
  6
CONTINUOUS
 62
         7
100
AcDbVertex
100
AcDb2dVertex
 10
1426.2933403763
 20
-28.5557944323
 30
0.0
 70
         1
  0
VERTEX
  5
403
100
AcDbEntity
  8
L1_100
  6
CONTINUOUS
 62
         7
100
AcDbVertex
100
AcDb2dVertex
 10
1427.3219419611
 20
-28.5142155381
 30
0.0
 70
         1
  0
VERTEX
  5
405
100
AcDbEntity
  8
L1_100
  6
CONTINUOUS
 62
         7
100
AcDbVertex
100
AcDb2dVertex
 10
1427.7734835521
 20
-28.4685498533
 30
0.0
 70
         1
  0
VERTEX
  5
407
100
AcDbEntity
  8
L1_100
  6
CONTINUOUS
 62
         7
100
AcDbVertex
100
AcDb2dVertex
 10
1428.1804479278
 20
-28.4115798323
 30
0.0
 70
         1
  0
VERTEX
  5
409
100
AcDbEntity
  8
L1_100
  6
CONTINUOUS
 62
         7
100
AcDbVertex
100
AcDb2dVertex
 10
1428.5435421242
 20
-28.346718318
 30
0.0
 70
         1
  0
VERTEX
  5
40B
100
AcDbEntity
  8
L1_100
  6
CONTINUOUS
 62
         7
100
AcDbVertex
100
AcDb2dVertex
 10
1428.864901807
 20
-28.2768340327
 30
0.0
 70
         1
  0
VERTEX
  5
40D
100
AcDbEntity
  8
L1_100
  6
CONTINUOUS
 62
         7
100
AcDbVertex
100
AcDb2dVertex
 10
1429.1475444751
 20
-28.2042503737
 30
0.0
 70
         1
  0
VERTEX
  5
40F
100
AcDbEntity
  8
L1_100
  6
CONTINUOUS
 62
         7
100
AcDbVertex
100
AcDb2dVertex
 10
1429.4731365879
 20
-28.1053813813
 30
0.0
 70
         1
  0
VERTEX
  5
411
100
AcDbEntity
  8
L1_100
  6
CONTINUOUS
 62
         7
100
AcDbVertex
100
AcDb2dVertex
 10
1429.7436243963
 20
-28.0080893254
 30
0.0
 70
         1
  0
VERTEX
  5
413
100
AcDbEntity
  8
L1_100
  6
CONTINUOUS
 62
         7
100
AcDbVertex
100
AcDb2dVertex
 10
1429.9674458542
 20
-27.914471244
 30
0.0
 70
         1
  0
VERTEX
  5
415
100
AcDbEntity
  8
L1_100
  6
CONTINUOUS
 62
         7
100
AcDbVertex
100
AcDb2dVertex
 10
1430.1522342392
 20
-27.8257871803
 30
0.0
 70
         1
  0
VERTEX
  5
417
100
AcDbEntity
  8
L1_100
  6
CONTINUOUS
 62
         7
100
AcDbVertex
100
AcDb2dVertex
 10
1430.351602987
 20
-27.7148870337
 30
0.0
 70
         1
  0
VERTEX
  5
419
100
AcDbEntity
  8
L1_100
  6
CONTINUOUS
 62
         7
100
AcDbVertex
100
AcDb2dVertex
 10
1430.5052884621
 20
-27.6146902466
 30
0.0
 70
         1
  0
VERTEX
  5
41B
100
AcDbEntity
  8
L1_100
  6
CONTINUOUS
 62
         7
100
AcDbVertex
100
AcDb2dVertex
 10
1430.6595389039
 20
-27.495209684
 30
0.0
 70
         1
  0
VERTEX
  5
41D
100
AcDbEntity
  8
L1_100
  6
CONTINUOUS
 62
         7
100
AcDbVertex
100
AcDb2dVertex
 10
1430.7685535304
 20
-27.3932226826
 30
0.0
 70
         1
  0
VERTEX
  5
41F
100
AcDbEntity
  8
L1_100
  6
CONTINUOUS
 62
         7
100
AcDbVertex
100
AcDb2dVertex
 10
1430.868549703
 20
-27.2780596341
 30
0.0
 70
         1
  0
VERTEX
  5
421
100
AcDbEntity
  8
L1_100
  6
CONTINUOUS
 62
         7
100
AcDbVertex
100
AcDb2dVertex
 10
1430.949469552
 20
-27.1559815553
 30
0.0
 70
         1
  0
VERTEX
  5
423
100
AcDbEntity
  8
L1_100
  6
CONTINUOUS
 62
         7
100
AcDbVertex
100
AcDb2dVertex
 10
1431.0047404755
 20
-27.0370009059
 30
0.0
 70
         1
  0
VERTEX
  5
425
100
AcDbEntity
  8
L1_100
  6
CONTINUOUS
 62
         7
100
AcDbVertex
100
AcDb2dVertex
 10
1431.04056822
 20
-26.900104492
 30
0.0
 70
         1
  0
VERTEX
  5
427
100
AcDbEntity
  8
L1_100
  6
CONTINUOUS
 62
         7
100
AcDbVertex
100
AcDb2dVertex
 10
1431.0483403763
 20
-26.7997422446
 30
0.0
 70
         1
  0
SEQEND
  5
429
100
AcDbEntity
  8
L1_100
  6
CONTINUOUS
 62
         7
  0
POLYLINE
  5
42B
100
AcDbEntity
  8
L1_100
  6
CONTINUOUS
 62
         7
100
AcDb2dPolyline
 66
         1
 10
0.0
 20
0.0
 30
0.0
 70
         2
  0
VERTEX
  5
42D
100
AcDbEntity
  8
L1_100
  6
CONTINUOUS
 62
         7
100
AcDbVertex
100
AcDb2dVertex
 10
1403.0583403762
 20
-26.7997395006
 30
0.0
 70
         1
  0
VERTEX
  5
42F
100
AcDbEntity
  8
L1_100
  6
CONTINUOUS
 62
         7
100
AcDbVertex
100
AcDb2dVertex
 10
1403.1156955029
 20
-27.0716648465
 30
0.0
 70
         1
  0
VERTEX
  5
431
100
AcDbEntity
  8
L1_100
  6
CONTINUOUS
 62
         7
100
AcDbVertex
100
AcDb2dVertex
 10
1403.1857868256
 20
-27.2035813233
 30
0.0
 70
         1
  0
VERTEX
  5
433
100
AcDbEntity
  8
L1_100
  6
CONTINUOUS
 62
         7
100
AcDbVertex
100
AcDb2dVertex
 10
1403.2810372714
 20
-27.3308547707
 30
0.0
 70
         1
  0
VERTEX
  5
435
100
AcDbEntity
  8
L1_100
  6
CONTINUOUS
 62
         7
100
AcDbVertex
100
AcDb2dVertex
 10
1403.3988111988
 20
-27.452269324
 30
0.0
 70
         1
  0
VERTEX
  5
437
100
AcDbEntity
  8
L1_100
  6
CONTINUOUS
 62
         7
100
AcDbVertex
100
AcDb2dVertex
 10
1403.5360308305
 20
-27.5668529287
 30
0.0
 70
         1
  0
VERTEX
  5
439
100
AcDbEntity
  8
L1_100
  6
CONTINUOUS
 62
         7
100
AcDbVertex
100
AcDb2dVertex
 10
1403.6893565047
 20
-27.6738951339
 30
0.0
 70
         1
  0
VERTEX
  5
43B
100
AcDbEntity
  8
L1_100
  6
CONTINUOUS
 62
         7
100
AcDbVertex
100
AcDb2dVertex
 10
1403.8553607744
 20
-27.772945918
 30
0.0
 70
         1
  0
VERTEX
  5
43D
100
AcDbEntity
  8
L1_100
  6
CONTINUOUS
 62
         7
100
AcDbVertex
100
AcDb2dVertex
 10
1404.0306822679
 20
-27.8637986623
 30
0.0
 70
         1
  0
VERTEX
  5
43F
100
AcDbEntity
  8
L1_100
  6
CONTINUOUS
 62
         7
100
AcDbVertex
100
AcDb2dVertex
 10
1404.2768416869
 20
-27.9735998025
 30
0.0
 70
         1
  0
VERTEX
  5
441
100
AcDbEntity
  8
L1_100
  6
CONTINUOUS
 62
         7
100
AcDbVertex
100
AcDb2dVertex
 10
1404.5272832493
 20
-28.0689858536
 30
0.0
 70
         1
  0
VERTEX
  5
443
100
AcDbEntity
  8
L1_100
  6
CONTINUOUS
 62
         7
100
AcDbVertex
100
AcDb2dVertex
 10
1404.7761894914
 20
-28.150903551
 30
0.0
 70
         1
  0
VERTEX
  5
445
100
AcDbEntity
  8
L1_100
  6
CONTINUOUS
 62
         7
100
AcDbVertex
100
AcDb2dVertex
 10
1405.1037735911
 20
-28.2427910757
 30
0.0
 70
         1
  0
VERTEX
  5
447
100
AcDbEntity
  8
L1_100
  6
CONTINUOUS
 62
         7
100
AcDbVertex
100
AcDb2dVertex
 10
1405.4121399662
 20
-28.3154382277
 30
0.0
 70
         1
  0
VERTEX
  5
449
100
AcDbEntity
  8
L1_100
  6
CONTINUOUS
 62
         7
100
AcDbVertex
100
AcDb2dVertex
 10
1405.7947036819
 20
-28.3896941092
 30
0.0
 70
         1
  0
VERTEX
  5
44B
100
AcDbEntity
  8
L1_100
  6
CONTINUOUS
 62
         7
100
AcDbVertex
100
AcDb2dVertex
 10
1406.2426638464
 20
-28.4572220937
 30
0.0
 70
         1
  0
VERTEX
  5
44D
100
AcDbEntity
  8
L1_100
  6
CONTINUOUS
 62
         7
100
AcDbVertex
100
AcDb2dVertex
 10
1406.7233395777
 20
-28.5090309763
 30
0.0
 70
         1
  0
VERTEX
  5
44F
100
AcDbEntity
  8
L1_100
  6
CONTINUOUS
 62
         7
100
AcDbVertex
100
AcDb2dVertex
 10
1407.3312752366
 20
-28.5467439906
 30
0.0
 70
         1
  0
VERTEX
  5
451
100
AcDbEntity
  8
L1_100
  6
CONTINUOUS
 62
         7
100
AcDbVertex
100
AcDb2dVertex
 10
1407.8133403762
 20
-28.5557916884
 30
0.0
 70
         1
  0
SEQEND
  5
453
100
AcDbEntity
  8
L1_100
  6
CONTINUOUS
 62
         7
  0
LINE
  5
454
100
AcDbEntity
  8
L1_100
  6
CONTINUOUS
 62
         7
100
AcDbLine
 10
1426.2933441996
 20
-28.5557944323
 30
0.0
 11
1407.8133403632
 21
-28.5557916884
 31
0.0
  0
POLYLINE
  5
456
100
AcDbEntity
  8
L1_100
  6
CONTINUOUS
 62
         7
100
AcDb2dPolyline
 66
         1
 10
0.0
 20
0.0
 30
0.0
 70
         2
  0
VERTEX
  5
458
100
AcDbEntity
  8
L1_100
  6
CONTINUOUS
 62
         7
100
AcDbVertex
100
AcDb2dVertex
 10
1431.0483403763
 20
-26.7997422446
 30
0.0
 70
         1
  0
VERTEX
  5
45A
100
AcDbEntity
  8
L1_100
  6
CONTINUOUS
 62
         7
100
AcDbVertex
100
AcDb2dVertex
 10
1430.9837615448
 20
-26.3038802314
 30
0.0
 70
         1
  0
VERTEX
  5
45C
100
AcDbEntity
  8
L1_100
  6
CONTINUOUS
 62
         7
100
AcDbVertex
100
AcDb2dVertex
 10
1430.9101522462
 20
-26.077218315
 30
0.0
 70
         1
  0
VERTEX
  5
45E
100
AcDbEntity
  8
L1_100
  6
CONTINUOUS
 62
         7
100
AcDbVertex
100
AcDb2dVertex
 10
1430.8151797739
 20
-25.8659877879
 30
0.0
 70
         1
  0
VERTEX
  5
460
100
AcDbEntity
  8
L1_100
  6
CONTINUOUS
 62
         7
100
AcDbVertex
100
AcDb2dVertex
 10
1430.7031461769
 20
-25.6704704987
 30
0.0
 70
         1
  0
VERTEX
  5
462
100
AcDbEntity
  8
L1_100
  6
CONTINUOUS
 62
         7
100
AcDbVertex
100
AcDb2dVertex
 10
1430.5326010017
 20
-25.432318985
 30
0.0
 70
         1
  0
VERTEX
  5
464
100
AcDbEntity
  8
L1_100
  6
CONTINUOUS
 62
         7
100
AcDbVertex
100
AcDb2dVertex
 10
1430.346450835
 20
-25.2211104483
 30
0.0
 70
         1
  0
VERTEX
  5
466
100
AcDbEntity
  8
L1_100
  6
CONTINUOUS
 62
         7
100
AcDbVertex
100
AcDb2dVertex
 10
1430.1513888937
 20
-25.0350539413
 30
0.0
 70
         1
  0
VERTEX
  5
468
100
AcDbEntity
  8
L1_100
  6
CONTINUOUS
 62
         7
100
AcDbVertex
100
AcDb2dVertex
 10
1429.8837628794
 20
-24.8204339458
 30
0.0
 70
         1
  0
VERTEX
  5
46A
100
AcDbEntity
  8
L1_100
  6
CONTINUOUS
 62
         7
100
AcDbVertex
100
AcDb2dVertex
 10
1429.6188853831
 20
-24.6419449013
 30
0.0
 70
         1
  0
VERTEX
  5
46C
100
AcDbEntity
  8
L1_100
  6
CONTINUOUS
 62
         7
100
AcDbVertex
100
AcDb2dVertex
 10
1429.2759640168
 20
-24.4485569355
 30
0.0
 70
         1
  0
VERTEX
  5
46E
100
AcDbEntity
  8
L1_100
  6
CONTINUOUS
 62
         7
100
AcDbVertex
100
AcDb2dVertex
 10
1428.9578897473
 20
-24.2993173949
 30
0.0
 70
         1
  0
VERTEX
  5
470
100
AcDbEntity
  8
L1_100
  6
CONTINUOUS
 62
         7
100
AcDbVertex
100
AcDb2dVertex
 10
1428.5715302865
 20
-24.1498536826
 30
0.0
 70
         1
  0
VERTEX
  5
472
100
AcDbEntity
  8
L1_100
  6
CONTINUOUS
 62
         7
100
AcDbVertex
100
AcDb2dVertex
 10
1428.2378020281
 20
-24.0447537168
 30
0.0
 70
         1
  0
VERTEX
  5
474
100
AcDbEntity
  8
L1_100
  6
CONTINUOUS
 62
         7
100
AcDbVertex
100
AcDb2dVertex
 10
1427.8586532635
 20
-23.9490625948
 30
0.0
 70
         1
  0
VERTEX
  5
476
100
AcDbEntity
  8
L1_100
  6
CONTINUOUS
 62
         7
100
AcDbVertex
100
AcDb2dVertex
 10
1427.4560641172
 20
-23.8724418464
 30
0.0
 70
         1
  0
VERTEX
  5
478
100
AcDbEntity
  8
L1_100
  6
CONTINUOUS
 62
         7
100
AcDbVertex
100
AcDb2dVertex
 10
1427.0647726791
 20
-23.8207895105
 30
0.0
 70
         1
  0
VERTEX
  5
47A
100
AcDbEntity
  8
L1_100
  6
CONTINUOUS
 62
         7
100
AcDbVertex
100
AcDb2dVertex
 10
1426.7264450716
 20
-23.7933435713
 30
0.0
 70
         1
  0
VERTEX
  5
47C
100
AcDbEntity
  8
L1_100
  6
CONTINUOUS
 62
         7
100
AcDbVertex
100
AcDb2dVertex
 10
1426.3982384415
 20
-23.7815291363
 30
0.0
 70
         1
  0
VERTEX
  5
47E
100
AcDbEntity
  8
L1_100
  6
CONTINUOUS
 62
         7
100
AcDbVertex
100
AcDb2dVertex
 10
1426.2933403763
 20
-23.7807944323
 30
0.0
 70
         1
  0
SEQEND
  5
480
100
AcDbEntity
  8
L1_100
  6
CONTINUOUS
 62
         7
  0
LINE
  5
481
100
AcDbEntity
  8
L1_100
  6
CENTER
 62
         1
100
AcDbLine
 10
1447.1033403763
 20
150.1846417294
 30
0.0
 11
1329.1033403763
 21
150.1846417294
 31
0.0
  0
LINE
  5
482
100
AcDbEntity
  8
L1_100
  6
CONTINUOUS
 62
         4
100
AcDbLine
 10
1398.6033403763
 20
121.1846417294
 30
0.0
 11
1398.6033403763
 21
179.1846417294
 31
0.0
  0
ARC
  5
483
100
AcDbEntity
  8
L1_100
  6
CONTINUOUS
 62
         7
100
AcDbCircle
 10
1396.4033403763
 20
120.9846417294
 30
0.0
 40
0.4
100
AcDbArc
 50
90.0
 51
178.4890283439
  0
LINE
  5
484
100
AcDbEntity
  8
L1_100
  6
CONTINUOUS
 62
         7
100
AcDbLine
 10
1396.0034794587
 20
120.9951890789
 30
0.0
 11
1396.1033403763
 21
120.2846417294
 31
0.0
  0
LINE
  5
485
100
AcDbEntity
  8
L1_100
  6
CONTINUOUS
 62
         7
100
AcDbLine
 10
1399.2398320494
 20
121.1846417294
 30
0.0
 11
1398.6033403763
 21
121.1846417294
 31
0.0
  0
ARC
  5
486
100
AcDbEntity
  8
L1_100
  6
CONTINUOUS
 62
         7
100
AcDbCircle
 10
1397.8042692157
 20
120.9846417294
 30
0.0
 40
0.4
100
AcDbArc
 50
75.0
 51
90.0
  0
LINE
  5
487
100
AcDbEntity
  8
L1_100
  6
CONTINUOUS
 62
         7
100
AcDbLine
 10
1397.9077968337
 20
121.3710120599
 30
0.0
 11
1398.6033403763
 21
121.1846417294
 31
0.0
  0
LINE
  5
488
100
AcDbEntity
  8
L1_100
  6
CONTINUOUS
 62
         7
100
AcDbLine
 10
1397.8042692157
 20
121.3846417294
 30
0.0
 11
1396.4033403763
 21
121.3846417294
 31
0.0
  0
ARC
  5
489
100
AcDbEntity
  8
L1_100
  6
CONTINUOUS
 62
         7
100
AcDbCircle
 10
1396.4033403763
 20
179.3846417294
 30
0.0
 40
0.4
100
AcDbArc
 50
181.5109716561
 51
270.0
  0
LINE
  5
48A
100
AcDbEntity
  8
L1_100
  6
CONTINUOUS
 62
         7
100
AcDbLine
 10
1396.0034794587
 20
179.3740943799
 30
0.0
 11
1396.1033403763
 21
180.0846417294
 31
0.0
  0
LINE
  5
48B
100
AcDbEntity
  8
L1_100
  6
CONTINUOUS
 62
         7
100
AcDbLine
 10
1399.2398320494
 20
179.1846417294
 30
0.0
 11
1398.6033403763
 21
179.1846417294
 31
0.0
  0
ARC
  5
48C
100
AcDbEntity
  8
L1_100
  6
CONTINUOUS
 62
         7
100
AcDbCircle
 10
1397.8042692157
 20
179.3846417294
 30
0.0
 40
0.4
100
AcDbArc
 50
270.0
 51
285.0
  0
LINE
  5
48D
100
AcDbEntity
  8
L1_100
  6
CONTINUOUS
 62
         7
100
AcDbLine
 10
1397.9077968337
 20
178.9982713989
 30
0.0
 11
1398.6033403763
 21
179.1846417294
 31
0.0
  0
LINE
  5
48E
100
AcDbEntity
  8
L1_100
  6
CONTINUOUS
 62
         7
100
AcDbLine
 10
1397.8042692157
 20
178.9846417294
 30
0.0
 11
1396.4033403763
 21
178.9846417294
 31
0.0
  0
LINE
  5
48F
100
AcDbEntity
  8
L1_100
  6
CONTINUOUS
 62
         7
100
AcDbLine
 10
1436.1033403763
 20
179.0846417294
 30
0.0
 11
1436.1033403763
 21
121.2846417294
 31
0.0
  0
LINE
  5
490
100
AcDbEntity
  8
L1_100
  6
CONTINUOUS
 62
         7
100
AcDbLine
 10
1438.1033403763
 20
122.1846417294
 30
0.0
 11
1436.1033403763
 21
122.1846417294
 31
0.0
  0
LINE
  5
491
100
AcDbEntity
  8
L1_100
  6
CONTINUOUS
 62
         7
100
AcDbLine
 10
1438.1033403763
 20
179.0846417294
 30
0.0
 11
1438.1033403763
 21
121.2846417294
 31
0.0
  0
LINE
  5
492
100
AcDbEntity
  8
L1_100
  6
CONTINUOUS
 62
         7
100
AcDbLine
 10
1441.2419591697
 20
121.1846417294
 30
0.0
 11
1438.2033403763
 21
121.1846417294
 31
0.0
  0
LINE
  5
493
100
AcDbEntity
  8
L1_100
  6
CONTINUOUS
 62
         7
100
AcDbLine
 10
1436.0033403763
 20
121.1846417294
 30
0.0
 11
1398.6033403763
 21
121.1846417294
 31
0.0
  0
LINE
  5
494
100
AcDbEntity
  8
L1_100
  6
CONTINUOUS
 62
         7
100
AcDbLine
 10
1441.2419591697
 20
179.1846417294
 30
0.0
 11
1438.2033403763
 21
179.1846417294
 31
0.0
  0
LINE
  5
495
100
AcDbEntity
  8
L1_100
  6
CONTINUOUS
 62
         7
100
AcDbLine
 10
1438.1033403763
 20
178.1846417294
 30
0.0
 11
1436.1033403763
 21
178.1846417294
 31
0.0
  0
LINE
  5
496
100
AcDbEntity
  8
L1_100
  6
CONTINUOUS
 62
         7
100
AcDbLine
 10
1436.0033403763
 20
179.1846417294
 30
0.0
 11
1398.6033403763
 21
179.1846417294
 31
0.0
  0
LINE
  5
497
100
AcDbEntity
  8
L1_100
  6
CONTINUOUS
 62
         7
100
AcDbLine
 10
1447.1033403763
 20
124.2192957053
 30
0.0
 11
1447.1033403763
 21
176.1499877534
 31
0.0
  0
LINE
  5
498
100
AcDbEntity
  8
L1_100
  6
CONTINUOUS
 62
         7
100
AcDbLine
 10
1396.1033403763
 20
119.1846417294
 30
0.0
 11
1396.1033403763
 21
120.2846417294
 31
0.0
  0
LINE
  5
499
100
AcDbEntity
  8
L1_100
  6
CONTINUOUS
 62
         7
100
AcDbLine
 10
1395.6033403763
 20
181.6846417294
 30
0.0
 11
1331.1033403763
 21
181.6846417294
 31
0.0
  0
LINE
  5
49A
100
AcDbEntity
  8
L1_100
  6
CONTINUOUS
 62
         7
100
AcDbLine
 10
1395.6033403763
 20
118.6846417294
 30
0.0
 11
1331.1033403763
 21
118.6846417294
 31
0.0
  0
DIMENSION
  5
49D
100
AcDbEntity
  8
L1_100
  6
CONTINUOUS
 62
         4
100
AcDbDimension
  2
*D16
 10
1485.9453893965
 20
181.6846417294
 30
0.0
 11
1483.9203893965
 21
147.3479332009
 31
0.0
  3
DIMSTYLE1
100
AcDbAlignedDimension
 13
1395.1033403763
 23
181.6846417294
 33
0.0
 14
1395.1033403763
 24
118.6846417294
 34
0.0
 50
90.0
100
AcDbRotatedDimension
  0
LINE
  5
4A9
100
AcDbEntity
  8
L1_100
  6
CENTER
 62
         1
100
AcDbLine
 10
1426.0983403763
 20
142.3499119521
 30
0.0
 11
1426.0983403763
 21
158.0592538929
 31
0.0
  0
LINE
  5
4AA
100
AcDbEntity
  8
L1_100
  6
CENTER
 62
         1
100
AcDbLine
 10
1408.0083403763
 20
142.3499119489
 30
0.0
 11
1408.0083403763
 21
158.0592538898
 31
0.0
  0
ARC
  5
4AB
100
AcDbEntity
  8
L1_100
  6
CONTINUOUS
 62
         7
100
AcDbCircle
 10
1395.6033403763
 20
181.1846417294
 30
0.0
 40
0.5
100
AcDbArc
 50
0.0
 51
90.0
  0
ARC
  5
4AC
100
AcDbEntity
  8
L1_100
  6
CONTINUOUS
 62
         7
100
AcDbCircle
 10
1395.6033403763
 20
119.1846417294
 30
0.0
 40
0.5
100
AcDbArc
 50
270.0
 51
360.0
  0
LINE
  5
4AD
100
AcDbEntity
  8
L1_100
  6
CONTINUOUS
 62
         7
100
AcDbLine
 10
1396.1033403763
 20
180.0846417294
 30
0.0
 11
1396.1033403763
 21
181.1846417294
 31
0.0
  0
LINE
  5
4AE
100
AcDbEntity
  8
L1_100
  6
CONTINUOUS
 62
         7
100
AcDbLine
 10
1396.1033403763
 20
121.2492168605
 30
0.0
 11
1396.1033403763
 21
179.1200665983
 31
0.0
  0
LINE
  5
4AF
100
AcDbEntity
  8
L1_100
  6
CONTINUOUS
 62
         4
100
AcDbLine
 10
1395.6033403763
 20
181.6846417294
 30
0.0
 11
1395.6033403763
 21
118.6846417294
 31
0.0
  0
LINE
  5
4B0
100
AcDbEntity
  8
L1_100
  6
CONTINUOUS
 62
         7
100
AcDbLine
 10
1438.1033403763
 20
179.0846417294
 30
0.0
 11
1438.2033403763
 21
179.1846417294
 31
0.0
  0
LINE
  5
4B1
100
AcDbEntity
  8
L1_100
  6
CONTINUOUS
 62
         7
100
AcDbLine
 10
1436.0033403763
 20
179.1846417294
 30
0.0
 11
1436.1033403763
 21
179.0846417294
 31
0.0
  0
LINE
  5
4B2
100
AcDbEntity
  8
L1_100
  6
CONTINUOUS
 62
         7
100
AcDbLine
 10
1436.1033403763
 20
121.2846417294
 30
0.0
 11
1436.0033403763
 21
121.1846417294
 31
0.0
  0
LINE
  5
4B3
100
AcDbEntity
  8
L1_100
  6
CONTINUOUS
 62
         7
100
AcDbLine
 10
1438.1033403763
 20
121.2846417294
 30
0.0
 11
1438.2033403763
 21
121.1846417294
 31
0.0
  0
DIMENSION
  5
4B6
100
AcDbEntity
  8
L1_100
  6
CONTINUOUS
 62
         4
100
AcDbDimension
  2
*D17
 10
1460.5517177607
 20
177.6846417294
 30
0.0
 11
1458.5267177607
 21
144.974364398
 31
0.0
  3
DIMSTYLE1
100
AcDbAlignedDimension
 13
1447.1033403763
 23
177.6846417294
 33
0.0
 14
1447.1033403763
 24
122.6846417294
 34
0.0
 50
90.0
100
AcDbRotatedDimension
  0
LINE
  5
4C2
100
AcDbEntity
  8
L1_100
  6
CONTINUOUS
 62
         7
100
AcDbLine
 10
1271.1933403763
 20
138.9846417294
 30
0.0
 11
1271.1933403763
 21
161.3846417294
 31
0.0
  0
LINE
  5
4C3
100
AcDbEntity
  8
L1_100
  6
CONTINUOUS
 62
         7
100
AcDbLine
 10
1329.1033403763
 20
163.8846417294
 30
0.0
 11
1329.1033403763
 21
136.4846417294
 31
0.0
  0
DIMENSION
  5
4C6
100
AcDbEntity
  8
L1_100
  6
CONTINUOUS
 62
         4
100
AcDbDimension
  2
*D18
 10
1271.1933403763
 20
221.6655227797
 30
0.0
 11
1365.3650730156
 21
223.6905227797
 31
0.0
  3
DIMSTYLE1
100
AcDbAlignedDimension
 13
1271.1933403763
 23
161.3846417294
 33
0.0
 14
1447.1033403763
 24
150.1846417294
 34
0.0
100
AcDbRotatedDimension
  0
DIMENSION
  5
4D4
100
AcDbEntity
  8
L1_100
  6
CONTINUOUS
 62
         4
100
AcDbDimension
  2
*D19
 10
1447.1033403763
 20
214.045049963
 30
0.0
 11
1391.4273180633
 21
216.070049963
 31
0.0
  3
DIMSTYLE1
100
AcDbAlignedDimension
 13
1447.1033403763
 23
150.1846417294
 33
0.0
 14
1329.1033403763
 24
163.8846417294
 34
0.0
100
AcDbRotatedDimension
  0
LINE
  5
4E0
100
AcDbEntity
  8
L1_100
  6
CONTINUOUS
 62
         7
100
AcDbLine
 10
1445.6209784665
 20
178.081839406
 30
0.0
 11
1441.7595972599
 21
179.116493382
 31
0.0
  0
ARC
  5
4E1
100
AcDbEntity
  8
L1_100
  6
CONTINUOUS
 62
         7
100
AcDbCircle
 10
1445.1033403763
 20
176.1499877534
 30
0.0
 40
2.0
100
AcDbArc
 50
0.0
 51
75.0
  0
ARC
  5
4E2
100
AcDbEntity
  8
L1_100
  6
CONTINUOUS
 62
         7
100
AcDbCircle
 10
1441.2419591697
 20
177.1846417294
 30
0.0
 40
2.0
100
AcDbArc
 50
75.0
 51
90.0
  0
ARC
  5
4E3
100
AcDbEntity
  8
L1_100
  6
CONTINUOUS
 62
         7
100
AcDbCircle
 10
1445.1033403763
 20
124.2192957053
 30
0.0
 40
2.0
100
AcDbArc
 50
285.0
 51
360.0
  0
ARC
  5
4E4
100
AcDbEntity
  8
L1_100
  6
CONTINUOUS
 62
         7
100
AcDbCircle
 10
1441.2419591697
 20
123.1846417294
 30
0.0
 40
2.0
100
AcDbArc
 50
270.0
 51
285.0
  0
LINE
  5
4E5
100
AcDbEntity
  8
L1_100
  6
CONTINUOUS
 62
         7
100
AcDbLine
 10
1445.6209784665
 20
122.2874440528
 30
0.0
 11
1441.7595972599
 21
121.2527900768
 31
0.0
  0
ARC
  5
4E6
100
AcDbEntity
  8
L1_100
  6
CONTINUOUS
 62
         7
100
AcDbCircle
 10
1445.1033403763
 20
-38.9086807647
 30
0.0
 40
2.0
100
AcDbArc
 50
285.0
 51
360.0
  0
LINE
  5
4E7
100
AcDbEntity
  8
L1_100
  6
CONTINUOUS
 62
         7
100
AcDbLine
 10
1445.6209784665
 20
-40.8405324173
 30
0.0
 11
1441.7595972599
 21
-41.8751863933
 31
0.0
  0
ARC
  5
4E8
100
AcDbEntity
  8
L1_100
  6
CONTINUOUS
 62
         7
100
AcDbCircle
 10
1445.1033403763
 20
13.0220112834
 30
0.0
 40
2.0
100
AcDbArc
 50
0.0
 51
75.0
  0
ARC
  5
4E9
100
AcDbEntity
  8
L1_100
  6
CONTINUOUS
 62
         7
100
AcDbCircle
 10
1441.2419591697
 20
14.0566652593
 30
0.0
 40
2.0
100
AcDbArc
 50
75.0
 51
90.0
  0
LINE
  5
4EA
100
AcDbEntity
  8
L1_100
  6
CONTINUOUS
 62
         7
100
AcDbLine
 10
1445.6209784665
 20
14.9538629359
 30
0.0
 11
1441.7595972599
 21
15.9885169119
 31
0.0
  0
ARC
  5
4EB
100
AcDbEntity
  8
L1_100
  6
CONTINUOUS
 62
         7
100
AcDbCircle
 10
1441.2419591697
 20
-39.9433347407
 30
0.0
 40
2.0
100
AcDbArc
 50
270.0
 51
285.0
  0
LINE
  5
4EC
100
AcDbEntity
  8
L1_100
  6
CONTINUOUS
 62
         4
100
AcDbLine
 10
1441.5052641649
 20
121.2020498704
 30
0.0
 11
1441.5052641649
 21
179.1672335884
 31
0.0
  0
LINE
  5
4ED
100
AcDbEntity
  8
L1_100
  6
DASHED
 62
         2
100
AcDbLine
 10
1559.7993564723
 20
155.1346417294
 30
0.0
 11
1554.7089199972
 21
155.1346417294
 31
0.0
  0
LINE
  5
4EE
100
AcDbEntity
  8
L1_100
  6
DASHED
 62
         2
100
AcDbLine
 10
1559.7993564723
 20
145.2346417294
 30
0.0
 11
1554.7089199972
 21
145.2346417294
 31
0.0
  0
LINE
  5
4EF
100
AcDbEntity
  8
L1_100
  6
DASHED
 62
         2
100
AcDbLine
 10
1590.7385065795
 20
127.3719150865
 30
0.0
 11
1593.2837248171
 21
122.9634677827
 31
0.0
  0
LINE
  5
4F0
100
AcDbEntity
  8
L1_100
  6
DASHED
 62
         2
100
AcDbLine
 10
1599.312158077
 20
132.3219150865
 30
0.0
 11
1601.8573763145
 21
127.9134677827
 31
0.0
  0
LINE
  5
4F1
100
AcDbEntity
  8
L1_100
  6
DASHED
 62
         2
100
AcDbLine
 10
1599.312158077
 20
168.0473683723
 30
0.0
 11
1601.8573763145
 21
172.4558156761
 31
0.0
  0
LINE
  5
4F2
100
AcDbEntity
  8
L1_100
  6
DASHED
 62
         2
100
AcDbLine
 10
1590.7385065795
 20
172.9973683723
 30
0.0
 11
1593.2837248171
 21
177.4058156761
 31
0.0
  0
LINE
  5
4F3
100
AcDbEntity
  8
L1_100
  6
CONTINUOUS
 62
         7
100
AcDbLine
 10
1426.0983403763
 20
155.1346417294
 30
0.0
 11
1408.0083403763
 21
155.1346417294
 31
0.0
  0
LINE
  5
4F4
100
AcDbEntity
  8
L1_100
  6
CONTINUOUS
 62
         7
100
AcDbLine
 10
1426.0983403763
 20
145.2346417294
 30
0.0
 11
1408.0083403763
 21
145.2346417294
 31
0.0
  0
ARC
  5
4F5
100
AcDbEntity
  8
L1_100
  6
CONTINUOUS
 62
         7
100
AcDbCircle
 10
1408.0083403763
 20
150.1846417294
 30
0.0
 40
4.95
100
AcDbArc
 50
90.0
 51
270.0
  0
ARC
  5
4F6
100
AcDbEntity
  8
L1_100
  6
CONTINUOUS
 62
         7
100
AcDbCircle
 10
1426.0983403763
 20
150.1846417294
 30
0.0
 40
4.95
100
AcDbArc
 50
270.0
 51
450.0
  0
LINE
  5
4F7
100
AcDbEntity
  8
L1_100
  6
CONTINUOUS
 62
         7
100
AcDbLine
 10
1431.0483403763
 20
11.0566652593
 30
0.0
 11
1431.0483403763
 21
16.0566652593
 31
0.0
  0
LINE
  5
4F8
100
AcDbEntity
  8
L1_100
  6
CONTINUOUS
 62
         7
100
AcDbLine
 10
1403.0583403763
 20
11.0566652593
 30
0.0
 11
1403.0583403763
 21
16.0566652593
 31
0.0
  0
DIMENSION
  5
4FB
100
AcDbEntity
  8
L1_100
  6
CONTINUOUS
 62
         4
100
AcDbDimension
  2
*D20
 10
1447.1033403763
 20
-81.6427520553
 30
0.0
 11
1396.0460004431
 21
-78.5107520553
 31
0.0
  3
DIMSTYLE1
100
AcDbAlignedDimension
 13
1447.1033403763
 23
-38.9086807647
 33
0.0
 14
1349.1030155108
 24
-15.4433347407
 34
0.0
100
AcDbRotatedDimension
  0
ARC
  5
507
100
AcDbEntity
  8
L1_100
  6
CONTINUOUS
 62
         7
100
AcDbCircle
 10
1368.1033403763
 20
4.0566652593
 30
0.0
 40
1.0
100
AcDbArc
 50
90.0
 51
180.0
  0
ARC
  5
508
100
AcDbEntity
  8
L1_100
  6
CONTINUOUS
 62
         7
100
AcDbCircle
 10
1368.1033403763
 20
-29.9433347407
 30
0.0
 40
1.0
100
AcDbArc
 50
180.0
 51
270.0
  0
ARC
  5
509
100
AcDbEntity
  8
L1_100
  6
CONTINUOUS
 62
         7
100
AcDbCircle
 10
1395.1057015658
 20
-36.4433347407
 30
0.0
 40
1.0
100
AcDbArc
 50
180.0
 51
270.0
  0
ARC
  5
50A
100
AcDbEntity
  8
L1_100
  6
CONTINUOUS
 62
         7
100
AcDbCircle
 10
1395.1057015658
 20
10.5566652593
 30
0.0
 40
1.0
100
AcDbArc
 50
90.0
 51
180.0
  0
LINE
  5
50B
100
AcDbEntity
  8
L1_100
  6
CONTINUOUS
 62
         7
100
AcDbLine
 10
1367.1033403763
 20
-9.4433347407
 30
0.0
 11
1366.1033403763
 21
-10.4433347407
 31
0.0
  0
LINE
  5
50C
100
AcDbEntity
  8
L1_100
  6
CONTINUOUS
 62
         4
100
AcDbLine
 10
1366.1033403763
 20
-15.4433347407
 30
0.0
 11
1366.1033403763
 21
-10.4433347407
 31
0.0
  0
LINE
  5
50D
100
AcDbEntity
  8
L1_100
  6
CONTINUOUS
 62
         7
100
AcDbLine
 10
1366.1033403763
 20
-15.4433347407
 30
0.0
 11
1367.1033403763
 21
-16.4433347407
 31
0.0
  0
LINE
  5
50E
100
AcDbEntity
  8
L1_100
  6
CONTINUOUS
 62
         7
100
AcDbLine
 10
1445.6033403763
 20
-36.9433347407
 30
0.0
 11
1399.1057015658
 21
-36.9433347407
 31
0.0
  0
LINE
  5
50F
100
AcDbEntity
  8
L1_100
  6
CONTINUOUS
 62
         4
100
AcDbLine
 10
1445.6033403763
 20
-36.9433347407
 30
0.0
 11
1445.6033403763
 21
11.0566652593
 31
0.0
  0
ARC
  5
510
100
AcDbEntity
  8
L1_100
  6
CONTINUOUS
 62
         7
100
AcDbCircle
 10
1445.6033403763
 20
-38.4433347407
 30
0.0
 40
1.5
100
AcDbArc
 50
0.0
 51
90.0
  0
LINE
  5
511
100
AcDbEntity
  8
L1_100
  6
CONTINUOUS
 62
         7
100
AcDbLine
 10
1445.6033403763
 20
11.0566652593
 30
0.0
 11
1399.1057015658
 21
11.0566652593
 31
0.0
  0
ARC
  5
512
100
AcDbEntity
  8
L1_100
  6
CONTINUOUS
 62
         7
100
AcDbCircle
 10
1445.6033403763
 20
12.5566652593
 30
0.0
 40
1.5
100
AcDbArc
 50
270.0
 51
360.0
  0
DIMENSION
  5
515
100
AcDbEntity
  8
L1_100
  6
CONTINUOUS
 62
         4
100
AcDbDimension
  2
*D21
 10
1447.1033403763
 20
205.5132409314
 30
0.0
 11
1412.9022068822
 21
208.6452409314
 31
0.0
  3
DIMSTYLE1
100
AcDbAlignedDimension
 13
1447.1033403763
 23
174.5691716756
 33
0.0
 14
1396.1033403763
 24
180.6846417294
 34
0.0
100
AcDbRotatedDimension
  0
DIMENSION
  5
523
100
AcDbEntity
  8
L1_100
  6
CONTINUOUS
 62
         4
100
AcDbDimension
  2
*D22
 10
1436.1033403763
 20
191.6669754401
 30
0.0
 11
1422.8810390001
 21
194.7989754401
 31
0.0
  3
DIMSTYLE1
100
AcDbAlignedDimension
 13
1436.1033403763
 23
179.1846417294
 33
0.0
 14
1438.1033403763
 24
179.1846417294
 34
0.0
100
AcDbRotatedDimension
  0
DIMENSION
  5
533
100
AcDbEntity
  8
L1_100
  6
CONTINUOUS
 62
         4
100
AcDbDimension
  2
*D23
 10
1447.1033403763
 20
196.6837382993
 30
0.0
 11
1433.3705993477
 21
199.8157382993
 31
0.0
  3
DIMSTYLE1
100
AcDbAlignedDimension
 13
1447.1033403763
 23
174.5691716756
 33
0.0
 14
1436.1033403763
 24
179.1846417294
 34
0.0
100
AcDbRotatedDimension
  0
DIMENSION
  5
541
100
AcDbEntity
  8
L1_100
  6
CONTINUOUS
 62
         4
100
AcDbDimension
  2
*D24
 10
1417.0658763225
 20
155.1346417294
 30
0.0
 11
1413.9338763225
 21
101.63836813
 31
0.0
  3
DIMSTYLE1
100
AcDbAlignedDimension
 13
1408.0083403763
 23
155.1346417294
 33
0.0
 14
1408.0083403763
 24
145.2346417294
 34
0.0
 50
90.0
100
AcDbRotatedDimension
  0
DIMENSION
  5
550
100
AcDbEntity
  8
L1_100
  6
CONTINUOUS
 62
         4
100
AcDbDimension
  2
*D25
 10
1447.1033403763
 20
100.5306055178
 30
0.0
 11
1418.2473021024
 21
103.6626055178
 31
0.0
  3
DIMSTYLE1
100
AcDbAlignedDimension
 13
1447.1033403763
 23
125.8001117832
 33
0.0
 14
1408.0083403763
 24
142.3499119489
 34
0.0
100
AcDbRotatedDimension
  0
DIMENSION
  5
55E
100
AcDbEntity
  8
L1_100
  6
CONTINUOUS
 62
         4
100
AcDbDimension
  2
*D26
 10
1426.0983403763
 20
110.4110370841
 30
0.0
 11
1429.8223564216
 21
113.5430370841
 31
0.0
  3
DIMSTYLE1
100
AcDbAlignedDimension
 13
1426.0983403763
 23
142.3499119521
 33
0.0
 14
1447.1033403763
 24
125.8001117832
 34
0.0
100
AcDbRotatedDimension
  0
DIMENSION
  5
56C
100
AcDbEntity
  8
L1_100
  6
CONTINUOUS
 62
         4
100
AcDbDimension
  2
*D27
 10
1469.4772817214
 20
178.1846417294
 30
0.0
 11
1466.3452817214
 21
141.4326489033
 31
0.0
  3
DIMSTYLE1
100
AcDbAlignedDimension
 13
1438.1033403763
 23
178.1846417294
 33
0.0
 14
1438.1033403763
 24
122.1846417294
 34
0.0
 50
90.0
100
AcDbRotatedDimension
  0
DIMENSION
  5
57A
100
AcDbEntity
  8
L1_100
  6
CONTINUOUS
 62
         4
100
AcDbDimension
  2
*D28
 10
1477.9037032094
 20
179.1846417294
 30
0.0
 11
1474.7717032094
 21
141.4506685019
 31
0.0
  3
DIMSTYLE1
100
AcDbAlignedDimension
 13
1438.6432133573
 23
179.1846417294
 33
0.0
 14
1438.1033403763
 24
121.1846417294
 34
0.0
 50
90.0
100
AcDbRotatedDimension
  0
DIMENSION
  5
588
100
AcDbEntity
  8
L1_100
  6
CONTINUOUS
 62
         4
100
AcDbDimension
  2
*D29
 10
1447.1033403763
 20
-73.3005499354
 30
0.0
 11
1405.0455441161
 21
-70.1685499354
 31
0.0
  3
DIMSTYLE1
100
AcDbAlignedDimension
 13
1447.1033403763
 23
-37.3278646868
 33
0.0
 14
1367.1033403763
 24
-30.9433347407
 34
0.0
100
AcDbRotatedDimension
  0
DIMENSION
  5
596
100
AcDbEntity
  8
L1_100
  6
CONTINUOUS
 62
         4
100
AcDbDimension
  2
*D30
 10
1394.1057015658
 20
-63.7158921806
 30
0.0
 11
1414.0977208845
 21
-60.5838921806
 31
0.0
  3
DIMSTYLE1
100
AcDbAlignedDimension
 13
1394.1057015658
 23
-37.4433347407
 33
0.0
 14
1447.1033403763
 24
-37.7886342023
 34
0.0
100
AcDbRotatedDimension
  0
DIMENSION
  5
5A4
100
AcDbEntity
  8
L1_100
  6
CONTINUOUS
 62
         4
100
AcDbDimension
  2
*D31
 10
1463.0390544535
 20
4.5566652593
 30
0.0
 11
1461.0140544535
 21
-19.8342330444
 31
0.0
  3
DIMSTYLE1
100
AcDbAlignedDimension
 13
1393.1057015658
 23
4.5566652593
 33
0.0
 14
1393.1057015658
 24
-30.4433347407
 34
0.0
 50
90.0
100
AcDbRotatedDimension
  0
DIMENSION
  5
5B2
100
AcDbEntity
  8
L1_100
  6
CONTINUOUS
 62
         4
100
AcDbDimension
  2
*D32
 10
1481.8871677832
 20
11.0566652593
 30
0.0
 11
1479.8621677832
 21
-20.3134223664
 31
0.0
  3
DIMSTYLE1
100
AcDbAlignedDimension
 13
1446.9033403763
 23
11.0566652593
 33
0.0
 14
1446.9033403763
 24
-36.9433347407
 34
0.0
 50
90.0
100
AcDbRotatedDimension
  0
DIMENSION
  5
5C0
100
AcDbEntity
  8
L1_100
  6
CONTINUOUS
 62
         4
100
AcDbDimension
  2
*D33
 10
1403.0583403763
 20
22.5276946084
 30
0.0
 11
1411.4283403763
 21
25.6596946084
 31
0.0
  3
DIMSTYLE1
100
AcDbAlignedDimension
 13
1403.0583403763
 23
16.0566652593
 33
0.0
 14
1431.0483403763
 24
16.0566652593
 34
0.0
100
AcDbRotatedDimension
  0
TEXT
  5
5CD
100
AcDbEntity
  8
L1_100
  6
CONTINUOUS
 62
         2
100
AcDbText
 10
1567.8551181589
 20
224.3704784082
 30
0.0
 40
4.5
  1
534524
 41
0.98
  7
BOX
100
AcDbText
  0
ENDSEC
  0
SECTION
  2
OBJECTS
  0
DICTIONARY
  5
19
100
AcDbDictionary
  3
ACAD_GROUP
350
1A
  3
ACAD_MLINESTYLE
350
1B
  0
DICTIONARY
  5
1A
102
{ACAD_REACTORS
330
19
102
}
100
AcDbDictionary
  0
DICTIONARY
  5
1B
102
{ACAD_REACTORS
330
19
102
}
100
AcDbDictionary
  3
STANDARD
350
1C
  0
MLINESTYLE
  5
1C
102
{ACAD_REACTORS
330
1B
102
}
100
AcDbMlineStyle
  2
STANDARD
 70
         0
  3

 62
         0
 51
90.0
 52
90.0
 71
         2
 49
0.5
 62
       256
  6
BYLAYER
 49
-0.5
 62
       256
  6
BYLAYER
  0
ENDSEC
  0
EOF
