  0
SECTION
  2
HEADER
  9
$ACADVER
  1
AC1014
  9
$ACADMAINTVER
 70
         0
  9
$DWGCODEPAGE
  3
BIG5
  9
$INSBASE
 10
0.0
 20
0.0
 30
0.0
  9
$EXTMIN
 10
1137.77865627
 20
-40.9176548337
 30
0.0
  9
$EXTMAX
 10
1703.4806611309
 20
244.291749507
 30
0.0
  9
$LIMMIN
 10
0.0
 20
0.0
  9
$LIMMAX
 10
0.0
 20
0.0
  9
$ORTHOMODE
 70
         0
  9
$REGENMODE
 70
         1
  9
$FILLMODE
 70
         1
  9
$QTEXTMODE
 70
         0
  9
$MIRRTEXT
 70
         1
  9
$DRAGMODE
 70
         2
  9
$LTSCALE
 40
1.0
  9
$OSMODE
 70
         0
  9
$ATTMODE
 70
         1
  9
$TEXTSIZE
 40
1.0
  9
$TRACEWID
 40
0.05
  9
$TEXTSTYLE
  7
STANDARD
  9
$CLAYER
  8
0
  9
$CELTYPE
  6
CONTINUOUS
  9
$CECOLOR
 62
        16
  9
$CELTSCALE
 40
1.0
  9
$DELOBJ
 70
         1
  9
$DISPSILH
 70
         0
  9
$DIMSCALE
 40
1.0
  9
$DIMASZ
 40
0.18
  9
$DIMEXO
 40
0.0625
  9
$DIMDLI
 40
0.38
  9
$DIMRND
 40
0.0
  9
$DIMDLE
 40
0.0
  9
$DIMEXE
 40
0.25
  9
$DIMTP
 40
0.01
  9
$DIMTM
 40
-0.01
  9
$DIMTXT
 40
2.7
  9
$DIMCEN
 40
0.09
  9
$DIMTSZ
 40
0.0
  9
$DIMTOL
 70
         0
  9
$DIMLIM
 70
         0
  9
$DIMTIH
 70
         1
  9
$DIMTOH
 70
         1
  9
$DIMSE1
 70
         0
  9
$DIMSE2
 70
         0
  9
$DIMTAD
 70
         0
  9
$DIMZIN
 70
         0
  9
$DIMBLK
  1

  9
$DIMASO
 70
         1
  9
$DIMSHO
 70
         1
  9
$DIMPOST
  1

  9
$DIMAPOST
  1

  9
$DIMALT
 70
         0
  9
$DIMALTD
 70
         2
  9
$DIMALTF
 40
25.4
  9
$DIMLFAC
 40
1.0
  9
$DIMTOFL
 70
         0
  9
$DIMTVP
 40
0.0
  9
$DIMTIX
 70
         0
  9
$DIMSOXD
 70
         0
  9
$DIMSAH
 70
         0
  9
$DIMBLK1
  1

  9
$DIMBLK2
  1

  9
$DIMSTYLE
  2
STANDARD
  9
$DIMCLRD
 70
         0
  9
$DIMCLRE
 70
         0
  9
$DIMCLRT
 70
        16
  9
$DIMTFAC
 40
1.0
  9
$DIMGAP
 40
0.09
  9
$DIMJUST
 70
         0
  9
$DIMSD1
 70
         0
  9
$DIMSD2
 70
         0
  9
$DIMTOLJ
 70
         1
  9
$DIMTZIN
 70
         0
  9
$DIMALTZ
 70
         0
  9
$DIMALTTZ
 70
         0
  9
$DIMFIT
 70
         3
  9
$DIMUPT
 70
         0
  9
$DIMUNIT
 70
         2
  9
$DIMDEC
 70
         4
  9
$DIMTDEC
 70
         4
  9
$DIMALTU
 70
         2
  9
$DIMALTTD
 70
         2
  9
$DIMTXSTY
  7
STANDARD
  9
$DIMAUNIT
 70
         0
  9
$LUNITS
 70
         2
  9
$LUPREC
 70
        10
  9
$SKETCHINC
 40
0.1
  9
$FILLETRAD
 40
0.0
  9
$AUNITS
 70
         0
  9
$AUPREC
 70
         0
  9
$MENU
  1
acad
  9
$ELEVATION
 40
0.0
  9
$PELEVATION
 40
0.0
  9
$THICKNESS
 40
0.0
  9
$LIMCHECK
 70
         0
  9
$BLIPMODE
 70
         1
  9
$CHAMFERA
 40
0.0
  9
$CHAMFERB
 40
0.0
  9
$CHAMFERC
 40
0.0
  9
$CHAMFERD
 40
0.0
  9
$SKPOLY
 70
         0
  9
$TDCREATE
 40
0.000000000
  9
$TDUPDATE
 40
0.000000000
  9
$TDINDWG
 40
0.0000000000
  9
$TDUSRTIMER
 40
0.0000000000
  9
$USRTIMER
 70
         1
  9
$ANGBASE
 50
0.0
  9
$ANGDIR
 70
         0
  9
$PDMODE
 70
         2
  9
$PDSIZE
 40
0.0
  9
$PLINEWID
 40
0.0
  9
$COORDS
 70
         1
  9
$SPLFRAME
 70
         0
  9
$SPLINETYPE
 70
         6
  9
$SPLINESEGS
 70
         8
  9
$ATTDIA
 70
         0
  9
$ATTREQ
 70
         1
  9
$HANDLING
 70
         1
  9
$HANDSEED
  5
54C
  9
$SURFTAB1
 70
         6
  9
$SURFTAB2
 70
         6
  9
$SURFTYPE
 70
         6
  9
$SURFU
 70
         6
  9
$SURFV
 70
         6
  9
$UCSNAME
  2

  9
$UCSORG
 10
0.0
 20
0.0
 30
0.0
  9
$UCSXDIR
 10
1.0
 20
0.0
 30
0.0
  9
$UCSYDIR
 10
0.0
 20
1.0
 30
0.0
  9
$PUCSNAME
  2

  9
$PUCSORG
 10
0.0
 20
0.0
 30
0.0
  9
$PUCSXDIR
 10
1.0
 20
0.0
 30
0.0
  9
$PUCSYDIR
 10
0.0
 20
1.0
 30
0.0
  9
$USERI1
 70
         0
  9
$USERI2
 70
         0
  9
$USERI3
 70
         0
  9
$USERI4
 70
         0
  9
$USERI5
 70
         0
  9
$USERR1
 40
0.0
  9
$USERR2
 40
0.0
  9
$USERR3
 40
0.0
  9
$USERR4
 40
0.0
  9
$USERR5
 40
0.0
  9
$WORLDVIEW
 70
         1
  9
$SHADEDGE
 70
         3
  9
$SHADEDIF
 70
        70
  9
$TILEMODE
 70
         1
  9
$MAXACTVP
 70
        16
  9
$PINSBASE
 10
0.0
 20
0.0
 30
0.0
  9
$PLIMCHECK
 70
         0
  9
$PEXTMIN
 10
1.0000000000E+20
 20
1.0000000000E+20
 30
1.0000000000E+20
  9
$PEXTMAX
 10
-1.0000000000E+20
 20
-1.0000000000E+20
 30
-1.0000000000E+20
  9
$PLIMMIN
 10
0.0
 20
0.0
  9
$PLIMMAX
 10
12.0
 20
9.0
  9
$UNITMODE
 70
         0
  9
$VISRETAIN
 70
         0
  9
$PLINEGEN
 70
         1
  9
$PSLTSCALE
 70
         0
  9
$TREEDEPTH
 70
      3020
  9
$PICKSTYLE
 70
         1
  9
$CMLSTYLE
  2
STANDARD
  9
$CMLJUST
 70
         0
  9
$CMLSCALE
 40
1.0
  9
$PROXYGRAPHICS
 70
         0
  9
$MEASUREMENT
 70
         0
  0
ENDSEC
  0
SECTION
  2
CLASSES
  0
CLASS
  1
LWPOLYLINE
  2
AcDbPolyline
  3
"AutoCAD"
 90
        0
280
         0
281
         1
  0
CLASS
  1
IMAGE
  2
AcDbRasterImage
  3
ISM
 90
      127
280
         0
281
         1
  0
CLASS
  1
OLE2FRAME
  2
AcDbOle2Frame
  3
""
 90
        0
280
         0
281
         1
  0
CLASS
  1
HATCH
  2
AcDbHatch
  3
"ACAD_SEDONA"
 90
        0
280
         0
281
         1
  0
CLASS
  1
DICTIONARYVAR
  2
AcDbDictionaryVar
  3
"AutoCAD"
 90
        0
280
         0
281
         0
  0
CLASS
  1
RASTERVARIABLES
  2
AcDbRasterVariables
  3
ISM
 90
        0
280
         0
281
         0
  0
CLASS
  1
IMAGEDEF
  2
AcDbRasterImageDef
  3
ISM
 90
        0
280
         0
281
         0
  0
CLASS
  1
IMAGEDEF_REACTOR
  2
AcDbRasterImageDefReactor
  3
ISM
 90
        1
280
         0
281
         0
  0
CLASS
  1
IDBUFFER
  2
AcDbIdBuffer
  3
"Acad"
 90
        0
280
         0
281
         0
  0
CLASS
  1
SPATIAL_FILTER
  2
AcDbSpatialFilter
  3
"Acad"
 90
        0
280
         0
281
         0
  0
CLASS
  1
XRECORD
  2
AcDbXrecord
  3
"<Built In>"
 90
        0
280
         0
281
         0
  0
CLASS
  1
SORTENTSTABLE
  2
AcDbSortentsTable
  3
"AutoCAD"
 90
        0
280
         0
281
         0
  0
CLASS
  1
LAYER_INDEX
  2
AcDbLayerIndex
  3
"Acad"
 90
        0
280
         0
281
         0
  0
CLASS
  1
SPATIAL_INDEX
  2
AcDbSpatialIndex
  3
"Acad"
 90
        0
280
         0
281
         0
  0
CLASS
  1
OBJECT_PTR
  2
CAseDLPNTableRecord
  3
"ASE-LPNTableRecord"
 90
        1
280
         0
281
         0
  0
CLASS
  1
LAYOUT
  2
AcDbLayout
  3
"AutoCAD 2000"
 90
        1
280
         0
281
         0
  0
CLASS
  1
PLOTSETTINGS
  2
AcDbPlotSettings
  3
"AutoCAD 2000"
 90
        1
280
         0
281
         0
  0
CLASS
  1
ACDBDICTIONARYWDFLT
  2
AcDbDictionaryWithDefault
  3
"AutoCAD 2000"
 90
        1
280
         0
281
         0
  0
CLASS
  1
ACDBPLACEHOLDER
  2
AcDbPlaceHolder
  3
"AutoCAD 2000"
 90
        1
280
         0
281
         0
  0
CLASS
  1
VBA_PROJECT
  2
AcDbVbaProject
  3
"acadvba"
 90
        1
280
         0
281
         0
  0
CLASS
  1
WIPEOUT
  2
AcDbWipeout
  3
WipeOut|AutoCAD Express Tool|expresstools@autodesk.com
 90
      127
280
         0
281
         1
  0
CLASS
  1
WIPEOUTVARIABLES
  2
AcDbWipeoutVariables
  3
WipeOut|AutoCAD Express Tool|expresstools@autodesk.com
 90
        0
280
         0
281
         0
  0
CLASS
  1
RTEXT
  2
RText
  3
RText|AutoCAD Express Tool|expresstools@autodesk.com
 90
        0
280
         0
281
         1
  0
CLASS
  1
ARCALIGNEDTEXT
  2
AcDbArcAlignedText
  3
ATEXT|AutoCAD Express Tool|expresstools@autodesk.com
 90
        0
280
         0
281
         1
  0
ENDSEC
  0
SECTION
  2
TABLES
  0
TABLE
  2
VPORT
  5
7
100
AcDbSymbolTable
 70
         1
  0
VPORT
  5
15
100
AcDbSymbolTableRecord
100
AcDbViewportTableRecord
  2
*ACTIVE
 70
         0
 10
0.0
 20
0.0
 11
1.0
 21
1.0
 12
1420.6296587004
 22
101.6870473367
 13
0.0
 23
0.0
 14
1.0
 24
1.0
 15
0.0
 25
0.0
 16
0.0
 26
0.0
 36
1.0
 17
0.0
 27
0.0
 37
0.0
 40
285.2094043407
 41
1.9834619625
 42
50.0
 43
0.0
 44
0.0
 50
0.0
 51
0.0
 71
         0
 72
       100
 73
         1
 74
         1
 75
         0
 76
         0
 77
         0
 78
         0
  0
ENDTAB
  0
TABLE
  2
LTYPE
  5
4
100
AcDbSymbolTable
 70
         6
  0
LTYPE
  5
11
100
AcDbSymbolTableRecord
100
AcDbLinetypeTableRecord
  2
BYBLOCK
 70
        64
  3

 72
        65
 73
         0
 40
0.0
  0
LTYPE
  5
12
100
AcDbSymbolTableRecord
100
AcDbLinetypeTableRecord
  2
BYLAYER
 70
        64
  3

 72
        65
 73
         0
 40
0.0
  0
LTYPE
  5
13
100
AcDbSymbolTableRecord
100
AcDbLinetypeTableRecord
  2
CONTINUOUS
 70
        64
  3
Solid line
 72
        65
 73
         0
 40
0.0
  0
LTYPE
  5
1D
100
AcDbSymbolTableRecord
100
AcDbLinetypeTableRecord
  2
DASHED
 70
        64
  3
_ _ _ _ _ _ _ _ _ _ _ _ _ _ _ _
 72
        65
 73
         2
 40
0.2
 49
0.1
 74
         0
 49
-0.1
 74
         0
  0
LTYPE
  5
1E
100
AcDbSymbolTableRecord
100
AcDbLinetypeTableRecord
  2
CENTER
 70
        64
  3
___ _ ___ _ ___ _ ___ _ ___ _ ___ _ ___ _ ___ _
 72
        65
 73
         4
 40
0.95
 49
0.625
 74
         0
 49
-0.125
 74
         0
 49
0.075
 74
         0
 49
-0.125
 74
         0
  0
LTYPE
  5
1F
100
AcDbSymbolTableRecord
100
AcDbLinetypeTableRecord
  2
PHANTOM
 70
        64
  3
______  __  __  ______  __  __  ______  __  __  
 72
        65
 73
         6
 40
1.025
 49
0.625
 74
         0
 49
-0.125
 74
         0
 49
0.075
 74
         0
 49
-0.125
 74
         0
 49
0.075
 74
         0
 49
-0.125
 74
         0
  0
ENDTAB
  0
TABLE
  2
LAYER
  5
2
100
AcDbSymbolTable
 70
         5
  0
LAYER
  5
14
100
AcDbSymbolTableRecord
100
AcDbLayerTableRecord
  2
0
 70
         0
 62
         7
  6
CONTINUOUS
  0
LAYER
  5
21
100
AcDbSymbolTableRecord
100
AcDbLayerTableRecord
  2
_____U
 70
         1
 62
         7
  6
CONTINUOUS
  0
LAYER
  5
22
100
AcDbSymbolTableRecord
100
AcDbLayerTableRecord
  2
_Y__________
 70
         0
 62
         7
  6
CONTINUOUS
  0
LAYER
  5
23
100
AcDbSymbolTableRecord
100
AcDbLayerTableRecord
  2
L1_55
 70
         0
 62
         7
  6
CONTINUOUS
  0
LAYER
  5
99
100
AcDbSymbolTableRecord
100
AcDbLayerTableRecord
  2
DEFPOINTS
 70
         0
 62
        -7
  6
CONTINUOUS
  0
ENDTAB
  0
TABLE
  2
STYLE
  5
3
100
AcDbSymbolTable
 70
        22
  0
STYLE
  5
17
100
AcDbSymbolTableRecord
100
AcDbTextStyleTableRecord
  2
STANDARD
 70
         0
 40
0.0
 41
1.0
 50
0.0
 71
         0
 42
0.0
  3
txt
  4

  0
STYLE
  5
A2
100
AcDbSymbolTableRecord
100
AcDbTextStyleTableRecord
  2
BOX
 70
         0
 40
1.0
 41
1.0
 50
0.0
 71
         0
 42
0.2
  3
txt.shx
  4

  0
STYLE
  5
B1
100
AcDbSymbolTableRecord
100
AcDbTextStyleTableRecord
  2
BOX
 70
         0
 40
1.0
 41
1.0
 50
0.0
 71
         0
 42
0.2
  3
txt.shx
  4

  0
STYLE
  5
BF
100
AcDbSymbolTableRecord
100
AcDbTextStyleTableRecord
  2
BOX
 70
         0
 40
1.0
 41
1.0
 50
0.0
 71
         0
 42
0.2
  3
txt.shx
  4

  0
STYLE
  5
104
100
AcDbSymbolTableRecord
100
AcDbTextStyleTableRecord
  2
BOX
 70
         0
 40
1.0
 41
1.0
 50
0.0
 71
         0
 42
0.2
  3
txt.shx
  4

  0
STYLE
  5
27E
100
AcDbSymbolTableRecord
100
AcDbTextStyleTableRecord
  2
BOX
 70
         0
 40
1.0
 41
1.0
 50
0.0
 71
         0
 42
0.2
  3
txt.shx
  4

  0
STYLE
  5
28C
100
AcDbSymbolTableRecord
100
AcDbTextStyleTableRecord
  2
BOX
 70
         0
 40
1.0
 41
1.0
 50
0.0
 71
         0
 42
0.2
  3
txt.shx
  4

  0
STYLE
  5
48C
100
AcDbSymbolTableRecord
100
AcDbTextStyleTableRecord
  2
BOX
 70
         0
 40
1.0
 41
1.0
 50
0.0
 71
         0
 42
0.2
  3
txt.shx
  4

  0
STYLE
  5
49A
100
AcDbSymbolTableRecord
100
AcDbTextStyleTableRecord
  2
BOX
 70
         0
 40
1.0
 41
1.0
 50
0.0
 71
         0
 42
0.2
  3
txt.shx
  4

  0
STYLE
  5
4A9
100
AcDbSymbolTableRecord
100
AcDbTextStyleTableRecord
  2
BOX
 70
         0
 40
1.0
 41
1.0
 50
0.0
 71
         0
 42
0.2
  3
txt.shx
  4

  0
STYLE
  5
4B8
100
AcDbSymbolTableRecord
100
AcDbTextStyleTableRecord
  2
BOX
 70
         0
 40
1.0
 41
1.0
 50
0.0
 71
         0
 42
0.2
  3
txt.shx
  4

  0
STYLE
  5
4C7
100
AcDbSymbolTableRecord
100
AcDbTextStyleTableRecord
  2
BOX
 70
         0
 40
1.0
 41
1.0
 50
0.0
 71
         0
 42
0.2
  3
txt.shx
  4

  0
STYLE
  5
4D6
100
AcDbSymbolTableRecord
100
AcDbTextStyleTableRecord
  2
BOX
 70
         0
 40
1.0
 41
1.0
 50
0.0
 71
         0
 42
0.2
  3
txt.shx
  4

  0
STYLE
  5
4E4
100
AcDbSymbolTableRecord
100
AcDbTextStyleTableRecord
  2
BOX
 70
         0
 40
1.0
 41
1.0
 50
0.0
 71
         0
 42
0.2
  3
txt.shx
  4

  0
STYLE
  5
4F2
100
AcDbSymbolTableRecord
100
AcDbTextStyleTableRecord
  2
BOX
 70
         0
 40
1.0
 41
1.0
 50
0.0
 71
         0
 42
0.2
  3
txt.shx
  4

  0
STYLE
  5
500
100
AcDbSymbolTableRecord
100
AcDbTextStyleTableRecord
  2
BOX
 70
         0
 40
1.0
 41
1.0
 50
0.0
 71
         0
 42
0.2
  3
txt.shx
  4

  0
STYLE
  5
50E
100
AcDbSymbolTableRecord
100
AcDbTextStyleTableRecord
  2
BOX
 70
         0
 40
1.0
 41
1.0
 50
0.0
 71
         0
 42
0.2
  3
txt.shx
  4

  0
STYLE
  5
51D
100
AcDbSymbolTableRecord
100
AcDbTextStyleTableRecord
  2
BOX
 70
         0
 40
1.0
 41
1.0
 50
0.0
 71
         0
 42
0.2
  3
txt.shx
  4

  0
STYLE
  5
52B
100
AcDbSymbolTableRecord
100
AcDbTextStyleTableRecord
  2
BOX
 70
         0
 40
1.0
 41
1.0
 50
0.0
 71
         0
 42
0.2
  3
txt.shx
  4

  0
STYLE
  5
539
100
AcDbSymbolTableRecord
100
AcDbTextStyleTableRecord
  2
BOX
 70
         0
 40
1.0
 41
1.0
 50
0.0
 71
         0
 42
0.2
  3
txt.shx
  4

  0
STYLE
  5
547
100
AcDbSymbolTableRecord
100
AcDbTextStyleTableRecord
  2
BOX
 70
         0
 40
1.0
 41
1.0
 50
0.0
 71
         0
 42
0.2
  3
txt.shx
  4

  0
STYLE
  5
54A
100
AcDbSymbolTableRecord
100
AcDbTextStyleTableRecord
  2
BOX
 70
         0
 40
1.0
 41
1.0
 50
0.0
 71
         0
 42
0.2
  3
txt.shx
  4

  0
ENDTAB
  0
TABLE
  2
VIEW
  5
5
100
AcDbSymbolTable
 70
         0
  0
ENDTAB
  0
TABLE
  2
UCS
  5
6
100
AcDbSymbolTable
 70
         1
  0
UCS
  5
20
100
AcDbSymbolTableRecord
100
AcDbUCSTableRecord
  2
CK_VIEW_1
 70
         0
 10
0.0
 20
0.0
 30
1.0
 11
1.0
 21
0.0
 31
0.0
 12
0.0
 22
1.0
 32
0.0
  0
ENDTAB
  0
TABLE
  2
APPID
  5
8
100
AcDbSymbolTable
 70
         1
  0
APPID
  5
16
100
AcDbSymbolTableRecord
100
AcDbRegAppTableRecord
  2
ACAD
 70
         0
  0
ENDTAB
  0
TABLE
  2
DIMSTYLE
  5
9
100
AcDbSymbolTable
 70
         3
  0
DIMSTYLE
105
18
100
AcDbSymbolTableRecord
100
AcDbDimStyleTableRecord
  2
STANDARD
 70
         0
  3

  4

  5

  6

  7

 40
1.0
 41
0.18
 42
0.0625
 43
0.38
 44
0.18
 45
0.0
 46
0.0
 47
0.0
 48
0.0
 71
         0
 72
         0
 73
         1
 74
         1
 75
         0
 76
         0
 77
         0
 78
         0
140
0.18
141
0.09
142
0.0
143
25.4
144
1.0
145
0.0
146
1.0
147
0.09
170
         0
171
         2
172
         0
173
         0
174
         0
175
         0
176
         0
177
         0
178
         0
270
         2
271
         4
272
         4
273
         2
274
         2
275
         0
280
         0
281
         0
282
         0
283
         1
284
         0
285
         0
286
         0
287
         0
288
         0
340
17
  0
DIMSTYLE
105
95
100
AcDbSymbolTableRecord
100
AcDbDimStyleTableRecord
  2
DIMSTYLE1
 70
         0
  3

  4

  5

  6

  7

 40
1.0
 41
2.7
 42
0.0625
 43
0.38
 44
2.7
 45
0.0
 46
0.0
 47
0.0
 48
0.0
 71
         0
 72
         0
 73
         1
 74
         1
 75
         0
 76
         0
 77
         0
 78
         0
140
2.7
141
0.09
142
0.0
143
25.4
144
1.0
145
0.0
146
1.0
147
0.09
170
         0
171
         2
172
         0
173
         0
174
         0
175
         0
176
         0
177
         0
178
         0
270
         2
271
         4
272
         4
273
         2
274
         2
275
         0
280
         0
281
         0
282
         0
283
         1
284
         0
285
         0
286
         0
287
         0
288
         0
340
17
  0
DIMSTYLE
105
B4
100
AcDbSymbolTableRecord
100
AcDbDimStyleTableRecord
  2
DIMSTYLE2
 70
         0
  3

  4

  5

  6

  7

 40
1.0
 41
2.6666666664
 42
0.0625
 43
0.38
 44
2.6666666664
 45
0.0
 46
0.0
 47
0.0
 48
0.0
 71
         0
 72
         0
 73
         1
 74
         1
 75
         0
 76
         0
 77
         0
 78
         0
140
2.6666666664
141
0.09
142
0.0
143
25.4
144
1.0
145
0.0
146
1.0
147
0.09
170
         0
171
         2
172
         0
173
         0
174
         0
175
         0
176
         0
177
         0
178
         0
270
         2
271
         4
272
         4
273
         2
274
         2
275
         0
280
         0
281
         0
282
         0
283
         1
284
         0
285
         0
286
         0
287
         0
288
         0
340
17
  0
ENDTAB
  0
TABLE
  2
BLOCK_RECORD
  5
1
100
AcDbSymbolTable
 70
        21
  0
BLOCK_RECORD
  5
A
100
AcDbSymbolTableRecord
100
AcDbBlockTableRecord
  2
*MODEL_SPACE
  0
BLOCK_RECORD
  5
B
100
AcDbSymbolTableRecord
100
AcDbBlockTableRecord
  2
*PAPER_SPACE
  0
BLOCK_RECORD
  5
96
100
AcDbSymbolTableRecord
100
AcDbBlockTableRecord
  2
*D0
  0
BLOCK_RECORD
  5
A6
100
AcDbSymbolTableRecord
100
AcDbBlockTableRecord
  2
*D1
  0
BLOCK_RECORD
  5
B5
100
AcDbSymbolTableRecord
100
AcDbBlockTableRecord
  2
*D2
  0
BLOCK_RECORD
  5
FB
100
AcDbSymbolTableRecord
100
AcDbBlockTableRecord
  2
*D3
  0
BLOCK_RECORD
  5
273
100
AcDbSymbolTableRecord
100
AcDbBlockTableRecord
  2
*D4
  0
BLOCK_RECORD
  5
281
100
AcDbSymbolTableRecord
100
AcDbBlockTableRecord
  2
*D5
  0
BLOCK_RECORD
  5
45D
100
AcDbSymbolTableRecord
100
AcDbBlockTableRecord
  2
*X6
  0
BLOCK_RECORD
  5
481
100
AcDbSymbolTableRecord
100
AcDbBlockTableRecord
  2
*D7
  0
BLOCK_RECORD
  5
48F
100
AcDbSymbolTableRecord
100
AcDbBlockTableRecord
  2
*D8
  0
BLOCK_RECORD
  5
49D
100
AcDbSymbolTableRecord
100
AcDbBlockTableRecord
  2
*D9
  0
BLOCK_RECORD
  5
4AC
100
AcDbSymbolTableRecord
100
AcDbBlockTableRecord
  2
*D10
  0
BLOCK_RECORD
  5
4BB
100
AcDbSymbolTableRecord
100
AcDbBlockTableRecord
  2
*D11
  0
BLOCK_RECORD
  5
4CA
100
AcDbSymbolTableRecord
100
AcDbBlockTableRecord
  2
*D12
  0
BLOCK_RECORD
  5
4D9
100
AcDbSymbolTableRecord
100
AcDbBlockTableRecord
  2
*D13
  0
BLOCK_RECORD
  5
4E7
100
AcDbSymbolTableRecord
100
AcDbBlockTableRecord
  2
*D14
  0
BLOCK_RECORD
  5
4F5
100
AcDbSymbolTableRecord
100
AcDbBlockTableRecord
  2
*D15
  0
BLOCK_RECORD
  5
503
100
AcDbSymbolTableRecord
100
AcDbBlockTableRecord
  2
*D16
  0
BLOCK_RECORD
  5
511
100
AcDbSymbolTableRecord
100
AcDbBlockTableRecord
  2
*D17
  0
BLOCK_RECORD
  5
520
100
AcDbSymbolTableRecord
100
AcDbBlockTableRecord
  2
*D18
  0
BLOCK_RECORD
  5
52E
100
AcDbSymbolTableRecord
100
AcDbBlockTableRecord
  2
*D19
  0
BLOCK_RECORD
  5
53C
100
AcDbSymbolTableRecord
100
AcDbBlockTableRecord
  2
*D20
  0
ENDTAB
  0
ENDSEC
  0
SECTION
  2
BLOCKS
  0
BLOCK
  5
D
100
AcDbEntity
  8
0
100
AcDbBlockBegin
  2
*MODEL_SPACE
 70
         0
 10
0.0
 20
0.0
 30
0.0
  3
*MODEL_SPACE
  1

  0
ENDBLK
  5
E
100
AcDbEntity
  8
0
100
AcDbBlockEnd
  0
BLOCK
  5
F
100
AcDbEntity
 67
         1
  8
0
100
AcDbBlockBegin
  2
*PAPER_SPACE
 70
         0
 10
0.0
 20
0.0
 30
0.0
  3
*PAPER_SPACE
  1

  0
ENDBLK
  5
10
100
AcDbEntity
 67
         1
  8
0
100
AcDbBlockEnd
  0
BLOCK
  5
97
100
AcDbEntity
  8
0
100
AcDbBlockBegin
  2
*D0
 70
        65
 10
0.0
 20
0.0
 30
0.0
  3
*D0
  1

  0
POINT
  5
9A
100
AcDbEntity
  8
DEFPOINTS
  6
CONTINUOUS
 62
         0
100
AcDbPoint
 10
1537.5684575441
 20
96.3139192169
 30
0.0
  0
POINT
  5
9B
100
AcDbEntity
  8
DEFPOINTS
  6
CONTINUOUS
 62
         0
100
AcDbPoint
 10
1561.9002748864
 20
96.3139192169
 30
0.0
  0
POINT
  5
9C
100
AcDbEntity
  8
DEFPOINTS
  6
CONTINUOUS
 62
         0
100
AcDbPoint
 10
1561.9002748864
 20
37.3139192169
 30
0.0
  0
LINE
  5
9D
100
AcDbEntity
  8
L1_55
  6
CONTINUOUS
 62
         4
100
AcDbLine
 10
1560.5502748864
 20
96.3139192169
 30
0.0
 11
1536.8934575441
 21
96.3139192169
 31
0.0
  0
LINE
  5
9E
100
AcDbEntity
  8
L1_55
  6
CONTINUOUS
 62
         4
100
AcDbLine
 10
1560.5502748864
 20
37.3139192169
 30
0.0
 11
1536.8934575441
 21
37.3139192169
 31
0.0
  0
LINE
  5
9F
100
AcDbEntity
  8
L1_55
  6
CONTINUOUS
 62
         4
100
AcDbLine
 10
1537.5684575441
 20
96.3139192169
 30
0.0
 11
1537.5684575441
 21
37.3139192169
 31
0.0
  0
SOLID
  5
A0
100
AcDbEntity
  8
L1_55
  6
CONTINUOUS
 62
         4
100
AcDbTrace
 10
1537.5684575441
 20
96.3139192169
 30
0.0
 11
1537.9734575441
 21
93.6139192169
 31
0.0
 12
1537.1634575441
 22
93.6139192169
 32
0.0
 13
1537.5684575441
 23
96.3139192169
 33
0.0
  0
SOLID
  5
A1
100
AcDbEntity
  8
L1_55
  6
CONTINUOUS
 62
         4
100
AcDbTrace
 10
1537.5684575441
 20
37.3139192169
 30
0.0
 11
1537.1634575441
 21
40.0139192169
 31
0.0
 12
1537.9734575441
 22
40.0139192169
 32
0.0
 13
1537.5684575441
 23
37.3139192169
 33
0.0
  0
TEXT
  5
A3
100
AcDbEntity
  8
L1_55
  6
CONTINUOUS
 62
         4
100
AcDbText
 10
1535.5434575441
 20
58.1651276124
 30
0.0
 40
2.7
  1
崷59
 50
90.0
  7
BOX
100
AcDbText
  0
ENDBLK
  5
A4
100
AcDbEntity
  8
0
  6
CONTINUOUS
100
AcDbBlockEnd
  0
BLOCK
  5
A7
100
AcDbEntity
  8
0
100
AcDbBlockBegin
  2
*D1
 70
        65
 10
0.0
 20
0.0
 30
0.0
  3
*D1
  1

  0
POINT
  5
A9
100
AcDbEntity
  8
DEFPOINTS
  6
CONTINUOUS
 62
         0
100
AcDbPoint
 10
1606.4002748864
 20
102.6826816094
 30
0.0
  0
POINT
  5
AA
100
AcDbEntity
  8
DEFPOINTS
  6
CONTINUOUS
 62
         0
100
AcDbPoint
 10
1606.4002748864
 20
94.8139192169
 30
0.0
  0
POINT
  5
AB
100
AcDbEntity
  8
DEFPOINTS
  6
CONTINUOUS
 62
         0
100
AcDbPoint
 10
1546.4002748864
 20
94.8139192169
 30
0.0
  0
LINE
  5
AC
100
AcDbEntity
  8
L1_55
  6
CONTINUOUS
 62
         4
100
AcDbLine
 10
1606.4002748864
 20
96.1639192169
 30
0.0
 11
1606.4002748864
 21
103.3576816094
 31
0.0
  0
LINE
  5
AD
100
AcDbEntity
  8
L1_55
  6
CONTINUOUS
 62
         4
100
AcDbLine
 10
1546.4002748864
 20
96.1639192169
 30
0.0
 11
1546.4002748864
 21
103.3576816094
 31
0.0
  0
LINE
  5
AE
100
AcDbEntity
  8
L1_55
  6
CONTINUOUS
 62
         4
100
AcDbLine
 10
1606.4002748864
 20
102.6826816094
 30
0.0
 11
1546.4002748864
 21
102.6826816094
 31
0.0
  0
SOLID
  5
AF
100
AcDbEntity
  8
L1_55
  6
CONTINUOUS
 62
         4
100
AcDbTrace
 10
1606.4002748864
 20
102.6826816094
 30
0.0
 11
1603.7002748864
 21
102.2776816094
 31
0.0
 12
1603.7002748864
 22
103.0876816094
 32
0.0
 13
1606.4002748864
 23
102.6826816094
 33
0.0
  0
SOLID
  5
B0
100
AcDbEntity
  8
L1_55
  6
CONTINUOUS
 62
         4
100
AcDbTrace
 10
1546.4002748864
 20
102.6826816094
 30
0.0
 11
1549.1002748864
 21
103.0876816094
 31
0.0
 12
1549.1002748864
 22
102.2776816094
 32
0.0
 13
1546.4002748864
 23
102.6826816094
 33
0.0
  0
TEXT
  5
B2
100
AcDbEntity
  8
L1_55
  6
CONTINUOUS
 62
         4
100
AcDbText
 10
1572.9496077851
 20
104.7076816094
 30
0.0
 40
2.7
  1
60
  7
BOX
100
AcDbText
  0
ENDBLK
  5
B3
100
AcDbEntity
  8
0
  6
CONTINUOUS
100
AcDbBlockEnd
  0
BLOCK
  5
B6
100
AcDbEntity
  8
0
100
AcDbBlockBegin
  2
*D2
 70
        65
 10
0.0
 20
0.0
 30
0.0
  3
*D2
  1

  0
POINT
  5
B8
100
AcDbEntity
  8
DEFPOINTS
  6
CONTINUOUS
 62
         0
100
AcDbPoint
 10
1650.9745678968
 20
68.0033877402
 30
0.0
  0
POINT
  5
B9
100
AcDbEntity
  8
DEFPOINTS
  6
CONTINUOUS
 62
         0
100
AcDbPoint
 10
1656.7984614918
 20
70.53415114
 30
0.0
  0
LINE
  5
BA
100
AcDbEntity
  8
L1_55
  6
CONTINUOUS
 62
         4
100
AcDbLine
 10
1656.7984614918
 20
70.53415114
 30
0.0
 11
1677.7669336372
 21
79.6459662841
 31
0.0
  0
SOLID
  5
BB
100
AcDbEntity
  8
L1_55
  6
CONTINUOUS
 62
         4
100
AcDbTrace
 10
1656.7984614918
 20
70.53415114
 30
0.0
 11
1659.0847729185
 21
71.9637983585
 31
0.0
 12
1659.4036092524
 22
71.2300794804
 32
0.0
 13
1656.7984614918
 23
70.53415114
 33
0.0
  0
LINE
  5
BC
100
AcDbEntity
  8
L1_55
  6
CONTINUOUS
 62
         4
100
AcDbLine
 10
1650.9745678968
 20
68.0033877402
 30
0.0
 11
1646.0831087093
 21
65.8778121812
 31
0.0
  0
SOLID
  5
BD
100
AcDbEntity
  8
L1_55
  6
CONTINUOUS
 62
         4
100
AcDbTrace
 10
1650.9745678968
 20
68.0033877402
 30
0.0
 11
1648.68825647
 21
66.5737405216
 31
0.0
 12
1648.3694201361
 22
67.3074593997
 32
0.0
 13
1650.9745678968
 23
68.0033877402
 33
0.0
  0
LINE
  5
BE
100
AcDbEntity
  8
L1_55
  6
CONTINUOUS
 62
         4
100
AcDbLine
 10
1650.9745678968
 20
68.0033877402
 30
0.0
 11
1656.7984614918
 21
70.53415114
 31
0.0
  0
TEXT
  5
C0
100
AcDbEntity
  8
L1_55
  6
CONTINUOUS
 62
         4
100
AcDbText
 10
1661.5881550984
 20
74.0523946612
 30
0.0
 40
2.6666666664
  1
崷6.35
 50
23.487276937
  7
BOX
100
AcDbText
  0
ENDBLK
  5
C1
100
AcDbEntity
  8
0
  6
CONTINUOUS
100
AcDbBlockEnd
  0
BLOCK
  5
FC
100
AcDbEntity
  8
0
100
AcDbBlockBegin
  2
*D3
 70
        65
 10
0.0
 20
0.0
 30
0.0
  3
*D3
  1

  0
POINT
  5
FE
100
AcDbEntity
  8
DEFPOINTS
  6
CONTINUOUS
 62
         0
100
AcDbPoint
 10
1665.9270836746
 20
10.6035869964
 30
0.0
  0
POINT
  5
FF
100
AcDbEntity
  8
DEFPOINTS
  6
CONTINUOUS
 62
         0
100
AcDbPoint
 10
1635.5610022099
 20
-10.1835102888
 30
0.0
  0
LINE
  5
100
100
AcDbEntity
  8
L1_55
  6
CONTINUOUS
 62
         4
100
AcDbLine
 10
1635.5610022099
 20
-10.1835102888
 30
0.0
 11
1650.7440429423
 21
0.2100383538
 31
0.0
  0
SOLID
  5
101
100
AcDbEntity
  8
L1_55
  6
CONTINUOUS
 62
         4
100
AcDbTrace
 10
1635.5610022099
 20
-10.1835102888
 30
0.0
 11
1637.5602051759
 21
-8.3241522004
 31
0.0
 12
1638.0177536287
 22
-8.9925453581
 32
0.0
 13
1635.5610022099
 23
-10.1835102888
 33
0.0
  0
LINE
  5
102
100
AcDbEntity
  8
L1_55
  6
CONTINUOUS
 62
         4
100
AcDbLine
 10
1665.9270836746
 20
10.6035869964
 30
0.0
 11
1650.7440429423
 21
0.2100383538
 31
0.0
  0
SOLID
  5
103
100
AcDbEntity
  8
L1_55
  6
CONTINUOUS
 62
         4
100
AcDbTrace
 10
1665.9270836746
 20
10.6035869964
 30
0.0
 11
1663.9278807087
 21
8.7442289079
 31
0.0
 12
1663.4703322558
 22
9.4126220656
 32
0.0
 13
1665.9270836746
 23
10.6035869964
 33
0.0
  0
TEXT
  5
105
100
AcDbEntity
  8
L1_55
  6
CONTINUOUS
 62
         4
100
AcDbText
 10
1653.597694359
 20
3.6877416353
 30
0.0
 40
2.7
  1
崷37
 50
34.3935860674
  7
BOX
100
AcDbText
  0
ENDBLK
  5
106
100
AcDbEntity
  8
0
  6
CONTINUOUS
100
AcDbBlockEnd
  0
BLOCK
  5
274
100
AcDbEntity
  8
0
100
AcDbBlockBegin
  2
*D4
 70
        65
 10
0.0
 20
0.0
 30
0.0
  3
*D4
  1

  0
POINT
  5
276
100
AcDbEntity
  8
DEFPOINTS
  6
CONTINUOUS
 62
         0
100
AcDbPoint
 10
1241.2033403763
 20
216.7781906858
 30
0.0
  0
POINT
  5
277
100
AcDbEntity
  8
DEFPOINTS
  6
CONTINUOUS
 62
         0
100
AcDbPoint
 10
1241.2033403763
 20
161.3846417294
 30
0.0
  0
POINT
  5
278
100
AcDbEntity
  8
DEFPOINTS
  6
CONTINUOUS
 62
         0
100
AcDbPoint
 10
1354.1033403763
 20
169.6846417294
 30
0.0
  0
LINE
  5
279
100
AcDbEntity
  8
L1_55
  6
CONTINUOUS
 62
         4
100
AcDbLine
 10
1241.2033403763
 20
162.7346417294
 30
0.0
 11
1241.2033403763
 21
217.4531906858
 31
0.0
  0
LINE
  5
27A
100
AcDbEntity
  8
L1_55
  6
CONTINUOUS
 62
         4
100
AcDbLine
 10
1354.1033403763
 20
171.0346417294
 30
0.0
 11
1354.1033403763
 21
217.4531906858
 31
0.0
  0
LINE
  5
27B
100
AcDbEntity
  8
L1_55
  6
CONTINUOUS
 62
         4
100
AcDbLine
 10
1241.2033403763
 20
216.7781906858
 30
0.0
 11
1354.1033403763
 21
216.7781906858
 31
0.0
  0
SOLID
  5
27C
100
AcDbEntity
  8
L1_55
  6
CONTINUOUS
 62
         4
100
AcDbTrace
 10
1241.2033403763
 20
216.7781906858
 30
0.0
 11
1243.9033403763
 21
217.1831906858
 31
0.0
 12
1243.9033403763
 22
216.3731906858
 32
0.0
 13
1241.2033403763
 23
216.7781906858
 33
0.0
  0
SOLID
  5
27D
100
AcDbEntity
  8
L1_55
  6
CONTINUOUS
 62
         4
100
AcDbTrace
 10
1354.1033403763
 20
216.7781906858
 30
0.0
 11
1351.4033403763
 21
216.3731906858
 31
0.0
 12
1351.4033403763
 22
217.1831906858
 32
0.0
 13
1354.1033403763
 23
216.7781906858
 33
0.0
  0
TEXT
  5
27F
100
AcDbEntity
  8
L1_55
  6
CONTINUOUS
 62
         4
100
AcDbText
 10
1289.7436968128
 20
218.8031906858
 30
0.0
 40
2.7
  1
112.9
  7
BOX
100
AcDbText
  0
ENDBLK
  5
280
100
AcDbEntity
  8
0
  6
CONTINUOUS
100
AcDbBlockEnd
  0
BLOCK
  5
282
100
AcDbEntity
  8
0
100
AcDbBlockBegin
  2
*D5
 70
        65
 10
0.0
 20
0.0
 30
0.0
  3
*D5
  1

  0
POINT
  5
284
100
AcDbEntity
  8
DEFPOINTS
  6
CONTINUOUS
 62
         0
100
AcDbPoint
 10
1299.1033403763
 20
209.1174111078
 30
0.0
  0
POINT
  5
285
100
AcDbEntity
  8
DEFPOINTS
  6
CONTINUOUS
 62
         0
100
AcDbPoint
 10
1299.1033403763
 20
172.6846417294
 30
0.0
  0
POINT
  5
286
100
AcDbEntity
  8
DEFPOINTS
  6
CONTINUOUS
 62
         0
100
AcDbPoint
 10
1354.1033403763
 20
169.6846417294
 30
0.0
  0
LINE
  5
287
100
AcDbEntity
  8
L1_55
  6
CONTINUOUS
 62
         4
100
AcDbLine
 10
1299.1033403763
 20
174.0346417294
 30
0.0
 11
1299.1033403763
 21
209.7924111078
 31
0.0
  0
LINE
  5
288
100
AcDbEntity
  8
L1_55
  6
CONTINUOUS
 62
         4
100
AcDbLine
 10
1354.1033403763
 20
171.0346417294
 30
0.0
 11
1354.1033403763
 21
209.7924111078
 31
0.0
  0
LINE
  5
289
100
AcDbEntity
  8
L1_55
  6
CONTINUOUS
 62
         4
100
AcDbLine
 10
1299.1033403763
 20
209.1174111078
 30
0.0
 11
1354.1033403763
 21
209.1174111078
 31
0.0
  0
SOLID
  5
28A
100
AcDbEntity
  8
L1_55
  6
CONTINUOUS
 62
         4
100
AcDbTrace
 10
1299.1033403763
 20
209.1174111078
 30
0.0
 11
1301.8033403763
 21
209.5224111078
 31
0.0
 12
1301.8033403763
 22
208.7124111078
 32
0.0
 13
1299.1033403763
 23
209.1174111078
 33
0.0
  0
SOLID
  5
28B
100
AcDbEntity
  8
L1_55
  6
CONTINUOUS
 62
         4
100
AcDbTrace
 10
1354.1033403763
 20
209.1174111078
 30
0.0
 11
1351.4033403763
 21
208.7124111078
 31
0.0
 12
1351.4033403763
 22
209.5224111078
 32
0.0
 13
1354.1033403763
 23
209.1174111078
 33
0.0
  0
TEXT
  5
28D
100
AcDbEntity
  8
L1_55
  6
CONTINUOUS
 62
         4
100
AcDbText
 10
1325.5634003571
 20
211.1424111078
 30
0.0
 40
2.7
  1
55
  7
BOX
100
AcDbText
  0
ENDBLK
  5
28E
100
AcDbEntity
  8
0
  6
CONTINUOUS
100
AcDbBlockEnd
  0
BLOCK
  5
45E
100
AcDbEntity
  8
0
100
AcDbBlockBegin
  2
*X6
 70
        65
 10
0.0
 20
0.0
 30
0.0
  3
*X6
  1

  0
LINE
  5
45F
100
AcDbEntity
  8
L1_55
  6
CONTINUOUS
 62
         4
100
AcDbLine
 10
1353.1319437388
 20
27.0566652593
 30
0.0
 11
1354.1033403763
 21
28.0280618968
 31
0.0
  0
LINE
  5
460
100
AcDbEntity
  8
L1_55
  6
CONTINUOUS
 62
         4
100
AcDbLine
 10
1348.8893030517
 20
27.0566652593
 30
0.0
 11
1353.1147286983
 21
31.282090906
 31
0.0
  0
LINE
  5
461
100
AcDbEntity
  8
L1_55
  6
CONTINUOUS
 62
         4
100
AcDbLine
 10
1344.6466623645
 20
27.0566652593
 30
0.0
 11
1349.1466623645
 21
31.5566652593
 31
0.0
  0
LINE
  5
462
100
AcDbEntity
  8
L1_55
  6
CONTINUOUS
 62
         4
100
AcDbLine
 10
1340.4040216774
 20
27.0566652593
 30
0.0
 11
1344.9040216774
 21
31.5566652593
 31
0.0
  0
LINE
  5
463
100
AcDbEntity
  8
L1_55
  6
CONTINUOUS
 62
         4
100
AcDbLine
 10
1336.1613809903
 20
27.0566652593
 30
0.0
 11
1340.6613809903
 21
31.5566652593
 31
0.0
  0
LINE
  5
464
100
AcDbEntity
  8
L1_55
  6
CONTINUOUS
 62
         4
100
AcDbLine
 10
1331.9187403032
 20
27.0566652593
 30
0.0
 11
1336.4187403032
 21
31.5566652593
 31
0.0
  0
LINE
  5
465
100
AcDbEntity
  8
L1_55
  6
CONTINUOUS
 62
         4
100
AcDbLine
 10
1328.1533403759
 20
27.5339060192
 30
0.0
 11
1332.1760996161
 21
31.5566652593
 31
0.0
  0
LINE
  5
466
100
AcDbEntity
  8
L1_55
  6
CONTINUOUS
 62
         4
100
AcDbLine
 10
1319.1908182418
 20
27.0566652593
 30
0.0
 11
1321.6533403766
 21
29.5191873941
 31
0.0
  0
LINE
  5
467
100
AcDbEntity
  8
L1_55
  6
CONTINUOUS
 62
         4
100
AcDbLine
 10
1314.4481775547
 20
26.5566652593
 30
0.0
 11
1319.4481775547
 21
31.5566652593
 31
0.0
  0
LINE
  5
468
100
AcDbEntity
  8
L1_55
  6
CONTINUOUS
 62
         4
100
AcDbLine
 10
1350.4481775547
 20
62.5566652593
 30
0.0
 11
1354.1033403763
 21
66.2118280809
 31
0.0
  0
LINE
  5
469
100
AcDbEntity
  8
L1_55
  6
CONTINUOUS
 62
         4
100
AcDbLine
 10
1310.2055368676
 20
26.5566652593
 30
0.0
 11
1314.7055368676
 21
31.0566652593
 31
0.0
  0
LINE
  5
46A
100
AcDbEntity
  8
L1_55
  6
CONTINUOUS
 62
         4
100
AcDbLine
 10
1346.2055368676
 20
62.5566652593
 30
0.0
 11
1350.7055368676
 21
67.0566652593
 31
0.0
  0
LINE
  5
46B
100
AcDbEntity
  8
L1_55
  6
CONTINUOUS
 62
         4
100
AcDbLine
 10
1303.4628961805
 20
24.0566652593
 30
0.0
 11
1312.3198834252
 21
32.9136525041
 31
0.0
  0
LINE
  5
46C
100
AcDbEntity
  8
L1_55
  6
CONTINUOUS
 62
         4
100
AcDbLine
 10
1341.9628961805
 20
62.5566652593
 30
0.0
 11
1345.6533403763
 21
66.2471094551
 31
0.0
  0
LINE
  5
46D
100
AcDbEntity
  8
L1_55
  6
CONTINUOUS
 62
         4
100
AcDbLine
 10
1299.3131108059
 20
24.1495205719
 30
0.0
 11
1310.7669691546
 21
35.6033789206
 31
0.0
  0
LINE
  5
46E
100
AcDbEntity
  8
L1_55
  6
CONTINUOUS
 62
         4
100
AcDbLine
 10
1337.7202554933
 20
62.5566652593
 30
0.0
 11
1342.2202554933
 21
67.0566652593
 31
0.0
  0
LINE
  5
46F
100
AcDbEntity
  8
L1_55
  6
CONTINUOUS
 62
         4
100
AcDbLine
 10
1299.1033403763
 20
28.1823908294
 30
0.0
 11
1309.214054884
 21
38.2931053371
 31
0.0
  0
LINE
  5
470
100
AcDbEntity
  8
L1_55
  6
CONTINUOUS
 62
         4
100
AcDbLine
 10
1333.4776148062
 20
62.5566652593
 30
0.0
 11
1337.9776148062
 21
67.0566652593
 31
0.0
  0
LINE
  5
471
100
AcDbEntity
  8
L1_55
  6
CONTINUOUS
 62
         4
100
AcDbLine
 10
1299.1033403763
 20
32.4250315165
 30
0.0
 11
1307.6611406134
 21
40.9828317536
 31
0.0
  0
LINE
  5
472
100
AcDbEntity
  8
L1_55
  6
CONTINUOUS
 62
         4
100
AcDbLine
 10
1329.2349741191
 20
62.5566652593
 30
0.0
 11
1333.7349741191
 21
67.0566652593
 31
0.0
  0
LINE
  5
473
100
AcDbEntity
  8
L1_55
  6
CONTINUOUS
 62
         4
100
AcDbLine
 10
1299.1033403763
 20
36.6676722036
 30
0.0
 11
1306.1082263427
 21
43.6725581701
 31
0.0
  0
LINE
  5
474
100
AcDbEntity
  8
L1_55
  6
CONTINUOUS
 62
         4
100
AcDbLine
 10
1328.1533403759
 20
65.7176722033
 30
0.0
 11
1329.492333432
 21
67.0566652593
 31
0.0
  0
LINE
  5
475
100
AcDbEntity
  8
L1_55
  6
CONTINUOUS
 62
         4
100
AcDbLine
 10
1299.1033403763
 20
40.9103128907
 30
0.0
 11
1304.5553120721
 21
46.3622845866
 31
0.0
  0
LINE
  5
476
100
AcDbEntity
  8
L1_55
  6
CONTINUOUS
 62
         4
100
AcDbLine
 10
1320.7496927449
 20
62.5566652593
 30
0.0
 11
1321.6533403766
 21
63.460312891
 31
0.0
  0
LINE
  5
477
100
AcDbEntity
  8
L1_55
  6
CONTINUOUS
 62
         4
100
AcDbLine
 10
1299.1033403763
 20
45.1529535778
 30
0.0
 11
1308.4537837522
 21
54.5033969538
 31
0.0
  0
LINE
  5
478
100
AcDbEntity
  8
L1_55
  6
CONTINUOUS
 62
         4
100
AcDbLine
 10
1317.0070520577
 20
63.0566652593
 30
0.0
 11
1321.0070520577
 21
67.0566652593
 31
0.0
  0
LINE
  5
479
100
AcDbEntity
  8
L1_55
  6
CONTINUOUS
 62
         4
100
AcDbLine
 10
1299.1033403763
 20
49.395594265
 30
0.0
 11
1316.7644113706
 21
67.0566652593
 31
0.0
  0
LINE
  5
47A
100
AcDbEntity
  8
L1_55
  6
CONTINUOUS
 62
         4
100
AcDbLine
 10
1299.1033403763
 20
53.6382349521
 30
0.0
 11
1313.0217706835
 21
67.5566652593
 31
0.0
  0
LINE
  5
47B
100
AcDbEntity
  8
L1_55
  6
CONTINUOUS
 62
         4
100
AcDbLine
 10
1299.1033403763
 20
57.8808756392
 30
0.0
 11
1308.7791299964
 21
67.5566652593
 31
0.0
  0
LINE
  5
47C
100
AcDbEntity
  8
L1_55
  6
CONTINUOUS
 62
         4
100
AcDbLine
 10
1299.1033403763
 20
62.1235163263
 30
0.0
 11
1306.8199148428
 21
69.8400907928
 31
0.0
  0
LINE
  5
47D
100
AcDbEntity
  8
L1_55
  6
CONTINUOUS
 62
         4
100
AcDbLine
 10
1299.1033403763
 20
66.3661570134
 30
0.0
 11
1302.7938486221
 21
70.0566652593
 31
0.0
  0
ENDBLK
  5
47E
100
AcDbEntity
  8
0
  6
CONTINUOUS
100
AcDbBlockEnd
  0
BLOCK
  5
482
100
AcDbEntity
  8
0
100
AcDbBlockBegin
  2
*D7
 70
        65
 10
0.0
 20
0.0
 30
0.0
  3
*D7
  1

  0
POINT
  5
484
100
AcDbEntity
  8
DEFPOINTS
  6
CONTINUOUS
 62
         0
100
AcDbPoint
 10
1354.1033403763
 20
199.7170409188
 30
0.0
  0
POINT
  5
485
100
AcDbEntity
  8
DEFPOINTS
  6
CONTINUOUS
 62
         0
100
AcDbPoint
 10
1354.1033403763
 20
169.6846417294
 30
0.0
  0
POINT
  5
486
100
AcDbEntity
  8
DEFPOINTS
  6
CONTINUOUS
 62
         0
100
AcDbPoint
 10
1307.1033403763
 20
172.6846417294
 30
0.0
  0
LINE
  5
487
100
AcDbEntity
  8
L1_55
  6
CONTINUOUS
 62
         4
100
AcDbLine
 10
1354.1033403763
 20
171.0346417294
 30
0.0
 11
1354.1033403763
 21
200.3920409188
 31
0.0
  0
LINE
  5
488
100
AcDbEntity
  8
L1_55
  6
CONTINUOUS
 62
         4
100
AcDbLine
 10
1307.1033403763
 20
174.0346417294
 30
0.0
 11
1307.1033403763
 21
200.3920409188
 31
0.0
  0
LINE
  5
489
100
AcDbEntity
  8
L1_55
  6
CONTINUOUS
 62
         4
100
AcDbLine
 10
1354.1033403763
 20
199.7170409188
 30
0.0
 11
1307.1033403763
 21
199.7170409188
 31
0.0
  0
SOLID
  5
48A
100
AcDbEntity
  8
L1_55
  6
CONTINUOUS
 62
         4
100
AcDbTrace
 10
1354.1033403763
 20
199.7170409188
 30
0.0
 11
1351.4033403763
 21
199.3120409188
 31
0.0
 12
1351.4033403763
 22
200.1220409188
 32
0.0
 13
1354.1033403763
 23
199.7170409188
 33
0.0
  0
SOLID
  5
48B
100
AcDbEntity
  8
L1_55
  6
CONTINUOUS
 62
         4
100
AcDbTrace
 10
1307.1033403763
 20
199.7170409188
 30
0.0
 11
1309.8033403763
 21
200.1220409188
 31
0.0
 12
1309.8033403763
 22
199.3120409188
 32
0.0
 13
1307.1033403763
 23
199.7170409188
 33
0.0
  0
TEXT
  5
48D
100
AcDbEntity
  8
L1_55
  6
CONTINUOUS
 62
         4
100
AcDbText
 10
1325.3976545391
 20
202.8490409188
 30
0.0
 40
2.7
  1
47
  7
BOX
100
AcDbText
  0
ENDBLK
  5
48E
100
AcDbEntity
  8
0
  6
CONTINUOUS
100
AcDbBlockEnd
  0
BLOCK
  5
490
100
AcDbEntity
  8
0
100
AcDbBlockBegin
  2
*D8
 70
        65
 10
0.0
 20
0.0
 30
0.0
  3
*D8
  1

  0
POINT
  5
492
100
AcDbEntity
  8
DEFPOINTS
  6
CONTINUOUS
 62
         0
100
AcDbPoint
 10
1354.1033403763
 20
192.2116249201
 30
0.0
  0
POINT
  5
493
100
AcDbEntity
  8
DEFPOINTS
  6
CONTINUOUS
 62
         0
100
AcDbPoint
 10
1354.1033403763
 20
169.6846417294
 30
0.0
  0
POINT
  5
494
100
AcDbEntity
  8
DEFPOINTS
  6
CONTINUOUS
 62
         0
100
AcDbPoint
 10
1315.3533403763
 20
170.4846417294
 30
0.0
  0
LINE
  5
495
100
AcDbEntity
  8
L1_55
  6
CONTINUOUS
 62
         4
100
AcDbLine
 10
1354.1033403763
 20
171.0346417294
 30
0.0
 11
1354.1033403763
 21
192.8866249201
 31
0.0
  0
LINE
  5
496
100
AcDbEntity
  8
L1_55
  6
CONTINUOUS
 62
         4
100
AcDbLine
 10
1315.3533403763
 20
171.8346417294
 30
0.0
 11
1315.3533403763
 21
192.8866249201
 31
0.0
  0
LINE
  5
497
100
AcDbEntity
  8
L1_55
  6
CONTINUOUS
 62
         4
100
AcDbLine
 10
1354.1033403763
 20
192.2116249201
 30
0.0
 11
1315.3533403763
 21
192.2116249201
 31
0.0
  0
SOLID
  5
498
100
AcDbEntity
  8
L1_55
  6
CONTINUOUS
 62
         4
100
AcDbTrace
 10
1354.1033403763
 20
192.2116249201
 30
0.0
 11
1351.4033403763
 21
191.8066249201
 31
0.0
 12
1351.4033403763
 22
192.6166249201
 32
0.0
 13
1354.1033403763
 23
192.2116249201
 33
0.0
  0
SOLID
  5
499
100
AcDbEntity
  8
L1_55
  6
CONTINUOUS
 62
         4
100
AcDbTrace
 10
1315.3533403763
 20
192.2116249201
 30
0.0
 11
1318.0533403763
 21
192.6166249201
 31
0.0
 12
1318.0533403763
 22
191.8066249201
 32
0.0
 13
1315.3533403763
 23
192.2116249201
 33
0.0
  0
TEXT
  5
49B
100
AcDbEntity
  8
L1_55
  6
CONTINUOUS
 62
         4
100
AcDbText
 10
1323.0330812897
 20
195.3436249201
 30
0.0
 40
2.7
  1
38.75
  7
BOX
100
AcDbText
  0
ENDBLK
  5
49C
100
AcDbEntity
  8
0
  6
CONTINUOUS
100
AcDbBlockEnd
  0
BLOCK
  5
49E
100
AcDbEntity
  8
0
100
AcDbBlockBegin
  2
*D9
 70
        65
 10
0.0
 20
0.0
 30
0.0
  3
*D9
  1

  0
POINT
  5
4A0
100
AcDbEntity
  8
DEFPOINTS
  6
CONTINUOUS
 62
         0
100
AcDbPoint
 10
1354.1033403763
 20
188.5843287438
 30
0.0
  0
POINT
  5
4A1
100
AcDbEntity
  8
DEFPOINTS
  6
CONTINUOUS
 62
         0
100
AcDbPoint
 10
1354.1033403763
 20
169.6846417294
 30
0.0
  0
POINT
  5
4A2
100
AcDbEntity
  8
DEFPOINTS
  6
CONTINUOUS
 62
         0
100
AcDbPoint
 10
1345.6533403763
 20
169.1846417294
 30
0.0
  0
LINE
  5
4A3
100
AcDbEntity
  8
L1_55
  6
CONTINUOUS
 62
         4
100
AcDbLine
 10
1354.1033403763
 20
171.0346417294
 30
0.0
 11
1354.1033403763
 21
189.2593287438
 31
0.0
  0
LINE
  5
4A4
100
AcDbEntity
  8
L1_55
  6
CONTINUOUS
 62
         4
100
AcDbLine
 10
1345.6533403763
 20
170.5346417294
 30
0.0
 11
1345.6533403763
 21
189.2593287438
 31
0.0
  0
LINE
  5
4A5
100
AcDbEntity
  8
L1_55
  6
CONTINUOUS
 62
         4
100
AcDbLine
 10
1354.1033403763
 20
188.5843287438
 30
0.0
 11
1345.6533403763
 21
188.5843287438
 31
0.0
  0
SOLID
  5
4A6
100
AcDbEntity
  8
L1_55
  6
CONTINUOUS
 62
         4
100
AcDbTrace
 10
1354.1033403763
 20
188.5843287438
 30
0.0
 11
1351.4033403763
 21
188.1793287438
 31
0.0
 12
1351.4033403763
 22
188.9893287438
 32
0.0
 13
1354.1033403763
 23
188.5843287438
 33
0.0
  0
LINE
  5
4A7
100
AcDbEntity
  8
L1_55
  6
CONTINUOUS
 62
         4
100
AcDbLine
 10
1354.1033403763
 20
188.5843287438
 30
0.0
 11
1369.7873874486
 21
188.5843287438
 31
0.0
  0
SOLID
  5
4A8
100
AcDbEntity
  8
L1_55
  6
CONTINUOUS
 62
         4
100
AcDbTrace
 10
1345.6533403763
 20
188.5843287438
 30
0.0
 11
1348.3533403763
 21
188.9893287438
 31
0.0
 12
1348.3533403763
 22
188.1793287438
 32
0.0
 13
1345.6533403763
 23
188.5843287438
 33
0.0
  0
TEXT
  5
4AA
100
AcDbEntity
  8
L1_55
  6
CONTINUOUS
 62
         4
100
AcDbText
 10
1356.7373874486
 20
191.7163287438
 30
0.0
 40
2.7
  1
8.45
  7
BOX
100
AcDbText
  0
ENDBLK
  5
4AB
100
AcDbEntity
  8
0
  6
CONTINUOUS
100
AcDbBlockEnd
  0
BLOCK
  5
4AD
100
AcDbEntity
  8
0
100
AcDbBlockBegin
  2
*D10
 70
        65
 10
0.0
 20
0.0
 30
0.0
  3
*D10
  1

  0
POINT
  5
4AF
100
AcDbEntity
  8
DEFPOINTS
  6
CONTINUOUS
 62
         0
100
AcDbPoint
 10
1345.6533403763
 20
179.7595716025
 30
0.0
  0
POINT
  5
4B0
100
AcDbEntity
  8
DEFPOINTS
  6
CONTINUOUS
 62
         0
100
AcDbPoint
 10
1345.6533403763
 20
169.1846417294
 30
0.0
  0
POINT
  5
4B1
100
AcDbEntity
  8
DEFPOINTS
  6
CONTINUOUS
 62
         0
100
AcDbPoint
 10
1347.6033403763
 20
169.1846417294
 30
0.0
  0
LINE
  5
4B2
100
AcDbEntity
  8
L1_55
  6
CONTINUOUS
 62
         4
100
AcDbLine
 10
1345.6533403763
 20
170.5346417294
 30
0.0
 11
1345.6533403763
 21
180.4345716025
 31
0.0
  0
LINE
  5
4B3
100
AcDbEntity
  8
L1_55
  6
CONTINUOUS
 62
         4
100
AcDbLine
 10
1347.6033403763
 20
170.5346417294
 30
0.0
 11
1347.6033403763
 21
180.4345716025
 31
0.0
  0
LINE
  5
4B4
100
AcDbEntity
  8
L1_55
  6
CONTINUOUS
 62
         4
100
AcDbLine
 10
1345.6533403763
 20
179.7595716025
 30
0.0
 11
1347.6033403763
 21
179.7595716025
 31
0.0
  0
SOLID
  5
4B5
100
AcDbEntity
  8
L1_55
  6
CONTINUOUS
 62
         4
100
AcDbTrace
 10
1345.6533403763
 20
179.7595716025
 30
0.0
 11
1348.3533403763
 21
180.1645716025
 31
0.0
 12
1348.3533403763
 22
179.3545716025
 32
0.0
 13
1345.6533403763
 23
179.7595716025
 33
0.0
  0
LINE
  5
4B6
100
AcDbEntity
  8
L1_55
  6
CONTINUOUS
 62
         4
100
AcDbLine
 10
1347.6033403763
 20
179.7595716025
 30
0.0
 11
1369.7873874486
 21
179.7595716025
 31
0.0
  0
SOLID
  5
4B7
100
AcDbEntity
  8
L1_55
  6
CONTINUOUS
 62
         4
100
AcDbTrace
 10
1347.6033403763
 20
179.7595716025
 30
0.0
 11
1344.9033403763
 21
179.3545716025
 31
0.0
 12
1344.9033403763
 22
180.1645716025
 32
0.0
 13
1347.6033403763
 23
179.7595716025
 33
0.0
  0
TEXT
  5
4B9
100
AcDbEntity
  8
L1_55
  6
CONTINUOUS
 62
         4
100
AcDbText
 10
1356.7373874486
 20
182.8915716025
 30
0.0
 40
2.7
  1
1.95
  7
BOX
100
AcDbText
  0
ENDBLK
  5
4BA
100
AcDbEntity
  8
0
  6
CONTINUOUS
100
AcDbBlockEnd
  0
BLOCK
  5
4BC
100
AcDbEntity
  8
0
100
AcDbBlockBegin
  2
*D11
 70
        65
 10
0.0
 20
0.0
 30
0.0
  3
*D11
  1

  0
POINT
  5
4BE
100
AcDbEntity
  8
DEFPOINTS
  6
CONTINUOUS
 62
         0
100
AcDbPoint
 10
1336.5312697601
 20
169.1846417294
 30
0.0
  0
POINT
  5
4BF
100
AcDbEntity
  8
DEFPOINTS
  6
CONTINUOUS
 62
         0
100
AcDbPoint
 10
1347.6033403763
 20
169.1846417294
 30
0.0
  0
POINT
  5
4C0
100
AcDbEntity
  8
DEFPOINTS
  6
CONTINUOUS
 62
         0
100
AcDbPoint
 10
1347.6033403763
 20
131.1846417294
 30
0.0
  0
LINE
  5
4C1
100
AcDbEntity
  8
L1_55
  6
CONTINUOUS
 62
         4
100
AcDbLine
 10
1346.2533403763
 20
169.1846417294
 30
0.0
 11
1335.8562697601
 21
169.1846417294
 31
0.0
  0
LINE
  5
4C2
100
AcDbEntity
  8
L1_55
  6
CONTINUOUS
 62
         4
100
AcDbLine
 10
1346.2533403763
 20
131.1846417294
 30
0.0
 11
1335.8562697601
 21
131.1846417294
 31
0.0
  0
LINE
  5
4C3
100
AcDbEntity
  8
L1_55
  6
CONTINUOUS
 62
         4
100
AcDbLine
 10
1336.5312697601
 20
169.1846417294
 30
0.0
 11
1336.5312697601
 21
131.1846417294
 31
0.0
  0
SOLID
  5
4C4
100
AcDbEntity
  8
L1_55
  6
CONTINUOUS
 62
         4
100
AcDbTrace
 10
1336.5312697601
 20
169.1846417294
 30
0.0
 11
1336.9362697601
 21
166.4846417294
 31
0.0
 12
1336.1262697601
 22
166.4846417294
 32
0.0
 13
1336.5312697601
 23
169.1846417294
 33
0.0
  0
LINE
  5
4C5
100
AcDbEntity
  8
L1_55
  6
CONTINUOUS
 62
         4
100
AcDbLine
 10
1336.5312697601
 20
131.1846417294
 30
0.0
 11
1336.5312697601
 21
103.3323662898
 31
0.0
  0
SOLID
  5
4C6
100
AcDbEntity
  8
L1_55
  6
CONTINUOUS
 62
         4
100
AcDbTrace
 10
1336.5312697601
 20
131.1846417294
 30
0.0
 11
1336.1262697601
 21
133.8846417294
 31
0.0
 12
1336.9362697601
 22
133.8846417294
 32
0.0
 13
1336.5312697601
 23
131.1846417294
 33
0.0
  0
TEXT
  5
4C8
100
AcDbEntity
  8
L1_55
  6
CONTINUOUS
 62
         4
100
AcDbText
 10
1333.3992697601
 20
104.6823662898
 30
0.0
 40
2.7
  1
崷38
 50
90.0
  7
BOX
100
AcDbText
  0
ENDBLK
  5
4C9
100
AcDbEntity
  8
0
  6
CONTINUOUS
100
AcDbBlockEnd
  0
BLOCK
  5
4CB
100
AcDbEntity
  8
0
100
AcDbBlockBegin
  2
*D12
 70
        65
 10
0.0
 20
0.0
 30
0.0
  3
*D12
  1

  0
POINT
  5
4CD
100
AcDbEntity
  8
DEFPOINTS
  6
CONTINUOUS
 62
         0
100
AcDbPoint
 10
1311.8246895204
 20
170.6846417294
 30
0.0
  0
POINT
  5
4CE
100
AcDbEntity
  8
DEFPOINTS
  6
CONTINUOUS
 62
         0
100
AcDbPoint
 10
1314.8533403763
 20
170.6846417294
 30
0.0
  0
POINT
  5
4CF
100
AcDbEntity
  8
DEFPOINTS
  6
CONTINUOUS
 62
         0
100
AcDbPoint
 10
1314.8533403763
 20
129.6846417294
 30
0.0
  0
LINE
  5
4D0
100
AcDbEntity
  8
L1_55
  6
CONTINUOUS
 62
         4
100
AcDbLine
 10
1313.5033403763
 20
170.6846417294
 30
0.0
 11
1311.1496895204
 21
170.6846417294
 31
0.0
  0
LINE
  5
4D1
100
AcDbEntity
  8
L1_55
  6
CONTINUOUS
 62
         4
100
AcDbLine
 10
1313.5033403763
 20
129.6846417294
 30
0.0
 11
1311.1496895204
 21
129.6846417294
 31
0.0
  0
LINE
  5
4D2
100
AcDbEntity
  8
L1_55
  6
CONTINUOUS
 62
         4
100
AcDbLine
 10
1311.8246895204
 20
170.6846417294
 30
0.0
 11
1311.8246895204
 21
129.6846417294
 31
0.0
  0
SOLID
  5
4D3
100
AcDbEntity
  8
L1_55
  6
CONTINUOUS
 62
         4
100
AcDbTrace
 10
1311.8246895204
 20
170.6846417294
 30
0.0
 11
1312.2296895204
 21
167.9846417294
 31
0.0
 12
1311.4196895204
 22
167.9846417294
 32
0.0
 13
1311.8246895204
 23
170.6846417294
 33
0.0
  0
LINE
  5
4D4
100
AcDbEntity
  8
L1_55
  6
CONTINUOUS
 62
         4
100
AcDbLine
 10
1311.8246895204
 20
129.6846417294
 30
0.0
 11
1311.8246895204
 21
98.7132097763
 31
0.0
  0
SOLID
  5
4D5
100
AcDbEntity
  8
L1_55
  6
CONTINUOUS
 62
         4
100
AcDbTrace
 10
1311.8246895204
 20
129.6846417294
 30
0.0
 11
1311.4196895204
 21
132.3846417294
 31
0.0
 12
1312.2296895204
 22
132.3846417294
 32
0.0
 13
1311.8246895204
 23
129.6846417294
 33
0.0
  0
TEXT
  5
4D7
100
AcDbEntity
  8
L1_55
  6
CONTINUOUS
 62
         4
100
AcDbText
 10
1308.6926895204
 20
100.0632097763
 30
0.0
 40
2.7
  1
崷41
 50
90.0
  7
BOX
100
AcDbText
  0
ENDBLK
  5
4D8
100
AcDbEntity
  8
0
  6
CONTINUOUS
100
AcDbBlockEnd
  0
BLOCK
  5
4DA
100
AcDbEntity
  8
0
100
AcDbBlockBegin
  2
*D13
 70
        65
 10
0.0
 20
0.0
 30
0.0
  3
*D13
  1

  0
POINT
  5
4DC
100
AcDbEntity
  8
DEFPOINTS
  6
CONTINUOUS
 62
         0
100
AcDbPoint
 10
1386.4515339551
 20
170.1846417294
 30
0.0
  0
POINT
  5
4DD
100
AcDbEntity
  8
DEFPOINTS
  6
CONTINUOUS
 62
         0
100
AcDbPoint
 10
1353.6033403763
 20
170.1846417294
 30
0.0
  0
POINT
  5
4DE
100
AcDbEntity
  8
DEFPOINTS
  6
CONTINUOUS
 62
         0
100
AcDbPoint
 10
1353.6033403763
 20
130.1846417294
 30
0.0
  0
LINE
  5
4DF
100
AcDbEntity
  8
L1_55
  6
CONTINUOUS
 62
         4
100
AcDbLine
 10
1354.9533403763
 20
170.1846417294
 30
0.0
 11
1387.1265339551
 21
170.1846417294
 31
0.0
  0
LINE
  5
4E0
100
AcDbEntity
  8
L1_55
  6
CONTINUOUS
 62
         4
100
AcDbLine
 10
1354.9533403763
 20
130.1846417294
 30
0.0
 11
1387.1265339551
 21
130.1846417294
 31
0.0
  0
LINE
  5
4E1
100
AcDbEntity
  8
L1_55
  6
CONTINUOUS
 62
         4
100
AcDbLine
 10
1386.4515339551
 20
170.1846417294
 30
0.0
 11
1386.4515339551
 21
130.1846417294
 31
0.0
  0
SOLID
  5
4E2
100
AcDbEntity
  8
L1_55
  6
CONTINUOUS
 62
         4
100
AcDbTrace
 10
1386.4515339551
 20
170.1846417294
 30
0.0
 11
1386.8565339551
 21
167.4846417294
 31
0.0
 12
1386.0465339551
 22
167.4846417294
 32
0.0
 13
1386.4515339551
 23
170.1846417294
 33
0.0
  0
SOLID
  5
4E3
100
AcDbEntity
  8
L1_55
  6
CONTINUOUS
 62
         4
100
AcDbTrace
 10
1386.4515339551
 20
130.1846417294
 30
0.0
 11
1386.0465339551
 21
132.8846417294
 31
0.0
 12
1386.8565339551
 22
132.8846417294
 32
0.0
 13
1386.4515339551
 23
130.1846417294
 33
0.0
  0
TEXT
  5
4E5
100
AcDbEntity
  8
L1_55
  6
CONTINUOUS
 62
         4
100
AcDbText
 10
1383.3195339551
 20
140.5790245109
 30
0.0
 40
2.7
  1
崷40
 50
90.0
  7
BOX
100
AcDbText
  0
ENDBLK
  5
4E6
100
AcDbEntity
  8
0
  6
CONTINUOUS
100
AcDbBlockEnd
  0
BLOCK
  5
4E8
100
AcDbEntity
  8
0
100
AcDbBlockBegin
  2
*D14
 70
        65
 10
0.0
 20
0.0
 30
0.0
  3
*D14
  1

  0
POINT
  5
4EA
100
AcDbEntity
  8
DEFPOINTS
  6
CONTINUOUS
 62
         0
100
AcDbPoint
 10
1405.9993729239
 20
173.1846417294
 30
0.0
  0
POINT
  5
4EB
100
AcDbEntity
  8
DEFPOINTS
  6
CONTINUOUS
 62
         0
100
AcDbPoint
 10
1306.6033403763
 20
173.1846417294
 30
0.0
  0
POINT
  5
4EC
100
AcDbEntity
  8
DEFPOINTS
  6
CONTINUOUS
 62
         0
100
AcDbPoint
 10
1306.6033403763
 20
127.1846417294
 30
0.0
  0
LINE
  5
4ED
100
AcDbEntity
  8
L1_55
  6
CONTINUOUS
 62
         4
100
AcDbLine
 10
1307.9533403763
 20
173.1846417294
 30
0.0
 11
1406.6743729239
 21
173.1846417294
 31
0.0
  0
LINE
  5
4EE
100
AcDbEntity
  8
L1_55
  6
CONTINUOUS
 62
         4
100
AcDbLine
 10
1307.9533403763
 20
127.1846417294
 30
0.0
 11
1406.6743729239
 21
127.1846417294
 31
0.0
  0
LINE
  5
4EF
100
AcDbEntity
  8
L1_55
  6
CONTINUOUS
 62
         4
100
AcDbLine
 10
1405.9993729239
 20
173.1846417294
 30
0.0
 11
1405.9993729239
 21
127.1846417294
 31
0.0
  0
SOLID
  5
4F0
100
AcDbEntity
  8
L1_55
  6
CONTINUOUS
 62
         4
100
AcDbTrace
 10
1405.9993729239
 20
173.1846417294
 30
0.0
 11
1406.4043729239
 21
170.4846417294
 31
0.0
 12
1405.5943729239
 22
170.4846417294
 32
0.0
 13
1405.9993729239
 23
173.1846417294
 33
0.0
  0
SOLID
  5
4F1
100
AcDbEntity
  8
L1_55
  6
CONTINUOUS
 62
         4
100
AcDbTrace
 10
1405.9993729239
 20
127.1846417294
 30
0.0
 11
1405.5943729239
 21
129.8846417294
 31
0.0
 12
1406.4043729239
 22
129.8846417294
 32
0.0
 13
1405.9993729239
 23
127.1846417294
 33
0.0
  0
TEXT
  5
4F3
100
AcDbEntity
  8
L1_55
  6
CONTINUOUS
 62
         4
100
AcDbText
 10
1402.8673729239
 20
139.8692487338
 30
0.0
 40
2.7
  1
崷46
 50
90.0
  7
BOX
100
AcDbText
  0
ENDBLK
  5
4F4
100
AcDbEntity
  8
0
  6
CONTINUOUS
100
AcDbBlockEnd
  0
BLOCK
  5
4F6
100
AcDbEntity
  8
0
100
AcDbBlockBegin
  2
*D15
 70
        65
 10
0.0
 20
0.0
 30
0.0
  3
*D15
  1

  0
POINT
  5
4F8
100
AcDbEntity
  8
DEFPOINTS
  6
CONTINUOUS
 62
         0
100
AcDbPoint
 10
1354.1033403763
 20
80.066573507
 30
0.0
  0
POINT
  5
4F9
100
AcDbEntity
  8
DEFPOINTS
  6
CONTINUOUS
 62
         0
100
AcDbPoint
 10
1354.1033403763
 20
55.8066652593
 30
0.0
  0
POINT
  5
4FA
100
AcDbEntity
  8
DEFPOINTS
  6
CONTINUOUS
 62
         0
100
AcDbPoint
 10
1324.9033403763
 20
68.0827092205
 30
0.0
  0
LINE
  5
4FB
100
AcDbEntity
  8
L1_55
  6
CONTINUOUS
 62
         4
100
AcDbLine
 10
1354.1033403763
 20
57.1566652593
 30
0.0
 11
1354.1033403763
 21
80.741573507
 31
0.0
  0
LINE
  5
4FC
100
AcDbEntity
  8
L1_55
  6
CONTINUOUS
 62
         4
100
AcDbLine
 10
1324.9033403763
 20
69.4327092205
 30
0.0
 11
1324.9033403763
 21
80.741573507
 31
0.0
  0
LINE
  5
4FD
100
AcDbEntity
  8
L1_55
  6
CONTINUOUS
 62
         4
100
AcDbLine
 10
1354.1033403763
 20
80.066573507
 30
0.0
 11
1324.9033403763
 21
80.066573507
 31
0.0
  0
SOLID
  5
4FE
100
AcDbEntity
  8
L1_55
  6
CONTINUOUS
 62
         4
100
AcDbTrace
 10
1354.1033403763
 20
80.066573507
 30
0.0
 11
1351.4033403763
 21
79.661573507
 31
0.0
 12
1351.4033403763
 22
80.471573507
 32
0.0
 13
1354.1033403763
 23
80.066573507
 33
0.0
  0
SOLID
  5
4FF
100
AcDbEntity
  8
L1_55
  6
CONTINUOUS
 62
         4
100
AcDbTrace
 10
1324.9033403763
 20
80.066573507
 30
0.0
 11
1327.6033403763
 21
80.471573507
 31
0.0
 12
1327.6033403763
 22
79.661573507
 32
0.0
 13
1324.9033403763
 23
80.066573507
 33
0.0
  0
TEXT
  5
501
100
AcDbEntity
  8
L1_55
  6
CONTINUOUS
 62
         4
100
AcDbText
 10
1331.0075330455
 20
83.198573507
 30
0.0
 40
2.7
  1
29.2
  7
BOX
100
AcDbText
  0
ENDBLK
  5
502
100
AcDbEntity
  8
0
  6
CONTINUOUS
100
AcDbBlockEnd
  0
BLOCK
  5
504
100
AcDbEntity
  8
0
100
AcDbBlockBegin
  2
*D16
 70
        65
 10
0.0
 20
0.0
 30
0.0
  3
*D16
  1

  0
POINT
  5
506
100
AcDbEntity
  8
DEFPOINTS
  6
CONTINUOUS
 62
         0
100
AcDbPoint
 10
1354.1033403763
 20
9.1136089882
 30
0.0
  0
POINT
  5
507
100
AcDbEntity
  8
DEFPOINTS
  6
CONTINUOUS
 62
         0
100
AcDbPoint
 10
1354.1033403763
 20
38.3066652593
 30
0.0
  0
POINT
  5
508
100
AcDbEntity
  8
DEFPOINTS
  6
CONTINUOUS
 62
         0
100
AcDbPoint
 10
1313.1033403763
 20
31.0566652593
 30
0.0
  0
LINE
  5
509
100
AcDbEntity
  8
L1_55
  6
CONTINUOUS
 62
         4
100
AcDbLine
 10
1354.1033403763
 20
36.9566652593
 30
0.0
 11
1354.1033403763
 21
8.4386089882
 31
0.0
  0
LINE
  5
50A
100
AcDbEntity
  8
L1_55
  6
CONTINUOUS
 62
         4
100
AcDbLine
 10
1313.1033403763
 20
29.7066652593
 30
0.0
 11
1313.1033403763
 21
8.4386089882
 31
0.0
  0
LINE
  5
50B
100
AcDbEntity
  8
L1_55
  6
CONTINUOUS
 62
         4
100
AcDbLine
 10
1354.1033403763
 20
9.1136089882
 30
0.0
 11
1313.1033403763
 21
9.1136089882
 31
0.0
  0
SOLID
  5
50C
100
AcDbEntity
  8
L1_55
  6
CONTINUOUS
 62
         4
100
AcDbTrace
 10
1354.1033403763
 20
9.1136089882
 30
0.0
 11
1351.4033403763
 21
8.7086089882
 31
0.0
 12
1351.4033403763
 22
9.5186089882
 32
0.0
 13
1354.1033403763
 23
9.1136089882
 33
0.0
  0
SOLID
  5
50D
100
AcDbEntity
  8
L1_55
  6
CONTINUOUS
 62
         4
100
AcDbTrace
 10
1313.1033403763
 20
9.1136089882
 30
0.0
 11
1315.8033403763
 21
9.5186089882
 31
0.0
 12
1315.8033403763
 22
8.7086089882
 32
0.0
 13
1313.1033403763
 23
9.1136089882
 33
0.0
  0
TEXT
  5
50F
100
AcDbEntity
  8
L1_55
  6
CONTINUOUS
 62
         4
100
AcDbText
 10
1330.6783403763
 20
12.2456089882
 30
0.0
 40
2.7
  1
41
  7
BOX
100
AcDbText
  0
ENDBLK
  5
510
100
AcDbEntity
  8
0
  6
CONTINUOUS
100
AcDbBlockEnd
  0
BLOCK
  5
512
100
AcDbEntity
  8
0
100
AcDbBlockBegin
  2
*D17
 70
        65
 10
0.0
 20
0.0
 30
0.0
  3
*D17
  1

  0
POINT
  5
514
100
AcDbEntity
  8
DEFPOINTS
  6
CONTINUOUS
 62
         0
100
AcDbPoint
 10
1354.1033403763
 20
49.5958407829
 30
0.0
  0
POINT
  5
515
100
AcDbEntity
  8
DEFPOINTS
  6
CONTINUOUS
 62
         0
100
AcDbPoint
 10
1354.1033403763
 20
55.8066652593
 30
0.0
  0
POINT
  5
516
100
AcDbEntity
  8
DEFPOINTS
  6
CONTINUOUS
 62
         0
100
AcDbPoint
 10
1347.3033403763
 20
54.8066652593
 30
0.0
  0
LINE
  5
517
100
AcDbEntity
  8
L1_55
  6
CONTINUOUS
 62
         4
100
AcDbLine
 10
1354.1033403763
 20
54.4566652593
 30
0.0
 11
1354.1033403763
 21
48.9208407829
 31
0.0
  0
LINE
  5
518
100
AcDbEntity
  8
L1_55
  6
CONTINUOUS
 62
         4
100
AcDbLine
 10
1347.3033403763
 20
53.4566652593
 30
0.0
 11
1347.3033403763
 21
48.9208407829
 31
0.0
  0
LINE
  5
519
100
AcDbEntity
  8
L1_55
  6
CONTINUOUS
 62
         4
100
AcDbLine
 10
1354.1033403763
 20
49.5958407829
 30
0.0
 11
1347.3033403763
 21
49.5958407829
 31
0.0
  0
SOLID
  5
51A
100
AcDbEntity
  8
L1_55
  6
CONTINUOUS
 62
         4
100
AcDbTrace
 10
1354.1033403763
 20
49.5958407829
 30
0.0
 11
1351.4033403763
 21
49.1908407829
 31
0.0
 12
1351.4033403763
 22
50.0008407829
 32
0.0
 13
1354.1033403763
 23
49.5958407829
 33
0.0
  0
LINE
  5
51B
100
AcDbEntity
  8
L1_55
  6
CONTINUOUS
 62
         4
100
AcDbLine
 10
1354.1033403763
 20
49.5958407829
 30
0.0
 11
1371.7982592518
 21
49.5958407829
 31
0.0
  0
SOLID
  5
51C
100
AcDbEntity
  8
L1_55
  6
CONTINUOUS
 62
         4
100
AcDbTrace
 10
1347.3033403763
 20
49.5958407829
 30
0.0
 11
1350.0033403763
 21
50.0008407829
 31
0.0
 12
1350.0033403763
 22
49.1908407829
 32
0.0
 13
1347.3033403763
 23
49.5958407829
 33
0.0
  0
TEXT
  5
51E
100
AcDbEntity
  8
L1_55
  6
CONTINUOUS
 62
         4
100
AcDbText
 10
1361.4482592518
 20
52.7278407829
 30
0.0
 40
2.7
  1
6.8
  7
BOX
100
AcDbText
  0
ENDBLK
  5
51F
100
AcDbEntity
  8
0
  6
CONTINUOUS
100
AcDbBlockEnd
  0
BLOCK
  5
521
100
AcDbEntity
  8
0
100
AcDbBlockBegin
  2
*D18
 70
        65
 10
0.0
 20
0.0
 30
0.0
  3
*D18
  1

  0
POINT
  5
523
100
AcDbEntity
  8
DEFPOINTS
  6
CONTINUOUS
 62
         0
100
AcDbPoint
 10
1389.2664748422
 20
62.5566652593
 30
0.0
  0
POINT
  5
524
100
AcDbEntity
  8
DEFPOINTS
  6
CONTINUOUS
 62
         0
100
AcDbPoint
 10
1352.1033403763
 20
62.5566652593
 30
0.0
  0
POINT
  5
525
100
AcDbEntity
  8
DEFPOINTS
  6
CONTINUOUS
 62
         0
100
AcDbPoint
 10
1352.1033403763
 20
31.5566652593
 30
0.0
  0
LINE
  5
526
100
AcDbEntity
  8
L1_55
  6
CONTINUOUS
 62
         4
100
AcDbLine
 10
1353.4533403763
 20
62.5566652593
 30
0.0
 11
1389.9414748422
 21
62.5566652593
 31
0.0
  0
LINE
  5
527
100
AcDbEntity
  8
L1_55
  6
CONTINUOUS
 62
         4
100
AcDbLine
 10
1353.4533403763
 20
31.5566652593
 30
0.0
 11
1389.9414748422
 21
31.5566652593
 31
0.0
  0
LINE
  5
528
100
AcDbEntity
  8
L1_55
  6
CONTINUOUS
 62
         4
100
AcDbLine
 10
1389.2664748422
 20
62.5566652593
 30
0.0
 11
1389.2664748422
 21
31.5566652593
 31
0.0
  0
SOLID
  5
529
100
AcDbEntity
  8
L1_55
  6
CONTINUOUS
 62
         4
100
AcDbTrace
 10
1389.2664748422
 20
62.5566652593
 30
0.0
 11
1389.6714748422
 21
59.8566652593
 31
0.0
 12
1388.8614748422
 22
59.8566652593
 32
0.0
 13
1389.2664748422
 23
62.5566652593
 33
0.0
  0
SOLID
  5
52A
100
AcDbEntity
  8
L1_55
  6
CONTINUOUS
 62
         4
100
AcDbTrace
 10
1389.2664748422
 20
31.5566652593
 30
0.0
 11
1388.8614748422
 21
34.2566652593
 31
0.0
 12
1389.6714748422
 22
34.2566652593
 32
0.0
 13
1389.2664748422
 23
31.5566652593
 33
0.0
  0
TEXT
  5
52C
100
AcDbEntity
  8
L1_55
  6
CONTINUOUS
 62
         4
100
AcDbText
 10
1386.1344748422
 20
38.1087178046
 30
0.0
 40
2.7
  1
崷31
 50
90.0
  7
BOX
100
AcDbText
  0
ENDBLK
  5
52D
100
AcDbEntity
  8
0
  6
CONTINUOUS
100
AcDbBlockEnd
  0
BLOCK
  5
52F
100
AcDbEntity
  8
0
100
AcDbBlockBegin
  2
*D19
 70
        65
 10
0.0
 20
0.0
 30
0.0
  3
*D19
  1

  0
POINT
  5
531
100
AcDbEntity
  8
DEFPOINTS
  6
CONTINUOUS
 62
         0
100
AcDbPoint
 10
1398.4553917087
 20
63.0566652593
 30
0.0
  0
POINT
  5
532
100
AcDbEntity
  8
DEFPOINTS
  6
CONTINUOUS
 62
         0
100
AcDbPoint
 10
1313.1033403763
 20
63.0566652593
 30
0.0
  0
POINT
  5
533
100
AcDbEntity
  8
DEFPOINTS
  6
CONTINUOUS
 62
         0
100
AcDbPoint
 10
1313.1033403763
 20
31.0566652593
 30
0.0
  0
LINE
  5
534
100
AcDbEntity
  8
L1_55
  6
CONTINUOUS
 62
         4
100
AcDbLine
 10
1314.4533403763
 20
63.0566652593
 30
0.0
 11
1399.1303917087
 21
63.0566652593
 31
0.0
  0
LINE
  5
535
100
AcDbEntity
  8
L1_55
  6
CONTINUOUS
 62
         4
100
AcDbLine
 10
1314.4533403763
 20
31.0566652593
 30
0.0
 11
1399.1303917087
 21
31.0566652593
 31
0.0
  0
LINE
  5
536
100
AcDbEntity
  8
L1_55
  6
CONTINUOUS
 62
         4
100
AcDbLine
 10
1398.4553917087
 20
63.0566652593
 30
0.0
 11
1398.4553917087
 21
31.0566652593
 31
0.0
  0
SOLID
  5
537
100
AcDbEntity
  8
L1_55
  6
CONTINUOUS
 62
         4
100
AcDbTrace
 10
1398.4553917087
 20
63.0566652593
 30
0.0
 11
1398.8603917087
 21
60.3566652593
 31
0.0
 12
1398.0503917087
 22
60.3566652593
 32
0.0
 13
1398.4553917087
 23
63.0566652593
 33
0.0
  0
SOLID
  5
538
100
AcDbEntity
  8
L1_55
  6
CONTINUOUS
 62
         4
100
AcDbTrace
 10
1398.4553917087
 20
31.0566652593
 30
0.0
 11
1398.0503917087
 21
33.7566652593
 31
0.0
 12
1398.8603917087
 22
33.7566652593
 32
0.0
 13
1398.4553917087
 23
31.0566652593
 33
0.0
  0
TEXT
  5
53A
100
AcDbEntity
  8
L1_55
  6
CONTINUOUS
 62
         4
100
AcDbText
 10
1395.3233917087
 20
37.0287178046
 30
0.0
 40
2.7
  1
崷32
 50
90.0
  7
BOX
100
AcDbText
  0
ENDBLK
  5
53B
100
AcDbEntity
  8
0
  6
CONTINUOUS
100
AcDbBlockEnd
  0
BLOCK
  5
53D
100
AcDbEntity
  8
0
100
AcDbBlockBegin
  2
*D20
 70
        65
 10
0.0
 20
0.0
 30
0.0
  3
*D20
  1

  0
POINT
  5
53F
100
AcDbEntity
  8
DEFPOINTS
  6
CONTINUOUS
 62
         0
100
AcDbPoint
 10
1657.2754033084
 20
158.2596417294
 30
0.0
  0
POINT
  5
540
100
AcDbEntity
  8
DEFPOINTS
  6
CONTINUOUS
 62
         0
100
AcDbPoint
 10
1641.5024923873
 20
158.2596417294
 30
0.0
  0
POINT
  5
541
100
AcDbEntity
  8
DEFPOINTS
  6
CONTINUOUS
 62
         0
100
AcDbPoint
 10
1641.5024923873
 20
142.1096417294
 30
0.0
  0
LINE
  5
542
100
AcDbEntity
  8
L1_55
  6
CONTINUOUS
 62
         4
100
AcDbLine
 10
1642.8524923873
 20
158.2596417294
 30
0.0
 11
1657.9504033084
 21
158.2596417294
 31
0.0
  0
LINE
  5
543
100
AcDbEntity
  8
L1_55
  6
CONTINUOUS
 62
         4
100
AcDbLine
 10
1642.8524923873
 20
142.1096417294
 30
0.0
 11
1657.9504033084
 21
142.1096417294
 31
0.0
  0
LINE
  5
544
100
AcDbEntity
  8
L1_55
  6
CONTINUOUS
 62
         4
100
AcDbLine
 10
1657.2754033084
 20
158.2596417294
 30
0.0
 11
1657.2754033084
 21
142.1096417294
 31
0.0
  0
SOLID
  5
545
100
AcDbEntity
  8
L1_55
  6
CONTINUOUS
 62
         4
100
AcDbTrace
 10
1657.2754033084
 20
158.2596417294
 30
0.0
 11
1657.6804033084
 21
155.5596417294
 31
0.0
 12
1656.8704033084
 22
155.5596417294
 32
0.0
 13
1657.2754033084
 23
158.2596417294
 33
0.0
  0
SOLID
  5
546
100
AcDbEntity
  8
L1_55
  6
CONTINUOUS
 62
         4
100
AcDbTrace
 10
1657.2754033084
 20
142.1096417294
 30
0.0
 11
1656.8704033084
 21
144.8096417294
 31
0.0
 12
1657.6804033084
 22
144.8096417294
 32
0.0
 13
1657.2754033084
 23
142.1096417294
 33
0.0
  0
TEXT
  5
548
100
AcDbEntity
  8
L1_55
  6
CONTINUOUS
 62
         4
100
AcDbText
 10
1654.1434033084
 20
142.6362373112
 30
0.0
 40
2.7
  1
16.15
 50
90.0
  7
BOX
100
AcDbText
  0
ENDBLK
  5
549
100
AcDbEntity
  8
0
  6
CONTINUOUS
100
AcDbBlockEnd
  0
ENDSEC
  0
SECTION
  2
ENTITIES
  0
ARC
  5
24
100
AcDbEntity
  8
L1_55
  6
CONTINUOUS
 62
         7
100
AcDbCircle
 10
1348.8033403763
 20
53.8066652593
 30
0.0
 40
1.5
100
AcDbArc
 50
90.0
 51
180.0
  0
ARC
  5
25
100
AcDbEntity
  8
L1_55
  6
CONTINUOUS
 62
         7
100
AcDbCircle
 10
1348.8033403763
 20
40.3066652593
 30
0.0
 40
1.5
100
AcDbArc
 50
180.0
 51
270.0
  0
LINE
  5
26
100
AcDbEntity
  8
L1_55
  6
CONTINUOUS
 62
         7
100
AcDbLine
 10
1241.2033403763
 20
37.7566652593
 30
0.0
 11
1242.7033403763
 21
36.2566652593
 31
0.0
  0
LINE
  5
27
100
AcDbEntity
  8
L1_55
  6
CONTINUOUS
 62
         7
100
AcDbLine
 10
1241.2033403763
 20
140.8846417294
 30
0.0
 11
1242.7033403763
 21
139.3846417294
 31
0.0
  0
CIRCLE
  5
28
100
AcDbEntity
  8
_Y__________
  6
CONTINUOUS
 62
         7
100
AcDbCircle
 10
1184.9233403763
 20
47.0566652593
 30
0.0
 40
12.7
  0
ARC
  5
29
100
AcDbEntity
  8
_Y__________
  6
CONTINUOUS
 62
         7
100
AcDbCircle
 10
1184.9233403763
 20
47.0566652593
 30
0.0
 40
11.2
100
AcDbArc
 50
285.3588855808
 51
614.6411144192
  0
LINE
  5
2A
100
AcDbEntity
  8
_Y__________
  6
CENTER
 62
         1
100
AcDbLine
 10
1184.9233403763
 20
18.8691637046
 30
0.0
 11
1184.9233403763
 21
64.7501496632
 31
0.0
  0
LINE
  5
2B
100
AcDbEntity
  8
_Y__________
  6
CENTER
 62
         1
100
AcDbLine
 10
1208.0237643223
 20
47.0566652593
 30
0.0
 11
1163.4923837637
 21
47.0566652593
 31
0.0
  0
LINE
  5
2C
100
AcDbEntity
  8
_Y__________
  6
CONTINUOUS
 62
         7
100
AcDbLine
 10
1178.2412748273
 20
36.2566652593
 30
0.0
 11
1191.6054059252
 21
36.2566652593
 31
0.0
  0
LINE
  5
2D
100
AcDbEntity
  8
_Y__________
  6
DASHED
 62
         2
100
AcDbLine
 10
1196.2233403763
 20
52.8532159578
 30
0.0
 11
1196.2233403763
 21
41.2601145608
 31
0.0
  0
LINE
  5
2E
100
AcDbEntity
  8
_Y__________
  6
DASHED
 62
         2
100
AcDbLine
 10
1193.9466001574
 20
55.9937107958
 30
0.0
 11
1193.9466001574
 21
38.1196197228
 31
0.0
  0
CIRCLE
  5
2F
100
AcDbEntity
  8
_Y__________
  6
CONTINUOUS
 62
         7
100
AcDbCircle
 10
1184.9233403763
 20
47.0566652593
 30
0.0
 40
1.95
  0
CIRCLE
  5
30
100
AcDbEntity
  8
_Y__________
  6
CONTINUOUS
 62
         7
100
AcDbCircle
 10
1184.9233403763
 20
47.0566652593
 30
0.0
 40
0.8
  0
CIRCLE
  5
31
100
AcDbEntity
  8
_Y__________
  6
CONTINUOUS
 62
         7
100
AcDbCircle
 10
1184.9233403763
 20
150.1846417294
 30
0.0
 40
12.7
  0
ARC
  5
32
100
AcDbEntity
  8
_Y__________
  6
CONTINUOUS
 62
         7
100
AcDbCircle
 10
1184.9233403763
 20
150.1846417294
 30
0.0
 40
11.2
100
AcDbArc
 50
285.3588855808
 51
614.6411144192
  0
LINE
  5
33
100
AcDbEntity
  8
_Y__________
  6
CENTER
 62
         1
100
AcDbLine
 10
1184.9233403763
 20
130.0049340053
 30
0.0
 11
1184.9233403763
 21
167.8781261332
 31
0.0
  0
LINE
  5
34
100
AcDbEntity
  8
_Y__________
  6
CENTER
 62
         1
100
AcDbLine
 10
1208.0237643223
 20
150.1846417294
 30
0.0
 11
1163.4923837637
 21
150.1846417294
 31
0.0
  0
LINE
  5
35
100
AcDbEntity
  8
_Y__________
  6
CONTINUOUS
 62
         7
100
AcDbLine
 10
1178.2412748273
 20
139.3846417294
 30
0.0
 11
1191.6054059252
 21
139.3846417294
 31
0.0
  0
LINE
  5
36
100
AcDbEntity
  8
_Y__________
  6
DASHED
 62
         2
100
AcDbLine
 10
1196.2233403763
 20
144.3880910309
 30
0.0
 11
1196.2233403763
 21
155.9811924279
 31
0.0
  0
LINE
  5
37
100
AcDbEntity
  8
_Y__________
  6
DASHED
 62
         2
100
AcDbLine
 10
1193.9466001574
 20
141.2475961929
 30
0.0
 11
1193.9466001574
 21
159.1216872659
 31
0.0
  0
CIRCLE
  5
38
100
AcDbEntity
  8
_Y__________
  6
CONTINUOUS
 62
         7
100
AcDbCircle
 10
1184.9233403763
 20
150.1846417294
 30
0.0
 40
1.95
  0
CIRCLE
  5
39
100
AcDbEntity
  8
_Y__________
  6
CONTINUOUS
 62
         7
100
AcDbCircle
 10
1184.9233403763
 20
150.1846417294
 30
0.0
 40
0.8
  0
LINE
  5
3A
100
AcDbEntity
  8
L1_55
  6
CONTINUOUS
 62
         7
100
AcDbLine
 10
1636.4053638483
 20
142.1096417294
 30
0.0
 11
1641.5024923873
 21
142.1096417294
 31
0.0
  0
LINE
  5
3B
100
AcDbEntity
  8
L1_55
  6
CONTINUOUS
 62
         7
100
AcDbLine
 10
1636.4053638483
 20
158.2596417294
 30
0.0
 11
1641.5024923873
 21
158.2596417294
 31
0.0
  0
LINE
  5
3C
100
AcDbEntity
  8
L1_55
  6
CONTINUOUS
 62
         7
100
AcDbLine
 10
1610.1613169042
 20
142.1099417294
 30
0.0
 11
1605.0641883652
 21
142.1099417294
 31
0.0
  0
LINE
  5
3D
100
AcDbEntity
  8
L1_55
  6
CONTINUOUS
 62
         7
100
AcDbLine
 10
1610.1613169042
 20
158.2596417294
 30
0.0
 11
1605.0641883652
 21
158.2596417294
 31
0.0
  0
LINE
  5
3E
100
AcDbEntity
  8
L1_55
  6
DASHED
 62
         2
100
AcDbLine
 10
1638.6808366755
 20
155.3216136132
 30
0.0
 11
1635.4308366758
 21
160.9507787373
 31
0.0
  0
LINE
  5
3F
100
AcDbEntity
  8
L1_55
  6
DASHED
 62
         2
100
AcDbLine
 10
1638.3308366755
 20
155.3216136132
 30
0.0
 11
1635.2558366758
 21
160.647669846
 31
0.0
  0
LINE
  5
40
100
AcDbEntity
  8
L1_55
  6
DASHED
 62
         2
100
AcDbLine
 10
1638.6808366755
 20
155.3216136132
 30
0.0
 11
1641.9986336738
 21
157.2371446033
 31
0.0
  0
LINE
  5
41
100
AcDbEntity
  8
L1_55
  6
DASHED
 62
         2
100
AcDbLine
 10
1637.9774273671
 20
155.1175726539
 30
0.0
 11
1638.3308366755
 21
155.3216136132
 31
0.0
  0
LINE
  5
42
100
AcDbEntity
  8
L1_55
  6
DASHED
 62
         2
100
AcDbLine
 10
1638.6808366755
 20
155.3216136132
 30
0.0
 11
1638.3308366755
 21
155.3216136132
 31
0.0
  0
LINE
  5
43
100
AcDbEntity
  8
L1_55
  6
DASHED
 62
         2
100
AcDbLine
 10
1634.9024273674
 20
160.4436288866
 30
0.0
 11
1635.2558366758
 21
160.647669846
 31
0.0
  0
LINE
  5
44
100
AcDbEntity
  8
L1_55
  6
DASHED
 62
         2
100
AcDbLine
 10
1635.4308366758
 20
160.9507787373
 30
0.0
 11
1635.2558366758
 21
160.647669846
 31
0.0
  0
LINE
  5
45
100
AcDbEntity
  8
L1_55
  6
DASHED
 62
         2
100
AcDbLine
 10
1635.4308366758
 20
160.9507787373
 30
0.0
 11
1638.7486336741
 21
162.8663097274
 31
0.0
  0
LINE
  5
46
100
AcDbEntity
  8
L1_55
  6
DASHED
 62
         2
100
AcDbLine
 10
1635.4308366758
 20
139.4185047215
 30
0.0
 11
1638.6808366755
 21
145.0476698455
 31
0.0
  0
LINE
  5
47
100
AcDbEntity
  8
L1_55
  6
DASHED
 62
         2
100
AcDbLine
 10
1635.2558366758
 20
139.7216136128
 30
0.0
 11
1638.3308366755
 21
145.0476698455
 31
0.0
  0
LINE
  5
48
100
AcDbEntity
  8
L1_55
  6
DASHED
 62
         2
100
AcDbLine
 10
1635.4308366758
 20
139.4185047215
 30
0.0
 11
1638.7486336741
 21
137.5029737314
 31
0.0
  0
LINE
  5
49
100
AcDbEntity
  8
L1_55
  6
DASHED
 62
         2
100
AcDbLine
 10
1634.9024273674
 20
139.9256545722
 30
0.0
 11
1635.2558366758
 21
139.7216136128
 31
0.0
  0
LINE
  5
4A
100
AcDbEntity
  8
L1_55
  6
DASHED
 62
         2
100
AcDbLine
 10
1635.4308366758
 20
139.4185047215
 30
0.0
 11
1635.2558366758
 21
139.7216136128
 31
0.0
  0
LINE
  5
4B
100
AcDbEntity
  8
L1_55
  6
DASHED
 62
         2
100
AcDbLine
 10
1637.9774273671
 20
145.2517108049
 30
0.0
 11
1638.3308366755
 21
145.0476698455
 31
0.0
  0
LINE
  5
4C
100
AcDbEntity
  8
L1_55
  6
DASHED
 62
         2
100
AcDbLine
 10
1638.6808366755
 20
145.0476698455
 30
0.0
 11
1638.3308366755
 21
145.0476698455
 31
0.0
  0
LINE
  5
4D
100
AcDbEntity
  8
L1_55
  6
DASHED
 62
         2
100
AcDbLine
 10
1638.6808366755
 20
145.0476698455
 30
0.0
 11
1641.9986336738
 21
143.1321388554
 31
0.0
  0
LINE
  5
4E
100
AcDbEntity
  8
L1_55
  6
DASHED
 62
         2
100
AcDbLine
 10
1620.0333403766
 20
134.2815328377
 30
0.0
 11
1626.5333403759
 21
134.2815328377
 31
0.0
  0
LINE
  5
4F
100
AcDbEntity
  8
L1_55
  6
DASHED
 62
         2
100
AcDbLine
 10
1620.2083403766
 20
134.5846417289
 30
0.0
 11
1626.3583403759
 21
134.5846417289
 31
0.0
  0
LINE
  5
50
100
AcDbEntity
  8
L1_55
  6
DASHED
 62
         2
100
AcDbLine
 10
1620.0333403766
 20
134.2815328377
 30
0.0
 11
1620.0333403766
 21
130.4504708575
 31
0.0
  0
LINE
  5
51
100
AcDbEntity
  8
L1_55
  6
DASHED
 62
         2
100
AcDbLine
 10
1620.2083403766
 20
134.9927236477
 30
0.0
 11
1620.2083403766
 21
134.5846417289
 31
0.0
  0
LINE
  5
52
100
AcDbEntity
  8
L1_55
  6
DASHED
 62
         2
100
AcDbLine
 10
1620.0333403766
 20
134.2815328377
 30
0.0
 11
1620.2083403766
 21
134.5846417289
 31
0.0
  0
LINE
  5
53
100
AcDbEntity
  8
L1_55
  6
DASHED
 62
         2
100
AcDbLine
 10
1626.3583403759
 20
134.9927236477
 30
0.0
 11
1626.3583403759
 21
134.5846417289
 31
0.0
  0
LINE
  5
54
100
AcDbEntity
  8
L1_55
  6
DASHED
 62
         2
100
AcDbLine
 10
1626.5333403759
 20
134.2815328377
 30
0.0
 11
1626.3583403759
 21
134.5846417289
 31
0.0
  0
LINE
  5
55
100
AcDbEntity
  8
L1_55
  6
DASHED
 62
         2
100
AcDbLine
 10
1626.5333403759
 20
134.2815328377
 30
0.0
 11
1626.5333403759
 21
130.4504708575
 31
0.0
  0
LINE
  5
56
100
AcDbEntity
  8
L1_55
  6
DASHED
 62
         2
100
AcDbLine
 10
1607.885844077
 20
145.0476698455
 30
0.0
 11
1611.1358440767
 21
139.4185047215
 31
0.0
  0
LINE
  5
57
100
AcDbEntity
  8
L1_55
  6
DASHED
 62
         2
100
AcDbLine
 10
1608.235844077
 20
145.0476698455
 30
0.0
 11
1611.3108440767
 21
139.7216136128
 31
0.0
  0
LINE
  5
58
100
AcDbEntity
  8
L1_55
  6
DASHED
 62
         2
100
AcDbLine
 10
1607.885844077
 20
145.0476698455
 30
0.0
 11
1604.5680470787
 21
143.1321388554
 31
0.0
  0
LINE
  5
59
100
AcDbEntity
  8
L1_55
  6
DASHED
 62
         2
100
AcDbLine
 10
1608.5892533854
 20
145.2517108049
 30
0.0
 11
1608.235844077
 21
145.0476698455
 31
0.0
  0
LINE
  5
5A
100
AcDbEntity
  8
L1_55
  6
DASHED
 62
         2
100
AcDbLine
 10
1607.885844077
 20
145.0476698455
 30
0.0
 11
1608.235844077
 21
145.0476698455
 31
0.0
  0
LINE
  5
5B
100
AcDbEntity
  8
L1_55
  6
DASHED
 62
         2
100
AcDbLine
 10
1611.6642533851
 20
139.9256545722
 30
0.0
 11
1611.3108440767
 21
139.7216136128
 31
0.0
  0
LINE
  5
5C
100
AcDbEntity
  8
L1_55
  6
DASHED
 62
         2
100
AcDbLine
 10
1611.1358440767
 20
139.4185047215
 30
0.0
 11
1611.3108440767
 21
139.7216136128
 31
0.0
  0
LINE
  5
5D
100
AcDbEntity
  8
L1_55
  6
DASHED
 62
         2
100
AcDbLine
 10
1611.1358440767
 20
139.4185047215
 30
0.0
 11
1607.8180470784
 21
137.5029737314
 31
0.0
  0
LINE
  5
5E
100
AcDbEntity
  8
L1_55
  6
DASHED
 62
         2
100
AcDbLine
 10
1611.1358440767
 20
160.9507787373
 30
0.0
 11
1607.885844077
 21
155.3216136132
 31
0.0
  0
LINE
  5
5F
100
AcDbEntity
  8
L1_55
  6
DASHED
 62
         2
100
AcDbLine
 10
1611.3108440767
 20
160.647669846
 30
0.0
 11
1608.235844077
 21
155.3216136132
 31
0.0
  0
LINE
  5
60
100
AcDbEntity
  8
L1_55
  6
DASHED
 62
         2
100
AcDbLine
 10
1611.1358440767
 20
160.9507787373
 30
0.0
 11
1607.8180470784
 21
162.8663097274
 31
0.0
  0
LINE
  5
61
100
AcDbEntity
  8
L1_55
  6
DASHED
 62
         2
100
AcDbLine
 10
1611.6642533851
 20
160.4436288866
 30
0.0
 11
1611.3108440767
 21
160.647669846
 31
0.0
  0
LINE
  5
62
100
AcDbEntity
  8
L1_55
  6
DASHED
 62
         2
100
AcDbLine
 10
1611.1358440767
 20
160.9507787373
 30
0.0
 11
1611.3108440767
 21
160.647669846
 31
0.0
  0
LINE
  5
63
100
AcDbEntity
  8
L1_55
  6
DASHED
 62
         2
100
AcDbLine
 10
1608.5892533854
 20
155.1175726539
 30
0.0
 11
1608.235844077
 21
155.3216136132
 31
0.0
  0
LINE
  5
64
100
AcDbEntity
  8
L1_55
  6
DASHED
 62
         2
100
AcDbLine
 10
1607.885844077
 20
155.3216136132
 30
0.0
 11
1608.235844077
 21
155.3216136132
 31
0.0
  0
LINE
  5
65
100
AcDbEntity
  8
L1_55
  6
DASHED
 62
         2
100
AcDbLine
 10
1607.885844077
 20
155.3216136132
 30
0.0
 11
1604.5680470787
 21
157.2371446033
 31
0.0
  0
LINE
  5
66
100
AcDbEntity
  8
L1_55
  6
DASHED
 62
         2
100
AcDbLine
 10
1626.5333403759
 20
166.0877506211
 30
0.0
 11
1620.0333403766
 21
166.0877506211
 31
0.0
  0
LINE
  5
67
100
AcDbEntity
  8
L1_55
  6
DASHED
 62
         2
100
AcDbLine
 10
1626.3583403759
 20
165.7846417298
 30
0.0
 11
1620.2083403766
 21
165.7846417298
 31
0.0
  0
LINE
  5
68
100
AcDbEntity
  8
L1_55
  6
DASHED
 62
         2
100
AcDbLine
 10
1634.9024273674
 20
160.4436288866
 30
0.0
 11
1635.2558366758
 21
160.647669846
 31
0.0
  0
LINE
  5
69
100
AcDbEntity
  8
L1_55
  6
CENTER
 62
         1
100
AcDbLine
 10
1643.2019246633
 20
161.6846417294
 30
0.0
 11
1603.3647560892
 21
138.6846417294
 31
0.0
  0
LINE
  5
6A
100
AcDbEntity
  8
L1_55
  6
CENTER
 62
         1
100
AcDbLine
 10
1643.2019246633
 20
138.6846417294
 30
0.0
 11
1603.3647560892
 21
161.6846417294
 31
0.0
  0
LINE
  5
6B
100
AcDbEntity
  8
L1_55
  6
DASHED
 62
         2
100
AcDbLine
 10
1626.5333403759
 20
166.0877506211
 30
0.0
 11
1626.5333403759
 21
169.9188126013
 31
0.0
  0
CIRCLE
  5
6C
100
AcDbEntity
  8
L1_55
  6
CONTINUOUS
 62
         7
100
AcDbCircle
 10
1623.2833403763
 20
150.1846417294
 30
0.0
 40
20.0
  0
CIRCLE
  5
6D
100
AcDbEntity
  8
L1_55
  6
CONTINUOUS
 62
         7
100
AcDbCircle
 10
1623.2833403763
 20
150.1846417294
 30
0.0
 40
20.5
  0
CIRCLE
  5
6E
100
AcDbEntity
  8
L1_55
  6
CONTINUOUS
 62
         7
100
AcDbCircle
 10
1623.2833403763
 20
150.1846417294
 30
0.0
 40
23.0
  0
CIRCLE
  5
6F
100
AcDbEntity
  8
L1_55
  6
CONTINUOUS
 62
         7
100
AcDbCircle
 10
1623.2833403763
 20
150.1846417294
 30
0.0
 40
15.5
  0
LINE
  5
70
100
AcDbEntity
  8
L1_55
  6
CENTER
 62
         1
100
AcDbLine
 10
1646.2833403763
 20
150.1846417294
 30
0.0
 11
1600.2833403763
 21
150.1846417294
 31
0.0
  0
LINE
  5
71
100
AcDbEntity
  8
L1_55
  6
CENTER
 62
         1
100
AcDbLine
 10
1623.2833403763
 20
127.1846417294
 30
0.0
 11
1623.2833403763
 21
173.1846417294
 31
0.0
  0
LINE
  5
72
100
AcDbEntity
  8
L1_55
  6
DASHED
 62
         2
100
AcDbLine
 10
1626.3583403759
 20
165.3765598111
 30
0.0
 11
1626.3583403759
 21
165.7846417298
 31
0.0
  0
LINE
  5
73
100
AcDbEntity
  8
L1_55
  6
DASHED
 62
         2
100
AcDbLine
 10
1626.5333403759
 20
166.0877506211
 30
0.0
 11
1626.3583403759
 21
165.7846417298
 31
0.0
  0
LINE
  5
74
100
AcDbEntity
  8
L1_55
  6
DASHED
 62
         2
100
AcDbLine
 10
1620.2083403766
 20
165.3765598111
 30
0.0
 11
1620.2083403766
 21
165.7846417298
 31
0.0
  0
LINE
  5
75
100
AcDbEntity
  8
L1_55
  6
DASHED
 62
         2
100
AcDbLine
 10
1620.0333403766
 20
166.0877506211
 30
0.0
 11
1620.2083403766
 21
165.7846417298
 31
0.0
  0
LINE
  5
76
100
AcDbEntity
  8
L1_55
  6
DASHED
 62
         2
100
AcDbLine
 10
1620.0333403766
 20
166.0877506211
 30
0.0
 11
1620.0333403766
 21
169.9188126013
 31
0.0
  0
LINE
  5
77
100
AcDbEntity
  8
L1_55
  6
CENTER
 62
         1
100
AcDbLine
 10
1614.9233486154
 20
66.8139192169
 30
0.0
 11
1540.7680083925
 21
66.8139192169
 31
0.0
  0
LINE
  5
78
100
AcDbEntity
  8
L1_55
  6
CONTINUOUS
 62
         7
100
AcDbLine
 10
1581.4002748864
 20
38.3139192169
 30
0.0
 11
1571.4002748864
 21
38.3139192169
 31
0.0
  0
LINE
  5
79
100
AcDbEntity
  8
L1_55
  6
CONTINUOUS
 62
         7
100
AcDbLine
 10
1581.4002748864
 20
95.3139192169
 30
0.0
 11
1571.4002748864
 21
95.3139192169
 31
0.0
  0
LINE
  5
7A
100
AcDbEntity
  8
L1_55
  6
CONTINUOUS
 62
         7
100
AcDbLine
 10
1561.4002748864
 20
38.3139192169
 30
0.0
 11
1561.4002748864
 21
95.3139192169
 31
0.0
  0
LINE
  5
7B
100
AcDbEntity
  8
L1_55
  6
CONTINUOUS
 62
         7
100
AcDbLine
 10
1570.8229246172
 20
96.3139192169
 30
0.0
 11
1561.9776251556
 21
96.3139192169
 31
0.0
  0
LINE
  5
7C
100
AcDbEntity
  8
L1_55
  6
CONTINUOUS
 62
         7
100
AcDbLine
 10
1571.4002748864
 20
38.3139192169
 30
0.0
 11
1571.4002748864
 21
95.3139192169
 31
0.0
  0
LINE
  5
7D
100
AcDbEntity
  8
L1_55
  6
CONTINUOUS
 62
         7
100
AcDbLine
 10
1581.4002748864
 20
38.3139192169
 30
0.0
 11
1581.4002748864
 21
95.3139192169
 31
0.0
  0
LINE
  5
7E
100
AcDbEntity
  8
L1_55
  6
CONTINUOUS
 62
         7
100
AcDbLine
 10
1590.8229246172
 20
96.3139192169
 30
0.0
 11
1581.9776251556
 21
96.3139192169
 31
0.0
  0
LINE
  5
7F
100
AcDbEntity
  8
L1_55
  6
CONTINUOUS
 62
         7
100
AcDbLine
 10
1591.4002748864
 20
38.3139192169
 30
0.0
 11
1591.4002748864
 21
95.3139192169
 31
0.0
  0
LINE
  5
80
100
AcDbEntity
  8
L1_55
  6
CONTINUOUS
 62
         7
100
AcDbLine
 10
1605.9002748864
 20
95.3139192169
 30
0.0
 11
1591.4002748864
 21
95.3139192169
 31
0.0
  0
LINE
  5
81
100
AcDbEntity
  8
L1_55
  6
CONTINUOUS
 62
         7
100
AcDbLine
 10
1605.9002748864
 20
95.3139192169
 30
0.0
 11
1606.4002748864
 21
94.8139192169
 31
0.0
  0
LINE
  5
82
100
AcDbEntity
  8
L1_55
  6
CONTINUOUS
 62
         7
100
AcDbLine
 10
1606.4002748864
 20
38.8139192169
 30
0.0
 11
1606.4002748864
 21
94.8139192169
 31
0.0
  0
LINE
  5
83
100
AcDbEntity
  8
L1_55
  6
CONTINUOUS
 62
         7
100
AcDbLine
 10
1605.9002748864
 20
38.3139192169
 30
0.0
 11
1591.4002748864
 21
38.3139192169
 31
0.0
  0
LINE
  5
84
100
AcDbEntity
  8
L1_55
  6
CONTINUOUS
 62
         7
100
AcDbLine
 10
1606.4002748864
 20
38.8139192169
 30
0.0
 11
1605.9002748864
 21
38.3139192169
 31
0.0
  0
LINE
  5
85
100
AcDbEntity
  8
L1_55
  6
CONTINUOUS
 62
         7
100
AcDbLine
 10
1570.8229246172
 20
37.3139192169
 30
0.0
 11
1561.9776251556
 21
37.3139192169
 31
0.0
  0
LINE
  5
86
100
AcDbEntity
  8
L1_55
  6
CONTINUOUS
 62
         7
100
AcDbLine
 10
1561.4002748864
 20
38.3139192169
 30
0.0
 11
1546.9002748864
 21
38.3139192169
 31
0.0
  0
LINE
  5
87
100
AcDbEntity
  8
L1_55
  6
CONTINUOUS
 62
         7
100
AcDbLine
 10
1546.4002748864
 20
38.8139192169
 30
0.0
 11
1546.9002748864
 21
38.3139192169
 31
0.0
  0
LINE
  5
88
100
AcDbEntity
  8
L1_55
  6
CONTINUOUS
 62
         7
100
AcDbLine
 10
1561.4002748864
 20
95.3139192169
 30
0.0
 11
1546.9002748864
 21
95.3139192169
 31
0.0
  0
LINE
  5
89
100
AcDbEntity
  8
L1_55
  6
CONTINUOUS
 62
         7
100
AcDbLine
 10
1546.4002748864
 20
94.8139192169
 30
0.0
 11
1546.9002748864
 21
95.3139192169
 31
0.0
  0
LINE
  5
8A
100
AcDbEntity
  8
L1_55
  6
CONTINUOUS
 62
         7
100
AcDbLine
 10
1546.4002748864
 20
38.8139192169
 30
0.0
 11
1546.4002748864
 21
94.8139192169
 31
0.0
  0
LINE
  5
8B
100
AcDbEntity
  8
L1_55
  6
CONTINUOUS
 62
         7
100
AcDbLine
 10
1605.9002748864
 20
95.3139192169
 30
0.0
 11
1605.9002748864
 21
38.3139192169
 31
0.0
  0
LINE
  5
8C
100
AcDbEntity
  8
L1_55
  6
CONTINUOUS
 62
         7
100
AcDbLine
 10
1546.9002748864
 20
95.3139192169
 30
0.0
 11
1546.9002748864
 21
38.3139192169
 31
0.0
  0
LINE
  5
8D
100
AcDbEntity
  8
L1_55
  6
CONTINUOUS
 62
         7
100
AcDbLine
 10
1590.8229246172
 20
37.3139192169
 30
0.0
 11
1591.4002748864
 21
38.3139192169
 31
0.0
  0
LINE
  5
8E
100
AcDbEntity
  8
L1_55
  6
CONTINUOUS
 62
         7
100
AcDbLine
 10
1581.9776251556
 20
37.3139192169
 30
0.0
 11
1581.4002748864
 21
38.3139192169
 31
0.0
  0
LINE
  5
8F
100
AcDbEntity
  8
L1_55
  6
CONTINUOUS
 62
         7
100
AcDbLine
 10
1561.9776251556
 20
37.3139192169
 30
0.0
 11
1561.4002748864
 21
38.3139192169
 31
0.0
  0
LINE
  5
90
100
AcDbEntity
  8
L1_55
  6
CONTINUOUS
 62
         7
100
AcDbLine
 10
1570.8229246172
 20
37.3139192169
 30
0.0
 11
1571.4002748864
 21
38.3139192169
 31
0.0
  0
LINE
  5
91
100
AcDbEntity
  8
L1_55
  6
CONTINUOUS
 62
         7
100
AcDbLine
 10
1590.8229246172
 20
96.3139192169
 30
0.0
 11
1591.4002748864
 21
95.3139192169
 31
0.0
  0
LINE
  5
92
100
AcDbEntity
  8
L1_55
  6
CONTINUOUS
 62
         7
100
AcDbLine
 10
1581.9776251556
 20
96.3139192169
 30
0.0
 11
1581.4002748864
 21
95.3139192169
 31
0.0
  0
LINE
  5
93
100
AcDbEntity
  8
L1_55
  6
CONTINUOUS
 62
         7
100
AcDbLine
 10
1570.8229246172
 20
96.3139192169
 30
0.0
 11
1571.4002748864
 21
95.3139192169
 31
0.0
  0
LINE
  5
94
100
AcDbEntity
  8
L1_55
  6
CONTINUOUS
 62
         7
100
AcDbLine
 10
1561.9776251556
 20
96.3139192169
 30
0.0
 11
1561.4002748864
 21
95.3139192169
 31
0.0
  0
DIMENSION
  5
98
100
AcDbEntity
  8
L1_55
  6
CONTINUOUS
 62
         4
100
AcDbDimension
  2
*D0
 10
1537.5684575441
 20
96.3139192169
 30
0.0
 11
1535.5434575441
 21
58.1651276124
 31
0.0
  3
DIMSTYLE1
100
AcDbAlignedDimension
 13
1561.9002748864
 23
96.3139192169
 33
0.0
 14
1561.9002748864
 24
37.3139192169
 34
0.0
 50
90.0
100
AcDbRotatedDimension
  0
LINE
  5
A5
100
AcDbEntity
  8
L1_55
  6
CONTINUOUS
 62
         7
100
AcDbLine
 10
1590.8229246172
 20
37.3139192169
 30
0.0
 11
1581.9776251556
 21
37.3139192169
 31
0.0
  0
DIMENSION
  5
A8
100
AcDbEntity
  8
L1_55
  6
CONTINUOUS
 62
         4
100
AcDbDimension
  2
*D1
 10
1606.4002748864
 20
102.6826816094
 30
0.0
 11
1572.9496077851
 21
104.7076816094
 31
0.0
  3
DIMSTYLE1
100
AcDbAlignedDimension
 13
1606.4002748864
 23
94.8139192169
 33
0.0
 14
1546.4002748864
 24
94.8139192169
 34
0.0
100
AcDbRotatedDimension
  0
DIMENSION
  5
B7
100
AcDbEntity
  8
L1_55
  6
CONTINUOUS
 62
         4
100
AcDbDimension
  2
*D2
 10
1650.9745678968
 20
68.0033877402
 30
0.0
 11
1661.5881550984
 21
74.0523946612
 31
0.0
 70
         3
  3
DIMSTYLE2
100
AcDbDiametricDimension
 15
1656.7984614918
 25
70.53415114
 35
0.0
 40
0.0
  0
CIRCLE
  5
C2
100
AcDbEntity
  8
L1_55
  6
CONTINUOUS
 62
         7
100
AcDbCircle
 10
1653.8865146943
 20
69.2687694401
 30
0.0
 40
3.1749999997
  0
ARC
  5
C3
100
AcDbEntity
  8
L1_55
  6
CONTINUOUS
 62
         7
100
AcDbCircle
 10
1570.2201282874
 20
-20.9774624224
 30
0.0
 40
0.96768
100
AcDbArc
 50
165.0604480709
 51
360.0000000001
  0
ARC
  5
C4
100
AcDbEntity
  8
L1_55
  6
CONTINUOUS
 62
         7
100
AcDbCircle
 10
1572.281289738
 20
22.1036018593
 30
0.0
 40
0.96768
100
AcDbArc
 50
345.0604480705
 51
539.9999999997
  0
ARC
  5
C5
100
AcDbEntity
  8
L1_55
  6
CONTINUOUS
 62
         7
100
AcDbCircle
 10
1574.0908482874
 20
-20.9774624224
 30
0.0
 40
0.96768
100
AcDbArc
 50
165.0604480713
 51
359.9999999997
  0
ARC
  5
C6
100
AcDbEntity
  8
L1_55
  6
CONTINUOUS
 62
         7
100
AcDbCircle
 10
1576.152009738
 20
22.1036018593
 30
0.0
 40
0.96768
100
AcDbArc
 50
345.0604480709
 51
539.9999999997
  0
ARC
  5
C7
100
AcDbEntity
  8
L1_55
  6
CONTINUOUS
 62
         7
100
AcDbCircle
 10
1577.9615682874
 20
-20.9774624224
 30
0.0
 40
0.96768
100
AcDbArc
 50
165.0604480709
 51
359.9999999997
  0
ARC
  5
C8
100
AcDbEntity
  8
L1_55
  6
CONTINUOUS
 62
         7
100
AcDbCircle
 10
1580.022729738
 20
22.1036018593
 30
0.0
 40
0.96768
100
AcDbArc
 50
345.0604480705
 51
539.9999999997
  0
ARC
  5
C9
100
AcDbEntity
  8
L1_55
  6
CONTINUOUS
 62
         7
100
AcDbCircle
 10
1581.8322882874
 20
-20.9774624224
 30
0.0
 40
0.96768
100
AcDbArc
 50
165.0604480713
 51
360.0000000001
  0
ARC
  5
CA
100
AcDbEntity
  8
L1_55
  6
CONTINUOUS
 62
         7
100
AcDbCircle
 10
1583.893449738
 20
22.1036018593
 30
0.0
 40
0.96768
100
AcDbArc
 50
345.0604480713
 51
540.0000000001
  0
ARC
  5
CB
100
AcDbEntity
  8
L1_55
  6
CONTINUOUS
 62
         7
100
AcDbCircle
 10
1585.7030082874
 20
-20.9774624224
 30
0.0
 40
0.96768
100
AcDbArc
 50
165.0604480709
 51
359.9999999997
  0
ARC
  5
CC
100
AcDbEntity
  8
L1_55
  6
CONTINUOUS
 62
         7
100
AcDbCircle
 10
1587.764169738
 20
22.1036018593
 30
0.0
 40
0.96768
100
AcDbArc
 50
345.0604480713
 51
539.9999999997
  0
ARC
  5
CD
100
AcDbEntity
  8
L1_55
  6
CONTINUOUS
 62
         7
100
AcDbCircle
 10
1589.5737282874
 20
-20.9774624224
 30
0.0
 40
0.96768
100
AcDbArc
 50
165.0604480713
 51
360.0000000006
  0
ARC
  5
CE
100
AcDbEntity
  8
L1_55
  6
CONTINUOUS
 62
         7
100
AcDbCircle
 10
1591.634889738
 20
22.1036018593
 30
0.0
 40
0.96768
100
AcDbArc
 50
345.0604480709
 51
539.9999999997
  0
ARC
  5
CF
100
AcDbEntity
  8
L1_55
  6
CONTINUOUS
 62
         7
100
AcDbCircle
 10
1593.4444482874
 20
-20.9774624224
 30
0.0
 40
0.96768
100
AcDbArc
 50
165.0604480713
 51
360.0000000001
  0
ARC
  5
D0
100
AcDbEntity
  8
L1_55
  6
CONTINUOUS
 62
         7
100
AcDbCircle
 10
1595.505609738
 20
22.1036018593
 30
0.0
 40
0.96768
100
AcDbArc
 50
345.0604480713
 51
539.9999999997
  0
LINE
  5
D1
100
AcDbEntity
  8
L1_55
  6
CONTINUOUS
 62
         7
100
AcDbLine
 10
1571.313609738
 20
22.1036018593
 30
0.0
 11
1569.2524482874
 21
-20.9774624224
 31
0.0
  0
LINE
  5
D2
100
AcDbEntity
  8
L1_55
  6
CONTINUOUS
 62
         7
100
AcDbLine
 10
1573.248969738
 20
22.1036018593
 30
0.0
 11
1571.1878082874
 21
-20.9774624224
 31
0.0
  0
LINE
  5
D3
100
AcDbEntity
  8
L1_55
  6
CONTINUOUS
 62
         7
100
AcDbLine
 10
1575.184329738
 20
22.1036018593
 30
0.0
 11
1573.1231682874
 21
-20.9774624224
 31
0.0
  0
LINE
  5
D4
100
AcDbEntity
  8
L1_55
  6
CONTINUOUS
 62
         7
100
AcDbLine
 10
1577.119689738
 20
22.1036018593
 30
0.0
 11
1575.0585282874
 21
-20.9774624224
 31
0.0
  0
LINE
  5
D5
100
AcDbEntity
  8
L1_55
  6
CONTINUOUS
 62
         7
100
AcDbLine
 10
1579.055049738
 20
22.1036018593
 30
0.0
 11
1576.9938882874
 21
-20.9774624224
 31
0.0
  0
LINE
  5
D6
100
AcDbEntity
  8
L1_55
  6
CONTINUOUS
 62
         7
100
AcDbLine
 10
1580.990409738
 20
22.1036018593
 30
0.0
 11
1578.9292482874
 21
-20.9774624224
 31
0.0
  0
LINE
  5
D7
100
AcDbEntity
  8
L1_55
  6
CONTINUOUS
 62
         7
100
AcDbLine
 10
1582.925769738
 20
22.1036018593
 30
0.0
 11
1580.8646082874
 21
-20.9774624224
 31
0.0
  0
LINE
  5
D8
100
AcDbEntity
  8
L1_55
  6
CONTINUOUS
 62
         7
100
AcDbLine
 10
1584.861129738
 20
22.1036018593
 30
0.0
 11
1582.7999682874
 21
-20.9774624224
 31
0.0
  0
LINE
  5
D9
100
AcDbEntity
  8
L1_55
  6
CONTINUOUS
 62
         7
100
AcDbLine
 10
1586.796489738
 20
22.1036018593
 30
0.0
 11
1584.7353282874
 21
-20.9774624224
 31
0.0
  0
LINE
  5
DA
100
AcDbEntity
  8
L1_55
  6
CONTINUOUS
 62
         7
100
AcDbLine
 10
1588.731849738
 20
22.1036018593
 30
0.0
 11
1586.6706882874
 21
-20.9774624224
 31
0.0
  0
LINE
  5
DB
100
AcDbEntity
  8
L1_55
  6
CONTINUOUS
 62
         7
100
AcDbLine
 10
1590.667209738
 20
22.1036018593
 30
0.0
 11
1588.6060482874
 21
-20.9774624224
 31
0.0
  0
LINE
  5
DC
100
AcDbEntity
  8
L1_55
  6
CONTINUOUS
 62
         7
100
AcDbLine
 10
1592.602569738
 20
22.1036018593
 30
0.0
 11
1590.5414082874
 21
-20.9774624224
 31
0.0
  0
LINE
  5
DD
100
AcDbEntity
  8
L1_55
  6
CONTINUOUS
 62
         7
100
AcDbLine
 10
1594.537929738
 20
22.1036018593
 30
0.0
 11
1592.4767682874
 21
-20.9774624224
 31
0.0
  0
LINE
  5
DE
100
AcDbEntity
  8
L1_55
  6
CONTINUOUS
 62
         7
100
AcDbLine
 10
1596.473289738
 20
22.1036018593
 30
0.0
 11
1594.4121282874
 21
-20.9774624224
 31
0.0
  0
LINE
  5
DF
100
AcDbEntity
  8
L1_55
  6
CONTINUOUS
 62
         7
100
AcDbLine
 10
1593.6713822718
 20
3.9915868669
 30
0.0
 11
1592.602569738
 21
22.1036018593
 31
0.0
  0
LINE
  5
E0
100
AcDbEntity
  8
L1_55
  6
CONTINUOUS
 62
         7
100
AcDbLine
 10
1592.4767682874
 20
-20.9774624224
 30
0.0
 11
1591.6923721896
 21
3.079241065
 31
0.0
  0
LINE
  5
E1
100
AcDbEntity
  8
L1_55
  6
CONTINUOUS
 62
         7
100
AcDbLine
 10
1589.8006622718
 20
3.9915868669
 30
0.0
 11
1588.731849738
 21
22.1036018593
 31
0.0
  0
LINE
  5
E2
100
AcDbEntity
  8
L1_55
  6
CONTINUOUS
 62
         7
100
AcDbLine
 10
1588.6060482874
 20
-20.9774624224
 30
0.0
 11
1587.8216521896
 21
3.079241065
 31
0.0
  0
LINE
  5
E3
100
AcDbEntity
  8
L1_55
  6
CONTINUOUS
 62
         7
100
AcDbLine
 10
1585.9299422718
 20
3.9915868669
 30
0.0
 11
1584.861129738
 21
22.1036018593
 31
0.0
  0
LINE
  5
E4
100
AcDbEntity
  8
L1_55
  6
CONTINUOUS
 62
         7
100
AcDbLine
 10
1584.7353282874
 20
-20.9774624224
 30
0.0
 11
1583.9509321896
 21
3.079241065
 31
0.0
  0
LINE
  5
E5
100
AcDbEntity
  8
L1_55
  6
CONTINUOUS
 62
         7
100
AcDbLine
 10
1582.0592222718
 20
3.9915868668
 30
0.0
 11
1580.990409738
 21
22.1036018593
 31
0.0
  0
LINE
  5
E6
100
AcDbEntity
  8
L1_55
  6
CONTINUOUS
 62
         7
100
AcDbLine
 10
1580.8646082874
 20
-20.9774624224
 30
0.0
 11
1580.0802121896
 21
3.079241065
 31
0.0
  0
LINE
  5
E7
100
AcDbEntity
  8
L1_55
  6
CONTINUOUS
 62
         7
100
AcDbLine
 10
1578.1885022718
 20
3.9915868669
 30
0.0
 11
1577.119689738
 21
22.1036018593
 31
0.0
  0
LINE
  5
E8
100
AcDbEntity
  8
L1_55
  6
CONTINUOUS
 62
         7
100
AcDbLine
 10
1576.9938882874
 20
-20.9774624224
 30
0.0
 11
1576.2094921896
 21
3.079241065
 31
0.0
  0
LINE
  5
E9
100
AcDbEntity
  8
L1_55
  6
CONTINUOUS
 62
         7
100
AcDbLine
 10
1574.3390190718
 20
4.4354647322
 30
0.0
 11
1573.2816789212
 21
22.3530696009
 31
0.0
  0
LINE
  5
EA
100
AcDbEntity
  8
L1_55
  6
CONTINUOUS
 62
         7
100
AcDbLine
 10
1573.1558774706
 20
-20.7279946807
 30
0.0
 11
1572.3630618489
 21
3.5869278234
 31
0.0
  0
LINE
  5
EB
100
AcDbEntity
  8
L1_55
  6
CENTER
 62
         1
100
AcDbLine
 10
1650.7440429423
 20
-25.4963837349
 30
0.0
 11
1650.7440429423
 21
25.5534991624
 31
0.0
  0
ARC
  5
EC
100
AcDbEntity
  8
L1_55
  6
CONTINUOUS
 62
         7
100
AcDbCircle
 10
1650.7440429423
 20
0.2100383538
 30
0.0
 40
18.399744
100
AcDbArc
 50
279.5140383561
 51
620.4859616439
  0
LINE
  5
ED
100
AcDbEntity
  8
L1_55
  6
CONTINUOUS
 62
         7
100
AcDbLine
 10
1653.7853229423
 20
-24.8805216462
 30
0.0
 11
1653.7853229423
 21
-17.9366196093
 31
0.0
  0
LINE
  5
EE
100
AcDbEntity
  8
L1_55
  6
CONTINUOUS
 62
         7
100
AcDbLine
 10
1647.7027629423
 20
-24.8805216462
 30
0.0
 11
1647.7027629423
 21
-17.9366196093
 31
0.0
  0
ARC
  5
EF
100
AcDbEntity
  8
L1_55
  6
CONTINUOUS
 62
         7
100
AcDbCircle
 10
1638.5789229423
 20
-20.8325966488
 30
0.0
 40
3.04128
100
AcDbArc
 50
0.0
 51
61.0933699271
  0
LINE
  5
F0
100
AcDbEntity
  8
L1_55
  6
CONTINUOUS
 62
         7
100
AcDbLine
 10
1641.6202029423
 20
-21.8392416462
 30
0.0
 11
1641.6202029423
 21
-20.8325966488
 31
0.0
  0
ARC
  5
F1
100
AcDbEntity
  8
L1_55
  6
CONTINUOUS
 62
         7
100
AcDbCircle
 10
1644.6614829423
 20
-21.8392416462
 30
0.0
 40
3.04128
100
AcDbArc
 50
180.0
 51
270.0
  0
ARC
  5
F2
100
AcDbEntity
  8
L1_55
  6
CONTINUOUS
 62
         7
100
AcDbCircle
 10
1650.7440429423
 20
1.1984543538
 30
0.0
 40
22.125312
100
AcDbArc
 50
298.906630073
 51
601.093369927
  0
ARC
  5
F3
100
AcDbEntity
  8
L1_55
  6
CONTINUOUS
 62
         7
100
AcDbCircle
 10
1662.9091629423
 20
-20.8325966489
 30
0.0
 40
3.04128
100
AcDbArc
 50
118.906630073
 51
180.0000000001
  0
LINE
  5
F4
100
AcDbEntity
  8
L1_55
  6
CONTINUOUS
 62
         7
100
AcDbLine
 10
1659.8678829423
 20
-21.8392416462
 30
0.0
 11
1659.8678829423
 21
-20.8325966489
 31
0.0
  0
ARC
  5
F5
100
AcDbEntity
  8
L1_55
  6
CONTINUOUS
 62
         7
100
AcDbCircle
 10
1656.8266029423
 20
-21.8392416462
 30
0.0
 40
3.04128
100
AcDbArc
 50
270.0
 51
360.0
  0
LINE
  5
F6
100
AcDbEntity
  8
L1_55
  6
CONTINUOUS
 62
         7
100
AcDbLine
 10
1656.8266029423
 20
-24.8805216462
 30
0.0
 11
1653.7853229423
 21
-24.8805216462
 31
0.0
  0
LINE
  5
F7
100
AcDbEntity
  8
L1_55
  6
CONTINUOUS
 62
         7
100
AcDbLine
 10
1647.7027629423
 20
-24.8805216462
 30
0.0
 11
1644.6614829423
 21
-24.8805216462
 31
0.0
  0
CIRCLE
  5
F8
100
AcDbEntity
  8
L1_55
  6
CONTINUOUS
 62
         7
100
AcDbCircle
 10
1644.6614829423
 20
-21.8392416462
 30
0.0
 40
1.52064
  0
CIRCLE
  5
F9
100
AcDbEntity
  8
L1_55
  6
CONTINUOUS
 62
         7
100
AcDbCircle
 10
1656.8266029423
 20
-21.8392416462
 30
0.0
 40
1.52064
  0
LINE
  5
FA
100
AcDbEntity
  8
L1_55
  6
CENTER
 62
         1
100
AcDbLine
 10
1674.6417042801
 20
1.1984543538
 30
0.0
 11
1624.4250149963
 21
1.1984543538
 31
0.0
  0
DIMENSION
  5
FD
100
AcDbEntity
  8
L1_55
  6
CONTINUOUS
 62
         4
100
AcDbDimension
  2
*D3
 10
1665.9270836746
 20
10.6035869964
 30
0.0
 11
1653.597694359
 21
3.6877416353
 31
0.0
 70
         3
  3
DIMSTYLE2
100
AcDbDiametricDimension
 15
1635.5610022099
 25
-10.1835102888
 35
0.0
 40
0.0
  0
LINE
  5
107
100
AcDbEntity
  8
L1_55
  6
CONTINUOUS
 62
         7
100
AcDbLine
 10
1306.6033403763
 20
127.1846417294
 30
0.0
 11
1307.1033403763
 21
127.6846417294
 31
0.0
  0
LINE
  5
108
100
AcDbEntity
  8
L1_55
  6
CONTINUOUS
 62
         7
100
AcDbLine
 10
1299.1033403763
 20
127.6846417294
 30
0.0
 11
1299.6033403763
 21
127.1846417294
 31
0.0
  0
LINE
  5
109
100
AcDbEntity
  8
L1_55
  6
CONTINUOUS
 62
         7
100
AcDbLine
 10
1306.6033403763
 20
173.1846417294
 30
0.0
 11
1307.1033403763
 21
172.6846417294
 31
0.0
  0
LINE
  5
10A
100
AcDbEntity
  8
L1_55
  6
CONTINUOUS
 62
         7
100
AcDbLine
 10
1299.6033403763
 20
173.1846417294
 30
0.0
 11
1299.1033403763
 21
172.6846417294
 31
0.0
  0
LINE
  5
10B
100
AcDbEntity
  8
L1_55
  6
CONTINUOUS
 62
         4
100
AcDbLine
 10
1299.6033403763
 20
173.1846417294
 30
0.0
 11
1299.6033403763
 21
127.1846417294
 31
0.0
  0
LINE
  5
10C
100
AcDbEntity
  8
L1_55
  6
CONTINUOUS
 62
         7
100
AcDbLine
 10
1299.1033403763
 20
127.6846417294
 30
0.0
 11
1299.1033403763
 21
172.6846417294
 31
0.0
  0
LINE
  5
10D
100
AcDbEntity
  8
L1_55
  6
CONTINUOUS
 62
         7
100
AcDbLine
 10
1299.1033403763
 20
163.8846417294
 30
0.0
 11
1299.1033403763
 21
136.4846417294
 31
0.0
  0
LINE
  5
10E
100
AcDbEntity
  8
L1_55
  6
CONTINUOUS
 62
         4
100
AcDbLine
 10
1353.6033403763
 20
130.1846417294
 30
0.0
 11
1353.6033403763
 21
141.9346417294
 31
0.0
  0
LINE
  5
10F
100
AcDbEntity
  8
L1_55
  6
CONTINUOUS
 62
         4
100
AcDbLine
 10
1306.6033403763
 20
127.1846417294
 30
0.0
 11
1306.6033403763
 21
173.1846417294
 31
0.0
  0
LINE
  5
110
100
AcDbEntity
  8
L1_55
  6
CONTINUOUS
 62
         4
100
AcDbLine
 10
1307.6033403763
 20
129.6846417294
 30
0.0
 11
1307.6033403763
 21
170.6846417294
 31
0.0
  0
LINE
  5
111
100
AcDbEntity
  8
L1_55
  6
CONTINUOUS
 62
         4
100
AcDbLine
 10
1315.1533403763
 20
129.6846417294
 30
0.0
 11
1315.1533403763
 21
170.6846417294
 31
0.0
  0
LINE
  5
112
100
AcDbEntity
  8
L1_55
  6
CONTINUOUS
 62
         4
100
AcDbLine
 10
1315.7533403763
 20
130.3846417294
 30
0.0
 11
1315.7533403763
 21
169.9846417294
 31
0.0
  0
LINE
  5
113
100
AcDbEntity
  8
L1_55
  6
CONTINUOUS
 62
         4
100
AcDbLine
 10
1316.3533403763
 20
130.3846417294
 30
0.0
 11
1316.3533403763
 21
169.9846417294
 31
0.0
  0
LINE
  5
114
100
AcDbEntity
  8
L1_55
  6
CONTINUOUS
 62
         7
100
AcDbLine
 10
1316.5533403763
 20
130.1846417294
 30
0.0
 11
1316.5533403763
 21
170.1846417294
 31
0.0
  0
LINE
  5
115
100
AcDbEntity
  8
L1_55
  6
CONTINUOUS
 62
         4
100
AcDbLine
 10
1345.5533403763
 20
130.1846417294
 30
0.0
 11
1345.5533403763
 21
170.1846417294
 31
0.0
  0
LINE
  5
116
100
AcDbEntity
  8
L1_55
  6
CONTINUOUS
 62
         4
100
AcDbLine
 10
1347.7033403763
 20
130.1846417294
 30
0.0
 11
1347.7033403763
 21
170.1846417294
 31
0.0
  0
LINE
  5
117
100
AcDbEntity
  8
L1_55
  6
CONTINUOUS
 62
         4
100
AcDbLine
 10
1353.6033403763
 20
158.4346417294
 30
0.0
 11
1353.6033403763
 21
170.1846417294
 31
0.0
  0
LINE
  5
118
100
AcDbEntity
  8
L1_55
  6
CONTINUOUS
 62
         7
100
AcDbLine
 10
1347.6033403763
 20
130.2846417294
 30
0.0
 11
1347.7033403763
 21
130.1846417294
 31
0.0
  0
LINE
  5
119
100
AcDbEntity
  8
L1_55
  6
CONTINUOUS
 62
         7
100
AcDbLine
 10
1345.6533403763
 20
130.2846417294
 30
0.0
 11
1345.5533403763
 21
130.1846417294
 31
0.0
  0
LINE
  5
11A
100
AcDbEntity
  8
L1_55
  6
CONTINUOUS
 62
         7
100
AcDbLine
 10
1347.6033403763
 20
170.0846417294
 30
0.0
 11
1347.7033403763
 21
170.1846417294
 31
0.0
  0
LINE
  5
11B
100
AcDbEntity
  8
L1_55
  6
CONTINUOUS
 62
         7
100
AcDbLine
 10
1345.5533403763
 20
170.1846417294
 30
0.0
 11
1345.6533403763
 21
170.0846417294
 31
0.0
  0
LINE
  5
11C
100
AcDbEntity
  8
L1_55
  6
CONTINUOUS
 62
         7
100
AcDbLine
 10
1316.3533403763
 20
130.3846417294
 30
0.0
 11
1315.7533403763
 21
130.3846417294
 31
0.0
  0
ARC
  5
11D
100
AcDbEntity
  8
L1_55
  6
CONTINUOUS
 62
         7
100
AcDbCircle
 10
1315.7533403763
 20
129.9846417294
 30
0.0
 40
0.4
100
AcDbArc
 50
90.0
 51
180.0
  0
LINE
  5
11E
100
AcDbEntity
  8
L1_55
  6
CONTINUOUS
 62
         7
100
AcDbLine
 10
1316.3533403763
 20
130.3846417294
 30
0.0
 11
1316.5533403763
 21
130.1846417294
 31
0.0
  0
ARC
  5
11F
100
AcDbEntity
  8
L1_55
  6
CONTINUOUS
 62
         7
100
AcDbCircle
 10
1315.1533403763
 20
129.8846417294
 30
0.0
 40
0.2
100
AcDbArc
 50
270.0
 51
360.0
  0
ARC
  5
120
100
AcDbEntity
  8
L1_55
  6
CONTINUOUS
 62
         7
100
AcDbCircle
 10
1315.7533403763
 20
170.3846417294
 30
0.0
 40
0.4
100
AcDbArc
 50
180.0
 51
270.0
  0
LINE
  5
121
100
AcDbEntity
  8
L1_55
  6
CONTINUOUS
 62
         7
100
AcDbLine
 10
1316.3533403763
 20
169.9846417294
 30
0.0
 11
1315.7533403763
 21
169.9846417294
 31
0.0
  0
ARC
  5
122
100
AcDbEntity
  8
L1_55
  6
CONTINUOUS
 62
         7
100
AcDbCircle
 10
1315.1533403763
 20
170.4846417294
 30
0.0
 40
0.2
100
AcDbArc
 50
0.0
 51
90.0
  0
LINE
  5
123
100
AcDbEntity
  8
L1_55
  6
CONTINUOUS
 62
         7
100
AcDbLine
 10
1315.3533403763
 20
129.8846417294
 30
0.0
 11
1315.3533403763
 21
170.4846417294
 31
0.0
  0
LINE
  5
124
100
AcDbEntity
  8
L1_55
  6
CONTINUOUS
 62
         7
100
AcDbLine
 10
1316.3533403763
 20
169.9846417294
 30
0.0
 11
1316.5533403763
 21
170.1846417294
 31
0.0
  0
LINE
  5
125
100
AcDbEntity
  8
L1_55
  6
CONTINUOUS
 62
         7
100
AcDbLine
 10
1299.6033403763
 20
127.1846417294
 30
0.0
 11
1306.6033403763
 21
127.1846417294
 31
0.0
  0
LINE
  5
126
100
AcDbEntity
  8
L1_55
  6
CONTINUOUS
 62
         7
100
AcDbLine
 10
1299.6033403763
 20
173.1846417294
 30
0.0
 11
1306.6033403763
 21
173.1846417294
 31
0.0
  0
LINE
  5
127
100
AcDbEntity
  8
L1_55
  6
CONTINUOUS
 62
         7
100
AcDbLine
 10
1315.1533403763
 20
170.6846417294
 30
0.0
 11
1307.6033403763
 21
170.6846417294
 31
0.0
  0
LINE
  5
128
100
AcDbEntity
  8
L1_55
  6
CONTINUOUS
 62
         7
100
AcDbLine
 10
1315.1533403763
 20
129.6846417294
 30
0.0
 11
1307.6033403763
 21
129.6846417294
 31
0.0
  0
LINE
  5
129
100
AcDbEntity
  8
L1_55
  6
CONTINUOUS
 62
         7
100
AcDbLine
 10
1345.5533403763
 20
170.1846417294
 30
0.0
 11
1316.5533403763
 21
170.1846417294
 31
0.0
  0
LINE
  5
12A
100
AcDbEntity
  8
L1_55
  6
CONTINUOUS
 62
         7
100
AcDbLine
 10
1345.5533403763
 20
130.1846417294
 30
0.0
 11
1316.5533403763
 21
130.1846417294
 31
0.0
  0
LINE
  5
12B
100
AcDbEntity
  8
L1_55
  6
CONTINUOUS
 62
         7
100
AcDbLine
 10
1307.1033403763
 20
127.6846417294
 30
0.0
 11
1307.1033403763
 21
172.6846417294
 31
0.0
  0
ARC
  5
12C
100
AcDbEntity
  8
L1_55
  6
CONTINUOUS
 62
         7
100
AcDbCircle
 10
1307.6033403763
 20
171.1846417294
 30
0.0
 40
0.5
100
AcDbArc
 50
180.0
 51
270.0
  0
ARC
  5
12D
100
AcDbEntity
  8
L1_55
  6
CONTINUOUS
 62
         7
100
AcDbCircle
 10
1307.6033403763
 20
129.1846417294
 30
0.0
 40
0.5
100
AcDbArc
 50
90.0
 51
180.0
  0
LINE
  5
12E
100
AcDbEntity
  8
L1_55
  6
CONTINUOUS
 62
         7
100
AcDbLine
 10
1354.1033403763
 20
141.4346417294
 30
0.0
 11
1353.6033403763
 21
141.9346417294
 31
0.0
  0
LINE
  5
12F
100
AcDbEntity
  8
L1_55
  6
CONTINUOUS
 62
         7
100
AcDbLine
 10
1354.1033403763
 20
158.9346417294
 30
0.0
 11
1353.6033403763
 21
158.4346417294
 31
0.0
  0
LINE
  5
130
100
AcDbEntity
  8
L1_55
  6
CONTINUOUS
 62
         7
100
AcDbLine
 10
1354.1033403763
 20
158.9346417294
 30
0.0
 11
1354.1033403763
 21
169.6846417294
 31
0.0
  0
LINE
  5
131
100
AcDbEntity
  8
L1_55
  6
CONTINUOUS
 62
         7
100
AcDbLine
 10
1354.1033403763
 20
130.6846417294
 30
0.0
 11
1353.6033403763
 21
130.1846417294
 31
0.0
  0
LINE
  5
132
100
AcDbEntity
  8
L1_55
  6
CONTINUOUS
 62
         7
100
AcDbLine
 10
1353.6033403763
 20
170.1846417294
 30
0.0
 11
1354.1033403763
 21
169.6846417294
 31
0.0
  0
LINE
  5
133
100
AcDbEntity
  8
L1_55
  6
CONTINUOUS
 62
         7
100
AcDbLine
 10
1347.6033403763
 20
131.1846417294
 30
0.0
 11
1345.6533403763
 21
131.1846417294
 31
0.0
  0
LINE
  5
134
100
AcDbEntity
  8
L1_55
  6
CONTINUOUS
 62
         7
100
AcDbLine
 10
1347.6033403763
 20
169.1846417294
 30
0.0
 11
1345.6533403763
 21
169.1846417294
 31
0.0
  0
LINE
  5
135
100
AcDbEntity
  8
L1_55
  6
CONTINUOUS
 62
         7
100
AcDbLine
 10
1354.1033403763
 20
130.6846417294
 30
0.0
 11
1354.1033403763
 21
141.4346417294
 31
0.0
  0
LINE
  5
136
100
AcDbEntity
  8
L1_55
  6
CONTINUOUS
 62
         7
100
AcDbLine
 10
1353.6033403763
 20
130.1846417294
 30
0.0
 11
1347.7033403763
 21
130.1846417294
 31
0.0
  0
LINE
  5
137
100
AcDbEntity
  8
L1_55
  6
CONTINUOUS
 62
         7
100
AcDbLine
 10
1353.6033403763
 20
170.1846417294
 30
0.0
 11
1347.7033403763
 21
170.1846417294
 31
0.0
  0
LINE
  5
138
100
AcDbEntity
  8
L1_55
  6
CONTINUOUS
 62
         7
100
AcDbLine
 10
1353.6033403763
 20
158.4346417294
 30
0.0
 11
1348.8033403763
 21
158.4346417294
 31
0.0
  0
ARC
  5
139
100
AcDbEntity
  8
L1_55
  6
CONTINUOUS
 62
         7
100
AcDbCircle
 10
1348.8033403763
 20
157.9346417294
 30
0.0
 40
0.5
100
AcDbArc
 50
90.0
 51
180.0
  0
LINE
  5
13A
100
AcDbEntity
  8
L1_55
  6
CONTINUOUS
 62
         7
100
AcDbLine
 10
1348.3033403763
 20
142.4346417294
 30
0.0
 11
1348.3033403763
 21
157.9346417294
 31
0.0
  0
ARC
  5
13B
100
AcDbEntity
  8
L1_55
  6
CONTINUOUS
 62
         7
100
AcDbCircle
 10
1348.8033403763
 20
142.4346417294
 30
0.0
 40
0.5
100
AcDbArc
 50
180.0
 51
270.0
  0
LINE
  5
13C
100
AcDbEntity
  8
L1_55
  6
CONTINUOUS
 62
         7
100
AcDbLine
 10
1353.6033403763
 20
141.9346417294
 30
0.0
 11
1348.8033403763
 21
141.9346417294
 31
0.0
  0
LINE
  5
13D
100
AcDbEntity
  8
L1_55
  6
CONTINUOUS
 62
         7
100
AcDbLine
 10
1345.6533403763
 20
130.2846417294
 30
0.0
 11
1345.6533403763
 21
170.0846417294
 31
0.0
  0
LINE
  5
13E
100
AcDbEntity
  8
L1_55
  6
CONTINUOUS
 62
         7
100
AcDbLine
 10
1347.6033403763
 20
130.2846417294
 30
0.0
 11
1347.6033403763
 21
170.0846417294
 31
0.0
  0
LINE
  5
13F
100
AcDbEntity
  8
L1_55
  6
CENTER
 62
         1
100
AcDbLine
 10
1325.3033403763
 20
130.1846417294
 30
0.0
 11
1325.3033403763
 21
170.1846417294
 31
0.0
  0
POLYLINE
  5
141
100
AcDbEntity
  8
L1_55
  6
CONTINUOUS
 62
         7
100
AcDb2dPolyline
 66
         1
 10
0.0
 20
0.0
 30
0.0
 70
         2
  0
VERTEX
  5
143
100
AcDbEntity
  8
L1_55
  6
CONTINUOUS
 62
         7
100
AcDbVertex
100
AcDb2dVertex
 10
1328.5533403763
 20
160.1846417294
 30
0.0
 70
         1
  0
VERTEX
  5
145
100
AcDbEntity
  8
L1_55
  6
CONTINUOUS
 62
         7
100
AcDbVertex
100
AcDb2dVertex
 10
1328.5009523373
 20
160.6641953404
 30
0.0
 70
         1
  0
VERTEX
  5
147
100
AcDbEntity
  8
L1_55
  6
CONTINUOUS
 62
         7
100
AcDbVertex
100
AcDb2dVertex
 10
1328.4520745762
 20
160.8488435819
 30
0.0
 70
         1
  0
VERTEX
  5
149
100
AcDbEntity
  8
L1_55
  6
CONTINUOUS
 62
         7
100
AcDbVertex
100
AcDb2dVertex
 10
1328.385856927
 20
161.0344007104
 30
0.0
 70
         1
  0
VERTEX
  5
14B
100
AcDbEntity
  8
L1_55
  6
CONTINUOUS
 62
         7
100
AcDbVertex
100
AcDb2dVertex
 10
1328.3017480142
 20
161.2192002261
 30
0.0
 70
         1
  0
VERTEX
  5
14D
100
AcDbEntity
  8
L1_55
  6
CONTINUOUS
 62
         7
100
AcDbVertex
100
AcDb2dVertex
 10
1328.1995036201
 20
161.401458443
 30
0.0
 70
         1
  0
VERTEX
  5
14F
100
AcDbEntity
  8
L1_55
  6
CONTINUOUS
 62
         7
100
AcDbVertex
100
AcDb2dVertex
 10
1328.0792231611
 20
161.5793226203
 30
0.0
 70
         1
  0
VERTEX
  5
151
100
AcDbEntity
  8
L1_55
  6
CONTINUOUS
 62
         7
100
AcDbVertex
100
AcDb2dVertex
 10
1327.9413726852
 20
161.7509274464
 30
0.0
 70
         1
  0
VERTEX
  5
153
100
AcDbEntity
  8
L1_55
  6
CONTINUOUS
 62
         7
100
AcDbVertex
100
AcDb2dVertex
 10
1327.7867913201
 20
161.9144567959
 30
0.0
 70
         1
  0
VERTEX
  5
155
100
AcDbEntity
  8
L1_55
  6
CONTINUOUS
 62
         7
100
AcDbVertex
100
AcDb2dVertex
 10
1327.6166793231
 20
162.0682068498
 30
0.0
 70
         1
  0
VERTEX
  5
157
100
AcDbEntity
  8
L1_55
  6
CONTINUOUS
 62
         7
100
AcDbVertex
100
AcDb2dVertex
 10
1327.4325674562
 20
162.210646212
 30
0.0
 70
         1
  0
VERTEX
  5
159
100
AcDbEntity
  8
L1_55
  6
CONTINUOUS
 62
         7
100
AcDbVertex
100
AcDb2dVertex
 10
1327.1669815178
 20
162.3816141391
 30
0.0
 70
         1
  0
VERTEX
  5
15B
100
AcDbEntity
  8
L1_55
  6
CONTINUOUS
 62
         7
100
AcDbVertex
100
AcDb2dVertex
 10
1326.8844771806
 20
162.5275575485
 30
0.0
 70
         1
  0
VERTEX
  5
15D
100
AcDbEntity
  8
L1_55
  6
CONTINUOUS
 62
         7
100
AcDbVertex
100
AcDb2dVertex
 10
1326.5904087135
 20
162.6470604195
 30
0.0
 70
         1
  0
VERTEX
  5
15F
100
AcDbEntity
  8
L1_55
  6
CONTINUOUS
 62
         7
100
AcDbVertex
100
AcDb2dVertex
 10
1326.290199758
 20
162.7396919639
 30
0.0
 70
         1
  0
VERTEX
  5
161
100
AcDbEntity
  8
L1_55
  6
CONTINUOUS
 62
         7
100
AcDbVertex
100
AcDb2dVertex
 10
1325.9890389984
 20
162.805943969
 30
0.0
 70
         1
  0
VERTEX
  5
163
100
AcDbEntity
  8
L1_55
  6
CONTINUOUS
 62
         7
100
AcDbVertex
100
AcDb2dVertex
 10
1325.6916303527
 20
162.8471018757
 30
0.0
 70
         1
  0
VERTEX
  5
165
100
AcDbEntity
  8
L1_55
  6
CONTINUOUS
 62
         7
100
AcDbVertex
100
AcDb2dVertex
 10
1325.4020163861
 20
162.8650734054
 30
0.0
 70
         1
  0
VERTEX
  5
167
100
AcDbEntity
  8
L1_55
  6
CONTINUOUS
 62
         7
100
AcDbVertex
100
AcDb2dVertex
 10
1325.0309234007
 20
162.8568725641
 30
0.0
 70
         1
  0
VERTEX
  5
169
100
AcDbEntity
  8
L1_55
  6
CONTINUOUS
 62
         7
100
AcDbVertex
100
AcDb2dVertex
 10
1324.6854596654
 20
162.8173998927
 30
0.0
 70
         1
  0
VERTEX
  5
16B
100
AcDbEntity
  8
L1_55
  6
CONTINUOUS
 62
         7
100
AcDbVertex
100
AcDb2dVertex
 10
1324.3689981215
 20
162.7530995249
 30
0.0
 70
         1
  0
VERTEX
  5
16D
100
AcDbEntity
  8
L1_55
  6
CONTINUOUS
 62
         7
100
AcDbVertex
100
AcDb2dVertex
 10
1324.0829170858
 20
162.6700555393
 30
0.0
 70
         1
  0
VERTEX
  5
16F
100
AcDbEntity
  8
L1_55
  6
CONTINUOUS
 62
         7
100
AcDbVertex
100
AcDb2dVertex
 10
1323.8270573602
 20
162.5736831127
 30
0.0
 70
         1
  0
VERTEX
  5
171
100
AcDbEntity
  8
L1_55
  6
CONTINUOUS
 62
         7
100
AcDbVertex
100
AcDb2dVertex
 10
1323.5279500967
 20
162.430824503
 30
0.0
 70
         1
  0
VERTEX
  5
173
100
AcDbEntity
  8
L1_55
  6
CONTINUOUS
 62
         7
100
AcDbVertex
100
AcDb2dVertex
 10
1323.2764395862
 20
162.2808863241
 30
0.0
 70
         1
  0
VERTEX
  5
175
100
AcDbEntity
  8
L1_55
  6
CONTINUOUS
 62
         7
100
AcDbVertex
100
AcDb2dVertex
 10
1323.0666712813
 20
162.1302333028
 30
0.0
 70
         1
  0
VERTEX
  5
177
100
AcDbEntity
  8
L1_55
  6
CONTINUOUS
 62
         7
100
AcDbVertex
100
AcDb2dVertex
 10
1322.8389388965
 20
161.9329070851
 30
0.0
 70
         1
  0
VERTEX
  5
179
100
AcDbEntity
  8
L1_55
  6
CONTINUOUS
 62
         7
100
AcDbVertex
100
AcDb2dVertex
 10
1322.6630013905
 20
161.7482789686
 30
0.0
 70
         1
  0
VERTEX
  5
17B
100
AcDbEntity
  8
L1_55
  6
CONTINUOUS
 62
         7
100
AcDbVertex
100
AcDb2dVertex
 10
1322.5273813496
 20
161.5792193002
 30
0.0
 70
         1
  0
VERTEX
  5
17D
100
AcDbEntity
  8
L1_55
  6
CONTINUOUS
 62
         7
100
AcDbVertex
100
AcDb2dVertex
 10
1322.3915048608
 20
161.3757210813
 30
0.0
 70
         1
  0
VERTEX
  5
17F
100
AcDbEntity
  8
L1_55
  6
CONTINUOUS
 62
         7
100
AcDbVertex
100
AcDb2dVertex
 10
1322.2681348737
 20
161.1433643295
 30
0.0
 70
         1
  0
VERTEX
  5
181
100
AcDbEntity
  8
L1_55
  6
CONTINUOUS
 62
         7
100
AcDbVertex
100
AcDb2dVertex
 10
1322.1910503572
 20
160.9569862833
 30
0.0
 70
         1
  0
VERTEX
  5
183
100
AcDbEntity
  8
L1_55
  6
CONTINUOUS
 62
         7
100
AcDbVertex
100
AcDb2dVertex
 10
1322.128864288
 20
160.7593967121
 30
0.0
 70
         1
  0
VERTEX
  5
185
100
AcDbEntity
  8
L1_55
  6
CONTINUOUS
 62
         7
100
AcDbVertex
100
AcDb2dVertex
 10
1322.0865477013
 20
160.5670110718
 30
0.0
 70
         1
  0
VERTEX
  5
187
100
AcDbEntity
  8
L1_55
  6
CONTINUOUS
 62
         7
100
AcDbVertex
100
AcDb2dVertex
 10
1322.0592382579
 20
160.3461256298
 30
0.0
 70
         1
  0
VERTEX
  5
189
100
AcDbEntity
  8
L1_55
  6
CONTINUOUS
 62
         7
100
AcDbVertex
100
AcDb2dVertex
 10
1322.0533403763
 20
160.18464174
 30
0.0
 70
         1
  0
SEQEND
  5
18B
100
AcDbEntity
  8
L1_55
  6
CONTINUOUS
 62
         7
  0
POLYLINE
  5
18D
100
AcDbEntity
  8
L1_55
  6
CONTINUOUS
 62
         7
100
AcDb2dPolyline
 66
         1
 10
0.0
 20
0.0
 30
0.0
 70
         2
  0
VERTEX
  5
18F
100
AcDbEntity
  8
L1_55
  6
CONTINUOUS
 62
         7
100
AcDbVertex
100
AcDb2dVertex
 10
1322.0533403763
 20
160.1846417294
 30
0.0
 70
         1
  0
VERTEX
  5
191
100
AcDbEntity
  8
L1_55
  6
CONTINUOUS
 62
         7
100
AcDbVertex
100
AcDb2dVertex
 10
1322.1057283636
 20
159.6575510529
 30
0.0
 70
         1
  0
VERTEX
  5
193
100
AcDbEntity
  8
L1_55
  6
CONTINUOUS
 62
         7
100
AcDbVertex
100
AcDb2dVertex
 10
1322.154606074
 20
159.4545990546
 30
0.0
 70
         1
  0
VERTEX
  5
195
100
AcDbEntity
  8
L1_55
  6
CONTINUOUS
 62
         7
100
AcDbVertex
100
AcDb2dVertex
 10
1322.2208236525
 20
159.2506480742
 30
0.0
 70
         1
  0
VERTEX
  5
197
100
AcDbEntity
  8
L1_55
  6
CONTINUOUS
 62
         7
100
AcDbVertex
100
AcDb2dVertex
 10
1322.3049324736
 20
159.0475298056
 30
0.0
 70
         1
  0
VERTEX
  5
199
100
AcDbEntity
  8
L1_55
  6
CONTINUOUS
 62
         7
100
AcDbVertex
100
AcDb2dVertex
 10
1322.4071767542
 20
158.8472047451
 30
0.0
 70
         1
  0
VERTEX
  5
19B
100
AcDbEntity
  8
L1_55
  6
CONTINUOUS
 62
         7
100
AcDbVertex
100
AcDb2dVertex
 10
1322.5274570783
 20
158.651709289
 30
0.0
 70
         1
  0
VERTEX
  5
19D
100
AcDbEntity
  8
L1_55
  6
CONTINUOUS
 62
         7
100
AcDbVertex
100
AcDb2dVertex
 10
1322.6653073991
 20
158.4630936503
 30
0.0
 70
         1
  0
VERTEX
  5
19F
100
AcDbEntity
  8
L1_55
  6
CONTINUOUS
 62
         7
100
AcDbVertex
100
AcDb2dVertex
 10
1322.8198885907
 20
158.2833539801
 30
0.0
 70
         1
  0
VERTEX
  5
1A1
100
AcDbEntity
  8
L1_55
  6
CONTINUOUS
 62
         7
100
AcDbVertex
100
AcDb2dVertex
 10
1322.9900003987
 20
158.1143629913
 30
0.0
 70
         1
  0
VERTEX
  5
1A3
100
AcDbEntity
  8
L1_55
  6
CONTINUOUS
 62
         7
100
AcDbVertex
100
AcDb2dVertex
 10
1323.1741120649
 20
157.9578038818
 30
0.0
 70
         1
  0
VERTEX
  5
1A5
100
AcDbEntity
  8
L1_55
  6
CONTINUOUS
 62
         7
100
AcDbVertex
100
AcDb2dVertex
 10
1323.4396977228
 20
157.7698881899
 30
0.0
 70
         1
  0
VERTEX
  5
1A7
100
AcDbEntity
  8
L1_55
  6
CONTINUOUS
 62
         7
100
AcDbVertex
100
AcDb2dVertex
 10
1323.7222017766
 20
157.6094776086
 30
0.0
 70
         1
  0
VERTEX
  5
1A9
100
AcDbEntity
  8
L1_55
  6
CONTINUOUS
 62
         7
100
AcDbVertex
100
AcDb2dVertex
 10
1324.0162699684
 20
157.4781285272
 30
0.0
 70
         1
  0
VERTEX
  5
1AB
100
AcDbEntity
  8
L1_55
  6
CONTINUOUS
 62
         7
100
AcDbVertex
100
AcDb2dVertex
 10
1324.3164786669
 20
157.3763144403
 30
0.0
 70
         1
  0
VERTEX
  5
1AD
100
AcDbEntity
  8
L1_55
  6
CONTINUOUS
 62
         7
100
AcDbVertex
100
AcDb2dVertex
 10
1324.6176391962
 20
157.303494816
 30
0.0
 70
         1
  0
VERTEX
  5
1AF
100
AcDbEntity
  8
L1_55
  6
CONTINUOUS
 62
         7
100
AcDbVertex
100
AcDb2dVertex
 10
1324.9150476445
 20
157.2582567969
 30
0.0
 70
         1
  0
VERTEX
  5
1B1
100
AcDbEntity
  8
L1_55
  6
CONTINUOUS
 62
         7
100
AcDbVertex
100
AcDb2dVertex
 10
1325.2046614507
 20
157.23850356
 30
0.0
 70
         1
  0
VERTEX
  5
1B3
100
AcDbEntity
  8
L1_55
  6
CONTINUOUS
 62
         7
100
AcDbVertex
100
AcDb2dVertex
 10
1325.4831975905
 20
157.2416615535
 30
0.0
 70
         1
  0
VERTEX
  5
1B5
100
AcDbEntity
  8
L1_55
  6
CONTINUOUS
 62
         7
100
AcDbVertex
100
AcDb2dVertex
 10
1325.8356188158
 20
157.276943997
 30
0.0
 70
         1
  0
VERTEX
  5
1B7
100
AcDbEntity
  8
L1_55
  6
CONTINUOUS
 62
         7
100
AcDbVertex
100
AcDb2dVertex
 10
1326.1596927961
 20
157.3413053388
 30
0.0
 70
         1
  0
VERTEX
  5
1B9
100
AcDbEntity
  8
L1_55
  6
CONTINUOUS
 62
         7
100
AcDbVertex
100
AcDb2dVertex
 10
1326.4535735649
 20
157.4279169562
 30
0.0
 70
         1
  0
VERTEX
  5
1BB
100
AcDbEntity
  8
L1_55
  6
CONTINUOUS
 62
         7
100
AcDbVertex
100
AcDb2dVertex
 10
1326.7170718766
 20
157.5306174528
 30
0.0
 70
         1
  0
VERTEX
  5
1BD
100
AcDbEntity
  8
L1_55
  6
CONTINUOUS
 62
         7
100
AcDbVertex
100
AcDb2dVertex
 10
1326.9511955955
 20
157.6441143446
 30
0.0
 70
         1
  0
VERTEX
  5
1BF
100
AcDbEntity
  8
L1_55
  6
CONTINUOUS
 62
         7
100
AcDbVertex
100
AcDb2dVertex
 10
1327.2232987794
 20
157.8064538269
 30
0.0
 70
         1
  0
VERTEX
  5
1C1
100
AcDbEntity
  8
L1_55
  6
CONTINUOUS
 62
         7
100
AcDbVertex
100
AcDb2dVertex
 10
1327.4509848384
 20
157.9723978067
 30
0.0
 70
         1
  0
VERTEX
  5
1C3
100
AcDbEntity
  8
L1_55
  6
CONTINUOUS
 62
         7
100
AcDbVertex
100
AcDb2dVertex
 10
1327.6402583387
 20
158.1362591385
 30
0.0
 70
         1
  0
VERTEX
  5
1C5
100
AcDbEntity
  8
L1_55
  6
CONTINUOUS
 62
         7
100
AcDbVertex
100
AcDb2dVertex
 10
1327.8452707551
 20
158.3480201755
 30
0.0
 70
         1
  0
VERTEX
  5
1C7
100
AcDbEntity
  8
L1_55
  6
CONTINUOUS
 62
         7
100
AcDbVertex
100
AcDb2dVertex
 10
1328.0034572254
 20
158.5441728996
 30
0.0
 70
         1
  0
VERTEX
  5
1C9
100
AcDbEntity
  8
L1_55
  6
CONTINUOUS
 62
         7
100
AcDbVertex
100
AcDb2dVertex
 10
1328.1618816873
 20
158.7822099138
 30
0.0
 70
         1
  0
VERTEX
  5
1CB
100
AcDbEntity
  8
L1_55
  6
CONTINUOUS
 62
         7
100
AcDbVertex
100
AcDb2dVertex
 10
1328.2732979247
 20
158.9876926499
 30
0.0
 70
         1
  0
VERTEX
  5
1CD
100
AcDbEntity
  8
L1_55
  6
CONTINUOUS
 62
         7
100
AcDbVertex
100
AcDb2dVertex
 10
1328.3747654076
 20
159.2210616422
 30
0.0
 70
         1
  0
VERTEX
  5
1CF
100
AcDbEntity
  8
L1_55
  6
CONTINUOUS
 62
         7
100
AcDbVertex
100
AcDb2dVertex
 10
1328.4560429287
 20
159.468824057
 30
0.0
 70
         1
  0
VERTEX
  5
1D1
100
AcDbEntity
  8
L1_55
  6
CONTINUOUS
 62
         7
100
AcDbVertex
100
AcDb2dVertex
 10
1328.5108620728
 20
159.7096494532
 30
0.0
 70
         1
  0
VERTEX
  5
1D3
100
AcDbEntity
  8
L1_55
  6
CONTINUOUS
 62
         7
100
AcDbVertex
100
AcDb2dVertex
 10
1328.5400067724
 20
159.9179223426
 30
0.0
 70
         1
  0
VERTEX
  5
1D5
100
AcDbEntity
  8
L1_55
  6
CONTINUOUS
 62
         7
100
AcDbVertex
100
AcDb2dVertex
 10
1328.5533403763
 20
160.1846390308
 30
0.0
 70
         1
  0
SEQEND
  5
1D7
100
AcDbEntity
  8
L1_55
  6
CONTINUOUS
 62
         7
  0
LINE
  5
1D8
100
AcDbEntity
  8
L1_55
  6
CENTER
 62
         1
100
AcDbLine
 10
1328.5533403763
 20
160.1846417294
 30
0.0
 11
1322.0533403763
 21
160.1846417294
 31
0.0
  0
POLYLINE
  5
1DA
100
AcDbEntity
  8
L1_55
  6
CONTINUOUS
 62
         7
100
AcDb2dPolyline
 66
         1
 10
0.0
 20
0.0
 30
0.0
 70
         2
  0
VERTEX
  5
1DC
100
AcDbEntity
  8
L1_55
  6
CONTINUOUS
 62
         7
100
AcDbVertex
100
AcDb2dVertex
 10
1322.0533403763
 20
140.1846417188
 30
0.0
 70
         1
  0
VERTEX
  5
1DE
100
AcDbEntity
  8
L1_55
  6
CONTINUOUS
 62
         7
100
AcDbVertex
100
AcDb2dVertex
 10
1322.105728418
 20
139.7050881061
 30
0.0
 70
         1
  0
VERTEX
  5
1E0
100
AcDbEntity
  8
L1_55
  6
CONTINUOUS
 62
         7
100
AcDbVertex
100
AcDb2dVertex
 10
1322.1546061803
 20
139.5204398641
 30
0.0
 70
         1
  0
VERTEX
  5
1E2
100
AcDbEntity
  8
L1_55
  6
CONTINUOUS
 62
         7
100
AcDbVertex
100
AcDb2dVertex
 10
1322.2208238308
 20
139.3348827351
 30
0.0
 70
         1
  0
VERTEX
  5
1E4
100
AcDbEntity
  8
L1_55
  6
CONTINUOUS
 62
         7
100
AcDbVertex
100
AcDb2dVertex
 10
1322.3049327452
 20
139.1500832191
 30
0.0
 70
         1
  0
VERTEX
  5
1E6
100
AcDbEntity
  8
L1_55
  6
CONTINUOUS
 62
         7
100
AcDbVertex
100
AcDb2dVertex
 10
1322.4071771409
 20
138.9678250021
 30
0.0
 70
         1
  0
VERTEX
  5
1E8
100
AcDbEntity
  8
L1_55
  6
CONTINUOUS
 62
         7
100
AcDbVertex
100
AcDb2dVertex
 10
1322.5274576015
 20
138.7899608247
 30
0.0
 70
         1
  0
VERTEX
  5
1EA
100
AcDbEntity
  8
L1_55
  6
CONTINUOUS
 62
         7
100
AcDbVertex
100
AcDb2dVertex
 10
1322.6653080792
 20
138.6183559988
 30
0.0
 70
         1
  0
VERTEX
  5
1EC
100
AcDbEntity
  8
L1_55
  6
CONTINUOUS
 62
         7
100
AcDbVertex
100
AcDb2dVertex
 10
1322.819889446
 20
138.4548266495
 30
0.0
 70
         1
  0
VERTEX
  5
1EE
100
AcDbEntity
  8
L1_55
  6
CONTINUOUS
 62
         7
100
AcDbVertex
100
AcDb2dVertex
 10
1322.9900014447
 20
138.3010765962
 30
0.0
 70
         1
  0
VERTEX
  5
1F0
100
AcDbEntity
  8
L1_55
  6
CONTINUOUS
 62
         7
100
AcDbVertex
100
AcDb2dVertex
 10
1323.1741133134
 20
138.1586372346
 30
0.0
 70
         1
  0
VERTEX
  5
1F2
100
AcDbEntity
  8
L1_55
  6
CONTINUOUS
 62
         7
100
AcDbVertex
100
AcDb2dVertex
 10
1323.4396992539
 20
137.9876693086
 30
0.0
 70
         1
  0
VERTEX
  5
1F4
100
AcDbEntity
  8
L1_55
  6
CONTINUOUS
 62
         7
100
AcDbVertex
100
AcDb2dVertex
 10
1323.7222035929
 20
137.8417259006
 30
0.0
 70
         1
  0
VERTEX
  5
1F6
100
AcDbEntity
  8
L1_55
  6
CONTINUOUS
 62
         7
100
AcDbVertex
100
AcDb2dVertex
 10
1324.0162720616
 20
137.7222230312
 30
0.0
 70
         1
  0
VERTEX
  5
1F8
100
AcDbEntity
  8
L1_55
  6
CONTINUOUS
 62
         7
100
AcDbVertex
100
AcDb2dVertex
 10
1324.3164810184
 20
137.6295914886
 30
0.0
 70
         1
  0
VERTEX
  5
1FA
100
AcDbEntity
  8
L1_55
  6
CONTINUOUS
 62
         7
100
AcDbVertex
100
AcDb2dVertex
 10
1324.6176417789
 20
137.5633394853
 30
0.0
 70
         1
  0
VERTEX
  5
1FC
100
AcDbEntity
  8
L1_55
  6
CONTINUOUS
 62
         7
100
AcDbVertex
100
AcDb2dVertex
 10
1324.9150504252
 20
137.5221815805
 30
0.0
 70
         1
  0
VERTEX
  5
1FE
100
AcDbEntity
  8
L1_55
  6
CONTINUOUS
 62
         7
100
AcDbVertex
100
AcDb2dVertex
 10
1325.2046643921
 20
137.5042100527
 30
0.0
 70
         1
  0
VERTEX
  5
200
100
AcDbEntity
  8
L1_55
  6
CONTINUOUS
 62
         7
100
AcDbVertex
100
AcDb2dVertex
 10
1325.5757573773
 20
137.5124108965
 30
0.0
 70
         1
  0
VERTEX
  5
202
100
AcDbEntity
  8
L1_55
  6
CONTINUOUS
 62
         7
100
AcDbVertex
100
AcDb2dVertex
 10
1325.9212211121
 20
137.55188357
 30
0.0
 70
         1
  0
VERTEX
  5
204
100
AcDbEntity
  8
L1_55
  6
CONTINUOUS
 62
         7
100
AcDbVertex
100
AcDb2dVertex
 10
1326.2376826551
 20
137.6161839398
 30
0.0
 70
         1
  0
VERTEX
  5
206
100
AcDbEntity
  8
L1_55
  6
CONTINUOUS
 62
         7
100
AcDbVertex
100
AcDb2dVertex
 10
1326.5237636896
 20
137.6992279271
 30
0.0
 70
         1
  0
VERTEX
  5
208
100
AcDbEntity
  8
L1_55
  6
CONTINUOUS
 62
         7
100
AcDbVertex
100
AcDb2dVertex
 10
1326.7796234139
 20
137.7956003552
 30
0.0
 70
         1
  0
VERTEX
  5
20A
100
AcDbEntity
  8
L1_55
  6
CONTINUOUS
 62
         7
100
AcDbVertex
100
AcDb2dVertex
 10
1327.0787306755
 20
137.9384589664
 30
0.0
 70
         1
  0
VERTEX
  5
20C
100
AcDbEntity
  8
L1_55
  6
CONTINUOUS
 62
         7
100
AcDbVertex
100
AcDb2dVertex
 10
1327.3302411841
 20
138.0883971465
 30
0.0
 70
         1
  0
VERTEX
  5
20E
100
AcDbEntity
  8
L1_55
  6
CONTINUOUS
 62
         7
100
AcDbVertex
100
AcDb2dVertex
 10
1327.5400094873
 20
138.2390501686
 30
0.0
 70
         1
  0
VERTEX
  5
210
100
AcDbEntity
  8
L1_55
  6
CONTINUOUS
 62
         7
100
AcDbVertex
100
AcDb2dVertex
 10
1327.7677418698
 20
138.4363763869
 30
0.0
 70
         1
  0
VERTEX
  5
212
100
AcDbEntity
  8
L1_55
  6
CONTINUOUS
 62
         7
100
AcDbVertex
100
AcDb2dVertex
 10
1327.9436793738
 20
138.6210045038
 30
0.0
 70
         1
  0
VERTEX
  5
214
100
AcDbEntity
  8
L1_55
  6
CONTINUOUS
 62
         7
100
AcDbVertex
100
AcDb2dVertex
 10
1328.0792994131
 20
138.7900641723
 30
0.0
 70
         1
  0
VERTEX
  5
216
100
AcDbEntity
  8
L1_55
  6
CONTINUOUS
 62
         7
100
AcDbVertex
100
AcDb2dVertex
 10
1328.2151759
 20
138.9935623912
 30
0.0
 70
         1
  0
VERTEX
  5
218
100
AcDbEntity
  8
L1_55
  6
CONTINUOUS
 62
         7
100
AcDbVertex
100
AcDb2dVertex
 10
1328.338545885
 20
139.2259191427
 30
0.0
 70
         1
  0
VERTEX
  5
21A
100
AcDbEntity
  8
L1_55
  6
CONTINUOUS
 62
         7
100
AcDbVertex
100
AcDb2dVertex
 10
1328.4156304001
 20
139.4122971885
 30
0.0
 70
         1
  0
VERTEX
  5
21C
100
AcDbEntity
  8
L1_55
  6
CONTINUOUS
 62
         7
100
AcDbVertex
100
AcDb2dVertex
 10
1328.4778164678
 20
139.6098867592
 30
0.0
 70
         1
  0
VERTEX
  5
21E
100
AcDbEntity
  8
L1_55
  6
CONTINUOUS
 62
         7
100
AcDbVertex
100
AcDb2dVertex
 10
1328.5201330533
 20
139.802272399
 30
0.0
 70
         1
  0
VERTEX
  5
220
100
AcDbEntity
  8
L1_55
  6
CONTINUOUS
 62
         7
100
AcDbVertex
100
AcDb2dVertex
 10
1328.5474424955
 20
140.0231578402
 30
0.0
 70
         1
  0
VERTEX
  5
222
100
AcDbEntity
  8
L1_55
  6
CONTINUOUS
 62
         7
100
AcDbVertex
100
AcDb2dVertex
 10
1328.5533403763
 20
140.1846417294
 30
0.0
 70
         1
  0
SEQEND
  5
224
100
AcDbEntity
  8
L1_55
  6
CONTINUOUS
 62
         7
  0
POLYLINE
  5
226
100
AcDbEntity
  8
L1_55
  6
CONTINUOUS
 62
         7
100
AcDb2dPolyline
 66
         1
 10
0.0
 20
0.0
 30
0.0
 70
         2
  0
VERTEX
  5
228
100
AcDbEntity
  8
L1_55
  6
CONTINUOUS
 62
         7
100
AcDbVertex
100
AcDb2dVertex
 10
1328.5533403763
 20
140.184644428
 30
0.0
 70
         1
  0
VERTEX
  5
22A
100
AcDbEntity
  8
L1_55
  6
CONTINUOUS
 62
         7
100
AcDbVertex
100
AcDb2dVertex
 10
1328.5009517616
 20
140.7117355357
 30
0.0
 70
         1
  0
VERTEX
  5
22C
100
AcDbEntity
  8
L1_55
  6
CONTINUOUS
 62
         7
100
AcDbVertex
100
AcDb2dVertex
 10
1328.452073759
 20
140.9146876663
 30
0.0
 70
         1
  0
VERTEX
  5
22E
100
AcDbEntity
  8
L1_55
  6
CONTINUOUS
 62
         7
100
AcDbVertex
100
AcDb2dVertex
 10
1328.3858558583
 20
141.1186387552
 30
0.0
 70
         1
  0
VERTEX
  5
230
100
AcDbEntity
  8
L1_55
  6
CONTINUOUS
 62
         7
100
AcDbVertex
100
AcDb2dVertex
 10
1328.3017466881
 20
141.3217571034
 30
0.0
 70
         1
  0
VERTEX
  5
232
100
AcDbEntity
  8
L1_55
  6
CONTINUOUS
 62
         7
100
AcDbVertex
100
AcDb2dVertex
 10
1328.1995020355
 20
141.5220822096
 30
0.0
 70
         1
  0
VERTEX
  5
234
100
AcDbEntity
  8
L1_55
  6
CONTINUOUS
 62
         7
100
AcDbVertex
100
AcDb2dVertex
 10
1328.0792213218
 20
141.7175776734
 30
0.0
 70
         1
  0
VERTEX
  5
236
100
AcDbEntity
  8
L1_55
  6
CONTINUOUS
 62
         7
100
AcDbVertex
100
AcDb2dVertex
 10
1327.9413706004
 20
141.9061932783
 30
0.0
 70
         1
  0
VERTEX
  5
238
100
AcDbEntity
  8
L1_55
  6
CONTINUOUS
 62
         7
100
AcDbVertex
100
AcDb2dVertex
 10
1327.7867890044
 20
142.0859328709
 30
0.0
 70
         1
  0
VERTEX
  5
23A
100
AcDbEntity
  8
L1_55
  6
CONTINUOUS
 62
         7
100
AcDbVertex
100
AcDb2dVertex
 10
1327.6166767959
 20
142.2549237375
 30
0.0
 70
         1
  0
VERTEX
  5
23C
100
AcDbEntity
  8
L1_55
  6
CONTINUOUS
 62
         7
100
AcDbVertex
100
AcDb2dVertex
 10
1327.4325647412
 20
142.4114826806
 30
0.0
 70
         1
  0
VERTEX
  5
23E
100
AcDbEntity
  8
L1_55
  6
CONTINUOUS
 62
         7
100
AcDbVertex
100
AcDb2dVertex
 10
1327.1669785949
 20
142.5993980841
 30
0.0
 70
         1
  0
VERTEX
  5
240
100
AcDbEntity
  8
L1_55
  6
CONTINUOUS
 62
         7
100
AcDbVertex
100
AcDb2dVertex
 10
1326.884474105
 20
142.75980831
 30
0.0
 70
         1
  0
VERTEX
  5
242
100
AcDbEntity
  8
L1_55
  6
CONTINUOUS
 62
         7
100
AcDbVertex
100
AcDb2dVertex
 10
1326.590405543
 20
142.8911569816
 30
0.0
 70
         1
  0
VERTEX
  5
244
100
AcDbEntity
  8
L1_55
  6
CONTINUOUS
 62
         7
100
AcDbVertex
100
AcDb2dVertex
 10
1326.2901965493
 20
142.9929706186
 30
0.0
 70
         1
  0
VERTEX
  5
246
100
AcDbEntity
  8
L1_55
  6
CONTINUOUS
 62
         7
100
AcDbVertex
100
AcDb2dVertex
 10
1325.9890358047
 20
143.0657897687
 30
0.0
 70
         1
  0
VERTEX
  5
248
100
AcDbEntity
  8
L1_55
  6
CONTINUOUS
 62
         7
100
AcDbVertex
100
AcDb2dVertex
 10
1325.6916272207
 20
143.1110273044
 30
0.0
 70
         1
  0
VERTEX
  5
24A
100
AcDbEntity
  8
L1_55
  6
CONTINUOUS
 62
         7
100
AcDbVertex
100
AcDb2dVertex
 10
1325.4020133548
 20
143.1307800626
 30
0.0
 70
         1
  0
VERTEX
  5
24C
100
AcDbEntity
  8
L1_55
  6
CONTINUOUS
 62
         7
100
AcDbVertex
100
AcDb2dVertex
 10
1325.1234772247
 20
143.1276216069
 30
0.0
 70
         1
  0
VERTEX
  5
24E
100
AcDbEntity
  8
L1_55
  6
CONTINUOUS
 62
         7
100
AcDbVertex
100
AcDb2dVertex
 10
1324.7710561056
 20
143.0923385838
 30
0.0
 70
         1
  0
VERTEX
  5
250
100
AcDbEntity
  8
L1_55
  6
CONTINUOUS
 62
         7
100
AcDbVertex
100
AcDb2dVertex
 10
1324.4469823171
 20
143.027976723
 30
0.0
 70
         1
  0
VERTEX
  5
252
100
AcDbEntity
  8
L1_55
  6
CONTINUOUS
 62
         7
100
AcDbVertex
100
AcDb2dVertex
 10
1324.1531018019
 20
142.9413646542
 30
0.0
 70
         1
  0
VERTEX
  5
254
100
AcDbEntity
  8
L1_55
  6
CONTINUOUS
 62
         7
100
AcDbVertex
100
AcDb2dVertex
 10
1323.8896037841
 20
142.8386637751
 30
0.0
 70
         1
  0
VERTEX
  5
256
100
AcDbEntity
  8
L1_55
  6
CONTINUOUS
 62
         7
100
AcDbVertex
100
AcDb2dVertex
 10
1323.6554803818
 20
142.7251665666
 30
0.0
 70
         1
  0
VERTEX
  5
258
100
AcDbEntity
  8
L1_55
  6
CONTINUOUS
 62
         7
100
AcDbVertex
100
AcDb2dVertex
 10
1323.3833776352
 20
142.5628267514
 30
0.0
 70
         1
  0
VERTEX
  5
25A
100
AcDbEntity
  8
L1_55
  6
CONTINUOUS
 62
         7
100
AcDbVertex
100
AcDb2dVertex
 10
1323.1556920046
 20
142.3968825304
 30
0.0
 70
         1
  0
VERTEX
  5
25C
100
AcDbEntity
  8
L1_55
  6
CONTINUOUS
 62
         7
100
AcDbVertex
100
AcDb2dVertex
 10
1322.9664189089
 20
142.2330210313
 30
0.0
 70
         1
  0
VERTEX
  5
25E
100
AcDbEntity
  8
L1_55
  6
CONTINUOUS
 62
         7
100
AcDbVertex
100
AcDb2dVertex
 10
1322.7614069881
 20
142.0212598575
 30
0.0
 70
         1
  0
VERTEX
  5
260
100
AcDbEntity
  8
L1_55
  6
CONTINUOUS
 62
         7
100
AcDbVertex
100
AcDb2dVertex
 10
1322.6032209493
 20
141.8251070694
 30
0.0
 70
         1
  0
VERTEX
  5
262
100
AcDbEntity
  8
L1_55
  6
CONTINUOUS
 62
         7
100
AcDbVertex
100
AcDb2dVertex
 10
1322.4447969758
 20
141.5870700421
 30
0.0
 70
         1
  0
VERTEX
  5
264
100
AcDbEntity
  8
L1_55
  6
CONTINUOUS
 62
         7
100
AcDbVertex
100
AcDb2dVertex
 10
1322.3333811288
 20
141.3815873414
 30
0.0
 70
         1
  0
VERTEX
  5
266
100
AcDbEntity
  8
L1_55
  6
CONTINUOUS
 62
         7
100
AcDbVertex
100
AcDb2dVertex
 10
1322.2319140542
 20
141.1482184326
 30
0.0
 70
         1
  0
VERTEX
  5
268
100
AcDbEntity
  8
L1_55
  6
CONTINUOUS
 62
         7
100
AcDbVertex
100
AcDb2dVertex
 10
1322.1506369257
 20
140.9004561482
 30
0.0
 70
         1
  0
VERTEX
  5
26A
100
AcDbEntity
  8
L1_55
  6
CONTINUOUS
 62
         7
100
AcDbVertex
100
AcDb2dVertex
 10
1322.0958181229
 20
140.6596309131
 30
0.0
 70
         1
  0
VERTEX
  5
26C
100
AcDbEntity
  8
L1_55
  6
CONTINUOUS
 62
         7
100
AcDbVertex
100
AcDb2dVertex
 10
1322.0666736864
 20
140.4513581855
 30
0.0
 70
         1
  0
VERTEX
  5
26E
100
AcDbEntity
  8
L1_55
  6
CONTINUOUS
 62
         7
100
AcDbVertex
100
AcDb2dVertex
 10
1322.0533403763
 20
140.1846417294
 30
0.0
 70
         1
  0
SEQEND
  5
270
100
AcDbEntity
  8
L1_55
  6
CONTINUOUS
 62
         7
  0
LINE
  5
271
100
AcDbEntity
  8
L1_55
  6
CENTER
 62
         1
100
AcDbLine
 10
1328.5533403763
 20
140.1846417294
 30
0.0
 11
1322.0533403763
 21
140.1846417294
 31
0.0
  0
LINE
  5
272
100
AcDbEntity
  8
L1_55
  6
CONTINUOUS
 62
         7
100
AcDbLine
 10
1299.1033403763
 20
163.8846417294
 30
0.0
 11
1299.1033403763
 21
136.4846417294
 31
0.0
  0
DIMENSION
  5
275
100
AcDbEntity
  8
L1_55
  6
CONTINUOUS
 62
         4
100
AcDbDimension
  2
*D4
 10
1241.2033403763
 20
216.7781906858
 30
0.0
 11
1289.7436968128
 21
218.8031906858
 31
0.0
  3
DIMSTYLE2
100
AcDbAlignedDimension
 13
1241.2033403763
 23
161.3846417294
 33
0.0
 14
1354.1033403763
 24
169.6846417294
 34
0.0
100
AcDbRotatedDimension
  0
DIMENSION
  5
283
100
AcDbEntity
  8
L1_55
  6
CONTINUOUS
 62
         4
100
AcDbDimension
  2
*D5
 10
1299.1033403763
 20
209.1174111078
 30
0.0
 11
1325.5634003571
 21
211.1424111078
 31
0.0
  3
DIMSTYLE2
100
AcDbAlignedDimension
 13
1299.1033403763
 23
172.6846417294
 33
0.0
 14
1354.1033403763
 24
169.6846417294
 34
0.0
100
AcDbRotatedDimension
  0
ARC
  5
28F
100
AcDbEntity
  8
L1_55
  6
CONTINUOUS
 62
         7
100
AcDbCircle
 10
1298.7033403763
 20
163.0846417294
 30
0.0
 40
0.4
100
AcDbArc
 50
270.0
 51
360.0
  0
LINE
  5
290
100
AcDbEntity
  8
L1_55
  6
CONTINUOUS
 62
         7
100
AcDbLine
 10
1298.7033403763
 20
162.6846417294
 30
0.0
 11
1298.4024115368
 21
162.6846417294
 31
0.0
  0
LINE
  5
291
100
AcDbEntity
  8
L1_55
  6
CONTINUOUS
 62
         7
100
AcDbLine
 10
1297.6033403763
 20
162.8846417294
 30
0.0
 11
1298.2988839188
 21
162.6982713989
 31
0.0
  0
ARC
  5
292
100
AcDbEntity
  8
L1_55
  6
CONTINUOUS
 62
         7
100
AcDbCircle
 10
1298.4024115368
 20
163.0846417294
 30
0.0
 40
0.4
100
AcDbArc
 50
255.0
 51
270.0
  0
LINE
  5
293
100
AcDbEntity
  8
L1_55
  6
CONTINUOUS
 62
         4
100
AcDbLine
 10
1298.7033403763
 20
137.6846417294
 30
0.0
 11
1298.7033403763
 21
162.6846417294
 31
0.0
  0
LINE
  5
294
100
AcDbEntity
  8
L1_55
  6
CONTINUOUS
 62
         4
100
AcDbLine
 10
1298.3497505378
 20
137.6846417294
 30
0.0
 11
1298.3497505378
 21
162.6881233576
 31
0.0
  0
LINE
  5
295
100
AcDbEntity
  8
L1_55
  6
CONTINUOUS
 62
         4
100
AcDbLine
 10
1297.6033403763
 20
162.8846417294
 30
0.0
 11
1297.6033403763
 21
137.4846417294
 31
0.0
  0
LINE
  5
296
100
AcDbEntity
  8
L1_55
  6
CONTINUOUS
 62
         7
100
AcDbLine
 10
1297.6033403763
 20
162.8846417294
 30
0.0
 11
1242.7033403763
 21
162.8846417294
 31
0.0
  0
ARC
  5
297
100
AcDbEntity
  8
L1_55
  6
CONTINUOUS
 62
         7
100
AcDbCircle
 10
1298.7033403763
 20
137.2846417294
 30
0.0
 40
0.4
100
AcDbArc
 50
0.0
 51
90.0
  0
LINE
  5
298
100
AcDbEntity
  8
L1_55
  6
CONTINUOUS
 62
         7
100
AcDbLine
 10
1298.7033403763
 20
137.6846417294
 30
0.0
 11
1298.4024115368
 21
137.6846417294
 31
0.0
  0
LINE
  5
299
100
AcDbEntity
  8
L1_55
  6
CONTINUOUS
 62
         7
100
AcDbLine
 10
1297.6033403763
 20
137.4846417294
 30
0.0
 11
1298.2988839188
 21
137.6710120599
 31
0.0
  0
ARC
  5
29A
100
AcDbEntity
  8
L1_55
  6
CONTINUOUS
 62
         7
100
AcDbCircle
 10
1298.4024115368
 20
137.2846417294
 30
0.0
 40
0.4
100
AcDbArc
 50
90.0
 51
105.0
  0
LINE
  5
29B
100
AcDbEntity
  8
L1_55
  6
CONTINUOUS
 62
         7
100
AcDbLine
 10
1297.6033403763
 20
137.4846417294
 30
0.0
 11
1278.6433403763
 21
137.4846417294
 31
0.0
  0
LINE
  5
29C
100
AcDbEntity
  8
L1_55
  6
CONTINUOUS
 62
         7
100
AcDbLine
 10
1276.7433403763
 20
139.3846417294
 30
0.0
 11
1263.6633403763
 21
139.3846417294
 31
0.0
  0
LINE
  5
29D
100
AcDbEntity
  8
L1_55
  6
CONTINUOUS
 62
         7
100
AcDbLine
 10
1276.7433403763
 20
139.3846417294
 30
0.0
 11
1278.6433403763
 21
137.4846417294
 31
0.0
  0
LINE
  5
29E
100
AcDbEntity
  8
L1_55
  6
CONTINUOUS
 62
         7
100
AcDbLine
 10
1261.7633403763
 20
137.4846417294
 30
0.0
 11
1263.6633403763
 21
139.3846417294
 31
0.0
  0
LINE
  5
29F
100
AcDbEntity
  8
L1_55
  6
CONTINUOUS
 62
         7
100
AcDbLine
 10
1261.7633403763
 20
137.4846417294
 30
0.0
 11
1255.8033403763
 21
137.4846417294
 31
0.0
  0
LINE
  5
2A0
100
AcDbEntity
  8
L1_55
  6
CONTINUOUS
 62
         7
100
AcDbLine
 10
1253.9033403763
 20
139.3846417294
 30
0.0
 11
1255.8033403763
 21
137.4846417294
 31
0.0
  0
LINE
  5
2A1
100
AcDbEntity
  8
L1_55
  6
CONTINUOUS
 62
         7
100
AcDbLine
 10
1253.9033403763
 20
139.3846417294
 30
0.0
 11
1241.2033403763
 21
139.3846417294
 31
0.0
  0
LINE
  5
2A2
100
AcDbEntity
  8
L1_55
  6
CONTINUOUS
 62
         7
100
AcDbLine
 10
1248.5033403763
 20
144.3880910309
 30
0.0
 11
1274.5266001574
 21
141.2475961929
 31
0.0
  0
LINE
  5
2A3
100
AcDbEntity
  8
L1_55
  6
CONTINUOUS
 62
         4
100
AcDbLine
 10
1248.5033403763
 20
155.9811924279
 30
0.0
 11
1274.5266001574
 21
141.2475961929
 31
0.0
  0
LINE
  5
2A4
100
AcDbEntity
  8
L1_55
  6
CONTINUOUS
 62
         4
100
AcDbLine
 10
1274.5266001574
 20
159.1216872659
 30
0.0
 11
1248.5033403763
 21
144.3880910309
 31
0.0
  0
LINE
  5
2A5
100
AcDbEntity
  8
L1_55
  6
CONTINUOUS
 62
         4
100
AcDbLine
 10
1274.5266001574
 20
141.2475961929
 30
0.0
 11
1274.5266001574
 21
159.1216872659
 31
0.0
  0
ARC
  5
2A6
100
AcDbEntity
  8
L1_55
  6
CONTINUOUS
 62
         7
100
AcDbCircle
 10
1265.5033403763
 20
150.1846417294
 30
0.0
 40
12.7
100
AcDbArc
 50
315.2750328752
 51
404.7249671248
  0
LINE
  5
2A7
100
AcDbEntity
  8
L1_55
  6
DASHED
 62
         2
100
AcDbLine
 10
1241.2033403763
 20
152.1346417294
 30
0.0
 11
1243.195198805
 21
150.9846417294
 31
0.0
  0
LINE
  5
2A8
100
AcDbEntity
  8
L1_55
  6
DASHED
 62
         2
100
AcDbLine
 10
1241.2033403763
 20
148.2346417294
 30
0.0
 11
1243.195198805
 21
149.3846417294
 31
0.0
  0
LINE
  5
2A9
100
AcDbEntity
  8
L1_55
  6
DASHED
 62
         2
100
AcDbLine
 10
1244.1414601609
 20
149.3846417294
 30
0.0
 11
1243.195198805
 21
149.3846417294
 31
0.0
  0
LINE
  5
2AA
100
AcDbEntity
  8
L1_55
  6
DASHED
 62
         2
100
AcDbLine
 10
1243.195198805
 20
149.3846417294
 30
0.0
 11
1243.195198805
 21
150.9846417294
 31
0.0
  0
LINE
  5
2AB
100
AcDbEntity
  8
L1_55
  6
DASHED
 62
         2
100
AcDbLine
 10
1244.1414601609
 20
149.3846417294
 30
0.0
 11
1244.1414601609
 21
150.9846417294
 31
0.0
  0
LINE
  5
2AC
100
AcDbEntity
  8
L1_55
  6
DASHED
 62
         2
100
AcDbLine
 10
1244.1414601609
 20
149.3846417294
 30
0.0
 11
1244.6033403763
 21
150.1846417294
 31
0.0
  0
LINE
  5
2AD
100
AcDbEntity
  8
L1_55
  6
DASHED
 62
         2
100
AcDbLine
 10
1244.1414601609
 20
150.9846417294
 30
0.0
 11
1244.6033403763
 21
150.1846417294
 31
0.0
  0
LINE
  5
2AE
100
AcDbEntity
  8
L1_55
  6
DASHED
 62
         2
100
AcDbLine
 10
1244.1414601609
 20
150.9846417294
 30
0.0
 11
1243.195198805
 21
150.9846417294
 31
0.0
  0
LINE
  5
2AF
100
AcDbEntity
  8
L1_55
  6
CONTINUOUS
 62
         7
100
AcDbLine
 10
1274.5266001574
 20
159.1216872659
 30
0.0
 11
1248.5033403763
 21
155.9811924279
 31
0.0
  0
LINE
  5
2B0
100
AcDbEntity
  8
L1_55
  6
CONTINUOUS
 62
         7
100
AcDbLine
 10
1242.7033403763
 20
139.3846417294
 30
0.0
 11
1242.7033403763
 21
162.8846417294
 31
0.0
  0
LINE
  5
2B1
100
AcDbEntity
  8
L1_55
  6
CONTINUOUS
 62
         7
100
AcDbLine
 10
1241.2033403763
 20
161.3846417294
 30
0.0
 11
1242.7033403763
 21
162.8846417294
 31
0.0
  0
LINE
  5
2B2
100
AcDbEntity
  8
L1_55
  6
CONTINUOUS
 62
         7
100
AcDbLine
 10
1241.2033403763
 20
140.8846417294
 30
0.0
 11
1241.2033403763
 21
161.3846417294
 31
0.0
  0
LINE
  5
2B3
100
AcDbEntity
  8
L1_55
  6
CONTINUOUS
 62
         7
100
AcDbLine
 10
1248.5033403763
 20
144.3880910309
 30
0.0
 11
1248.5033403763
 21
155.9811924279
 31
0.0
  0
LINE
  5
2B4
100
AcDbEntity
  8
L1_55
  6
CENTER
 62
         1
100
AcDbLine
 10
1299.1033403763
 20
150.1846417294
 30
0.0
 11
1238.3030485851
 21
150.1846417294
 31
0.0
  0
LINE
  5
2B5
100
AcDbEntity
  8
L1_55
  6
CENTER
 62
         1
100
AcDbLine
 10
1298.8533403763
 20
150.1846417294
 30
0.0
 11
1354.1033403763
 21
150.1846417294
 31
0.0
  0
LINE
  5
2B6
100
AcDbEntity
  8
L1_55
  6
CENTER
 62
         1
100
AcDbLine
 10
1324.9033403763
 20
27.0566652593
 30
0.0
 11
1324.9033403763
 21
67.0566652593
 31
0.0
  0
LINE
  5
2B7
100
AcDbEntity
  8
L1_55
  6
CENTER
 62
         1
100
AcDbLine
 10
1328.1533403763
 20
37.0566652593
 30
0.0
 11
1321.6533403763
 21
37.0566652593
 31
0.0
  0
POLYLINE
  5
2B9
100
AcDbEntity
  8
L1_55
  6
CONTINUOUS
 62
         7
100
AcDb2dPolyline
 66
         1
 10
0.0
 20
0.0
 30
0.0
 70
         2
  0
VERTEX
  5
2BB
100
AcDbEntity
  8
L1_55
  6
CONTINUOUS
 62
         7
100
AcDbVertex
100
AcDb2dVertex
 10
1328.1533403763
 20
37.0566679579
 30
0.0
 70
         1
  0
VERTEX
  5
2BD
100
AcDbEntity
  8
L1_55
  6
CONTINUOUS
 62
         7
100
AcDbVertex
100
AcDb2dVertex
 10
1328.1009517616
 20
37.5837590657
 30
0.0
 70
         1
  0
VERTEX
  5
2BF
100
AcDbEntity
  8
L1_55
  6
CONTINUOUS
 62
         7
100
AcDbVertex
100
AcDb2dVertex
 10
1328.052073759
 20
37.7867111962
 30
0.0
 70
         1
  0
VERTEX
  5
2C1
100
AcDbEntity
  8
L1_55
  6
CONTINUOUS
 62
         7
100
AcDbVertex
100
AcDb2dVertex
 10
1327.9858558583
 20
37.9906622851
 30
0.0
 70
         1
  0
VERTEX
  5
2C3
100
AcDbEntity
  8
L1_55
  6
CONTINUOUS
 62
         7
100
AcDbVertex
100
AcDb2dVertex
 10
1327.9017466881
 20
38.1937806333
 30
0.0
 70
         1
  0
VERTEX
  5
2C5
100
AcDbEntity
  8
L1_55
  6
CONTINUOUS
 62
         7
100
AcDbVertex
100
AcDb2dVertex
 10
1327.7995020355
 20
38.3941057395
 30
0.0
 70
         1
  0
VERTEX
  5
2C7
100
AcDbEntity
  8
L1_55
  6
CONTINUOUS
 62
         7
100
AcDbVertex
100
AcDb2dVertex
 10
1327.6792213218
 20
38.5896012034
 30
0.0
 70
         1
  0
VERTEX
  5
2C9
100
AcDbEntity
  8
L1_55
  6
CONTINUOUS
 62
         7
100
AcDbVertex
100
AcDb2dVertex
 10
1327.5413706004
 20
38.7782168082
 30
0.0
 70
         1
  0
VERTEX
  5
2CB
100
AcDbEntity
  8
L1_55
  6
CONTINUOUS
 62
         7
100
AcDbVertex
100
AcDb2dVertex
 10
1327.3867890044
 20
38.9579564008
 30
0.0
 70
         1
  0
VERTEX
  5
2CD
100
AcDbEntity
  8
L1_55
  6
CONTINUOUS
 62
         7
100
AcDbVertex
100
AcDb2dVertex
 10
1327.2166767959
 20
39.1269472674
 30
0.0
 70
         1
  0
VERTEX
  5
2CF
100
AcDbEntity
  8
L1_55
  6
CONTINUOUS
 62
         7
100
AcDbVertex
100
AcDb2dVertex
 10
1327.0325647412
 20
39.2835062106
 30
0.0
 70
         1
  0
VERTEX
  5
2D1
100
AcDbEntity
  8
L1_55
  6
CONTINUOUS
 62
         7
100
AcDbVertex
100
AcDb2dVertex
 10
1326.7669785949
 20
39.471421614
 30
0.0
 70
         1
  0
VERTEX
  5
2D3
100
AcDbEntity
  8
L1_55
  6
CONTINUOUS
 62
         7
100
AcDbVertex
100
AcDb2dVertex
 10
1326.484474105
 20
39.63183184
 30
0.0
 70
         1
  0
VERTEX
  5
2D5
100
AcDbEntity
  8
L1_55
  6
CONTINUOUS
 62
         7
100
AcDbVertex
100
AcDb2dVertex
 10
1326.190405543
 20
39.7631805116
 30
0.0
 70
         1
  0
VERTEX
  5
2D7
100
AcDbEntity
  8
L1_55
  6
CONTINUOUS
 62
         7
100
AcDbVertex
100
AcDb2dVertex
 10
1325.8901965493
 20
39.8649941485
 30
0.0
 70
         1
  0
VERTEX
  5
2D9
100
AcDbEntity
  8
L1_55
  6
CONTINUOUS
 62
         7
100
AcDbVertex
100
AcDb2dVertex
 10
1325.5890358047
 20
39.9378132986
 30
0.0
 70
         1
  0
VERTEX
  5
2DB
100
AcDbEntity
  8
L1_55
  6
CONTINUOUS
 62
         7
100
AcDbVertex
100
AcDb2dVertex
 10
1325.2916272207
 20
39.9830508343
 30
0.0
 70
         1
  0
VERTEX
  5
2DD
100
AcDbEntity
  8
L1_55
  6
CONTINUOUS
 62
         7
100
AcDbVertex
100
AcDb2dVertex
 10
1325.0020133548
 20
40.0028035925
 30
0.0
 70
         1
  0
VERTEX
  5
2DF
100
AcDbEntity
  8
L1_55
  6
CONTINUOUS
 62
         7
100
AcDbVertex
100
AcDb2dVertex
 10
1324.7234772247
 20
39.9996451368
 30
0.0
 70
         1
  0
VERTEX
  5
2E1
100
AcDbEntity
  8
L1_55
  6
CONTINUOUS
 62
         7
100
AcDbVertex
100
AcDb2dVertex
 10
1324.3710561056
 20
39.9643621137
 30
0.0
 70
         1
  0
VERTEX
  5
2E3
100
AcDbEntity
  8
L1_55
  6
CONTINUOUS
 62
         7
100
AcDbVertex
100
AcDb2dVertex
 10
1324.0469823171
 20
39.9000002529
 30
0.0
 70
         1
  0
VERTEX
  5
2E5
100
AcDbEntity
  8
L1_55
  6
CONTINUOUS
 62
         7
100
AcDbVertex
100
AcDb2dVertex
 10
1323.7531018019
 20
39.8133881842
 30
0.0
 70
         1
  0
VERTEX
  5
2E7
100
AcDbEntity
  8
L1_55
  6
CONTINUOUS
 62
         7
100
AcDbVertex
100
AcDb2dVertex
 10
1323.4896037841
 20
39.7106873051
 30
0.0
 70
         1
  0
VERTEX
  5
2E9
100
AcDbEntity
  8
L1_55
  6
CONTINUOUS
 62
         7
100
AcDbVertex
100
AcDb2dVertex
 10
1323.2554803818
 20
39.5971900965
 30
0.0
 70
         1
  0
VERTEX
  5
2EB
100
AcDbEntity
  8
L1_55
  6
CONTINUOUS
 62
         7
100
AcDbVertex
100
AcDb2dVertex
 10
1322.9833776352
 20
39.4348502813
 30
0.0
 70
         1
  0
VERTEX
  5
2ED
100
AcDbEntity
  8
L1_55
  6
CONTINUOUS
 62
         7
100
AcDbVertex
100
AcDb2dVertex
 10
1322.7556920046
 20
39.2689060604
 30
0.0
 70
         1
  0
VERTEX
  5
2EF
100
AcDbEntity
  8
L1_55
  6
CONTINUOUS
 62
         7
100
AcDbVertex
100
AcDb2dVertex
 10
1322.5664189089
 20
39.1050445613
 30
0.0
 70
         1
  0
VERTEX
  5
2F1
100
AcDbEntity
  8
L1_55
  6
CONTINUOUS
 62
         7
100
AcDbVertex
100
AcDb2dVertex
 10
1322.3614069881
 20
38.8932833874
 30
0.0
 70
         1
  0
VERTEX
  5
2F3
100
AcDbEntity
  8
L1_55
  6
CONTINUOUS
 62
         7
100
AcDbVertex
100
AcDb2dVertex
 10
1322.2032209493
 20
38.6971305993
 30
0.0
 70
         1
  0
VERTEX
  5
2F5
100
AcDbEntity
  8
L1_55
  6
CONTINUOUS
 62
         7
100
AcDbVertex
100
AcDb2dVertex
 10
1322.0447969758
 20
38.4590935721
 30
0.0
 70
         1
  0
VERTEX
  5
2F7
100
AcDbEntity
  8
L1_55
  6
CONTINUOUS
 62
         7
100
AcDbVertex
100
AcDb2dVertex
 10
1321.9333811288
 20
38.2536108714
 30
0.0
 70
         1
  0
VERTEX
  5
2F9
100
AcDbEntity
  8
L1_55
  6
CONTINUOUS
 62
         7
100
AcDbVertex
100
AcDb2dVertex
 10
1321.8319140542
 20
38.0202419625
 30
0.0
 70
         1
  0
VERTEX
  5
2FB
100
AcDbEntity
  8
L1_55
  6
CONTINUOUS
 62
         7
100
AcDbVertex
100
AcDb2dVertex
 10
1321.7506369257
 20
37.7724796781
 30
0.0
 70
         1
  0
VERTEX
  5
2FD
100
AcDbEntity
  8
L1_55
  6
CONTINUOUS
 62
         7
100
AcDbVertex
100
AcDb2dVertex
 10
1321.6958181229
 20
37.531654443
 30
0.0
 70
         1
  0
VERTEX
  5
2FF
100
AcDbEntity
  8
L1_55
  6
CONTINUOUS
 62
         7
100
AcDbVertex
100
AcDb2dVertex
 10
1321.6666736864
 20
37.3233817155
 30
0.0
 70
         1
  0
VERTEX
  5
301
100
AcDbEntity
  8
L1_55
  6
CONTINUOUS
 62
         7
100
AcDbVertex
100
AcDb2dVertex
 10
1321.6533403763
 20
37.0566652593
 30
0.0
 70
         1
  0
SEQEND
  5
303
100
AcDbEntity
  8
L1_55
  6
CONTINUOUS
 62
         7
  0
POLYLINE
  5
305
100
AcDbEntity
  8
L1_55
  6
CONTINUOUS
 62
         7
100
AcDb2dPolyline
 66
         1
 10
0.0
 20
0.0
 30
0.0
 70
         2
  0
VERTEX
  5
307
100
AcDbEntity
  8
L1_55
  6
CONTINUOUS
 62
         7
100
AcDbVertex
100
AcDb2dVertex
 10
1321.6533403763
 20
37.0566652487
 30
0.0
 70
         1
  0
VERTEX
  5
309
100
AcDbEntity
  8
L1_55
  6
CONTINUOUS
 62
         7
100
AcDbVertex
100
AcDb2dVertex
 10
1321.705728418
 20
36.5771116361
 30
0.0
 70
         1
  0
VERTEX
  5
30B
100
AcDbEntity
  8
L1_55
  6
CONTINUOUS
 62
         7
100
AcDbVertex
100
AcDb2dVertex
 10
1321.7546061803
 20
36.392463394
 30
0.0
 70
         1
  0
VERTEX
  5
30D
100
AcDbEntity
  8
L1_55
  6
CONTINUOUS
 62
         7
100
AcDbVertex
100
AcDb2dVertex
 10
1321.8208238308
 20
36.2069062651
 30
0.0
 70
         1
  0
VERTEX
  5
30F
100
AcDbEntity
  8
L1_55
  6
CONTINUOUS
 62
         7
100
AcDbVertex
100
AcDb2dVertex
 10
1321.9049327452
 20
36.0221067491
 30
0.0
 70
         1
  0
VERTEX
  5
311
100
AcDbEntity
  8
L1_55
  6
CONTINUOUS
 62
         7
100
AcDbVertex
100
AcDb2dVertex
 10
1322.0071771409
 20
35.839848532
 30
0.0
 70
         1
  0
VERTEX
  5
313
100
AcDbEntity
  8
L1_55
  6
CONTINUOUS
 62
         7
100
AcDbVertex
100
AcDb2dVertex
 10
1322.1274576015
 20
35.6619843546
 30
0.0
 70
         1
  0
VERTEX
  5
315
100
AcDbEntity
  8
L1_55
  6
CONTINUOUS
 62
         7
100
AcDbVertex
100
AcDb2dVertex
 10
1322.2653080792
 20
35.4903795287
 30
0.0
 70
         1
  0
VERTEX
  5
317
100
AcDbEntity
  8
L1_55
  6
CONTINUOUS
 62
         7
100
AcDbVertex
100
AcDb2dVertex
 10
1322.419889446
 20
35.3268501795
 30
0.0
 70
         1
  0
VERTEX
  5
319
100
AcDbEntity
  8
L1_55
  6
CONTINUOUS
 62
         7
100
AcDbVertex
100
AcDb2dVertex
 10
1322.5900014447
 20
35.1731001261
 30
0.0
 70
         1
  0
VERTEX
  5
31B
100
AcDbEntity
  8
L1_55
  6
CONTINUOUS
 62
         7
100
AcDbVertex
100
AcDb2dVertex
 10
1322.7741133134
 20
35.0306607646
 30
0.0
 70
         1
  0
VERTEX
  5
31D
100
AcDbEntity
  8
L1_55
  6
CONTINUOUS
 62
         7
100
AcDbVertex
100
AcDb2dVertex
 10
1323.0396992539
 20
34.8596928386
 30
0.0
 70
         1
  0
VERTEX
  5
31F
100
AcDbEntity
  8
L1_55
  6
CONTINUOUS
 62
         7
100
AcDbVertex
100
AcDb2dVertex
 10
1323.3222035929
 20
34.7137494305
 30
0.0
 70
         1
  0
VERTEX
  5
321
100
AcDbEntity
  8
L1_55
  6
CONTINUOUS
 62
         7
100
AcDbVertex
100
AcDb2dVertex
 10
1323.6162720616
 20
34.5942465611
 30
0.0
 70
         1
  0
VERTEX
  5
323
100
AcDbEntity
  8
L1_55
  6
CONTINUOUS
 62
         7
100
AcDbVertex
100
AcDb2dVertex
 10
1323.9164810184
 20
34.5016150186
 30
0.0
 70
         1
  0
VERTEX
  5
325
100
AcDbEntity
  8
L1_55
  6
CONTINUOUS
 62
         7
100
AcDbVertex
100
AcDb2dVertex
 10
1324.2176417789
 20
34.4353630152
 30
0.0
 70
         1
  0
VERTEX
  5
327
100
AcDbEntity
  8
L1_55
  6
CONTINUOUS
 62
         7
100
AcDbVertex
100
AcDb2dVertex
 10
1324.5150504252
 20
34.3942051105
 30
0.0
 70
         1
  0
VERTEX
  5
329
100
AcDbEntity
  8
L1_55
  6
CONTINUOUS
 62
         7
100
AcDbVertex
100
AcDb2dVertex
 10
1324.8046643921
 20
34.3762335826
 30
0.0
 70
         1
  0
VERTEX
  5
32B
100
AcDbEntity
  8
L1_55
  6
CONTINUOUS
 62
         7
100
AcDbVertex
100
AcDb2dVertex
 10
1325.1757573773
 20
34.3844344264
 30
0.0
 70
         1
  0
VERTEX
  5
32D
100
AcDbEntity
  8
L1_55
  6
CONTINUOUS
 62
         7
100
AcDbVertex
100
AcDb2dVertex
 10
1325.5212211121
 20
34.4239071
 30
0.0
 70
         1
  0
VERTEX
  5
32F
100
AcDbEntity
  8
L1_55
  6
CONTINUOUS
 62
         7
100
AcDbVertex
100
AcDb2dVertex
 10
1325.8376826551
 20
34.4882074698
 30
0.0
 70
         1
  0
VERTEX
  5
331
100
AcDbEntity
  8
L1_55
  6
CONTINUOUS
 62
         7
100
AcDbVertex
100
AcDb2dVertex
 10
1326.1237636896
 20
34.571251457
 30
0.0
 70
         1
  0
VERTEX
  5
333
100
AcDbEntity
  8
L1_55
  6
CONTINUOUS
 62
         7
100
AcDbVertex
100
AcDb2dVertex
 10
1326.3796234139
 20
34.6676238851
 30
0.0
 70
         1
  0
VERTEX
  5
335
100
AcDbEntity
  8
L1_55
  6
CONTINUOUS
 62
         7
100
AcDbVertex
100
AcDb2dVertex
 10
1326.6787306755
 20
34.8104824964
 30
0.0
 70
         1
  0
VERTEX
  5
337
100
AcDbEntity
  8
L1_55
  6
CONTINUOUS
 62
         7
100
AcDbVertex
100
AcDb2dVertex
 10
1326.9302411841
 20
34.9604206764
 30
0.0
 70
         1
  0
VERTEX
  5
339
100
AcDbEntity
  8
L1_55
  6
CONTINUOUS
 62
         7
100
AcDbVertex
100
AcDb2dVertex
 10
1327.1400094873
 20
35.1110736985
 30
0.0
 70
         1
  0
VERTEX
  5
33B
100
AcDbEntity
  8
L1_55
  6
CONTINUOUS
 62
         7
100
AcDbVertex
100
AcDb2dVertex
 10
1327.3677418698
 20
35.3083999169
 30
0.0
 70
         1
  0
VERTEX
  5
33D
100
AcDbEntity
  8
L1_55
  6
CONTINUOUS
 62
         7
100
AcDbVertex
100
AcDb2dVertex
 10
1327.5436793738
 20
35.4930280337
 30
0.0
 70
         1
  0
VERTEX
  5
33F
100
AcDbEntity
  8
L1_55
  6
CONTINUOUS
 62
         7
100
AcDbVertex
100
AcDb2dVertex
 10
1327.6792994131
 20
35.6620877022
 30
0.0
 70
         1
  0
VERTEX
  5
341
100
AcDbEntity
  8
L1_55
  6
CONTINUOUS
 62
         7
100
AcDbVertex
100
AcDb2dVertex
 10
1327.8151759
 20
35.8655859211
 30
0.0
 70
         1
  0
VERTEX
  5
343
100
AcDbEntity
  8
L1_55
  6
CONTINUOUS
 62
         7
100
AcDbVertex
100
AcDb2dVertex
 10
1327.938545885
 20
36.0979426727
 30
0.0
 70
         1
  0
VERTEX
  5
345
100
AcDbEntity
  8
L1_55
  6
CONTINUOUS
 62
         7
100
AcDbVertex
100
AcDb2dVertex
 10
1328.0156304001
 20
36.2843207185
 30
0.0
 70
         1
  0
VERTEX
  5
347
100
AcDbEntity
  8
L1_55
  6
CONTINUOUS
 62
         7
100
AcDbVertex
100
AcDb2dVertex
 10
1328.0778164678
 20
36.4819102891
 30
0.0
 70
         1
  0
VERTEX
  5
349
100
AcDbEntity
  8
L1_55
  6
CONTINUOUS
 62
         7
100
AcDbVertex
100
AcDb2dVertex
 10
1328.1201330533
 20
36.6742959289
 30
0.0
 70
         1
  0
VERTEX
  5
34B
100
AcDbEntity
  8
L1_55
  6
CONTINUOUS
 62
         7
100
AcDbVertex
100
AcDb2dVertex
 10
1328.1474424955
 20
36.8951813701
 30
0.0
 70
         1
  0
VERTEX
  5
34D
100
AcDbEntity
  8
L1_55
  6
CONTINUOUS
 62
         7
100
AcDbVertex
100
AcDb2dVertex
 10
1328.1533403763
 20
37.0566652593
 30
0.0
 70
         1
  0
SEQEND
  5
34F
100
AcDbEntity
  8
L1_55
  6
CONTINUOUS
 62
         7
  0
LINE
  5
350
100
AcDbEntity
  8
L1_55
  6
CENTER
 62
         1
100
AcDbLine
 10
1328.1533403763
 20
57.0566652593
 30
0.0
 11
1321.6533403763
 21
57.0566652593
 31
0.0
  0
POLYLINE
  5
352
100
AcDbEntity
  8
L1_55
  6
CONTINUOUS
 62
         7
100
AcDb2dPolyline
 66
         1
 10
0.0
 20
0.0
 30
0.0
 70
         2
  0
VERTEX
  5
354
100
AcDbEntity
  8
L1_55
  6
CONTINUOUS
 62
         7
100
AcDbVertex
100
AcDb2dVertex
 10
1321.6533403763
 20
57.0566652593
 30
0.0
 70
         1
  0
VERTEX
  5
356
100
AcDbEntity
  8
L1_55
  6
CONTINUOUS
 62
         7
100
AcDbVertex
100
AcDb2dVertex
 10
1321.7057283636
 20
56.5295745828
 30
0.0
 70
         1
  0
VERTEX
  5
358
100
AcDbEntity
  8
L1_55
  6
CONTINUOUS
 62
         7
100
AcDbVertex
100
AcDb2dVertex
 10
1321.754606074
 20
56.3266225845
 30
0.0
 70
         1
  0
VERTEX
  5
35A
100
AcDbEntity
  8
L1_55
  6
CONTINUOUS
 62
         7
100
AcDbVertex
100
AcDb2dVertex
 10
1321.8208236525
 20
56.1226716041
 30
0.0
 70
         1
  0
VERTEX
  5
35C
100
AcDbEntity
  8
L1_55
  6
CONTINUOUS
 62
         7
100
AcDbVertex
100
AcDb2dVertex
 10
1321.9049324736
 20
55.9195533355
 30
0.0
 70
         1
  0
VERTEX
  5
35E
100
AcDbEntity
  8
L1_55
  6
CONTINUOUS
 62
         7
100
AcDbVertex
100
AcDb2dVertex
 10
1322.0071767542
 20
55.7192282751
 30
0.0
 70
         1
  0
VERTEX
  5
360
100
AcDbEntity
  8
L1_55
  6
CONTINUOUS
 62
         7
100
AcDbVertex
100
AcDb2dVertex
 10
1322.1274570783
 20
55.5237328189
 30
0.0
 70
         1
  0
VERTEX
  5
362
100
AcDbEntity
  8
L1_55
  6
CONTINUOUS
 62
         7
100
AcDbVertex
100
AcDb2dVertex
 10
1322.2653073991
 20
55.3351171802
 30
0.0
 70
         1
  0
VERTEX
  5
364
100
AcDbEntity
  8
L1_55
  6
CONTINUOUS
 62
         7
100
AcDbVertex
100
AcDb2dVertex
 10
1322.4198885907
 20
55.1553775101
 30
0.0
 70
         1
  0
VERTEX
  5
366
100
AcDbEntity
  8
L1_55
  6
CONTINUOUS
 62
         7
100
AcDbVertex
100
AcDb2dVertex
 10
1322.5900003987
 20
54.9863865213
 30
0.0
 70
         1
  0
VERTEX
  5
368
100
AcDbEntity
  8
L1_55
  6
CONTINUOUS
 62
         7
100
AcDbVertex
100
AcDb2dVertex
 10
1322.7741120649
 20
54.8298274117
 30
0.0
 70
         1
  0
VERTEX
  5
36A
100
AcDbEntity
  8
L1_55
  6
CONTINUOUS
 62
         7
100
AcDbVertex
100
AcDb2dVertex
 10
1323.0396977228
 20
54.6419117198
 30
0.0
 70
         1
  0
VERTEX
  5
36C
100
AcDbEntity
  8
L1_55
  6
CONTINUOUS
 62
         7
100
AcDbVertex
100
AcDb2dVertex
 10
1323.3222017766
 20
54.4815011386
 30
0.0
 70
         1
  0
VERTEX
  5
36E
100
AcDbEntity
  8
L1_55
  6
CONTINUOUS
 62
         7
100
AcDbVertex
100
AcDb2dVertex
 10
1323.6162699684
 20
54.3501520571
 30
0.0
 70
         1
  0
VERTEX
  5
370
100
AcDbEntity
  8
L1_55
  6
CONTINUOUS
 62
         7
100
AcDbVertex
100
AcDb2dVertex
 10
1323.9164786669
 20
54.2483379703
 30
0.0
 70
         1
  0
VERTEX
  5
372
100
AcDbEntity
  8
L1_55
  6
CONTINUOUS
 62
         7
100
AcDbVertex
100
AcDb2dVertex
 10
1324.2176391962
 20
54.1755183459
 30
0.0
 70
         1
  0
VERTEX
  5
374
100
AcDbEntity
  8
L1_55
  6
CONTINUOUS
 62
         7
100
AcDbVertex
100
AcDb2dVertex
 10
1324.5150476445
 20
54.1302803268
 30
0.0
 70
         1
  0
VERTEX
  5
376
100
AcDbEntity
  8
L1_55
  6
CONTINUOUS
 62
         7
100
AcDbVertex
100
AcDb2dVertex
 10
1324.8046614507
 20
54.11052709
 30
0.0
 70
         1
  0
VERTEX
  5
378
100
AcDbEntity
  8
L1_55
  6
CONTINUOUS
 62
         7
100
AcDbVertex
100
AcDb2dVertex
 10
1325.0831975905
 20
54.1136850834
 30
0.0
 70
         1
  0
VERTEX
  5
37A
100
AcDbEntity
  8
L1_55
  6
CONTINUOUS
 62
         7
100
AcDbVertex
100
AcDb2dVertex
 10
1325.4356188158
 20
54.1489675269
 30
0.0
 70
         1
  0
VERTEX
  5
37C
100
AcDbEntity
  8
L1_55
  6
CONTINUOUS
 62
         7
100
AcDbVertex
100
AcDb2dVertex
 10
1325.7596927961
 20
54.2133288687
 30
0.0
 70
         1
  0
VERTEX
  5
37E
100
AcDbEntity
  8
L1_55
  6
CONTINUOUS
 62
         7
100
AcDbVertex
100
AcDb2dVertex
 10
1326.0535735649
 20
54.2999404861
 30
0.0
 70
         1
  0
VERTEX
  5
380
100
AcDbEntity
  8
L1_55
  6
CONTINUOUS
 62
         7
100
AcDbVertex
100
AcDb2dVertex
 10
1326.3170718766
 20
54.4026409827
 30
0.0
 70
         1
  0
VERTEX
  5
382
100
AcDbEntity
  8
L1_55
  6
CONTINUOUS
 62
         7
100
AcDbVertex
100
AcDb2dVertex
 10
1326.5511955955
 20
54.5161378745
 30
0.0
 70
         1
  0
VERTEX
  5
384
100
AcDbEntity
  8
L1_55
  6
CONTINUOUS
 62
         7
100
AcDbVertex
100
AcDb2dVertex
 10
1326.8232987794
 20
54.6784773569
 30
0.0
 70
         1
  0
VERTEX
  5
386
100
AcDbEntity
  8
L1_55
  6
CONTINUOUS
 62
         7
100
AcDbVertex
100
AcDb2dVertex
 10
1327.0509848384
 20
54.8444213366
 30
0.0
 70
         1
  0
VERTEX
  5
388
100
AcDbEntity
  8
L1_55
  6
CONTINUOUS
 62
         7
100
AcDbVertex
100
AcDb2dVertex
 10
1327.2402583387
 20
55.0082826685
 30
0.0
 70
         1
  0
VERTEX
  5
38A
100
AcDbEntity
  8
L1_55
  6
CONTINUOUS
 62
         7
100
AcDbVertex
100
AcDb2dVertex
 10
1327.4452707551
 20
55.2200437054
 30
0.0
 70
         1
  0
VERTEX
  5
38C
100
AcDbEntity
  8
L1_55
  6
CONTINUOUS
 62
         7
100
AcDbVertex
100
AcDb2dVertex
 10
1327.6034572254
 20
55.4161964295
 30
0.0
 70
         1
  0
VERTEX
  5
38E
100
AcDbEntity
  8
L1_55
  6
CONTINUOUS
 62
         7
100
AcDbVertex
100
AcDb2dVertex
 10
1327.7618816873
 20
55.6542334437
 30
0.0
 70
         1
  0
VERTEX
  5
390
100
AcDbEntity
  8
L1_55
  6
CONTINUOUS
 62
         7
100
AcDbVertex
100
AcDb2dVertex
 10
1327.8732979247
 20
55.8597161798
 30
0.0
 70
         1
  0
VERTEX
  5
392
100
AcDbEntity
  8
L1_55
  6
CONTINUOUS
 62
         7
100
AcDbVertex
100
AcDb2dVertex
 10
1327.9747654076
 20
56.0930851721
 30
0.0
 70
         1
  0
VERTEX
  5
394
100
AcDbEntity
  8
L1_55
  6
CONTINUOUS
 62
         7
100
AcDbVertex
100
AcDb2dVertex
 10
1328.0560429287
 20
56.340847587
 30
0.0
 70
         1
  0
VERTEX
  5
396
100
AcDbEntity
  8
L1_55
  6
CONTINUOUS
 62
         7
100
AcDbVertex
100
AcDb2dVertex
 10
1328.1108620728
 20
56.5816729831
 30
0.0
 70
         1
  0
VERTEX
  5
398
100
AcDbEntity
  8
L1_55
  6
CONTINUOUS
 62
         7
100
AcDbVertex
100
AcDb2dVertex
 10
1328.1400067724
 20
56.7899458725
 30
0.0
 70
         1
  0
VERTEX
  5
39A
100
AcDbEntity
  8
L1_55
  6
CONTINUOUS
 62
         7
100
AcDbVertex
100
AcDb2dVertex
 10
1328.1533403763
 20
57.0566625607
 30
0.0
 70
         1
  0
SEQEND
  5
39C
100
AcDbEntity
  8
L1_55
  6
CONTINUOUS
 62
         7
  0
POLYLINE
  5
39E
100
AcDbEntity
  8
L1_55
  6
CONTINUOUS
 62
         7
100
AcDb2dPolyline
 66
         1
 10
0.0
 20
0.0
 30
0.0
 70
         2
  0
VERTEX
  5
3A0
100
AcDbEntity
  8
L1_55
  6
CONTINUOUS
 62
         7
100
AcDbVertex
100
AcDb2dVertex
 10
1328.1533403763
 20
57.0566652593
 30
0.0
 70
         1
  0
VERTEX
  5
3A2
100
AcDbEntity
  8
L1_55
  6
CONTINUOUS
 62
         7
100
AcDbVertex
100
AcDb2dVertex
 10
1328.1009523373
 20
57.5362188703
 30
0.0
 70
         1
  0
VERTEX
  5
3A4
100
AcDbEntity
  8
L1_55
  6
CONTINUOUS
 62
         7
100
AcDbVertex
100
AcDb2dVertex
 10
1328.0520745762
 20
57.7208671119
 30
0.0
 70
         1
  0
VERTEX
  5
3A6
100
AcDbEntity
  8
L1_55
  6
CONTINUOUS
 62
         7
100
AcDbVertex
100
AcDb2dVertex
 10
1327.985856927
 20
57.9064242403
 30
0.0
 70
         1
  0
VERTEX
  5
3A8
100
AcDbEntity
  8
L1_55
  6
CONTINUOUS
 62
         7
100
AcDbVertex
100
AcDb2dVertex
 10
1327.9017480142
 20
58.0912237561
 30
0.0
 70
         1
  0
VERTEX
  5
3AA
100
AcDbEntity
  8
L1_55
  6
CONTINUOUS
 62
         7
100
AcDbVertex
100
AcDb2dVertex
 10
1327.7995036201
 20
58.2734819729
 30
0.0
 70
         1
  0
VERTEX
  5
3AC
100
AcDbEntity
  8
L1_55
  6
CONTINUOUS
 62
         7
100
AcDbVertex
100
AcDb2dVertex
 10
1327.6792231611
 20
58.4513461503
 30
0.0
 70
         1
  0
VERTEX
  5
3AE
100
AcDbEntity
  8
L1_55
  6
CONTINUOUS
 62
         7
100
AcDbVertex
100
AcDb2dVertex
 10
1327.5413726852
 20
58.6229509763
 30
0.0
 70
         1
  0
VERTEX
  5
3B0
100
AcDbEntity
  8
L1_55
  6
CONTINUOUS
 62
         7
100
AcDbVertex
100
AcDb2dVertex
 10
1327.3867913201
 20
58.7864803259
 30
0.0
 70
         1
  0
VERTEX
  5
3B2
100
AcDbEntity
  8
L1_55
  6
CONTINUOUS
 62
         7
100
AcDbVertex
100
AcDb2dVertex
 10
1327.2166793231
 20
58.9402303797
 30
0.0
 70
         1
  0
VERTEX
  5
3B4
100
AcDbEntity
  8
L1_55
  6
CONTINUOUS
 62
         7
100
AcDbVertex
100
AcDb2dVertex
 10
1327.0325674562
 20
59.0826697419
 30
0.0
 70
         1
  0
VERTEX
  5
3B6
100
AcDbEntity
  8
L1_55
  6
CONTINUOUS
 62
         7
100
AcDbVertex
100
AcDb2dVertex
 10
1326.7669815178
 20
59.253637669
 30
0.0
 70
         1
  0
VERTEX
  5
3B8
100
AcDbEntity
  8
L1_55
  6
CONTINUOUS
 62
         7
100
AcDbVertex
100
AcDb2dVertex
 10
1326.4844771806
 20
59.3995810785
 30
0.0
 70
         1
  0
VERTEX
  5
3BA
100
AcDbEntity
  8
L1_55
  6
CONTINUOUS
 62
         7
100
AcDbVertex
100
AcDb2dVertex
 10
1326.1904087135
 20
59.5190839495
 30
0.0
 70
         1
  0
VERTEX
  5
3BC
100
AcDbEntity
  8
L1_55
  6
CONTINUOUS
 62
         7
100
AcDbVertex
100
AcDb2dVertex
 10
1325.890199758
 20
59.6117154938
 30
0.0
 70
         1
  0
VERTEX
  5
3BE
100
AcDbEntity
  8
L1_55
  6
CONTINUOUS
 62
         7
100
AcDbVertex
100
AcDb2dVertex
 10
1325.5890389984
 20
59.677967499
 30
0.0
 70
         1
  0
VERTEX
  5
3C0
100
AcDbEntity
  8
L1_55
  6
CONTINUOUS
 62
         7
100
AcDbVertex
100
AcDb2dVertex
 10
1325.2916303527
 20
59.7191254057
 30
0.0
 70
         1
  0
VERTEX
  5
3C2
100
AcDbEntity
  8
L1_55
  6
CONTINUOUS
 62
         7
100
AcDbVertex
100
AcDb2dVertex
 10
1325.0020163861
 20
59.7370969354
 30
0.0
 70
         1
  0
VERTEX
  5
3C4
100
AcDbEntity
  8
L1_55
  6
CONTINUOUS
 62
         7
100
AcDbVertex
100
AcDb2dVertex
 10
1324.6309234007
 20
59.728896094
 30
0.0
 70
         1
  0
VERTEX
  5
3C6
100
AcDbEntity
  8
L1_55
  6
CONTINUOUS
 62
         7
100
AcDbVertex
100
AcDb2dVertex
 10
1324.2854596654
 20
59.6894234227
 30
0.0
 70
         1
  0
VERTEX
  5
3C8
100
AcDbEntity
  8
L1_55
  6
CONTINUOUS
 62
         7
100
AcDbVertex
100
AcDb2dVertex
 10
1323.9689981215
 20
59.6251230548
 30
0.0
 70
         1
  0
VERTEX
  5
3CA
100
AcDbEntity
  8
L1_55
  6
CONTINUOUS
 62
         7
100
AcDbVertex
100
AcDb2dVertex
 10
1323.6829170858
 20
59.5420790693
 30
0.0
 70
         1
  0
VERTEX
  5
3CC
100
AcDbEntity
  8
L1_55
  6
CONTINUOUS
 62
         7
100
AcDbVertex
100
AcDb2dVertex
 10
1323.4270573602
 20
59.4457066426
 30
0.0
 70
         1
  0
VERTEX
  5
3CE
100
AcDbEntity
  8
L1_55
  6
CONTINUOUS
 62
         7
100
AcDbVertex
100
AcDb2dVertex
 10
1323.1279500967
 20
59.3028480329
 30
0.0
 70
         1
  0
VERTEX
  5
3D0
100
AcDbEntity
  8
L1_55
  6
CONTINUOUS
 62
         7
100
AcDbVertex
100
AcDb2dVertex
 10
1322.8764395862
 20
59.152909854
 30
0.0
 70
         1
  0
VERTEX
  5
3D2
100
AcDbEntity
  8
L1_55
  6
CONTINUOUS
 62
         7
100
AcDbVertex
100
AcDb2dVertex
 10
1322.6666712813
 20
59.0022568327
 30
0.0
 70
         1
  0
VERTEX
  5
3D4
100
AcDbEntity
  8
L1_55
  6
CONTINUOUS
 62
         7
100
AcDbVertex
100
AcDb2dVertex
 10
1322.4389388965
 20
58.804930615
 30
0.0
 70
         1
  0
VERTEX
  5
3D6
100
AcDbEntity
  8
L1_55
  6
CONTINUOUS
 62
         7
100
AcDbVertex
100
AcDb2dVertex
 10
1322.2630013905
 20
58.6203024985
 30
0.0
 70
         1
  0
VERTEX
  5
3D8
100
AcDbEntity
  8
L1_55
  6
CONTINUOUS
 62
         7
100
AcDbVertex
100
AcDb2dVertex
 10
1322.1273813496
 20
58.4512428302
 30
0.0
 70
         1
  0
VERTEX
  5
3DA
100
AcDbEntity
  8
L1_55
  6
CONTINUOUS
 62
         7
100
AcDbVertex
100
AcDb2dVertex
 10
1321.9915048608
 20
58.2477446113
 30
0.0
 70
         1
  0
VERTEX
  5
3DC
100
AcDbEntity
  8
L1_55
  6
CONTINUOUS
 62
         7
100
AcDbVertex
100
AcDb2dVertex
 10
1321.8681348737
 20
58.0153878594
 30
0.0
 70
         1
  0
VERTEX
  5
3DE
100
AcDbEntity
  8
L1_55
  6
CONTINUOUS
 62
         7
100
AcDbVertex
100
AcDb2dVertex
 10
1321.7910503572
 20
57.8290098132
 30
0.0
 70
         1
  0
VERTEX
  5
3E0
100
AcDbEntity
  8
L1_55
  6
CONTINUOUS
 62
         7
100
AcDbVertex
100
AcDb2dVertex
 10
1321.728864288
 20
57.6314202421
 30
0.0
 70
         1
  0
VERTEX
  5
3E2
100
AcDbEntity
  8
L1_55
  6
CONTINUOUS
 62
         7
100
AcDbVertex
100
AcDb2dVertex
 10
1321.6865477013
 20
57.4390346017
 30
0.0
 70
         1
  0
VERTEX
  5
3E4
100
AcDbEntity
  8
L1_55
  6
CONTINUOUS
 62
         7
100
AcDbVertex
100
AcDb2dVertex
 10
1321.6592382579
 20
57.2181491597
 30
0.0
 70
         1
  0
VERTEX
  5
3E6
100
AcDbEntity
  8
L1_55
  6
CONTINUOUS
 62
         7
100
AcDbVertex
100
AcDb2dVertex
 10
1321.6533403763
 20
57.0566652699
 30
0.0
 70
         1
  0
SEQEND
  5
3E8
100
AcDbEntity
  8
L1_55
  6
CONTINUOUS
 62
         7
  0
LINE
  5
3E9
100
AcDbEntity
  8
L1_55
  6
CONTINUOUS
 62
         7
100
AcDbLine
 10
1299.1033403763
 20
24.5566652593
 30
0.0
 11
1299.6033403763
 21
24.0566652593
 31
0.0
  0
LINE
  5
3EA
100
AcDbEntity
  8
L1_55
  6
CONTINUOUS
 62
         7
100
AcDbLine
 10
1307.1033403763
 20
24.5566652593
 30
0.0
 11
1306.6033403763
 21
24.0566652593
 31
0.0
  0
LINE
  5
3EB
100
AcDbEntity
  8
L1_55
  6
CONTINUOUS
 62
         7
100
AcDbLine
 10
1306.6033403763
 20
70.0566652593
 30
0.0
 11
1307.1033403763
 21
69.5566652593
 31
0.0
  0
LINE
  5
3EC
100
AcDbEntity
  8
L1_55
  6
CONTINUOUS
 62
         7
100
AcDbLine
 10
1299.1033403763
 20
69.5566652593
 30
0.0
 11
1299.6033403763
 21
70.0566652593
 31
0.0
  0
LINE
  5
3ED
100
AcDbEntity
  8
L1_55
  6
CONTINUOUS
 62
         7
100
AcDbLine
 10
1299.1033403763
 20
24.5566652593
 30
0.0
 11
1299.1033403763
 21
69.5566652593
 31
0.0
  0
LINE
  5
3EE
100
AcDbEntity
  8
L1_55
  6
CONTINUOUS
 62
         7
100
AcDbLine
 10
1328.1533403759
 20
27.1566652593
 30
0.0
 11
1328.2533403759
 21
27.0566652593
 31
0.0
  0
LINE
  5
3EF
100
AcDbEntity
  8
L1_55
  6
CONTINUOUS
 62
         7
100
AcDbLine
 10
1327.9783403759
 20
31.5566652589
 30
0.0
 11
1327.9783403759
 21
31.4566652589
 31
0.0
  0
LINE
  5
3F0
100
AcDbEntity
  8
L1_55
  6
CONTINUOUS
 62
         7
100
AcDbLine
 10
1328.1533403759
 20
31.1535563676
 30
0.0
 11
1328.1533403759
 21
27.1566652593
 31
0.0
  0
LINE
  5
3F1
100
AcDbEntity
  8
L1_55
  6
CONTINUOUS
 62
         7
100
AcDbLine
 10
1328.1533403759
 20
31.1535563676
 30
0.0
 11
1327.9783403759
 21
31.4566652589
 31
0.0
  0
LINE
  5
3F2
100
AcDbEntity
  8
L1_55
  6
CONTINUOUS
 62
         7
100
AcDbLine
 10
1321.5533403766
 20
27.0566652593
 30
0.0
 11
1321.6533403766
 21
27.1566652593
 31
0.0
  0
LINE
  5
3F3
100
AcDbEntity
  8
L1_55
  6
CONTINUOUS
 62
         7
100
AcDbLine
 10
1321.8283403766
 20
31.5566652589
 30
0.0
 11
1321.8283403766
 21
31.4566652589
 31
0.0
  0
LINE
  5
3F4
100
AcDbEntity
  8
L1_55
  6
CONTINUOUS
 62
         7
100
AcDbLine
 10
1321.6533403766
 20
31.1535563676
 30
0.0
 11
1321.8283403766
 21
31.4566652589
 31
0.0
  0
LINE
  5
3F5
100
AcDbEntity
  8
L1_55
  6
CONTINUOUS
 62
         7
100
AcDbLine
 10
1321.6533403766
 20
31.1535563676
 30
0.0
 11
1321.6533403766
 21
27.1566652593
 31
0.0
  0
LINE
  5
3F6
100
AcDbEntity
  8
L1_55
  6
CONTINUOUS
 62
         7
100
AcDbLine
 10
1328.1533403759
 20
66.9566652593
 30
0.0
 11
1328.2533403759
 21
67.0566652593
 31
0.0
  0
LINE
  5
3F7
100
AcDbEntity
  8
L1_55
  6
CONTINUOUS
 62
         7
100
AcDbLine
 10
1327.9783403759
 20
62.5566652598
 30
0.0
 11
1327.9783403759
 21
62.6566652598
 31
0.0
  0
LINE
  5
3F8
100
AcDbEntity
  8
L1_55
  6
CONTINUOUS
 62
         7
100
AcDbLine
 10
1328.1533403759
 20
62.9597741511
 30
0.0
 11
1328.1533403759
 21
66.9566652593
 31
0.0
  0
LINE
  5
3F9
100
AcDbEntity
  8
L1_55
  6
CONTINUOUS
 62
         7
100
AcDbLine
 10
1328.1533403759
 20
62.9597741511
 30
0.0
 11
1327.9783403759
 21
62.6566652598
 31
0.0
  0
LINE
  5
3FA
100
AcDbEntity
  8
L1_55
  6
CONTINUOUS
 62
         7
100
AcDbLine
 10
1321.5533403766
 20
67.0566652593
 30
0.0
 11
1321.6533403766
 21
66.9566652593
 31
0.0
  0
LINE
  5
3FB
100
AcDbEntity
  8
L1_55
  6
CONTINUOUS
 62
         7
100
AcDbLine
 10
1321.8283403766
 20
62.5566652598
 30
0.0
 11
1321.8283403766
 21
62.6566652598
 31
0.0
  0
LINE
  5
3FC
100
AcDbEntity
  8
L1_55
  6
CONTINUOUS
 62
         7
100
AcDbLine
 10
1321.6533403766
 20
62.9597741511
 30
0.0
 11
1321.8283403766
 21
62.6566652598
 31
0.0
  0
LINE
  5
3FD
100
AcDbEntity
  8
L1_55
  6
CONTINUOUS
 62
         7
100
AcDbLine
 10
1321.6533403766
 20
62.9597741511
 30
0.0
 11
1321.6533403766
 21
66.9566652593
 31
0.0
  0
LINE
  5
3FE
100
AcDbEntity
  8
L1_55
  6
CENTER
 62
         1
100
AcDbLine
 10
1298.8533403763
 20
47.0566652593
 30
0.0
 11
1354.1033403763
 21
47.0566652593
 31
0.0
  0
LINE
  5
3FF
100
AcDbEntity
  8
L1_55
  6
CONTINUOUS
 62
         7
100
AcDbLine
 10
1352.1033403763
 20
38.8066652593
 30
0.0
 11
1352.1033403763
 21
31.5566652593
 31
0.0
  0
LINE
  5
400
100
AcDbEntity
  8
L1_55
  6
CONTINUOUS
 62
         7
100
AcDbLine
 10
1347.6033403763
 20
66.0566652593
 30
0.0
 11
1347.6033403763
 21
66.9566652593
 31
0.0
  0
LINE
  5
401
100
AcDbEntity
  8
L1_55
  6
CONTINUOUS
 62
         7
100
AcDbLine
 10
1345.6533403763
 20
66.0566652593
 30
0.0
 11
1345.6533403763
 21
66.9566652593
 31
0.0
  0
LINE
  5
402
100
AcDbEntity
  8
L1_55
  6
CONTINUOUS
 62
         7
100
AcDbLine
 10
1353.6033403763
 20
38.8066652593
 30
0.0
 11
1348.8033403763
 21
38.8066652593
 31
0.0
  0
LINE
  5
403
100
AcDbEntity
  8
L1_55
  6
CONTINUOUS
 62
         7
100
AcDbLine
 10
1347.3033403763
 20
40.3066652593
 30
0.0
 11
1347.3033403763
 21
53.8066652593
 31
0.0
  0
LINE
  5
404
100
AcDbEntity
  8
L1_55
  6
CONTINUOUS
 62
         7
100
AcDbLine
 10
1353.6033403763
 20
55.3066652593
 30
0.0
 11
1348.8033403763
 21
55.3066652593
 31
0.0
  0
LINE
  5
405
100
AcDbEntity
  8
L1_55
  6
CONTINUOUS
 62
         7
100
AcDbLine
 10
1353.6033403763
 20
67.0566652593
 30
0.0
 11
1347.7033403763
 21
67.0566652593
 31
0.0
  0
LINE
  5
406
100
AcDbEntity
  8
L1_55
  6
CONTINUOUS
 62
         7
100
AcDbLine
 10
1353.6033403763
 20
27.0566652593
 30
0.0
 11
1347.7033403763
 21
27.0566652593
 31
0.0
  0
LINE
  5
407
100
AcDbEntity
  8
L1_55
  6
CONTINUOUS
 62
         7
100
AcDbLine
 10
1354.1033403763
 20
27.5566652593
 30
0.0
 11
1354.1033403763
 21
38.3066652593
 31
0.0
  0
LINE
  5
408
100
AcDbEntity
  8
L1_55
  6
CONTINUOUS
 62
         7
100
AcDbLine
 10
1347.6033403763
 20
66.0566652593
 30
0.0
 11
1345.6533403763
 21
66.0566652593
 31
0.0
  0
LINE
  5
409
100
AcDbEntity
  8
L1_55
  6
CONTINUOUS
 62
         7
100
AcDbLine
 10
1347.6033403763
 20
28.0566652593
 30
0.0
 11
1345.6533403763
 21
28.0566652593
 31
0.0
  0
LINE
  5
40A
100
AcDbEntity
  8
L1_55
  6
CONTINUOUS
 62
         7
100
AcDbLine
 10
1347.6033403763
 20
27.1566652593
 30
0.0
 11
1347.6033403763
 21
28.0566652593
 31
0.0
  0
LINE
  5
40B
100
AcDbEntity
  8
L1_55
  6
CONTINUOUS
 62
         7
100
AcDbLine
 10
1345.6533403763
 20
27.1566652593
 30
0.0
 11
1345.6533403763
 21
28.0566652593
 31
0.0
  0
LINE
  5
40C
100
AcDbEntity
  8
L1_55
  6
CONTINUOUS
 62
         7
100
AcDbLine
 10
1353.6033403763
 20
67.0566652593
 30
0.0
 11
1354.1033403763
 21
66.5566652593
 31
0.0
  0
LINE
  5
40D
100
AcDbEntity
  8
L1_55
  6
CONTINUOUS
 62
         7
100
AcDbLine
 10
1354.1033403763
 20
27.5566652593
 30
0.0
 11
1353.6033403763
 21
27.0566652593
 31
0.0
  0
LINE
  5
40E
100
AcDbEntity
  8
L1_55
  6
CONTINUOUS
 62
         7
100
AcDbLine
 10
1354.1033403763
 20
55.8066652593
 30
0.0
 11
1354.1033403763
 21
66.5566652593
 31
0.0
  0
LINE
  5
40F
100
AcDbEntity
  8
L1_55
  6
CONTINUOUS
 62
         7
100
AcDbLine
 10
1354.1033403763
 20
55.8066652593
 30
0.0
 11
1353.6033403763
 21
55.3066652593
 31
0.0
  0
LINE
  5
410
100
AcDbEntity
  8
L1_55
  6
CONTINUOUS
 62
         7
100
AcDbLine
 10
1354.1033403763
 20
38.3066652593
 30
0.0
 11
1353.6033403763
 21
38.8066652593
 31
0.0
  0
ARC
  5
411
100
AcDbEntity
  8
L1_55
  6
CONTINUOUS
 62
         7
100
AcDbCircle
 10
1352.1033403763
 20
64.5566652593
 30
0.0
 40
2.0
100
AcDbArc
 50
270.0
 51
360.0
  0
ARC
  5
412
100
AcDbEntity
  8
L1_55
  6
CONTINUOUS
 62
         7
100
AcDbCircle
 10
1352.1033403763
 20
29.5566652593
 30
0.0
 40
2.0
100
AcDbArc
 50
0.0
 51
90.0
  0
LINE
  5
413
100
AcDbEntity
  8
L1_55
  6
CONTINUOUS
 62
         7
100
AcDbLine
 10
1352.1033403763
 20
62.5566652593
 30
0.0
 11
1352.1033403763
 21
55.3066652593
 31
0.0
  0
LINE
  5
414
100
AcDbEntity
  8
L1_55
  6
CENTER
 62
         1
100
AcDbLine
 10
1324.9033403763
 20
24.7327468574
 30
0.0
 11
1324.9033403763
 21
33.7416373275
 31
0.0
  0
LINE
  5
415
100
AcDbEntity
  8
L1_55
  6
CENTER
 62
         1
100
AcDbLine
 10
1324.9033403763
 20
60.8264310933
 30
0.0
 11
1324.9033403763
 21
70.5522646056
 31
0.0
  0
ARC
  5
416
100
AcDbEntity
  8
L1_55
  6
CONTINUOUS
 62
         7
100
AcDbCircle
 10
1307.6033403763
 20
26.0566652593
 30
0.0
 40
0.5
100
AcDbArc
 50
90.0
 51
180.0
  0
ARC
  5
417
100
AcDbEntity
  8
L1_55
  6
CONTINUOUS
 62
         7
100
AcDbCircle
 10
1307.6033403763
 20
68.0566652593
 30
0.0
 40
0.5
100
AcDbArc
 50
180.0
 51
270.0
  0
LINE
  5
418
100
AcDbEntity
  8
L1_55
  6
CONTINUOUS
 62
         7
100
AcDbLine
 10
1313.1033403763
 20
31.5566652593
 30
0.0
 11
1304.1544112038
 21
47.0566652593
 31
0.0
  0
LINE
  5
419
100
AcDbEntity
  8
L1_55
  6
CONTINUOUS
 62
         7
100
AcDbLine
 10
1313.1033403763
 20
62.5566652593
 30
0.0
 11
1304.1544112038
 21
47.0566652593
 31
0.0
  0
LINE
  5
41A
100
AcDbEntity
  8
L1_55
  6
CONTINUOUS
 62
         7
100
AcDbLine
 10
1318.1033403763
 20
31.0566652593
 30
0.0
 11
1313.1033403763
 21
31.0566652593
 31
0.0
  0
LINE
  5
41B
100
AcDbEntity
  8
L1_55
  6
CONTINUOUS
 62
         7
100
AcDbLine
 10
1318.1033403763
 20
63.0566652593
 30
0.0
 11
1313.1033403763
 21
63.0566652593
 31
0.0
  0
LINE
  5
41C
100
AcDbEntity
  8
L1_55
  6
CONTINUOUS
 62
         7
100
AcDbLine
 10
1313.1033403763
 20
31.0566652593
 30
0.0
 11
1313.1033403763
 21
63.0566652593
 31
0.0
  0
LINE
  5
41D
100
AcDbEntity
  8
L1_55
  6
CONTINUOUS
 62
         7
100
AcDbLine
 10
1318.1033403763
 20
31.0566652593
 30
0.0
 11
1318.1033403763
 21
63.0566652593
 31
0.0
  0
LINE
  5
41E
100
AcDbEntity
  8
L1_55
  6
CONTINUOUS
 62
         7
100
AcDbLine
 10
1307.1033403763
 20
68.0566652593
 30
0.0
 11
1307.1033403763
 21
69.5566652593
 31
0.0
  0
LINE
  5
41F
100
AcDbEntity
  8
L1_55
  6
CONTINUOUS
 62
         7
100
AcDbLine
 10
1352.1033403763
 20
31.5566652593
 30
0.0
 11
1318.1033403763
 21
31.5566652593
 31
0.0
  0
LINE
  5
420
100
AcDbEntity
  8
L1_55
  6
CONTINUOUS
 62
         7
100
AcDbLine
 10
1352.1033403763
 20
62.5566652593
 30
0.0
 11
1318.1033403763
 21
62.5566652593
 31
0.0
  0
LINE
  5
421
100
AcDbEntity
  8
L1_55
  6
CONTINUOUS
 62
         7
100
AcDbLine
 10
1345.5533403763
 20
27.0566652593
 30
0.0
 11
1316.5533403763
 21
27.0566652593
 31
0.0
  0
LINE
  5
422
100
AcDbEntity
  8
L1_55
  6
CONTINUOUS
 62
         7
100
AcDbLine
 10
1345.5533403763
 20
67.0566652593
 30
0.0
 11
1316.5533403763
 21
67.0566652593
 31
0.0
  0
LINE
  5
423
100
AcDbEntity
  8
L1_55
  6
CONTINUOUS
 62
         7
100
AcDbLine
 10
1315.1533403763
 20
26.5566652593
 30
0.0
 11
1307.6033403763
 21
26.5566652593
 31
0.0
  0
LINE
  5
424
100
AcDbEntity
  8
L1_55
  6
CONTINUOUS
 62
         7
100
AcDbLine
 10
1315.1533403763
 20
67.5566652593
 30
0.0
 11
1307.6033403763
 21
67.5566652593
 31
0.0
  0
LINE
  5
425
100
AcDbEntity
  8
L1_55
  6
CONTINUOUS
 62
         7
100
AcDbLine
 10
1307.1033403763
 20
24.5566652593
 30
0.0
 11
1307.1033403763
 21
26.0566652593
 31
0.0
  0
LINE
  5
426
100
AcDbEntity
  8
L1_55
  6
CONTINUOUS
 62
         7
100
AcDbLine
 10
1299.6033403763
 20
70.0566652593
 30
0.0
 11
1306.6033403763
 21
70.0566652593
 31
0.0
  0
LINE
  5
427
100
AcDbEntity
  8
L1_55
  6
CONTINUOUS
 62
         7
100
AcDbLine
 10
1299.6033403763
 20
24.0566652593
 30
0.0
 11
1306.6033403763
 21
24.0566652593
 31
0.0
  0
LINE
  5
428
100
AcDbEntity
  8
L1_55
  6
CONTINUOUS
 62
         7
100
AcDbLine
 10
1316.3533403763
 20
66.8566652593
 30
0.0
 11
1316.5533403763
 21
67.0566652593
 31
0.0
  0
LINE
  5
429
100
AcDbEntity
  8
L1_55
  6
CONTINUOUS
 62
         7
100
AcDbLine
 10
1315.3533403763
 20
67.2566652593
 30
0.0
 11
1315.3533403763
 21
67.3566652593
 31
0.0
  0
ARC
  5
42A
100
AcDbEntity
  8
L1_55
  6
CONTINUOUS
 62
         7
100
AcDbCircle
 10
1315.1533403763
 20
67.3566652593
 30
0.0
 40
0.2
100
AcDbArc
 50
0.0
 51
90.0
  0
LINE
  5
42B
100
AcDbEntity
  8
L1_55
  6
CONTINUOUS
 62
         7
100
AcDbLine
 10
1316.3533403763
 20
66.8566652593
 30
0.0
 11
1315.7533403763
 21
66.8566652593
 31
0.0
  0
ARC
  5
42C
100
AcDbEntity
  8
L1_55
  6
CONTINUOUS
 62
         7
100
AcDbCircle
 10
1315.7533403763
 20
67.2566652593
 30
0.0
 40
0.4
100
AcDbArc
 50
180.0
 51
270.0
  0
ARC
  5
42D
100
AcDbEntity
  8
L1_55
  6
CONTINUOUS
 62
         7
100
AcDbCircle
 10
1315.1533403763
 20
26.7566652593
 30
0.0
 40
0.2
100
AcDbArc
 50
270.0
 51
360.0
  0
LINE
  5
42E
100
AcDbEntity
  8
L1_55
  6
CONTINUOUS
 62
         7
100
AcDbLine
 10
1315.3533403763
 20
26.8566652593
 30
0.0
 11
1315.3533403763
 21
26.7566652593
 31
0.0
  0
LINE
  5
42F
100
AcDbEntity
  8
L1_55
  6
CONTINUOUS
 62
         7
100
AcDbLine
 10
1316.3533403763
 20
27.2566652593
 30
0.0
 11
1316.5533403763
 21
27.0566652593
 31
0.0
  0
ARC
  5
430
100
AcDbEntity
  8
L1_55
  6
CONTINUOUS
 62
         7
100
AcDbCircle
 10
1315.7533403763
 20
26.8566652593
 30
0.0
 40
0.4
100
AcDbArc
 50
90.0
 51
180.0
  0
LINE
  5
431
100
AcDbEntity
  8
L1_55
  6
CONTINUOUS
 62
         7
100
AcDbLine
 10
1316.3533403763
 20
27.2566652593
 30
0.0
 11
1315.7533403763
 21
27.2566652593
 31
0.0
  0
LINE
  5
432
100
AcDbEntity
  8
L1_55
  6
CONTINUOUS
 62
         7
100
AcDbLine
 10
1345.5533403763
 20
67.0566652593
 30
0.0
 11
1345.6533403763
 21
66.9566652593
 31
0.0
  0
LINE
  5
433
100
AcDbEntity
  8
L1_55
  6
CONTINUOUS
 62
         7
100
AcDbLine
 10
1347.6033403763
 20
66.9566652593
 30
0.0
 11
1347.7033403763
 21
67.0566652593
 31
0.0
  0
LINE
  5
434
100
AcDbEntity
  8
L1_55
  6
CONTINUOUS
 62
         7
100
AcDbLine
 10
1345.6533403763
 20
27.1566652593
 30
0.0
 11
1345.5533403763
 21
27.0566652593
 31
0.0
  0
LINE
  5
435
100
AcDbEntity
  8
L1_55
  6
CONTINUOUS
 62
         7
100
AcDbLine
 10
1347.6033403763
 20
27.1566652593
 30
0.0
 11
1347.7033403763
 21
27.0566652593
 31
0.0
  0
LINE
  5
436
100
AcDbEntity
  8
L1_55
  6
DASHED
 62
         2
100
AcDbLine
 10
1244.1414601609
 20
46.2566652593
 30
0.0
 11
1243.195198805
 21
46.2566652593
 31
0.0
  0
LINE
  5
437
100
AcDbEntity
  8
L1_55
  6
DASHED
 62
         2
100
AcDbLine
 10
1244.1414601609
 20
47.8566652593
 30
0.0
 11
1243.195198805
 21
47.8566652593
 31
0.0
  0
LINE
  5
438
100
AcDbEntity
  8
L1_55
  6
DASHED
 62
         2
100
AcDbLine
 10
1241.2033403763
 20
45.1066652593
 30
0.0
 11
1243.195198805
 21
46.2566652593
 31
0.0
  0
LINE
  5
439
100
AcDbEntity
  8
L1_55
  6
DASHED
 62
         2
100
AcDbLine
 10
1241.2033403763
 20
49.0066652593
 30
0.0
 11
1243.195198805
 21
47.8566652593
 31
0.0
  0
LINE
  5
43A
100
AcDbEntity
  8
L1_55
  6
DASHED
 62
         2
100
AcDbLine
 10
1243.195198805
 20
46.2566652593
 30
0.0
 11
1243.195198805
 21
47.8566652593
 31
0.0
  0
LINE
  5
43B
100
AcDbEntity
  8
L1_55
  6
DASHED
 62
         2
100
AcDbLine
 10
1244.1414601609
 20
46.2566652593
 30
0.0
 11
1244.6033403763
 21
47.0566652593
 31
0.0
  0
LINE
  5
43C
100
AcDbEntity
  8
L1_55
  6
DASHED
 62
         2
100
AcDbLine
 10
1244.1414601609
 20
47.8566652593
 30
0.0
 11
1244.6033403763
 21
47.0566652593
 31
0.0
  0
LINE
  5
43D
100
AcDbEntity
  8
L1_55
  6
DASHED
 62
         2
100
AcDbLine
 10
1244.1414601609
 20
46.2566652593
 30
0.0
 11
1244.1414601609
 21
47.8566652593
 31
0.0
  0
LINE
  5
43E
100
AcDbEntity
  8
L1_55
  6
CONTINUOUS
 62
         7
100
AcDbLine
 10
1241.2033403763
 20
58.2566652593
 30
0.0
 11
1242.7033403763
 21
59.7566652593
 31
0.0
  0
LINE
  5
43F
100
AcDbEntity
  8
L1_55
  6
CONTINUOUS
 62
         4
100
AcDbLine
 10
1274.5266001574
 20
55.9937107958
 30
0.0
 11
1248.5033403763
 21
41.2601145608
 31
0.0
  0
LINE
  5
440
100
AcDbEntity
  8
L1_55
  6
CONTINUOUS
 62
         4
100
AcDbLine
 10
1248.5033403763
 20
52.8532159578
 30
0.0
 11
1274.5266001574
 21
38.1196197228
 31
0.0
  0
ARC
  5
441
100
AcDbEntity
  8
L1_55
  6
CONTINUOUS
 62
         7
100
AcDbCircle
 10
1265.5033403763
 20
47.0566652593
 30
0.0
 40
12.7
100
AcDbArc
 50
315.2750328752
 51
404.7249671248
  0
LINE
  5
442
100
AcDbEntity
  8
L1_55
  6
CONTINUOUS
 62
         7
100
AcDbLine
 10
1248.5033403763
 20
41.2601145608
 30
0.0
 11
1274.5266001574
 21
38.1196197228
 31
0.0
  0
LINE
  5
443
100
AcDbEntity
  8
L1_55
  6
CONTINUOUS
 62
         7
100
AcDbLine
 10
1274.5266001574
 20
55.9937107958
 30
0.0
 11
1248.5033403763
 21
52.8532159578
 31
0.0
  0
LINE
  5
444
100
AcDbEntity
  8
L1_55
  6
CONTINUOUS
 62
         4
100
AcDbLine
 10
1274.5266001574
 20
38.1196197228
 30
0.0
 11
1274.5266001574
 21
55.9937107958
 31
0.0
  0
LINE
  5
445
100
AcDbEntity
  8
L1_55
  6
CONTINUOUS
 62
         7
100
AcDbLine
 10
1248.5033403763
 20
41.2601145608
 30
0.0
 11
1248.5033403763
 21
52.8532159578
 31
0.0
  0
LINE
  5
446
100
AcDbEntity
  8
L1_55
  6
CONTINUOUS
 62
         7
100
AcDbLine
 10
1261.7633403763
 20
34.3566652593
 30
0.0
 11
1255.8033403763
 21
34.3566652593
 31
0.0
  0
LINE
  5
447
100
AcDbEntity
  8
L1_55
  6
CONTINUOUS
 62
         7
100
AcDbLine
 10
1261.7633403763
 20
34.3566652593
 30
0.0
 11
1263.6633403763
 21
36.2566652593
 31
0.0
  0
LINE
  5
448
100
AcDbEntity
  8
L1_55
  6
CONTINUOUS
 62
         7
100
AcDbLine
 10
1276.7433403763
 20
36.2566652593
 30
0.0
 11
1263.6633403763
 21
36.2566652593
 31
0.0
  0
LINE
  5
449
100
AcDbEntity
  8
L1_55
  6
CONTINUOUS
 62
         7
100
AcDbLine
 10
1253.9033403763
 20
36.2566652593
 30
0.0
 11
1255.8033403763
 21
34.3566652593
 31
0.0
  0
LINE
  5
44A
100
AcDbEntity
  8
L1_55
  6
CONTINUOUS
 62
         7
100
AcDbLine
 10
1253.9033403763
 20
36.2566652593
 30
0.0
 11
1242.7033403763
 21
36.2566652593
 31
0.0
  0
LINE
  5
44B
100
AcDbEntity
  8
L1_55
  6
CENTER
 62
         1
100
AcDbLine
 10
1299.1033403763
 20
47.0566652593
 30
0.0
 11
1233.5043095065
 21
47.0566652593
 31
0.0
  0
LINE
  5
44C
100
AcDbEntity
  8
L1_55
  6
CONTINUOUS
 62
         7
100
AcDbLine
 10
1297.6033403763
 20
59.7566652593
 30
0.0
 11
1242.7033403763
 21
59.7566652593
 31
0.0
  0
LINE
  5
44D
100
AcDbEntity
  8
L1_55
  6
CONTINUOUS
 62
         7
100
AcDbLine
 10
1297.6033403763
 20
34.3566652593
 30
0.0
 11
1278.6433403763
 21
34.3566652593
 31
0.0
  0
LINE
  5
44E
100
AcDbEntity
  8
L1_55
  6
CONTINUOUS
 62
         7
100
AcDbLine
 10
1298.7033403763
 20
59.5566652593
 30
0.0
 11
1298.4024115368
 21
59.5566652593
 31
0.0
  0
LINE
  5
44F
100
AcDbEntity
  8
L1_55
  6
CONTINUOUS
 62
         7
100
AcDbLine
 10
1297.6033403763
 20
59.7566652593
 30
0.0
 11
1298.2988839188
 21
59.5702949288
 31
0.0
  0
ARC
  5
450
100
AcDbEntity
  8
L1_55
  6
CONTINUOUS
 62
         7
100
AcDbCircle
 10
1298.7033403763
 20
59.9566652593
 30
0.0
 40
0.4
100
AcDbArc
 50
270.0
 51
360.0
  0
ARC
  5
451
100
AcDbEntity
  8
L1_55
  6
CONTINUOUS
 62
         7
100
AcDbCircle
 10
1298.4024115368
 20
59.9566652593
 30
0.0
 40
0.4
100
AcDbArc
 50
255.0
 51
270.0
  0
ARC
  5
452
100
AcDbEntity
  8
L1_55
  6
CONTINUOUS
 62
         7
100
AcDbCircle
 10
1298.4024115368
 20
34.1566652593
 30
0.0
 40
0.4
100
AcDbArc
 50
90.0
 51
105.0
  0
ARC
  5
453
100
AcDbEntity
  8
L1_55
  6
CONTINUOUS
 62
         7
100
AcDbCircle
 10
1298.7033403763
 20
34.1566652593
 30
0.0
 40
0.4
100
AcDbArc
 50
0.0
 51
90.0
  0
LINE
  5
454
100
AcDbEntity
  8
L1_55
  6
CONTINUOUS
 62
         7
100
AcDbLine
 10
1297.6033403763
 20
34.3566652593
 30
0.0
 11
1298.2988839188
 21
34.5430355898
 31
0.0
  0
LINE
  5
455
100
AcDbEntity
  8
L1_55
  6
CONTINUOUS
 62
         7
100
AcDbLine
 10
1298.7033403763
 20
34.5566652593
 30
0.0
 11
1298.4024115368
 21
34.5566652593
 31
0.0
  0
LINE
  5
456
100
AcDbEntity
  8
L1_55
  6
CONTINUOUS
 62
         4
100
AcDbLine
 10
1297.6033403763
 20
59.7566652593
 30
0.0
 11
1297.6033403763
 21
34.3566652593
 31
0.0
  0
LINE
  5
457
100
AcDbEntity
  8
L1_55
  6
CONTINUOUS
 62
         4
100
AcDbLine
 10
1298.7033403763
 20
34.5566652593
 30
0.0
 11
1298.7033403763
 21
59.5566652593
 31
0.0
  0
LINE
  5
458
100
AcDbEntity
  8
L1_55
  6
CONTINUOUS
 62
         4
100
AcDbLine
 10
1298.3497505378
 20
34.5566652593
 30
0.0
 11
1298.3497505378
 21
59.5601468875
 31
0.0
  0
LINE
  5
459
100
AcDbEntity
  8
L1_55
  6
CONTINUOUS
 62
         7
100
AcDbLine
 10
1242.7033403763
 20
36.2566652593
 30
0.0
 11
1242.7033403763
 21
59.7566652593
 31
0.0
  0
LINE
  5
45A
100
AcDbEntity
  8
L1_55
  6
CONTINUOUS
 62
         7
100
AcDbLine
 10
1299.1033403763
 20
60.7566652593
 30
0.0
 11
1299.1033403763
 21
33.3566652593
 31
0.0
  0
LINE
  5
45B
100
AcDbEntity
  8
L1_55
  6
CONTINUOUS
 62
         7
100
AcDbLine
 10
1276.7433403763
 20
36.2566652593
 30
0.0
 11
1278.6433403763
 21
34.3566652593
 31
0.0
  0
LINE
  5
45C
100
AcDbEntity
  8
L1_55
  6
CONTINUOUS
 62
         7
100
AcDbLine
 10
1241.2033403763
 20
58.2566652593
 30
0.0
 11
1241.2033403763
 21
37.7566652593
 31
0.0
  0
INSERT
  5
480
100
AcDbEntity
  8
0
  6
CONTINUOUS
100
AcDbBlockReference
  2
*X6
 10
0.0
 20
0.0
 30
0.0
  0
DIMENSION
  5
483
100
AcDbEntity
  8
L1_55
  6
CONTINUOUS
 62
         4
100
AcDbDimension
  2
*D7
 10
1354.1033403763
 20
199.7170409188
 30
0.0
 11
1325.3976545391
 21
202.8490409188
 31
0.0
  3
DIMSTYLE2
100
AcDbAlignedDimension
 13
1354.1033403763
 23
169.6846417294
 33
0.0
 14
1307.1033403763
 24
172.6846417294
 34
0.0
100
AcDbRotatedDimension
  0
DIMENSION
  5
491
100
AcDbEntity
  8
L1_55
  6
CONTINUOUS
 62
         4
100
AcDbDimension
  2
*D8
 10
1354.1033403763
 20
192.2116249201
 30
0.0
 11
1323.0330812897
 21
195.3436249201
 31
0.0
  3
DIMSTYLE2
100
AcDbAlignedDimension
 13
1354.1033403763
 23
169.6846417294
 33
0.0
 14
1315.3533403763
 24
170.4846417294
 34
0.0
100
AcDbRotatedDimension
  0
DIMENSION
  5
49F
100
AcDbEntity
  8
L1_55
  6
CONTINUOUS
 62
         4
100
AcDbDimension
  2
*D9
 10
1354.1033403763
 20
188.5843287438
 30
0.0
 11
1356.7373874486
 21
191.7163287438
 31
0.0
  3
DIMSTYLE2
100
AcDbAlignedDimension
 13
1354.1033403763
 23
169.6846417294
 33
0.0
 14
1345.6533403763
 24
169.1846417294
 34
0.0
100
AcDbRotatedDimension
  0
DIMENSION
  5
4AE
100
AcDbEntity
  8
L1_55
  6
CONTINUOUS
 62
         4
100
AcDbDimension
  2
*D10
 10
1345.6533403763
 20
179.7595716025
 30
0.0
 11
1356.7373874486
 21
182.8915716025
 31
0.0
  3
DIMSTYLE2
100
AcDbAlignedDimension
 13
1345.6533403763
 23
169.1846417294
 33
0.0
 14
1347.6033403763
 24
169.1846417294
 34
0.0
100
AcDbRotatedDimension
  0
DIMENSION
  5
4BD
100
AcDbEntity
  8
L1_55
  6
CONTINUOUS
 62
         4
100
AcDbDimension
  2
*D11
 10
1336.5312697601
 20
169.1846417294
 30
0.0
 11
1333.3992697601
 21
104.6823662898
 31
0.0
  3
DIMSTYLE2
100
AcDbAlignedDimension
 13
1347.6033403763
 23
169.1846417294
 33
0.0
 14
1347.6033403763
 24
131.1846417294
 34
0.0
 50
90.0
100
AcDbRotatedDimension
  0
DIMENSION
  5
4CC
100
AcDbEntity
  8
L1_55
  6
CONTINUOUS
 62
         4
100
AcDbDimension
  2
*D12
 10
1311.8246895204
 20
170.6846417294
 30
0.0
 11
1308.6926895204
 21
100.0632097763
 31
0.0
  3
DIMSTYLE2
100
AcDbAlignedDimension
 13
1314.8533403763
 23
170.6846417294
 33
0.0
 14
1314.8533403763
 24
129.6846417294
 34
0.0
 50
90.0
100
AcDbRotatedDimension
  0
DIMENSION
  5
4DB
100
AcDbEntity
  8
L1_55
  6
CONTINUOUS
 62
         4
100
AcDbDimension
  2
*D13
 10
1386.4515339551
 20
170.1846417294
 30
0.0
 11
1383.3195339551
 21
140.5790245109
 31
0.0
  3
DIMSTYLE2
100
AcDbAlignedDimension
 13
1353.6033403763
 23
170.1846417294
 33
0.0
 14
1353.6033403763
 24
130.1846417294
 34
0.0
 50
90.0
100
AcDbRotatedDimension
  0
DIMENSION
  5
4E9
100
AcDbEntity
  8
L1_55
  6
CONTINUOUS
 62
         4
100
AcDbDimension
  2
*D14
 10
1405.9993729239
 20
173.1846417294
 30
0.0
 11
1402.8673729239
 21
139.8692487338
 31
0.0
  3
DIMSTYLE2
100
AcDbAlignedDimension
 13
1306.6033403763
 23
173.1846417294
 33
0.0
 14
1306.6033403763
 24
127.1846417294
 34
0.0
 50
90.0
100
AcDbRotatedDimension
  0
DIMENSION
  5
4F7
100
AcDbEntity
  8
L1_55
  6
CONTINUOUS
 62
         4
100
AcDbDimension
  2
*D15
 10
1354.1033403763
 20
80.066573507
 30
0.0
 11
1331.0075330455
 21
83.198573507
 31
0.0
  3
DIMSTYLE2
100
AcDbAlignedDimension
 13
1354.1033403763
 23
55.8066652593
 33
0.0
 14
1324.9033403763
 24
68.0827092205
 34
0.0
100
AcDbRotatedDimension
  0
DIMENSION
  5
505
100
AcDbEntity
  8
L1_55
  6
CONTINUOUS
 62
         4
100
AcDbDimension
  2
*D16
 10
1354.1033403763
 20
9.1136089882
 30
0.0
 11
1330.6783403763
 21
12.2456089882
 31
0.0
  3
DIMSTYLE2
100
AcDbAlignedDimension
 13
1354.1033403763
 23
38.3066652593
 33
0.0
 14
1313.1033403763
 24
31.0566652593
 34
0.0
100
AcDbRotatedDimension
  0
DIMENSION
  5
513
100
AcDbEntity
  8
L1_55
  6
CONTINUOUS
 62
         4
100
AcDbDimension
  2
*D17
 10
1354.1033403763
 20
49.5958407829
 30
0.0
 11
1361.4482592518
 21
52.7278407829
 31
0.0
  3
DIMSTYLE2
100
AcDbAlignedDimension
 13
1354.1033403763
 23
55.8066652593
 33
0.0
 14
1347.3033403763
 24
54.8066652593
 34
0.0
100
AcDbRotatedDimension
  0
DIMENSION
  5
522
100
AcDbEntity
  8
L1_55
  6
CONTINUOUS
 62
         4
100
AcDbDimension
  2
*D18
 10
1389.2664748422
 20
62.5566652593
 30
0.0
 11
1386.1344748422
 21
38.1087178046
 31
0.0
  3
DIMSTYLE2
100
AcDbAlignedDimension
 13
1352.1033403763
 23
62.5566652593
 33
0.0
 14
1352.1033403763
 24
31.5566652593
 34
0.0
 50
90.0
100
AcDbRotatedDimension
  0
DIMENSION
  5
530
100
AcDbEntity
  8
L1_55
  6
CONTINUOUS
 62
         4
100
AcDbDimension
  2
*D19
 10
1398.4553917087
 20
63.0566652593
 30
0.0
 11
1395.3233917087
 21
37.0287178046
 31
0.0
  3
DIMSTYLE2
100
AcDbAlignedDimension
 13
1313.1033403763
 23
63.0566652593
 33
0.0
 14
1313.1033403763
 24
31.0566652593
 34
0.0
 50
90.0
100
AcDbRotatedDimension
  0
DIMENSION
  5
53E
100
AcDbEntity
  8
L1_55
  6
CONTINUOUS
 62
         4
100
AcDbDimension
  2
*D20
 10
1657.2754033084
 20
158.2596417294
 30
0.0
 11
1654.1434033084
 21
142.6362373112
 31
0.0
  3
DIMSTYLE2
100
AcDbAlignedDimension
 13
1641.5024923873
 23
158.2596417294
 33
0.0
 14
1641.5024923873
 24
142.1096417294
 34
0.0
 50
90.0
100
AcDbRotatedDimension
  0
TEXT
  5
54B
100
AcDbEntity
  8
L1_55
  6
CONTINUOUS
 62
         2
100
AcDbText
 10
1607.8551181589
 20
224.3704784082
 30
0.0
 40
4.5
  1
534542
 41
0.98
  7
BOX
100
AcDbText
  0
ENDSEC
  0
SECTION
  2
OBJECTS
  0
DICTIONARY
  5
19
100
AcDbDictionary
  3
ACAD_GROUP
350
1A
  3
ACAD_MLINESTYLE
350
1B
  0
DICTIONARY
  5
1A
102
{ACAD_REACTORS
330
19
102
}
100
AcDbDictionary
  0
DICTIONARY
  5
1B
102
{ACAD_REACTORS
330
19
102
}
100
AcDbDictionary
  3
STANDARD
350
1C
  0
MLINESTYLE
  5
1C
102
{ACAD_REACTORS
330
1B
102
}
100
AcDbMlineStyle
  2
STANDARD
 70
         0
  3

 62
         0
 51
90.0
 52
90.0
 71
         2
 49
0.5
 62
       256
  6
BYLAYER
 49
-0.5
 62
       256
  6
BYLAYER
  0
ENDSEC
  0
EOF
