  0
SECTION
  2
HEADER
  9
$ACADVER
  1
AC1014
  9
$ACADMAINTVER
 70
         0
  9
$DWGCODEPAGE
  3
BIG5
  9
$INSBASE
 10
0.0
 20
0.0
 30
0.0
  9
$EXTMIN
 10
1072.2981062506
 20
-154.2000268066
 30
0.0
  9
$EXTMAX
 10
1868.2851097363
 20
247.1119310375
 30
0.0
  9
$LIMMIN
 10
0.0
 20
0.0
  9
$LIMMAX
 10
0.0
 20
0.0
  9
$ORTHOMODE
 70
         0
  9
$REGENMODE
 70
         1
  9
$FILLMODE
 70
         1
  9
$QTEXTMODE
 70
         0
  9
$MIRRTEXT
 70
         1
  9
$DRAGMODE
 70
         2
  9
$LTSCALE
 40
1.0
  9
$OSMODE
 70
         0
  9
$ATTMODE
 70
         1
  9
$TEXTSIZE
 40
1.2
  9
$TRACEWID
 40
0.05
  9
$TEXTSTYLE
  7
STANDARD
  9
$CLAYER
  8
0
  9
$CELTYPE
  6
CONTINUOUS
  9
$CECOLOR
 62
         4
  9
$CELTSCALE
 40
1.0
  9
$DELOBJ
 70
         1
  9
$DISPSILH
 70
         0
  9
$DIMSCALE
 40
1.0
  9
$DIMASZ
 40
0.18
  9
$DIMEXO
 40
0.0625
  9
$DIMDLI
 40
0.38
  9
$DIMRND
 40
0.0
  9
$DIMDLE
 40
0.0
  9
$DIMEXE
 40
0.25
  9
$DIMTP
 40
0.01
  9
$DIMTM
 40
-0.01
  9
$DIMTXT
 40
2.7
  9
$DIMCEN
 40
0.09
  9
$DIMTSZ
 40
0.0
  9
$DIMTOL
 70
         0
  9
$DIMLIM
 70
         0
  9
$DIMTIH
 70
         1
  9
$DIMTOH
 70
         1
  9
$DIMSE1
 70
         0
  9
$DIMSE2
 70
         0
  9
$DIMTAD
 70
         0
  9
$DIMZIN
 70
         0
  9
$DIMBLK
  1

  9
$DIMASO
 70
         1
  9
$DIMSHO
 70
         1
  9
$DIMPOST
  1

  9
$DIMAPOST
  1

  9
$DIMALT
 70
         0
  9
$DIMALTD
 70
         2
  9
$DIMALTF
 40
25.4
  9
$DIMLFAC
 40
1.0
  9
$DIMTOFL
 70
         0
  9
$DIMTVP
 40
0.0
  9
$DIMTIX
 70
         0
  9
$DIMSOXD
 70
         0
  9
$DIMSAH
 70
         0
  9
$DIMBLK1
  1

  9
$DIMBLK2
  1

  9
$DIMSTYLE
  2
STANDARD
  9
$DIMCLRD
 70
         0
  9
$DIMCLRE
 70
         0
  9
$DIMCLRT
 70
         4
  9
$DIMTFAC
 40
1.0
  9
$DIMGAP
 40
0.09
  9
$DIMJUST
 70
         0
  9
$DIMSD1
 70
         0
  9
$DIMSD2
 70
         0
  9
$DIMTOLJ
 70
         1
  9
$DIMTZIN
 70
         0
  9
$DIMALTZ
 70
         0
  9
$DIMALTTZ
 70
         0
  9
$DIMFIT
 70
         3
  9
$DIMUPT
 70
         0
  9
$DIMUNIT
 70
         2
  9
$DIMDEC
 70
         4
  9
$DIMTDEC
 70
         4
  9
$DIMALTU
 70
         2
  9
$DIMALTTD
 70
         2
  9
$DIMTXSTY
  7
STANDARD
  9
$DIMAUNIT
 70
         0
  9
$LUNITS
 70
         2
  9
$LUPREC
 70
        10
  9
$SKETCHINC
 40
0.1
  9
$FILLETRAD
 40
0.0
  9
$AUNITS
 70
         0
  9
$AUPREC
 70
         0
  9
$MENU
  1
acad
  9
$ELEVATION
 40
0.0
  9
$PELEVATION
 40
0.0
  9
$THICKNESS
 40
0.0
  9
$LIMCHECK
 70
         0
  9
$BLIPMODE
 70
         1
  9
$CHAMFERA
 40
0.0
  9
$CHAMFERB
 40
0.0
  9
$CHAMFERC
 40
0.0
  9
$CHAMFERD
 40
0.0
  9
$SKPOLY
 70
         0
  9
$TDCREATE
 40
0.000000000
  9
$TDUPDATE
 40
0.000000000
  9
$TDINDWG
 40
0.0000000000
  9
$TDUSRTIMER
 40
0.0000000000
  9
$USRTIMER
 70
         1
  9
$ANGBASE
 50
0.0
  9
$ANGDIR
 70
         0
  9
$PDMODE
 70
         2
  9
$PDSIZE
 40
0.0
  9
$PLINEWID
 40
0.0
  9
$COORDS
 70
         1
  9
$SPLFRAME
 70
         0
  9
$SPLINETYPE
 70
         6
  9
$SPLINESEGS
 70
         8
  9
$ATTDIA
 70
         0
  9
$ATTREQ
 70
         1
  9
$HANDLING
 70
         1
  9
$HANDSEED
  5
73B
  9
$SURFTAB1
 70
         6
  9
$SURFTAB2
 70
         6
  9
$SURFTYPE
 70
         6
  9
$SURFU
 70
         6
  9
$SURFV
 70
         6
  9
$UCSNAME
  2

  9
$UCSORG
 10
0.0
 20
0.0
 30
0.0
  9
$UCSXDIR
 10
1.0
 20
0.0
 30
0.0
  9
$UCSYDIR
 10
0.0
 20
1.0
 30
0.0
  9
$PUCSNAME
  2

  9
$PUCSORG
 10
0.0
 20
0.0
 30
0.0
  9
$PUCSXDIR
 10
1.0
 20
0.0
 30
0.0
  9
$PUCSYDIR
 10
0.0
 20
1.0
 30
0.0
  9
$USERI1
 70
         0
  9
$USERI2
 70
         0
  9
$USERI3
 70
         0
  9
$USERI4
 70
         0
  9
$USERI5
 70
         0
  9
$USERR1
 40
0.0
  9
$USERR2
 40
0.0
  9
$USERR3
 40
0.0
  9
$USERR4
 40
0.0
  9
$USERR5
 40
0.0
  9
$WORLDVIEW
 70
         1
  9
$SHADEDGE
 70
         3
  9
$SHADEDIF
 70
        70
  9
$TILEMODE
 70
         1
  9
$MAXACTVP
 70
        16
  9
$PINSBASE
 10
0.0
 20
0.0
 30
0.0
  9
$PLIMCHECK
 70
         0
  9
$PEXTMIN
 10
1.0000000000E+20
 20
1.0000000000E+20
 30
1.0000000000E+20
  9
$PEXTMAX
 10
-1.0000000000E+20
 20
-1.0000000000E+20
 30
-1.0000000000E+20
  9
$PLIMMIN
 10
0.0
 20
0.0
  9
$PLIMMAX
 10
12.0
 20
9.0
  9
$UNITMODE
 70
         0
  9
$VISRETAIN
 70
         0
  9
$PLINEGEN
 70
         1
  9
$PSLTSCALE
 70
         0
  9
$TREEDEPTH
 70
      3020
  9
$PICKSTYLE
 70
         1
  9
$CMLSTYLE
  2
STANDARD
  9
$CMLJUST
 70
         0
  9
$CMLSCALE
 40
1.0
  9
$PROXYGRAPHICS
 70
         0
  9
$MEASUREMENT
 70
         0
  0
ENDSEC
  0
SECTION
  2
CLASSES
  0
CLASS
  1
LWPOLYLINE
  2
AcDbPolyline
  3
"AutoCAD"
 90
        0
280
         0
281
         1
  0
CLASS
  1
IMAGE
  2
AcDbRasterImage
  3
ISM
 90
      127
280
         0
281
         1
  0
CLASS
  1
OLE2FRAME
  2
AcDbOle2Frame
  3
""
 90
        0
280
         0
281
         1
  0
CLASS
  1
HATCH
  2
AcDbHatch
  3
"ACAD_SEDONA"
 90
        0
280
         0
281
         1
  0
CLASS
  1
DICTIONARYVAR
  2
AcDbDictionaryVar
  3
"AutoCAD"
 90
        0
280
         0
281
         0
  0
CLASS
  1
RASTERVARIABLES
  2
AcDbRasterVariables
  3
ISM
 90
        0
280
         0
281
         0
  0
CLASS
  1
IMAGEDEF
  2
AcDbRasterImageDef
  3
ISM
 90
        0
280
         0
281
         0
  0
CLASS
  1
IMAGEDEF_REACTOR
  2
AcDbRasterImageDefReactor
  3
ISM
 90
        1
280
         0
281
         0
  0
CLASS
  1
IDBUFFER
  2
AcDbIdBuffer
  3
"Acad"
 90
        0
280
         0
281
         0
  0
CLASS
  1
SPATIAL_FILTER
  2
AcDbSpatialFilter
  3
"Acad"
 90
        0
280
         0
281
         0
  0
CLASS
  1
XRECORD
  2
AcDbXrecord
  3
"<Built In>"
 90
        0
280
         0
281
         0
  0
CLASS
  1
SORTENTSTABLE
  2
AcDbSortentsTable
  3
"AutoCAD"
 90
        0
280
         0
281
         0
  0
CLASS
  1
LAYER_INDEX
  2
AcDbLayerIndex
  3
"Acad"
 90
        0
280
         0
281
         0
  0
CLASS
  1
SPATIAL_INDEX
  2
AcDbSpatialIndex
  3
"Acad"
 90
        0
280
         0
281
         0
  0
CLASS
  1
OBJECT_PTR
  2
CAseDLPNTableRecord
  3
"ASE-LPNTableRecord"
 90
        1
280
         0
281
         0
  0
CLASS
  1
LAYOUT
  2
AcDbLayout
  3
"AutoCAD 2000"
 90
        1
280
         0
281
         0
  0
CLASS
  1
PLOTSETTINGS
  2
AcDbPlotSettings
  3
"AutoCAD 2000"
 90
        1
280
         0
281
         0
  0
CLASS
  1
ACDBDICTIONARYWDFLT
  2
AcDbDictionaryWithDefault
  3
"AutoCAD 2000"
 90
        1
280
         0
281
         0
  0
CLASS
  1
ACDBPLACEHOLDER
  2
AcDbPlaceHolder
  3
"AutoCAD 2000"
 90
        1
280
         0
281
         0
  0
CLASS
  1
VBA_PROJECT
  2
AcDbVbaProject
  3
"acadvba"
 90
        1
280
         0
281
         0
  0
CLASS
  1
WIPEOUT
  2
AcDbWipeout
  3
WipeOut|AutoCAD Express Tool|expresstools@autodesk.com
 90
      127
280
         0
281
         1
  0
CLASS
  1
WIPEOUTVARIABLES
  2
AcDbWipeoutVariables
  3
WipeOut|AutoCAD Express Tool|expresstools@autodesk.com
 90
        0
280
         0
281
         0
  0
CLASS
  1
RTEXT
  2
RText
  3
RText|AutoCAD Express Tool|expresstools@autodesk.com
 90
        0
280
         0
281
         1
  0
CLASS
  1
ARCALIGNEDTEXT
  2
AcDbArcAlignedText
  3
ATEXT|AutoCAD Express Tool|expresstools@autodesk.com
 90
        0
280
         0
281
         1
  0
ENDSEC
  0
SECTION
  2
TABLES
  0
TABLE
  2
VPORT
  5
7
100
AcDbSymbolTable
 70
         1
  0
VPORT
  5
15
100
AcDbSymbolTableRecord
100
AcDbViewportTableRecord
  2
*ACTIVE
 70
         0
 10
0.0
 20
0.0
 11
1.0
 21
1.0
 12
1470.2916079935
 22
46.4559521154
 13
0.0
 23
0.0
 14
1.0
 24
1.0
 15
0.0
 25
0.0
 16
0.0
 26
0.0
 36
1.0
 17
0.0
 27
0.0
 37
0.0
 40
401.3119578441
 41
1.9834619625
 42
50.0
 43
0.0
 44
0.0
 50
0.0
 51
0.0
 71
         0
 72
       100
 73
         1
 74
         1
 75
         0
 76
         0
 77
         0
 78
         0
  0
ENDTAB
  0
TABLE
  2
LTYPE
  5
4
100
AcDbSymbolTable
 70
         6
  0
LTYPE
  5
11
100
AcDbSymbolTableRecord
100
AcDbLinetypeTableRecord
  2
BYBLOCK
 70
        64
  3

 72
        65
 73
         0
 40
0.0
  0
LTYPE
  5
12
100
AcDbSymbolTableRecord
100
AcDbLinetypeTableRecord
  2
BYLAYER
 70
        64
  3

 72
        65
 73
         0
 40
0.0
  0
LTYPE
  5
13
100
AcDbSymbolTableRecord
100
AcDbLinetypeTableRecord
  2
CONTINUOUS
 70
        64
  3
Solid line
 72
        65
 73
         0
 40
0.0
  0
LTYPE
  5
1D
100
AcDbSymbolTableRecord
100
AcDbLinetypeTableRecord
  2
DASHED
 70
        64
  3
_ _ _ _ _ _ _ _ _ _ _ _ _ _ _ _
 72
        65
 73
         2
 40
0.2
 49
0.1
 74
         0
 49
-0.1
 74
         0
  0
LTYPE
  5
1E
100
AcDbSymbolTableRecord
100
AcDbLinetypeTableRecord
  2
CENTER
 70
        64
  3
___ _ ___ _ ___ _ ___ _ ___ _ ___ _ ___ _ ___ _
 72
        65
 73
         4
 40
0.95
 49
0.625
 74
         0
 49
-0.125
 74
         0
 49
0.075
 74
         0
 49
-0.125
 74
         0
  0
LTYPE
  5
1F
100
AcDbSymbolTableRecord
100
AcDbLinetypeTableRecord
  2
PHANTOM
 70
        64
  3
______  __  __  ______  __  __  ______  __  __  
 72
        65
 73
         6
 40
1.025
 49
0.625
 74
         0
 49
-0.125
 74
         0
 49
0.075
 74
         0
 49
-0.125
 74
         0
 49
0.075
 74
         0
 49
-0.125
 74
         0
  0
ENDTAB
  0
TABLE
  2
LAYER
  5
2
100
AcDbSymbolTable
 70
         6
  0
LAYER
  5
14
100
AcDbSymbolTableRecord
100
AcDbLayerTableRecord
  2
0
 70
         0
 62
         7
  6
CONTINUOUS
  0
LAYER
  5
21
100
AcDbSymbolTableRecord
100
AcDbLayerTableRecord
  2
_____U
 70
         1
 62
         7
  6
CONTINUOUS
  0
LAYER
  5
22
100
AcDbSymbolTableRecord
100
AcDbLayerTableRecord
  2
____
 70
         0
 62
         7
  6
CONTINUOUS
  0
LAYER
  5
23
100
AcDbSymbolTableRecord
100
AcDbLayerTableRecord
  2
_Y__________
 70
         0
 62
         7
  6
CONTINUOUS
  0
LAYER
  5
24
100
AcDbSymbolTableRecord
100
AcDbLayerTableRecord
  2
L1_120
 70
         0
 62
         7
  6
CONTINUOUS
  0
LAYER
  5
7B
100
AcDbSymbolTableRecord
100
AcDbLayerTableRecord
  2
DEFPOINTS
 70
         0
 62
        -7
  6
CONTINUOUS
  0
ENDTAB
  0
TABLE
  2
STYLE
  5
3
100
AcDbSymbolTable
 70
        63
  0
STYLE
  5
17
100
AcDbSymbolTableRecord
100
AcDbTextStyleTableRecord
  2
STANDARD
 70
         0
 40
0.0
 41
1.0
 50
0.0
 71
         0
 42
0.0
  3
txt
  4

  0
STYLE
  5
84
100
AcDbSymbolTableRecord
100
AcDbTextStyleTableRecord
  2
BOX
 70
         0
 40
1.0
 41
1.0
 50
0.0
 71
         0
 42
0.2
  3
txt.shx
  4

  0
STYLE
  5
1CA
100
AcDbSymbolTableRecord
100
AcDbTextStyleTableRecord
  2
BOX
 70
         0
 40
1.0
 41
1.0
 50
0.0
 71
         0
 42
0.2
  3
txt.shx
  4

  0
STYLE
  5
1D9
100
AcDbSymbolTableRecord
100
AcDbTextStyleTableRecord
  2
BOX
 70
         0
 40
1.0
 41
1.0
 50
0.0
 71
         0
 42
0.2
  3
txt.shx
  4

  0
STYLE
  5
1E7
100
AcDbSymbolTableRecord
100
AcDbTextStyleTableRecord
  2
BOX
 70
         0
 40
1.0
 41
1.0
 50
0.0
 71
         0
 42
0.2
  3
txt.shx
  4

  0
STYLE
  5
1F5
100
AcDbSymbolTableRecord
100
AcDbTextStyleTableRecord
  2
BOX
 70
         0
 40
1.0
 41
1.0
 50
0.0
 71
         0
 42
0.2
  3
txt.shx
  4

  0
STYLE
  5
203
100
AcDbSymbolTableRecord
100
AcDbTextStyleTableRecord
  2
BOX
 70
         0
 40
1.0
 41
1.0
 50
0.0
 71
         0
 42
0.2
  3
txt.shx
  4

  0
STYLE
  5
232
100
AcDbSymbolTableRecord
100
AcDbTextStyleTableRecord
  2
BOX
 70
         0
 40
1.0
 41
1.0
 50
0.0
 71
         0
 42
0.2
  3
txt.shx
  4

  0
STYLE
  5
242
100
AcDbSymbolTableRecord
100
AcDbTextStyleTableRecord
  2
BOX
 70
         0
 40
1.0
 41
1.0
 50
0.0
 71
         0
 42
0.2
  3
txt.shx
  4

  0
STYLE
  5
250
100
AcDbSymbolTableRecord
100
AcDbTextStyleTableRecord
  2
BOX
 70
         0
 40
1.0
 41
1.0
 50
0.0
 71
         0
 42
0.2
  3
txt.shx
  4

  0
STYLE
  5
25E
100
AcDbSymbolTableRecord
100
AcDbTextStyleTableRecord
  2
BOX
 70
         0
 40
1.0
 41
1.0
 50
0.0
 71
         0
 42
0.2
  3
txt.shx
  4

  0
STYLE
  5
282
100
AcDbSymbolTableRecord
100
AcDbTextStyleTableRecord
  2
BOX
 70
         0
 40
1.0
 41
1.0
 50
0.0
 71
         0
 42
0.2
  3
txt.shx
  4

  0
STYLE
  5
290
100
AcDbSymbolTableRecord
100
AcDbTextStyleTableRecord
  2
BOX
 70
         0
 40
1.0
 41
1.0
 50
0.0
 71
         0
 42
0.2
  3
txt.shx
  4

  0
STYLE
  5
29E
100
AcDbSymbolTableRecord
100
AcDbTextStyleTableRecord
  2
BOX
 70
         0
 40
1.0
 41
1.0
 50
0.0
 71
         0
 42
0.2
  3
txt.shx
  4

  0
STYLE
  5
2AC
100
AcDbSymbolTableRecord
100
AcDbTextStyleTableRecord
  2
BOX
 70
         0
 40
1.0
 41
1.0
 50
0.0
 71
         0
 42
0.2
  3
txt.shx
  4

  0
STYLE
  5
2BA
100
AcDbSymbolTableRecord
100
AcDbTextStyleTableRecord
  2
BOX
 70
         0
 40
1.0
 41
1.0
 50
0.0
 71
         0
 42
0.2
  3
txt.shx
  4

  0
STYLE
  5
3EF
100
AcDbSymbolTableRecord
100
AcDbTextStyleTableRecord
  2
BOX
 70
         0
 40
1.0
 41
1.0
 50
0.0
 71
         0
 42
0.2
  3
txt.shx
  4

  0
STYLE
  5
3FD
100
AcDbSymbolTableRecord
100
AcDbTextStyleTableRecord
  2
BOX
 70
         0
 40
1.0
 41
1.0
 50
0.0
 71
         0
 42
0.2
  3
txt.shx
  4

  0
STYLE
  5
419
100
AcDbSymbolTableRecord
100
AcDbTextStyleTableRecord
  2
BOX
 70
         0
 40
1.0
 41
1.0
 50
0.0
 71
         0
 42
0.2
  3
txt.shx
  4

  0
STYLE
  5
427
100
AcDbSymbolTableRecord
100
AcDbTextStyleTableRecord
  2
BOX
 70
         0
 40
1.0
 41
1.0
 50
0.0
 71
         0
 42
0.2
  3
txt.shx
  4

  0
STYLE
  5
435
100
AcDbSymbolTableRecord
100
AcDbTextStyleTableRecord
  2
BOX
 70
         0
 40
1.0
 41
1.0
 50
0.0
 71
         0
 42
0.2
  3
txt.shx
  4

  0
STYLE
  5
459
100
AcDbSymbolTableRecord
100
AcDbTextStyleTableRecord
  2
BOX
 70
         0
 40
1.0
 41
1.0
 50
0.0
 71
         0
 42
0.2
  3
txt.shx
  4

  0
STYLE
  5
469
100
AcDbSymbolTableRecord
100
AcDbTextStyleTableRecord
  2
BOX
 70
         0
 40
1.0
 41
1.0
 50
0.0
 71
         0
 42
0.2
  3
txt.shx
  4

  0
STYLE
  5
476
100
AcDbSymbolTableRecord
100
AcDbTextStyleTableRecord
  2
BOX
 70
         0
 40
1.0
 41
1.0
 50
0.0
 71
         0
 42
0.2
  3
txt.shx
  4

  0
STYLE
  5
486
100
AcDbSymbolTableRecord
100
AcDbTextStyleTableRecord
  2
BOX
 70
         0
 40
1.0
 41
1.0
 50
0.0
 71
         0
 42
0.2
  3
txt.shx
  4

  0
STYLE
  5
493
100
AcDbSymbolTableRecord
100
AcDbTextStyleTableRecord
  2
BOX
 70
         0
 40
1.0
 41
1.0
 50
0.0
 71
         0
 42
0.2
  3
txt.shx
  4

  0
STYLE
  5
4A0
100
AcDbSymbolTableRecord
100
AcDbTextStyleTableRecord
  2
BOX
 70
         0
 40
1.0
 41
1.0
 50
0.0
 71
         0
 42
0.2
  3
txt.shx
  4

  0
STYLE
  5
4AD
100
AcDbSymbolTableRecord
100
AcDbTextStyleTableRecord
  2
BOX
 70
         0
 40
1.0
 41
1.0
 50
0.0
 71
         0
 42
0.2
  3
txt.shx
  4

  0
STYLE
  5
4C0
100
AcDbSymbolTableRecord
100
AcDbTextStyleTableRecord
  2
BOX
 70
         0
 40
1.0
 41
1.0
 50
0.0
 71
         0
 42
0.2
  3
txt.shx
  4

  0
STYLE
  5
4D2
100
AcDbSymbolTableRecord
100
AcDbTextStyleTableRecord
  2
BOX
 70
         0
 40
1.0
 41
1.0
 50
0.0
 71
         0
 42
0.2
  3
txt.shx
  4

  0
STYLE
  5
4E0
100
AcDbSymbolTableRecord
100
AcDbTextStyleTableRecord
  2
BOX
 70
         0
 40
1.0
 41
1.0
 50
0.0
 71
         0
 42
0.2
  3
txt.shx
  4

  0
STYLE
  5
4EE
100
AcDbSymbolTableRecord
100
AcDbTextStyleTableRecord
  2
BOX
 70
         0
 40
1.0
 41
1.0
 50
0.0
 71
         0
 42
0.2
  3
txt.shx
  4

  0
STYLE
  5
502
100
AcDbSymbolTableRecord
100
AcDbTextStyleTableRecord
  2
BOX
 70
         0
 40
1.0
 41
1.0
 50
0.0
 71
         0
 42
0.2
  3
txt.shx
  4

  0
STYLE
  5
510
100
AcDbSymbolTableRecord
100
AcDbTextStyleTableRecord
  2
BOX
 70
         0
 40
1.0
 41
1.0
 50
0.0
 71
         0
 42
0.2
  3
txt.shx
  4

  0
STYLE
  5
51D
100
AcDbSymbolTableRecord
100
AcDbTextStyleTableRecord
  2
BOX
 70
         0
 40
1.0
 41
1.0
 50
0.0
 71
         0
 42
0.2
  3
txt.shx
  4

  0
STYLE
  5
52F
100
AcDbSymbolTableRecord
100
AcDbTextStyleTableRecord
  2
BOX
 70
         0
 40
1.0
 41
1.0
 50
0.0
 71
         0
 42
0.2
  3
txt.shx
  4

  0
STYLE
  5
532
100
AcDbSymbolTableRecord
100
AcDbTextStyleTableRecord
  2
BOX
 70
         0
 40
1.0
 41
1.0
 50
0.0
 71
         0
 42
0.2
  3
txt.shx
  4

  0
STYLE
  5
53F
100
AcDbSymbolTableRecord
100
AcDbTextStyleTableRecord
  2
BOX
 70
         0
 40
1.0
 41
1.0
 50
0.0
 71
         0
 42
0.2
  3
txt.shx
  4

  0
STYLE
  5
542
100
AcDbSymbolTableRecord
100
AcDbTextStyleTableRecord
  2
BOX
 70
         0
 40
1.0
 41
1.0
 50
0.0
 71
         0
 42
0.2
  3
txt.shx
  4

  0
STYLE
  5
555
100
AcDbSymbolTableRecord
100
AcDbTextStyleTableRecord
  2
BOX
 70
         0
 40
1.0
 41
1.0
 50
0.0
 71
         0
 42
0.2
  3
txt.shx
  4

  0
STYLE
  5
563
100
AcDbSymbolTableRecord
100
AcDbTextStyleTableRecord
  2
BOX
 70
         0
 40
1.0
 41
1.0
 50
0.0
 71
         0
 42
0.2
  3
txt.shx
  4

  0
STYLE
  5
618
100
AcDbSymbolTableRecord
100
AcDbTextStyleTableRecord
  2
BOX
 70
         0
 40
1.0
 41
1.0
 50
0.0
 71
         0
 42
0.2
  3
txt.shx
  4

  0
STYLE
  5
628
100
AcDbSymbolTableRecord
100
AcDbTextStyleTableRecord
  2
BOX
 70
         0
 40
1.0
 41
1.0
 50
0.0
 71
         0
 42
0.2
  3
txt.shx
  4

  0
STYLE
  5
636
100
AcDbSymbolTableRecord
100
AcDbTextStyleTableRecord
  2
BOX
 70
         0
 40
1.0
 41
1.0
 50
0.0
 71
         0
 42
0.2
  3
txt.shx
  4

  0
STYLE
  5
644
100
AcDbSymbolTableRecord
100
AcDbTextStyleTableRecord
  2
BOX
 70
         0
 40
1.0
 41
1.0
 50
0.0
 71
         0
 42
0.2
  3
txt.shx
  4

  0
STYLE
  5
652
100
AcDbSymbolTableRecord
100
AcDbTextStyleTableRecord
  2
BOX
 70
         0
 40
1.0
 41
1.0
 50
0.0
 71
         0
 42
0.2
  3
txt.shx
  4

  0
STYLE
  5
660
100
AcDbSymbolTableRecord
100
AcDbTextStyleTableRecord
  2
BOX
 70
         0
 40
1.0
 41
1.0
 50
0.0
 71
         0
 42
0.2
  3
txt.shx
  4

  0
STYLE
  5
66E
100
AcDbSymbolTableRecord
100
AcDbTextStyleTableRecord
  2
BOX
 70
         0
 40
1.0
 41
1.0
 50
0.0
 71
         0
 42
0.2
  3
txt.shx
  4

  0
STYLE
  5
67C
100
AcDbSymbolTableRecord
100
AcDbTextStyleTableRecord
  2
BOX
 70
         0
 40
1.0
 41
1.0
 50
0.0
 71
         0
 42
0.2
  3
txt.shx
  4

  0
STYLE
  5
68C
100
AcDbSymbolTableRecord
100
AcDbTextStyleTableRecord
  2
BOX
 70
         0
 40
1.0
 41
1.0
 50
0.0
 71
         0
 42
0.2
  3
txt.shx
  4

  0
STYLE
  5
69A
100
AcDbSymbolTableRecord
100
AcDbTextStyleTableRecord
  2
BOX
 70
         0
 40
1.0
 41
1.0
 50
0.0
 71
         0
 42
0.2
  3
txt.shx
  4

  0
STYLE
  5
6A8
100
AcDbSymbolTableRecord
100
AcDbTextStyleTableRecord
  2
BOX
 70
         0
 40
1.0
 41
1.0
 50
0.0
 71
         0
 42
0.2
  3
txt.shx
  4

  0
STYLE
  5
6B6
100
AcDbSymbolTableRecord
100
AcDbTextStyleTableRecord
  2
BOX
 70
         0
 40
1.0
 41
1.0
 50
0.0
 71
         0
 42
0.2
  3
txt.shx
  4

  0
STYLE
  5
6C4
100
AcDbSymbolTableRecord
100
AcDbTextStyleTableRecord
  2
BOX
 70
         0
 40
1.0
 41
1.0
 50
0.0
 71
         0
 42
0.2
  3
txt.shx
  4

  0
STYLE
  5
6D4
100
AcDbSymbolTableRecord
100
AcDbTextStyleTableRecord
  2
BOX
 70
         0
 40
1.0
 41
1.0
 50
0.0
 71
         0
 42
0.2
  3
txt.shx
  4

  0
STYLE
  5
6E2
100
AcDbSymbolTableRecord
100
AcDbTextStyleTableRecord
  2
BOX
 70
         0
 40
1.0
 41
1.0
 50
0.0
 71
         0
 42
0.2
  3
txt.shx
  4

  0
STYLE
  5
6F0
100
AcDbSymbolTableRecord
100
AcDbTextStyleTableRecord
  2
BOX
 70
         0
 40
1.0
 41
1.0
 50
0.0
 71
         0
 42
0.2
  3
txt.shx
  4

  0
STYLE
  5
6FE
100
AcDbSymbolTableRecord
100
AcDbTextStyleTableRecord
  2
BOX
 70
         0
 40
1.0
 41
1.0
 50
0.0
 71
         0
 42
0.2
  3
txt.shx
  4

  0
STYLE
  5
70C
100
AcDbSymbolTableRecord
100
AcDbTextStyleTableRecord
  2
BOX
 70
         0
 40
1.0
 41
1.0
 50
0.0
 71
         0
 42
0.2
  3
txt.shx
  4

  0
STYLE
  5
71A
100
AcDbSymbolTableRecord
100
AcDbTextStyleTableRecord
  2
BOX
 70
         0
 40
1.0
 41
1.0
 50
0.0
 71
         0
 42
0.2
  3
txt.shx
  4

  0
STYLE
  5
728
100
AcDbSymbolTableRecord
100
AcDbTextStyleTableRecord
  2
BOX
 70
         0
 40
1.0
 41
1.0
 50
0.0
 71
         0
 42
0.2
  3
txt.shx
  4

  0
STYLE
  5
736
100
AcDbSymbolTableRecord
100
AcDbTextStyleTableRecord
  2
BOX
 70
         0
 40
1.0
 41
1.0
 50
0.0
 71
         0
 42
0.2
  3
txt.shx
  4

  0
STYLE
  5
739
100
AcDbSymbolTableRecord
100
AcDbTextStyleTableRecord
  2
BOX
 70
         0
 40
1.0
 41
1.0
 50
0.0
 71
         0
 42
0.2
  3
txt.shx
  4

  0
ENDTAB
  0
TABLE
  2
VIEW
  5
5
100
AcDbSymbolTable
 70
         0
  0
ENDTAB
  0
TABLE
  2
UCS
  5
6
100
AcDbSymbolTable
 70
         1
  0
UCS
  5
20
100
AcDbSymbolTableRecord
100
AcDbUCSTableRecord
  2
CK_VIEW_1
 70
         0
 10
0.0
 20
0.0
 30
1.0
 11
1.0
 21
0.0
 31
0.0
 12
0.0
 22
1.0
 32
0.0
  0
ENDTAB
  0
TABLE
  2
APPID
  5
8
100
AcDbSymbolTable
 70
         1
  0
APPID
  5
16
100
AcDbSymbolTableRecord
100
AcDbRegAppTableRecord
  2
ACAD
 70
         0
  0
ENDTAB
  0
TABLE
  2
DIMSTYLE
  5
9
100
AcDbSymbolTable
 70
         2
  0
DIMSTYLE
105
18
100
AcDbSymbolTableRecord
100
AcDbDimStyleTableRecord
  2
STANDARD
 70
         0
  3

  4

  5

  6

  7

 40
1.0
 41
0.18
 42
0.0625
 43
0.38
 44
0.18
 45
0.0
 46
0.0
 47
0.0
 48
0.0
 71
         0
 72
         0
 73
         1
 74
         1
 75
         0
 76
         0
 77
         0
 78
         0
140
0.18
141
0.09
142
0.0
143
25.4
144
1.0
145
0.0
146
1.0
147
0.09
170
         0
171
         2
172
         0
173
         0
174
         0
175
         0
176
         0
177
         0
178
         0
270
         2
271
         4
272
         4
273
         2
274
         2
275
         0
280
         0
281
         0
282
         0
283
         1
284
         0
285
         0
286
         0
287
         0
288
         0
340
17
  0
DIMSTYLE
105
77
100
AcDbSymbolTableRecord
100
AcDbDimStyleTableRecord
  2
DIMSTYLE1
 70
         0
  3

  4

  5

  6

  7

 40
1.0
 41
2.7
 42
0.0625
 43
0.38
 44
2.7
 45
0.0
 46
0.0
 47
0.0
 48
0.0
 71
         0
 72
         0
 73
         1
 74
         1
 75
         0
 76
         0
 77
         0
 78
         0
140
2.7
141
0.09
142
0.0
143
25.4
144
1.0
145
0.0
146
1.0
147
0.09
170
         0
171
         2
172
         0
173
         0
174
         0
175
         0
176
         0
177
         0
178
         0
270
         2
271
         4
272
         4
273
         2
274
         2
275
         0
280
         0
281
         0
282
         0
283
         1
284
         0
285
         0
286
         0
287
         0
288
         0
340
17
  0
ENDTAB
  0
TABLE
  2
BLOCK_RECORD
  5
1
100
AcDbSymbolTable
 70
        60
  0
BLOCK_RECORD
  5
A
100
AcDbSymbolTableRecord
100
AcDbBlockTableRecord
  2
*MODEL_SPACE
  0
BLOCK_RECORD
  5
B
100
AcDbSymbolTableRecord
100
AcDbBlockTableRecord
  2
*PAPER_SPACE
  0
BLOCK_RECORD
  5
78
100
AcDbSymbolTableRecord
100
AcDbBlockTableRecord
  2
*D0
  0
BLOCK_RECORD
  5
1BD
100
AcDbSymbolTableRecord
100
AcDbBlockTableRecord
  2
*D1
  0
BLOCK_RECORD
  5
1CE
100
AcDbSymbolTableRecord
100
AcDbBlockTableRecord
  2
*D2
  0
BLOCK_RECORD
  5
1DC
100
AcDbSymbolTableRecord
100
AcDbBlockTableRecord
  2
*D3
  0
BLOCK_RECORD
  5
1EA
100
AcDbSymbolTableRecord
100
AcDbBlockTableRecord
  2
*D4
  0
BLOCK_RECORD
  5
1F8
100
AcDbSymbolTableRecord
100
AcDbBlockTableRecord
  2
*D5
  0
BLOCK_RECORD
  5
225
100
AcDbSymbolTableRecord
100
AcDbBlockTableRecord
  2
*D6
  0
BLOCK_RECORD
  5
235
100
AcDbSymbolTableRecord
100
AcDbBlockTableRecord
  2
*D7
  0
BLOCK_RECORD
  5
245
100
AcDbSymbolTableRecord
100
AcDbBlockTableRecord
  2
*D8
  0
BLOCK_RECORD
  5
253
100
AcDbSymbolTableRecord
100
AcDbBlockTableRecord
  2
*D9
  0
BLOCK_RECORD
  5
277
100
AcDbSymbolTableRecord
100
AcDbBlockTableRecord
  2
*D10
  0
BLOCK_RECORD
  5
285
100
AcDbSymbolTableRecord
100
AcDbBlockTableRecord
  2
*D11
  0
BLOCK_RECORD
  5
293
100
AcDbSymbolTableRecord
100
AcDbBlockTableRecord
  2
*D12
  0
BLOCK_RECORD
  5
2A1
100
AcDbSymbolTableRecord
100
AcDbBlockTableRecord
  2
*D13
  0
BLOCK_RECORD
  5
2AF
100
AcDbSymbolTableRecord
100
AcDbBlockTableRecord
  2
*D14
  0
BLOCK_RECORD
  5
3E4
100
AcDbSymbolTableRecord
100
AcDbBlockTableRecord
  2
*D15
  0
BLOCK_RECORD
  5
3F2
100
AcDbSymbolTableRecord
100
AcDbBlockTableRecord
  2
*D16
  0
BLOCK_RECORD
  5
40E
100
AcDbSymbolTableRecord
100
AcDbBlockTableRecord
  2
*D17
  0
BLOCK_RECORD
  5
41C
100
AcDbSymbolTableRecord
100
AcDbBlockTableRecord
  2
*D18
  0
BLOCK_RECORD
  5
42A
100
AcDbSymbolTableRecord
100
AcDbBlockTableRecord
  2
*D19
  0
BLOCK_RECORD
  5
44C
100
AcDbSymbolTableRecord
100
AcDbBlockTableRecord
  2
*D20
  0
BLOCK_RECORD
  5
45C
100
AcDbSymbolTableRecord
100
AcDbBlockTableRecord
  2
*D21
  0
BLOCK_RECORD
  5
46C
100
AcDbSymbolTableRecord
100
AcDbBlockTableRecord
  2
*D22
  0
BLOCK_RECORD
  5
479
100
AcDbSymbolTableRecord
100
AcDbBlockTableRecord
  2
*D23
  0
BLOCK_RECORD
  5
489
100
AcDbSymbolTableRecord
100
AcDbBlockTableRecord
  2
*D24
  0
BLOCK_RECORD
  5
496
100
AcDbSymbolTableRecord
100
AcDbBlockTableRecord
  2
*D25
  0
BLOCK_RECORD
  5
4A3
100
AcDbSymbolTableRecord
100
AcDbBlockTableRecord
  2
*D26
  0
BLOCK_RECORD
  5
4B5
100
AcDbSymbolTableRecord
100
AcDbBlockTableRecord
  2
*D27
  0
BLOCK_RECORD
  5
4C7
100
AcDbSymbolTableRecord
100
AcDbBlockTableRecord
  2
*D28
  0
BLOCK_RECORD
  5
4D5
100
AcDbSymbolTableRecord
100
AcDbBlockTableRecord
  2
*D29
  0
BLOCK_RECORD
  5
4E3
100
AcDbSymbolTableRecord
100
AcDbBlockTableRecord
  2
*D30
  0
BLOCK_RECORD
  5
4F7
100
AcDbSymbolTableRecord
100
AcDbBlockTableRecord
  2
*D31
  0
BLOCK_RECORD
  5
505
100
AcDbSymbolTableRecord
100
AcDbBlockTableRecord
  2
*D32
  0
BLOCK_RECORD
  5
513
100
AcDbSymbolTableRecord
100
AcDbBlockTableRecord
  2
*D33
  0
BLOCK_RECORD
  5
524
100
AcDbSymbolTableRecord
100
AcDbBlockTableRecord
  2
*D34
  0
BLOCK_RECORD
  5
534
100
AcDbSymbolTableRecord
100
AcDbBlockTableRecord
  2
*D35
  0
BLOCK_RECORD
  5
54A
100
AcDbSymbolTableRecord
100
AcDbBlockTableRecord
  2
*D36
  0
BLOCK_RECORD
  5
558
100
AcDbSymbolTableRecord
100
AcDbBlockTableRecord
  2
*D37
  0
BLOCK_RECORD
  5
5D9
100
AcDbSymbolTableRecord
100
AcDbBlockTableRecord
  2
*X38
  0
BLOCK_RECORD
  5
60D
100
AcDbSymbolTableRecord
100
AcDbBlockTableRecord
  2
*D39
  0
BLOCK_RECORD
  5
61B
100
AcDbSymbolTableRecord
100
AcDbBlockTableRecord
  2
*D40
  0
BLOCK_RECORD
  5
62B
100
AcDbSymbolTableRecord
100
AcDbBlockTableRecord
  2
*D41
  0
BLOCK_RECORD
  5
639
100
AcDbSymbolTableRecord
100
AcDbBlockTableRecord
  2
*D42
  0
BLOCK_RECORD
  5
647
100
AcDbSymbolTableRecord
100
AcDbBlockTableRecord
  2
*D43
  0
BLOCK_RECORD
  5
655
100
AcDbSymbolTableRecord
100
AcDbBlockTableRecord
  2
*D44
  0
BLOCK_RECORD
  5
663
100
AcDbSymbolTableRecord
100
AcDbBlockTableRecord
  2
*D45
  0
BLOCK_RECORD
  5
671
100
AcDbSymbolTableRecord
100
AcDbBlockTableRecord
  2
*D46
  0
BLOCK_RECORD
  5
67F
100
AcDbSymbolTableRecord
100
AcDbBlockTableRecord
  2
*D47
  0
BLOCK_RECORD
  5
68F
100
AcDbSymbolTableRecord
100
AcDbBlockTableRecord
  2
*D48
  0
BLOCK_RECORD
  5
69D
100
AcDbSymbolTableRecord
100
AcDbBlockTableRecord
  2
*D49
  0
BLOCK_RECORD
  5
6AB
100
AcDbSymbolTableRecord
100
AcDbBlockTableRecord
  2
*D50
  0
BLOCK_RECORD
  5
6B9
100
AcDbSymbolTableRecord
100
AcDbBlockTableRecord
  2
*D51
  0
BLOCK_RECORD
  5
6C7
100
AcDbSymbolTableRecord
100
AcDbBlockTableRecord
  2
*D52
  0
BLOCK_RECORD
  5
6D7
100
AcDbSymbolTableRecord
100
AcDbBlockTableRecord
  2
*D53
  0
BLOCK_RECORD
  5
6E5
100
AcDbSymbolTableRecord
100
AcDbBlockTableRecord
  2
*D54
  0
BLOCK_RECORD
  5
6F3
100
AcDbSymbolTableRecord
100
AcDbBlockTableRecord
  2
*D55
  0
BLOCK_RECORD
  5
701
100
AcDbSymbolTableRecord
100
AcDbBlockTableRecord
  2
*D56
  0
BLOCK_RECORD
  5
70F
100
AcDbSymbolTableRecord
100
AcDbBlockTableRecord
  2
*D57
  0
BLOCK_RECORD
  5
71D
100
AcDbSymbolTableRecord
100
AcDbBlockTableRecord
  2
*D58
  0
BLOCK_RECORD
  5
72B
100
AcDbSymbolTableRecord
100
AcDbBlockTableRecord
  2
*D59
  0
ENDTAB
  0
ENDSEC
  0
SECTION
  2
BLOCKS
  0
BLOCK
  5
D
100
AcDbEntity
  8
0
100
AcDbBlockBegin
  2
*MODEL_SPACE
 70
         0
 10
0.0
 20
0.0
 30
0.0
  3
*MODEL_SPACE
  1

  0
ENDBLK
  5
E
100
AcDbEntity
  8
0
100
AcDbBlockEnd
  0
BLOCK
  5
F
100
AcDbEntity
 67
         1
  8
0
100
AcDbBlockBegin
  2
*PAPER_SPACE
 70
         0
 10
0.0
 20
0.0
 30
0.0
  3
*PAPER_SPACE
  1

  0
ENDBLK
  5
10
100
AcDbEntity
 67
         1
  8
0
100
AcDbBlockEnd
  0
BLOCK
  5
79
100
AcDbEntity
  8
0
100
AcDbBlockBegin
  2
*D0
 70
        65
 10
0.0
 20
0.0
 30
0.0
  3
*D0
  1

  0
POINT
  5
7C
100
AcDbEntity
  8
DEFPOINTS
  6
CONTINUOUS
 62
         0
100
AcDbPoint
 10
1434.1020155108
 20
-80.3619234481
 30
0.0
  0
POINT
  5
7D
100
AcDbEntity
  8
DEFPOINTS
  6
CONTINUOUS
 62
         0
100
AcDbPoint
 10
1434.1020155108
 20
-15.4433347407
 30
0.0
  0
POINT
  5
7E
100
AcDbEntity
  8
DEFPOINTS
  6
CONTINUOUS
 62
         0
100
AcDbPoint
 10
1515.1033403763
 20
-30.6546596061
 30
0.0
  0
LINE
  5
7F
100
AcDbEntity
  8
L1_120
  6
CONTINUOUS
 62
         4
100
AcDbLine
 10
1434.1020155108
 20
-16.7933347407
 30
0.0
 11
1434.1020155108
 21
-81.0369234481
 31
0.0
  0
LINE
  5
80
100
AcDbEntity
  8
L1_120
  6
CONTINUOUS
 62
         4
100
AcDbLine
 10
1515.1033403763
 20
-32.0046596061
 30
0.0
 11
1515.1033403763
 21
-81.0369234481
 31
0.0
  0
LINE
  5
81
100
AcDbEntity
  8
L1_120
  6
CONTINUOUS
 62
         4
100
AcDbLine
 10
1434.1020155108
 20
-80.3619234481
 30
0.0
 11
1515.1033403763
 21
-80.3619234481
 31
0.0
  0
SOLID
  5
82
100
AcDbEntity
  8
L1_120
  6
CONTINUOUS
 62
         4
100
AcDbTrace
 10
1434.1020155108
 20
-80.3619234481
 30
0.0
 11
1436.8020155108
 21
-79.9569234481
 31
0.0
 12
1436.8020155108
 22
-80.7669234481
 32
0.0
 13
1434.1020155108
 23
-80.3619234481
 33
0.0
  0
SOLID
  5
83
100
AcDbEntity
  8
L1_120
  6
CONTINUOUS
 62
         4
100
AcDbTrace
 10
1515.1033403763
 20
-80.3619234481
 30
0.0
 11
1512.4033403763
 21
-80.7669234481
 31
0.0
 12
1512.4033403763
 22
-79.9569234481
 32
0.0
 13
1515.1033403763
 23
-80.3619234481
 33
0.0
  0
TEXT
  5
85
100
AcDbEntity
  8
L1_120
  6
CONTINUOUS
 62
         4
100
AcDbText
 10
1471.6776779435
 20
-77.2299234481
 30
0.0
 40
2.7
  1
81
  7
BOX
100
AcDbText
  0
ENDBLK
  5
86
100
AcDbEntity
  8
0
  6
CONTINUOUS
100
AcDbBlockEnd
  0
BLOCK
  5
1BE
100
AcDbEntity
  8
0
100
AcDbBlockBegin
  2
*D1
 70
        65
 10
0.0
 20
0.0
 30
0.0
  3
*D1
  1

  0
POINT
  5
1C0
100
AcDbEntity
  8
DEFPOINTS
  6
CONTINUOUS
 62
         0
100
AcDbPoint
 10
1583.1454063139
 20
37.7189278956
 30
0.0
  0
POINT
  5
1C1
100
AcDbEntity
  8
DEFPOINTS
  6
CONTINUOUS
 62
         0
100
AcDbPoint
 10
1583.1454063139
 20
43.4741691098
 30
0.0
  0
POINT
  5
1C2
100
AcDbEntity
  8
DEFPOINTS
  6
CONTINUOUS
 62
         0
100
AcDbPoint
 10
1588.1454063139
 20
43.8741691098
 30
0.0
  0
LINE
  5
1C3
100
AcDbEntity
  8
L1_120
  6
CONTINUOUS
 62
         4
100
AcDbLine
 10
1583.1454063139
 20
42.1241691098
 30
0.0
 11
1583.1454063139
 21
37.0439278956
 31
0.0
  0
LINE
  5
1C4
100
AcDbEntity
  8
L1_120
  6
CONTINUOUS
 62
         4
100
AcDbLine
 10
1588.1454063139
 20
42.5241691098
 30
0.0
 11
1588.1454063139
 21
37.0439278956
 31
0.0
  0
LINE
  5
1C5
100
AcDbEntity
  8
L1_120
  6
CONTINUOUS
 62
         4
100
AcDbLine
 10
1583.1454063139
 20
37.7189278956
 30
0.0
 11
1577.7454063139
 21
37.7189278956
 31
0.0
  0
SOLID
  5
1C6
100
AcDbEntity
  8
L1_120
  6
CONTINUOUS
 62
         4
100
AcDbTrace
 10
1583.1454063139
 20
37.7189278956
 30
0.0
 11
1580.4454063139
 21
37.3139278956
 31
0.0
 12
1580.4454063139
 22
38.1239278956
 32
0.0
 13
1583.1454063139
 23
37.7189278956
 33
0.0
  0
LINE
  5
1C7
100
AcDbEntity
  8
L1_120
  6
CONTINUOUS
 62
         4
100
AcDbLine
 10
1588.1454063139
 20
37.7189278956
 30
0.0
 11
1593.5454063139
 21
37.7189278956
 31
0.0
  0
SOLID
  5
1C8
100
AcDbEntity
  8
L1_120
  6
CONTINUOUS
 62
         4
100
AcDbTrace
 10
1588.1454063139
 20
37.7189278956
 30
0.0
 11
1590.8454063139
 21
38.1239278956
 31
0.0
 12
1590.8454063139
 22
37.3139278956
 32
0.0
 13
1588.1454063139
 23
37.7189278956
 33
0.0
  0
LINE
  5
1C9
100
AcDbEntity
  8
L1_120
  6
CONTINUOUS
 62
         4
100
AcDbLine
 10
1583.1454063139
 20
37.7189278956
 30
0.0
 11
1588.1454063139
 21
37.7189278956
 31
0.0
  0
TEXT
  5
1CB
100
AcDbEntity
  8
L1_120
  6
CONTINUOUS
 62
         4
100
AcDbText
 10
1584.3915473612
 20
39.7439278956
 30
0.0
 40
2.7
  1
5
  7
BOX
100
AcDbText
  0
ENDBLK
  5
1CC
100
AcDbEntity
  8
0
  6
CONTINUOUS
100
AcDbBlockEnd
  0
BLOCK
  5
1CF
100
AcDbEntity
  8
0
100
AcDbBlockBegin
  2
*D2
 70
        65
 10
0.0
 20
0.0
 30
0.0
  3
*D2
  1

  0
POINT
  5
1D1
100
AcDbEntity
  8
DEFPOINTS
  6
CONTINUOUS
 62
         0
100
AcDbPoint
 10
1784.6454063139
 20
82.2354809696
 30
0.0
  0
POINT
  5
1D2
100
AcDbEntity
  8
DEFPOINTS
  6
CONTINUOUS
 62
         0
100
AcDbPoint
 10
1784.6454063139
 20
71.7741691098
 30
0.0
  0
POINT
  5
1D3
100
AcDbEntity
  8
DEFPOINTS
  6
CONTINUOUS
 62
         0
100
AcDbPoint
 10
1753.1454063139
 20
69.5741691098
 30
0.0
  0
LINE
  5
1D4
100
AcDbEntity
  8
L1_120
  6
CONTINUOUS
 62
         4
100
AcDbLine
 10
1784.6454063139
 20
73.1241691098
 30
0.0
 11
1784.6454063139
 21
82.9104809696
 31
0.0
  0
LINE
  5
1D5
100
AcDbEntity
  8
L1_120
  6
CONTINUOUS
 62
         4
100
AcDbLine
 10
1753.1454063139
 20
70.9241691098
 30
0.0
 11
1753.1454063139
 21
82.9104809696
 31
0.0
  0
LINE
  5
1D6
100
AcDbEntity
  8
L1_120
  6
CONTINUOUS
 62
         4
100
AcDbLine
 10
1784.6454063139
 20
82.2354809696
 30
0.0
 11
1753.1454063139
 21
82.2354809696
 31
0.0
  0
SOLID
  5
1D7
100
AcDbEntity
  8
L1_120
  6
CONTINUOUS
 62
         4
100
AcDbTrace
 10
1784.6454063139
 20
82.2354809696
 30
0.0
 11
1781.9454063139
 21
81.8304809696
 31
0.0
 12
1781.9454063139
 22
82.6404809696
 32
0.0
 13
1784.6454063139
 23
82.2354809696
 33
0.0
  0
SOLID
  5
1D8
100
AcDbEntity
  8
L1_120
  6
CONTINUOUS
 62
         4
100
AcDbTrace
 10
1753.1454063139
 20
82.2354809696
 30
0.0
 11
1755.8454063139
 21
82.6404809696
 31
0.0
 12
1755.8454063139
 22
81.8304809696
 32
0.0
 13
1753.1454063139
 23
82.2354809696
 33
0.0
  0
TEXT
  5
1DA
100
AcDbEntity
  8
L1_120
  6
CONTINUOUS
 62
         4
100
AcDbText
 10
1762.4203371761
 20
84.2604809696
 30
0.0
 40
2.7
  1
31.5
  7
BOX
100
AcDbText
  0
ENDBLK
  5
1DB
100
AcDbEntity
  8
0
  6
CONTINUOUS
100
AcDbBlockEnd
  0
BLOCK
  5
1DD
100
AcDbEntity
  8
0
100
AcDbBlockBegin
  2
*D3
 70
        65
 10
0.0
 20
0.0
 30
0.0
  3
*D3
  1

  0
POINT
  5
1DF
100
AcDbEntity
  8
DEFPOINTS
  6
CONTINUOUS
 62
         0
100
AcDbPoint
 10
1784.6454063139
 20
75.5252351611
 30
0.0
  0
POINT
  5
1E0
100
AcDbEntity
  8
DEFPOINTS
  6
CONTINUOUS
 62
         0
100
AcDbPoint
 10
1784.6454063139
 20
71.7741691098
 30
0.0
  0
POINT
  5
1E1
100
AcDbEntity
  8
DEFPOINTS
  6
CONTINUOUS
 62
         0
100
AcDbPoint
 10
1777.6454063139
 20
71.7741691098
 30
0.0
  0
LINE
  5
1E2
100
AcDbEntity
  8
L1_120
  6
CONTINUOUS
 62
         4
100
AcDbLine
 10
1784.6454063139
 20
73.1241691098
 30
0.0
 11
1784.6454063139
 21
76.2002351611
 31
0.0
  0
LINE
  5
1E3
100
AcDbEntity
  8
L1_120
  6
CONTINUOUS
 62
         4
100
AcDbLine
 10
1777.6454063139
 20
73.1241691098
 30
0.0
 11
1777.6454063139
 21
76.2002351611
 31
0.0
  0
LINE
  5
1E4
100
AcDbEntity
  8
L1_120
  6
CONTINUOUS
 62
         4
100
AcDbLine
 10
1784.6454063139
 20
75.5252351611
 30
0.0
 11
1777.6454063139
 21
75.5252351611
 31
0.0
  0
SOLID
  5
1E5
100
AcDbEntity
  8
L1_120
  6
CONTINUOUS
 62
         4
100
AcDbTrace
 10
1784.6454063139
 20
75.5252351611
 30
0.0
 11
1781.9454063139
 21
75.1202351611
 31
0.0
 12
1781.9454063139
 22
75.9302351611
 32
0.0
 13
1784.6454063139
 23
75.5252351611
 33
0.0
  0
SOLID
  5
1E6
100
AcDbEntity
  8
L1_120
  6
CONTINUOUS
 62
         4
100
AcDbTrace
 10
1777.6454063139
 20
75.5252351611
 30
0.0
 11
1780.3454063139
 21
75.9302351611
 31
0.0
 12
1780.3454063139
 22
75.1202351611
 32
0.0
 13
1777.6454063139
 23
75.5252351611
 33
0.0
  0
TEXT
  5
1E8
100
AcDbEntity
  8
L1_120
  6
CONTINUOUS
 62
         4
100
AcDbText
 10
1779.8401854285
 20
77.5502351611
 30
0.0
 40
2.7
  1
7
  7
BOX
100
AcDbText
  0
ENDBLK
  5
1E9
100
AcDbEntity
  8
0
  6
CONTINUOUS
100
AcDbBlockEnd
  0
BLOCK
  5
1EB
100
AcDbEntity
  8
0
100
AcDbBlockBegin
  2
*D4
 70
        65
 10
0.0
 20
0.0
 30
0.0
  3
*D4
  1

  0
POINT
  5
1ED
100
AcDbEntity
  8
DEFPOINTS
  6
CONTINUOUS
 62
         0
100
AcDbPoint
 10
1791.5877319852
 20
72.2741691098
 30
0.0
  0
POINT
  5
1EE
100
AcDbEntity
  8
DEFPOINTS
  6
CONTINUOUS
 62
         0
100
AcDbPoint
 10
1784.1454063139
 20
72.2741691098
 30
0.0
  0
POINT
  5
1EF
100
AcDbEntity
  8
DEFPOINTS
  6
CONTINUOUS
 62
         0
100
AcDbPoint
 10
1784.1454063139
 20
33.2741691098
 30
0.0
  0
LINE
  5
1F0
100
AcDbEntity
  8
L1_120
  6
CONTINUOUS
 62
         4
100
AcDbLine
 10
1785.4954063139
 20
72.2741691098
 30
0.0
 11
1792.2627319852
 21
72.2741691098
 31
0.0
  0
LINE
  5
1F1
100
AcDbEntity
  8
L1_120
  6
CONTINUOUS
 62
         4
100
AcDbLine
 10
1785.4954063139
 20
33.2741691098
 30
0.0
 11
1792.2627319852
 21
33.2741691098
 31
0.0
  0
LINE
  5
1F2
100
AcDbEntity
  8
L1_120
  6
CONTINUOUS
 62
         4
100
AcDbLine
 10
1791.5877319852
 20
72.2741691098
 30
0.0
 11
1791.5877319852
 21
33.2741691098
 31
0.0
  0
SOLID
  5
1F3
100
AcDbEntity
  8
L1_120
  6
CONTINUOUS
 62
         4
100
AcDbTrace
 10
1791.5877319852
 20
72.2741691098
 30
0.0
 11
1791.9927319852
 21
69.5741691098
 31
0.0
 12
1791.1827319852
 22
69.5741691098
 32
0.0
 13
1791.5877319852
 23
72.2741691098
 33
0.0
  0
SOLID
  5
1F4
100
AcDbEntity
  8
L1_120
  6
CONTINUOUS
 62
         4
100
AcDbTrace
 10
1791.5877319852
 20
33.2741691098
 30
0.0
 11
1791.1827319852
 21
35.9741691098
 31
0.0
 12
1791.9927319852
 22
35.9741691098
 32
0.0
 13
1791.5877319852
 23
33.2741691098
 33
0.0
  0
TEXT
  5
1F6
100
AcDbEntity
  8
L1_120
  6
CONTINUOUS
 62
         4
100
AcDbText
 10
1789.5627319852
 20
48.3051612765
 30
0.0
 40
2.7
  1
崷39
 50
90.0
  7
BOX
100
AcDbText
  0
ENDBLK
  5
1F7
100
AcDbEntity
  8
0
  6
CONTINUOUS
100
AcDbBlockEnd
  0
BLOCK
  5
1F9
100
AcDbEntity
  8
0
100
AcDbBlockBegin
  2
*D5
 70
        65
 10
0.0
 20
0.0
 30
0.0
  3
*D5
  1

  0
POINT
  5
1FB
100
AcDbEntity
  8
DEFPOINTS
  6
CONTINUOUS
 62
         0
100
AcDbPoint
 10
1750.3977954503
 20
69.7741691098
 30
0.0
  0
POINT
  5
1FC
100
AcDbEntity
  8
DEFPOINTS
  6
CONTINUOUS
 62
         0
100
AcDbPoint
 10
1753.3454063139
 20
69.7741691098
 30
0.0
  0
POINT
  5
1FD
100
AcDbEntity
  8
DEFPOINTS
  6
CONTINUOUS
 62
         0
100
AcDbPoint
 10
1753.3454063139
 20
35.7741691098
 30
0.0
  0
LINE
  5
1FE
100
AcDbEntity
  8
L1_120
  6
CONTINUOUS
 62
         4
100
AcDbLine
 10
1751.9954063139
 20
69.7741691098
 30
0.0
 11
1749.7227954503
 21
69.7741691098
 31
0.0
  0
LINE
  5
1FF
100
AcDbEntity
  8
L1_120
  6
CONTINUOUS
 62
         4
100
AcDbLine
 10
1751.9954063139
 20
35.7741691098
 30
0.0
 11
1749.7227954503
 21
35.7741691098
 31
0.0
  0
LINE
  5
200
100
AcDbEntity
  8
L1_120
  6
CONTINUOUS
 62
         4
100
AcDbLine
 10
1750.3977954503
 20
69.7741691098
 30
0.0
 11
1750.3977954503
 21
35.7741691098
 31
0.0
  0
SOLID
  5
201
100
AcDbEntity
  8
L1_120
  6
CONTINUOUS
 62
         4
100
AcDbTrace
 10
1750.3977954503
 20
69.7741691098
 30
0.0
 11
1750.8027954503
 21
67.0741691098
 31
0.0
 12
1749.9927954503
 22
67.0741691098
 32
0.0
 13
1750.3977954503
 23
69.7741691098
 33
0.0
  0
SOLID
  5
202
100
AcDbEntity
  8
L1_120
  6
CONTINUOUS
 62
         4
100
AcDbTrace
 10
1750.3977954503
 20
35.7741691098
 30
0.0
 11
1749.9927954503
 21
38.4741691098
 31
0.0
 12
1750.8027954503
 22
38.4741691098
 32
0.0
 13
1750.3977954503
 23
35.7741691098
 33
0.0
  0
TEXT
  5
204
100
AcDbEntity
  8
L1_120
  6
CONTINUOUS
 62
         4
100
AcDbText
 10
1748.3727954503
 20
41.5963846355
 30
0.0
 40
2.7
  1
崷33.99
 50
90.0
  7
BOX
100
AcDbText
  0
ENDBLK
  5
205
100
AcDbEntity
  8
0
  6
CONTINUOUS
100
AcDbBlockEnd
  0
BLOCK
  5
226
100
AcDbEntity
  8
0
100
AcDbBlockBegin
  2
*D6
 70
        65
 10
0.0
 20
0.0
 30
0.0
  3
*D6
  1

  0
POINT
  5
228
100
AcDbEntity
  8
DEFPOINTS
  6
CONTINUOUS
 62
         0
100
AcDbPoint
 10
1731.7554063139
 20
67.2894992099
 30
0.0
  0
POINT
  5
229
100
AcDbEntity
  8
DEFPOINTS
  6
CONTINUOUS
 62
         0
100
AcDbPoint
 10
1731.7554063139
 20
62.1741691098
 30
0.0
  0
POINT
  5
22A
100
AcDbEntity
  8
DEFPOINTS
  6
CONTINUOUS
 62
         0
100
AcDbPoint
 10
1733.2554063139
 20
62.1741691098
 30
0.0
  0
LINE
  5
22B
100
AcDbEntity
  8
L1_120
  6
CONTINUOUS
 62
         4
100
AcDbLine
 10
1731.7554063139
 20
63.5241691098
 30
0.0
 11
1731.7554063139
 21
67.9644992099
 31
0.0
  0
LINE
  5
22C
100
AcDbEntity
  8
L1_120
  6
CONTINUOUS
 62
         4
100
AcDbLine
 10
1733.2554063139
 20
63.5241691098
 30
0.0
 11
1733.2554063139
 21
67.9644992099
 31
0.0
  0
LINE
  5
22D
100
AcDbEntity
  8
L1_120
  6
CONTINUOUS
 62
         4
100
AcDbLine
 10
1731.7554063139
 20
67.2894992099
 30
0.0
 11
1726.3554063139
 21
67.2894992099
 31
0.0
  0
SOLID
  5
22E
100
AcDbEntity
  8
L1_120
  6
CONTINUOUS
 62
         4
100
AcDbTrace
 10
1731.7554063139
 20
67.2894992099
 30
0.0
 11
1729.0554063139
 21
66.8844992099
 31
0.0
 12
1729.0554063139
 22
67.6944992099
 32
0.0
 13
1731.7554063139
 23
67.2894992099
 33
0.0
  0
LINE
  5
22F
100
AcDbEntity
  8
L1_120
  6
CONTINUOUS
 62
         4
100
AcDbLine
 10
1733.2554063139
 20
67.2894992099
 30
0.0
 11
1744.1277786662
 21
67.2894992099
 31
0.0
  0
SOLID
  5
230
100
AcDbEntity
  8
L1_120
  6
CONTINUOUS
 62
         4
100
AcDbTrace
 10
1733.2554063139
 20
67.2894992099
 30
0.0
 11
1735.9554063139
 21
67.6944992099
 31
0.0
 12
1735.9554063139
 22
66.8844992099
 32
0.0
 13
1733.2554063139
 23
67.2894992099
 33
0.0
  0
LINE
  5
231
100
AcDbEntity
  8
L1_120
  6
CONTINUOUS
 62
         4
100
AcDbLine
 10
1731.7554063139
 20
67.2894992099
 30
0.0
 11
1733.2554063139
 21
67.2894992099
 31
0.0
  0
TEXT
  5
233
100
AcDbEntity
  8
L1_120
  6
CONTINUOUS
 62
         4
100
AcDbText
 10
1734.6777786662
 20
69.3144992099
 30
0.0
 40
2.7
  1
1.5
  7
BOX
100
AcDbText
  0
ENDBLK
  5
234
100
AcDbEntity
  8
0
  6
CONTINUOUS
100
AcDbBlockEnd
  0
BLOCK
  5
236
100
AcDbEntity
  8
0
100
AcDbBlockBegin
  2
*D7
 70
        65
 10
0.0
 20
0.0
 30
0.0
  3
*D7
  1

  0
POINT
  5
238
100
AcDbEntity
  8
DEFPOINTS
  6
CONTINUOUS
 62
         0
100
AcDbPoint
 10
1721.1054063139
 20
65.2255812658
 30
0.0
  0
POINT
  5
239
100
AcDbEntity
  8
DEFPOINTS
  6
CONTINUOUS
 62
         0
100
AcDbPoint
 10
1721.1054063139
 20
61.9741691098
 30
0.0
  0
POINT
  5
23A
100
AcDbEntity
  8
DEFPOINTS
  6
CONTINUOUS
 62
         0
100
AcDbPoint
 10
1725.6054063139
 20
61.9741691098
 30
0.0
  0
LINE
  5
23B
100
AcDbEntity
  8
L1_120
  6
CONTINUOUS
 62
         4
100
AcDbLine
 10
1721.1054063139
 20
63.3241691098
 30
0.0
 11
1721.1054063139
 21
65.9005812658
 31
0.0
  0
LINE
  5
23C
100
AcDbEntity
  8
L1_120
  6
CONTINUOUS
 62
         4
100
AcDbLine
 10
1725.6054063139
 20
63.3241691098
 30
0.0
 11
1725.6054063139
 21
65.9005812658
 31
0.0
  0
LINE
  5
23D
100
AcDbEntity
  8
L1_120
  6
CONTINUOUS
 62
         4
100
AcDbLine
 10
1721.1054063139
 20
65.2255812658
 30
0.0
 11
1710.3691485836
 21
65.2255812658
 31
0.0
  0
SOLID
  5
23E
100
AcDbEntity
  8
L1_120
  6
CONTINUOUS
 62
         4
100
AcDbTrace
 10
1721.1054063139
 20
65.2255812658
 30
0.0
 11
1718.4054063139
 21
64.8205812658
 31
0.0
 12
1718.4054063139
 22
65.6305812658
 32
0.0
 13
1721.1054063139
 23
65.2255812658
 33
0.0
  0
LINE
  5
23F
100
AcDbEntity
  8
L1_120
  6
CONTINUOUS
 62
         4
100
AcDbLine
 10
1725.6054063139
 20
65.2255812658
 30
0.0
 11
1731.0054063139
 21
65.2255812658
 31
0.0
  0
SOLID
  5
240
100
AcDbEntity
  8
L1_120
  6
CONTINUOUS
 62
         4
100
AcDbTrace
 10
1725.6054063139
 20
65.2255812658
 30
0.0
 11
1728.3054063139
 21
65.6305812658
 31
0.0
 12
1728.3054063139
 22
64.8205812658
 32
0.0
 13
1725.6054063139
 23
65.2255812658
 33
0.0
  0
LINE
  5
241
100
AcDbEntity
  8
L1_120
  6
CONTINUOUS
 62
         4
100
AcDbLine
 10
1721.1054063139
 20
65.2255812658
 30
0.0
 11
1725.6054063139
 21
65.2255812658
 31
0.0
  0
TEXT
  5
243
100
AcDbEntity
  8
L1_120
  6
CONTINUOUS
 62
         4
100
AcDbText
 10
1711.7191485836
 20
67.2505812658
 30
0.0
 40
2.7
  1
4.5
  7
BOX
100
AcDbText
  0
ENDBLK
  5
244
100
AcDbEntity
  8
0
  6
CONTINUOUS
100
AcDbBlockEnd
  0
BLOCK
  5
246
100
AcDbEntity
  8
0
100
AcDbBlockBegin
  2
*D8
 70
        65
 10
0.0
 20
0.0
 30
0.0
  3
*D8
  1

  0
POINT
  5
248
100
AcDbEntity
  8
DEFPOINTS
  6
CONTINUOUS
 62
         0
100
AcDbPoint
 10
1721.1054063139
 20
70.8276442569
 30
0.0
  0
POINT
  5
249
100
AcDbEntity
  8
DEFPOINTS
  6
CONTINUOUS
 62
         0
100
AcDbPoint
 10
1721.1054063139
 20
61.7741691098
 30
0.0
  0
POINT
  5
24A
100
AcDbEntity
  8
DEFPOINTS
  6
CONTINUOUS
 62
         0
100
AcDbPoint
 10
1733.2554063139
 20
62.1741691098
 30
0.0
  0
LINE
  5
24B
100
AcDbEntity
  8
L1_120
  6
CONTINUOUS
 62
         4
100
AcDbLine
 10
1721.1054063139
 20
63.1241691098
 30
0.0
 11
1721.1054063139
 21
71.5026442569
 31
0.0
  0
LINE
  5
24C
100
AcDbEntity
  8
L1_120
  6
CONTINUOUS
 62
         4
100
AcDbLine
 10
1733.2554063139
 20
63.5241691098
 30
0.0
 11
1733.2554063139
 21
71.5026442569
 31
0.0
  0
LINE
  5
24D
100
AcDbEntity
  8
L1_120
  6
CONTINUOUS
 62
         4
100
AcDbLine
 10
1721.1054063139
 20
70.8276442569
 30
0.0
 11
1733.2554063139
 21
70.8276442569
 31
0.0
  0
SOLID
  5
24E
100
AcDbEntity
  8
L1_120
  6
CONTINUOUS
 62
         4
100
AcDbTrace
 10
1721.1054063139
 20
70.8276442569
 30
0.0
 11
1723.8054063139
 21
71.2326442569
 31
0.0
 12
1723.8054063139
 22
70.4226442569
 32
0.0
 13
1721.1054063139
 23
70.8276442569
 33
0.0
  0
SOLID
  5
24F
100
AcDbEntity
  8
L1_120
  6
CONTINUOUS
 62
         4
100
AcDbTrace
 10
1733.2554063139
 20
70.8276442569
 30
0.0
 11
1730.5554063139
 21
70.4226442569
 31
0.0
 12
1730.5554063139
 22
71.2326442569
 32
0.0
 13
1733.2554063139
 23
70.8276442569
 33
0.0
  0
TEXT
  5
251
100
AcDbEntity
  8
L1_120
  6
CONTINUOUS
 62
         4
100
AcDbText
 10
1720.6557145159
 20
72.8526442569
 30
0.0
 40
2.7
  1
12.15
  7
BOX
100
AcDbText
  0
ENDBLK
  5
252
100
AcDbEntity
  8
0
  6
CONTINUOUS
100
AcDbBlockEnd
  0
BLOCK
  5
254
100
AcDbEntity
  8
0
100
AcDbBlockBegin
  2
*D9
 70
        65
 10
0.0
 20
0.0
 30
0.0
  3
*D9
  1

  0
POINT
  5
256
100
AcDbEntity
  8
DEFPOINTS
  6
CONTINUOUS
 62
         0
100
AcDbPoint
 10
1717.7813075284
 20
62.2741691098
 30
0.0
  0
POINT
  5
257
100
AcDbEntity
  8
DEFPOINTS
  6
CONTINUOUS
 62
         0
100
AcDbPoint
 10
1721.6054063139
 20
62.2741691098
 30
0.0
  0
POINT
  5
258
100
AcDbEntity
  8
DEFPOINTS
  6
CONTINUOUS
 62
         0
100
AcDbPoint
 10
1721.6054063139
 20
43.2741691098
 30
0.0
  0
LINE
  5
259
100
AcDbEntity
  8
L1_120
  6
CONTINUOUS
 62
         4
100
AcDbLine
 10
1720.2554063139
 20
62.2741691098
 30
0.0
 11
1717.1063075284
 21
62.2741691098
 31
0.0
  0
LINE
  5
25A
100
AcDbEntity
  8
L1_120
  6
CONTINUOUS
 62
         4
100
AcDbLine
 10
1720.2554063139
 20
43.2741691098
 30
0.0
 11
1717.1063075284
 21
43.2741691098
 31
0.0
  0
LINE
  5
25B
100
AcDbEntity
  8
L1_120
  6
CONTINUOUS
 62
         4
100
AcDbLine
 10
1717.7813075284
 20
62.2741691098
 30
0.0
 11
1717.7813075284
 21
43.2741691098
 31
0.0
  0
SOLID
  5
25C
100
AcDbEntity
  8
L1_120
  6
CONTINUOUS
 62
         4
100
AcDbTrace
 10
1717.7813075284
 20
62.2741691098
 30
0.0
 11
1718.1863075284
 21
59.5741691098
 31
0.0
 12
1717.3763075284
 22
59.5741691098
 32
0.0
 13
1717.7813075284
 23
62.2741691098
 33
0.0
  0
SOLID
  5
25D
100
AcDbEntity
  8
L1_120
  6
CONTINUOUS
 62
         4
100
AcDbTrace
 10
1717.7813075284
 20
43.2741691098
 30
0.0
 11
1717.3763075284
 21
45.9741691098
 31
0.0
 12
1718.1863075284
 22
45.9741691098
 32
0.0
 13
1717.7813075284
 23
43.2741691098
 33
0.0
  0
TEXT
  5
25F
100
AcDbEntity
  8
L1_120
  6
CONTINUOUS
 62
         4
100
AcDbText
 10
1715.7563075284
 20
47.5737739749
 30
0.0
 40
2.7
  1
崷19
 50
90.0
  7
BOX
100
AcDbText
  0
ENDBLK
  5
260
100
AcDbEntity
  8
0
  6
CONTINUOUS
100
AcDbBlockEnd
  0
BLOCK
  5
278
100
AcDbEntity
  8
0
100
AcDbBlockBegin
  2
*D10
 70
        65
 10
0.0
 20
0.0
 30
0.0
  3
*D10
  1

  0
POINT
  5
27A
100
AcDbEntity
  8
DEFPOINTS
  6
CONTINUOUS
 62
         0
100
AcDbPoint
 10
1703.8828895947
 20
65.4741691098
 30
0.0
  0
POINT
  5
27B
100
AcDbEntity
  8
DEFPOINTS
  6
CONTINUOUS
 62
         0
100
AcDbPoint
 10
1689.1454063139
 20
65.4741691098
 30
0.0
  0
POINT
  5
27C
100
AcDbEntity
  8
DEFPOINTS
  6
CONTINUOUS
 62
         0
100
AcDbPoint
 10
1689.1454063139
 20
40.0741691098
 30
0.0
  0
LINE
  5
27D
100
AcDbEntity
  8
L1_120
  6
CONTINUOUS
 62
         4
100
AcDbLine
 10
1690.4954063139
 20
65.4741691098
 30
0.0
 11
1704.5578895947
 21
65.4741691098
 31
0.0
  0
LINE
  5
27E
100
AcDbEntity
  8
L1_120
  6
CONTINUOUS
 62
         4
100
AcDbLine
 10
1690.4954063139
 20
40.0741691098
 30
0.0
 11
1704.5578895947
 21
40.0741691098
 31
0.0
  0
LINE
  5
27F
100
AcDbEntity
  8
L1_120
  6
CONTINUOUS
 62
         4
100
AcDbLine
 10
1703.8828895947
 20
65.4741691098
 30
0.0
 11
1703.8828895947
 21
40.0741691098
 31
0.0
  0
SOLID
  5
280
100
AcDbEntity
  8
L1_120
  6
CONTINUOUS
 62
         4
100
AcDbTrace
 10
1703.8828895947
 20
65.4741691098
 30
0.0
 11
1704.2878895947
 21
62.7741691098
 31
0.0
 12
1703.4778895947
 22
62.7741691098
 32
0.0
 13
1703.8828895947
 23
65.4741691098
 33
0.0
  0
SOLID
  5
281
100
AcDbEntity
  8
L1_120
  6
CONTINUOUS
 62
         4
100
AcDbTrace
 10
1703.8828895947
 20
40.0741691098
 30
0.0
 11
1703.4778895947
 21
42.7741691098
 31
0.0
 12
1704.2878895947
 22
42.7741691098
 32
0.0
 13
1703.8828895947
 23
40.0741691098
 33
0.0
  0
TEXT
  5
283
100
AcDbEntity
  8
L1_120
  6
CONTINUOUS
 62
         4
100
AcDbText
 10
1701.8578895947
 20
41.286545061
 30
0.0
 40
2.7
  1
崷25.4g6
 50
90.0
  7
BOX
100
AcDbText
  0
ENDBLK
  5
284
100
AcDbEntity
  8
0
  6
CONTINUOUS
100
AcDbBlockEnd
  0
BLOCK
  5
286
100
AcDbEntity
  8
0
100
AcDbBlockBegin
  2
*D11
 70
        65
 10
0.0
 20
0.0
 30
0.0
  3
*D11
  1

  0
POINT
  5
288
100
AcDbEntity
  8
DEFPOINTS
  6
CONTINUOUS
 62
         0
100
AcDbPoint
 10
1697.1620295967
 20
58.0241691098
 30
0.0
  0
POINT
  5
289
100
AcDbEntity
  8
DEFPOINTS
  6
CONTINUOUS
 62
         0
100
AcDbPoint
 10
1689.8454063139
 20
58.0241691098
 30
0.0
  0
POINT
  5
28A
100
AcDbEntity
  8
DEFPOINTS
  6
CONTINUOUS
 62
         0
100
AcDbPoint
 10
1689.8454063139
 20
47.5241691098
 30
0.0
  0
LINE
  5
28B
100
AcDbEntity
  8
L1_120
  6
CONTINUOUS
 62
         4
100
AcDbLine
 10
1691.1954063139
 20
58.0241691098
 30
0.0
 11
1697.8370295967
 21
58.0241691098
 31
0.0
  0
LINE
  5
28C
100
AcDbEntity
  8
L1_120
  6
CONTINUOUS
 62
         4
100
AcDbLine
 10
1691.1954063139
 20
47.5241691098
 30
0.0
 11
1697.8370295967
 21
47.5241691098
 31
0.0
  0
LINE
  5
28D
100
AcDbEntity
  8
L1_120
  6
CONTINUOUS
 62
         4
100
AcDbLine
 10
1697.1620295967
 20
58.0241691098
 30
0.0
 11
1697.1620295967
 21
47.5241691098
 31
0.0
  0
SOLID
  5
28E
100
AcDbEntity
  8
L1_120
  6
CONTINUOUS
 62
         4
100
AcDbTrace
 10
1697.1620295967
 20
58.0241691098
 30
0.0
 11
1697.5670295967
 21
55.3241691098
 31
0.0
 12
1696.7570295967
 22
55.3241691098
 32
0.0
 13
1697.1620295967
 23
58.0241691098
 33
0.0
  0
SOLID
  5
28F
100
AcDbEntity
  8
L1_120
  6
CONTINUOUS
 62
         4
100
AcDbTrace
 10
1697.1620295967
 20
47.5241691098
 30
0.0
 11
1696.7570295967
 21
50.2241691098
 31
0.0
 12
1697.5670295967
 22
50.2241691098
 32
0.0
 13
1697.1620295967
 23
47.5241691098
 33
0.0
  0
TEXT
  5
291
100
AcDbEntity
  8
L1_120
  6
CONTINUOUS
 62
         4
100
AcDbText
 10
1695.1370295967
 20
47.2466167274
 30
0.0
 40
2.7
  1
10.5
 50
90.0
  7
BOX
100
AcDbText
  0
ENDBLK
  5
292
100
AcDbEntity
  8
0
  6
CONTINUOUS
100
AcDbBlockEnd
  0
BLOCK
  5
294
100
AcDbEntity
  8
0
100
AcDbBlockBegin
  2
*D12
 70
        65
 10
0.0
 20
0.0
 30
0.0
  3
*D12
  1

  0
POINT
  5
296
100
AcDbEntity
  8
DEFPOINTS
  6
CONTINUOUS
 62
         0
100
AcDbPoint
 10
1610.4233102067
 20
68.7741691098
 30
0.0
  0
POINT
  5
297
100
AcDbEntity
  8
DEFPOINTS
  6
CONTINUOUS
 62
         0
100
AcDbPoint
 10
1616.3454063139
 20
68.7741691098
 30
0.0
  0
POINT
  5
298
100
AcDbEntity
  8
DEFPOINTS
  6
CONTINUOUS
 62
         0
100
AcDbPoint
 10
1616.3454063139
 20
36.7741691098
 30
0.0
  0
LINE
  5
299
100
AcDbEntity
  8
L1_120
  6
CONTINUOUS
 62
         4
100
AcDbLine
 10
1614.9954063139
 20
68.7741691098
 30
0.0
 11
1609.7483102067
 21
68.7741691098
 31
0.0
  0
LINE
  5
29A
100
AcDbEntity
  8
L1_120
  6
CONTINUOUS
 62
         4
100
AcDbLine
 10
1614.9954063139
 20
36.7741691098
 30
0.0
 11
1609.7483102067
 21
36.7741691098
 31
0.0
  0
LINE
  5
29B
100
AcDbEntity
  8
L1_120
  6
CONTINUOUS
 62
         4
100
AcDbLine
 10
1610.4233102067
 20
68.7741691098
 30
0.0
 11
1610.4233102067
 21
36.7741691098
 31
0.0
  0
SOLID
  5
29C
100
AcDbEntity
  8
L1_120
  6
CONTINUOUS
 62
         4
100
AcDbTrace
 10
1610.4233102067
 20
68.7741691098
 30
0.0
 11
1610.8283102067
 21
66.0741691098
 31
0.0
 12
1610.0183102067
 22
66.0741691098
 32
0.0
 13
1610.4233102067
 23
68.7741691098
 33
0.0
  0
SOLID
  5
29D
100
AcDbEntity
  8
L1_120
  6
CONTINUOUS
 62
         4
100
AcDbTrace
 10
1610.4233102067
 20
36.7741691098
 30
0.0
 11
1610.0183102067
 21
39.4741691098
 31
0.0
 12
1610.8283102067
 22
39.4741691098
 32
0.0
 13
1610.4233102067
 23
36.7741691098
 33
0.0
  0
TEXT
  5
29F
100
AcDbEntity
  8
L1_120
  6
CONTINUOUS
 62
         4
100
AcDbText
 10
1608.3983102067
 20
45.6765071073
 30
0.0
 40
2.7
  1
崷32f7
 50
90.0
  7
BOX
100
AcDbText
  0
ENDBLK
  5
2A0
100
AcDbEntity
  8
0
  6
CONTINUOUS
100
AcDbBlockEnd
  0
BLOCK
  5
2A2
100
AcDbEntity
  8
0
100
AcDbBlockBegin
  2
*D13
 70
        65
 10
0.0
 20
0.0
 30
0.0
  3
*D13
  1

  0
POINT
  5
2A4
100
AcDbEntity
  8
DEFPOINTS
  6
CONTINUOUS
 62
         0
100
AcDbPoint
 10
1690.3454063139
 20
80.1721664743
 30
0.0
  0
POINT
  5
2A5
100
AcDbEntity
  8
DEFPOINTS
  6
CONTINUOUS
 62
         0
100
AcDbPoint
 10
1690.3454063139
 20
64.9741691098
 30
0.0
  0
POINT
  5
2A6
100
AcDbEntity
  8
DEFPOINTS
  6
CONTINUOUS
 62
         0
100
AcDbPoint
 10
1615.3454063139
 20
67.7741691098
 30
0.0
  0
LINE
  5
2A7
100
AcDbEntity
  8
L1_120
  6
CONTINUOUS
 62
         4
100
AcDbLine
 10
1690.3454063139
 20
66.3241691098
 30
0.0
 11
1690.3454063139
 21
80.8471664743
 31
0.0
  0
LINE
  5
2A8
100
AcDbEntity
  8
L1_120
  6
CONTINUOUS
 62
         4
100
AcDbLine
 10
1615.3454063139
 20
69.1241691098
 30
0.0
 11
1615.3454063139
 21
80.8471664743
 31
0.0
  0
LINE
  5
2A9
100
AcDbEntity
  8
L1_120
  6
CONTINUOUS
 62
         4
100
AcDbLine
 10
1690.3454063139
 20
80.1721664743
 30
0.0
 11
1615.3454063139
 21
80.1721664743
 31
0.0
  0
SOLID
  5
2AA
100
AcDbEntity
  8
L1_120
  6
CONTINUOUS
 62
         4
100
AcDbTrace
 10
1690.3454063139
 20
80.1721664743
 30
0.0
 11
1687.6454063139
 21
79.7671664743
 31
0.0
 12
1687.6454063139
 22
80.5771664743
 32
0.0
 13
1690.3454063139
 23
80.1721664743
 33
0.0
  0
SOLID
  5
2AB
100
AcDbEntity
  8
L1_120
  6
CONTINUOUS
 62
         4
100
AcDbTrace
 10
1615.3454063139
 20
80.1721664743
 30
0.0
 11
1618.0454063139
 21
80.5771664743
 31
0.0
 12
1618.0454063139
 22
79.7671664743
 32
0.0
 13
1615.3454063139
 23
80.1721664743
 33
0.0
  0
TEXT
  5
2AD
100
AcDbEntity
  8
L1_120
  6
CONTINUOUS
 62
         4
100
AcDbText
 10
1651.3128310888
 20
82.1971664743
 30
0.0
 40
2.7
  1
75
  7
BOX
100
AcDbText
  0
ENDBLK
  5
2AE
100
AcDbEntity
  8
0
  6
CONTINUOUS
100
AcDbBlockEnd
  0
BLOCK
  5
2B0
100
AcDbEntity
  8
0
100
AcDbBlockBegin
  2
*D14
 70
        65
 10
0.0
 20
0.0
 30
0.0
  3
*D14
  1

  0
POINT
  5
2B2
100
AcDbEntity
  8
DEFPOINTS
  6
CONTINUOUS
 62
         0
100
AcDbPoint
 10
1658.8454063139
 20
73.9046592392
 30
0.0
  0
POINT
  5
2B3
100
AcDbEntity
  8
DEFPOINTS
  6
CONTINUOUS
 62
         0
100
AcDbPoint
 10
1658.8454063139
 20
67.7741691098
 30
0.0
  0
POINT
  5
2B4
100
AcDbEntity
  8
DEFPOINTS
  6
CONTINUOUS
 62
         0
100
AcDbPoint
 10
1690.3454063139
 20
64.9741691098
 30
0.0
  0
LINE
  5
2B5
100
AcDbEntity
  8
L1_120
  6
CONTINUOUS
 62
         4
100
AcDbLine
 10
1658.8454063139
 20
69.1241691098
 30
0.0
 11
1658.8454063139
 21
74.5796592392
 31
0.0
  0
LINE
  5
2B6
100
AcDbEntity
  8
L1_120
  6
CONTINUOUS
 62
         4
100
AcDbLine
 10
1690.3454063139
 20
66.3241691098
 30
0.0
 11
1690.3454063139
 21
74.5796592392
 31
0.0
  0
LINE
  5
2B7
100
AcDbEntity
  8
L1_120
  6
CONTINUOUS
 62
         4
100
AcDbLine
 10
1658.8454063139
 20
73.9046592392
 30
0.0
 11
1690.3454063139
 21
73.9046592392
 31
0.0
  0
SOLID
  5
2B8
100
AcDbEntity
  8
L1_120
  6
CONTINUOUS
 62
         4
100
AcDbTrace
 10
1658.8454063139
 20
73.9046592392
 30
0.0
 11
1661.5454063139
 21
74.3096592392
 31
0.0
 12
1661.5454063139
 22
73.4996592392
 32
0.0
 13
1658.8454063139
 23
73.9046592392
 33
0.0
  0
SOLID
  5
2B9
100
AcDbEntity
  8
L1_120
  6
CONTINUOUS
 62
         4
100
AcDbTrace
 10
1690.3454063139
 20
73.9046592392
 30
0.0
 11
1687.6454063139
 21
73.4996592392
 31
0.0
 12
1687.6454063139
 22
74.3096592392
 32
0.0
 13
1690.3454063139
 23
73.9046592392
 33
0.0
  0
TEXT
  5
2BB
100
AcDbEntity
  8
L1_120
  6
CONTINUOUS
 62
         4
100
AcDbText
 10
1668.501720715
 20
75.9296592392
 30
0.0
 40
2.7
  1
31.5
  7
BOX
100
AcDbText
  0
ENDBLK
  5
2BC
100
AcDbEntity
  8
0
  6
CONTINUOUS
100
AcDbBlockEnd
  0
BLOCK
  5
3E5
100
AcDbEntity
  8
0
100
AcDbBlockBegin
  2
*D15
 70
        65
 10
0.0
 20
0.0
 30
0.0
  3
*D15
  1

  0
POINT
  5
3E7
100
AcDbEntity
  8
DEFPOINTS
  6
CONTINUOUS
 62
         0
100
AcDbPoint
 10
1555.6684200361
 20
75.2741691098
 30
0.0
  0
POINT
  5
3E8
100
AcDbEntity
  8
DEFPOINTS
  6
CONTINUOUS
 62
         0
100
AcDbPoint
 10
1545.6114317177
 20
75.2741691098
 30
0.0
  0
POINT
  5
3E9
100
AcDbEntity
  8
DEFPOINTS
  6
CONTINUOUS
 62
         0
100
AcDbPoint
 10
1545.6114317177
 20
30.2741691098
 30
0.0
  0
LINE
  5
3EA
100
AcDbEntity
  8
L1_120
  6
CONTINUOUS
 62
         4
100
AcDbLine
 10
1546.9614317177
 20
75.2741691098
 30
0.0
 11
1556.3434200361
 21
75.2741691098
 31
0.0
  0
LINE
  5
3EB
100
AcDbEntity
  8
L1_120
  6
CONTINUOUS
 62
         4
100
AcDbLine
 10
1546.9614317177
 20
30.2741691098
 30
0.0
 11
1556.3434200361
 21
30.2741691098
 31
0.0
  0
LINE
  5
3EC
100
AcDbEntity
  8
L1_120
  6
CONTINUOUS
 62
         4
100
AcDbLine
 10
1555.6684200361
 20
75.2741691098
 30
0.0
 11
1555.6684200361
 21
30.2741691098
 31
0.0
  0
SOLID
  5
3ED
100
AcDbEntity
  8
L1_120
  6
CONTINUOUS
 62
         4
100
AcDbTrace
 10
1555.6684200361
 20
75.2741691098
 30
0.0
 11
1556.0734200361
 21
72.5741691098
 31
0.0
 12
1555.2634200361
 22
72.5741691098
 32
0.0
 13
1555.6684200361
 23
75.2741691098
 33
0.0
  0
SOLID
  5
3EE
100
AcDbEntity
  8
L1_120
  6
CONTINUOUS
 62
         4
100
AcDbTrace
 10
1555.6684200361
 20
30.2741691098
 30
0.0
 11
1555.2634200361
 21
32.9741691098
 31
0.0
 12
1556.0734200361
 22
32.9741691098
 32
0.0
 13
1555.6684200361
 23
30.2741691098
 33
0.0
  0
TEXT
  5
3F0
100
AcDbEntity
  8
L1_120
  6
CONTINUOUS
 62
         4
100
AcDbText
 10
1553.6434200361
 20
47.4704658839
 30
0.0
 40
2.7
  1
崷45
 50
90.0
  7
BOX
100
AcDbText
  0
ENDBLK
  5
3F1
100
AcDbEntity
  8
0
  6
CONTINUOUS
100
AcDbBlockEnd
  0
BLOCK
  5
3F3
100
AcDbEntity
  8
0
100
AcDbBlockBegin
  2
*D16
 70
        65
 10
0.0
 20
0.0
 30
0.0
  3
*D16
  1

  0
POINT
  5
3F5
100
AcDbEntity
  8
DEFPOINTS
  6
CONTINUOUS
 62
         0
100
AcDbPoint
 10
1516.7454063139
 20
78.2644804861
 30
0.0
  0
POINT
  5
3F6
100
AcDbEntity
  8
DEFPOINTS
  6
CONTINUOUS
 62
         0
100
AcDbPoint
 10
1516.7454063139
 20
74.7741691098
 30
0.0
  0
POINT
  5
3F7
100
AcDbEntity
  8
DEFPOINTS
  6
CONTINUOUS
 62
         0
100
AcDbPoint
 10
1548.7454063139
 20
73.9854939752
 30
0.0
  0
LINE
  5
3F8
100
AcDbEntity
  8
L1_120
  6
CONTINUOUS
 62
         4
100
AcDbLine
 10
1516.7454063139
 20
76.1241691098
 30
0.0
 11
1516.7454063139
 21
78.9394804861
 31
0.0
  0
LINE
  5
3F9
100
AcDbEntity
  8
L1_120
  6
CONTINUOUS
 62
         4
100
AcDbLine
 10
1548.7454063139
 20
75.3354939752
 30
0.0
 11
1548.7454063139
 21
78.9394804861
 31
0.0
  0
LINE
  5
3FA
100
AcDbEntity
  8
L1_120
  6
CONTINUOUS
 62
         4
100
AcDbLine
 10
1516.7454063139
 20
78.2644804861
 30
0.0
 11
1548.7454063139
 21
78.2644804861
 31
0.0
  0
SOLID
  5
3FB
100
AcDbEntity
  8
L1_120
  6
CONTINUOUS
 62
         4
100
AcDbTrace
 10
1516.7454063139
 20
78.2644804861
 30
0.0
 11
1519.4454063139
 21
78.6694804861
 31
0.0
 12
1519.4454063139
 22
77.8594804861
 32
0.0
 13
1516.7454063139
 23
78.2644804861
 33
0.0
  0
SOLID
  5
3FC
100
AcDbEntity
  8
L1_120
  6
CONTINUOUS
 62
         4
100
AcDbTrace
 10
1548.7454063139
 20
78.2644804861
 30
0.0
 11
1546.0454063139
 21
77.8594804861
 31
0.0
 12
1546.0454063139
 22
78.6694804861
 32
0.0
 13
1548.7454063139
 23
78.2644804861
 33
0.0
  0
TEXT
  5
3FE
100
AcDbEntity
  8
L1_120
  6
CONTINUOUS
 62
         4
100
AcDbText
 10
1530.7476307604
 20
80.2894804861
 30
0.0
 40
2.7
  1
32
  7
BOX
100
AcDbText
  0
ENDBLK
  5
3FF
100
AcDbEntity
  8
0
  6
CONTINUOUS
100
AcDbBlockEnd
  0
BLOCK
  5
40F
100
AcDbEntity
  8
0
100
AcDbBlockBegin
  2
*D17
 70
        65
 10
0.0
 20
0.0
 30
0.0
  3
*D17
  1

  0
POINT
  5
411
100
AcDbEntity
  8
DEFPOINTS
  6
CONTINUOUS
 62
         0
100
AcDbPoint
 10
1570.8853030313
 20
60.2741691098
 30
0.0
  0
POINT
  5
412
100
AcDbEntity
  8
DEFPOINTS
  6
CONTINUOUS
 62
         0
100
AcDbPoint
 10
1572.7454063139
 20
60.2741691098
 30
0.0
  0
POINT
  5
413
100
AcDbEntity
  8
DEFPOINTS
  6
CONTINUOUS
 62
         0
100
AcDbPoint
 10
1572.7454063139
 20
45.2741691098
 30
0.0
  0
LINE
  5
414
100
AcDbEntity
  8
L1_120
  6
CONTINUOUS
 62
         4
100
AcDbLine
 10
1571.3954063139
 20
60.2741691098
 30
0.0
 11
1570.2103030313
 21
60.2741691098
 31
0.0
  0
LINE
  5
415
100
AcDbEntity
  8
L1_120
  6
CONTINUOUS
 62
         4
100
AcDbLine
 10
1571.3954063139
 20
45.2741691098
 30
0.0
 11
1570.2103030313
 21
45.2741691098
 31
0.0
  0
LINE
  5
416
100
AcDbEntity
  8
L1_120
  6
CONTINUOUS
 62
         4
100
AcDbLine
 10
1570.8853030313
 20
60.2741691098
 30
0.0
 11
1570.8853030313
 21
45.2741691098
 31
0.0
  0
SOLID
  5
417
100
AcDbEntity
  8
L1_120
  6
CONTINUOUS
 62
         4
100
AcDbTrace
 10
1570.8853030313
 20
60.2741691098
 30
0.0
 11
1571.2903030313
 21
57.5741691098
 31
0.0
 12
1570.4803030313
 22
57.5741691098
 32
0.0
 13
1570.8853030313
 23
60.2741691098
 33
0.0
  0
SOLID
  5
418
100
AcDbEntity
  8
L1_120
  6
CONTINUOUS
 62
         4
100
AcDbTrace
 10
1570.8853030313
 20
45.2741691098
 30
0.0
 11
1570.4803030313
 21
47.9741691098
 31
0.0
 12
1571.2903030313
 22
47.9741691098
 32
0.0
 13
1570.8853030313
 23
45.2741691098
 33
0.0
  0
TEXT
  5
41A
100
AcDbEntity
  8
L1_120
  6
CONTINUOUS
 62
         4
100
AcDbText
 10
1568.8603030313
 20
46.8234665853
 30
0.0
 40
2.7
  1
崷15
 50
90.0
  7
BOX
100
AcDbText
  0
ENDBLK
  5
41B
100
AcDbEntity
  8
0
  6
CONTINUOUS
100
AcDbBlockEnd
  0
BLOCK
  5
41D
100
AcDbEntity
  8
0
100
AcDbBlockBegin
  2
*D18
 70
        65
 10
0.0
 20
0.0
 30
0.0
  3
*D18
  1

  0
POINT
  5
41F
100
AcDbEntity
  8
DEFPOINTS
  6
CONTINUOUS
 62
         0
100
AcDbPoint
 10
1594.840310116
 20
62.1741691098
 30
0.0
  0
POINT
  5
420
100
AcDbEntity
  8
DEFPOINTS
  6
CONTINUOUS
 62
         0
100
AcDbPoint
 10
1587.6454063139
 20
62.1741691098
 30
0.0
  0
POINT
  5
421
100
AcDbEntity
  8
DEFPOINTS
  6
CONTINUOUS
 62
         0
100
AcDbPoint
 10
1587.6454063139
 20
43.3741691098
 30
0.0
  0
LINE
  5
422
100
AcDbEntity
  8
L1_120
  6
CONTINUOUS
 62
         4
100
AcDbLine
 10
1588.9954063139
 20
62.1741691098
 30
0.0
 11
1595.515310116
 21
62.1741691098
 31
0.0
  0
LINE
  5
423
100
AcDbEntity
  8
L1_120
  6
CONTINUOUS
 62
         4
100
AcDbLine
 10
1588.9954063139
 20
43.3741691098
 30
0.0
 11
1595.515310116
 21
43.3741691098
 31
0.0
  0
LINE
  5
424
100
AcDbEntity
  8
L1_120
  6
CONTINUOUS
 62
         4
100
AcDbLine
 10
1594.840310116
 20
62.1741691098
 30
0.0
 11
1594.840310116
 21
43.3741691098
 31
0.0
  0
SOLID
  5
425
100
AcDbEntity
  8
L1_120
  6
CONTINUOUS
 62
         4
100
AcDbTrace
 10
1594.840310116
 20
62.1741691098
 30
0.0
 11
1595.245310116
 21
59.4741691098
 31
0.0
 12
1594.435310116
 22
59.4741691098
 32
0.0
 13
1594.840310116
 23
62.1741691098
 33
0.0
  0
SOLID
  5
426
100
AcDbEntity
  8
L1_120
  6
CONTINUOUS
 62
         4
100
AcDbTrace
 10
1594.840310116
 20
43.3741691098
 30
0.0
 11
1594.435310116
 21
46.0741691098
 31
0.0
 12
1595.245310116
 22
46.0741691098
 32
0.0
 13
1594.840310116
 23
43.3741691098
 33
0.0
  0
TEXT
  5
428
100
AcDbEntity
  8
L1_120
  6
CONTINUOUS
 62
         4
100
AcDbText
 10
1592.815310116
 20
44.6203209911
 30
0.0
 40
2.7
  1
崷18.8
 50
90.0
  7
BOX
100
AcDbText
  0
ENDBLK
  5
429
100
AcDbEntity
  8
0
  6
CONTINUOUS
100
AcDbBlockEnd
  0
BLOCK
  5
42B
100
AcDbEntity
  8
0
100
AcDbBlockBegin
  2
*D19
 70
        65
 10
0.0
 20
0.0
 30
0.0
  3
*D19
  1

  0
POINT
  5
42D
100
AcDbEntity
  8
DEFPOINTS
  6
CONTINUOUS
 62
         0
100
AcDbPoint
 10
1588.1454063139
 20
64.7478075707
 30
0.0
  0
POINT
  5
42E
100
AcDbEntity
  8
DEFPOINTS
  6
CONTINUOUS
 62
         0
100
AcDbPoint
 10
1588.1454063139
 20
61.6741691098
 30
0.0
  0
POINT
  5
42F
100
AcDbEntity
  8
DEFPOINTS
  6
CONTINUOUS
 62
         0
100
AcDbPoint
 10
1572.6454063139
 20
60.1741691098
 30
0.0
  0
LINE
  5
430
100
AcDbEntity
  8
L1_120
  6
CONTINUOUS
 62
         4
100
AcDbLine
 10
1588.1454063139
 20
63.0241691098
 30
0.0
 11
1588.1454063139
 21
65.4228075707
 31
0.0
  0
LINE
  5
431
100
AcDbEntity
  8
L1_120
  6
CONTINUOUS
 62
         4
100
AcDbLine
 10
1572.6454063139
 20
61.5241691098
 30
0.0
 11
1572.6454063139
 21
65.4228075707
 31
0.0
  0
LINE
  5
432
100
AcDbEntity
  8
L1_120
  6
CONTINUOUS
 62
         4
100
AcDbLine
 10
1588.1454063139
 20
64.7478075707
 30
0.0
 11
1572.6454063139
 21
64.7478075707
 31
0.0
  0
SOLID
  5
433
100
AcDbEntity
  8
L1_120
  6
CONTINUOUS
 62
         4
100
AcDbTrace
 10
1588.1454063139
 20
64.7478075707
 30
0.0
 11
1585.4454063139
 21
64.3428075707
 31
0.0
 12
1585.4454063139
 22
65.1528075707
 32
0.0
 13
1588.1454063139
 23
64.7478075707
 33
0.0
  0
SOLID
  5
434
100
AcDbEntity
  8
L1_120
  6
CONTINUOUS
 62
         4
100
AcDbTrace
 10
1572.6454063139
 20
64.7478075707
 30
0.0
 11
1575.3454063139
 21
65.1528075707
 31
0.0
 12
1575.3454063139
 22
64.3428075707
 32
0.0
 13
1572.6454063139
 23
64.7478075707
 33
0.0
  0
TEXT
  5
436
100
AcDbEntity
  8
L1_120
  6
CONTINUOUS
 62
         4
100
AcDbText
 10
1575.1477626393
 20
66.7728075707
 30
0.0
 40
2.7
  1
15.5
  7
BOX
100
AcDbText
  0
ENDBLK
  5
437
100
AcDbEntity
  8
0
  6
CONTINUOUS
100
AcDbBlockEnd
  0
BLOCK
  5
44D
100
AcDbEntity
  8
0
100
AcDbBlockBegin
  2
*D20
 70
        65
 10
0.0
 20
0.0
 30
0.0
  3
*D20
  1

  0
POINT
  5
44F
100
AcDbEntity
  8
DEFPOINTS
  6
CONTINUOUS
 62
         0
100
AcDbPoint
 10
1217.6073963584
 20
-127.6030565033
 30
0.0
  0
POINT
  5
450
100
AcDbEntity
  8
DEFPOINTS
  6
CONTINUOUS
 62
         0
100
AcDbPoint
 10
1217.6073963584
 20
-120.4585741774
 30
0.0
  0
POINT
  5
451
100
AcDbEntity
  8
DEFPOINTS
  6
CONTINUOUS
 62
         0
100
AcDbPoint
 10
1212.1073963584
 20
-120.4585741774
 30
0.0
  0
LINE
  5
452
100
AcDbEntity
  8
L1_120
  6
CONTINUOUS
 62
         4
100
AcDbLine
 10
1217.6073963584
 20
-121.8085741774
 30
0.0
 11
1217.6073963584
 21
-128.2780565033
 31
0.0
  0
LINE
  5
453
100
AcDbEntity
  8
L1_120
  6
CONTINUOUS
 62
         4
100
AcDbLine
 10
1212.1073963584
 20
-121.8085741774
 30
0.0
 11
1212.1073963584
 21
-128.2780565033
 31
0.0
  0
LINE
  5
454
100
AcDbEntity
  8
L1_120
  6
CONTINUOUS
 62
         4
100
AcDbLine
 10
1217.6073963584
 20
-127.6030565033
 30
0.0
 11
1223.0073963584
 21
-127.6030565033
 31
0.0
  0
SOLID
  5
455
100
AcDbEntity
  8
L1_120
  6
CONTINUOUS
 62
         4
100
AcDbTrace
 10
1217.6073963584
 20
-127.6030565033
 30
0.0
 11
1220.3073963584
 21
-127.1980565033
 31
0.0
 12
1220.3073963584
 22
-128.0080565033
 32
0.0
 13
1217.6073963584
 23
-127.6030565033
 33
0.0
  0
LINE
  5
456
100
AcDbEntity
  8
L1_120
  6
CONTINUOUS
 62
         4
100
AcDbLine
 10
1212.1073963584
 20
-127.6030565033
 30
0.0
 11
1206.7073963584
 21
-127.6030565033
 31
0.0
  0
SOLID
  5
457
100
AcDbEntity
  8
L1_120
  6
CONTINUOUS
 62
         4
100
AcDbTrace
 10
1212.1073963584
 20
-127.6030565033
 30
0.0
 11
1209.4073963584
 21
-128.0080565033
 31
0.0
 12
1209.4073963584
 22
-127.1980565033
 32
0.0
 13
1212.1073963584
 23
-127.6030565033
 33
0.0
  0
LINE
  5
458
100
AcDbEntity
  8
L1_120
  6
CONTINUOUS
 62
         4
100
AcDbLine
 10
1217.6073963584
 20
-127.6030565033
 30
0.0
 11
1212.1073963584
 21
-127.6030565033
 31
0.0
  0
TEXT
  5
45A
100
AcDbEntity
  8
L1_120
  6
CONTINUOUS
 62
         4
100
AcDbText
 10
1210.8073963584
 20
-125.5780565033
 30
0.0
 40
2.7
  1
5.5
  7
BOX
100
AcDbText
  0
ENDBLK
  5
45B
100
AcDbEntity
  8
0
  6
CONTINUOUS
100
AcDbBlockEnd
  0
BLOCK
  5
45D
100
AcDbEntity
  8
0
100
AcDbBlockBegin
  2
*D21
 70
        65
 10
0.0
 20
0.0
 30
0.0
  3
*D21
  1

  0
POINT
  5
45F
100
AcDbEntity
  8
DEFPOINTS
  6
CONTINUOUS
 62
         0
100
AcDbPoint
 10
1157.9251228551
 20
-111.4585741774
 30
0.0
  0
POINT
  5
460
100
AcDbEntity
  8
DEFPOINTS
  6
CONTINUOUS
 62
         0
100
AcDbPoint
 10
1166.3573963584
 20
-111.4585741774
 30
0.0
  0
POINT
  5
461
100
AcDbEntity
  8
DEFPOINTS
  6
CONTINUOUS
 62
         0
100
AcDbPoint
 10
1166.3573963584
 20
-117.4585741774
 30
0.0
  0
LINE
  5
462
100
AcDbEntity
  8
L1_120
  6
CONTINUOUS
 62
         4
100
AcDbLine
 10
1165.0073963584
 20
-111.4585741774
 30
0.0
 11
1157.2501228551
 21
-111.4585741774
 31
0.0
  0
LINE
  5
463
100
AcDbEntity
  8
L1_120
  6
CONTINUOUS
 62
         4
100
AcDbLine
 10
1165.0073963584
 20
-117.4585741774
 30
0.0
 11
1157.2501228551
 21
-117.4585741774
 31
0.0
  0
LINE
  5
464
100
AcDbEntity
  8
L1_120
  6
CONTINUOUS
 62
         4
100
AcDbLine
 10
1157.9251228551
 20
-111.4585741774
 30
0.0
 11
1157.9251228551
 21
-106.0585741774
 31
0.0
  0
SOLID
  5
465
100
AcDbEntity
  8
L1_120
  6
CONTINUOUS
 62
         4
100
AcDbTrace
 10
1157.9251228551
 20
-111.4585741774
 30
0.0
 11
1157.5201228551
 21
-108.7585741774
 31
0.0
 12
1158.3301228551
 22
-108.7585741774
 32
0.0
 13
1157.9251228551
 23
-111.4585741774
 33
0.0
  0
LINE
  5
466
100
AcDbEntity
  8
L1_120
  6
CONTINUOUS
 62
         4
100
AcDbLine
 10
1157.9251228551
 20
-117.4585741774
 30
0.0
 11
1157.9251228551
 21
-122.8585741774
 31
0.0
  0
SOLID
  5
467
100
AcDbEntity
  8
L1_120
  6
CONTINUOUS
 62
         4
100
AcDbTrace
 10
1157.9251228551
 20
-117.4585741774
 30
0.0
 11
1158.3301228551
 21
-120.1585741774
 31
0.0
 12
1157.5201228551
 22
-120.1585741774
 32
0.0
 13
1157.9251228551
 23
-117.4585741774
 33
0.0
  0
LINE
  5
468
100
AcDbEntity
  8
L1_120
  6
CONTINUOUS
 62
         4
100
AcDbLine
 10
1157.9251228551
 20
-111.4585741774
 30
0.0
 11
1157.9251228551
 21
-117.4585741774
 31
0.0
  0
TEXT
  5
46A
100
AcDbEntity
  8
L1_120
  6
CONTINUOUS
 62
         4
100
AcDbText
 10
1155.9001228551
 20
-121.2085741774
 30
0.0
 40
2.7
  1
M6xP1
 50
90.0
  7
BOX
100
AcDbText
  0
ENDBLK
  5
46B
100
AcDbEntity
  8
0
  6
CONTINUOUS
100
AcDbBlockEnd
  0
BLOCK
  5
46D
100
AcDbEntity
  8
0
100
AcDbBlockBegin
  2
*D22
 70
        65
 10
0.0
 20
0.0
 30
0.0
  3
*D22
  1

  0
POINT
  5
46F
100
AcDbEntity
  8
DEFPOINTS
  6
CONTINUOUS
 62
         0
100
AcDbPoint
 10
1258.626973232
 20
-115.1480973655
 30
0.0
  0
POINT
  5
470
100
AcDbEntity
  8
DEFPOINTS
  6
CONTINUOUS
 62
         0
100
AcDbPoint
 10
1263.1849195999
 20
-113.7690509892
 30
0.0
  0
LINE
  5
471
100
AcDbEntity
  8
L1_120
  6
CONTINUOUS
 62
         4
100
AcDbLine
 10
1263.1849195999
 20
-113.7690509892
 30
0.0
 11
1283.5338060263
 21
-107.6123181484
 31
0.0
  0
SOLID
  5
472
100
AcDbEntity
  8
L1_120
  6
CONTINUOUS
 62
         4
100
AcDbTrace
 10
1263.1849195999
 20
-113.7690509892
 30
0.0
 11
1265.6519379557
 21
-112.5995017462
 31
0.0
 12
1265.8865090529
 22
-113.3747929176
 32
0.0
 13
1263.1849195999
 23
-113.7690509892
 33
0.0
  0
LINE
  5
473
100
AcDbEntity
  8
L1_120
  6
CONTINUOUS
 62
         4
100
AcDbLine
 10
1258.626973232
 20
-115.1480973655
 30
0.0
 11
1253.4583654231
 21
-116.7119046802
 31
0.0
  0
SOLID
  5
474
100
AcDbEntity
  8
L1_120
  6
CONTINUOUS
 62
         4
100
AcDbTrace
 10
1258.626973232
 20
-115.1480973655
 30
0.0
 11
1256.1599548762
 21
-116.3176466085
 31
0.0
 12
1255.925383779
 22
-115.5423554372
 32
0.0
 13
1258.626973232
 23
-115.1480973655
 33
0.0
  0
LINE
  5
475
100
AcDbEntity
  8
L1_120
  6
CONTINUOUS
 62
         4
100
AcDbLine
 10
1258.626973232
 20
-115.1480973655
 30
0.0
 11
1263.1849195999
 21
-113.7690509892
 31
0.0
  0
TEXT
  5
477
100
AcDbEntity
  8
L1_120
  6
CONTINUOUS
 62
         4
100
AcDbText
 10
1266.5449645546
 20
-111.3888520679
 30
0.0
 40
2.7
  1
崷4.76
 50
16.8336477968
  7
BOX
100
AcDbText
  0
ENDBLK
  5
478
100
AcDbEntity
  8
0
  6
CONTINUOUS
100
AcDbBlockEnd
  0
BLOCK
  5
47A
100
AcDbEntity
  8
0
100
AcDbBlockBegin
  2
*D23
 70
        65
 10
0.0
 20
0.0
 30
0.0
  3
*D23
  1

  0
POINT
  5
47C
100
AcDbEntity
  8
DEFPOINTS
  6
CONTINUOUS
 62
         0
100
AcDbPoint
 10
1331.1771479203
 20
-93.3676022754
 30
0.0
  0
POINT
  5
47D
100
AcDbEntity
  8
DEFPOINTS
  6
CONTINUOUS
 62
         0
100
AcDbPoint
 10
1331.1771479203
 20
-104.2085741774
 30
0.0
  0
POINT
  5
47E
100
AcDbEntity
  8
DEFPOINTS
  6
CONTINUOUS
 62
         0
100
AcDbPoint
 10
1332.1771479203
 20
-104.2085741774
 30
0.0
  0
LINE
  5
47F
100
AcDbEntity
  8
L1_120
  6
CONTINUOUS
 62
         4
100
AcDbLine
 10
1331.1771479203
 20
-102.8585741774
 30
0.0
 11
1331.1771479203
 21
-92.6926022754
 31
0.0
  0
LINE
  5
480
100
AcDbEntity
  8
L1_120
  6
CONTINUOUS
 62
         4
100
AcDbLine
 10
1332.1771479203
 20
-102.8585741774
 30
0.0
 11
1332.1771479203
 21
-92.6926022754
 31
0.0
  0
LINE
  5
481
100
AcDbEntity
  8
L1_120
  6
CONTINUOUS
 62
         4
100
AcDbLine
 10
1331.1771479203
 20
-93.3676022754
 30
0.0
 11
1325.7771479203
 21
-93.3676022754
 31
0.0
  0
SOLID
  5
482
100
AcDbEntity
  8
L1_120
  6
CONTINUOUS
 62
         4
100
AcDbTrace
 10
1331.1771479203
 20
-93.3676022754
 30
0.0
 11
1328.4771479203
 21
-93.7726022754
 31
0.0
 12
1328.4771479203
 22
-92.9626022754
 32
0.0
 13
1331.1771479203
 23
-93.3676022754
 33
0.0
  0
LINE
  5
483
100
AcDbEntity
  8
L1_120
  6
CONTINUOUS
 62
         4
100
AcDbLine
 10
1332.1771479203
 20
-93.3676022754
 30
0.0
 11
1337.5771479203
 21
-93.3676022754
 31
0.0
  0
SOLID
  5
484
100
AcDbEntity
  8
L1_120
  6
CONTINUOUS
 62
         4
100
AcDbTrace
 10
1332.1771479203
 20
-93.3676022754
 30
0.0
 11
1334.8771479203
 21
-92.9626022754
 31
0.0
 12
1334.8771479203
 22
-93.7726022754
 32
0.0
 13
1332.1771479203
 23
-93.3676022754
 33
0.0
  0
LINE
  5
485
100
AcDbEntity
  8
L1_120
  6
CONTINUOUS
 62
         4
100
AcDbLine
 10
1331.1771479203
 20
-93.3676022754
 30
0.0
 11
1332.1771479203
 21
-93.3676022754
 31
0.0
  0
TEXT
  5
487
100
AcDbEntity
  8
L1_120
  6
CONTINUOUS
 62
         4
100
AcDbText
 10
1330.3271479203
 20
-91.3426022754
 30
0.0
 40
2.7
  1
1
  7
BOX
100
AcDbText
  0
ENDBLK
  5
488
100
AcDbEntity
  8
0
  6
CONTINUOUS
100
AcDbBlockEnd
  0
BLOCK
  5
48A
100
AcDbEntity
  8
0
100
AcDbBlockBegin
  2
*D24
 70
        65
 10
0.0
 20
0.0
 30
0.0
  3
*D24
  1

  0
POINT
  5
48C
100
AcDbEntity
  8
DEFPOINTS
  6
CONTINUOUS
 62
         0
100
AcDbPoint
 10
1409.4738148372
 20
-100.8168727745
 30
0.0
  0
POINT
  5
48D
100
AcDbEntity
  8
DEFPOINTS
  6
CONTINUOUS
 62
         0
100
AcDbPoint
 10
1410.2502665343
 20
-102.1002755803
 30
0.0
  0
LINE
  5
48E
100
AcDbEntity
  8
L1_120
  6
CONTINUOUS
 62
         4
100
AcDbLine
 10
1410.2502665343
 20
-102.1002755803
 30
0.0
 11
1419.2188778625
 21
-116.9245601883
 31
0.0
  0
SOLID
  5
48F
100
AcDbEntity
  8
L1_120
  6
CONTINUOUS
 62
         4
100
AcDbTrace
 10
1410.2502665343
 20
-102.1002755803
 30
0.0
 11
1411.9943983468
 21
-104.2007586725
 31
0.0
 12
1411.3013608316
 22
-104.620042589
 32
0.0
 13
1410.2502665343
 23
-102.1002755803
 33
0.0
  0
LINE
  5
490
100
AcDbEntity
  8
L1_120
  6
CONTINUOUS
 62
         4
100
AcDbLine
 10
1409.4738148372
 20
-100.8168727745
 30
0.0
 11
1406.6785887274
 21
-96.1966226735
 31
0.0
  0
SOLID
  5
491
100
AcDbEntity
  8
L1_120
  6
CONTINUOUS
 62
         4
100
AcDbTrace
 10
1409.4738148372
 20
-100.8168727745
 30
0.0
 11
1407.7296830247
 21
-98.7163896822
 31
0.0
 12
1408.4227205399
 22
-98.2971057657
 32
0.0
 13
1409.4738148372
 23
-100.8168727745
 33
0.0
  0
LINE
  5
492
100
AcDbEntity
  8
L1_120
  6
CONTINUOUS
 62
         4
100
AcDbLine
 10
1409.4738148372
 20
-100.8168727745
 30
0.0
 11
1410.2502665343
 21
-102.1002755803
 31
0.0
  0
TEXT
  5
494
100
AcDbEntity
  8
L1_120
  6
CONTINUOUS
 62
         4
100
AcDbText
 10
1412.3043657337
 20
-103.0765990213
 30
0.0
 40
2.7
  1
崷1.5
 50
301.1737094167
  7
BOX
100
AcDbText
  0
ENDBLK
  5
495
100
AcDbEntity
  8
0
  6
CONTINUOUS
100
AcDbBlockEnd
  0
BLOCK
  5
497
100
AcDbEntity
  8
0
100
AcDbBlockBegin
  2
*D25
 70
        65
 10
0.0
 20
0.0
 30
0.0
  3
*D25
  1

  0
POINT
  5
499
100
AcDbEntity
  8
DEFPOINTS
  6
CONTINUOUS
 62
         0
100
AcDbPoint
 10
1380.8900547236
 20
-104.2700292346
 30
0.0
  0
POINT
  5
49A
100
AcDbEntity
  8
DEFPOINTS
  6
CONTINUOUS
 62
         0
100
AcDbPoint
 10
1381.9340266479
 20
-105.3471191201
 30
0.0
  0
LINE
  5
49B
100
AcDbEntity
  8
L1_120
  6
CONTINUOUS
 62
         4
100
AcDbLine
 10
1381.9340266479
 20
-105.3471191201
 30
0.0
 11
1394.6026840938
 21
-118.4176648709
 31
0.0
  0
SOLID
  5
49C
100
AcDbEntity
  8
L1_120
  6
CONTINUOUS
 62
         4
100
AcDbTrace
 10
1381.9340266479
 20
-105.3471191201
 30
0.0
 11
1384.1039903805
 21
-107.0040084945
 31
0.0
 12
1383.5223618423
 22
-107.5677533336
 32
0.0
 13
1381.9340266479
 23
-105.3471191201
 33
0.0
  0
LINE
  5
49D
100
AcDbEntity
  8
L1_120
  6
CONTINUOUS
 62
         4
100
AcDbLine
 10
1380.8900547236
 20
-104.2700292346
 30
0.0
 11
1377.1317557965
 21
-100.3925056468
 31
0.0
  0
SOLID
  5
49E
100
AcDbEntity
  8
L1_120
  6
CONTINUOUS
 62
         4
100
AcDbTrace
 10
1380.8900547236
 20
-104.2700292346
 30
0.0
 11
1378.720090991
 21
-102.6131398602
 31
0.0
 12
1379.3017195291
 22
-102.0493950212
 32
0.0
 13
1380.8900547236
 23
-104.2700292346
 33
0.0
  0
LINE
  5
49F
100
AcDbEntity
  8
L1_120
  6
CONTINUOUS
 62
         4
100
AcDbLine
 10
1380.8900547236
 20
-104.2700292346
 30
0.0
 11
1381.9340266479
 21
-105.3471191201
 31
0.0
  0
TEXT
  5
4A1
100
AcDbEntity
  8
L1_120
  6
CONTINUOUS
 62
         4
100
AcDbText
 10
1384.8404121863
 20
-106.5240447959
 30
0.0
 40
2.7
  1
崷1.5
 50
314.1054644321
  7
BOX
100
AcDbText
  0
ENDBLK
  5
4A2
100
AcDbEntity
  8
0
  6
CONTINUOUS
100
AcDbBlockEnd
  0
BLOCK
  5
4A4
100
AcDbEntity
  8
0
100
AcDbBlockBegin
  2
*D26
 70
        65
 10
0.0
 20
0.0
 30
0.0
  3
*D26
  1

  0
POINT
  5
4A6
100
AcDbEntity
  8
DEFPOINTS
  6
CONTINUOUS
 62
         0
100
AcDbPoint
 10
1359.6418795472
 20
-93.075993584
 30
0.0
  0
POINT
  5
4A7
100
AcDbEntity
  8
DEFPOINTS
  6
CONTINUOUS
 62
         0
100
AcDbPoint
 10
1360.5822018243
 20
-94.8411547707
 30
0.0
  0
LINE
  5
4A8
100
AcDbEntity
  8
L1_120
  6
CONTINUOUS
 62
         4
100
AcDbLine
 10
1360.5822018243
 20
-94.8411547707
 30
0.0
 11
1366.3474996205
 21
-105.6636994952
 31
0.0
  0
SOLID
  5
4A9
100
AcDbEntity
  8
L1_120
  6
CONTINUOUS
 62
         4
100
AcDbTrace
 10
1360.5822018243
 20
-94.8411547707
 30
0.0
 11
1362.2090820388
 21
-97.0337071117
 31
0.0
 12
1361.4941917581
 22
-97.4145376339
 32
0.0
 13
1360.5822018243
 23
-94.8411547707
 33
0.0
  0
LINE
  5
4AA
100
AcDbEntity
  8
L1_120
  6
CONTINUOUS
 62
         4
100
AcDbLine
 10
1359.6418795472
 20
-93.075993584
 30
0.0
 11
1357.1030093989
 21
-88.3100583799
 31
0.0
  0
SOLID
  5
4AB
100
AcDbEntity
  8
L1_120
  6
CONTINUOUS
 62
         4
100
AcDbTrace
 10
1359.6418795472
 20
-93.075993584
 30
0.0
 11
1358.0149993327
 21
-90.8834412431
 31
0.0
 12
1358.7298896133
 22
-90.5026107208
 32
0.0
 13
1359.6418795472
 23
-93.075993584
 33
0.0
  0
LINE
  5
4AC
100
AcDbEntity
  8
L1_120
  6
CONTINUOUS
 62
         4
100
AcDbLine
 10
1359.6418795472
 20
-93.075993584
 30
0.0
 11
1360.5822018243
 21
-94.8411547707
 31
0.0
  0
TEXT
  5
4AE
100
AcDbEntity
  8
L1_120
  6
CONTINUOUS
 62
         4
100
AcDbText
 10
1362.6816390401
 20
-96.2343093876
 30
0.0
 40
2.7
  1
崷2
 50
298.0447568953
  7
BOX
100
AcDbText
  0
ENDBLK
  5
4AF
100
AcDbEntity
  8
0
  6
CONTINUOUS
100
AcDbBlockEnd
  0
BLOCK
  5
4B6
100
AcDbEntity
  8
0
100
AcDbBlockBegin
  2
*D27
 70
        65
 10
0.0
 20
0.0
 30
0.0
  3
*D27
  1

  0
POINT
  5
4B8
100
AcDbEntity
  8
DEFPOINTS
  6
CONTINUOUS
 62
         0
100
AcDbPoint
 10
1405.7570681296
 20
-100.7085741774
 30
0.0
  0
POINT
  5
4B9
100
AcDbEntity
  8
DEFPOINTS
  6
CONTINUOUS
 62
         0
100
AcDbPoint
 10
1409.8620406857
 20
-100.7085741774
 30
0.0
  0
POINT
  5
4BA
100
AcDbEntity
  8
DEFPOINTS
  6
CONTINUOUS
 62
         0
100
AcDbPoint
 10
1409.8620406857
 20
-128.2085741774
 30
0.0
  0
LINE
  5
4BB
100
AcDbEntity
  8
L1_120
  6
CONTINUOUS
 62
         4
100
AcDbLine
 10
1408.5120406858
 20
-100.7085741774
 30
0.0
 11
1405.0820681296
 21
-100.7085741774
 31
0.0
  0
LINE
  5
4BC
100
AcDbEntity
  8
L1_120
  6
CONTINUOUS
 62
         4
100
AcDbLine
 10
1408.5120406858
 20
-128.2085741774
 30
0.0
 11
1405.0820681296
 21
-128.2085741774
 31
0.0
  0
LINE
  5
4BD
100
AcDbEntity
  8
L1_120
  6
CONTINUOUS
 62
         4
100
AcDbLine
 10
1405.7570681296
 20
-100.7085741774
 30
0.0
 11
1405.7570681296
 21
-128.2085741774
 31
0.0
  0
SOLID
  5
4BE
100
AcDbEntity
  8
L1_120
  6
CONTINUOUS
 62
         4
100
AcDbTrace
 10
1405.7570681296
 20
-100.7085741774
 30
0.0
 11
1406.1620681296
 21
-103.4085741774
 31
0.0
 12
1405.3520681296
 22
-103.4085741774
 32
0.0
 13
1405.7570681296
 23
-100.7085741774
 33
0.0
  0
SOLID
  5
4BF
100
AcDbEntity
  8
L1_120
  6
CONTINUOUS
 62
         4
100
AcDbTrace
 10
1405.7570681296
 20
-128.2085741774
 30
0.0
 11
1405.3520681296
 21
-125.5085741774
 31
0.0
 12
1406.1620681296
 22
-125.5085741774
 32
0.0
 13
1405.7570681296
 23
-128.2085741774
 33
0.0
  0
TEXT
  5
4C1
100
AcDbEntity
  8
L1_120
  6
CONTINUOUS
 62
         4
100
AcDbText
 10
1403.7320681296
 20
-122.5585741774
 30
0.0
 40
2.7
  1
崷26.5
 50
90.0
  7
BOX
100
AcDbText
  0
ENDBLK
  5
4C2
100
AcDbEntity
  8
0
  6
CONTINUOUS
100
AcDbBlockEnd
  0
BLOCK
  5
4C8
100
AcDbEntity
  8
0
100
AcDbBlockBegin
  2
*D28
 70
        65
 10
0.0
 20
0.0
 30
0.0
  3
*D28
  1

  0
POINT
  5
4CA
100
AcDbEntity
  8
DEFPOINTS
  6
CONTINUOUS
 62
         0
100
AcDbPoint
 10
1377.4786943234
 20
-104.0585741774
 30
0.0
  0
POINT
  5
4CB
100
AcDbEntity
  8
DEFPOINTS
  6
CONTINUOUS
 62
         0
100
AcDbPoint
 10
1381.4120406857
 20
-104.0585741774
 30
0.0
  0
POINT
  5
4CC
100
AcDbEntity
  8
DEFPOINTS
  6
CONTINUOUS
 62
         0
100
AcDbPoint
 10
1381.4120406857
 20
-124.8585741774
 30
0.0
  0
LINE
  5
4CD
100
AcDbEntity
  8
L1_120
  6
CONTINUOUS
 62
         4
100
AcDbLine
 10
1380.0620406857
 20
-104.0585741774
 30
0.0
 11
1376.8036943234
 21
-104.0585741774
 31
0.0
  0
LINE
  5
4CE
100
AcDbEntity
  8
L1_120
  6
CONTINUOUS
 62
         4
100
AcDbLine
 10
1380.0620406857
 20
-124.8585741774
 30
0.0
 11
1376.8036943234
 21
-124.8585741774
 31
0.0
  0
LINE
  5
4CF
100
AcDbEntity
  8
L1_120
  6
CONTINUOUS
 62
         4
100
AcDbLine
 10
1377.4786943234
 20
-104.0585741774
 30
0.0
 11
1377.4786943234
 21
-124.8585741774
 31
0.0
  0
SOLID
  5
4D0
100
AcDbEntity
  8
L1_120
  6
CONTINUOUS
 62
         4
100
AcDbTrace
 10
1377.4786943234
 20
-104.0585741774
 30
0.0
 11
1377.8836943234
 21
-106.7585741774
 31
0.0
 12
1377.0736943234
 22
-106.7585741774
 32
0.0
 13
1377.4786943234
 23
-104.0585741774
 33
0.0
  0
SOLID
  5
4D1
100
AcDbEntity
  8
L1_120
  6
CONTINUOUS
 62
         4
100
AcDbTrace
 10
1377.4786943234
 20
-124.8585741774
 30
0.0
 11
1377.0736943234
 21
-122.1585741774
 31
0.0
 12
1377.8836943234
 22
-122.1585741774
 32
0.0
 13
1377.4786943234
 23
-124.8585741774
 33
0.0
  0
TEXT
  5
4D3
100
AcDbEntity
  8
L1_120
  6
CONTINUOUS
 62
         4
100
AcDbText
 10
1375.4536943234
 20
-119.8585741774
 30
0.0
 40
2.7
  1
崷21
 50
90.0
  7
BOX
100
AcDbText
  0
ENDBLK
  5
4D4
100
AcDbEntity
  8
0
  6
CONTINUOUS
100
AcDbBlockEnd
  0
BLOCK
  5
4D6
100
AcDbEntity
  8
0
100
AcDbBlockBegin
  2
*D29
 70
        65
 10
0.0
 20
0.0
 30
0.0
  3
*D29
  1

  0
POINT
  5
4D8
100
AcDbEntity
  8
DEFPOINTS
  6
CONTINUOUS
 62
         0
100
AcDbPoint
 10
1224.6416261611
 20
-107.9585741774
 30
0.0
  0
POINT
  5
4D9
100
AcDbEntity
  8
DEFPOINTS
  6
CONTINUOUS
 62
         0
100
AcDbPoint
 10
1217.1073963584
 20
-107.9585741774
 30
0.0
  0
POINT
  5
4DA
100
AcDbEntity
  8
DEFPOINTS
  6
CONTINUOUS
 62
         0
100
AcDbPoint
 10
1217.1073963584
 20
-120.9585741774
 30
0.0
  0
LINE
  5
4DB
100
AcDbEntity
  8
L1_120
  6
CONTINUOUS
 62
         4
100
AcDbLine
 10
1218.4573963584
 20
-107.9585741774
 30
0.0
 11
1225.3166261611
 21
-107.9585741774
 31
0.0
  0
LINE
  5
4DC
100
AcDbEntity
  8
L1_120
  6
CONTINUOUS
 62
         4
100
AcDbLine
 10
1218.4573963584
 20
-120.9585741774
 30
0.0
 11
1225.3166261611
 21
-120.9585741774
 31
0.0
  0
LINE
  5
4DD
100
AcDbEntity
  8
L1_120
  6
CONTINUOUS
 62
         4
100
AcDbLine
 10
1224.6416261611
 20
-107.9585741774
 30
0.0
 11
1224.6416261611
 21
-120.9585741774
 31
0.0
  0
SOLID
  5
4DE
100
AcDbEntity
  8
L1_120
  6
CONTINUOUS
 62
         4
100
AcDbTrace
 10
1224.6416261611
 20
-107.9585741774
 30
0.0
 11
1225.0466261611
 21
-110.6585741774
 31
0.0
 12
1224.2366261611
 22
-110.6585741774
 32
0.0
 13
1224.6416261611
 23
-107.9585741774
 33
0.0
  0
SOLID
  5
4DF
100
AcDbEntity
  8
L1_120
  6
CONTINUOUS
 62
         4
100
AcDbTrace
 10
1224.6416261611
 20
-120.9585741774
 30
0.0
 11
1224.2366261611
 21
-118.2585741774
 31
0.0
 12
1225.0466261611
 22
-118.2585741774
 32
0.0
 13
1224.6416261611
 23
-120.9585741774
 33
0.0
  0
TEXT
  5
4E1
100
AcDbEntity
  8
L1_120
  6
CONTINUOUS
 62
         4
100
AcDbText
 10
1222.6166261611
 20
-120.0391565827
 30
0.0
 40
2.7
  1
崷13
 50
90.0
  7
BOX
100
AcDbText
  0
ENDBLK
  5
4E2
100
AcDbEntity
  8
0
  6
CONTINUOUS
100
AcDbBlockEnd
  0
BLOCK
  5
4E4
100
AcDbEntity
  8
0
100
AcDbBlockBegin
  2
*D30
 70
        65
 10
0.0
 20
0.0
 30
0.0
  3
*D30
  1

  0
POINT
  5
4E6
100
AcDbEntity
  8
DEFPOINTS
  6
CONTINUOUS
 62
         0
100
AcDbPoint
 10
1230.7068025667
 20
-106.1355210521
 30
0.0
  0
POINT
  5
4E7
100
AcDbEntity
  8
DEFPOINTS
  6
CONTINUOUS
 62
         0
100
AcDbPoint
 10
1230.7068025667
 20
-114.4585741774
 30
0.0
  0
POINT
  5
4E8
100
AcDbEntity
  8
DEFPOINTS
  6
CONTINUOUS
 62
         0
100
AcDbPoint
 10
1235.3256047203
 20
-114.4585741774
 30
0.0
  0
LINE
  5
4E9
100
AcDbEntity
  8
L1_120
  6
CONTINUOUS
 62
         4
100
AcDbLine
 10
1230.7068025667
 20
-113.1085741774
 30
0.0
 11
1230.7068025667
 21
-105.4605210521
 31
0.0
  0
LINE
  5
4EA
100
AcDbEntity
  8
L1_120
  6
CONTINUOUS
 62
         4
100
AcDbLine
 10
1235.3256047203
 20
-113.1085741774
 30
0.0
 11
1235.3256047203
 21
-105.4605210521
 31
0.0
  0
LINE
  5
4EB
100
AcDbEntity
  8
L1_120
  6
CONTINUOUS
 62
         4
100
AcDbLine
 10
1230.7068025667
 20
-106.1355210521
 30
0.0
 11
1235.3256047203
 21
-106.1355210521
 31
0.0
  0
SOLID
  5
4EC
100
AcDbEntity
  8
L1_120
  6
CONTINUOUS
 62
         4
100
AcDbTrace
 10
1230.7068025667
 20
-106.1355210521
 30
0.0
 11
1233.4068025667
 21
-105.7305210521
 31
0.0
 12
1233.4068025667
 22
-106.5405210521
 32
0.0
 13
1230.7068025667
 23
-106.1355210521
 33
0.0
  0
SOLID
  5
4ED
100
AcDbEntity
  8
L1_120
  6
CONTINUOUS
 62
         4
100
AcDbTrace
 10
1235.3256047203
 20
-106.1355210521
 30
0.0
 11
1232.6256047203
 21
-106.5405210521
 31
0.0
 12
1232.6256047203
 22
-105.7305210521
 32
0.0
 13
1235.3256047203
 23
-106.1355210521
 33
0.0
  0
TEXT
  5
4EF
100
AcDbEntity
  8
L1_120
  6
CONTINUOUS
 62
         4
100
AcDbText
 10
1220.8662036435
 20
-104.1105210521
 30
0.0
 40
2.7
  1
4.53~4.44
  7
BOX
100
AcDbText
  0
ENDBLK
  5
4F0
100
AcDbEntity
  8
0
  6
CONTINUOUS
100
AcDbBlockEnd
  0
BLOCK
  5
4F8
100
AcDbEntity
  8
0
100
AcDbBlockBegin
  2
*D31
 70
        65
 10
0.0
 20
0.0
 30
0.0
  3
*D31
  1

  0
POINT
  5
4FA
100
AcDbEntity
  8
DEFPOINTS
  6
CONTINUOUS
 62
         0
100
AcDbPoint
 10
1241.8604421638
 20
-112.4585741774
 30
0.0
  0
POINT
  5
4FB
100
AcDbEntity
  8
DEFPOINTS
  6
CONTINUOUS
 62
         0
100
AcDbPoint
 10
1234.1709041819
 20
-112.4585741774
 30
0.0
  0
POINT
  5
4FC
100
AcDbEntity
  8
DEFPOINTS
  6
CONTINUOUS
 62
         0
100
AcDbPoint
 10
1234.1709041819
 20
-116.4585741774
 30
0.0
  0
LINE
  5
4FD
100
AcDbEntity
  8
L1_120
  6
CONTINUOUS
 62
         4
100
AcDbLine
 10
1235.5209041819
 20
-112.4585741774
 30
0.0
 11
1242.5354421638
 21
-112.4585741774
 31
0.0
  0
LINE
  5
4FE
100
AcDbEntity
  8
L1_120
  6
CONTINUOUS
 62
         4
100
AcDbLine
 10
1235.5209041819
 20
-116.4585741774
 30
0.0
 11
1242.5354421638
 21
-116.4585741774
 31
0.0
  0
LINE
  5
4FF
100
AcDbEntity
  8
L1_120
  6
CONTINUOUS
 62
         4
100
AcDbLine
 10
1241.8604421638
 20
-112.4585741774
 30
0.0
 11
1241.8604421638
 21
-116.4585741774
 31
0.0
  0
SOLID
  5
500
100
AcDbEntity
  8
L1_120
  6
CONTINUOUS
 62
         4
100
AcDbTrace
 10
1241.8604421638
 20
-112.4585741774
 30
0.0
 11
1242.2654421638
 21
-115.1585741774
 31
0.0
 12
1241.4554421638
 22
-115.1585741774
 32
0.0
 13
1241.8604421638
 23
-112.4585741774
 33
0.0
  0
SOLID
  5
501
100
AcDbEntity
  8
L1_120
  6
CONTINUOUS
 62
         4
100
AcDbTrace
 10
1241.8604421638
 20
-116.4585741774
 30
0.0
 11
1241.4554421638
 21
-113.7585741774
 31
0.0
 12
1242.2654421638
 22
-113.7585741774
 32
0.0
 13
1241.8604421638
 23
-116.4585741774
 33
0.0
  0
TEXT
  5
503
100
AcDbEntity
  8
L1_120
  6
CONTINUOUS
 62
         4
100
AcDbText
 10
1239.8354421638
 20
-115.8085741774
 30
0.0
 40
2.7
  1
4
 50
90.0
  7
BOX
100
AcDbText
  0
ENDBLK
  5
504
100
AcDbEntity
  8
0
  6
CONTINUOUS
100
AcDbBlockEnd
  0
BLOCK
  5
506
100
AcDbEntity
  8
0
100
AcDbBlockBegin
  2
*D32
 70
        65
 10
0.0
 20
0.0
 30
0.0
  3
*D32
  1

  0
POINT
  5
508
100
AcDbEntity
  8
DEFPOINTS
  6
CONTINUOUS
 62
         0
100
AcDbPoint
 10
1177.1073963584
 20
-105.058967514
 30
0.0
  0
POINT
  5
509
100
AcDbEntity
  8
DEFPOINTS
  6
CONTINUOUS
 62
         0
100
AcDbPoint
 10
1177.1073963584
 20
-111.4585741774
 30
0.0
  0
POINT
  5
50A
100
AcDbEntity
  8
DEFPOINTS
  6
CONTINUOUS
 62
         0
100
AcDbPoint
 10
1212.1073963584
 20
-108.4585741774
 30
0.0
  0
LINE
  5
50B
100
AcDbEntity
  8
L1_120
  6
CONTINUOUS
 62
         4
100
AcDbLine
 10
1177.1073963584
 20
-110.1085741774
 30
0.0
 11
1177.1073963584
 21
-104.383967514
 31
0.0
  0
LINE
  5
50C
100
AcDbEntity
  8
L1_120
  6
CONTINUOUS
 62
         4
100
AcDbLine
 10
1212.1073963584
 20
-107.1085741774
 30
0.0
 11
1212.1073963584
 21
-104.383967514
 31
0.0
  0
LINE
  5
50D
100
AcDbEntity
  8
L1_120
  6
CONTINUOUS
 62
         4
100
AcDbLine
 10
1177.1073963584
 20
-105.058967514
 30
0.0
 11
1212.1073963584
 21
-105.058967514
 31
0.0
  0
SOLID
  5
50E
100
AcDbEntity
  8
L1_120
  6
CONTINUOUS
 62
         4
100
AcDbTrace
 10
1177.1073963584
 20
-105.058967514
 30
0.0
 11
1179.8073963584
 21
-104.653967514
 31
0.0
 12
1179.8073963584
 22
-105.463967514
 32
0.0
 13
1177.1073963584
 23
-105.058967514
 33
0.0
  0
SOLID
  5
50F
100
AcDbEntity
  8
L1_120
  6
CONTINUOUS
 62
         4
100
AcDbTrace
 10
1212.1073963584
 20
-105.058967514
 30
0.0
 11
1209.4073963584
 21
-105.463967514
 31
0.0
 12
1209.4073963584
 22
-104.653967514
 32
0.0
 13
1212.1073963584
 23
-105.058967514
 33
0.0
  0
TEXT
  5
511
100
AcDbEntity
  8
L1_120
  6
CONTINUOUS
 62
         4
100
AcDbText
 10
1190.7155016395
 20
-103.033967514
 30
0.0
 40
2.7
  1
35
  7
BOX
100
AcDbText
  0
ENDBLK
  5
512
100
AcDbEntity
  8
0
  6
CONTINUOUS
100
AcDbBlockEnd
  0
BLOCK
  5
514
100
AcDbEntity
  8
0
100
AcDbBlockBegin
  2
*D33
 70
        65
 10
0.0
 20
0.0
 30
0.0
  3
*D33
  1

  0
POINT
  5
516
100
AcDbEntity
  8
DEFPOINTS
  6
CONTINUOUS
 62
         0
100
AcDbPoint
 10
1288.2574197556
 20
-115.7509757016
 30
0.0
  0
POINT
  5
517
100
AcDbEntity
  8
DEFPOINTS
  6
CONTINUOUS
 62
         0
100
AcDbPoint
 10
1297.4249940368
 20
-113.1661726531
 30
0.0
  0
LINE
  5
518
100
AcDbEntity
  8
L1_120
  6
CONTINUOUS
 62
         4
100
AcDbLine
 10
1297.4249940368
 20
-113.1661726531
 30
0.0
 11
1292.8412068962
 21
-114.4585741774
 31
0.0
  0
SOLID
  5
519
100
AcDbEntity
  8
L1_120
  6
CONTINUOUS
 62
         4
100
AcDbTrace
 10
1297.4249940368
 20
-113.1661726531
 30
0.0
 11
1294.9362165749
 21
-114.2886751009
 31
0.0
 12
1294.7164065519
 22
-113.5090703589
 32
0.0
 13
1297.4249940368
 23
-113.1661726531
 33
0.0
  0
LINE
  5
51A
100
AcDbEntity
  8
L1_120
  6
CONTINUOUS
 62
         4
100
AcDbLine
 10
1292.8412068962
 20
-114.4585741774
 30
0.0
 11
1288.2574197556
 21
-115.7509757016
 31
0.0
  0
SOLID
  5
51B
100
AcDbEntity
  8
L1_120
  6
CONTINUOUS
 62
         4
100
AcDbTrace
 10
1288.2574197556
 20
-115.7509757016
 30
0.0
 11
1290.7461972175
 21
-114.6284732539
 31
0.0
 12
1290.9660072405
 22
-115.4080779959
 32
0.0
 13
1288.2574197556
 23
-115.7509757016
 33
0.0
  0
LINE
  5
51C
100
AcDbEntity
  8
L1_120
  6
CONTINUOUS
 62
         4
100
AcDbLine
 10
1297.4249940368
 20
-113.1661726531
 30
0.0
 11
1315.3316859059
 21
-108.117370177
 31
0.0
  0
TEXT
  5
51E
100
AcDbEntity
  8
L1_120
  6
CONTINUOUS
 62
         4
100
AcDbText
 10
1298.2628394962
 20
-111.5756957903
 30
0.0
 40
2.7
  1
崷9.53
 50
15.7458298425
  7
BOX
100
AcDbText
  0
ENDBLK
  5
51F
100
AcDbEntity
  8
0
  6
CONTINUOUS
100
AcDbBlockEnd
  0
BLOCK
  5
525
100
AcDbEntity
  8
0
100
AcDbBlockBegin
  2
*D34
 70
        65
 10
0.0
 20
0.0
 30
0.0
  3
*D34
  1

  0
POINT
  5
527
100
AcDbEntity
  8
DEFPOINTS
  6
CONTINUOUS
 62
         0
100
AcDbPoint
 10
1324.1026958273
 20
-104.2085741774
 30
0.0
  0
POINT
  5
528
100
AcDbEntity
  8
DEFPOINTS
  6
CONTINUOUS
 62
         0
100
AcDbPoint
 10
1331.1771479203
 20
-104.2085741774
 30
0.0
  0
POINT
  5
529
100
AcDbEntity
  8
DEFPOINTS
  6
CONTINUOUS
 62
         0
100
AcDbPoint
 10
1331.1771479203
 20
-124.7085741774
 30
0.0
  0
LINE
  5
52A
100
AcDbEntity
  8
L1_120
  6
CONTINUOUS
 62
         4
100
AcDbLine
 10
1329.8271479203
 20
-104.2085741774
 30
0.0
 11
1323.4276958273
 21
-104.2085741774
 31
0.0
  0
LINE
  5
52B
100
AcDbEntity
  8
L1_120
  6
CONTINUOUS
 62
         4
100
AcDbLine
 10
1329.8271479203
 20
-124.7085741774
 30
0.0
 11
1323.4276958273
 21
-124.7085741774
 31
0.0
  0
LINE
  5
52C
100
AcDbEntity
  8
L1_120
  6
CONTINUOUS
 62
         4
100
AcDbLine
 10
1324.1026958273
 20
-104.2085741774
 30
0.0
 11
1324.1026958273
 21
-124.7085741774
 31
0.0
  0
SOLID
  5
52D
100
AcDbEntity
  8
L1_120
  6
CONTINUOUS
 62
         4
100
AcDbTrace
 10
1324.1026958273
 20
-104.2085741774
 30
0.0
 11
1324.5076958273
 21
-106.9085741774
 31
0.0
 12
1323.6976958273
 22
-106.9085741774
 32
0.0
 13
1324.1026958273
 23
-104.2085741774
 33
0.0
  0
SOLID
  5
52E
100
AcDbEntity
  8
L1_120
  6
CONTINUOUS
 62
         4
100
AcDbTrace
 10
1324.1026958273
 20
-124.7085741774
 30
0.0
 11
1323.6976958273
 21
-122.0085741774
 31
0.0
 12
1324.5076958273
 22
-122.0085741774
 32
0.0
 13
1324.1026958273
 23
-124.7085741774
 33
0.0
  0
TEXT
  5
530
100
AcDbEntity
  8
L1_120
  6
CONTINUOUS
 62
         4
100
AcDbText
 10
1322.0776958273
 20
-122.5585741774
 30
0.0
 40
2.7
  1
崷20.5
 50
90.0
  7
BOX
100
AcDbText
  0
ENDBLK
  5
531
100
AcDbEntity
  8
0
  6
CONTINUOUS
100
AcDbBlockEnd
  0
BLOCK
  5
535
100
AcDbEntity
  8
0
100
AcDbBlockBegin
  2
*D35
 70
        65
 10
0.0
 20
0.0
 30
0.0
  3
*D35
  1

  0
POINT
  5
537
100
AcDbEntity
  8
DEFPOINTS
  6
CONTINUOUS
 62
         0
100
AcDbPoint
 10
1350.8445096449
 20
-92.9585741774
 30
0.0
  0
POINT
  5
538
100
AcDbEntity
  8
DEFPOINTS
  6
CONTINUOUS
 62
         0
100
AcDbPoint
 10
1360.1120406857
 20
-92.9585741774
 30
0.0
  0
POINT
  5
539
100
AcDbEntity
  8
DEFPOINTS
  6
CONTINUOUS
 62
         0
100
AcDbPoint
 10
1360.1120406857
 20
-135.9585741774
 30
0.0
  0
LINE
  5
53A
100
AcDbEntity
  8
L1_120
  6
CONTINUOUS
 62
         4
100
AcDbLine
 10
1358.7620406857
 20
-92.9585741774
 30
0.0
 11
1350.1695096449
 21
-92.9585741774
 31
0.0
  0
LINE
  5
53B
100
AcDbEntity
  8
L1_120
  6
CONTINUOUS
 62
         4
100
AcDbLine
 10
1358.7620406857
 20
-135.9585741774
 30
0.0
 11
1350.1695096449
 21
-135.9585741774
 31
0.0
  0
LINE
  5
53C
100
AcDbEntity
  8
L1_120
  6
CONTINUOUS
 62
         4
100
AcDbLine
 10
1350.8445096449
 20
-92.9585741774
 30
0.0
 11
1350.8445096449
 21
-135.9585741774
 31
0.0
  0
SOLID
  5
53D
100
AcDbEntity
  8
L1_120
  6
CONTINUOUS
 62
         4
100
AcDbTrace
 10
1350.8445096449
 20
-92.9585741774
 30
0.0
 11
1351.2495096449
 21
-95.6585741774
 31
0.0
 12
1350.4395096449
 22
-95.6585741774
 32
0.0
 13
1350.8445096449
 23
-92.9585741774
 33
0.0
  0
SOLID
  5
53E
100
AcDbEntity
  8
L1_120
  6
CONTINUOUS
 62
         4
100
AcDbTrace
 10
1350.8445096449
 20
-135.9585741774
 30
0.0
 11
1350.4395096449
 21
-133.2585741774
 31
0.0
 12
1351.2495096449
 22
-133.2585741774
 32
0.0
 13
1350.8445096449
 23
-135.9585741774
 33
0.0
  0
TEXT
  5
540
100
AcDbEntity
  8
L1_120
  6
CONTINUOUS
 62
         4
100
AcDbText
 10
1348.8195096449
 20
-119.8585741774
 30
0.0
 40
2.7
  1
崷42
 50
90.0
  7
BOX
100
AcDbText
  0
ENDBLK
  5
541
100
AcDbEntity
  8
0
  6
CONTINUOUS
100
AcDbBlockEnd
  0
BLOCK
  5
54B
100
AcDbEntity
  8
0
100
AcDbBlockBegin
  2
*D36
 70
        65
 10
0.0
 20
0.0
 30
0.0
  3
*D36
  1

  0
POINT
  5
54D
100
AcDbEntity
  8
DEFPOINTS
  6
CONTINUOUS
 62
         0
100
AcDbPoint
 10
1190.1132247584
 20
-110.4830741774
 30
0.0
  0
POINT
  5
54E
100
AcDbEntity
  8
DEFPOINTS
  6
CONTINUOUS
 62
         0
100
AcDbPoint
 10
1178.0828963584
 20
-110.4830741774
 30
0.0
  0
POINT
  5
54F
100
AcDbEntity
  8
DEFPOINTS
  6
CONTINUOUS
 62
         0
100
AcDbPoint
 10
1178.0828963584
 20
-118.4340741774
 30
0.0
  0
LINE
  5
550
100
AcDbEntity
  8
L1_120
  6
CONTINUOUS
 62
         4
100
AcDbLine
 10
1179.4328963584
 20
-110.4830741774
 30
0.0
 11
1190.7882247584
 21
-110.4830741774
 31
0.0
  0
LINE
  5
551
100
AcDbEntity
  8
L1_120
  6
CONTINUOUS
 62
         4
100
AcDbLine
 10
1179.4328963584
 20
-118.4340741774
 30
0.0
 11
1190.7882247584
 21
-118.4340741774
 31
0.0
  0
LINE
  5
552
100
AcDbEntity
  8
L1_120
  6
CONTINUOUS
 62
         4
100
AcDbLine
 10
1190.1132247584
 20
-110.4830741774
 30
0.0
 11
1190.1132247584
 21
-118.4340741774
 31
0.0
  0
SOLID
  5
553
100
AcDbEntity
  8
L1_120
  6
CONTINUOUS
 62
         4
100
AcDbTrace
 10
1190.1132247584
 20
-110.4830741774
 30
0.0
 11
1190.5182247584
 21
-113.1830741774
 31
0.0
 12
1189.7082247584
 22
-113.1830741774
 32
0.0
 13
1190.1132247584
 23
-110.4830741774
 33
0.0
  0
SOLID
  5
554
100
AcDbEntity
  8
L1_120
  6
CONTINUOUS
 62
         4
100
AcDbTrace
 10
1190.1132247584
 20
-118.4340741774
 30
0.0
 11
1189.7082247584
 21
-115.7340741774
 31
0.0
 12
1190.5182247584
 22
-115.7340741774
 32
0.0
 13
1190.1132247584
 23
-118.4340741774
 33
0.0
  0
TEXT
  5
556
100
AcDbEntity
  8
L1_120
  6
CONTINUOUS
 62
         4
100
AcDbText
 10
1188.0882247584
 20
-123.9085741774
 30
0.0
 40
2.7
  1
崷7.951
 50
90.0
  7
BOX
100
AcDbText
  0
ENDBLK
  5
557
100
AcDbEntity
  8
0
  6
CONTINUOUS
100
AcDbBlockEnd
  0
BLOCK
  5
559
100
AcDbEntity
  8
0
100
AcDbBlockBegin
  2
*D37
 70
        65
 10
0.0
 20
0.0
 30
0.0
  3
*D37
  1

  0
POINT
  5
55B
100
AcDbEntity
  8
DEFPOINTS
  6
CONTINUOUS
 62
         0
100
AcDbPoint
 10
1165.8573963584
 20
-125.1715540866
 30
0.0
  0
POINT
  5
55C
100
AcDbEntity
  8
DEFPOINTS
  6
CONTINUOUS
 62
         0
100
AcDbPoint
 10
1165.8573963584
 20
-116.9585741774
 30
0.0
  0
POINT
  5
55D
100
AcDbEntity
  8
DEFPOINTS
  6
CONTINUOUS
 62
         0
100
AcDbPoint
 10
1177.1073963584
 20
-117.4585741774
 30
0.0
  0
LINE
  5
55E
100
AcDbEntity
  8
L1_120
  6
CONTINUOUS
 62
         4
100
AcDbLine
 10
1165.8573963584
 20
-118.3085741774
 30
0.0
 11
1165.8573963584
 21
-125.8465540866
 31
0.0
  0
LINE
  5
55F
100
AcDbEntity
  8
L1_120
  6
CONTINUOUS
 62
         4
100
AcDbLine
 10
1177.1073963584
 20
-118.8085741774
 30
0.0
 11
1177.1073963584
 21
-125.8465540866
 31
0.0
  0
LINE
  5
560
100
AcDbEntity
  8
L1_120
  6
CONTINUOUS
 62
         4
100
AcDbLine
 10
1165.8573963584
 20
-125.1715540866
 30
0.0
 11
1177.1073963584
 21
-125.1715540866
 31
0.0
  0
SOLID
  5
561
100
AcDbEntity
  8
L1_120
  6
CONTINUOUS
 62
         4
100
AcDbTrace
 10
1165.8573963584
 20
-125.1715540866
 30
0.0
 11
1168.5573963584
 21
-124.7665540866
 31
0.0
 12
1168.5573963584
 22
-125.5765540866
 32
0.0
 13
1165.8573963584
 23
-125.1715540866
 33
0.0
  0
SOLID
  5
562
100
AcDbEntity
  8
L1_120
  6
CONTINUOUS
 62
         4
100
AcDbTrace
 10
1177.1073963584
 20
-125.1715540866
 30
0.0
 11
1174.4073963584
 21
-125.5765540866
 31
0.0
 12
1174.4073963584
 22
-124.7665540866
 32
0.0
 13
1177.1073963584
 23
-125.1715540866
 33
0.0
  0
TEXT
  5
564
100
AcDbEntity
  8
L1_120
  6
CONTINUOUS
 62
         4
100
AcDbText
 10
1164.7323963584
 20
-123.1465540866
 30
0.0
 40
2.7
  1
11.25
  7
BOX
100
AcDbText
  0
ENDBLK
  5
565
100
AcDbEntity
  8
0
  6
CONTINUOUS
100
AcDbBlockEnd
  0
BLOCK
  5
5DA
100
AcDbEntity
  8
0
100
AcDbBlockBegin
  2
*X38
 70
        65
 10
0.0
 20
0.0
 30
0.0
  3
*X38
  1

  0
LINE
  5
5DB
100
AcDbEntity
  8
L1_120
  6
CONTINUOUS
 62
         4
100
AcDbLine
 10
1514.3978803392
 20
-31.350632283
 30
0.0
 11
1515.1033403763
 21
-30.6451722459
 31
0.0
  0
LINE
  5
5DC
100
AcDbEntity
  8
L1_120
  6
CONTINUOUS
 62
         4
100
AcDbLine
 10
1508.0625371944
 20
-33.4433347407
 30
0.0
 11
1511.5625371944
 21
-29.9433347407
 31
0.0
  0
LINE
  5
5DD
100
AcDbEntity
  8
L1_120
  6
CONTINUOUS
 62
         4
100
AcDbLine
 10
1503.8198965073
 20
-33.4433347407
 30
0.0
 11
1507.3198965073
 21
-29.9433347407
 31
0.0
  0
LINE
  5
5DE
100
AcDbEntity
  8
L1_120
  6
CONTINUOUS
 62
         4
100
AcDbLine
 10
1499.5772558201
 20
-33.4433347407
 30
0.0
 11
1503.0772558201
 21
-29.9433347407
 31
0.0
  0
LINE
  5
5DF
100
AcDbEntity
  8
L1_120
  6
CONTINUOUS
 62
         4
100
AcDbLine
 10
1496.1033403763
 20
-32.6746094975
 30
0.0
 11
1498.834615133
 21
-29.9433347407
 31
0.0
  0
LINE
  5
5E0
100
AcDbEntity
  8
L1_120
  6
CONTINUOUS
 62
         4
100
AcDbLine
 10
1491.0919744459
 20
-33.4433347407
 30
0.0
 11
1494.0919744459
 21
-30.4433347407
 31
0.0
  0
LINE
  5
5E1
100
AcDbEntity
  8
L1_120
  6
CONTINUOUS
 62
         4
100
AcDbLine
 10
1486.8493337588
 20
-33.4433347407
 30
0.0
 11
1490.1033403763
 21
-30.1893281232
 31
0.0
  0
LINE
  5
5E2
100
AcDbEntity
  8
L1_120
  6
CONTINUOUS
 62
         4
100
AcDbLine
 10
1482.6066930717
 20
-33.4433347407
 30
0.0
 11
1487.1066930717
 21
-28.9433347407
 31
0.0
  0
LINE
  5
5E3
100
AcDbEntity
  8
L1_120
  6
CONTINUOUS
 62
         4
100
AcDbLine
 10
1478.3640523846
 20
-33.4433347407
 30
0.0
 11
1482.8640523846
 21
-28.9433347407
 31
0.0
  0
LINE
  5
5E4
100
AcDbEntity
  8
L1_120
  6
CONTINUOUS
 62
         4
100
AcDbLine
 10
1474.1214116974
 20
-33.4433347407
 30
0.0
 11
1478.6214116974
 21
-28.9433347407
 31
0.0
  0
LINE
  5
5E5
100
AcDbEntity
  8
L1_120
  6
CONTINUOUS
 62
         4
100
AcDbLine
 10
1511.6214116974
 20
4.0566652593
 30
0.0
 11
1513.5298606443
 21
5.9651142062
 31
0.0
  0
LINE
  5
5E6
100
AcDbEntity
  8
L1_120
  6
CONTINUOUS
 62
         4
100
AcDbLine
 10
1469.8787710103
 20
-33.4433347407
 30
0.0
 11
1474.3787710103
 21
-28.9433347407
 31
0.0
  0
LINE
  5
5E7
100
AcDbEntity
  8
L1_120
  6
CONTINUOUS
 62
         4
100
AcDbLine
 10
1507.3787710103
 20
4.0566652593
 30
0.0
 11
1510.7984419497
 21
7.4763361987
 31
0.0
  0
LINE
  5
5E8
100
AcDbEntity
  8
L1_120
  6
CONTINUOUS
 62
         4
100
AcDbLine
 10
1465.6361303232
 20
-33.4433347407
 30
0.0
 11
1470.1361303232
 21
-28.9433347407
 31
0.0
  0
LINE
  5
5E9
100
AcDbEntity
  8
L1_120
  6
CONTINUOUS
 62
         4
100
AcDbLine
 10
1503.1361303232
 20
4.0566652593
 30
0.0
 11
1506.6361303232
 21
7.5566652593
 31
0.0
  0
LINE
  5
5EA
100
AcDbEntity
  8
L1_120
  6
CONTINUOUS
 62
         4
100
AcDbLine
 10
1459.3934896361
 20
-35.4433347407
 30
0.0
 11
1465.8934896361
 21
-28.9433347407
 31
0.0
  0
LINE
  5
5EB
100
AcDbEntity
  8
L1_120
  6
CONTINUOUS
 62
         4
100
AcDbLine
 10
1498.8934896361
 20
4.0566652593
 30
0.0
 11
1502.3934896361
 21
7.5566652593
 31
0.0
  0
LINE
  5
5EC
100
AcDbEntity
  8
L1_120
  6
CONTINUOUS
 62
         4
100
AcDbLine
 10
1455.150848949
 20
-35.4433347407
 30
0.0
 11
1461.650848949
 21
-28.9433347407
 31
0.0
  0
LINE
  5
5ED
100
AcDbEntity
  8
L1_120
  6
CONTINUOUS
 62
         4
100
AcDbLine
 10
1495.1033403763
 20
4.5091566866
 30
0.0
 11
1498.150848949
 21
7.5566652593
 31
0.0
  0
LINE
  5
5EE
100
AcDbEntity
  8
L1_120
  6
CONTINUOUS
 62
         4
100
AcDbLine
 10
1452.6033403763
 20
-33.7482026263
 30
0.0
 11
1457.4082082618
 21
-28.9433347407
 31
0.0
  0
LINE
  5
5EF
100
AcDbEntity
  8
L1_120
  6
CONTINUOUS
 62
         4
100
AcDbLine
 10
1490.9082082618
 20
4.5566652593
 30
0.0
 11
1493.9082082618
 21
7.5566652593
 31
0.0
  0
LINE
  5
5F0
100
AcDbEntity
  8
L1_120
  6
CONTINUOUS
 62
         4
100
AcDbLine
 10
1446.6655675747
 20
-35.4433347407
 30
0.0
 11
1450.6033403763
 21
-31.5055619391
 31
0.0
  0
LINE
  5
5F1
100
AcDbEntity
  8
L1_120
  6
CONTINUOUS
 62
         4
100
AcDbLine
 10
1452.6033403763
 20
-29.5055619391
 30
0.0
 11
1452.6655675747
 21
-29.4433347407
 31
0.0
  0
LINE
  5
5F2
100
AcDbEntity
  8
L1_120
  6
CONTINUOUS
 62
         4
100
AcDbLine
 10
1442.4229268876
 20
-35.4433347407
 30
0.0
 11
1449.1033403763
 21
-28.762921252
 31
0.0
  0
LINE
  5
5F3
100
AcDbEntity
  8
L1_120
  6
CONTINUOUS
 62
         4
100
AcDbLine
 10
1438.1802862005
 20
-35.4433347407
 30
0.0
 11
1449.1033403763
 21
-24.5202805649
 31
0.0
  0
LINE
  5
5F4
100
AcDbEntity
  8
L1_120
  6
CONTINUOUS
 62
         4
100
AcDbLine
 10
1433.9376455134
 20
-35.4433347407
 30
0.0
 11
1449.1033403763
 21
-20.2776398778
 31
0.0
  0
LINE
  5
5F5
100
AcDbEntity
  8
L1_120
  6
CONTINUOUS
 62
         4
100
AcDbLine
 10
1429.6950048262
 20
-35.4433347407
 30
0.0
 11
1449.1033403763
 21
-16.0349991907
 31
0.0
  0
LINE
  5
5F6
100
AcDbEntity
  8
L1_120
  6
CONTINUOUS
 62
         4
100
AcDbLine
 10
1425.4523641391
 20
-35.4433347407
 30
0.0
 11
1445.4523641391
 21
-15.4433347407
 31
0.0
  0
LINE
  5
5F7
100
AcDbEntity
  8
L1_120
  6
CONTINUOUS
 62
         4
100
AcDbLine
 10
1463.9523641391
 20
3.0566652593
 30
0.0
 11
1465.7083403763
 21
4.8126414965
 31
0.0
  0
LINE
  5
5F8
100
AcDbEntity
  8
L1_120
  6
CONTINUOUS
 62
         4
100
AcDbLine
 10
1421.209723452
 20
-35.4433347407
 30
0.0
 11
1441.209723452
 21
-15.4433347407
 31
0.0
  0
LINE
  5
5F9
100
AcDbEntity
  8
L1_120
  6
CONTINUOUS
 62
         4
100
AcDbLine
 10
1446.209723452
 20
-10.4433347407
 30
0.0
 11
1449.1033403763
 21
-7.5497178164
 31
0.0
  0
LINE
  5
5FA
100
AcDbEntity
  8
L1_120
  6
CONTINUOUS
 62
         4
100
AcDbLine
 10
1459.709723452
 20
3.0566652593
 30
0.0
 11
1464.0656496584
 21
7.4125914657
 31
0.0
  0
LINE
  5
5FB
100
AcDbEntity
  8
L1_120
  6
CONTINUOUS
 62
         4
100
AcDbLine
 10
1419.1033403763
 20
-33.3070771293
 30
0.0
 11
1436.9670827649
 21
-15.4433347407
 31
0.0
  0
LINE
  5
5FC
100
AcDbEntity
  8
L1_120
  6
CONTINUOUS
 62
         4
100
AcDbLine
 10
1441.9670827649
 20
-10.4433347407
 30
0.0
 11
1449.1033403763
 21
-3.3070771293
 31
0.0
  0
LINE
  5
5FD
100
AcDbEntity
  8
L1_120
  6
CONTINUOUS
 62
         4
100
AcDbLine
 10
1455.4670827649
 20
3.0566652593
 30
0.0
 11
1461.8821387471
 21
9.4717212416
 31
0.0
  0
LINE
  5
5FE
100
AcDbEntity
  8
L1_120
  6
CONTINUOUS
 62
         4
100
AcDbLine
 10
1419.1033403763
 20
-29.0644364422
 30
0.0
 11
1433.5977886388
 21
-14.5699881797
 31
0.0
  0
LINE
  5
5FF
100
AcDbEntity
  8
L1_120
  6
CONTINUOUS
 62
         4
100
AcDbLine
 10
1437.7244420778
 20
-10.4433347407
 30
0.0
 11
1449.1033403763
 21
0.9355635578
 31
0.0
  0
LINE
  5
600
100
AcDbEntity
  8
L1_120
  6
CONTINUOUS
 62
         4
100
AcDbLine
 10
1451.7244420778
 20
3.5566652593
 30
0.0
 11
1457.7244420778
 21
9.5566652593
 31
0.0
  0
LINE
  5
601
100
AcDbEntity
  8
L1_120
  6
CONTINUOUS
 62
         4
100
AcDbLine
 10
1419.1033403763
 20
-24.8217957551
 30
0.0
 11
1453.4818013906
 21
9.5566652593
 31
0.0
  0
LINE
  5
602
100
AcDbEntity
  8
L1_120
  6
CONTINUOUS
 62
         4
100
AcDbLine
 10
1419.1033403763
 20
-20.5791550679
 30
0.0
 11
1449.2391607035
 21
9.5566652593
 31
0.0
  0
LINE
  5
603
100
AcDbEntity
  8
L1_120
  6
CONTINUOUS
 62
         4
100
AcDbLine
 10
1419.1033403763
 20
-16.3365143808
 30
0.0
 11
1444.9965200164
 21
9.5566652593
 31
0.0
  0
LINE
  5
604
100
AcDbEntity
  8
L1_120
  6
CONTINUOUS
 62
         4
100
AcDbLine
 10
1419.1033403763
 20
-12.0938736937
 30
0.0
 11
1440.7538793293
 21
9.5566652593
 31
0.0
  0
LINE
  5
605
100
AcDbEntity
  8
L1_120
  6
CONTINUOUS
 62
         4
100
AcDbLine
 10
1419.1033403763
 20
-7.8512330066
 30
0.0
 11
1436.5112386422
 21
9.5566652593
 31
0.0
  0
LINE
  5
606
100
AcDbEntity
  8
L1_120
  6
CONTINUOUS
 62
         4
100
AcDbLine
 10
1419.1033403763
 20
-3.6085923195
 30
0.0
 11
1432.268597955
 21
9.5566652593
 31
0.0
  0
LINE
  5
607
100
AcDbEntity
  8
L1_120
  6
CONTINUOUS
 62
         4
100
AcDbLine
 10
1419.1033403763
 20
0.6340483676
 30
0.0
 11
1428.0259572679
 21
9.5566652593
 31
0.0
  0
LINE
  5
608
100
AcDbEntity
  8
L1_120
  6
CONTINUOUS
 62
         4
100
AcDbLine
 10
1419.1033403763
 20
4.8766890548
 30
0.0
 11
1423.7833165808
 21
9.5566652593
 31
0.0
  0
LINE
  5
609
100
AcDbEntity
  8
L1_120
  6
CONTINUOUS
 62
         4
100
AcDbLine
 10
1419.1078769368
 20
9.1238663025
 30
0.0
 11
1419.5361393331
 21
9.5521286987
 31
0.0
  0
ENDBLK
  5
60A
100
AcDbEntity
  8
0
  6
CONTINUOUS
100
AcDbBlockEnd
  0
BLOCK
  5
60E
100
AcDbEntity
  8
0
100
AcDbBlockBegin
  2
*D39
 70
        65
 10
0.0
 20
0.0
 30
0.0
  3
*D39
  1

  0
POINT
  5
610
100
AcDbEntity
  8
DEFPOINTS
  6
CONTINUOUS
 62
         0
100
AcDbPoint
 10
1414.1033403763
 20
183.7744584292
 30
0.0
  0
POINT
  5
611
100
AcDbEntity
  8
DEFPOINTS
  6
CONTINUOUS
 62
         0
100
AcDbPoint
 10
1414.1033403763
 20
162.2346417294
 30
0.0
  0
POINT
  5
612
100
AcDbEntity
  8
DEFPOINTS
  6
CONTINUOUS
 62
         0
100
AcDbPoint
 10
1320.1033403763
 20
150.1846417294
 30
0.0
  0
LINE
  5
613
100
AcDbEntity
  8
____
  6
CONTINUOUS
 62
         4
100
AcDbLine
 10
1414.1033403763
 20
163.5846417294
 30
0.0
 11
1414.1033403763
 21
184.4494584292
 31
0.0
  0
LINE
  5
614
100
AcDbEntity
  8
____
  6
CONTINUOUS
 62
         4
100
AcDbLine
 10
1320.1033403763
 20
151.5346417294
 30
0.0
 11
1320.1033403763
 21
184.4494584292
 31
0.0
  0
LINE
  5
615
100
AcDbEntity
  8
____
  6
CONTINUOUS
 62
         4
100
AcDbLine
 10
1414.1033403763
 20
183.7744584292
 30
0.0
 11
1320.1033403763
 21
183.7744584292
 31
0.0
  0
SOLID
  5
616
100
AcDbEntity
  8
____
  6
CONTINUOUS
 62
         4
100
AcDbTrace
 10
1414.1033403763
 20
183.7744584292
 30
0.0
 11
1411.4033403763
 21
183.3694584292
 31
0.0
 12
1411.4033403763
 22
184.1794584292
 32
0.0
 13
1414.1033403763
 23
183.7744584292
 33
0.0
  0
SOLID
  5
617
100
AcDbEntity
  8
____
  6
CONTINUOUS
 62
         4
100
AcDbTrace
 10
1320.1033403763
 20
183.7744584292
 30
0.0
 11
1322.8033403763
 21
184.1794584292
 31
0.0
 12
1322.8033403763
 22
183.3694584292
 32
0.0
 13
1320.1033403763
 23
183.7744584292
 33
0.0
  0
TEXT
  5
619
100
AcDbEntity
  8
____
  6
CONTINUOUS
 62
         4
100
AcDbText
 10
1365.9902752945
 20
185.7994584292
 30
0.0
 40
2.7
  1
94
  7
BOX
100
AcDbText
  0
ENDBLK
  5
61A
100
AcDbEntity
  8
0
  6
CONTINUOUS
100
AcDbBlockEnd
  0
BLOCK
  5
61C
100
AcDbEntity
  8
0
100
AcDbBlockBegin
  2
*D40
 70
        65
 10
0.0
 20
0.0
 30
0.0
  3
*D40
  1

  0
POINT
  5
61E
100
AcDbEntity
  8
DEFPOINTS
  6
CONTINUOUS
 62
         0
100
AcDbPoint
 10
1419.1033403763
 20
183.7744584292
 30
0.0
  0
POINT
  5
61F
100
AcDbEntity
  8
DEFPOINTS
  6
CONTINUOUS
 62
         0
100
AcDbPoint
 10
1419.1033403763
 20
162.2346417294
 30
0.0
  0
POINT
  5
620
100
AcDbEntity
  8
DEFPOINTS
  6
CONTINUOUS
 62
         0
100
AcDbPoint
 10
1414.1033403763
 20
162.2346417294
 30
0.0
  0
LINE
  5
621
100
AcDbEntity
  8
____
  6
CONTINUOUS
 62
         4
100
AcDbLine
 10
1419.1033403763
 20
163.5846417294
 30
0.0
 11
1419.1033403763
 21
184.4494584292
 31
0.0
  0
LINE
  5
622
100
AcDbEntity
  8
____
  6
CONTINUOUS
 62
         4
100
AcDbLine
 10
1414.1033403763
 20
163.5846417294
 30
0.0
 11
1414.1033403763
 21
184.4494584292
 31
0.0
  0
LINE
  5
623
100
AcDbEntity
  8
____
  6
CONTINUOUS
 62
         4
100
AcDbLine
 10
1419.1033403763
 20
183.7744584292
 30
0.0
 11
1424.5033403763
 21
183.7744584292
 31
0.0
  0
SOLID
  5
624
100
AcDbEntity
  8
____
  6
CONTINUOUS
 62
         4
100
AcDbTrace
 10
1419.1033403763
 20
183.7744584292
 30
0.0
 11
1421.8033403763
 21
184.1794584292
 31
0.0
 12
1421.8033403763
 22
183.3694584292
 32
0.0
 13
1419.1033403763
 23
183.7744584292
 33
0.0
  0
LINE
  5
625
100
AcDbEntity
  8
____
  6
CONTINUOUS
 62
         4
100
AcDbLine
 10
1414.1033403763
 20
183.7744584292
 30
0.0
 11
1408.7033403763
 21
183.7744584292
 31
0.0
  0
SOLID
  5
626
100
AcDbEntity
  8
____
  6
CONTINUOUS
 62
         4
100
AcDbTrace
 10
1414.1033403763
 20
183.7744584292
 30
0.0
 11
1411.4033403763
 21
183.3694584292
 31
0.0
 12
1411.4033403763
 22
184.1794584292
 32
0.0
 13
1414.1033403763
 23
183.7744584292
 33
0.0
  0
LINE
  5
627
100
AcDbEntity
  8
____
  6
CONTINUOUS
 62
         4
100
AcDbLine
 10
1419.1033403763
 20
183.7744584292
 30
0.0
 11
1414.1033403763
 21
183.7744584292
 31
0.0
  0
TEXT
  5
629
100
AcDbEntity
  8
____
  6
CONTINUOUS
 62
         4
100
AcDbText
 10
1415.2533403763
 20
185.7994584292
 30
0.0
 40
2.7
  1
5
  7
BOX
100
AcDbText
  0
ENDBLK
  5
62A
100
AcDbEntity
  8
0
  6
CONTINUOUS
100
AcDbBlockEnd
  0
BLOCK
  5
62C
100
AcDbEntity
  8
0
100
AcDbBlockBegin
  2
*D41
 70
        65
 10
0.0
 20
0.0
 30
0.0
  3
*D41
  1

  0
POINT
  5
62E
100
AcDbEntity
  8
DEFPOINTS
  6
CONTINUOUS
 62
         0
100
AcDbPoint
 10
1403.9408101364
 20
162.0971417294
 30
0.0
  0
POINT
  5
62F
100
AcDbEntity
  8
DEFPOINTS
  6
CONTINUOUS
 62
         0
100
AcDbPoint
 10
1414.1033403763
 20
162.0971417294
 30
0.0
  0
POINT
  5
630
100
AcDbEntity
  8
DEFPOINTS
  6
CONTINUOUS
 62
         0
100
AcDbPoint
 10
1414.1033403763
 20
138.2721417294
 30
0.0
  0
LINE
  5
631
100
AcDbEntity
  8
____
  6
CONTINUOUS
 62
         4
100
AcDbLine
 10
1412.7533403763
 20
162.0971417294
 30
0.0
 11
1403.2658101364
 21
162.0971417294
 31
0.0
  0
LINE
  5
632
100
AcDbEntity
  8
____
  6
CONTINUOUS
 62
         4
100
AcDbLine
 10
1412.7533403763
 20
138.2721417294
 30
0.0
 11
1403.2658101364
 21
138.2721417294
 31
0.0
  0
LINE
  5
633
100
AcDbEntity
  8
____
  6
CONTINUOUS
 62
         4
100
AcDbLine
 10
1403.9408101364
 20
162.0971417294
 30
0.0
 11
1403.9408101364
 21
138.2721417294
 31
0.0
  0
SOLID
  5
634
100
AcDbEntity
  8
____
  6
CONTINUOUS
 62
         4
100
AcDbTrace
 10
1403.9408101364
 20
162.0971417294
 30
0.0
 11
1404.3458101364
 21
159.3971417294
 31
0.0
 12
1403.5358101364
 22
159.3971417294
 32
0.0
 13
1403.9408101364
 23
162.0971417294
 33
0.0
  0
SOLID
  5
635
100
AcDbEntity
  8
____
  6
CONTINUOUS
 62
         4
100
AcDbTrace
 10
1403.9408101364
 20
138.2721417294
 30
0.0
 11
1403.5358101364
 21
140.9721417294
 31
0.0
 12
1404.3458101364
 22
140.9721417294
 32
0.0
 13
1403.9408101364
 23
138.2721417294
 33
0.0
  0
TEXT
  5
637
100
AcDbEntity
  8
____
  6
CONTINUOUS
 62
         4
100
AcDbText
 10
1401.9158101364
 20
139.3076296506
 30
0.0
 40
2.7
  1
崷23.82
 50
90.0
  7
BOX
100
AcDbText
  0
ENDBLK
  5
638
100
AcDbEntity
  8
0
  6
CONTINUOUS
100
AcDbBlockEnd
  0
BLOCK
  5
63A
100
AcDbEntity
  8
0
100
AcDbBlockBegin
  2
*D42
 70
        65
 10
0.0
 20
0.0
 30
0.0
  3
*D42
  1

  0
POINT
  5
63C
100
AcDbEntity
  8
DEFPOINTS
  6
CONTINUOUS
 62
         0
100
AcDbPoint
 10
1414.1033403763
 20
209.2284072773
 30
0.0
  0
POINT
  5
63D
100
AcDbEntity
  8
DEFPOINTS
  6
CONTINUOUS
 62
         0
100
AcDbPoint
 10
1414.1033403763
 20
162.2346417294
 30
0.0
  0
POINT
  5
63E
100
AcDbEntity
  8
DEFPOINTS
  6
CONTINUOUS
 62
         0
100
AcDbPoint
 10
1515.1033403763
 20
178.6466768775
 30
0.0
  0
LINE
  5
63F
100
AcDbEntity
  8
____
  6
CONTINUOUS
 62
         4
100
AcDbLine
 10
1414.1033403763
 20
163.5846417294
 30
0.0
 11
1414.1033403763
 21
209.9034072773
 31
0.0
  0
LINE
  5
640
100
AcDbEntity
  8
____
  6
CONTINUOUS
 62
         4
100
AcDbLine
 10
1515.1033403763
 20
179.9966768775
 30
0.0
 11
1515.1033403763
 21
209.9034072773
 31
0.0
  0
LINE
  5
641
100
AcDbEntity
  8
____
  6
CONTINUOUS
 62
         4
100
AcDbLine
 10
1414.1033403763
 20
209.2284072773
 30
0.0
 11
1515.1033403763
 21
209.2284072773
 31
0.0
  0
SOLID
  5
642
100
AcDbEntity
  8
____
  6
CONTINUOUS
 62
         4
100
AcDbTrace
 10
1414.1033403763
 20
209.2284072773
 30
0.0
 11
1416.8033403763
 21
209.6334072773
 31
0.0
 12
1416.8033403763
 22
208.8234072773
 32
0.0
 13
1414.1033403763
 23
209.2284072773
 33
0.0
  0
SOLID
  5
643
100
AcDbEntity
  8
____
  6
CONTINUOUS
 62
         4
100
AcDbTrace
 10
1515.1033403763
 20
209.2284072773
 30
0.0
 11
1512.4033403763
 21
208.8234072773
 31
0.0
 12
1512.4033403763
 22
209.6334072773
 32
0.0
 13
1515.1033403763
 23
209.2284072773
 33
0.0
  0
TEXT
  5
645
100
AcDbEntity
  8
____
  6
CONTINUOUS
 62
         4
100
AcDbText
 10
1450.9952682609
 20
211.2534072773
 30
0.0
 40
2.7
  1
101
  7
BOX
100
AcDbText
  0
ENDBLK
  5
646
100
AcDbEntity
  8
0
  6
CONTINUOUS
100
AcDbBlockEnd
  0
BLOCK
  5
648
100
AcDbEntity
  8
0
100
AcDbBlockBegin
  2
*D43
 70
        65
 10
0.0
 20
0.0
 30
0.0
  3
*D43
  1

  0
POINT
  5
64A
100
AcDbEntity
  8
DEFPOINTS
  6
CONTINUOUS
 62
         0
100
AcDbPoint
 10
1320.1033403763
 20
217.0779684671
 30
0.0
  0
POINT
  5
64B
100
AcDbEntity
  8
DEFPOINTS
  6
CONTINUOUS
 62
         0
100
AcDbPoint
 10
1320.1033403763
 20
150.1846417294
 30
0.0
  0
POINT
  5
64C
100
AcDbEntity
  8
DEFPOINTS
  6
CONTINUOUS
 62
         0
100
AcDbPoint
 10
1515.1033403763
 20
178.6466768775
 30
0.0
  0
LINE
  5
64D
100
AcDbEntity
  8
____
  6
CONTINUOUS
 62
         4
100
AcDbLine
 10
1320.1033403763
 20
151.5346417294
 30
0.0
 11
1320.1033403763
 21
217.7529684671
 31
0.0
  0
LINE
  5
64E
100
AcDbEntity
  8
____
  6
CONTINUOUS
 62
         4
100
AcDbLine
 10
1515.1033403763
 20
179.9966768775
 30
0.0
 11
1515.1033403763
 21
217.7529684671
 31
0.0
  0
LINE
  5
64F
100
AcDbEntity
  8
____
  6
CONTINUOUS
 62
         4
100
AcDbLine
 10
1320.1033403763
 20
217.0779684671
 30
0.0
 11
1515.1033403763
 21
217.0779684671
 31
0.0
  0
SOLID
  5
650
100
AcDbEntity
  8
____
  6
CONTINUOUS
 62
         4
100
AcDbTrace
 10
1320.1033403763
 20
217.0779684671
 30
0.0
 11
1322.8033403763
 21
217.4829684671
 31
0.0
 12
1322.8033403763
 22
216.6729684671
 32
0.0
 13
1320.1033403763
 23
217.0779684671
 33
0.0
  0
SOLID
  5
651
100
AcDbEntity
  8
____
  6
CONTINUOUS
 62
         4
100
AcDbTrace
 10
1515.1033403763
 20
217.0779684671
 30
0.0
 11
1512.4033403763
 21
216.6729684671
 31
0.0
 12
1512.4033403763
 22
217.4829684671
 32
0.0
 13
1515.1033403763
 23
217.0779684671
 33
0.0
  0
TEXT
  5
653
100
AcDbEntity
  8
____
  6
CONTINUOUS
 62
         4
100
AcDbText
 10
1413.5533403763
 20
219.1029684671
 30
0.0
 40
2.7
  1
195
  7
BOX
100
AcDbText
  0
ENDBLK
  5
654
100
AcDbEntity
  8
0
  6
CONTINUOUS
100
AcDbBlockEnd
  0
BLOCK
  5
656
100
AcDbEntity
  8
0
100
AcDbBlockBegin
  2
*D44
 70
        65
 10
0.0
 20
0.0
 30
0.0
  3
*D44
  1

  0
POINT
  5
658
100
AcDbEntity
  8
DEFPOINTS
  6
CONTINUOUS
 62
         0
100
AcDbPoint
 10
1562.6526483081
 20
172.6846417294
 30
0.0
  0
POINT
  5
659
100
AcDbEntity
  8
DEFPOINTS
  6
CONTINUOUS
 62
         0
100
AcDbPoint
 10
1461.1033403763
 20
172.6846417294
 30
0.0
  0
POINT
  5
65A
100
AcDbEntity
  8
DEFPOINTS
  6
CONTINUOUS
 62
         0
100
AcDbPoint
 10
1461.1033403763
 20
127.6846417294
 30
0.0
  0
LINE
  5
65B
100
AcDbEntity
  8
____
  6
CONTINUOUS
 62
         4
100
AcDbLine
 10
1462.4533403763
 20
172.6846417294
 30
0.0
 11
1563.3276483081
 21
172.6846417294
 31
0.0
  0
LINE
  5
65C
100
AcDbEntity
  8
____
  6
CONTINUOUS
 62
         4
100
AcDbLine
 10
1462.4533403763
 20
127.6846417294
 30
0.0
 11
1563.3276483081
 21
127.6846417294
 31
0.0
  0
LINE
  5
65D
100
AcDbEntity
  8
____
  6
CONTINUOUS
 62
         4
100
AcDbLine
 10
1562.6526483081
 20
172.6846417294
 30
0.0
 11
1562.6526483081
 21
127.6846417294
 31
0.0
  0
SOLID
  5
65E
100
AcDbEntity
  8
____
  6
CONTINUOUS
 62
         4
100
AcDbTrace
 10
1562.6526483081
 20
172.6846417294
 30
0.0
 11
1563.0576483081
 21
169.9846417294
 31
0.0
 12
1562.2476483081
 22
169.9846417294
 32
0.0
 13
1562.6526483081
 23
172.6846417294
 33
0.0
  0
SOLID
  5
65F
100
AcDbEntity
  8
____
  6
CONTINUOUS
 62
         4
100
AcDbTrace
 10
1562.6526483081
 20
127.6846417294
 30
0.0
 11
1562.2476483081
 21
130.3846417294
 31
0.0
 12
1563.0576483081
 22
130.3846417294
 32
0.0
 13
1562.6526483081
 23
127.6846417294
 33
0.0
  0
TEXT
  5
661
100
AcDbEntity
  8
____
  6
CONTINUOUS
 62
         4
100
AcDbText
 10
1559.5206483081
 20
144.1273538612
 30
0.0
 40
2.7
  1
崷45
 50
90.0
  7
BOX
100
AcDbText
  0
ENDBLK
  5
662
100
AcDbEntity
  8
0
  6
CONTINUOUS
100
AcDbBlockEnd
  0
BLOCK
  5
664
100
AcDbEntity
  8
0
100
AcDbBlockBegin
  2
*D45
 70
        65
 10
0.0
 20
0.0
 30
0.0
  3
*D45
  1

  0
POINT
  5
666
100
AcDbEntity
  8
DEFPOINTS
  6
CONTINUOUS
 62
         0
100
AcDbPoint
 10
1535.5367069289
 20
168.1846417294
 30
0.0
  0
POINT
  5
667
100
AcDbEntity
  8
DEFPOINTS
  6
CONTINUOUS
 62
         0
100
AcDbPoint
 10
1515.1033403763
 20
168.1846417294
 30
0.0
  0
POINT
  5
668
100
AcDbEntity
  8
DEFPOINTS
  6
CONTINUOUS
 62
         0
100
AcDbPoint
 10
1515.1033403763
 20
132.1846417294
 30
0.0
  0
LINE
  5
669
100
AcDbEntity
  8
____
  6
CONTINUOUS
 62
         4
100
AcDbLine
 10
1516.4533403763
 20
168.1846417294
 30
0.0
 11
1536.2117069289
 21
168.1846417294
 31
0.0
  0
LINE
  5
66A
100
AcDbEntity
  8
____
  6
CONTINUOUS
 62
         4
100
AcDbLine
 10
1516.4533403763
 20
132.1846417294
 30
0.0
 11
1536.2117069289
 21
132.1846417294
 31
0.0
  0
LINE
  5
66B
100
AcDbEntity
  8
____
  6
CONTINUOUS
 62
         4
100
AcDbLine
 10
1535.5367069289
 20
168.1846417294
 30
0.0
 11
1535.5367069289
 21
132.1846417294
 31
0.0
  0
SOLID
  5
66C
100
AcDbEntity
  8
____
  6
CONTINUOUS
 62
         4
100
AcDbTrace
 10
1535.5367069289
 20
168.1846417294
 30
0.0
 11
1535.9417069289
 21
165.4846417294
 31
0.0
 12
1535.1317069289
 22
165.4846417294
 32
0.0
 13
1535.5367069289
 23
168.1846417294
 33
0.0
  0
SOLID
  5
66D
100
AcDbEntity
  8
____
  6
CONTINUOUS
 62
         4
100
AcDbTrace
 10
1535.5367069289
 20
132.1846417294
 30
0.0
 11
1535.1317069289
 21
134.8846417294
 31
0.0
 12
1535.9417069289
 22
134.8846417294
 32
0.0
 13
1535.5367069289
 23
132.1846417294
 33
0.0
  0
TEXT
  5
66F
100
AcDbEntity
  8
____
  6
CONTINUOUS
 62
         4
100
AcDbText
 10
1532.4047069289
 20
142.3329165641
 30
0.0
 40
2.7
  1
崷36
 50
90.0
  7
BOX
100
AcDbText
  0
ENDBLK
  5
670
100
AcDbEntity
  8
0
  6
CONTINUOUS
100
AcDbBlockEnd
  0
BLOCK
  5
672
100
AcDbEntity
  8
0
100
AcDbBlockBegin
  2
*D46
 70
        65
 10
0.0
 20
0.0
 30
0.0
  3
*D46
  1

  0
POINT
  5
674
100
AcDbEntity
  8
DEFPOINTS
  6
CONTINUOUS
 62
         0
100
AcDbPoint
 10
1309.3570397806
 20
154.1346417294
 30
0.0
  0
POINT
  5
675
100
AcDbEntity
  8
DEFPOINTS
  6
CONTINUOUS
 62
         0
100
AcDbPoint
 10
1320.1033403763
 20
154.1346417294
 30
0.0
  0
POINT
  5
676
100
AcDbEntity
  8
DEFPOINTS
  6
CONTINUOUS
 62
         0
100
AcDbPoint
 10
1320.1033403763
 20
146.2346417294
 30
0.0
  0
LINE
  5
677
100
AcDbEntity
  8
____
  6
CONTINUOUS
 62
         4
100
AcDbLine
 10
1318.7533403763
 20
154.1346417294
 30
0.0
 11
1308.6820397806
 21
154.1346417294
 31
0.0
  0
LINE
  5
678
100
AcDbEntity
  8
____
  6
CONTINUOUS
 62
         4
100
AcDbLine
 10
1318.7533403763
 20
146.2346417294
 30
0.0
 11
1308.6820397806
 21
146.2346417294
 31
0.0
  0
LINE
  5
679
100
AcDbEntity
  8
____
  6
CONTINUOUS
 62
         4
100
AcDbLine
 10
1309.3570397806
 20
154.1346417294
 30
0.0
 11
1309.3570397806
 21
146.2346417294
 31
0.0
  0
SOLID
  5
67A
100
AcDbEntity
  8
____
  6
CONTINUOUS
 62
         4
100
AcDbTrace
 10
1309.3570397806
 20
154.1346417294
 30
0.0
 11
1309.7620397806
 21
151.4346417294
 31
0.0
 12
1308.9520397806
 22
151.4346417294
 32
0.0
 13
1309.3570397806
 23
154.1346417294
 33
0.0
  0
SOLID
  5
67B
100
AcDbEntity
  8
____
  6
CONTINUOUS
 62
         4
100
AcDbTrace
 10
1309.3570397806
 20
146.2346417294
 30
0.0
 11
1308.9520397806
 21
148.9346417294
 31
0.0
 12
1309.7620397806
 22
148.9346417294
 32
0.0
 13
1309.3570397806
 23
146.2346417294
 33
0.0
  0
TEXT
  5
67D
100
AcDbEntity
  8
____
  6
CONTINUOUS
 62
         4
100
AcDbText
 10
1307.3320397806
 20
146.1346417294
 30
0.0
 40
2.7
  1
7.9
 50
90.0
  7
BOX
100
AcDbText
  0
ENDBLK
  5
67E
100
AcDbEntity
  8
0
  6
CONTINUOUS
100
AcDbBlockEnd
  0
BLOCK
  5
680
100
AcDbEntity
  8
0
100
AcDbBlockBegin
  2
*D47
 70
        65
 10
0.0
 20
0.0
 30
0.0
  3
*D47
  1

  0
POINT
  5
682
100
AcDbEntity
  8
DEFPOINTS
  6
CONTINUOUS
 62
         0
100
AcDbPoint
 10
1477.9903301475
 20
154.9846417294
 30
0.0
  0
POINT
  5
683
100
AcDbEntity
  8
DEFPOINTS
  6
CONTINUOUS
 62
         0
100
AcDbPoint
 10
1470.5083403763
 20
154.9846417294
 30
0.0
  0
POINT
  5
684
100
AcDbEntity
  8
DEFPOINTS
  6
CONTINUOUS
 62
         0
100
AcDbPoint
 10
1470.5083403763
 20
145.3846417294
 30
0.0
  0
LINE
  5
685
100
AcDbEntity
  8
____
  6
CONTINUOUS
 62
         4
100
AcDbLine
 10
1471.8583403763
 20
154.9846417294
 30
0.0
 11
1478.6653301475
 21
154.9846417294
 31
0.0
  0
LINE
  5
686
100
AcDbEntity
  8
____
  6
CONTINUOUS
 62
         4
100
AcDbLine
 10
1471.8583403763
 20
145.3846417294
 30
0.0
 11
1478.6653301475
 21
145.3846417294
 31
0.0
  0
LINE
  5
687
100
AcDbEntity
  8
____
  6
CONTINUOUS
 62
         4
100
AcDbLine
 10
1477.9903301475
 20
154.9846417294
 30
0.0
 11
1477.9903301475
 21
160.3846417294
 31
0.0
  0
SOLID
  5
688
100
AcDbEntity
  8
____
  6
CONTINUOUS
 62
         4
100
AcDbTrace
 10
1477.9903301475
 20
154.9846417294
 30
0.0
 11
1477.5853301475
 21
157.6846417294
 31
0.0
 12
1478.3953301475
 22
157.6846417294
 32
0.0
 13
1477.9903301475
 23
154.9846417294
 33
0.0
  0
LINE
  5
689
100
AcDbEntity
  8
____
  6
CONTINUOUS
 62
         4
100
AcDbLine
 10
1477.9903301475
 20
145.3846417294
 30
0.0
 11
1477.9903301475
 21
106.0678145242
 31
0.0
  0
SOLID
  5
68A
100
AcDbEntity
  8
____
  6
CONTINUOUS
 62
         4
100
AcDbTrace
 10
1477.9903301475
 20
145.3846417294
 30
0.0
 11
1478.3953301475
 21
142.6846417294
 31
0.0
 12
1477.5853301475
 22
142.6846417294
 32
0.0
 13
1477.9903301475
 23
145.3846417294
 33
0.0
  0
LINE
  5
68B
100
AcDbEntity
  8
____
  6
CONTINUOUS
 62
         4
100
AcDbLine
 10
1477.9903301475
 20
154.9846417294
 30
0.0
 11
1477.9903301475
 21
145.3846417294
 31
0.0
  0
TEXT
  5
68D
100
AcDbEntity
  8
____
  6
CONTINUOUS
 62
         4
100
AcDbText
 10
1474.8583301475
 20
107.4178145242
 30
0.0
 40
2.7
  1
9.55
 50
90.0
  7
BOX
100
AcDbText
  0
ENDBLK
  5
68E
100
AcDbEntity
  8
0
  6
CONTINUOUS
100
AcDbBlockEnd
  0
BLOCK
  5
690
100
AcDbEntity
  8
0
100
AcDbBlockBegin
  2
*D48
 70
        65
 10
0.0
 20
0.0
 30
0.0
  3
*D48
  1

  0
POINT
  5
692
100
AcDbEntity
  8
DEFPOINTS
  6
CONTINUOUS
 62
         0
100
AcDbPoint
 10
1470.5083403763
 20
105.7739192814
 30
0.0
  0
POINT
  5
693
100
AcDbEntity
  8
DEFPOINTS
  6
CONTINUOUS
 62
         0
100
AcDbPoint
 10
1470.5083403763
 20
145.2146417294
 30
0.0
  0
POINT
  5
694
100
AcDbEntity
  8
DEFPOINTS
  6
CONTINUOUS
 62
         0
100
AcDbPoint
 10
1515.1033403763
 20
132.7619919986
 30
0.0
  0
LINE
  5
695
100
AcDbEntity
  8
____
  6
CONTINUOUS
 62
         4
100
AcDbLine
 10
1470.5083403763
 20
143.8646417294
 30
0.0
 11
1470.5083403763
 21
105.0989192814
 31
0.0
  0
LINE
  5
696
100
AcDbEntity
  8
____
  6
CONTINUOUS
 62
         4
100
AcDbLine
 10
1515.1033403763
 20
131.4119919986
 30
0.0
 11
1515.1033403763
 21
105.0989192814
 31
0.0
  0
LINE
  5
697
100
AcDbEntity
  8
____
  6
CONTINUOUS
 62
         4
100
AcDbLine
 10
1470.5083403763
 20
105.7739192814
 30
0.0
 11
1515.1033403763
 21
105.7739192814
 31
0.0
  0
SOLID
  5
698
100
AcDbEntity
  8
____
  6
CONTINUOUS
 62
         4
100
AcDbTrace
 10
1470.5083403763
 20
105.7739192814
 30
0.0
 11
1473.2083403763
 21
106.1789192814
 31
0.0
 12
1473.2083403763
 22
105.3689192814
 32
0.0
 13
1470.5083403763
 23
105.7739192814
 33
0.0
  0
SOLID
  5
699
100
AcDbEntity
  8
____
  6
CONTINUOUS
 62
         4
100
AcDbTrace
 10
1515.1033403763
 20
105.7739192814
 30
0.0
 11
1512.4033403763
 21
105.3689192814
 31
0.0
 12
1512.4033403763
 22
106.1789192814
 32
0.0
 13
1515.1033403763
 23
105.7739192814
 33
0.0
  0
TEXT
  5
69B
100
AcDbEntity
  8
____
  6
CONTINUOUS
 62
         4
100
AcDbText
 10
1481.6689703403
 20
108.9059192814
 30
0.0
 40
2.7
  1
44.6
  7
BOX
100
AcDbText
  0
ENDBLK
  5
69C
100
AcDbEntity
  8
0
  6
CONTINUOUS
100
AcDbBlockEnd
  0
BLOCK
  5
69E
100
AcDbEntity
  8
0
100
AcDbBlockBegin
  2
*D49
 70
        65
 10
0.0
 20
0.0
 30
0.0
  3
*D49
  1

  0
POINT
  5
6A0
100
AcDbEntity
  8
DEFPOINTS
  6
CONTINUOUS
 62
         0
100
AcDbPoint
 10
1485.5082741959
 20
115.714967216
 30
0.0
  0
POINT
  5
6A1
100
AcDbEntity
  8
DEFPOINTS
  6
CONTINUOUS
 62
         0
100
AcDbPoint
 10
1485.5082741959
 20
145.2146417294
 30
0.0
  0
POINT
  5
6A2
100
AcDbEntity
  8
DEFPOINTS
  6
CONTINUOUS
 62
         0
100
AcDbPoint
 10
1515.1033403763
 20
132.7619919986
 30
0.0
  0
LINE
  5
6A3
100
AcDbEntity
  8
____
  6
CONTINUOUS
 62
         4
100
AcDbLine
 10
1485.5082741959
 20
143.8646417294
 30
0.0
 11
1485.5082741959
 21
115.039967216
 31
0.0
  0
LINE
  5
6A4
100
AcDbEntity
  8
____
  6
CONTINUOUS
 62
         4
100
AcDbLine
 10
1515.1033403763
 20
131.4119919986
 30
0.0
 11
1515.1033403763
 21
115.039967216
 31
0.0
  0
LINE
  5
6A5
100
AcDbEntity
  8
____
  6
CONTINUOUS
 62
         4
100
AcDbLine
 10
1485.5082741959
 20
115.714967216
 30
0.0
 11
1515.1033403763
 21
115.714967216
 31
0.0
  0
SOLID
  5
6A6
100
AcDbEntity
  8
____
  6
CONTINUOUS
 62
         4
100
AcDbTrace
 10
1485.5082741959
 20
115.714967216
 30
0.0
 11
1488.2082741959
 21
116.119967216
 31
0.0
 12
1488.2082741959
 22
115.309967216
 32
0.0
 13
1485.5082741959
 23
115.714967216
 33
0.0
  0
SOLID
  5
6A7
100
AcDbEntity
  8
____
  6
CONTINUOUS
 62
         4
100
AcDbTrace
 10
1515.1033403763
 20
115.714967216
 30
0.0
 11
1512.4033403763
 21
115.309967216
 31
0.0
 12
1512.4033403763
 22
116.119967216
 32
0.0
 13
1515.1033403763
 23
115.714967216
 33
0.0
  0
TEXT
  5
6A9
100
AcDbEntity
  8
____
  6
CONTINUOUS
 62
         4
100
AcDbText
 10
1494.6808072861
 20
118.846967216
 30
0.0
 40
2.7
  1
29.6
  7
BOX
100
AcDbText
  0
ENDBLK
  5
6AA
100
AcDbEntity
  8
0
  6
CONTINUOUS
100
AcDbBlockEnd
  0
BLOCK
  5
6AC
100
AcDbEntity
  8
0
100
AcDbBlockBegin
  2
*D50
 70
        65
 10
0.0
 20
0.0
 30
0.0
  3
*D50
  1

  0
POINT
  5
6AE
100
AcDbEntity
  8
DEFPOINTS
  6
CONTINUOUS
 62
         0
100
AcDbPoint
 10
1554.0393492817
 20
170.6846417294
 30
0.0
  0
POINT
  5
6AF
100
AcDbEntity
  8
DEFPOINTS
  6
CONTINUOUS
 62
         0
100
AcDbPoint
 10
1509.3712895687
 20
170.6846417294
 30
0.0
  0
POINT
  5
6B0
100
AcDbEntity
  8
DEFPOINTS
  6
CONTINUOUS
 62
         0
100
AcDbPoint
 10
1509.3712895687
 20
129.6846417294
 30
0.0
  0
LINE
  5
6B1
100
AcDbEntity
  8
____
  6
CONTINUOUS
 62
         4
100
AcDbLine
 10
1510.7212895687
 20
170.6846417294
 30
0.0
 11
1554.7143492817
 21
170.6846417294
 31
0.0
  0
LINE
  5
6B2
100
AcDbEntity
  8
____
  6
CONTINUOUS
 62
         4
100
AcDbLine
 10
1510.7212895687
 20
129.6846417294
 30
0.0
 11
1554.7143492817
 21
129.6846417294
 31
0.0
  0
LINE
  5
6B3
100
AcDbEntity
  8
____
  6
CONTINUOUS
 62
         4
100
AcDbLine
 10
1554.0393492817
 20
170.6846417294
 30
0.0
 11
1554.0393492817
 21
129.6846417294
 31
0.0
  0
SOLID
  5
6B4
100
AcDbEntity
  8
____
  6
CONTINUOUS
 62
         4
100
AcDbTrace
 10
1554.0393492817
 20
170.6846417294
 30
0.0
 11
1554.4443492817
 21
167.9846417294
 31
0.0
 12
1553.6343492817
 22
167.9846417294
 32
0.0
 13
1554.0393492817
 23
170.6846417294
 33
0.0
  0
SOLID
  5
6B5
100
AcDbEntity
  8
____
  6
CONTINUOUS
 62
         4
100
AcDbTrace
 10
1554.0393492817
 20
129.6846417294
 30
0.0
 11
1553.6343492817
 21
132.3846417294
 31
0.0
 12
1554.4443492817
 22
132.3846417294
 32
0.0
 13
1554.0393492817
 23
129.6846417294
 33
0.0
  0
TEXT
  5
6B7
100
AcDbEntity
  8
____
  6
CONTINUOUS
 62
         4
100
AcDbText
 10
1550.9073492817
 20
139.2528174198
 30
0.0
 40
2.7
  1
崷41
 50
90.0
  7
BOX
100
AcDbText
  0
ENDBLK
  5
6B8
100
AcDbEntity
  8
0
  6
CONTINUOUS
100
AcDbBlockEnd
  0
BLOCK
  5
6BA
100
AcDbEntity
  8
0
100
AcDbBlockBegin
  2
*D51
 70
        65
 10
0.0
 20
0.0
 30
0.0
  3
*D51
  1

  0
POINT
  5
6BC
100
AcDbEntity
  8
DEFPOINTS
  6
CONTINUOUS
 62
         0
100
AcDbPoint
 10
1544.7880281053
 20
169.6846417294
 30
0.0
  0
POINT
  5
6BD
100
AcDbEntity
  8
DEFPOINTS
  6
CONTINUOUS
 62
         0
100
AcDbPoint
 10
1496.1033403763
 20
169.6846417294
 30
0.0
  0
POINT
  5
6BE
100
AcDbEntity
  8
DEFPOINTS
  6
CONTINUOUS
 62
         0
100
AcDbPoint
 10
1496.1033403763
 20
130.6846417294
 30
0.0
  0
LINE
  5
6BF
100
AcDbEntity
  8
____
  6
CONTINUOUS
 62
         4
100
AcDbLine
 10
1497.4533403763
 20
169.6846417294
 30
0.0
 11
1545.4630281053
 21
169.6846417294
 31
0.0
  0
LINE
  5
6C0
100
AcDbEntity
  8
____
  6
CONTINUOUS
 62
         4
100
AcDbLine
 10
1497.4533403763
 20
130.6846417294
 30
0.0
 11
1545.4630281053
 21
130.6846417294
 31
0.0
  0
LINE
  5
6C1
100
AcDbEntity
  8
____
  6
CONTINUOUS
 62
         4
100
AcDbLine
 10
1544.7880281053
 20
169.6846417294
 30
0.0
 11
1544.7880281053
 21
130.6846417294
 31
0.0
  0
SOLID
  5
6C2
100
AcDbEntity
  8
____
  6
CONTINUOUS
 62
         4
100
AcDbTrace
 10
1544.7880281053
 20
169.6846417294
 30
0.0
 11
1545.1930281053
 21
166.9846417294
 31
0.0
 12
1544.3830281053
 22
166.9846417294
 32
0.0
 13
1544.7880281053
 23
169.6846417294
 33
0.0
  0
SOLID
  5
6C3
100
AcDbEntity
  8
____
  6
CONTINUOUS
 62
         4
100
AcDbTrace
 10
1544.7880281053
 20
130.6846417294
 30
0.0
 11
1544.3830281053
 21
133.3846417294
 31
0.0
 12
1545.1930281053
 22
133.3846417294
 32
0.0
 13
1544.7880281053
 23
130.6846417294
 33
0.0
  0
TEXT
  5
6C5
100
AcDbEntity
  8
____
  6
CONTINUOUS
 62
         4
100
AcDbText
 10
1541.6560281053
 20
140.3473538612
 30
0.0
 40
2.7
  1
崷39
 50
90.0
  7
BOX
100
AcDbText
  0
ENDBLK
  5
6C6
100
AcDbEntity
  8
0
  6
CONTINUOUS
100
AcDbBlockEnd
  0
BLOCK
  5
6C8
100
AcDbEntity
  8
0
100
AcDbBlockBegin
  2
*D52
 70
        65
 10
0.0
 20
0.0
 30
0.0
  3
*D52
  1

  0
POINT
  5
6CA
100
AcDbEntity
  8
DEFPOINTS
  6
CONTINUOUS
 62
         0
100
AcDbPoint
 10
1494.1033403763
 20
182.7299277772
 30
0.0
  0
POINT
  5
6CB
100
AcDbEntity
  8
DEFPOINTS
  6
CONTINUOUS
 62
         0
100
AcDbPoint
 10
1494.1033403763
 20
170.6846417294
 30
0.0
  0
POINT
  5
6CC
100
AcDbEntity
  8
DEFPOINTS
  6
CONTINUOUS
 62
         0
100
AcDbPoint
 10
1496.1033403763
 20
170.6846417294
 30
0.0
  0
LINE
  5
6CD
100
AcDbEntity
  8
____
  6
CONTINUOUS
 62
         4
100
AcDbLine
 10
1494.1033403763
 20
172.0346417294
 30
0.0
 11
1494.1033403763
 21
183.4049277772
 31
0.0
  0
LINE
  5
6CE
100
AcDbEntity
  8
____
  6
CONTINUOUS
 62
         4
100
AcDbLine
 10
1496.1033403763
 20
172.0346417294
 30
0.0
 11
1496.1033403763
 21
183.4049277772
 31
0.0
  0
LINE
  5
6CF
100
AcDbEntity
  8
____
  6
CONTINUOUS
 62
         4
100
AcDbLine
 10
1494.1033403763
 20
182.7299277772
 30
0.0
 11
1488.7033403763
 21
182.7299277772
 31
0.0
  0
SOLID
  5
6D0
100
AcDbEntity
  8
____
  6
CONTINUOUS
 62
         4
100
AcDbTrace
 10
1494.1033403763
 20
182.7299277772
 30
0.0
 11
1491.4033403763
 21
182.3249277772
 31
0.0
 12
1491.4033403763
 22
183.1349277772
 32
0.0
 13
1494.1033403763
 23
182.7299277772
 33
0.0
  0
LINE
  5
6D1
100
AcDbEntity
  8
____
  6
CONTINUOUS
 62
         4
100
AcDbLine
 10
1496.1033403763
 20
182.7299277772
 30
0.0
 11
1502.8302489371
 21
182.7299277772
 31
0.0
  0
SOLID
  5
6D2
100
AcDbEntity
  8
____
  6
CONTINUOUS
 62
         4
100
AcDbTrace
 10
1496.1033403763
 20
182.7299277772
 30
0.0
 11
1498.8033403763
 21
183.1349277772
 31
0.0
 12
1498.8033403763
 22
182.3249277772
 32
0.0
 13
1496.1033403763
 23
182.7299277772
 33
0.0
  0
LINE
  5
6D3
100
AcDbEntity
  8
____
  6
CONTINUOUS
 62
         4
100
AcDbLine
 10
1494.1033403763
 20
182.7299277772
 30
0.0
 11
1496.1033403763
 21
182.7299277772
 31
0.0
  0
TEXT
  5
6D5
100
AcDbEntity
  8
____
  6
CONTINUOUS
 62
         4
100
AcDbText
 10
1497.8802489371
 20
185.8619277772
 30
0.0
 40
2.7
  1
2
  7
BOX
100
AcDbText
  0
ENDBLK
  5
6D6
100
AcDbEntity
  8
0
  6
CONTINUOUS
100
AcDbBlockEnd
  0
BLOCK
  5
6D8
100
AcDbEntity
  8
0
100
AcDbBlockBegin
  2
*D53
 70
        65
 10
0.0
 20
0.0
 30
0.0
  3
*D53
  1

  0
POINT
  5
6DA
100
AcDbEntity
  8
DEFPOINTS
  6
CONTINUOUS
 62
         0
100
AcDbPoint
 10
1515.1033403763
 20
192.0000383803
 30
0.0
  0
POINT
  5
6DB
100
AcDbEntity
  8
DEFPOINTS
  6
CONTINUOUS
 62
         0
100
AcDbPoint
 10
1515.1033403763
 20
167.6072914602
 30
0.0
  0
POINT
  5
6DC
100
AcDbEntity
  8
DEFPOINTS
  6
CONTINUOUS
 62
         0
100
AcDbPoint
 10
1494.1033403763
 20
170.6846417294
 30
0.0
  0
LINE
  5
6DD
100
AcDbEntity
  8
____
  6
CONTINUOUS
 62
         4
100
AcDbLine
 10
1515.1033403763
 20
168.9572914602
 30
0.0
 11
1515.1033403763
 21
192.6750383803
 31
0.0
  0
LINE
  5
6DE
100
AcDbEntity
  8
____
  6
CONTINUOUS
 62
         4
100
AcDbLine
 10
1494.1033403763
 20
172.0346417294
 30
0.0
 11
1494.1033403763
 21
192.6750383803
 31
0.0
  0
LINE
  5
6DF
100
AcDbEntity
  8
____
  6
CONTINUOUS
 62
         4
100
AcDbLine
 10
1515.1033403763
 20
192.0000383803
 30
0.0
 11
1494.1033403763
 21
192.0000383803
 31
0.0
  0
SOLID
  5
6E0
100
AcDbEntity
  8
____
  6
CONTINUOUS
 62
         4
100
AcDbTrace
 10
1515.1033403763
 20
192.0000383803
 30
0.0
 11
1512.4033403763
 21
191.5950383803
 31
0.0
 12
1512.4033403763
 22
192.4050383803
 32
0.0
 13
1515.1033403763
 23
192.0000383803
 33
0.0
  0
SOLID
  5
6E1
100
AcDbEntity
  8
____
  6
CONTINUOUS
 62
         4
100
AcDbTrace
 10
1494.1033403763
 20
192.0000383803
 30
0.0
 11
1496.8033403763
 21
192.4050383803
 31
0.0
 12
1496.8033403763
 22
191.5950383803
 32
0.0
 13
1494.1033403763
 23
192.0000383803
 33
0.0
  0
TEXT
  5
6E3
100
AcDbEntity
  8
____
  6
CONTINUOUS
 62
         4
100
AcDbText
 10
1501.6783403763
 20
195.1320383803
 30
0.0
 40
2.7
  1
21
  7
BOX
100
AcDbText
  0
ENDBLK
  5
6E4
100
AcDbEntity
  8
0
  6
CONTINUOUS
100
AcDbBlockEnd
  0
BLOCK
  5
6E6
100
AcDbEntity
  8
0
100
AcDbBlockBegin
  2
*D54
 70
        65
 10
0.0
 20
0.0
 30
0.0
  3
*D54
  1

  0
POINT
  5
6E8
100
AcDbEntity
  8
DEFPOINTS
  6
CONTINUOUS
 62
         0
100
AcDbPoint
 10
1515.1033403763
 20
200.6438554823
 30
0.0
  0
POINT
  5
6E9
100
AcDbEntity
  8
DEFPOINTS
  6
CONTINUOUS
 62
         0
100
AcDbPoint
 10
1515.1033403763
 20
167.6072914602
 30
0.0
  0
POINT
  5
6EA
100
AcDbEntity
  8
DEFPOINTS
  6
CONTINUOUS
 62
         0
100
AcDbPoint
 10
1462.1033403763
 20
171.6846417294
 30
0.0
  0
LINE
  5
6EB
100
AcDbEntity
  8
____
  6
CONTINUOUS
 62
         4
100
AcDbLine
 10
1515.1033403763
 20
168.9572914602
 30
0.0
 11
1515.1033403763
 21
201.3188554823
 31
0.0
  0
LINE
  5
6EC
100
AcDbEntity
  8
____
  6
CONTINUOUS
 62
         4
100
AcDbLine
 10
1462.1033403763
 20
173.0346417294
 30
0.0
 11
1462.1033403763
 21
201.3188554823
 31
0.0
  0
LINE
  5
6ED
100
AcDbEntity
  8
____
  6
CONTINUOUS
 62
         4
100
AcDbLine
 10
1515.1033403763
 20
200.6438554823
 30
0.0
 11
1462.1033403763
 21
200.6438554823
 31
0.0
  0
SOLID
  5
6EE
100
AcDbEntity
  8
____
  6
CONTINUOUS
 62
         4
100
AcDbTrace
 10
1515.1033403763
 20
200.6438554823
 30
0.0
 11
1512.4033403763
 21
200.2388554823
 31
0.0
 12
1512.4033403763
 22
201.0488554823
 32
0.0
 13
1515.1033403763
 23
200.6438554823
 33
0.0
  0
SOLID
  5
6EF
100
AcDbEntity
  8
____
  6
CONTINUOUS
 62
         4
100
AcDbTrace
 10
1462.1033403763
 20
200.6438554823
 30
0.0
 11
1464.8033403763
 21
201.0488554823
 31
0.0
 12
1464.8033403763
 22
200.2388554823
 32
0.0
 13
1462.1033403763
 23
200.6438554823
 33
0.0
  0
TEXT
  5
6F1
100
AcDbEntity
  8
____
  6
CONTINUOUS
 62
         4
100
AcDbText
 10
1481.6016958647
 20
203.7758554823
 30
0.0
 40
2.7
  1
53
  7
BOX
100
AcDbText
  0
ENDBLK
  5
6F2
100
AcDbEntity
  8
0
  6
CONTINUOUS
100
AcDbBlockEnd
  0
BLOCK
  5
6F4
100
AcDbEntity
  8
0
100
AcDbBlockBegin
  2
*D55
 70
        65
 10
0.0
 20
0.0
 30
0.0
  3
*D55
  1

  0
POINT
  5
6F6
100
AcDbEntity
  8
DEFPOINTS
  6
CONTINUOUS
 62
         0
100
AcDbPoint
 10
1465.7083403763
 20
14.1917360085
 30
0.0
  0
POINT
  5
6F7
100
AcDbEntity
  8
DEFPOINTS
  6
CONTINUOUS
 62
         0
100
AcDbPoint
 10
1465.7083403763
 20
7.5566652593
 30
0.0
  0
POINT
  5
6F8
100
AcDbEntity
  8
DEFPOINTS
  6
CONTINUOUS
 62
         0
100
AcDbPoint
 10
1490.3082741959
 20
7.5566652593
 30
0.0
  0
LINE
  5
6F9
100
AcDbEntity
  8
L1_120
  6
CONTINUOUS
 62
         4
100
AcDbLine
 10
1465.7083403763
 20
8.9066652593
 30
0.0
 11
1465.7083403763
 21
14.8667360085
 31
0.0
  0
LINE
  5
6FA
100
AcDbEntity
  8
L1_120
  6
CONTINUOUS
 62
         4
100
AcDbLine
 10
1490.3082741959
 20
8.9066652593
 30
0.0
 11
1490.3082741959
 21
14.8667360085
 31
0.0
  0
LINE
  5
6FB
100
AcDbEntity
  8
L1_120
  6
CONTINUOUS
 62
         4
100
AcDbLine
 10
1465.7083403763
 20
14.1917360085
 30
0.0
 11
1490.3082741959
 21
14.1917360085
 31
0.0
  0
SOLID
  5
6FC
100
AcDbEntity
  8
L1_120
  6
CONTINUOUS
 62
         4
100
AcDbTrace
 10
1465.7083403763
 20
14.1917360085
 30
0.0
 11
1468.4083403763
 21
14.5967360085
 31
0.0
 12
1468.4083403763
 22
13.7867360085
 32
0.0
 13
1465.7083403763
 23
14.1917360085
 33
0.0
  0
SOLID
  5
6FD
100
AcDbEntity
  8
L1_120
  6
CONTINUOUS
 62
         4
100
AcDbTrace
 10
1490.3082741959
 20
14.1917360085
 30
0.0
 11
1487.6082741959
 21
13.7867360085
 31
0.0
 12
1487.6082741959
 22
14.5967360085
 32
0.0
 13
1490.3082741959
 23
14.1917360085
 33
0.0
  0
TEXT
  5
6FF
100
AcDbEntity
  8
L1_120
  6
CONTINUOUS
 62
         4
100
AcDbText
 10
1467.1425313366
 20
17.3237360085
 30
0.0
 40
2.7
  1
24.6
  7
BOX
100
AcDbText
  0
ENDBLK
  5
700
100
AcDbEntity
  8
0
  6
CONTINUOUS
100
AcDbBlockEnd
  0
BLOCK
  5
702
100
AcDbEntity
  8
0
100
AcDbBlockBegin
  2
*D56
 70
        65
 10
0.0
 20
0.0
 30
0.0
  3
*D56
  1

  0
POINT
  5
704
100
AcDbEntity
  8
DEFPOINTS
  6
CONTINUOUS
 62
         0
100
AcDbPoint
 10
1515.1033403763
 20
-48.9530593812
 30
0.0
  0
POINT
  5
705
100
AcDbEntity
  8
DEFPOINTS
  6
CONTINUOUS
 62
         0
100
AcDbPoint
 10
1515.1033403763
 20
-30.3278646868
 30
0.0
  0
POINT
  5
706
100
AcDbEntity
  8
DEFPOINTS
  6
CONTINUOUS
 62
         0
100
AcDbPoint
 10
1490.1033403763
 20
-30.4433347407
 30
0.0
  0
LINE
  5
707
100
AcDbEntity
  8
L1_120
  6
CONTINUOUS
 62
         4
100
AcDbLine
 10
1515.1033403763
 20
-31.6778646868
 30
0.0
 11
1515.1033403763
 21
-49.6280593812
 31
0.0
  0
LINE
  5
708
100
AcDbEntity
  8
L1_120
  6
CONTINUOUS
 62
         4
100
AcDbLine
 10
1490.1033403763
 20
-31.7933347407
 30
0.0
 11
1490.1033403763
 21
-49.6280593812
 31
0.0
  0
LINE
  5
709
100
AcDbEntity
  8
L1_120
  6
CONTINUOUS
 62
         4
100
AcDbLine
 10
1515.1033403763
 20
-48.9530593812
 30
0.0
 11
1490.1033403763
 21
-48.9530593812
 31
0.0
  0
SOLID
  5
70A
100
AcDbEntity
  8
L1_120
  6
CONTINUOUS
 62
         4
100
AcDbTrace
 10
1515.1033403763
 20
-48.9530593812
 30
0.0
 11
1512.4033403763
 21
-49.3580593812
 31
0.0
 12
1512.4033403763
 22
-48.5480593812
 32
0.0
 13
1515.1033403763
 23
-48.9530593812
 33
0.0
  0
SOLID
  5
70B
100
AcDbEntity
  8
L1_120
  6
CONTINUOUS
 62
         4
100
AcDbTrace
 10
1490.1033403763
 20
-48.9530593812
 30
0.0
 11
1492.8033403763
 21
-48.5480593812
 31
0.0
 12
1492.8033403763
 22
-49.3580593812
 32
0.0
 13
1490.1033403763
 23
-48.9530593812
 33
0.0
  0
TEXT
  5
70D
100
AcDbEntity
  8
L1_120
  6
CONTINUOUS
 62
         4
100
AcDbText
 10
1496.9810669833
 20
-45.8210593812
 30
0.0
 40
2.7
  1
25
  7
BOX
100
AcDbText
  0
ENDBLK
  5
70E
100
AcDbEntity
  8
0
  6
CONTINUOUS
100
AcDbBlockEnd
  0
BLOCK
  5
710
100
AcDbEntity
  8
0
100
AcDbBlockBegin
  2
*D57
 70
        65
 10
0.0
 20
0.0
 30
0.0
  3
*D57
  1

  0
POINT
  5
712
100
AcDbEntity
  8
DEFPOINTS
  6
CONTINUOUS
 62
         0
100
AcDbPoint
 10
1515.1033403763
 20
-69.7717555683
 30
0.0
  0
POINT
  5
713
100
AcDbEntity
  8
DEFPOINTS
  6
CONTINUOUS
 62
         0
100
AcDbPoint
 10
1515.1033403763
 20
-30.3278646868
 30
0.0
  0
POINT
  5
714
100
AcDbEntity
  8
DEFPOINTS
  6
CONTINUOUS
 62
         0
100
AcDbPoint
 10
1449.1033403763
 20
-29.4433347407
 30
0.0
  0
LINE
  5
715
100
AcDbEntity
  8
L1_120
  6
CONTINUOUS
 62
         4
100
AcDbLine
 10
1515.1033403763
 20
-31.6778646868
 30
0.0
 11
1515.1033403763
 21
-70.4467555683
 31
0.0
  0
LINE
  5
716
100
AcDbEntity
  8
L1_120
  6
CONTINUOUS
 62
         4
100
AcDbLine
 10
1449.1033403763
 20
-30.7933347407
 30
0.0
 11
1449.1033403763
 21
-70.4467555683
 31
0.0
  0
LINE
  5
717
100
AcDbEntity
  8
L1_120
  6
CONTINUOUS
 62
         4
100
AcDbLine
 10
1515.1033403763
 20
-69.7717555683
 30
0.0
 11
1449.1033403763
 21
-69.7717555683
 31
0.0
  0
SOLID
  5
718
100
AcDbEntity
  8
L1_120
  6
CONTINUOUS
 62
         4
100
AcDbTrace
 10
1515.1033403763
 20
-69.7717555683
 30
0.0
 11
1512.4033403763
 21
-70.1767555683
 31
0.0
 12
1512.4033403763
 22
-69.3667555683
 32
0.0
 13
1515.1033403763
 23
-69.7717555683
 33
0.0
  0
SOLID
  5
719
100
AcDbEntity
  8
L1_120
  6
CONTINUOUS
 62
         4
100
AcDbTrace
 10
1449.1033403763
 20
-69.7717555683
 30
0.0
 11
1451.8033403763
 21
-69.3667555683
 31
0.0
 12
1451.8033403763
 22
-70.1767555683
 32
0.0
 13
1449.1033403763
 23
-69.7717555683
 33
0.0
  0
TEXT
  5
71B
100
AcDbEntity
  8
L1_120
  6
CONTINUOUS
 62
         4
100
AcDbText
 10
1475.2185899024
 20
-66.6397555683
 30
0.0
 40
2.7
  1
66
  7
BOX
100
AcDbText
  0
ENDBLK
  5
71C
100
AcDbEntity
  8
0
  6
CONTINUOUS
100
AcDbBlockEnd
  0
BLOCK
  5
71E
100
AcDbEntity
  8
0
100
AcDbBlockBegin
  2
*D58
 70
        65
 10
0.0
 20
0.0
 30
0.0
  3
*D58
  1

  0
POINT
  5
720
100
AcDbEntity
  8
DEFPOINTS
  6
CONTINUOUS
 62
         0
100
AcDbPoint
 10
1538.6641711857
 20
3.0566652593
 30
0.0
  0
POINT
  5
721
100
AcDbEntity
  8
DEFPOINTS
  6
CONTINUOUS
 62
         0
100
AcDbPoint
 10
1490.1033403763
 20
3.0566652593
 30
0.0
  0
POINT
  5
722
100
AcDbEntity
  8
DEFPOINTS
  6
CONTINUOUS
 62
         0
100
AcDbPoint
 10
1490.1033403763
 20
-28.9433347407
 30
0.0
  0
LINE
  5
723
100
AcDbEntity
  8
L1_120
  6
CONTINUOUS
 62
         4
100
AcDbLine
 10
1491.4533403763
 20
3.0566652593
 30
0.0
 11
1539.3391711857
 21
3.0566652593
 31
0.0
  0
LINE
  5
724
100
AcDbEntity
  8
L1_120
  6
CONTINUOUS
 62
         4
100
AcDbLine
 10
1491.4533403763
 20
-28.9433347407
 30
0.0
 11
1539.3391711857
 21
-28.9433347407
 31
0.0
  0
LINE
  5
725
100
AcDbEntity
  8
L1_120
  6
CONTINUOUS
 62
         4
100
AcDbLine
 10
1538.6641711857
 20
3.0566652593
 30
0.0
 11
1538.6641711857
 21
-28.9433347407
 31
0.0
  0
SOLID
  5
726
100
AcDbEntity
  8
L1_120
  6
CONTINUOUS
 62
         4
100
AcDbTrace
 10
1538.6641711857
 20
3.0566652593
 30
0.0
 11
1539.0691711857
 21
0.3566652593
 31
0.0
 12
1538.2591711857
 22
0.3566652593
 32
0.0
 13
1538.6641711857
 23
3.0566652593
 33
0.0
  0
SOLID
  5
727
100
AcDbEntity
  8
L1_120
  6
CONTINUOUS
 62
         4
100
AcDbTrace
 10
1538.6641711857
 20
-28.9433347407
 30
0.0
 11
1538.2591711857
 21
-26.2433347407
 31
0.0
 12
1539.0691711857
 22
-26.2433347407
 32
0.0
 13
1538.6641711857
 23
-28.9433347407
 33
0.0
  0
TEXT
  5
729
100
AcDbEntity
  8
L1_120
  6
CONTINUOUS
 62
         4
100
AcDbText
 10
1535.5321711857
 20
-20.9507516815
 30
0.0
 40
2.7
  1
崷32
 50
90.0
  7
BOX
100
AcDbText
  0
ENDBLK
  5
72A
100
AcDbEntity
  8
0
  6
CONTINUOUS
100
AcDbBlockEnd
  0
BLOCK
  5
72C
100
AcDbEntity
  8
0
100
AcDbBlockBegin
  2
*D59
 70
        65
 10
0.0
 20
0.0
 30
0.0
  3
*D59
  1

  0
POINT
  5
72E
100
AcDbEntity
  8
DEFPOINTS
  6
CONTINUOUS
 62
         0
100
AcDbPoint
 10
1550.7715864264
 20
4.0566652593
 30
0.0
  0
POINT
  5
72F
100
AcDbEntity
  8
DEFPOINTS
  6
CONTINUOUS
 62
         0
100
AcDbPoint
 10
1514.9033403763
 20
4.0566652593
 30
0.0
  0
POINT
  5
730
100
AcDbEntity
  8
DEFPOINTS
  6
CONTINUOUS
 62
         0
100
AcDbPoint
 10
1514.9033403763
 20
-29.9433347407
 30
0.0
  0
LINE
  5
731
100
AcDbEntity
  8
L1_120
  6
CONTINUOUS
 62
         4
100
AcDbLine
 10
1516.2533403763
 20
4.0566652593
 30
0.0
 11
1551.4465864264
 21
4.0566652593
 31
0.0
  0
LINE
  5
732
100
AcDbEntity
  8
L1_120
  6
CONTINUOUS
 62
         4
100
AcDbLine
 10
1516.2533403763
 20
-29.9433347407
 30
0.0
 11
1551.4465864264
 21
-29.9433347407
 31
0.0
  0
LINE
  5
733
100
AcDbEntity
  8
L1_120
  6
CONTINUOUS
 62
         4
100
AcDbLine
 10
1550.7715864264
 20
4.0566652593
 30
0.0
 11
1550.7715864264
 21
-29.9433347407
 31
0.0
  0
SOLID
  5
734
100
AcDbEntity
  8
L1_120
  6
CONTINUOUS
 62
         4
100
AcDbTrace
 10
1550.7715864264
 20
4.0566652593
 30
0.0
 11
1551.1765864264
 21
1.3566652593
 31
0.0
 12
1550.3665864264
 22
1.3566652593
 32
0.0
 13
1550.7715864264
 23
4.0566652593
 33
0.0
  0
SOLID
  5
735
100
AcDbEntity
  8
L1_120
  6
CONTINUOUS
 62
         4
100
AcDbTrace
 10
1550.7715864264
 20
-29.9433347407
 30
0.0
 11
1550.3665864264
 21
-27.2433347407
 31
0.0
 12
1551.1765864264
 22
-27.2433347407
 32
0.0
 13
1550.7715864264
 23
-29.9433347407
 33
0.0
  0
TEXT
  5
737
100
AcDbEntity
  8
L1_120
  6
CONTINUOUS
 62
         4
100
AcDbText
 10
1547.6395864264
 20
-21.6075939878
 30
0.0
 40
2.7
  1
崷34
 50
90.0
  7
BOX
100
AcDbText
  0
ENDBLK
  5
738
100
AcDbEntity
  8
0
  6
CONTINUOUS
100
AcDbBlockEnd
  0
ENDSEC
  0
SECTION
  2
ENTITIES
  0
LINE
  5
25
100
AcDbEntity
  8
L1_120
  6
CONTINUOUS
 62
         4
100
AcDbLine
 10
1514.6033403763
 20
-29.9433347407
 30
0.0
 11
1514.6033403763
 21
4.0566652593
 31
0.0
  0
ARC
  5
26
100
AcDbEntity
  8
L1_120
  6
CONTINUOUS
 62
         7
100
AcDbCircle
 10
1514.6033403763
 20
4.5566652593
 30
0.0
 40
0.5
100
AcDbArc
 50
270.0
 51
360.0
  0
ARC
  5
27
100
AcDbEntity
  8
L1_120
  6
CONTINUOUS
 62
         7
100
AcDbCircle
 10
1514.6033403763
 20
-30.4433347407
 30
0.0
 40
0.5
100
AcDbArc
 50
0.0
 51
90.0
  0
LINE
  5
28
100
AcDbEntity
  8
L1_120
  6
CONTINUOUS
 62
         7
100
AcDbLine
 10
1448.6033403763
 20
-10.4433347407
 30
0.0
 11
1448.6033403763
 21
-15.4433347407
 31
0.0
  0
LINE
  5
29
100
AcDbEntity
  8
L1_120
  6
CONTINUOUS
 62
         7
100
AcDbLine
 10
1449.1033403763
 20
-15.9433347407
 30
0.0
 11
1449.1033403763
 21
-9.9433347407
 31
0.0
  0
LINE
  5
2A
100
AcDbEntity
  8
L1_120
  6
CONTINUOUS
 62
         7
100
AcDbLine
 10
1448.6033403763
 20
-15.4433347407
 30
0.0
 11
1449.1033403763
 21
-15.9433347407
 31
0.0
  0
LINE
  5
2B
100
AcDbEntity
  8
L1_120
  6
CONTINUOUS
 62
         7
100
AcDbLine
 10
1448.6033403763
 20
-10.4433347407
 30
0.0
 11
1449.1033403763
 21
-9.9433347407
 31
0.0
  0
LINE
  5
2C
100
AcDbEntity
  8
L1_120
  6
CONTINUOUS
 62
         4
100
AcDbLine
 10
1419.1078769368
 20
9.1238663024
 30
0.0
 11
1419.5361393332
 21
9.5521286988
 31
0.0
  0
LINE
  5
2D
100
AcDbEntity
  8
L1_120
  6
CONTINUOUS
 62
         4
100
AcDbLine
 10
1461.6067043884
 20
-35.443323424
 30
0.0
 11
1462.1033290595
 21
-34.9466987529
 31
0.0
  0
LINE
  5
2E
100
AcDbEntity
  8
L1_120
  6
CONTINUOUS
 62
         7
100
AcDbLine
 10
1449.1033403763
 20
-9.9433347407
 30
0.0
 11
1449.1033403763
 21
3.5566652593
 31
0.0
  0
LINE
  5
2F
100
AcDbEntity
  8
_Y__________
  6
CENTER
 62
         1
100
AcDbLine
 10
1320.7932233608
 20
148.0884632021
 30
0.0
 11
1320.1033403763
 21
150.1846417294
 31
0.0
  0
LINE
  5
30
100
AcDbEntity
  8
_Y__________
  6
CENTER
 62
         1
100
AcDbLine
 10
1320.7932233608
 20
152.2808202566
 30
0.0
 11
1320.1033403763
 21
150.1846417294
 31
0.0
  0
ARC
  5
31
100
AcDbEntity
  8
_Y__________
  6
CONTINUOUS
 62
         7
100
AcDbCircle
 10
1310.9356688532
 20
150.1846417294
 30
0.0
 40
10.0779633503
100
AcDbArc
 50
347.9950471653
 51
372.0049528347
  0
LINE
  5
32
100
AcDbEntity
  8
_Y__________
  6
DASHED
 62
         2
100
AcDbLine
 10
1320.7433031057
 20
152.3096417294
 30
0.0
 11
1323.0382704257
 21
150.9846417294
 31
0.0
  0
LINE
  5
33
100
AcDbEntity
  8
_Y__________
  6
DASHED
 62
         2
100
AcDbLine
 10
1320.7433031057
 20
148.0596417294
 30
0.0
 11
1323.0382704257
 21
149.3846417294
 31
0.0
  0
LINE
  5
34
100
AcDbEntity
  8
_Y__________
  6
DASHED
 62
         2
100
AcDbLine
 10
1323.0382704257
 20
149.3846417294
 30
0.0
 11
1323.0382704257
 21
150.9846417294
 31
0.0
  0
LINE
  5
35
100
AcDbEntity
  8
_Y__________
  6
DASHED
 62
         2
100
AcDbLine
 10
1323.9845317817
 20
149.3846417294
 30
0.0
 11
1323.0382704257
 21
149.3846417294
 31
0.0
  0
LINE
  5
36
100
AcDbEntity
  8
_Y__________
  6
DASHED
 62
         2
100
AcDbLine
 10
1323.9845317817
 20
150.9846417294
 30
0.0
 11
1323.0382704257
 21
150.9846417294
 31
0.0
  0
LINE
  5
37
100
AcDbEntity
  8
_Y__________
  6
DASHED
 62
         2
100
AcDbLine
 10
1323.9845317817
 20
150.9846417294
 30
0.0
 11
1324.446411997
 21
150.1846417294
 31
0.0
  0
LINE
  5
38
100
AcDbEntity
  8
_Y__________
  6
DASHED
 62
         2
100
AcDbLine
 10
1323.9845317817
 20
149.3846417294
 30
0.0
 11
1323.9845317817
 21
150.9846417294
 31
0.0
  0
LINE
  5
39
100
AcDbEntity
  8
_Y__________
  6
DASHED
 62
         2
100
AcDbLine
 10
1323.9845317817
 20
149.3846417294
 30
0.0
 11
1324.446411997
 21
150.1846417294
 31
0.0
  0
LINE
  5
3A
100
AcDbEntity
  8
_Y__________
  6
CENTER
 62
         1
100
AcDbLine
 10
1515.1033403763
 20
150.1846417294
 30
0.0
 11
1320.1033403763
 21
150.1846417294
 31
0.0
  0
LINE
  5
3B
100
AcDbEntity
  8
_Y__________
  6
CONTINUOUS
 62
         7
100
AcDbLine
 10
1340.1033403763
 20
140.1293838433
 30
0.0
 11
1339.2980824902
 21
140.9346417294
 31
0.0
  0
ARC
  5
3C
100
AcDbEntity
  8
_Y__________
  6
CONTINUOUS
 62
         7
100
AcDbCircle
 10
1332.5076480417
 20
139.2346417294
 30
0.0
 40
7.0
100
AcDbArc
 50
14.0552328202
 51
90.0
  0
ARC
  5
3D
100
AcDbEntity
  8
_Y__________
  6
CONTINUOUS
 62
         7
100
AcDbCircle
 10
1332.5076480417
 20
161.1346417294
 30
0.0
 40
7.0
100
AcDbArc
 50
270.0
 51
345.9447671798
  0
LINE
  5
3E
100
AcDbEntity
  8
_Y__________
  6
CONTINUOUS
 62
         7
100
AcDbLine
 10
1339.2980824902
 20
140.9346417294
 30
0.0
 11
1339.2980824902
 21
159.4346417294
 31
0.0
  0
LINE
  5
3F
100
AcDbEntity
  8
_Y__________
  6
CONTINUOUS
 62
         7
100
AcDbLine
 10
1320.7932233608
 20
148.0884632021
 30
0.0
 11
1321.4033430972
 21
146.2346417294
 31
0.0
  0
LINE
  5
40
100
AcDbEntity
  8
_Y__________
  6
CONTINUOUS
 62
         7
100
AcDbLine
 10
1320.7932233608
 20
152.2808202566
 30
0.0
 11
1321.4033430972
 21
154.1346417294
 31
0.0
  0
LINE
  5
41
100
AcDbEntity
  8
_Y__________
  6
CONTINUOUS
 62
         7
100
AcDbLine
 10
1321.4033430972
 20
146.2346417294
 30
0.0
 11
1321.4033430972
 21
154.1346417294
 31
0.0
  0
LINE
  5
42
100
AcDbEntity
  8
_Y__________
  6
CONTINUOUS
 62
         7
100
AcDbLine
 10
1340.1033403763
 20
140.1293838433
 30
0.0
 11
1340.0370573172
 21
140.1956669024
 31
0.0
  0
LINE
  5
43
100
AcDbEntity
  8
_Y__________
  6
CONTINUOUS
 62
         7
100
AcDbLine
 10
1340.1033403763
 20
160.2398996154
 30
0.0
 11
1339.2980824902
 21
159.4346417294
 31
0.0
  0
LINE
  5
44
100
AcDbEntity
  8
_Y__________
  6
CONTINUOUS
 62
         7
100
AcDbLine
 10
1332.5076480417
 20
146.2346417294
 30
0.0
 11
1321.4033430972
 21
146.2346417294
 31
0.0
  0
LINE
  5
45
100
AcDbEntity
  8
_Y__________
  6
CONTINUOUS
 62
         7
100
AcDbLine
 10
1332.5076480417
 20
154.1346417294
 30
0.0
 11
1321.4033430972
 21
154.1346417294
 31
0.0
  0
LINE
  5
46
100
AcDbEntity
  8
_Y__________
  6
CONTINUOUS
 62
         7
100
AcDbLine
 10
1340.1033403763
 20
140.1293838433
 30
0.0
 11
1340.1033403763
 21
160.2398996154
 31
0.0
  0
LINE
  5
47
100
AcDbEntity
  8
_Y__________
  6
CONTINUOUS
 62
         7
100
AcDbLine
 10
1415.2037002384
 20
138.2445250446
 30
0.0
 11
1340.1033403763
 21
140.1293838433
 31
0.0
  0
LINE
  5
48
100
AcDbEntity
  8
_Y__________
  6
CONTINUOUS
 62
         7
100
AcDbLine
 10
1415.2037002384
 20
162.1247584142
 30
0.0
 11
1340.1033403763
 21
160.2398996154
 31
0.0
  0
LINE
  5
49
100
AcDbEntity
  8
_Y__________
  6
CONTINUOUS
 62
         7
100
AcDbLine
 10
1419.1033403763
 20
172.1846417294
 30
0.0
 11
1419.1033403763
 21
128.1846417294
 31
0.0
  0
LINE
  5
4A
100
AcDbEntity
  8
_Y__________
  6
CENTER
 62
         1
100
AcDbLine
 10
1414.1033403763
 20
138.1346417294
 30
0.0
 11
1414.1033403763
 21
162.2346417294
 31
0.0
  0
LINE
  5
4B
100
AcDbEntity
  8
_Y__________
  6
CONTINUOUS
 62
         7
100
AcDbLine
 10
1419.1033403763
 20
9.0566652593
 30
0.0
 11
1419.1033403763
 21
-34.9433347407
 31
0.0
  0
LINE
  5
4C
100
AcDbEntity
  8
_Y__________
  6
CONTINUOUS
 62
         7
100
AcDbLine
 10
1340.1033403763
 20
-22.9985926267
 30
0.0
 11
1340.1033403763
 21
-2.8880768546
 31
0.0
  0
LINE
  5
4D
100
AcDbEntity
  8
_Y__________
  6
CONTINUOUS
 62
         7
100
AcDbLine
 10
1415.2037002384
 20
-1.0032180559
 30
0.0
 11
1340.1033403763
 21
-2.8880768546
 31
0.0
  0
LINE
  5
4E
100
AcDbEntity
  8
_Y__________
  6
CONTINUOUS
 62
         7
100
AcDbLine
 10
1415.2037002384
 20
-24.8834514255
 30
0.0
 11
1340.1033403763
 21
-22.9985926267
 31
0.0
  0
LINE
  5
4F
100
AcDbEntity
  8
_Y__________
  6
CONTINUOUS
 62
         7
100
AcDbLine
 10
1339.2980824902
 20
-3.6933347407
 30
0.0
 11
1331.7898020945
 21
-3.6933347407
 31
0.0
  0
LINE
  5
50
100
AcDbEntity
  8
_Y__________
  6
CONTINUOUS
 62
         7
100
AcDbLine
 10
1339.2980824902
 20
-22.1933347407
 30
0.0
 11
1331.7898020945
 21
-22.1933347407
 31
0.0
  0
LINE
  5
51
100
AcDbEntity
  8
_Y__________
  6
CONTINUOUS
 62
         7
100
AcDbLine
 10
1340.1033403763
 20
-2.8880768546
 30
0.0
 11
1339.2980824902
 21
-3.6933347407
 31
0.0
  0
LINE
  5
52
100
AcDbEntity
  8
_Y__________
  6
CONTINUOUS
 62
         7
100
AcDbLine
 10
1340.1033403763
 20
-22.9985926267
 30
0.0
 11
1339.2980824902
 21
-22.1933347407
 31
0.0
  0
LINE
  5
53
100
AcDbEntity
  8
_Y__________
  6
CONTINUOUS
 62
         7
100
AcDbLine
 10
1339.2980824902
 20
-22.1933347407
 30
0.0
 11
1339.2980824902
 21
-3.6933347407
 31
0.0
  0
LINE
  5
54
100
AcDbEntity
  8
_Y__________
  6
CONTINUOUS
 62
         7
100
AcDbLine
 10
1321.1613804354
 20
-5.4149885388
 30
0.0
 11
1320.427605741
 21
-10.6360667822
 31
0.0
  0
LINE
  5
55
100
AcDbEntity
  8
_Y__________
  6
CONTINUOUS
 62
         7
100
AcDbLine
 10
1321.1613804354
 20
-20.4716809426
 30
0.0
 11
1320.427605741
 21
-15.2506026992
 31
0.0
  0
ARC
  5
56
100
AcDbEntity
  8
_Y__________
  6
CONTINUOUS
 62
         7
100
AcDbCircle
 10
1323.1419165729
 20
-20.1933347407
 30
0.0
 40
2.0
100
AcDbArc
 50
188.0
 51
270.0
  0
ARC
  5
57
100
AcDbEntity
  8
_Y__________
  6
CONTINUOUS
 62
         7
100
AcDbCircle
 10
1323.1419165729
 20
-5.6933347407
 30
0.0
 40
2.0
100
AcDbArc
 50
90.0
 51
172.0
  0
LINE
  5
58
100
AcDbEntity
  8
_Y__________
  6
CONTINUOUS
 62
         7
100
AcDbLine
 10
1332.2980824902
 20
-3.9433347407
 30
0.0
 11
1331.2620584707
 21
-3.9433347407
 31
0.0
  0
LINE
  5
59
100
AcDbEntity
  8
_Y__________
  6
CONTINUOUS
 62
         7
100
AcDbLine
 10
1321.3787021199
 20
-5.6649885388
 30
0.0
 11
1320.5482670354
 21
-11.5738411949
 31
0.0
  0
LINE
  5
5A
100
AcDbEntity
  8
_Y__________
  6
CONTINUOUS
 62
         7
100
AcDbLine
 10
1321.3787021199
 20
-20.2216809426
 30
0.0
 11
1320.5482670354
 21
-14.3128282865
 31
0.0
  0
LINE
  5
5B
100
AcDbEntity
  8
_Y__________
  6
CONTINUOUS
 62
         7
100
AcDbLine
 10
1332.2980824902
 20
-21.9433347407
 30
0.0
 11
1331.2620584707
 21
-21.9433347407
 31
0.0
  0
ARC
  5
5C
100
AcDbEntity
  8
_Y__________
  6
CONTINUOUS
 62
         7
100
AcDbCircle
 10
1323.3592382573
 20
-5.9433347407
 30
0.0
 40
2.0
100
AcDbArc
 50
90.0
 51
172.0
  0
ARC
  5
5D
100
AcDbEntity
  8
_Y__________
  6
CONTINUOUS
 62
         7
100
AcDbCircle
 10
1323.3592382573
 20
-19.9433347407
 30
0.0
 40
2.0
100
AcDbArc
 50
188.0
 51
270.0
  0
ARC
  5
5E
100
AcDbEntity
  8
_Y__________
  6
CONTINUOUS
 62
         7
100
AcDbCircle
 10
1332.2980824902
 20
-10.9433347407
 30
0.0
 40
7.0
100
AcDbArc
 50
0.0
 51
90.0
  0
ARC
  5
5F
100
AcDbEntity
  8
_Y__________
  6
CONTINUOUS
 62
         7
100
AcDbCircle
 10
1332.2980824902
 20
-14.9433347407
 30
0.0
 40
7.0
100
AcDbArc
 50
270.0
 51
360.0
  0
LINE
  5
60
100
AcDbEntity
  8
_Y__________
  6
CENTER
 62
         1
100
AcDbLine
 10
1515.1033403763
 20
-12.9433347407
 30
0.0
 11
1320.1033403763
 21
-12.9433347407
 31
0.0
  0
LINE
  5
61
100
AcDbEntity
  8
_Y__________
  6
CENTER
 62
         1
100
AcDbLine
 10
1320.1033403763
 20
-12.9433347407
 30
0.0
 11
1320.427605741
 21
-15.2506026992
 31
0.0
  0
LINE
  5
62
100
AcDbEntity
  8
_Y__________
  6
CENTER
 62
         1
100
AcDbLine
 10
1320.427605741
 20
-10.6360667822
 30
0.0
 11
1320.1033403763
 21
-12.9433347407
 31
0.0
  0
ARC
  5
63
100
AcDbEntity
  8
_Y__________
  6
CONTINUOUS
 62
         7
100
AcDbCircle
 10
1306.2001199129
 20
-12.9433347407
 30
0.0
 40
14.4133562511
100
AcDbArc
 50
350.7885493043
 51
369.2114506957
  0
LINE
  5
64
100
AcDbEntity
  8
_Y__________
  6
CENTER
 62
         1
100
AcDbLine
 10
1328.1033403763
 20
-24.7495328666
 30
0.0
 11
1328.1033403763
 21
-1.6205566858
 31
0.0
  0
ARC
  5
65
100
AcDbEntity
  8
_Y__________
  6
CONTINUOUS
 62
         7
100
AcDbCircle
 10
1328.1033403763
 20
-29.2933347407
 30
0.0
 40
8.0
100
AcDbArc
 50
62.5607598493
 51
117.4392401507
  0
LINE
  5
66
100
AcDbEntity
  8
_Y__________
  6
CONTINUOUS
 62
         7
100
AcDbLine
 10
1324.416878658
 20
-22.1933347407
 30
0.0
 11
1323.1419165729
 21
-22.1933347407
 31
0.0
  0
LINE
  5
67
100
AcDbEntity
  8
_Y__________
  6
CONTINUOUS
 62
         7
100
AcDbLine
 10
1324.9446222818
 20
-21.9433347407
 30
0.0
 11
1323.3592382573
 21
-21.9433347407
 31
0.0
  0
ARC
  5
68
100
AcDbEntity
  8
_Y__________
  6
CONTINUOUS
 62
         7
100
AcDbCircle
 10
1328.1033403763
 20
3.4066652593
 30
0.0
 40
8.0
100
AcDbArc
 50
242.5607598493
 51
297.4392401507
  0
LINE
  5
69
100
AcDbEntity
  8
_Y__________
  6
CONTINUOUS
 62
         7
100
AcDbLine
 10
1324.416878658
 20
-3.6933347407
 30
0.0
 11
1323.1419165729
 21
-3.6933347407
 31
0.0
  0
LINE
  5
6A
100
AcDbEntity
  8
_Y__________
  6
CONTINUOUS
 62
         7
100
AcDbLine
 10
1324.9446222818
 20
-3.9433347407
 30
0.0
 11
1323.3592382573
 21
-3.9433347407
 31
0.0
  0
LINE
  5
6B
100
AcDbEntity
  8
L1_120
  6
DASHED
 62
         2
100
AcDbLine
 10
1736.1143616913
 20
162.80862256
 30
0.0
 11
1737.4053262881
 21
165.0446388325
 31
0.0
  0
LINE
  5
6C
100
AcDbEntity
  8
L1_120
  6
DASHED
 62
         2
100
AcDbLine
 10
1727.800517815
 20
167.60862256
 30
0.0
 11
1729.0914824118
 21
169.8446388325
 31
0.0
  0
LINE
  5
6D
100
AcDbEntity
  8
L1_120
  6
DASHED
 62
         2
100
AcDbLine
 10
1727.800517815
 20
132.7606608987
 30
0.0
 11
1729.0914824118
 21
130.5246446263
 31
0.0
  0
LINE
  5
6E
100
AcDbEntity
  8
L1_120
  6
DASHED
 62
         2
100
AcDbLine
 10
1736.1143616913
 20
137.5606608987
 30
0.0
 11
1737.4053262881
 21
135.3246446263
 31
0.0
  0
LINE
  5
6F
100
AcDbEntity
  8
L1_120
  6
DASHED
 62
         2
100
AcDbLine
 10
1705.9351416225
 20
145.3846417294
 30
0.0
 11
1703.3532124288
 21
145.3846417294
 31
0.0
  0
LINE
  5
70
100
AcDbEntity
  8
L1_120
  6
DASHED
 62
         2
100
AcDbLine
 10
1705.9351416225
 20
154.9846417294
 30
0.0
 11
1703.3532124288
 21
154.9846417294
 31
0.0
  0
LINE
  5
71
100
AcDbEntity
  8
L1_120
  6
CONTINUOUS
 62
         7
100
AcDbLine
 10
1465.7083403763
 20
3.0566652593
 30
0.0
 11
1465.7083403763
 21
7.5566652593
 31
0.0
  0
LINE
  5
72
100
AcDbEntity
  8
L1_120
  6
CONTINUOUS
 62
         7
100
AcDbLine
 10
1490.3082741959
 20
4.5566652593
 30
0.0
 11
1490.3082741959
 21
7.5566652593
 31
0.0
  0
ARC
  5
73
100
AcDbEntity
  8
L1_120
  6
CONTINUOUS
 62
         7
100
AcDbCircle
 10
1470.5083403763
 20
150.1846417294
 30
0.0
 40
4.8
100
AcDbArc
 50
90.0
 51
270.0
  0
ARC
  5
74
100
AcDbEntity
  8
L1_120
  6
CONTINUOUS
 62
         7
100
AcDbCircle
 10
1485.5082741959
 20
150.1846417294
 30
0.0
 40
4.8
100
AcDbArc
 50
270.0
 51
450.0
  0
LINE
  5
75
100
AcDbEntity
  8
L1_120
  6
CONTINUOUS
 62
         7
100
AcDbLine
 10
1485.5082741959
 20
145.3846417294
 30
0.0
 11
1470.5083403763
 21
145.3846417294
 31
0.0
  0
LINE
  5
76
100
AcDbEntity
  8
L1_120
  6
CONTINUOUS
 62
         7
100
AcDbLine
 10
1485.5082741959
 20
154.9846417294
 30
0.0
 11
1470.5083403763
 21
154.9846417294
 31
0.0
  0
DIMENSION
  5
7A
100
AcDbEntity
  8
L1_120
  6
CONTINUOUS
 62
         4
100
AcDbDimension
  2
*D0
 10
1434.1020155108
 20
-80.3619234481
 30
0.0
 11
1471.6776779435
 21
-77.2299234481
 31
0.0
  3
DIMSTYLE1
100
AcDbAlignedDimension
 13
1434.1020155108
 23
-15.4433347407
 33
0.0
 14
1515.1033403763
 24
-30.6546596061
 34
0.0
100
AcDbRotatedDimension
  0
LINE
  5
87
100
AcDbEntity
  8
L1_120
  6
CONTINUOUS
 62
         7
100
AcDbLine
 10
1490.1033403763
 20
-25.5806430779
 30
0.0
 11
1490.1033403763
 21
4.5566652593
 31
0.0
  0
LINE
  5
88
100
AcDbEntity
  8
L1_120
  6
CONTINUOUS
 62
         4
100
AcDbLine
 10
1489.1033403763
 20
-24.6572882157
 30
0.0
 11
1489.1033403763
 21
3.0566652593
 31
0.0
  0
POLYLINE
  5
8A
100
AcDbEntity
  8
L1_120
  6
CONTINUOUS
 62
         7
100
AcDb2dPolyline
 66
         1
 10
0.0
 20
0.0
 30
0.0
 70
         2
  0
VERTEX
  5
8C
100
AcDbEntity
  8
L1_120
  6
CONTINUOUS
 62
         7
100
AcDbVertex
100
AcDb2dVertex
 10
1485.7532741959
 20
-28.555793389
 30
0.0
 70
         1
  0
VERTEX
  5
8E
100
AcDbEntity
  8
L1_120
  6
CONTINUOUS
 62
         7
100
AcDbVertex
100
AcDb2dVertex
 10
1486.7818757807
 20
-28.5142144948
 30
0.0
 70
         1
  0
VERTEX
  5
90
100
AcDbEntity
  8
L1_120
  6
CONTINUOUS
 62
         7
100
AcDbVertex
100
AcDb2dVertex
 10
1487.2334173717
 20
-28.46854881
 30
0.0
 70
         1
  0
VERTEX
  5
92
100
AcDbEntity
  8
L1_120
  6
CONTINUOUS
 62
         7
100
AcDbVertex
100
AcDb2dVertex
 10
1487.6403817474
 20
-28.4115787889
 30
0.0
 70
         1
  0
VERTEX
  5
94
100
AcDbEntity
  8
L1_120
  6
CONTINUOUS
 62
         7
100
AcDbVertex
100
AcDb2dVertex
 10
1488.0034759438
 20
-28.3467172746
 30
0.0
 70
         1
  0
VERTEX
  5
96
100
AcDbEntity
  8
L1_120
  6
CONTINUOUS
 62
         7
100
AcDbVertex
100
AcDb2dVertex
 10
1488.3248356266
 20
-28.2768329894
 30
0.0
 70
         1
  0
VERTEX
  5
98
100
AcDbEntity
  8
L1_120
  6
CONTINUOUS
 62
         7
100
AcDbVertex
100
AcDb2dVertex
 10
1488.6074782947
 20
-28.2042493303
 30
0.0
 70
         1
  0
VERTEX
  5
9A
100
AcDbEntity
  8
L1_120
  6
CONTINUOUS
 62
         7
100
AcDbVertex
100
AcDb2dVertex
 10
1488.9330704075
 20
-28.105380338
 30
0.0
 70
         1
  0
VERTEX
  5
9C
100
AcDbEntity
  8
L1_120
  6
CONTINUOUS
 62
         7
100
AcDbVertex
100
AcDb2dVertex
 10
1489.2035582159
 20
-28.008088282
 30
0.0
 70
         1
  0
VERTEX
  5
9E
100
AcDbEntity
  8
L1_120
  6
CONTINUOUS
 62
         7
100
AcDbVertex
100
AcDb2dVertex
 10
1489.4273796738
 20
-27.9144702006
 30
0.0
 70
         1
  0
VERTEX
  5
A0
100
AcDbEntity
  8
L1_120
  6
CONTINUOUS
 62
         7
100
AcDbVertex
100
AcDb2dVertex
 10
1489.6121680588
 20
-27.825786137
 30
0.0
 70
         1
  0
VERTEX
  5
A2
100
AcDbEntity
  8
L1_120
  6
CONTINUOUS
 62
         7
100
AcDbVertex
100
AcDb2dVertex
 10
1489.8115368066
 20
-27.7148859904
 30
0.0
 70
         1
  0
VERTEX
  5
A4
100
AcDbEntity
  8
L1_120
  6
CONTINUOUS
 62
         7
100
AcDbVertex
100
AcDb2dVertex
 10
1489.9652222816
 20
-27.6146892033
 30
0.0
 70
         1
  0
VERTEX
  5
A6
100
AcDbEntity
  8
L1_120
  6
CONTINUOUS
 62
         7
100
AcDbVertex
100
AcDb2dVertex
 10
1490.1194727235
 20
-27.4952086406
 30
0.0
 70
         1
  0
VERTEX
  5
A8
100
AcDbEntity
  8
L1_120
  6
CONTINUOUS
 62
         7
100
AcDbVertex
100
AcDb2dVertex
 10
1490.22848735
 20
-27.3932216393
 30
0.0
 70
         1
  0
VERTEX
  5
AA
100
AcDbEntity
  8
L1_120
  6
CONTINUOUS
 62
         7
100
AcDbVertex
100
AcDb2dVertex
 10
1490.3284835226
 20
-27.2780585908
 30
0.0
 70
         1
  0
VERTEX
  5
AC
100
AcDbEntity
  8
L1_120
  6
CONTINUOUS
 62
         7
100
AcDbVertex
100
AcDb2dVertex
 10
1490.4094033716
 20
-27.155980512
 30
0.0
 70
         1
  0
VERTEX
  5
AE
100
AcDbEntity
  8
L1_120
  6
CONTINUOUS
 62
         7
100
AcDbVertex
100
AcDb2dVertex
 10
1490.4646742951
 20
-27.0369998626
 30
0.0
 70
         1
  0
VERTEX
  5
B0
100
AcDbEntity
  8
L1_120
  6
CONTINUOUS
 62
         7
100
AcDbVertex
100
AcDb2dVertex
 10
1490.5005020396
 20
-26.9001034487
 30
0.0
 70
         1
  0
VERTEX
  5
B2
100
AcDbEntity
  8
L1_120
  6
CONTINUOUS
 62
         7
100
AcDbVertex
100
AcDb2dVertex
 10
1490.5082741959
 20
-26.7997412012
 30
0.0
 70
         1
  0
SEQEND
  5
B4
100
AcDbEntity
  8
L1_120
  6
CONTINUOUS
 62
         7
  0
POLYLINE
  5
B6
100
AcDbEntity
  8
L1_120
  6
CONTINUOUS
 62
         7
100
AcDb2dPolyline
 66
         1
 10
0.0
 20
0.0
 30
0.0
 70
         2
  0
VERTEX
  5
B8
100
AcDbEntity
  8
L1_120
  6
CONTINUOUS
 62
         7
100
AcDbVertex
100
AcDb2dVertex
 10
1490.5082741959
 20
-26.7997412012
 30
0.0
 70
         1
  0
VERTEX
  5
BA
100
AcDbEntity
  8
L1_120
  6
CONTINUOUS
 62
         7
100
AcDbVertex
100
AcDb2dVertex
 10
1490.4436953644
 20
-26.303879188
 30
0.0
 70
         1
  0
VERTEX
  5
BC
100
AcDbEntity
  8
L1_120
  6
CONTINUOUS
 62
         7
100
AcDbVertex
100
AcDb2dVertex
 10
1490.3700860658
 20
-26.0772172717
 30
0.0
 70
         1
  0
VERTEX
  5
BE
100
AcDbEntity
  8
L1_120
  6
CONTINUOUS
 62
         7
100
AcDbVertex
100
AcDb2dVertex
 10
1490.2751135935
 20
-25.8659867446
 30
0.0
 70
         1
  0
VERTEX
  5
C0
100
AcDbEntity
  8
L1_120
  6
CONTINUOUS
 62
         7
100
AcDbVertex
100
AcDb2dVertex
 10
1490.1630799965
 20
-25.6704694554
 30
0.0
 70
         1
  0
VERTEX
  5
C2
100
AcDbEntity
  8
L1_120
  6
CONTINUOUS
 62
         7
100
AcDbVertex
100
AcDb2dVertex
 10
1489.9925348213
 20
-25.4323179417
 30
0.0
 70
         1
  0
VERTEX
  5
C4
100
AcDbEntity
  8
L1_120
  6
CONTINUOUS
 62
         7
100
AcDbVertex
100
AcDb2dVertex
 10
1489.8063846546
 20
-25.2211094049
 30
0.0
 70
         1
  0
VERTEX
  5
C6
100
AcDbEntity
  8
L1_120
  6
CONTINUOUS
 62
         7
100
AcDbVertex
100
AcDb2dVertex
 10
1489.6113227132
 20
-25.0350528979
 30
0.0
 70
         1
  0
VERTEX
  5
C8
100
AcDbEntity
  8
L1_120
  6
CONTINUOUS
 62
         7
100
AcDbVertex
100
AcDb2dVertex
 10
1489.343696699
 20
-24.8204329025
 30
0.0
 70
         1
  0
VERTEX
  5
CA
100
AcDbEntity
  8
L1_120
  6
CONTINUOUS
 62
         7
100
AcDbVertex
100
AcDb2dVertex
 10
1489.0788192027
 20
-24.641943858
 30
0.0
 70
         1
  0
VERTEX
  5
CC
100
AcDbEntity
  8
L1_120
  6
CONTINUOUS
 62
         7
100
AcDbVertex
100
AcDb2dVertex
 10
1488.7358978364
 20
-24.4485558922
 30
0.0
 70
         1
  0
VERTEX
  5
CE
100
AcDbEntity
  8
L1_120
  6
CONTINUOUS
 62
         7
100
AcDbVertex
100
AcDb2dVertex
 10
1488.4178235669
 20
-24.2993163516
 30
0.0
 70
         1
  0
VERTEX
  5
D0
100
AcDbEntity
  8
L1_120
  6
CONTINUOUS
 62
         7
100
AcDbVertex
100
AcDb2dVertex
 10
1488.0314641061
 20
-24.1498526392
 30
0.0
 70
         1
  0
VERTEX
  5
D2
100
AcDbEntity
  8
L1_120
  6
CONTINUOUS
 62
         7
100
AcDbVertex
100
AcDb2dVertex
 10
1487.6977358477
 20
-24.0447526734
 30
0.0
 70
         1
  0
VERTEX
  5
D4
100
AcDbEntity
  8
L1_120
  6
CONTINUOUS
 62
         7
100
AcDbVertex
100
AcDb2dVertex
 10
1487.3185870831
 20
-23.9490615515
 30
0.0
 70
         1
  0
VERTEX
  5
D6
100
AcDbEntity
  8
L1_120
  6
CONTINUOUS
 62
         7
100
AcDbVertex
100
AcDb2dVertex
 10
1486.9159979367
 20
-23.872440803
 30
0.0
 70
         1
  0
VERTEX
  5
D8
100
AcDbEntity
  8
L1_120
  6
CONTINUOUS
 62
         7
100
AcDbVertex
100
AcDb2dVertex
 10
1486.5247064987
 20
-23.8207884671
 30
0.0
 70
         1
  0
VERTEX
  5
DA
100
AcDbEntity
  8
L1_120
  6
CONTINUOUS
 62
         7
100
AcDbVertex
100
AcDb2dVertex
 10
1486.1863788912
 20
-23.7933425279
 30
0.0
 70
         1
  0
VERTEX
  5
DC
100
AcDbEntity
  8
L1_120
  6
CONTINUOUS
 62
         7
100
AcDbVertex
100
AcDb2dVertex
 10
1485.8581722611
 20
-23.781528093
 30
0.0
 70
         1
  0
VERTEX
  5
DE
100
AcDbEntity
  8
L1_120
  6
CONTINUOUS
 62
         7
100
AcDbVertex
100
AcDb2dVertex
 10
1485.7532741959
 20
-23.780793389
 30
0.0
 70
         1
  0
SEQEND
  5
E0
100
AcDbEntity
  8
L1_120
  6
CONTINUOUS
 62
         7
  0
LINE
  5
E1
100
AcDbEntity
  8
L1_120
  6
CONTINUOUS
 62
         7
100
AcDbLine
 10
1485.7532741959
 20
-23.780793389
 30
0.0
 11
1470.2633403762
 21
-23.7807932717
 31
0.0
  0
LINE
  5
E2
100
AcDbEntity
  8
L1_120
  6
CONTINUOUS
 62
         7
100
AcDbLine
 10
1485.7532780192
 20
-28.555793389
 30
0.0
 11
1470.2633403632
 21
-28.5557932717
 31
0.0
  0
POLYLINE
  5
E4
100
AcDbEntity
  8
L1_120
  6
CONTINUOUS
 62
         7
100
AcDb2dPolyline
 66
         1
 10
0.0
 20
0.0
 30
0.0
 70
         2
  0
VERTEX
  5
E6
100
AcDbEntity
  8
L1_120
  6
CONTINUOUS
 62
         7
100
AcDbVertex
100
AcDb2dVertex
 10
1465.5083403763
 20
-26.7997410839
 30
0.0
 70
         1
  0
VERTEX
  5
E8
100
AcDbEntity
  8
L1_120
  6
CONTINUOUS
 62
         7
100
AcDbVertex
100
AcDb2dVertex
 10
1465.5656955029
 20
-27.0716664298
 30
0.0
 70
         1
  0
VERTEX
  5
EA
100
AcDbEntity
  8
L1_120
  6
CONTINUOUS
 62
         7
100
AcDbVertex
100
AcDb2dVertex
 10
1465.6357868256
 20
-27.2035829066
 30
0.0
 70
         1
  0
VERTEX
  5
EC
100
AcDbEntity
  8
L1_120
  6
CONTINUOUS
 62
         7
100
AcDbVertex
100
AcDb2dVertex
 10
1465.7310372714
 20
-27.330856354
 30
0.0
 70
         1
  0
VERTEX
  5
EE
100
AcDbEntity
  8
L1_120
  6
CONTINUOUS
 62
         7
100
AcDbVertex
100
AcDb2dVertex
 10
1465.8488111988
 20
-27.4522709073
 30
0.0
 70
         1
  0
VERTEX
  5
F0
100
AcDbEntity
  8
L1_120
  6
CONTINUOUS
 62
         7
100
AcDbVertex
100
AcDb2dVertex
 10
1465.9860308305
 20
-27.566854512
 30
0.0
 70
         1
  0
VERTEX
  5
F2
100
AcDbEntity
  8
L1_120
  6
CONTINUOUS
 62
         7
100
AcDbVertex
100
AcDb2dVertex
 10
1466.1393565047
 20
-27.6738967172
 30
0.0
 70
         1
  0
VERTEX
  5
F4
100
AcDbEntity
  8
L1_120
  6
CONTINUOUS
 62
         7
100
AcDbVertex
100
AcDb2dVertex
 10
1466.3053607744
 20
-27.7729475013
 30
0.0
 70
         1
  0
VERTEX
  5
F6
100
AcDbEntity
  8
L1_120
  6
CONTINUOUS
 62
         7
100
AcDbVertex
100
AcDb2dVertex
 10
1466.4806822679
 20
-27.8638002456
 30
0.0
 70
         1
  0
VERTEX
  5
F8
100
AcDbEntity
  8
L1_120
  6
CONTINUOUS
 62
         7
100
AcDbVertex
100
AcDb2dVertex
 10
1466.7268416869
 20
-27.9736013858
 30
0.0
 70
         1
  0
VERTEX
  5
FA
100
AcDbEntity
  8
L1_120
  6
CONTINUOUS
 62
         7
100
AcDbVertex
100
AcDb2dVertex
 10
1466.9772832493
 20
-28.0689874369
 30
0.0
 70
         1
  0
VERTEX
  5
FC
100
AcDbEntity
  8
L1_120
  6
CONTINUOUS
 62
         7
100
AcDbVertex
100
AcDb2dVertex
 10
1467.2261894914
 20
-28.1509051343
 30
0.0
 70
         1
  0
VERTEX
  5
FE
100
AcDbEntity
  8
L1_120
  6
CONTINUOUS
 62
         7
100
AcDbVertex
100
AcDb2dVertex
 10
1467.5537735911
 20
-28.242792659
 30
0.0
 70
         1
  0
VERTEX
  5
100
100
AcDbEntity
  8
L1_120
  6
CONTINUOUS
 62
         7
100
AcDbVertex
100
AcDb2dVertex
 10
1467.8621399662
 20
-28.315439811
 30
0.0
 70
         1
  0
VERTEX
  5
102
100
AcDbEntity
  8
L1_120
  6
CONTINUOUS
 62
         7
100
AcDbVertex
100
AcDb2dVertex
 10
1468.2447036819
 20
-28.3896956925
 30
0.0
 70
         1
  0
VERTEX
  5
104
100
AcDbEntity
  8
L1_120
  6
CONTINUOUS
 62
         7
100
AcDbVertex
100
AcDb2dVertex
 10
1468.6926638464
 20
-28.457223677
 30
0.0
 70
         1
  0
VERTEX
  5
106
100
AcDbEntity
  8
L1_120
  6
CONTINUOUS
 62
         7
100
AcDbVertex
100
AcDb2dVertex
 10
1469.1733395777
 20
-28.5090325596
 30
0.0
 70
         1
  0
VERTEX
  5
108
100
AcDbEntity
  8
L1_120
  6
CONTINUOUS
 62
         7
100
AcDbVertex
100
AcDb2dVertex
 10
1469.7812752366
 20
-28.5467455739
 30
0.0
 70
         1
  0
VERTEX
  5
10A
100
AcDbEntity
  8
L1_120
  6
CONTINUOUS
 62
         7
100
AcDbVertex
100
AcDb2dVertex
 10
1470.2633403762
 20
-28.5557932717
 30
0.0
 70
         1
  0
SEQEND
  5
10C
100
AcDbEntity
  8
L1_120
  6
CONTINUOUS
 62
         7
  0
POLYLINE
  5
10E
100
AcDbEntity
  8
L1_120
  6
CONTINUOUS
 62
         7
100
AcDb2dPolyline
 66
         1
 10
0.0
 20
0.0
 30
0.0
 70
         2
  0
VERTEX
  5
110
100
AcDbEntity
  8
L1_120
  6
CONTINUOUS
 62
         7
100
AcDbVertex
100
AcDb2dVertex
 10
1470.2633403762
 20
-23.7807932717
 30
0.0
 70
         1
  0
VERTEX
  5
112
100
AcDbEntity
  8
L1_120
  6
CONTINUOUS
 62
         7
100
AcDbVertex
100
AcDb2dVertex
 10
1469.5270268265
 20
-23.8172080212
 30
0.0
 70
         1
  0
VERTEX
  5
114
100
AcDbEntity
  8
L1_120
  6
CONTINUOUS
 62
         7
100
AcDbVertex
100
AcDb2dVertex
 10
1469.1698262537
 20
-23.8617089771
 30
0.0
 70
         1
  0
VERTEX
  5
116
100
AcDbEntity
  8
L1_120
  6
CONTINUOUS
 62
         7
100
AcDbVertex
100
AcDb2dVertex
 10
1468.8251979753
 20
-23.9221834513
 30
0.0
 70
         1
  0
VERTEX
  5
118
100
AcDbEntity
  8
L1_120
  6
CONTINUOUS
 62
         7
100
AcDbVertex
100
AcDb2dVertex
 10
1468.4964342832
 20
-23.996958076
 30
0.0
 70
         1
  0
VERTEX
  5
11A
100
AcDbEntity
  8
L1_120
  6
CONTINUOUS
 62
         7
100
AcDbVertex
100
AcDb2dVertex
 10
1468.0818920548
 20
-24.1172387495
 30
0.0
 70
         1
  0
VERTEX
  5
11C
100
AcDbEntity
  8
L1_120
  6
CONTINUOUS
 62
         7
100
AcDbVertex
100
AcDb2dVertex
 10
1467.7054854529
 20
-24.2547988428
 30
0.0
 70
         1
  0
VERTEX
  5
11E
100
AcDbEntity
  8
L1_120
  6
CONTINUOUS
 62
         7
100
AcDbVertex
100
AcDb2dVertex
 10
1467.3693614076
 20
-24.4043167433
 30
0.0
 70
         1
  0
VERTEX
  5
120
100
AcDbEntity
  8
L1_120
  6
CONTINUOUS
 62
         7
100
AcDbVertex
100
AcDb2dVertex
 10
1467.0736517259
 20
-24.5607936753
 30
0.0
 70
         1
  0
VERTEX
  5
122
100
AcDbEntity
  8
L1_120
  6
CONTINUOUS
 62
         7
100
AcDbVertex
100
AcDb2dVertex
 10
1466.8168909215
 20
-24.7198258204
 30
0.0
 70
         1
  0
VERTEX
  5
124
100
AcDbEntity
  8
L1_120
  6
CONTINUOUS
 62
         7
100
AcDbVertex
100
AcDb2dVertex
 10
1466.5257447951
 20
-24.9334812217
 30
0.0
 70
         1
  0
VERTEX
  5
126
100
AcDbEntity
  8
L1_120
  6
CONTINUOUS
 62
         7
100
AcDbVertex
100
AcDb2dVertex
 10
1466.2931782752
 20
-25.138311958
 30
0.0
 70
         1
  0
VERTEX
  5
128
100
AcDbEntity
  8
L1_120
  6
CONTINUOUS
 62
         7
100
AcDbVertex
100
AcDb2dVertex
 10
1466.110007375
 20
-25.3298627061
 30
0.0
 70
         1
  0
VERTEX
  5
12A
100
AcDbEntity
  8
L1_120
  6
CONTINUOUS
 62
         7
100
AcDbVertex
100
AcDb2dVertex
 10
1465.9234141246
 20
-25.5661611148
 30
0.0
 70
         1
  0
VERTEX
  5
12C
100
AcDbEntity
  8
L1_120
  6
CONTINUOUS
 62
         7
100
AcDbVertex
100
AcDb2dVertex
 10
1465.7928404172
 20
-25.7711536684
 30
0.0
 70
         1
  0
VERTEX
  5
12E
100
AcDbEntity
  8
L1_120
  6
CONTINUOUS
 62
         7
100
AcDbVertex
100
AcDb2dVertex
 10
1465.6759324227
 20
-26.0053009057
 30
0.0
 70
         1
  0
VERTEX
  5
130
100
AcDbEntity
  8
L1_120
  6
CONTINUOUS
 62
         7
100
AcDbVertex
100
AcDb2dVertex
 10
1465.5873983751
 20
-26.2515202576
 30
0.0
 70
         1
  0
VERTEX
  5
132
100
AcDbEntity
  8
L1_120
  6
CONTINUOUS
 62
         7
100
AcDbVertex
100
AcDb2dVertex
 10
1465.5349108724
 20
-26.4810370018
 30
0.0
 70
         1
  0
VERTEX
  5
134
100
AcDbEntity
  8
L1_120
  6
CONTINUOUS
 62
         7
100
AcDbVertex
100
AcDb2dVertex
 10
1465.5100053935
 20
-26.7198558174
 30
0.0
 70
         1
  0
VERTEX
  5
136
100
AcDbEntity
  8
L1_120
  6
CONTINUOUS
 62
         7
100
AcDbVertex
100
AcDb2dVertex
 10
1465.5083403763
 20
-26.7997410839
 30
0.0
 70
         1
  0
SEQEND
  5
138
100
AcDbEntity
  8
L1_120
  6
CONTINUOUS
 62
         7
  0
LINE
  5
139
100
AcDbEntity
  8
L1_120
  6
CONTINUOUS
 62
         4
100
AcDbLine
 10
1434.1020155108
 20
-15.4433347407
 30
0.0
 11
1434.1020155108
 21
-10.4433347407
 31
0.0
  0
LINE
  5
13A
100
AcDbEntity
  8
L1_120
  6
CENTER
 62
         1
100
AcDbLine
 10
1723.2833403763
 20
127.6846417294
 30
0.0
 11
1723.2833403763
 21
172.6846417294
 31
0.0
  0
LINE
  5
13B
100
AcDbEntity
  8
L1_120
  6
CENTER
 62
         1
100
AcDbLine
 10
1745.7833403763
 20
150.1846417294
 30
0.0
 11
1700.7833403763
 21
150.1846417294
 31
0.0
  0
CIRCLE
  5
13C
100
AcDbEntity
  8
L1_120
  6
CONTINUOUS
 62
         7
100
AcDbCircle
 10
1723.2833403763
 20
150.1846417294
 30
0.0
 40
18.0
  0
CIRCLE
  5
13D
100
AcDbEntity
  8
L1_120
  6
CONTINUOUS
 62
         7
100
AcDbCircle
 10
1723.2833403763
 20
150.1846417294
 30
0.0
 40
22.5
  0
CIRCLE
  5
13E
100
AcDbEntity
  8
L1_120
  6
CONTINUOUS
 62
         7
100
AcDbCircle
 10
1723.2833403763
 20
150.1846417294
 30
0.0
 40
20.5
  0
LINE
  5
13F
100
AcDbEntity
  8
L1_120
  6
CENTER
 62
         1
100
AcDbLine
 10
1515.1033403763
 20
-12.9433347407
 30
0.0
 11
1440.1033403763
 21
-12.9433347407
 31
0.0
  0
LINE
  5
140
100
AcDbEntity
  8
L1_120
  6
CONTINUOUS
 62
         7
100
AcDbLine
 10
1496.1033403763
 20
-33.3433347407
 30
0.0
 11
1496.2033403763
 21
-33.4433347407
 31
0.0
  0
LINE
  5
141
100
AcDbEntity
  8
L1_120
  6
CONTINUOUS
 62
         7
100
AcDbLine
 10
1510.2373149725
 20
-33.4433347407
 30
0.0
 11
1496.2033403763
 21
-33.4433347407
 31
0.0
  0
LINE
  5
142
100
AcDbEntity
  8
L1_120
  6
CONTINUOUS
 62
         7
100
AcDbLine
 10
1496.1033403763
 20
-32.4433347407
 30
0.0
 11
1496.1033403763
 21
-33.3433347407
 31
0.0
  0
LINE
  5
143
100
AcDbEntity
  8
L1_120
  6
CONTINUOUS
 62
         7
100
AcDbLine
 10
1494.1033403763
 20
-33.3433347407
 30
0.0
 11
1494.0033403763
 21
-33.4433347407
 31
0.0
  0
LINE
  5
144
100
AcDbEntity
  8
L1_120
  6
CONTINUOUS
 62
         7
100
AcDbLine
 10
1494.0033403763
 20
-33.4433347407
 30
0.0
 11
1464.6033403763
 21
-33.4433347407
 31
0.0
  0
LINE
  5
145
100
AcDbEntity
  8
L1_120
  6
CONTINUOUS
 62
         7
100
AcDbLine
 10
1494.1033403763
 20
-32.4433347407
 30
0.0
 11
1494.1033403763
 21
-33.3433347407
 31
0.0
  0
LINE
  5
146
100
AcDbEntity
  8
L1_120
  6
CONTINUOUS
 62
         7
100
AcDbLine
 10
1496.1033403763
 20
7.4566652593
 30
0.0
 11
1496.2033403763
 21
7.5566652593
 31
0.0
  0
LINE
  5
147
100
AcDbEntity
  8
L1_120
  6
CONTINUOUS
 62
         7
100
AcDbLine
 10
1510.2373149725
 20
7.5566652593
 30
0.0
 11
1496.2033403763
 21
7.5566652593
 31
0.0
  0
LINE
  5
148
100
AcDbEntity
  8
L1_120
  6
CONTINUOUS
 62
         7
100
AcDbLine
 10
1496.1033403763
 20
6.5566652593
 30
0.0
 11
1496.1033403763
 21
7.4566652593
 31
0.0
  0
LINE
  5
149
100
AcDbEntity
  8
L1_120
  6
CONTINUOUS
 62
         7
100
AcDbLine
 10
1494.0033403763
 20
7.5566652593
 30
0.0
 11
1494.1033403763
 21
7.4566652593
 31
0.0
  0
LINE
  5
14A
100
AcDbEntity
  8
L1_120
  6
CONTINUOUS
 62
         7
100
AcDbLine
 10
1494.1033403763
 20
6.5566652593
 30
0.0
 11
1494.1033403763
 21
7.4566652593
 31
0.0
  0
LINE
  5
14B
100
AcDbEntity
  8
L1_120
  6
CONTINUOUS
 62
         7
100
AcDbLine
 10
1494.0033403763
 20
7.5566652593
 30
0.0
 11
1464.6033403763
 21
7.5566652593
 31
0.0
  0
LINE
  5
14C
100
AcDbEntity
  8
L1_120
  6
CONTINUOUS
 62
         4
100
AcDbLine
 10
1489.1033403763
 20
-28.9433347407
 30
0.0
 11
1489.1033403763
 21
-28.0459566002
 31
0.0
  0
ARC
  5
14D
100
AcDbEntity
  8
L1_120
  6
CONTINUOUS
 62
         7
100
AcDbCircle
 10
1489.1033403763
 20
4.0566652593
 30
0.0
 40
1.0
100
AcDbArc
 50
270.0
 51
360.0
  0
ARC
  5
14E
100
AcDbEntity
  8
L1_120
  6
CONTINUOUS
 62
         7
100
AcDbCircle
 10
1489.1033403763
 20
-29.9433347407
 30
0.0
 40
1.0
100
AcDbArc
 50
0.0
 51
90.0
  0
ARC
  5
14F
100
AcDbEntity
  8
L1_120
  6
CONTINUOUS
 62
         7
100
AcDbCircle
 10
1514.6033403763
 20
-30.6546596061
 30
0.0
 40
0.5
100
AcDbArc
 50
300.0
 51
360.0
  0
ARC
  5
150
100
AcDbEntity
  8
L1_120
  6
CONTINUOUS
 62
         7
100
AcDbCircle
 10
1514.6033403763
 20
4.7679901247
 30
0.0
 40
0.5
100
AcDbArc
 50
0.0
 51
60.0
  0
LINE
  5
151
100
AcDbEntity
  8
L1_120
  6
CONTINUOUS
 62
         4
100
AcDbLine
 10
1513.1033403763
 20
-29.9433347407
 30
0.0
 11
1513.1033403763
 21
4.0566652593
 31
0.0
  0
LINE
  5
152
100
AcDbEntity
  8
L1_120
  6
CENTER
 62
         1
100
AcDbLine
 10
1470.5083403763
 20
-0.354140038
 30
0.0
 11
1470.5083403763
 21
12.7589287345
 31
0.0
  0
LINE
  5
153
100
AcDbEntity
  8
L1_120
  6
CENTER
 62
         1
100
AcDbLine
 10
1485.5082741959
 20
-0.354140038
 30
0.0
 11
1485.5082741959
 21
12.7589287345
 31
0.0
  0
ARC
  5
154
100
AcDbEntity
  8
L1_120
  6
CONTINUOUS
 62
         7
100
AcDbCircle
 10
1461.6033403763
 20
-34.9433347407
 30
0.0
 40
0.5
100
AcDbArc
 50
270.0
 51
360.0
  0
ARC
  5
155
100
AcDbEntity
  8
L1_120
  6
CONTINUOUS
 62
         7
100
AcDbCircle
 10
1461.6033403763
 20
9.0566652593
 30
0.0
 40
0.5
100
AcDbArc
 50
0.0
 51
90.0
  0
LINE
  5
156
100
AcDbEntity
  8
L1_120
  6
CONTINUOUS
 62
         7
100
AcDbLine
 10
1434.1020155108
 20
-10.4433347407
 30
0.0
 11
1432.6586398379
 21
-12.9433347407
 31
0.0
  0
LINE
  5
157
100
AcDbEntity
  8
L1_120
  6
CONTINUOUS
 62
         7
100
AcDbLine
 10
1434.1020155108
 20
-15.4433347407
 30
0.0
 11
1432.6586398379
 21
-12.9433347407
 31
0.0
  0
LINE
  5
158
100
AcDbEntity
  8
L1_120
  6
CONTINUOUS
 62
         7
100
AcDbLine
 10
1514.6033403763
 20
4.0566652593
 30
0.0
 11
1495.1033403763
 21
4.0566652593
 31
0.0
  0
LINE
  5
159
100
AcDbEntity
  8
L1_120
  6
CONTINUOUS
 62
         7
100
AcDbLine
 10
1514.6033403763
 20
-29.9433347407
 30
0.0
 11
1495.1033403763
 21
-29.9433347407
 31
0.0
  0
LINE
  5
15A
100
AcDbEntity
  8
L1_120
  6
CONTINUOUS
 62
         7
100
AcDbLine
 10
1515.1033403763
 20
-30.6546596061
 30
0.0
 11
1515.1033403763
 21
4.7679901247
 31
0.0
  0
LINE
  5
15B
100
AcDbEntity
  8
L1_120
  6
CONTINUOUS
 62
         7
100
AcDbLine
 10
1490.1033403763
 20
-30.4433347407
 30
0.0
 11
1490.1033403763
 21
-27.5088624116
 31
0.0
  0
LINE
  5
15C
100
AcDbEntity
  8
L1_120
  6
CONTINUOUS
 62
         7
100
AcDbLine
 10
1495.1033403763
 20
-30.4433347407
 30
0.0
 11
1495.1033403763
 21
4.5566652593
 31
0.0
  0
LINE
  5
15D
100
AcDbEntity
  8
L1_120
  6
CONTINUOUS
 62
         7
100
AcDbLine
 10
1489.1033403763
 20
3.0566652593
 30
0.0
 11
1454.1033403763
 21
3.0566652593
 31
0.0
  0
LINE
  5
15E
100
AcDbEntity
  8
L1_120
  6
CONTINUOUS
 62
         7
100
AcDbLine
 10
1489.1033403763
 20
-28.9433347407
 30
0.0
 11
1454.1033403763
 21
-28.9433347407
 31
0.0
  0
LINE
  5
15F
100
AcDbEntity
  8
L1_120
  6
CONTINUOUS
 62
         7
100
AcDbLine
 10
1495.1033403763
 20
4.5566652593
 30
0.0
 11
1490.1033403763
 21
4.5566652593
 31
0.0
  0
LINE
  5
160
100
AcDbEntity
  8
L1_120
  6
CONTINUOUS
 62
         7
100
AcDbLine
 10
1495.1033403763
 20
-30.4433347407
 30
0.0
 11
1490.1033403763
 21
-30.4433347407
 31
0.0
  0
LINE
  5
161
100
AcDbEntity
  8
L1_120
  6
CONTINUOUS
 62
         7
100
AcDbLine
 10
1496.1033403763
 20
-32.4433347407
 30
0.0
 11
1494.1033403763
 21
-32.4433347407
 31
0.0
  0
LINE
  5
162
100
AcDbEntity
  8
L1_120
  6
CONTINUOUS
 62
         7
100
AcDbLine
 10
1496.1033403763
 20
6.5566652593
 30
0.0
 11
1494.1033403763
 21
6.5566652593
 31
0.0
  0
LINE
  5
163
100
AcDbEntity
  8
L1_120
  6
CONTINUOUS
 62
         4
100
AcDbLine
 10
1437.1033403763
 20
-15.9433347407
 30
0.0
 11
1437.1033403763
 21
-9.9433347407
 31
0.0
  0
LINE
  5
164
100
AcDbEntity
  8
L1_120
  6
CONTINUOUS
 62
         4
100
AcDbLine
 10
1449.1033403763
 20
-15.9433347407
 30
0.0
 11
1437.1033403763
 21
-15.9433347407
 31
0.0
  0
LINE
  5
165
100
AcDbEntity
  8
L1_120
  6
CONTINUOUS
 62
         4
100
AcDbLine
 10
1449.1033403763
 20
-9.9433347407
 30
0.0
 11
1437.1033403763
 21
-9.9433347407
 31
0.0
  0
LINE
  5
166
100
AcDbEntity
  8
L1_120
  6
CONTINUOUS
 62
         7
100
AcDbLine
 10
1449.1033403763
 20
-35.4433347407
 30
0.0
 11
1449.1033403763
 21
-15.9433347407
 31
0.0
  0
LINE
  5
167
100
AcDbEntity
  8
L1_120
  6
CONTINUOUS
 62
         7
100
AcDbLine
 10
1454.1033403763
 20
-29.4433347407
 30
0.0
 11
1454.1033403763
 21
3.5566652593
 31
0.0
  0
LINE
  5
168
100
AcDbEntity
  8
L1_120
  6
CONTINUOUS
 62
         7
100
AcDbLine
 10
1454.1033403763
 20
3.5566652593
 30
0.0
 11
1449.1033403763
 21
3.5566652593
 31
0.0
  0
LINE
  5
169
100
AcDbEntity
  8
L1_120
  6
CONTINUOUS
 62
         7
100
AcDbLine
 10
1454.1033403763
 20
-29.4433347407
 30
0.0
 11
1449.1033403763
 21
-29.4433347407
 31
0.0
  0
LINE
  5
16A
100
AcDbEntity
  8
L1_120
  6
CONTINUOUS
 62
         7
100
AcDbLine
 10
1461.6033403763
 20
9.5566652593
 30
0.0
 11
1419.6033403763
 21
9.5566652593
 31
0.0
  0
LINE
  5
16B
100
AcDbEntity
  8
L1_120
  6
CONTINUOUS
 62
         7
100
AcDbLine
 10
1461.6033403763
 20
-35.4433347407
 30
0.0
 11
1419.6033403763
 21
-35.4433347407
 31
0.0
  0
LINE
  5
16C
100
AcDbEntity
  8
L1_120
  6
CONTINUOUS
 62
         7
100
AcDbLine
 10
1514.8533403763
 20
5.2010028266
 30
0.0
 11
1511.2373149725
 21
7.2887160669
 31
0.0
  0
ARC
  5
16D
100
AcDbEntity
  8
L1_120
  6
CONTINUOUS
 62
         7
100
AcDbCircle
 10
1510.2373149725
 20
5.5566652593
 30
0.0
 40
2.0
100
AcDbArc
 50
60.0
 51
90.0000000001
  0
ARC
  5
16E
100
AcDbEntity
  8
L1_120
  6
CONTINUOUS
 62
         7
100
AcDbCircle
 10
1510.2373149725
 20
-31.4433347407
 30
0.0
 40
2.0
100
AcDbArc
 50
269.9999999999
 51
300.0
  0
LINE
  5
16F
100
AcDbEntity
  8
L1_120
  6
CONTINUOUS
 62
         7
100
AcDbLine
 10
1514.8533403763
 20
-31.087672308
 30
0.0
 11
1511.2373149725
 21
-33.1753855482
 31
0.0
  0
LINE
  5
170
100
AcDbEntity
  8
L1_120
  6
CENTER
 62
         1
100
AcDbLine
 10
1451.6033403763
 20
-36.883636675
 30
0.0
 11
1451.6033403763
 21
-28.2483828809
 31
0.0
  0
LINE
  5
171
100
AcDbEntity
  8
L1_120
  6
CONTINUOUS
 62
         7
100
AcDbLine
 10
1452.6033403763
 20
-35.4433347407
 30
0.0
 11
1452.6033403763
 21
-29.4433347407
 31
0.0
  0
LINE
  5
172
100
AcDbEntity
  8
L1_120
  6
CONTINUOUS
 62
         7
100
AcDbLine
 10
1450.6033403763
 20
-35.4433347407
 30
0.0
 11
1450.6033403763
 21
-29.4433347407
 31
0.0
  0
LINE
  5
173
100
AcDbEntity
  8
L1_120
  6
CONTINUOUS
 62
         7
100
AcDbLine
 10
1463.8042692157
 20
-33.2433347407
 30
0.0
 11
1462.4033403763
 21
-33.2433347407
 31
0.0
  0
LINE
  5
174
100
AcDbEntity
  8
L1_120
  6
CONTINUOUS
 62
         7
100
AcDbLine
 10
1463.9077968337
 20
-33.2569644102
 30
0.0
 11
1464.6033403763
 21
-33.4433347407
 31
0.0
  0
ARC
  5
175
100
AcDbEntity
  8
L1_120
  6
CONTINUOUS
 62
         7
100
AcDbCircle
 10
1463.8042692157
 20
-33.6433347407
 30
0.0
 40
0.4
100
AcDbArc
 50
75.0
 51
90.0
  0
LINE
  5
176
100
AcDbEntity
  8
L1_120
  6
CONTINUOUS
 62
         7
100
AcDbLine
 10
1465.2398320494
 20
-33.4433347407
 30
0.0
 11
1464.6033403763
 21
-33.4433347407
 31
0.0
  0
LINE
  5
177
100
AcDbEntity
  8
L1_120
  6
CONTINUOUS
 62
         7
100
AcDbLine
 10
1462.0034794587
 20
-33.6327873912
 30
0.0
 11
1462.1033403763
 21
-34.3433347407
 31
0.0
  0
ARC
  5
178
100
AcDbEntity
  8
L1_120
  6
CONTINUOUS
 62
         7
100
AcDbCircle
 10
1462.4033403763
 20
-33.6433347407
 30
0.0
 40
0.4
100
AcDbArc
 50
90.0
 51
178.4890283439
  0
LINE
  5
179
100
AcDbEntity
  8
L1_120
  6
CONTINUOUS
 62
         7
100
AcDbLine
 10
1462.1033403763
 20
-34.3433347407
 30
0.0
 11
1462.1033403763
 21
-34.9433347407
 31
0.0
  0
LINE
  5
17A
100
AcDbEntity
  8
L1_120
  6
CONTINUOUS
 62
         7
100
AcDbLine
 10
1463.8042692157
 20
7.3566652593
 30
0.0
 11
1462.4033403763
 21
7.3566652593
 31
0.0
  0
LINE
  5
17B
100
AcDbEntity
  8
L1_120
  6
CONTINUOUS
 62
         7
100
AcDbLine
 10
1463.9077968337
 20
7.3702949288
 30
0.0
 11
1464.6033403763
 21
7.5566652593
 31
0.0
  0
ARC
  5
17C
100
AcDbEntity
  8
L1_120
  6
CONTINUOUS
 62
         7
100
AcDbCircle
 10
1463.8042692157
 20
7.7566652593
 30
0.0
 40
0.4
100
AcDbArc
 50
270.0
 51
285.0
  0
LINE
  5
17D
100
AcDbEntity
  8
L1_120
  6
CONTINUOUS
 62
         7
100
AcDbLine
 10
1465.2898320494
 20
7.5566652593
 30
0.0
 11
1464.6033403763
 21
7.5566652593
 31
0.0
  0
LINE
  5
17E
100
AcDbEntity
  8
L1_120
  6
CONTINUOUS
 62
         7
100
AcDbLine
 10
1462.0034794587
 20
7.7461179098
 30
0.0
 11
1462.1033403763
 21
8.4566652593
 31
0.0
  0
ARC
  5
17F
100
AcDbEntity
  8
L1_120
  6
CONTINUOUS
 62
         7
100
AcDbCircle
 10
1462.4033403763
 20
7.7566652593
 30
0.0
 40
0.4
100
AcDbArc
 50
181.5109716561
 51
270.0
  0
LINE
  5
180
100
AcDbEntity
  8
L1_120
  6
CONTINUOUS
 62
         7
100
AcDbLine
 10
1462.1033403763
 20
8.4566652593
 30
0.0
 11
1462.1033403763
 21
9.0566652593
 31
0.0
  0
LINE
  5
181
100
AcDbEntity
  8
L1_120
  6
CENTER
 62
         1
100
AcDbLine
 10
1515.1033403763
 20
150.1846417294
 30
0.0
 11
1440.1033403763
 21
150.1846417294
 31
0.0
  0
LINE
  5
182
100
AcDbEntity
  8
L1_120
  6
CONTINUOUS
 62
         7
100
AcDbLine
 10
1496.1033403763
 20
129.7846417294
 30
0.0
 11
1496.2033403763
 21
129.6846417294
 31
0.0
  0
LINE
  5
183
100
AcDbEntity
  8
L1_120
  6
CONTINUOUS
 62
         7
100
AcDbLine
 10
1510.2373149725
 20
129.6846417294
 30
0.0
 11
1496.2033403763
 21
129.6846417294
 31
0.0
  0
LINE
  5
184
100
AcDbEntity
  8
L1_120
  6
CONTINUOUS
 62
         7
100
AcDbLine
 10
1496.1033403763
 20
170.5846417294
 30
0.0
 11
1496.1033403763
 21
129.7846417294
 31
0.0
  0
LINE
  5
185
100
AcDbEntity
  8
L1_120
  6
CONTINUOUS
 62
         7
100
AcDbLine
 10
1494.1033403763
 20
129.7846417294
 30
0.0
 11
1494.0033403763
 21
129.6846417294
 31
0.0
  0
LINE
  5
186
100
AcDbEntity
  8
L1_120
  6
CONTINUOUS
 62
         7
100
AcDbLine
 10
1494.0033403763
 20
129.6846417294
 30
0.0
 11
1464.6033403763
 21
129.6846417294
 31
0.0
  0
LINE
  5
187
100
AcDbEntity
  8
L1_120
  6
CONTINUOUS
 62
         7
100
AcDbLine
 10
1494.1033403763
 20
170.5846417294
 30
0.0
 11
1494.1033403763
 21
129.7846417294
 31
0.0
  0
LINE
  5
188
100
AcDbEntity
  8
L1_120
  6
CONTINUOUS
 62
         7
100
AcDbLine
 10
1496.1033403763
 20
170.5846417294
 30
0.0
 11
1496.2033403763
 21
170.6846417294
 31
0.0
  0
LINE
  5
189
100
AcDbEntity
  8
L1_120
  6
CONTINUOUS
 62
         7
100
AcDbLine
 10
1510.2373149725
 20
170.6846417294
 30
0.0
 11
1496.2033403763
 21
170.6846417294
 31
0.0
  0
LINE
  5
18A
100
AcDbEntity
  8
L1_120
  6
CONTINUOUS
 62
         7
100
AcDbLine
 10
1494.0033403763
 20
170.6846417294
 30
0.0
 11
1494.1033403763
 21
170.5846417294
 31
0.0
  0
LINE
  5
18B
100
AcDbEntity
  8
L1_120
  6
CONTINUOUS
 62
         7
100
AcDbLine
 10
1494.0033403763
 20
170.6846417294
 30
0.0
 11
1464.6033403763
 21
170.6846417294
 31
0.0
  0
ARC
  5
18C
100
AcDbEntity
  8
L1_120
  6
CONTINUOUS
 62
         7
100
AcDbCircle
 10
1461.6033403763
 20
128.1846417294
 30
0.0
 40
0.5
100
AcDbArc
 50
270.0
 51
360.0
  0
ARC
  5
18D
100
AcDbEntity
  8
L1_120
  6
CONTINUOUS
 62
         7
100
AcDbCircle
 10
1461.6033403763
 20
172.1846417294
 30
0.0
 40
0.5
100
AcDbArc
 50
0.0
 51
90.0
  0
LINE
  5
18E
100
AcDbEntity
  8
L1_120
  6
CENTER
 62
         1
100
AcDbLine
 10
1470.5083403763
 20
145.1846417294
 30
0.0
 11
1470.5083403763
 21
155.0346417294
 31
0.0
  0
LINE
  5
18F
100
AcDbEntity
  8
L1_120
  6
CENTER
 62
         1
100
AcDbLine
 10
1485.5082741959
 20
145.1846417294
 30
0.0
 11
1485.5082741959
 21
155.0346417294
 31
0.0
  0
LINE
  5
190
100
AcDbEntity
  8
L1_120
  6
CONTINUOUS
 62
         7
100
AcDbLine
 10
1515.1033403763
 20
132.7619919986
 30
0.0
 11
1515.1033403763
 21
167.6072914602
 31
0.0
  0
LINE
  5
191
100
AcDbEntity
  8
L1_120
  6
CONTINUOUS
 62
         7
100
AcDbLine
 10
1496.1033403763
 20
130.6846417294
 30
0.0
 11
1494.1033403763
 21
130.6846417294
 31
0.0
  0
LINE
  5
192
100
AcDbEntity
  8
L1_120
  6
CONTINUOUS
 62
         7
100
AcDbLine
 10
1496.1033403763
 20
169.6846417294
 30
0.0
 11
1494.1033403763
 21
169.6846417294
 31
0.0
  0
LINE
  5
193
100
AcDbEntity
  8
L1_120
  6
CONTINUOUS
 62
         7
100
AcDbLine
 10
1462.1033403763
 20
129.7492168605
 30
0.0
 11
1462.1033403763
 21
170.6200665983
 31
0.0
  0
LINE
  5
194
100
AcDbEntity
  8
L1_120
  6
CONTINUOUS
 62
         7
100
AcDbLine
 10
1461.6033403763
 20
172.6846417294
 30
0.0
 11
1419.6033403763
 21
172.6846417294
 31
0.0
  0
LINE
  5
195
100
AcDbEntity
  8
L1_120
  6
CONTINUOUS
 62
         7
100
AcDbLine
 10
1461.6033403763
 20
127.6846417294
 30
0.0
 11
1419.6033403763
 21
127.6846417294
 31
0.0
  0
ARC
  5
196
100
AcDbEntity
  8
L1_120
  6
CONTINUOUS
 62
         7
100
AcDbCircle
 10
1510.2373149725
 20
131.6846417294
 30
0.0
 40
2.0
100
AcDbArc
 50
269.9999999999
 51
300.0
  0
LINE
  5
197
100
AcDbEntity
  8
L1_120
  6
CONTINUOUS
 62
         7
100
AcDbLine
 10
1514.6033403763
 20
131.8959665948
 30
0.0
 11
1511.2373149725
 21
129.9525909218
 31
0.0
  0
ARC
  5
198
100
AcDbEntity
  8
L1_120
  6
CONTINUOUS
 62
         7
100
AcDbCircle
 10
1514.1033403763
 20
132.7619919986
 30
0.0
 40
1.0
100
AcDbArc
 50
300.0
 51
360.0
  0
ARC
  5
199
100
AcDbEntity
  8
L1_120
  6
CONTINUOUS
 62
         7
100
AcDbCircle
 10
1510.2373149725
 20
168.6846417294
 30
0.0
 40
2.0
100
AcDbArc
 50
60.0
 51
90.0000000001
  0
LINE
  5
19A
100
AcDbEntity
  8
L1_120
  6
CONTINUOUS
 62
         7
100
AcDbLine
 10
1514.6033403763
 20
168.473316864
 30
0.0
 11
1511.2373149725
 21
170.416692537
 31
0.0
  0
ARC
  5
19B
100
AcDbEntity
  8
L1_120
  6
CONTINUOUS
 62
         7
100
AcDbCircle
 10
1514.1033403763
 20
167.6072914602
 30
0.0
 40
1.0
100
AcDbArc
 50
0.0
 51
60.0
  0
LINE
  5
19C
100
AcDbEntity
  8
L1_120
  6
CONTINUOUS
 62
         7
100
AcDbLine
 10
1463.8042692157
 20
170.4846417294
 30
0.0
 11
1462.4033403763
 21
170.4846417294
 31
0.0
  0
LINE
  5
19D
100
AcDbEntity
  8
L1_120
  6
CONTINUOUS
 62
         7
100
AcDbLine
 10
1463.9077968337
 20
170.4982713989
 30
0.0
 11
1464.6033403763
 21
170.6846417294
 31
0.0
  0
ARC
  5
19E
100
AcDbEntity
  8
L1_120
  6
CONTINUOUS
 62
         7
100
AcDbCircle
 10
1463.8042692157
 20
170.8846417294
 30
0.0
 40
0.4
100
AcDbArc
 50
270.0
 51
285.0
  0
LINE
  5
19F
100
AcDbEntity
  8
L1_120
  6
CONTINUOUS
 62
         7
100
AcDbLine
 10
1465.2398320494
 20
170.6846417294
 30
0.0
 11
1464.6033403763
 21
170.6846417294
 31
0.0
  0
LINE
  5
1A0
100
AcDbEntity
  8
L1_120
  6
CONTINUOUS
 62
         7
100
AcDbLine
 10
1462.0034794587
 20
170.8740943799
 30
0.0
 11
1462.1033403763
 21
171.5846417294
 31
0.0
  0
ARC
  5
1A1
100
AcDbEntity
  8
L1_120
  6
CONTINUOUS
 62
         7
100
AcDbCircle
 10
1462.4033403763
 20
170.8846417294
 30
0.0
 40
0.4
100
AcDbArc
 50
181.5109716561
 51
270.0
  0
LINE
  5
1A2
100
AcDbEntity
  8
L1_120
  6
CONTINUOUS
 62
         7
100
AcDbLine
 10
1462.1033403763
 20
171.5846417294
 30
0.0
 11
1462.1033403763
 21
172.1846417294
 31
0.0
  0
LINE
  5
1A3
100
AcDbEntity
  8
L1_120
  6
CONTINUOUS
 62
         7
100
AcDbLine
 10
1463.8042692157
 20
129.8846417294
 30
0.0
 11
1462.4033403763
 21
129.8846417294
 31
0.0
  0
LINE
  5
1A4
100
AcDbEntity
  8
L1_120
  6
CONTINUOUS
 62
         7
100
AcDbLine
 10
1463.9077968337
 20
129.8710120599
 30
0.0
 11
1464.6033403763
 21
129.6846417294
 31
0.0
  0
ARC
  5
1A5
100
AcDbEntity
  8
L1_120
  6
CONTINUOUS
 62
         7
100
AcDbCircle
 10
1463.8042692157
 20
129.4846417294
 30
0.0
 40
0.4
100
AcDbArc
 50
75.0
 51
90.0
  0
LINE
  5
1A6
100
AcDbEntity
  8
L1_120
  6
CONTINUOUS
 62
         7
100
AcDbLine
 10
1465.2398320494
 20
129.6846417294
 30
0.0
 11
1464.6033403763
 21
129.6846417294
 31
0.0
  0
LINE
  5
1A7
100
AcDbEntity
  8
L1_120
  6
CONTINUOUS
 62
         7
100
AcDbLine
 10
1462.0034794587
 20
129.4951890789
 30
0.0
 11
1462.1033403763
 21
128.7846417294
 31
0.0
  0
ARC
  5
1A8
100
AcDbEntity
  8
L1_120
  6
CONTINUOUS
 62
         7
100
AcDbCircle
 10
1462.4033403763
 20
129.4846417294
 30
0.0
 40
0.4
100
AcDbArc
 50
90.0
 51
178.4890283439
  0
LINE
  5
1A9
100
AcDbEntity
  8
L1_120
  6
CONTINUOUS
 62
         7
100
AcDbLine
 10
1462.1033403763
 20
128.7846417294
 30
0.0
 11
1462.1033403763
 21
128.1846417294
 31
0.0
  0
CIRCLE
  5
1AA
100
AcDbEntity
  8
L1_120
  6
DASHED
 62
         2
100
AcDbCircle
 10
1723.2833403763
 20
150.1846417294
 30
0.0
 40
19.5
  0
CIRCLE
  5
1AB
100
AcDbEntity
  8
L1_120
  6
CONTINUOUS
 62
         7
100
AcDbCircle
 10
1723.2833403763
 20
150.1846417294
 30
0.0
 40
2.0
  0
ARC
  5
1AC
100
AcDbEntity
  8
L1_120
  6
CONTINUOUS
 62
         4
100
AcDbCircle
 10
1723.2833403763
 20
150.1846417294
 30
0.0
 40
3.0
100
AcDbArc
 50
270.0
 51
540.0
  0
CIRCLE
  5
1AD
100
AcDbEntity
  8
L1_120
  6
CONTINUOUS
 62
         7
100
AcDbCircle
 10
1723.2833403763
 20
150.1846417294
 30
0.0
 40
17.0
  0
CIRCLE
  5
1AE
100
AcDbEntity
  8
L1_120
  6
CONTINUOUS
 62
         7
100
AcDbCircle
 10
1723.2833403763
 20
150.1846417294
 30
0.0
 40
16.0
  0
CIRCLE
  5
1AF
100
AcDbEntity
  8
L1_120
  6
DASHED
 62
         2
100
AcDbCircle
 10
1723.2833403763
 20
150.1846417294
 30
0.0
 40
16.5
  0
CIRCLE
  5
1B0
100
AcDbEntity
  8
L1_120
  6
DASHED
 62
         2
100
AcDbCircle
 10
1723.2833403763
 20
150.1846417294
 30
0.0
 40
17.5
  0
LINE
  5
1B1
100
AcDbEntity
  8
L1_120
  6
CENTER
 62
         1
100
AcDbLine
 10
1723.2833403763
 20
150.1846417294
 30
0.0
 11
1734.5333403763
 21
130.6990701442
 31
0.0
  0
LINE
  5
1B2
100
AcDbEntity
  8
L1_120
  6
CENTER
 62
         1
100
AcDbLine
 10
1723.2833403763
 20
150.1846417294
 30
0.0
 11
1734.5333403763
 21
169.6702133145
 31
0.0
  0
LINE
  5
1B3
100
AcDbEntity
  8
L1_120
  6
CONTINUOUS
 62
         7
100
AcDbLine
 10
1448.6033403763
 20
-10.4433347407
 30
0.0
 11
1434.1020155108
 21
-10.4433347407
 31
0.0
  0
LINE
  5
1B4
100
AcDbEntity
  8
L1_120
  6
CONTINUOUS
 62
         7
100
AcDbLine
 10
1448.6033403763
 20
-15.4433347407
 30
0.0
 11
1434.1020155108
 21
-15.4433347407
 31
0.0
  0
ARC
  5
1B5
100
AcDbEntity
  8
L1_120
  6
CONTINUOUS
 62
         7
100
AcDbCircle
 10
1419.6033403763
 20
172.1846417294
 30
0.0
 40
0.5
100
AcDbArc
 50
90.0
 51
180.0
  0
ARC
  5
1B6
100
AcDbEntity
  8
L1_120
  6
CONTINUOUS
 62
         7
100
AcDbCircle
 10
1419.6033403763
 20
128.1846417294
 30
0.0
 40
0.5
100
AcDbArc
 50
180.0
 51
270.0
  0
ARC
  5
1B7
100
AcDbEntity
  8
L1_120
  6
CONTINUOUS
 62
         7
100
AcDbCircle
 10
1415.1033403763
 20
166.1234992033
 30
0.0
 40
4.0
100
AcDbArc
 50
271.4377
 51
360.0
  0
ARC
  5
1B8
100
AcDbEntity
  8
L1_120
  6
CONTINUOUS
 62
         7
100
AcDbCircle
 10
1415.1033403763
 20
134.2457842555
 30
0.0
 40
4.0
100
AcDbArc
 50
0.0
 51
88.5623
  0
ARC
  5
1B9
100
AcDbEntity
  8
L1_120
  6
CONTINUOUS
 62
         7
100
AcDbCircle
 10
1419.6033403763
 20
9.0566652593
 30
0.0
 40
0.5
100
AcDbArc
 50
90.0
 51
180.0
  0
ARC
  5
1BA
100
AcDbEntity
  8
L1_120
  6
CONTINUOUS
 62
         7
100
AcDbCircle
 10
1419.6033403763
 20
-34.9433347407
 30
0.0
 40
0.5
100
AcDbArc
 50
180.0
 51
270.0
  0
ARC
  5
1BB
100
AcDbEntity
  8
L1_120
  6
CONTINUOUS
 62
         7
100
AcDbCircle
 10
1415.1033403763
 20
2.9955227332
 30
0.0
 40
4.0
100
AcDbArc
 50
271.4377
 51
360.0
  0
ARC
  5
1BC
100
AcDbEntity
  8
L1_120
  6
CONTINUOUS
 62
         7
100
AcDbCircle
 10
1415.1033403763
 20
-28.8821922145
 30
0.0
 40
4.0
100
AcDbArc
 50
0.0
 51
88.5623
  0
DIMENSION
  5
1BF
100
AcDbEntity
  8
L1_120
  6
CONTINUOUS
 62
         4
100
AcDbDimension
  2
*D1
 10
1583.1454063139
 20
37.7189278956
 30
0.0
 11
1584.3915473612
 21
39.7439278956
 31
0.0
  3
DIMSTYLE1
100
AcDbAlignedDimension
 13
1583.1454063139
 23
43.4741691098
 33
0.0
 14
1588.1454063139
 24
43.8741691098
 34
0.0
100
AcDbRotatedDimension
  0
LINE
  5
1CD
100
AcDbEntity
  8
L1_120
  6
CENTER
 62
         1
100
AcDbLine
 10
1798.9018495407
 20
52.7741691098
 30
0.0
 11
1501.0027458468
 21
52.7741691098
 31
0.0
  0
DIMENSION
  5
1D0
100
AcDbEntity
  8
L1_120
  6
CONTINUOUS
 62
         4
100
AcDbDimension
  2
*D2
 10
1784.6454063139
 20
82.2354809696
 30
0.0
 11
1762.4203371761
 21
84.2604809696
 31
0.0
  3
DIMSTYLE1
100
AcDbAlignedDimension
 13
1784.6454063139
 23
71.7741691098
 33
0.0
 14
1753.1454063139
 24
69.5741691098
 34
0.0
100
AcDbRotatedDimension
  0
DIMENSION
  5
1DE
100
AcDbEntity
  8
L1_120
  6
CONTINUOUS
 62
         4
100
AcDbDimension
  2
*D3
 10
1784.6454063139
 20
75.5252351611
 30
0.0
 11
1779.8401854285
 21
77.5502351611
 31
0.0
  3
DIMSTYLE1
100
AcDbAlignedDimension
 13
1784.6454063139
 23
71.7741691098
 33
0.0
 14
1777.6454063139
 24
71.7741691098
 34
0.0
100
AcDbRotatedDimension
  0
DIMENSION
  5
1EC
100
AcDbEntity
  8
L1_120
  6
CONTINUOUS
 62
         4
100
AcDbDimension
  2
*D4
 10
1791.5877319852
 20
72.2741691098
 30
0.0
 11
1789.5627319852
 21
48.3051612765
 31
0.0
  3
DIMSTYLE1
100
AcDbAlignedDimension
 13
1784.1454063139
 23
72.2741691098
 33
0.0
 14
1784.1454063139
 24
33.2741691098
 34
0.0
 50
90.0
100
AcDbRotatedDimension
  0
DIMENSION
  5
1FA
100
AcDbEntity
  8
L1_120
  6
CONTINUOUS
 62
         4
100
AcDbDimension
  2
*D5
 10
1750.3977954503
 20
69.7741691098
 30
0.0
 11
1748.3727954503
 21
41.5963846355
 31
0.0
  3
DIMSTYLE1
100
AcDbAlignedDimension
 13
1753.3454063139
 23
69.7741691098
 33
0.0
 14
1753.3454063139
 24
35.7741691098
 34
0.0
 50
90.0
100
AcDbRotatedDimension
  0
LINE
  5
206
100
AcDbEntity
  8
L1_120
  6
CONTINUOUS
 62
         7
100
AcDbLine
 10
1777.6454063139
 20
34.8741691098
 30
0.0
 11
1777.6454063139
 21
33.7741691098
 31
0.0
  0
ARC
  5
207
100
AcDbEntity
  8
L1_120
  6
CONTINUOUS
 62
         7
100
AcDbCircle
 10
1777.3454063139
 20
35.5741691098
 30
0.0
 40
0.4
100
AcDbArc
 50
1.5109716561
 51
90.0
  0
LINE
  5
208
100
AcDbEntity
  8
L1_120
  6
CONTINUOUS
 62
         7
100
AcDbLine
 10
1777.7452672315
 20
35.5847164593
 30
0.0
 11
1777.6454063139
 21
34.8741691098
 31
0.0
  0
LINE
  5
209
100
AcDbEntity
  8
L1_120
  6
CONTINUOUS
 62
         7
100
AcDbLine
 10
1774.5089146408
 20
35.7741691098
 30
0.0
 11
1775.1454063139
 21
35.7741691098
 31
0.0
  0
ARC
  5
20A
100
AcDbEntity
  8
L1_120
  6
CONTINUOUS
 62
         7
100
AcDbCircle
 10
1775.9444774744
 20
35.5741691098
 30
0.0
 40
0.4
100
AcDbArc
 50
90.0
 51
105.0
  0
LINE
  5
20B
100
AcDbEntity
  8
L1_120
  6
CONTINUOUS
 62
         7
100
AcDbLine
 10
1775.8409498564
 20
35.9605394403
 30
0.0
 11
1775.1454063139
 21
35.7741691098
 31
0.0
  0
LINE
  5
20C
100
AcDbEntity
  8
L1_120
  6
CONTINUOUS
 62
         7
100
AcDbLine
 10
1775.9444774744
 20
35.9741691098
 30
0.0
 11
1777.3454063139
 21
35.9741691098
 31
0.0
  0
LINE
  5
20D
100
AcDbEntity
  8
L1_120
  6
CONTINUOUS
 62
         7
100
AcDbLine
 10
1777.6454063139
 20
70.6741691098
 30
0.0
 11
1777.6454063139
 21
71.7741691098
 31
0.0
  0
ARC
  5
20E
100
AcDbEntity
  8
L1_120
  6
CONTINUOUS
 62
         7
100
AcDbCircle
 10
1777.3454063139
 20
69.9741691098
 30
0.0
 40
0.4
100
AcDbArc
 50
270.0
 51
358.4890283439
  0
LINE
  5
20F
100
AcDbEntity
  8
L1_120
  6
CONTINUOUS
 62
         7
100
AcDbLine
 10
1777.7452672315
 20
69.9636217603
 30
0.0
 11
1777.6454063139
 21
70.6741691098
 31
0.0
  0
LINE
  5
210
100
AcDbEntity
  8
L1_120
  6
CONTINUOUS
 62
         7
100
AcDbLine
 10
1774.5089146408
 20
69.7741691098
 30
0.0
 11
1775.1454063139
 21
69.7741691098
 31
0.0
  0
ARC
  5
211
100
AcDbEntity
  8
L1_120
  6
CONTINUOUS
 62
         7
100
AcDbCircle
 10
1775.9444774744
 20
69.9741691098
 30
0.0
 40
0.4
100
AcDbArc
 50
255.0
 51
270.0
  0
LINE
  5
212
100
AcDbEntity
  8
L1_120
  6
CONTINUOUS
 62
         7
100
AcDbLine
 10
1775.8409498564
 20
69.5877987793
 30
0.0
 11
1775.1454063139
 21
69.7741691098
 31
0.0
  0
LINE
  5
213
100
AcDbEntity
  8
L1_120
  6
CONTINUOUS
 62
         7
100
AcDbLine
 10
1775.9444774744
 20
69.5741691098
 30
0.0
 11
1777.3454063139
 21
69.5741691098
 31
0.0
  0
LINE
  5
214
100
AcDbEntity
  8
L1_120
  6
CONTINUOUS
 62
         7
100
AcDbLine
 10
1778.1454063139
 20
72.2741691098
 30
0.0
 11
1777.6454063139
 21
71.7741691098
 31
0.0
  0
LINE
  5
215
100
AcDbEntity
  8
L1_120
  6
CONTINUOUS
 62
         7
100
AcDbLine
 10
1784.1454063139
 20
72.2741691098
 30
0.0
 11
1778.1454063139
 21
72.2741691098
 31
0.0
  0
LINE
  5
216
100
AcDbEntity
  8
L1_120
  6
CONTINUOUS
 62
         7
100
AcDbLine
 10
1784.1454063139
 20
72.2741691098
 30
0.0
 11
1784.6454063139
 21
71.7741691098
 31
0.0
  0
LINE
  5
217
100
AcDbEntity
  8
L1_120
  6
CONTINUOUS
 62
         7
100
AcDbLine
 10
1777.6454063139
 20
35.8387442409
 30
0.0
 11
1777.6454063139
 21
69.7095939787
 31
0.0
  0
LINE
  5
218
100
AcDbEntity
  8
L1_120
  6
CONTINUOUS
 62
         7
100
AcDbLine
 10
1777.6454063139
 20
33.7741691098
 30
0.0
 11
1778.1454063139
 21
33.2741691098
 31
0.0
  0
LINE
  5
219
100
AcDbEntity
  8
L1_120
  6
CONTINUOUS
 62
         7
100
AcDbLine
 10
1784.6454063139
 20
33.7741691098
 30
0.0
 11
1784.6454063139
 21
71.7741691098
 31
0.0
  0
LINE
  5
21A
100
AcDbEntity
  8
L1_120
  6
CONTINUOUS
 62
         7
100
AcDbLine
 10
1784.1454063139
 20
33.2741691098
 30
0.0
 11
1778.1454063139
 21
33.2741691098
 31
0.0
  0
LINE
  5
21B
100
AcDbEntity
  8
L1_120
  6
CONTINUOUS
 62
         7
100
AcDbLine
 10
1784.6454063139
 20
33.7741691098
 30
0.0
 11
1784.1454063139
 21
33.2741691098
 31
0.0
  0
LINE
  5
21C
100
AcDbEntity
  8
L1_120
  6
CONTINUOUS
 62
         7
100
AcDbLine
 10
1775.1454063139
 20
69.7741691098
 30
0.0
 11
1753.6454063139
 21
69.7741691098
 31
0.0
  0
LINE
  5
21D
100
AcDbEntity
  8
L1_120
  6
CONTINUOUS
 62
         7
100
AcDbLine
 10
1753.1454063139
 20
69.4854939752
 30
0.0
 11
1753.1454063139
 21
36.0628442444
 31
0.0
  0
LINE
  5
21E
100
AcDbEntity
  8
L1_120
  6
CONTINUOUS
 62
         7
100
AcDbLine
 10
1775.1454063139
 20
35.7741691098
 30
0.0
 11
1753.6454063139
 21
35.7741691098
 31
0.0
  0
LINE
  5
21F
100
AcDbEntity
  8
L1_120
  6
CONTINUOUS
 62
         4
100
AcDbLine
 10
1784.1454063139
 20
72.2741691098
 30
0.0
 11
1784.1454063139
 21
33.2741691098
 31
0.0
  0
LINE
  5
220
100
AcDbEntity
  8
L1_120
  6
CONTINUOUS
 62
         4
100
AcDbLine
 10
1778.1454063139
 20
33.2741691098
 30
0.0
 11
1778.1454063139
 21
72.2741691098
 31
0.0
  0
LINE
  5
221
100
AcDbEntity
  8
L1_120
  6
CONTINUOUS
 62
         4
100
AcDbLine
 10
1775.1454063139
 20
35.7741691098
 30
0.0
 11
1775.1454063139
 21
69.7741691098
 31
0.0
  0
LINE
  5
222
100
AcDbEntity
  8
L1_120
  6
CONTINUOUS
 62
         7
100
AcDbLine
 10
1753.1454063139
 20
36.0628442444
 30
0.0
 11
1753.6454063139
 21
35.7741691098
 31
0.0
  0
LINE
  5
223
100
AcDbEntity
  8
L1_120
  6
CONTINUOUS
 62
         7
100
AcDbLine
 10
1753.1454063139
 20
69.4854939752
 30
0.0
 11
1753.6454063139
 21
69.7741691098
 31
0.0
  0
LINE
  5
224
100
AcDbEntity
  8
L1_120
  6
CONTINUOUS
 62
         4
100
AcDbLine
 10
1753.6454063139
 20
35.7741691098
 30
0.0
 11
1753.6454063139
 21
69.7741691098
 31
0.0
  0
DIMENSION
  5
227
100
AcDbEntity
  8
L1_120
  6
CONTINUOUS
 62
         4
100
AcDbDimension
  2
*D6
 10
1731.7554063139
 20
67.2894992099
 30
0.0
 11
1734.6777786662
 21
69.3144992099
 31
0.0
  3
DIMSTYLE1
100
AcDbAlignedDimension
 13
1731.7554063139
 23
62.1741691098
 33
0.0
 14
1733.2554063139
 24
62.1741691098
 34
0.0
100
AcDbRotatedDimension
  0
DIMENSION
  5
237
100
AcDbEntity
  8
L1_120
  6
CONTINUOUS
 62
         4
100
AcDbDimension
  2
*D7
 10
1721.1054063139
 20
65.2255812658
 30
0.0
 11
1711.7191485836
 21
67.2505812658
 31
0.0
  3
DIMSTYLE1
100
AcDbAlignedDimension
 13
1721.1054063139
 23
61.9741691098
 33
0.0
 14
1725.6054063139
 24
61.9741691098
 34
0.0
100
AcDbRotatedDimension
  0
DIMENSION
  5
247
100
AcDbEntity
  8
L1_120
  6
CONTINUOUS
 62
         4
100
AcDbDimension
  2
*D8
 10
1721.1054063139
 20
70.8276442569
 30
0.0
 11
1720.6557145159
 21
72.8526442569
 31
0.0
  3
DIMSTYLE1
100
AcDbAlignedDimension
 13
1721.1054063139
 23
61.7741691098
 33
0.0
 14
1733.2554063139
 24
62.1741691098
 34
0.0
100
AcDbRotatedDimension
  0
DIMENSION
  5
255
100
AcDbEntity
  8
L1_120
  6
CONTINUOUS
 62
         4
100
AcDbDimension
  2
*D9
 10
1717.7813075284
 20
62.2741691098
 30
0.0
 11
1715.7563075284
 21
47.5737739749
 31
0.0
  3
DIMSTYLE1
100
AcDbAlignedDimension
 13
1721.6054063139
 23
62.2741691098
 33
0.0
 14
1721.6054063139
 24
43.2741691098
 34
0.0
 50
90.0
100
AcDbRotatedDimension
  0
LINE
  5
261
100
AcDbEntity
  8
L1_120
  6
CONTINUOUS
 62
         4
100
AcDbLine
 10
1733.1554063139
 20
43.2741691098
 30
0.0
 11
1733.1554063139
 21
62.2741691098
 31
0.0
  0
LINE
  5
262
100
AcDbEntity
  8
L1_120
  6
CONTINUOUS
 62
         4
100
AcDbLine
 10
1731.8554063139
 20
43.2741691098
 30
0.0
 11
1731.8554063139
 21
62.2741691098
 31
0.0
  0
LINE
  5
263
100
AcDbEntity
  8
L1_120
  6
CONTINUOUS
 62
         4
100
AcDbLine
 10
1725.1054063139
 20
43.2741691098
 30
0.0
 11
1725.1054063139
 21
62.2741691098
 31
0.0
  0
LINE
  5
264
100
AcDbEntity
  8
L1_120
  6
CONTINUOUS
 62
         4
100
AcDbLine
 10
1721.6054063139
 20
43.2741691098
 30
0.0
 11
1721.6054063139
 21
62.2741691098
 31
0.0
  0
LINE
  5
265
100
AcDbEntity
  8
L1_120
  6
CONTINUOUS
 62
         7
100
AcDbLine
 10
1721.1054063139
 20
61.7741691098
 30
0.0
 11
1721.6054063139
 21
62.2741691098
 31
0.0
  0
LINE
  5
266
100
AcDbEntity
  8
L1_120
  6
CONTINUOUS
 62
         7
100
AcDbLine
 10
1725.6054063139
 20
61.7741691098
 30
0.0
 11
1725.1054063139
 21
62.2741691098
 31
0.0
  0
LINE
  5
267
100
AcDbEntity
  8
L1_120
  6
CONTINUOUS
 62
         7
100
AcDbLine
 10
1725.6054063139
 20
43.7741691098
 30
0.0
 11
1725.1054063139
 21
43.2741691098
 31
0.0
  0
LINE
  5
268
100
AcDbEntity
  8
L1_120
  6
CONTINUOUS
 62
         7
100
AcDbLine
 10
1721.1054063139
 20
43.7741691098
 30
0.0
 11
1721.6054063139
 21
43.2741691098
 31
0.0
  0
LINE
  5
269
100
AcDbEntity
  8
L1_120
  6
CONTINUOUS
 62
         7
100
AcDbLine
 10
1733.2554063139
 20
43.3741691098
 30
0.0
 11
1733.1554063139
 21
43.2741691098
 31
0.0
  0
LINE
  5
26A
100
AcDbEntity
  8
L1_120
  6
CONTINUOUS
 62
         7
100
AcDbLine
 10
1731.7554063139
 20
43.3741691098
 30
0.0
 11
1731.8554063139
 21
43.2741691098
 31
0.0
  0
LINE
  5
26B
100
AcDbEntity
  8
L1_120
  6
CONTINUOUS
 62
         7
100
AcDbLine
 10
1733.1554063139
 20
62.2741691098
 30
0.0
 11
1733.2554063139
 21
62.1741691098
 31
0.0
  0
LINE
  5
26C
100
AcDbEntity
  8
L1_120
  6
CONTINUOUS
 62
         7
100
AcDbLine
 10
1731.7554063139
 20
62.1741691098
 30
0.0
 11
1731.8554063139
 21
62.2741691098
 31
0.0
  0
LINE
  5
26D
100
AcDbEntity
  8
L1_120
  6
CONTINUOUS
 62
         7
100
AcDbLine
 10
1731.7554063139
 20
45.2741691098
 30
0.0
 11
1725.6054063139
 21
45.2741691098
 31
0.0
  0
LINE
  5
26E
100
AcDbEntity
  8
L1_120
  6
CONTINUOUS
 62
         7
100
AcDbLine
 10
1731.7554063139
 20
60.2741691098
 30
0.0
 11
1725.6054063139
 21
60.2741691098
 31
0.0
  0
LINE
  5
26F
100
AcDbEntity
  8
L1_120
  6
CONTINUOUS
 62
         7
100
AcDbLine
 10
1731.7554063139
 20
43.3741691098
 30
0.0
 11
1731.7554063139
 21
62.1741691098
 31
0.0
  0
LINE
  5
270
100
AcDbEntity
  8
L1_120
  6
CONTINUOUS
 62
         7
100
AcDbLine
 10
1733.2554063139
 20
43.3741691098
 30
0.0
 11
1733.2554063139
 21
62.1741691098
 31
0.0
  0
LINE
  5
271
100
AcDbEntity
  8
L1_120
  6
CONTINUOUS
 62
         7
100
AcDbLine
 10
1733.1554063139
 20
62.2741691098
 30
0.0
 11
1731.8554063139
 21
62.2741691098
 31
0.0
  0
LINE
  5
272
100
AcDbEntity
  8
L1_120
  6
CONTINUOUS
 62
         7
100
AcDbLine
 10
1733.1554063139
 20
43.2741691098
 30
0.0
 11
1731.8554063139
 21
43.2741691098
 31
0.0
  0
LINE
  5
273
100
AcDbEntity
  8
L1_120
  6
CONTINUOUS
 62
         7
100
AcDbLine
 10
1725.1054063139
 20
43.2741691098
 30
0.0
 11
1721.6054063139
 21
43.2741691098
 31
0.0
  0
LINE
  5
274
100
AcDbEntity
  8
L1_120
  6
CONTINUOUS
 62
         7
100
AcDbLine
 10
1725.6054063139
 20
43.7741691098
 30
0.0
 11
1725.6054063139
 21
61.7741691098
 31
0.0
  0
LINE
  5
275
100
AcDbEntity
  8
L1_120
  6
CONTINUOUS
 62
         7
100
AcDbLine
 10
1725.1054063139
 20
62.2741691098
 30
0.0
 11
1721.6054063139
 21
62.2741691098
 31
0.0
  0
LINE
  5
276
100
AcDbEntity
  8
L1_120
  6
CONTINUOUS
 62
         7
100
AcDbLine
 10
1721.1054063139
 20
43.7741691098
 30
0.0
 11
1721.1054063139
 21
61.7741691098
 31
0.0
  0
DIMENSION
  5
279
100
AcDbEntity
  8
L1_120
  6
CONTINUOUS
 62
         4
100
AcDbDimension
  2
*D10
 10
1703.8828895947
 20
65.4741691098
 30
0.0
 11
1701.8578895947
 21
41.286545061
 31
0.0
  3
DIMSTYLE1
100
AcDbAlignedDimension
 13
1689.1454063139
 23
65.4741691098
 33
0.0
 14
1689.1454063139
 24
40.0741691098
 34
0.0
 50
90.0
100
AcDbRotatedDimension
  0
DIMENSION
  5
287
100
AcDbEntity
  8
L1_120
  6
CONTINUOUS
 62
         4
100
AcDbDimension
  2
*D11
 10
1697.1620295967
 20
58.0241691098
 30
0.0
 11
1695.1370295967
 21
47.2466167274
 31
0.0
  3
DIMSTYLE1
100
AcDbAlignedDimension
 13
1689.8454063139
 23
58.0241691098
 33
0.0
 14
1689.8454063139
 24
47.5241691098
 34
0.0
 50
90.0
100
AcDbRotatedDimension
  0
DIMENSION
  5
295
100
AcDbEntity
  8
L1_120
  6
CONTINUOUS
 62
         4
100
AcDbDimension
  2
*D12
 10
1610.4233102067
 20
68.7741691098
 30
0.0
 11
1608.3983102067
 21
45.6765071073
 31
0.0
  3
DIMSTYLE1
100
AcDbAlignedDimension
 13
1616.3454063139
 23
68.7741691098
 33
0.0
 14
1616.3454063139
 24
36.7741691098
 34
0.0
 50
90.0
100
AcDbRotatedDimension
  0
DIMENSION
  5
2A3
100
AcDbEntity
  8
L1_120
  6
CONTINUOUS
 62
         4
100
AcDbDimension
  2
*D13
 10
1690.3454063139
 20
80.1721664743
 30
0.0
 11
1651.3128310888
 21
82.1971664743
 31
0.0
  3
DIMSTYLE1
100
AcDbAlignedDimension
 13
1690.3454063139
 23
64.9741691098
 33
0.0
 14
1615.3454063139
 24
67.7741691098
 34
0.0
100
AcDbRotatedDimension
  0
DIMENSION
  5
2B1
100
AcDbEntity
  8
L1_120
  6
CONTINUOUS
 62
         4
100
AcDbDimension
  2
*D14
 10
1658.8454063139
 20
73.9046592392
 30
0.0
 11
1668.501720715
 21
75.9296592392
 31
0.0
  3
DIMSTYLE1
100
AcDbAlignedDimension
 13
1658.8454063139
 23
67.7741691098
 33
0.0
 14
1690.3454063139
 24
64.9741691098
 34
0.0
100
AcDbRotatedDimension
  0
LINE
  5
2BD
100
AcDbEntity
  8
L1_120
  6
CONTINUOUS
 62
         7
100
AcDbLine
 10
1685.4954063139
 20
40.1741691098
 30
0.0
 11
1685.5954063139
 21
40.0741691098
 31
0.0
  0
LINE
  5
2BE
100
AcDbEntity
  8
L1_120
  6
CONTINUOUS
 62
         7
100
AcDbLine
 10
1683.9954063139
 20
40.1741691098
 30
0.0
 11
1683.8954063139
 21
40.0741691098
 31
0.0
  0
LINE
  5
2BF
100
AcDbEntity
  8
L1_120
  6
CONTINUOUS
 62
         7
100
AcDbLine
 10
1685.4954063139
 20
65.3741691098
 30
0.0
 11
1685.5954063139
 21
65.4741691098
 31
0.0
  0
LINE
  5
2C0
100
AcDbEntity
  8
L1_120
  6
CONTINUOUS
 62
         7
100
AcDbLine
 10
1683.8954063139
 20
65.4741691098
 30
0.0
 11
1683.9954063139
 21
65.3741691098
 31
0.0
  0
ARC
  5
2C1
100
AcDbEntity
  8
L1_120
  6
CONTINUOUS
 62
         4
100
AcDbCircle
 10
1627.0125461116
 20
52.7741691098
 30
0.0
 40
5.34
100
AcDbArc
 50
90.0
 51
270.0
  0
ARC
  5
2C2
100
AcDbEntity
  8
L1_120
  6
CONTINUOUS
 62
         4
100
AcDbCircle
 10
1642.9812690052
 20
52.7741691098
 30
0.0
 40
5.34
100
AcDbArc
 50
270.0
 51
450.0
  0
LINE
  5
2C3
100
AcDbEntity
  8
L1_120
  6
CONTINUOUS
 62
         4
100
AcDbLine
 10
1642.9812690052
 20
47.4341691098
 30
0.0
 11
1627.0125461116
 21
47.4341691098
 31
0.0
  0
LINE
  5
2C4
100
AcDbEntity
  8
L1_120
  6
CONTINUOUS
 62
         4
100
AcDbLine
 10
1642.9812690052
 20
58.1141691098
 30
0.0
 11
1627.0125461116
 21
58.1141691098
 31
0.0
  0
ARC
  5
2C5
100
AcDbEntity
  8
L1_120
  6
CONTINUOUS
 62
         7
100
AcDbCircle
 10
1641.3918521958
 20
52.7741691098
 30
0.0
 40
4.84
100
AcDbArc
 50
270.0
 51
450.0
  0
ARC
  5
2C6
100
AcDbEntity
  8
L1_120
  6
CONTINUOUS
 62
         7
100
AcDbCircle
 10
1628.6019629253
 20
52.7741691098
 30
0.0
 40
4.84
100
AcDbArc
 50
90.0
 51
270.0
  0
LINE
  5
2C7
100
AcDbEntity
  8
L1_120
  6
CONTINUOUS
 62
         7
100
AcDbLine
 10
1641.3918521958
 20
47.9341691098
 30
0.0
 11
1628.6019629253
 21
47.9341691098
 31
0.0
  0
LINE
  5
2C8
100
AcDbEntity
  8
L1_120
  6
CONTINUOUS
 62
         7
100
AcDbLine
 10
1641.3918521958
 20
57.6141691098
 30
0.0
 11
1628.6019629253
 21
57.6141691098
 31
0.0
  0
ARC
  5
2C9
100
AcDbEntity
  8
L1_120
  6
CONTINUOUS
 62
         7
100
AcDbCircle
 10
1628.5487957473
 20
52.7741691098
 30
0.0
 40
3.0
100
AcDbArc
 50
90.0
 51
270.0
  0
ARC
  5
2CA
100
AcDbEntity
  8
L1_120
  6
CONTINUOUS
 62
         7
100
AcDbCircle
 10
1641.4450193738
 20
52.7741691098
 30
0.0
 40
3.0
100
AcDbArc
 50
270.0
 51
450.0
  0
LINE
  5
2CB
100
AcDbEntity
  8
L1_120
  6
CONTINUOUS
 62
         7
100
AcDbLine
 10
1658.8454063139
 20
39.1741691098
 30
0.0
 11
1658.8454063139
 21
37.7741691098
 31
0.0
  0
ARC
  5
2CC
100
AcDbEntity
  8
L1_120
  6
CONTINUOUS
 62
         7
100
AcDbCircle
 10
1659.1454063139
 20
39.8741691098
 30
0.0
 40
0.4
100
AcDbArc
 50
90.0
 51
178.4890283439
  0
LINE
  5
2CD
100
AcDbEntity
  8
L1_120
  6
CONTINUOUS
 62
         7
100
AcDbLine
 10
1658.7455453963
 20
39.8847164593
 30
0.0
 11
1658.8454063139
 21
39.1741691098
 31
0.0
  0
LINE
  5
2CE
100
AcDbEntity
  8
L1_120
  6
CONTINUOUS
 62
         7
100
AcDbLine
 10
1661.981897987
 20
40.0741691098
 30
0.0
 11
1661.3454063139
 21
40.0741691098
 31
0.0
  0
ARC
  5
2CF
100
AcDbEntity
  8
L1_120
  6
CONTINUOUS
 62
         7
100
AcDbCircle
 10
1660.5463351533
 20
39.8741691098
 30
0.0
 40
0.4
100
AcDbArc
 50
75.0
 51
90.0
  0
LINE
  5
2D0
100
AcDbEntity
  8
L1_120
  6
CONTINUOUS
 62
         7
100
AcDbLine
 10
1660.6498627714
 20
40.2605394403
 30
0.0
 11
1661.3454063139
 21
40.0741691098
 31
0.0
  0
LINE
  5
2D1
100
AcDbEntity
  8
L1_120
  6
CONTINUOUS
 62
         7
100
AcDbLine
 10
1660.5463351533
 20
40.2741691098
 30
0.0
 11
1659.1454063139
 21
40.2741691098
 31
0.0
  0
LINE
  5
2D2
100
AcDbEntity
  8
L1_120
  6
CONTINUOUS
 62
         7
100
AcDbLine
 10
1658.8454063139
 20
66.3741691098
 30
0.0
 11
1658.8454063139
 21
67.7741691098
 31
0.0
  0
ARC
  5
2D3
100
AcDbEntity
  8
L1_120
  6
CONTINUOUS
 62
         7
100
AcDbCircle
 10
1659.1454063139
 20
65.6741691098
 30
0.0
 40
0.4
100
AcDbArc
 50
181.5109716561
 51
270.0
  0
LINE
  5
2D4
100
AcDbEntity
  8
L1_120
  6
CONTINUOUS
 62
         7
100
AcDbLine
 10
1658.7455453963
 20
65.6636217603
 30
0.0
 11
1658.8454063139
 21
66.3741691098
 31
0.0
  0
LINE
  5
2D5
100
AcDbEntity
  8
L1_120
  6
CONTINUOUS
 62
         7
100
AcDbLine
 10
1661.981897987
 20
65.4741691098
 30
0.0
 11
1661.3454063139
 21
65.4741691098
 31
0.0
  0
ARC
  5
2D6
100
AcDbEntity
  8
L1_120
  6
CONTINUOUS
 62
         7
100
AcDbCircle
 10
1660.5463351533
 20
65.6741691098
 30
0.0
 40
0.4
100
AcDbArc
 50
270.0
 51
285.0
  0
LINE
  5
2D7
100
AcDbEntity
  8
L1_120
  6
CONTINUOUS
 62
         7
100
AcDbLine
 10
1660.6498627714
 20
65.2877987793
 30
0.0
 11
1661.3454063139
 21
65.4741691098
 31
0.0
  0
LINE
  5
2D8
100
AcDbEntity
  8
L1_120
  6
CONTINUOUS
 62
         7
100
AcDbLine
 10
1660.5463351533
 20
65.2741691098
 30
0.0
 11
1659.1454063139
 21
65.2741691098
 31
0.0
  0
LINE
  5
2D9
100
AcDbEntity
  8
L1_120
  6
CONTINUOUS
 62
         7
100
AcDbLine
 10
1685.4954063139
 20
40.9741691098
 30
0.0
 11
1683.9954063139
 21
40.9741691098
 31
0.0
  0
LINE
  5
2DA
100
AcDbEntity
  8
L1_120
  6
CONTINUOUS
 62
         7
100
AcDbLine
 10
1685.4954063139
 20
64.5741691098
 30
0.0
 11
1683.9954063139
 21
64.5741691098
 31
0.0
  0
LINE
  5
2DB
100
AcDbEntity
  8
L1_120
  6
CONTINUOUS
 62
         7
100
AcDbLine
 10
1683.8954063139
 20
40.0741691098
 30
0.0
 11
1661.3454063139
 21
40.0741691098
 31
0.0
  0
LINE
  5
2DC
100
AcDbEntity
  8
L1_120
  6
CONTINUOUS
 62
         7
100
AcDbLine
 10
1661.3454063139
 20
65.4741691098
 30
0.0
 11
1683.8954063139
 21
65.4741691098
 31
0.0
  0
LINE
  5
2DD
100
AcDbEntity
  8
L1_120
  6
CONTINUOUS
 62
         7
100
AcDbLine
 10
1689.8454063139
 20
40.0741691098
 30
0.0
 11
1685.5954063139
 21
40.0741691098
 31
0.0
  0
LINE
  5
2DE
100
AcDbEntity
  8
L1_120
  6
CONTINUOUS
 62
         7
100
AcDbLine
 10
1689.8454063139
 20
65.4741691098
 30
0.0
 11
1685.5954063139
 21
65.4741691098
 31
0.0
  0
LINE
  5
2DF
100
AcDbEntity
  8
L1_120
  6
CONTINUOUS
 62
         7
100
AcDbLine
 10
1690.3454063139
 20
40.5741691098
 30
0.0
 11
1689.8454063139
 21
40.0741691098
 31
0.0
  0
LINE
  5
2E0
100
AcDbEntity
  8
L1_120
  6
CONTINUOUS
 62
         7
100
AcDbLine
 10
1689.8454063139
 20
65.4741691098
 30
0.0
 11
1690.3454063139
 21
64.9741691098
 31
0.0
  0
LINE
  5
2E1
100
AcDbEntity
  8
L1_120
  6
CONTINUOUS
 62
         7
100
AcDbLine
 10
1657.8454063139
 20
68.7741691098
 30
0.0
 11
1617.9793809101
 21
68.7741691098
 31
0.0
  0
LINE
  5
2E2
100
AcDbEntity
  8
L1_120
  6
CONTINUOUS
 62
         7
100
AcDbLine
 10
1657.8454063139
 20
36.7741691098
 30
0.0
 11
1617.9793809101
 21
36.7741691098
 31
0.0
  0
LINE
  5
2E3
100
AcDbEntity
  8
L1_120
  6
CONTINUOUS
 62
         7
100
AcDbLine
 10
1615.3454063139
 20
38.5062199174
 30
0.0
 11
1615.3454063139
 21
67.0421183022
 31
0.0
  0
LINE
  5
2E4
100
AcDbEntity
  8
L1_120
  6
CONTINUOUS
 62
         4
100
AcDbLine
 10
1657.8454063139
 20
68.7741691098
 30
0.0
 11
1657.8454063139
 21
36.7741691098
 31
0.0
  0
LINE
  5
2E5
100
AcDbEntity
  8
L1_120
  6
CONTINUOUS
 62
         7
100
AcDbLine
 10
1658.8454063139
 20
40.1387442409
 30
0.0
 11
1658.8454063139
 21
65.4095939787
 31
0.0
  0
LINE
  5
2E6
100
AcDbEntity
  8
L1_120
  6
CONTINUOUS
 62
         7
100
AcDbLine
 10
1683.9954063139
 20
40.1741691098
 30
0.0
 11
1683.9954063139
 21
65.3741691098
 31
0.0
  0
LINE
  5
2E7
100
AcDbEntity
  8
L1_120
  6
CONTINUOUS
 62
         7
100
AcDbLine
 10
1685.4954063139
 20
40.1741691098
 30
0.0
 11
1685.4954063139
 21
65.3741691098
 31
0.0
  0
LINE
  5
2E8
100
AcDbEntity
  8
L1_120
  6
CONTINUOUS
 62
         7
100
AcDbLine
 10
1685.4954063139
 20
48.0241691098
 30
0.0
 11
1685.4954063139
 21
57.5241691098
 31
0.0
  0
ARC
  5
2E9
100
AcDbEntity
  8
L1_120
  6
CONTINUOUS
 62
         7
100
AcDbCircle
 10
1685.9954063139
 20
57.5241691098
 30
0.0
 40
0.5
100
AcDbArc
 50
90.0
 51
180.0
  0
LINE
  5
2EA
100
AcDbEntity
  8
L1_120
  6
CONTINUOUS
 62
         7
100
AcDbLine
 10
1689.8454063139
 20
58.0241691098
 30
0.0
 11
1685.9954063139
 21
58.0241691098
 31
0.0
  0
ARC
  5
2EB
100
AcDbEntity
  8
L1_120
  6
CONTINUOUS
 62
         7
100
AcDbCircle
 10
1685.9954063139
 20
48.0241691098
 30
0.0
 40
0.5
100
AcDbArc
 50
180.0
 51
270.0
  0
LINE
  5
2EC
100
AcDbEntity
  8
L1_120
  6
CONTINUOUS
 62
         7
100
AcDbLine
 10
1689.8454063139
 20
47.5241691098
 30
0.0
 11
1685.9954063139
 21
47.5241691098
 31
0.0
  0
LINE
  5
2ED
100
AcDbEntity
  8
L1_120
  6
CONTINUOUS
 62
         4
100
AcDbLine
 10
1689.8454063139
 20
47.5241691098
 30
0.0
 11
1689.8454063139
 21
40.0741691098
 31
0.0
  0
LINE
  5
2EE
100
AcDbEntity
  8
L1_120
  6
CONTINUOUS
 62
         7
100
AcDbLine
 10
1689.8454063139
 20
47.5241691098
 30
0.0
 11
1690.3454063139
 21
47.0241691098
 31
0.0
  0
LINE
  5
2EF
100
AcDbEntity
  8
L1_120
  6
CONTINUOUS
 62
         4
100
AcDbLine
 10
1689.8454063139
 20
65.4741691098
 30
0.0
 11
1689.8454063139
 21
58.0241691098
 31
0.0
  0
LINE
  5
2F0
100
AcDbEntity
  8
L1_120
  6
CONTINUOUS
 62
         7
100
AcDbLine
 10
1690.3454063139
 20
58.5241691098
 30
0.0
 11
1689.8454063139
 21
58.0241691098
 31
0.0
  0
LINE
  5
2F1
100
AcDbEntity
  8
L1_120
  6
CONTINUOUS
 62
         7
100
AcDbLine
 10
1690.3454063139
 20
40.5741691098
 30
0.0
 11
1690.3454063139
 21
47.0241691098
 31
0.0
  0
LINE
  5
2F2
100
AcDbEntity
  8
L1_120
  6
CONTINUOUS
 62
         7
100
AcDbLine
 10
1690.3454063139
 20
58.5241691098
 30
0.0
 11
1690.3454063139
 21
64.9741691098
 31
0.0
  0
POLYLINE
  5
2F4
100
AcDbEntity
  8
L1_120
  6
CONTINUOUS
 62
         7
100
AcDb2dPolyline
 66
         1
 10
0.0
 20
0.0
 30
0.0
 70
         2
  0
VERTEX
  5
2F6
100
AcDbEntity
  8
L1_120
  6
CONTINUOUS
 62
         7
100
AcDbVertex
100
AcDb2dVertex
 10
1664.6454063139
 20
63.8984668404
 30
0.0
 70
         1
  0
VERTEX
  5
2F8
100
AcDbEntity
  8
L1_120
  6
CONTINUOUS
 62
         7
100
AcDbVertex
100
AcDb2dVertex
 10
1664.6901857735
 20
63.6880430785
 30
0.0
 70
         1
  0
VERTEX
  5
2FA
100
AcDbEntity
  8
L1_120
  6
CONTINUOUS
 62
         7
100
AcDbVertex
100
AcDb2dVertex
 10
1664.7394797607
 20
63.5953810548
 30
0.0
 70
         1
  0
VERTEX
  5
2FC
100
AcDbEntity
  8
L1_120
  6
CONTINUOUS
 62
         7
100
AcDbVertex
100
AcDb2dVertex
 10
1664.8084435748
 20
63.5030025895
 30
0.0
 70
         1
  0
VERTEX
  5
2FE
100
AcDbEntity
  8
L1_120
  6
CONTINUOUS
 62
         7
100
AcDbVertex
100
AcDb2dVertex
 10
1664.8974479183
 20
63.4125035066
 30
0.0
 70
         1
  0
VERTEX
  5
300
100
AcDbEntity
  8
L1_120
  6
CONTINUOUS
 62
         7
100
AcDbVertex
100
AcDb2dVertex
 10
1665.0061758837
 20
63.3255524496
 30
0.0
 70
         1
  0
VERTEX
  5
302
100
AcDbEntity
  8
L1_120
  6
CONTINUOUS
 62
         7
100
AcDbVertex
100
AcDb2dVertex
 10
1665.133575878
 20
63.2437973183
 30
0.0
 70
         1
  0
VERTEX
  5
304
100
AcDbEntity
  8
L1_120
  6
CONTINUOUS
 62
         7
100
AcDbVertex
100
AcDb2dVertex
 10
1665.2778764841
 20
63.1687644757
 30
0.0
 70
         1
  0
VERTEX
  5
306
100
AcDbEntity
  8
L1_120
  6
CONTINUOUS
 62
         7
100
AcDbVertex
100
AcDb2dVertex
 10
1665.4366670827
 20
63.1017627751
 30
0.0
 70
         1
  0
VERTEX
  5
308
100
AcDbEntity
  8
L1_120
  6
CONTINUOUS
 62
         7
100
AcDbVertex
100
AcDb2dVertex
 10
1665.6675944729
 20
63.0261303223
 30
0.0
 70
         1
  0
VERTEX
  5
30A
100
AcDbEntity
  8
L1_120
  6
CONTINUOUS
 62
         7
100
AcDbVertex
100
AcDb2dVertex
 10
1665.9115178685
 20
62.9682238951
 30
0.0
 70
         1
  0
VERTEX
  5
30C
100
AcDbEntity
  8
L1_120
  6
CONTINUOUS
 62
         7
100
AcDbVertex
100
AcDb2dVertex
 10
1666.1604186887
 20
62.9283138881
 30
0.0
 70
         1
  0
VERTEX
  5
30E
100
AcDbEntity
  8
L1_120
  6
CONTINUOUS
 62
         7
100
AcDbVertex
100
AcDb2dVertex
 10
1666.4906094051
 20
62.9014666001
 30
0.0
 70
         1
  0
VERTEX
  5
310
100
AcDbEntity
  8
L1_120
  6
CONTINUOUS
 62
         7
100
AcDbVertex
100
AcDb2dVertex
 10
1666.8021146969
 20
62.9015412561
 30
0.0
 70
         1
  0
VERTEX
  5
312
100
AcDbEntity
  8
L1_120
  6
CONTINUOUS
 62
         7
100
AcDbVertex
100
AcDb2dVertex
 10
1667.0854516026
 20
62.9229720757
 30
0.0
 70
         1
  0
VERTEX
  5
314
100
AcDbEntity
  8
L1_120
  6
CONTINUOUS
 62
         7
100
AcDbVertex
100
AcDb2dVertex
 10
1667.3358968137
 20
62.9599543379
 30
0.0
 70
         1
  0
VERTEX
  5
316
100
AcDbEntity
  8
L1_120
  6
CONTINUOUS
 62
         7
100
AcDbVertex
100
AcDb2dVertex
 10
1667.5524824134
 20
63.0072299261
 30
0.0
 70
         1
  0
VERTEX
  5
318
100
AcDbEntity
  8
L1_120
  6
CONTINUOUS
 62
         7
100
AcDbVertex
100
AcDb2dVertex
 10
1667.7943949085
 20
63.0799582563
 30
0.0
 70
         1
  0
VERTEX
  5
31A
100
AcDbEntity
  8
L1_120
  6
CONTINUOUS
 62
         7
100
AcDbVertex
100
AcDb2dVertex
 10
1667.9850574074
 20
63.155948331
 30
0.0
 70
         1
  0
VERTEX
  5
31C
100
AcDbEntity
  8
L1_120
  6
CONTINUOUS
 62
         7
100
AcDbVertex
100
AcDb2dVertex
 10
1668.1334845825
 20
63.2303308014
 30
0.0
 70
         1
  0
VERTEX
  5
31E
100
AcDbEntity
  8
L1_120
  6
CONTINUOUS
 62
         7
100
AcDbVertex
100
AcDb2dVertex
 10
1668.2826430266
 20
63.3241289724
 30
0.0
 70
         1
  0
VERTEX
  5
320
100
AcDbEntity
  8
L1_120
  6
CONTINUOUS
 62
         7
100
AcDbVertex
100
AcDb2dVertex
 10
1668.3873929548
 20
63.4071719842
 30
0.0
 70
         1
  0
VERTEX
  5
322
100
AcDbEntity
  8
L1_120
  6
CONTINUOUS
 62
         7
100
AcDbVertex
100
AcDb2dVertex
 10
1668.4822487586
 20
63.5028629245
 30
0.0
 70
         1
  0
VERTEX
  5
324
100
AcDbEntity
  8
L1_120
  6
CONTINUOUS
 62
         7
100
AcDbVertex
100
AcDb2dVertex
 10
1668.5574550332
 20
63.6051795688
 30
0.0
 70
         1
  0
VERTEX
  5
326
100
AcDbEntity
  8
L1_120
  6
CONTINUOUS
 62
         7
100
AcDbVertex
100
AcDb2dVertex
 10
1668.6074665094
 20
63.70461136
 30
0.0
 70
         1
  0
VERTEX
  5
328
100
AcDbEntity
  8
L1_120
  6
CONTINUOUS
 62
         7
100
AcDbVertex
100
AcDb2dVertex
 10
1668.6388307272
 20
63.8174435286
 30
0.0
 70
         1
  0
VERTEX
  5
32A
100
AcDbEntity
  8
L1_120
  6
CONTINUOUS
 62
         7
100
AcDbVertex
100
AcDb2dVertex
 10
1668.6454063139
 20
63.8984668404
 30
0.0
 70
         1
  0
VERTEX
  5
32C
100
AcDbEntity
  8
L1_120
  6
CONTINUOUS
 62
         7
100
AcDbVertex
100
AcDb2dVertex
 10
1668.6454063139
 20
63.8984668404
 30
0.0
 70
         1
  0
VERTEX
  5
32E
100
AcDbEntity
  8
L1_120
  6
CONTINUOUS
 62
         7
100
AcDbVertex
100
AcDb2dVertex
 10
1668.6006268543
 20
64.1088906024
 30
0.0
 70
         1
  0
VERTEX
  5
330
100
AcDbEntity
  8
L1_120
  6
CONTINUOUS
 62
         7
100
AcDbVertex
100
AcDb2dVertex
 10
1668.5513328671
 20
64.2015526261
 30
0.0
 70
         1
  0
VERTEX
  5
332
100
AcDbEntity
  8
L1_120
  6
CONTINUOUS
 62
         7
100
AcDbVertex
100
AcDb2dVertex
 10
1668.482369053
 20
64.2939310914
 30
0.0
 70
         1
  0
VERTEX
  5
334
100
AcDbEntity
  8
L1_120
  6
CONTINUOUS
 62
         7
100
AcDbVertex
100
AcDb2dVertex
 10
1668.3933647094
 20
64.3844301743
 30
0.0
 70
         1
  0
VERTEX
  5
336
100
AcDbEntity
  8
L1_120
  6
CONTINUOUS
 62
         7
100
AcDbVertex
100
AcDb2dVertex
 10
1668.2846367441
 20
64.4713812313
 30
0.0
 70
         1
  0
VERTEX
  5
338
100
AcDbEntity
  8
L1_120
  6
CONTINUOUS
 62
         7
100
AcDbVertex
100
AcDb2dVertex
 10
1668.1572367498
 20
64.5531363626
 30
0.0
 70
         1
  0
VERTEX
  5
33A
100
AcDbEntity
  8
L1_120
  6
CONTINUOUS
 62
         7
100
AcDbVertex
100
AcDb2dVertex
 10
1668.0129361437
 20
64.6281692052
 30
0.0
 70
         1
  0
VERTEX
  5
33C
100
AcDbEntity
  8
L1_120
  6
CONTINUOUS
 62
         7
100
AcDbVertex
100
AcDb2dVertex
 10
1667.8541455451
 20
64.6951709058
 30
0.0
 70
         1
  0
VERTEX
  5
33E
100
AcDbEntity
  8
L1_120
  6
CONTINUOUS
 62
         7
100
AcDbVertex
100
AcDb2dVertex
 10
1667.6232181549
 20
64.7708033586
 30
0.0
 70
         1
  0
VERTEX
  5
340
100
AcDbEntity
  8
L1_120
  6
CONTINUOUS
 62
         7
100
AcDbVertex
100
AcDb2dVertex
 10
1667.3792947593
 20
64.8287097858
 30
0.0
 70
         1
  0
VERTEX
  5
342
100
AcDbEntity
  8
L1_120
  6
CONTINUOUS
 62
         7
100
AcDbVertex
100
AcDb2dVertex
 10
1667.1303939391
 20
64.8686197927
 30
0.0
 70
         1
  0
VERTEX
  5
344
100
AcDbEntity
  8
L1_120
  6
CONTINUOUS
 62
         7
100
AcDbVertex
100
AcDb2dVertex
 10
1666.8002032227
 20
64.8954670808
 30
0.0
 70
         1
  0
VERTEX
  5
346
100
AcDbEntity
  8
L1_120
  6
CONTINUOUS
 62
         7
100
AcDbVertex
100
AcDb2dVertex
 10
1666.4886979309
 20
64.8953924248
 30
0.0
 70
         1
  0
VERTEX
  5
348
100
AcDbEntity
  8
L1_120
  6
CONTINUOUS
 62
         7
100
AcDbVertex
100
AcDb2dVertex
 10
1666.2053610252
 20
64.8739616052
 30
0.0
 70
         1
  0
VERTEX
  5
34A
100
AcDbEntity
  8
L1_120
  6
CONTINUOUS
 62
         7
100
AcDbVertex
100
AcDb2dVertex
 10
1665.9549158141
 20
64.836979343
 30
0.0
 70
         1
  0
VERTEX
  5
34C
100
AcDbEntity
  8
L1_120
  6
CONTINUOUS
 62
         7
100
AcDbVertex
100
AcDb2dVertex
 10
1665.7383302144
 20
64.7897037547
 30
0.0
 70
         1
  0
VERTEX
  5
34E
100
AcDbEntity
  8
L1_120
  6
CONTINUOUS
 62
         7
100
AcDbVertex
100
AcDb2dVertex
 10
1665.4964177193
 20
64.7169754246
 30
0.0
 70
         1
  0
VERTEX
  5
350
100
AcDbEntity
  8
L1_120
  6
CONTINUOUS
 62
         7
100
AcDbVertex
100
AcDb2dVertex
 10
1665.3057552204
 20
64.6409853499
 30
0.0
 70
         1
  0
VERTEX
  5
352
100
AcDbEntity
  8
L1_120
  6
CONTINUOUS
 62
         7
100
AcDbVertex
100
AcDb2dVertex
 10
1665.1573280453
 20
64.5666028794
 30
0.0
 70
         1
  0
VERTEX
  5
354
100
AcDbEntity
  8
L1_120
  6
CONTINUOUS
 62
         7
100
AcDbVertex
100
AcDb2dVertex
 10
1665.0081696012
 20
64.4728047085
 30
0.0
 70
         1
  0
VERTEX
  5
356
100
AcDbEntity
  8
L1_120
  6
CONTINUOUS
 62
         7
100
AcDbVertex
100
AcDb2dVertex
 10
1664.903419673
 20
64.3897616966
 30
0.0
 70
         1
  0
VERTEX
  5
358
100
AcDbEntity
  8
L1_120
  6
CONTINUOUS
 62
         7
100
AcDbVertex
100
AcDb2dVertex
 10
1664.8085638691
 20
64.2940707564
 30
0.0
 70
         1
  0
VERTEX
  5
35A
100
AcDbEntity
  8
L1_120
  6
CONTINUOUS
 62
         7
100
AcDbVertex
100
AcDb2dVertex
 10
1664.7333575946
 20
64.1917541121
 30
0.0
 70
         1
  0
VERTEX
  5
35C
100
AcDbEntity
  8
L1_120
  6
CONTINUOUS
 62
         7
100
AcDbVertex
100
AcDb2dVertex
 10
1664.6833461184
 20
64.0923223209
 30
0.0
 70
         1
  0
VERTEX
  5
35E
100
AcDbEntity
  8
L1_120
  6
CONTINUOUS
 62
         7
100
AcDbVertex
100
AcDb2dVertex
 10
1664.6519819005
 20
63.9794901523
 30
0.0
 70
         1
  0
VERTEX
  5
360
100
AcDbEntity
  8
L1_120
  6
CONTINUOUS
 62
         7
100
AcDbVertex
100
AcDb2dVertex
 10
1664.6454063139
 20
63.8984668404
 30
0.0
 70
         1
  0
SEQEND
  5
362
100
AcDbEntity
  8
L1_120
  6
CONTINUOUS
 62
         7
  0
POLYLINE
  5
364
100
AcDbEntity
  8
L1_120
  6
CONTINUOUS
 62
         7
100
AcDb2dPolyline
 66
         1
 10
0.0
 20
0.0
 30
0.0
 70
         2
  0
VERTEX
  5
366
100
AcDbEntity
  8
L1_120
  6
CONTINUOUS
 62
         7
100
AcDbVertex
100
AcDb2dVertex
 10
1664.6454063139
 20
41.6498713792
 30
0.0
 70
         1
  0
VERTEX
  5
368
100
AcDbEntity
  8
L1_120
  6
CONTINUOUS
 62
         7
100
AcDbVertex
100
AcDb2dVertex
 10
1664.6901857735
 20
41.4394476172
 30
0.0
 70
         1
  0
VERTEX
  5
36A
100
AcDbEntity
  8
L1_120
  6
CONTINUOUS
 62
         7
100
AcDbVertex
100
AcDb2dVertex
 10
1664.7394797607
 20
41.3467855935
 30
0.0
 70
         1
  0
VERTEX
  5
36C
100
AcDbEntity
  8
L1_120
  6
CONTINUOUS
 62
         7
100
AcDbVertex
100
AcDb2dVertex
 10
1664.8084435748
 20
41.2544071282
 30
0.0
 70
         1
  0
VERTEX
  5
36E
100
AcDbEntity
  8
L1_120
  6
CONTINUOUS
 62
         7
100
AcDbVertex
100
AcDb2dVertex
 10
1664.8974479183
 20
41.1639080453
 30
0.0
 70
         1
  0
VERTEX
  5
370
100
AcDbEntity
  8
L1_120
  6
CONTINUOUS
 62
         7
100
AcDbVertex
100
AcDb2dVertex
 10
1665.0061758837
 20
41.0769569883
 30
0.0
 70
         1
  0
VERTEX
  5
372
100
AcDbEntity
  8
L1_120
  6
CONTINUOUS
 62
         7
100
AcDbVertex
100
AcDb2dVertex
 10
1665.133575878
 20
40.995201857
 30
0.0
 70
         1
  0
VERTEX
  5
374
100
AcDbEntity
  8
L1_120
  6
CONTINUOUS
 62
         7
100
AcDbVertex
100
AcDb2dVertex
 10
1665.2778764841
 20
40.9201690144
 30
0.0
 70
         1
  0
VERTEX
  5
376
100
AcDbEntity
  8
L1_120
  6
CONTINUOUS
 62
         7
100
AcDbVertex
100
AcDb2dVertex
 10
1665.4366670827
 20
40.8531673138
 30
0.0
 70
         1
  0
VERTEX
  5
378
100
AcDbEntity
  8
L1_120
  6
CONTINUOUS
 62
         7
100
AcDbVertex
100
AcDb2dVertex
 10
1665.6675944729
 20
40.777534861
 30
0.0
 70
         1
  0
VERTEX
  5
37A
100
AcDbEntity
  8
L1_120
  6
CONTINUOUS
 62
         7
100
AcDbVertex
100
AcDb2dVertex
 10
1665.9115178685
 20
40.7196284338
 30
0.0
 70
         1
  0
VERTEX
  5
37C
100
AcDbEntity
  8
L1_120
  6
CONTINUOUS
 62
         7
100
AcDbVertex
100
AcDb2dVertex
 10
1666.1604186887
 20
40.6797184269
 30
0.0
 70
         1
  0
VERTEX
  5
37E
100
AcDbEntity
  8
L1_120
  6
CONTINUOUS
 62
         7
100
AcDbVertex
100
AcDb2dVertex
 10
1666.4906094051
 20
40.6528711388
 30
0.0
 70
         1
  0
VERTEX
  5
380
100
AcDbEntity
  8
L1_120
  6
CONTINUOUS
 62
         7
100
AcDbVertex
100
AcDb2dVertex
 10
1666.8021146969
 20
40.6529457948
 30
0.0
 70
         1
  0
VERTEX
  5
382
100
AcDbEntity
  8
L1_120
  6
CONTINUOUS
 62
         7
100
AcDbVertex
100
AcDb2dVertex
 10
1667.0854516026
 20
40.6743766144
 30
0.0
 70
         1
  0
VERTEX
  5
384
100
AcDbEntity
  8
L1_120
  6
CONTINUOUS
 62
         7
100
AcDbVertex
100
AcDb2dVertex
 10
1667.3358968137
 20
40.7113588766
 30
0.0
 70
         1
  0
VERTEX
  5
386
100
AcDbEntity
  8
L1_120
  6
CONTINUOUS
 62
         7
100
AcDbVertex
100
AcDb2dVertex
 10
1667.5524824134
 20
40.7586344649
 30
0.0
 70
         1
  0
VERTEX
  5
388
100
AcDbEntity
  8
L1_120
  6
CONTINUOUS
 62
         7
100
AcDbVertex
100
AcDb2dVertex
 10
1667.7943949085
 20
40.831362795
 30
0.0
 70
         1
  0
VERTEX
  5
38A
100
AcDbEntity
  8
L1_120
  6
CONTINUOUS
 62
         7
100
AcDbVertex
100
AcDb2dVertex
 10
1667.9850574074
 20
40.9073528697
 30
0.0
 70
         1
  0
VERTEX
  5
38C
100
AcDbEntity
  8
L1_120
  6
CONTINUOUS
 62
         7
100
AcDbVertex
100
AcDb2dVertex
 10
1668.1334845825
 20
40.9817353402
 30
0.0
 70
         1
  0
VERTEX
  5
38E
100
AcDbEntity
  8
L1_120
  6
CONTINUOUS
 62
         7
100
AcDbVertex
100
AcDb2dVertex
 10
1668.2826430266
 20
41.0755335111
 30
0.0
 70
         1
  0
VERTEX
  5
390
100
AcDbEntity
  8
L1_120
  6
CONTINUOUS
 62
         7
100
AcDbVertex
100
AcDb2dVertex
 10
1668.3873929548
 20
41.158576523
 30
0.0
 70
         1
  0
VERTEX
  5
392
100
AcDbEntity
  8
L1_120
  6
CONTINUOUS
 62
         7
100
AcDbVertex
100
AcDb2dVertex
 10
1668.4822487586
 20
41.2542674632
 30
0.0
 70
         1
  0
VERTEX
  5
394
100
AcDbEntity
  8
L1_120
  6
CONTINUOUS
 62
         7
100
AcDbVertex
100
AcDb2dVertex
 10
1668.5574550332
 20
41.3565841075
 30
0.0
 70
         1
  0
VERTEX
  5
396
100
AcDbEntity
  8
L1_120
  6
CONTINUOUS
 62
         7
100
AcDbVertex
100
AcDb2dVertex
 10
1668.6074665094
 20
41.4560158987
 30
0.0
 70
         1
  0
VERTEX
  5
398
100
AcDbEntity
  8
L1_120
  6
CONTINUOUS
 62
         7
100
AcDbVertex
100
AcDb2dVertex
 10
1668.6388307272
 20
41.5688480673
 30
0.0
 70
         1
  0
VERTEX
  5
39A
100
AcDbEntity
  8
L1_120
  6
CONTINUOUS
 62
         7
100
AcDbVertex
100
AcDb2dVertex
 10
1668.6454063139
 20
41.6498713792
 30
0.0
 70
         1
  0
VERTEX
  5
39C
100
AcDbEntity
  8
L1_120
  6
CONTINUOUS
 62
         7
100
AcDbVertex
100
AcDb2dVertex
 10
1668.6454063139
 20
41.6498713792
 30
0.0
 70
         1
  0
VERTEX
  5
39E
100
AcDbEntity
  8
L1_120
  6
CONTINUOUS
 62
         7
100
AcDbVertex
100
AcDb2dVertex
 10
1668.6006268543
 20
41.8602951411
 30
0.0
 70
         1
  0
VERTEX
  5
3A0
100
AcDbEntity
  8
L1_120
  6
CONTINUOUS
 62
         7
100
AcDbVertex
100
AcDb2dVertex
 10
1668.5513328671
 20
41.9529571648
 30
0.0
 70
         1
  0
VERTEX
  5
3A2
100
AcDbEntity
  8
L1_120
  6
CONTINUOUS
 62
         7
100
AcDbVertex
100
AcDb2dVertex
 10
1668.482369053
 20
42.0453356301
 30
0.0
 70
         1
  0
VERTEX
  5
3A4
100
AcDbEntity
  8
L1_120
  6
CONTINUOUS
 62
         7
100
AcDbVertex
100
AcDb2dVertex
 10
1668.3933647094
 20
42.135834713
 30
0.0
 70
         1
  0
VERTEX
  5
3A6
100
AcDbEntity
  8
L1_120
  6
CONTINUOUS
 62
         7
100
AcDbVertex
100
AcDb2dVertex
 10
1668.2846367441
 20
42.22278577
 30
0.0
 70
         1
  0
VERTEX
  5
3A8
100
AcDbEntity
  8
L1_120
  6
CONTINUOUS
 62
         7
100
AcDbVertex
100
AcDb2dVertex
 10
1668.1572367498
 20
42.3045409013
 30
0.0
 70
         1
  0
VERTEX
  5
3AA
100
AcDbEntity
  8
L1_120
  6
CONTINUOUS
 62
         7
100
AcDbVertex
100
AcDb2dVertex
 10
1668.0129361437
 20
42.3795737439
 30
0.0
 70
         1
  0
VERTEX
  5
3AC
100
AcDbEntity
  8
L1_120
  6
CONTINUOUS
 62
         7
100
AcDbVertex
100
AcDb2dVertex
 10
1667.8541455451
 20
42.4465754445
 30
0.0
 70
         1
  0
VERTEX
  5
3AE
100
AcDbEntity
  8
L1_120
  6
CONTINUOUS
 62
         7
100
AcDbVertex
100
AcDb2dVertex
 10
1667.6232181549
 20
42.5222078973
 30
0.0
 70
         1
  0
VERTEX
  5
3B0
100
AcDbEntity
  8
L1_120
  6
CONTINUOUS
 62
         7
100
AcDbVertex
100
AcDb2dVertex
 10
1667.3792947593
 20
42.5801143245
 30
0.0
 70
         1
  0
VERTEX
  5
3B2
100
AcDbEntity
  8
L1_120
  6
CONTINUOUS
 62
         7
100
AcDbVertex
100
AcDb2dVertex
 10
1667.1303939391
 20
42.6200243315
 30
0.0
 70
         1
  0
VERTEX
  5
3B4
100
AcDbEntity
  8
L1_120
  6
CONTINUOUS
 62
         7
100
AcDbVertex
100
AcDb2dVertex
 10
1666.8002032227
 20
42.6468716195
 30
0.0
 70
         1
  0
VERTEX
  5
3B6
100
AcDbEntity
  8
L1_120
  6
CONTINUOUS
 62
         7
100
AcDbVertex
100
AcDb2dVertex
 10
1666.4886979309
 20
42.6467969635
 30
0.0
 70
         1
  0
VERTEX
  5
3B8
100
AcDbEntity
  8
L1_120
  6
CONTINUOUS
 62
         7
100
AcDbVertex
100
AcDb2dVertex
 10
1666.2053610252
 20
42.6253661439
 30
0.0
 70
         1
  0
VERTEX
  5
3BA
100
AcDbEntity
  8
L1_120
  6
CONTINUOUS
 62
         7
100
AcDbVertex
100
AcDb2dVertex
 10
1665.9549158141
 20
42.5883838817
 30
0.0
 70
         1
  0
VERTEX
  5
3BC
100
AcDbEntity
  8
L1_120
  6
CONTINUOUS
 62
         7
100
AcDbVertex
100
AcDb2dVertex
 10
1665.7383302144
 20
42.5411082935
 30
0.0
 70
         1
  0
VERTEX
  5
3BE
100
AcDbEntity
  8
L1_120
  6
CONTINUOUS
 62
         7
100
AcDbVertex
100
AcDb2dVertex
 10
1665.4964177193
 20
42.4683799633
 30
0.0
 70
         1
  0
VERTEX
  5
3C0
100
AcDbEntity
  8
L1_120
  6
CONTINUOUS
 62
         7
100
AcDbVertex
100
AcDb2dVertex
 10
1665.3057552204
 20
42.3923898886
 30
0.0
 70
         1
  0
VERTEX
  5
3C2
100
AcDbEntity
  8
L1_120
  6
CONTINUOUS
 62
         7
100
AcDbVertex
100
AcDb2dVertex
 10
1665.1573280453
 20
42.3180074182
 30
0.0
 70
         1
  0
VERTEX
  5
3C4
100
AcDbEntity
  8
L1_120
  6
CONTINUOUS
 62
         7
100
AcDbVertex
100
AcDb2dVertex
 10
1665.0081696012
 20
42.2242092472
 30
0.0
 70
         1
  0
VERTEX
  5
3C6
100
AcDbEntity
  8
L1_120
  6
CONTINUOUS
 62
         7
100
AcDbVertex
100
AcDb2dVertex
 10
1664.903419673
 20
42.1411662354
 30
0.0
 70
         1
  0
VERTEX
  5
3C8
100
AcDbEntity
  8
L1_120
  6
CONTINUOUS
 62
         7
100
AcDbVertex
100
AcDb2dVertex
 10
1664.8085638691
 20
42.0454752951
 30
0.0
 70
         1
  0
VERTEX
  5
3CA
100
AcDbEntity
  8
L1_120
  6
CONTINUOUS
 62
         7
100
AcDbVertex
100
AcDb2dVertex
 10
1664.7333575946
 20
41.9431586508
 30
0.0
 70
         1
  0
VERTEX
  5
3CC
100
AcDbEntity
  8
L1_120
  6
CONTINUOUS
 62
         7
100
AcDbVertex
100
AcDb2dVertex
 10
1664.6833461184
 20
41.8437268596
 30
0.0
 70
         1
  0
VERTEX
  5
3CE
100
AcDbEntity
  8
L1_120
  6
CONTINUOUS
 62
         7
100
AcDbVertex
100
AcDb2dVertex
 10
1664.6519819005
 20
41.730894691
 30
0.0
 70
         1
  0
VERTEX
  5
3D0
100
AcDbEntity
  8
L1_120
  6
CONTINUOUS
 62
         7
100
AcDbVertex
100
AcDb2dVertex
 10
1664.6454063139
 20
41.6498713792
 30
0.0
 70
         1
  0
SEQEND
  5
3D2
100
AcDbEntity
  8
L1_120
  6
CONTINUOUS
 62
         7
  0
CIRCLE
  5
3D3
100
AcDbEntity
  8
L1_120
  6
CONTINUOUS
 62
         7
100
AcDbCircle
 10
1673.0454063139
 20
52.7741691098
 30
0.0
 40
2.5
  0
LINE
  5
3D4
100
AcDbEntity
  8
L1_120
  6
CENTER
 62
         1
100
AcDbLine
 10
1673.0454063139
 20
45.3023288322
 30
0.0
 11
1673.0454063139
 21
59.0550332368
 31
0.0
  0
LINE
  5
3D5
100
AcDbEntity
  8
L1_120
  6
CENTER
 62
         1
100
AcDbLine
 10
1666.6454063139
 20
35.0987094352
 30
0.0
 11
1666.6454063139
 21
68.8150170078
 31
0.0
  0
LINE
  5
3D6
100
AcDbEntity
  8
L1_120
  6
CENTER
 62
         1
100
AcDbLine
 10
1628.5487957473
 20
46.9231073132
 30
0.0
 11
1628.5487957473
 21
59.4441567098
 31
0.0
  0
LINE
  5
3D7
100
AcDbEntity
  8
L1_120
  6
CENTER
 62
         1
100
AcDbLine
 10
1641.4450193738
 20
46.9231073132
 30
0.0
 11
1641.4450193738
 21
59.4441567098
 31
0.0
  0
ARC
  5
3D8
100
AcDbEntity
  8
L1_120
  6
CONTINUOUS
 62
         7
100
AcDbCircle
 10
1657.8454063139
 20
67.7741691098
 30
0.0
 40
1.0
100
AcDbArc
 50
0.0
 51
90.0
  0
ARC
  5
3D9
100
AcDbEntity
  8
L1_120
  6
CONTINUOUS
 62
         7
100
AcDbCircle
 10
1657.8454063139
 20
37.7741691098
 30
0.0
 40
1.0
100
AcDbArc
 50
270.0
 51
360.0
  0
LINE
  5
3DA
100
AcDbEntity
  8
L1_120
  6
CONTINUOUS
 62
         4
100
AcDbLine
 10
1661.3454063139
 20
40.0741691098
 30
0.0
 11
1661.3454063139
 21
65.4741691098
 31
0.0
  0
LINE
  5
3DB
100
AcDbEntity
  8
L1_120
  6
CONTINUOUS
 62
         7
100
AcDbLine
 10
1641.4450193738
 20
55.7741691098
 30
0.0
 11
1628.5487957473
 21
55.7741691098
 31
0.0
  0
LINE
  5
3DC
100
AcDbEntity
  8
L1_120
  6
CONTINUOUS
 62
         7
100
AcDbLine
 10
1641.4450193738
 20
49.7741691098
 30
0.0
 11
1628.5487957473
 21
49.7741691098
 31
0.0
  0
LINE
  5
3DD
100
AcDbEntity
  8
L1_120
  6
CONTINUOUS
 62
         4
100
AcDbLine
 10
1617.8454063139
 20
36.7741691098
 30
0.0
 11
1617.8454063139
 21
68.7741691098
 31
0.0
  0
LINE
  5
3DE
100
AcDbEntity
  8
L1_120
  6
CONTINUOUS
 62
         7
100
AcDbLine
 10
1615.5954063139
 20
67.4751310041
 30
0.0
 11
1617.7293809101
 21
68.7071818117
 31
0.0
  0
LINE
  5
3DF
100
AcDbEntity
  8
L1_120
  6
CONTINUOUS
 62
         7
100
AcDbLine
 10
1615.5954063139
 20
38.0732072155
 30
0.0
 11
1617.7293809101
 21
36.8411564079
 31
0.0
  0
ARC
  5
3E0
100
AcDbEntity
  8
L1_120
  6
CONTINUOUS
 62
         7
100
AcDbCircle
 10
1617.9793809101
 20
68.2741691098
 30
0.0
 40
0.5
100
AcDbArc
 50
90.0
 51
120.0
  0
ARC
  5
3E1
100
AcDbEntity
  8
L1_120
  6
CONTINUOUS
 62
         7
100
AcDbCircle
 10
1615.8454063139
 20
67.0421183022
 30
0.0
 40
0.5
100
AcDbArc
 50
120.0
 51
180.0
  0
ARC
  5
3E2
100
AcDbEntity
  8
L1_120
  6
CONTINUOUS
 62
         7
100
AcDbCircle
 10
1615.8454063139
 20
38.5062199174
 30
0.0
 40
0.5
100
AcDbArc
 50
180.0
 51
240.0
  0
ARC
  5
3E3
100
AcDbEntity
  8
L1_120
  6
CONTINUOUS
 62
         7
100
AcDbCircle
 10
1617.9793809101
 20
37.2741691098
 30
0.0
 40
0.5
100
AcDbArc
 50
240.0
 51
270.0
  0
DIMENSION
  5
3E6
100
AcDbEntity
  8
L1_120
  6
CONTINUOUS
 62
         4
100
AcDbDimension
  2
*D15
 10
1555.6684200361
 20
75.2741691098
 30
0.0
 11
1553.6434200361
 21
47.4704658839
 31
0.0
  3
DIMSTYLE1
100
AcDbAlignedDimension
 13
1545.6114317177
 23
75.2741691098
 33
0.0
 14
1545.6114317177
 24
30.2741691098
 34
0.0
 50
90.0
100
AcDbRotatedDimension
  0
DIMENSION
  5
3F4
100
AcDbEntity
  8
L1_120
  6
CONTINUOUS
 62
         4
100
AcDbDimension
  2
*D16
 10
1516.7454063139
 20
78.2644804861
 30
0.0
 11
1530.7476307604
 21
80.2894804861
 31
0.0
  3
DIMSTYLE1
100
AcDbAlignedDimension
 13
1516.7454063139
 23
74.7741691098
 33
0.0
 14
1548.7454063139
 24
73.9854939752
 34
0.0
100
AcDbRotatedDimension
  0
LINE
  5
400
100
AcDbEntity
  8
L1_120
  6
CONTINUOUS
 62
         7
100
AcDbLine
 10
1548.7454063139
 20
31.5628442444
 30
0.0
 11
1548.7454063139
 21
73.9854939752
 31
0.0
  0
LINE
  5
401
100
AcDbEntity
  8
L1_120
  6
CONTINUOUS
 62
         7
100
AcDbLine
 10
1546.4774571215
 20
75.2741691098
 30
0.0
 11
1517.2454063139
 21
75.2741691098
 31
0.0
  0
LINE
  5
402
100
AcDbEntity
  8
L1_120
  6
CONTINUOUS
 62
         7
100
AcDbLine
 10
1516.7454063139
 20
74.7741691098
 30
0.0
 11
1517.2454063139
 21
75.2741691098
 31
0.0
  0
LINE
  5
403
100
AcDbEntity
  8
L1_120
  6
CONTINUOUS
 62
         7
100
AcDbLine
 10
1516.7454063139
 20
30.7741691098
 30
0.0
 11
1516.7454063139
 21
74.7741691098
 31
0.0
  0
LINE
  5
404
100
AcDbEntity
  8
L1_120
  6
CONTINUOUS
 62
         7
100
AcDbLine
 10
1546.4774571215
 20
30.2741691098
 30
0.0
 11
1517.2454063139
 21
30.2741691098
 31
0.0
  0
LINE
  5
405
100
AcDbEntity
  8
L1_120
  6
CONTINUOUS
 62
         7
100
AcDbLine
 10
1516.7454063139
 20
30.7741691098
 30
0.0
 11
1517.2454063139
 21
30.2741691098
 31
0.0
  0
LINE
  5
406
100
AcDbEntity
  8
L1_120
  6
CONTINUOUS
 62
         4
100
AcDbLine
 10
1517.2454063139
 20
75.2741691098
 30
0.0
 11
1517.2454063139
 21
30.2741691098
 31
0.0
  0
ARC
  5
407
100
AcDbEntity
  8
L1_120
  6
CONTINUOUS
 62
         7
100
AcDbCircle
 10
1546.4774571215
 20
73.2741691098
 30
0.0
 40
2.0
100
AcDbArc
 50
60.0
 51
90.0
  0
LINE
  5
408
100
AcDbEntity
  8
L1_120
  6
CONTINUOUS
 62
         7
100
AcDbLine
 10
1547.4774571215
 20
75.0062199174
 30
0.0
 11
1548.4954063139
 21
74.4185066771
 31
0.0
  0
ARC
  5
409
100
AcDbEntity
  8
L1_120
  6
CONTINUOUS
 62
         7
100
AcDbCircle
 10
1548.2454063139
 20
73.9854939752
 30
0.0
 40
0.5
100
AcDbArc
 50
0.0
 51
60.0
  0
ARC
  5
40A
100
AcDbEntity
  8
L1_120
  6
CONTINUOUS
 62
         7
100
AcDbCircle
 10
1548.2454063139
 20
31.5628442444
 30
0.0
 40
0.5
100
AcDbArc
 50
300.0
 51
360.0
  0
LINE
  5
40B
100
AcDbEntity
  8
L1_120
  6
CONTINUOUS
 62
         7
100
AcDbLine
 10
1547.4774571215
 20
30.5421183022
 30
0.0
 11
1548.4954063139
 21
31.1298315425
 31
0.0
  0
ARC
  5
40C
100
AcDbEntity
  8
L1_120
  6
CONTINUOUS
 62
         7
100
AcDbCircle
 10
1546.4774571215
 20
32.2741691098
 30
0.0
 40
2.0
100
AcDbArc
 50
270.0
 51
300.0
  0
LINE
  5
40D
100
AcDbEntity
  8
L1_120
  6
CONTINUOUS
 62
         4
100
AcDbLine
 10
1547.0133555063
 20
30.3473030218
 30
0.0
 11
1547.0133555063
 21
75.2010351978
 31
0.0
  0
DIMENSION
  5
410
100
AcDbEntity
  8
L1_120
  6
CONTINUOUS
 62
         4
100
AcDbDimension
  2
*D17
 10
1570.8853030313
 20
60.2741691098
 30
0.0
 11
1568.8603030313
 21
46.8234665853
 31
0.0
  3
DIMSTYLE1
100
AcDbAlignedDimension
 13
1572.7454063139
 23
60.2741691098
 33
0.0
 14
1572.7454063139
 24
45.2741691098
 34
0.0
 50
90.0
100
AcDbRotatedDimension
  0
DIMENSION
  5
41E
100
AcDbEntity
  8
L1_120
  6
CONTINUOUS
 62
         4
100
AcDbDimension
  2
*D18
 10
1594.840310116
 20
62.1741691098
 30
0.0
 11
1592.815310116
 21
44.6203209911
 31
0.0
  3
DIMSTYLE1
100
AcDbAlignedDimension
 13
1587.6454063139
 23
62.1741691098
 33
0.0
 14
1587.6454063139
 24
43.3741691098
 34
0.0
 50
90.0
100
AcDbRotatedDimension
  0
DIMENSION
  5
42C
100
AcDbEntity
  8
L1_120
  6
CONTINUOUS
 62
         4
100
AcDbDimension
  2
*D19
 10
1588.1454063139
 20
64.7478075707
 30
0.0
 11
1575.1477626393
 21
66.7728075707
 31
0.0
  3
DIMSTYLE1
100
AcDbAlignedDimension
 13
1588.1454063139
 23
61.6741691098
 33
0.0
 14
1572.6454063139
 24
60.1741691098
 34
0.0
100
AcDbRotatedDimension
  0
LINE
  5
438
100
AcDbEntity
  8
L1_120
  6
CONTINUOUS
 62
         7
100
AcDbLine
 10
1572.6454063139
 20
45.7741691098
 30
0.0
 11
1572.6454063139
 21
59.7741691098
 31
0.0
  0
ARC
  5
439
100
AcDbEntity
  8
L1_120
  6
CONTINUOUS
 62
         7
100
AcDbCircle
 10
1582.6454063139
 20
60.7741691098
 30
0.0
 40
0.5
100
AcDbArc
 50
270.0
 51
360.0
  0
LINE
  5
43A
100
AcDbEntity
  8
L1_120
  6
CONTINUOUS
 62
         7
100
AcDbLine
 10
1583.1454063139
 20
43.5741691098
 30
0.0
 11
1583.1454063139
 21
61.9741691098
 31
0.0
  0
LINE
  5
43B
100
AcDbEntity
  8
L1_120
  6
CONTINUOUS
 62
         7
100
AcDbLine
 10
1582.6454063139
 20
60.2741691098
 30
0.0
 11
1573.1454063139
 21
60.2741691098
 31
0.0
  0
LINE
  5
43C
100
AcDbEntity
  8
L1_120
  6
CONTINUOUS
 62
         7
100
AcDbLine
 10
1582.6454063139
 20
45.2741691098
 30
0.0
 11
1573.1454063139
 21
45.2741691098
 31
0.0
  0
ARC
  5
43D
100
AcDbEntity
  8
L1_120
  6
CONTINUOUS
 62
         7
100
AcDbCircle
 10
1582.6454063139
 20
44.7741691098
 30
0.0
 40
0.5
100
AcDbArc
 50
0.0
 51
90.0
  0
LINE
  5
43E
100
AcDbEntity
  8
L1_120
  6
CONTINUOUS
 62
         7
100
AcDbLine
 10
1587.6454063139
 20
62.1741691098
 30
0.0
 11
1583.3454063139
 21
62.1741691098
 31
0.0
  0
LINE
  5
43F
100
AcDbEntity
  8
L1_120
  6
CONTINUOUS
 62
         7
100
AcDbLine
 10
1587.6454063139
 20
62.1741691098
 30
0.0
 11
1588.1454063139
 21
61.6741691098
 31
0.0
  0
LINE
  5
440
100
AcDbEntity
  8
L1_120
  6
CONTINUOUS
 62
         7
100
AcDbLine
 10
1588.1454063139
 20
43.8741691098
 30
0.0
 11
1588.1454063139
 21
61.6741691098
 31
0.0
  0
LINE
  5
441
100
AcDbEntity
  8
L1_120
  6
CONTINUOUS
 62
         7
100
AcDbLine
 10
1587.6454063139
 20
43.3741691098
 30
0.0
 11
1583.3454063139
 21
43.3741691098
 31
0.0
  0
LINE
  5
442
100
AcDbEntity
  8
L1_120
  6
CONTINUOUS
 62
         7
100
AcDbLine
 10
1588.1454063139
 20
43.8741691098
 30
0.0
 11
1587.6454063139
 21
43.3741691098
 31
0.0
  0
LINE
  5
443
100
AcDbEntity
  8
L1_120
  6
CONTINUOUS
 62
         4
100
AcDbLine
 10
1587.6454063139
 20
62.1741691098
 30
0.0
 11
1587.6454063139
 21
43.3741691098
 31
0.0
  0
LINE
  5
444
100
AcDbEntity
  8
L1_120
  6
CONTINUOUS
 62
         4
100
AcDbLine
 10
1582.6454063139
 20
60.2741691098
 30
0.0
 11
1582.6454063139
 21
45.2741691098
 31
0.0
  0
LINE
  5
445
100
AcDbEntity
  8
L1_120
  6
CONTINUOUS
 62
         7
100
AcDbLine
 10
1572.6454063139
 20
59.7741691098
 30
0.0
 11
1573.1454063139
 21
60.2741691098
 31
0.0
  0
LINE
  5
446
100
AcDbEntity
  8
L1_120
  6
CONTINUOUS
 62
         7
100
AcDbLine
 10
1572.6454063139
 20
45.7741691098
 30
0.0
 11
1573.1454063139
 21
45.2741691098
 31
0.0
  0
LINE
  5
447
100
AcDbEntity
  8
L1_120
  6
CONTINUOUS
 62
         7
100
AcDbLine
 10
1583.1454063139
 20
61.9741691098
 30
0.0
 11
1583.3454063139
 21
62.1741691098
 31
0.0
  0
LINE
  5
448
100
AcDbEntity
  8
L1_120
  6
CONTINUOUS
 62
         7
100
AcDbLine
 10
1583.1454063139
 20
43.5741691098
 30
0.0
 11
1583.3454063139
 21
43.3741691098
 31
0.0
  0
LINE
  5
449
100
AcDbEntity
  8
L1_120
  6
CONTINUOUS
 62
         4
100
AcDbLine
 10
1573.1454063139
 20
45.2741691098
 30
0.0
 11
1573.1454063139
 21
60.2741691098
 31
0.0
  0
LINE
  5
44A
100
AcDbEntity
  8
L1_120
  6
CONTINUOUS
 62
         4
100
AcDbLine
 10
1583.3454063139
 20
43.3741691098
 30
0.0
 11
1583.3454063139
 21
62.1741691098
 31
0.0
  0
LINE
  5
44B
100
AcDbEntity
  8
L1_120
  6
CENTER
 62
         1
100
AcDbLine
 10
1442.908320772
 20
-114.4585741774
 30
0.0
 11
1141.6813664463
 21
-114.4585741774
 31
0.0
  0
DIMENSION
  5
44E
100
AcDbEntity
  8
L1_120
  6
CONTINUOUS
 62
         4
100
AcDbDimension
  2
*D20
 10
1217.6073963584
 20
-127.6030565033
 30
0.0
 11
1210.8073963584
 21
-125.5780565033
 31
0.0
  3
DIMSTYLE1
100
AcDbAlignedDimension
 13
1217.6073963584
 23
-120.4585741774
 33
0.0
 14
1212.1073963584
 24
-120.4585741774
 34
0.0
100
AcDbRotatedDimension
  0
DIMENSION
  5
45E
100
AcDbEntity
  8
L1_120
  6
CONTINUOUS
 62
         4
100
AcDbDimension
  2
*D21
 10
1157.9251228551
 20
-111.4585741774
 30
0.0
 11
1155.9001228551
 21
-121.2085741774
 31
0.0
  3
DIMSTYLE1
100
AcDbAlignedDimension
 13
1166.3573963584
 23
-111.4585741774
 33
0.0
 14
1166.3573963584
 24
-117.4585741774
 34
0.0
 50
90.0
100
AcDbRotatedDimension
  0
DIMENSION
  5
46E
100
AcDbEntity
  8
L1_120
  6
CONTINUOUS
 62
         4
100
AcDbDimension
  2
*D22
 10
1258.626973232
 20
-115.1480973655
 30
0.0
 11
1266.5449645546
 21
-111.3888520679
 31
0.0
 70
         3
  3
DIMSTYLE1
100
AcDbDiametricDimension
 15
1263.1849195999
 25
-113.7690509892
 35
0.0
 40
0.0
  0
DIMENSION
  5
47B
100
AcDbEntity
  8
L1_120
  6
CONTINUOUS
 62
         4
100
AcDbDimension
  2
*D23
 10
1331.1771479203
 20
-93.3676022754
 30
0.0
 11
1330.3271479203
 21
-91.3426022754
 31
0.0
  3
DIMSTYLE1
100
AcDbAlignedDimension
 13
1331.1771479203
 23
-104.2085741774
 33
0.0
 14
1332.1771479203
 24
-104.2085741774
 34
0.0
100
AcDbRotatedDimension
  0
DIMENSION
  5
48B
100
AcDbEntity
  8
L1_120
  6
CONTINUOUS
 62
         4
100
AcDbDimension
  2
*D24
 10
1409.4738148372
 20
-100.8168727745
 30
0.0
 11
1412.3043657337
 21
-103.0765990213
 31
0.0
 70
         3
  3
DIMSTYLE1
100
AcDbDiametricDimension
 15
1410.2502665343
 25
-102.1002755803
 35
0.0
 40
0.0
  0
DIMENSION
  5
498
100
AcDbEntity
  8
L1_120
  6
CONTINUOUS
 62
         4
100
AcDbDimension
  2
*D25
 10
1380.8900547236
 20
-104.2700292346
 30
0.0
 11
1384.8404121863
 21
-106.5240447959
 31
0.0
 70
         3
  3
DIMSTYLE1
100
AcDbDiametricDimension
 15
1381.9340266479
 25
-105.3471191201
 35
0.0
 40
0.0
  0
DIMENSION
  5
4A5
100
AcDbEntity
  8
L1_120
  6
CONTINUOUS
 62
         4
100
AcDbDimension
  2
*D26
 10
1359.6418795472
 20
-93.075993584
 30
0.0
 11
1362.6816390401
 21
-96.2343093876
 31
0.0
 70
         3
  3
DIMSTYLE1
100
AcDbDiametricDimension
 15
1360.5822018243
 25
-94.8411547707
 35
0.0
 40
0.0
  0
CIRCLE
  5
4B0
100
AcDbEntity
  8
L1_120
  6
CONTINUOUS
 62
         7
100
AcDbCircle
 10
1260.905946416
 20
-114.4585741774
 30
0.0
 40
2.381
  0
CIRCLE
  5
4B1
100
AcDbEntity
  8
L1_120
  6
CONTINUOUS
 62
         7
100
AcDbCircle
 10
1409.8620406857
 20
-127.4585741774
 30
0.0
 40
0.75
  0
LINE
  5
4B2
100
AcDbEntity
  8
L1_120
  6
CONTINUOUS
 62
         7
100
AcDbLine
 10
1410.6120406857
 20
-127.4585741774
 30
0.0
 11
1410.6120406857
 21
-101.4585741774
 31
0.0
  0
CIRCLE
  5
4B3
100
AcDbEntity
  8
L1_120
  6
CONTINUOUS
 62
         7
100
AcDbCircle
 10
1409.8620406857
 20
-101.4585741774
 30
0.0
 40
0.75
  0
LINE
  5
4B4
100
AcDbEntity
  8
L1_120
  6
CONTINUOUS
 62
         7
100
AcDbLine
 10
1409.1120406857
 20
-127.4585741774
 30
0.0
 11
1409.1120406857
 21
-101.4585741774
 31
0.0
  0
DIMENSION
  5
4B7
100
AcDbEntity
  8
L1_120
  6
CONTINUOUS
 62
         4
100
AcDbDimension
  2
*D27
 10
1405.7570681296
 20
-100.7085741774
 30
0.0
 11
1403.7320681296
 21
-122.5585741774
 31
0.0
  3
DIMSTYLE1
100
AcDbAlignedDimension
 13
1409.8620406857
 23
-100.7085741774
 33
0.0
 14
1409.8620406857
 24
-128.2085741774
 34
0.0
 50
90.0
100
AcDbRotatedDimension
  0
CIRCLE
  5
4C3
100
AcDbEntity
  8
L1_120
  6
CONTINUOUS
 62
         7
100
AcDbCircle
 10
1381.4120406857
 20
-104.8085741774
 30
0.0
 40
0.75
  0
CIRCLE
  5
4C4
100
AcDbEntity
  8
L1_120
  6
CONTINUOUS
 62
         7
100
AcDbCircle
 10
1381.4120406857
 20
-124.1085741774
 30
0.0
 40
0.75
  0
LINE
  5
4C5
100
AcDbEntity
  8
L1_120
  6
CONTINUOUS
 62
         7
100
AcDbLine
 10
1380.6620406857
 20
-124.1085741774
 30
0.0
 11
1380.6620406857
 21
-104.8085741774
 31
0.0
  0
LINE
  5
4C6
100
AcDbEntity
  8
L1_120
  6
CONTINUOUS
 62
         7
100
AcDbLine
 10
1382.1620406857
 20
-124.1085741774
 30
0.0
 11
1382.1620406857
 21
-104.8085741774
 31
0.0
  0
DIMENSION
  5
4C9
100
AcDbEntity
  8
L1_120
  6
CONTINUOUS
 62
         4
100
AcDbDimension
  2
*D28
 10
1377.4786943234
 20
-104.0585741774
 30
0.0
 11
1375.4536943234
 21
-119.8585741774
 31
0.0
  3
DIMSTYLE1
100
AcDbAlignedDimension
 13
1381.4120406857
 23
-104.0585741774
 33
0.0
 14
1381.4120406857
 24
-124.8585741774
 34
0.0
 50
90.0
100
AcDbRotatedDimension
  0
DIMENSION
  5
4D7
100
AcDbEntity
  8
L1_120
  6
CONTINUOUS
 62
         4
100
AcDbDimension
  2
*D29
 10
1224.6416261611
 20
-107.9585741774
 30
0.0
 11
1222.6166261611
 21
-120.0391565827
 31
0.0
  3
DIMSTYLE1
100
AcDbAlignedDimension
 13
1217.1073963584
 23
-107.9585741774
 33
0.0
 14
1217.1073963584
 24
-120.9585741774
 34
0.0
 50
90.0
100
AcDbRotatedDimension
  0
DIMENSION
  5
4E5
100
AcDbEntity
  8
L1_120
  6
CONTINUOUS
 62
         4
100
AcDbDimension
  2
*D30
 10
1230.7068025667
 20
-106.1355210521
 30
0.0
 11
1220.8662036435
 21
-104.1105210521
 31
0.0
  3
DIMSTYLE1
100
AcDbAlignedDimension
 13
1230.7068025667
 23
-114.4585741774
 33
0.0
 14
1235.3256047203
 24
-114.4585741774
 34
0.0
100
AcDbRotatedDimension
  0
LINE
  5
4F1
100
AcDbEntity
  8
L1_120
  6
CONTINUOUS
 62
         7
100
AcDbLine
 10
1234.1709041819
 20
-116.4585741774
 30
0.0
 11
1235.3256047203
 21
-114.4585741774
 31
0.0
  0
LINE
  5
4F2
100
AcDbEntity
  8
L1_120
  6
CONTINUOUS
 62
         7
100
AcDbLine
 10
1235.3256047203
 20
-114.4585741774
 30
0.0
 11
1234.1709041819
 21
-112.4585741774
 31
0.0
  0
LINE
  5
4F3
100
AcDbEntity
  8
L1_120
  6
CONTINUOUS
 62
         7
100
AcDbLine
 10
1234.1709041819
 20
-112.4585741774
 30
0.0
 11
1231.8615031051
 21
-112.4585741774
 31
0.0
  0
LINE
  5
4F4
100
AcDbEntity
  8
L1_120
  6
CONTINUOUS
 62
         7
100
AcDbLine
 10
1231.8615031051
 20
-112.4585741774
 30
0.0
 11
1230.7068025667
 21
-114.4585741774
 31
0.0
  0
LINE
  5
4F5
100
AcDbEntity
  8
L1_120
  6
CONTINUOUS
 62
         7
100
AcDbLine
 10
1230.7068025667
 20
-114.4585741774
 30
0.0
 11
1231.8615031051
 21
-116.4585741774
 31
0.0
  0
LINE
  5
4F6
100
AcDbEntity
  8
L1_120
  6
CONTINUOUS
 62
         7
100
AcDbLine
 10
1231.8615031051
 20
-116.4585741774
 30
0.0
 11
1234.1709041819
 21
-116.4585741774
 31
0.0
  0
DIMENSION
  5
4F9
100
AcDbEntity
  8
L1_120
  6
CONTINUOUS
 62
         4
100
AcDbDimension
  2
*D31
 10
1241.8604421638
 20
-112.4585741774
 30
0.0
 11
1239.8354421638
 21
-115.8085741774
 31
0.0
  3
DIMSTYLE1
100
AcDbAlignedDimension
 13
1234.1709041819
 23
-112.4585741774
 33
0.0
 14
1234.1709041819
 24
-116.4585741774
 34
0.0
 50
90.0
100
AcDbRotatedDimension
  0
DIMENSION
  5
507
100
AcDbEntity
  8
L1_120
  6
CONTINUOUS
 62
         4
100
AcDbDimension
  2
*D32
 10
1177.1073963584
 20
-105.058967514
 30
0.0
 11
1190.7155016395
 21
-103.033967514
 31
0.0
  3
DIMSTYLE1
100
AcDbAlignedDimension
 13
1177.1073963584
 23
-111.4585741774
 33
0.0
 14
1212.1073963584
 24
-108.4585741774
 34
0.0
100
AcDbRotatedDimension
  0
DIMENSION
  5
515
100
AcDbEntity
  8
L1_120
  6
CONTINUOUS
 62
         4
100
AcDbDimension
  2
*D33
 10
1288.2574197556
 20
-115.7509757016
 30
0.0
 11
1298.2628394962
 21
-111.5756957903
 31
0.0
 70
         3
  3
DIMSTYLE1
100
AcDbDiametricDimension
 15
1297.4249940368
 25
-113.1661726531
 35
0.0
 40
0.0
  0
LINE
  5
520
100
AcDbEntity
  8
L1_120
  6
CONTINUOUS
 62
         7
100
AcDbLine
 10
1359.1120406857
 20
-134.9585741774
 30
0.0
 11
1359.1120406857
 21
-93.9585741774
 31
0.0
  0
LINE
  5
521
100
AcDbEntity
  8
L1_120
  6
CONTINUOUS
 62
         7
100
AcDbLine
 10
1361.1120406857
 20
-134.9585741774
 30
0.0
 11
1361.1120406857
 21
-93.9585741774
 31
0.0
  0
CIRCLE
  5
522
100
AcDbEntity
  8
L1_120
  6
CONTINUOUS
 62
         7
100
AcDbCircle
 10
1360.1120406857
 20
-134.9585741774
 30
0.0
 40
1.0
  0
CIRCLE
  5
523
100
AcDbEntity
  8
L1_120
  6
CONTINUOUS
 62
         7
100
AcDbCircle
 10
1360.1120406857
 20
-93.9585741774
 30
0.0
 40
1.0
  0
DIMENSION
  5
526
100
AcDbEntity
  8
L1_120
  6
CONTINUOUS
 62
         4
100
AcDbDimension
  2
*D34
 10
1324.1026958273
 20
-104.2085741774
 30
0.0
 11
1322.0776958273
 21
-122.5585741774
 31
0.0
  3
DIMSTYLE1
100
AcDbAlignedDimension
 13
1331.1771479203
 23
-104.2085741774
 33
0.0
 14
1331.1771479203
 24
-124.7085741774
 34
0.0
 50
90.0
100
AcDbRotatedDimension
  0
TEXT
  5
533
100
AcDbEntity
  8
L1_120
  6
CONTINUOUS
 62
         4
100
AcDbText
 10
1321.705002451
 20
-105.4169070066
 30
0.0
 40
1.7
  1
%%p 0.2
 50
90.0
  7
BOX
100
AcDbText
  0
DIMENSION
  5
536
100
AcDbEntity
  8
L1_120
  6
CONTINUOUS
 62
         4
100
AcDbDimension
  2
*D35
 10
1350.8445096449
 20
-92.9585741774
 30
0.0
 11
1348.8195096449
 21
-119.8585741774
 31
0.0
  3
DIMSTYLE1
100
AcDbAlignedDimension
 13
1360.1120406857
 23
-92.9585741774
 33
0.0
 14
1360.1120406857
 24
-135.9585741774
 34
0.0
 50
90.0
100
AcDbRotatedDimension
  0
TEXT
  5
543
100
AcDbEntity
  8
L1_120
  6
CONTINUOUS
 62
         4
100
AcDbText
 10
1334.2192165728
 20
-90.9303154475
 30
0.0
 40
1.7
  1
%%p 0.05
  7
BOX
100
AcDbText
  0
LINE
  5
544
100
AcDbEntity
  8
L1_120
  6
CONTINUOUS
 62
         7
100
AcDbLine
 10
1331.1771479203
 20
-124.7085741774
 30
0.0
 11
1331.1771479203
 21
-104.2085741774
 31
0.0
  0
LINE
  5
545
100
AcDbEntity
  8
L1_120
  6
CONTINUOUS
 62
         7
100
AcDbLine
 10
1332.1771479203
 20
-124.7085741774
 30
0.0
 11
1332.1771479203
 21
-104.2085741774
 31
0.0
  0
LINE
  5
546
100
AcDbEntity
  8
L1_120
  6
CONTINUOUS
 62
         7
100
AcDbLine
 10
1332.1771479203
 20
-124.7085741774
 30
0.0
 11
1331.1771479203
 21
-124.7085741774
 31
0.0
  0
LINE
  5
547
100
AcDbEntity
  8
L1_120
  6
CONTINUOUS
 62
         7
100
AcDbLine
 10
1332.1771479203
 20
-104.2085741774
 30
0.0
 11
1331.1771479203
 21
-104.2085741774
 31
0.0
  0
LINE
  5
548
100
AcDbEntity
  8
L1_120
  6
CONTINUOUS
 62
         7
100
AcDbLine
 10
1332.1771479203
 20
-122.2085741774
 30
0.0
 11
1331.1771479203
 21
-122.2085741774
 31
0.0
  0
LINE
  5
549
100
AcDbEntity
  8
L1_120
  6
CONTINUOUS
 62
         7
100
AcDbLine
 10
1332.1771479203
 20
-106.7085741774
 30
0.0
 11
1331.1771479203
 21
-106.7085741774
 31
0.0
  0
DIMENSION
  5
54C
100
AcDbEntity
  8
L1_120
  6
CONTINUOUS
 62
         4
100
AcDbDimension
  2
*D36
 10
1190.1132247584
 20
-110.4830741774
 30
0.0
 11
1188.0882247584
 21
-123.9085741774
 31
0.0
  3
DIMSTYLE1
100
AcDbAlignedDimension
 13
1178.0828963584
 23
-110.4830741774
 33
0.0
 14
1178.0828963584
 24
-118.4340741774
 34
0.0
 50
90.0
100
AcDbRotatedDimension
  0
DIMENSION
  5
55A
100
AcDbEntity
  8
L1_120
  6
CONTINUOUS
 62
         4
100
AcDbDimension
  2
*D37
 10
1165.8573963584
 20
-125.1715540866
 30
0.0
 11
1164.7323963584
 21
-123.1465540866
 31
0.0
  3
DIMSTYLE1
100
AcDbAlignedDimension
 13
1165.8573963584
 23
-116.9585741774
 33
0.0
 14
1177.1073963584
 24
-117.4585741774
 34
0.0
100
AcDbRotatedDimension
  0
LINE
  5
566
100
AcDbEntity
  8
L1_120
  6
CONTINUOUS
 62
         4
100
AcDbLine
 10
1212.6073963584
 20
-107.9585741774
 30
0.0
 11
1212.6073963584
 21
-120.9585741774
 31
0.0
  0
LINE
  5
567
100
AcDbEntity
  8
L1_120
  6
CONTINUOUS
 62
         4
100
AcDbLine
 10
1217.1073963584
 20
-107.9585741774
 30
0.0
 11
1217.1073963584
 21
-120.9585741774
 31
0.0
  0
LINE
  5
568
100
AcDbEntity
  8
L1_120
  6
CONTINUOUS
 62
         7
100
AcDbLine
 10
1212.1073963584
 20
-118.4340741774
 30
0.0
 11
1178.0828963584
 21
-118.4340741774
 31
0.0
  0
LINE
  5
569
100
AcDbEntity
  8
L1_120
  6
CONTINUOUS
 62
         7
100
AcDbLine
 10
1212.1073963584
 20
-110.4830741774
 30
0.0
 11
1178.0828963584
 21
-110.4830741774
 31
0.0
  0
LINE
  5
56A
100
AcDbEntity
  8
L1_120
  6
CONTINUOUS
 62
         7
100
AcDbLine
 10
1217.6073963584
 20
-108.4585741774
 30
0.0
 11
1217.1073963584
 21
-107.9585741774
 31
0.0
  0
LINE
  5
56B
100
AcDbEntity
  8
L1_120
  6
CONTINUOUS
 62
         7
100
AcDbLine
 10
1217.1073963584
 20
-107.9585741774
 30
0.0
 11
1212.6073963584
 21
-107.9585741774
 31
0.0
  0
LINE
  5
56C
100
AcDbEntity
  8
L1_120
  6
CONTINUOUS
 62
         7
100
AcDbLine
 10
1217.6073963584
 20
-120.4585741774
 30
0.0
 11
1217.6073963584
 21
-108.4585741774
 31
0.0
  0
LINE
  5
56D
100
AcDbEntity
  8
L1_120
  6
CONTINUOUS
 62
         7
100
AcDbLine
 10
1217.6073963584
 20
-120.4585741774
 30
0.0
 11
1217.1073963584
 21
-120.9585741774
 31
0.0
  0
LINE
  5
56E
100
AcDbEntity
  8
L1_120
  6
CONTINUOUS
 62
         7
100
AcDbLine
 10
1217.1073963584
 20
-120.9585741774
 30
0.0
 11
1212.6073963584
 21
-120.9585741774
 31
0.0
  0
LINE
  5
56F
100
AcDbEntity
  8
L1_120
  6
CONTINUOUS
 62
         7
100
AcDbLine
 10
1212.1073963584
 20
-120.4585741774
 30
0.0
 11
1212.6073963584
 21
-120.9585741774
 31
0.0
  0
LINE
  5
570
100
AcDbEntity
  8
L1_120
  6
CONTINUOUS
 62
         7
100
AcDbLine
 10
1212.1073963584
 20
-120.4585741774
 30
0.0
 11
1212.1073963584
 21
-108.4585741774
 31
0.0
  0
LINE
  5
571
100
AcDbEntity
  8
L1_120
  6
CONTINUOUS
 62
         7
100
AcDbLine
 10
1212.6073963584
 20
-107.9585741774
 30
0.0
 11
1212.1073963584
 21
-108.4585741774
 31
0.0
  0
LINE
  5
572
100
AcDbEntity
  8
L1_120
  6
CONTINUOUS
 62
         4
100
AcDbLine
 10
1177.1073963584
 20
-116.9585741774
 30
0.0
 11
1165.8573963584
 21
-116.9585741774
 31
0.0
  0
LINE
  5
573
100
AcDbEntity
  8
L1_120
  6
CONTINUOUS
 62
         4
100
AcDbLine
 10
1177.1073963584
 20
-111.9585741774
 30
0.0
 11
1165.8573963584
 21
-111.9585741774
 31
0.0
  0
LINE
  5
574
100
AcDbEntity
  8
L1_120
  6
CONTINUOUS
 62
         7
100
AcDbLine
 10
1177.1073963584
 20
-117.4585741774
 30
0.0
 11
1166.3573963584
 21
-117.4585741774
 31
0.0
  0
LINE
  5
575
100
AcDbEntity
  8
L1_120
  6
CONTINUOUS
 62
         7
100
AcDbLine
 10
1166.3573963584
 20
-117.4585741774
 30
0.0
 11
1165.8573963584
 21
-116.9585741774
 31
0.0
  0
LINE
  5
576
100
AcDbEntity
  8
L1_120
  6
CONTINUOUS
 62
         7
100
AcDbLine
 10
1165.8573963584
 20
-116.9585741774
 30
0.0
 11
1165.8573963584
 21
-111.9585741774
 31
0.0
  0
LINE
  5
577
100
AcDbEntity
  8
L1_120
  6
CONTINUOUS
 62
         7
100
AcDbLine
 10
1166.3573963584
 20
-111.4585741774
 30
0.0
 11
1165.8573963584
 21
-111.9585741774
 31
0.0
  0
LINE
  5
578
100
AcDbEntity
  8
L1_120
  6
CONTINUOUS
 62
         7
100
AcDbLine
 10
1177.1073963584
 20
-111.4585741774
 30
0.0
 11
1166.3573963584
 21
-111.4585741774
 31
0.0
  0
LINE
  5
579
100
AcDbEntity
  8
L1_120
  6
CONTINUOUS
 62
         4
100
AcDbLine
 10
1178.0828963584
 20
-110.4830741774
 30
0.0
 11
1178.0828963584
 21
-118.4340741774
 31
0.0
  0
LINE
  5
57A
100
AcDbEntity
  8
L1_120
  6
CONTINUOUS
 62
         7
100
AcDbLine
 10
1177.1073963584
 20
-117.4585741774
 30
0.0
 11
1177.1073963584
 21
-111.4585741774
 31
0.0
  0
LINE
  5
57B
100
AcDbEntity
  8
L1_120
  6
CONTINUOUS
 62
         7
100
AcDbLine
 10
1178.0828963584
 20
-118.4340741774
 30
0.0
 11
1177.1073963584
 21
-117.4585741774
 31
0.0
  0
LINE
  5
57C
100
AcDbEntity
  8
L1_120
  6
CONTINUOUS
 62
         7
100
AcDbLine
 10
1178.0828963584
 20
-110.4830741774
 30
0.0
 11
1177.1073963584
 21
-111.4585741774
 31
0.0
  0
CIRCLE
  5
57D
100
AcDbEntity
  8
L1_120
  6
CONTINUOUS
 62
         7
100
AcDbCircle
 10
1292.8412068962
 20
-114.4585741774
 30
0.0
 40
4.7625
  0
LINE
  5
57E
100
AcDbEntity
  8
L1_120
  6
CENTER
 62
         1
100
AcDbLine
 10
1770.3022785012
 20
-42.8791027454
 30
0.0
 11
1654.7358702892
 21
-42.8791027454
 31
0.0
  0
CIRCLE
  5
57F
100
AcDbEntity
  8
L1_120
  6
CONTINUOUS
 62
         7
100
AcDbCircle
 10
1753.6166246819
 20
-37.0791027454
 30
0.0
 40
0.6
  0
CIRCLE
  5
580
100
AcDbEntity
  8
L1_120
  6
CONTINUOUS
 62
         7
100
AcDbCircle
 10
1752.4166246819
 20
-37.0791027454
 30
0.0
 40
0.6
  0
CIRCLE
  5
581
100
AcDbEntity
  8
L1_120
  6
CONTINUOUS
 62
         7
100
AcDbCircle
 10
1751.2166246819
 20
-37.0791027454
 30
0.0
 40
0.6
  0
CIRCLE
  5
582
100
AcDbEntity
  8
L1_120
  6
CONTINUOUS
 62
         7
100
AcDbCircle
 10
1750.0166246819
 20
-37.0791027454
 30
0.0
 40
0.6
  0
CIRCLE
  5
583
100
AcDbEntity
  8
L1_120
  6
CONTINUOUS
 62
         7
100
AcDbCircle
 10
1748.8166246819
 20
-37.0791027454
 30
0.0
 40
0.6
  0
CIRCLE
  5
584
100
AcDbEntity
  8
L1_120
  6
CONTINUOUS
 62
         7
100
AcDbCircle
 10
1747.6166246819
 20
-37.0791027454
 30
0.0
 40
0.6
  0
CIRCLE
  5
585
100
AcDbEntity
  8
L1_120
  6
CONTINUOUS
 62
         7
100
AcDbCircle
 10
1752.4166246819
 20
-48.6791027454
 30
0.0
 40
0.6
  0
CIRCLE
  5
586
100
AcDbEntity
  8
L1_120
  6
CONTINUOUS
 62
         7
100
AcDbCircle
 10
1751.2166246819
 20
-48.6791027454
 30
0.0
 40
0.6
  0
CIRCLE
  5
587
100
AcDbEntity
  8
L1_120
  6
CONTINUOUS
 62
         7
100
AcDbCircle
 10
1750.0166246819
 20
-48.6791027454
 30
0.0
 40
0.6
  0
CIRCLE
  5
588
100
AcDbEntity
  8
L1_120
  6
CONTINUOUS
 62
         7
100
AcDbCircle
 10
1748.8166246819
 20
-48.6791027454
 30
0.0
 40
0.6
  0
CIRCLE
  5
589
100
AcDbEntity
  8
L1_120
  6
CONTINUOUS
 62
         7
100
AcDbCircle
 10
1747.6166246819
 20
-48.6791027454
 30
0.0
 40
0.6
  0
CIRCLE
  5
58A
100
AcDbEntity
  8
L1_120
  6
CONTINUOUS
 62
         7
100
AcDbCircle
 10
1746.4166246819
 20
-48.6791027454
 30
0.0
 40
0.6
  0
LINE
  5
58B
100
AcDbEntity
  8
L1_120
  6
CONTINUOUS
 62
         7
100
AcDbLine
 10
1754.2166246819
 20
-37.0791027454
 30
0.0
 11
1753.0166246819
 21
-48.6791027454
 31
0.0
  0
LINE
  5
58C
100
AcDbEntity
  8
L1_120
  6
CONTINUOUS
 62
         7
100
AcDbLine
 10
1747.0166246819
 20
-37.0791027454
 30
0.0
 11
1745.8166246819
 21
-48.6791027454
 31
0.0
  0
LINE
  5
58D
100
AcDbEntity
  8
L1_120
  6
CONTINUOUS
 62
         7
100
AcDbLine
 10
1748.2166246819
 20
-37.0791027454
 30
0.0
 11
1747.0166246819
 21
-48.6791027454
 31
0.0
  0
LINE
  5
58E
100
AcDbEntity
  8
L1_120
  6
CONTINUOUS
 62
         7
100
AcDbLine
 10
1749.4166246819
 20
-37.0791027454
 30
0.0
 11
1748.2166246819
 21
-48.6791027454
 31
0.0
  0
LINE
  5
58F
100
AcDbEntity
  8
L1_120
  6
CONTINUOUS
 62
         7
100
AcDbLine
 10
1749.4166246819
 20
-48.6791027454
 30
0.0
 11
1750.6166246819
 21
-37.0791027454
 31
0.0
  0
LINE
  5
590
100
AcDbEntity
  8
L1_120
  6
CONTINUOUS
 62
         7
100
AcDbLine
 10
1751.8166246819
 20
-37.0791027454
 30
0.0
 11
1750.6166246819
 21
-48.6791027454
 31
0.0
  0
LINE
  5
591
100
AcDbEntity
  8
L1_120
  6
CONTINUOUS
 62
         7
100
AcDbLine
 10
1751.8166246819
 20
-48.6791027454
 30
0.0
 11
1753.0166246819
 21
-37.0791027454
 31
0.0
  0
CIRCLE
  5
592
100
AcDbEntity
  8
L1_120
  6
CONTINUOUS
 62
         7
100
AcDbCircle
 10
1736.7914014991
 20
-29.0791027454
 30
0.0
 40
0.75
  0
CIRCLE
  5
593
100
AcDbEntity
  8
L1_120
  6
CONTINUOUS
 62
         7
100
AcDbCircle
 10
1735.2914014991
 20
-29.0791027454
 30
0.0
 40
0.75
  0
CIRCLE
  5
594
100
AcDbEntity
  8
L1_120
  6
CONTINUOUS
 62
         7
100
AcDbCircle
 10
1733.7914014991
 20
-29.0791027454
 30
0.0
 40
0.75
  0
CIRCLE
  5
595
100
AcDbEntity
  8
L1_120
  6
CONTINUOUS
 62
         7
100
AcDbCircle
 10
1732.2914014991
 20
-29.0791027454
 30
0.0
 40
0.75
  0
CIRCLE
  5
596
100
AcDbEntity
  8
L1_120
  6
CONTINUOUS
 62
         7
100
AcDbCircle
 10
1735.2914014991
 20
-56.6791027454
 30
0.0
 40
0.75
  0
CIRCLE
  5
597
100
AcDbEntity
  8
L1_120
  6
CONTINUOUS
 62
         7
100
AcDbCircle
 10
1733.7914014991
 20
-56.6791027454
 30
0.0
 40
0.75
  0
CIRCLE
  5
598
100
AcDbEntity
  8
L1_120
  6
CONTINUOUS
 62
         7
100
AcDbCircle
 10
1732.2914014991
 20
-56.6791027454
 30
0.0
 40
0.75
  0
CIRCLE
  5
599
100
AcDbEntity
  8
L1_120
  6
CONTINUOUS
 62
         7
100
AcDbCircle
 10
1730.7914014991
 20
-56.6791027454
 30
0.0
 40
0.75
  0
LINE
  5
59A
100
AcDbEntity
  8
L1_120
  6
CONTINUOUS
 62
         7
100
AcDbLine
 10
1737.5414014991
 20
-29.0791027454
 30
0.0
 11
1736.0414014991
 21
-56.6791027454
 31
0.0
  0
LINE
  5
59B
100
AcDbEntity
  8
L1_120
  6
CONTINUOUS
 62
         7
100
AcDbLine
 10
1730.0414014991
 20
-56.6791027454
 30
0.0
 11
1731.5414014991
 21
-29.0791027454
 31
0.0
  0
LINE
  5
59C
100
AcDbEntity
  8
L1_120
  6
CONTINUOUS
 62
         7
100
AcDbLine
 10
1733.0414014991
 20
-29.0791027454
 30
0.0
 11
1731.5414014991
 21
-56.6791027454
 31
0.0
  0
LINE
  5
59D
100
AcDbEntity
  8
L1_120
  6
CONTINUOUS
 62
         7
100
AcDbLine
 10
1733.0414014991
 20
-56.6791027454
 30
0.0
 11
1734.5414014991
 21
-29.0791027454
 31
0.0
  0
LINE
  5
59E
100
AcDbEntity
  8
L1_120
  6
CONTINUOUS
 62
         7
100
AcDbLine
 10
1736.0414014991
 20
-29.0791027454
 30
0.0
 11
1734.5414014991
 21
-56.6791027454
 31
0.0
  0
CIRCLE
  5
59F
100
AcDbEntity
  8
L1_120
  6
CONTINUOUS
 62
         7
100
AcDbCircle
 10
1718.0825066125
 20
-34.2791027454
 30
0.0
 40
0.75
  0
CIRCLE
  5
5A0
100
AcDbEntity
  8
L1_120
  6
CONTINUOUS
 62
         7
100
AcDbCircle
 10
1716.5825066125
 20
-34.2791027454
 30
0.0
 40
0.75
  0
CIRCLE
  5
5A1
100
AcDbEntity
  8
L1_120
  6
CONTINUOUS
 62
         7
100
AcDbCircle
 10
1715.0825066125
 20
-34.2791027454
 30
0.0
 40
0.75
  0
CIRCLE
  5
5A2
100
AcDbEntity
  8
L1_120
  6
CONTINUOUS
 62
         7
100
AcDbCircle
 10
1713.5825066125
 20
-34.2791027454
 30
0.0
 40
0.75
  0
CIRCLE
  5
5A3
100
AcDbEntity
  8
L1_120
  6
CONTINUOUS
 62
         7
100
AcDbCircle
 10
1712.0825066125
 20
-34.2791027454
 30
0.0
 40
0.75
  0
CIRCLE
  5
5A4
100
AcDbEntity
  8
L1_120
  6
CONTINUOUS
 62
         7
100
AcDbCircle
 10
1710.5825066125
 20
-34.2791027454
 30
0.0
 40
0.75
  0
CIRCLE
  5
5A5
100
AcDbEntity
  8
L1_120
  6
CONTINUOUS
 62
         7
100
AcDbCircle
 10
1709.0825066125
 20
-34.2791027454
 30
0.0
 40
0.75
  0
CIRCLE
  5
5A6
100
AcDbEntity
  8
L1_120
  6
CONTINUOUS
 62
         7
100
AcDbCircle
 10
1716.5825066125
 20
-51.4791027454
 30
0.0
 40
0.75
  0
CIRCLE
  5
5A7
100
AcDbEntity
  8
L1_120
  6
CONTINUOUS
 62
         7
100
AcDbCircle
 10
1715.0825066125
 20
-51.4791027454
 30
0.0
 40
0.75
  0
CIRCLE
  5
5A8
100
AcDbEntity
  8
L1_120
  6
CONTINUOUS
 62
         7
100
AcDbCircle
 10
1713.5825066125
 20
-51.4791027454
 30
0.0
 40
0.75
  0
CIRCLE
  5
5A9
100
AcDbEntity
  8
L1_120
  6
CONTINUOUS
 62
         7
100
AcDbCircle
 10
1712.0825066125
 20
-51.4791027454
 30
0.0
 40
0.75
  0
CIRCLE
  5
5AA
100
AcDbEntity
  8
L1_120
  6
CONTINUOUS
 62
         7
100
AcDbCircle
 10
1710.5825066125
 20
-51.4791027454
 30
0.0
 40
0.75
  0
CIRCLE
  5
5AB
100
AcDbEntity
  8
L1_120
  6
CONTINUOUS
 62
         7
100
AcDbCircle
 10
1709.0825066125
 20
-51.4791027454
 30
0.0
 40
0.75
  0
CIRCLE
  5
5AC
100
AcDbEntity
  8
L1_120
  6
CONTINUOUS
 62
         7
100
AcDbCircle
 10
1707.5825066125
 20
-51.4791027454
 30
0.0
 40
0.75
  0
CIRCLE
  5
5AD
100
AcDbEntity
  8
L1_120
  6
CONTINUOUS
 62
         7
100
AcDbCircle
 10
1706.0825066125
 20
-51.4791027454
 30
0.0
 40
0.75
  0
LINE
  5
5AE
100
AcDbEntity
  8
L1_120
  6
CONTINUOUS
 62
         7
100
AcDbLine
 10
1718.8325066125
 20
-34.2791027454
 30
0.0
 11
1717.3325066125
 21
-51.4791027454
 31
0.0
  0
LINE
  5
5AF
100
AcDbEntity
  8
L1_120
  6
CONTINUOUS
 62
         7
100
AcDbLine
 10
1715.8325066125
 20
-51.4791027454
 30
0.0
 11
1717.3325066125
 21
-34.2791027454
 31
0.0
  0
LINE
  5
5B0
100
AcDbEntity
  8
L1_120
  6
CONTINUOUS
 62
         7
100
AcDbLine
 10
1715.8325066125
 20
-34.2791027454
 30
0.0
 11
1714.3325066125
 21
-51.4791027454
 31
0.0
  0
LINE
  5
5B1
100
AcDbEntity
  8
L1_120
  6
CONTINUOUS
 62
         7
100
AcDbLine
 10
1712.8325066125
 20
-51.4791027454
 30
0.0
 11
1714.3325066125
 21
-34.2791027454
 31
0.0
  0
LINE
  5
5B2
100
AcDbEntity
  8
L1_120
  6
CONTINUOUS
 62
         7
100
AcDbLine
 10
1712.8325066125
 20
-34.2791027454
 30
0.0
 11
1711.3325066125
 21
-51.4791027454
 31
0.0
  0
LINE
  5
5B3
100
AcDbEntity
  8
L1_120
  6
CONTINUOUS
 62
         7
100
AcDbLine
 10
1709.8325066125
 20
-51.4791027454
 30
0.0
 11
1711.3325066125
 21
-34.2791027454
 31
0.0
  0
LINE
  5
5B4
100
AcDbEntity
  8
L1_120
  6
CONTINUOUS
 62
         7
100
AcDbLine
 10
1709.8325066125
 20
-34.2791027454
 30
0.0
 11
1708.3325066125
 21
-51.4791027454
 31
0.0
  0
LINE
  5
5B5
100
AcDbEntity
  8
L1_120
  6
CONTINUOUS
 62
         7
100
AcDbLine
 10
1706.8325066125
 20
-51.4791027454
 30
0.0
 11
1708.3325066125
 21
-34.2791027454
 31
0.0
  0
LINE
  5
5B6
100
AcDbEntity
  8
L1_120
  6
CONTINUOUS
 62
         7
100
AcDbLine
 10
1708.3325066125
 20
-34.2791027454
 30
0.0
 11
1705.3325066125
 21
-51.4791027454
 31
0.0
  0
CIRCLE
  5
5B7
100
AcDbEntity
  8
L1_120
  6
CONTINUOUS
 62
         7
100
AcDbCircle
 10
1675.4997360474
 20
-37.7291027454
 30
0.0
 40
0.75
  0
CIRCLE
  5
5B8
100
AcDbEntity
  8
L1_120
  6
CONTINUOUS
 62
         7
100
AcDbCircle
 10
1682.9997360474
 20
-37.7291027454
 30
0.0
 40
0.75
  0
CIRCLE
  5
5B9
100
AcDbEntity
  8
L1_120
  6
CONTINUOUS
 62
         7
100
AcDbCircle
 10
1681.4997360474
 20
-37.7291027454
 30
0.0
 40
0.75
  0
CIRCLE
  5
5BA
100
AcDbEntity
  8
L1_120
  6
CONTINUOUS
 62
         7
100
AcDbCircle
 10
1679.9997360474
 20
-37.7291027454
 30
0.0
 40
0.75
  0
CIRCLE
  5
5BB
100
AcDbEntity
  8
L1_120
  6
CONTINUOUS
 62
         7
100
AcDbCircle
 10
1678.4997360474
 20
-37.7291027454
 30
0.0
 40
0.75
  0
CIRCLE
  5
5BC
100
AcDbEntity
  8
L1_120
  6
CONTINUOUS
 62
         7
100
AcDbCircle
 10
1676.9997360474
 20
-37.7291027454
 30
0.0
 40
0.75
  0
CIRCLE
  5
5BD
100
AcDbEntity
  8
L1_120
  6
CONTINUOUS
 62
         7
100
AcDbCircle
 10
1690.4997360474
 20
-37.7291027454
 30
0.0
 40
0.75
  0
CIRCLE
  5
5BE
100
AcDbEntity
  8
L1_120
  6
CONTINUOUS
 62
         7
100
AcDbCircle
 10
1688.9997360474
 20
-37.7291027454
 30
0.0
 40
0.75
  0
CIRCLE
  5
5BF
100
AcDbEntity
  8
L1_120
  6
CONTINUOUS
 62
         7
100
AcDbCircle
 10
1687.4997360474
 20
-37.7291027454
 30
0.0
 40
0.75
  0
CIRCLE
  5
5C0
100
AcDbEntity
  8
L1_120
  6
CONTINUOUS
 62
         7
100
AcDbCircle
 10
1685.9997360474
 20
-37.7291027454
 30
0.0
 40
0.75
  0
CIRCLE
  5
5C1
100
AcDbEntity
  8
L1_120
  6
CONTINUOUS
 62
         7
100
AcDbCircle
 10
1684.4997360474
 20
-37.7291027454
 30
0.0
 40
0.75
  0
CIRCLE
  5
5C2
100
AcDbEntity
  8
L1_120
  6
CONTINUOUS
 62
         7
100
AcDbCircle
 10
1674.7497360474
 20
-48.0291027454
 30
0.0
 40
0.75
  0
CIRCLE
  5
5C3
100
AcDbEntity
  8
L1_120
  6
CONTINUOUS
 62
         7
100
AcDbCircle
 10
1682.2497360474
 20
-48.0291027454
 30
0.0
 40
0.75
  0
CIRCLE
  5
5C4
100
AcDbEntity
  8
L1_120
  6
CONTINUOUS
 62
         7
100
AcDbCircle
 10
1680.7497360474
 20
-48.0291027454
 30
0.0
 40
0.75
  0
CIRCLE
  5
5C5
100
AcDbEntity
  8
L1_120
  6
CONTINUOUS
 62
         7
100
AcDbCircle
 10
1679.2497360474
 20
-48.0291027454
 30
0.0
 40
0.75
  0
CIRCLE
  5
5C6
100
AcDbEntity
  8
L1_120
  6
CONTINUOUS
 62
         7
100
AcDbCircle
 10
1677.7497360474
 20
-48.0291027454
 30
0.0
 40
0.75
  0
CIRCLE
  5
5C7
100
AcDbEntity
  8
L1_120
  6
CONTINUOUS
 62
         7
100
AcDbCircle
 10
1676.2497360474
 20
-48.0291027454
 30
0.0
 40
0.75
  0
CIRCLE
  5
5C8
100
AcDbEntity
  8
L1_120
  6
CONTINUOUS
 62
         7
100
AcDbCircle
 10
1689.7497360474
 20
-48.0291027454
 30
0.0
 40
0.75
  0
CIRCLE
  5
5C9
100
AcDbEntity
  8
L1_120
  6
CONTINUOUS
 62
         7
100
AcDbCircle
 10
1688.2497360474
 20
-48.0291027454
 30
0.0
 40
0.75
  0
CIRCLE
  5
5CA
100
AcDbEntity
  8
L1_120
  6
CONTINUOUS
 62
         7
100
AcDbCircle
 10
1686.7497360474
 20
-48.0291027454
 30
0.0
 40
0.75
  0
CIRCLE
  5
5CB
100
AcDbEntity
  8
L1_120
  6
CONTINUOUS
 62
         7
100
AcDbCircle
 10
1685.2497360474
 20
-48.0291027454
 30
0.0
 40
0.75
  0
CIRCLE
  5
5CC
100
AcDbEntity
  8
L1_120
  6
CONTINUOUS
 62
         7
100
AcDbCircle
 10
1683.7497360474
 20
-48.0291027454
 30
0.0
 40
0.75
  0
LINE
  5
5CD
100
AcDbEntity
  8
L1_120
  6
CONTINUOUS
 62
         7
100
AcDbLine
 10
1691.2497360474
 20
-37.7291027454
 30
0.0
 11
1690.4997360474
 21
-48.0291027454
 31
0.0
  0
LINE
  5
5CE
100
AcDbEntity
  8
L1_120
  6
CONTINUOUS
 62
         7
100
AcDbLine
 10
1689.7497360474
 20
-37.7291027454
 30
0.0
 11
1688.9997360474
 21
-48.0291027454
 31
0.0
  0
LINE
  5
5CF
100
AcDbEntity
  8
L1_120
  6
CONTINUOUS
 62
         7
100
AcDbLine
 10
1688.2497360474
 20
-37.7291027454
 30
0.0
 11
1687.4997360474
 21
-48.0291027454
 31
0.0
  0
LINE
  5
5D0
100
AcDbEntity
  8
L1_120
  6
CONTINUOUS
 62
         7
100
AcDbLine
 10
1685.9997360474
 20
-48.0291027454
 30
0.0
 11
1686.7497360474
 21
-37.7291027454
 31
0.0
  0
LINE
  5
5D1
100
AcDbEntity
  8
L1_120
  6
CONTINUOUS
 62
         7
100
AcDbLine
 10
1685.2497360474
 20
-37.7291027454
 30
0.0
 11
1684.4997360474
 21
-48.0291027454
 31
0.0
  0
LINE
  5
5D2
100
AcDbEntity
  8
L1_120
  6
CONTINUOUS
 62
         7
100
AcDbLine
 10
1682.9997360474
 20
-48.0291027454
 30
0.0
 11
1683.7497360474
 21
-37.7291027454
 31
0.0
  0
LINE
  5
5D3
100
AcDbEntity
  8
L1_120
  6
CONTINUOUS
 62
         7
100
AcDbLine
 10
1682.2497360474
 20
-37.7291027454
 30
0.0
 11
1681.4997360474
 21
-48.0291027454
 31
0.0
  0
LINE
  5
5D4
100
AcDbEntity
  8
L1_120
  6
CONTINUOUS
 62
         7
100
AcDbLine
 10
1679.9997360474
 20
-48.0291027454
 30
0.0
 11
1680.7497360474
 21
-37.7291027454
 31
0.0
  0
LINE
  5
5D5
100
AcDbEntity
  8
L1_120
  6
CONTINUOUS
 62
         7
100
AcDbLine
 10
1679.2497360474
 20
-37.7291027454
 30
0.0
 11
1678.4997360474
 21
-48.0291027454
 31
0.0
  0
LINE
  5
5D6
100
AcDbEntity
  8
L1_120
  6
CONTINUOUS
 62
         7
100
AcDbLine
 10
1676.9997360474
 20
-48.0291027454
 30
0.0
 11
1677.7497360474
 21
-37.7291027454
 31
0.0
  0
LINE
  5
5D7
100
AcDbEntity
  8
L1_120
  6
CONTINUOUS
 62
         7
100
AcDbLine
 10
1676.2497360474
 20
-37.7291027454
 30
0.0
 11
1675.4997360474
 21
-48.0291027454
 31
0.0
  0
LINE
  5
5D8
100
AcDbEntity
  8
L1_120
  6
CONTINUOUS
 62
         7
100
AcDbLine
 10
1673.9997360474
 20
-48.0291027454
 30
0.0
 11
1674.7497360474
 21
-37.7291027454
 31
0.0
  0
INSERT
  5
60C
100
AcDbEntity
  8
0
  6
CONTINUOUS
100
AcDbBlockReference
  2
*X38
 10
0.0
 20
0.0
 30
0.0
  0
DIMENSION
  5
60F
100
AcDbEntity
  8
____
  6
CONTINUOUS
 62
         4
100
AcDbDimension
  2
*D39
 10
1414.1033403763
 20
183.7744584292
 30
0.0
 11
1365.9902752945
 21
185.7994584292
 31
0.0
  3
DIMSTYLE1
100
AcDbAlignedDimension
 13
1414.1033403763
 23
162.2346417294
 33
0.0
 14
1320.1033403763
 24
150.1846417294
 34
0.0
100
AcDbRotatedDimension
  0
DIMENSION
  5
61D
100
AcDbEntity
  8
____
  6
CONTINUOUS
 62
         4
100
AcDbDimension
  2
*D40
 10
1419.1033403763
 20
183.7744584292
 30
0.0
 11
1415.2533403763
 21
185.7994584292
 31
0.0
  3
DIMSTYLE1
100
AcDbAlignedDimension
 13
1419.1033403763
 23
162.2346417294
 33
0.0
 14
1414.1033403763
 24
162.2346417294
 34
0.0
100
AcDbRotatedDimension
  0
DIMENSION
  5
62D
100
AcDbEntity
  8
____
  6
CONTINUOUS
 62
         4
100
AcDbDimension
  2
*D41
 10
1403.9408101364
 20
162.0971417294
 30
0.0
 11
1401.9158101364
 21
139.3076296506
 31
0.0
  3
DIMSTYLE1
100
AcDbAlignedDimension
 13
1414.1033403763
 23
162.0971417294
 33
0.0
 14
1414.1033403763
 24
138.2721417294
 34
0.0
 50
90.0
100
AcDbRotatedDimension
  0
DIMENSION
  5
63B
100
AcDbEntity
  8
____
  6
CONTINUOUS
 62
         4
100
AcDbDimension
  2
*D42
 10
1414.1033403763
 20
209.2284072773
 30
0.0
 11
1450.9952682609
 21
211.2534072773
 31
0.0
  3
DIMSTYLE1
100
AcDbAlignedDimension
 13
1414.1033403763
 23
162.2346417294
 33
0.0
 14
1515.1033403763
 24
178.6466768775
 34
0.0
100
AcDbRotatedDimension
  0
DIMENSION
  5
649
100
AcDbEntity
  8
____
  6
CONTINUOUS
 62
         4
100
AcDbDimension
  2
*D43
 10
1320.1033403763
 20
217.0779684671
 30
0.0
 11
1413.5533403763
 21
219.1029684671
 31
0.0
  3
DIMSTYLE1
100
AcDbAlignedDimension
 13
1320.1033403763
 23
150.1846417294
 33
0.0
 14
1515.1033403763
 24
178.6466768775
 34
0.0
100
AcDbRotatedDimension
  0
DIMENSION
  5
657
100
AcDbEntity
  8
____
  6
CONTINUOUS
 62
         4
100
AcDbDimension
  2
*D44
 10
1562.6526483081
 20
172.6846417294
 30
0.0
 11
1559.5206483081
 21
144.1273538612
 31
0.0
  3
DIMSTYLE1
100
AcDbAlignedDimension
 13
1461.1033403763
 23
172.6846417294
 33
0.0
 14
1461.1033403763
 24
127.6846417294
 34
0.0
 50
90.0
100
AcDbRotatedDimension
  0
DIMENSION
  5
665
100
AcDbEntity
  8
____
  6
CONTINUOUS
 62
         4
100
AcDbDimension
  2
*D45
 10
1535.5367069289
 20
168.1846417294
 30
0.0
 11
1532.4047069289
 21
142.3329165641
 31
0.0
  3
DIMSTYLE1
100
AcDbAlignedDimension
 13
1515.1033403763
 23
168.1846417294
 33
0.0
 14
1515.1033403763
 24
132.1846417294
 34
0.0
 50
90.0
100
AcDbRotatedDimension
  0
DIMENSION
  5
673
100
AcDbEntity
  8
____
  6
CONTINUOUS
 62
         4
100
AcDbDimension
  2
*D46
 10
1309.3570397806
 20
154.1346417294
 30
0.0
 11
1307.3320397806
 21
146.1346417294
 31
0.0
  3
DIMSTYLE1
100
AcDbAlignedDimension
 13
1320.1033403763
 23
154.1346417294
 33
0.0
 14
1320.1033403763
 24
146.2346417294
 34
0.0
 50
90.0
100
AcDbRotatedDimension
  0
DIMENSION
  5
681
100
AcDbEntity
  8
____
  6
CONTINUOUS
 62
         4
100
AcDbDimension
  2
*D47
 10
1477.9903301475
 20
154.9846417294
 30
0.0
 11
1474.8583301475
 21
107.4178145242
 31
0.0
  3
DIMSTYLE1
100
AcDbAlignedDimension
 13
1470.5083403763
 23
154.9846417294
 33
0.0
 14
1470.5083403763
 24
145.3846417294
 34
0.0
 50
90.0
100
AcDbRotatedDimension
  0
DIMENSION
  5
691
100
AcDbEntity
  8
____
  6
CONTINUOUS
 62
         4
100
AcDbDimension
  2
*D48
 10
1470.5083403763
 20
105.7739192814
 30
0.0
 11
1481.6689703403
 21
108.9059192814
 31
0.0
  3
DIMSTYLE1
100
AcDbAlignedDimension
 13
1470.5083403763
 23
145.2146417294
 33
0.0
 14
1515.1033403763
 24
132.7619919986
 34
0.0
100
AcDbRotatedDimension
  0
DIMENSION
  5
69F
100
AcDbEntity
  8
____
  6
CONTINUOUS
 62
         4
100
AcDbDimension
  2
*D49
 10
1485.5082741959
 20
115.714967216
 30
0.0
 11
1494.6808072861
 21
118.846967216
 31
0.0
  3
DIMSTYLE1
100
AcDbAlignedDimension
 13
1485.5082741959
 23
145.2146417294
 33
0.0
 14
1515.1033403763
 24
132.7619919986
 34
0.0
100
AcDbRotatedDimension
  0
DIMENSION
  5
6AD
100
AcDbEntity
  8
____
  6
CONTINUOUS
 62
         4
100
AcDbDimension
  2
*D50
 10
1554.0393492817
 20
170.6846417294
 30
0.0
 11
1550.9073492817
 21
139.2528174198
 31
0.0
  3
DIMSTYLE1
100
AcDbAlignedDimension
 13
1509.3712895687
 23
170.6846417294
 33
0.0
 14
1509.3712895687
 24
129.6846417294
 34
0.0
 50
90.0
100
AcDbRotatedDimension
  0
DIMENSION
  5
6BB
100
AcDbEntity
  8
____
  6
CONTINUOUS
 62
         4
100
AcDbDimension
  2
*D51
 10
1544.7880281053
 20
169.6846417294
 30
0.0
 11
1541.6560281053
 21
140.3473538612
 31
0.0
  3
DIMSTYLE1
100
AcDbAlignedDimension
 13
1496.1033403763
 23
169.6846417294
 33
0.0
 14
1496.1033403763
 24
130.6846417294
 34
0.0
 50
90.0
100
AcDbRotatedDimension
  0
DIMENSION
  5
6C9
100
AcDbEntity
  8
____
  6
CONTINUOUS
 62
         4
100
AcDbDimension
  2
*D52
 10
1494.1033403763
 20
182.7299277772
 30
0.0
 11
1497.8802489371
 21
185.8619277772
 31
0.0
  3
DIMSTYLE1
100
AcDbAlignedDimension
 13
1494.1033403763
 23
170.6846417294
 33
0.0
 14
1496.1033403763
 24
170.6846417294
 34
0.0
100
AcDbRotatedDimension
  0
DIMENSION
  5
6D9
100
AcDbEntity
  8
____
  6
CONTINUOUS
 62
         4
100
AcDbDimension
  2
*D53
 10
1515.1033403763
 20
192.0000383803
 30
0.0
 11
1501.6783403763
 21
195.1320383803
 31
0.0
  3
DIMSTYLE1
100
AcDbAlignedDimension
 13
1515.1033403763
 23
167.6072914602
 33
0.0
 14
1494.1033403763
 24
170.6846417294
 34
0.0
100
AcDbRotatedDimension
  0
DIMENSION
  5
6E7
100
AcDbEntity
  8
____
  6
CONTINUOUS
 62
         4
100
AcDbDimension
  2
*D54
 10
1515.1033403763
 20
200.6438554823
 30
0.0
 11
1481.6016958647
 21
203.7758554823
 31
0.0
  3
DIMSTYLE1
100
AcDbAlignedDimension
 13
1515.1033403763
 23
167.6072914602
 33
0.0
 14
1462.1033403763
 24
171.6846417294
 34
0.0
100
AcDbRotatedDimension
  0
DIMENSION
  5
6F5
100
AcDbEntity
  8
L1_120
  6
CONTINUOUS
 62
         4
100
AcDbDimension
  2
*D55
 10
1465.7083403763
 20
14.1917360085
 30
0.0
 11
1467.1425313366
 21
17.3237360085
 31
0.0
  3
DIMSTYLE1
100
AcDbAlignedDimension
 13
1465.7083403763
 23
7.5566652593
 33
0.0
 14
1490.3082741959
 24
7.5566652593
 34
0.0
100
AcDbRotatedDimension
  0
DIMENSION
  5
703
100
AcDbEntity
  8
L1_120
  6
CONTINUOUS
 62
         4
100
AcDbDimension
  2
*D56
 10
1515.1033403763
 20
-48.9530593812
 30
0.0
 11
1496.9810669833
 21
-45.8210593812
 31
0.0
  3
DIMSTYLE1
100
AcDbAlignedDimension
 13
1515.1033403763
 23
-30.3278646868
 33
0.0
 14
1490.1033403763
 24
-30.4433347407
 34
0.0
100
AcDbRotatedDimension
  0
DIMENSION
  5
711
100
AcDbEntity
  8
L1_120
  6
CONTINUOUS
 62
         4
100
AcDbDimension
  2
*D57
 10
1515.1033403763
 20
-69.7717555683
 30
0.0
 11
1475.2185899024
 21
-66.6397555683
 31
0.0
  3
DIMSTYLE1
100
AcDbAlignedDimension
 13
1515.1033403763
 23
-30.3278646868
 33
0.0
 14
1449.1033403763
 24
-29.4433347407
 34
0.0
100
AcDbRotatedDimension
  0
DIMENSION
  5
71F
100
AcDbEntity
  8
L1_120
  6
CONTINUOUS
 62
         4
100
AcDbDimension
  2
*D58
 10
1538.6641711857
 20
3.0566652593
 30
0.0
 11
1535.5321711857
 21
-20.9507516815
 31
0.0
  3
DIMSTYLE1
100
AcDbAlignedDimension
 13
1490.1033403763
 23
3.0566652593
 33
0.0
 14
1490.1033403763
 24
-28.9433347407
 34
0.0
 50
90.0
100
AcDbRotatedDimension
  0
DIMENSION
  5
72D
100
AcDbEntity
  8
L1_120
  6
CONTINUOUS
 62
         4
100
AcDbDimension
  2
*D59
 10
1550.7715864264
 20
4.0566652593
 30
0.0
 11
1547.6395864264
 21
-21.6075939878
 31
0.0
  3
DIMSTYLE1
100
AcDbAlignedDimension
 13
1514.9033403763
 23
4.0566652593
 33
0.0
 14
1514.9033403763
 24
-29.9433347407
 34
0.0
 50
90.0
100
AcDbRotatedDimension
  0
TEXT
  5
73A
100
AcDbEntity
  8
____
  6
CONTINUOUS
 62
         2
100
AcDbText
 10
1707.8551181589
 20
224.3704784082
 30
0.0
 40
4.5
  1
534550
 41
0.98
  7
BOX
100
AcDbText
  0
ENDSEC
  0
SECTION
  2
OBJECTS
  0
DICTIONARY
  5
19
100
AcDbDictionary
  3
ACAD_GROUP
350
1A
  3
ACAD_MLINESTYLE
350
1B
  0
DICTIONARY
  5
1A
102
{ACAD_REACTORS
330
19
102
}
100
AcDbDictionary
  0
DICTIONARY
  5
1B
102
{ACAD_REACTORS
330
19
102
}
100
AcDbDictionary
  3
STANDARD
350
1C
  0
MLINESTYLE
  5
1C
102
{ACAD_REACTORS
330
1B
102
}
100
AcDbMlineStyle
  2
STANDARD
 70
         0
  3

 62
         0
 51
90.0
 52
90.0
 71
         2
 49
0.5
 62
       256
  6
BYLAYER
 49
-0.5
 62
       256
  6
BYLAYER
  0
ENDSEC
  0
EOF
