  0
SECTION
  2
HEADER
  9
$ACADVER
  1
AC1014
  9
$ACADMAINTVER
 70
         0
  9
$DWGCODEPAGE
  3
BIG5
  9
$INSBASE
 10
0.0
 20
0.0
 30
0.0
  9
$EXTMIN
 10
1102.6183918012
 20
-198.551662494
 30
0.0
  9
$EXTMAX
 10
1980.7335657526
 20
244.1667715104
 30
0.0
  9
$LIMMIN
 10
0.0
 20
0.0
  9
$LIMMAX
 10
0.0
 20
0.0
  9
$ORTHOMODE
 70
         0
  9
$REGENMODE
 70
         1
  9
$FILLMODE
 70
         1
  9
$QTEXTMODE
 70
         0
  9
$MIRRTEXT
 70
         1
  9
$DRAGMODE
 70
         2
  9
$LTSCALE
 40
1.0
  9
$OSMODE
 70
         0
  9
$ATTMODE
 70
         1
  9
$TEXTSIZE
 40
1.5
  9
$TRACEWID
 40
0.05
  9
$TEXTSTYLE
  7
STANDARD
  9
$CLAYER
  8
0
  9
$CELTYPE
  6
CONTINUOUS
  9
$CECOLOR
 62
        16
  9
$CELTSCALE
 40
1.0
  9
$DELOBJ
 70
         1
  9
$DISPSILH
 70
         0
  9
$DIMSCALE
 40
1.0
  9
$DIMASZ
 40
0.18
  9
$DIMEXO
 40
0.0625
  9
$DIMDLI
 40
0.38
  9
$DIMRND
 40
0.0
  9
$DIMDLE
 40
0.0
  9
$DIMEXE
 40
0.25
  9
$DIMTP
 40
0.01
  9
$DIMTM
 40
-0.01
  9
$DIMTXT
 40
3.5
  9
$DIMCEN
 40
0.09
  9
$DIMTSZ
 40
0.0
  9
$DIMTOL
 70
         0
  9
$DIMLIM
 70
         0
  9
$DIMTIH
 70
         1
  9
$DIMTOH
 70
         1
  9
$DIMSE1
 70
         0
  9
$DIMSE2
 70
         0
  9
$DIMTAD
 70
         0
  9
$DIMZIN
 70
         0
  9
$DIMBLK
  1

  9
$DIMASO
 70
         1
  9
$DIMSHO
 70
         1
  9
$DIMPOST
  1

  9
$DIMAPOST
  1

  9
$DIMALT
 70
         0
  9
$DIMALTD
 70
         2
  9
$DIMALTF
 40
25.4
  9
$DIMLFAC
 40
1.0
  9
$DIMTOFL
 70
         0
  9
$DIMTVP
 40
0.0
  9
$DIMTIX
 70
         0
  9
$DIMSOXD
 70
         0
  9
$DIMSAH
 70
         0
  9
$DIMBLK1
  1

  9
$DIMBLK2
  1

  9
$DIMSTYLE
  2
STANDARD
  9
$DIMCLRD
 70
         0
  9
$DIMCLRE
 70
         0
  9
$DIMCLRT
 70
        16
  9
$DIMTFAC
 40
0.7
  9
$DIMGAP
 40
0.09
  9
$DIMJUST
 70
         0
  9
$DIMSD1
 70
         0
  9
$DIMSD2
 70
         0
  9
$DIMTOLJ
 70
         1
  9
$DIMTZIN
 70
         0
  9
$DIMALTZ
 70
         0
  9
$DIMALTTZ
 70
         0
  9
$DIMFIT
 70
         3
  9
$DIMUPT
 70
         0
  9
$DIMUNIT
 70
         2
  9
$DIMDEC
 70
         4
  9
$DIMTDEC
 70
         4
  9
$DIMALTU
 70
         2
  9
$DIMALTTD
 70
         2
  9
$DIMTXSTY
  7
STANDARD
  9
$DIMAUNIT
 70
         0
  9
$LUNITS
 70
         2
  9
$LUPREC
 70
        10
  9
$SKETCHINC
 40
0.1
  9
$FILLETRAD
 40
0.0
  9
$AUNITS
 70
         0
  9
$AUPREC
 70
         0
  9
$MENU
  1
acad
  9
$ELEVATION
 40
0.0
  9
$PELEVATION
 40
0.0
  9
$THICKNESS
 40
0.0
  9
$LIMCHECK
 70
         0
  9
$BLIPMODE
 70
         1
  9
$CHAMFERA
 40
0.0
  9
$CHAMFERB
 40
0.0
  9
$CHAMFERC
 40
0.0
  9
$CHAMFERD
 40
0.0
  9
$SKPOLY
 70
         0
  9
$TDCREATE
 40
0.000000000
  9
$TDUPDATE
 40
0.000000000
  9
$TDINDWG
 40
0.0000000000
  9
$TDUSRTIMER
 40
0.0000000000
  9
$USRTIMER
 70
         1
  9
$ANGBASE
 50
0.0
  9
$ANGDIR
 70
         0
  9
$PDMODE
 70
         2
  9
$PDSIZE
 40
0.0
  9
$PLINEWID
 40
0.0
  9
$COORDS
 70
         1
  9
$SPLFRAME
 70
         0
  9
$SPLINETYPE
 70
         6
  9
$SPLINESEGS
 70
         8
  9
$ATTDIA
 70
         0
  9
$ATTREQ
 70
         1
  9
$HANDLING
 70
         1
  9
$HANDSEED
  5
49D
  9
$SURFTAB1
 70
         6
  9
$SURFTAB2
 70
         6
  9
$SURFTYPE
 70
         6
  9
$SURFU
 70
         6
  9
$SURFV
 70
         6
  9
$UCSNAME
  2

  9
$UCSORG
 10
0.0
 20
0.0
 30
0.0
  9
$UCSXDIR
 10
1.0
 20
0.0
 30
0.0
  9
$UCSYDIR
 10
0.0
 20
1.0
 30
0.0
  9
$PUCSNAME
  2

  9
$PUCSORG
 10
0.0
 20
0.0
 30
0.0
  9
$PUCSXDIR
 10
1.0
 20
0.0
 30
0.0
  9
$PUCSYDIR
 10
0.0
 20
1.0
 30
0.0
  9
$USERI1
 70
         0
  9
$USERI2
 70
         0
  9
$USERI3
 70
         0
  9
$USERI4
 70
         0
  9
$USERI5
 70
         0
  9
$USERR1
 40
0.0
  9
$USERR2
 40
0.0
  9
$USERR3
 40
0.0
  9
$USERR4
 40
0.0
  9
$USERR5
 40
0.0
  9
$WORLDVIEW
 70
         1
  9
$SHADEDGE
 70
         3
  9
$SHADEDIF
 70
        70
  9
$TILEMODE
 70
         1
  9
$MAXACTVP
 70
        16
  9
$PINSBASE
 10
0.0
 20
0.0
 30
0.0
  9
$PLIMCHECK
 70
         0
  9
$PEXTMIN
 10
1.0000000000E+20
 20
1.0000000000E+20
 30
1.0000000000E+20
  9
$PEXTMAX
 10
-1.0000000000E+20
 20
-1.0000000000E+20
 30
-1.0000000000E+20
  9
$PLIMMIN
 10
0.0
 20
0.0
  9
$PLIMMAX
 10
12.0
 20
9.0
  9
$UNITMODE
 70
         0
  9
$VISRETAIN
 70
         0
  9
$PLINEGEN
 70
         1
  9
$PSLTSCALE
 70
         0
  9
$TREEDEPTH
 70
      3020
  9
$PICKSTYLE
 70
         1
  9
$CMLSTYLE
  2
STANDARD
  9
$CMLJUST
 70
         0
  9
$CMLSCALE
 40
1.0
  9
$PROXYGRAPHICS
 70
         0
  9
$MEASUREMENT
 70
         0
  0
ENDSEC
  0
SECTION
  2
CLASSES
  0
CLASS
  1
LWPOLYLINE
  2
AcDbPolyline
  3
"AutoCAD"
 90
        0
280
         0
281
         1
  0
CLASS
  1
IMAGE
  2
AcDbRasterImage
  3
ISM
 90
      127
280
         0
281
         1
  0
CLASS
  1
OLE2FRAME
  2
AcDbOle2Frame
  3
""
 90
        0
280
         0
281
         1
  0
CLASS
  1
HATCH
  2
AcDbHatch
  3
"ACAD_SEDONA"
 90
        0
280
         0
281
         1
  0
CLASS
  1
DICTIONARYVAR
  2
AcDbDictionaryVar
  3
"AutoCAD"
 90
        0
280
         0
281
         0
  0
CLASS
  1
RASTERVARIABLES
  2
AcDbRasterVariables
  3
ISM
 90
        0
280
         0
281
         0
  0
CLASS
  1
IMAGEDEF
  2
AcDbRasterImageDef
  3
ISM
 90
        0
280
         0
281
         0
  0
CLASS
  1
IMAGEDEF_REACTOR
  2
AcDbRasterImageDefReactor
  3
ISM
 90
        1
280
         0
281
         0
  0
CLASS
  1
IDBUFFER
  2
AcDbIdBuffer
  3
"Acad"
 90
        0
280
         0
281
         0
  0
CLASS
  1
SPATIAL_FILTER
  2
AcDbSpatialFilter
  3
"Acad"
 90
        0
280
         0
281
         0
  0
CLASS
  1
XRECORD
  2
AcDbXrecord
  3
"<Built In>"
 90
        0
280
         0
281
         0
  0
CLASS
  1
SORTENTSTABLE
  2
AcDbSortentsTable
  3
"AutoCAD"
 90
        0
280
         0
281
         0
  0
CLASS
  1
LAYER_INDEX
  2
AcDbLayerIndex
  3
"Acad"
 90
        0
280
         0
281
         0
  0
CLASS
  1
SPATIAL_INDEX
  2
AcDbSpatialIndex
  3
"Acad"
 90
        0
280
         0
281
         0
  0
CLASS
  1
OBJECT_PTR
  2
CAseDLPNTableRecord
  3
"ASE-LPNTableRecord"
 90
        1
280
         0
281
         0
  0
CLASS
  1
LAYOUT
  2
AcDbLayout
  3
"AutoCAD 2000"
 90
        1
280
         0
281
         0
  0
CLASS
  1
PLOTSETTINGS
  2
AcDbPlotSettings
  3
"AutoCAD 2000"
 90
        1
280
         0
281
         0
  0
CLASS
  1
ACDBDICTIONARYWDFLT
  2
AcDbDictionaryWithDefault
  3
"AutoCAD 2000"
 90
        1
280
         0
281
         0
  0
CLASS
  1
ACDBPLACEHOLDER
  2
AcDbPlaceHolder
  3
"AutoCAD 2000"
 90
        1
280
         0
281
         0
  0
CLASS
  1
VBA_PROJECT
  2
AcDbVbaProject
  3
"acadvba"
 90
        1
280
         0
281
         0
  0
CLASS
  1
WIPEOUT
  2
AcDbWipeout
  3
WipeOut|AutoCAD Express Tool|expresstools@autodesk.com
 90
      127
280
         0
281
         1
  0
CLASS
  1
WIPEOUTVARIABLES
  2
AcDbWipeoutVariables
  3
WipeOut|AutoCAD Express Tool|expresstools@autodesk.com
 90
        0
280
         0
281
         0
  0
CLASS
  1
RTEXT
  2
RText
  3
RText|AutoCAD Express Tool|expresstools@autodesk.com
 90
        0
280
         0
281
         1
  0
CLASS
  1
ARCALIGNEDTEXT
  2
AcDbArcAlignedText
  3
ATEXT|AutoCAD Express Tool|expresstools@autodesk.com
 90
        0
280
         0
281
         1
  0
ENDSEC
  0
SECTION
  2
TABLES
  0
TABLE
  2
VPORT
  5
7
100
AcDbSymbolTable
 70
         1
  0
VPORT
  5
15
100
AcDbSymbolTableRecord
100
AcDbViewportTableRecord
  2
*ACTIVE
 70
         0
 10
0.0
 20
0.0
 11
1.0
 21
1.0
 12
1541.6759787769
 22
22.8075545082
 13
0.0
 23
0.0
 14
1.0
 24
1.0
 15
0.0
 25
0.0
 16
0.0
 26
0.0
 36
1.0
 17
0.0
 27
0.0
 37
0.0
 40
442.7184340044
 41
1.9834619625
 42
50.0
 43
0.0
 44
0.0
 50
0.0
 51
0.0
 71
         0
 72
       100
 73
         1
 74
         1
 75
         0
 76
         0
 77
         0
 78
         0
  0
ENDTAB
  0
TABLE
  2
LTYPE
  5
4
100
AcDbSymbolTable
 70
         6
  0
LTYPE
  5
11
100
AcDbSymbolTableRecord
100
AcDbLinetypeTableRecord
  2
BYBLOCK
 70
        64
  3

 72
        65
 73
         0
 40
0.0
  0
LTYPE
  5
12
100
AcDbSymbolTableRecord
100
AcDbLinetypeTableRecord
  2
BYLAYER
 70
        64
  3

 72
        65
 73
         0
 40
0.0
  0
LTYPE
  5
13
100
AcDbSymbolTableRecord
100
AcDbLinetypeTableRecord
  2
CONTINUOUS
 70
        64
  3
Solid line
 72
        65
 73
         0
 40
0.0
  0
LTYPE
  5
1D
100
AcDbSymbolTableRecord
100
AcDbLinetypeTableRecord
  2
DASHED
 70
        64
  3
_ _ _ _ _ _ _ _ _ _ _ _ _ _ _ _
 72
        65
 73
         2
 40
0.2
 49
0.1
 74
         0
 49
-0.1
 74
         0
  0
LTYPE
  5
1E
100
AcDbSymbolTableRecord
100
AcDbLinetypeTableRecord
  2
CENTER
 70
        64
  3
___ _ ___ _ ___ _ ___ _ ___ _ ___ _ ___ _ ___ _
 72
        65
 73
         4
 40
0.95
 49
0.625
 74
         0
 49
-0.125
 74
         0
 49
0.075
 74
         0
 49
-0.125
 74
         0
  0
LTYPE
  5
1F
100
AcDbSymbolTableRecord
100
AcDbLinetypeTableRecord
  2
PHANTOM
 70
        64
  3
______  __  __  ______  __  __  ______  __  __  
 72
        65
 73
         6
 40
1.025
 49
0.625
 74
         0
 49
-0.125
 74
         0
 49
0.075
 74
         0
 49
-0.125
 74
         0
 49
0.075
 74
         0
 49
-0.125
 74
         0
  0
ENDTAB
  0
TABLE
  2
LAYER
  5
2
100
AcDbSymbolTable
 70
         6
  0
LAYER
  5
14
100
AcDbSymbolTableRecord
100
AcDbLayerTableRecord
  2
0
 70
         0
 62
         7
  6
CONTINUOUS
  0
LAYER
  5
21
100
AcDbSymbolTableRecord
100
AcDbLayerTableRecord
  2
_____U
 70
         1
 62
         7
  6
CONTINUOUS
  0
LAYER
  5
22
100
AcDbSymbolTableRecord
100
AcDbLayerTableRecord
  2
_____T______
 70
         1
 62
         7
  6
CONTINUOUS
  0
LAYER
  5
23
100
AcDbSymbolTableRecord
100
AcDbLayerTableRecord
  2
_Y__________
 70
         0
 62
         7
  6
CONTINUOUS
  0
LAYER
  5
24
100
AcDbSymbolTableRecord
100
AcDbLayerTableRecord
  2
L1_85
 70
         0
 62
         7
  6
CONTINUOUS
  0
LAYER
  5
16F
100
AcDbSymbolTableRecord
100
AcDbLayerTableRecord
  2
DEFPOINTS
 70
         0
 62
        -7
  6
CONTINUOUS
  0
ENDTAB
  0
TABLE
  2
STYLE
  5
3
100
AcDbSymbolTable
 70
         9
  0
STYLE
  5
17
100
AcDbSymbolTableRecord
100
AcDbTextStyleTableRecord
  2
STANDARD
 70
         0
 40
0.0
 41
1.0
 50
0.0
 71
         0
 42
0.0
  3
txt
  4

  0
STYLE
  5
178
100
AcDbSymbolTableRecord
100
AcDbTextStyleTableRecord
  2
BOX
 70
         0
 40
1.0
 41
1.0
 50
0.0
 71
         0
 42
0.2
  3
txt.shx
  4

  0
STYLE
  5
1BD
100
AcDbSymbolTableRecord
100
AcDbTextStyleTableRecord
  2
BOX
 70
         0
 40
1.0
 41
1.0
 50
0.0
 71
         0
 42
0.2
  3
txt.shx
  4

  0
STYLE
  5
1CB
100
AcDbSymbolTableRecord
100
AcDbTextStyleTableRecord
  2
BOX
 70
         0
 40
1.0
 41
1.0
 50
0.0
 71
         0
 42
0.2
  3
txt.shx
  4

  0
STYLE
  5
410
100
AcDbSymbolTableRecord
100
AcDbTextStyleTableRecord
  2
BOX
 70
         0
 40
1.0
 41
1.0
 50
0.0
 71
         0
 42
0.2
  3
txt.shx
  4

  0
STYLE
  5
42D
100
AcDbSymbolTableRecord
100
AcDbTextStyleTableRecord
  2
BOX
 70
         0
 40
1.0
 41
1.0
 50
0.0
 71
         0
 42
0.2
  3
txt.shx
  4

  0
STYLE
  5
45E
100
AcDbSymbolTableRecord
100
AcDbTextStyleTableRecord
  2
BOX
 70
         0
 40
1.0
 41
1.0
 50
0.0
 71
         0
 42
0.2
  3
txt.shx
  4

  0
STYLE
  5
494
100
AcDbSymbolTableRecord
100
AcDbTextStyleTableRecord
  2
BOX
 70
         0
 40
1.0
 41
1.0
 50
0.0
 71
         0
 42
0.2
  3
txt.shx
  4

  0
STYLE
  5
49B
100
AcDbSymbolTableRecord
100
AcDbTextStyleTableRecord
  2
BOX
 70
         0
 40
1.0
 41
1.0
 50
0.0
 71
         0
 42
0.2
  3
txt.shx
  4

  0
ENDTAB
  0
TABLE
  2
VIEW
  5
5
100
AcDbSymbolTable
 70
         0
  0
ENDTAB
  0
TABLE
  2
UCS
  5
6
100
AcDbSymbolTable
 70
         1
  0
UCS
  5
20
100
AcDbSymbolTableRecord
100
AcDbUCSTableRecord
  2
CK_VIEW_1
 70
         0
 10
0.0
 20
0.0
 30
1.0
 11
1.0
 21
0.0
 31
0.0
 12
0.0
 22
1.0
 32
0.0
  0
ENDTAB
  0
TABLE
  2
APPID
  5
8
100
AcDbSymbolTable
 70
         1
  0
APPID
  5
16
100
AcDbSymbolTableRecord
100
AcDbRegAppTableRecord
  2
ACAD
 70
         0
  0
ENDTAB
  0
TABLE
  2
DIMSTYLE
  5
9
100
AcDbSymbolTable
 70
         2
  0
DIMSTYLE
105
18
100
AcDbSymbolTableRecord
100
AcDbDimStyleTableRecord
  2
STANDARD
 70
         0
  3

  4

  5

  6

  7

 40
1.0
 41
0.18
 42
0.0625
 43
0.38
 44
0.18
 45
0.0
 46
0.0
 47
0.0
 48
0.0
 71
         0
 72
         0
 73
         1
 74
         1
 75
         0
 76
         0
 77
         0
 78
         0
140
0.18
141
0.09
142
0.0
143
25.4
144
1.0
145
0.0
146
1.0
147
0.09
170
         0
171
         2
172
         0
173
         0
174
         0
175
         0
176
         0
177
         0
178
         0
270
         2
271
         4
272
         4
273
         2
274
         2
275
         0
280
         0
281
         0
282
         0
283
         1
284
         0
285
         0
286
         0
287
         0
288
         0
340
17
  0
DIMSTYLE
105
16B
100
AcDbSymbolTableRecord
100
AcDbDimStyleTableRecord
  2
DIMSTYLE1
 70
         0
  3

  4

  5

  6

  7

 40
1.0
 41
3.5
 42
0.0625
 43
0.38
 44
3.5
 45
0.0
 46
0.0
 47
0.0
 48
0.0
 71
         0
 72
         0
 73
         1
 74
         1
 75
         0
 76
         0
 77
         0
 78
         0
140
3.5
141
0.09
142
0.0
143
25.4
144
1.0
145
0.0
146
1.0
147
0.09
170
         0
171
         2
172
         0
173
         0
174
         0
175
         0
176
         0
177
         0
178
         0
270
         2
271
         4
272
         4
273
         2
274
         2
275
         0
280
         0
281
         0
282
         0
283
         1
284
         0
285
         0
286
         0
287
         0
288
         0
340
17
  0
ENDTAB
  0
TABLE
  2
BLOCK_RECORD
  5
1
100
AcDbSymbolTable
 70
         9
  0
BLOCK_RECORD
  5
A
100
AcDbSymbolTableRecord
100
AcDbBlockTableRecord
  2
*MODEL_SPACE
  0
BLOCK_RECORD
  5
B
100
AcDbSymbolTableRecord
100
AcDbBlockTableRecord
  2
*PAPER_SPACE
  0
BLOCK_RECORD
  5
3F
100
AcDbSymbolTableRecord
100
AcDbBlockTableRecord
  2
*X0
  0
BLOCK_RECORD
  5
A4
100
AcDbSymbolTableRecord
100
AcDbBlockTableRecord
  2
*X1
  0
BLOCK_RECORD
  5
16C
100
AcDbSymbolTableRecord
100
AcDbBlockTableRecord
  2
*D2
  0
BLOCK_RECORD
  5
1B2
100
AcDbSymbolTableRecord
100
AcDbBlockTableRecord
  2
*D3
  0
BLOCK_RECORD
  5
1C0
100
AcDbSymbolTableRecord
100
AcDbBlockTableRecord
  2
*D4
  0
BLOCK_RECORD
  5
406
100
AcDbSymbolTableRecord
100
AcDbBlockTableRecord
  2
*D5
  0
BLOCK_RECORD
  5
423
100
AcDbSymbolTableRecord
100
AcDbBlockTableRecord
  2
*D6
  0
BLOCK_RECORD
  5
453
100
AcDbSymbolTableRecord
100
AcDbBlockTableRecord
  2
*D7
  0
BLOCK_RECORD
  5
489
100
AcDbSymbolTableRecord
100
AcDbBlockTableRecord
  2
*D8
  0
ENDTAB
  0
ENDSEC
  0
SECTION
  2
BLOCKS
  0
BLOCK
  5
D
100
AcDbEntity
  8
0
100
AcDbBlockBegin
  2
*MODEL_SPACE
 70
         0
 10
0.0
 20
0.0
 30
0.0
  3
*MODEL_SPACE
  1

  0
ENDBLK
  5
E
100
AcDbEntity
  8
0
100
AcDbBlockEnd
  0
BLOCK
  5
F
100
AcDbEntity
 67
         1
  8
0
100
AcDbBlockBegin
  2
*PAPER_SPACE
 70
         0
 10
0.0
 20
0.0
 30
0.0
  3
*PAPER_SPACE
  1

  0
ENDBLK
  5
10
100
AcDbEntity
 67
         1
  8
0
100
AcDbBlockEnd
  0
BLOCK
  5
40
100
AcDbEntity
  8
0
100
AcDbBlockBegin
  2
*X0
 70
        65
 10
0.0
 20
0.0
 30
0.0
  3
*X0
  1

  0
LINE
  5
41
100
AcDbEntity
  8
L1_85
  6
CONTINUOUS
 62
         4
100
AcDbLine
 10
1600.2444612126
 20
-139.7400166132
 30
0.0
 11
1601.8744698957
 21
-138.1100079301
 31
0.0
  0
LINE
  5
42
100
AcDbEntity
  8
L1_85
  6
CONTINUOUS
 62
         4
100
AcDbLine
 10
1596.5518205255
 20
-139.1900166132
 30
0.0
 11
1599.5018205255
 21
-136.2400166132
 31
0.0
  0
LINE
  5
43
100
AcDbEntity
  8
L1_85
  6
CONTINUOUS
 62
         4
100
AcDbLine
 10
1591.7591798384
 20
-139.7400166132
 30
0.0
 11
1595.2591798384
 21
-136.2400166132
 31
0.0
  0
LINE
  5
44
100
AcDbEntity
  8
L1_85
  6
CONTINUOUS
 62
         4
100
AcDbLine
 10
1587.5165391513
 20
-139.7400166132
 30
0.0
 11
1591.0165391513
 21
-136.2400166132
 31
0.0
  0
LINE
  5
45
100
AcDbEntity
  8
L1_85
  6
CONTINUOUS
 62
         4
100
AcDbLine
 10
1586.347909658
 20
-136.6660054194
 30
0.0
 11
1586.7738984641
 21
-136.2400166132
 31
0.0
  0
LINE
  5
46
100
AcDbEntity
  8
L1_85
  6
CONTINUOUS
 62
         4
100
AcDbLine
 10
1579.031257777
 20
-139.7400166132
 30
0.0
 11
1581.3786999336
 21
-137.3925744566
 31
0.0
  0
LINE
  5
47
100
AcDbEntity
  8
L1_85
  6
CONTINUOUS
 62
         4
100
AcDbLine
 10
1574.2886170899
 20
-140.2400166132
 30
0.0
 11
1577.7886170899
 21
-136.7400166132
 31
0.0
  0
LINE
  5
48
100
AcDbEntity
  8
L1_85
  6
CONTINUOUS
 62
         4
100
AcDbLine
 10
1597.2886170899
 20
-117.2400166132
 30
0.0
 11
1600.7886170899
 21
-113.7400166132
 31
0.0
  0
LINE
  5
49
100
AcDbEntity
  8
L1_85
  6
CONTINUOUS
 62
         4
100
AcDbLine
 10
1570.0459764028
 20
-140.2400166132
 30
0.0
 11
1574.5739019669
 21
-135.7120910491
 31
0.0
  0
LINE
  5
4A
100
AcDbEntity
  8
L1_85
  6
CONTINUOUS
 62
         4
100
AcDbLine
 10
1593.0459764028
 20
-117.2400166132
 30
0.0
 11
1595.9959764028
 21
-114.2900166132
 31
0.0
  0
LINE
  5
4B
100
AcDbEntity
  8
L1_85
  6
CONTINUOUS
 62
         4
100
AcDbLine
 10
1565.8033357157
 20
-140.2400166132
 30
0.0
 11
1573.0209876962
 21
-133.0223646326
 31
0.0
  0
LINE
  5
4C
100
AcDbEntity
  8
L1_85
  6
CONTINUOUS
 62
         4
100
AcDbLine
 10
1588.8033357157
 20
-117.2400166132
 30
0.0
 11
1592.3033357157
 21
-113.7400166132
 31
0.0
  0
LINE
  5
4D
100
AcDbEntity
  8
L1_85
  6
CONTINUOUS
 62
         4
100
AcDbLine
 10
1558.6263129397
 20
-143.1743987021
 30
0.0
 11
1558.8130820222
 21
-142.9876296195
 31
0.0
  0
LINE
  5
4E
100
AcDbEntity
  8
L1_85
  6
CONTINUOUS
 62
         4
100
AcDbLine
 10
1561.5606950285
 20
-140.2400166132
 30
0.0
 11
1571.0606950285
 21
-130.7400166132
 31
0.0
  0
LINE
  5
4F
100
AcDbEntity
  8
L1_85
  6
CONTINUOUS
 62
         4
100
AcDbLine
 10
1586.3786999331
 20
-115.4220117086
 30
0.0
 11
1588.0606950285
 21
-113.7400166132
 31
0.0
  0
LINE
  5
50
100
AcDbEntity
  8
L1_85
  6
CONTINUOUS
 62
         4
100
AcDbLine
 10
1539.3180543414
 20
-158.2400166132
 30
0.0
 11
1542.8786999334
 21
-154.6793710212
 31
0.0
  0
LINE
  5
51
100
AcDbEntity
  8
L1_85
  6
CONTINUOUS
 62
         4
100
AcDbLine
 10
1554.3180543414
 20
-143.2400166132
 30
0.0
 11
1566.8180543414
 21
-130.7400166132
 31
0.0
  0
LINE
  5
52
100
AcDbEntity
  8
L1_85
  6
CONTINUOUS
 62
         4
100
AcDbLine
 10
1580.3180543414
 20
-117.2400166132
 30
0.0
 11
1581.3786999336
 21
-116.179371021
 31
0.0
  0
LINE
  5
53
100
AcDbEntity
  8
L1_85
  6
CONTINUOUS
 62
         4
100
AcDbLine
 10
1537.0919507647
 20
-156.2234795028
 30
0.0
 11
1542.8786999334
 21
-150.4367303341
 31
0.0
  0
LINE
  5
54
100
AcDbEntity
  8
L1_85
  6
CONTINUOUS
 62
         4
100
AcDbLine
 10
1550.0754136543
 20
-143.2400166132
 30
0.0
 11
1562.5754136543
 21
-130.7400166132
 31
0.0
  0
LINE
  5
55
100
AcDbEntity
  8
L1_85
  6
CONTINUOUS
 62
         4
100
AcDbLine
 10
1570.5754136543
 20
-122.7400166132
 30
0.0
 11
1573.2439585896
 21
-120.0714716779
 31
0.0
  0
LINE
  5
56
100
AcDbEntity
  8
L1_85
  6
CONTINUOUS
 62
         4
100
AcDbLine
 10
1576.5754136543
 20
-116.7400166132
 30
0.0
 11
1579.5754136543
 21
-113.7400166132
 31
0.0
  0
LINE
  5
57
100
AcDbEntity
  8
L1_85
  6
CONTINUOUS
 62
         4
100
AcDbLine
 10
1530.8327729672
 20
-158.2400166132
 30
0.0
 11
1532.414290339
 21
-156.6584992414
 31
0.0
  0
LINE
  5
58
100
AcDbEntity
  8
L1_85
  6
CONTINUOUS
 62
         4
100
AcDbLine
 10
1534.8327729672
 20
-154.2400166132
 30
0.0
 11
1542.8790569898
 21
-146.1937325906
 31
0.0
  0
LINE
  5
59
100
AcDbEntity
  8
L1_85
  6
CONTINUOUS
 62
         4
100
AcDbLine
 10
1545.8324159108
 20
-143.2403736696
 30
0.0
 11
1558.3327729672
 21
-130.7400166132
 31
0.0
  0
LINE
  5
5A
100
AcDbEntity
  8
L1_85
  6
CONTINUOUS
 62
         4
100
AcDbLine
 10
1566.3327729672
 20
-122.7400166132
 30
0.0
 11
1575.8327729672
 21
-113.2400166132
 31
0.0
  0
LINE
  5
5B
100
AcDbEntity
  8
L1_85
  6
CONTINUOUS
 62
         4
100
AcDbLine
 10
1526.5901322801
 20
-158.2400166132
 30
0.0
 11
1554.0901322801
 21
-130.7400166132
 31
0.0
  0
LINE
  5
5C
100
AcDbEntity
  8
L1_85
  6
CONTINUOUS
 62
         4
100
AcDbLine
 10
1562.0901322801
 20
-122.7400166132
 30
0.0
 11
1571.5901322801
 21
-113.2400166132
 31
0.0
  0
LINE
  5
5D
100
AcDbEntity
  8
L1_85
  6
CONTINUOUS
 62
         4
100
AcDbLine
 10
1522.3474915929
 20
-158.2400166132
 30
0.0
 11
1549.8474915929
 21
-130.7400166132
 31
0.0
  0
LINE
  5
5E
100
AcDbEntity
  8
L1_85
  6
CONTINUOUS
 62
         4
100
AcDbLine
 10
1557.8474915929
 20
-122.7400166132
 30
0.0
 11
1567.3474915929
 21
-113.2400166132
 31
0.0
  0
LINE
  5
5F
100
AcDbEntity
  8
L1_85
  6
CONTINUOUS
 62
         4
100
AcDbLine
 10
1518.1048509058
 20
-158.2400166132
 30
0.0
 11
1545.6048509058
 21
-130.7400166132
 31
0.0
  0
LINE
  5
60
100
AcDbEntity
  8
L1_85
  6
CONTINUOUS
 62
         4
100
AcDbLine
 10
1553.6048509058
 20
-122.7400166132
 30
0.0
 11
1563.1048509058
 21
-113.2400166132
 31
0.0
  0
LINE
  5
61
100
AcDbEntity
  8
L1_85
  6
CONTINUOUS
 62
         4
100
AcDbLine
 10
1516.8786999334
 20
-155.2235268985
 30
0.0
 11
1535.8786999334
 21
-136.2235268985
 31
0.0
  0
LINE
  5
62
100
AcDbEntity
  8
L1_85
  6
CONTINUOUS
 62
         4
100
AcDbLine
 10
1538.8786999334
 20
-133.2235268985
 30
0.0
 11
1541.3622102187
 21
-130.7400166132
 31
0.0
  0
LINE
  5
63
100
AcDbEntity
  8
L1_85
  6
CONTINUOUS
 62
         4
100
AcDbLine
 10
1549.3622102187
 20
-122.7400166132
 30
0.0
 11
1559.0169978335
 21
-113.0852289984
 31
0.0
  0
LINE
  5
64
100
AcDbEntity
  8
L1_85
  6
CONTINUOUS
 62
         4
100
AcDbLine
 10
1516.861205002
 20
-150.9983811428
 30
0.0
 11
1524.1195695316
 21
-143.7400166132
 31
0.0
  0
LINE
  5
65
100
AcDbEntity
  8
L1_85
  6
CONTINUOUS
 62
         4
100
AcDbLine
 10
1526.8786999334
 20
-140.9808862114
 30
0.0
 11
1532.6195695316
 21
-135.2400166132
 31
0.0
  0
LINE
  5
66
100
AcDbEntity
  8
L1_85
  6
CONTINUOUS
 62
         4
100
AcDbLine
 10
1545.1195695316
 20
-122.7400166132
 30
0.0
 11
1557.6195695316
 21
-110.2400166132
 31
0.0
  0
LINE
  5
67
100
AcDbEntity
  8
L1_85
  6
CONTINUOUS
 62
         4
100
AcDbLine
 10
1512.7674893725
 20
-150.8494560852
 30
0.0
 11
1519.8769288445
 21
-143.7400166132
 31
0.0
  0
LINE
  5
68
100
AcDbEntity
  8
L1_85
  6
CONTINUOUS
 62
         4
100
AcDbLine
 10
1526.8786999334
 20
-136.7382455243
 30
0.0
 11
1528.0575221939
 21
-135.5594232638
 31
0.0
  0
LINE
  5
69
100
AcDbEntity
  8
L1_85
  6
CONTINUOUS
 62
         4
100
AcDbLine
 10
1540.8769288445
 20
-122.7400166132
 30
0.0
 11
1553.3769288445
 21
-110.2400166132
 31
0.0
  0
LINE
  5
6A
100
AcDbEntity
  8
L1_85
  6
CONTINUOUS
 62
         4
100
AcDbLine
 10
1508.7268791943
 20
-150.6474255762
 30
0.0
 11
1512.9887977374
 21
-146.3855070331
 31
0.0
  0
LINE
  5
6B
100
AcDbEntity
  8
L1_85
  6
CONTINUOUS
 62
         4
100
AcDbLine
 10
1538.8786999334
 20
-120.4956048371
 30
0.0
 11
1549.1342881573
 21
-110.2400166132
 31
0.0
  0
LINE
  5
6C
100
AcDbEntity
  8
L1_85
  6
CONTINUOUS
 62
         4
100
AcDbLine
 10
1504.6862690161
 20
-150.4453950673
 30
0.0
 11
1508.3916474702
 21
-146.7400166132
 31
0.0
  0
LINE
  5
6D
100
AcDbEntity
  8
L1_85
  6
CONTINUOUS
 62
         4
100
AcDbLine
 10
1537.8916474702
 20
-117.2400166132
 30
0.0
 11
1545.017819811
 21
-110.1138442724
 31
0.0
  0
LINE
  5
6E
100
AcDbEntity
  8
L1_85
  6
CONTINUOUS
 62
         4
100
AcDbLine
 10
1500.6456588379
 20
-150.2433645584
 30
0.0
 11
1504.1490067831
 21
-146.7400166132
 31
0.0
  0
LINE
  5
6F
100
AcDbEntity
  8
L1_85
  6
CONTINUOUS
 62
         4
100
AcDbLine
 10
1532.6490067831
 20
-118.2400166132
 30
0.0
 11
1542.9591048678
 21
-107.9299185285
 31
0.0
  0
LINE
  5
70
100
AcDbEntity
  8
L1_85
  6
CONTINUOUS
 62
         4
100
AcDbLine
 10
1496.6050486597
 20
-150.0413340495
 30
0.0
 11
1499.9086648103
 21
-146.7377178988
 31
0.0
  0
LINE
  5
71
100
AcDbEntity
  8
L1_85
  6
CONTINUOUS
 62
         4
100
AcDbLine
 10
1528.4811760682
 20
-118.165206641
 30
0.0
 11
1542.8786999334
 21
-103.7676827758
 31
0.0
  0
LINE
  5
72
100
AcDbEntity
  8
L1_85
  6
CONTINUOUS
 62
         4
100
AcDbLine
 10
1492.5644384815
 20
-149.8393035406
 30
0.0
 11
1498.1685589931
 21
-144.235183029
 31
0.0
  0
LINE
  5
73
100
AcDbEntity
  8
L1_85
  6
CONTINUOUS
 62
         4
100
AcDbLine
 10
1526.8786999334
 20
-115.5250420887
 30
0.0
 11
1542.8786999334
 21
-99.5250420887
 31
0.0
  0
LINE
  5
74
100
AcDbEntity
  8
L1_85
  6
CONTINUOUS
 62
         4
100
AcDbLine
 10
1488.5238283033
 20
-149.6372730317
 30
0.0
 11
1494.4210847217
 21
-143.7400166132
 31
0.0
  0
LINE
  5
75
100
AcDbEntity
  8
L1_85
  6
CONTINUOUS
 62
         4
100
AcDbLine
 10
1526.8786999334
 20
-111.2824014016
 30
0.0
 11
1542.6066814633
 21
-95.5544198716
 31
0.0
  0
LINE
  5
76
100
AcDbEntity
  8
L1_85
  6
CONTINUOUS
 62
         4
100
AcDbLine
 10
1485.027027913
 20
-148.8914327349
 30
0.0
 11
1490.1784440346
 21
-143.7400166132
 31
0.0
  0
LINE
  5
77
100
AcDbEntity
  8
L1_85
  6
CONTINUOUS
 62
         4
100
AcDbLine
 10
1524.1784440346
 20
-109.7400166132
 30
0.0
 11
1534.6784440346
 21
-99.2400166132
 31
0.0
  0
LINE
  5
78
100
AcDbEntity
  8
L1_85
  6
CONTINUOUS
 62
         4
100
AcDbLine
 10
1537.6794015754
 20
-96.2390590725
 30
0.0
 11
1538.6784440346
 21
-95.2400166132
 31
0.0
  0
LINE
  5
79
100
AcDbEntity
  8
L1_85
  6
CONTINUOUS
 62
         4
100
AcDbLine
 10
1484.8786999334
 20
-144.7971200273
 30
0.0
 11
1485.9358033475
 21
-143.7400166132
 31
0.0
  0
LINE
  5
7A
100
AcDbEntity
  8
L1_85
  6
CONTINUOUS
 62
         4
100
AcDbLine
 10
1519.9358033475
 20
-109.7400166132
 30
0.0
 11
1532.5753399196
 21
-97.1004800411
 31
0.0
  0
LINE
  5
7B
100
AcDbEntity
  8
L1_85
  6
CONTINUOUS
 62
         4
100
AcDbLine
 10
1516.3202084207
 20
-109.1129708529
 30
0.0
 11
1525.5931626604
 21
-99.8400166132
 31
0.0
  0
LINE
  5
7C
100
AcDbEntity
  8
L1_85
  6
CONTINUOUS
 62
         4
100
AcDbLine
 10
1528.8786999334
 20
-96.5544793402
 30
0.0
 11
1530.1931626604
 21
-95.2400166132
 31
0.0
  0
LINE
  5
7D
100
AcDbEntity
  8
L1_85
  6
CONTINUOUS
 62
         4
100
AcDbLine
 10
1513.7980848757
 20
-107.3924537108
 30
0.0
 11
1521.3505219733
 21
-99.8400166132
 31
0.0
  0
LINE
  5
7E
100
AcDbEntity
  8
L1_85
  6
CONTINUOUS
 62
         4
100
AcDbLine
 10
1510.2078812862
 20
-106.7400166132
 30
0.0
 11
1514.398890831
 21
-102.5490070683
 31
0.0
  0
LINE
  5
7F
100
AcDbEntity
  8
L1_85
  6
CONTINUOUS
 62
         4
100
AcDbLine
 10
1516.8786999334
 20
-100.069197966
 30
0.0
 11
1518.8786999334
 21
-98.069197966
 31
0.0
  0
LINE
  5
80
100
AcDbEntity
  8
L1_85
  6
CONTINUOUS
 62
         4
100
AcDbLine
 10
1505.965240599
 20
-106.7400166132
 30
0.0
 11
1509.9329532656
 21
-102.7723039466
 31
0.0
  0
LINE
  5
81
100
AcDbEntity
  8
L1_85
  6
CONTINUOUS
 62
         4
100
AcDbLine
 10
1517.1488796291
 20
-95.5563775832
 30
0.0
 11
1517.1950609034
 21
-95.5101963089
 31
0.0
  0
LINE
  5
82
100
AcDbEntity
  8
L1_85
  6
CONTINUOUS
 62
         4
100
AcDbLine
 10
1501.7225999119
 20
-106.7400166132
 30
0.0
 11
1505.4670157003
 21
-102.9956008249
 31
0.0
  0
LINE
  5
83
100
AcDbEntity
  8
L1_85
  6
CONTINUOUS
 62
         4
100
AcDbLine
 10
1494.4799592248
 20
-109.7400166132
 30
0.0
 11
1501.0010781349
 21
-103.2188977031
 31
0.0
  0
LINE
  5
84
100
AcDbEntity
  8
L1_85
  6
CONTINUOUS
 62
         4
100
AcDbLine
 10
1490.2373185377
 20
-109.7400166132
 30
0.0
 11
1496.5351405695
 21
-103.4421945814
 31
0.0
  0
LINE
  5
85
100
AcDbEntity
  8
L1_85
  6
CONTINUOUS
 62
         4
100
AcDbLine
 10
1485.9946778506
 20
-109.7400166132
 30
0.0
 11
1492.0692030041
 21
-103.6654914597
 31
0.0
  0
LINE
  5
86
100
AcDbEntity
  8
L1_85
  6
CONTINUOUS
 62
         4
100
AcDbLine
 10
1484.8786999334
 20
-106.6133538432
 30
0.0
 11
1487.6032654387
 21
-103.8887883379
 31
0.0
  0
ENDBLK
  5
87
100
AcDbEntity
  8
0
  6
CONTINUOUS
100
AcDbBlockEnd
  0
BLOCK
  5
A5
100
AcDbEntity
  8
0
100
AcDbBlockBegin
  2
*X1
 70
        65
 10
0.0
 20
0.0
 30
0.0
  3
*X1
  1

  0
LINE
  5
A6
100
AcDbEntity
  8
L1_85
  6
CONTINUOUS
 62
         4
100
AcDbLine
 10
1600.2444612126
 20
-20.2438010873
 30
0.0
 11
1601.8744698957
 21
-18.6137924043
 31
0.0
  0
LINE
  5
A7
100
AcDbEntity
  8
L1_85
  6
CONTINUOUS
 62
         4
100
AcDbLine
 10
1596.5518205255
 20
-19.6938010873
 30
0.0
 11
1599.5018205255
 21
-16.7438010873
 31
0.0
  0
LINE
  5
A8
100
AcDbEntity
  8
L1_85
  6
CONTINUOUS
 62
         4
100
AcDbLine
 10
1591.7591798384
 20
-20.2438010873
 30
0.0
 11
1595.2591798384
 21
-16.7438010873
 31
0.0
  0
LINE
  5
A9
100
AcDbEntity
  8
L1_85
  6
CONTINUOUS
 62
         4
100
AcDbLine
 10
1587.5165391513
 20
-20.2438010873
 30
0.0
 11
1591.0165391513
 21
-16.7438010873
 31
0.0
  0
LINE
  5
AA
100
AcDbEntity
  8
L1_85
  6
CONTINUOUS
 62
         4
100
AcDbLine
 10
1586.347909658
 20
-17.1697898935
 30
0.0
 11
1586.7738984641
 21
-16.7438010873
 31
0.0
  0
LINE
  5
AB
100
AcDbEntity
  8
L1_85
  6
CONTINUOUS
 62
         4
100
AcDbLine
 10
1579.031257777
 20
-20.2438010873
 30
0.0
 11
1581.3786999336
 21
-17.8963589307
 31
0.0
  0
LINE
  5
AC
100
AcDbEntity
  8
L1_85
  6
CONTINUOUS
 62
         4
100
AcDbLine
 10
1574.2886170899
 20
-20.7438010873
 30
0.0
 11
1577.7886170899
 21
-17.2438010873
 31
0.0
  0
LINE
  5
AD
100
AcDbEntity
  8
L1_85
  6
CONTINUOUS
 62
         4
100
AcDbLine
 10
1597.2886170899
 20
2.2561989127
 30
0.0
 11
1600.7886170899
 21
5.7561989127
 31
0.0
  0
LINE
  5
AE
100
AcDbEntity
  8
L1_85
  6
CONTINUOUS
 62
         4
100
AcDbLine
 10
1570.0459764028
 20
-20.7438010873
 30
0.0
 11
1574.5739019669
 21
-16.2158755232
 31
0.0
  0
LINE
  5
AF
100
AcDbEntity
  8
L1_85
  6
CONTINUOUS
 62
         4
100
AcDbLine
 10
1593.0459764028
 20
2.2561989127
 30
0.0
 11
1595.9959764028
 21
5.2061989127
 31
0.0
  0
LINE
  5
B0
100
AcDbEntity
  8
L1_85
  6
CONTINUOUS
 62
         4
100
AcDbLine
 10
1565.8033357157
 20
-20.7438010873
 30
0.0
 11
1573.0209876962
 21
-13.5261491067
 31
0.0
  0
LINE
  5
B1
100
AcDbEntity
  8
L1_85
  6
CONTINUOUS
 62
         4
100
AcDbLine
 10
1588.8033357157
 20
2.2561989127
 30
0.0
 11
1592.3033357157
 21
5.7561989127
 31
0.0
  0
LINE
  5
B2
100
AcDbEntity
  8
L1_85
  6
CONTINUOUS
 62
         4
100
AcDbLine
 10
1558.6263129397
 20
-23.6781831762
 30
0.0
 11
1558.8130820222
 21
-23.4914140936
 31
0.0
  0
LINE
  5
B3
100
AcDbEntity
  8
L1_85
  6
CONTINUOUS
 62
         4
100
AcDbLine
 10
1561.5606950285
 20
-20.7438010873
 30
0.0
 11
1571.0606950285
 21
-11.2438010873
 31
0.0
  0
LINE
  5
B4
100
AcDbEntity
  8
L1_85
  6
CONTINUOUS
 62
         4
100
AcDbLine
 10
1586.3786999331
 20
4.0742038173
 30
0.0
 11
1588.0606950285
 21
5.7561989127
 31
0.0
  0
LINE
  5
B5
100
AcDbEntity
  8
L1_85
  6
CONTINUOUS
 62
         4
100
AcDbLine
 10
1539.3180543414
 20
-38.7438010873
 30
0.0
 11
1542.8786999334
 21
-35.1831554953
 31
0.0
  0
LINE
  5
B6
100
AcDbEntity
  8
L1_85
  6
CONTINUOUS
 62
         4
100
AcDbLine
 10
1554.3180543414
 20
-23.7438010873
 30
0.0
 11
1566.8180543414
 21
-11.2438010873
 31
0.0
  0
LINE
  5
B7
100
AcDbEntity
  8
L1_85
  6
CONTINUOUS
 62
         4
100
AcDbLine
 10
1580.3180543414
 20
2.2561989127
 30
0.0
 11
1581.3786999336
 21
3.3168445049
 31
0.0
  0
LINE
  5
B8
100
AcDbEntity
  8
L1_85
  6
CONTINUOUS
 62
         4
100
AcDbLine
 10
1537.0919507647
 20
-36.727263977
 30
0.0
 11
1542.8786999334
 21
-30.9405148082
 31
0.0
  0
LINE
  5
B9
100
AcDbEntity
  8
L1_85
  6
CONTINUOUS
 62
         4
100
AcDbLine
 10
1550.0754136543
 20
-23.7438010873
 30
0.0
 11
1562.5754136543
 21
-11.2438010873
 31
0.0
  0
LINE
  5
BA
100
AcDbEntity
  8
L1_85
  6
CONTINUOUS
 62
         4
100
AcDbLine
 10
1570.5754136543
 20
-3.2438010873
 30
0.0
 11
1573.2439585896
 21
-0.575256152
 31
0.0
  0
LINE
  5
BB
100
AcDbEntity
  8
L1_85
  6
CONTINUOUS
 62
         4
100
AcDbLine
 10
1576.5754136543
 20
2.7561989127
 30
0.0
 11
1579.5754136543
 21
5.7561989127
 31
0.0
  0
LINE
  5
BC
100
AcDbEntity
  8
L1_85
  6
CONTINUOUS
 62
         4
100
AcDbLine
 10
1530.8327729672
 20
-38.7438010873
 30
0.0
 11
1532.414290339
 21
-37.1622837155
 31
0.0
  0
LINE
  5
BD
100
AcDbEntity
  8
L1_85
  6
CONTINUOUS
 62
         4
100
AcDbLine
 10
1534.8327729672
 20
-34.7438010873
 30
0.0
 11
1542.8790569898
 21
-26.6975170647
 31
0.0
  0
LINE
  5
BE
100
AcDbEntity
  8
L1_85
  6
CONTINUOUS
 62
         4
100
AcDbLine
 10
1545.8324159108
 20
-23.7441581437
 30
0.0
 11
1558.3327729672
 21
-11.2438010873
 31
0.0
  0
LINE
  5
BF
100
AcDbEntity
  8
L1_85
  6
CONTINUOUS
 62
         4
100
AcDbLine
 10
1566.3327729672
 20
-3.2438010873
 30
0.0
 11
1575.8327729672
 21
6.2561989127
 31
0.0
  0
LINE
  5
C0
100
AcDbEntity
  8
L1_85
  6
CONTINUOUS
 62
         4
100
AcDbLine
 10
1526.5901322801
 20
-38.7438010873
 30
0.0
 11
1554.0901322801
 21
-11.2438010873
 31
0.0
  0
LINE
  5
C1
100
AcDbEntity
  8
L1_85
  6
CONTINUOUS
 62
         4
100
AcDbLine
 10
1562.0901322801
 20
-3.2438010873
 30
0.0
 11
1571.5901322801
 21
6.2561989127
 31
0.0
  0
LINE
  5
C2
100
AcDbEntity
  8
L1_85
  6
CONTINUOUS
 62
         4
100
AcDbLine
 10
1522.3474915929
 20
-38.7438010873
 30
0.0
 11
1549.8474915929
 21
-11.2438010873
 31
0.0
  0
LINE
  5
C3
100
AcDbEntity
  8
L1_85
  6
CONTINUOUS
 62
         4
100
AcDbLine
 10
1557.8474915929
 20
-3.2438010873
 30
0.0
 11
1567.3474915929
 21
6.2561989127
 31
0.0
  0
LINE
  5
C4
100
AcDbEntity
  8
L1_85
  6
CONTINUOUS
 62
         4
100
AcDbLine
 10
1518.1048509058
 20
-38.7438010873
 30
0.0
 11
1545.6048509058
 21
-11.2438010873
 31
0.0
  0
LINE
  5
C5
100
AcDbEntity
  8
L1_85
  6
CONTINUOUS
 62
         4
100
AcDbLine
 10
1553.6048509058
 20
-3.2438010873
 30
0.0
 11
1563.1048509058
 21
6.2561989127
 31
0.0
  0
LINE
  5
C6
100
AcDbEntity
  8
L1_85
  6
CONTINUOUS
 62
         4
100
AcDbLine
 10
1516.8786999334
 20
-35.7273113726
 30
0.0
 11
1535.8786999334
 21
-16.7273113726
 31
0.0
  0
LINE
  5
C7
100
AcDbEntity
  8
L1_85
  6
CONTINUOUS
 62
         4
100
AcDbLine
 10
1538.8786999334
 20
-13.7273113726
 30
0.0
 11
1541.3622102187
 21
-11.2438010873
 31
0.0
  0
LINE
  5
C8
100
AcDbEntity
  8
L1_85
  6
CONTINUOUS
 62
         4
100
AcDbLine
 10
1549.3622102187
 20
-3.2438010873
 30
0.0
 11
1559.0169978335
 21
6.4109865274
 31
0.0
  0
LINE
  5
C9
100
AcDbEntity
  8
L1_85
  6
CONTINUOUS
 62
         4
100
AcDbLine
 10
1516.861205002
 20
-31.5021656169
 30
0.0
 11
1524.1195695316
 21
-24.2438010873
 31
0.0
  0
LINE
  5
CA
100
AcDbEntity
  8
L1_85
  6
CONTINUOUS
 62
         4
100
AcDbLine
 10
1526.8786999334
 20
-21.4846706855
 30
0.0
 11
1532.6195695316
 21
-15.7438010873
 31
0.0
  0
LINE
  5
CB
100
AcDbEntity
  8
L1_85
  6
CONTINUOUS
 62
         4
100
AcDbLine
 10
1545.1195695316
 20
-3.2438010873
 30
0.0
 11
1557.6195695316
 21
9.2561989127
 31
0.0
  0
LINE
  5
CC
100
AcDbEntity
  8
L1_85
  6
CONTINUOUS
 62
         4
100
AcDbLine
 10
1512.7674893725
 20
-31.3532405593
 30
0.0
 11
1519.8769288445
 21
-24.2438010873
 31
0.0
  0
LINE
  5
CD
100
AcDbEntity
  8
L1_85
  6
CONTINUOUS
 62
         4
100
AcDbLine
 10
1526.8786999334
 20
-17.2420299984
 30
0.0
 11
1528.0575221939
 21
-16.0632077379
 31
0.0
  0
LINE
  5
CE
100
AcDbEntity
  8
L1_85
  6
CONTINUOUS
 62
         4
100
AcDbLine
 10
1540.8769288445
 20
-3.2438010873
 30
0.0
 11
1553.3769288445
 21
9.2561989127
 31
0.0
  0
LINE
  5
CF
100
AcDbEntity
  8
L1_85
  6
CONTINUOUS
 62
         4
100
AcDbLine
 10
1508.7268791943
 20
-31.1512100504
 30
0.0
 11
1512.9887977374
 21
-26.8892915073
 31
0.0
  0
LINE
  5
D0
100
AcDbEntity
  8
L1_85
  6
CONTINUOUS
 62
         4
100
AcDbLine
 10
1538.8786999334
 20
-0.9993893113
 30
0.0
 11
1549.1342881573
 21
9.2561989127
 31
0.0
  0
LINE
  5
D1
100
AcDbEntity
  8
L1_85
  6
CONTINUOUS
 62
         4
100
AcDbLine
 10
1504.6862690161
 20
-30.9491795415
 30
0.0
 11
1508.3916474702
 21
-27.2438010873
 31
0.0
  0
LINE
  5
D2
100
AcDbEntity
  8
L1_85
  6
CONTINUOUS
 62
         4
100
AcDbLine
 10
1537.8916474702
 20
2.2561989127
 30
0.0
 11
1545.017819811
 21
9.3823712535
 31
0.0
  0
LINE
  5
D3
100
AcDbEntity
  8
L1_85
  6
CONTINUOUS
 62
         4
100
AcDbLine
 10
1500.6456588379
 20
-30.7471490326
 30
0.0
 11
1504.1490067831
 21
-27.2438010873
 31
0.0
  0
LINE
  5
D4
100
AcDbEntity
  8
L1_85
  6
CONTINUOUS
 62
         4
100
AcDbLine
 10
1532.6490067831
 20
1.2561989127
 30
0.0
 11
1542.9591048678
 21
11.5662969973
 31
0.0
  0
LINE
  5
D5
100
AcDbEntity
  8
L1_85
  6
CONTINUOUS
 62
         4
100
AcDbLine
 10
1496.6050486597
 20
-30.5451185236
 30
0.0
 11
1499.9086648103
 21
-27.241502373
 31
0.0
  0
LINE
  5
D6
100
AcDbEntity
  8
L1_85
  6
CONTINUOUS
 62
         4
100
AcDbLine
 10
1528.4811760682
 20
1.3310088849
 30
0.0
 11
1542.8786999334
 21
15.7285327501
 31
0.0
  0
LINE
  5
D7
100
AcDbEntity
  8
L1_85
  6
CONTINUOUS
 62
         4
100
AcDbLine
 10
1492.5644384815
 20
-30.3430880147
 30
0.0
 11
1498.1685589931
 21
-24.7389675031
 31
0.0
  0
LINE
  5
D8
100
AcDbEntity
  8
L1_85
  6
CONTINUOUS
 62
         4
100
AcDbLine
 10
1526.8786999334
 20
3.9711734372
 30
0.0
 11
1542.8786999334
 21
19.9711734372
 31
0.0
  0
LINE
  5
D9
100
AcDbEntity
  8
L1_85
  6
CONTINUOUS
 62
         4
100
AcDbLine
 10
1488.5238283033
 20
-30.1410575058
 30
0.0
 11
1494.4210847217
 21
-24.2438010873
 31
0.0
  0
LINE
  5
DA
100
AcDbEntity
  8
L1_85
  6
CONTINUOUS
 62
         4
100
AcDbLine
 10
1526.8786999334
 20
8.2138141243
 30
0.0
 11
1542.6066814633
 21
23.9417956543
 31
0.0
  0
LINE
  5
DB
100
AcDbEntity
  8
L1_85
  6
CONTINUOUS
 62
         4
100
AcDbLine
 10
1485.027027913
 20
-29.395217209
 30
0.0
 11
1490.1784440346
 21
-24.2438010873
 31
0.0
  0
LINE
  5
DC
100
AcDbEntity
  8
L1_85
  6
CONTINUOUS
 62
         4
100
AcDbLine
 10
1524.1784440346
 20
9.7561989127
 30
0.0
 11
1534.6784440346
 21
20.2561989127
 31
0.0
  0
LINE
  5
DD
100
AcDbEntity
  8
L1_85
  6
CONTINUOUS
 62
         4
100
AcDbLine
 10
1537.6794015754
 20
23.2571564534
 30
0.0
 11
1538.6784440346
 21
24.2561989127
 31
0.0
  0
LINE
  5
DE
100
AcDbEntity
  8
L1_85
  6
CONTINUOUS
 62
         4
100
AcDbLine
 10
1484.8786999334
 20
-25.3009045014
 30
0.0
 11
1485.9358033475
 21
-24.2438010873
 31
0.0
  0
LINE
  5
DF
100
AcDbEntity
  8
L1_85
  6
CONTINUOUS
 62
         4
100
AcDbLine
 10
1519.9358033475
 20
9.7561989127
 30
0.0
 11
1532.5753399196
 21
22.3957354847
 31
0.0
  0
LINE
  5
E0
100
AcDbEntity
  8
L1_85
  6
CONTINUOUS
 62
         4
100
AcDbLine
 10
1516.3202084207
 20
10.383244673
 30
0.0
 11
1525.5931626604
 21
19.6561989127
 31
0.0
  0
LINE
  5
E1
100
AcDbEntity
  8
L1_85
  6
CONTINUOUS
 62
         4
100
AcDbLine
 10
1528.8786999334
 20
22.9417361857
 30
0.0
 11
1530.1931626604
 21
24.2561989127
 31
0.0
  0
LINE
  5
E2
100
AcDbEntity
  8
L1_85
  6
CONTINUOUS
 62
         4
100
AcDbLine
 10
1513.7980848757
 20
12.1037618151
 30
0.0
 11
1521.3505219733
 21
19.6561989127
 31
0.0
  0
LINE
  5
E3
100
AcDbEntity
  8
L1_85
  6
CONTINUOUS
 62
         4
100
AcDbLine
 10
1510.2078812862
 20
12.7561989127
 30
0.0
 11
1514.398890831
 21
16.9472084576
 31
0.0
  0
LINE
  5
E4
100
AcDbEntity
  8
L1_85
  6
CONTINUOUS
 62
         4
100
AcDbLine
 10
1516.8786999334
 20
19.4270175599
 30
0.0
 11
1518.8786999334
 21
21.4270175599
 31
0.0
  0
LINE
  5
E5
100
AcDbEntity
  8
L1_85
  6
CONTINUOUS
 62
         4
100
AcDbLine
 10
1505.965240599
 20
12.7561989127
 30
0.0
 11
1509.9329532656
 21
16.7239115793
 31
0.0
  0
LINE
  5
E6
100
AcDbEntity
  8
L1_85
  6
CONTINUOUS
 62
         4
100
AcDbLine
 10
1517.1488796291
 20
23.9398379427
 30
0.0
 11
1517.1950609034
 21
23.986019217
 31
0.0
  0
LINE
  5
E7
100
AcDbEntity
  8
L1_85
  6
CONTINUOUS
 62
         4
100
AcDbLine
 10
1501.7225999119
 20
12.7561989127
 30
0.0
 11
1505.4670157003
 21
16.500614701
 31
0.0
  0
LINE
  5
E8
100
AcDbEntity
  8
L1_85
  6
CONTINUOUS
 62
         4
100
AcDbLine
 10
1494.4799592248
 20
9.7561989127
 30
0.0
 11
1501.0010781349
 21
16.2773178227
 31
0.0
  0
LINE
  5
E9
100
AcDbEntity
  8
L1_85
  6
CONTINUOUS
 62
         4
100
AcDbLine
 10
1490.2373185377
 20
9.7561989127
 30
0.0
 11
1496.5351405695
 21
16.0540209445
 31
0.0
  0
LINE
  5
EA
100
AcDbEntity
  8
L1_85
  6
CONTINUOUS
 62
         4
100
AcDbLine
 10
1485.9946778506
 20
9.7561989127
 30
0.0
 11
1492.0692030041
 21
15.8307240662
 31
0.0
  0
LINE
  5
EB
100
AcDbEntity
  8
L1_85
  6
CONTINUOUS
 62
         4
100
AcDbLine
 10
1484.8786999334
 20
12.8828616826
 30
0.0
 11
1487.6032654387
 21
15.6074271879
 31
0.0
  0
ENDBLK
  5
EC
100
AcDbEntity
  8
0
  6
CONTINUOUS
100
AcDbBlockEnd
  0
BLOCK
  5
16D
100
AcDbEntity
  8
0
100
AcDbBlockBegin
  2
*D2
 70
        65
 10
0.0
 20
0.0
 30
0.0
  3
*D2
  1

  0
POINT
  5
170
100
AcDbEntity
  8
DEFPOINTS
  6
CONTINUOUS
 62
         0
100
AcDbPoint
 10
1630.7931640724
 20
128.7524144385
 30
0.0
  0
POINT
  5
171
100
AcDbEntity
  8
DEFPOINTS
  6
CONTINUOUS
 62
         0
100
AcDbPoint
 10
1558.3786999334
 20
128.7524144385
 30
0.0
  0
POINT
  5
172
100
AcDbEntity
  8
DEFPOINTS
  6
CONTINUOUS
 62
         0
100
AcDbPoint
 10
1558.3786999334
 20
95.7524144385
 30
0.0
  0
LINE
  5
173
100
AcDbEntity
  8
L1_85
  6
CONTINUOUS
 62
         4
100
AcDbLine
 10
1560.1286999334
 20
128.7524144385
 30
0.0
 11
1631.6681640724
 21
128.7524144385
 31
0.0
  0
LINE
  5
174
100
AcDbEntity
  8
L1_85
  6
CONTINUOUS
 62
         4
100
AcDbLine
 10
1560.1286999334
 20
95.7524144385
 30
0.0
 11
1631.6681640724
 21
95.7524144385
 31
0.0
  0
LINE
  5
175
100
AcDbEntity
  8
L1_85
  6
CONTINUOUS
 62
         4
100
AcDbLine
 10
1630.7931640724
 20
128.7524144385
 30
0.0
 11
1630.7931640724
 21
95.7524144385
 31
0.0
  0
SOLID
  5
176
100
AcDbEntity
  8
L1_85
  6
CONTINUOUS
 62
         4
100
AcDbTrace
 10
1630.7931640724
 20
128.7524144385
 30
0.0
 11
1631.3181640724
 21
125.2524144385
 31
0.0
 12
1630.2681640724
 22
125.2524144385
 32
0.0
 13
1630.7931640724
 23
128.7524144385
 33
0.0
  0
SOLID
  5
177
100
AcDbEntity
  8
L1_85
  6
CONTINUOUS
 62
         4
100
AcDbTrace
 10
1630.7931640724
 20
95.7524144385
 30
0.0
 11
1630.2681640724
 21
99.2524144385
 31
0.0
 12
1631.3181640724
 22
99.2524144385
 32
0.0
 13
1630.7931640724
 23
95.7524144385
 33
0.0
  0
TEXT
  5
179
100
AcDbEntity
  8
L1_85
  6
CONTINUOUS
 62
         4
100
AcDbText
 10
1626.7331640724
 20
100.6783988199
 30
0.0
 40
3.5
  1
崷33
 50
90.0
  7
BOX
100
AcDbText
  0
ENDBLK
  5
17A
100
AcDbEntity
  8
0
  6
CONTINUOUS
100
AcDbBlockEnd
  0
BLOCK
  5
1B3
100
AcDbEntity
  8
0
100
AcDbBlockBegin
  2
*D3
 70
        65
 10
0.0
 20
0.0
 30
0.0
  3
*D3
  1

  0
POINT
  5
1B5
100
AcDbEntity
  8
DEFPOINTS
  6
CONTINUOUS
 62
         0
100
AcDbPoint
 10
1601.8786999334
 20
207.8076332585
 30
0.0
  0
POINT
  5
1B6
100
AcDbEntity
  8
DEFPOINTS
  6
CONTINUOUS
 62
         0
100
AcDbPoint
 10
1601.8786999334
 20
112.2524144385
 30
0.0
  0
POINT
  5
1B7
100
AcDbEntity
  8
DEFPOINTS
  6
CONTINUOUS
 62
         0
100
AcDbPoint
 10
1516.8786999334
 20
142.7524144385
 30
0.0
  0
LINE
  5
1B8
100
AcDbEntity
  8
L1_85
  6
CONTINUOUS
 62
         4
100
AcDbLine
 10
1601.8786999334
 20
114.0024144385
 30
0.0
 11
1601.8786999334
 21
208.6826332585
 31
0.0
  0
LINE
  5
1B9
100
AcDbEntity
  8
L1_85
  6
CONTINUOUS
 62
         4
100
AcDbLine
 10
1516.8786999334
 20
144.5024144385
 30
0.0
 11
1516.8786999334
 21
208.6826332585
 31
0.0
  0
LINE
  5
1BA
100
AcDbEntity
  8
L1_85
  6
CONTINUOUS
 62
         4
100
AcDbLine
 10
1601.8786999334
 20
207.8076332585
 30
0.0
 11
1516.8786999334
 21
207.8076332585
 31
0.0
  0
SOLID
  5
1BB
100
AcDbEntity
  8
L1_85
  6
CONTINUOUS
 62
         4
100
AcDbTrace
 10
1601.8786999334
 20
207.8076332585
 30
0.0
 11
1598.3786999334
 21
207.2826332585
 31
0.0
 12
1598.3786999334
 22
208.3326332585
 32
0.0
 13
1601.8786999334
 23
207.8076332585
 33
0.0
  0
SOLID
  5
1BC
100
AcDbEntity
  8
L1_85
  6
CONTINUOUS
 62
         4
100
AcDbTrace
 10
1516.8786999334
 20
207.8076332585
 30
0.0
 11
1520.3786999334
 21
208.3326332585
 31
0.0
 12
1520.3786999334
 22
207.2826332585
 32
0.0
 13
1516.8786999334
 23
207.8076332585
 33
0.0
  0
TEXT
  5
1BE
100
AcDbEntity
  8
L1_85
  6
CONTINUOUS
 62
         4
100
AcDbText
 10
1558.9220013054
 20
210.4326332585
 30
0.0
 40
3.5
  1
85
  7
BOX
100
AcDbText
  0
ENDBLK
  5
1BF
100
AcDbEntity
  8
0
  6
CONTINUOUS
100
AcDbBlockEnd
  0
BLOCK
  5
1C1
100
AcDbEntity
  8
0
100
AcDbBlockBegin
  2
*D4
 70
        65
 10
0.0
 20
0.0
 30
0.0
  3
*D4
  1

  0
POINT
  5
1C3
100
AcDbEntity
  8
DEFPOINTS
  6
CONTINUOUS
 62
         0
100
AcDbPoint
 10
1484.8786999334
 20
217.9182063284
 30
0.0
  0
POINT
  5
1C4
100
AcDbEntity
  8
DEFPOINTS
  6
CONTINUOUS
 62
         0
100
AcDbPoint
 10
1484.8786999334
 20
133.8259153749
 30
0.0
  0
POINT
  5
1C5
100
AcDbEntity
  8
DEFPOINTS
  6
CONTINUOUS
 62
         0
100
AcDbPoint
 10
1601.8786999334
 20
112.2524144385
 30
0.0
  0
LINE
  5
1C6
100
AcDbEntity
  8
L1_85
  6
CONTINUOUS
 62
         4
100
AcDbLine
 10
1484.8786999334
 20
135.5759153749
 30
0.0
 11
1484.8786999334
 21
218.7932063284
 31
0.0
  0
LINE
  5
1C7
100
AcDbEntity
  8
L1_85
  6
CONTINUOUS
 62
         4
100
AcDbLine
 10
1601.8786999334
 20
114.0024144385
 30
0.0
 11
1601.8786999334
 21
218.7932063284
 31
0.0
  0
LINE
  5
1C8
100
AcDbEntity
  8
L1_85
  6
CONTINUOUS
 62
         4
100
AcDbLine
 10
1484.8786999334
 20
217.9182063284
 30
0.0
 11
1601.8786999334
 21
217.9182063284
 31
0.0
  0
SOLID
  5
1C9
100
AcDbEntity
  8
L1_85
  6
CONTINUOUS
 62
         4
100
AcDbTrace
 10
1484.8786999334
 20
217.9182063284
 30
0.0
 11
1488.3786999334
 21
218.4432063284
 31
0.0
 12
1488.3786999334
 22
217.3932063284
 32
0.0
 13
1484.8786999334
 23
217.9182063284
 33
0.0
  0
SOLID
  5
1CA
100
AcDbEntity
  8
L1_85
  6
CONTINUOUS
 62
         4
100
AcDbTrace
 10
1601.8786999334
 20
217.9182063284
 30
0.0
 11
1598.3786999334
 21
217.3932063284
 31
0.0
 12
1598.3786999334
 22
218.4432063284
 32
0.0
 13
1601.8786999334
 23
217.9182063284
 33
0.0
  0
TEXT
  5
1CC
100
AcDbEntity
  8
L1_85
  6
CONTINUOUS
 62
         4
100
AcDbText
 10
1537.2397286817
 20
220.5432063284
 30
0.0
 40
3.5
  1
117
  7
BOX
100
AcDbText
  0
ENDBLK
  5
1CD
100
AcDbEntity
  8
0
  6
CONTINUOUS
100
AcDbBlockEnd
  0
BLOCK
  5
407
100
AcDbEntity
  8
0
100
AcDbBlockBegin
  2
*D5
 70
        65
 10
0.0
 20
0.0
 30
0.0
  3
*D5
  1

  0
POINT
  5
409
100
AcDbEntity
  8
DEFPOINTS
  6
CONTINUOUS
 62
         0
100
AcDbPoint
 10
1778.1222703127
 20
-77.897327014
 30
0.0
  0
POINT
  5
40A
100
AcDbEntity
  8
DEFPOINTS
  6
CONTINUOUS
 62
         0
100
AcDbPoint
 10
1782.8744744323
 20
-78.2026137667
 30
0.0
  0
LINE
  5
40B
100
AcDbEntity
  8
L1_85
  6
CONTINUOUS
 62
         4
100
AcDbLine
 10
1782.8744744323
 20
-78.2026137667
 30
0.0
 11
1812.3076025234
 21
-80.0934298747
 31
0.0
  0
SOLID
  5
40C
100
AcDbEntity
  8
L1_85
  6
CONTINUOUS
 62
         4
100
AcDbTrace
 10
1782.8744744323
 20
-78.2026137667
 30
0.0
 11
1786.4009317958
 21
-77.9030750166
 31
0.0
 12
1786.3336174131
 22
-78.9509150682
 32
0.0
 13
1782.8744744323
 23
-78.2026137667
 33
0.0
  0
LINE
  5
40D
100
AcDbEntity
  8
L1_85
  6
CONTINUOUS
 62
         4
100
AcDbLine
 10
1778.1222703127
 20
-77.897327014
 30
0.0
 11
1771.1366699682
 21
-77.4485644627
 31
0.0
  0
SOLID
  5
40E
100
AcDbEntity
  8
L1_85
  6
CONTINUOUS
 62
         4
100
AcDbTrace
 10
1778.1222703127
 20
-77.897327014
 30
0.0
 11
1774.5958129491
 21
-78.1968657642
 31
0.0
 12
1774.6631273318
 22
-77.1490257125
 32
0.0
 13
1778.1222703127
 23
-77.897327014
 33
0.0
  0
LINE
  5
40F
100
AcDbEntity
  8
L1_85
  6
CONTINUOUS
 62
         4
100
AcDbLine
 10
1778.1222703127
 20
-77.897327014
 30
0.0
 11
1782.8744744323
 21
-78.2026137667
 31
0.0
  0
TEXT
  5
411
100
AcDbEntity
  8
L1_85
  6
CONTINUOUS
 62
         4
100
AcDbText
 10
1785.1602740826
 20
-74.1460820308
 30
0.0
 40
3.5
  1
崷4.762
 50
-3.6756922164
  7
BOX
100
AcDbText
  0
ENDBLK
  5
412
100
AcDbEntity
  8
0
  6
CONTINUOUS
100
AcDbBlockEnd
  0
BLOCK
  5
424
100
AcDbEntity
  8
0
100
AcDbBlockBegin
  2
*D6
 70
        65
 10
0.0
 20
0.0
 30
0.0
  3
*D6
  1

  0
POINT
  5
426
100
AcDbEntity
  8
DEFPOINTS
  6
CONTINUOUS
 62
         0
100
AcDbPoint
 10
1772.4861868451
 20
-152.516409953
 30
0.0
  0
POINT
  5
427
100
AcDbEntity
  8
DEFPOINTS
  6
CONTINUOUS
 62
         0
100
AcDbPoint
 10
1795.1344211379
 20
-147.3411507884
 30
0.0
  0
LINE
  5
428
100
AcDbEntity
  8
L1_85
  6
CONTINUOUS
 62
         4
100
AcDbLine
 10
1795.1344211379
 20
-147.3411507884
 30
0.0
 11
1783.8103039915
 21
-149.9287803707
 31
0.0
  0
SOLID
  5
429
100
AcDbEntity
  8
L1_85
  6
CONTINUOUS
 62
         4
100
AcDbTrace
 10
1795.1344211379
 20
-147.3411507884
 30
0.0
 11
1791.839319168
 21
-148.6326336603
 31
0.0
 12
1791.6054167006
 22
-147.6090176993
 32
0.0
 13
1795.1344211379
 23
-147.3411507884
 33
0.0
  0
LINE
  5
42A
100
AcDbEntity
  8
L1_85
  6
CONTINUOUS
 62
         4
100
AcDbLine
 10
1783.8103039915
 20
-149.9287803707
 30
0.0
 11
1772.4861868451
 21
-152.516409953
 31
0.0
  0
SOLID
  5
42B
100
AcDbEntity
  8
L1_85
  6
CONTINUOUS
 62
         4
100
AcDbTrace
 10
1772.4861868451
 20
-152.516409953
 30
0.0
 11
1775.781288815
 21
-151.2249270811
 31
0.0
 12
1776.0151912824
 22
-152.2485430422
 32
0.0
 13
1772.4861868451
 23
-152.516409953
 33
0.0
  0
LINE
  5
42C
100
AcDbEntity
  8
L1_85
  6
CONTINUOUS
 62
         4
100
AcDbLine
 10
1795.1344211379
 20
-147.3411507884
 30
0.0
 11
1822.8209995711
 21
-141.0145993707
 31
0.0
  0
TEXT
  5
42E
100
AcDbEntity
  8
L1_85
  6
CONTINUOUS
 62
         4
100
AcDbText
 10
1798.7165140545
 20
-142.0154406005
 30
0.0
 40
3.5
  1
崷24.2
 50
12.8714430401
  7
BOX
100
AcDbText
  0
ENDBLK
  5
42F
100
AcDbEntity
  8
0
  6
CONTINUOUS
100
AcDbBlockEnd
  0
BLOCK
  5
454
100
AcDbEntity
  8
0
100
AcDbBlockBegin
  2
*D7
 70
        65
 10
0.0
 20
0.0
 30
0.0
  3
*D7
  1

  0
POINT
  5
456
100
AcDbEntity
  8
DEFPOINTS
  6
CONTINUOUS
 62
         0
100
AcDbPoint
 10
1742.865000633
 20
-61.3694240902
 30
0.0
  0
POINT
  5
457
100
AcDbEntity
  8
DEFPOINTS
  6
CONTINUOUS
 62
         0
100
AcDbPoint
 10
1742.865000633
 20
-70.8488885075
 30
0.0
  0
POINT
  5
458
100
AcDbEntity
  8
DEFPOINTS
  6
CONTINUOUS
 62
         0
100
AcDbPoint
 10
1697.865000633
 20
-70.8488885075
 30
0.0
  0
LINE
  5
459
100
AcDbEntity
  8
L1_85
  6
CONTINUOUS
 62
         4
100
AcDbLine
 10
1742.865000633
 20
-69.0988885075
 30
0.0
 11
1742.865000633
 21
-60.4944240902
 31
0.0
  0
LINE
  5
45A
100
AcDbEntity
  8
L1_85
  6
CONTINUOUS
 62
         4
100
AcDbLine
 10
1697.865000633
 20
-69.0988885075
 30
0.0
 11
1697.865000633
 21
-60.4944240902
 31
0.0
  0
LINE
  5
45B
100
AcDbEntity
  8
L1_85
  6
CONTINUOUS
 62
         4
100
AcDbLine
 10
1742.865000633
 20
-61.3694240902
 30
0.0
 11
1697.865000633
 21
-61.3694240902
 31
0.0
  0
SOLID
  5
45C
100
AcDbEntity
  8
L1_85
  6
CONTINUOUS
 62
         4
100
AcDbTrace
 10
1742.865000633
 20
-61.3694240902
 30
0.0
 11
1739.365000633
 21
-61.8944240902
 31
0.0
 12
1739.365000633
 22
-60.8444240902
 32
0.0
 13
1742.865000633
 23
-61.3694240902
 33
0.0
  0
SOLID
  5
45D
100
AcDbEntity
  8
L1_85
  6
CONTINUOUS
 62
         4
100
AcDbTrace
 10
1697.865000633
 20
-61.3694240902
 30
0.0
 11
1701.365000633
 21
-60.8444240902
 31
0.0
 12
1701.365000633
 22
-61.8944240902
 32
0.0
 13
1697.865000633
 23
-61.3694240902
 33
0.0
  0
TEXT
  5
45F
100
AcDbEntity
  8
L1_85
  6
CONTINUOUS
 62
         4
100
AcDbText
 10
1716.5733339663
 20
-57.3094240902
 30
0.0
 40
3.5
  1
45
  7
BOX
100
AcDbText
  0
ENDBLK
  5
460
100
AcDbEntity
  8
0
  6
CONTINUOUS
100
AcDbBlockEnd
  0
BLOCK
  5
48A
100
AcDbEntity
  8
0
100
AcDbBlockBegin
  2
*D8
 70
        65
 10
0.0
 20
0.0
 30
0.0
  3
*D8
  1

  0
POINT
  5
48C
100
AcDbEntity
  8
DEFPOINTS
  6
CONTINUOUS
 62
         0
100
AcDbPoint
 10
1689.0402964606
 20
-69.3488885075
 30
0.0
  0
POINT
  5
48D
100
AcDbEntity
  8
DEFPOINTS
  6
CONTINUOUS
 62
         0
100
AcDbPoint
 10
1703.365000633
 20
-69.3488885075
 30
0.0
  0
POINT
  5
48E
100
AcDbEntity
  8
DEFPOINTS
  6
CONTINUOUS
 62
         0
100
AcDbPoint
 10
1703.365000633
 20
-109.3488885075
 30
0.0
  0
LINE
  5
48F
100
AcDbEntity
  8
L1_85
  6
CONTINUOUS
 62
         4
100
AcDbLine
 10
1701.615000633
 20
-69.3488885075
 30
0.0
 11
1688.1652964606
 21
-69.3488885075
 31
0.0
  0
LINE
  5
490
100
AcDbEntity
  8
L1_85
  6
CONTINUOUS
 62
         4
100
AcDbLine
 10
1701.615000633
 20
-109.3488885075
 30
0.0
 11
1688.1652964606
 21
-109.3488885075
 31
0.0
  0
LINE
  5
491
100
AcDbEntity
  8
L1_85
  6
CONTINUOUS
 62
         4
100
AcDbLine
 10
1689.0402964606
 20
-69.3488885075
 30
0.0
 11
1689.0402964606
 21
-109.3488885075
 31
0.0
  0
SOLID
  5
492
100
AcDbEntity
  8
L1_85
  6
CONTINUOUS
 62
         4
100
AcDbTrace
 10
1689.0402964606
 20
-69.3488885075
 30
0.0
 11
1689.5652964606
 21
-72.8488885075
 31
0.0
 12
1688.5152964606
 22
-72.8488885075
 32
0.0
 13
1689.0402964606
 23
-69.3488885075
 33
0.0
  0
SOLID
  5
493
100
AcDbEntity
  8
L1_85
  6
CONTINUOUS
 62
         4
100
AcDbTrace
 10
1689.0402964606
 20
-109.3488885075
 30
0.0
 11
1688.5152964606
 21
-105.8488885075
 31
0.0
 12
1689.5652964606
 22
-105.8488885075
 32
0.0
 13
1689.0402964606
 23
-109.3488885075
 33
0.0
  0
TEXT
  5
495
100
AcDbEntity
  8
L1_85
  6
CONTINUOUS
 62
         4
100
AcDbText
 10
1684.9802964606
 20
-96.6405551741
 30
0.0
 40
3.5
  1
崷40
 50
90.0
  7
BOX
100
AcDbText
  0
ENDBLK
  5
496
100
AcDbEntity
  8
0
  6
CONTINUOUS
100
AcDbBlockEnd
  0
ENDSEC
  0
SECTION
  2
ENTITIES
  0
ARC
  5
25
100
AcDbEntity
  8
L1_85
  6
CONTINUOUS
 62
         7
100
AcDbCircle
 10
1597.8786999334
 20
-122.4900166132
 30
0.0
 40
1.0
100
AcDbArc
 50
90.0
 51
180.0
  0
ARC
  5
26
100
AcDbEntity
  8
L1_85
  6
CONTINUOUS
 62
         7
100
AcDbCircle
 10
1597.8786999334
 20
-130.9900166132
 30
0.0
 40
1.0
100
AcDbArc
 50
180.0
 51
270.0
  0
LINE
  5
27
100
AcDbEntity
  8
L1_85
  6
CONTINUOUS
 62
         7
100
AcDbLine
 10
1571.7032734529
 20
-122.7400166132
 30
0.0
 11
1571.7032734529
 21
-130.7400166132
 31
0.0
  0
LINE
  5
28
100
AcDbEntity
  8
L1_85
  6
CONTINUOUS
 62
         7
100
AcDbLine
 10
1601.3786999334
 20
-131.9900166132
 30
0.0
 11
1601.8786999334
 21
-132.4900166132
 31
0.0
  0
LINE
  5
29
100
AcDbEntity
  8
L1_85
  6
CONTINUOUS
 62
         7
100
AcDbLine
 10
1601.8786999334
 20
-120.9900166132
 30
0.0
 11
1601.3786999334
 21
-121.4900166132
 31
0.0
  0
LINE
  5
2A
100
AcDbEntity
  8
L1_85
  6
CONTINUOUS
 62
         7
100
AcDbLine
 10
1596.8786999334
 20
-130.9900166132
 30
0.0
 11
1596.8786999334
 21
-122.4900166132
 31
0.0
  0
LINE
  5
2B
100
AcDbEntity
  8
L1_85
  6
CONTINUOUS
 62
         7
100
AcDbLine
 10
1601.3786999334
 20
-121.4900166132
 30
0.0
 11
1597.8786999334
 21
-121.4900166132
 31
0.0
  0
LINE
  5
2C
100
AcDbEntity
  8
L1_85
  6
CONTINUOUS
 62
         7
100
AcDbLine
 10
1601.3786999334
 20
-131.9900166132
 30
0.0
 11
1597.8786999334
 21
-131.9900166132
 31
0.0
  0
LINE
  5
2D
100
AcDbEntity
  8
L1_85
  6
CONTINUOUS
 62
         7
100
AcDbLine
 10
1586.3786999331
 20
-136.7193357404
 30
0.0
 11
1586.3786999331
 21
-139.6400166132
 31
0.0
  0
LINE
  5
2E
100
AcDbEntity
  8
L1_85
  6
CONTINUOUS
 62
         7
100
AcDbLine
 10
1586.3786999331
 20
-139.6400166132
 30
0.0
 11
1586.4786999331
 21
-139.7400166132
 31
0.0
  0
LINE
  5
2F
100
AcDbEntity
  8
L1_85
  6
CONTINUOUS
 62
         7
100
AcDbLine
 10
1586.1596999332
 20
-136.2400166136
 30
0.0
 11
1586.1596999332
 21
-136.3400166135
 31
0.0
  0
LINE
  5
30
100
AcDbEntity
  8
L1_85
  6
CONTINUOUS
 62
         7
100
AcDbLine
 10
1586.1596999332
 20
-136.3400166135
 30
0.0
 11
1586.3786999331
 21
-136.7193357404
 31
0.0
  0
LINE
  5
31
100
AcDbEntity
  8
L1_85
  6
CONTINUOUS
 62
         7
100
AcDbLine
 10
1581.3786999336
 20
-136.7193357404
 30
0.0
 11
1581.3786999336
 21
-139.6400166132
 31
0.0
  0
LINE
  5
32
100
AcDbEntity
  8
L1_85
  6
CONTINUOUS
 62
         7
100
AcDbLine
 10
1581.2786999337
 20
-139.7400166132
 30
0.0
 11
1581.3786999336
 21
-139.6400166132
 31
0.0
  0
LINE
  5
33
100
AcDbEntity
  8
L1_85
  6
CONTINUOUS
 62
         7
100
AcDbLine
 10
1581.5976999336
 20
-136.2400166136
 30
0.0
 11
1581.5976999336
 21
-136.3400166135
 31
0.0
  0
LINE
  5
34
100
AcDbEntity
  8
L1_85
  6
CONTINUOUS
 62
         7
100
AcDbLine
 10
1581.5976999336
 20
-136.3400166135
 30
0.0
 11
1581.3786999336
 21
-136.7193357404
 31
0.0
  0
LINE
  5
35
100
AcDbEntity
  8
L1_85
  6
CONTINUOUS
 62
         7
100
AcDbLine
 10
1586.3786999331
 20
-116.760697486
 30
0.0
 11
1586.3786999331
 21
-113.8400166132
 31
0.0
  0
LINE
  5
36
100
AcDbEntity
  8
L1_85
  6
CONTINUOUS
 62
         7
100
AcDbLine
 10
1586.3786999331
 20
-113.8400166132
 30
0.0
 11
1586.4786999331
 21
-113.7400166132
 31
0.0
  0
LINE
  5
37
100
AcDbEntity
  8
L1_85
  6
CONTINUOUS
 62
         7
100
AcDbLine
 10
1586.1596999332
 20
-117.2400166128
 30
0.0
 11
1586.1596999332
 21
-117.1400166129
 31
0.0
  0
LINE
  5
38
100
AcDbEntity
  8
L1_85
  6
CONTINUOUS
 62
         7
100
AcDbLine
 10
1586.1596999332
 20
-117.1400166129
 30
0.0
 11
1586.3786999331
 21
-116.760697486
 31
0.0
  0
LINE
  5
39
100
AcDbEntity
  8
L1_85
  6
CONTINUOUS
 62
         7
100
AcDbLine
 10
1581.3786999336
 20
-116.760697486
 30
0.0
 11
1581.3786999336
 21
-113.8400166132
 31
0.0
  0
LINE
  5
3A
100
AcDbEntity
  8
L1_85
  6
CONTINUOUS
 62
         7
100
AcDbLine
 10
1581.2786999337
 20
-113.7400166132
 30
0.0
 11
1581.3786999336
 21
-113.8400166132
 31
0.0
  0
LINE
  5
3B
100
AcDbEntity
  8
L1_85
  6
CONTINUOUS
 62
         7
100
AcDbLine
 10
1581.5976999336
 20
-117.2400166128
 30
0.0
 11
1581.5976999336
 21
-117.1400166129
 31
0.0
  0
LINE
  5
3C
100
AcDbEntity
  8
L1_85
  6
CONTINUOUS
 62
         7
100
AcDbLine
 10
1581.5976999336
 20
-117.1400166129
 30
0.0
 11
1581.3786999336
 21
-116.760697486
 31
0.0
  0
LINE
  5
3D
100
AcDbEntity
  8
L1_85
  6
CENTER
 62
         1
100
AcDbLine
 10
1583.8786999334
 20
-118.4900166132
 30
0.0
 11
1583.8786999334
 21
-113.4583161747
 31
0.0
  0
LINE
  5
3E
100
AcDbEntity
  8
L1_85
  6
CENTER
 62
         1
100
AcDbLine
 10
1583.8786999334
 20
-134.9900166132
 30
0.0
 11
1583.8786999334
 21
-140.0217170517
 31
0.0
  0
INSERT
  5
89
100
AcDbEntity
  8
0
  6
CONTINUOUS
100
AcDbBlockReference
  2
*X0
 10
0.0
 20
0.0
 30
0.0
  0
LINE
  5
8A
100
AcDbEntity
  8
L1_85
  6
CONTINUOUS
 62
         7
100
AcDbLine
 10
1571.7032734529
 20
-3.2438010873
 30
0.0
 11
1571.7032734529
 21
-11.2438010873
 31
0.0
  0
ARC
  5
8B
100
AcDbEntity
  8
L1_85
  6
CONTINUOUS
 62
         7
100
AcDbCircle
 10
1598.0786999334
 20
-2.4938010873
 30
0.0
 40
0.5
100
AcDbArc
 50
90.0
 51
180.0
  0
ARC
  5
8C
100
AcDbEntity
  8
L1_85
  6
CONTINUOUS
 62
         7
100
AcDbCircle
 10
1598.0786999334
 20
-11.9938010873
 30
0.0
 40
0.5
100
AcDbArc
 50
180.0
 51
270.0
  0
LINE
  5
8D
100
AcDbEntity
  8
L1_85
  6
CONTINUOUS
 62
         7
100
AcDbLine
 10
1601.3786999334
 20
-12.4938010873
 30
0.0
 11
1601.8786999334
 21
-12.9938010873
 31
0.0
  0
LINE
  5
8E
100
AcDbEntity
  8
L1_85
  6
CONTINUOUS
 62
         7
100
AcDbLine
 10
1601.8786999334
 20
-1.4938010873
 30
0.0
 11
1601.3786999334
 21
-1.9938010873
 31
0.0
  0
LINE
  5
8F
100
AcDbEntity
  8
L1_85
  6
CONTINUOUS
 62
         7
100
AcDbLine
 10
1597.5786999334
 20
-11.9938010873
 30
0.0
 11
1597.5786999334
 21
-2.4938010873
 31
0.0
  0
LINE
  5
90
100
AcDbEntity
  8
L1_85
  6
CONTINUOUS
 62
         7
100
AcDbLine
 10
1601.3786999334
 20
-1.9938010873
 30
0.0
 11
1598.0786999334
 21
-1.9938010873
 31
0.0
  0
LINE
  5
91
100
AcDbEntity
  8
L1_85
  6
CONTINUOUS
 62
         7
100
AcDbLine
 10
1601.3786999334
 20
-12.4938010873
 30
0.0
 11
1598.0786999334
 21
-12.4938010873
 31
0.0
  0
LINE
  5
92
100
AcDbEntity
  8
L1_85
  6
CONTINUOUS
 62
         7
100
AcDbLine
 10
1586.3786999331
 20
-17.2231202145
 30
0.0
 11
1586.3786999331
 21
-20.1438010873
 31
0.0
  0
LINE
  5
93
100
AcDbEntity
  8
L1_85
  6
CONTINUOUS
 62
         7
100
AcDbLine
 10
1586.3786999331
 20
-20.1438010873
 30
0.0
 11
1586.4786999331
 21
-20.2438010873
 31
0.0
  0
LINE
  5
94
100
AcDbEntity
  8
L1_85
  6
CONTINUOUS
 62
         7
100
AcDbLine
 10
1586.1596999332
 20
-16.7438010877
 30
0.0
 11
1586.1596999332
 21
-16.8438010877
 31
0.0
  0
LINE
  5
95
100
AcDbEntity
  8
L1_85
  6
CONTINUOUS
 62
         7
100
AcDbLine
 10
1586.1596999332
 20
-16.8438010877
 30
0.0
 11
1586.3786999331
 21
-17.2231202145
 31
0.0
  0
LINE
  5
96
100
AcDbEntity
  8
L1_85
  6
CONTINUOUS
 62
         7
100
AcDbLine
 10
1581.3786999336
 20
-17.2231202145
 30
0.0
 11
1581.3786999336
 21
-20.1438010873
 31
0.0
  0
LINE
  5
97
100
AcDbEntity
  8
L1_85
  6
CONTINUOUS
 62
         7
100
AcDbLine
 10
1581.2786999337
 20
-20.2438010873
 30
0.0
 11
1581.3786999336
 21
-20.1438010873
 31
0.0
  0
LINE
  5
98
100
AcDbEntity
  8
L1_85
  6
CONTINUOUS
 62
         7
100
AcDbLine
 10
1581.5976999336
 20
-16.7438010877
 30
0.0
 11
1581.5976999336
 21
-16.8438010877
 31
0.0
  0
LINE
  5
99
100
AcDbEntity
  8
L1_85
  6
CONTINUOUS
 62
         7
100
AcDbLine
 10
1581.5976999336
 20
-16.8438010877
 30
0.0
 11
1581.3786999336
 21
-17.2231202145
 31
0.0
  0
LINE
  5
9A
100
AcDbEntity
  8
L1_85
  6
CONTINUOUS
 62
         7
100
AcDbLine
 10
1586.3786999331
 20
2.7355180398
 30
0.0
 11
1586.3786999331
 21
5.6561989127
 31
0.0
  0
LINE
  5
9B
100
AcDbEntity
  8
L1_85
  6
CONTINUOUS
 62
         7
100
AcDbLine
 10
1586.3786999331
 20
5.6561989127
 30
0.0
 11
1586.4786999331
 21
5.7561989127
 31
0.0
  0
LINE
  5
9C
100
AcDbEntity
  8
L1_85
  6
CONTINUOUS
 62
         7
100
AcDbLine
 10
1586.1596999332
 20
2.256198913
 30
0.0
 11
1586.1596999332
 21
2.356198913
 31
0.0
  0
LINE
  5
9D
100
AcDbEntity
  8
L1_85
  6
CONTINUOUS
 62
         7
100
AcDbLine
 10
1586.1596999332
 20
2.356198913
 30
0.0
 11
1586.3786999331
 21
2.7355180398
 31
0.0
  0
LINE
  5
9E
100
AcDbEntity
  8
L1_85
  6
CONTINUOUS
 62
         7
100
AcDbLine
 10
1581.3786999336
 20
2.7355180398
 30
0.0
 11
1581.3786999336
 21
5.6561989127
 31
0.0
  0
LINE
  5
9F
100
AcDbEntity
  8
L1_85
  6
CONTINUOUS
 62
         7
100
AcDbLine
 10
1581.2786999337
 20
5.7561989127
 30
0.0
 11
1581.3786999336
 21
5.6561989127
 31
0.0
  0
LINE
  5
A0
100
AcDbEntity
  8
L1_85
  6
CONTINUOUS
 62
         7
100
AcDbLine
 10
1581.5976999336
 20
2.256198913
 30
0.0
 11
1581.5976999336
 21
2.356198913
 31
0.0
  0
LINE
  5
A1
100
AcDbEntity
  8
L1_85
  6
CONTINUOUS
 62
         7
100
AcDbLine
 10
1581.5976999336
 20
2.356198913
 30
0.0
 11
1581.3786999336
 21
2.7355180398
 31
0.0
  0
LINE
  5
A2
100
AcDbEntity
  8
L1_85
  6
CENTER
 62
         1
100
AcDbLine
 10
1583.8786999334
 20
1.0061989127
 30
0.0
 11
1583.8786999334
 21
6.0378993512
 31
0.0
  0
LINE
  5
A3
100
AcDbEntity
  8
L1_85
  6
CENTER
 62
         1
100
AcDbLine
 10
1583.8786999334
 20
-15.4938010873
 30
0.0
 11
1583.8786999334
 21
-20.5255015259
 31
0.0
  0
INSERT
  5
EE
100
AcDbEntity
  8
0
  6
CONTINUOUS
100
AcDbBlockReference
  2
*X1
 10
0.0
 20
0.0
 30
0.0
  0
LINE
  5
EF
100
AcDbEntity
  8
_Y__________
  6
CONTINUOUS
 62
         7
100
AcDbLine
 10
1539.3786999334
 20
-122.7400166132
 30
0.0
 11
1538.8786999334
 21
-122.2400166132
 31
0.0
  0
LINE
  5
F0
100
AcDbEntity
  8
_Y__________
  6
CONTINUOUS
 62
         7
100
AcDbLine
 10
1539.3786999334
 20
-130.7400166132
 30
0.0
 11
1538.8786999334
 21
-131.2400166132
 31
0.0
  0
LINE
  5
F1
100
AcDbEntity
  8
_Y__________
  6
CONTINUOUS
 62
         7
100
AcDbLine
 10
1539.3786999334
 20
-122.7400166132
 30
0.0
 11
1539.3786999334
 21
-130.7400166132
 31
0.0
  0
LINE
  5
F2
100
AcDbEntity
  8
_Y__________
  6
CONTINUOUS
 62
         7
100
AcDbLine
 10
1539.3786999334
 20
-130.7400166132
 30
0.0
 11
1571.7032734529
 21
-130.7400166132
 31
0.0
  0
LINE
  5
F3
100
AcDbEntity
  8
_Y__________
  6
CONTINUOUS
 62
         7
100
AcDbLine
 10
1539.3786999334
 20
-122.7400166132
 30
0.0
 11
1571.7032734529
 21
-122.7400166132
 31
0.0
  0
LINE
  5
F4
100
AcDbEntity
  8
_Y__________
  6
CONTINUOUS
 62
         7
100
AcDbLine
 10
1539.3786999334
 20
-3.2438010873
 30
0.0
 11
1538.8786999334
 21
-2.7438010873
 31
0.0
  0
LINE
  5
F5
100
AcDbEntity
  8
_Y__________
  6
CONTINUOUS
 62
         7
100
AcDbLine
 10
1539.3786999334
 20
-11.2438010873
 30
0.0
 11
1538.8786999334
 21
-11.7438010873
 31
0.0
  0
LINE
  5
F6
100
AcDbEntity
  8
_Y__________
  6
CONTINUOUS
 62
         7
100
AcDbLine
 10
1539.3786999334
 20
-3.2438010873
 30
0.0
 11
1539.3786999334
 21
-11.2438010873
 31
0.0
  0
LINE
  5
F7
100
AcDbEntity
  8
_Y__________
  6
CONTINUOUS
 62
         7
100
AcDbLine
 10
1539.3786999334
 20
-11.2438010873
 30
0.0
 11
1571.7032734529
 21
-11.2438010873
 31
0.0
  0
LINE
  5
F8
100
AcDbEntity
  8
_Y__________
  6
CONTINUOUS
 62
         7
100
AcDbLine
 10
1539.3786999334
 20
-3.2438010873
 30
0.0
 11
1571.7032734529
 21
-3.2438010873
 31
0.0
  0
CIRCLE
  5
F9
100
AcDbEntity
  8
L1_85
  6
CONTINUOUS
 62
         7
100
AcDbCircle
 10
1845.8340594905
 20
112.2524144385
 30
0.0
 40
13.5
  0
CIRCLE
  5
FA
100
AcDbEntity
  8
L1_85
  6
CONTINUOUS
 62
         7
100
AcDbCircle
 10
1845.8340594905
 20
112.2524144385
 30
0.0
 40
16.5
  0
CIRCLE
  5
FB
100
AcDbEntity
  8
L1_85
  6
CONTINUOUS
 62
         7
100
AcDbCircle
 10
1845.8340594905
 20
112.2524144385
 30
0.0
 40
13.0
  0
LINE
  5
FC
100
AcDbEntity
  8
L1_85
  6
CONTINUOUS
 62
         7
100
AcDbLine
 10
1857.7268093828
 20
117.3274144385
 30
0.0
 11
1853.7516033016
 21
117.3274144385
 31
0.0
  0
LINE
  5
FD
100
AcDbEntity
  8
L1_85
  6
CONTINUOUS
 62
         7
100
AcDbLine
 10
1857.7268093828
 20
107.1774144385
 30
0.0
 11
1853.7516033016
 21
107.1774144385
 31
0.0
  0
CIRCLE
  5
FE
100
AcDbEntity
  8
L1_85
  6
CONTINUOUS
 62
         7
100
AcDbCircle
 10
1845.8340594905
 20
112.2524144385
 30
0.0
 40
9.5
  0
LINE
  5
FF
100
AcDbEntity
  8
L1_85
  6
CONTINUOUS
 62
         7
100
AcDbLine
 10
1837.9165156795
 20
117.3274144385
 30
0.0
 11
1833.9413095983
 21
117.3274144385
 31
0.0
  0
LINE
  5
100
100
AcDbEntity
  8
L1_85
  6
CONTINUOUS
 62
         7
100
AcDbLine
 10
1837.9165156795
 20
107.1774144385
 30
0.0
 11
1833.9413095983
 21
107.1774144385
 31
0.0
  0
LINE
  5
101
100
AcDbEntity
  8
L1_85
  6
CENTER
 62
         1
100
AcDbLine
 10
1862.3340594905
 20
112.2524144385
 30
0.0
 11
1829.3340594905
 21
112.2524144385
 31
0.0
  0
LINE
  5
102
100
AcDbEntity
  8
L1_85
  6
CENTER
 62
         1
100
AcDbLine
 10
1845.8340594905
 20
95.7524144385
 30
0.0
 11
1845.8340594905
 21
128.7524144385
 31
0.0
  0
LINE
  5
103
100
AcDbEntity
  8
L1_85
  6
CENTER
 62
         1
100
AcDbLine
 10
1860.123478653
 20
104.0024144385
 30
0.0
 11
1831.5446403281
 21
120.5024144385
 31
0.0
  0
LINE
  5
104
100
AcDbEntity
  8
L1_85
  6
CENTER
 62
         1
100
AcDbLine
 10
1860.123478653
 20
120.5024144385
 30
0.0
 11
1831.5446403281
 21
104.0024144385
 31
0.0
  0
LINE
  5
105
100
AcDbEntity
  8
L1_85
  6
DASHED
 62
         2
100
AcDbLine
 10
1848.3340594903
 20
122.2327335657
 30
0.0
 11
1848.3340594903
 21
125.0097652608
 31
0.0
  0
LINE
  5
106
100
AcDbEntity
  8
L1_85
  6
DASHED
 62
         2
100
AcDbLine
 10
1848.1150594903
 20
121.474509591
 30
0.0
 11
1848.1150594903
 21
121.8534144389
 31
0.0
  0
LINE
  5
107
100
AcDbEntity
  8
L1_85
  6
DASHED
 62
         2
100
AcDbLine
 10
1848.1150594903
 20
121.8534144389
 30
0.0
 11
1848.3340594903
 21
122.2327335657
 31
0.0
  0
LINE
  5
108
100
AcDbEntity
  8
L1_85
  6
DASHED
 62
         2
100
AcDbLine
 10
1843.3340594908
 20
122.2327335657
 30
0.0
 11
1843.3340594908
 21
125.0097652608
 31
0.0
  0
LINE
  5
109
100
AcDbEntity
  8
L1_85
  6
DASHED
 62
         2
100
AcDbLine
 10
1843.5530594908
 20
121.474509591
 30
0.0
 11
1843.5530594908
 21
121.8534144389
 31
0.0
  0
LINE
  5
10A
100
AcDbEntity
  8
L1_85
  6
DASHED
 62
         2
100
AcDbLine
 10
1843.5530594908
 20
121.8534144389
 30
0.0
 11
1843.3340594908
 21
122.2327335657
 31
0.0
  0
LINE
  5
10B
100
AcDbEntity
  8
L1_85
  6
DASHED
 62
         2
100
AcDbLine
 10
1848.3340594903
 20
122.2327335657
 30
0.0
 11
1843.3340594908
 21
122.2327335657
 31
0.0
  0
LINE
  5
10C
100
AcDbEntity
  8
L1_85
  6
DASHED
 62
         2
100
AcDbLine
 10
1848.1150594903
 20
121.8534144389
 30
0.0
 11
1843.5530594908
 21
121.8534144389
 31
0.0
  0
LINE
  5
10D
100
AcDbEntity
  8
L1_85
  6
DASHED
 62
         2
100
AcDbLine
 10
1836.3788495886
 20
115.0775104929
 30
0.0
 11
1835.9408495887
 21
115.0775104929
 31
0.0
  0
LINE
  5
10E
100
AcDbEntity
  8
L1_85
  6
DASHED
 62
         2
100
AcDbLine
 10
1838.6598495884
 20
119.0283183846
 30
0.0
 11
1838.4408495884
 21
119.4076375114
 31
0.0
  0
LINE
  5
10F
100
AcDbEntity
  8
L1_85
  6
DASHED
 62
         2
100
AcDbLine
 10
1838.4408495884
 20
119.4076375114
 30
0.0
 11
1835.9408495887
 21
115.0775104929
 31
0.0
  0
LINE
  5
110
100
AcDbEntity
  8
L1_85
  6
DASHED
 62
         2
100
AcDbLine
 10
1838.6598495884
 20
119.0283183846
 30
0.0
 11
1836.3788495886
 21
115.0775104929
 31
0.0
  0
LINE
  5
111
100
AcDbEntity
  8
L1_85
  6
DASHED
 62
         2
100
AcDbLine
 10
1836.7069908125
 20
114.8880580689
 30
0.0
 11
1836.3788495886
 21
115.0775104929
 31
0.0
  0
LINE
  5
112
100
AcDbEntity
  8
L1_85
  6
DASHED
 62
         2
100
AcDbLine
 10
1838.9879908123
 20
118.8388659606
 30
0.0
 11
1838.6598495884
 21
119.0283183846
 31
0.0
  0
LINE
  5
113
100
AcDbEntity
  8
L1_85
  6
DASHED
 62
         2
100
AcDbLine
 10
1838.4408495884
 20
119.4076375114
 30
0.0
 11
1836.0358695934
 21
120.7961533589
 31
0.0
  0
LINE
  5
114
100
AcDbEntity
  8
L1_85
  6
DASHED
 62
         2
100
AcDbLine
 10
1835.9408495887
 20
115.0775104929
 30
0.0
 11
1833.5358695936
 21
116.4660263404
 31
0.0
  0
LINE
  5
115
100
AcDbEntity
  8
L1_85
  6
DASHED
 62
         2
100
AcDbLine
 10
1838.6598495884
 20
105.4765104925
 30
0.0
 11
1838.4408495884
 21
105.0971913657
 31
0.0
  0
LINE
  5
116
100
AcDbEntity
  8
L1_85
  6
DASHED
 62
         2
100
AcDbLine
 10
1836.3788495886
 20
109.4273183842
 30
0.0
 11
1835.9408495887
 21
109.4273183842
 31
0.0
  0
LINE
  5
117
100
AcDbEntity
  8
L1_85
  6
DASHED
 62
         2
100
AcDbLine
 10
1835.9408495887
 20
109.4273183842
 30
0.0
 11
1838.4408495884
 21
105.0971913657
 31
0.0
  0
LINE
  5
118
100
AcDbEntity
  8
L1_85
  6
DASHED
 62
         2
100
AcDbLine
 10
1836.3788495886
 20
109.4273183842
 30
0.0
 11
1838.6598495884
 21
105.4765104925
 31
0.0
  0
LINE
  5
119
100
AcDbEntity
  8
L1_85
  6
DASHED
 62
         2
100
AcDbLine
 10
1838.9879908123
 20
105.6659629165
 30
0.0
 11
1838.6598495884
 21
105.4765104925
 31
0.0
  0
LINE
  5
11A
100
AcDbEntity
  8
L1_85
  6
DASHED
 62
         2
100
AcDbLine
 10
1836.7069908125
 20
109.6167708082
 30
0.0
 11
1836.3788495886
 21
109.4273183842
 31
0.0
  0
LINE
  5
11B
100
AcDbEntity
  8
L1_85
  6
DASHED
 62
         2
100
AcDbLine
 10
1835.9408495887
 20
109.4273183842
 30
0.0
 11
1833.5358695936
 21
108.0388025367
 31
0.0
  0
LINE
  5
11C
100
AcDbEntity
  8
L1_85
  6
DASHED
 62
         2
100
AcDbLine
 10
1838.4408495884
 20
105.0971913657
 30
0.0
 11
1836.0358695934
 21
103.7086755182
 31
0.0
  0
LINE
  5
11D
100
AcDbEntity
  8
L1_85
  6
DASHED
 62
         2
100
AcDbLine
 10
1848.1150594903
 20
102.6514144382
 30
0.0
 11
1848.3340594903
 21
102.2720953114
 31
0.0
  0
LINE
  5
11E
100
AcDbEntity
  8
L1_85
  6
DASHED
 62
         2
100
AcDbLine
 10
1843.5530594908
 20
102.6514144382
 30
0.0
 11
1843.3340594908
 21
102.2720953114
 31
0.0
  0
LINE
  5
11F
100
AcDbEntity
  8
L1_85
  6
DASHED
 62
         2
100
AcDbLine
 10
1843.3340594908
 20
102.2720953114
 30
0.0
 11
1848.3340594903
 21
102.2720953114
 31
0.0
  0
LINE
  5
120
100
AcDbEntity
  8
L1_85
  6
DASHED
 62
         2
100
AcDbLine
 10
1843.5530594908
 20
102.6514144382
 30
0.0
 11
1848.1150594903
 21
102.6514144382
 31
0.0
  0
LINE
  5
121
100
AcDbEntity
  8
L1_85
  6
DASHED
 62
         2
100
AcDbLine
 10
1848.1150594903
 20
103.0303192861
 30
0.0
 11
1848.1150594903
 21
102.6514144382
 31
0.0
  0
LINE
  5
122
100
AcDbEntity
  8
L1_85
  6
DASHED
 62
         2
100
AcDbLine
 10
1843.5530594908
 20
103.0303192861
 30
0.0
 11
1843.5530594908
 21
102.6514144382
 31
0.0
  0
LINE
  5
123
100
AcDbEntity
  8
L1_85
  6
DASHED
 62
         2
100
AcDbLine
 10
1843.3340594908
 20
102.2720953114
 30
0.0
 11
1843.3340594908
 21
99.4950636163
 31
0.0
  0
LINE
  5
124
100
AcDbEntity
  8
L1_85
  6
DASHED
 62
         2
100
AcDbLine
 10
1848.3340594903
 20
102.2720953114
 30
0.0
 11
1848.3340594903
 21
99.4950636163
 31
0.0
  0
LINE
  5
125
100
AcDbEntity
  8
L1_85
  6
DASHED
 62
         2
100
AcDbLine
 10
1855.2892693924
 20
109.4273183842
 30
0.0
 11
1855.7272693924
 21
109.4273183842
 31
0.0
  0
LINE
  5
126
100
AcDbEntity
  8
L1_85
  6
DASHED
 62
         2
100
AcDbLine
 10
1853.0082693927
 20
105.4765104925
 30
0.0
 11
1853.2272693927
 21
105.0971913657
 31
0.0
  0
LINE
  5
127
100
AcDbEntity
  8
L1_85
  6
DASHED
 62
         2
100
AcDbLine
 10
1853.2272693927
 20
105.0971913657
 30
0.0
 11
1855.7272693924
 21
109.4273183842
 31
0.0
  0
LINE
  5
128
100
AcDbEntity
  8
L1_85
  6
DASHED
 62
         2
100
AcDbLine
 10
1853.0082693927
 20
105.4765104925
 30
0.0
 11
1855.2892693924
 21
109.4273183842
 31
0.0
  0
LINE
  5
129
100
AcDbEntity
  8
L1_85
  6
DASHED
 62
         2
100
AcDbLine
 10
1854.9611281686
 20
109.6167708082
 30
0.0
 11
1855.2892693924
 21
109.4273183842
 31
0.0
  0
LINE
  5
12A
100
AcDbEntity
  8
L1_85
  6
DASHED
 62
         2
100
AcDbLine
 10
1852.6801281688
 20
105.6659629165
 30
0.0
 11
1853.0082693927
 21
105.4765104925
 31
0.0
  0
LINE
  5
12B
100
AcDbEntity
  8
L1_85
  6
DASHED
 62
         2
100
AcDbLine
 10
1853.2272693927
 20
105.0971913657
 30
0.0
 11
1855.6322493877
 21
103.7086755182
 31
0.0
  0
LINE
  5
12C
100
AcDbEntity
  8
L1_85
  6
DASHED
 62
         2
100
AcDbLine
 10
1855.7272693924
 20
109.4273183842
 30
0.0
 11
1858.1322493874
 21
108.0388025367
 31
0.0
  0
LINE
  5
12D
100
AcDbEntity
  8
L1_85
  6
DASHED
 62
         2
100
AcDbLine
 10
1853.0082693927
 20
119.0283183845
 30
0.0
 11
1853.2272693927
 21
119.4076375114
 31
0.0
  0
LINE
  5
12E
100
AcDbEntity
  8
L1_85
  6
DASHED
 62
         2
100
AcDbLine
 10
1855.2892693924
 20
115.0775104929
 30
0.0
 11
1855.7272693924
 21
115.0775104929
 31
0.0
  0
LINE
  5
12F
100
AcDbEntity
  8
L1_85
  6
DASHED
 62
         2
100
AcDbLine
 10
1855.7272693924
 20
115.0775104929
 30
0.0
 11
1853.2272693927
 21
119.4076375114
 31
0.0
  0
LINE
  5
130
100
AcDbEntity
  8
L1_85
  6
DASHED
 62
         2
100
AcDbLine
 10
1855.2892693924
 20
115.0775104929
 30
0.0
 11
1853.0082693927
 21
119.0283183845
 31
0.0
  0
LINE
  5
131
100
AcDbEntity
  8
L1_85
  6
DASHED
 62
         2
100
AcDbLine
 10
1852.6801281688
 20
118.8388659606
 30
0.0
 11
1853.0082693927
 21
119.0283183845
 31
0.0
  0
LINE
  5
132
100
AcDbEntity
  8
L1_85
  6
DASHED
 62
         2
100
AcDbLine
 10
1854.9611281686
 20
114.8880580689
 30
0.0
 11
1855.2892693924
 21
115.0775104929
 31
0.0
  0
LINE
  5
133
100
AcDbEntity
  8
L1_85
  6
DASHED
 62
         2
100
AcDbLine
 10
1855.7272693924
 20
115.0775104929
 30
0.0
 11
1858.1322493874
 21
116.4660263404
 31
0.0
  0
LINE
  5
134
100
AcDbEntity
  8
L1_85
  6
DASHED
 62
         2
100
AcDbLine
 10
1853.2272693927
 20
119.4076375114
 30
0.0
 11
1855.6322493877
 21
120.7961533589
 31
0.0
  0
LINE
  5
135
100
AcDbEntity
  8
L1_85
  6
CONTINUOUS
 62
         4
100
AcDbLine
 10
1599.8786999334
 20
-121.4900166132
 30
0.0
 11
1599.8786999334
 21
-117.2400166132
 31
0.0
  0
LINE
  5
136
100
AcDbEntity
  8
L1_85
  6
CONTINUOUS
 62
         4
100
AcDbLine
 10
1599.8786999334
 20
-136.2400166132
 30
0.0
 11
1599.8786999334
 21
-131.9900166132
 31
0.0
  0
LINE
  5
137
100
AcDbEntity
  8
L1_85
  6
CONTINUOUS
 62
         7
100
AcDbLine
 10
1596.8786999334
 20
-114.2900166132
 30
0.0
 11
1596.8786999334
 21
-113.8400166132
 31
0.0
  0
LINE
  5
138
100
AcDbEntity
  8
L1_85
  6
CONTINUOUS
 62
         7
100
AcDbLine
 10
1595.5286999334
 20
-114.2900166132
 30
0.0
 11
1595.5286999334
 21
-113.8400166132
 31
0.0
  0
LINE
  5
139
100
AcDbEntity
  8
L1_85
  6
CONTINUOUS
 62
         7
100
AcDbLine
 10
1601.3786999334
 20
-113.7400166132
 30
0.0
 11
1596.9786999334
 21
-113.7400166132
 31
0.0
  0
LINE
  5
13A
100
AcDbEntity
  8
L1_85
  6
CONTINUOUS
 62
         7
100
AcDbLine
 10
1601.3786999334
 20
-139.7400166132
 30
0.0
 11
1596.9786999334
 21
-139.7400166132
 31
0.0
  0
LINE
  5
13B
100
AcDbEntity
  8
L1_85
  6
CONTINUOUS
 62
         7
100
AcDbLine
 10
1601.8786999334
 20
-139.2400166132
 30
0.0
 11
1601.8786999334
 21
-132.4900166132
 31
0.0
  0
LINE
  5
13C
100
AcDbEntity
  8
L1_85
  6
CONTINUOUS
 62
         7
100
AcDbLine
 10
1596.8786999334
 20
-114.2900166132
 30
0.0
 11
1595.5286999334
 21
-114.2900166132
 31
0.0
  0
LINE
  5
13D
100
AcDbEntity
  8
L1_85
  6
CONTINUOUS
 62
         7
100
AcDbLine
 10
1596.8786999334
 20
-139.1900166132
 30
0.0
 11
1595.5286999334
 21
-139.1900166132
 31
0.0
  0
LINE
  5
13E
100
AcDbEntity
  8
L1_85
  6
CONTINUOUS
 62
         7
100
AcDbLine
 10
1595.5286999334
 20
-139.6400166132
 30
0.0
 11
1595.5286999334
 21
-139.1900166132
 31
0.0
  0
LINE
  5
13F
100
AcDbEntity
  8
L1_85
  6
CONTINUOUS
 62
         7
100
AcDbLine
 10
1596.8786999334
 20
-139.6400166132
 30
0.0
 11
1596.8786999334
 21
-139.1900166132
 31
0.0
  0
LINE
  5
140
100
AcDbEntity
  8
L1_85
  6
CONTINUOUS
 62
         7
100
AcDbLine
 10
1601.8786999334
 20
-120.9900166132
 30
0.0
 11
1601.8786999334
 21
-114.2400166132
 31
0.0
  0
LINE
  5
141
100
AcDbEntity
  8
L1_85
  6
CONTINUOUS
 62
         7
100
AcDbLine
 10
1601.3786999334
 20
-113.7400166132
 30
0.0
 11
1601.8786999334
 21
-114.2400166132
 31
0.0
  0
LINE
  5
142
100
AcDbEntity
  8
L1_85
  6
CONTINUOUS
 62
         7
100
AcDbLine
 10
1601.8786999334
 20
-139.2400166132
 30
0.0
 11
1601.3786999334
 21
-139.7400166132
 31
0.0
  0
LINE
  5
143
100
AcDbEntity
  8
L1_85
  6
CONTINUOUS
 62
         7
100
AcDbLine
 10
1595.4286999334
 20
-139.7400166132
 30
0.0
 11
1578.0786999334
 21
-139.7400166132
 31
0.0
  0
LINE
  5
144
100
AcDbEntity
  8
L1_85
  6
CONTINUOUS
 62
         7
100
AcDbLine
 10
1558.3786999334
 20
-110.2400166132
 30
0.0
 11
1545.8786999334
 21
-110.2400166132
 31
0.0
  0
LINE
  5
145
100
AcDbEntity
  8
L1_85
  6
CONTINUOUS
 62
         7
100
AcDbLine
 10
1558.3786999334
 20
-143.2400166132
 30
0.0
 11
1545.8786999334
 21
-143.2400166132
 31
0.0
  0
LINE
  5
146
100
AcDbEntity
  8
L1_85
  6
CONTINUOUS
 62
         7
100
AcDbLine
 10
1576.6786999334
 20
-113.2400166132
 30
0.0
 11
1559.3786999334
 21
-113.2400166132
 31
0.0
  0
LINE
  5
147
100
AcDbEntity
  8
L1_85
  6
CONTINUOUS
 62
         7
100
AcDbLine
 10
1576.6786999334
 20
-140.2400166132
 30
0.0
 11
1559.3786999334
 21
-140.2400166132
 31
0.0
  0
LINE
  5
148
100
AcDbEntity
  8
L1_85
  6
CONTINUOUS
 62
         7
100
AcDbLine
 10
1558.8786999334
 20
-142.7400166132
 30
0.0
 11
1558.8786999334
 21
-140.7400166132
 31
0.0
  0
LINE
  5
149
100
AcDbEntity
  8
L1_85
  6
CONTINUOUS
 62
         7
100
AcDbLine
 10
1558.8786999334
 20
-112.7400166132
 30
0.0
 11
1558.8786999334
 21
-110.7400166132
 31
0.0
  0
LINE
  5
14A
100
AcDbEntity
  8
L1_85
  6
CONTINUOUS
 62
         7
100
AcDbLine
 10
1599.8786999334
 20
-117.2400166132
 30
0.0
 11
1579.8786999334
 21
-117.2400166132
 31
0.0
  0
LINE
  5
14B
100
AcDbEntity
  8
L1_85
  6
CONTINUOUS
 62
         7
100
AcDbLine
 10
1579.8786999334
 20
-136.7400166132
 30
0.0
 11
1579.8786999334
 21
-116.7400166132
 31
0.0
  0
LINE
  5
14C
100
AcDbEntity
  8
L1_85
  6
CONTINUOUS
 62
         7
100
AcDbLine
 10
1574.8786999334
 20
-136.7400166132
 30
0.0
 11
1574.8786999334
 21
-116.7400166132
 31
0.0
  0
LINE
  5
14D
100
AcDbEntity
  8
L1_85
  6
CONTINUOUS
 62
         7
100
AcDbLine
 10
1579.8786999334
 20
-116.7400166132
 30
0.0
 11
1574.8786999334
 21
-116.7400166132
 31
0.0
  0
LINE
  5
14E
100
AcDbEntity
  8
L1_85
  6
CONTINUOUS
 62
         7
100
AcDbLine
 10
1579.8786999334
 20
-136.7400166132
 30
0.0
 11
1574.8786999334
 21
-136.7400166132
 31
0.0
  0
LINE
  5
14F
100
AcDbEntity
  8
L1_85
  6
CONTINUOUS
 62
         7
100
AcDbLine
 10
1574.8786999334
 20
-117.2400166132
 30
0.0
 11
1571.7032734529
 21
-122.7400166132
 31
0.0
  0
LINE
  5
150
100
AcDbEntity
  8
L1_85
  6
CONTINUOUS
 62
         7
100
AcDbLine
 10
1574.8786999334
 20
-136.2400166132
 30
0.0
 11
1571.7032734529
 21
-130.7400166132
 31
0.0
  0
ARC
  5
151
100
AcDbEntity
  8
L1_85
  6
CONTINUOUS
 62
         7
100
AcDbCircle
 10
1559.3786999334
 20
-112.7400166132
 30
0.0
 40
0.5
100
AcDbArc
 50
180.0
 51
270.0
  0
ARC
  5
152
100
AcDbEntity
  8
L1_85
  6
CONTINUOUS
 62
         7
100
AcDbCircle
 10
1559.3786999334
 20
-140.7400166132
 30
0.0
 40
0.5
100
AcDbArc
 50
90.0
 51
180.0
  0
LINE
  5
153
100
AcDbEntity
  8
L1_85
  6
CONTINUOUS
 62
         7
100
AcDbLine
 10
1599.8786999334
 20
-136.2400166132
 30
0.0
 11
1579.8786999334
 21
-136.2400166132
 31
0.0
  0
LINE
  5
154
100
AcDbEntity
  8
L1_85
  6
CONTINUOUS
 62
         7
100
AcDbLine
 10
1595.4286999334
 20
-113.7400166132
 30
0.0
 11
1578.0786999334
 21
-113.7400166132
 31
0.0
  0
ARC
  5
155
100
AcDbEntity
  8
L1_85
  6
CONTINUOUS
 62
         7
100
AcDbCircle
 10
1599.8786999334
 20
-115.2400166132
 30
0.0
 40
2.0
100
AcDbArc
 50
270.0
 51
360.0
  0
ARC
  5
156
100
AcDbEntity
  8
L1_85
  6
CONTINUOUS
 62
         7
100
AcDbCircle
 10
1599.8786999334
 20
-138.2400166132
 30
0.0
 40
2.0
100
AcDbArc
 50
0.0
 51
90.0
  0
LINE
  5
157
100
AcDbEntity
  8
L1_85
  6
CENTER
 62
         1
100
AcDbLine
 10
1542.8786999334
 20
-126.7400166132
 30
0.0
 11
1603.0428189495
 21
-126.7400166132
 31
0.0
  0
LINE
  5
158
100
AcDbEntity
  8
L1_85
  6
CONTINUOUS
 62
         7
100
AcDbLine
 10
1577.8786999334
 20
-113.9400166132
 30
0.0
 11
1577.2786999334
 21
-113.9400166132
 31
0.0
  0
ARC
  5
159
100
AcDbEntity
  8
L1_85
  6
CONTINUOUS
 62
         7
100
AcDbCircle
 10
1558.3786999334
 20
-110.7400166132
 30
0.0
 40
0.5
100
AcDbArc
 50
0.0
 51
90.0
  0
ARC
  5
15A
100
AcDbEntity
  8
L1_85
  6
CONTINUOUS
 62
         7
100
AcDbCircle
 10
1558.3786999334
 20
-142.7400166132
 30
0.0
 40
0.5
100
AcDbArc
 50
270.0
 51
360.0
  0
LINE
  5
15B
100
AcDbEntity
  8
L1_85
  6
CONTINUOUS
 62
         7
100
AcDbLine
 10
1576.8786999334
 20
-140.0400166132
 30
0.0
 11
1576.8786999334
 21
-139.9400166132
 31
0.0
  0
ARC
  5
15C
100
AcDbEntity
  8
L1_85
  6
CONTINUOUS
 62
         7
100
AcDbCircle
 10
1576.6786999334
 20
-140.0400166132
 30
0.0
 40
0.2
100
AcDbArc
 50
269.9999999999
 51
360.0
  0
LINE
  5
15D
100
AcDbEntity
  8
L1_85
  6
CONTINUOUS
 62
         7
100
AcDbLine
 10
1576.8786999334
 20
-113.5400166132
 30
0.0
 11
1576.8786999334
 21
-113.4400166132
 31
0.0
  0
ARC
  5
15E
100
AcDbEntity
  8
L1_85
  6
CONTINUOUS
 62
         7
100
AcDbCircle
 10
1576.6786999334
 20
-113.4400166132
 30
0.0
 40
0.2
100
AcDbArc
 50
0.0
 51
90.0000000001
  0
LINE
  5
15F
100
AcDbEntity
  8
L1_85
  6
CONTINUOUS
 62
         7
100
AcDbLine
 10
1577.8786999334
 20
-113.9400166132
 30
0.0
 11
1578.0786999334
 21
-113.7400166132
 31
0.0
  0
LINE
  5
160
100
AcDbEntity
  8
L1_85
  6
CONTINUOUS
 62
         7
100
AcDbLine
 10
1577.8786999334
 20
-139.5400166132
 30
0.0
 11
1577.2786999334
 21
-139.5400166132
 31
0.0
  0
LINE
  5
161
100
AcDbEntity
  8
L1_85
  6
CONTINUOUS
 62
         7
100
AcDbLine
 10
1577.8786999334
 20
-139.5400166132
 30
0.0
 11
1578.0786999334
 21
-139.7400166132
 31
0.0
  0
ARC
  5
162
100
AcDbEntity
  8
L1_85
  6
CONTINUOUS
 62
         7
100
AcDbCircle
 10
1577.2786999334
 20
-139.9400166132
 30
0.0
 40
0.4
100
AcDbArc
 50
90.0
 51
180.0
  0
ARC
  5
163
100
AcDbEntity
  8
L1_85
  6
CONTINUOUS
 62
         7
100
AcDbCircle
 10
1577.2786999334
 20
-113.5400166132
 30
0.0
 40
0.4
100
AcDbArc
 50
180.0
 51
270.0
  0
LINE
  5
164
100
AcDbEntity
  8
L1_85
  6
CONTINUOUS
 62
         7
100
AcDbLine
 10
1595.5286999334
 20
-113.8400166132
 30
0.0
 11
1595.4286999334
 21
-113.7400166132
 31
0.0
  0
LINE
  5
165
100
AcDbEntity
  8
L1_85
  6
CONTINUOUS
 62
         7
100
AcDbLine
 10
1596.8786999334
 20
-113.8400166132
 30
0.0
 11
1596.9786999334
 21
-113.7400166132
 31
0.0
  0
LINE
  5
166
100
AcDbEntity
  8
L1_85
  6
CONTINUOUS
 62
         7
100
AcDbLine
 10
1595.5286999334
 20
-139.6400166132
 30
0.0
 11
1595.4286999334
 21
-139.7400166132
 31
0.0
  0
LINE
  5
167
100
AcDbEntity
  8
L1_85
  6
CONTINUOUS
 62
         7
100
AcDbLine
 10
1596.8786999334
 20
-139.6400166132
 30
0.0
 11
1596.9786999334
 21
-139.7400166132
 31
0.0
  0
LINE
  5
168
100
AcDbEntity
  8
L1_85
  6
CONTINUOUS
 62
         7
100
AcDbLine
 10
1484.8786999334
 20
104.9824144385
 30
0.0
 11
1484.8786999334
 21
90.6789135022
 31
0.0
  0
LINE
  5
169
100
AcDbEntity
  8
L1_85
  6
CONTINUOUS
 62
         7
100
AcDbLine
 10
1516.8786999334
 20
142.7524144385
 30
0.0
 11
1516.8786999334
 21
81.7524144385
 31
0.0
  0
LINE
  5
16A
100
AcDbEntity
  8
L1_85
  6
CONTINUOUS
 62
         7
100
AcDbLine
 10
1484.8786999334
 20
133.8259153749
 30
0.0
 11
1484.8786999334
 21
119.5224144385
 31
0.0
  0
DIMENSION
  5
16E
100
AcDbEntity
  8
L1_85
  6
CONTINUOUS
 62
         4
100
AcDbDimension
  2
*D2
 10
1630.7931640724
 20
128.7524144385
 30
0.0
 11
1626.7331640724
 21
100.6783988199
 31
0.0
  3
DIMSTYLE1
100
AcDbAlignedDimension
 13
1558.3786999334
 23
128.7524144385
 33
0.0
 14
1558.3786999334
 24
95.7524144385
 34
0.0
 50
90.0
100
AcDbRotatedDimension
  0
LINE
  5
17B
100
AcDbEntity
  8
L1_85
  6
CONTINUOUS
 62
         7
100
AcDbLine
 10
1596.8786999334
 20
99.3524144385
 30
0.0
 11
1596.8786999334
 21
125.1524144385
 31
0.0
  0
LINE
  5
17C
100
AcDbEntity
  8
L1_85
  6
CONTINUOUS
 62
         7
100
AcDbLine
 10
1595.5286999334
 20
99.3524144385
 30
0.0
 11
1595.5286999334
 21
125.1524144385
 31
0.0
  0
LINE
  5
17D
100
AcDbEntity
  8
L1_85
  6
CONTINUOUS
 62
         7
100
AcDbLine
 10
1601.3786999334
 20
107.0024144385
 30
0.0
 11
1601.8786999334
 21
106.5024144385
 31
0.0
  0
LINE
  5
17E
100
AcDbEntity
  8
L1_85
  6
CONTINUOUS
 62
         7
100
AcDbLine
 10
1601.8786999334
 20
118.0024144385
 30
0.0
 11
1601.3786999334
 21
117.5024144385
 31
0.0
  0
LINE
  5
17F
100
AcDbEntity
  8
L1_85
  6
CONTINUOUS
 62
         7
100
AcDbLine
 10
1601.3786999334
 20
125.2524144385
 30
0.0
 11
1596.9786999334
 21
125.2524144385
 31
0.0
  0
LINE
  5
180
100
AcDbEntity
  8
L1_85
  6
CONTINUOUS
 62
         7
100
AcDbLine
 10
1601.3786999334
 20
99.2524144385
 30
0.0
 11
1596.9786999334
 21
99.2524144385
 31
0.0
  0
LINE
  5
181
100
AcDbEntity
  8
L1_85
  6
CONTINUOUS
 62
         7
100
AcDbLine
 10
1601.8786999334
 20
99.7524144385
 30
0.0
 11
1601.8786999334
 21
106.5024144385
 31
0.0
  0
LINE
  5
182
100
AcDbEntity
  8
L1_85
  6
CONTINUOUS
 62
         7
100
AcDbLine
 10
1596.8786999334
 20
124.7024144385
 30
0.0
 11
1595.5286999334
 21
124.7024144385
 31
0.0
  0
LINE
  5
183
100
AcDbEntity
  8
L1_85
  6
CONTINUOUS
 62
         7
100
AcDbLine
 10
1596.8786999334
 20
99.8024144385
 30
0.0
 11
1595.5286999334
 21
99.8024144385
 31
0.0
  0
LINE
  5
184
100
AcDbEntity
  8
L1_85
  6
CONTINUOUS
 62
         7
100
AcDbLine
 10
1601.8786999334
 20
118.0024144385
 30
0.0
 11
1601.8786999334
 21
124.7524144385
 31
0.0
  0
LINE
  5
185
100
AcDbEntity
  8
L1_85
  6
CONTINUOUS
 62
         7
100
AcDbLine
 10
1601.3786999334
 20
125.2524144385
 30
0.0
 11
1601.8786999334
 21
124.7524144385
 31
0.0
  0
LINE
  5
186
100
AcDbEntity
  8
L1_85
  6
CONTINUOUS
 62
         7
100
AcDbLine
 10
1601.8786999334
 20
99.7524144385
 30
0.0
 11
1601.3786999334
 21
99.2524144385
 31
0.0
  0
LINE
  5
187
100
AcDbEntity
  8
L1_85
  6
CONTINUOUS
 62
         7
100
AcDbLine
 10
1597.5786999334
 20
107.5024144385
 30
0.0
 11
1597.5786999334
 21
117.0024144385
 31
0.0
  0
ARC
  5
188
100
AcDbEntity
  8
L1_85
  6
CONTINUOUS
 62
         7
100
AcDbCircle
 10
1598.0786999334
 20
117.0024144385
 30
0.0
 40
0.5
100
AcDbArc
 50
90.0
 51
180.0
  0
LINE
  5
189
100
AcDbEntity
  8
L1_85
  6
CONTINUOUS
 62
         7
100
AcDbLine
 10
1601.3786999334
 20
117.5024144385
 30
0.0
 11
1598.0786999334
 21
117.5024144385
 31
0.0
  0
LINE
  5
18A
100
AcDbEntity
  8
L1_85
  6
CONTINUOUS
 62
         7
100
AcDbLine
 10
1601.3786999334
 20
107.0024144385
 30
0.0
 11
1598.0786999334
 21
107.0024144385
 31
0.0
  0
ARC
  5
18B
100
AcDbEntity
  8
L1_85
  6
CONTINUOUS
 62
         7
100
AcDbCircle
 10
1598.0786999334
 20
107.5024144385
 30
0.0
 40
0.5
100
AcDbArc
 50
180.0
 51
270.0
  0
LINE
  5
18C
100
AcDbEntity
  8
L1_85
  6
CENTER
 62
         1
100
AcDbLine
 10
1583.8786999334
 20
99.2524144385
 30
0.0
 11
1583.8786999334
 21
125.5341148771
 31
0.0
  0
LINE
  5
18D
100
AcDbEntity
  8
L1_85
  6
CONTINUOUS
 62
         7
100
AcDbLine
 10
1595.4286999334
 20
99.2524144385
 30
0.0
 11
1578.0786999334
 21
99.2524144385
 31
0.0
  0
LINE
  5
18E
100
AcDbEntity
  8
L1_85
  6
CONTINUOUS
 62
         7
100
AcDbLine
 10
1558.3786999334
 20
128.7524144385
 30
0.0
 11
1545.8786999334
 21
128.7524144385
 31
0.0
  0
LINE
  5
18F
100
AcDbEntity
  8
L1_85
  6
CONTINUOUS
 62
         7
100
AcDbLine
 10
1558.3786999334
 20
95.7524144385
 30
0.0
 11
1545.8786999334
 21
95.7524144385
 31
0.0
  0
LINE
  5
190
100
AcDbEntity
  8
L1_85
  6
CONTINUOUS
 62
         7
100
AcDbLine
 10
1576.6786999334
 20
125.7524144385
 30
0.0
 11
1559.3786999334
 21
125.7524144385
 31
0.0
  0
LINE
  5
191
100
AcDbEntity
  8
L1_85
  6
CONTINUOUS
 62
         7
100
AcDbLine
 10
1576.6786999334
 20
98.7524144385
 30
0.0
 11
1559.3786999334
 21
98.7524144385
 31
0.0
  0
LINE
  5
192
100
AcDbEntity
  8
L1_85
  6
CONTINUOUS
 62
         7
100
AcDbLine
 10
1558.8786999334
 20
96.2524144385
 30
0.0
 11
1558.8786999334
 21
128.2524144385
 31
0.0
  0
ARC
  5
193
100
AcDbEntity
  8
L1_85
  6
CONTINUOUS
 62
         7
100
AcDbCircle
 10
1559.3786999334
 20
126.2524144385
 30
0.0
 40
0.5
100
AcDbArc
 50
180.0
 51
270.0
  0
ARC
  5
194
100
AcDbEntity
  8
L1_85
  6
CONTINUOUS
 62
         7
100
AcDbCircle
 10
1559.3786999334
 20
98.2524144385
 30
0.0
 40
0.5
100
AcDbArc
 50
90.0
 51
180.0
  0
LINE
  5
195
100
AcDbEntity
  8
L1_85
  6
CONTINUOUS
 62
         7
100
AcDbLine
 10
1595.4286999334
 20
125.2524144385
 30
0.0
 11
1578.0786999334
 21
125.2524144385
 31
0.0
  0
LINE
  5
196
100
AcDbEntity
  8
L1_85
  6
CENTER
 62
         1
100
AcDbLine
 10
1548.3166468904
 20
112.2524144385
 30
0.0
 11
1599.8578552883
 21
112.2524144385
 31
0.0
  0
LINE
  5
197
100
AcDbEntity
  8
L1_85
  6
CONTINUOUS
 62
         7
100
AcDbLine
 10
1577.8786999334
 20
125.0524144385
 30
0.0
 11
1577.2786999334
 21
125.0524144385
 31
0.0
  0
ARC
  5
198
100
AcDbEntity
  8
L1_85
  6
CONTINUOUS
 62
         7
100
AcDbCircle
 10
1558.3786999334
 20
128.2524144385
 30
0.0
 40
0.5
100
AcDbArc
 50
0.0
 51
90.0
  0
ARC
  5
199
100
AcDbEntity
  8
L1_85
  6
CONTINUOUS
 62
         7
100
AcDbCircle
 10
1558.3786999334
 20
96.2524144385
 30
0.0
 40
0.5
100
AcDbArc
 50
270.0
 51
360.0
  0
ARC
  5
19A
100
AcDbEntity
  8
L1_85
  6
CONTINUOUS
 62
         7
100
AcDbCircle
 10
1576.6786999334
 20
98.9524144385
 30
0.0
 40
0.2
100
AcDbArc
 50
269.9999999999
 51
360.0
  0
LINE
  5
19B
100
AcDbEntity
  8
L1_85
  6
CONTINUOUS
 62
         7
100
AcDbLine
 10
1576.8786999334
 20
98.9524144385
 30
0.0
 11
1576.8786999334
 21
125.5524144385
 31
0.0
  0
ARC
  5
19C
100
AcDbEntity
  8
L1_85
  6
CONTINUOUS
 62
         7
100
AcDbCircle
 10
1576.6786999334
 20
125.5524144385
 30
0.0
 40
0.2
100
AcDbArc
 50
0.0
 51
90.0000000001
  0
LINE
  5
19D
100
AcDbEntity
  8
L1_85
  6
CONTINUOUS
 62
         7
100
AcDbLine
 10
1577.8786999334
 20
125.0524144385
 30
0.0
 11
1578.0786999334
 21
125.2524144385
 31
0.0
  0
LINE
  5
19E
100
AcDbEntity
  8
L1_85
  6
CONTINUOUS
 62
         7
100
AcDbLine
 10
1577.8786999334
 20
99.4524144385
 30
0.0
 11
1577.2786999334
 21
99.4524144385
 31
0.0
  0
LINE
  5
19F
100
AcDbEntity
  8
L1_85
  6
CONTINUOUS
 62
         7
100
AcDbLine
 10
1577.8786999334
 20
99.4524144385
 30
0.0
 11
1578.0786999334
 21
99.2524144385
 31
0.0
  0
ARC
  5
1A0
100
AcDbEntity
  8
L1_85
  6
CONTINUOUS
 62
         7
100
AcDbCircle
 10
1577.2786999334
 20
99.0524144385
 30
0.0
 40
0.4
100
AcDbArc
 50
90.0
 51
180.0
  0
ARC
  5
1A1
100
AcDbEntity
  8
L1_85
  6
CONTINUOUS
 62
         7
100
AcDbCircle
 10
1577.2786999334
 20
125.4524144385
 30
0.0
 40
0.4
100
AcDbArc
 50
180.0
 51
270.0
  0
LINE
  5
1A2
100
AcDbEntity
  8
L1_85
  6
CONTINUOUS
 62
         7
100
AcDbLine
 10
1595.4286999334
 20
125.2524144385
 30
0.0
 11
1595.5286999334
 21
125.1524144385
 31
0.0
  0
LINE
  5
1A3
100
AcDbEntity
  8
L1_85
  6
CONTINUOUS
 62
         7
100
AcDbLine
 10
1596.8786999334
 20
125.1524144385
 30
0.0
 11
1596.9786999334
 21
125.2524144385
 31
0.0
  0
LINE
  5
1A4
100
AcDbEntity
  8
L1_85
  6
CONTINUOUS
 62
         7
100
AcDbLine
 10
1595.5286999334
 20
99.3524144385
 30
0.0
 11
1595.4286999334
 21
99.2524144385
 31
0.0
  0
LINE
  5
1A5
100
AcDbEntity
  8
L1_85
  6
CONTINUOUS
 62
         7
100
AcDbLine
 10
1596.8786999334
 20
99.3524144385
 30
0.0
 11
1596.9786999334
 21
99.2524144385
 31
0.0
  0
LINE
  5
1A6
100
AcDbEntity
  8
L1_85
  6
CONTINUOUS
 62
         4
100
AcDbLine
 10
1577.8786999334
 20
99.4524144385
 30
0.0
 11
1577.8786999334
 21
125.0524144385
 31
0.0
  0
LINE
  5
1A7
100
AcDbEntity
  8
L1_85
  6
CONTINUOUS
 62
         7
100
AcDbLine
 10
1578.0786999334
 20
99.2524144385
 30
0.0
 11
1578.0786999334
 21
125.2524144385
 31
0.0
  0
LINE
  5
1A8
100
AcDbEntity
  8
L1_85
  6
CONTINUOUS
 62
         4
100
AcDbLine
 10
1601.3786999334
 20
117.5024144385
 30
0.0
 11
1601.3786999334
 21
125.2524144385
 31
0.0
  0
LINE
  5
1A9
100
AcDbEntity
  8
L1_85
  6
CONTINUOUS
 62
         4
100
AcDbLine
 10
1601.3786999334
 20
99.2524144385
 30
0.0
 11
1601.3786999334
 21
107.0024144385
 31
0.0
  0
LINE
  5
1AA
100
AcDbEntity
  8
L1_85
  6
CONTINUOUS
 62
         4
100
AcDbLine
 10
1595.4286999334
 20
99.2524144385
 30
0.0
 11
1595.4286999334
 21
125.2524144385
 31
0.0
  0
LINE
  5
1AB
100
AcDbEntity
  8
L1_85
  6
CONTINUOUS
 62
         4
100
AcDbLine
 10
1596.9786999334
 20
99.2524144385
 30
0.0
 11
1596.9786999334
 21
125.2524144385
 31
0.0
  0
LINE
  5
1AC
100
AcDbEntity
  8
L1_85
  6
CONTINUOUS
 62
         4
100
AcDbLine
 10
1576.6786999334
 20
98.7524144385
 30
0.0
 11
1576.6786999334
 21
125.7524144385
 31
0.0
  0
LINE
  5
1AD
100
AcDbEntity
  8
L1_85
  6
CONTINUOUS
 62
         4
100
AcDbLine
 10
1577.2786999334
 20
99.4524144385
 30
0.0
 11
1577.2786999334
 21
125.0524144385
 31
0.0
  0
LINE
  5
1AE
100
AcDbEntity
  8
L1_85
  6
CONTINUOUS
 62
         4
100
AcDbLine
 10
1559.3786999334
 20
98.7524144385
 30
0.0
 11
1559.3786999334
 21
125.7524144385
 31
0.0
  0
LINE
  5
1AF
100
AcDbEntity
  8
L1_85
  6
CONTINUOUS
 62
         4
100
AcDbLine
 10
1558.3786999334
 20
95.7524144385
 30
0.0
 11
1558.3786999334
 21
128.7524144385
 31
0.0
  0
LINE
  5
1B0
100
AcDbEntity
  8
L1_85
  6
CENTER
 62
         1
100
AcDbLine
 10
1586.3786999334
 20
118.7524144385
 30
0.0
 11
1581.3786999334
 21
118.7524144385
 31
0.0
  0
LINE
  5
1B1
100
AcDbEntity
  8
L1_85
  6
CENTER
 62
         1
100
AcDbLine
 10
1586.3786999334
 20
105.7524144385
 30
0.0
 11
1581.3786999334
 21
105.7524144385
 31
0.0
  0
DIMENSION
  5
1B4
100
AcDbEntity
  8
L1_85
  6
CONTINUOUS
 62
         4
100
AcDbDimension
  2
*D3
 10
1601.8786999334
 20
207.8076332585
 30
0.0
 11
1558.9220013054
 21
210.4326332585
 31
0.0
  3
DIMSTYLE1
100
AcDbAlignedDimension
 13
1601.8786999334
 23
112.2524144385
 33
0.0
 14
1516.8786999334
 24
142.7524144385
 34
0.0
100
AcDbRotatedDimension
  0
DIMENSION
  5
1C2
100
AcDbEntity
  8
L1_85
  6
CONTINUOUS
 62
         4
100
AcDbDimension
  2
*D4
 10
1484.8786999334
 20
217.9182063284
 30
0.0
 11
1537.2397286817
 21
220.5432063284
 31
0.0
  3
DIMSTYLE1
100
AcDbAlignedDimension
 13
1484.8786999334
 23
133.8259153749
 33
0.0
 14
1601.8786999334
 24
112.2524144385
 34
0.0
100
AcDbRotatedDimension
  0
LINE
  5
1CE
100
AcDbEntity
  8
_Y__________
  6
CONTINUOUS
 62
         7
100
AcDbLine
 10
1260.5201622977
 20
101.796894016
 30
0.0
 11
1259.0286957718
 21
98.8548454598
 31
0.0
  0
ARC
  5
1CF
100
AcDbEntity
  8
_Y__________
  6
CONTINUOUS
 62
         7
100
AcDbCircle
 10
1258.0106376555
 20
103.2052707314
 30
0.0
 40
2.8777197789
100
AcDbArc
 50
330.695675656
 51
451.1464599482
  0
LINE
  5
1D0
100
AcDbEntity
  8
_Y__________
  6
CONTINUOUS
 62
         7
100
AcDbLine
 10
1255.76414528
 20
106.0824144385
 30
0.0
 11
1257.9530597615
 21
106.0824144385
 31
0.0
  0
LINE
  5
1D1
100
AcDbEntity
  8
_Y__________
  6
CONTINUOUS
 62
         7
100
AcDbLine
 10
1260.5201622977
 20
122.7079348611
 30
0.0
 11
1259.0286957718
 21
125.6499834173
 31
0.0
  0
ARC
  5
1D2
100
AcDbEntity
  8
_Y__________
  6
CONTINUOUS
 62
         7
100
AcDbCircle
 10
1258.0106376555
 20
121.2995581457
 30
0.0
 40
2.8777197789
100
AcDbArc
 50
268.8535400518
 51
389.304324344
  0
LINE
  5
1D3
100
AcDbEntity
  8
_Y__________
  6
CONTINUOUS
 62
         7
100
AcDbLine
 10
1255.76414528
 20
118.4224144385
 30
0.0
 11
1257.9133403763
 21
118.4224144385
 31
0.0
  0
ARC
  5
1D4
100
AcDbEntity
  8
_Y__________
  6
CONTINUOUS
 62
         7
100
AcDbCircle
 10
1239.9233403763
 20
112.2524144385
 30
0.0
 40
23.3347264679
100
AcDbArc
 50
324.9600647154
 51
395.0399352845
  0
ARC
  5
1D5
100
AcDbEntity
  8
_Y__________
  6
CONTINUOUS
 62
         7
100
AcDbCircle
 10
1239.9233403763
 20
112.2524144385
 30
0.0
 40
22.715
100
AcDbArc
 50
202.7223719759
 51
337.2776280241
  0
ARC
  5
1D6
100
AcDbEntity
  8
_Y__________
  6
CONTINUOUS
 62
         7
100
AcDbCircle
 10
1239.9233403763
 20
112.2524144385
 30
0.0
 40
22.715
100
AcDbArc
 50
22.7223719759
 51
157.2776280241
  0
LINE
  5
1D7
100
AcDbEntity
  8
_Y__________
  6
CONTINUOUS
 62
         7
100
AcDbLine
 10
1219.3265184548
 20
101.796894016
 30
0.0
 11
1220.8179849807
 21
98.8548454598
 31
0.0
  0
ARC
  5
1D8
100
AcDbEntity
  8
_Y__________
  6
CONTINUOUS
 62
         7
100
AcDbCircle
 10
1221.836043097
 20
103.2052707314
 30
0.0
 40
2.8777197789
100
AcDbArc
 50
88.8535400518
 51
209.304324344
  0
LINE
  5
1D9
100
AcDbEntity
  8
_Y__________
  6
CONTINUOUS
 62
         7
100
AcDbLine
 10
1224.0825354725
 20
106.0824144385
 30
0.0
 11
1221.893620991
 21
106.0824144385
 31
0.0
  0
LINE
  5
1DA
100
AcDbEntity
  8
_Y__________
  6
CONTINUOUS
 62
         7
100
AcDbLine
 10
1219.3265184548
 20
122.7079348611
 30
0.0
 11
1220.8179849807
 21
125.6499834173
 31
0.0
  0
ARC
  5
1DB
100
AcDbEntity
  8
_Y__________
  6
CONTINUOUS
 62
         7
100
AcDbCircle
 10
1221.836043097
 20
121.2995581457
 30
0.0
 40
2.8777197789
100
AcDbArc
 50
150.695675656
 51
271.1464599482
  0
LINE
  5
1DC
100
AcDbEntity
  8
_Y__________
  6
CONTINUOUS
 62
         7
100
AcDbLine
 10
1224.0825354725
 20
118.4224144385
 30
0.0
 11
1221.9333403763
 21
118.4224144385
 31
0.0
  0
ARC
  5
1DD
100
AcDbEntity
  8
_Y__________
  6
CONTINUOUS
 62
         7
100
AcDbCircle
 10
1239.9233403763
 20
112.2524144385
 30
0.0
 40
23.3347264679
100
AcDbArc
 50
144.9600647155
 51
215.0399352845
  0
LINE
  5
1DE
100
AcDbEntity
  8
_Y__________
  6
CENTER
 62
         1
100
AcDbLine
 10
1498.7666999334
 20
11.2561989127
 30
0.0
 11
1498.7666999334
 21
-25.7438010873
 31
0.0
  0
ARC
  5
1DF
100
AcDbEntity
  8
_Y__________
  6
CONTINUOUS
 62
         7
100
AcDbCircle
 10
1517.8786999334
 20
-96.2400166132
 30
0.0
 40
1.0
100
AcDbArc
 50
90.0
 51
180.0
  0
ARC
  5
1E0
100
AcDbEntity
  8
_Y__________
  6
CONTINUOUS
 62
         7
100
AcDbCircle
 10
1541.8786999334
 20
-96.2400166132
 30
0.0
 40
1.0
100
AcDbArc
 50
0.0
 51
90.0
  0
ARC
  5
1E1
100
AcDbEntity
  8
_Y__________
  6
CONTINUOUS
 62
         7
100
AcDbCircle
 10
1517.8786999334
 20
-157.2400166132
 30
0.0
 40
1.0
100
AcDbArc
 50
180.0
 51
270.0
  0
ARC
  5
1E2
100
AcDbEntity
  8
_Y__________
  6
CONTINUOUS
 62
         7
100
AcDbCircle
 10
1541.8786999334
 20
-157.2400166132
 30
0.0
 40
1.0
100
AcDbArc
 50
270.0
 51
360.0
  0
LINE
  5
1E3
100
AcDbEntity
  8
_Y__________
  6
CONTINUOUS
 62
         7
100
AcDbLine
 10
1541.8786999334
 20
-95.2400166132
 30
0.0
 11
1540.8786999334
 21
-95.2400166132
 31
0.0
  0
LINE
  5
1E4
100
AcDbEntity
  8
_Y__________
  6
CONTINUOUS
 62
         7
100
AcDbLine
 10
1541.8786999334
 20
-158.2400166132
 30
0.0
 11
1540.8786999334
 21
-158.2400166132
 31
0.0
  0
LINE
  5
1E5
100
AcDbEntity
  8
_Y__________
  6
CONTINUOUS
 62
         7
100
AcDbLine
 10
1516.8786999334
 20
-157.2400166132
 30
0.0
 11
1516.8786999334
 21
-156.2400166132
 31
0.0
  0
LINE
  5
1E6
100
AcDbEntity
  8
_Y__________
  6
CONTINUOUS
 62
         7
100
AcDbLine
 10
1542.8786999334
 20
-157.2400166132
 30
0.0
 11
1542.8786999334
 21
-146.2400166132
 31
0.0
  0
LINE
  5
1E7
100
AcDbEntity
  8
_Y__________
  6
CONTINUOUS
 62
         7
100
AcDbLine
 10
1542.8786999334
 20
-107.2400166132
 30
0.0
 11
1542.8786999334
 21
-96.2400166132
 31
0.0
  0
LINE
  5
1E8
100
AcDbEntity
  8
_Y__________
  6
CONTINUOUS
 62
         7
100
AcDbLine
 10
1516.8786999334
 20
-97.2400166132
 30
0.0
 11
1516.8786999334
 21
-96.2400166132
 31
0.0
  0
LINE
  5
1E9
100
AcDbEntity
  8
_Y__________
  6
CONTINUOUS
 62
         7
100
AcDbLine
 10
1518.8786999334
 20
-158.2400166132
 30
0.0
 11
1517.8786999334
 21
-158.2400166132
 31
0.0
  0
LINE
  5
1EA
100
AcDbEntity
  8
_Y__________
  6
CONTINUOUS
 62
         7
100
AcDbLine
 10
1518.8786999334
 20
-95.2400166132
 30
0.0
 11
1517.8786999334
 21
-95.2400166132
 31
0.0
  0
ARC
  5
1EB
100
AcDbEntity
  8
_Y__________
  6
CONTINUOUS
 62
         7
100
AcDbCircle
 10
1517.8786999334
 20
23.2561989127
 30
0.0
 40
1.0
100
AcDbArc
 50
90.0
 51
180.0
  0
ARC
  5
1EC
100
AcDbEntity
  8
_Y__________
  6
CONTINUOUS
 62
         7
100
AcDbCircle
 10
1541.8786999334
 20
23.2561989127
 30
0.0
 40
1.0
100
AcDbArc
 50
0.0
 51
90.0
  0
ARC
  5
1ED
100
AcDbEntity
  8
_Y__________
  6
CONTINUOUS
 62
         7
100
AcDbCircle
 10
1517.8786999334
 20
-37.7438010873
 30
0.0
 40
1.0
100
AcDbArc
 50
180.0
 51
270.0
  0
ARC
  5
1EE
100
AcDbEntity
  8
_Y__________
  6
CONTINUOUS
 62
         7
100
AcDbCircle
 10
1541.8786999334
 20
-37.7438010873
 30
0.0
 40
1.0
100
AcDbArc
 50
270.0
 51
360.0
  0
LINE
  5
1EF
100
AcDbEntity
  8
_Y__________
  6
CONTINUOUS
 62
         7
100
AcDbLine
 10
1541.8786999334
 20
24.2561989127
 30
0.0
 11
1540.8786999334
 21
24.2561989127
 31
0.0
  0
LINE
  5
1F0
100
AcDbEntity
  8
_Y__________
  6
CONTINUOUS
 62
         7
100
AcDbLine
 10
1541.8786999334
 20
-38.7438010873
 30
0.0
 11
1540.8786999334
 21
-38.7438010873
 31
0.0
  0
LINE
  5
1F1
100
AcDbEntity
  8
_Y__________
  6
CONTINUOUS
 62
         7
100
AcDbLine
 10
1516.8786999334
 20
-37.7438010873
 30
0.0
 11
1516.8786999334
 21
-36.7438010873
 31
0.0
  0
LINE
  5
1F2
100
AcDbEntity
  8
_Y__________
  6
CONTINUOUS
 62
         7
100
AcDbLine
 10
1542.8786999334
 20
-37.7438010873
 30
0.0
 11
1542.8786999334
 21
-26.7438010873
 31
0.0
  0
LINE
  5
1F3
100
AcDbEntity
  8
_Y__________
  6
CONTINUOUS
 62
         7
100
AcDbLine
 10
1542.8786999334
 20
12.2561989127
 30
0.0
 11
1542.8786999334
 21
23.2561989127
 31
0.0
  0
LINE
  5
1F4
100
AcDbEntity
  8
_Y__________
  6
CONTINUOUS
 62
         7
100
AcDbLine
 10
1516.8786999334
 20
22.2561989127
 30
0.0
 11
1516.8786999334
 21
23.2561989127
 31
0.0
  0
LINE
  5
1F5
100
AcDbEntity
  8
_Y__________
  6
CONTINUOUS
 62
         7
100
AcDbLine
 10
1518.8786999334
 20
-38.7438010873
 30
0.0
 11
1517.8786999334
 21
-38.7438010873
 31
0.0
  0
LINE
  5
1F6
100
AcDbEntity
  8
_Y__________
  6
CONTINUOUS
 62
         7
100
AcDbLine
 10
1518.8786999334
 20
24.2561989127
 30
0.0
 11
1517.8786999334
 21
24.2561989127
 31
0.0
  0
LINE
  5
1F7
100
AcDbEntity
  8
_Y__________
  6
CONTINUOUS
 62
         7
100
AcDbLine
 10
1518.8786999334
 20
143.7524144385
 30
0.0
 11
1517.8786999334
 21
143.7524144385
 31
0.0
  0
LINE
  5
1F8
100
AcDbEntity
  8
_Y__________
  6
CONTINUOUS
 62
         7
100
AcDbLine
 10
1518.8786999334
 20
80.7524144385
 30
0.0
 11
1517.8786999334
 21
80.7524144385
 31
0.0
  0
LINE
  5
1F9
100
AcDbEntity
  8
_Y__________
  6
CONTINUOUS
 62
         7
100
AcDbLine
 10
1516.8786999334
 20
141.7524144385
 30
0.0
 11
1516.8786999334
 21
142.7524144385
 31
0.0
  0
LINE
  5
1FA
100
AcDbEntity
  8
_Y__________
  6
CONTINUOUS
 62
         7
100
AcDbLine
 10
1542.8786999334
 20
141.7524144385
 30
0.0
 11
1542.8786999334
 21
142.7524144385
 31
0.0
  0
LINE
  5
1FB
100
AcDbEntity
  8
_Y__________
  6
CONTINUOUS
 62
         7
100
AcDbLine
 10
1542.8786999334
 20
81.7524144385
 30
0.0
 11
1542.8786999334
 21
82.7524144385
 31
0.0
  0
LINE
  5
1FC
100
AcDbEntity
  8
_Y__________
  6
CONTINUOUS
 62
         7
100
AcDbLine
 10
1516.8786999334
 20
81.7524144385
 30
0.0
 11
1516.8786999334
 21
82.7524144385
 31
0.0
  0
LINE
  5
1FD
100
AcDbEntity
  8
_Y__________
  6
CONTINUOUS
 62
         7
100
AcDbLine
 10
1541.8786999334
 20
80.7524144385
 30
0.0
 11
1540.8786999334
 21
80.7524144385
 31
0.0
  0
LINE
  5
1FE
100
AcDbEntity
  8
_Y__________
  6
CONTINUOUS
 62
         7
100
AcDbLine
 10
1541.8786999334
 20
143.7524144385
 30
0.0
 11
1540.8786999334
 21
143.7524144385
 31
0.0
  0
ARC
  5
1FF
100
AcDbEntity
  8
_Y__________
  6
CONTINUOUS
 62
         7
100
AcDbCircle
 10
1541.8786999334
 20
81.7524144385
 30
0.0
 40
1.0
100
AcDbArc
 50
270.0
 51
360.0
  0
ARC
  5
200
100
AcDbEntity
  8
_Y__________
  6
CONTINUOUS
 62
         7
100
AcDbCircle
 10
1517.8786999334
 20
81.7524144385
 30
0.0
 40
1.0
100
AcDbArc
 50
180.0
 51
270.0
  0
ARC
  5
201
100
AcDbEntity
  8
_Y__________
  6
CONTINUOUS
 62
         7
100
AcDbCircle
 10
1541.8786999334
 20
142.7524144385
 30
0.0
 40
1.0
100
AcDbArc
 50
0.0
 51
90.0
  0
ARC
  5
202
100
AcDbEntity
  8
_Y__________
  6
CONTINUOUS
 62
         7
100
AcDbCircle
 10
1517.8786999334
 20
142.7524144385
 30
0.0
 40
1.0
100
AcDbArc
 50
90.0
 51
180.0
  0
ARC
  5
203
100
AcDbEntity
  8
_Y__________
  6
CONTINUOUS
 62
         7
100
AcDbCircle
 10
1541.8786999334
 20
88.9162273913
 30
0.0
 40
1.0
100
AcDbArc
 50
270.0
 51
360.0
  0
LINE
  5
204
100
AcDbEntity
  8
_Y__________
  6
CONTINUOUS
 62
         7
100
AcDbLine
 10
1531.5012008586
 20
103.2524144385
 30
0.0
 11
1533.0036999334
 21
104.2524144385
 31
0.0
  0
LINE
  5
205
100
AcDbEntity
  8
_Y__________
  6
CONTINUOUS
 62
         7
100
AcDbLine
 10
1536.7536999334
 20
104.2524144385
 30
0.0
 11
1538.2561990082
 21
103.2524144385
 31
0.0
  0
LINE
  5
206
100
AcDbEntity
  8
_Y__________
  6
CONTINUOUS
 62
         7
100
AcDbLine
 10
1531.5012008586
 20
121.2524144385
 30
0.0
 11
1533.0036999334
 21
120.2524144385
 31
0.0
  0
LINE
  5
207
100
AcDbEntity
  8
_Y__________
  6
CONTINUOUS
 62
         7
100
AcDbLine
 10
1536.7536999334
 20
120.2524144385
 30
0.0
 11
1538.2561990082
 21
121.2524144385
 31
0.0
  0
LINE
  5
208
100
AcDbEntity
  8
_Y__________
  6
CONTINUOUS
 62
         7
100
AcDbLine
 10
1538.2561990082
 20
103.2524144385
 30
0.0
 11
1542.8786999334
 21
103.2524144385
 31
0.0
  0
LINE
  5
209
100
AcDbEntity
  8
_Y__________
  6
CONTINUOUS
 62
         7
100
AcDbLine
 10
1542.8786999334
 20
92.2524144385
 30
0.0
 11
1536.7536999334
 21
92.2524144385
 31
0.0
  0
LINE
  5
20A
100
AcDbEntity
  8
_Y__________
  6
CONTINUOUS
 62
         7
100
AcDbLine
 10
1538.2561990082
 20
92.2524144385
 30
0.0
 11
1538.2561990082
 21
103.2524144385
 31
0.0
  0
LINE
  5
20B
100
AcDbEntity
  8
_Y__________
  6
CONTINUOUS
 62
         7
100
AcDbLine
 10
1529.8786999334
 20
103.2524144385
 30
0.0
 11
1531.5012008586
 21
103.2524144385
 31
0.0
  0
LINE
  5
20C
100
AcDbEntity
  8
_Y__________
  6
CONTINUOUS
 62
         7
100
AcDbLine
 10
1529.8786999334
 20
121.2524144385
 30
0.0
 11
1531.5012008586
 21
121.2524144385
 31
0.0
  0
LINE
  5
20D
100
AcDbEntity
  8
_Y__________
  6
CONTINUOUS
 62
         7
100
AcDbLine
 10
1541.8786999334
 20
87.9162273913
 30
0.0
 11
1538.2561990082
 21
87.9162273913
 31
0.0
  0
LINE
  5
20E
100
AcDbEntity
  8
_Y__________
  6
CONTINUOUS
 62
         7
100
AcDbLine
 10
1536.7536999334
 20
91.3940585097
 30
0.0
 11
1538.2561990082
 21
87.9162273913
 31
0.0
  0
LINE
  5
20F
100
AcDbEntity
  8
_Y__________
  6
CONTINUOUS
 62
         7
100
AcDbLine
 10
1536.7536999334
 20
83.3548191744
 30
0.0
 11
1536.7536999334
 21
104.2524144385
 31
0.0
  0
LINE
  5
210
100
AcDbEntity
  8
_Y__________
  6
CONTINUOUS
 62
         7
100
AcDbLine
 10
1538.2561990082
 20
80.7524144385
 30
0.0
 11
1538.2561990082
 21
87.9162273913
 31
0.0
  0
LINE
  5
211
100
AcDbEntity
  8
_Y__________
  6
CONTINUOUS
 62
         7
100
AcDbLine
 10
1533.0036999334
 20
92.2524144385
 30
0.0
 11
1528.9904138371
 21
92.2524144385
 31
0.0
  0
LINE
  5
212
100
AcDbEntity
  8
_Y__________
  6
CONTINUOUS
 62
         7
100
AcDbLine
 10
1531.5012008586
 20
87.9162273913
 30
0.0
 11
1533.0036999334
 21
91.3940585097
 31
0.0
  0
LINE
  5
213
100
AcDbEntity
  8
_Y__________
  6
CONTINUOUS
 62
         7
100
AcDbLine
 10
1533.0036999334
 20
83.3548191744
 30
0.0
 11
1533.0036999334
 21
104.2524144385
 31
0.0
  0
LINE
  5
214
100
AcDbEntity
  8
_Y__________
  6
CONTINUOUS
 62
         7
100
AcDbLine
 10
1531.5012008586
 20
80.7524144385
 30
0.0
 11
1531.5012008586
 21
87.9162273913
 31
0.0
  0
ARC
  5
215
100
AcDbEntity
  8
_Y__________
  6
CONTINUOUS
 62
         7
100
AcDbCircle
 10
1528.9904138371
 20
84.2524144385
 30
0.0
 40
8.0
100
AcDbArc
 50
90.0
 51
152.7433806908
  0
LINE
  5
216
100
AcDbEntity
  8
_Y__________
  6
CONTINUOUS
 62
         7
100
AcDbLine
 10
1531.5012008586
 20
87.9162273913
 30
0.0
 11
1521.8786999334
 21
87.9162273913
 31
0.0
  0
LINE
  5
217
100
AcDbEntity
  8
_Y__________
  6
CONTINUOUS
 62
         7
100
AcDbLine
 10
1531.5012008586
 20
92.2524144385
 30
0.0
 11
1531.5012008586
 21
103.2524144385
 31
0.0
  0
LINE
  5
218
100
AcDbEntity
  8
_Y__________
  6
CONTINUOUS
 62
         7
100
AcDbLine
 10
1529.8786999334
 20
104.2524144385
 30
0.0
 11
1542.8786999334
 21
104.2524144385
 31
0.0
  0
ARC
  5
219
100
AcDbEntity
  8
_Y__________
  6
CONTINUOUS
 62
         7
100
AcDbCircle
 10
1529.8786999334
 20
112.2524144385
 30
0.0
 40
8.0
100
AcDbArc
 50
90.0
 51
270.0
  0
ARC
  5
21A
100
AcDbEntity
  8
_Y__________
  6
CONTINUOUS
 62
         7
100
AcDbCircle
 10
1529.8786999334
 20
112.2524144385
 30
0.0
 40
9.0
100
AcDbArc
 50
90.0
 51
270.0
  0
LINE
  5
21B
100
AcDbEntity
  8
_Y__________
  6
CONTINUOUS
 62
         7
100
AcDbLine
 10
1529.8786999334
 20
120.2524144385
 30
0.0
 11
1542.8786999334
 21
120.2524144385
 31
0.0
  0
LINE
  5
21C
100
AcDbEntity
  8
_Y__________
  6
CONTINUOUS
 62
         7
100
AcDbLine
 10
1538.2561990082
 20
121.2524144385
 30
0.0
 11
1542.8786999334
 21
121.2524144385
 31
0.0
  0
LINE
  5
21D
100
AcDbEntity
  8
_Y__________
  6
CONTINUOUS
 62
         7
100
AcDbLine
 10
1538.2561990082
 20
143.7524144385
 30
0.0
 11
1538.2561990082
 21
121.2524144385
 31
0.0
  0
LINE
  5
21E
100
AcDbEntity
  8
_Y__________
  6
CONTINUOUS
 62
         7
100
AcDbLine
 10
1536.7536999334
 20
141.1500097027
 30
0.0
 11
1536.7536999334
 21
120.2524144385
 31
0.0
  0
LINE
  5
21F
100
AcDbEntity
  8
_Y__________
  6
CONTINUOUS
 62
         7
100
AcDbLine
 10
1533.0036999334
 20
141.1500097027
 30
0.0
 11
1533.0036999334
 21
120.2524144385
 31
0.0
  0
LINE
  5
220
100
AcDbEntity
  8
_Y__________
  6
CONTINUOUS
 62
         7
100
AcDbLine
 10
1531.5012008586
 20
143.7524144385
 30
0.0
 11
1531.5012008586
 21
121.2524144385
 31
0.0
  0
LINE
  5
221
100
AcDbEntity
  8
_Y__________
  6
CONTINUOUS
 62
         5
100
AcDbLine
 10
1527.7447253372
 20
-117.7400166132
 30
0.0
 11
1535.8786999334
 21
-117.7400166132
 31
0.0
  0
LINE
  5
222
100
AcDbEntity
  8
_Y__________
  6
CONTINUOUS
 62
         7
100
AcDbLine
 10
1528.610750741
 20
-135.2400166132
 30
0.0
 11
1535.8786999334
 21
-135.2400166132
 31
0.0
  0
LINE
  5
223
100
AcDbEntity
  8
_Y__________
  6
CONTINUOUS
 62
         5
100
AcDbLine
 10
1527.7447253372
 20
-135.7400166132
 30
0.0
 11
1535.8786999334
 21
-135.7400166132
 31
0.0
  0
LINE
  5
224
100
AcDbEntity
  8
_Y__________
  6
CONTINUOUS
 62
         7
100
AcDbLine
 10
1528.610750741
 20
-118.2400166132
 30
0.0
 11
1535.8786999334
 21
-118.2400166132
 31
0.0
  0
LINE
  5
225
100
AcDbEntity
  8
_Y__________
  6
CONTINUOUS
 62
         7
100
AcDbLine
 10
1528.610750741
 20
-118.2400166132
 30
0.0
 11
1528.610750741
 21
-135.2400166132
 31
0.0
  0
LINE
  5
226
100
AcDbEntity
  8
_Y__________
  6
CONTINUOUS
 62
         7
100
AcDbLine
 10
1526.8786999334
 20
-117.2400166132
 30
0.0
 11
1528.610750741
 21
-118.2400166132
 31
0.0
  0
LINE
  5
227
100
AcDbEntity
  8
_Y__________
  6
CONTINUOUS
 62
         7
100
AcDbLine
 10
1526.8786999334
 20
-136.2400166132
 30
0.0
 11
1528.610750741
 21
-135.2400166132
 31
0.0
  0
LINE
  5
228
100
AcDbEntity
  8
_Y__________
  6
CONTINUOUS
 62
         5
100
AcDbLine
 10
1527.7447253372
 20
1.7561989127
 30
0.0
 11
1535.8786999334
 21
1.7561989127
 31
0.0
  0
LINE
  5
229
100
AcDbEntity
  8
_Y__________
  6
CONTINUOUS
 62
         7
100
AcDbLine
 10
1528.610750741
 20
-15.7438010873
 30
0.0
 11
1535.8786999334
 21
-15.7438010873
 31
0.0
  0
LINE
  5
22A
100
AcDbEntity
  8
_Y__________
  6
CONTINUOUS
 62
         5
100
AcDbLine
 10
1527.7447253372
 20
-16.2438010873
 30
0.0
 11
1535.8786999334
 21
-16.2438010873
 31
0.0
  0
LINE
  5
22B
100
AcDbEntity
  8
_Y__________
  6
CONTINUOUS
 62
         7
100
AcDbLine
 10
1528.610750741
 20
1.2561989127
 30
0.0
 11
1535.8786999334
 21
1.2561989127
 31
0.0
  0
LINE
  5
22C
100
AcDbEntity
  8
_Y__________
  6
CONTINUOUS
 62
         7
100
AcDbLine
 10
1528.610750741
 20
1.2561989127
 30
0.0
 11
1528.610750741
 21
-15.7438010873
 31
0.0
  0
LINE
  5
22D
100
AcDbEntity
  8
_Y__________
  6
CONTINUOUS
 62
         7
100
AcDbLine
 10
1526.8786999334
 20
2.2561989127
 30
0.0
 11
1528.610750741
 21
1.2561989127
 31
0.0
  0
LINE
  5
22E
100
AcDbEntity
  8
_Y__________
  6
CONTINUOUS
 62
         7
100
AcDbLine
 10
1526.8786999334
 20
-16.7438010873
 30
0.0
 11
1528.610750741
 21
-15.7438010873
 31
0.0
  0
LINE
  5
22F
100
AcDbEntity
  8
_Y__________
  6
CONTINUOUS
 62
         7
100
AcDbLine
 10
1825.8340594905
 20
92.2524144385
 30
0.0
 11
1826.3340594905
 21
92.7524144385
 31
0.0
  0
LINE
  5
230
100
AcDbEntity
  8
_Y__________
  6
CONTINUOUS
 62
         7
100
AcDbLine
 10
1826.3340594905
 20
92.7524144385
 30
0.0
 11
1826.3340594905
 21
87.5137806848
 31
0.0
  0
LINE
  5
231
100
AcDbEntity
  8
_Y__________
  6
CONTINUOUS
 62
         7
100
AcDbLine
 10
1825.8340594905
 20
92.2524144385
 30
0.0
 11
1825.8340594905
 21
87.9162273913
 31
0.0
  0
LINE
  5
232
100
AcDbEntity
  8
_Y__________
  6
CONTINUOUS
 62
         7
100
AcDbLine
 10
1821.0954257368
 20
92.7524144385
 30
0.0
 11
1826.3340594905
 21
92.7524144385
 31
0.0
  0
LINE
  5
233
100
AcDbEntity
  8
_Y__________
  6
CONTINUOUS
 62
         7
100
AcDbLine
 10
1821.4978724433
 20
92.2524144385
 30
0.0
 11
1825.8340594905
 21
92.2524144385
 31
0.0
  0
LINE
  5
234
100
AcDbEntity
  8
_Y__________
  6
CONTINUOUS
 62
         7
100
AcDbLine
 10
1821.2452408935
 20
92.3724144385
 30
0.0
 11
1825.9540594905
 21
92.3724144385
 31
0.0
  0
LINE
  5
235
100
AcDbEntity
  8
_Y__________
  6
CONTINUOUS
 62
         7
100
AcDbLine
 10
1825.9540594905
 20
92.3724144385
 30
0.0
 11
1825.9540594905
 21
87.6635958415
 31
0.0
  0
LINE
  5
236
100
AcDbEntity
  8
_Y__________
  6
CONTINUOUS
 62
         7
100
AcDbLine
 10
1826.9540594905
 20
93.3724144385
 30
0.0
 11
1826.9540594905
 21
86.8876751338
 31
0.0
  0
LINE
  5
237
100
AcDbEntity
  8
_Y__________
  6
CONTINUOUS
 62
         7
100
AcDbLine
 10
1820.4693201857
 20
93.3724144385
 30
0.0
 11
1826.9540594905
 21
93.3724144385
 31
0.0
  0
LINE
  5
238
100
AcDbEntity
  8
_Y__________
  6
CONTINUOUS
 62
         7
100
AcDbLine
 10
1826.9540594905
 20
93.3724144385
 30
0.0
 11
1825.9540594905
 21
92.3724144385
 31
0.0
  0
LINE
  5
239
100
AcDbEntity
  8
_Y__________
  6
CONTINUOUS
 62
         7
100
AcDbLine
 10
1819.3340594905
 20
121.2524144385
 30
0.0
 11
1819.3340594905
 21
103.2524144385
 31
0.0
  0
LINE
  5
23A
100
AcDbEntity
  8
_Y__________
  6
CONTINUOUS
 62
         7
100
AcDbLine
 10
1816.401934185
 20
104.2524144385
 30
0.0
 11
1819.3340594905
 21
104.2524144385
 31
0.0
  0
LINE
  5
23B
100
AcDbEntity
  8
_Y__________
  6
CONTINUOUS
 62
         7
100
AcDbLine
 10
1816.401934185
 20
120.2524144385
 30
0.0
 11
1819.3340594905
 21
120.2524144385
 31
0.0
  0
LINE
  5
23C
100
AcDbEntity
  8
_Y__________
  6
CONTINUOUS
 62
         7
100
AcDbLine
 10
1815.6471417943
 20
103.2524144385
 30
0.0
 11
1816.401934185
 21
104.2524144385
 31
0.0
  0
LINE
  5
23D
100
AcDbEntity
  8
_Y__________
  6
CONTINUOUS
 62
         7
100
AcDbLine
 10
1815.6471417943
 20
121.2524144385
 30
0.0
 11
1816.401934185
 21
120.2524144385
 31
0.0
  0
LINE
  5
23E
100
AcDbEntity
  8
_Y__________
  6
CONTINUOUS
 62
         7
100
AcDbLine
 10
1815.6471417943
 20
121.2524144385
 30
0.0
 11
1819.3340594905
 21
121.2524144385
 31
0.0
  0
LINE
  5
23F
100
AcDbEntity
  8
_Y__________
  6
CONTINUOUS
 62
         7
100
AcDbLine
 10
1815.6471417943
 20
103.2524144385
 30
0.0
 11
1819.3340594905
 21
103.2524144385
 31
0.0
  0
ARC
  5
240
100
AcDbEntity
  8
_Y__________
  6
CONTINUOUS
 62
         7
100
AcDbCircle
 10
1845.8340594905
 20
112.2524144385
 30
0.0
 40
30.5
100
AcDbArc
 50
164.7937121239
 51
195.2062878761
  0
LINE
  5
241
100
AcDbEntity
  8
_Y__________
  6
CONTINUOUS
 62
         7
100
AcDbLine
 10
1875.704613553
 20
102.2524144385
 30
0.0
 11
1874.9759537323
 21
103.2524144385
 31
0.0
  0
LINE
  5
242
100
AcDbEntity
  8
_Y__________
  6
CONTINUOUS
 62
         7
100
AcDbLine
 10
1875.704613553
 20
122.2524144385
 30
0.0
 11
1874.9759537323
 21
121.2524144385
 31
0.0
  0
ARC
  5
243
100
AcDbEntity
  8
_Y__________
  6
CONTINUOUS
 62
         7
100
AcDbCircle
 10
1845.8340594905
 20
112.2524144385
 30
0.0
 40
30.5
100
AcDbArc
 50
342.8375474519
 51
377.1624525481
  0
LINE
  5
244
100
AcDbEntity
  8
_Y__________
  6
CONTINUOUS
 62
         7
100
AcDbLine
 10
1872.3340594905
 20
122.2524144385
 30
0.0
 11
1872.3340594905
 21
102.2524144385
 31
0.0
  0
LINE
  5
245
100
AcDbEntity
  8
_Y__________
  6
CONTINUOUS
 62
         7
100
AcDbLine
 10
1874.9759537323
 20
103.2524144385
 30
0.0
 11
1872.3340594905
 21
103.2524144385
 31
0.0
  0
LINE
  5
246
100
AcDbEntity
  8
_Y__________
  6
CONTINUOUS
 62
         7
100
AcDbLine
 10
1874.9759537323
 20
121.2524144385
 30
0.0
 11
1872.3340594905
 21
121.2524144385
 31
0.0
  0
LINE
  5
247
100
AcDbEntity
  8
_Y__________
  6
CONTINUOUS
 62
         7
100
AcDbLine
 10
1875.704613553
 20
122.2524144385
 30
0.0
 11
1872.3340594905
 21
122.2524144385
 31
0.0
  0
LINE
  5
248
100
AcDbEntity
  8
_Y__________
  6
CONTINUOUS
 62
         7
100
AcDbLine
 10
1875.704613553
 20
102.2524144385
 30
0.0
 11
1872.3340594905
 21
102.2524144385
 31
0.0
  0
LINE
  5
249
100
AcDbEntity
  8
_Y__________
  6
CENTER
 62
         1
100
AcDbLine
 10
1811.3340594905
 20
112.2524144385
 30
0.0
 11
1879.9286171776
 21
112.2524144385
 31
0.0
  0
CIRCLE
  5
24A
100
AcDbEntity
  8
_Y__________
  6
CONTINUOUS
 62
         7
100
AcDbCircle
 10
1845.8340594905
 20
112.2524144385
 30
0.0
 40
31.5
  0
LINE
  5
24B
100
AcDbEntity
  8
_Y__________
  6
CENTER
 62
         1
100
AcDbLine
 10
1845.8340594905
 20
146.7524144385
 30
0.0
 11
1845.8340594905
 21
77.7524144385
 31
0.0
  0
CIRCLE
  5
24C
100
AcDbEntity
  8
_Y__________
  6
CONTINUOUS
 62
         7
100
AcDbCircle
 10
1239.9233403763
 20
112.2524144385
 30
0.0
 40
17.0
  0
CIRCLE
  5
24D
100
AcDbEntity
  8
_Y__________
  6
CONTINUOUS
 62
         7
100
AcDbCircle
 10
1239.9233403763
 20
112.2524144385
 30
0.0
 40
31.5
  0
CIRCLE
  5
24E
100
AcDbEntity
  8
_Y__________
  6
CONTINUOUS
 62
         7
100
AcDbCircle
 10
1239.9233403763
 20
112.2524144385
 30
0.0
 40
24.215
  0
LINE
  5
24F
100
AcDbEntity
  8
_Y__________
  6
CENTER
 62
         1
100
AcDbLine
 10
1498.7666999334
 20
-108.2400166132
 30
0.0
 11
1498.7666999334
 21
-145.2400166132
 31
0.0
  0
ARC
  5
250
100
AcDbEntity
  8
_Y__________
  6
CONTINUOUS
 62
         7
100
AcDbCircle
 10
1510.633701935
 20
-114.7400166132
 30
0.0
 40
8.0
100
AcDbArc
 50
38.6821874535
 51
90.0
  0
LINE
  5
251
100
AcDbEntity
  8
_Y__________
  6
CONTINUOUS
 62
         7
100
AcDbLine
 10
1486.0187747931
 20
-103.9680128702
 30
0.0
 11
1514.8786999334
 21
-102.5250166132
 31
0.0
  0
LINE
  5
252
100
AcDbEntity
  8
_Y__________
  6
CENTER
 62
         1
100
AcDbLine
 10
1492.7529077475
 20
-126.7400166132
 30
0.0
 11
1542.8786999334
 21
-126.7400166132
 31
0.0
  0
ARC
  5
253
100
AcDbEntity
  8
_Y__________
  6
CONTINUOUS
 62
         7
100
AcDbCircle
 10
1510.633701935
 20
-138.7400166132
 30
0.0
 40
8.0
100
AcDbArc
 50
270.0
 51
321.3178125465
  0
LINE
  5
254
100
AcDbEntity
  8
_Y__________
  6
CONTINUOUS
 62
         7
100
AcDbLine
 10
1486.0187747931
 20
-149.5120203562
 30
0.0
 11
1514.8786999334
 21
-150.9550166132
 31
0.0
  0
LINE
  5
255
100
AcDbEntity
  8
_Y__________
  6
CONTINUOUS
 62
         7
100
AcDbLine
 10
1484.8786999334
 20
-134.0100166132
 30
0.0
 11
1484.8786999334
 21
-148.3135175495
 31
0.0
  0
ARC
  5
256
100
AcDbEntity
  8
_Y__________
  6
CONTINUOUS
 62
         7
100
AcDbCircle
 10
1486.0786999334
 20
-148.3135175495
 30
0.0
 40
1.2
100
AcDbArc
 50
180.0
 51
267.1375947739
  0
LINE
  5
257
100
AcDbEntity
  8
_Y__________
  6
CONTINUOUS
 62
         7
100
AcDbLine
 10
1485.8786999334
 20
-109.7400166132
 30
0.0
 11
1497.8826745296
 21
-109.7400166132
 31
0.0
  0
LINE
  5
258
100
AcDbEntity
  8
_Y__________
  6
CONTINUOUS
 62
         7
100
AcDbLine
 10
1485.8786999334
 20
-143.7400166132
 30
0.0
 11
1497.8826745296
 21
-143.7400166132
 31
0.0
  0
LINE
  5
259
100
AcDbEntity
  8
_Y__________
  6
CONTINUOUS
 62
         7
100
AcDbLine
 10
1485.8786999334
 20
-133.0100166132
 30
0.0
 11
1493.3786999334
 21
-133.0100166132
 31
0.0
  0
LINE
  5
25A
100
AcDbEntity
  8
_Y__________
  6
CONTINUOUS
 62
         7
100
AcDbLine
 10
1485.8786999334
 20
-120.4700166132
 30
0.0
 11
1493.3786999334
 21
-120.4700166132
 31
0.0
  0
LINE
  5
25B
100
AcDbEntity
  8
_Y__________
  6
CONTINUOUS
 62
         7
100
AcDbLine
 10
1484.8786999334
 20
-134.0100166132
 30
0.0
 11
1485.8786999334
 21
-133.0100166132
 31
0.0
  0
ARC
  5
25C
100
AcDbEntity
  8
_Y__________
  6
CONTINUOUS
 62
         7
100
AcDbCircle
 10
1486.0786999334
 20
-105.1665156769
 30
0.0
 40
1.2
100
AcDbArc
 50
92.8624052261
 51
180.0
  0
LINE
  5
25D
100
AcDbEntity
  8
_Y__________
  6
CONTINUOUS
 62
         7
100
AcDbLine
 10
1484.8786999334
 20
-105.1665156769
 30
0.0
 11
1484.8786999334
 21
-119.4700166132
 31
0.0
  0
LINE
  5
25E
100
AcDbEntity
  8
_Y__________
  6
CONTINUOUS
 62
         7
100
AcDbLine
 10
1485.8786999334
 20
-109.7400166132
 30
0.0
 11
1484.8786999334
 21
-109.162666344
 31
0.0
  0
LINE
  5
25F
100
AcDbEntity
  8
_Y__________
  6
CONTINUOUS
 62
         7
100
AcDbLine
 10
1485.8786999334
 20
-109.7400166132
 30
0.0
 11
1485.8786999334
 21
-120.4700166132
 31
0.0
  0
LINE
  5
260
100
AcDbEntity
  8
_Y__________
  6
CONTINUOUS
 62
         7
100
AcDbLine
 10
1484.8786999334
 20
-119.4700166132
 30
0.0
 11
1485.8786999334
 21
-120.4700166132
 31
0.0
  0
LINE
  5
261
100
AcDbEntity
  8
_Y__________
  6
CONTINUOUS
 62
         7
100
AcDbLine
 10
1485.8786999334
 20
-143.7400166132
 30
0.0
 11
1484.8786999334
 21
-144.3173668824
 31
0.0
  0
LINE
  5
262
100
AcDbEntity
  8
_Y__________
  6
CONTINUOUS
 62
         7
100
AcDbLine
 10
1485.8786999334
 20
-143.7400166132
 30
0.0
 11
1485.8786999334
 21
-133.0100166132
 31
0.0
  0
LINE
  5
263
100
AcDbEntity
  8
_Y__________
  6
CONTINUOUS
 62
         7
100
AcDbLine
 10
1494.8786999334
 20
-121.9700166132
 30
0.0
 11
1494.8786999334
 21
-131.5100166132
 31
0.0
  0
ARC
  5
264
100
AcDbEntity
  8
_Y__________
  6
CONTINUOUS
 62
         7
100
AcDbCircle
 10
1493.3786999334
 20
-121.9700166132
 30
0.0
 40
1.5
100
AcDbArc
 50
0.0
 51
90.0
  0
ARC
  5
265
100
AcDbEntity
  8
_Y__________
  6
CONTINUOUS
 62
         7
100
AcDbCircle
 10
1493.3786999334
 20
-131.5100166132
 30
0.0
 40
1.5
100
AcDbArc
 50
270.0
 51
360.0
  0
LINE
  5
266
100
AcDbEntity
  8
_Y__________
  6
CONTINUOUS
 62
         7
100
AcDbLine
 10
1499.9611354987
 20
-106.7400166132
 30
0.0
 11
1510.633701935
 21
-106.7400166132
 31
0.0
  0
CIRCLE
  5
267
100
AcDbEntity
  8
_Y__________
  6
CONTINUOUS
 62
         7
100
AcDbCircle
 10
1507.8786999334
 20
-126.7400166132
 30
0.0
 40
3.75
  0
LINE
  5
268
100
AcDbEntity
  8
_Y__________
  6
CONTINUOUS
 62
         7
100
AcDbLine
 10
1499.9611354987
 20
-146.7400166132
 30
0.0
 11
1510.633701935
 21
-146.7400166132
 31
0.0
  0
LINE
  5
269
100
AcDbEntity
  8
_Y__________
  6
CONTINUOUS
 62
         7
100
AcDbLine
 10
1497.8826745296
 20
-109.7400166132
 30
0.0
 11
1499.4415202564
 21
-107.0400166132
 31
0.0
  0
ARC
  5
26A
100
AcDbEntity
  8
_Y__________
  6
CONTINUOUS
 62
         7
100
AcDbCircle
 10
1499.9611354987
 20
-107.3400166132
 30
0.0
 40
0.6
100
AcDbArc
 50
90.0
 51
150.0
  0
ARC
  5
26B
100
AcDbEntity
  8
_Y__________
  6
CONTINUOUS
 62
         7
100
AcDbCircle
 10
1499.9611354987
 20
-146.1400166132
 30
0.0
 40
0.6
100
AcDbArc
 50
210.0
 51
270.0
  0
LINE
  5
26C
100
AcDbEntity
  8
_Y__________
  6
CONTINUOUS
 62
         7
100
AcDbLine
 10
1497.8826745296
 20
-143.7400166132
 30
0.0
 11
1499.4415202564
 21
-146.4400166132
 31
0.0
  0
LINE
  5
26D
100
AcDbEntity
  8
_Y__________
  6
CONTINUOUS
 62
         7
100
AcDbLine
 10
1497.8826745296
 20
-109.7400166132
 30
0.0
 11
1497.8826745296
 21
-143.7400166132
 31
0.0
  0
LINE
  5
26E
100
AcDbEntity
  8
_Y__________
  6
CONTINUOUS
 62
         5
100
AcDbLine
 10
1499.6611354987
 20
-146.2229980494
 30
0.0
 11
1499.6611354987
 21
-107.5161514448
 31
0.0
  0
LINE
  5
26F
100
AcDbEntity
  8
_Y__________
  6
CENTER
 62
         1
100
AcDbLine
 10
1507.8786999334
 20
-120.9900166132
 30
0.0
 11
1507.8786999334
 21
-132.4900166132
 31
0.0
  0
LINE
  5
270
100
AcDbEntity
  8
_Y__________
  6
CONTINUOUS
 62
         7
100
AcDbLine
 10
1517.8786999334
 20
-158.2400166132
 30
0.0
 11
1531.5012008586
 21
-158.2400166132
 31
0.0
  0
LINE
  5
271
100
AcDbEntity
  8
_Y__________
  6
CONTINUOUS
 62
         7
100
AcDbLine
 10
1514.8786999334
 20
-150.9550166132
 30
0.0
 11
1515.5488101664
 21
-150.7754611174
 31
0.0
  0
LINE
  5
272
100
AcDbEntity
  8
_Y__________
  6
CONTINUOUS
 62
         7
100
AcDbLine
 10
1515.7041015935
 20
-150.7550166132
 30
0.0
 11
1516.3786999334
 21
-150.7550166132
 31
0.0
  0
ARC
  5
273
100
AcDbEntity
  8
_Y__________
  6
CONTINUOUS
 62
         7
100
AcDbCircle
 10
1516.3786999334
 20
-151.3550166132
 30
0.0
 40
0.6
100
AcDbArc
 50
0.0
 51
90.0
  0
LINE
  5
274
100
AcDbEntity
  8
_Y__________
  6
CONTINUOUS
 62
         7
100
AcDbLine
 10
1516.9786999334
 20
-151.443479641
 30
0.0
 11
1516.9786999334
 21
-151.3550166132
 31
0.0
  0
LINE
  5
275
100
AcDbEntity
  8
_Y__________
  6
CONTINUOUS
 62
         7
100
AcDbLine
 10
1516.9786999334
 20
-151.443479641
 30
0.0
 11
1516.8786999334
 21
-152.1550166132
 31
0.0
  0
LINE
  5
276
100
AcDbEntity
  8
_Y__________
  6
CONTINUOUS
 62
         7
100
AcDbLine
 10
1516.8786999334
 20
-152.1550166132
 30
0.0
 11
1516.8786999334
 21
-157.2400166132
 31
0.0
  0
ARC
  5
277
100
AcDbEntity
  8
_Y__________
  6
CONTINUOUS
 62
         7
100
AcDbCircle
 10
1515.7041015935
 20
-151.3550166132
 30
0.0
 40
0.6
100
AcDbArc
 50
90.0
 51
105.0
  0
LINE
  5
278
100
AcDbEntity
  8
_Y__________
  6
CONTINUOUS
 62
         7
100
AcDbLine
 10
1538.2561990082
 20
-158.2400166132
 30
0.0
 11
1541.8786999334
 21
-158.2400166132
 31
0.0
  0
LINE
  5
279
100
AcDbEntity
  8
_Y__________
  6
CONTINUOUS
 62
         7
100
AcDbLine
 10
1536.7536999334
 20
-155.6376118774
 30
0.0
 11
1536.7536999334
 21
-154.2400166132
 31
0.0
  0
LINE
  5
27A
100
AcDbEntity
  8
_Y__________
  6
CONTINUOUS
 62
         7
100
AcDbLine
 10
1536.7536999334
 20
-155.6376118774
 30
0.0
 11
1538.2561990082
 21
-158.2400166132
 31
0.0
  0
LINE
  5
27B
100
AcDbEntity
  8
_Y__________
  6
CONTINUOUS
 62
         7
100
AcDbLine
 10
1533.0036999334
 20
-155.6376118774
 30
0.0
 11
1531.5012008586
 21
-158.2400166132
 31
0.0
  0
LINE
  5
27C
100
AcDbEntity
  8
_Y__________
  6
CONTINUOUS
 62
         7
100
AcDbLine
 10
1533.0036999334
 20
-155.6376118774
 30
0.0
 11
1533.0036999334
 21
-154.2400166132
 31
0.0
  0
LINE
  5
27D
100
AcDbEntity
  8
_Y__________
  6
CONTINUOUS
 62
         7
100
AcDbLine
 10
1533.0036999334
 20
-154.2400166132
 30
0.0
 11
1536.7536999334
 21
-154.2400166132
 31
0.0
  0
LINE
  5
27E
100
AcDbEntity
  8
_Y__________
  6
CENTER
 62
         1
100
AcDbLine
 10
1534.8786999334
 20
-150.0178523361
 30
0.0
 11
1534.8786999334
 21
-158.3473341498
 31
0.0
  0
LINE
  5
27F
100
AcDbEntity
  8
_Y__________
  6
CONTINUOUS
 62
         7
100
AcDbLine
 10
1517.8786999334
 20
-95.2400166132
 30
0.0
 11
1531.5012008586
 21
-95.2400166132
 31
0.0
  0
ARC
  5
280
100
AcDbEntity
  8
_Y__________
  6
CONTINUOUS
 62
         7
100
AcDbCircle
 10
1516.3786999334
 20
-102.1250166132
 30
0.0
 40
0.6
100
AcDbArc
 50
270.0
 51
360.0
  0
LINE
  5
281
100
AcDbEntity
  8
_Y__________
  6
CONTINUOUS
 62
         7
100
AcDbLine
 10
1516.8786999334
 20
-109.7400166132
 30
0.0
 11
1524.5495437358
 21
-109.7400166132
 31
0.0
  0
LINE
  5
282
100
AcDbEntity
  8
_Y__________
  6
CONTINUOUS
 62
         7
100
AcDbLine
 10
1516.8786999334
 20
-143.7400166132
 30
0.0
 11
1524.5495437358
 21
-143.7400166132
 31
0.0
  0
LINE
  5
283
100
AcDbEntity
  8
_Y__________
  6
CONTINUOUS
 62
         7
100
AcDbLine
 10
1515.7041015935
 20
-102.7250166132
 30
0.0
 11
1516.3786999334
 21
-102.7250166132
 31
0.0
  0
LINE
  5
284
100
AcDbEntity
  8
_Y__________
  6
CONTINUOUS
 62
         7
100
AcDbLine
 10
1514.8786999334
 20
-102.5250166132
 30
0.0
 11
1515.5488101664
 21
-102.704572109
 31
0.0
  0
ARC
  5
285
100
AcDbEntity
  8
_Y__________
  6
CONTINUOUS
 62
         7
100
AcDbCircle
 10
1515.7041015935
 20
-102.1250166132
 30
0.0
 40
0.6
100
AcDbArc
 50
255.0
 51
270.0
  0
LINE
  5
286
100
AcDbEntity
  8
_Y__________
  6
CONTINUOUS
 62
         7
100
AcDbLine
 10
1516.8786999334
 20
-109.7400166132
 30
0.0
 11
1516.8786999334
 21
-143.7400166132
 31
0.0
  0
ARC
  5
287
100
AcDbEntity
  8
_Y__________
  6
CONTINUOUS
 62
         7
100
AcDbCircle
 10
1525.3786999334
 20
-110.9900166132
 30
0.0
 40
1.5
100
AcDbArc
 50
0.0
 51
123.5573097619
  0
ARC
  5
288
100
AcDbEntity
  8
_Y__________
  6
CONTINUOUS
 62
         7
100
AcDbCircle
 10
1525.3786999334
 20
-142.4900166132
 30
0.0
 40
1.5
100
AcDbArc
 50
236.4426902381
 51
360.0
  0
LINE
  5
289
100
AcDbEntity
  8
_Y__________
  6
CONTINUOUS
 62
         7
100
AcDbLine
 10
1526.8786999334
 20
-110.9900166132
 30
0.0
 11
1526.8786999334
 21
-142.4900166132
 31
0.0
  0
LINE
  5
28A
100
AcDbEntity
  8
_Y__________
  6
CONTINUOUS
 62
         7
100
AcDbLine
 10
1524.5495437358
 20
-109.7400166132
 30
0.0
 11
1524.5495437358
 21
-143.7400166132
 31
0.0
  0
LINE
  5
28B
100
AcDbEntity
  8
_Y__________
  6
CONTINUOUS
 62
         7
100
AcDbLine
 10
1516.9786999334
 20
-102.0365535854
 30
0.0
 11
1516.8786999334
 21
-101.3250166132
 31
0.0
  0
LINE
  5
28C
100
AcDbEntity
  8
_Y__________
  6
CONTINUOUS
 62
         7
100
AcDbLine
 10
1516.9786999334
 20
-102.0365535854
 30
0.0
 11
1516.9786999334
 21
-102.1250166132
 31
0.0
  0
LINE
  5
28D
100
AcDbEntity
  8
_Y__________
  6
CONTINUOUS
 62
         7
100
AcDbLine
 10
1516.8786999334
 20
-96.2400166132
 30
0.0
 11
1516.8786999334
 21
-101.3250166132
 31
0.0
  0
LINE
  5
28E
100
AcDbEntity
  8
_Y__________
  6
CENTER
 62
         1
100
AcDbLine
 10
1534.8786999334
 20
-95.2354551354
 30
0.0
 11
1534.8786999334
 21
-103.244578091
 31
0.0
  0
LINE
  5
28F
100
AcDbEntity
  8
_Y__________
  6
CONTINUOUS
 62
         7
100
AcDbLine
 10
1538.8786999334
 20
-117.2400166132
 30
0.0
 11
1538.8786999334
 21
-131.2400166132
 31
0.0
  0
LINE
  5
290
100
AcDbEntity
  8
_Y__________
  6
CONTINUOUS
 62
         7
100
AcDbLine
 10
1535.8786999334
 20
-117.2400166132
 30
0.0
 11
1535.8786999334
 21
-136.2400166132
 31
0.0
  0
LINE
  5
291
100
AcDbEntity
  8
_Y__________
  6
CONTINUOUS
 62
         7
100
AcDbLine
 10
1535.8786999334
 20
-136.2400166132
 30
0.0
 11
1538.8786999334
 21
-136.2400166132
 31
0.0
  0
LINE
  5
292
100
AcDbEntity
  8
_Y__________
  6
CONTINUOUS
 62
         7
100
AcDbLine
 10
1535.8786999334
 20
-117.2400166132
 30
0.0
 11
1538.8786999334
 21
-117.2400166132
 31
0.0
  0
LINE
  5
293
100
AcDbEntity
  8
_Y__________
  6
CONTINUOUS
 62
         7
100
AcDbLine
 10
1538.2561990082
 20
-95.2400166132
 30
0.0
 11
1541.8786999334
 21
-95.2400166132
 31
0.0
  0
LINE
  5
294
100
AcDbEntity
  8
_Y__________
  6
CONTINUOUS
 62
         7
100
AcDbLine
 10
1536.7536999334
 20
-97.842421349
 30
0.0
 11
1538.2561990082
 21
-95.2400166132
 31
0.0
  0
LINE
  5
295
100
AcDbEntity
  8
_Y__________
  6
CONTINUOUS
 62
         7
100
AcDbLine
 10
1536.7536999334
 20
-97.842421349
 30
0.0
 11
1536.7536999334
 21
-99.2400166132
 31
0.0
  0
LINE
  5
296
100
AcDbEntity
  8
_Y__________
  6
CONTINUOUS
 62
         7
100
AcDbLine
 10
1533.0036999334
 20
-99.2400166132
 30
0.0
 11
1536.7536999334
 21
-99.2400166132
 31
0.0
  0
LINE
  5
297
100
AcDbEntity
  8
_Y__________
  6
CONTINUOUS
 62
         7
100
AcDbLine
 10
1533.0036999334
 20
-97.842421349
 30
0.0
 11
1533.0036999334
 21
-99.2400166132
 31
0.0
  0
LINE
  5
298
100
AcDbEntity
  8
_Y__________
  6
CONTINUOUS
 62
         7
100
AcDbLine
 10
1533.0036999334
 20
-97.842421349
 30
0.0
 11
1531.5012008586
 21
-95.2400166132
 31
0.0
  0
LINE
  5
299
100
AcDbEntity
  8
_Y__________
  6
CONTINUOUS
 62
         7
100
AcDbLine
 10
1538.8786999334
 20
-131.2400166132
 30
0.0
 11
1538.8786999334
 21
-136.2400166132
 31
0.0
  0
LINE
  5
29A
100
AcDbEntity
  8
_Y__________
  6
CONTINUOUS
 62
         7
100
AcDbLine
 10
1526.8786999334
 20
1.7561989127
 30
0.0
 11
1526.8786999334
 21
-16.2438010873
 31
0.0
  0
LINE
  5
29B
100
AcDbEntity
  8
_Y__________
  6
CONTINUOUS
 62
         7
100
AcDbLine
 10
1484.8786999334
 20
-14.5138010873
 30
0.0
 11
1484.8786999334
 21
-24.8211513565
 31
0.0
  0
LINE
  5
29C
100
AcDbEntity
  8
_Y__________
  6
CONTINUOUS
 62
         7
100
AcDbLine
 10
1484.8786999334
 20
10.3335491819
 30
0.0
 11
1484.8786999334
 21
0.0261989127
 31
0.0
  0
LINE
  5
29D
100
AcDbEntity
  8
_Y__________
  6
CONTINUOUS
 62
         7
100
AcDbLine
 10
1526.8786999334
 20
-16.2438010873
 30
0.0
 11
1526.8786999334
 21
-22.9938010873
 31
0.0
  0
ARC
  5
29E
100
AcDbEntity
  8
_Y__________
  6
CONTINUOUS
 62
         7
100
AcDbCircle
 10
1510.633701935
 20
4.7561989127
 30
0.0
 40
8.0
100
AcDbArc
 50
38.6821874535
 51
90.0
  0
LINE
  5
29F
100
AcDbEntity
  8
_Y__________
  6
CENTER
 62
         1
100
AcDbLine
 10
1489.3369769778
 20
-7.2438010873
 30
0.0
 11
1542.8786999334
 21
-7.2438010873
 31
0.0
  0
LINE
  5
2A0
100
AcDbEntity
  8
_Y__________
  6
CONTINUOUS
 62
         7
100
AcDbLine
 10
1486.0187747931
 20
15.5282026557
 30
0.0
 11
1514.8786999334
 21
16.9711989127
 31
0.0
  0
LINE
  5
2A1
100
AcDbEntity
  8
_Y__________
  6
CONTINUOUS
 62
         7
100
AcDbLine
 10
1486.0187747931
 20
-30.0158048303
 30
0.0
 11
1514.8786999334
 21
-31.4588010873
 31
0.0
  0
ARC
  5
2A2
100
AcDbEntity
  8
_Y__________
  6
CONTINUOUS
 62
         7
100
AcDbCircle
 10
1510.633701935
 20
-19.2438010873
 30
0.0
 40
8.0
100
AcDbArc
 50
270.0
 51
321.3178125465
  0
LINE
  5
2A3
100
AcDbEntity
  8
_Y__________
  6
CONTINUOUS
 62
         7
100
AcDbLine
 10
1497.8826745296
 20
9.7561989127
 30
0.0
 11
1497.8826745296
 21
-24.2438010873
 31
0.0
  0
LINE
  5
2A4
100
AcDbEntity
  8
_Y__________
  6
CONTINUOUS
 62
         7
100
AcDbLine
 10
1485.8786999334
 20
9.7561989127
 30
0.0
 11
1485.8786999334
 21
-0.9738010873
 31
0.0
  0
LINE
  5
2A5
100
AcDbEntity
  8
_Y__________
  6
CONTINUOUS
 62
         7
100
AcDbLine
 10
1484.8786999334
 20
14.329699849
 30
0.0
 11
1484.8786999334
 21
10.3335491819
 31
0.0
  0
LINE
  5
2A6
100
AcDbEntity
  8
_Y__________
  6
CONTINUOUS
 62
         5
100
AcDbLine
 10
1499.6611354987
 20
-26.7267825235
 30
0.0
 11
1499.6611354987
 21
11.9800640811
 31
0.0
  0
LINE
  5
2A7
100
AcDbEntity
  8
_Y__________
  6
CONTINUOUS
 62
         7
100
AcDbLine
 10
1485.8786999334
 20
-24.2438010873
 30
0.0
 11
1497.8826745296
 21
-24.2438010873
 31
0.0
  0
LINE
  5
2A8
100
AcDbEntity
  8
_Y__________
  6
CONTINUOUS
 62
         7
100
AcDbLine
 10
1485.8786999334
 20
-13.5138010873
 30
0.0
 11
1493.3786999334
 21
-13.5138010873
 31
0.0
  0
LINE
  5
2A9
100
AcDbEntity
  8
_Y__________
  6
CONTINUOUS
 62
         7
100
AcDbLine
 10
1485.8786999334
 20
-0.9738010873
 30
0.0
 11
1493.3786999334
 21
-0.9738010873
 31
0.0
  0
LINE
  5
2AA
100
AcDbEntity
  8
_Y__________
  6
CONTINUOUS
 62
         7
100
AcDbLine
 10
1485.8786999334
 20
-24.2438010873
 30
0.0
 11
1485.8786999334
 21
-13.5138010873
 31
0.0
  0
LINE
  5
2AB
100
AcDbEntity
  8
_Y__________
  6
CONTINUOUS
 62
         7
100
AcDbLine
 10
1484.8786999334
 20
0.0261989127
 30
0.0
 11
1485.8786999334
 21
-0.9738010873
 31
0.0
  0
LINE
  5
2AC
100
AcDbEntity
  8
_Y__________
  6
CONTINUOUS
 62
         7
100
AcDbLine
 10
1484.8786999334
 20
-14.5138010873
 30
0.0
 11
1485.8786999334
 21
-13.5138010873
 31
0.0
  0
LINE
  5
2AD
100
AcDbEntity
  8
_Y__________
  6
CONTINUOUS
 62
         7
100
AcDbLine
 10
1485.8786999334
 20
-24.2438010873
 30
0.0
 11
1484.8786999334
 21
-24.8211513565
 31
0.0
  0
ARC
  5
2AE
100
AcDbEntity
  8
_Y__________
  6
CONTINUOUS
 62
         7
100
AcDbCircle
 10
1486.0786999334
 20
-28.8173020237
 30
0.0
 40
1.2
100
AcDbArc
 50
180.0
 51
267.1375947739
  0
LINE
  5
2AF
100
AcDbEntity
  8
_Y__________
  6
CONTINUOUS
 62
         7
100
AcDbLine
 10
1484.8786999334
 20
-24.8211513565
 30
0.0
 11
1484.8786999334
 21
-28.8173020237
 31
0.0
  0
LINE
  5
2B0
100
AcDbEntity
  8
_Y__________
  6
CONTINUOUS
 62
         7
100
AcDbLine
 10
1494.8786999334
 20
-2.4738010873
 30
0.0
 11
1494.8786999334
 21
-12.0138010873
 31
0.0
  0
ARC
  5
2B1
100
AcDbEntity
  8
_Y__________
  6
CONTINUOUS
 62
         7
100
AcDbCircle
 10
1493.3786999334
 20
-2.4738010873
 30
0.0
 40
1.5
100
AcDbArc
 50
0.0
 51
90.0
  0
ARC
  5
2B2
100
AcDbEntity
  8
_Y__________
  6
CONTINUOUS
 62
         7
100
AcDbCircle
 10
1493.3786999334
 20
-12.0138010873
 30
0.0
 40
1.5
100
AcDbArc
 50
270.0
 51
360.0
  0
LINE
  5
2B3
100
AcDbEntity
  8
_Y__________
  6
CONTINUOUS
 62
         7
100
AcDbLine
 10
1499.9611354987
 20
-27.2438010873
 30
0.0
 11
1510.633701935
 21
-27.2438010873
 31
0.0
  0
ARC
  5
2B4
100
AcDbEntity
  8
_Y__________
  6
CONTINUOUS
 62
         7
100
AcDbCircle
 10
1499.9611354987
 20
-26.6438010873
 30
0.0
 40
0.6
100
AcDbArc
 50
210.0
 51
270.0
  0
LINE
  5
2B5
100
AcDbEntity
  8
_Y__________
  6
CONTINUOUS
 62
         7
100
AcDbLine
 10
1497.8826745296
 20
-24.2438010873
 30
0.0
 11
1499.4415202564
 21
-26.9438010873
 31
0.0
  0
LINE
  5
2B6
100
AcDbEntity
  8
_Y__________
  6
CENTER
 62
         1
100
AcDbLine
 10
1507.8786999334
 20
-1.4938010873
 30
0.0
 11
1507.8786999334
 21
-12.9938010873
 31
0.0
  0
LINE
  5
2B7
100
AcDbEntity
  8
_Y__________
  6
CONTINUOUS
 62
         7
100
AcDbLine
 10
1485.8786999334
 20
9.7561989127
 30
0.0
 11
1497.8826745296
 21
9.7561989127
 31
0.0
  0
LINE
  5
2B8
100
AcDbEntity
  8
_Y__________
  6
CONTINUOUS
 62
         7
100
AcDbLine
 10
1485.8786999334
 20
9.7561989127
 30
0.0
 11
1484.8786999334
 21
10.3335491819
 31
0.0
  0
LINE
  5
2B9
100
AcDbEntity
  8
_Y__________
  6
CONTINUOUS
 62
         7
100
AcDbLine
 10
1499.9611354987
 20
12.7561989127
 30
0.0
 11
1510.633701935
 21
12.7561989127
 31
0.0
  0
ARC
  5
2BA
100
AcDbEntity
  8
_Y__________
  6
CONTINUOUS
 62
         7
100
AcDbCircle
 10
1499.9611354987
 20
12.1561989127
 30
0.0
 40
0.6
100
AcDbArc
 50
90.0
 51
150.0
  0
LINE
  5
2BB
100
AcDbEntity
  8
_Y__________
  6
CONTINUOUS
 62
         7
100
AcDbLine
 10
1497.8826745296
 20
9.7561989127
 30
0.0
 11
1499.4415202564
 21
12.4561989127
 31
0.0
  0
LINE
  5
2BC
100
AcDbEntity
  8
_Y__________
  6
CONTINUOUS
 62
         7
100
AcDbLine
 10
1516.8786999334
 20
9.7561989127
 30
0.0
 11
1516.8786999334
 21
-24.2438010873
 31
0.0
  0
LINE
  5
2BD
100
AcDbEntity
  8
_Y__________
  6
CONTINUOUS
 62
         7
100
AcDbLine
 10
1524.5495437358
 20
9.7561989127
 30
0.0
 11
1524.5495437358
 21
-24.2438010873
 31
0.0
  0
LINE
  5
2BE
100
AcDbEntity
  8
_Y__________
  6
CONTINUOUS
 62
         7
100
AcDbLine
 10
1526.8786999334
 20
8.5061989127
 30
0.0
 11
1526.8786999334
 21
1.7561989127
 31
0.0
  0
LINE
  5
2BF
100
AcDbEntity
  8
_Y__________
  6
CONTINUOUS
 62
         7
100
AcDbLine
 10
1517.8786999334
 20
-38.7438010873
 30
0.0
 11
1531.5012008586
 21
-38.7438010873
 31
0.0
  0
LINE
  5
2C0
100
AcDbEntity
  8
_Y__________
  6
CONTINUOUS
 62
         7
100
AcDbLine
 10
1516.8786999334
 20
-32.6588010873
 30
0.0
 11
1516.8786999334
 21
-37.7438010873
 31
0.0
  0
LINE
  5
2C1
100
AcDbEntity
  8
_Y__________
  6
CONTINUOUS
 62
         7
100
AcDbLine
 10
1516.8786999334
 20
-24.2438010873
 30
0.0
 11
1524.5495437358
 21
-24.2438010873
 31
0.0
  0
ARC
  5
2C2
100
AcDbEntity
  8
_Y__________
  6
CONTINUOUS
 62
         7
100
AcDbCircle
 10
1515.7041015935
 20
-31.8588010873
 30
0.0
 40
0.6
100
AcDbArc
 50
90.0
 51
105.0
  0
LINE
  5
2C3
100
AcDbEntity
  8
_Y__________
  6
CONTINUOUS
 62
         7
100
AcDbLine
 10
1516.9786999334
 20
-31.9472641151
 30
0.0
 11
1516.8786999334
 21
-32.6588010873
 31
0.0
  0
LINE
  5
2C4
100
AcDbEntity
  8
_Y__________
  6
CONTINUOUS
 62
         7
100
AcDbLine
 10
1516.9786999334
 20
-31.9472641151
 30
0.0
 11
1516.9786999334
 21
-31.8588010873
 31
0.0
  0
ARC
  5
2C5
100
AcDbEntity
  8
_Y__________
  6
CONTINUOUS
 62
         7
100
AcDbCircle
 10
1516.3786999334
 20
-31.8588010873
 30
0.0
 40
0.6
100
AcDbArc
 50
0.0
 51
90.0
  0
LINE
  5
2C6
100
AcDbEntity
  8
_Y__________
  6
CONTINUOUS
 62
         7
100
AcDbLine
 10
1515.7041015935
 20
-31.2588010873
 30
0.0
 11
1516.3786999334
 21
-31.2588010873
 31
0.0
  0
LINE
  5
2C7
100
AcDbEntity
  8
_Y__________
  6
CONTINUOUS
 62
         7
100
AcDbLine
 10
1514.8786999334
 20
-31.4588010873
 30
0.0
 11
1515.5488101664
 21
-31.2792455916
 31
0.0
  0
ARC
  5
2C8
100
AcDbEntity
  8
_Y__________
  6
CONTINUOUS
 62
         7
100
AcDbCircle
 10
1525.3786999334
 20
-22.9938010873
 30
0.0
 40
1.5
100
AcDbArc
 50
236.4426902381
 51
360.0
  0
LINE
  5
2C9
100
AcDbEntity
  8
_Y__________
  6
CENTER
 62
         1
100
AcDbLine
 10
1534.8786999334
 20
-30.5862288534
 30
0.0
 11
1534.8786999334
 21
-38.915710667
 31
0.0
  0
LINE
  5
2CA
100
AcDbEntity
  8
_Y__________
  6
CONTINUOUS
 62
         7
100
AcDbLine
 10
1536.7536999334
 20
-36.1413963515
 30
0.0
 11
1538.2561990082
 21
-38.7438010873
 31
0.0
  0
LINE
  5
2CB
100
AcDbEntity
  8
_Y__________
  6
CONTINUOUS
 62
         7
100
AcDbLine
 10
1533.0036999334
 20
-36.1413963515
 30
0.0
 11
1531.5012008586
 21
-38.7438010873
 31
0.0
  0
LINE
  5
2CC
100
AcDbEntity
  8
_Y__________
  6
CONTINUOUS
 62
         7
100
AcDbLine
 10
1538.2561990082
 20
-38.7438010873
 30
0.0
 11
1541.8786999334
 21
-38.7438010873
 31
0.0
  0
LINE
  5
2CD
100
AcDbEntity
  8
_Y__________
  6
CONTINUOUS
 62
         7
100
AcDbLine
 10
1535.8786999334
 20
-16.7438010873
 30
0.0
 11
1538.8786999334
 21
-16.7438010873
 31
0.0
  0
LINE
  5
2CE
100
AcDbEntity
  8
_Y__________
  6
CONTINUOUS
 62
         7
100
AcDbLine
 10
1538.8786999334
 20
2.2561989127
 30
0.0
 11
1538.8786999334
 21
-16.7438010873
 31
0.0
  0
LINE
  5
2CF
100
AcDbEntity
  8
_Y__________
  6
CONTINUOUS
 62
         7
100
AcDbLine
 10
1535.8786999334
 20
2.2561989127
 30
0.0
 11
1538.8786999334
 21
2.2561989127
 31
0.0
  0
LINE
  5
2D0
100
AcDbEntity
  8
_Y__________
  6
CONTINUOUS
 62
         7
100
AcDbLine
 10
1535.8786999334
 20
2.2561989127
 30
0.0
 11
1535.8786999334
 21
-16.7438010873
 31
0.0
  0
LINE
  5
2D1
100
AcDbEntity
  8
_Y__________
  6
CONTINUOUS
 62
         7
100
AcDbLine
 10
1536.7536999334
 20
-36.1413963515
 30
0.0
 11
1536.7536999334
 21
-34.7438010873
 31
0.0
  0
LINE
  5
2D2
100
AcDbEntity
  8
_Y__________
  6
CONTINUOUS
 62
         7
100
AcDbLine
 10
1533.0036999334
 20
-34.7438010873
 30
0.0
 11
1536.7536999334
 21
-34.7438010873
 31
0.0
  0
LINE
  5
2D3
100
AcDbEntity
  8
_Y__________
  6
CONTINUOUS
 62
         7
100
AcDbLine
 10
1533.0036999334
 20
-36.1413963515
 30
0.0
 11
1533.0036999334
 21
-34.7438010873
 31
0.0
  0
LINE
  5
2D4
100
AcDbEntity
  8
_Y__________
  6
CONTINUOUS
 62
         7
100
AcDbLine
 10
1517.8786999334
 20
24.2561989127
 30
0.0
 11
1531.5012008586
 21
24.2561989127
 31
0.0
  0
LINE
  5
2D5
100
AcDbEntity
  8
_Y__________
  6
CONTINUOUS
 62
         7
100
AcDbLine
 10
1516.8786999334
 20
9.7561989127
 30
0.0
 11
1524.5495437358
 21
9.7561989127
 31
0.0
  0
ARC
  5
2D6
100
AcDbEntity
  8
_Y__________
  6
CONTINUOUS
 62
         7
100
AcDbCircle
 10
1515.7041015935
 20
17.3711989127
 30
0.0
 40
0.6
100
AcDbArc
 50
255.0
 51
270.0
  0
ARC
  5
2D7
100
AcDbEntity
  8
_Y__________
  6
CONTINUOUS
 62
         7
100
AcDbCircle
 10
1516.3786999334
 20
17.3711989127
 30
0.0
 40
0.6
100
AcDbArc
 50
270.0
 51
360.0
  0
LINE
  5
2D8
100
AcDbEntity
  8
_Y__________
  6
CONTINUOUS
 62
         7
100
AcDbLine
 10
1516.9786999334
 20
17.4596619404
 30
0.0
 11
1516.9786999334
 21
17.3711989127
 31
0.0
  0
LINE
  5
2D9
100
AcDbEntity
  8
_Y__________
  6
CONTINUOUS
 62
         7
100
AcDbLine
 10
1516.9786999334
 20
17.4596619404
 30
0.0
 11
1516.8786999334
 21
18.1711989127
 31
0.0
  0
LINE
  5
2DA
100
AcDbEntity
  8
_Y__________
  6
CONTINUOUS
 62
         7
100
AcDbLine
 10
1514.8786999334
 20
16.9711989127
 30
0.0
 11
1515.5488101664
 21
16.7916434169
 31
0.0
  0
LINE
  5
2DB
100
AcDbEntity
  8
_Y__________
  6
CONTINUOUS
 62
         7
100
AcDbLine
 10
1515.7041015935
 20
16.7711989127
 30
0.0
 11
1516.3786999334
 21
16.7711989127
 31
0.0
  0
LINE
  5
2DC
100
AcDbEntity
  8
_Y__________
  6
CONTINUOUS
 62
         7
100
AcDbLine
 10
1516.8786999334
 20
23.2561989127
 30
0.0
 11
1516.8786999334
 21
18.1711989127
 31
0.0
  0
ARC
  5
2DD
100
AcDbEntity
  8
_Y__________
  6
CONTINUOUS
 62
         7
100
AcDbCircle
 10
1525.3786999334
 20
8.5061989127
 30
0.0
 40
1.5
100
AcDbArc
 50
0.0
 51
123.5573097619
  0
LINE
  5
2DE
100
AcDbEntity
  8
_Y__________
  6
CONTINUOUS
 62
         7
100
AcDbLine
 10
1538.2561990082
 20
24.2561989127
 30
0.0
 11
1541.8786999334
 21
24.2561989127
 31
0.0
  0
LINE
  5
2DF
100
AcDbEntity
  8
_Y__________
  6
CENTER
 62
         1
100
AcDbLine
 10
1534.8786999334
 20
24.1961683474
 30
0.0
 11
1534.8786999334
 21
16.1870453917
 31
0.0
  0
LINE
  5
2E0
100
AcDbEntity
  8
_Y__________
  6
CONTINUOUS
 62
         7
100
AcDbLine
 10
1533.0036999334
 20
21.6537941769
 30
0.0
 11
1531.5012008586
 21
24.2561989127
 31
0.0
  0
LINE
  5
2E1
100
AcDbEntity
  8
_Y__________
  6
CONTINUOUS
 62
         7
100
AcDbLine
 10
1533.0036999334
 20
21.6537941769
 30
0.0
 11
1533.0036999334
 21
20.2561989127
 31
0.0
  0
LINE
  5
2E2
100
AcDbEntity
  8
_Y__________
  6
CONTINUOUS
 62
         7
100
AcDbLine
 10
1533.0036999334
 20
20.2561989127
 30
0.0
 11
1536.7536999334
 21
20.2561989127
 31
0.0
  0
LINE
  5
2E3
100
AcDbEntity
  8
_Y__________
  6
CONTINUOUS
 62
         7
100
AcDbLine
 10
1536.7536999334
 20
21.6537941769
 30
0.0
 11
1536.7536999334
 21
20.2561989127
 31
0.0
  0
LINE
  5
2E4
100
AcDbEntity
  8
_Y__________
  6
CONTINUOUS
 62
         7
100
AcDbLine
 10
1536.7536999334
 20
21.6537941769
 30
0.0
 11
1538.2561990082
 21
24.2561989127
 31
0.0
  0
LINE
  5
2E5
100
AcDbEntity
  8
_Y__________
  6
CONTINUOUS
 62
         7
100
AcDbLine
 10
1542.8786999334
 20
142.7524144385
 30
0.0
 11
1542.8786999334
 21
81.7524144385
 31
0.0
  0
LINE
  5
2E6
100
AcDbEntity
  8
_Y__________
  6
CENTER
 62
         1
100
AcDbLine
 10
1485.8786999334
 20
112.2524144385
 30
0.0
 11
1542.8786999334
 21
112.2524144385
 31
0.0
  0
LINE
  5
2E7
100
AcDbEntity
  8
_Y__________
  6
CONTINUOUS
 62
         7
100
AcDbLine
 10
1486.0187747931
 20
135.0244181815
 30
0.0
 11
1514.8786999334
 21
136.4674144385
 31
0.0
  0
LINE
  5
2E8
100
AcDbEntity
  8
_Y__________
  6
CONTINUOUS
 62
         7
100
AcDbLine
 10
1486.0187747931
 20
89.4804106956
 30
0.0
 11
1514.8786999334
 21
88.0374144385
 31
0.0
  0
LINE
  5
2E9
100
AcDbEntity
  8
_Y__________
  6
CONTINUOUS
 62
         7
100
AcDbLine
 10
1484.8786999334
 20
104.9824144385
 30
0.0
 11
1484.8786999334
 21
90.6789135022
 31
0.0
  0
ARC
  5
2EA
100
AcDbEntity
  8
_Y__________
  6
CONTINUOUS
 62
         7
100
AcDbCircle
 10
1486.0786999334
 20
90.6789135022
 30
0.0
 40
1.2
100
AcDbArc
 50
180.0
 51
267.1375947739
  0
LINE
  5
2EB
100
AcDbEntity
  8
_Y__________
  6
CONTINUOUS
 62
         7
100
AcDbLine
 10
1490.8786999334
 20
102.0089644857
 30
0.0
 11
1484.8786999334
 21
103.5024300296
 31
0.0
  0
ARC
  5
2EC
100
AcDbEntity
  8
_Y__________
  6
CONTINUOUS
 62
         7
100
AcDbCircle
 10
1489.3786999334
 20
107.4824144385
 30
0.0
 40
1.5
100
AcDbArc
 50
270.0
 51
360.0
  0
LINE
  5
2ED
100
AcDbEntity
  8
_Y__________
  6
CONTINUOUS
 62
         7
100
AcDbLine
 10
1490.8786999334
 20
122.4958643914
 30
0.0
 11
1484.8786999334
 21
121.0023988475
 31
0.0
  0
ARC
  5
2EE
100
AcDbEntity
  8
_Y__________
  6
CONTINUOUS
 62
         7
100
AcDbCircle
 10
1489.3786999334
 20
117.0224144385
 30
0.0
 40
1.5
100
AcDbArc
 50
0.0
 51
90.0
  0
ARC
  5
2EF
100
AcDbEntity
  8
_Y__________
  6
CONTINUOUS
 62
         7
100
AcDbCircle
 10
1486.0786999334
 20
133.8259153749
 30
0.0
 40
1.2
100
AcDbArc
 50
92.8624052261
 51
180.0
  0
LINE
  5
2F0
100
AcDbEntity
  8
_Y__________
  6
CONTINUOUS
 62
         7
100
AcDbLine
 10
1485.8786999334
 20
105.9824144385
 30
0.0
 11
1489.3786999334
 21
105.9824144385
 31
0.0
  0
LINE
  5
2F1
100
AcDbEntity
  8
_Y__________
  6
CONTINUOUS
 62
         7
100
AcDbLine
 10
1484.8786999334
 20
104.9824144385
 30
0.0
 11
1485.8786999334
 21
105.9824144385
 31
0.0
  0
LINE
  5
2F2
100
AcDbEntity
  8
_Y__________
  6
CONTINUOUS
 62
         7
100
AcDbLine
 10
1485.8786999334
 20
105.9824144385
 30
0.0
 11
1485.8786999334
 21
103.2535191056
 31
0.0
  0
LINE
  5
2F3
100
AcDbEntity
  8
_Y__________
  6
CONTINUOUS
 62
         7
100
AcDbLine
 10
1485.8786999334
 20
118.5224144385
 30
0.0
 11
1489.3786999334
 21
118.5224144385
 31
0.0
  0
LINE
  5
2F4
100
AcDbEntity
  8
_Y__________
  6
CONTINUOUS
 62
         7
100
AcDbLine
 10
1484.8786999334
 20
119.5224144385
 30
0.0
 11
1485.8786999334
 21
118.5224144385
 31
0.0
  0
LINE
  5
2F5
100
AcDbEntity
  8
_Y__________
  6
CONTINUOUS
 62
         7
100
AcDbLine
 10
1485.8786999334
 20
118.5224144385
 30
0.0
 11
1485.8786999334
 21
121.2513097715
 31
0.0
  0
LINE
  5
2F6
100
AcDbEntity
  8
_Y__________
  6
CONTINUOUS
 62
         7
100
AcDbLine
 10
1484.8786999334
 20
133.8259153749
 30
0.0
 11
1484.8786999334
 21
119.5224144385
 31
0.0
  0
LINE
  5
2F7
100
AcDbEntity
  8
_Y__________
  6
CONTINUOUS
 62
         7
100
AcDbLine
 10
1490.8786999334
 20
122.4958643914
 30
0.0
 11
1490.8786999334
 21
102.0089644857
 31
0.0
  0
LINE
  5
2F8
100
AcDbEntity
  8
_Y__________
  6
CENTER
 62
         1
100
AcDbLine
 10
1510.5786999334
 20
136.2524144385
 30
0.0
 11
1510.5786999334
 21
88.2524144385
 31
0.0
  0
POLYLINE
  5
2FA
100
AcDbEntity
  8
_Y__________
  6
CONTINUOUS
 62
         7
100
AcDb3dPolyline
 66
         1
 10
0.0
 20
0.0
 30
0.0
 70
         8
  0
VERTEX
  5
2FC
100
AcDbEntity
  8
_Y__________
  6
CONTINUOUS
 62
         7
100
AcDbVertex
100
AcDb3dPolylineVertex
 10
1503.6286999334
 20
112.2524144385
 30
0.0
 70
        32
  0
VERTEX
  5
2FE
100
AcDbEntity
  8
_Y__________
  6
CONTINUOUS
 62
         7
100
AcDbVertex
100
AcDb3dPolylineVertex
 10
1503.6286999334
 20
112.2524144385
 30
0.0
 70
        32
  0
SEQEND
  5
300
100
AcDbEntity
  8
_Y__________
  6
CONTINUOUS
 62
         7
  0
ARC
  5
301
100
AcDbEntity
  8
_Y__________
  6
CONTINUOUS
 62
         7
100
AcDbCircle
 10
1506.9497090982
 20
112.2524144385
 30
0.0
 40
3.3210091648
100
AcDbArc
 50
180.0
 51
205.1473341972
  0
POLYLINE
  5
303
100
AcDbEntity
  8
_Y__________
  6
CONTINUOUS
 62
         7
100
AcDb3dPolyline
 66
         1
 10
0.0
 20
0.0
 30
0.0
 70
         8
  0
VERTEX
  5
305
100
AcDbEntity
  8
_Y__________
  6
CONTINUOUS
 62
         7
100
AcDbVertex
100
AcDb3dPolylineVertex
 10
1503.9434716815
 20
110.8411602209
 30
0.0
 70
        32
  0
VERTEX
  5
307
100
AcDbEntity
  8
_Y__________
  6
CONTINUOUS
 62
         7
100
AcDbVertex
100
AcDb3dPolylineVertex
 10
1503.9434716815
 20
110.8411602209
 30
0.0
 70
        32
  0
SEQEND
  5
309
100
AcDbEntity
  8
_Y__________
  6
CONTINUOUS
 62
         7
  0
ARC
  5
30A
100
AcDbEntity
  8
_Y__________
  6
CONTINUOUS
 62
         7
100
AcDbCircle
 10
1507.3994951527
 20
112.4635629203
 30
0.0
 40
3.8178906156
100
AcDbArc
 50
205.1473341972
 51
228.576334375
  0
POLYLINE
  5
30C
100
AcDbEntity
  8
_Y__________
  6
CONTINUOUS
 62
         7
100
AcDb3dPolyline
 66
         1
 10
0.0
 20
0.0
 30
0.0
 70
         8
  0
VERTEX
  5
30E
100
AcDbEntity
  8
_Y__________
  6
CONTINUOUS
 62
         7
100
AcDbVertex
100
AcDb3dPolylineVertex
 10
1504.8734961134
 20
109.6007640091
 30
0.0
 70
        32
  0
VERTEX
  5
310
100
AcDbEntity
  8
_Y__________
  6
CONTINUOUS
 62
         7
100
AcDbVertex
100
AcDb3dPolylineVertex
 10
1504.8734961134
 20
109.6007640091
 30
0.0
 70
        32
  0
SEQEND
  5
312
100
AcDbEntity
  8
_Y__________
  6
CONTINUOUS
 62
         7
  0
ARC
  5
313
100
AcDbEntity
  8
_Y__________
  6
CONTINUOUS
 62
         7
100
AcDbCircle
 10
1507.6900691702
 20
112.7928801402
 30
0.0
 40
4.2570751907
100
AcDbArc
 50
228.576334375
 51
249.9235236969
  0
POLYLINE
  5
315
100
AcDbEntity
  8
_Y__________
  6
CONTINUOUS
 62
         7
100
AcDb3dPolyline
 66
         1
 10
0.0
 20
0.0
 30
0.0
 70
         8
  0
VERTEX
  5
317
100
AcDbEntity
  8
_Y__________
  6
CONTINUOUS
 62
         7
100
AcDbVertex
100
AcDb3dPolylineVertex
 10
1506.2287254921
 20
108.7944849829
 30
0.0
 70
        32
  0
VERTEX
  5
319
100
AcDbEntity
  8
_Y__________
  6
CONTINUOUS
 62
         7
100
AcDbVertex
100
AcDb3dPolylineVertex
 10
1506.2287254921
 20
108.7944849829
 30
0.0
 70
        32
  0
SEQEND
  5
31B
100
AcDbEntity
  8
_Y__________
  6
CONTINUOUS
 62
         7
  0
ARC
  5
31C
100
AcDbEntity
  8
_Y__________
  6
CONTINUOUS
 62
         7
100
AcDbCircle
 10
1507.8786999334
 20
113.3089944132
 30
0.0
 40
4.8065799746
100
AcDbArc
 50
249.9235236969
 51
270.0
  0
POLYLINE
  5
31E
100
AcDbEntity
  8
_Y__________
  6
CONTINUOUS
 62
         7
100
AcDb3dPolyline
 66
         1
 10
0.0
 20
0.0
 30
0.0
 70
         8
  0
VERTEX
  5
320
100
AcDbEntity
  8
_Y__________
  6
CONTINUOUS
 62
         7
100
AcDbVertex
100
AcDb3dPolylineVertex
 10
1507.8786999334
 20
108.5024144385
 30
0.0
 70
        32
  0
VERTEX
  5
322
100
AcDbEntity
  8
_Y__________
  6
CONTINUOUS
 62
         7
100
AcDbVertex
100
AcDb3dPolylineVertex
 10
1507.8786999334
 20
108.5024144385
 30
0.0
 70
        32
  0
SEQEND
  5
324
100
AcDbEntity
  8
_Y__________
  6
CONTINUOUS
 62
         7
  0
ARC
  5
325
100
AcDbEntity
  8
_Y__________
  6
CONTINUOUS
 62
         7
100
AcDbCircle
 10
1507.8786999334
 20
113.3089944132
 30
0.0
 40
4.8065799746
100
AcDbArc
 50
270.0
 51
290.0764763031
  0
POLYLINE
  5
327
100
AcDbEntity
  8
_Y__________
  6
CONTINUOUS
 62
         7
100
AcDb3dPolyline
 66
         1
 10
0.0
 20
0.0
 30
0.0
 70
         8
  0
VERTEX
  5
329
100
AcDbEntity
  8
_Y__________
  6
CONTINUOUS
 62
         7
100
AcDbVertex
100
AcDb3dPolylineVertex
 10
1509.5286743747
 20
108.7944849829
 30
0.0
 70
        32
  0
VERTEX
  5
32B
100
AcDbEntity
  8
_Y__________
  6
CONTINUOUS
 62
         7
100
AcDbVertex
100
AcDb3dPolylineVertex
 10
1509.5286743747
 20
108.7944849829
 30
0.0
 70
        32
  0
SEQEND
  5
32D
100
AcDbEntity
  8
_Y__________
  6
CONTINUOUS
 62
         7
  0
ARC
  5
32E
100
AcDbEntity
  8
_Y__________
  6
CONTINUOUS
 62
         7
100
AcDbCircle
 10
1508.0673306966
 20
112.7928801402
 30
0.0
 40
4.2570751907
100
AcDbArc
 50
290.0764763032
 51
311.423665625
  0
POLYLINE
  5
330
100
AcDbEntity
  8
_Y__________
  6
CONTINUOUS
 62
         7
100
AcDb3dPolyline
 66
         1
 10
0.0
 20
0.0
 30
0.0
 70
         8
  0
VERTEX
  5
332
100
AcDbEntity
  8
_Y__________
  6
CONTINUOUS
 62
         7
100
AcDbVertex
100
AcDb3dPolylineVertex
 10
1510.8839037534
 20
109.6007640091
 30
0.0
 70
        32
  0
VERTEX
  5
334
100
AcDbEntity
  8
_Y__________
  6
CONTINUOUS
 62
         7
100
AcDbVertex
100
AcDb3dPolylineVertex
 10
1510.8839037534
 20
109.6007640091
 30
0.0
 70
        32
  0
SEQEND
  5
336
100
AcDbEntity
  8
_Y__________
  6
CONTINUOUS
 62
         7
  0
ARC
  5
337
100
AcDbEntity
  8
_Y__________
  6
CONTINUOUS
 62
         7
100
AcDbCircle
 10
1508.3579047141
 20
112.4635629203
 30
0.0
 40
3.8178906156
100
AcDbArc
 50
311.423665625
 51
334.8526658028
  0
POLYLINE
  5
339
100
AcDbEntity
  8
_Y__________
  6
CONTINUOUS
 62
         7
100
AcDb3dPolyline
 66
         1
 10
0.0
 20
0.0
 30
0.0
 70
         8
  0
VERTEX
  5
33B
100
AcDbEntity
  8
_Y__________
  6
CONTINUOUS
 62
         7
100
AcDbVertex
100
AcDb3dPolylineVertex
 10
1511.8139281853
 20
110.8411602209
 30
0.0
 70
        32
  0
VERTEX
  5
33D
100
AcDbEntity
  8
_Y__________
  6
CONTINUOUS
 62
         7
100
AcDbVertex
100
AcDb3dPolylineVertex
 10
1511.8139281853
 20
110.8411602209
 30
0.0
 70
        32
  0
SEQEND
  5
33F
100
AcDbEntity
  8
_Y__________
  6
CONTINUOUS
 62
         7
  0
ARC
  5
340
100
AcDbEntity
  8
_Y__________
  6
CONTINUOUS
 62
         7
100
AcDbCircle
 10
1508.8076907686
 20
112.2524144385
 30
0.0
 40
3.3210091648
100
AcDbArc
 50
334.8526658028
 51
360.0
  0
POLYLINE
  5
342
100
AcDbEntity
  8
_Y__________
  6
CONTINUOUS
 62
         7
100
AcDb3dPolyline
 66
         1
 10
0.0
 20
0.0
 30
0.0
 70
         8
  0
VERTEX
  5
344
100
AcDbEntity
  8
_Y__________
  6
CONTINUOUS
 62
         7
100
AcDbVertex
100
AcDb3dPolylineVertex
 10
1512.1286999334
 20
112.2524144385
 30
0.0
 70
        32
  0
VERTEX
  5
346
100
AcDbEntity
  8
_Y__________
  6
CONTINUOUS
 62
         7
100
AcDbVertex
100
AcDb3dPolylineVertex
 10
1512.1286999334
 20
112.2524144385
 30
0.0
 70
        32
  0
SEQEND
  5
348
100
AcDbEntity
  8
_Y__________
  6
CONTINUOUS
 62
         7
  0
ARC
  5
349
100
AcDbEntity
  8
_Y__________
  6
CONTINUOUS
 62
         7
100
AcDbCircle
 10
1508.8076907686
 20
112.2524144385
 30
0.0
 40
3.3210091648
100
AcDbArc
 50
0.0
 51
25.1473341972
  0
POLYLINE
  5
34B
100
AcDbEntity
  8
_Y__________
  6
CONTINUOUS
 62
         7
100
AcDb3dPolyline
 66
         1
 10
0.0
 20
0.0
 30
0.0
 70
         8
  0
VERTEX
  5
34D
100
AcDbEntity
  8
_Y__________
  6
CONTINUOUS
 62
         7
100
AcDbVertex
100
AcDb3dPolylineVertex
 10
1511.8139281853
 20
113.6636686562
 30
0.0
 70
        32
  0
VERTEX
  5
34F
100
AcDbEntity
  8
_Y__________
  6
CONTINUOUS
 62
         7
100
AcDbVertex
100
AcDb3dPolylineVertex
 10
1511.8139281853
 20
113.6636686562
 30
0.0
 70
        32
  0
SEQEND
  5
351
100
AcDbEntity
  8
_Y__________
  6
CONTINUOUS
 62
         7
  0
ARC
  5
352
100
AcDbEntity
  8
_Y__________
  6
CONTINUOUS
 62
         7
100
AcDbCircle
 10
1508.3579047141
 20
112.0412659568
 30
0.0
 40
3.8178906156
100
AcDbArc
 50
25.1473341972
 51
48.576334375
  0
POLYLINE
  5
354
100
AcDbEntity
  8
_Y__________
  6
CONTINUOUS
 62
         7
100
AcDb3dPolyline
 66
         1
 10
0.0
 20
0.0
 30
0.0
 70
         8
  0
VERTEX
  5
356
100
AcDbEntity
  8
_Y__________
  6
CONTINUOUS
 62
         7
100
AcDbVertex
100
AcDb3dPolylineVertex
 10
1510.8839037534
 20
114.904064868
 30
0.0
 70
        32
  0
VERTEX
  5
358
100
AcDbEntity
  8
_Y__________
  6
CONTINUOUS
 62
         7
100
AcDbVertex
100
AcDb3dPolylineVertex
 10
1510.8839037534
 20
114.904064868
 30
0.0
 70
        32
  0
SEQEND
  5
35A
100
AcDbEntity
  8
_Y__________
  6
CONTINUOUS
 62
         7
  0
ARC
  5
35B
100
AcDbEntity
  8
_Y__________
  6
CONTINUOUS
 62
         7
100
AcDbCircle
 10
1508.0673306966
 20
111.7119487369
 30
0.0
 40
4.2570751907
100
AcDbArc
 50
48.576334375
 51
69.9235236969
  0
POLYLINE
  5
35D
100
AcDbEntity
  8
_Y__________
  6
CONTINUOUS
 62
         7
100
AcDb3dPolyline
 66
         1
 10
0.0
 20
0.0
 30
0.0
 70
         8
  0
VERTEX
  5
35F
100
AcDbEntity
  8
_Y__________
  6
CONTINUOUS
 62
         7
100
AcDbVertex
100
AcDb3dPolylineVertex
 10
1509.5286743747
 20
115.7103438941
 30
0.0
 70
        32
  0
VERTEX
  5
361
100
AcDbEntity
  8
_Y__________
  6
CONTINUOUS
 62
         7
100
AcDbVertex
100
AcDb3dPolylineVertex
 10
1509.5286743747
 20
115.7103438941
 30
0.0
 70
        32
  0
SEQEND
  5
363
100
AcDbEntity
  8
_Y__________
  6
CONTINUOUS
 62
         7
  0
ARC
  5
364
100
AcDbEntity
  8
_Y__________
  6
CONTINUOUS
 62
         7
100
AcDbCircle
 10
1507.8786999334
 20
111.1958344639
 30
0.0
 40
4.8065799746
100
AcDbArc
 50
69.9235236968
 51
90.0
  0
POLYLINE
  5
366
100
AcDbEntity
  8
_Y__________
  6
CONTINUOUS
 62
         7
100
AcDb3dPolyline
 66
         1
 10
0.0
 20
0.0
 30
0.0
 70
         8
  0
VERTEX
  5
368
100
AcDbEntity
  8
_Y__________
  6
CONTINUOUS
 62
         7
100
AcDbVertex
100
AcDb3dPolylineVertex
 10
1507.8786999334
 20
116.0024144385
 30
0.0
 70
        32
  0
VERTEX
  5
36A
100
AcDbEntity
  8
_Y__________
  6
CONTINUOUS
 62
         7
100
AcDbVertex
100
AcDb3dPolylineVertex
 10
1507.8786999334
 20
116.0024144385
 30
0.0
 70
        32
  0
SEQEND
  5
36C
100
AcDbEntity
  8
_Y__________
  6
CONTINUOUS
 62
         7
  0
ARC
  5
36D
100
AcDbEntity
  8
_Y__________
  6
CONTINUOUS
 62
         7
100
AcDbCircle
 10
1507.8786999334
 20
111.1958344639
 30
0.0
 40
4.8065799746
100
AcDbArc
 50
90.0
 51
110.0764763031
  0
POLYLINE
  5
36F
100
AcDbEntity
  8
_Y__________
  6
CONTINUOUS
 62
         7
100
AcDb3dPolyline
 66
         1
 10
0.0
 20
0.0
 30
0.0
 70
         8
  0
VERTEX
  5
371
100
AcDbEntity
  8
_Y__________
  6
CONTINUOUS
 62
         7
100
AcDbVertex
100
AcDb3dPolylineVertex
 10
1506.2287254921
 20
115.7103438941
 30
0.0
 70
        32
  0
VERTEX
  5
373
100
AcDbEntity
  8
_Y__________
  6
CONTINUOUS
 62
         7
100
AcDbVertex
100
AcDb3dPolylineVertex
 10
1506.2287254921
 20
115.7103438941
 30
0.0
 70
        32
  0
SEQEND
  5
375
100
AcDbEntity
  8
_Y__________
  6
CONTINUOUS
 62
         7
  0
ARC
  5
376
100
AcDbEntity
  8
_Y__________
  6
CONTINUOUS
 62
         7
100
AcDbCircle
 10
1507.6900691702
 20
111.7119487369
 30
0.0
 40
4.2570751907
100
AcDbArc
 50
110.0764763031
 51
131.423665625
  0
POLYLINE
  5
378
100
AcDbEntity
  8
_Y__________
  6
CONTINUOUS
 62
         7
100
AcDb3dPolyline
 66
         1
 10
0.0
 20
0.0
 30
0.0
 70
         8
  0
VERTEX
  5
37A
100
AcDbEntity
  8
_Y__________
  6
CONTINUOUS
 62
         7
100
AcDbVertex
100
AcDb3dPolylineVertex
 10
1504.8734961134
 20
114.904064868
 30
0.0
 70
        32
  0
VERTEX
  5
37C
100
AcDbEntity
  8
_Y__________
  6
CONTINUOUS
 62
         7
100
AcDbVertex
100
AcDb3dPolylineVertex
 10
1504.8734961134
 20
114.904064868
 30
0.0
 70
        32
  0
SEQEND
  5
37E
100
AcDbEntity
  8
_Y__________
  6
CONTINUOUS
 62
         7
  0
ARC
  5
37F
100
AcDbEntity
  8
_Y__________
  6
CONTINUOUS
 62
         7
100
AcDbCircle
 10
1507.3994951527
 20
112.0412659568
 30
0.0
 40
3.8178906156
100
AcDbArc
 50
131.423665625
 51
154.8526658028
  0
ARC
  5
380
100
AcDbEntity
  8
_Y__________
  6
CONTINUOUS
 62
         7
100
AcDbCircle
 10
1506.9497090982
 20
112.2524144385
 30
0.0
 40
3.3210091648
100
AcDbArc
 50
154.8526658028
 51
180.0
  0
CIRCLE
  5
381
100
AcDbEntity
  8
_Y__________
  6
CONTINUOUS
 62
         7
100
AcDbCircle
 10
1507.8786999334
 20
112.2524144385
 30
0.0
 40
3.75
  0
LINE
  5
382
100
AcDbEntity
  8
_Y__________
  6
CENTER
 62
         1
100
AcDbLine
 10
1507.8786999334
 20
118.0024144385
 30
0.0
 11
1507.8786999334
 21
106.5024144385
 31
0.0
  0
LINE
  5
383
100
AcDbEntity
  8
_Y__________
  6
CONTINUOUS
 62
         7
100
AcDbLine
 10
1536.7536999334
 20
141.1500097027
 30
0.0
 11
1538.2561990082
 21
143.7524144385
 31
0.0
  0
LINE
  5
384
100
AcDbEntity
  8
_Y__________
  6
CONTINUOUS
 62
         7
100
AcDbLine
 10
1533.0036999334
 20
141.1500097027
 30
0.0
 11
1531.5012008586
 21
143.7524144385
 31
0.0
  0
LINE
  5
385
100
AcDbEntity
  8
_Y__________
  6
CONTINUOUS
 62
         7
100
AcDbLine
 10
1516.8786999334
 20
142.7524144385
 30
0.0
 11
1516.8786999334
 21
81.7524144385
 31
0.0
  0
LINE
  5
386
100
AcDbEntity
  8
_Y__________
  6
CENTER
 62
         1
100
AcDbLine
 10
1534.8786999334
 20
143.7360220872
 30
0.0
 11
1534.8786999334
 21
80.748438195
 31
0.0
  0
LINE
  5
387
100
AcDbEntity
  8
_Y__________
  6
CONTINUOUS
 62
         7
100
AcDbLine
 10
1517.8786999334
 20
80.7524144385
 30
0.0
 11
1531.5012008586
 21
80.7524144385
 31
0.0
  0
LINE
  5
388
100
AcDbEntity
  8
_Y__________
  6
CONTINUOUS
 62
         7
100
AcDbLine
 10
1514.8786999334
 20
136.4674144385
 30
0.0
 11
1514.8786999334
 21
88.0374144385
 31
0.0
  0
LINE
  5
389
100
AcDbEntity
  8
_Y__________
  6
CONTINUOUS
 62
         7
100
AcDbLine
 10
1515.6251100949
 20
136.2674144385
 30
0.0
 11
1515.6251100949
 21
88.2374144385
 31
0.0
  0
LINE
  5
38A
100
AcDbEntity
  8
_Y__________
  6
CONTINUOUS
 62
         7
100
AcDbLine
 10
1515.6251100949
 20
88.2374144385
 30
0.0
 11
1516.8786999334
 21
88.2374144385
 31
0.0
  0
LINE
  5
38B
100
AcDbEntity
  8
_Y__________
  6
CONTINUOUS
 62
         7
100
AcDbLine
 10
1514.8786999334
 20
88.0374144385
 30
0.0
 11
1515.6251100949
 21
88.2374144385
 31
0.0
  0
LINE
  5
38C
100
AcDbEntity
  8
_Y__________
  6
CONTINUOUS
 62
         7
100
AcDbLine
 10
1514.8786999334
 20
136.4674144385
 30
0.0
 11
1515.6251100949
 21
136.2674144385
 31
0.0
  0
LINE
  5
38D
100
AcDbEntity
  8
_Y__________
  6
CONTINUOUS
 62
         7
100
AcDbLine
 10
1515.6251100949
 20
136.2674144385
 30
0.0
 11
1516.8786999334
 21
136.2674144385
 31
0.0
  0
LINE
  5
38E
100
AcDbEntity
  8
_Y__________
  6
CONTINUOUS
 62
         7
100
AcDbLine
 10
1538.2561990082
 20
80.7524144385
 30
0.0
 11
1541.8786999334
 21
80.7524144385
 31
0.0
  0
LINE
  5
38F
100
AcDbEntity
  8
_Y__________
  6
CONTINUOUS
 62
         7
100
AcDbLine
 10
1536.7536999334
 20
83.3548191744
 30
0.0
 11
1538.2561990082
 21
80.7524144385
 31
0.0
  0
LINE
  5
390
100
AcDbEntity
  8
_Y__________
  6
CONTINUOUS
 62
         7
100
AcDbLine
 10
1533.0036999334
 20
83.3548191744
 30
0.0
 11
1531.5012008586
 21
80.7524144385
 31
0.0
  0
LINE
  5
391
100
AcDbEntity
  8
_Y__________
  6
CONTINUOUS
 62
         7
100
AcDbLine
 10
1533.0036999334
 20
84.7524144385
 30
0.0
 11
1536.7536999334
 21
84.7524144385
 31
0.0
  0
LINE
  5
392
100
AcDbEntity
  8
_Y__________
  6
CONTINUOUS
 62
         7
100
AcDbLine
 10
1533.0036999334
 20
139.7524144385
 30
0.0
 11
1536.7536999334
 21
139.7524144385
 31
0.0
  0
LINE
  5
393
100
AcDbEntity
  8
_Y__________
  6
CONTINUOUS
 62
         7
100
AcDbLine
 10
1517.8786999334
 20
143.7524144385
 30
0.0
 11
1531.5012008586
 21
143.7524144385
 31
0.0
  0
LINE
  5
394
100
AcDbEntity
  8
_Y__________
  6
CONTINUOUS
 62
         7
100
AcDbLine
 10
1538.2561990082
 20
143.7524144385
 30
0.0
 11
1541.8786999334
 21
143.7524144385
 31
0.0
  0
LINE
  5
395
100
AcDbEntity
  8
_Y__________
  6
DASHED
 62
         2
100
AcDbLine
 10
1850.8340594905
 20
142.8465315201
 30
0.0
 11
1851.2677522427
 21
143.2802242722
 31
0.0
  0
LINE
  5
396
100
AcDbEntity
  8
_Y__________
  6
DASHED
 62
         2
100
AcDbLine
 10
1840.8340594905
 20
142.8465315201
 30
0.0
 11
1840.4003667384
 21
143.2802242722
 31
0.0
  0
ARC
  5
397
100
AcDbEntity
  8
_Y__________
  6
DASHED
 62
         2
100
AcDbCircle
 10
1845.8340594905
 20
112.2524144385
 30
0.0
 40
31.0
100
AcDbArc
 50
80.7182009133
 51
99.2817990867
  0
LINE
  5
398
100
AcDbEntity
  8
_Y__________
  6
DASHED
 62
         2
100
AcDbLine
 10
1850.5340594905
 20
139.1524144385
 30
0.0
 11
1850.8340594905
 21
139.4524144385
 31
0.0
  0
LINE
  5
399
100
AcDbEntity
  8
_Y__________
  6
DASHED
 62
         2
100
AcDbLine
 10
1845.8340594905
 20
138.5750641694
 30
0.0
 11
1846.8340594905
 21
139.1524144385
 31
0.0
  0
LINE
  5
39A
100
AcDbEntity
  8
_Y__________
  6
DASHED
 62
         2
100
AcDbLine
 10
1845.8340594905
 20
138.5750641694
 30
0.0
 11
1844.8340594905
 21
139.1524144385
 31
0.0
  0
LINE
  5
39B
100
AcDbEntity
  8
_Y__________
  6
DASHED
 62
         2
100
AcDbLine
 10
1840.8340594905
 20
139.4524144385
 30
0.0
 11
1841.1340594905
 21
139.1524144385
 31
0.0
  0
LINE
  5
39C
100
AcDbEntity
  8
_Y__________
  6
DASHED
 62
         2
100
AcDbLine
 10
1850.5340594905
 20
139.1524144385
 30
0.0
 11
1841.1340594905
 21
139.1524144385
 31
0.0
  0
LINE
  5
39D
100
AcDbEntity
  8
_Y__________
  6
DASHED
 62
         2
100
AcDbLine
 10
1840.8340594905
 20
139.4524144385
 30
0.0
 11
1850.8340594905
 21
139.4524144385
 31
0.0
  0
LINE
  5
39E
100
AcDbEntity
  8
_Y__________
  6
DASHED
 62
         2
100
AcDbLine
 10
1850.8340594905
 20
142.8465315201
 30
0.0
 11
1850.8340594905
 21
139.4524144385
 31
0.0
  0
LINE
  5
39F
100
AcDbEntity
  8
_Y__________
  6
DASHED
 62
         2
100
AcDbLine
 10
1840.8340594905
 20
142.8465315201
 30
0.0
 11
1840.8340594905
 21
139.4524144385
 31
0.0
  0
ARC
  5
3A0
100
AcDbEntity
  8
_Y__________
  6
CONTINUOUS
 62
         7
100
AcDbCircle
 10
1845.8340594905
 20
112.2524144385
 30
0.0
 40
31.5
100
AcDbArc
 50
80.0668994492
 51
99.9331005508
  0
LINE
  5
3A1
100
AcDbEntity
  8
_Y__________
  6
CONTINUOUS
 62
         7
100
AcDbLine
 10
1523.8786999334
 20
19.0788486435
 30
0.0
 11
1524.8786999334
 21
19.6561989127
 31
0.0
  0
LINE
  5
3A2
100
AcDbEntity
  8
_Y__________
  6
CONTINUOUS
 62
         7
100
AcDbLine
 10
1523.8786999334
 20
19.0788486435
 30
0.0
 11
1522.8786999334
 21
19.6561989127
 31
0.0
  0
LINE
  5
3A3
100
AcDbEntity
  8
_Y__________
  6
CENTER
 62
         1
100
AcDbLine
 10
1523.8786999334
 20
24.9100308553
 30
0.0
 11
1523.8786999334
 21
18.5826377255
 31
0.0
  0
LINE
  5
3A4
100
AcDbEntity
  8
_Y__________
  6
CONTINUOUS
 62
         7
100
AcDbLine
 10
1528.5786999334
 20
19.6561989127
 30
0.0
 11
1528.8786999334
 21
19.9561989127
 31
0.0
  0
LINE
  5
3A5
100
AcDbEntity
  8
_Y__________
  6
CONTINUOUS
 62
         7
100
AcDbLine
 10
1529.3786999334
 20
24.2561989127
 30
0.0
 11
1528.8786999334
 21
23.7561989127
 31
0.0
  0
LINE
  5
3A6
100
AcDbEntity
  8
_Y__________
  6
CONTINUOUS
 62
         7
100
AcDbLine
 10
1528.8786999334
 20
23.7561989127
 30
0.0
 11
1528.8786999334
 21
19.9561989127
 31
0.0
  0
LINE
  5
3A7
100
AcDbEntity
  8
_Y__________
  6
CONTINUOUS
 62
         7
100
AcDbLine
 10
1518.8786999334
 20
19.9561989127
 30
0.0
 11
1519.1786999334
 21
19.6561989127
 31
0.0
  0
LINE
  5
3A8
100
AcDbEntity
  8
_Y__________
  6
CONTINUOUS
 62
         7
100
AcDbLine
 10
1518.8786999334
 20
23.7561989127
 30
0.0
 11
1518.8786999334
 21
19.9561989127
 31
0.0
  0
LINE
  5
3A9
100
AcDbEntity
  8
_Y__________
  6
CONTINUOUS
 62
         7
100
AcDbLine
 10
1518.3786999334
 20
24.2561989127
 30
0.0
 11
1518.8786999334
 21
23.7561989127
 31
0.0
  0
LINE
  5
3AA
100
AcDbEntity
  8
_Y__________
  6
CONTINUOUS
 62
         7
100
AcDbLine
 10
1528.5786999334
 20
19.6561989127
 30
0.0
 11
1519.1786999334
 21
19.6561989127
 31
0.0
  0
LINE
  5
3AB
100
AcDbEntity
  8
_Y__________
  6
CONTINUOUS
 62
         7
100
AcDbLine
 10
1518.8786999334
 20
23.7561989127
 30
0.0
 11
1528.8786999334
 21
23.7561989127
 31
0.0
  0
LINE
  5
3AC
100
AcDbEntity
  8
_Y__________
  6
CONTINUOUS
 62
         7
100
AcDbLine
 10
1518.8786999334
 20
19.9561989127
 30
0.0
 11
1528.8786999334
 21
19.9561989127
 31
0.0
  0
LINE
  5
3AD
100
AcDbEntity
  8
_Y__________
  6
CONTINUOUS
 62
         7
100
AcDbLine
 10
1518.3786999334
 20
24.2561989127
 30
0.0
 11
1529.3786999334
 21
24.2561989127
 31
0.0
  0
LINE
  5
3AE
100
AcDbEntity
  8
_Y__________
  6
CONTINUOUS
 62
         7
100
AcDbLine
 10
1523.8786999334
 20
-100.4173668824
 30
0.0
 11
1522.8786999334
 21
-99.8400166132
 31
0.0
  0
LINE
  5
3AF
100
AcDbEntity
  8
_Y__________
  6
CONTINUOUS
 62
         7
100
AcDbLine
 10
1523.8786999334
 20
-100.4173668824
 30
0.0
 11
1524.8786999334
 21
-99.8400166132
 31
0.0
  0
LINE
  5
3B0
100
AcDbEntity
  8
_Y__________
  6
CONTINUOUS
 62
         7
100
AcDbLine
 10
1528.5786999334
 20
-99.8400166132
 30
0.0
 11
1528.8786999334
 21
-99.5400166132
 31
0.0
  0
LINE
  5
3B1
100
AcDbEntity
  8
_Y__________
  6
CONTINUOUS
 62
         7
100
AcDbLine
 10
1528.8786999334
 20
-95.7400166132
 30
0.0
 11
1528.8786999334
 21
-99.5400166132
 31
0.0
  0
LINE
  5
3B2
100
AcDbEntity
  8
_Y__________
  6
CONTINUOUS
 62
         7
100
AcDbLine
 10
1529.3786999334
 20
-95.2400166132
 30
0.0
 11
1528.8786999334
 21
-95.7400166132
 31
0.0
  0
LINE
  5
3B3
100
AcDbEntity
  8
_Y__________
  6
CONTINUOUS
 62
         7
100
AcDbLine
 10
1518.3786999334
 20
-95.2400166132
 30
0.0
 11
1518.8786999334
 21
-95.7400166132
 31
0.0
  0
LINE
  5
3B4
100
AcDbEntity
  8
_Y__________
  6
CONTINUOUS
 62
         7
100
AcDbLine
 10
1518.8786999334
 20
-95.7400166132
 30
0.0
 11
1518.8786999334
 21
-99.5400166132
 31
0.0
  0
LINE
  5
3B5
100
AcDbEntity
  8
_Y__________
  6
CONTINUOUS
 62
         7
100
AcDbLine
 10
1518.8786999334
 20
-99.5400166132
 30
0.0
 11
1519.1786999334
 21
-99.8400166132
 31
0.0
  0
LINE
  5
3B6
100
AcDbEntity
  8
_Y__________
  6
CONTINUOUS
 62
         7
100
AcDbLine
 10
1518.8786999334
 20
-99.5400166132
 30
0.0
 11
1528.8786999334
 21
-99.5400166132
 31
0.0
  0
LINE
  5
3B7
100
AcDbEntity
  8
_Y__________
  6
CONTINUOUS
 62
         7
100
AcDbLine
 10
1518.8786999334
 20
-95.7400166132
 30
0.0
 11
1528.8786999334
 21
-95.7400166132
 31
0.0
  0
LINE
  5
3B8
100
AcDbEntity
  8
_Y__________
  6
CONTINUOUS
 62
         7
100
AcDbLine
 10
1528.5786999334
 20
-99.8400166132
 30
0.0
 11
1519.1786999334
 21
-99.8400166132
 31
0.0
  0
LINE
  5
3B9
100
AcDbEntity
  8
_Y__________
  6
CENTER
 62
         1
100
AcDbLine
 10
1523.8786999334
 20
-94.5790159977
 30
0.0
 11
1523.8786999334
 21
-100.9064091275
 31
0.0
  0
LINE
  5
3BA
100
AcDbEntity
  8
_Y__________
  6
CONTINUOUS
 62
         7
100
AcDbLine
 10
1529.3786999334
 20
-95.2400166132
 30
0.0
 11
1518.3786999334
 21
-95.2400166132
 31
0.0
  0
CIRCLE
  5
3BB
100
AcDbEntity
  8
_Y__________
  6
CONTINUOUS
 62
         7
100
AcDbCircle
 10
1528.7786999334
 20
112.2524144385
 30
0.0
 40
7.0
  0
ARC
  5
3BC
100
AcDbEntity
  8
_Y__________
  6
DASHED
 62
         2
100
AcDbCircle
 10
1821.7340594905
 20
105.5524144385
 30
0.0
 40
0.3
100
AcDbArc
 50
270.0
 51
360.0
  0
ARC
  5
3BD
100
AcDbEntity
  8
_Y__________
  6
DASHED
 62
         2
100
AcDbCircle
 10
1821.7340594905
 20
118.9524144385
 30
0.0
 40
0.3
100
AcDbArc
 50
0.0
 51
90.0
  0
LINE
  5
3BE
100
AcDbEntity
  8
_Y__________
  6
DASHED
 62
         2
100
AcDbLine
 10
1819.3340594905
 20
105.2524144385
 30
0.0
 11
1821.7340594905
 21
105.2524144385
 31
0.0
  0
LINE
  5
3BF
100
AcDbEntity
  8
_Y__________
  6
DASHED
 62
         2
100
AcDbLine
 10
1819.3340594905
 20
119.2524144385
 30
0.0
 11
1821.7340594905
 21
119.2524144385
 31
0.0
  0
LINE
  5
3C0
100
AcDbEntity
  8
_Y__________
  6
DASHED
 62
         2
100
AcDbLine
 10
1822.0340594905
 20
118.9524144385
 30
0.0
 11
1822.0340594905
 21
105.5524144385
 31
0.0
  0
LINE
  5
3C1
100
AcDbEntity
  8
_Y__________
  6
DASHED
 62
         2
100
AcDbLine
 10
1494.8786999334
 20
123.4588640317
 30
0.0
 11
1490.8786999334
 21
122.4958643914
 31
0.0
  0
LINE
  5
3C2
100
AcDbEntity
  8
_Y__________
  6
DASHED
 62
         2
100
AcDbLine
 10
1494.8786999334
 20
123.4588640317
 30
0.0
 11
1494.8786999334
 21
101.0459648454
 31
0.0
  0
ARC
  5
3C3
100
AcDbEntity
  8
_Y__________
  6
DASHED
 62
         2
100
AcDbCircle
 10
1493.3786999334
 20
117.0224144385
 30
0.0
 40
1.5
100
AcDbArc
 50
0.0
 51
90.0
  0
LINE
  5
3C4
100
AcDbEntity
  8
_Y__________
  6
DASHED
 62
         2
100
AcDbLine
 10
1493.3786999334
 20
118.5224144385
 30
0.0
 11
1489.3786999334
 21
118.5224144385
 31
0.0
  0
ARC
  5
3C5
100
AcDbEntity
  8
_Y__________
  6
DASHED
 62
         2
100
AcDbCircle
 10
1493.3786999334
 20
107.4824144385
 30
0.0
 40
1.5
100
AcDbArc
 50
270.0
 51
360.0
  0
LINE
  5
3C6
100
AcDbEntity
  8
_Y__________
  6
DASHED
 62
         2
100
AcDbLine
 10
1489.3786999334
 20
105.9824144385
 30
0.0
 11
1493.3786999334
 21
105.9824144385
 31
0.0
  0
LINE
  5
3C7
100
AcDbEntity
  8
_Y__________
  6
DASHED
 62
         2
100
AcDbLine
 10
1494.8786999334
 20
101.0459648454
 30
0.0
 11
1490.8786999334
 21
102.0089644857
 31
0.0
  0
LINE
  5
3C8
100
AcDbEntity
  8
_Y__________
  6
DASHED
 62
         2
100
AcDbLine
 10
1874.3819501833
 20
125.8480879045
 30
0.0
 11
1859.4297329565
 21
140.8003051313
 31
0.0
  0
ARC
  5
3C9
100
AcDbEntity
  8
L1_85
  6
CONTINUOUS
 62
         7
100
AcDbCircle
 10
1545.8786999334
 20
131.7524144385
 30
0.0
 40
3.0
100
AcDbArc
 50
180.0
 51
270.0
  0
ARC
  5
3CA
100
AcDbEntity
  8
L1_85
  6
CONTINUOUS
 62
         7
100
AcDbCircle
 10
1545.8786999334
 20
92.7524144385
 30
0.0
 40
3.0
100
AcDbArc
 50
90.0
 51
180.0
  0
LINE
  5
3CB
100
AcDbEntity
  8
L1_85
  6
CONTINUOUS
 62
         7
100
AcDbLine
 10
1596.8786999334
 20
-20.1438010873
 30
0.0
 11
1596.9786999334
 21
-20.2438010873
 31
0.0
  0
LINE
  5
3CC
100
AcDbEntity
  8
L1_85
  6
CONTINUOUS
 62
         7
100
AcDbLine
 10
1595.5286999334
 20
-20.1438010873
 30
0.0
 11
1595.4286999334
 21
-20.2438010873
 31
0.0
  0
LINE
  5
3CD
100
AcDbEntity
  8
L1_85
  6
CONTINUOUS
 62
         7
100
AcDbLine
 10
1596.8786999334
 20
5.6561989127
 30
0.0
 11
1596.9786999334
 21
5.7561989127
 31
0.0
  0
LINE
  5
3CE
100
AcDbEntity
  8
L1_85
  6
CONTINUOUS
 62
         7
100
AcDbLine
 10
1595.5286999334
 20
5.6561989127
 30
0.0
 11
1595.4286999334
 21
5.7561989127
 31
0.0
  0
ARC
  5
3CF
100
AcDbEntity
  8
L1_85
  6
CONTINUOUS
 62
         7
100
AcDbCircle
 10
1577.2786999334
 20
5.9561989127
 30
0.0
 40
0.4
100
AcDbArc
 50
180.0
 51
270.0
  0
ARC
  5
3D0
100
AcDbEntity
  8
L1_85
  6
CONTINUOUS
 62
         7
100
AcDbCircle
 10
1577.2786999334
 20
-20.4438010873
 30
0.0
 40
0.4
100
AcDbArc
 50
90.0
 51
180.0
  0
LINE
  5
3D1
100
AcDbEntity
  8
L1_85
  6
CONTINUOUS
 62
         7
100
AcDbLine
 10
1577.8786999334
 20
-20.0438010873
 30
0.0
 11
1578.0786999334
 21
-20.2438010873
 31
0.0
  0
LINE
  5
3D2
100
AcDbEntity
  8
L1_85
  6
CONTINUOUS
 62
         7
100
AcDbLine
 10
1577.8786999334
 20
-20.0438010873
 30
0.0
 11
1577.2786999334
 21
-20.0438010873
 31
0.0
  0
LINE
  5
3D3
100
AcDbEntity
  8
L1_85
  6
CONTINUOUS
 62
         7
100
AcDbLine
 10
1577.8786999334
 20
5.5561989127
 30
0.0
 11
1578.0786999334
 21
5.7561989127
 31
0.0
  0
ARC
  5
3D4
100
AcDbEntity
  8
L1_85
  6
CONTINUOUS
 62
         7
100
AcDbCircle
 10
1576.6786999334
 20
6.0561989127
 30
0.0
 40
0.2
100
AcDbArc
 50
0.0
 51
90.0000000001
  0
LINE
  5
3D5
100
AcDbEntity
  8
L1_85
  6
CONTINUOUS
 62
         7
100
AcDbLine
 10
1576.8786999334
 20
5.9561989127
 30
0.0
 11
1576.8786999334
 21
6.0561989127
 31
0.0
  0
ARC
  5
3D6
100
AcDbEntity
  8
L1_85
  6
CONTINUOUS
 62
         7
100
AcDbCircle
 10
1576.6786999334
 20
-20.5438010873
 30
0.0
 40
0.2
100
AcDbArc
 50
269.9999999999
 51
360.0
  0
LINE
  5
3D7
100
AcDbEntity
  8
L1_85
  6
CONTINUOUS
 62
         7
100
AcDbLine
 10
1576.8786999334
 20
-20.5438010873
 30
0.0
 11
1576.8786999334
 21
-20.4438010873
 31
0.0
  0
ARC
  5
3D8
100
AcDbEntity
  8
L1_85
  6
CONTINUOUS
 62
         7
100
AcDbCircle
 10
1558.3786999334
 20
-23.2438010873
 30
0.0
 40
0.5
100
AcDbArc
 50
270.0
 51
360.0
  0
ARC
  5
3D9
100
AcDbEntity
  8
L1_85
  6
CONTINUOUS
 62
         7
100
AcDbCircle
 10
1558.3786999334
 20
8.7561989127
 30
0.0
 40
0.5
100
AcDbArc
 50
0.0
 51
90.0
  0
LINE
  5
3DA
100
AcDbEntity
  8
L1_85
  6
CONTINUOUS
 62
         7
100
AcDbLine
 10
1577.8786999334
 20
5.5561989127
 30
0.0
 11
1577.2786999334
 21
5.5561989127
 31
0.0
  0
ARC
  5
3DB
100
AcDbEntity
  8
L1_85
  6
CONTINUOUS
 62
         7
100
AcDbCircle
 10
1599.8786999334
 20
-18.7438010873
 30
0.0
 40
2.0
100
AcDbArc
 50
0.0
 51
90.0
  0
ARC
  5
3DC
100
AcDbEntity
  8
L1_85
  6
CONTINUOUS
 62
         7
100
AcDbCircle
 10
1599.8786999334
 20
4.2561989127
 30
0.0
 40
2.0
100
AcDbArc
 50
270.0
 51
360.0
  0
LINE
  5
3DD
100
AcDbEntity
  8
L1_85
  6
CONTINUOUS
 62
         7
100
AcDbLine
 10
1595.4286999334
 20
5.7561989127
 30
0.0
 11
1578.0786999334
 21
5.7561989127
 31
0.0
  0
LINE
  5
3DE
100
AcDbEntity
  8
L1_85
  6
CONTINUOUS
 62
         7
100
AcDbLine
 10
1599.8786999334
 20
-16.7438010873
 30
0.0
 11
1579.8786999334
 21
-16.7438010873
 31
0.0
  0
ARC
  5
3DF
100
AcDbEntity
  8
L1_85
  6
CONTINUOUS
 62
         7
100
AcDbCircle
 10
1559.3786999334
 20
-21.2438010873
 30
0.0
 40
0.5
100
AcDbArc
 50
90.0
 51
180.0
  0
ARC
  5
3E0
100
AcDbEntity
  8
L1_85
  6
CONTINUOUS
 62
         7
100
AcDbCircle
 10
1559.3786999334
 20
6.7561989127
 30
0.0
 40
0.5
100
AcDbArc
 50
180.0
 51
270.0
  0
LINE
  5
3E1
100
AcDbEntity
  8
L1_85
  6
CONTINUOUS
 62
         7
100
AcDbLine
 10
1574.8786999334
 20
-16.7438010873
 30
0.0
 11
1571.7032734529
 21
-11.2438010873
 31
0.0
  0
LINE
  5
3E2
100
AcDbEntity
  8
L1_85
  6
CONTINUOUS
 62
         7
100
AcDbLine
 10
1574.8786999334
 20
2.2561989127
 30
0.0
 11
1571.7032734529
 21
-3.2438010873
 31
0.0
  0
LINE
  5
3E3
100
AcDbEntity
  8
L1_85
  6
CONTINUOUS
 62
         7
100
AcDbLine
 10
1579.8786999334
 20
-17.2438010873
 30
0.0
 11
1574.8786999334
 21
-17.2438010873
 31
0.0
  0
LINE
  5
3E4
100
AcDbEntity
  8
L1_85
  6
CONTINUOUS
 62
         7
100
AcDbLine
 10
1579.8786999334
 20
2.7561989127
 30
0.0
 11
1574.8786999334
 21
2.7561989127
 31
0.0
  0
LINE
  5
3E5
100
AcDbEntity
  8
L1_85
  6
CONTINUOUS
 62
         7
100
AcDbLine
 10
1574.8786999334
 20
-17.2438010873
 30
0.0
 11
1574.8786999334
 21
2.7561989127
 31
0.0
  0
LINE
  5
3E6
100
AcDbEntity
  8
L1_85
  6
CONTINUOUS
 62
         7
100
AcDbLine
 10
1579.8786999334
 20
-17.2438010873
 30
0.0
 11
1579.8786999334
 21
2.7561989127
 31
0.0
  0
LINE
  5
3E7
100
AcDbEntity
  8
L1_85
  6
CONTINUOUS
 62
         7
100
AcDbLine
 10
1599.8786999334
 20
2.2561989127
 30
0.0
 11
1579.8786999334
 21
2.2561989127
 31
0.0
  0
LINE
  5
3E8
100
AcDbEntity
  8
L1_85
  6
CONTINUOUS
 62
         7
100
AcDbLine
 10
1558.8786999334
 20
6.7561989127
 30
0.0
 11
1558.8786999334
 21
8.7561989127
 31
0.0
  0
LINE
  5
3E9
100
AcDbEntity
  8
L1_85
  6
CONTINUOUS
 62
         7
100
AcDbLine
 10
1558.8786999334
 20
-23.2438010873
 30
0.0
 11
1558.8786999334
 21
-21.2438010873
 31
0.0
  0
LINE
  5
3EA
100
AcDbEntity
  8
L1_85
  6
CONTINUOUS
 62
         7
100
AcDbLine
 10
1576.6786999334
 20
-20.7438010873
 30
0.0
 11
1559.3786999334
 21
-20.7438010873
 31
0.0
  0
LINE
  5
3EB
100
AcDbEntity
  8
L1_85
  6
CONTINUOUS
 62
         7
100
AcDbLine
 10
1576.6786999334
 20
6.2561989127
 30
0.0
 11
1559.3786999334
 21
6.2561989127
 31
0.0
  0
LINE
  5
3EC
100
AcDbEntity
  8
L1_85
  6
CONTINUOUS
 62
         7
100
AcDbLine
 10
1558.3786999334
 20
-23.7438010873
 30
0.0
 11
1545.8786999334
 21
-23.7438010873
 31
0.0
  0
LINE
  5
3ED
100
AcDbEntity
  8
L1_85
  6
CONTINUOUS
 62
         7
100
AcDbLine
 10
1558.3786999334
 20
9.2561989127
 30
0.0
 11
1545.8786999334
 21
9.2561989127
 31
0.0
  0
LINE
  5
3EE
100
AcDbEntity
  8
L1_85
  6
CONTINUOUS
 62
         7
100
AcDbLine
 10
1595.4286999334
 20
-20.2438010873
 30
0.0
 11
1578.0786999334
 21
-20.2438010873
 31
0.0
  0
LINE
  5
3EF
100
AcDbEntity
  8
L1_85
  6
CONTINUOUS
 62
         7
100
AcDbLine
 10
1601.8786999334
 20
-19.7438010873
 30
0.0
 11
1601.3786999334
 21
-20.2438010873
 31
0.0
  0
LINE
  5
3F0
100
AcDbEntity
  8
L1_85
  6
CONTINUOUS
 62
         7
100
AcDbLine
 10
1601.3786999334
 20
5.7561989127
 30
0.0
 11
1601.8786999334
 21
5.2561989127
 31
0.0
  0
LINE
  5
3F1
100
AcDbEntity
  8
L1_85
  6
CONTINUOUS
 62
         7
100
AcDbLine
 10
1601.8786999334
 20
-1.4938010873
 30
0.0
 11
1601.8786999334
 21
5.2561989127
 31
0.0
  0
LINE
  5
3F2
100
AcDbEntity
  8
L1_85
  6
CONTINUOUS
 62
         7
100
AcDbLine
 10
1596.8786999334
 20
-20.1438010873
 30
0.0
 11
1596.8786999334
 21
-19.6938010873
 31
0.0
  0
LINE
  5
3F3
100
AcDbEntity
  8
L1_85
  6
CONTINUOUS
 62
         7
100
AcDbLine
 10
1595.5286999334
 20
-20.1438010873
 30
0.0
 11
1595.5286999334
 21
-19.6938010873
 31
0.0
  0
LINE
  5
3F4
100
AcDbEntity
  8
L1_85
  6
CONTINUOUS
 62
         7
100
AcDbLine
 10
1596.8786999334
 20
-19.6938010873
 30
0.0
 11
1595.5286999334
 21
-19.6938010873
 31
0.0
  0
LINE
  5
3F5
100
AcDbEntity
  8
L1_85
  6
CONTINUOUS
 62
         7
100
AcDbLine
 10
1596.8786999334
 20
5.2061989127
 30
0.0
 11
1595.5286999334
 21
5.2061989127
 31
0.0
  0
LINE
  5
3F6
100
AcDbEntity
  8
L1_85
  6
CONTINUOUS
 62
         7
100
AcDbLine
 10
1601.8786999334
 20
-19.7438010873
 30
0.0
 11
1601.8786999334
 21
-12.9938010873
 31
0.0
  0
LINE
  5
3F7
100
AcDbEntity
  8
L1_85
  6
CONTINUOUS
 62
         7
100
AcDbLine
 10
1601.3786999334
 20
-20.2438010873
 30
0.0
 11
1596.9786999334
 21
-20.2438010873
 31
0.0
  0
LINE
  5
3F8
100
AcDbEntity
  8
L1_85
  6
CONTINUOUS
 62
         7
100
AcDbLine
 10
1601.3786999334
 20
5.7561989127
 30
0.0
 11
1596.9786999334
 21
5.7561989127
 31
0.0
  0
LINE
  5
3F9
100
AcDbEntity
  8
L1_85
  6
CONTINUOUS
 62
         7
100
AcDbLine
 10
1595.5286999334
 20
5.2061989127
 30
0.0
 11
1595.5286999334
 21
5.6561989127
 31
0.0
  0
LINE
  5
3FA
100
AcDbEntity
  8
L1_85
  6
CONTINUOUS
 62
         7
100
AcDbLine
 10
1596.8786999334
 20
5.2061989127
 30
0.0
 11
1596.8786999334
 21
5.6561989127
 31
0.0
  0
LINE
  5
3FB
100
AcDbEntity
  8
L1_85
  6
CENTER
 62
         1
100
AcDbLine
 10
1542.8786999334
 20
-7.2438010873
 30
0.0
 11
1603.0428189495
 21
-7.2438010873
 31
0.0
  0
LINE
  5
3FC
100
AcDbEntity
  8
L1_85
  6
CONTINUOUS
 62
         4
100
AcDbLine
 10
1599.8786999334
 20
-16.7438010873
 30
0.0
 11
1599.8786999334
 21
-12.4938010873
 31
0.0
  0
LINE
  5
3FD
100
AcDbEntity
  8
L1_85
  6
CONTINUOUS
 62
         4
100
AcDbLine
 10
1599.8786999334
 20
-1.9938010873
 30
0.0
 11
1599.8786999334
 21
2.2561989127
 31
0.0
  0
ARC
  5
3FE
100
AcDbEntity
  8
L1_85
  6
CONTINUOUS
 62
         7
100
AcDbCircle
 10
1545.8786999334
 20
12.2561989127
 30
0.0
 40
3.0
100
AcDbArc
 50
180.0
 51
270.0
  0
ARC
  5
3FF
100
AcDbEntity
  8
L1_85
  6
CONTINUOUS
 62
         7
100
AcDbCircle
 10
1545.8786999334
 20
-26.7438010873
 30
0.0
 40
3.0
100
AcDbArc
 50
90.0
 51
180.0
  0
ARC
  5
400
100
AcDbEntity
  8
L1_85
  6
CONTINUOUS
 62
         7
100
AcDbCircle
 10
1545.8786999334
 20
-107.2400166132
 30
0.0
 40
3.0
100
AcDbArc
 50
180.0
 51
270.0
  0
ARC
  5
401
100
AcDbEntity
  8
L1_85
  6
CONTINUOUS
 62
         7
100
AcDbCircle
 10
1545.8786999334
 20
-146.2400166132
 30
0.0
 40
3.0
100
AcDbArc
 50
90.0
 51
180.0
  0
LINE
  5
402
100
AcDbEntity
  8
_Y__________
  6
DASHED
 62
         2
100
AcDbLine
 10
1526.7786999334
 20
130.6746724899
 30
0.0
 11
1520.7786999334
 21
130.6746724899
 31
0.0
  0
LINE
  5
403
100
AcDbEntity
  8
_Y__________
  6
DASHED
 62
         2
100
AcDbLine
 10
1520.7786999334
 20
130.6746724899
 30
0.0
 11
1520.7786999334
 21
143.6834796941
 31
0.0
  0
LINE
  5
404
100
AcDbEntity
  8
_Y__________
  6
DASHED
 62
         2
100
AcDbLine
 10
1526.7786999334
 20
130.6746724899
 30
0.0
 11
1526.7786999334
 21
143.6834796941
 31
0.0
  0
LINE
  5
405
100
AcDbEntity
  8
_Y__________
  6
DASHED
 62
         2
100
AcDbLine
 10
1526.7786999334
 20
143.6834796941
 30
0.0
 11
1520.7786999334
 21
143.6834796941
 31
0.0
  0
DIMENSION
  5
408
100
AcDbEntity
  8
L1_85
  6
CONTINUOUS
 62
         4
100
AcDbDimension
  2
*D5
 10
1778.1222703127
 20
-77.897327014
 30
0.0
 11
1785.1602740826
 21
-74.1460820308
 31
0.0
 70
         3
  3
DIMSTYLE1
100
AcDbDiametricDimension
 15
1782.8744744323
 25
-78.2026137667
 35
0.0
 40
0.0
  0
CIRCLE
  5
413
100
AcDbEntity
  8
L1_85
  6
CONTINUOUS
 62
         7
100
AcDbCircle
 10
1780.4983723725
 20
-78.0499703904
 30
0.0
 40
2.3809999998
  0
LINE
  5
414
100
AcDbEntity
  8
L1_85
  6
CENTER
 62
         1
100
AcDbLine
 10
1798.8972114017
 20
-149.3047803707
 30
0.0
 11
1767.1947560458
 21
-149.3047803707
 31
0.0
  0
CIRCLE
  5
415
100
AcDbEntity
  8
L1_85
  6
CONTINUOUS
 62
         7
100
AcDbCircle
 10
1787.6503039915
 20
-163.8487803707
 30
0.0
 40
0.96
  0
CIRCLE
  5
416
100
AcDbEntity
  8
L1_85
  6
CONTINUOUS
 62
         7
100
AcDbCircle
 10
1779.9703039915
 20
-163.8487803707
 30
0.0
 40
0.96
  0
LINE
  5
417
100
AcDbEntity
  8
L1_85
  6
CONTINUOUS
 62
         7
100
AcDbLine
 10
1781.8903039915
 20
-165.7687803707
 30
0.0
 11
1779.9703039915
 21
-165.7687803707
 31
0.0
  0
LINE
  5
418
100
AcDbEntity
  8
L1_85
  6
CONTINUOUS
 62
         7
100
AcDbLine
 10
1787.6503039915
 20
-165.7687803707
 30
0.0
 11
1785.7303039915
 21
-165.7687803707
 31
0.0
  0
ARC
  5
419
100
AcDbEntity
  8
L1_85
  6
CONTINUOUS
 62
         7
100
AcDbCircle
 10
1787.6503039915
 20
-163.8487803707
 30
0.0
 40
1.92
100
AcDbArc
 50
270.0
 51
360.0
  0
LINE
  5
41A
100
AcDbEntity
  8
L1_85
  6
CONTINUOUS
 62
         7
100
AcDbLine
 10
1789.5703039915
 20
-163.8487803707
 30
0.0
 11
1789.5703039915
 21
-163.2132721653
 31
0.0
  0
ARC
  5
41B
100
AcDbEntity
  8
L1_85
  6
CONTINUOUS
 62
         7
100
AcDbCircle
 10
1791.4903039915
 20
-163.2132721653
 30
0.0
 40
1.92
100
AcDbArc
 50
118.906630073
 51
180.0000000001
  0
ARC
  5
41C
100
AcDbEntity
  8
L1_85
  6
CONTINUOUS
 62
         7
100
AcDbCircle
 10
1783.8103039915
 20
-149.3047803707
 30
0.0
 40
13.968
100
AcDbArc
 50
298.906630073
 51
601.093369927
  0
ARC
  5
41D
100
AcDbEntity
  8
L1_85
  6
CONTINUOUS
 62
         7
100
AcDbCircle
 10
1779.9703039915
 20
-163.8487803707
 30
0.0
 40
1.92
100
AcDbArc
 50
180.0
 51
270.0
  0
LINE
  5
41E
100
AcDbEntity
  8
L1_85
  6
CONTINUOUS
 62
         7
100
AcDbLine
 10
1778.0503039915
 20
-163.8487803707
 30
0.0
 11
1778.0503039915
 21
-163.2132721653
 31
0.0
  0
ARC
  5
41F
100
AcDbEntity
  8
L1_85
  6
CONTINUOUS
 62
         7
100
AcDbCircle
 10
1776.1303039915
 20
-163.2132721653
 30
0.0
 40
1.92
100
AcDbArc
 50
0.0
 51
61.0933699271
  0
LINE
  5
420
100
AcDbEntity
  8
L1_85
  6
CONTINUOUS
 62
         7
100
AcDbLine
 10
1781.8903039915
 20
-165.7687803707
 30
0.0
 11
1781.8903039915
 21
-161.3850038322
 31
0.0
  0
LINE
  5
421
100
AcDbEntity
  8
L1_85
  6
CONTINUOUS
 62
         7
100
AcDbLine
 10
1785.7303039915
 20
-165.7687803707
 30
0.0
 11
1785.7303039915
 21
-161.3850038322
 31
0.0
  0
ARC
  5
422
100
AcDbEntity
  8
L1_85
  6
CONTINUOUS
 62
         7
100
AcDbCircle
 10
1783.8103039915
 20
-149.9287803707
 30
0.0
 40
11.616
100
AcDbArc
 50
279.5140383561
 51
620.4859616439
  0
DIMENSION
  5
425
100
AcDbEntity
  8
L1_85
  6
CONTINUOUS
 62
         4
100
AcDbDimension
  2
*D6
 10
1772.4861868451
 20
-152.516409953
 30
0.0
 11
1798.7165140545
 21
-142.0154406005
 31
0.0
 70
         3
  3
DIMSTYLE1
100
AcDbDiametricDimension
 15
1795.1344211379
 25
-147.3411507884
 35
0.0
 40
0.0
  0
LINE
  5
430
100
AcDbEntity
  8
L1_85
  6
CENTER
 62
         1
100
AcDbLine
 10
1783.8103039915
 20
-166.1575821944
 30
0.0
 11
1783.8103039915
 21
-133.9291207693
 31
0.0
  0
LINE
  5
431
100
AcDbEntity
  8
L1_85
  6
CENTER
 62
         1
100
AcDbLine
 10
1747.3004412274
 20
-89.3488885075
 30
0.0
 11
1692.0899139401
 21
-89.3488885075
 31
0.0
  0
LINE
  5
432
100
AcDbEntity
  8
L1_85
  6
CONTINUOUS
 62
         7
100
AcDbLine
 10
1703.4423509022
 20
-109.3488885075
 30
0.0
 11
1703.4423509022
 21
-69.3488885075
 31
0.0
  0
LINE
  5
433
100
AcDbEntity
  8
L1_85
  6
CONTINUOUS
 62
         7
100
AcDbLine
 10
1712.2876503638
 20
-69.3488885075
 30
0.0
 11
1712.2876503638
 21
-109.3488885075
 31
0.0
  0
LINE
  5
434
100
AcDbEntity
  8
L1_85
  6
CONTINUOUS
 62
         7
100
AcDbLine
 10
1723.4423509022
 20
-109.3488885075
 30
0.0
 11
1723.4423509022
 21
-69.3488885075
 31
0.0
  0
LINE
  5
435
100
AcDbEntity
  8
L1_85
  6
CONTINUOUS
 62
         7
100
AcDbLine
 10
1732.2876503638
 20
-69.3488885075
 30
0.0
 11
1732.2876503638
 21
-109.3488885075
 31
0.0
  0
LINE
  5
436
100
AcDbEntity
  8
L1_85
  6
CONTINUOUS
 62
         7
100
AcDbLine
 10
1732.2876503638
 20
-69.3488885075
 30
0.0
 11
1732.865000633
 21
-70.3488885075
 31
0.0
  0
LINE
  5
437
100
AcDbEntity
  8
L1_85
  6
CONTINUOUS
 62
         7
100
AcDbLine
 10
1703.4423509022
 20
-69.3488885075
 30
0.0
 11
1702.865000633
 21
-70.3488885075
 31
0.0
  0
LINE
  5
438
100
AcDbEntity
  8
L1_85
  6
CONTINUOUS
 62
         7
100
AcDbLine
 10
1712.2876503638
 20
-69.3488885075
 30
0.0
 11
1712.865000633
 21
-70.3488885075
 31
0.0
  0
LINE
  5
439
100
AcDbEntity
  8
L1_85
  6
CONTINUOUS
 62
         7
100
AcDbLine
 10
1723.4423509022
 20
-69.3488885075
 30
0.0
 11
1722.865000633
 21
-70.3488885075
 31
0.0
  0
LINE
  5
43A
100
AcDbEntity
  8
L1_85
  6
CONTINUOUS
 62
         7
100
AcDbLine
 10
1712.2876503638
 20
-109.3488885075
 30
0.0
 11
1712.865000633
 21
-108.3488885075
 31
0.0
  0
LINE
  5
43B
100
AcDbEntity
  8
L1_85
  6
CONTINUOUS
 62
         7
100
AcDbLine
 10
1703.4423509022
 20
-109.3488885075
 30
0.0
 11
1702.865000633
 21
-108.3488885075
 31
0.0
  0
LINE
  5
43C
100
AcDbEntity
  8
L1_85
  6
CONTINUOUS
 62
         7
100
AcDbLine
 10
1723.4423509022
 20
-109.3488885075
 30
0.0
 11
1722.865000633
 21
-108.3488885075
 31
0.0
  0
LINE
  5
43D
100
AcDbEntity
  8
L1_85
  6
CONTINUOUS
 62
         7
100
AcDbLine
 10
1732.2876503638
 20
-109.3488885075
 30
0.0
 11
1732.865000633
 21
-108.3488885075
 31
0.0
  0
LINE
  5
43E
100
AcDbEntity
  8
L1_85
  6
CONTINUOUS
 62
         7
100
AcDbLine
 10
1742.865000633
 20
-107.8488885075
 30
0.0
 11
1742.365000633
 21
-108.3488885075
 31
0.0
  0
LINE
  5
43F
100
AcDbEntity
  8
L1_85
  6
CONTINUOUS
 62
         7
100
AcDbLine
 10
1742.365000633
 20
-70.3488885075
 30
0.0
 11
1742.865000633
 21
-70.8488885075
 31
0.0
  0
LINE
  5
440
100
AcDbEntity
  8
L1_85
  6
CONTINUOUS
 62
         7
100
AcDbLine
 10
1697.865000633
 20
-107.8488885075
 30
0.0
 11
1698.365000633
 21
-108.3488885075
 31
0.0
  0
LINE
  5
441
100
AcDbEntity
  8
L1_85
  6
CONTINUOUS
 62
         7
100
AcDbLine
 10
1698.365000633
 20
-70.3488885075
 30
0.0
 11
1697.865000633
 21
-70.8488885075
 31
0.0
  0
LINE
  5
442
100
AcDbEntity
  8
L1_85
  6
CONTINUOUS
 62
         7
100
AcDbLine
 10
1722.865000633
 20
-108.3488885075
 30
0.0
 11
1712.865000633
 21
-108.3488885075
 31
0.0
  0
LINE
  5
443
100
AcDbEntity
  8
L1_85
  6
CONTINUOUS
 62
         7
100
AcDbLine
 10
1702.865000633
 20
-108.3488885075
 30
0.0
 11
1698.365000633
 21
-108.3488885075
 31
0.0
  0
LINE
  5
444
100
AcDbEntity
  8
L1_85
  6
CONTINUOUS
 62
         7
100
AcDbLine
 10
1722.865000633
 20
-70.3488885075
 30
0.0
 11
1712.865000633
 21
-70.3488885075
 31
0.0
  0
LINE
  5
445
100
AcDbEntity
  8
L1_85
  6
CONTINUOUS
 62
         7
100
AcDbLine
 10
1702.865000633
 20
-70.3488885075
 30
0.0
 11
1698.365000633
 21
-70.3488885075
 31
0.0
  0
LINE
  5
446
100
AcDbEntity
  8
L1_85
  6
CONTINUOUS
 62
         7
100
AcDbLine
 10
1712.2876503638
 20
-109.3488885075
 30
0.0
 11
1703.4423509022
 21
-109.3488885075
 31
0.0
  0
LINE
  5
447
100
AcDbEntity
  8
L1_85
  6
CONTINUOUS
 62
         7
100
AcDbLine
 10
1732.2876503638
 20
-109.3488885075
 30
0.0
 11
1723.4423509022
 21
-109.3488885075
 31
0.0
  0
LINE
  5
448
100
AcDbEntity
  8
L1_85
  6
CONTINUOUS
 62
         7
100
AcDbLine
 10
1712.2876503638
 20
-69.3488885075
 30
0.0
 11
1703.4423509022
 21
-69.3488885075
 31
0.0
  0
LINE
  5
449
100
AcDbEntity
  8
L1_85
  6
CONTINUOUS
 62
         7
100
AcDbLine
 10
1702.865000633
 20
-70.3488885075
 30
0.0
 11
1702.865000633
 21
-108.3488885075
 31
0.0
  0
LINE
  5
44A
100
AcDbEntity
  8
L1_85
  6
CONTINUOUS
 62
         7
100
AcDbLine
 10
1712.865000633
 20
-70.3488885075
 30
0.0
 11
1712.865000633
 21
-108.3488885075
 31
0.0
  0
LINE
  5
44B
100
AcDbEntity
  8
L1_85
  6
CONTINUOUS
 62
         7
100
AcDbLine
 10
1742.365000633
 20
-108.3488885075
 30
0.0
 11
1732.865000633
 21
-108.3488885075
 31
0.0
  0
LINE
  5
44C
100
AcDbEntity
  8
L1_85
  6
CONTINUOUS
 62
         7
100
AcDbLine
 10
1742.365000633
 20
-70.3488885075
 30
0.0
 11
1732.865000633
 21
-70.3488885075
 31
0.0
  0
LINE
  5
44D
100
AcDbEntity
  8
L1_85
  6
CONTINUOUS
 62
         7
100
AcDbLine
 10
1732.2876503638
 20
-69.3488885075
 30
0.0
 11
1723.4423509022
 21
-69.3488885075
 31
0.0
  0
LINE
  5
44E
100
AcDbEntity
  8
L1_85
  6
CONTINUOUS
 62
         7
100
AcDbLine
 10
1732.865000633
 20
-70.3488885075
 30
0.0
 11
1732.865000633
 21
-108.3488885075
 31
0.0
  0
LINE
  5
44F
100
AcDbEntity
  8
L1_85
  6
CONTINUOUS
 62
         7
100
AcDbLine
 10
1742.865000633
 20
-70.8488885075
 30
0.0
 11
1742.865000633
 21
-107.8488885075
 31
0.0
  0
LINE
  5
450
100
AcDbEntity
  8
L1_85
  6
CONTINUOUS
 62
         7
100
AcDbLine
 10
1697.865000633
 20
-70.8488885075
 30
0.0
 11
1697.865000633
 21
-107.8488885075
 31
0.0
  0
LINE
  5
451
100
AcDbEntity
  8
L1_85
  6
CONTINUOUS
 62
         7
100
AcDbLine
 10
1742.365000633
 20
-70.3488885075
 30
0.0
 11
1742.365000633
 21
-108.3488885075
 31
0.0
  0
LINE
  5
452
100
AcDbEntity
  8
L1_85
  6
CONTINUOUS
 62
         7
100
AcDbLine
 10
1698.365000633
 20
-70.3488885075
 30
0.0
 11
1698.365000633
 21
-108.3488885075
 31
0.0
  0
DIMENSION
  5
455
100
AcDbEntity
  8
L1_85
  6
CONTINUOUS
 62
         4
100
AcDbDimension
  2
*D7
 10
1742.865000633
 20
-61.3694240902
 30
0.0
 11
1716.5733339663
 21
-57.3094240902
 31
0.0
  3
DIMSTYLE1
100
AcDbAlignedDimension
 13
1742.865000633
 23
-70.8488885075
 33
0.0
 14
1697.865000633
 24
-70.8488885075
 34
0.0
100
AcDbRotatedDimension
  0
ARC
  5
461
100
AcDbEntity
  8
L1_85
  6
CONTINUOUS
 62
         7
100
AcDbCircle
 10
1702.6837146817
 20
-177.4604173119
 30
0.0
 40
0.96768
100
AcDbArc
 50
165.0604480709
 51
360.0000000001
  0
ARC
  5
462
100
AcDbEntity
  8
L1_85
  6
CONTINUOUS
 62
         7
100
AcDbCircle
 10
1704.7448761324
 20
-146.7957773119
 30
0.0
 40
0.96768
100
AcDbArc
 50
345.0604480705
 51
539.9999999997
  0
ARC
  5
463
100
AcDbEntity
  8
L1_85
  6
CONTINUOUS
 62
         7
100
AcDbCircle
 10
1706.5544346817
 20
-177.4604173119
 30
0.0
 40
0.96768
100
AcDbArc
 50
165.0604480713
 51
359.9999999997
  0
ARC
  5
464
100
AcDbEntity
  8
L1_85
  6
CONTINUOUS
 62
         7
100
AcDbCircle
 10
1708.6155961324
 20
-146.7957773119
 30
0.0
 40
0.96768
100
AcDbArc
 50
345.0604480709
 51
539.9999999997
  0
ARC
  5
465
100
AcDbEntity
  8
L1_85
  6
CONTINUOUS
 62
         7
100
AcDbCircle
 10
1710.4251546817
 20
-177.4604173119
 30
0.0
 40
0.96768
100
AcDbArc
 50
165.0604480709
 51
359.9999999997
  0
ARC
  5
466
100
AcDbEntity
  8
L1_85
  6
CONTINUOUS
 62
         7
100
AcDbCircle
 10
1712.4863161324
 20
-146.7957773119
 30
0.0
 40
0.96768
100
AcDbArc
 50
345.0604480705
 51
539.9999999997
  0
ARC
  5
467
100
AcDbEntity
  8
L1_85
  6
CONTINUOUS
 62
         7
100
AcDbCircle
 10
1714.2958746817
 20
-177.4604173119
 30
0.0
 40
0.96768
100
AcDbArc
 50
165.0604480713
 51
360.0000000001
  0
ARC
  5
468
100
AcDbEntity
  8
L1_85
  6
CONTINUOUS
 62
         7
100
AcDbCircle
 10
1716.3570361324
 20
-146.7957773119
 30
0.0
 40
0.96768
100
AcDbArc
 50
345.0604480713
 51
540.0000000001
  0
ARC
  5
469
100
AcDbEntity
  8
L1_85
  6
CONTINUOUS
 62
         7
100
AcDbCircle
 10
1718.1665946817
 20
-177.4604173119
 30
0.0
 40
0.96768
100
AcDbArc
 50
165.0604480709
 51
359.9999999997
  0
ARC
  5
46A
100
AcDbEntity
  8
L1_85
  6
CONTINUOUS
 62
         7
100
AcDbCircle
 10
1720.2277561324
 20
-146.7957773119
 30
0.0
 40
0.96768
100
AcDbArc
 50
345.0604480713
 51
539.9999999997
  0
ARC
  5
46B
100
AcDbEntity
  8
L1_85
  6
CONTINUOUS
 62
         7
100
AcDbCircle
 10
1722.0373146817
 20
-177.4604173119
 30
0.0
 40
0.96768
100
AcDbArc
 50
165.0604480713
 51
360.0000000006
  0
ARC
  5
46C
100
AcDbEntity
  8
L1_85
  6
CONTINUOUS
 62
         7
100
AcDbCircle
 10
1724.0984761324
 20
-146.7957773119
 30
0.0
 40
0.96768
100
AcDbArc
 50
345.0604480709
 51
539.9999999997
  0
ARC
  5
46D
100
AcDbEntity
  8
L1_85
  6
CONTINUOUS
 62
         7
100
AcDbCircle
 10
1725.9080346817
 20
-177.4604173119
 30
0.0
 40
0.96768
100
AcDbArc
 50
165.0604480713
 51
360.0000000001
  0
ARC
  5
46E
100
AcDbEntity
  8
L1_85
  6
CONTINUOUS
 62
         7
100
AcDbCircle
 10
1727.9691961324
 20
-146.7957773119
 30
0.0
 40
0.96768
100
AcDbArc
 50
345.0604480713
 51
539.9999999997
  0
LINE
  5
46F
100
AcDbEntity
  8
L1_85
  6
CONTINUOUS
 62
         7
100
AcDbLine
 10
1703.7771961324
 20
-146.7957773119
 30
0.0
 11
1701.7160346817
 21
-177.4604173119
 31
0.0
  0
LINE
  5
470
100
AcDbEntity
  8
L1_85
  6
CONTINUOUS
 62
         7
100
AcDbLine
 10
1705.7125561324
 20
-146.7957773119
 30
0.0
 11
1703.6513946817
 21
-177.4604173119
 31
0.0
  0
LINE
  5
471
100
AcDbEntity
  8
L1_85
  6
CONTINUOUS
 62
         7
100
AcDbLine
 10
1707.6479161324
 20
-146.7957773119
 30
0.0
 11
1705.5867546817
 21
-177.4604173119
 31
0.0
  0
LINE
  5
472
100
AcDbEntity
  8
L1_85
  6
CONTINUOUS
 62
         7
100
AcDbLine
 10
1709.5832761324
 20
-146.7957773119
 30
0.0
 11
1707.5221146817
 21
-177.4604173119
 31
0.0
  0
LINE
  5
473
100
AcDbEntity
  8
L1_85
  6
CONTINUOUS
 62
         7
100
AcDbLine
 10
1711.5186361324
 20
-146.7957773119
 30
0.0
 11
1709.4574746817
 21
-177.4604173119
 31
0.0
  0
LINE
  5
474
100
AcDbEntity
  8
L1_85
  6
CONTINUOUS
 62
         7
100
AcDbLine
 10
1713.4539961324
 20
-146.7957773119
 30
0.0
 11
1711.3928346817
 21
-177.4604173119
 31
0.0
  0
LINE
  5
475
100
AcDbEntity
  8
L1_85
  6
CONTINUOUS
 62
         7
100
AcDbLine
 10
1715.3893561324
 20
-146.7957773119
 30
0.0
 11
1713.3281946817
 21
-177.4604173119
 31
0.0
  0
LINE
  5
476
100
AcDbEntity
  8
L1_85
  6
CONTINUOUS
 62
         7
100
AcDbLine
 10
1717.3247161324
 20
-146.7957773119
 30
0.0
 11
1715.2635546817
 21
-177.4604173119
 31
0.0
  0
LINE
  5
477
100
AcDbEntity
  8
L1_85
  6
CONTINUOUS
 62
         7
100
AcDbLine
 10
1719.2600761324
 20
-146.7957773119
 30
0.0
 11
1717.1989146817
 21
-177.4604173119
 31
0.0
  0
LINE
  5
478
100
AcDbEntity
  8
L1_85
  6
CONTINUOUS
 62
         7
100
AcDbLine
 10
1721.1954361324
 20
-146.7957773119
 30
0.0
 11
1719.1342746817
 21
-177.4604173119
 31
0.0
  0
LINE
  5
479
100
AcDbEntity
  8
L1_85
  6
CONTINUOUS
 62
         7
100
AcDbLine
 10
1723.1307961324
 20
-146.7957773119
 30
0.0
 11
1721.0696346817
 21
-177.4604173119
 31
0.0
  0
LINE
  5
47A
100
AcDbEntity
  8
L1_85
  6
CONTINUOUS
 62
         7
100
AcDbLine
 10
1725.0661561324
 20
-146.7957773119
 30
0.0
 11
1723.0049946817
 21
-177.4604173119
 31
0.0
  0
LINE
  5
47B
100
AcDbEntity
  8
L1_85
  6
CONTINUOUS
 62
         7
100
AcDbLine
 10
1727.0015161324
 20
-146.7957773119
 30
0.0
 11
1724.9403546817
 21
-177.4604173119
 31
0.0
  0
LINE
  5
47C
100
AcDbEntity
  8
L1_85
  6
CONTINUOUS
 62
         7
100
AcDbLine
 10
1728.9368761324
 20
-146.7957773119
 30
0.0
 11
1726.8757146817
 21
-177.4604173119
 31
0.0
  0
LINE
  5
47D
100
AcDbEntity
  8
L1_85
  6
CONTINUOUS
 62
         7
100
AcDbLine
 10
1725.9709354071
 20
-162.1280973119
 30
0.0
 11
1725.0661561324
 21
-146.7957773119
 31
0.0
  0
LINE
  5
47E
100
AcDbEntity
  8
L1_85
  6
CONTINUOUS
 62
         7
100
AcDbLine
 10
1724.9403546817
 20
-177.4604173119
 30
0.0
 11
1724.0355754071
 21
-162.1280973119
 31
0.0
  0
LINE
  5
47F
100
AcDbEntity
  8
L1_85
  6
CONTINUOUS
 62
         7
100
AcDbLine
 10
1722.1002154071
 20
-162.1280973119
 30
0.0
 11
1721.1954361324
 21
-146.7957773119
 31
0.0
  0
LINE
  5
480
100
AcDbEntity
  8
L1_85
  6
CONTINUOUS
 62
         7
100
AcDbLine
 10
1721.0696346817
 20
-177.4604173119
 30
0.0
 11
1720.1648554071
 21
-162.1280973119
 31
0.0
  0
LINE
  5
481
100
AcDbEntity
  8
L1_85
  6
CONTINUOUS
 62
         7
100
AcDbLine
 10
1718.2294954071
 20
-162.1280973119
 30
0.0
 11
1717.3247161324
 21
-146.7957773119
 31
0.0
  0
LINE
  5
482
100
AcDbEntity
  8
L1_85
  6
CONTINUOUS
 62
         7
100
AcDbLine
 10
1717.1989146817
 20
-177.4604173119
 30
0.0
 11
1716.2941354071
 21
-162.1280973119
 31
0.0
  0
LINE
  5
483
100
AcDbEntity
  8
L1_85
  6
CONTINUOUS
 62
         7
100
AcDbLine
 10
1714.3587754071
 20
-162.1280973119
 30
0.0
 11
1713.4539961324
 21
-146.795777312
 31
0.0
  0
LINE
  5
484
100
AcDbEntity
  8
L1_85
  6
CONTINUOUS
 62
         7
100
AcDbLine
 10
1713.3281946817
 20
-177.460417312
 30
0.0
 11
1712.4234154071
 21
-162.128097312
 31
0.0
  0
LINE
  5
485
100
AcDbEntity
  8
L1_85
  6
CONTINUOUS
 62
         7
100
AcDbLine
 10
1710.4880554071
 20
-162.1280973119
 30
0.0
 11
1709.5832761324
 21
-146.7957773119
 31
0.0
  0
LINE
  5
486
100
AcDbEntity
  8
L1_85
  6
CONTINUOUS
 62
         7
100
AcDbLine
 10
1709.4574746817
 20
-177.4604173119
 30
0.0
 11
1708.5526954071
 21
-162.1280973119
 31
0.0
  0
LINE
  5
487
100
AcDbEntity
  8
L1_85
  6
CONTINUOUS
 62
         7
100
AcDbLine
 10
1706.6500445903
 20
-161.8786295703
 30
0.0
 11
1705.7452653156
 21
-146.5463095703
 31
0.0
  0
LINE
  5
488
100
AcDbEntity
  8
L1_85
  6
CONTINUOUS
 62
         7
100
AcDbLine
 10
1705.6194638649
 20
-177.2109495703
 30
0.0
 11
1704.7146845903
 21
-161.8786295703
 31
0.0
  0
DIMENSION
  5
48B
100
AcDbEntity
  8
L1_85
  6
CONTINUOUS
 62
         4
100
AcDbDimension
  2
*D8
 10
1689.0402964606
 20
-69.3488885075
 30
0.0
 11
1684.9802964606
 21
-96.6405551741
 31
0.0
  3
DIMSTYLE1
100
AcDbAlignedDimension
 13
1703.365000633
 23
-69.3488885075
 33
0.0
 14
1703.365000633
 24
-109.3488885075
 34
0.0
 50
90.0
100
AcDbRotatedDimension
  0
ARC
  5
497
100
AcDbEntity
  8
L1_85
  6
CONTINUOUS
 62
         5
100
AcDbCircle
 10
1239.9233403763
 20
112.2524144385
 30
0.0
 40
9.0
100
AcDbArc
 50
278.0509996909
 51
548.1955418149
  0
CIRCLE
  5
498
100
AcDbEntity
  8
L1_85
  6
CONTINUOUS
 62
         7
100
AcDbCircle
 10
1239.9233403763
 20
112.2524144385
 30
0.0
 40
8.5
  0
LINE
  5
499
100
AcDbEntity
  8
L1_85
  6
CENTER
 62
         1
100
AcDbLine
 10
1239.9233403763
 20
148.7524144385
 30
0.0
 11
1239.9233403763
 21
66.330534028
 31
0.0
  0
LINE
  5
49A
100
AcDbEntity
  8
L1_85
  6
CENTER
 62
         1
100
AcDbLine
 10
1290.8884587647
 20
112.2524144385
 30
0.0
 11
1203.4233403763
 21
112.2524144385
 31
0.0
  0
TEXT
  5
49C
100
AcDbEntity
  8
L1_85
  6
CONTINUOUS
 62
         2
100
AcDbText
 10
1830.4058372732
 20
186.4382511173
 30
0.0
 40
4.5
  1
536184
 41
0.98
  7
BOX
100
AcDbText
  0
ENDSEC
  0
SECTION
  2
OBJECTS
  0
DICTIONARY
  5
19
100
AcDbDictionary
  3
ACAD_GROUP
350
1A
  3
ACAD_MLINESTYLE
350
1B
  0
DICTIONARY
  5
1A
102
{ACAD_REACTORS
330
19
102
}
100
AcDbDictionary
  0
DICTIONARY
  5
1B
102
{ACAD_REACTORS
330
19
102
}
100
AcDbDictionary
  3
STANDARD
350
1C
  0
MLINESTYLE
  5
1C
102
{ACAD_REACTORS
330
1B
102
}
100
AcDbMlineStyle
  2
STANDARD
 70
         0
  3

 62
         0
 51
90.0
 52
90.0
 71
         2
 49
0.5
 62
       256
  6
BYLAYER
 49
-0.5
 62
       256
  6
BYLAYER
  0
ENDSEC
  0
EOF
