  0
SECTION
  2
HEADER
  9
$ACADVER
  1
AC1014
  9
$ACADMAINTVER
 70
         0
  9
$DWGCODEPAGE
  3
BIG5
  9
$INSBASE
 10
0.0
 20
0.0
 30
0.0
  9
$EXTMIN
 10
1063.9541857525
 20
-408.764393967
 30
0.0
  9
$EXTMAX
 10
1680.8053448769
 20
-107.0666773959
 30
0.0
  9
$LIMMIN
 10
0.0
 20
0.0
  9
$LIMMAX
 10
0.0
 20
0.0
  9
$ORTHOMODE
 70
         0
  9
$REGENMODE
 70
         1
  9
$FILLMODE
 70
         1
  9
$QTEXTMODE
 70
         0
  9
$MIRRTEXT
 70
         1
  9
$DRAGMODE
 70
         2
  9
$LTSCALE
 40
1.0
  9
$OSMODE
 70
         0
  9
$ATTMODE
 70
         1
  9
$TEXTSIZE
 40
1.7
  9
$TRACEWID
 40
0.05
  9
$TEXTSTYLE
  7
STANDARD
  9
$CLAYER
  8
0
  9
$CELTYPE
  6
CONTINUOUS
  9
$CECOLOR
 62
        16
  9
$CELTSCALE
 40
1.0
  9
$DELOBJ
 70
         1
  9
$DISPSILH
 70
         0
  9
$DIMSCALE
 40
1.0
  9
$DIMASZ
 40
0.18
  9
$DIMEXO
 40
0.0625
  9
$DIMDLI
 40
0.38
  9
$DIMRND
 40
0.0
  9
$DIMDLE
 40
0.0
  9
$DIMEXE
 40
0.25
  9
$DIMTP
 40
0.01
  9
$DIMTM
 40
-0.01
  9
$DIMTXT
 40
2.7
  9
$DIMCEN
 40
0.09
  9
$DIMTSZ
 40
0.0
  9
$DIMTOL
 70
         0
  9
$DIMLIM
 70
         0
  9
$DIMTIH
 70
         1
  9
$DIMTOH
 70
         1
  9
$DIMSE1
 70
         0
  9
$DIMSE2
 70
         0
  9
$DIMTAD
 70
         0
  9
$DIMZIN
 70
         0
  9
$DIMBLK
  1

  9
$DIMASO
 70
         1
  9
$DIMSHO
 70
         1
  9
$DIMPOST
  1

  9
$DIMAPOST
  1

  9
$DIMALT
 70
         0
  9
$DIMALTD
 70
         2
  9
$DIMALTF
 40
25.4
  9
$DIMLFAC
 40
1.0
  9
$DIMTOFL
 70
         0
  9
$DIMTVP
 40
0.0
  9
$DIMTIX
 70
         0
  9
$DIMSOXD
 70
         0
  9
$DIMSAH
 70
         0
  9
$DIMBLK1
  1

  9
$DIMBLK2
  1

  9
$DIMSTYLE
  2
STANDARD
  9
$DIMCLRD
 70
         0
  9
$DIMCLRE
 70
         0
  9
$DIMCLRT
 70
        16
  9
$DIMTFAC
 40
1.0
  9
$DIMGAP
 40
0.09
  9
$DIMJUST
 70
         0
  9
$DIMSD1
 70
         0
  9
$DIMSD2
 70
         0
  9
$DIMTOLJ
 70
         1
  9
$DIMTZIN
 70
         0
  9
$DIMALTZ
 70
         0
  9
$DIMALTTZ
 70
         0
  9
$DIMFIT
 70
         3
  9
$DIMUPT
 70
         0
  9
$DIMUNIT
 70
         2
  9
$DIMDEC
 70
         4
  9
$DIMTDEC
 70
         4
  9
$DIMALTU
 70
         2
  9
$DIMALTTD
 70
         2
  9
$DIMTXSTY
  7
STANDARD
  9
$DIMAUNIT
 70
         0
  9
$LUNITS
 70
         2
  9
$LUPREC
 70
        10
  9
$SKETCHINC
 40
0.1
  9
$FILLETRAD
 40
0.0
  9
$AUNITS
 70
         0
  9
$AUPREC
 70
         0
  9
$MENU
  1
acad
  9
$ELEVATION
 40
0.0
  9
$PELEVATION
 40
0.0
  9
$THICKNESS
 40
0.0
  9
$LIMCHECK
 70
         0
  9
$BLIPMODE
 70
         1
  9
$CHAMFERA
 40
0.0
  9
$CHAMFERB
 40
0.0
  9
$CHAMFERC
 40
0.0
  9
$CHAMFERD
 40
0.0
  9
$SKPOLY
 70
         0
  9
$TDCREATE
 40
0.000000000
  9
$TDUPDATE
 40
0.000000000
  9
$TDINDWG
 40
0.0000000000
  9
$TDUSRTIMER
 40
0.0000000000
  9
$USRTIMER
 70
         1
  9
$ANGBASE
 50
0.0
  9
$ANGDIR
 70
         0
  9
$PDMODE
 70
         2
  9
$PDSIZE
 40
0.0
  9
$PLINEWID
 40
0.0
  9
$COORDS
 70
         0
  9
$SPLFRAME
 70
         0
  9
$SPLINETYPE
 70
         6
  9
$SPLINESEGS
 70
         8
  9
$ATTDIA
 70
         0
  9
$ATTREQ
 70
         1
  9
$HANDLING
 70
         1
  9
$HANDSEED
  5
2AE
  9
$SURFTAB1
 70
         6
  9
$SURFTAB2
 70
         6
  9
$SURFTYPE
 70
         6
  9
$SURFU
 70
         6
  9
$SURFV
 70
         6
  9
$UCSNAME
  2

  9
$UCSORG
 10
0.0
 20
0.0
 30
0.0
  9
$UCSXDIR
 10
1.0
 20
0.0
 30
0.0
  9
$UCSYDIR
 10
0.0
 20
1.0
 30
0.0
  9
$PUCSNAME
  2

  9
$PUCSORG
 10
0.0
 20
0.0
 30
0.0
  9
$PUCSXDIR
 10
1.0
 20
0.0
 30
0.0
  9
$PUCSYDIR
 10
0.0
 20
1.0
 30
0.0
  9
$USERI1
 70
         0
  9
$USERI2
 70
         0
  9
$USERI3
 70
         0
  9
$USERI4
 70
         0
  9
$USERI5
 70
         0
  9
$USERR1
 40
0.0
  9
$USERR2
 40
0.0
  9
$USERR3
 40
0.0
  9
$USERR4
 40
0.0
  9
$USERR5
 40
0.0
  9
$WORLDVIEW
 70
         1
  9
$SHADEDGE
 70
         3
  9
$SHADEDIF
 70
        70
  9
$TILEMODE
 70
         1
  9
$MAXACTVP
 70
        16
  9
$PINSBASE
 10
0.0
 20
0.0
 30
0.0
  9
$PLIMCHECK
 70
         0
  9
$PEXTMIN
 10
1.0000000000E+20
 20
1.0000000000E+20
 30
1.0000000000E+20
  9
$PEXTMAX
 10
-1.0000000000E+20
 20
-1.0000000000E+20
 30
-1.0000000000E+20
  9
$PLIMMIN
 10
0.0
 20
0.0
  9
$PLIMMAX
 10
12.0
 20
9.0
  9
$UNITMODE
 70
         0
  9
$VISRETAIN
 70
         0
  9
$PLINEGEN
 70
         1
  9
$PSLTSCALE
 70
         0
  9
$TREEDEPTH
 70
      3020
  9
$PICKSTYLE
 70
         1
  9
$CMLSTYLE
  2
STANDARD
  9
$CMLJUST
 70
         0
  9
$CMLSCALE
 40
1.0
  9
$PROXYGRAPHICS
 70
         0
  9
$MEASUREMENT
 70
         0
  0
ENDSEC
  0
SECTION
  2
CLASSES
  0
CLASS
  1
LWPOLYLINE
  2
AcDbPolyline
  3
"AutoCAD"
 90
        0
280
         0
281
         1
  0
CLASS
  1
IMAGE
  2
AcDbRasterImage
  3
ISM
 90
      127
280
         0
281
         1
  0
CLASS
  1
OLE2FRAME
  2
AcDbOle2Frame
  3
""
 90
        0
280
         0
281
         1
  0
CLASS
  1
HATCH
  2
AcDbHatch
  3
"ACAD_SEDONA"
 90
        0
280
         0
281
         1
  0
CLASS
  1
DICTIONARYVAR
  2
AcDbDictionaryVar
  3
"AutoCAD"
 90
        0
280
         0
281
         0
  0
CLASS
  1
RASTERVARIABLES
  2
AcDbRasterVariables
  3
ISM
 90
        0
280
         0
281
         0
  0
CLASS
  1
IMAGEDEF
  2
AcDbRasterImageDef
  3
ISM
 90
        0
280
         0
281
         0
  0
CLASS
  1
IMAGEDEF_REACTOR
  2
AcDbRasterImageDefReactor
  3
ISM
 90
        1
280
         0
281
         0
  0
CLASS
  1
IDBUFFER
  2
AcDbIdBuffer
  3
"Acad"
 90
        0
280
         0
281
         0
  0
CLASS
  1
SPATIAL_FILTER
  2
AcDbSpatialFilter
  3
"Acad"
 90
        0
280
         0
281
         0
  0
CLASS
  1
XRECORD
  2
AcDbXrecord
  3
"<Built In>"
 90
        0
280
         0
281
         0
  0
CLASS
  1
SORTENTSTABLE
  2
AcDbSortentsTable
  3
"AutoCAD"
 90
        0
280
         0
281
         0
  0
CLASS
  1
LAYER_INDEX
  2
AcDbLayerIndex
  3
"Acad"
 90
        0
280
         0
281
         0
  0
CLASS
  1
SPATIAL_INDEX
  2
AcDbSpatialIndex
  3
"Acad"
 90
        0
280
         0
281
         0
  0
CLASS
  1
OBJECT_PTR
  2
CAseDLPNTableRecord
  3
"ASE-LPNTableRecord"
 90
        1
280
         0
281
         0
  0
CLASS
  1
LAYOUT
  2
AcDbLayout
  3
"AutoCAD 2000"
 90
        1
280
         0
281
         0
  0
CLASS
  1
PLOTSETTINGS
  2
AcDbPlotSettings
  3
"AutoCAD 2000"
 90
        1
280
         0
281
         0
  0
CLASS
  1
ACDBDICTIONARYWDFLT
  2
AcDbDictionaryWithDefault
  3
"AutoCAD 2000"
 90
        1
280
         0
281
         0
  0
CLASS
  1
ACDBPLACEHOLDER
  2
AcDbPlaceHolder
  3
"AutoCAD 2000"
 90
        1
280
         0
281
         0
  0
CLASS
  1
VBA_PROJECT
  2
AcDbVbaProject
  3
"acadvba"
 90
        1
280
         0
281
         0
  0
CLASS
  1
WIPEOUT
  2
AcDbWipeout
  3
WipeOut|AutoCAD Express Tool|expresstools@autodesk.com
 90
      127
280
         0
281
         1
  0
CLASS
  1
WIPEOUTVARIABLES
  2
AcDbWipeoutVariables
  3
WipeOut|AutoCAD Express Tool|expresstools@autodesk.com
 90
        0
280
         0
281
         0
  0
CLASS
  1
RTEXT
  2
RText
  3
RText|AutoCAD Express Tool|expresstools@autodesk.com
 90
        0
280
         0
281
         1
  0
CLASS
  1
ARCALIGNEDTEXT
  2
AcDbArcAlignedText
  3
ATEXT|AutoCAD Express Tool|expresstools@autodesk.com
 90
        0
280
         0
281
         1
  0
ENDSEC
  0
SECTION
  2
TABLES
  0
TABLE
  2
VPORT
  5
7
100
AcDbSymbolTable
 70
         1
  0
VPORT
  5
15
100
AcDbSymbolTableRecord
100
AcDbViewportTableRecord
  2
*ACTIVE
 70
         0
 10
0.0
 20
0.0
 11
1.0
 21
1.0
 12
1372.3797653147
 22
-257.9155356814
 13
0.0
 23
0.0
 14
1.0
 24
1.0
 15
0.0
 25
0.0
 16
0.0
 26
0.0
 36
1.0
 17
0.0
 27
0.0
 37
0.0
 40
301.6977165711
 41
2.0446000259
 42
50.0
 43
0.0
 44
0.0
 50
0.0
 51
0.0
 71
         0
 72
       100
 73
         1
 74
         1
 75
         0
 76
         0
 77
         0
 78
         0
  0
ENDTAB
  0
TABLE
  2
LTYPE
  5
4
100
AcDbSymbolTable
 70
         6
  0
LTYPE
  5
11
100
AcDbSymbolTableRecord
100
AcDbLinetypeTableRecord
  2
BYBLOCK
 70
        64
  3

 72
        65
 73
         0
 40
0.0
  0
LTYPE
  5
12
100
AcDbSymbolTableRecord
100
AcDbLinetypeTableRecord
  2
BYLAYER
 70
        64
  3

 72
        65
 73
         0
 40
0.0
  0
LTYPE
  5
13
100
AcDbSymbolTableRecord
100
AcDbLinetypeTableRecord
  2
CONTINUOUS
 70
        64
  3
Solid line
 72
        65
 73
         0
 40
0.0
  0
LTYPE
  5
1D
100
AcDbSymbolTableRecord
100
AcDbLinetypeTableRecord
  2
DASHED
 70
        64
  3
_ _ _ _ _ _ _ _ _ _ _ _ _ _ _ _
 72
        65
 73
         2
 40
0.2
 49
0.1
 74
         0
 49
-0.1
 74
         0
  0
LTYPE
  5
1E
100
AcDbSymbolTableRecord
100
AcDbLinetypeTableRecord
  2
CENTER
 70
        64
  3
___ _ ___ _ ___ _ ___ _ ___ _ ___ _ ___ _ ___ _
 72
        65
 73
         4
 40
0.95
 49
0.625
 74
         0
 49
-0.125
 74
         0
 49
0.075
 74
         0
 49
-0.125
 74
         0
  0
LTYPE
  5
1F
100
AcDbSymbolTableRecord
100
AcDbLinetypeTableRecord
  2
PHANTOM
 70
        64
  3
______  __  __  ______  __  __  ______  __  __  
 72
        65
 73
         6
 40
1.025
 49
0.625
 74
         0
 49
-0.125
 74
         0
 49
0.075
 74
         0
 49
-0.125
 74
         0
 49
0.075
 74
         0
 49
-0.125
 74
         0
  0
ENDTAB
  0
TABLE
  2
LAYER
  5
2
100
AcDbSymbolTable
 70
         6
  0
LAYER
  5
14
100
AcDbSymbolTableRecord
100
AcDbLayerTableRecord
  2
0
 70
         0
 62
         7
  6
CONTINUOUS
  0
LAYER
  5
21
100
AcDbSymbolTableRecord
100
AcDbLayerTableRecord
  2
_____U
 70
         1
 62
         7
  6
CONTINUOUS
  0
LAYER
  5
22
100
AcDbSymbolTableRecord
100
AcDbLayerTableRecord
  2
_____T______
 70
         1
 62
         7
  6
CONTINUOUS
  0
LAYER
  5
23
100
AcDbSymbolTableRecord
100
AcDbLayerTableRecord
  2
______L_______
 70
         1
 62
         7
  6
CONTINUOUS
  0
LAYER
  5
24
100
AcDbSymbolTableRecord
100
AcDbLayerTableRecord
  2
L1_120
 70
         0
 62
         7
  6
CONTINUOUS
  0
LAYER
  5
1DA
100
AcDbSymbolTableRecord
100
AcDbLayerTableRecord
  2
DEFPOINTS
 70
         0
 62
        -7
  6
CONTINUOUS
  0
ENDTAB
  0
TABLE
  2
STYLE
  5
3
100
AcDbSymbolTable
 70
         8
  0
STYLE
  5
17
100
AcDbSymbolTableRecord
100
AcDbTextStyleTableRecord
  2
STANDARD
 70
         0
 40
0.0
 41
1.0
 50
0.0
 71
         0
 42
0.0
  3
txt
  4

  0
STYLE
  5
25
100
AcDbSymbolTableRecord
100
AcDbTextStyleTableRecord
  2
BOX
 70
         0
 40
1.0
 41
1.0
 50
0.0
 71
         0
 42
0.2
  3
txt.shx
  4

  0
STYLE
  5
1E4
100
AcDbSymbolTableRecord
100
AcDbTextStyleTableRecord
  2
BOX
 70
         0
 40
1.0
 41
1.0
 50
0.0
 71
         0
 42
0.2
  3
txt.shx
  4

  0
STYLE
  5
1FA
100
AcDbSymbolTableRecord
100
AcDbTextStyleTableRecord
  2
BOX
 70
         0
 40
1.0
 41
1.0
 50
0.0
 71
         0
 42
0.2
  3
txt.shx
  4

  0
STYLE
  5
20D
100
AcDbSymbolTableRecord
100
AcDbTextStyleTableRecord
  2
BOX
 70
         0
 40
1.0
 41
1.0
 50
0.0
 71
         0
 42
0.2
  3
txt.shx
  4

  0
STYLE
  5
22C
100
AcDbSymbolTableRecord
100
AcDbTextStyleTableRecord
  2
BOX
 70
         0
 40
1.0
 41
1.0
 50
0.0
 71
         0
 42
0.2
  3
txt.shx
  4

  0
STYLE
  5
23A
100
AcDbSymbolTableRecord
100
AcDbTextStyleTableRecord
  2
BOX
 70
         0
 40
1.0
 41
1.0
 50
0.0
 71
         0
 42
0.2
  3
txt.shx
  4

  0
STYLE
  5
250
100
AcDbSymbolTableRecord
100
AcDbTextStyleTableRecord
  2
BOX
 70
         0
 40
1.0
 41
1.0
 50
0.0
 71
         0
 42
0.2
  3
txt.shx
  4

  0
ENDTAB
  0
TABLE
  2
VIEW
  5
5
100
AcDbSymbolTable
 70
         0
  0
ENDTAB
  0
TABLE
  2
UCS
  5
6
100
AcDbSymbolTable
 70
         1
  0
UCS
  5
20
100
AcDbSymbolTableRecord
100
AcDbUCSTableRecord
  2
CK_VIEW_1
 70
         0
 10
0.0
 20
0.0
 30
1.0
 11
1.0
 21
0.0
 31
0.0
 12
0.0
 22
1.0
 32
0.0
  0
ENDTAB
  0
TABLE
  2
APPID
  5
8
100
AcDbSymbolTable
 70
         1
  0
APPID
  5
16
100
AcDbSymbolTableRecord
100
AcDbRegAppTableRecord
  2
ACAD
 70
         0
  0
ENDTAB
  0
TABLE
  2
DIMSTYLE
  5
9
100
AcDbSymbolTable
 70
         2
  0
DIMSTYLE
105
18
100
AcDbSymbolTableRecord
100
AcDbDimStyleTableRecord
  2
STANDARD
 70
         0
  3

  4

  5

  6

  7

 40
1.0
 41
0.18
 42
0.0625
 43
0.38
 44
0.18
 45
0.0
 46
0.0
 47
0.0
 48
0.0
 71
         0
 72
         0
 73
         1
 74
         1
 75
         0
 76
         0
 77
         0
 78
         0
140
0.18
141
0.09
142
0.0
143
25.4
144
1.0
145
0.0
146
1.0
147
0.09
170
         0
171
         2
172
         0
173
         0
174
         0
175
         0
176
         0
177
         0
178
         0
270
         2
271
         4
272
         4
273
         2
274
         2
275
         0
280
         0
281
         0
282
         0
283
         1
284
         0
285
         0
286
         0
287
         0
288
         0
340
17
  0
DIMSTYLE
105
1D6
100
AcDbSymbolTableRecord
100
AcDbDimStyleTableRecord
  2
DIMSTYLE1
 70
         0
  3

  4

  5

  6

  7

 40
1.0
 41
3.5
 42
0.0625
 43
0.38
 44
3.5
 45
0.0
 46
0.0
 47
0.0
 48
0.0
 71
         0
 72
         0
 73
         1
 74
         1
 75
         0
 76
         0
 77
         0
 78
         0
140
3.5
141
0.09
142
0.0
143
25.4
144
1.0
145
0.0
146
1.0
147
0.09
170
         0
171
         2
172
         0
173
         0
174
         0
175
         0
176
         0
177
         0
178
         0
270
         2
271
         4
272
         4
273
         2
274
         2
275
         0
280
         0
281
         0
282
         0
283
         1
284
         0
285
         0
286
         0
287
         0
288
         0
340
17
  0
ENDTAB
  0
TABLE
  2
BLOCK_RECORD
  5
1
100
AcDbSymbolTable
 70
         7
  0
BLOCK_RECORD
  5
A
100
AcDbSymbolTableRecord
100
AcDbBlockTableRecord
  2
*MODEL_SPACE
  0
BLOCK_RECORD
  5
B
100
AcDbSymbolTableRecord
100
AcDbBlockTableRecord
  2
*PAPER_SPACE
  0
BLOCK_RECORD
  5
1D7
100
AcDbSymbolTableRecord
100
AcDbBlockTableRecord
  2
*D0
  0
BLOCK_RECORD
  5
1EC
100
AcDbSymbolTableRecord
100
AcDbBlockTableRecord
  2
*D1
  0
BLOCK_RECORD
  5
201
100
AcDbSymbolTableRecord
100
AcDbBlockTableRecord
  2
*D2
  0
BLOCK_RECORD
  5
221
100
AcDbSymbolTableRecord
100
AcDbBlockTableRecord
  2
*D3
  0
BLOCK_RECORD
  5
22F
100
AcDbSymbolTableRecord
100
AcDbBlockTableRecord
  2
*D4
  0
BLOCK_RECORD
  5
244
100
AcDbSymbolTableRecord
100
AcDbBlockTableRecord
  2
*D5
  0
BLOCK_RECORD
  5
265
100
AcDbSymbolTableRecord
100
AcDbBlockTableRecord
  2
*X6
  0
ENDTAB
  0
ENDSEC
  0
SECTION
  2
BLOCKS
  0
BLOCK
  5
D
100
AcDbEntity
  8
0
100
AcDbBlockBegin
  2
*MODEL_SPACE
 70
         0
 10
0.0
 20
0.0
 30
0.0
  3
*MODEL_SPACE
  1

  0
ENDBLK
  5
E
100
AcDbEntity
  8
0
100
AcDbBlockEnd
  0
BLOCK
  5
F
100
AcDbEntity
 67
         1
  8
0
100
AcDbBlockBegin
  2
*PAPER_SPACE
 70
         0
 10
0.0
 20
0.0
 30
0.0
  3
*PAPER_SPACE
  1

  0
ENDBLK
  5
10
100
AcDbEntity
 67
         1
  8
0
100
AcDbBlockEnd
  0
BLOCK
  5
1D8
100
AcDbEntity
  8
0
100
AcDbBlockBegin
  2
*D0
 70
        65
 10
0.0
 20
0.0
 30
0.0
  3
*D0
  1

  0
POINT
  5
1DB
100
AcDbEntity
  8
DEFPOINTS
  6
CONTINUOUS
 62
         0
100
AcDbPoint
 10
1459.2521495747
 20
-214.3141702895
 30
0.0
  0
POINT
  5
1DC
100
AcDbEntity
  8
DEFPOINTS
  6
CONTINUOUS
 62
         0
100
AcDbPoint
 10
1393.2226807224
 20
-214.3141702895
 30
0.0
  0
POINT
  5
1DD
100
AcDbEntity
  8
DEFPOINTS
  6
CONTINUOUS
 62
         0
100
AcDbPoint
 10
1393.2226807224
 20
-234.2381702895
 30
0.0
  0
LINE
  5
1DE
100
AcDbEntity
  8
L1_120
  6
CONTINUOUS
 62
         4
100
AcDbLine
 10
1394.9726807224
 20
-214.3141702895
 30
0.0
 11
1460.1271495747
 21
-214.3141702895
 31
0.0
  0
LINE
  5
1DF
100
AcDbEntity
  8
L1_120
  6
CONTINUOUS
 62
         4
100
AcDbLine
 10
1394.9726807224
 20
-234.2381702895
 30
0.0
 11
1460.1271495747
 21
-234.2381702895
 31
0.0
  0
LINE
  5
1E0
100
AcDbEntity
  8
L1_120
  6
CONTINUOUS
 62
         4
100
AcDbLine
 10
1459.2521495747
 20
-214.3141702895
 30
0.0
 11
1459.2521495747
 21
-234.2381702895
 31
0.0
  0
SOLID
  5
1E1
100
AcDbEntity
  8
L1_120
  6
CONTINUOUS
 62
         4
100
AcDbTrace
 10
1459.2521495747
 20
-214.3141702895
 30
0.0
 11
1459.7771495747
 21
-217.8141702895
 31
0.0
 12
1458.7271495747
 22
-217.8141702895
 32
0.0
 13
1459.2521495747
 23
-214.3141702895
 33
0.0
  0
LINE
  5
1E2
100
AcDbEntity
  8
L1_120
  6
CONTINUOUS
 62
         4
100
AcDbLine
 10
1459.2521495747
 20
-214.3141702895
 30
0.0
 11
1459.2521495747
 21
-195.4026132125
 31
0.0
  0
SOLID
  5
1E3
100
AcDbEntity
  8
L1_120
  6
CONTINUOUS
 62
         4
100
AcDbTrace
 10
1459.2521495747
 20
-234.2381702895
 30
0.0
 11
1458.7271495747
 21
-230.7381702895
 31
0.0
 12
1459.7771495747
 22
-230.7381702895
 32
0.0
 13
1459.2521495747
 23
-234.2381702895
 33
0.0
  0
TEXT
  5
1E5
100
AcDbEntity
  8
L1_120
  6
CONTINUOUS
 62
         4
100
AcDbText
 10
1456.6271495747
 20
-211.1526132125
 30
0.0
 40
3.5
  1
崷20
 50
90.0
  7
BOX
100
AcDbText
  0
ENDBLK
  5
1E6
100
AcDbEntity
  8
0
  6
CONTINUOUS
100
AcDbBlockEnd
  0
BLOCK
  5
1ED
100
AcDbEntity
  8
0
100
AcDbBlockBegin
  2
*D1
 70
        65
 10
0.0
 20
0.0
 30
0.0
  3
*D1
  1

  0
POINT
  5
1EF
100
AcDbEntity
  8
DEFPOINTS
  6
CONTINUOUS
 62
         0
100
AcDbPoint
 10
1385.1596527306
 20
-214.3141702895
 30
0.0
  0
POINT
  5
1F0
100
AcDbEntity
  8
DEFPOINTS
  6
CONTINUOUS
 62
         0
100
AcDbPoint
 10
1399.0548286963
 20
-214.3141702895
 30
0.0
  0
POINT
  5
1F1
100
AcDbEntity
  8
DEFPOINTS
  6
CONTINUOUS
 62
         0
100
AcDbPoint
 10
1399.0548286963
 20
-214.3141702895
 30
0.0
  0
POINT
  5
1F2
100
AcDbEntity
  8
DEFPOINTS
  6
CONTINUOUS
 62
         0
100
AcDbPoint
 10
1434.3265709221
 20
-217.0901166053
 30
0.0
  0
LINE
  5
1F3
100
AcDbEntity
  8
L1_120
  6
CONTINUOUS
 62
         4
100
AcDbLine
 10
1400.8048286963
 20
-214.3141702895
 30
0.0
 11
1414.0659185044
 21
-214.3141702895
 31
0.0
  0
ARC
  5
1F4
100
AcDbEntity
  8
L1_120
  6
CONTINUOUS
 62
         4
100
AcDbCircle
 10
1399.0548286963
 20
-214.3141702895
 30
0.0
 40
14.1360898081
100
AcDbArc
 50
327.1279068656
 51
355.5
  0
SOLID
  5
1F5
100
AcDbEntity
  8
L1_120
  6
CONTINUOUS
 62
         4
100
AcDbTrace
 10
1413.1473416572
 20
-215.423275113
 30
0.0
 11
1412.9593929441
 21
-218.9574370053
 31
0.0
 12
1411.9307466109
 22
-218.7467554414
 32
0.0
 13
1413.1473416572
 23
-215.423275113
 33
0.0
  0
ARC
  5
1F6
100
AcDbEntity
  8
L1_120
  6
CONTINUOUS
 62
         4
100
AcDbCircle
 10
1399.0548286963
 20
-214.3141702895
 30
0.0
 40
14.1360898081
100
AcDbArc
 50
0.0
 51
22.6338277454
  0
SOLID
  5
1F7
100
AcDbEntity
  8
L1_120
  6
CONTINUOUS
 62
         4
100
AcDbTrace
 10
1413.1909185044
 20
-214.3141702895
 30
0.0
 11
1412.2388310759
 21
-210.9054821946
 31
0.0
 12
1413.2808363206
 22
-210.7761567527
 32
0.0
 13
1413.1909185044
 23
-214.3141702895
 33
0.0
  0
ARC
  5
1F8
100
AcDbEntity
  8
L1_120
  6
CONTINUOUS
 62
         4
100
AcDbCircle
 10
1399.0548286963
 20
-214.3141702895
 30
0.0
 40
14.1360898081
100
AcDbArc
 50
355.5
 51
360.0
  0
SOLID
  5
1F9
100
AcDbEntity
  8
L1_120
  6
CONTINUOUS
 62
         4
100
AcDbTrace
 10
1399.0548286963
 20
-214.3141702895
 30
0.0
 11
1400.4467313067
 21
-211.0602139095
 31
0.0
 12
1401.3401800075
 22
-211.6118019977
 32
0.0
 13
1399.0548286963
 23
-214.3141702895
 33
0.0
  0
TEXT
  5
1FB
100
AcDbEntity
  8
L1_120
  6
CONTINUOUS
 62
         4
100
AcDbText
 10
1413.8522016241
 20
-207.1240329066
 30
0.0
 40
3.5
  1
4.5%%d
  7
BOX
100
AcDbText
  0
ENDBLK
  5
1FC
100
AcDbEntity
  8
0
  6
CONTINUOUS
100
AcDbBlockEnd
  0
BLOCK
  5
202
100
AcDbEntity
  8
0
100
AcDbBlockBegin
  2
*D2
 70
        65
 10
0.0
 20
0.0
 30
0.0
  3
*D2
  1

  0
POINT
  5
204
100
AcDbEntity
  8
DEFPOINTS
  6
CONTINUOUS
 62
         0
100
AcDbPoint
 10
1449.515960099
 20
-216.7761702895
 30
0.0
  0
POINT
  5
205
100
AcDbEntity
  8
DEFPOINTS
  6
CONTINUOUS
 62
         0
100
AcDbPoint
 10
1430.3375047567
 20
-216.7761702895
 30
0.0
  0
POINT
  5
206
100
AcDbEntity
  8
DEFPOINTS
  6
CONTINUOUS
 62
         0
100
AcDbPoint
 10
1430.3375047567
 20
-231.7761702895
 30
0.0
  0
LINE
  5
207
100
AcDbEntity
  8
L1_120
  6
CONTINUOUS
 62
         4
100
AcDbLine
 10
1432.0875047567
 20
-216.7761702895
 30
0.0
 11
1450.390960099
 21
-216.7761702895
 31
0.0
  0
LINE
  5
208
100
AcDbEntity
  8
L1_120
  6
CONTINUOUS
 62
         4
100
AcDbLine
 10
1432.0875047567
 20
-231.7761702895
 30
0.0
 11
1450.390960099
 21
-231.7761702895
 31
0.0
  0
LINE
  5
209
100
AcDbEntity
  8
L1_120
  6
CONTINUOUS
 62
         4
100
AcDbLine
 10
1449.515960099
 20
-216.7761702895
 30
0.0
 11
1449.515960099
 21
-231.7761702895
 31
0.0
  0
SOLID
  5
20A
100
AcDbEntity
  8
L1_120
  6
CONTINUOUS
 62
         4
100
AcDbTrace
 10
1449.515960099
 20
-216.7761702895
 30
0.0
 11
1450.040960099
 21
-220.2761702895
 31
0.0
 12
1448.990960099
 22
-220.2761702895
 32
0.0
 13
1449.515960099
 23
-216.7761702895
 33
0.0
  0
LINE
  5
20B
100
AcDbEntity
  8
L1_120
  6
CONTINUOUS
 62
         4
100
AcDbLine
 10
1449.515960099
 20
-216.7761702895
 30
0.0
 11
1449.515960099
 21
-194.2230031413
 31
0.0
  0
SOLID
  5
20C
100
AcDbEntity
  8
L1_120
  6
CONTINUOUS
 62
         4
100
AcDbTrace
 10
1449.515960099
 20
-231.7761702895
 30
0.0
 11
1448.990960099
 21
-228.2761702895
 31
0.0
 12
1450.040960099
 22
-228.2761702895
 32
0.0
 13
1449.515960099
 23
-231.7761702895
 33
0.0
  0
TEXT
  5
20E
100
AcDbEntity
  8
L1_120
  6
CONTINUOUS
 62
         4
100
AcDbText
 10
1445.455960099
 20
-211.139669808
 30
0.0
 40
3.5
  1
崷15
 50
90.0
  7
BOX
100
AcDbText
  0
ENDBLK
  5
20F
100
AcDbEntity
  8
0
  6
CONTINUOUS
100
AcDbBlockEnd
  0
BLOCK
  5
222
100
AcDbEntity
  8
0
100
AcDbBlockBegin
  2
*D3
 70
        65
 10
0.0
 20
0.0
 30
0.0
  3
*D3
  1

  0
POINT
  5
224
100
AcDbEntity
  8
DEFPOINTS
  6
CONTINUOUS
 62
         0
100
AcDbPoint
 10
1318.3275047567
 20
-159.7086369014
 30
0.0
  0
POINT
  5
225
100
AcDbEntity
  8
DEFPOINTS
  6
CONTINUOUS
 62
         0
100
AcDbPoint
 10
1318.3275047567
 20
-202.7026693532
 30
0.0
  0
POINT
  5
226
100
AcDbEntity
  8
DEFPOINTS
  6
CONTINUOUS
 62
         0
100
AcDbPoint
 10
1430.3375047567
 20
-219.0839512728
 30
0.0
  0
LINE
  5
227
100
AcDbEntity
  8
L1_120
  6
CONTINUOUS
 62
         4
100
AcDbLine
 10
1318.3275047567
 20
-200.9526693532
 30
0.0
 11
1318.3275047567
 21
-158.8336369014
 31
0.0
  0
LINE
  5
228
100
AcDbEntity
  8
L1_120
  6
CONTINUOUS
 62
         4
100
AcDbLine
 10
1430.3375047567
 20
-217.3339512728
 30
0.0
 11
1430.3375047567
 21
-158.8336369014
 31
0.0
  0
LINE
  5
229
100
AcDbEntity
  8
L1_120
  6
CONTINUOUS
 62
         4
100
AcDbLine
 10
1318.3275047567
 20
-159.7086369014
 30
0.0
 11
1430.3375047567
 21
-159.7086369014
 31
0.0
  0
SOLID
  5
22A
100
AcDbEntity
  8
L1_120
  6
CONTINUOUS
 62
         4
100
AcDbTrace
 10
1318.3275047567
 20
-159.7086369014
 30
0.0
 11
1321.8275047567
 21
-159.1836369014
 31
0.0
 12
1321.8275047567
 22
-160.2336369014
 32
0.0
 13
1318.3275047567
 23
-159.7086369014
 33
0.0
  0
SOLID
  5
22B
100
AcDbEntity
  8
L1_120
  6
CONTINUOUS
 62
         4
100
AcDbTrace
 10
1430.3375047567
 20
-159.7086369014
 30
0.0
 11
1426.8375047567
 21
-160.2336369014
 31
0.0
 12
1426.8375047567
 22
-159.1836369014
 32
0.0
 13
1430.3375047567
 23
-159.7086369014
 33
0.0
  0
TEXT
  5
22D
100
AcDbEntity
  8
L1_120
  6
CONTINUOUS
 62
         4
100
AcDbText
 10
1367.0105097706
 20
-157.0836369014
 30
0.0
 40
3.5
  1
112.01
  7
BOX
100
AcDbText
  0
ENDBLK
  5
22E
100
AcDbEntity
  8
0
  6
CONTINUOUS
100
AcDbBlockEnd
  0
BLOCK
  5
230
100
AcDbEntity
  8
0
100
AcDbBlockBegin
  2
*D4
 70
        65
 10
0.0
 20
0.0
 30
0.0
  3
*D4
  1

  0
POINT
  5
232
100
AcDbEntity
  8
DEFPOINTS
  6
CONTINUOUS
 62
         0
100
AcDbPoint
 10
1350.3275047567
 20
-177.530466851
 30
0.0
  0
POINT
  5
233
100
AcDbEntity
  8
DEFPOINTS
  6
CONTINUOUS
 62
         0
100
AcDbPoint
 10
1350.3275047567
 20
-193.7761702895
 30
0.0
  0
POINT
  5
234
100
AcDbEntity
  8
DEFPOINTS
  6
CONTINUOUS
 62
         0
100
AcDbPoint
 10
1430.3375047567
 20
-219.0839512728
 30
0.0
  0
LINE
  5
235
100
AcDbEntity
  8
L1_120
  6
CONTINUOUS
 62
         4
100
AcDbLine
 10
1350.3275047567
 20
-192.0261702895
 30
0.0
 11
1350.3275047567
 21
-176.655466851
 31
0.0
  0
LINE
  5
236
100
AcDbEntity
  8
L1_120
  6
CONTINUOUS
 62
         4
100
AcDbLine
 10
1430.3375047567
 20
-217.3339512728
 30
0.0
 11
1430.3375047567
 21
-176.655466851
 31
0.0
  0
LINE
  5
237
100
AcDbEntity
  8
L1_120
  6
CONTINUOUS
 62
         4
100
AcDbLine
 10
1350.3275047567
 20
-177.530466851
 30
0.0
 11
1430.3375047567
 21
-177.530466851
 31
0.0
  0
SOLID
  5
238
100
AcDbEntity
  8
L1_120
  6
CONTINUOUS
 62
         4
100
AcDbTrace
 10
1350.3275047567
 20
-177.530466851
 30
0.0
 11
1353.8275047567
 21
-177.005466851
 31
0.0
 12
1353.8275047567
 22
-178.055466851
 32
0.0
 13
1350.3275047567
 23
-177.530466851
 33
0.0
  0
SOLID
  5
239
100
AcDbEntity
  8
L1_120
  6
CONTINUOUS
 62
         4
100
AcDbTrace
 10
1430.3375047567
 20
-177.530466851
 30
0.0
 11
1426.8375047567
 21
-178.055466851
 31
0.0
 12
1426.8375047567
 22
-177.005466851
 32
0.0
 13
1430.3375047567
 23
-177.530466851
 33
0.0
  0
TEXT
  5
23B
100
AcDbEntity
  8
L1_120
  6
CONTINUOUS
 62
         4
100
AcDbText
 10
1387.0415252177
 20
-174.905466851
 30
0.0
 40
3.5
  1
80
  7
BOX
100
AcDbText
  0
ENDBLK
  5
23C
100
AcDbEntity
  8
0
  6
CONTINUOUS
100
AcDbBlockEnd
  0
BLOCK
  5
245
100
AcDbEntity
  8
0
100
AcDbBlockBegin
  2
*D5
 70
        65
 10
0.0
 20
0.0
 30
0.0
  3
*D5
  1

  0
POINT
  5
247
100
AcDbEntity
  8
DEFPOINTS
  6
CONTINUOUS
 62
         0
100
AcDbPoint
 10
1420.3375047567
 20
-365.5919400033
 30
0.0
  0
POINT
  5
248
100
AcDbEntity
  8
DEFPOINTS
  6
CONTINUOUS
 62
         0
100
AcDbPoint
 10
1420.3375047567
 20
-340.8786220057
 30
0.0
  0
POINT
  5
249
100
AcDbEntity
  8
DEFPOINTS
  6
CONTINUOUS
 62
         0
100
AcDbPoint
 10
1430.3375047567
 20
-342.398657439
 30
0.0
  0
LINE
  5
24A
100
AcDbEntity
  8
L1_120
  6
CONTINUOUS
 62
         4
100
AcDbLine
 10
1420.3375047567
 20
-342.6286220057
 30
0.0
 11
1420.3375047567
 21
-366.4669400033
 31
0.0
  0
LINE
  5
24B
100
AcDbEntity
  8
L1_120
  6
CONTINUOUS
 62
         4
100
AcDbLine
 10
1430.3375047567
 20
-344.148657439
 30
0.0
 11
1430.3375047567
 21
-366.4669400033
 31
0.0
  0
LINE
  5
24C
100
AcDbEntity
  8
L1_120
  6
CONTINUOUS
 62
         4
100
AcDbLine
 10
1420.3375047567
 20
-365.5919400033
 30
0.0
 11
1430.3375047567
 21
-365.5919400033
 31
0.0
  0
SOLID
  5
24D
100
AcDbEntity
  8
L1_120
  6
CONTINUOUS
 62
         4
100
AcDbTrace
 10
1420.3375047567
 20
-365.5919400033
 30
0.0
 11
1423.8375047567
 21
-365.0669400033
 31
0.0
 12
1423.8375047567
 22
-366.1169400033
 32
0.0
 13
1420.3375047567
 23
-365.5919400033
 33
0.0
  0
LINE
  5
24E
100
AcDbEntity
  8
L1_120
  6
CONTINUOUS
 62
         4
100
AcDbLine
 10
1420.3375047567
 20
-365.5919400033
 30
0.0
 11
1404.150807305
 21
-365.5919400033
 31
0.0
  0
SOLID
  5
24F
100
AcDbEntity
  8
L1_120
  6
CONTINUOUS
 62
         4
100
AcDbTrace
 10
1430.3375047567
 20
-365.5919400033
 30
0.0
 11
1426.8375047567
 21
-366.1169400033
 31
0.0
 12
1426.8375047567
 22
-365.0669400033
 32
0.0
 13
1430.3375047567
 23
-365.5919400033
 33
0.0
  0
TEXT
  5
251
100
AcDbEntity
  8
L1_120
  6
CONTINUOUS
 62
         4
100
AcDbText
 10
1405.900807305
 20
-361.5319400033
 30
0.0
 40
3.5
  1
10
  7
BOX
100
AcDbText
  0
ENDBLK
  5
252
100
AcDbEntity
  8
0
  6
CONTINUOUS
100
AcDbBlockEnd
  0
BLOCK
  5
266
100
AcDbEntity
  8
0
100
AcDbBlockBegin
  2
*X6
 70
        65
 10
0.0
 20
0.0
 30
0.0
  3
*X6
  1

  0
LINE
  5
267
100
AcDbEntity
  8
L1_120
  6
CONTINUOUS
 62
         4
100
AcDbLine
 10
1427.8820022915
 20
-345.8618742409
 30
0.0
 11
1430.3375047567
 21
-343.4063717756
 31
0.0
  0
LINE
  5
268
100
AcDbEntity
  8
L1_120
  6
CONTINUOUS
 62
         4
100
AcDbLine
 10
1423.276934944
 20
-346.2243009011
 30
0.0
 11
1428.9568138395
 21
-340.5444220057
 31
0.0
  0
LINE
  5
269
100
AcDbEntity
  8
L1_120
  6
CONTINUOUS
 62
         4
100
AcDbLine
 10
1418.6718675966
 20
-346.5867275614
 30
0.0
 11
1424.7141731523
 21
-340.5444220057
 31
0.0
  0
LINE
  5
26A
100
AcDbEntity
  8
L1_120
  6
CONTINUOUS
 62
         4
100
AcDbLine
 10
1429.4753144222
 20
-335.7832807359
 30
0.0
 11
1430.3279634869
 21
-334.9306316712
 31
0.0
  0
LINE
  5
26B
100
AcDbEntity
  8
L1_120
  6
CONTINUOUS
 62
         4
100
AcDbLine
 10
1414.0668002492
 20
-346.9491542217
 30
0.0
 11
1418.8473324652
 21
-342.1686220057
 31
0.0
  0
LINE
  5
26C
100
AcDbEntity
  8
L1_120
  6
CONTINUOUS
 62
         4
100
AcDbLine
 10
1420.1544195021
 20
-340.8615349688
 30
0.0
 11
1420.4715324652
 21
-340.5444220057
 31
0.0
  0
LINE
  5
26D
100
AcDbEntity
  8
L1_120
  6
CONTINUOUS
 62
         4
100
AcDbLine
 10
1425.2231324652
 20
-335.7928220057
 30
0.0
 11
1430.0860385821
 21
-330.9299158888
 31
0.0
  0
LINE
  5
26E
100
AcDbEntity
  8
L1_120
  6
CONTINUOUS
 62
         4
100
AcDbLine
 10
1409.4617329018
 20
-347.311580882
 30
0.0
 11
1414.6046917781
 21
-342.1686220057
 31
0.0
  0
LINE
  5
26F
100
AcDbEntity
  8
L1_120
  6
CONTINUOUS
 62
         4
100
AcDbLine
 10
1420.9804917781
 20
-335.7928220057
 30
0.0
 11
1426.4135163623
 21
-330.3597974215
 31
0.0
  0
LINE
  5
270
100
AcDbEntity
  8
L1_120
  6
CONTINUOUS
 62
         4
100
AcDbLine
 10
1404.8566655544
 20
-347.6740075423
 30
0.0
 11
1410.362051091
 21
-342.1686220057
 31
0.0
  0
LINE
  5
271
100
AcDbEntity
  8
L1_120
  6
CONTINUOUS
 62
         4
100
AcDbLine
 10
1418.362051091
 20
-334.1686220057
 30
0.0
 11
1422.4804172856
 21
-330.0502558111
 31
0.0
  0
LINE
  5
272
100
AcDbEntity
  8
L1_120
  6
CONTINUOUS
 62
         4
100
AcDbLine
 10
1400.251598207
 20
-348.0364342025
 30
0.0
 11
1406.1194104039
 21
-342.1686220057
 31
0.0
  0
LINE
  5
273
100
AcDbEntity
  8
L1_120
  6
CONTINUOUS
 62
         4
100
AcDbLine
 10
1414.1194104039
 20
-334.1686220057
 30
0.0
 11
1418.547318209
 21
-329.7407142006
 31
0.0
  0
LINE
  5
274
100
AcDbEntity
  8
L1_120
  6
CONTINUOUS
 62
         4
100
AcDbLine
 10
1374.3767697167
 20
-369.6686220057
 30
0.0
 11
1376.3275047567
 21
-367.7178869657
 31
0.0
  0
LINE
  5
275
100
AcDbEntity
  8
L1_120
  6
CONTINUOUS
 62
         4
100
AcDbLine
 10
1395.9147697167
 20
-348.1306220057
 30
0.0
 11
1401.8767697167
 21
-342.1686220057
 31
0.0
  0
LINE
  5
276
100
AcDbEntity
  8
L1_120
  6
CONTINUOUS
 62
         4
100
AcDbLine
 10
1409.8767697167
 20
-334.1686220057
 30
0.0
 11
1414.6142191323
 21
-329.4311725902
 31
0.0
  0
LINE
  5
277
100
AcDbEntity
  8
L1_120
  6
CONTINUOUS
 62
         4
100
AcDbLine
 10
1371.1300237478
 20
-368.6727272875
 30
0.0
 11
1376.3275047567
 21
-363.4752462786
 31
0.0
  0
LINE
  5
278
100
AcDbEntity
  8
L1_120
  6
CONTINUOUS
 62
         4
100
AcDbLine
 10
1391.6721290296
 20
-348.1306220057
 30
0.0
 11
1397.6341290296
 21
-342.1686220057
 31
0.0
  0
LINE
  5
279
100
AcDbEntity
  8
L1_120
  6
CONTINUOUS
 62
         4
100
AcDbLine
 10
1405.6341290296
 20
-334.1686220057
 30
0.0
 11
1410.6811200556
 21
-329.1216309797
 31
0.0
  0
LINE
  5
27A
100
AcDbEntity
  8
L1_120
  6
CONTINUOUS
 62
         4
100
AcDbLine
 10
1369.8914883425
 20
-365.6686220057
 30
0.0
 11
1376.3275047567
 21
-359.2326055915
 31
0.0
  0
LINE
  5
27B
100
AcDbEntity
  8
L1_120
  6
CONTINUOUS
 62
         4
100
AcDbLine
 10
1387.4294883425
 20
-348.1306220057
 30
0.0
 11
1393.3914883425
 21
-342.1686220057
 31
0.0
  0
LINE
  5
27C
100
AcDbEntity
  8
L1_120
  6
CONTINUOUS
 62
         4
100
AcDbLine
 10
1401.3914883425
 20
-334.1686220057
 30
0.0
 11
1406.7480209789
 21
-328.8120893693
 31
0.0
  0
LINE
  5
27D
100
AcDbEntity
  8
L1_120
  6
CONTINUOUS
 62
         4
100
AcDbLine
 10
1361.6488476554
 20
-369.6686220057
 30
0.0
 11
1376.3275047567
 21
-354.9899649044
 31
0.0
  0
LINE
  5
27E
100
AcDbEntity
  8
L1_120
  6
CONTINUOUS
 62
         4
100
AcDbLine
 10
1383.1868476554
 20
-348.1306220057
 30
0.0
 11
1389.1488476554
 21
-342.1686220057
 31
0.0
  0
LINE
  5
27F
100
AcDbEntity
  8
L1_120
  6
CONTINUOUS
 62
         4
100
AcDbLine
 10
1397.1488476554
 20
-334.1686220057
 30
0.0
 11
1402.8149219023
 21
-328.5025477589
 31
0.0
  0
LINE
  5
280
100
AcDbEntity
  8
L1_120
  6
CONTINUOUS
 62
         4
100
AcDbLine
 10
1357.4062069683
 20
-369.6686220057
 30
0.0
 11
1376.3558855431
 21
-350.7189434309
 31
0.0
  0
LINE
  5
281
100
AcDbEntity
  8
L1_120
  6
CONTINUOUS
 62
         4
100
AcDbLine
 10
1378.9158261819
 20
-348.1590027921
 30
0.0
 11
1384.9062069683
 21
-342.1686220057
 31
0.0
  0
LINE
  5
282
100
AcDbEntity
  8
L1_120
  6
CONTINUOUS
 62
         4
100
AcDbLine
 10
1392.9062069683
 20
-334.1686220057
 30
0.0
 11
1398.8682069683
 21
-328.2066220057
 31
0.0
  0
LINE
  5
283
100
AcDbEntity
  8
L1_120
  6
CONTINUOUS
 62
         4
100
AcDbLine
 10
1353.1635662811
 20
-369.6686220057
 30
0.0
 11
1380.6635662811
 21
-342.1686220057
 31
0.0
  0
LINE
  5
284
100
AcDbEntity
  8
L1_120
  6
CONTINUOUS
 62
         4
100
AcDbLine
 10
1388.6635662811
 20
-334.1686220057
 30
0.0
 11
1394.6255662811
 21
-328.2066220057
 31
0.0
  0
LINE
  5
285
100
AcDbEntity
  8
L1_120
  6
CONTINUOUS
 62
         4
100
AcDbLine
 10
1350.3275047567
 20
-368.262042843
 30
0.0
 11
1370.920925594
 21
-347.6686220057
 31
0.0
  0
LINE
  5
286
100
AcDbEntity
  8
L1_120
  6
CONTINUOUS
 62
         4
100
AcDbLine
 10
1372.3275047567
 20
-346.262042843
 30
0.0
 11
1376.420925594
 21
-342.1686220057
 31
0.0
  0
LINE
  5
287
100
AcDbEntity
  8
L1_120
  6
CONTINUOUS
 62
         4
100
AcDbLine
 10
1384.420925594
 20
-334.1686220057
 30
0.0
 11
1390.382925594
 21
-328.2066220057
 31
0.0
  0
LINE
  5
288
100
AcDbEntity
  8
L1_120
  6
CONTINUOUS
 62
         4
100
AcDbLine
 10
1350.3275047567
 20
-364.0194021559
 30
0.0
 11
1358.9319237637
 21
-355.414983149
 31
0.0
  0
LINE
  5
289
100
AcDbEntity
  8
L1_120
  6
CONTINUOUS
 62
         4
100
AcDbLine
 10
1360.3238659
 20
-354.0230410127
 30
0.0
 11
1367.6782849069
 21
-346.6686220057
 31
0.0
  0
LINE
  5
28A
100
AcDbEntity
  8
L1_120
  6
CONTINUOUS
 62
         4
100
AcDbLine
 10
1380.1782849069
 20
-334.1686220057
 30
0.0
 11
1386.1402849069
 21
-328.2066220057
 31
0.0
  0
LINE
  5
28B
100
AcDbEntity
  8
L1_120
  6
CONTINUOUS
 62
         4
100
AcDbLine
 10
1347.7495423406
 20
-362.3547238849
 30
0.0
 11
1354.9356442198
 21
-355.1686220057
 31
0.0
  0
LINE
  5
28C
100
AcDbEntity
  8
L1_120
  6
CONTINUOUS
 62
         4
100
AcDbLine
 10
1360.3275047567
 20
-349.7767614688
 30
0.0
 11
1363.4356442198
 21
-346.6686220057
 31
0.0
  0
LINE
  5
28D
100
AcDbEntity
  8
L1_120
  6
CONTINUOUS
 62
         4
100
AcDbLine
 10
1375.9356442198
 20
-334.1686220057
 30
0.0
 11
1381.8976442198
 21
-328.2066220057
 31
0.0
  0
LINE
  5
28E
100
AcDbEntity
  8
L1_120
  6
CONTINUOUS
 62
         4
100
AcDbLine
 10
1343.7089321624
 20
-362.152693376
 30
0.0
 11
1350.6930035327
 21
-355.1686220057
 31
0.0
  0
LINE
  5
28F
100
AcDbEntity
  8
L1_120
  6
CONTINUOUS
 62
         4
100
AcDbLine
 10
1372.3275047567
 20
-333.5341207817
 30
0.0
 11
1377.9764497497
 21
-327.8851757887
 31
0.0
  0
LINE
  5
290
100
AcDbEntity
  8
L1_120
  6
CONTINUOUS
 62
         4
100
AcDbLine
 10
1339.6683219842
 20
-361.9506628671
 30
0.0
 11
1343.4503628456
 21
-358.1686220057
 31
0.0
  0
LINE
  5
291
100
AcDbEntity
  8
L1_120
  6
CONTINUOUS
 62
         4
100
AcDbLine
 10
1372.3275047567
 20
-329.2914800945
 30
0.0
 11
1376.3286723342
 21
-325.2903125171
 31
0.0
  0
LINE
  5
292
100
AcDbEntity
  8
L1_120
  6
CONTINUOUS
 62
         4
100
AcDbLine
 10
1335.627711806
 20
-361.7486323582
 30
0.0
 11
1339.2077221584
 21
-358.1686220057
 31
0.0
  0
LINE
  5
293
100
AcDbEntity
  8
L1_120
  6
CONTINUOUS
 62
         4
100
AcDbLine
 10
1367.7077221584
 20
-329.6686220057
 30
0.0
 11
1376.3275047567
 21
-321.0488394074
 31
0.0
  0
LINE
  5
294
100
AcDbEntity
  8
L1_120
  6
CONTINUOUS
 62
         4
100
AcDbLine
 10
1331.5871016278
 20
-361.5466018493
 30
0.0
 11
1334.9650814713
 21
-358.1686220057
 31
0.0
  0
LINE
  5
295
100
AcDbEntity
  8
L1_120
  6
CONTINUOUS
 62
         4
100
AcDbLine
 10
1363.4650814713
 20
-329.6686220057
 30
0.0
 11
1376.3275047567
 21
-316.8061987203
 31
0.0
  0
LINE
  5
296
100
AcDbEntity
  8
L1_120
  6
CONTINUOUS
 62
         4
100
AcDbLine
 10
1327.5464914496
 20
-361.3445713404
 30
0.0
 11
1332.2066319762
 21
-356.6844308137
 31
0.0
  0
LINE
  5
297
100
AcDbEntity
  8
L1_120
  6
CONTINUOUS
 62
         4
100
AcDbLine
 10
1360.3275047567
 20
-328.5635580332
 30
0.0
 11
1376.3275047567
 21
-312.5635580332
 31
0.0
  0
LINE
  5
298
100
AcDbEntity
  8
L1_120
  6
CONTINUOUS
 62
         4
100
AcDbLine
 10
1323.5058812713
 20
-361.1425408315
 30
0.0
 11
1329.4798000971
 21
-355.1686220057
 31
0.0
  0
LINE
  5
299
100
AcDbEntity
  8
L1_120
  6
CONTINUOUS
 62
         4
100
AcDbLine
 10
1360.3275047567
 20
-324.3209173461
 30
0.0
 11
1376.3275047567
 21
-308.3209173461
 31
0.0
  0
LINE
  5
29A
100
AcDbEntity
  8
L1_120
  6
CONTINUOUS
 62
         4
100
AcDbLine
 10
1319.4652732122
 20
-360.9405082035
 30
0.0
 11
1325.23715941
 21
-355.1686220057
 31
0.0
  0
LINE
  5
29B
100
AcDbEntity
  8
L1_120
  6
CONTINUOUS
 62
         4
100
AcDbLine
 10
1359.3812185883
 20
-321.0245628274
 30
0.0
 11
1369.73715941
 21
-310.6686220057
 31
0.0
  0
LINE
  5
29C
100
AcDbEntity
  8
L1_120
  6
CONTINUOUS
 62
         4
100
AcDbLine
 10
1370.2025047567
 20
-310.203276659
 30
0.0
 11
1373.73715941
 21
-306.6686220057
 31
0.0
  0
LINE
  5
29D
100
AcDbEntity
  8
L1_120
  6
CONTINUOUS
 62
         4
100
AcDbLine
 10
1318.3275047567
 20
-357.8356359718
 30
0.0
 11
1320.9945187228
 21
-355.1686220057
 31
0.0
  0
LINE
  5
29E
100
AcDbEntity
  8
L1_120
  6
CONTINUOUS
 62
         4
100
AcDbLine
 10
1354.9945187228
 20
-321.1686220057
 30
0.0
 11
1366.4525047567
 21
-309.7106359718
 31
0.0
  0
LINE
  5
29F
100
AcDbEntity
  8
L1_120
  6
CONTINUOUS
 62
         4
100
AcDbLine
 10
1350.7518780357
 20
-321.1686220057
 30
0.0
 11
1360.6518780357
 21
-311.2686220057
 31
0.0
  0
LINE
  5
2A0
100
AcDbEntity
  8
L1_120
  6
CONTINUOUS
 62
         4
100
AcDbLine
 10
1362.3275047567
 20
-309.5929952847
 30
0.0
 11
1365.0604986321
 21
-306.8600014093
 31
0.0
  0
LINE
  5
2A1
100
AcDbEntity
  8
L1_120
  6
CONTINUOUS
 62
         4
100
AcDbLine
 10
1348.3044627204
 20
-319.3733966339
 30
0.0
 11
1356.3793211437
 21
-311.2985382107
 31
0.0
  0
LINE
  5
2A2
100
AcDbEntity
  8
L1_120
  6
CONTINUOUS
 62
         4
100
AcDbLine
 10
1345.1896200801
 20
-318.2455985871
 30
0.0
 11
1349.2815966615
 21
-314.1536220057
 31
0.0
  0
LINE
  5
2A3
100
AcDbEntity
  8
L1_120
  6
CONTINUOUS
 62
         4
100
AcDbLine
 10
1350.3711370146
 20
-313.0640816526
 30
0.0
 11
1352.3970507091
 21
-311.0381679581
 31
0.0
  0
LINE
  5
2A4
100
AcDbEntity
  8
L1_120
  6
CONTINUOUS
 62
         4
100
AcDbLine
 10
1341.0239559744
 20
-318.1686220057
 30
0.0
 11
1345.0764007753
 21
-314.1161772048
 31
0.0
  0
LINE
  5
2A5
100
AcDbEntity
  8
L1_120
  6
CONTINUOUS
 62
         4
100
AcDbLine
 10
1350.3275047567
 20
-308.8650732234
 30
0.0
 11
1352.1757303655
 21
-307.0168476145
 31
0.0
  0
LINE
  5
2A6
100
AcDbEntity
  8
L1_120
  6
CONTINUOUS
 62
         4
100
AcDbLine
 10
1336.7813152872
 20
-318.1686220057
 30
0.0
 11
1340.6104632099
 21
-314.3394740831
 31
0.0
  0
LINE
  5
2A7
100
AcDbEntity
  8
L1_120
  6
CONTINUOUS
 62
         4
100
AcDbLine
 10
1329.5386746001
 20
-321.1686220057
 30
0.0
 11
1336.1445256445
 21
-314.5627709613
 31
0.0
  0
LINE
  5
2A8
100
AcDbEntity
  8
L1_120
  6
CONTINUOUS
 62
         4
100
AcDbLine
 10
1325.296033913
 20
-321.1686220057
 30
0.0
 11
1331.6785880791
 21
-314.7860678396
 31
0.0
  0
LINE
  5
2A9
100
AcDbEntity
  8
L1_120
  6
CONTINUOUS
 62
         4
100
AcDbLine
 10
1321.0533932259
 20
-321.1686220057
 30
0.0
 11
1327.2126505137
 21
-315.0093647179
 31
0.0
  0
LINE
  5
2AA
100
AcDbEntity
  8
L1_120
  6
CONTINUOUS
 62
         4
100
AcDbLine
 10
1318.3275047567
 20
-319.6518697878
 30
0.0
 11
1322.7467129483
 21
-315.2326615961
 31
0.0
  0
ENDBLK
  5
2AB
100
AcDbEntity
  8
0
  6
CONTINUOUS
100
AcDbBlockEnd
  0
ENDSEC
  0
SECTION
  2
ENTITIES
  0
TEXT
  5
26
100
AcDbEntity
  8
L1_120
  6
CONTINUOUS
 62
         2
100
AcDbText
 10
1477.9878579743
 20
-162.681452475
 30
0.0
 40
4.5
  1
536340
 41
0.98
  7
BOX
100
AcDbText
  0
LINE
  5
27
100
AcDbEntity
  8
L1_120
  6
CENTER
 62
         1
100
AcDbLine
 10
1243.2519449943
 20
-191.5769206263
 30
0.0
 11
1219.021849326
 21
-258.1485613461
 31
0.0
  0
LINE
  5
28
100
AcDbEntity
  8
L1_120
  6
CENTER
 62
         1
100
AcDbLine
 10
1231.0721451996
 20
-190.5406455357
 30
0.0
 11
1231.0721451996
 21
-259.5406455357
 31
0.0
  0
LINE
  5
29
100
AcDbEntity
  8
L1_120
  6
CENTER
 62
         1
100
AcDbLine
 10
1196.5721451996
 20
-225.0406455357
 30
0.0
 11
1265.5721451996
 21
-225.0406455357
 31
0.0
  0
LINE
  5
2A
100
AcDbEntity
  8
L1_120
  6
CENTER
 62
         1
100
AcDbLine
 10
1514.9075047567
 20
-190.5406455357
 30
0.0
 11
1514.9075047567
 21
-263.5477786313
 31
0.0
  0
LINE
  5
2B
100
AcDbEntity
  8
L1_120
  6
CENTER
 62
         1
100
AcDbLine
 10
1318.7219489357
 20
-224.2762334432
 30
0.0
 11
1430.3375047567
 21
-224.2762334432
 31
0.0
  0
LINE
  5
2C
100
AcDbEntity
  8
L1_120
  6
DASHED
 62
         2
100
AcDbLine
 10
1360.2275047567
 20
-210.6804968236
 30
0.0
 11
1354.2275047567
 21
-210.6804968236
 31
0.0
  0
LINE
  5
2D
100
AcDbEntity
  8
L1_120
  6
DASHED
 62
         2
100
AcDbLine
 10
1360.2275047567
 20
-195.7282795967
 30
0.0
 11
1360.2275047567
 21
-210.6804968236
 31
0.0
  0
LINE
  5
2E
100
AcDbEntity
  8
L1_120
  6
DASHED
 62
         2
100
AcDbLine
 10
1354.2275047567
 20
-195.7282795967
 30
0.0
 11
1354.2275047567
 21
-210.6804968236
 31
0.0
  0
LINE
  5
2F
100
AcDbEntity
  8
L1_120
  6
DASHED
 62
         2
100
AcDbLine
 10
1360.2275047567
 20
-195.7282795967
 30
0.0
 11
1354.2275047567
 21
-195.7282795967
 31
0.0
  0
ARC
  5
30
100
AcDbEntity
  8
L1_120
  6
CONTINUOUS
 62
         7
100
AcDbCircle
 10
1375.3275047567
 20
-247.6123573368
 30
0.0
 40
1.0
100
AcDbArc
 50
270.0
 51
360.0
  0
LINE
  5
31
100
AcDbEntity
  8
L1_120
  6
CONTINUOUS
 62
         7
100
AcDbLine
 10
1364.950005682
 20
-233.2761702895
 30
0.0
 11
1366.4525047567
 21
-232.2761702895
 31
0.0
  0
LINE
  5
32
100
AcDbEntity
  8
L1_120
  6
CONTINUOUS
 62
         7
100
AcDbLine
 10
1370.2025047567
 20
-232.2761702895
 30
0.0
 11
1371.7050038315
 21
-233.2761702895
 31
0.0
  0
LINE
  5
33
100
AcDbEntity
  8
L1_120
  6
CONTINUOUS
 62
         7
100
AcDbLine
 10
1364.950005682
 20
-215.2761702895
 30
0.0
 11
1366.4525047567
 21
-216.2761702895
 31
0.0
  0
LINE
  5
34
100
AcDbEntity
  8
L1_120
  6
CONTINUOUS
 62
         7
100
AcDbLine
 10
1370.2025047567
 20
-216.2761702895
 30
0.0
 11
1371.7050038315
 21
-215.2761702895
 31
0.0
  0
LINE
  5
35
100
AcDbEntity
  8
L1_120
  6
CONTINUOUS
 62
         7
100
AcDbLine
 10
1371.7050038315
 20
-233.2761702895
 30
0.0
 11
1376.3275047567
 21
-233.2761702895
 31
0.0
  0
LINE
  5
36
100
AcDbEntity
  8
L1_120
  6
CONTINUOUS
 62
         7
100
AcDbLine
 10
1376.3275047567
 20
-244.2761702895
 30
0.0
 11
1370.2025047567
 21
-244.2761702895
 31
0.0
  0
LINE
  5
37
100
AcDbEntity
  8
L1_120
  6
CONTINUOUS
 62
         7
100
AcDbLine
 10
1371.7050038315
 20
-244.2761702895
 30
0.0
 11
1371.7050038315
 21
-233.2761702895
 31
0.0
  0
LINE
  5
38
100
AcDbEntity
  8
L1_120
  6
CONTINUOUS
 62
         7
100
AcDbLine
 10
1363.3275047567
 20
-233.2761702895
 30
0.0
 11
1364.950005682
 21
-233.2761702895
 31
0.0
  0
LINE
  5
39
100
AcDbEntity
  8
L1_120
  6
CONTINUOUS
 62
         7
100
AcDbLine
 10
1363.3275047567
 20
-215.2761702895
 30
0.0
 11
1364.950005682
 21
-215.2761702895
 31
0.0
  0
LINE
  5
3A
100
AcDbEntity
  8
L1_120
  6
CONTINUOUS
 62
         7
100
AcDbLine
 10
1375.3275047567
 20
-248.6123573368
 30
0.0
 11
1371.7050038315
 21
-248.6123573368
 31
0.0
  0
LINE
  5
3B
100
AcDbEntity
  8
L1_120
  6
CONTINUOUS
 62
         7
100
AcDbLine
 10
1370.2025047567
 20
-245.1345262183
 30
0.0
 11
1371.7050038315
 21
-248.6123573368
 31
0.0
  0
LINE
  5
3C
100
AcDbEntity
  8
L1_120
  6
CONTINUOUS
 62
         7
100
AcDbLine
 10
1370.2025047567
 20
-253.1737655537
 30
0.0
 11
1370.2025047567
 21
-232.2761702895
 31
0.0
  0
LINE
  5
3D
100
AcDbEntity
  8
L1_120
  6
CONTINUOUS
 62
         7
100
AcDbLine
 10
1371.7050038315
 20
-255.7761702895
 30
0.0
 11
1371.7050038315
 21
-248.6123573368
 31
0.0
  0
LINE
  5
3E
100
AcDbEntity
  8
L1_120
  6
CONTINUOUS
 62
         7
100
AcDbLine
 10
1366.4525047567
 20
-244.2761702895
 30
0.0
 11
1362.4392186604
 21
-244.2761702895
 31
0.0
  0
LINE
  5
3F
100
AcDbEntity
  8
L1_120
  6
CONTINUOUS
 62
         7
100
AcDbLine
 10
1364.950005682
 20
-248.6123573368
 30
0.0
 11
1366.4525047567
 21
-245.1345262183
 31
0.0
  0
LINE
  5
40
100
AcDbEntity
  8
L1_120
  6
CONTINUOUS
 62
         7
100
AcDbLine
 10
1366.4525047567
 20
-253.1737655537
 30
0.0
 11
1366.4525047567
 21
-232.2761702895
 31
0.0
  0
LINE
  5
41
100
AcDbEntity
  8
L1_120
  6
CONTINUOUS
 62
         7
100
AcDbLine
 10
1364.950005682
 20
-255.7761702895
 30
0.0
 11
1364.950005682
 21
-248.6123573368
 31
0.0
  0
ARC
  5
42
100
AcDbEntity
  8
L1_120
  6
CONTINUOUS
 62
         7
100
AcDbCircle
 10
1362.4392186604
 20
-252.2761702895
 30
0.0
 40
8.0
100
AcDbArc
 50
90.0
 51
152.7433806908
  0
LINE
  5
43
100
AcDbEntity
  8
L1_120
  6
CONTINUOUS
 62
         7
100
AcDbLine
 10
1364.950005682
 20
-248.6123573368
 30
0.0
 11
1355.3275047567
 21
-248.6123573368
 31
0.0
  0
LINE
  5
44
100
AcDbEntity
  8
L1_120
  6
CONTINUOUS
 62
         7
100
AcDbLine
 10
1364.950005682
 20
-244.2761702895
 30
0.0
 11
1364.950005682
 21
-233.2761702895
 31
0.0
  0
LINE
  5
45
100
AcDbEntity
  8
L1_120
  6
CONTINUOUS
 62
         7
100
AcDbLine
 10
1363.3275047567
 20
-232.2761702895
 30
0.0
 11
1376.3275047567
 21
-232.2761702895
 31
0.0
  0
ARC
  5
46
100
AcDbEntity
  8
L1_120
  6
CONTINUOUS
 62
         7
100
AcDbCircle
 10
1363.3275047567
 20
-224.2761702895
 30
0.0
 40
8.0
100
AcDbArc
 50
90.0
 51
270.0
  0
ARC
  5
47
100
AcDbEntity
  8
L1_120
  6
CONTINUOUS
 62
         7
100
AcDbCircle
 10
1363.3275047567
 20
-224.2761702895
 30
0.0
 40
9.0
100
AcDbArc
 50
90.0
 51
270.0
  0
LINE
  5
48
100
AcDbEntity
  8
L1_120
  6
CONTINUOUS
 62
         7
100
AcDbLine
 10
1363.3275047567
 20
-216.2761702895
 30
0.0
 11
1376.3275047567
 21
-216.2761702895
 31
0.0
  0
LINE
  5
49
100
AcDbEntity
  8
L1_120
  6
CONTINUOUS
 62
         7
100
AcDbLine
 10
1371.7050038315
 20
-215.2761702895
 30
0.0
 11
1376.3275047567
 21
-215.2761702895
 31
0.0
  0
LINE
  5
4A
100
AcDbEntity
  8
L1_120
  6
CONTINUOUS
 62
         7
100
AcDbLine
 10
1371.7050038315
 20
-192.7761702895
 30
0.0
 11
1371.7050038315
 21
-215.2761702895
 31
0.0
  0
LINE
  5
4B
100
AcDbEntity
  8
L1_120
  6
CONTINUOUS
 62
         7
100
AcDbLine
 10
1370.2025047567
 20
-195.3785750253
 30
0.0
 11
1370.2025047567
 21
-216.2761702895
 31
0.0
  0
LINE
  5
4C
100
AcDbEntity
  8
L1_120
  6
CONTINUOUS
 62
         7
100
AcDbLine
 10
1366.4525047567
 20
-195.3785750253
 30
0.0
 11
1366.4525047567
 21
-216.2761702895
 31
0.0
  0
LINE
  5
4D
100
AcDbEntity
  8
L1_120
  6
CONTINUOUS
 62
         7
100
AcDbLine
 10
1364.950005682
 20
-192.7761702895
 30
0.0
 11
1364.950005682
 21
-215.2761702895
 31
0.0
  0
ARC
  5
4E
100
AcDbEntity
  8
L1_120
  6
CONTINUOUS
 62
         7
100
AcDbCircle
 10
1351.3275047567
 20
-193.7761702895
 30
0.0
 40
1.0
100
AcDbArc
 50
90.0
 51
180.0
  0
ARC
  5
4F
100
AcDbEntity
  8
L1_120
  6
CONTINUOUS
 62
         7
100
AcDbCircle
 10
1375.3275047567
 20
-193.7761702895
 30
0.0
 40
1.0
100
AcDbArc
 50
0.0
 51
90.0
  0
ARC
  5
50
100
AcDbEntity
  8
L1_120
  6
CONTINUOUS
 62
         7
100
AcDbCircle
 10
1351.3275047567
 20
-254.7761702895
 30
0.0
 40
1.0
100
AcDbArc
 50
180.0
 51
270.0
  0
ARC
  5
51
100
AcDbEntity
  8
L1_120
  6
CONTINUOUS
 62
         7
100
AcDbCircle
 10
1375.3275047567
 20
-254.7761702895
 30
0.0
 40
1.0
100
AcDbArc
 50
270.0
 51
360.0
  0
LINE
  5
52
100
AcDbEntity
  8
L1_120
  6
CONTINUOUS
 62
         7
100
AcDbLine
 10
1375.3275047567
 20
-192.7761702895
 30
0.0
 11
1374.3275047567
 21
-192.7761702895
 31
0.0
  0
LINE
  5
53
100
AcDbEntity
  8
L1_120
  6
CONTINUOUS
 62
         7
100
AcDbLine
 10
1375.3275047567
 20
-255.7761702895
 30
0.0
 11
1374.3275047567
 21
-255.7761702895
 31
0.0
  0
LINE
  5
54
100
AcDbEntity
  8
L1_120
  6
CONTINUOUS
 62
         7
100
AcDbLine
 10
1350.3275047567
 20
-254.7761702895
 30
0.0
 11
1350.3275047567
 21
-253.7761702895
 31
0.0
  0
LINE
  5
55
100
AcDbEntity
  8
L1_120
  6
CONTINUOUS
 62
         7
100
AcDbLine
 10
1376.3275047567
 20
-254.7761702895
 30
0.0
 11
1376.3275047567
 21
-243.2761702895
 31
0.0
  0
LINE
  5
56
100
AcDbEntity
  8
L1_120
  6
CONTINUOUS
 62
         7
100
AcDbLine
 10
1376.3275047567
 20
-205.2761702895
 30
0.0
 11
1376.3275047567
 21
-193.7761702895
 31
0.0
  0
LINE
  5
57
100
AcDbEntity
  8
L1_120
  6
CONTINUOUS
 62
         7
100
AcDbLine
 10
1350.3275047567
 20
-194.7761702895
 30
0.0
 11
1350.3275047567
 21
-193.7761702895
 31
0.0
  0
LINE
  5
58
100
AcDbEntity
  8
L1_120
  6
CONTINUOUS
 62
         7
100
AcDbLine
 10
1352.3275047567
 20
-255.7761702895
 30
0.0
 11
1351.3275047567
 21
-255.7761702895
 31
0.0
  0
LINE
  5
59
100
AcDbEntity
  8
L1_120
  6
CONTINUOUS
 62
         7
100
AcDbLine
 10
1352.3275047567
 20
-192.7761702895
 30
0.0
 11
1351.3275047567
 21
-192.7761702895
 31
0.0
  0
LINE
  5
5A
100
AcDbEntity
  8
L1_120
  6
CONTINUOUS
 62
         7
100
AcDbLine
 10
1376.3275047567
 20
-193.7761702895
 30
0.0
 11
1376.3275047567
 21
-254.7761702895
 31
0.0
  0
LINE
  5
5B
100
AcDbEntity
  8
L1_120
  6
CONTINUOUS
 62
         7
100
AcDbLine
 10
1319.4675796164
 20
-201.5041665465
 30
0.0
 11
1348.3275047567
 21
-200.0611702895
 31
0.0
  0
LINE
  5
5C
100
AcDbEntity
  8
L1_120
  6
CONTINUOUS
 62
         7
100
AcDbLine
 10
1319.4675796164
 20
-247.0481740325
 30
0.0
 11
1348.3275047567
 21
-248.4911702895
 31
0.0
  0
LINE
  5
5D
100
AcDbEntity
  8
L1_120
  6
CONTINUOUS
 62
         7
100
AcDbLine
 10
1318.3275047567
 20
-231.5461702895
 30
0.0
 11
1318.3275047567
 21
-245.8496712258
 31
0.0
  0
ARC
  5
5E
100
AcDbEntity
  8
L1_120
  6
CONTINUOUS
 62
         7
100
AcDbCircle
 10
1319.5275047567
 20
-245.8496712258
 30
0.0
 40
1.2
100
AcDbArc
 50
180.0
 51
267.1375947739
  0
LINE
  5
5F
100
AcDbEntity
  8
L1_120
  6
CONTINUOUS
 62
         7
100
AcDbLine
 10
1324.3275047567
 20
-234.5196202423
 30
0.0
 11
1318.3275047567
 21
-233.0261546984
 31
0.0
  0
ARC
  5
60
100
AcDbEntity
  8
L1_120
  6
CONTINUOUS
 62
         7
100
AcDbCircle
 10
1322.8275047567
 20
-229.0461702895
 30
0.0
 40
1.5
100
AcDbArc
 50
270.0
 51
360.0
  0
LINE
  5
61
100
AcDbEntity
  8
L1_120
  6
CONTINUOUS
 62
         7
100
AcDbLine
 10
1324.3275047567
 20
-214.0327203366
 30
0.0
 11
1318.3275047567
 21
-215.5261858805
 31
0.0
  0
ARC
  5
62
100
AcDbEntity
  8
L1_120
  6
CONTINUOUS
 62
         7
100
AcDbCircle
 10
1322.8275047567
 20
-219.5061702895
 30
0.0
 40
1.5
100
AcDbArc
 50
0.0
 51
90.0
  0
ARC
  5
63
100
AcDbEntity
  8
L1_120
  6
CONTINUOUS
 62
         7
100
AcDbCircle
 10
1319.5275047567
 20
-202.7026693532
 30
0.0
 40
1.2
100
AcDbArc
 50
92.8624052261
 51
180.0
  0
LINE
  5
64
100
AcDbEntity
  8
L1_120
  6
CONTINUOUS
 62
         7
100
AcDbLine
 10
1319.3275047567
 20
-230.5461702895
 30
0.0
 11
1322.8275047567
 21
-230.5461702895
 31
0.0
  0
LINE
  5
65
100
AcDbEntity
  8
L1_120
  6
CONTINUOUS
 62
         7
100
AcDbLine
 10
1318.3275047567
 20
-231.5461702895
 30
0.0
 11
1319.3275047567
 21
-230.5461702895
 31
0.0
  0
LINE
  5
66
100
AcDbEntity
  8
L1_120
  6
CONTINUOUS
 62
         7
100
AcDbLine
 10
1319.3275047567
 20
-230.5461702895
 30
0.0
 11
1319.3275047567
 21
-233.2750656224
 31
0.0
  0
LINE
  5
67
100
AcDbEntity
  8
L1_120
  6
CONTINUOUS
 62
         7
100
AcDbLine
 10
1319.3275047567
 20
-218.0061702895
 30
0.0
 11
1322.8275047567
 21
-218.0061702895
 31
0.0
  0
LINE
  5
68
100
AcDbEntity
  8
L1_120
  6
CONTINUOUS
 62
         7
100
AcDbLine
 10
1318.3275047567
 20
-217.0061702895
 30
0.0
 11
1319.3275047567
 21
-218.0061702895
 31
0.0
  0
LINE
  5
69
100
AcDbEntity
  8
L1_120
  6
CONTINUOUS
 62
         7
100
AcDbLine
 10
1319.3275047567
 20
-218.0061702895
 30
0.0
 11
1319.3275047567
 21
-215.2772749566
 31
0.0
  0
LINE
  5
6A
100
AcDbEntity
  8
L1_120
  6
CONTINUOUS
 62
         7
100
AcDbLine
 10
1318.3275047567
 20
-202.7026693532
 30
0.0
 11
1318.3275047567
 21
-217.0061702895
 31
0.0
  0
LINE
  5
6B
100
AcDbEntity
  8
L1_120
  6
CONTINUOUS
 62
         7
100
AcDbLine
 10
1324.3275047567
 20
-214.0327203366
 30
0.0
 11
1324.3275047567
 21
-234.5196202423
 31
0.0
  0
LINE
  5
6C
100
AcDbEntity
  8
L1_120
  6
CENTER
 62
         1
100
AcDbLine
 10
1344.0275047567
 20
-200.2761702895
 30
0.0
 11
1344.0275047567
 21
-248.2761702895
 31
0.0
  0
POLYLINE
  5
6E
100
AcDbEntity
  8
L1_120
  6
CONTINUOUS
 62
         7
100
AcDb3dPolyline
 66
         1
 10
0.0
 20
0.0
 30
0.0
 70
         8
  0
VERTEX
  5
70
100
AcDbEntity
  8
L1_120
  6
CONTINUOUS
 62
         7
100
AcDbVertex
100
AcDb3dPolylineVertex
 10
1337.0775047567
 20
-224.2761702895
 30
0.0
 70
        32
  0
VERTEX
  5
72
100
AcDbEntity
  8
L1_120
  6
CONTINUOUS
 62
         7
100
AcDbVertex
100
AcDb3dPolylineVertex
 10
1337.0775047567
 20
-224.2761702895
 30
0.0
 70
        32
  0
SEQEND
  5
74
100
AcDbEntity
  8
L1_120
  6
CONTINUOUS
 62
         7
  0
ARC
  5
75
100
AcDbEntity
  8
L1_120
  6
CONTINUOUS
 62
         7
100
AcDbCircle
 10
1340.3985139215
 20
-224.2761702895
 30
0.0
 40
3.3210091648
100
AcDbArc
 50
180.0
 51
205.1473341972
  0
POLYLINE
  5
77
100
AcDbEntity
  8
L1_120
  6
CONTINUOUS
 62
         7
100
AcDb3dPolyline
 66
         1
 10
0.0
 20
0.0
 30
0.0
 70
         8
  0
VERTEX
  5
79
100
AcDbEntity
  8
L1_120
  6
CONTINUOUS
 62
         7
100
AcDbVertex
100
AcDb3dPolylineVertex
 10
1337.3922765048
 20
-225.6874245072
 30
0.0
 70
        32
  0
VERTEX
  5
7B
100
AcDbEntity
  8
L1_120
  6
CONTINUOUS
 62
         7
100
AcDbVertex
100
AcDb3dPolylineVertex
 10
1337.3922765048
 20
-225.6874245072
 30
0.0
 70
        32
  0
SEQEND
  5
7D
100
AcDbEntity
  8
L1_120
  6
CONTINUOUS
 62
         7
  0
ARC
  5
7E
100
AcDbEntity
  8
L1_120
  6
CONTINUOUS
 62
         7
100
AcDbCircle
 10
1340.848299976
 20
-224.0650218077
 30
0.0
 40
3.8178906156
100
AcDbArc
 50
205.1473341972
 51
228.576334375
  0
POLYLINE
  5
80
100
AcDbEntity
  8
L1_120
  6
CONTINUOUS
 62
         7
100
AcDb3dPolyline
 66
         1
 10
0.0
 20
0.0
 30
0.0
 70
         8
  0
VERTEX
  5
82
100
AcDbEntity
  8
L1_120
  6
CONTINUOUS
 62
         7
100
AcDbVertex
100
AcDb3dPolylineVertex
 10
1338.3223009367
 20
-226.9278207189
 30
0.0
 70
        32
  0
VERTEX
  5
84
100
AcDbEntity
  8
L1_120
  6
CONTINUOUS
 62
         7
100
AcDbVertex
100
AcDb3dPolylineVertex
 10
1338.3223009367
 20
-226.9278207189
 30
0.0
 70
        32
  0
SEQEND
  5
86
100
AcDbEntity
  8
L1_120
  6
CONTINUOUS
 62
         7
  0
ARC
  5
87
100
AcDbEntity
  8
L1_120
  6
CONTINUOUS
 62
         7
100
AcDbCircle
 10
1341.1388739935
 20
-223.7357045878
 30
0.0
 40
4.2570751907
100
AcDbArc
 50
228.576334375
 51
249.9235236969
  0
POLYLINE
  5
89
100
AcDbEntity
  8
L1_120
  6
CONTINUOUS
 62
         7
100
AcDb3dPolyline
 66
         1
 10
0.0
 20
0.0
 30
0.0
 70
         8
  0
VERTEX
  5
8B
100
AcDbEntity
  8
L1_120
  6
CONTINUOUS
 62
         7
100
AcDbVertex
100
AcDb3dPolylineVertex
 10
1339.6775303154
 20
-227.7340997451
 30
0.0
 70
        32
  0
VERTEX
  5
8D
100
AcDbEntity
  8
L1_120
  6
CONTINUOUS
 62
         7
100
AcDbVertex
100
AcDb3dPolylineVertex
 10
1339.6775303154
 20
-227.7340997451
 30
0.0
 70
        32
  0
SEQEND
  5
8F
100
AcDbEntity
  8
L1_120
  6
CONTINUOUS
 62
         7
  0
ARC
  5
90
100
AcDbEntity
  8
L1_120
  6
CONTINUOUS
 62
         7
100
AcDbCircle
 10
1341.3275047567
 20
-223.2195903148
 30
0.0
 40
4.8065799746
100
AcDbArc
 50
249.9235236969
 51
270.0
  0
POLYLINE
  5
92
100
AcDbEntity
  8
L1_120
  6
CONTINUOUS
 62
         7
100
AcDb3dPolyline
 66
         1
 10
0.0
 20
0.0
 30
0.0
 70
         8
  0
VERTEX
  5
94
100
AcDbEntity
  8
L1_120
  6
CONTINUOUS
 62
         7
100
AcDbVertex
100
AcDb3dPolylineVertex
 10
1341.3275047567
 20
-228.0261702895
 30
0.0
 70
        32
  0
VERTEX
  5
96
100
AcDbEntity
  8
L1_120
  6
CONTINUOUS
 62
         7
100
AcDbVertex
100
AcDb3dPolylineVertex
 10
1341.3275047567
 20
-228.0261702895
 30
0.0
 70
        32
  0
SEQEND
  5
98
100
AcDbEntity
  8
L1_120
  6
CONTINUOUS
 62
         7
  0
ARC
  5
99
100
AcDbEntity
  8
L1_120
  6
CONTINUOUS
 62
         7
100
AcDbCircle
 10
1341.3275047567
 20
-223.2195903148
 30
0.0
 40
4.8065799746
100
AcDbArc
 50
270.0
 51
290.0764763031
  0
POLYLINE
  5
9B
100
AcDbEntity
  8
L1_120
  6
CONTINUOUS
 62
         7
100
AcDb3dPolyline
 66
         1
 10
0.0
 20
0.0
 30
0.0
 70
         8
  0
VERTEX
  5
9D
100
AcDbEntity
  8
L1_120
  6
CONTINUOUS
 62
         7
100
AcDbVertex
100
AcDb3dPolylineVertex
 10
1342.977479198
 20
-227.7340997451
 30
0.0
 70
        32
  0
VERTEX
  5
9F
100
AcDbEntity
  8
L1_120
  6
CONTINUOUS
 62
         7
100
AcDbVertex
100
AcDb3dPolylineVertex
 10
1342.977479198
 20
-227.7340997451
 30
0.0
 70
        32
  0
SEQEND
  5
A1
100
AcDbEntity
  8
L1_120
  6
CONTINUOUS
 62
         7
  0
ARC
  5
A2
100
AcDbEntity
  8
L1_120
  6
CONTINUOUS
 62
         7
100
AcDbCircle
 10
1341.5161355199
 20
-223.7357045878
 30
0.0
 40
4.2570751907
100
AcDbArc
 50
290.0764763032
 51
311.423665625
  0
POLYLINE
  5
A4
100
AcDbEntity
  8
L1_120
  6
CONTINUOUS
 62
         7
100
AcDb3dPolyline
 66
         1
 10
0.0
 20
0.0
 30
0.0
 70
         8
  0
VERTEX
  5
A6
100
AcDbEntity
  8
L1_120
  6
CONTINUOUS
 62
         7
100
AcDbVertex
100
AcDb3dPolylineVertex
 10
1344.3327085768
 20
-226.9278207189
 30
0.0
 70
        32
  0
VERTEX
  5
A8
100
AcDbEntity
  8
L1_120
  6
CONTINUOUS
 62
         7
100
AcDbVertex
100
AcDb3dPolylineVertex
 10
1344.3327085768
 20
-226.9278207189
 30
0.0
 70
        32
  0
SEQEND
  5
AA
100
AcDbEntity
  8
L1_120
  6
CONTINUOUS
 62
         7
  0
ARC
  5
AB
100
AcDbEntity
  8
L1_120
  6
CONTINUOUS
 62
         7
100
AcDbCircle
 10
1341.8067095374
 20
-224.0650218077
 30
0.0
 40
3.8178906156
100
AcDbArc
 50
311.423665625
 51
334.8526658028
  0
POLYLINE
  5
AD
100
AcDbEntity
  8
L1_120
  6
CONTINUOUS
 62
         7
100
AcDb3dPolyline
 66
         1
 10
0.0
 20
0.0
 30
0.0
 70
         8
  0
VERTEX
  5
AF
100
AcDbEntity
  8
L1_120
  6
CONTINUOUS
 62
         7
100
AcDbVertex
100
AcDb3dPolylineVertex
 10
1345.2627330087
 20
-225.6874245072
 30
0.0
 70
        32
  0
VERTEX
  5
B1
100
AcDbEntity
  8
L1_120
  6
CONTINUOUS
 62
         7
100
AcDbVertex
100
AcDb3dPolylineVertex
 10
1345.2627330087
 20
-225.6874245072
 30
0.0
 70
        32
  0
SEQEND
  5
B3
100
AcDbEntity
  8
L1_120
  6
CONTINUOUS
 62
         7
  0
ARC
  5
B4
100
AcDbEntity
  8
L1_120
  6
CONTINUOUS
 62
         7
100
AcDbCircle
 10
1342.2564955919
 20
-224.2761702895
 30
0.0
 40
3.3210091648
100
AcDbArc
 50
334.8526658028
 51
360.0
  0
POLYLINE
  5
B6
100
AcDbEntity
  8
L1_120
  6
CONTINUOUS
 62
         7
100
AcDb3dPolyline
 66
         1
 10
0.0
 20
0.0
 30
0.0
 70
         8
  0
VERTEX
  5
B8
100
AcDbEntity
  8
L1_120
  6
CONTINUOUS
 62
         7
100
AcDbVertex
100
AcDb3dPolylineVertex
 10
1345.5775047567
 20
-224.2761702895
 30
0.0
 70
        32
  0
VERTEX
  5
BA
100
AcDbEntity
  8
L1_120
  6
CONTINUOUS
 62
         7
100
AcDbVertex
100
AcDb3dPolylineVertex
 10
1345.5775047567
 20
-224.2761702895
 30
0.0
 70
        32
  0
SEQEND
  5
BC
100
AcDbEntity
  8
L1_120
  6
CONTINUOUS
 62
         7
  0
ARC
  5
BD
100
AcDbEntity
  8
L1_120
  6
CONTINUOUS
 62
         7
100
AcDbCircle
 10
1342.2564955919
 20
-224.2761702895
 30
0.0
 40
3.3210091648
100
AcDbArc
 50
0.0
 51
25.1473341972
  0
POLYLINE
  5
BF
100
AcDbEntity
  8
L1_120
  6
CONTINUOUS
 62
         7
100
AcDb3dPolyline
 66
         1
 10
0.0
 20
0.0
 30
0.0
 70
         8
  0
VERTEX
  5
C1
100
AcDbEntity
  8
L1_120
  6
CONTINUOUS
 62
         7
100
AcDbVertex
100
AcDb3dPolylineVertex
 10
1345.2627330087
 20
-222.8649160718
 30
0.0
 70
        32
  0
VERTEX
  5
C3
100
AcDbEntity
  8
L1_120
  6
CONTINUOUS
 62
         7
100
AcDbVertex
100
AcDb3dPolylineVertex
 10
1345.2627330087
 20
-222.8649160718
 30
0.0
 70
        32
  0
SEQEND
  5
C5
100
AcDbEntity
  8
L1_120
  6
CONTINUOUS
 62
         7
  0
ARC
  5
C6
100
AcDbEntity
  8
L1_120
  6
CONTINUOUS
 62
         7
100
AcDbCircle
 10
1341.8067095374
 20
-224.4873187713
 30
0.0
 40
3.8178906156
100
AcDbArc
 50
25.1473341972
 51
48.576334375
  0
POLYLINE
  5
C8
100
AcDbEntity
  8
L1_120
  6
CONTINUOUS
 62
         7
100
AcDb3dPolyline
 66
         1
 10
0.0
 20
0.0
 30
0.0
 70
         8
  0
VERTEX
  5
CA
100
AcDbEntity
  8
L1_120
  6
CONTINUOUS
 62
         7
100
AcDbVertex
100
AcDb3dPolylineVertex
 10
1344.3327085768
 20
-221.62451986
 30
0.0
 70
        32
  0
VERTEX
  5
CC
100
AcDbEntity
  8
L1_120
  6
CONTINUOUS
 62
         7
100
AcDbVertex
100
AcDb3dPolylineVertex
 10
1344.3327085768
 20
-221.62451986
 30
0.0
 70
        32
  0
SEQEND
  5
CE
100
AcDbEntity
  8
L1_120
  6
CONTINUOUS
 62
         7
  0
ARC
  5
CF
100
AcDbEntity
  8
L1_120
  6
CONTINUOUS
 62
         7
100
AcDbCircle
 10
1341.5161355199
 20
-224.8166359911
 30
0.0
 40
4.2570751907
100
AcDbArc
 50
48.576334375
 51
69.9235236969
  0
POLYLINE
  5
D1
100
AcDbEntity
  8
L1_120
  6
CONTINUOUS
 62
         7
100
AcDb3dPolyline
 66
         1
 10
0.0
 20
0.0
 30
0.0
 70
         8
  0
VERTEX
  5
D3
100
AcDbEntity
  8
L1_120
  6
CONTINUOUS
 62
         7
100
AcDbVertex
100
AcDb3dPolylineVertex
 10
1342.977479198
 20
-220.8182408339
 30
0.0
 70
        32
  0
VERTEX
  5
D5
100
AcDbEntity
  8
L1_120
  6
CONTINUOUS
 62
         7
100
AcDbVertex
100
AcDb3dPolylineVertex
 10
1342.977479198
 20
-220.8182408339
 30
0.0
 70
        32
  0
SEQEND
  5
D7
100
AcDbEntity
  8
L1_120
  6
CONTINUOUS
 62
         7
  0
ARC
  5
D8
100
AcDbEntity
  8
L1_120
  6
CONTINUOUS
 62
         7
100
AcDbCircle
 10
1341.3275047567
 20
-225.3327502641
 30
0.0
 40
4.8065799746
100
AcDbArc
 50
69.9235236968
 51
90.0
  0
POLYLINE
  5
DA
100
AcDbEntity
  8
L1_120
  6
CONTINUOUS
 62
         7
100
AcDb3dPolyline
 66
         1
 10
0.0
 20
0.0
 30
0.0
 70
         8
  0
VERTEX
  5
DC
100
AcDbEntity
  8
L1_120
  6
CONTINUOUS
 62
         7
100
AcDbVertex
100
AcDb3dPolylineVertex
 10
1341.3275047567
 20
-220.5261702895
 30
0.0
 70
        32
  0
VERTEX
  5
DE
100
AcDbEntity
  8
L1_120
  6
CONTINUOUS
 62
         7
100
AcDbVertex
100
AcDb3dPolylineVertex
 10
1341.3275047567
 20
-220.5261702895
 30
0.0
 70
        32
  0
SEQEND
  5
E0
100
AcDbEntity
  8
L1_120
  6
CONTINUOUS
 62
         7
  0
ARC
  5
E1
100
AcDbEntity
  8
L1_120
  6
CONTINUOUS
 62
         7
100
AcDbCircle
 10
1341.3275047567
 20
-225.3327502641
 30
0.0
 40
4.8065799746
100
AcDbArc
 50
90.0
 51
110.0764763031
  0
POLYLINE
  5
E3
100
AcDbEntity
  8
L1_120
  6
CONTINUOUS
 62
         7
100
AcDb3dPolyline
 66
         1
 10
0.0
 20
0.0
 30
0.0
 70
         8
  0
VERTEX
  5
E5
100
AcDbEntity
  8
L1_120
  6
CONTINUOUS
 62
         7
100
AcDbVertex
100
AcDb3dPolylineVertex
 10
1339.6775303154
 20
-220.8182408339
 30
0.0
 70
        32
  0
VERTEX
  5
E7
100
AcDbEntity
  8
L1_120
  6
CONTINUOUS
 62
         7
100
AcDbVertex
100
AcDb3dPolylineVertex
 10
1339.6775303154
 20
-220.8182408339
 30
0.0
 70
        32
  0
SEQEND
  5
E9
100
AcDbEntity
  8
L1_120
  6
CONTINUOUS
 62
         7
  0
ARC
  5
EA
100
AcDbEntity
  8
L1_120
  6
CONTINUOUS
 62
         7
100
AcDbCircle
 10
1341.1388739935
 20
-224.8166359911
 30
0.0
 40
4.2570751907
100
AcDbArc
 50
110.0764763031
 51
131.423665625
  0
POLYLINE
  5
EC
100
AcDbEntity
  8
L1_120
  6
CONTINUOUS
 62
         7
100
AcDb3dPolyline
 66
         1
 10
0.0
 20
0.0
 30
0.0
 70
         8
  0
VERTEX
  5
EE
100
AcDbEntity
  8
L1_120
  6
CONTINUOUS
 62
         7
100
AcDbVertex
100
AcDb3dPolylineVertex
 10
1338.3223009367
 20
-221.62451986
 30
0.0
 70
        32
  0
VERTEX
  5
F0
100
AcDbEntity
  8
L1_120
  6
CONTINUOUS
 62
         7
100
AcDbVertex
100
AcDb3dPolylineVertex
 10
1338.3223009367
 20
-221.62451986
 30
0.0
 70
        32
  0
SEQEND
  5
F2
100
AcDbEntity
  8
L1_120
  6
CONTINUOUS
 62
         7
  0
ARC
  5
F3
100
AcDbEntity
  8
L1_120
  6
CONTINUOUS
 62
         7
100
AcDbCircle
 10
1340.848299976
 20
-224.4873187713
 30
0.0
 40
3.8178906156
100
AcDbArc
 50
131.423665625
 51
154.8526658028
  0
ARC
  5
F4
100
AcDbEntity
  8
L1_120
  6
CONTINUOUS
 62
         7
100
AcDbCircle
 10
1340.3985139215
 20
-224.2761702895
 30
0.0
 40
3.3210091648
100
AcDbArc
 50
154.8526658028
 51
180.0
  0
CIRCLE
  5
F5
100
AcDbEntity
  8
L1_120
  6
CONTINUOUS
 62
         7
100
AcDbCircle
 10
1341.3275047567
 20
-224.2761702895
 30
0.0
 40
3.75
  0
LINE
  5
F6
100
AcDbEntity
  8
L1_120
  6
CENTER
 62
         1
100
AcDbLine
 10
1341.3275047567
 20
-218.5261702895
 30
0.0
 11
1341.3275047567
 21
-230.0261702895
 31
0.0
  0
LINE
  5
F7
100
AcDbEntity
  8
L1_120
  6
CONTINUOUS
 62
         7
100
AcDbLine
 10
1370.2025047567
 20
-195.3785750253
 30
0.0
 11
1371.7050038315
 21
-192.7761702895
 31
0.0
  0
LINE
  5
F8
100
AcDbEntity
  8
L1_120
  6
CONTINUOUS
 62
         7
100
AcDbLine
 10
1366.4525047567
 20
-195.3785750253
 30
0.0
 11
1364.950005682
 21
-192.7761702895
 31
0.0
  0
LINE
  5
F9
100
AcDbEntity
  8
L1_120
  6
CONTINUOUS
 62
         7
100
AcDbLine
 10
1350.3275047567
 20
-193.7761702895
 30
0.0
 11
1350.3275047567
 21
-254.7761702895
 31
0.0
  0
LINE
  5
FA
100
AcDbEntity
  8
L1_120
  6
CENTER
 62
         1
100
AcDbLine
 10
1368.3275047567
 20
-192.7925626408
 30
0.0
 11
1368.3275047567
 21
-255.780146533
 31
0.0
  0
LINE
  5
FB
100
AcDbEntity
  8
L1_120
  6
CONTINUOUS
 62
         7
100
AcDbLine
 10
1351.3275047567
 20
-255.7761702895
 30
0.0
 11
1364.950005682
 21
-255.7761702895
 31
0.0
  0
LINE
  5
FC
100
AcDbEntity
  8
L1_120
  6
CONTINUOUS
 62
         7
100
AcDbLine
 10
1348.3275047567
 20
-200.0611702895
 30
0.0
 11
1348.3275047567
 21
-248.4911702895
 31
0.0
  0
LINE
  5
FD
100
AcDbEntity
  8
L1_120
  6
CONTINUOUS
 62
         7
100
AcDbLine
 10
1349.0739149182
 20
-200.2611702895
 30
0.0
 11
1349.0739149182
 21
-248.2911702895
 31
0.0
  0
LINE
  5
FE
100
AcDbEntity
  8
L1_120
  6
CONTINUOUS
 62
         7
100
AcDbLine
 10
1349.0739149182
 20
-248.2911702895
 30
0.0
 11
1350.3275047567
 21
-248.2911702895
 31
0.0
  0
LINE
  5
FF
100
AcDbEntity
  8
L1_120
  6
CONTINUOUS
 62
         7
100
AcDbLine
 10
1348.3275047567
 20
-248.4911702895
 30
0.0
 11
1349.0739149182
 21
-248.2911702895
 31
0.0
  0
LINE
  5
100
100
AcDbEntity
  8
L1_120
  6
CONTINUOUS
 62
         7
100
AcDbLine
 10
1348.3275047567
 20
-200.0611702895
 30
0.0
 11
1349.0739149182
 21
-200.2611702895
 31
0.0
  0
LINE
  5
101
100
AcDbEntity
  8
L1_120
  6
CONTINUOUS
 62
         7
100
AcDbLine
 10
1349.0739149182
 20
-200.2611702895
 30
0.0
 11
1350.3275047567
 21
-200.2611702895
 31
0.0
  0
LINE
  5
102
100
AcDbEntity
  8
L1_120
  6
CONTINUOUS
 62
         7
100
AcDbLine
 10
1371.7050038315
 20
-255.7761702895
 30
0.0
 11
1375.3275047567
 21
-255.7761702895
 31
0.0
  0
LINE
  5
103
100
AcDbEntity
  8
L1_120
  6
CONTINUOUS
 62
         7
100
AcDbLine
 10
1370.2025047567
 20
-253.1737655537
 30
0.0
 11
1371.7050038315
 21
-255.7761702895
 31
0.0
  0
LINE
  5
104
100
AcDbEntity
  8
L1_120
  6
CONTINUOUS
 62
         7
100
AcDbLine
 10
1366.4525047567
 20
-253.1737655537
 30
0.0
 11
1364.950005682
 21
-255.7761702895
 31
0.0
  0
LINE
  5
105
100
AcDbEntity
  8
L1_120
  6
CONTINUOUS
 62
         7
100
AcDbLine
 10
1366.4525047567
 20
-251.7761702895
 30
0.0
 11
1370.2025047567
 21
-251.7761702895
 31
0.0
  0
LINE
  5
106
100
AcDbEntity
  8
L1_120
  6
CONTINUOUS
 62
         7
100
AcDbLine
 10
1366.4525047567
 20
-196.7761702895
 30
0.0
 11
1370.2025047567
 21
-196.7761702895
 31
0.0
  0
LINE
  5
107
100
AcDbEntity
  8
L1_120
  6
CONTINUOUS
 62
         7
100
AcDbLine
 10
1351.3275047567
 20
-192.7761702895
 30
0.0
 11
1364.950005682
 21
-192.7761702895
 31
0.0
  0
LINE
  5
108
100
AcDbEntity
  8
L1_120
  6
CONTINUOUS
 62
         7
100
AcDbLine
 10
1371.7050038315
 20
-192.7761702895
 30
0.0
 11
1375.3275047567
 21
-192.7761702895
 31
0.0
  0
CIRCLE
  5
109
100
AcDbEntity
  8
L1_120
  6
CONTINUOUS
 62
         7
100
AcDbCircle
 10
1362.2275047567
 20
-224.2761702895
 30
0.0
 40
7.0
  0
LINE
  5
10A
100
AcDbEntity
  8
L1_120
  6
DASHED
 62
         2
100
AcDbLine
 10
1328.3275047567
 20
-213.0697206963
 30
0.0
 11
1324.3275047567
 21
-214.0327203366
 31
0.0
  0
LINE
  5
10B
100
AcDbEntity
  8
L1_120
  6
DASHED
 62
         2
100
AcDbLine
 10
1328.3275047567
 20
-213.0697206963
 30
0.0
 11
1328.3275047567
 21
-235.4826198827
 31
0.0
  0
ARC
  5
10C
100
AcDbEntity
  8
L1_120
  6
DASHED
 62
         2
100
AcDbCircle
 10
1326.8275047567
 20
-219.5061702895
 30
0.0
 40
1.5
100
AcDbArc
 50
0.0
 51
90.0
  0
LINE
  5
10D
100
AcDbEntity
  8
L1_120
  6
DASHED
 62
         2
100
AcDbLine
 10
1326.8275047567
 20
-218.0061702895
 30
0.0
 11
1322.8275047567
 21
-218.0061702895
 31
0.0
  0
ARC
  5
10E
100
AcDbEntity
  8
L1_120
  6
DASHED
 62
         2
100
AcDbCircle
 10
1326.8275047567
 20
-229.0461702895
 30
0.0
 40
1.5
100
AcDbArc
 50
270.0
 51
360.0
  0
LINE
  5
10F
100
AcDbEntity
  8
L1_120
  6
DASHED
 62
         2
100
AcDbLine
 10
1322.8275047567
 20
-230.5461702895
 30
0.0
 11
1326.8275047567
 21
-230.5461702895
 31
0.0
  0
LINE
  5
110
100
AcDbEntity
  8
L1_120
  6
DASHED
 62
         2
100
AcDbLine
 10
1328.3275047567
 20
-235.4826198827
 30
0.0
 11
1324.3275047567
 21
-234.5196202423
 31
0.0
  0
LINE
  5
111
100
AcDbEntity
  8
L1_120
  6
CENTER
 62
         1
100
AcDbLine
 10
1514.9075047567
 20
-204.6372092651
 30
0.0
 11
1514.9075047567
 21
-246.1829452079
 31
0.0
  0
LINE
  5
112
100
AcDbEntity
  8
L1_120
  6
CENTER
 62
         1
100
AcDbLine
 10
1480.1023134866
 20
-225.0406455357
 30
0.0
 11
1546.4075047567
 21
-225.0406455357
 31
0.0
  0
CIRCLE
  5
113
100
AcDbEntity
  8
L1_120
  6
DASHED
 62
         2
100
AcDbCircle
 10
1514.9075047567
 20
-225.0406455357
 30
0.0
 40
27.5101842974
  0
LINE
  5
114
100
AcDbEntity
  8
L1_120
  6
CENTER
 62
         1
100
AcDbLine
 10
1514.9075047567
 20
-225.0406455357
 30
0.0
 11
1497.7978094243
 21
-254.6755071537
 31
0.0
  0
LINE
  5
115
100
AcDbEntity
  8
L1_120
  6
CENTER
 62
         1
100
AcDbLine
 10
1514.9075047567
 20
-225.0406455357
 30
0.0
 11
1511.8305211757
 21
-260.2107288017
 31
0.0
  0
LINE
  5
116
100
AcDbEntity
  8
L1_120
  6
CENTER
 62
         1
100
AcDbLine
 10
1514.9075047567
 20
-260.4799299829
 30
0.0
 11
1514.9075047567
 21
-188.5224522493
 31
0.0
  0
LINE
  5
117
100
AcDbEntity
  8
L1_120
  6
CENTER
 62
         1
100
AcDbLine
 10
1514.9075047567
 20
-225.0406455357
 30
0.0
 11
1524.0455936365
 21
-259.144457519
 31
0.0
  0
LINE
  5
118
100
AcDbEntity
  8
L1_120
  6
CENTER
 62
         1
100
AcDbLine
 10
1514.9075047567
 20
-225.0406455357
 30
0.0
 11
1534.7156060436
 21
-253.3295459059
 31
0.0
  0
LINE
  5
119
100
AcDbEntity
  8
L1_120
  6
DASHED
 62
         2
100
AcDbLine
 10
1514.2582512254
 20
-252.5406455356
 30
0.0
 11
1515.6485544368
 21
-236.6494071135
 31
0.0
  0
LINE
  5
11A
100
AcDbEntity
  8
L1_120
  6
DASHED
 62
         2
100
AcDbLine
 10
1512.1618729934
 20
-236.3443620139
 30
0.0
 11
1510.7722390228
 21
-252.2279509797
 31
0.0
  0
LINE
  5
11B
100
AcDbEntity
  8
L1_120
  6
DASHED
 62
         2
100
AcDbLine
 10
1502.7002408926
 20
-249.6842467697
 30
0.0
 11
1510.6730492133
 21
-235.8749376792
 31
0.0
  0
LINE
  5
11C
100
AcDbEntity
  8
L1_120
  6
DASHED
 62
         2
100
AcDbLine
 10
1507.6419603001
 20
-234.1249376792
 30
0.0
 11
1499.6698294524
 21
-247.9330733519
 31
0.0
  0
LINE
  5
11D
100
AcDbEntity
  8
L1_120
  6
DASHED
 62
         2
100
AcDbLine
 10
1523.7010633983
 20
-251.0971723815
 30
0.0
 11
1519.5742939714
 21
-235.695859209
 31
0.0
  0
LINE
  5
11E
100
AcDbEntity
  8
L1_120
  6
DASHED
 62
         2
100
AcDbLine
 10
1516.1935535794
 20
-236.6017258669
 30
0.0
 11
1520.3202321662
 21
-252.0027000195
 31
0.0
  0
LINE
  5
11F
100
AcDbEntity
  8
L1_120
  6
DASHED
 62
         2
100
AcDbLine
 10
1532.0831798208
 20
-246.5190197507
 30
0.0
 11
1522.9371498522
 21
-233.4571352814
 31
0.0
  0
LINE
  5
120
100
AcDbEntity
  8
L1_120
  6
DASHED
 62
         2
100
AcDbLine
 10
1520.0701176972
 20
-235.4646528086
 30
0.0
 11
1529.2153705006
 21
-248.525427371
 31
0.0
  0
LINE
  5
121
100
AcDbEntity
  8
L1_120
  6
CONTINUOUS
 62
         7
100
AcDbLine
 10
1494.9075047567
 20
-245.0406455357
 30
0.0
 11
1495.4075047567
 21
-244.5406455357
 31
0.0
  0
LINE
  5
122
100
AcDbEntity
  8
L1_120
  6
CONTINUOUS
 62
         7
100
AcDbLine
 10
1495.4075047567
 20
-244.5406455357
 30
0.0
 11
1495.4075047567
 21
-249.7792792894
 31
0.0
  0
LINE
  5
123
100
AcDbEntity
  8
L1_120
  6
CONTINUOUS
 62
         7
100
AcDbLine
 10
1494.9075047567
 20
-245.0406455357
 30
0.0
 11
1494.9075047567
 21
-249.3768325829
 31
0.0
  0
LINE
  5
124
100
AcDbEntity
  8
L1_120
  6
CONTINUOUS
 62
         7
100
AcDbLine
 10
1490.168871003
 20
-244.5406455357
 30
0.0
 11
1495.4075047567
 21
-244.5406455357
 31
0.0
  0
LINE
  5
125
100
AcDbEntity
  8
L1_120
  6
CONTINUOUS
 62
         7
100
AcDbLine
 10
1490.5713177095
 20
-245.0406455357
 30
0.0
 11
1494.9075047567
 21
-245.0406455357
 31
0.0
  0
LINE
  5
126
100
AcDbEntity
  8
L1_120
  6
CONTINUOUS
 62
         7
100
AcDbLine
 10
1490.3186861596
 20
-244.9206455357
 30
0.0
 11
1495.0275047567
 21
-244.9206455357
 31
0.0
  0
LINE
  5
127
100
AcDbEntity
  8
L1_120
  6
CONTINUOUS
 62
         7
100
AcDbLine
 10
1495.0275047567
 20
-244.9206455357
 30
0.0
 11
1495.0275047567
 21
-249.6294641327
 31
0.0
  0
LINE
  5
128
100
AcDbEntity
  8
L1_120
  6
CONTINUOUS
 62
         7
100
AcDbLine
 10
1496.0275047567
 20
-243.9206455357
 30
0.0
 11
1496.0275047567
 21
-250.4053848405
 31
0.0
  0
LINE
  5
129
100
AcDbEntity
  8
L1_120
  6
CONTINUOUS
 62
         7
100
AcDbLine
 10
1489.5427654519
 20
-243.9206455357
 30
0.0
 11
1496.0275047567
 21
-243.9206455357
 31
0.0
  0
LINE
  5
12A
100
AcDbEntity
  8
L1_120
  6
CONTINUOUS
 62
         7
100
AcDbLine
 10
1496.0275047567
 20
-243.9206455357
 30
0.0
 11
1495.0275047567
 21
-244.9206455357
 31
0.0
  0
LINE
  5
12B
100
AcDbEntity
  8
L1_120
  6
CONTINUOUS
 62
         7
100
AcDbLine
 10
1488.4075047567
 20
-216.0406455357
 30
0.0
 11
1488.4075047567
 21
-234.0406455357
 31
0.0
  0
LINE
  5
12C
100
AcDbEntity
  8
L1_120
  6
CONTINUOUS
 62
         7
100
AcDbLine
 10
1485.4753794512
 20
-233.0406455357
 30
0.0
 11
1488.4075047567
 21
-233.0406455357
 31
0.0
  0
LINE
  5
12D
100
AcDbEntity
  8
L1_120
  6
CONTINUOUS
 62
         7
100
AcDbLine
 10
1485.4753794512
 20
-217.0406455357
 30
0.0
 11
1488.4075047567
 21
-217.0406455357
 31
0.0
  0
LINE
  5
12E
100
AcDbEntity
  8
L1_120
  6
CONTINUOUS
 62
         7
100
AcDbLine
 10
1484.7205870605
 20
-234.0406455357
 30
0.0
 11
1485.4753794512
 21
-233.0406455357
 31
0.0
  0
LINE
  5
12F
100
AcDbEntity
  8
L1_120
  6
CONTINUOUS
 62
         7
100
AcDbLine
 10
1484.7205870605
 20
-216.0406455357
 30
0.0
 11
1485.4753794512
 21
-217.0406455357
 31
0.0
  0
LINE
  5
130
100
AcDbEntity
  8
L1_120
  6
CONTINUOUS
 62
         7
100
AcDbLine
 10
1484.7205870605
 20
-216.0406455357
 30
0.0
 11
1488.4075047567
 21
-216.0406455357
 31
0.0
  0
LINE
  5
131
100
AcDbEntity
  8
L1_120
  6
CONTINUOUS
 62
         7
100
AcDbLine
 10
1484.7205870605
 20
-234.0406455357
 30
0.0
 11
1488.4075047567
 21
-234.0406455357
 31
0.0
  0
ARC
  5
132
100
AcDbEntity
  8
L1_120
  6
CONTINUOUS
 62
         7
100
AcDbCircle
 10
1514.9075047567
 20
-225.0406455357
 30
0.0
 40
30.5
100
AcDbArc
 50
164.7937121239
 51
195.2062878761
  0
LINE
  5
133
100
AcDbEntity
  8
L1_120
  6
CONTINUOUS
 62
         7
100
AcDbLine
 10
1544.7780588192
 20
-235.0406455357
 30
0.0
 11
1544.0493989985
 21
-234.0406455357
 31
0.0
  0
LINE
  5
134
100
AcDbEntity
  8
L1_120
  6
CONTINUOUS
 62
         7
100
AcDbLine
 10
1544.7780588192
 20
-215.0406455357
 30
0.0
 11
1544.0493989985
 21
-216.0406455357
 31
0.0
  0
ARC
  5
135
100
AcDbEntity
  8
L1_120
  6
CONTINUOUS
 62
         7
100
AcDbCircle
 10
1514.9075047567
 20
-225.0406455357
 30
0.0
 40
30.5
100
AcDbArc
 50
342.8375474519
 51
377.1624525481
  0
LINE
  5
136
100
AcDbEntity
  8
L1_120
  6
CONTINUOUS
 62
         7
100
AcDbLine
 10
1541.4075047567
 20
-215.0406455357
 30
0.0
 11
1541.4075047567
 21
-235.0406455357
 31
0.0
  0
LINE
  5
137
100
AcDbEntity
  8
L1_120
  6
CONTINUOUS
 62
         7
100
AcDbLine
 10
1544.0493989985
 20
-234.0406455357
 30
0.0
 11
1541.4075047567
 21
-234.0406455357
 31
0.0
  0
LINE
  5
138
100
AcDbEntity
  8
L1_120
  6
CONTINUOUS
 62
         7
100
AcDbLine
 10
1544.0493989985
 20
-216.0406455357
 30
0.0
 11
1541.4075047567
 21
-216.0406455357
 31
0.0
  0
LINE
  5
139
100
AcDbEntity
  8
L1_120
  6
CONTINUOUS
 62
         7
100
AcDbLine
 10
1544.7780588192
 20
-215.0406455357
 30
0.0
 11
1541.4075047567
 21
-215.0406455357
 31
0.0
  0
LINE
  5
13A
100
AcDbEntity
  8
L1_120
  6
CONTINUOUS
 62
         7
100
AcDbLine
 10
1544.7780588192
 20
-235.0406455357
 30
0.0
 11
1541.4075047567
 21
-235.0406455357
 31
0.0
  0
CIRCLE
  5
13B
100
AcDbEntity
  8
L1_120
  6
CONTINUOUS
 62
         7
100
AcDbCircle
 10
1514.9075047567
 20
-225.0406455357
 30
0.0
 40
31.5
  0
LINE
  5
13C
100
AcDbEntity
  8
L1_120
  6
CENTER
 62
         1
100
AcDbLine
 10
1514.9075047567
 20
-190.5406455357
 30
0.0
 11
1514.9075047567
 21
-259.5406455357
 31
0.0
  0
LINE
  5
13D
100
AcDbEntity
  8
L1_120
  6
DASHED
 62
         2
100
AcDbLine
 10
1519.9075047567
 20
-194.4465284541
 30
0.0
 11
1520.3411975089
 21
-194.012835702
 31
0.0
  0
LINE
  5
13E
100
AcDbEntity
  8
L1_120
  6
DASHED
 62
         2
100
AcDbLine
 10
1509.9075047567
 20
-194.4465284541
 30
0.0
 11
1509.4738120046
 21
-194.012835702
 31
0.0
  0
ARC
  5
13F
100
AcDbEntity
  8
L1_120
  6
DASHED
 62
         2
100
AcDbCircle
 10
1514.9075047567
 20
-225.0406455357
 30
0.0
 40
31.0
100
AcDbArc
 50
80.7182009133
 51
99.2817990867
  0
LINE
  5
140
100
AcDbEntity
  8
L1_120
  6
DASHED
 62
         2
100
AcDbLine
 10
1519.6075047567
 20
-198.1406455357
 30
0.0
 11
1519.9075047567
 21
-197.8406455357
 31
0.0
  0
LINE
  5
141
100
AcDbEntity
  8
L1_120
  6
DASHED
 62
         2
100
AcDbLine
 10
1514.9075047567
 20
-198.7179958049
 30
0.0
 11
1515.9075047567
 21
-198.1406455357
 31
0.0
  0
LINE
  5
142
100
AcDbEntity
  8
L1_120
  6
DASHED
 62
         2
100
AcDbLine
 10
1514.9075047567
 20
-198.7179958049
 30
0.0
 11
1513.9075047567
 21
-198.1406455357
 31
0.0
  0
LINE
  5
143
100
AcDbEntity
  8
L1_120
  6
DASHED
 62
         2
100
AcDbLine
 10
1509.9075047567
 20
-197.8406455357
 30
0.0
 11
1510.2075047567
 21
-198.1406455357
 31
0.0
  0
LINE
  5
144
100
AcDbEntity
  8
L1_120
  6
DASHED
 62
         2
100
AcDbLine
 10
1519.6075047567
 20
-198.1406455357
 30
0.0
 11
1510.2075047567
 21
-198.1406455357
 31
0.0
  0
LINE
  5
145
100
AcDbEntity
  8
L1_120
  6
DASHED
 62
         2
100
AcDbLine
 10
1509.9075047567
 20
-197.8406455357
 30
0.0
 11
1519.9075047567
 21
-197.8406455357
 31
0.0
  0
LINE
  5
146
100
AcDbEntity
  8
L1_120
  6
DASHED
 62
         2
100
AcDbLine
 10
1519.9075047567
 20
-194.4465284541
 30
0.0
 11
1519.9075047567
 21
-197.8406455357
 31
0.0
  0
LINE
  5
147
100
AcDbEntity
  8
L1_120
  6
DASHED
 62
         2
100
AcDbLine
 10
1509.9075047567
 20
-194.4465284541
 30
0.0
 11
1509.9075047567
 21
-197.8406455357
 31
0.0
  0
ARC
  5
148
100
AcDbEntity
  8
L1_120
  6
CONTINUOUS
 62
         7
100
AcDbCircle
 10
1514.9075047567
 20
-225.0406455357
 30
0.0
 40
31.5
100
AcDbArc
 50
80.0668994492
 51
99.9331005508
  0
ARC
  5
149
100
AcDbEntity
  8
L1_120
  6
DASHED
 62
         2
100
AcDbCircle
 10
1490.8075047567
 20
-231.7406455357
 30
0.0
 40
0.3
100
AcDbArc
 50
270.0
 51
360.0
  0
ARC
  5
14A
100
AcDbEntity
  8
L1_120
  6
DASHED
 62
         2
100
AcDbCircle
 10
1490.8075047567
 20
-218.3406455357
 30
0.0
 40
0.3
100
AcDbArc
 50
0.0
 51
90.0
  0
LINE
  5
14B
100
AcDbEntity
  8
L1_120
  6
DASHED
 62
         2
100
AcDbLine
 10
1488.4075047567
 20
-232.0406455357
 30
0.0
 11
1490.8075047567
 21
-232.0406455357
 31
0.0
  0
LINE
  5
14C
100
AcDbEntity
  8
L1_120
  6
DASHED
 62
         2
100
AcDbLine
 10
1488.4075047567
 20
-218.0406455357
 30
0.0
 11
1490.8075047567
 21
-218.0406455357
 31
0.0
  0
LINE
  5
14D
100
AcDbEntity
  8
L1_120
  6
DASHED
 62
         2
100
AcDbLine
 10
1491.1075047567
 20
-218.3406455357
 30
0.0
 11
1491.1075047567
 21
-231.7406455357
 31
0.0
  0
LINE
  5
14E
100
AcDbEntity
  8
L1_120
  6
DASHED
 62
         2
100
AcDbLine
 10
1543.4553954495
 20
-211.4449720697
 30
0.0
 11
1528.5031782226
 21
-196.4927548429
 31
0.0
  0
LINE
  5
14F
100
AcDbEntity
  8
L1_120
  6
CENTER
 62
         1
100
AcDbLine
 10
1514.9075047567
 20
-225.0406455357
 30
0.0
 11
1543.6101910764
 21
-196.337959216
 31
0.0
  0
LINE
  5
150
100
AcDbEntity
  8
L1_120
  6
CENTER
 62
         1
100
AcDbLine
 10
1318.3275047567
 20
-338.1686220058
 30
0.0
 11
1430.3375047567
 21
-338.1686220058
 31
0.0
  0
LINE
  5
151
100
AcDbEntity
  8
L1_120
  6
CONTINUOUS
 62
         7
100
AcDbLine
 10
1352.3275047567
 20
-306.6686220057
 30
0.0
 11
1351.3275047567
 21
-306.6686220057
 31
0.0
  0
LINE
  5
152
100
AcDbEntity
  8
L1_120
  6
CONTINUOUS
 62
         7
100
AcDbLine
 10
1352.3275047567
 20
-369.6686220057
 30
0.0
 11
1351.3275047567
 21
-369.6686220057
 31
0.0
  0
LINE
  5
153
100
AcDbEntity
  8
L1_120
  6
CONTINUOUS
 62
         7
100
AcDbLine
 10
1350.3275047567
 20
-308.6686220057
 30
0.0
 11
1350.3275047567
 21
-307.6686220057
 31
0.0
  0
LINE
  5
154
100
AcDbEntity
  8
L1_120
  6
CONTINUOUS
 62
         7
100
AcDbLine
 10
1350.3275047567
 20
-368.6686220057
 30
0.0
 11
1350.3275047567
 21
-367.6686220057
 31
0.0
  0
ARC
  5
155
100
AcDbEntity
  8
L1_120
  6
CONTINUOUS
 62
         7
100
AcDbCircle
 10
1351.3275047567
 20
-368.6686220057
 30
0.0
 40
1.0
100
AcDbArc
 50
180.0
 51
270.0
  0
ARC
  5
156
100
AcDbEntity
  8
L1_120
  6
CONTINUOUS
 62
         7
100
AcDbCircle
 10
1351.3275047567
 20
-307.6686220057
 30
0.0
 40
1.0
100
AcDbArc
 50
90.0
 51
180.0
  0
LINE
  5
157
100
AcDbEntity
  8
L1_120
  6
CONTINUOUS
 62
         5
100
AcDbLine
 10
1361.1935301605
 20
-329.1686220057
 30
0.0
 11
1369.3275047567
 21
-329.1686220057
 31
0.0
  0
LINE
  5
158
100
AcDbEntity
  8
L1_120
  6
CONTINUOUS
 62
         7
100
AcDbLine
 10
1362.0595555643
 20
-346.6686220057
 30
0.0
 11
1369.3275047567
 21
-346.6686220057
 31
0.0
  0
LINE
  5
159
100
AcDbEntity
  8
L1_120
  6
CONTINUOUS
 62
         5
100
AcDbLine
 10
1361.1935301605
 20
-347.1686220057
 30
0.0
 11
1369.3275047567
 21
-347.1686220057
 31
0.0
  0
LINE
  5
15A
100
AcDbEntity
  8
L1_120
  6
CONTINUOUS
 62
         7
100
AcDbLine
 10
1362.0595555643
 20
-329.6686220057
 30
0.0
 11
1369.3275047567
 21
-329.6686220057
 31
0.0
  0
LINE
  5
15B
100
AcDbEntity
  8
L1_120
  6
CONTINUOUS
 62
         7
100
AcDbLine
 10
1362.0595555643
 20
-329.6686220057
 30
0.0
 11
1362.0595555643
 21
-346.6686220057
 31
0.0
  0
LINE
  5
15C
100
AcDbEntity
  8
L1_120
  6
CONTINUOUS
 62
         7
100
AcDbLine
 10
1360.3275047567
 20
-328.6686220057
 30
0.0
 11
1362.0595555643
 21
-329.6686220057
 31
0.0
  0
LINE
  5
15D
100
AcDbEntity
  8
L1_120
  6
CONTINUOUS
 62
         7
100
AcDbLine
 10
1360.3275047567
 20
-347.6686220057
 30
0.0
 11
1362.0595555643
 21
-346.6686220057
 31
0.0
  0
LINE
  5
15E
100
AcDbEntity
  8
L1_120
  6
CENTER
 62
         1
100
AcDbLine
 10
1332.2155047567
 20
-319.6686220057
 30
0.0
 11
1332.2155047567
 21
-356.6686220057
 31
0.0
  0
ARC
  5
15F
100
AcDbEntity
  8
L1_120
  6
CONTINUOUS
 62
         7
100
AcDbCircle
 10
1344.0825067583
 20
-326.1686220057
 30
0.0
 40
8.0
100
AcDbArc
 50
38.6821874535
 51
90.0
  0
LINE
  5
160
100
AcDbEntity
  8
L1_120
  6
CONTINUOUS
 62
         7
100
AcDbLine
 10
1319.4675796164
 20
-315.3966182627
 30
0.0
 11
1348.3275047567
 21
-313.9536220057
 31
0.0
  0
ARC
  5
161
100
AcDbEntity
  8
L1_120
  6
CONTINUOUS
 62
         7
100
AcDbCircle
 10
1344.0825067583
 20
-350.1686220057
 30
0.0
 40
8.0
100
AcDbArc
 50
270.0
 51
321.3178125465
  0
LINE
  5
162
100
AcDbEntity
  8
L1_120
  6
CONTINUOUS
 62
         7
100
AcDbLine
 10
1319.4675796164
 20
-360.9406257487
 30
0.0
 11
1348.3275047567
 21
-362.3836220057
 31
0.0
  0
LINE
  5
163
100
AcDbEntity
  8
L1_120
  6
CONTINUOUS
 62
         7
100
AcDbLine
 10
1318.3275047567
 20
-345.4386220057
 30
0.0
 11
1318.3275047567
 21
-359.7421229421
 31
0.0
  0
ARC
  5
164
100
AcDbEntity
  8
L1_120
  6
CONTINUOUS
 62
         7
100
AcDbCircle
 10
1319.5275047567
 20
-359.7421229421
 30
0.0
 40
1.2
100
AcDbArc
 50
180.0
 51
267.1375947739
  0
LINE
  5
165
100
AcDbEntity
  8
L1_120
  6
CONTINUOUS
 62
         7
100
AcDbLine
 10
1319.3275047567
 20
-321.1686220057
 30
0.0
 11
1331.3314793529
 21
-321.1686220057
 31
0.0
  0
LINE
  5
166
100
AcDbEntity
  8
L1_120
  6
CONTINUOUS
 62
         7
100
AcDbLine
 10
1319.3275047567
 20
-355.1686220057
 30
0.0
 11
1331.3314793529
 21
-355.1686220057
 31
0.0
  0
LINE
  5
167
100
AcDbEntity
  8
L1_120
  6
CONTINUOUS
 62
         7
100
AcDbLine
 10
1319.3275047567
 20
-344.4386220057
 30
0.0
 11
1326.8275047567
 21
-344.4386220057
 31
0.0
  0
LINE
  5
168
100
AcDbEntity
  8
L1_120
  6
CONTINUOUS
 62
         7
100
AcDbLine
 10
1319.3275047567
 20
-331.8986220057
 30
0.0
 11
1326.8275047567
 21
-331.8986220057
 31
0.0
  0
LINE
  5
169
100
AcDbEntity
  8
L1_120
  6
CONTINUOUS
 62
         7
100
AcDbLine
 10
1318.3275047567
 20
-345.4386220057
 30
0.0
 11
1319.3275047567
 21
-344.4386220057
 31
0.0
  0
ARC
  5
16A
100
AcDbEntity
  8
L1_120
  6
CONTINUOUS
 62
         7
100
AcDbCircle
 10
1319.5275047567
 20
-316.5951210694
 30
0.0
 40
1.2
100
AcDbArc
 50
92.8624052261
 51
180.0
  0
LINE
  5
16B
100
AcDbEntity
  8
L1_120
  6
CONTINUOUS
 62
         7
100
AcDbLine
 10
1318.3275047567
 20
-316.5951210694
 30
0.0
 11
1318.3275047567
 21
-330.8986220057
 31
0.0
  0
LINE
  5
16C
100
AcDbEntity
  8
L1_120
  6
CONTINUOUS
 62
         7
100
AcDbLine
 10
1319.3275047567
 20
-321.1686220057
 30
0.0
 11
1318.3275047567
 21
-320.5912717365
 31
0.0
  0
LINE
  5
16D
100
AcDbEntity
  8
L1_120
  6
CONTINUOUS
 62
         7
100
AcDbLine
 10
1319.3275047567
 20
-321.1686220057
 30
0.0
 11
1319.3275047567
 21
-331.8986220057
 31
0.0
  0
LINE
  5
16E
100
AcDbEntity
  8
L1_120
  6
CONTINUOUS
 62
         7
100
AcDbLine
 10
1318.3275047567
 20
-330.8986220057
 30
0.0
 11
1319.3275047567
 21
-331.8986220057
 31
0.0
  0
LINE
  5
16F
100
AcDbEntity
  8
L1_120
  6
CONTINUOUS
 62
         7
100
AcDbLine
 10
1319.3275047567
 20
-355.1686220057
 30
0.0
 11
1318.3275047567
 21
-355.7459722749
 31
0.0
  0
LINE
  5
170
100
AcDbEntity
  8
L1_120
  6
CONTINUOUS
 62
         7
100
AcDbLine
 10
1319.3275047567
 20
-355.1686220057
 30
0.0
 11
1319.3275047567
 21
-344.4386220057
 31
0.0
  0
LINE
  5
171
100
AcDbEntity
  8
L1_120
  6
CONTINUOUS
 62
         7
100
AcDbLine
 10
1328.3275047567
 20
-333.3986220057
 30
0.0
 11
1328.3275047567
 21
-342.9386220057
 31
0.0
  0
ARC
  5
172
100
AcDbEntity
  8
L1_120
  6
CONTINUOUS
 62
         7
100
AcDbCircle
 10
1326.8275047567
 20
-333.3986220057
 30
0.0
 40
1.5
100
AcDbArc
 50
0.0
 51
90.0
  0
ARC
  5
173
100
AcDbEntity
  8
L1_120
  6
CONTINUOUS
 62
         7
100
AcDbCircle
 10
1326.8275047567
 20
-342.9386220057
 30
0.0
 40
1.5
100
AcDbArc
 50
270.0
 51
360.0
  0
LINE
  5
174
100
AcDbEntity
  8
L1_120
  6
CONTINUOUS
 62
         7
100
AcDbLine
 10
1333.409940322
 20
-318.1686220057
 30
0.0
 11
1344.0825067583
 21
-318.1686220057
 31
0.0
  0
CIRCLE
  5
175
100
AcDbEntity
  8
L1_120
  6
CONTINUOUS
 62
         7
100
AcDbCircle
 10
1341.3275047567
 20
-338.1686220057
 30
0.0
 40
3.75
  0
LINE
  5
176
100
AcDbEntity
  8
L1_120
  6
CONTINUOUS
 62
         7
100
AcDbLine
 10
1333.409940322
 20
-358.1686220057
 30
0.0
 11
1344.0825067583
 21
-358.1686220057
 31
0.0
  0
LINE
  5
177
100
AcDbEntity
  8
L1_120
  6
CONTINUOUS
 62
         7
100
AcDbLine
 10
1331.3314793529
 20
-321.1686220057
 30
0.0
 11
1332.8903250798
 21
-318.4686220057
 31
0.0
  0
ARC
  5
178
100
AcDbEntity
  8
L1_120
  6
CONTINUOUS
 62
         7
100
AcDbCircle
 10
1333.409940322
 20
-318.7686220057
 30
0.0
 40
0.6
100
AcDbArc
 50
90.0
 51
150.0
  0
ARC
  5
179
100
AcDbEntity
  8
L1_120
  6
CONTINUOUS
 62
         7
100
AcDbCircle
 10
1333.409940322
 20
-357.5686220057
 30
0.0
 40
0.6
100
AcDbArc
 50
210.0
 51
270.0
  0
LINE
  5
17A
100
AcDbEntity
  8
L1_120
  6
CONTINUOUS
 62
         7
100
AcDbLine
 10
1331.3314793529
 20
-355.1686220057
 30
0.0
 11
1332.8903250798
 21
-357.8686220057
 31
0.0
  0
LINE
  5
17B
100
AcDbEntity
  8
L1_120
  6
CONTINUOUS
 62
         7
100
AcDbLine
 10
1331.3314793529
 20
-321.1686220057
 30
0.0
 11
1331.3314793529
 21
-355.1686220057
 31
0.0
  0
LINE
  5
17C
100
AcDbEntity
  8
L1_120
  6
CONTINUOUS
 62
         5
100
AcDbLine
 10
1333.109940322
 20
-357.6516034419
 30
0.0
 11
1333.109940322
 21
-318.9447568373
 31
0.0
  0
LINE
  5
17D
100
AcDbEntity
  8
L1_120
  6
CENTER
 62
         1
100
AcDbLine
 10
1341.3275047567
 20
-332.4186220057
 30
0.0
 11
1341.3275047567
 21
-343.9186220057
 31
0.0
  0
LINE
  5
17E
100
AcDbEntity
  8
L1_120
  6
CONTINUOUS
 62
         7
100
AcDbLine
 10
1351.3275047567
 20
-369.6686220057
 30
0.0
 11
1364.950005682
 21
-369.6686220057
 31
0.0
  0
LINE
  5
17F
100
AcDbEntity
  8
L1_120
  6
CONTINUOUS
 62
         7
100
AcDbLine
 10
1348.3275047567
 20
-362.3836220057
 30
0.0
 11
1348.9976149897
 21
-362.2040665099
 31
0.0
  0
LINE
  5
180
100
AcDbEntity
  8
L1_120
  6
CONTINUOUS
 62
         7
100
AcDbLine
 10
1349.1529064168
 20
-362.1836220057
 30
0.0
 11
1349.8275047567
 21
-362.1836220057
 31
0.0
  0
ARC
  5
181
100
AcDbEntity
  8
L1_120
  6
CONTINUOUS
 62
         7
100
AcDbCircle
 10
1349.8275047567
 20
-362.7836220057
 30
0.0
 40
0.6
100
AcDbArc
 50
0.0
 51
90.0
  0
LINE
  5
182
100
AcDbEntity
  8
L1_120
  6
CONTINUOUS
 62
         7
100
AcDbLine
 10
1350.4275047567
 20
-362.8720850335
 30
0.0
 11
1350.4275047567
 21
-362.7836220057
 31
0.0
  0
LINE
  5
183
100
AcDbEntity
  8
L1_120
  6
CONTINUOUS
 62
         7
100
AcDbLine
 10
1350.4275047567
 20
-362.8720850335
 30
0.0
 11
1350.3275047567
 21
-363.5836220057
 31
0.0
  0
LINE
  5
184
100
AcDbEntity
  8
L1_120
  6
CONTINUOUS
 62
         7
100
AcDbLine
 10
1350.3275047567
 20
-363.5836220057
 30
0.0
 11
1350.3275047567
 21
-368.6686220057
 31
0.0
  0
ARC
  5
185
100
AcDbEntity
  8
L1_120
  6
CONTINUOUS
 62
         7
100
AcDbCircle
 10
1349.1529064168
 20
-362.7836220057
 30
0.0
 40
0.6
100
AcDbArc
 50
90.0
 51
105.0
  0
LINE
  5
186
100
AcDbEntity
  8
L1_120
  6
CONTINUOUS
 62
         7
100
AcDbLine
 10
1371.7050038315
 20
-369.6686220057
 30
0.0
 11
1375.3275047567
 21
-369.6686220057
 31
0.0
  0
LINE
  5
187
100
AcDbEntity
  8
L1_120
  6
CONTINUOUS
 62
         7
100
AcDbLine
 10
1370.2025047567
 20
-367.0662172699
 30
0.0
 11
1370.2025047567
 21
-365.6686220057
 31
0.0
  0
LINE
  5
188
100
AcDbEntity
  8
L1_120
  6
CONTINUOUS
 62
         7
100
AcDbLine
 10
1370.2025047567
 20
-367.0662172699
 30
0.0
 11
1371.7050038315
 21
-369.6686220057
 31
0.0
  0
LINE
  5
189
100
AcDbEntity
  8
L1_120
  6
CONTINUOUS
 62
         7
100
AcDbLine
 10
1366.4525047567
 20
-367.0662172699
 30
0.0
 11
1364.950005682
 21
-369.6686220057
 31
0.0
  0
LINE
  5
18A
100
AcDbEntity
  8
L1_120
  6
CONTINUOUS
 62
         7
100
AcDbLine
 10
1366.4525047567
 20
-367.0662172699
 30
0.0
 11
1366.4525047567
 21
-365.6686220057
 31
0.0
  0
LINE
  5
18B
100
AcDbEntity
  8
L1_120
  6
CONTINUOUS
 62
         7
100
AcDbLine
 10
1366.4525047567
 20
-365.6686220057
 30
0.0
 11
1370.2025047567
 21
-365.6686220057
 31
0.0
  0
LINE
  5
18C
100
AcDbEntity
  8
L1_120
  6
CENTER
 62
         1
100
AcDbLine
 10
1368.3275047567
 20
-361.4464577286
 30
0.0
 11
1368.3275047567
 21
-369.7759395423
 31
0.0
  0
LINE
  5
18D
100
AcDbEntity
  8
L1_120
  6
CONTINUOUS
 62
         7
100
AcDbLine
 10
1351.3275047567
 20
-306.6686220057
 30
0.0
 11
1364.950005682
 21
-306.6686220057
 31
0.0
  0
ARC
  5
18E
100
AcDbEntity
  8
L1_120
  6
CONTINUOUS
 62
         7
100
AcDbCircle
 10
1349.8275047567
 20
-313.5536220057
 30
0.0
 40
0.6
100
AcDbArc
 50
270.0
 51
360.0
  0
LINE
  5
18F
100
AcDbEntity
  8
L1_120
  6
CONTINUOUS
 62
         7
100
AcDbLine
 10
1350.3275047567
 20
-321.1686220057
 30
0.0
 11
1357.9983485591
 21
-321.1686220057
 31
0.0
  0
LINE
  5
190
100
AcDbEntity
  8
L1_120
  6
CONTINUOUS
 62
         7
100
AcDbLine
 10
1350.3275047567
 20
-355.1686220057
 30
0.0
 11
1357.9983485591
 21
-355.1686220057
 31
0.0
  0
LINE
  5
191
100
AcDbEntity
  8
L1_120
  6
CONTINUOUS
 62
         7
100
AcDbLine
 10
1349.1529064168
 20
-314.1536220057
 30
0.0
 11
1349.8275047567
 21
-314.1536220057
 31
0.0
  0
LINE
  5
192
100
AcDbEntity
  8
L1_120
  6
CONTINUOUS
 62
         7
100
AcDbLine
 10
1348.3275047567
 20
-313.9536220057
 30
0.0
 11
1348.9976149897
 21
-314.1331775015
 31
0.0
  0
ARC
  5
193
100
AcDbEntity
  8
L1_120
  6
CONTINUOUS
 62
         7
100
AcDbCircle
 10
1349.1529064168
 20
-313.5536220057
 30
0.0
 40
0.6
100
AcDbArc
 50
255.0
 51
270.0
  0
LINE
  5
194
100
AcDbEntity
  8
L1_120
  6
CONTINUOUS
 62
         7
100
AcDbLine
 10
1350.3275047567
 20
-321.1686220057
 30
0.0
 11
1350.3275047567
 21
-355.1686220057
 31
0.0
  0
ARC
  5
195
100
AcDbEntity
  8
L1_120
  6
CONTINUOUS
 62
         7
100
AcDbCircle
 10
1358.8275047567
 20
-322.4186220057
 30
0.0
 40
1.5
100
AcDbArc
 50
0.0
 51
123.5573097619
  0
ARC
  5
196
100
AcDbEntity
  8
L1_120
  6
CONTINUOUS
 62
         7
100
AcDbCircle
 10
1358.8275047567
 20
-353.9186220057
 30
0.0
 40
1.5
100
AcDbArc
 50
236.4426902381
 51
360.0
  0
LINE
  5
197
100
AcDbEntity
  8
L1_120
  6
CONTINUOUS
 62
         7
100
AcDbLine
 10
1360.3275047567
 20
-322.4186220057
 30
0.0
 11
1360.3275047567
 21
-353.9186220057
 31
0.0
  0
LINE
  5
198
100
AcDbEntity
  8
L1_120
  6
CONTINUOUS
 62
         7
100
AcDbLine
 10
1357.9983485591
 20
-321.1686220057
 30
0.0
 11
1357.9983485591
 21
-355.1686220057
 31
0.0
  0
LINE
  5
199
100
AcDbEntity
  8
L1_120
  6
CONTINUOUS
 62
         7
100
AcDbLine
 10
1350.4275047567
 20
-313.465158978
 30
0.0
 11
1350.3275047567
 21
-312.7536220057
 31
0.0
  0
LINE
  5
19A
100
AcDbEntity
  8
L1_120
  6
CONTINUOUS
 62
         7
100
AcDbLine
 10
1350.4275047567
 20
-313.465158978
 30
0.0
 11
1350.4275047567
 21
-313.5536220057
 31
0.0
  0
LINE
  5
19B
100
AcDbEntity
  8
L1_120
  6
CONTINUOUS
 62
         7
100
AcDbLine
 10
1350.3275047567
 20
-307.6686220057
 30
0.0
 11
1350.3275047567
 21
-312.7536220057
 31
0.0
  0
LINE
  5
19C
100
AcDbEntity
  8
L1_120
  6
CENTER
 62
         1
100
AcDbLine
 10
1368.3275047567
 20
-306.6640605279
 30
0.0
 11
1368.3275047567
 21
-314.6731834835
 31
0.0
  0
LINE
  5
19D
100
AcDbEntity
  8
L1_120
  6
CONTINUOUS
 62
         7
100
AcDbLine
 10
1372.3275047567
 20
-328.6686220057
 30
0.0
 11
1372.3275047567
 21
-342.6686220057
 31
0.0
  0
LINE
  5
19E
100
AcDbEntity
  8
L1_120
  6
CONTINUOUS
 62
         7
100
AcDbLine
 10
1369.3275047567
 20
-328.6686220057
 30
0.0
 11
1369.3275047567
 21
-347.6686220057
 31
0.0
  0
LINE
  5
19F
100
AcDbEntity
  8
L1_120
  6
CONTINUOUS
 62
         7
100
AcDbLine
 10
1369.3275047567
 20
-347.6686220057
 30
0.0
 11
1372.3275047567
 21
-347.6686220057
 31
0.0
  0
LINE
  5
1A0
100
AcDbEntity
  8
L1_120
  6
CONTINUOUS
 62
         7
100
AcDbLine
 10
1369.3275047567
 20
-328.6686220057
 30
0.0
 11
1372.3275047567
 21
-328.6686220057
 31
0.0
  0
LINE
  5
1A1
100
AcDbEntity
  8
L1_120
  6
CONTINUOUS
 62
         7
100
AcDbLine
 10
1371.7050038315
 20
-306.6686220057
 30
0.0
 11
1375.3275047567
 21
-306.6686220057
 31
0.0
  0
LINE
  5
1A2
100
AcDbEntity
  8
L1_120
  6
CONTINUOUS
 62
         7
100
AcDbLine
 10
1370.2025047567
 20
-309.2710267415
 30
0.0
 11
1371.7050038315
 21
-306.6686220057
 31
0.0
  0
LINE
  5
1A3
100
AcDbEntity
  8
L1_120
  6
CONTINUOUS
 62
         7
100
AcDbLine
 10
1370.2025047567
 20
-309.2710267415
 30
0.0
 11
1370.2025047567
 21
-310.6686220057
 31
0.0
  0
LINE
  5
1A4
100
AcDbEntity
  8
L1_120
  6
CONTINUOUS
 62
         7
100
AcDbLine
 10
1366.4525047567
 20
-310.6686220057
 30
0.0
 11
1370.2025047567
 21
-310.6686220057
 31
0.0
  0
LINE
  5
1A5
100
AcDbEntity
  8
L1_120
  6
CONTINUOUS
 62
         7
100
AcDbLine
 10
1366.4525047567
 20
-309.2710267415
 30
0.0
 11
1366.4525047567
 21
-310.6686220057
 31
0.0
  0
LINE
  5
1A6
100
AcDbEntity
  8
L1_120
  6
CONTINUOUS
 62
         7
100
AcDbLine
 10
1366.4525047567
 20
-309.2710267415
 30
0.0
 11
1364.950005682
 21
-306.6686220057
 31
0.0
  0
LINE
  5
1A7
100
AcDbEntity
  8
L1_120
  6
CONTINUOUS
 62
         7
100
AcDbLine
 10
1372.3275047567
 20
-342.6686220057
 30
0.0
 11
1372.3275047567
 21
-347.6686220057
 31
0.0
  0
LINE
  5
1A8
100
AcDbEntity
  8
L1_120
  6
CONTINUOUS
 62
         7
100
AcDbLine
 10
1357.3275047567
 20
-311.8459722749
 30
0.0
 11
1356.3275047567
 21
-311.2686220057
 31
0.0
  0
LINE
  5
1A9
100
AcDbEntity
  8
L1_120
  6
CONTINUOUS
 62
         7
100
AcDbLine
 10
1357.3275047567
 20
-311.8459722749
 30
0.0
 11
1358.3275047567
 21
-311.2686220057
 31
0.0
  0
LINE
  5
1AA
100
AcDbEntity
  8
L1_120
  6
CONTINUOUS
 62
         7
100
AcDbLine
 10
1362.0275047567
 20
-311.2686220057
 30
0.0
 11
1362.3275047567
 21
-310.9686220057
 31
0.0
  0
LINE
  5
1AB
100
AcDbEntity
  8
L1_120
  6
CONTINUOUS
 62
         7
100
AcDbLine
 10
1362.3275047567
 20
-307.1686220057
 30
0.0
 11
1362.3275047567
 21
-310.9686220057
 31
0.0
  0
LINE
  5
1AC
100
AcDbEntity
  8
L1_120
  6
CONTINUOUS
 62
         7
100
AcDbLine
 10
1362.8275047567
 20
-306.6686220057
 30
0.0
 11
1362.3275047567
 21
-307.1686220057
 31
0.0
  0
LINE
  5
1AD
100
AcDbEntity
  8
L1_120
  6
CONTINUOUS
 62
         7
100
AcDbLine
 10
1351.8275047567
 20
-306.6686220057
 30
0.0
 11
1352.3275047567
 21
-307.1686220057
 31
0.0
  0
LINE
  5
1AE
100
AcDbEntity
  8
L1_120
  6
CONTINUOUS
 62
         7
100
AcDbLine
 10
1352.3275047567
 20
-307.1686220057
 30
0.0
 11
1352.3275047567
 21
-310.9686220057
 31
0.0
  0
LINE
  5
1AF
100
AcDbEntity
  8
L1_120
  6
CONTINUOUS
 62
         7
100
AcDbLine
 10
1352.3275047567
 20
-310.9686220057
 30
0.0
 11
1352.6275047567
 21
-311.2686220057
 31
0.0
  0
LINE
  5
1B0
100
AcDbEntity
  8
L1_120
  6
CONTINUOUS
 62
         7
100
AcDbLine
 10
1352.3275047567
 20
-310.9686220057
 30
0.0
 11
1362.3275047567
 21
-310.9686220057
 31
0.0
  0
LINE
  5
1B1
100
AcDbEntity
  8
L1_120
  6
CONTINUOUS
 62
         7
100
AcDbLine
 10
1352.3275047567
 20
-307.1686220057
 30
0.0
 11
1362.3275047567
 21
-307.1686220057
 31
0.0
  0
LINE
  5
1B2
100
AcDbEntity
  8
L1_120
  6
CONTINUOUS
 62
         7
100
AcDbLine
 10
1362.0275047567
 20
-311.2686220057
 30
0.0
 11
1352.6275047567
 21
-311.2686220057
 31
0.0
  0
LINE
  5
1B3
100
AcDbEntity
  8
L1_120
  6
CENTER
 62
         1
100
AcDbLine
 10
1357.3275047567
 20
-306.0076213902
 30
0.0
 11
1357.3275047567
 21
-312.33501452
 31
0.0
  0
LINE
  5
1B4
100
AcDbEntity
  8
L1_120
  6
CONTINUOUS
 62
         7
100
AcDbLine
 10
1362.8275047567
 20
-306.6686220057
 30
0.0
 11
1351.8275047567
 21
-306.6686220057
 31
0.0
  0
LINE
  5
1B5
100
AcDbEntity
  8
L1_120
  6
CONTINUOUS
 62
         7
100
AcDbLine
 10
1251.7337190816
 20
-235.3182614088
 30
0.0
 11
1250.2422525557
 21
-238.260309965
 31
0.0
  0
ARC
  5
1B6
100
AcDbEntity
  8
L1_120
  6
CONTINUOUS
 62
         7
100
AcDbCircle
 10
1249.2241944393
 20
-233.9098846934
 30
0.0
 40
2.8777197789
100
AcDbArc
 50
330.695675656
 51
451.1464599482
  0
LINE
  5
1B7
100
AcDbEntity
  8
L1_120
  6
CONTINUOUS
 62
         7
100
AcDbLine
 10
1246.9777020639
 20
-231.0327409862
 30
0.0
 11
1249.1666165454
 21
-231.0327409862
 31
0.0
  0
LINE
  5
1B8
100
AcDbEntity
  8
L1_120
  6
CONTINUOUS
 62
         7
100
AcDbLine
 10
1251.7337190816
 20
-214.4072205636
 30
0.0
 11
1250.2422525557
 21
-211.4651720075
 31
0.0
  0
ARC
  5
1B9
100
AcDbEntity
  8
L1_120
  6
CONTINUOUS
 62
         7
100
AcDbCircle
 10
1249.2241944393
 20
-215.815597279
 30
0.0
 40
2.8777197789
100
AcDbArc
 50
268.8535400518
 51
389.304324344
  0
LINE
  5
1BA
100
AcDbEntity
  8
L1_120
  6
CONTINUOUS
 62
         7
100
AcDbLine
 10
1246.9777020639
 20
-218.6927409862
 30
0.0
 11
1249.1268971601
 21
-218.6927409862
 31
0.0
  0
LINE
  5
1BB
100
AcDbEntity
  8
L1_120
  6
CENTER
 62
         1
100
AcDbLine
 10
1249.1268971601
 20
-214.3434608781
 30
0.0
 11
1249.1268971601
 21
-218.7935208125
 31
0.0
  0
LINE
  5
1BC
100
AcDbEntity
  8
L1_120
  6
CENTER
 62
         1
100
AcDbLine
 10
1247.7600560979
 20
-215.7127409862
 30
0.0
 11
1252.1000754711
 21
-215.7127409862
 31
0.0
  0
LINE
  5
1BD
100
AcDbEntity
  8
L1_120
  6
CENTER
 62
         1
100
AcDbLine
 10
1249.1268971601
 20
-235.3820210943
 30
0.0
 11
1249.1268971601
 21
-230.9319611599
 31
0.0
  0
LINE
  5
1BE
100
AcDbEntity
  8
L1_120
  6
CENTER
 62
         1
100
AcDbLine
 10
1247.2744602762
 20
-234.0127409862
 30
0.0
 11
1251.252440298
 21
-234.0127409862
 31
0.0
  0
ARC
  5
1BF
100
AcDbEntity
  8
L1_120
  6
CONTINUOUS
 62
         7
100
AcDbCircle
 10
1231.1368971601
 20
-224.8627409862
 30
0.0
 40
23.3347264679
100
AcDbArc
 50
324.9600647154
 51
395.0399352845
  0
ARC
  5
1C0
100
AcDbEntity
  8
L1_120
  6
CONTINUOUS
 62
         7
100
AcDbCircle
 10
1231.1368971601
 20
-224.8627409862
 30
0.0
 40
22.715
100
AcDbArc
 50
202.7223719759
 51
337.2776280241
  0
ARC
  5
1C1
100
AcDbEntity
  8
L1_120
  6
CONTINUOUS
 62
         7
100
AcDbCircle
 10
1231.1368971601
 20
-224.8627409862
 30
0.0
 40
22.715
100
AcDbArc
 50
22.7223719759
 51
157.2776280241
  0
LINE
  5
1C2
100
AcDbEntity
  8
L1_120
  6
CONTINUOUS
 62
         7
100
AcDbLine
 10
1210.5400752387
 20
-235.3182614088
 30
0.0
 11
1212.0315417646
 21
-238.260309965
 31
0.0
  0
ARC
  5
1C3
100
AcDbEntity
  8
L1_120
  6
CONTINUOUS
 62
         7
100
AcDbCircle
 10
1213.0495998809
 20
-233.9098846934
 30
0.0
 40
2.8777197789
100
AcDbArc
 50
88.8535400518
 51
209.304324344
  0
LINE
  5
1C4
100
AcDbEntity
  8
L1_120
  6
CONTINUOUS
 62
         7
100
AcDbLine
 10
1215.2960922563
 20
-231.0327409862
 30
0.0
 11
1213.1071777749
 21
-231.0327409862
 31
0.0
  0
LINE
  5
1C5
100
AcDbEntity
  8
L1_120
  6
CONTINUOUS
 62
         7
100
AcDbLine
 10
1210.5400752387
 20
-214.4072205636
 30
0.0
 11
1212.0315417646
 21
-211.4651720075
 31
0.0
  0
ARC
  5
1C6
100
AcDbEntity
  8
L1_120
  6
CONTINUOUS
 62
         7
100
AcDbCircle
 10
1213.0495998809
 20
-215.815597279
 30
0.0
 40
2.8777197789
100
AcDbArc
 50
150.695675656
 51
271.1464599482
  0
LINE
  5
1C7
100
AcDbEntity
  8
L1_120
  6
CONTINUOUS
 62
         7
100
AcDbLine
 10
1215.2960922563
 20
-218.6927409862
 30
0.0
 11
1213.1468971601
 21
-218.6927409862
 31
0.0
  0
LINE
  5
1C8
100
AcDbEntity
  8
L1_120
  6
CENTER
 62
         1
100
AcDbLine
 10
1213.1468971601
 20
-214.3434608781
 30
0.0
 11
1213.1468971601
 21
-218.7935208125
 31
0.0
  0
LINE
  5
1C9
100
AcDbEntity
  8
L1_120
  6
CENTER
 62
         1
100
AcDbLine
 10
1214.5137382223
 20
-215.7127409862
 30
0.0
 11
1210.1737188492
 21
-215.7127409862
 31
0.0
  0
LINE
  5
1CA
100
AcDbEntity
  8
L1_120
  6
CENTER
 62
         1
100
AcDbLine
 10
1213.1468971601
 20
-235.3820210943
 30
0.0
 11
1213.1468971601
 21
-230.9319611599
 31
0.0
  0
LINE
  5
1CB
100
AcDbEntity
  8
L1_120
  6
CENTER
 62
         1
100
AcDbLine
 10
1214.9993340441
 20
-234.0127409862
 30
0.0
 11
1211.0213540223
 21
-234.0127409862
 31
0.0
  0
ARC
  5
1CC
100
AcDbEntity
  8
L1_120
  6
CONTINUOUS
 62
         7
100
AcDbCircle
 10
1231.1368971601
 20
-224.8627409862
 30
0.0
 40
23.3347264679
100
AcDbArc
 50
144.9600647155
 51
215.0399352845
  0
CIRCLE
  5
1CD
100
AcDbEntity
  8
L1_120
  6
CONTINUOUS
 62
         7
100
AcDbCircle
 10
1231.1368971601
 20
-224.8627409862
 30
0.0
 40
4.0
  0
CIRCLE
  5
1CE
100
AcDbEntity
  8
L1_120
  6
CONTINUOUS
 62
         7
100
AcDbCircle
 10
1231.1368971601
 20
-224.8627409862
 30
0.0
 40
8.5
  0
ARC
  5
1CF
100
AcDbEntity
  8
L1_120
  6
CONTINUOUS
 62
         5
100
AcDbCircle
 10
1231.1368971601
 20
-224.8627409862
 30
0.0
 40
9.0
100
AcDbArc
 50
278.0509996909
 51
548.1955418149
  0
CIRCLE
  5
1D0
100
AcDbEntity
  8
L1_120
  6
CONTINUOUS
 62
         7
100
AcDbCircle
 10
1231.1368971601
 20
-224.8627409862
 30
0.0
 40
17.0
  0
LINE
  5
1D1
100
AcDbEntity
  8
L1_120
  6
CENTER
 62
         1
100
AcDbLine
 10
1210.8627027726
 20
-214.6192910334
 30
0.0
 11
1251.4110915477
 21
-235.1061909391
 31
0.0
  0
LINE
  5
1D2
100
AcDbEntity
  8
L1_120
  6
CENTER
 62
         1
100
AcDbLine
 10
1210.8627027726
 20
-235.1061909391
 30
0.0
 11
1251.4110915477
 21
-214.6192910334
 31
0.0
  0
CIRCLE
  5
1D3
100
AcDbEntity
  8
L1_120
  6
CONTINUOUS
 62
         7
100
AcDbCircle
 10
1231.1368971601
 20
-224.8627409862
 30
0.0
 40
31.5
  0
CIRCLE
  5
1D4
100
AcDbEntity
  8
L1_120
  6
CONTINUOUS
 62
         7
100
AcDbCircle
 10
1231.1368971601
 20
-224.8627409862
 30
0.0
 40
24.215
  0
LINE
  5
1D5
100
AcDbEntity
  8
L1_120
  6
CONTINUOUS
 62
         7
100
AcDbLine
 10
1430.3375047567
 20
-217.7005607811
 30
0.0
 11
1430.3375047567
 21
-230.8517797978
 31
0.0
  0
DIMENSION
  5
1D9
100
AcDbEntity
  8
L1_120
  6
CONTINUOUS
 62
         4
100
AcDbDimension
  2
*D0
 10
1459.2521495747
 20
-214.3141702895
 30
0.0
 11
1456.6271495747
 21
-211.1526132125
 31
0.0
  3
DIMSTYLE1
100
AcDbAlignedDimension
 13
1393.2226807224
 23
-214.3141702895
 33
0.0
 14
1393.2226807224
 24
-234.2381702895
 34
0.0
 50
90.0
100
AcDbRotatedDimension
  0
ARC
  5
1E7
100
AcDbEntity
  8
L1_120
  6
CONTINUOUS
 62
         7
100
AcDbCircle
 10
1379.3275047567
 20
-237.2381702895
 30
0.0
 40
3.0
100
AcDbArc
 50
90.0
 51
180.0
  0
ARC
  5
1E8
100
AcDbEntity
  8
L1_120
  6
CONTINUOUS
 62
         7
100
AcDbCircle
 10
1379.3275047567
 20
-211.3141702895
 30
0.0
 40
3.0
100
AcDbArc
 50
180.0
 51
270.0
  0
LINE
  5
1E9
100
AcDbEntity
  8
L1_120
  6
CONTINUOUS
 62
         7
100
AcDbLine
 10
1379.3275047567
 20
-234.2381702895
 30
0.0
 11
1399.0548286963
 21
-234.2381702895
 31
0.0
  0
LINE
  5
1EA
100
AcDbEntity
  8
L1_120
  6
CONTINUOUS
 62
         7
100
AcDbLine
 10
1379.3275047567
 20
-214.3141702895
 30
0.0
 11
1399.0548286963
 21
-214.3141702895
 31
0.0
  0
LINE
  5
1EB
100
AcDbEntity
  8
L1_120
  6
CONTINUOUS
 62
         7
100
AcDbLine
 10
1429.4159638525
 20
-216.7036434474
 30
0.0
 11
1399.0548286963
 21
-214.3141702895
 31
0.0
  0
DIMENSION
  5
1EE
100
AcDbEntity
  8
L1_120
  6
CONTINUOUS
 62
         4
100
AcDbDimension
  2
*D1
 10
1399.0548286963
 20
-214.3141702895
 30
0.0
 11
1413.8522016241
 21
-207.1240329066
 31
0.0
 70
         2
  3
DIMSTYLE1
100
AcDb2LineAngularDimension
 13
1385.1596527306
 23
-214.3141702895
 33
0.0
 14
1399.0548286963
 24
-214.3141702895
 34
0.0
 15
1434.3265709221
 25
-217.0901166053
 35
0.0
 16
1410.9275089727
 26
-221.9867512187
 36
0.0
  0
LINE
  5
1FD
100
AcDbEntity
  8
L1_120
  6
CONTINUOUS
 62
         4
100
AcDbLine
 10
1399.0548286963
 20
-214.3141702895
 30
0.0
 11
1399.0548286963
 21
-234.2381702895
 31
0.0
  0
LINE
  5
1FE
100
AcDbEntity
  8
L1_120
  6
CONTINUOUS
 62
         7
100
AcDbLine
 10
1429.4159638525
 20
-231.8486971316
 30
0.0
 11
1399.0548286963
 21
-234.2381702895
 31
0.0
  0
ARC
  5
1FF
100
AcDbEntity
  8
L1_120
  6
CONTINUOUS
 62
         7
100
AcDbCircle
 10
1429.3375047567
 20
-217.7005607811
 30
0.0
 40
1.0
100
AcDbArc
 50
0.0
 51
85.5
  0
ARC
  5
200
100
AcDbEntity
  8
L1_120
  6
CONTINUOUS
 62
         7
100
AcDbCircle
 10
1429.3375047567
 20
-230.8517797978
 30
0.0
 40
1.0
100
AcDbArc
 50
274.5
 51
360.0
  0
DIMENSION
  5
203
100
AcDbEntity
  8
L1_120
  6
CONTINUOUS
 62
         4
100
AcDbDimension
  2
*D2
 10
1449.515960099
 20
-216.7761702895
 30
0.0
 11
1445.455960099
 21
-211.139669808
 31
0.0
  3
DIMSTYLE1
100
AcDbAlignedDimension
 13
1430.3375047567
 23
-216.7761702895
 33
0.0
 14
1430.3375047567
 24
-231.7761702895
 34
0.0
 50
90.0
100
AcDbRotatedDimension
  0
LINE
  5
210
100
AcDbEntity
  8
L1_120
  6
DASHED
 62
         2
100
AcDbLine
 10
1513.9932726503
 20
-235.4903663288
 30
0.0
 11
1512.1618729934
 21
-236.3443620139
 31
0.0
  0
LINE
  5
211
100
AcDbEntity
  8
L1_120
  6
DASHED
 62
         2
100
AcDbLine
 10
1515.6485544368
 20
-236.6494071135
 30
0.0
 11
1513.9932726503
 21
-235.4903663288
 31
0.0
  0
LINE
  5
212
100
AcDbEntity
  8
L1_120
  6
DASHED
 62
         2
100
AcDbLine
 10
1509.6626862423
 20
-234.1249376792
 30
0.0
 11
1507.6419603001
 21
-234.1249376792
 31
0.0
  0
LINE
  5
213
100
AcDbEntity
  8
L1_120
  6
DASHED
 62
         2
100
AcDbLine
 10
1510.6730492133
 20
-235.8749376792
 30
0.0
 11
1509.6626862423
 21
-234.1249376792
 31
0.0
  0
LINE
  5
214
100
AcDbEntity
  8
L1_120
  6
DASHED
 62
         2
100
AcDbLine
 10
1520.9241133823
 20
-233.6332531517
 30
0.0
 11
1520.0701176972
 21
-235.4646528086
 31
0.0
  0
LINE
  5
215
100
AcDbEntity
  8
L1_120
  6
DASHED
 62
         2
100
AcDbLine
 10
1522.9371498522
 20
-233.4571352814
 30
0.0
 11
1520.9241133823
 21
-233.6332531517
 31
0.0
  0
LINE
  5
216
100
AcDbEntity
  8
L1_120
  6
DASHED
 62
         2
100
AcDbLine
 10
1517.622422596
 20
-235.1728568503
 30
0.0
 11
1516.1935535794
 21
-236.6017258669
 31
0.0
  0
LINE
  5
217
100
AcDbEntity
  8
L1_120
  6
DASHED
 62
         2
100
AcDbLine
 10
1519.5742939714
 20
-235.695859209
 30
0.0
 11
1517.622422596
 21
-235.1728568503
 31
0.0
  0
LINE
  5
218
100
AcDbEntity
  8
L1_120
  6
DASHED
 62
         2
100
AcDbLine
 10
1512.1618729934
 20
-236.3443620139
 30
0.0
 11
1515.6485544368
 21
-236.6494071135
 31
0.0
  0
LINE
  5
219
100
AcDbEntity
  8
L1_120
  6
DASHED
 62
         2
100
AcDbLine
 10
1507.6419603001
 20
-234.1249376792
 30
0.0
 11
1510.6730492133
 21
-235.8749376792
 31
0.0
  0
LINE
  5
21A
100
AcDbEntity
  8
L1_120
  6
DASHED
 62
         2
100
AcDbLine
 10
1516.1935535794
 20
-236.6017258669
 30
0.0
 11
1519.5742939714
 21
-235.695859209
 31
0.0
  0
LINE
  5
21B
100
AcDbEntity
  8
L1_120
  6
DASHED
 62
         2
100
AcDbLine
 10
1520.0701176972
 20
-235.4646528086
 30
0.0
 11
1522.9371498522
 21
-233.4571352814
 31
0.0
  0
CIRCLE
  5
21C
100
AcDbEntity
  8
L1_120
  6
CONTINUOUS
 62
         7
100
AcDbCircle
 10
1514.9075047567
 20
-225.0406455357
 30
0.0
 40
10.541
  0
CIRCLE
  5
21D
100
AcDbEntity
  8
L1_120
  6
CONTINUOUS
 62
         7
100
AcDbCircle
 10
1514.9075047567
 20
-225.0406455357
 30
0.0
 40
2.3758
  0
CIRCLE
  5
21E
100
AcDbEntity
  8
L1_120
  6
CONTINUOUS
 62
         7
100
AcDbCircle
 10
1514.9075047567
 20
-225.0406455357
 30
0.0
 40
7.5
  0
LINE
  5
21F
100
AcDbEntity
  8
L1_120
  6
CONTINUOUS
 62
         7
100
AcDbLine
 10
1372.3275047567
 20
-334.1686220057
 30
0.0
 11
1419.3997724495
 21
-334.1686220057
 31
0.0
  0
LINE
  5
220
100
AcDbEntity
  8
L1_120
  6
CONTINUOUS
 62
         7
100
AcDbLine
 10
1372.3275047567
 20
-342.1686220057
 30
0.0
 11
1419.3997724495
 21
-342.1686220057
 31
0.0
  0
DIMENSION
  5
223
100
AcDbEntity
  8
L1_120
  6
CONTINUOUS
 62
         4
100
AcDbDimension
  2
*D3
 10
1318.3275047567
 20
-159.7086369014
 30
0.0
 11
1367.0105097706
 21
-157.0836369014
 31
0.0
  3
DIMSTYLE1
100
AcDbAlignedDimension
 13
1318.3275047567
 23
-202.7026693532
 33
0.0
 14
1430.3375047567
 24
-219.0839512728
 34
0.0
100
AcDbRotatedDimension
  0
DIMENSION
  5
231
100
AcDbEntity
  8
L1_120
  6
CONTINUOUS
 62
         4
100
AcDbDimension
  2
*D4
 10
1350.3275047567
 20
-177.530466851
 30
0.0
 11
1387.0415252177
 21
-174.905466851
 31
0.0
  3
DIMSTYLE1
100
AcDbAlignedDimension
 13
1350.3275047567
 23
-193.7761702895
 33
0.0
 14
1430.3375047567
 24
-219.0839512728
 34
0.0
100
AcDbRotatedDimension
  0
LINE
  5
23D
100
AcDbEntity
  8
L1_120
  6
CONTINUOUS
 62
         7
100
AcDbLine
 10
1376.3275047567
 20
-325.2066220057
 30
0.0
 11
1376.3275047567
 21
-307.6686220057
 31
0.0
  0
LINE
  5
23E
100
AcDbEntity
  8
L1_120
  6
CONTINUOUS
 62
         7
100
AcDbLine
 10
1375.3275047567
 20
-306.6686220057
 30
0.0
 11
1374.3275047567
 21
-306.6686220057
 31
0.0
  0
ARC
  5
23F
100
AcDbEntity
  8
L1_120
  6
CONTINUOUS
 62
         7
100
AcDbCircle
 10
1375.3275047567
 20
-307.6686220057
 30
0.0
 40
1.0
100
AcDbArc
 50
0.0
 51
90.0
  0
ARC
  5
240
100
AcDbEntity
  8
L1_120
  6
CONTINUOUS
 62
         7
100
AcDbCircle
 10
1429.3375047567
 20
-341.5444220057
 30
0.0
 40
1.0
100
AcDbArc
 50
0.0
 51
90.0
  0
ARC
  5
241
100
AcDbEntity
  8
L1_120
  6
CONTINUOUS
 62
         7
100
AcDbCircle
 10
1429.3375047567
 20
-334.7928220057
 30
0.0
 40
1.0
100
AcDbArc
 50
270.0
 51
360.0
  0
LINE
  5
242
100
AcDbEntity
  8
L1_120
  6
CONTINUOUS
 62
         4
100
AcDbLine
 10
1429.3375047567
 20
-335.7928220057
 30
0.0
 11
1429.3375047567
 21
-340.5444220057
 31
0.0
  0
LINE
  5
243
100
AcDbEntity
  8
L1_120
  6
CONTINUOUS
 62
         7
100
AcDbLine
 10
1420.3375047567
 20
-335.7928220057
 30
0.0
 11
1420.3375047567
 21
-340.5444220057
 31
0.0
  0
DIMENSION
  5
246
100
AcDbEntity
  8
L1_120
  6
CONTINUOUS
 62
         4
100
AcDbDimension
  2
*D5
 10
1420.3375047567
 20
-365.5919400033
 30
0.0
 11
1405.900807305
 21
-361.5319400033
 31
0.0
  3
DIMSTYLE1
100
AcDbAlignedDimension
 13
1420.3375047567
 23
-340.8786220057
 33
0.0
 14
1430.3375047567
 24
-342.398657439
 34
0.0
100
AcDbRotatedDimension
  0
LINE
  5
253
100
AcDbEntity
  8
L1_120
  6
CONTINUOUS
 62
         7
100
AcDbLine
 10
1372.3275047567
 20
-334.1686220057
 30
0.0
 11
1419.3997724495
 21
-334.1686220057
 31
0.0
  0
LINE
  5
254
100
AcDbEntity
  8
L1_120
  6
CONTINUOUS
 62
         7
100
AcDbLine
 10
1372.3275047567
 20
-342.1686220057
 30
0.0
 11
1419.3997724495
 21
-342.1686220057
 31
0.0
  0
LINE
  5
255
100
AcDbEntity
  8
L1_120
  6
CONTINUOUS
 62
         7
100
AcDbLine
 10
1420.3375047567
 20
-335.7928220057
 30
0.0
 11
1429.3375047567
 21
-335.7928220057
 31
0.0
  0
LINE
  5
256
100
AcDbEntity
  8
L1_120
  6
CONTINUOUS
 62
         7
100
AcDbLine
 10
1420.3375047567
 20
-340.5444220057
 30
0.0
 11
1429.3375047567
 21
-340.5444220057
 31
0.0
  0
LINE
  5
257
100
AcDbEntity
  8
L1_120
  6
CONTINUOUS
 62
         7
100
AcDbLine
 10
1419.3997724495
 20
-334.1686220057
 30
0.0
 11
1420.3375047567
 21
-335.7928220057
 31
0.0
  0
LINE
  5
258
100
AcDbEntity
  8
L1_120
  6
CONTINUOUS
 62
         7
100
AcDbLine
 10
1419.3997724495
 20
-342.1686220057
 30
0.0
 11
1420.3375047567
 21
-340.5444220057
 31
0.0
  0
ARC
  5
259
100
AcDbEntity
  8
L1_120
  6
CONTINUOUS
 62
         7
100
AcDbCircle
 10
1379.3275047567
 20
-325.2066220057
 30
0.0
 40
3.0
100
AcDbArc
 50
180.0
 51
270.0
  0
ARC
  5
25A
100
AcDbEntity
  8
L1_120
  6
CONTINUOUS
 62
         7
100
AcDbCircle
 10
1379.3275047567
 20
-351.1306220057
 30
0.0
 40
3.0
100
AcDbArc
 50
90.0
 51
180.0
  0
LINE
  5
25B
100
AcDbEntity
  8
L1_120
  6
CONTINUOUS
 62
         7
100
AcDbLine
 10
1379.3275047567
 20
-328.2066220057
 30
0.0
 11
1399.0548286963
 21
-328.2066220057
 31
0.0
  0
LINE
  5
25C
100
AcDbEntity
  8
L1_120
  6
CONTINUOUS
 62
         7
100
AcDbLine
 10
1379.3275047567
 20
-348.1306220057
 30
0.0
 11
1399.0548286963
 21
-348.1306220057
 31
0.0
  0
LINE
  5
25D
100
AcDbEntity
  8
L1_120
  6
CONTINUOUS
 62
         7
100
AcDbLine
 10
1429.4159638525
 20
-330.5960951636
 30
0.0
 11
1399.0548286963
 21
-328.2066220057
 31
0.0
  0
ARC
  5
25E
100
AcDbEntity
  8
L1_120
  6
CONTINUOUS
 62
         7
100
AcDbCircle
 10
1429.3375047567
 20
-331.5930124974
 30
0.0
 40
1.0
100
AcDbArc
 50
0.0
 51
85.5
  0
LINE
  5
25F
100
AcDbEntity
  8
L1_120
  6
CONTINUOUS
 62
         7
100
AcDbLine
 10
1430.3375047567
 20
-331.5930124974
 30
0.0
 11
1430.3375047567
 21
-344.7442315141
 31
0.0
  0
LINE
  5
260
100
AcDbEntity
  8
L1_120
  6
CONTINUOUS
 62
         7
100
AcDbLine
 10
1429.4159638525
 20
-345.7411488478
 30
0.0
 11
1399.0548286963
 21
-348.1306220057
 31
0.0
  0
ARC
  5
261
100
AcDbEntity
  8
L1_120
  6
CONTINUOUS
 62
         7
100
AcDbCircle
 10
1429.3375047567
 20
-344.7442315141
 30
0.0
 40
1.0
100
AcDbArc
 50
274.5
 51
360.0
  0
LINE
  5
262
100
AcDbEntity
  8
L1_120
  6
CONTINUOUS
 62
         7
100
AcDbLine
 10
1419.3997724495
 20
-334.1686220057
 30
0.0
 11
1419.3997724495
 21
-342.1686220057
 31
0.0
  0
LINE
  5
263
100
AcDbEntity
  8
L1_120
  6
CONTINUOUS
 62
         7
100
AcDbLine
 10
1376.3275047567
 20
-368.6686220057
 30
0.0
 11
1376.3275047567
 21
-351.1306220057
 31
0.0
  0
ARC
  5
264
100
AcDbEntity
  8
L1_120
  6
CONTINUOUS
 62
         7
100
AcDbCircle
 10
1375.3275047567
 20
-368.6686220057
 30
0.0
 40
1.0
100
AcDbArc
 50
270.0
 51
360.0
  0
INSERT
  5
2AD
100
AcDbEntity
  8
0
  6
CONTINUOUS
100
AcDbBlockReference
  2
*X6
 10
0.0
 20
0.0
 30
0.0
  0
ENDSEC
  0
SECTION
  2
OBJECTS
  0
DICTIONARY
  5
19
100
AcDbDictionary
  3
ACAD_GROUP
350
1A
  3
ACAD_MLINESTYLE
350
1B
  0
DICTIONARY
  5
1A
102
{ACAD_REACTORS
330
19
102
}
100
AcDbDictionary
  0
DICTIONARY
  5
1B
102
{ACAD_REACTORS
330
19
102
}
100
AcDbDictionary
  3
STANDARD
350
1C
  0
MLINESTYLE
  5
1C
102
{ACAD_REACTORS
330
1B
102
}
100
AcDbMlineStyle
  2
STANDARD
 70
         0
  3

 62
         0
 51
90.0
 52
90.0
 71
         2
 49
0.5
 62
       256
  6
BYLAYER
 49
-0.5
 62
       256
  6
BYLAYER
  0
ENDSEC
  0
EOF
