  0
SECTION
  2
HEADER
  9
$ACADVER
  1
AC1014
  9
$ACADMAINTVER
 70
         0
  9
$DWGCODEPAGE
  3
BIG5
  9
$INSBASE
 10
0.0
 20
0.0
 30
0.0
  9
$EXTMIN
 10
1125.5613970495
 20
-383.8472690632
 30
0.0
  9
$EXTMAX
 10
1697.6734155339
 20
-104.5608846958
 30
0.0
  9
$LIMMIN
 10
0.0
 20
0.0
  9
$LIMMAX
 10
0.0
 20
0.0
  9
$ORTHOMODE
 70
         0
  9
$REGENMODE
 70
         1
  9
$FILLMODE
 70
         1
  9
$QTEXTMODE
 70
         0
  9
$MIRRTEXT
 70
         1
  9
$DRAGMODE
 70
         2
  9
$LTSCALE
 40
1.0
  9
$OSMODE
 70
         0
  9
$ATTMODE
 70
         1
  9
$TEXTSIZE
 40
1.7
  9
$TRACEWID
 40
0.05
  9
$TEXTSTYLE
  7
STANDARD
  9
$CLAYER
  8
0
  9
$CELTYPE
  6
CONTINUOUS
  9
$CECOLOR
 62
        16
  9
$CELTSCALE
 40
1.0
  9
$DELOBJ
 70
         1
  9
$DISPSILH
 70
         0
  9
$DIMSCALE
 40
1.0
  9
$DIMASZ
 40
0.18
  9
$DIMEXO
 40
0.0625
  9
$DIMDLI
 40
0.38
  9
$DIMRND
 40
0.0
  9
$DIMDLE
 40
0.0
  9
$DIMEXE
 40
0.25
  9
$DIMTP
 40
0.01
  9
$DIMTM
 40
-0.01
  9
$DIMTXT
 40
2.7
  9
$DIMCEN
 40
0.09
  9
$DIMTSZ
 40
0.0
  9
$DIMTOL
 70
         0
  9
$DIMLIM
 70
         0
  9
$DIMTIH
 70
         1
  9
$DIMTOH
 70
         1
  9
$DIMSE1
 70
         0
  9
$DIMSE2
 70
         0
  9
$DIMTAD
 70
         0
  9
$DIMZIN
 70
         0
  9
$DIMBLK
  1

  9
$DIMASO
 70
         1
  9
$DIMSHO
 70
         1
  9
$DIMPOST
  1

  9
$DIMAPOST
  1

  9
$DIMALT
 70
         0
  9
$DIMALTD
 70
         2
  9
$DIMALTF
 40
25.4
  9
$DIMLFAC
 40
1.0
  9
$DIMTOFL
 70
         0
  9
$DIMTVP
 40
0.0
  9
$DIMTIX
 70
         0
  9
$DIMSOXD
 70
         0
  9
$DIMSAH
 70
         0
  9
$DIMBLK1
  1

  9
$DIMBLK2
  1

  9
$DIMSTYLE
  2
STANDARD
  9
$DIMCLRD
 70
         0
  9
$DIMCLRE
 70
         0
  9
$DIMCLRT
 70
        16
  9
$DIMTFAC
 40
1.0
  9
$DIMGAP
 40
0.09
  9
$DIMJUST
 70
         0
  9
$DIMSD1
 70
         0
  9
$DIMSD2
 70
         0
  9
$DIMTOLJ
 70
         1
  9
$DIMTZIN
 70
         0
  9
$DIMALTZ
 70
         0
  9
$DIMALTTZ
 70
         0
  9
$DIMFIT
 70
         3
  9
$DIMUPT
 70
         0
  9
$DIMUNIT
 70
         2
  9
$DIMDEC
 70
         4
  9
$DIMTDEC
 70
         4
  9
$DIMALTU
 70
         2
  9
$DIMALTTD
 70
         2
  9
$DIMTXSTY
  7
STANDARD
  9
$DIMAUNIT
 70
         0
  9
$LUNITS
 70
         2
  9
$LUPREC
 70
        10
  9
$SKETCHINC
 40
0.1
  9
$FILLETRAD
 40
0.0
  9
$AUNITS
 70
         0
  9
$AUPREC
 70
         0
  9
$MENU
  1
acad
  9
$ELEVATION
 40
0.0
  9
$PELEVATION
 40
0.0
  9
$THICKNESS
 40
0.0
  9
$LIMCHECK
 70
         0
  9
$BLIPMODE
 70
         1
  9
$CHAMFERA
 40
0.0
  9
$CHAMFERB
 40
0.0
  9
$CHAMFERC
 40
0.0
  9
$CHAMFERD
 40
0.0
  9
$SKPOLY
 70
         0
  9
$TDCREATE
 40
0.000000000
  9
$TDUPDATE
 40
0.000000000
  9
$TDINDWG
 40
0.0000000000
  9
$TDUSRTIMER
 40
0.0000000000
  9
$USRTIMER
 70
         1
  9
$ANGBASE
 50
0.0
  9
$ANGDIR
 70
         0
  9
$PDMODE
 70
         2
  9
$PDSIZE
 40
0.0
  9
$PLINEWID
 40
0.0
  9
$COORDS
 70
         0
  9
$SPLFRAME
 70
         0
  9
$SPLINETYPE
 70
         6
  9
$SPLINESEGS
 70
         8
  9
$ATTDIA
 70
         0
  9
$ATTREQ
 70
         1
  9
$HANDLING
 70
         1
  9
$HANDSEED
  5
385
  9
$SURFTAB1
 70
         6
  9
$SURFTAB2
 70
         6
  9
$SURFTYPE
 70
         6
  9
$SURFU
 70
         6
  9
$SURFV
 70
         6
  9
$UCSNAME
  2

  9
$UCSORG
 10
0.0
 20
0.0
 30
0.0
  9
$UCSXDIR
 10
1.0
 20
0.0
 30
0.0
  9
$UCSYDIR
 10
0.0
 20
1.0
 30
0.0
  9
$PUCSNAME
  2

  9
$PUCSORG
 10
0.0
 20
0.0
 30
0.0
  9
$PUCSXDIR
 10
1.0
 20
0.0
 30
0.0
  9
$PUCSYDIR
 10
0.0
 20
1.0
 30
0.0
  9
$USERI1
 70
         0
  9
$USERI2
 70
         0
  9
$USERI3
 70
         0
  9
$USERI4
 70
         0
  9
$USERI5
 70
         0
  9
$USERR1
 40
0.0
  9
$USERR2
 40
0.0
  9
$USERR3
 40
0.0
  9
$USERR4
 40
0.0
  9
$USERR5
 40
0.0
  9
$WORLDVIEW
 70
         1
  9
$SHADEDGE
 70
         3
  9
$SHADEDIF
 70
        70
  9
$TILEMODE
 70
         1
  9
$MAXACTVP
 70
        16
  9
$PINSBASE
 10
0.0
 20
0.0
 30
0.0
  9
$PLIMCHECK
 70
         0
  9
$PEXTMIN
 10
1.0000000000E+20
 20
1.0000000000E+20
 30
1.0000000000E+20
  9
$PEXTMAX
 10
-1.0000000000E+20
 20
-1.0000000000E+20
 30
-1.0000000000E+20
  9
$PLIMMIN
 10
0.0
 20
0.0
  9
$PLIMMAX
 10
12.0
 20
9.0
  9
$UNITMODE
 70
         0
  9
$VISRETAIN
 70
         0
  9
$PLINEGEN
 70
         1
  9
$PSLTSCALE
 70
         0
  9
$TREEDEPTH
 70
      3020
  9
$PICKSTYLE
 70
         1
  9
$CMLSTYLE
  2
STANDARD
  9
$CMLJUST
 70
         0
  9
$CMLSCALE
 40
1.0
  9
$PROXYGRAPHICS
 70
         0
  9
$MEASUREMENT
 70
         0
  0
ENDSEC
  0
SECTION
  2
CLASSES
  0
CLASS
  1
LWPOLYLINE
  2
AcDbPolyline
  3
"AutoCAD"
 90
        0
280
         0
281
         1
  0
CLASS
  1
IMAGE
  2
AcDbRasterImage
  3
ISM
 90
      127
280
         0
281
         1
  0
CLASS
  1
OLE2FRAME
  2
AcDbOle2Frame
  3
""
 90
        0
280
         0
281
         1
  0
CLASS
  1
HATCH
  2
AcDbHatch
  3
"ACAD_SEDONA"
 90
        0
280
         0
281
         1
  0
CLASS
  1
DICTIONARYVAR
  2
AcDbDictionaryVar
  3
"AutoCAD"
 90
        0
280
         0
281
         0
  0
CLASS
  1
RASTERVARIABLES
  2
AcDbRasterVariables
  3
ISM
 90
        0
280
         0
281
         0
  0
CLASS
  1
IMAGEDEF
  2
AcDbRasterImageDef
  3
ISM
 90
        0
280
         0
281
         0
  0
CLASS
  1
IMAGEDEF_REACTOR
  2
AcDbRasterImageDefReactor
  3
ISM
 90
        1
280
         0
281
         0
  0
CLASS
  1
IDBUFFER
  2
AcDbIdBuffer
  3
"Acad"
 90
        0
280
         0
281
         0
  0
CLASS
  1
SPATIAL_FILTER
  2
AcDbSpatialFilter
  3
"Acad"
 90
        0
280
         0
281
         0
  0
CLASS
  1
XRECORD
  2
AcDbXrecord
  3
"<Built In>"
 90
        0
280
         0
281
         0
  0
CLASS
  1
SORTENTSTABLE
  2
AcDbSortentsTable
  3
"AutoCAD"
 90
        0
280
         0
281
         0
  0
CLASS
  1
LAYER_INDEX
  2
AcDbLayerIndex
  3
"Acad"
 90
        0
280
         0
281
         0
  0
CLASS
  1
SPATIAL_INDEX
  2
AcDbSpatialIndex
  3
"Acad"
 90
        0
280
         0
281
         0
  0
CLASS
  1
OBJECT_PTR
  2
CAseDLPNTableRecord
  3
"ASE-LPNTableRecord"
 90
        1
280
         0
281
         0
  0
CLASS
  1
LAYOUT
  2
AcDbLayout
  3
"AutoCAD 2000"
 90
        1
280
         0
281
         0
  0
CLASS
  1
PLOTSETTINGS
  2
AcDbPlotSettings
  3
"AutoCAD 2000"
 90
        1
280
         0
281
         0
  0
CLASS
  1
ACDBDICTIONARYWDFLT
  2
AcDbDictionaryWithDefault
  3
"AutoCAD 2000"
 90
        1
280
         0
281
         0
  0
CLASS
  1
ACDBPLACEHOLDER
  2
AcDbPlaceHolder
  3
"AutoCAD 2000"
 90
        1
280
         0
281
         0
  0
CLASS
  1
VBA_PROJECT
  2
AcDbVbaProject
  3
"acadvba"
 90
        1
280
         0
281
         0
  0
CLASS
  1
WIPEOUT
  2
AcDbWipeout
  3
WipeOut|AutoCAD Express Tool|expresstools@autodesk.com
 90
      127
280
         0
281
         1
  0
CLASS
  1
WIPEOUTVARIABLES
  2
AcDbWipeoutVariables
  3
WipeOut|AutoCAD Express Tool|expresstools@autodesk.com
 90
        0
280
         0
281
         0
  0
CLASS
  1
RTEXT
  2
RText
  3
RText|AutoCAD Express Tool|expresstools@autodesk.com
 90
        0
280
         0
281
         1
  0
CLASS
  1
ARCALIGNEDTEXT
  2
AcDbArcAlignedText
  3
ATEXT|AutoCAD Express Tool|expresstools@autodesk.com
 90
        0
280
         0
281
         1
  0
ENDSEC
  0
SECTION
  2
TABLES
  0
TABLE
  2
VPORT
  5
7
100
AcDbSymbolTable
 70
         1
  0
VPORT
  5
15
100
AcDbSymbolTableRecord
100
AcDbViewportTableRecord
  2
*ACTIVE
 70
         0
 10
0.0
 20
0.0
 11
1.0
 21
1.0
 12
1411.6174062917
 22
-244.2040768795
 13
0.0
 23
0.0
 14
1.0
 24
1.0
 15
0.0
 25
0.0
 16
0.0
 26
0.0
 36
1.0
 17
0.0
 27
0.0
 37
0.0
 40
279.2863843674
 41
2.0484780158
 42
50.0
 43
0.0
 44
0.0
 50
0.0
 51
0.0
 71
         0
 72
       100
 73
         1
 74
         1
 75
         0
 76
         0
 77
         0
 78
         0
  0
ENDTAB
  0
TABLE
  2
LTYPE
  5
4
100
AcDbSymbolTable
 70
         6
  0
LTYPE
  5
11
100
AcDbSymbolTableRecord
100
AcDbLinetypeTableRecord
  2
BYBLOCK
 70
        64
  3

 72
        65
 73
         0
 40
0.0
  0
LTYPE
  5
12
100
AcDbSymbolTableRecord
100
AcDbLinetypeTableRecord
  2
BYLAYER
 70
        64
  3

 72
        65
 73
         0
 40
0.0
  0
LTYPE
  5
13
100
AcDbSymbolTableRecord
100
AcDbLinetypeTableRecord
  2
CONTINUOUS
 70
        64
  3
Solid line
 72
        65
 73
         0
 40
0.0
  0
LTYPE
  5
1D
100
AcDbSymbolTableRecord
100
AcDbLinetypeTableRecord
  2
DASHED
 70
        64
  3
_ _ _ _ _ _ _ _ _ _ _ _ _ _ _ _
 72
        65
 73
         2
 40
0.2
 49
0.1
 74
         0
 49
-0.1
 74
         0
  0
LTYPE
  5
1E
100
AcDbSymbolTableRecord
100
AcDbLinetypeTableRecord
  2
CENTER
 70
        64
  3
___ _ ___ _ ___ _ ___ _ ___ _ ___ _ ___ _ ___ _
 72
        65
 73
         4
 40
0.95
 49
0.625
 74
         0
 49
-0.125
 74
         0
 49
0.075
 74
         0
 49
-0.125
 74
         0
  0
LTYPE
  5
1F
100
AcDbSymbolTableRecord
100
AcDbLinetypeTableRecord
  2
PHANTOM
 70
        64
  3
______  __  __  ______  __  __  ______  __  __  
 72
        65
 73
         6
 40
1.025
 49
0.625
 74
         0
 49
-0.125
 74
         0
 49
0.075
 74
         0
 49
-0.125
 74
         0
 49
0.075
 74
         0
 49
-0.125
 74
         0
  0
ENDTAB
  0
TABLE
  2
LAYER
  5
2
100
AcDbSymbolTable
 70
         6
  0
LAYER
  5
14
100
AcDbSymbolTableRecord
100
AcDbLayerTableRecord
  2
0
 70
         0
 62
         7
  6
CONTINUOUS
  0
LAYER
  5
21
100
AcDbSymbolTableRecord
100
AcDbLayerTableRecord
  2
_____U
 70
         1
 62
         7
  6
CONTINUOUS
  0
LAYER
  5
22
100
AcDbSymbolTableRecord
100
AcDbLayerTableRecord
  2
_____T______
 70
         1
 62
         7
  6
CONTINUOUS
  0
LAYER
  5
23
100
AcDbSymbolTableRecord
100
AcDbLayerTableRecord
  2
______L_______
 70
         1
 62
         7
  6
CONTINUOUS
  0
LAYER
  5
24
100
AcDbSymbolTableRecord
100
AcDbLayerTableRecord
  2
L1_120
 70
         0
 62
         7
  6
CONTINUOUS
  0
LAYER
  5
1BF
100
AcDbSymbolTableRecord
100
AcDbLayerTableRecord
  2
DEFPOINTS
 70
         0
 62
        -7
  6
CONTINUOUS
  0
ENDTAB
  0
TABLE
  2
STYLE
  5
3
100
AcDbSymbolTable
 70
        10
  0
STYLE
  5
17
100
AcDbSymbolTableRecord
100
AcDbTextStyleTableRecord
  2
STANDARD
 70
         0
 40
0.0
 41
1.0
 50
0.0
 71
         0
 42
0.0
  3
txt
  4

  0
STYLE
  5
1C8
100
AcDbSymbolTableRecord
100
AcDbTextStyleTableRecord
  2
BOX
 70
         0
 40
1.0
 41
1.0
 50
0.0
 71
         0
 42
0.2
  3
txt.shx
  4

  0
STYLE
  5
235
100
AcDbSymbolTableRecord
100
AcDbTextStyleTableRecord
  2
BOX
 70
         0
 40
1.0
 41
1.0
 50
0.0
 71
         0
 42
0.2
  3
txt.shx
  4

  0
STYLE
  5
254
100
AcDbSymbolTableRecord
100
AcDbTextStyleTableRecord
  2
BOX
 70
         0
 40
1.0
 41
1.0
 50
0.0
 71
         0
 42
0.2
  3
txt.shx
  4

  0
STYLE
  5
2A5
100
AcDbSymbolTableRecord
100
AcDbTextStyleTableRecord
  2
BOX
 70
         0
 40
1.0
 41
1.0
 50
0.0
 71
         0
 42
0.2
  3
txt.shx
  4

  0
STYLE
  5
2B3
100
AcDbSymbolTableRecord
100
AcDbTextStyleTableRecord
  2
BOX
 70
         0
 40
1.0
 41
1.0
 50
0.0
 71
         0
 42
0.2
  3
txt.shx
  4

  0
STYLE
  5
2B6
100
AcDbSymbolTableRecord
100
AcDbTextStyleTableRecord
  2
BOX
 70
         0
 40
1.0
 41
1.0
 50
0.0
 71
         0
 42
0.2
  3
txt.shx
  4

  0
STYLE
  5
365
100
AcDbSymbolTableRecord
100
AcDbTextStyleTableRecord
  2
BOX
 70
         0
 40
1.0
 41
1.0
 50
0.0
 71
         0
 42
0.2
  3
txt.shx
  4

  0
STYLE
  5
374
100
AcDbSymbolTableRecord
100
AcDbTextStyleTableRecord
  2
BOX
 70
         0
 40
1.0
 41
1.0
 50
0.0
 71
         0
 42
0.2
  3
txt.shx
  4

  0
STYLE
  5
382
100
AcDbSymbolTableRecord
100
AcDbTextStyleTableRecord
  2
BOX
 70
         0
 40
1.0
 41
1.0
 50
0.0
 71
         0
 42
0.2
  3
txt.shx
  4

  0
ENDTAB
  0
TABLE
  2
VIEW
  5
5
100
AcDbSymbolTable
 70
         0
  0
ENDTAB
  0
TABLE
  2
UCS
  5
6
100
AcDbSymbolTable
 70
         1
  0
UCS
  5
20
100
AcDbSymbolTableRecord
100
AcDbUCSTableRecord
  2
CK_VIEW_1
 70
         0
 10
0.0
 20
0.0
 30
1.0
 11
1.0
 21
0.0
 31
0.0
 12
0.0
 22
1.0
 32
0.0
  0
ENDTAB
  0
TABLE
  2
APPID
  5
8
100
AcDbSymbolTable
 70
         1
  0
APPID
  5
16
100
AcDbSymbolTableRecord
100
AcDbRegAppTableRecord
  2
ACAD
 70
         0
  0
ENDTAB
  0
TABLE
  2
DIMSTYLE
  5
9
100
AcDbSymbolTable
 70
         2
  0
DIMSTYLE
105
18
100
AcDbSymbolTableRecord
100
AcDbDimStyleTableRecord
  2
STANDARD
 70
         0
  3

  4

  5

  6

  7

 40
1.0
 41
0.18
 42
0.0625
 43
0.38
 44
0.18
 45
0.0
 46
0.0
 47
0.0
 48
0.0
 71
         0
 72
         0
 73
         1
 74
         1
 75
         0
 76
         0
 77
         0
 78
         0
140
0.18
141
0.09
142
0.0
143
25.4
144
1.0
145
0.0
146
1.0
147
0.09
170
         0
171
         2
172
         0
173
         0
174
         0
175
         0
176
         0
177
         0
178
         0
270
         2
271
         4
272
         4
273
         2
274
         2
275
         0
280
         0
281
         0
282
         0
283
         1
284
         0
285
         0
286
         0
287
         0
288
         0
340
17
  0
DIMSTYLE
105
1BB
100
AcDbSymbolTableRecord
100
AcDbDimStyleTableRecord
  2
DIMSTYLE1
 70
         0
  3

  4

  5

  6

  7

 40
1.0
 41
2.7
 42
0.0625
 43
0.38
 44
2.7
 45
0.0
 46
0.0
 47
0.0
 48
0.0
 71
         0
 72
         0
 73
         1
 74
         1
 75
         0
 76
         0
 77
         0
 78
         0
140
2.7
141
0.09
142
0.0
143
25.4
144
1.0
145
0.0
146
1.0
147
0.09
170
         0
171
         2
172
         0
173
         0
174
         0
175
         0
176
         0
177
         0
178
         0
270
         2
271
         4
272
         4
273
         2
274
         2
275
         0
280
         0
281
         0
282
         0
283
         1
284
         0
285
         0
286
         0
287
         0
288
         0
340
17
  0
ENDTAB
  0
TABLE
  2
BLOCK_RECORD
  5
1
100
AcDbSymbolTable
 70
         9
  0
BLOCK_RECORD
  5
A
100
AcDbSymbolTableRecord
100
AcDbBlockTableRecord
  2
*MODEL_SPACE
  0
BLOCK_RECORD
  5
B
100
AcDbSymbolTableRecord
100
AcDbBlockTableRecord
  2
*PAPER_SPACE
  0
BLOCK_RECORD
  5
1BC
100
AcDbSymbolTableRecord
100
AcDbBlockTableRecord
  2
*D0
  0
BLOCK_RECORD
  5
22A
100
AcDbSymbolTableRecord
100
AcDbBlockTableRecord
  2
*D1
  0
BLOCK_RECORD
  5
249
100
AcDbSymbolTableRecord
100
AcDbBlockTableRecord
  2
*D2
  0
BLOCK_RECORD
  5
29A
100
AcDbSymbolTableRecord
100
AcDbBlockTableRecord
  2
*D3
  0
BLOCK_RECORD
  5
2A8
100
AcDbSymbolTableRecord
100
AcDbBlockTableRecord
  2
*D4
  0
BLOCK_RECORD
  5
2B8
100
AcDbSymbolTableRecord
100
AcDbBlockTableRecord
  2
*X5
  0
BLOCK_RECORD
  5
359
100
AcDbSymbolTableRecord
100
AcDbBlockTableRecord
  2
*D6
  0
BLOCK_RECORD
  5
369
100
AcDbSymbolTableRecord
100
AcDbBlockTableRecord
  2
*D7
  0
BLOCK_RECORD
  5
377
100
AcDbSymbolTableRecord
100
AcDbBlockTableRecord
  2
*D8
  0
ENDTAB
  0
ENDSEC
  0
SECTION
  2
BLOCKS
  0
BLOCK
  5
D
100
AcDbEntity
  8
0
100
AcDbBlockBegin
  2
*MODEL_SPACE
 70
         0
 10
0.0
 20
0.0
 30
0.0
  3
*MODEL_SPACE
  1

  0
ENDBLK
  5
E
100
AcDbEntity
  8
0
100
AcDbBlockEnd
  0
BLOCK
  5
F
100
AcDbEntity
 67
         1
  8
0
100
AcDbBlockBegin
  2
*PAPER_SPACE
 70
         0
 10
0.0
 20
0.0
 30
0.0
  3
*PAPER_SPACE
  1

  0
ENDBLK
  5
10
100
AcDbEntity
 67
         1
  8
0
100
AcDbBlockEnd
  0
BLOCK
  5
1BD
100
AcDbEntity
  8
0
100
AcDbBlockBegin
  2
*D0
 70
        65
 10
0.0
 20
0.0
 30
0.0
  3
*D0
  1

  0
POINT
  5
1C0
100
AcDbEntity
  8
DEFPOINTS
  6
CONTINUOUS
 62
         0
100
AcDbPoint
 10
1502.3331817768
 20
-186.2947401382
 30
-67.8057402107
  0
POINT
  5
1C1
100
AcDbEntity
  8
DEFPOINTS
  6
CONTINUOUS
 62
         0
100
AcDbPoint
 10
1485.7508425579
 20
-186.2947401382
 30
-67.8057402107
  0
POINT
  5
1C2
100
AcDbEntity
  8
DEFPOINTS
  6
CONTINUOUS
 62
         0
100
AcDbPoint
 10
1485.7508425579
 20
-209.7870556579
 30
-76.3562437938
  0
LINE
  5
1C3
100
AcDbEntity
  8
L1_120
  6
CONTINUOUS
 62
         4
100
AcDbLine
 10
1487.1008425579
 20
-186.2947401382
 30
-67.8057402107
 11
1503.0081817768
 21
-186.2947401382
 31
-67.8057402107
  0
LINE
  5
1C4
100
AcDbEntity
  8
L1_120
  6
CONTINUOUS
 62
         4
100
AcDbLine
 10
1487.1008425579
 20
-209.7870556579
 30
-76.3562437938
 11
1503.0081817768
 21
-209.7870556579
 31
-76.3562437938
  0
LINE
  5
1C5
100
AcDbEntity
  8
L1_120
  6
CONTINUOUS
 62
         4
100
AcDbLine
 10
1502.3331817768
 20
-186.2947401382
 30
-67.8057402107
 11
1502.3331817768
 21
-209.7870556579
 31
-76.3562437938
  0
SOLID
  5
1C6
100
AcDbEntity
  8
L1_120
  6
CONTINUOUS
 62
         4
100
AcDbTrace
 10
1502.3331817768
 20
-186.2947401382
 30
-67.8057402107
 11
1502.7381817768
 21
-188.8319102143
 31
-68.7291945976
 12
1501.9281817768
 22
-188.8319102143
 32
-68.7291945976
 13
1502.3331817768
 23
-186.2947401382
 33
-67.8057402107
  0
SOLID
  5
1C7
100
AcDbEntity
  8
L1_120
  6
CONTINUOUS
 62
         4
100
AcDbTrace
 10
1502.3331817768
 20
-209.7870556579
 30
-76.3562437938
 11
1501.9281817768
 21
-207.2498855817
 31
-75.4327894068
 12
1502.7381817768
 22
-207.2498855817
 32
-75.4327894068
 13
1502.3331817768
 23
-209.7870556579
 33
-76.3562437938
  0
TEXT
  5
1C9
100
AcDbEntity
  8
L1_120
  6
CONTINUOUS
 62
         4
100
AcDbText
 10
1500.3081817768
 20
-216.1859330645
 30
0.0
 40
2.7
  1
崷25
 50
90.0
  7
BOX
210
0.0
220
-0.3420201433256687
230
0.9396926207859084
100
AcDbText
  0
ENDBLK
  5
1CA
100
AcDbEntity
  8
0
  6
CONTINUOUS
100
AcDbBlockEnd
  0
BLOCK
  5
22B
100
AcDbEntity
  8
0
100
AcDbBlockBegin
  2
*D1
 70
        65
 10
0.0
 20
0.0
 30
0.0
  3
*D1
  1

  0
POINT
  5
22D
100
AcDbEntity
  8
DEFPOINTS
  6
CONTINUOUS
 62
         0
100
AcDbPoint
 10
1420.7508425579
 20
-342.7067769535
 30
-124.7350658924
  0
POINT
  5
22E
100
AcDbEntity
  8
DEFPOINTS
  6
CONTINUOUS
 62
         0
100
AcDbPoint
 10
1420.7508425579
 20
-305.0473023176
 30
-111.0281380868
  0
POINT
  5
22F
100
AcDbEntity
  8
DEFPOINTS
  6
CONTINUOUS
 62
         0
100
AcDbPoint
 10
1485.7508425579
 20
-309.4585902906
 30
-112.6337156037
  0
LINE
  5
230
100
AcDbEntity
  8
L1_120
  6
CONTINUOUS
 62
         4
100
AcDbLine
 10
1420.7508425579
 20
-306.3158873557
 30
-111.4898652803
 11
1420.7508425579
 21
-343.3410694725
 31
-124.9659294891
  0
LINE
  5
231
100
AcDbEntity
  8
L1_120
  6
CONTINUOUS
 62
         4
100
AcDbLine
 10
1485.7508425579
 20
-310.7271753286
 30
-113.0954427972
 11
1485.7508425579
 21
-343.3410694725
 31
-124.9659294891
  0
LINE
  5
232
100
AcDbEntity
  8
L1_120
  6
CONTINUOUS
 62
         4
100
AcDbLine
 10
1420.7508425579
 20
-342.7067769535
 30
-124.7350658924
 11
1485.7508425579
 21
-342.7067769535
 31
-124.7350658924
  0
SOLID
  5
233
100
AcDbEntity
  8
L1_120
  6
CONTINUOUS
 62
         4
100
AcDbTrace
 10
1420.7508425579
 20
-342.7067769535
 30
-124.7350658924
 11
1423.4508425579
 21
-342.3262014421
 31
-124.5965477343
 12
1423.4508425579
 22
-343.0873524649
 32
-124.8735840504
 13
1420.7508425579
 23
-342.7067769535
 33
-124.7350658924
  0
SOLID
  5
234
100
AcDbEntity
  8
L1_120
  6
CONTINUOUS
 62
         4
100
AcDbTrace
 10
1485.7508425579
 20
-342.7067769535
 30
-124.7350658924
 11
1483.0508425579
 21
-343.0873524649
 31
-124.8735840504
 12
1483.0508425579
 22
-342.3262014421
 32
-124.5965477343
 13
1485.7508425579
 23
-342.7067769535
 33
-124.7350658924
  0
TEXT
  5
236
100
AcDbEntity
  8
L1_120
  6
CONTINUOUS
 62
         4
100
AcDbText
 10
1449.9634413558
 20
-362.6759345108
 30
0.0
 40
2.7
  1
65
  7
BOX
210
0.0
220
-0.3420201433256687
230
0.9396926207859084
100
AcDbText
  0
ENDBLK
  5
237
100
AcDbEntity
  8
0
  6
CONTINUOUS
100
AcDbBlockEnd
  0
BLOCK
  5
24A
100
AcDbEntity
  8
0
100
AcDbBlockBegin
  2
*D2
 70
        65
 10
0.0
 20
0.0
 30
0.0
  3
*D2
  1

  0
POINT
  5
24C
100
AcDbEntity
  8
DEFPOINTS
  6
CONTINUOUS
 62
         0
100
AcDbPoint
 10
1513.770236033
 20
-181.5962770343
 30
-66.095639494
  0
POINT
  5
24D
100
AcDbEntity
  8
DEFPOINTS
  6
CONTINUOUS
 62
         0
100
AcDbPoint
 10
1474.58491863
 20
-181.5962770343
 30
-66.095639494
  0
POINT
  5
24E
100
AcDbEntity
  8
DEFPOINTS
  6
CONTINUOUS
 62
         0
100
AcDbPoint
 10
1474.58491863
 20
-214.4855187618
 30
-78.0663445104
  0
LINE
  5
24F
100
AcDbEntity
  8
L1_120
  6
CONTINUOUS
 62
         4
100
AcDbLine
 10
1475.93491863
 20
-181.5962770343
 30
-66.095639494
 11
1514.445236033
 21
-181.5962770343
 31
-66.095639494
  0
LINE
  5
250
100
AcDbEntity
  8
L1_120
  6
CONTINUOUS
 62
         4
100
AcDbLine
 10
1475.93491863
 20
-214.4855187618
 30
-78.0663445104
 11
1514.445236033
 21
-214.4855187618
 31
-78.0663445104
  0
LINE
  5
251
100
AcDbEntity
  8
L1_120
  6
CONTINUOUS
 62
         4
100
AcDbLine
 10
1513.770236033
 20
-181.5962770343
 30
-66.095639494
 11
1513.770236033
 21
-214.4855187618
 31
-78.0663445104
  0
SOLID
  5
252
100
AcDbEntity
  8
L1_120
  6
CONTINUOUS
 62
         4
100
AcDbTrace
 10
1513.770236033
 20
-181.5962770343
 30
-66.095639494
 11
1514.175236033
 21
-184.1334471104
 31
-67.019093881
 12
1513.365236033
 22
-184.1334471104
 32
-67.019093881
 13
1513.770236033
 23
-181.5962770343
 33
-66.095639494
  0
SOLID
  5
253
100
AcDbEntity
  8
L1_120
  6
CONTINUOUS
 62
         4
100
AcDbTrace
 10
1513.770236033
 20
-214.4855187618
 30
-78.0663445104
 11
1513.365236033
 21
-211.9483486857
 31
-77.1428901235
 12
1514.175236033
 22
-211.9483486857
 32
-77.1428901235
 13
1513.770236033
 23
-214.4855187618
 33
-78.0663445104
  0
TEXT
  5
255
100
AcDbEntity
  8
L1_120
  6
CONTINUOUS
 62
         4
100
AcDbText
 10
1510.638236033
 20
-219.924682257
 30
0.0
 40
2.7
  1
崷35
 50
90.0
  7
BOX
210
0.0
220
-0.3420201433256687
230
0.9396926207859084
100
AcDbText
  0
ENDBLK
  5
256
100
AcDbEntity
  8
0
  6
CONTINUOUS
100
AcDbBlockEnd
  0
BLOCK
  5
29B
100
AcDbEntity
  8
0
100
AcDbBlockBegin
  2
*D3
 70
        65
 10
0.0
 20
0.0
 30
0.0
  3
*D3
  1

  0
POINT
  5
29D
100
AcDbEntity
  8
DEFPOINTS
  6
CONTINUOUS
 62
         0
100
AcDbPoint
 10
1384.1508425579
 20
-156.3766421231
 30
-56.9164430673
  0
POINT
  5
29E
100
AcDbEntity
  8
DEFPOINTS
  6
CONTINUOUS
 62
         0
100
AcDbPoint
 10
1384.1508425579
 20
-177.1562294011
 30
-64.4795943168
  0
POINT
  5
29F
100
AcDbEntity
  8
DEFPOINTS
  6
CONTINUOUS
 62
         0
100
AcDbPoint
 10
1485.7508425579
 20
-178.0395404646
 30
-64.8010932515
  0
LINE
  5
2A0
100
AcDbEntity
  8
L1_120
  6
CONTINUOUS
 62
         4
100
AcDbLine
 10
1384.1508425579
 20
-175.887644363
 30
-64.0178671233
 11
1384.1508425579
 21
-155.7423496041
 31
-56.6855794706
  0
LINE
  5
2A1
100
AcDbEntity
  8
L1_120
  6
CONTINUOUS
 62
         4
100
AcDbLine
 10
1485.7508425579
 20
-176.7709554265
 30
-64.3393660581
 11
1485.7508425579
 21
-155.7423496041
 31
-56.6855794706
  0
LINE
  5
2A2
100
AcDbEntity
  8
L1_120
  6
CONTINUOUS
 62
         4
100
AcDbLine
 10
1384.1508425579
 20
-156.3766421231
 30
-56.9164430673
 11
1485.7508425579
 21
-156.3766421231
 31
-56.9164430673
  0
SOLID
  5
2A3
100
AcDbEntity
  8
L1_120
  6
CONTINUOUS
 62
         4
100
AcDbTrace
 10
1384.1508425579
 20
-156.3766421231
 30
-56.9164430673
 11
1386.8508425579
 21
-155.9960666117
 31
-56.7779249093
 12
1386.8508425579
 22
-156.7572176345
 32
-57.0549612253
 13
1384.1508425579
 23
-156.3766421231
 33
-56.9164430673
  0
SOLID
  5
2A4
100
AcDbEntity
  8
L1_120
  6
CONTINUOUS
 62
         4
100
AcDbTrace
 10
1485.7508425579
 20
-156.3766421231
 30
-56.9164430673
 11
1483.0508425579
 21
-156.7572176345
 31
-57.0549612253
 12
1483.0508425579
 22
-155.9960666117
 32
-56.7779249093
 13
1485.7508425579
 23
-156.3766421231
 33
-56.9164430673
  0
TEXT
  5
2A6
100
AcDbEntity
  8
L1_120
  6
CONTINUOUS
 62
         4
100
AcDbText
 10
1435.476906298
 20
-163.2805466818
 30
0.0
 40
2.7
  1
101
  7
BOX
210
0.0
220
-0.3420201433256687
230
0.9396926207859084
100
AcDbText
  0
ENDBLK
  5
2A7
100
AcDbEntity
  8
0
  6
CONTINUOUS
100
AcDbBlockEnd
  0
BLOCK
  5
2A9
100
AcDbEntity
  8
0
100
AcDbBlockBegin
  2
*D4
 70
        65
 10
0.0
 20
0.0
 30
0.0
  3
*D4
  1

  0
POINT
  5
2AB
100
AcDbEntity
  8
DEFPOINTS
  6
CONTINUOUS
 62
         0
100
AcDbPoint
 10
1315.9008425579
 20
-143.0090146973
 30
-52.0510245816
  0
POINT
  5
2AC
100
AcDbEntity
  8
DEFPOINTS
  6
CONTINUOUS
 62
         0
100
AcDbPoint
 10
1315.9008425579
 20
-187.4842202385
 30
-68.2386755614
  0
POINT
  5
2AD
100
AcDbEntity
  8
DEFPOINTS
  6
CONTINUOUS
 62
         0
100
AcDbPoint
 10
1485.7508425579
 20
-198.040897898
 30
-72.0809920022
  0
LINE
  5
2AE
100
AcDbEntity
  8
L1_120
  6
CONTINUOUS
 62
         4
100
AcDbLine
 10
1315.9008425579
 20
-186.2156352005
 30
-67.7769483679
 11
1315.9008425579
 21
-142.3747221783
 31
-51.8201609848
  0
LINE
  5
2AF
100
AcDbEntity
  8
L1_120
  6
CONTINUOUS
 62
         4
100
AcDbLine
 10
1485.7508425579
 20
-196.77231286
 30
-71.6192648087
 11
1485.7508425579
 21
-142.3747221783
 31
-51.8201609848
  0
LINE
  5
2B0
100
AcDbEntity
  8
L1_120
  6
CONTINUOUS
 62
         4
100
AcDbLine
 10
1315.9008425579
 20
-143.0090146973
 30
-52.0510245816
 11
1485.7508425579
 21
-143.0090146973
 31
-52.0510245816
  0
SOLID
  5
2B1
100
AcDbEntity
  8
L1_120
  6
CONTINUOUS
 62
         4
100
AcDbTrace
 10
1315.9008425579
 20
-143.0090146973
 30
-52.0510245816
 11
1318.6008425579
 21
-142.6284391859
 31
-51.9125064235
 12
1318.6008425579
 22
-143.3895902087
 32
-52.1895427396
 13
1315.9008425579
 23
-143.0090146973
 33
-52.0510245816
  0
SOLID
  5
2B2
100
AcDbEntity
  8
L1_120
  6
CONTINUOUS
 62
         4
100
AcDbTrace
 10
1485.7508425579
 20
-143.0090146973
 30
-52.0510245816
 11
1483.0508425579
 21
-143.3895902087
 31
-52.1895427396
 12
1483.0508425579
 22
-142.6284391859
 32
-51.9125064235
 13
1485.7508425579
 23
-143.0090146973
 33
-52.0510245816
  0
TEXT
  5
2B4
100
AcDbEntity
  8
L1_120
  6
CONTINUOUS
 62
         4
100
AcDbText
 10
1397.0375262929
 20
-150.1620147046
 30
0.0
 40
2.7
  1
169.85
  7
BOX
210
0.0
220
-0.3420201433256687
230
0.9396926207859084
100
AcDbText
  0
ENDBLK
  5
2B5
100
AcDbEntity
  8
0
  6
CONTINUOUS
100
AcDbBlockEnd
  0
BLOCK
  5
2B9
100
AcDbEntity
  8
0
100
AcDbBlockBegin
  2
*X5
 70
        65
 10
0.0
 20
0.0
 30
0.0
  3
*X5
  1

  0
LINE
  5
2BA
100
AcDbEntity
  8
L1_120
  6
CONTINUOUS
 62
         4
100
AcDbLine
 10
1479.9086243415
 20
-312.91654307
 30
-113.892307487
 11
1485.7508425579
 21
-307.426653723
 31
-111.8941511752
  0
LINE
  5
2BB
100
AcDbEntity
  8
L1_120
  6
CONTINUOUS
 62
         4
100
AcDbLine
 10
1473.3902547493
 20
-315.055028729
 30
-114.6706526132
 11
1484.5165361905
 21
-304.5997441619
 31
-110.86524024
  0
LINE
  5
2BC
100
AcDbEntity
  8
L1_120
  6
CONTINUOUS
 62
         4
100
AcDbLine
 10
1469.97972831
 20
-314.2730971106
 30
-114.3860527789
 11
1480.2976140622
 21
-304.5774560072
 31
-110.8571280152
  0
LINE
  5
2BD
100
AcDbEntity
  8
L1_120
  6
CONTINUOUS
 62
         4
100
AcDbLine
 10
1468.7508425579
 20
-311.4410938374
 30
-113.3552878841
 11
1476.054973375
 21
-304.5774560072
 31
-110.8571280152
  0
LINE
  5
2BE
100
AcDbEntity
  8
L1_120
  6
CONTINUOUS
 62
         4
100
AcDbLine
 10
1468.7508425579
 20
-307.454315691
 30
-111.9042193082
 11
1471.8123326879
 21
-304.5774560072
 31
-110.8571280152
  0
LINE
  5
2BF
100
AcDbEntity
  8
L1_120
  6
CONTINUOUS
 62
         4
100
AcDbLine
 10
1484.5405815904
 20
-292.616814438
 30
-106.5038105012
 11
1485.7225936554
 21
-291.5060864229
 31
-106.0995385654
  0
LINE
  5
2C0
100
AcDbEntity
  8
L1_120
  6
CONTINUOUS
 62
         4
100
AcDbLine
 10
1456.4196920008
 20
-315.055028729
 30
-114.6706526132
 11
1458.7508425579
 21
-312.8644637526
 31
-113.8733521656
  0
LINE
  5
2C1
100
AcDbEntity
  8
L1_120
  6
CONTINUOUS
 62
         4
100
AcDbLine
 10
1480.2696920008
 20
-292.6433597233
 30
-106.5134721949
 11
1485.7275276376
 21
-287.5146718499
 31
-104.6467824682
  0
LINE
  5
2C2
100
AcDbEntity
  8
L1_120
  6
CONTINUOUS
 62
         4
100
AcDbLine
 10
1452.1770513137
 20
-315.055028729
 30
-114.6706526132
 11
1458.7508425579
 21
-308.8776856062
 31
-112.4222835897
  0
LINE
  5
2C3
100
AcDbEntity
  8
L1_120
  6
CONTINUOUS
 62
         4
100
AcDbLine
 10
1476.0270513137
 20
-292.6433597233
 30
-106.5134721949
 11
1483.3135701176
 21
-285.796271772
 31
-104.0213359893
  0
LINE
  5
2C4
100
AcDbEntity
  8
L1_120
  6
CONTINUOUS
 62
         4
100
AcDbLine
 10
1447.9344106266
 20
-315.055028729
 30
-114.6706526132
 11
1458.7508425579
 21
-304.8909074599
 31
-110.9712150138
  0
LINE
  5
2C5
100
AcDbEntity
  8
L1_120
  6
CONTINUOUS
 62
         4
100
AcDbLine
 10
1471.7844106266
 20
-292.6433597233
 30
-106.5134721949
 11
1480.4201523116
 21
-284.5284169868
 31
-103.5598745861
  0
LINE
  5
2C6
100
AcDbEntity
  8
L1_120
  6
CONTINUOUS
 62
         4
100
AcDbLine
 10
1443.6917699394
 20
-315.055028729
 30
-114.6706526132
 11
1454.8417699394
 21
-304.5774560072
 31
-110.8571280152
  0
LINE
  5
2C7
100
AcDbEntity
  8
L1_120
  6
CONTINUOUS
 62
         4
100
AcDbLine
 10
1467.5417699394
 20
-292.6433597233
 30
-106.5134721949
 11
1477.5267345057
 21
-283.2605622016
 31
-103.0984131829
  0
LINE
  5
2C8
100
AcDbEntity
  8
L1_120
  6
CONTINUOUS
 62
         4
100
AcDbLine
 10
1439.4491292523
 20
-315.055028729
 30
-114.6706526132
 11
1450.5991292523
 21
-304.5774560072
 31
-110.8571280152
  0
LINE
  5
2C9
100
AcDbEntity
  8
L1_120
  6
CONTINUOUS
 62
         4
100
AcDbLine
 10
1463.2991292523
 20
-292.6433597233
 30
-106.5134721949
 11
1474.4491292523
 21
-282.1657870015
 31
-102.6999475968
  0
LINE
  5
2CA
100
AcDbEntity
  8
L1_120
  6
CONTINUOUS
 62
         4
100
AcDbLine
 10
1435.2064885652
 20
-315.055028729
 30
-114.6706526132
 11
1446.3564885652
 21
-304.5774560072
 31
-110.8571280152
  0
LINE
  5
2CB
100
AcDbEntity
  8
L1_120
  6
CONTINUOUS
 62
         4
100
AcDbLine
 10
1459.0564885652
 20
-292.6433597233
 30
-106.5134721949
 11
1465.7963802203
 21
-286.30993327
 31
-104.208293485
  0
LINE
  5
2CC
100
AcDbEntity
  8
L1_120
  6
CONTINUOUS
 62
         4
100
AcDbLine
 10
1430.9638478781
 20
-315.055028729
 30
-114.6706526132
 11
1442.1138478781
 21
-304.5774560072
 31
-110.8571280152
  0
LINE
  5
2CD
100
AcDbEntity
  8
L1_120
  6
CONTINUOUS
 62
         4
100
AcDbLine
 10
1454.8138478781
 20
-292.6433597233
 30
-106.5134721949
 11
1462.0611853539
 21
-285.8330901768
 31
-104.0347367927
  0
LINE
  5
2CE
100
AcDbEntity
  8
L1_120
  6
CONTINUOUS
 62
         4
100
AcDbLine
 10
1426.721207191
 20
-315.055028729
 30
-114.6706526132
 11
1437.371207191
 21
-305.0473023176
 31
-111.0281380868
  0
LINE
  5
2CF
100
AcDbEntity
  8
L1_120
  6
CONTINUOUS
 62
         4
100
AcDbLine
 10
1450.571207191
 20
-292.6433597233
 30
-106.5134721949
 11
1459.2768027219
 21
-284.4627758433
 31
-103.5359831637
  0
LINE
  5
2D0
100
AcDbEntity
  8
L1_120
  6
CONTINUOUS
 62
         4
100
AcDbLine
 10
1417.6935665038
 20
-319.5514579195
 30
-116.3072189991
 11
1419.2028425579
 21
-318.1332023487
 31
-115.7910161867
  0
LINE
  5
2D1
100
AcDbEntity
  8
L1_120
  6
CONTINUOUS
 62
         4
100
AcDbLine
 10
1422.4785665038
 20
-315.055028729
 30
-114.6706526132
 11
1433.1285665038
 21
-305.0473023176
 31
-111.0281380868
  0
LINE
  5
2D2
100
AcDbEntity
  8
L1_120
  6
CONTINUOUS
 62
         4
100
AcDbLine
 10
1446.3285665038
 20
-292.6433597233
 30
-106.5134721949
 11
1457.1670062885
 21
-282.4585578368
 31
-102.8065074664
  0
LINE
  5
2D3
100
AcDbEntity
  8
L1_120
  6
CONTINUOUS
 62
         4
100
AcDbLine
 10
1413.4509258167
 20
-319.5514579195
 30
-116.3072189991
 11
1428.8859258167
 21
-305.0473023176
 31
-111.0281380868
  0
LINE
  5
2D4
100
AcDbEntity
  8
L1_120
  6
CONTINUOUS
 62
         4
100
AcDbLine
 10
1442.0859258167
 20
-292.6433597233
 30
-106.5134721949
 11
1453.2359258167
 21
-282.1657870015
 31
-102.6999475968
  0
LINE
  5
2D5
100
AcDbEntity
  8
L1_120
  6
CONTINUOUS
 62
         4
100
AcDbLine
 10
1399.7182851294
 20
-328.4691408909
 30
-119.5529901593
 11
1403.2508425579
 21
-325.1496227429
 31
-118.3447843613
  0
LINE
  5
2D6
100
AcDbEntity
  8
L1_120
  6
CONTINUOUS
 62
         4
100
AcDbLine
 10
1409.2082851296
 20
-319.5514579195
 30
-116.3072189991
 11
1424.6432851296
 21
-305.0473023176
 31
-111.0281380868
  0
LINE
  5
2D7
100
AcDbEntity
  8
L1_120
  6
CONTINUOUS
 62
         4
100
AcDbLine
 10
1438.3432851296
 20
-292.1735134129
 30
-106.3424621233
 11
1448.9932851296
 21
-282.1657870015
 31
-102.6999475968
  0
LINE
  5
2D8
100
AcDbEntity
  8
L1_120
  6
CONTINUOUS
 62
         4
100
AcDbLine
 10
1397.5750313566
 20
-326.4963624993
 30
-118.8349575459
 11
1403.2508425579
 21
-321.1628445965
 31
-116.8937157854
  0
LINE
  5
2D9
100
AcDbEntity
  8
L1_120
  6
CONTINUOUS
 62
         4
100
AcDbLine
 10
1404.9656444425
 20
-319.5514579195
 30
-116.3072189991
 11
1420.2506444425
 21
-305.1882562107
 31
-111.0794411083
  0
LINE
  5
2DA
100
AcDbEntity
  8
L1_120
  6
CONTINUOUS
 62
         4
100
AcDbLine
 10
1434.1006444425
 20
-292.1735134129
 30
-106.3424621233
 11
1444.7506444425
 21
-282.1657870015
 31
-102.6999475968
  0
LINE
  5
2DB
100
AcDbEntity
  8
L1_120
  6
CONTINUOUS
 62
         4
100
AcDbLine
 10
1391.2330037552
 20
-328.4691408909
 30
-119.5529901593
 11
1392.3724068322
 21
-327.3984522273
 31
-119.1632913555
  0
LINE
  5
2DC
100
AcDbEntity
  8
L1_120
  6
CONTINUOUS
 62
         4
100
AcDbLine
 10
1394.8830037554
 20
-325.0392628248
 30
-118.3046166361
 11
1416.0080037554
 21
-305.1882562107
 31
-111.0794411083
  0
LINE
  5
2DD
100
AcDbEntity
  8
L1_120
  6
CONTINUOUS
 62
         4
100
AcDbLine
 10
1429.8580037554
 20
-292.1735134129
 30
-106.3424621233
 11
1440.5080037554
 21
-282.1657870015
 31
-102.6999475968
  0
LINE
  5
2DE
100
AcDbEntity
  8
L1_120
  6
CONTINUOUS
 62
         4
100
AcDbLine
 10
1387.4206028131
 20
-328.0648477773
 30
-119.4058395
 11
1411.7653630682
 21
-305.1882562107
 31
-111.0794411083
  0
LINE
  5
2DF
100
AcDbEntity
  8
L1_120
  6
CONTINUOUS
 62
         4
100
AcDbLine
 10
1425.6153630682
 20
-292.1735134129
 30
-106.3424621233
 11
1436.2653630682
 21
-282.1657870015
 31
-102.6999475968
  0
LINE
  5
2E0
100
AcDbEntity
  8
L1_120
  6
CONTINUOUS
 62
         4
100
AcDbLine
 10
1387.3508425579
 20
-324.143622828
 30
-117.9786303366
 11
1407.5227223811
 21
-305.1882562107
 31
-111.0794411083
  0
LINE
  5
2E1
100
AcDbEntity
  8
L1_120
  6
CONTINUOUS
 62
         4
100
AcDbLine
 10
1421.3727223811
 20
-292.1735134129
 30
-106.3424621233
 11
1432.0227223811
 21
-282.1657870015
 31
-102.6999475968
  0
LINE
  5
2E2
100
AcDbEntity
  8
L1_120
  6
CONTINUOUS
 62
         4
100
AcDbLine
 10
1387.3508425579
 20
-320.1568446817
 30
-116.5275617607
 11
1403.280081694
 21
-305.1882562107
 31
-111.0794411083
  0
LINE
  5
2E3
100
AcDbEntity
  8
L1_120
  6
CONTINUOUS
 62
         4
100
AcDbLine
 10
1417.90212294
 20
-291.4480319511
 30
-106.0784084657
 11
1427.780081694
 21
-282.1657870015
 31
-102.6999475968
  0
LINE
  5
2E4
100
AcDbEntity
  8
L1_120
  6
CONTINUOUS
 62
         4
100
AcDbLine
 10
1383.8555102952
 20
-319.4546044698
 30
-116.2719672263
 11
1399.0374410069
 21
-305.1882562107
 31
-111.0794411083
  0
LINE
  5
2E5
100
AcDbEntity
  8
L1_120
  6
CONTINUOUS
 62
         4
100
AcDbLine
 10
1415.4067565851
 20
-289.8061311546
 30
-105.4808054481
 11
1423.5374410069
 21
-282.1657870015
 31
-102.6999475968
  0
LINE
  5
2E6
100
AcDbEntity
  8
L1_120
  6
CONTINUOUS
 62
         4
100
AcDbLine
 10
1380.1528420591
 20
-318.9471963421
 30
-116.0872857712
 11
1394.7948003198
 21
-305.1882562107
 31
-111.0794411083
  0
LINE
  5
2E7
100
AcDbEntity
  8
L1_120
  6
CONTINUOUS
 62
         4
100
AcDbLine
 10
1408.7948003198
 20
-292.0325595197
 30
-106.2911591018
 11
1410.5419405881
 21
-290.3907847021
 31
-105.6936019368
  0
LINE
  5
2E8
100
AcDbEntity
  8
L1_120
  6
CONTINUOUS
 62
         4
100
AcDbLine
 10
1412.9113902302
 20
-288.1642303581
 30
-104.8832024306
 11
1419.4850076908
 21
-281.9870505386
 31
-102.6348928446
  0
LINE
  5
2E9
100
AcDbEntity
  8
L1_120
  6
CONTINUOUS
 62
         4
100
AcDbLine
 10
1376.4501738231
 20
-318.4397882144
 30
-115.9026043161
 11
1390.5521596326
 21
-305.1882562107
 31
-111.0794411083
  0
LINE
  5
2EA
100
AcDbEntity
  8
L1_120
  6
CONTINUOUS
 62
         4
100
AcDbLine
 10
1404.5521596326
 20
-292.0325595197
 30
-106.2911591018
 11
1408.0465742333
 21
-288.7488839055
 31
-105.0959989192
  0
LINE
  5
2EB
100
AcDbEntity
  8
L1_120
  6
CONTINUOUS
 62
         4
100
AcDbLine
 10
1410.4160238754
 20
-286.5223295615
 30
-104.285599413
 11
1419.1884138002
 21
-278.2789794825
 31
-101.2852653536
  0
LINE
  5
2EC
100
AcDbEntity
  8
L1_120
  6
CONTINUOUS
 62
         4
100
AcDbLine
 10
1372.7475055871
 20
-317.9323800867
 30
-115.717922861
 11
1386.3095189455
 21
-305.1882562107
 31
-111.0794411083
  0
LINE
  5
2ED
100
AcDbEntity
  8
L1_120
  6
CONTINUOUS
 62
         4
100
AcDbLine
 10
1400.3095189455
 20
-292.0325595197
 30
-106.2911591018
 11
1405.5512078784
 21
-287.106983109
 31
-104.4983959017
  0
LINE
  5
2EE
100
AcDbEntity
  8
L1_120
  6
CONTINUOUS
 62
         4
100
AcDbLine
 10
1407.9206575205
 20
-284.880428765
 30
-103.6879963955
 11
1415.5945189455
 21
-277.669357811
 31
-101.063381211
  0
LINE
  5
2EF
100
AcDbEntity
  8
L1_120
  6
CONTINUOUS
 62
         4
100
AcDbLine
 10
1369.0448373511
 20
-317.4249719589
 30
-115.5332414058
 11
1382.0668782584
 21
-305.1882562107
 31
-111.0794411083
  0
LINE
  5
2F0
100
AcDbEntity
  8
L1_120
  6
CONTINUOUS
 62
         4
100
AcDbLine
 10
1396.0668782584
 20
-292.0325595197
 30
-106.2911591018
 11
1403.0558415236
 21
-285.4650823125
 31
-103.9007928841
  0
LINE
  5
2F1
100
AcDbEntity
  8
L1_120
  6
CONTINUOUS
 62
         4
100
AcDbLine
 10
1405.4252911657
 20
-283.2385279685
 30
-103.0903933779
 11
1411.3518782584
 21
-277.669357811
 31
-101.063381211
  0
LINE
  5
2F2
100
AcDbEntity
  8
L1_120
  6
CONTINUOUS
 62
         4
100
AcDbLine
 10
1365.342169115
 20
-316.9175638312
 30
-115.3485599507
 11
1377.8242375713
 21
-305.1882562107
 31
-111.0794411083
  0
LINE
  5
2F3
100
AcDbEntity
  8
L1_120
  6
CONTINUOUS
 62
         4
100
AcDbLine
 10
1391.8242375713
 20
-292.0325595197
 30
-106.2911591018
 11
1400.5604751687
 21
-283.823181516
 31
-103.3031898666
  0
LINE
  5
2F4
100
AcDbEntity
  8
L1_120
  6
CONTINUOUS
 62
         4
100
AcDbLine
 10
1402.9299248108
 20
-281.596627172
 30
-102.4927903604
 11
1407.1092375713
 21
-277.669357811
 31
-101.063381211
  0
LINE
  5
2F5
100
AcDbEntity
  8
L1_120
  6
CONTINUOUS
 62
         4
100
AcDbLine
 10
1361.639500879
 20
-316.4101557035
 30
-115.1638784956
 11
1373.5815968842
 21
-305.1882562107
 31
-111.0794411083
  0
LINE
  5
2F6
100
AcDbEntity
  8
L1_120
  6
CONTINUOUS
 62
         4
100
AcDbLine
 10
1387.5815968842
 20
-292.0325595197
 30
-106.2911591018
 11
1398.0651088139
 21
-282.1812807195
 31
-102.705586849
  0
LINE
  5
2F7
100
AcDbEntity
  8
L1_120
  6
CONTINUOUS
 62
         4
100
AcDbLine
 10
1400.434558456
 20
-279.9547263755
 30
-101.8951873428
 11
1403.2619221207
 21
-277.2978736035
 31
-100.928172017
  0
LINE
  5
2F8
100
AcDbEntity
  8
L1_120
  6
CONTINUOUS
 62
         4
100
AcDbLine
 10
1357.936832643
 20
-315.9027475758
 30
-114.9791970405
 11
1369.338956197
 21
-305.1882562107
 31
-111.0794411083
  0
LINE
  5
2F9
100
AcDbEntity
  8
L1_120
  6
CONTINUOUS
 62
         4
100
AcDbLine
 10
1383.338956197
 20
-292.0325595197
 30
-106.2911591018
 11
1395.569742459
 21
-280.539379923
 31
-102.1079838315
  0
LINE
  5
2FA
100
AcDbEntity
  8
L1_120
  6
CONTINUOUS
 62
         4
100
AcDbLine
 10
1397.9391921011
 20
-278.3128255789
 30
-101.2975843253
 11
1403.2508425579
 21
-273.3215068405
 31
-99.4808928747
  0
LINE
  5
2FB
100
AcDbEntity
  8
L1_120
  6
CONTINUOUS
 62
         4
100
AcDbLine
 10
1354.2341644069
 20
-315.3953394481
 30
-114.7945155854
 11
1365.0963155099
 21
-305.1882562107
 31
-111.0794411083
  0
LINE
  5
2FC
100
AcDbEntity
  8
L1_120
  6
CONTINUOUS
 62
         4
100
AcDbLine
 10
1379.0963155099
 20
-292.0325595197
 30
-106.2911591018
 11
1393.0743761042
 21
-278.8974791264
 31
-101.5103808139
  0
LINE
  5
2FD
100
AcDbEntity
  8
L1_120
  6
CONTINUOUS
 62
         4
100
AcDbLine
 10
1395.4438257463
 20
-276.6709247824
 30
-100.6999813077
 11
1403.2508425579
 21
-269.3347286942
 31
-98.0298242989
  0
LINE
  5
2FE
100
AcDbEntity
  8
L1_120
  6
CONTINUOUS
 62
         4
100
AcDbLine
 10
1350.5314961709
 20
-314.8879313204
 30
-114.6098341303
 11
1360.8536748228
 21
-305.1882562107
 31
-111.0794411083
  0
LINE
  5
2FF
100
AcDbEntity
  8
L1_120
  6
CONTINUOUS
 62
         4
100
AcDbLine
 10
1374.8536748228
 20
-292.0325595197
 30
-106.2911591018
 11
1390.5790097493
 21
-277.2555783299
 31
-100.9127777964
  0
LINE
  5
300
100
AcDbEntity
  8
L1_120
  6
CONTINUOUS
 62
         4
100
AcDbLine
 10
1392.9484593914
 20
-275.0290239859
 30
-100.1023782902
 11
1395.978674823
 21
-272.1815529055
 31
-99.0659835739
  0
LINE
  5
301
100
AcDbEntity
  8
L1_120
  6
CONTINUOUS
 62
         4
100
AcDbLine
 10
1397.6375180684
 20
-270.6227501487
 30
-98.4986257694
 11
1399.628674823
 21
-268.7516748396
 31
-97.8176100508
  0
LINE
  5
302
100
AcDbEntity
  8
L1_120
  6
CONTINUOUS
 62
         4
100
AcDbLine
 10
1346.8288279349
 20
-314.3805231927
 30
-114.4251526752
 11
1356.6110341357
 21
-305.1882562107
 31
-111.0794411083
  0
LINE
  5
303
100
AcDbEntity
  8
L1_120
  6
CONTINUOUS
 62
         4
100
AcDbLine
 10
1370.6110341357
 20
-292.0325595197
 30
-106.2911591018
 11
1385.8715192394
 21
-277.6923942782
 31
-101.0717657994
  0
LINE
  5
304
100
AcDbEntity
  8
L1_120
  6
CONTINUOUS
 62
         4
100
AcDbLine
 10
1387.3508425579
 20
-276.302285072
 30
-100.565807426
 11
1388.0836433945
 21
-275.6136775334
 31
-100.3151747788
  0
LINE
  5
305
100
AcDbEntity
  8
L1_120
  6
CONTINUOUS
 62
         4
100
AcDbLine
 10
1390.4530930366
 20
-273.3871231894
 30
-99.5047752726
 11
1393.0584205116
 21
-270.9389161864
 31
-98.6137007962
  0
LINE
  5
306
100
AcDbEntity
  8
L1_120
  6
CONTINUOUS
 62
         4
100
AcDbLine
 10
1343.1261596988
 20
-313.8731150649
 30
-114.24047122
 11
1352.3683934486
 21
-305.1882562107
 31
-111.0794411083
  0
LINE
  5
307
100
AcDbEntity
  8
L1_120
  6
CONTINUOUS
 62
         4
100
AcDbLine
 10
1366.3683934486
 20
-292.0325595197
 30
-106.2911591018
 11
1381.1567557958
 21
-278.1360445486
 31
-101.2332412922
  0
LINE
  5
308
100
AcDbEntity
  8
L1_120
  6
CONTINUOUS
 62
         4
100
AcDbLine
 10
1388.2449326989
 20
-271.4753370178
 30
-98.8089420119
 11
1391.1433934488
 21
-268.7516748396
 31
-97.8176100508
  0
LINE
  5
309
100
AcDbEntity
  8
L1_120
  6
CONTINUOUS
 62
         4
100
AcDbLine
 10
1339.4234914628
 20
-313.3657069372
 30
-114.0557897649
 11
1348.1257527614
 21
-305.1882562107
 31
-111.0794411083
  0
LINE
  5
30A
100
AcDbEntity
  8
L1_120
  6
CONTINUOUS
 62
         4
100
AcDbLine
 10
1362.1257527614
 20
-292.0325595197
 30
-106.2911591018
 11
1376.1897618206
 21
-278.8167139882
 31
-101.4809847076
  0
LINE
  5
30B
100
AcDbEntity
  8
L1_120
  6
CONTINUOUS
 62
         4
100
AcDbLine
 10
1335.7208232268
 20
-312.8582988095
 30
-113.8711083098
 11
1343.8831120743
 21
-305.1882562107
 31
-111.0794411083
  0
LINE
  5
30C
100
AcDbEntity
  8
L1_120
  6
CONTINUOUS
 62
         4
100
AcDbLine
 10
1357.8831120743
 20
-292.0325595197
 30
-106.2911591018
 11
1371.2227678454
 21
-279.4973834278
 31
-101.728728123
  0
LINE
  5
30D
100
AcDbEntity
  8
L1_120
  6
CONTINUOUS
 62
         4
100
AcDbLine
 10
1332.0181549907
 20
-312.3508906818
 30
-113.6864268547
 11
1339.6404713872
 21
-305.1882562107
 31
-111.0794411083
  0
LINE
  5
30E
100
AcDbEntity
  8
L1_120
  6
CONTINUOUS
 62
         4
100
AcDbLine
 10
1353.6404713872
 20
-292.0325595197
 30
-106.2911591018
 11
1366.2557738703
 21
-280.1780528674
 31
-101.9764715384
  0
LINE
  5
30F
100
AcDbEntity
  8
L1_120
  6
CONTINUOUS
 62
         4
100
AcDbLine
 10
1328.3154867547
 20
-311.8434825541
 30
-113.5017453996
 11
1335.3978307001
 21
-305.1882562107
 31
-111.0794411083
  0
LINE
  5
310
100
AcDbEntity
  8
L1_120
  6
CONTINUOUS
 62
         4
100
AcDbLine
 10
1349.3978307001
 20
-292.0325595197
 30
-106.2911591018
 11
1361.2887798951
 21
-280.858722307
 31
-102.2242149538
  0
LINE
  5
311
100
AcDbEntity
  8
L1_120
  6
CONTINUOUS
 62
         4
100
AcDbLine
 10
1324.6128185187
 20
-311.3360744264
 30
-113.3170639445
 11
1331.155190013
 21
-305.1882562107
 31
-111.0794411083
  0
LINE
  5
312
100
AcDbEntity
  8
L1_120
  6
CONTINUOUS
 62
         4
100
AcDbLine
 10
1345.155190013
 20
-292.0325595197
 30
-106.2911591018
 11
1356.3217859199
 21
-281.5393917467
 31
-102.4719583692
  0
LINE
  5
313
100
AcDbEntity
  8
L1_120
  6
CONTINUOUS
 62
         4
100
AcDbLine
 10
1320.9101502826
 20
-310.8286662986
 30
-113.1323824894
 11
1326.9125493258
 21
-305.1882562107
 31
-111.0794411083
  0
LINE
  5
314
100
AcDbEntity
  8
L1_120
  6
CONTINUOUS
 62
         4
100
AcDbLine
 10
1340.9125493258
 20
-292.0325595197
 30
-106.2911591018
 11
1351.3547919448
 21
-282.2200611863
 31
-102.7197017846
  0
LINE
  5
315
100
AcDbEntity
  8
L1_120
  6
CONTINUOUS
 62
         4
100
AcDbLine
 10
1317.2074820466
 20
-310.3212581709
 30
-112.9477010343
 11
1322.6699086387
 21
-305.1882562107
 31
-111.0794411083
  0
LINE
  5
316
100
AcDbEntity
  8
L1_120
  6
CONTINUOUS
 62
         4
100
AcDbLine
 10
1336.6699086387
 20
-292.0325595197
 30
-106.2911591018
 11
1346.3877979696
 21
-282.9007306259
 31
-102.9674452
  0
LINE
  5
317
100
AcDbEntity
  8
L1_120
  6
CONTINUOUS
 62
         4
100
AcDbLine
 10
1315.9008425579
 20
-307.5623195102
 30
-111.9435294836
 11
1317.2772679516
 21
-306.2689027246
 31
-111.4727642731
  0
LINE
  5
318
100
AcDbEntity
  8
L1_120
  6
CONTINUOUS
 62
         4
100
AcDbLine
 10
1332.4272679516
 20
-292.0325595197
 30
-106.2911591018
 11
1341.4208039944
 21
-283.5814000655
 31
-103.2151886154
  0
LINE
  5
319
100
AcDbEntity
  8
L1_120
  6
CONTINUOUS
 62
         4
100
AcDbLine
 10
1328.1846272645
 20
-292.0325595197
 30
-106.2911591018
 11
1336.4538100193
 21
-284.2620695051
 31
-103.4629320308
  0
LINE
  5
31A
100
AcDbEntity
  8
L1_120
  6
CONTINUOUS
 62
         4
100
AcDbLine
 10
1323.9419865774
 20
-292.0325595197
 30
-106.2911591018
 11
1331.4868160441
 21
-284.9427389448
 31
-103.7106754462
  0
LINE
  5
31B
100
AcDbEntity
  8
L1_120
  6
CONTINUOUS
 62
         4
100
AcDbLine
 10
1320.7515155803
 20
-291.0438434262
 30
-105.9312958736
 11
1326.5198220689
 21
-285.6234083844
 31
-103.9584188616
  0
LINE
  5
31C
100
AcDbEntity
  8
L1_120
  6
CONTINUOUS
 62
         4
100
AcDbLine
 10
1316.6410427147
 20
-290.9196462996
 30
-105.8860918163
 11
1321.5528280938
 21
-286.304077824
 31
-104.206162277
  0
LINE
  5
31D
100
AcDbEntity
  8
L1_120
  6
CONTINUOUS
 62
         4
100
AcDbLine
 10
1316.0815901356
 20
-287.4585816135
 30
-104.6263672917
 11
1316.4674986547
 21
-287.0959462258
 31
-104.4943788047
  0
ENDBLK
  5
31E
100
AcDbEntity
  8
0
  6
CONTINUOUS
100
AcDbBlockEnd
  0
BLOCK
  5
35A
100
AcDbEntity
  8
0
100
AcDbBlockBegin
  2
*D6
 70
        65
 10
0.0
 20
0.0
 30
0.0
  3
*D6
  1

  0
POINT
  5
35C
100
AcDbEntity
  8
DEFPOINTS
  6
CONTINUOUS
 62
         0
100
AcDbPoint
 10
1507.8956514245
 20
-277.8800646099
 30
-101.140072214
  0
POINT
  5
35D
100
AcDbEntity
  8
DEFPOINTS
  6
CONTINUOUS
 62
         0
100
AcDbPoint
 10
1507.8956514245
 20
-271.7833407967
 30
-98.9210462194
  0
POINT
  5
35E
100
AcDbEntity
  8
DEFPOINTS
  6
CONTINUOUS
 62
         0
100
AcDbPoint
 10
1514.3619744395
 20
-271.7833407967
 30
-98.9210462194
  0
LINE
  5
35F
100
AcDbEntity
  8
L1_120
  6
CONTINUOUS
 62
         4
100
AcDbLine
 10
1507.8956514245
 20
-273.0519258348
 30
-99.3827734129
 11
1507.8956514245
 21
-278.5143571289
 31
-101.3709358107
  0
LINE
  5
360
100
AcDbEntity
  8
L1_120
  6
CONTINUOUS
 62
         4
100
AcDbLine
 10
1514.3619744395
 20
-273.0519258348
 30
-99.3827734129
 11
1514.3619744395
 21
-278.5143571289
 31
-101.3709358107
  0
LINE
  5
361
100
AcDbEntity
  8
L1_120
  6
CONTINUOUS
 62
         4
100
AcDbLine
 10
1507.8956514245
 20
-277.8800646099
 30
-101.140072214
 11
1514.3619744395
 21
-277.8800646099
 31
-101.140072214
  0
SOLID
  5
362
100
AcDbEntity
  8
L1_120
  6
CONTINUOUS
 62
         4
100
AcDbTrace
 10
1507.8956514245
 20
-277.8800646099
 30
-101.140072214
 11
1510.5956514245
 21
-277.4994890985
 31
-101.0015540559
 12
1510.5956514245
 22
-278.2606401213
 32
-101.278590372
 13
1507.8956514245
 23
-277.8800646099
 33
-101.140072214
  0
LINE
  5
363
100
AcDbEntity
  8
L1_120
  6
CONTINUOUS
 62
         4
100
AcDbLine
 10
1514.3619744395
 20
-277.8800646099
 30
-101.140072214
 11
1533.6331239397
 21
-277.8800646099
 31
-101.140072214
  0
SOLID
  5
364
100
AcDbEntity
  8
L1_120
  6
CONTINUOUS
 62
         4
100
AcDbTrace
 10
1514.3619744395
 20
-277.8800646099
 30
-101.140072214
 11
1511.6619744395
 21
-278.2606401213
 31
-101.278590372
 12
1511.6619744395
 22
-277.4994890985
 32
-101.0015540559
 13
1514.3619744395
 23
-277.8800646099
 33
-101.140072214
  0
TEXT
  5
366
100
AcDbEntity
  8
L1_120
  6
CONTINUOUS
 62
         4
100
AcDbText
 10
1516.0831239397
 20
-293.688788172
 30
0.0
 40
2.7
  1
5.6Hex
  7
BOX
210
0.0
220
-0.3420201433256687
230
0.9396926207859084
100
AcDbText
  0
ENDBLK
  5
367
100
AcDbEntity
  8
0
  6
CONTINUOUS
100
AcDbBlockEnd
  0
BLOCK
  5
36A
100
AcDbEntity
  8
0
100
AcDbBlockBegin
  2
*D7
 70
        65
 10
0.0
 20
0.0
 30
0.0
  3
*D7
  1

  0
POINT
  5
36C
100
AcDbEntity
  8
DEFPOINTS
  6
CONTINUOUS
 62
         0
100
AcDbPoint
 10
1505.5662018068
 20
-256.1094195244
 30
-93.2162054221
  0
POINT
  5
36D
100
AcDbEntity
  8
DEFPOINTS
  6
CONTINUOUS
 62
         0
100
AcDbPoint
 10
1505.5662018068
 20
-264.4557910232
 30
-96.2540362118
  0
POINT
  5
36E
100
AcDbEntity
  8
DEFPOINTS
  6
CONTINUOUS
 62
         0
100
AcDbPoint
 10
1516.6914240572
 20
-264.4557910232
 30
-96.2540362118
  0
LINE
  5
36F
100
AcDbEntity
  8
L1_120
  6
CONTINUOUS
 62
         4
100
AcDbLine
 10
1505.5662018068
 20
-263.1872059852
 30
-95.7923090183
 11
1505.5662018068
 21
-255.4751270053
 31
-92.9853418253
  0
LINE
  5
370
100
AcDbEntity
  8
L1_120
  6
CONTINUOUS
 62
         4
100
AcDbLine
 10
1516.6914240572
 20
-263.1872059852
 30
-95.7923090183
 11
1516.6914240572
 21
-255.4751270053
 31
-92.9853418253
  0
LINE
  5
371
100
AcDbEntity
  8
L1_120
  6
CONTINUOUS
 62
         4
100
AcDbLine
 10
1505.5662018068
 20
-256.1094195244
 30
-93.2162054221
 11
1516.6914240572
 21
-256.1094195244
 31
-93.2162054221
  0
SOLID
  5
372
100
AcDbEntity
  8
L1_120
  6
CONTINUOUS
 62
         4
100
AcDbTrace
 10
1505.5662018068
 20
-256.1094195244
 30
-93.2162054221
 11
1508.2662018068
 21
-255.728844013
 31
-93.077687264
 12
1508.2662018068
 22
-256.4899950358
 32
-93.3547235801
 13
1505.5662018068
 23
-256.1094195244
 33
-93.2162054221
  0
SOLID
  5
373
100
AcDbEntity
  8
L1_120
  6
CONTINUOUS
 62
         4
100
AcDbTrace
 10
1516.6914240572
 20
-256.1094195244
 30
-93.2162054221
 11
1513.9914240572
 21
-256.4899950358
 31
-93.3547235801
 12
1513.9914240572
 22
-255.728844013
 32
-93.077687264
 13
1516.6914240572
 23
-256.1094195244
 33
-93.2162054221
  0
TEXT
  5
375
100
AcDbEntity
  8
L1_120
  6
CONTINUOUS
 62
         4
100
AcDbText
 10
1495.8874990076
 20
-270.5209515795
 30
0.0
 40
2.7
  1
7/16"-20UNF
  7
BOX
210
0.0
220
-0.3420201433256687
230
0.9396926207859084
100
AcDbText
  0
ENDBLK
  5
376
100
AcDbEntity
  8
0
  6
CONTINUOUS
100
AcDbBlockEnd
  0
BLOCK
  5
378
100
AcDbEntity
  8
0
100
AcDbBlockBegin
  2
*D8
 70
        65
 10
0.0
 20
0.0
 30
0.0
  3
*D8
  1

  0
POINT
  5
37A
100
AcDbEntity
  8
DEFPOINTS
  6
CONTINUOUS
 62
         0
100
AcDbPoint
 10
1500.6939251419
 20
-262.2360446749
 30
-95.4461146134
  0
POINT
  5
37B
100
AcDbEntity
  8
DEFPOINTS
  6
CONTINUOUS
 62
         0
100
AcDbPoint
 10
1507.9284065312
 20
-262.2360446749
 30
-95.4461146134
  0
POINT
  5
37C
100
AcDbEntity
  8
DEFPOINTS
  6
CONTINUOUS
 62
         0
100
AcDbPoint
 10
1506.4128617001
 20
-271.7833407967
 30
-98.9210462194
  0
LINE
  5
37D
100
AcDbEntity
  8
L1_120
  6
CONTINUOUS
 62
         4
100
AcDbLine
 10
1506.5784065312
 20
-262.2360446749
 30
-95.4461146134
 11
1500.0189251419
 21
-262.2360446749
 31
-95.4461146134
  0
LINE
  5
37E
100
AcDbEntity
  8
L1_120
  6
CONTINUOUS
 62
         4
100
AcDbLine
 10
1505.0628617001
 20
-271.7833407967
 30
-98.9210462194
 11
1500.0189251419
 21
-271.7833407967
 31
-98.9210462194
  0
LINE
  5
37F
100
AcDbEntity
  8
L1_120
  6
CONTINUOUS
 62
         4
100
AcDbLine
 10
1500.6939251419
 20
-262.2360446749
 30
-95.4461146134
 11
1500.6939251419
 21
-271.7833407967
 31
-98.9210462194
  0
SOLID
  5
380
100
AcDbEntity
  8
L1_120
  6
CONTINUOUS
 62
         4
100
AcDbTrace
 10
1500.6939251419
 20
-262.2360446749
 30
-95.4461146134
 11
1501.0989251419
 21
-264.7732147511
 31
-96.3695690004
 12
1500.2889251419
 22
-264.7732147511
 32
-96.3695690004
 13
1500.6939251419
 23
-262.2360446749
 33
-95.4461146134
  0
SOLID
  5
381
100
AcDbEntity
  8
L1_120
  6
CONTINUOUS
 62
         4
100
AcDbTrace
 10
1500.6939251419
 20
-271.7833407967
 30
-98.9210462194
 11
1500.2889251419
 21
-269.2461707206
 31
-97.9975918324
 12
1501.0989251419
 22
-269.2461707206
 32
-97.9975918324
 13
1500.6939251419
 23
-271.7833407967
 33
-98.9210462194
  0
TEXT
  5
383
100
AcDbEntity
  8
L1_120
  6
CONTINUOUS
 62
         4
100
AcDbText
 10
1498.6689251419
 20
-287.5137971184
 30
0.0
 40
2.7
  1
10
 50
90.0
  7
BOX
210
0.0
220
-0.3420201433256687
230
0.9396926207859084
100
AcDbText
  0
ENDBLK
  5
384
100
AcDbEntity
  8
0
  6
CONTINUOUS
100
AcDbBlockEnd
  0
ENDSEC
  0
SECTION
  2
ENTITIES
  0
LINE
  5
25
100
AcDbEntity
  8
L1_120
  6
CENTER
 62
         1
100
AcDbLine
 10
1243.1257669317
 20
-202.3411315175
 30
8.3266993954
 11
1237.487611207
 21
-200.4127686885
 31
9.0285660661
  0
ARC
  5
26
100
AcDbEntity
  8
L1_120
  6
CONTINUOUS
 62
         7
100
AcDbCircle
 10
1241.2202828813
 20
-186.5970297716
 30
77.0292807797
 40
2.9722262277
210
0.0
220
-0.3420201433256687
230
0.9396926207859084
100
AcDbArc
 50
141.257725858
 51
160.0
  0
ARC
  5
27
100
AcDbEntity
  8
L1_120
  6
CONTINUOUS
 62
         7
100
AcDbCircle
 10
1240.8282055258
 20
-186.2824413391
 30
77.0292807797
 40
2.4695428935
210
0.0
220
-0.3420201433256687
230
0.9396926207859084
100
AcDbArc
 50
120.6773100903
 51
141.257725858
  0
POLYLINE
  5
29
100
AcDbEntity
  8
L1_120
  6
CONTINUOUS
 62
         7
100
AcDb3dPolyline
 66
         1
 10
0.0
 20
0.0
 30
0.0
 70
         8
  0
VERTEX
  5
2B
100
AcDbEntity
  8
L1_120
  6
CONTINUOUS
 62
         7
100
AcDbVertex
100
AcDb3dPolylineVertex
 10
1239.5682389019
 20
-199.3979492909
 30
9.39793012
 70
        32
  0
VERTEX
  5
2D
100
AcDbEntity
  8
L1_120
  6
CONTINUOUS
 62
         7
100
AcDbVertex
100
AcDb3dPolylineVertex
 10
1239.5682389019
 20
-199.3979492909
 30
9.39793012
 70
        32
  0
SEQEND
  5
2F
100
AcDbEntity
  8
L1_120
  6
CONTINUOUS
 62
         7
  0
ARC
  5
30
100
AcDbEntity
  8
L1_120
  6
CONTINUOUS
 62
         7
100
AcDbCircle
 10
1240.6284669948
 20
-185.9457396466
 30
77.0292807797
 40
2.0780540551
210
0.0
220
-0.3420201433256687
230
0.9396926207859084
100
AcDbArc
 50
96.8239621528
 51
120.6773100904
  0
POLYLINE
  5
32
100
AcDbEntity
  8
L1_120
  6
CONTINUOUS
 62
         7
100
AcDb3dPolyline
 66
         1
 10
0.0
 20
0.0
 30
0.0
 70
         8
  0
VERTEX
  5
34
100
AcDbEntity
  8
L1_120
  6
CONTINUOUS
 62
         7
100
AcDbVertex
100
AcDb3dPolylineVertex
 10
1240.3815542028
 20
-199.138506348
 30
9.4923596286
 70
        32
  0
VERTEX
  5
36
100
AcDbEntity
  8
L1_120
  6
CONTINUOUS
 62
         7
100
AcDbVertex
100
AcDb3dPolylineVertex
 10
1240.3815542028
 20
-199.138506348
 30
9.4923596286
 70
        32
  0
SEQEND
  5
38
100
AcDbEntity
  8
L1_120
  6
CONTINUOUS
 62
         7
  0
ARC
  5
39
100
AcDbEntity
  8
L1_120
  6
CONTINUOUS
 62
         7
100
AcDbCircle
 10
1240.5775566661
 20
-185.5203062123
 30
77.0292807797
 40
1.6495853065
210
0.0
220
-0.3420201433256687
230
0.9396926207859084
100
AcDbArc
 50
70.0000000001
 51
96.8239621529
  0
POLYLINE
  5
3B
100
AcDbEntity
  8
L1_120
  6
CONTINUOUS
 62
         7
100
AcDb3dPolyline
 66
         1
 10
0.0
 20
0.0
 30
0.0
 70
         8
  0
VERTEX
  5
3D
100
AcDbEntity
  8
L1_120
  6
CONTINUOUS
 62
         7
100
AcDbVertex
100
AcDb3dPolylineVertex
 10
1241.141748069
 20
-199.2210079242
 30
9.4623315106
 70
        32
  0
VERTEX
  5
3F
100
AcDbEntity
  8
L1_120
  6
CONTINUOUS
 62
         7
100
AcDbVertex
100
AcDb3dPolylineVertex
 10
1241.141748069
 20
-199.2210079242
 30
9.4623315106
 70
        32
  0
SEQEND
  5
41
100
AcDbEntity
  8
L1_120
  6
CONTINUOUS
 62
         7
  0
ARC
  5
42
100
AcDbEntity
  8
L1_120
  6
CONTINUOUS
 62
         7
100
AcDbCircle
 10
1240.5775566661
 20
-185.5203062123
 30
77.0292807797
 40
1.6495853065
210
0.0
220
-0.3420201433256687
230
0.9396926207859084
100
AcDbArc
 50
43.1760378472
 51
70.0
  0
POLYLINE
  5
44
100
AcDbEntity
  8
L1_120
  6
CONTINUOUS
 62
         7
100
AcDb3dPolyline
 66
         1
 10
0.0
 20
0.0
 30
0.0
 70
         8
  0
VERTEX
  5
46
100
AcDbEntity
  8
L1_120
  6
CONTINUOUS
 62
         7
100
AcDbVertex
100
AcDb3dPolylineVertex
 10
1241.7805247577
 20
-199.6169824578
 30
9.3182085669
 70
        32
  0
VERTEX
  5
48
100
AcDbEntity
  8
L1_120
  6
CONTINUOUS
 62
         7
100
AcDbVertex
100
AcDb3dPolylineVertex
 10
1241.7805247577
 20
-199.6169824578
 30
9.3182085669
 70
        32
  0
SEQEND
  5
4A
100
AcDbEntity
  8
L1_120
  6
CONTINUOUS
 62
         7
  0
ARC
  5
4B
100
AcDbEntity
  8
L1_120
  6
CONTINUOUS
 62
         7
100
AcDbCircle
 10
1240.2650937514
 20
-185.813482602
 30
77.0292807797
 40
2.0780540551
210
0.0
220
-0.3420201433256687
230
0.9396926207859084
100
AcDbArc
 50
19.3226899096
 51
43.1760378472
  0
POLYLINE
  5
4D
100
AcDbEntity
  8
L1_120
  6
CONTINUOUS
 62
         7
100
AcDb3dPolyline
 66
         1
 10
0.0
 20
0.0
 30
0.0
 70
         8
  0
VERTEX
  5
4F
100
AcDbEntity
  8
L1_120
  6
CONTINUOUS
 62
         7
100
AcDbVertex
100
AcDb3dPolylineVertex
 10
1242.2260909995
 20
-200.3069882462
 30
9.0670669984
 70
        32
  0
VERTEX
  5
51
100
AcDbEntity
  8
L1_120
  6
CONTINUOUS
 62
         7
100
AcDbVertex
100
AcDb3dPolylineVertex
 10
1242.2260909995
 20
-200.3069882462
 30
9.0670669984
 70
        32
  0
SEQEND
  5
53
100
AcDbEntity
  8
L1_120
  6
CONTINUOUS
 62
         7
  0
ARC
  5
54
100
AcDbEntity
  8
L1_120
  6
CONTINUOUS
 62
         7
100
AcDbCircle
 10
1239.8956574834
 20
-185.9430216097
 30
77.0292807797
 40
2.4695428935
210
0.0
220
-0.3420201433256687
230
0.9396926207859084
100
AcDbArc
 50
358.742274142
 51
379.3226899097
  0
POLYLINE
  5
56
100
AcDbEntity
  8
L1_120
  6
CONTINUOUS
 62
         7
100
AcDb3dPolyline
 66
         1
 10
0.0
 20
0.0
 30
0.0
 70
         8
  0
VERTEX
  5
58
100
AcDbEntity
  8
L1_120
  6
CONTINUOUS
 62
         7
100
AcDbVertex
100
AcDb3dPolylineVertex
 10
1242.3646054058
 20
-201.1257876532
 30
8.7690483865
 70
        32
  0
VERTEX
  5
5A
100
AcDbEntity
  8
L1_120
  6
CONTINUOUS
 62
         7
100
AcDbVertex
100
AcDb3dPolylineVertex
 10
1242.3646054058
 20
-201.1257876532
 30
8.7690483865
 70
        32
  0
SEQEND
  5
5C
100
AcDbEntity
  8
L1_120
  6
CONTINUOUS
 62
         7
  0
ARC
  5
5D
100
AcDbEntity
  8
L1_120
  6
CONTINUOUS
 62
         7
100
AcDbCircle
 10
1239.3930952575
 20
-185.9319878641
 30
77.0292807797
 40
2.9722262277
210
0.0
220
-0.3420201433256687
230
0.9396926207859084
100
AcDbArc
 50
339.9999999999
 51
358.742274142
  0
POLYLINE
  5
5F
100
AcDbEntity
  8
L1_120
  6
CONTINUOUS
 62
         7
100
AcDb3dPolyline
 66
         1
 10
0.0
 20
0.0
 30
0.0
 70
         8
  0
VERTEX
  5
61
100
AcDbEntity
  8
L1_120
  6
CONTINUOUS
 62
         7
100
AcDbVertex
100
AcDb3dPolylineVertex
 10
1242.186074311
 20
-202.0197377127
 30
8.4436771739
 70
        32
  0
VERTEX
  5
63
100
AcDbEntity
  8
L1_120
  6
CONTINUOUS
 62
         7
100
AcDbVertex
100
AcDb3dPolylineVertex
 10
1242.186074311
 20
-202.0197377127
 30
8.4436771739
 70
        32
  0
SEQEND
  5
65
100
AcDbEntity
  8
L1_120
  6
CONTINUOUS
 62
         7
  0
ARC
  5
66
100
AcDbEntity
  8
L1_120
  6
CONTINUOUS
 62
         7
100
AcDbCircle
 10
1239.3930952574
 20
-185.9319878641
 30
77.0292807797
 40
2.9722262277
210
0.0
220
-0.3420201433256687
230
0.9396926207859084
100
AcDbArc
 50
321.257725858
 51
340.0
  0
POLYLINE
  5
68
100
AcDbEntity
  8
L1_120
  6
CONTINUOUS
 62
         7
100
AcDb3dPolyline
 66
         1
 10
0.0
 20
0.0
 30
0.0
 70
         8
  0
VERTEX
  5
6A
100
AcDbEntity
  8
L1_120
  6
CONTINUOUS
 62
         7
100
AcDbVertex
100
AcDb3dPolylineVertex
 10
1241.7113392092
 20
-202.8123800353
 30
8.155178962
 70
        32
  0
VERTEX
  5
6C
100
AcDbEntity
  8
L1_120
  6
CONTINUOUS
 62
         7
100
AcDbVertex
100
AcDb3dPolylineVertex
 10
1241.7113392092
 20
-202.8123800353
 30
8.155178962
 70
        32
  0
SEQEND
  5
6E
100
AcDbEntity
  8
L1_120
  6
CONTINUOUS
 62
         7
  0
ARC
  5
6F
100
AcDbEntity
  8
L1_120
  6
CONTINUOUS
 62
         7
100
AcDbCircle
 10
1239.7851726129
 20
-186.2465762966
 30
77.0292807797
 40
2.4695428935
210
0.0
220
-0.3420201433256687
230
0.9396926207859084
100
AcDbArc
 50
300.6773100903
 51
321.257725858
  0
POLYLINE
  5
71
100
AcDbEntity
  8
L1_120
  6
CONTINUOUS
 62
         7
100
AcDb3dPolyline
 66
         1
 10
0.0
 20
0.0
 30
0.0
 70
         8
  0
VERTEX
  5
73
100
AcDbEntity
  8
L1_120
  6
CONTINUOUS
 62
         7
100
AcDbVertex
100
AcDb3dPolylineVertex
 10
1241.0451392368
 20
-203.3559509151
 30
7.9573353416
 70
        32
  0
VERTEX
  5
75
100
AcDbEntity
  8
L1_120
  6
CONTINUOUS
 62
         7
100
AcDbVertex
100
AcDb3dPolylineVertex
 10
1241.0451392368
 20
-203.3559509151
 30
7.9573353416
 70
        32
  0
SEQEND
  5
77
100
AcDbEntity
  8
L1_120
  6
CONTINUOUS
 62
         7
  0
ARC
  5
78
100
AcDbEntity
  8
L1_120
  6
CONTINUOUS
 62
         7
100
AcDbCircle
 10
1239.984911144
 20
-186.5832779891
 30
77.0292807797
 40
2.0780540551
210
0.0
220
-0.3420201433256687
230
0.9396926207859084
100
AcDbArc
 50
276.8239621528
 51
300.6773100904
  0
POLYLINE
  5
7A
100
AcDbEntity
  8
L1_120
  6
CONTINUOUS
 62
         7
100
AcDb3dPolyline
 66
         1
 10
0.0
 20
0.0
 30
0.0
 70
         8
  0
VERTEX
  5
7C
100
AcDbEntity
  8
L1_120
  6
CONTINUOUS
 62
         7
100
AcDbVertex
100
AcDb3dPolylineVertex
 10
1240.231823936
 20
-203.6153938579
 30
7.8629058329
 70
        32
  0
VERTEX
  5
7E
100
AcDbEntity
  8
L1_120
  6
CONTINUOUS
 62
         7
100
AcDbVertex
100
AcDb3dPolylineVertex
 10
1240.231823936
 20
-203.6153938579
 30
7.8629058329
 70
        32
  0
SEQEND
  5
80
100
AcDbEntity
  8
L1_120
  6
CONTINUOUS
 62
         7
  0
ARC
  5
81
100
AcDbEntity
  8
L1_120
  6
CONTINUOUS
 62
         7
100
AcDbCircle
 10
1240.0358214727
 20
-187.0087114234
 30
77.0292807797
 40
1.6495853065
210
0.0
220
-0.3420201433256687
230
0.9396926207859084
100
AcDbArc
 50
250.0
 51
276.8239621528
  0
POLYLINE
  5
83
100
AcDbEntity
  8
L1_120
  6
CONTINUOUS
 62
         7
100
AcDb3dPolyline
 66
         1
 10
0.0
 20
0.0
 30
0.0
 70
         8
  0
VERTEX
  5
85
100
AcDbEntity
  8
L1_120
  6
CONTINUOUS
 62
         7
100
AcDbVertex
100
AcDb3dPolylineVertex
 10
1239.4716300697
 20
-203.5328922818
 30
7.8929339509
 70
        32
  0
VERTEX
  5
87
100
AcDbEntity
  8
L1_120
  6
CONTINUOUS
 62
         7
100
AcDbVertex
100
AcDb3dPolylineVertex
 10
1239.4716300697
 20
-203.5328922818
 30
7.8929339509
 70
        32
  0
SEQEND
  5
89
100
AcDbEntity
  8
L1_120
  6
CONTINUOUS
 62
         7
  0
ARC
  5
8A
100
AcDbEntity
  8
L1_120
  6
CONTINUOUS
 62
         7
100
AcDbCircle
 10
1240.0358214727
 20
-187.0087114234
 30
77.0292807797
 40
1.6495853065
210
0.0
220
-0.3420201433256687
230
0.9396926207859084
100
AcDbArc
 50
223.1760378472
 51
249.9999999999
  0
POLYLINE
  5
8C
100
AcDbEntity
  8
L1_120
  6
CONTINUOUS
 62
         7
100
AcDb3dPolyline
 66
         1
 10
0.0
 20
0.0
 30
0.0
 70
         8
  0
VERTEX
  5
8E
100
AcDbEntity
  8
L1_120
  6
CONTINUOUS
 62
         7
100
AcDbVertex
100
AcDb3dPolylineVertex
 10
1238.832853381
 20
-203.1369177482
 30
8.0370568946
 70
        32
  0
VERTEX
  5
90
100
AcDbEntity
  8
L1_120
  6
CONTINUOUS
 62
         7
100
AcDbVertex
100
AcDb3dPolylineVertex
 10
1238.832853381
 20
-203.1369177482
 30
8.0370568946
 70
        32
  0
SEQEND
  5
92
100
AcDbEntity
  8
L1_120
  6
CONTINUOUS
 62
         7
  0
ARC
  5
93
100
AcDbEntity
  8
L1_120
  6
CONTINUOUS
 62
         7
100
AcDbCircle
 10
1240.3482843874
 20
-186.7155350337
 30
77.0292807797
 40
2.0780540551
210
0.0
220
-0.3420201433256687
230
0.9396926207859084
100
AcDbArc
 50
199.3226899097
 51
223.1760378473
  0
POLYLINE
  5
95
100
AcDbEntity
  8
L1_120
  6
CONTINUOUS
 62
         7
100
AcDb3dPolyline
 66
         1
 10
0.0
 20
0.0
 30
0.0
 70
         8
  0
VERTEX
  5
97
100
AcDbEntity
  8
L1_120
  6
CONTINUOUS
 62
         7
100
AcDbVertex
100
AcDb3dPolylineVertex
 10
1238.3872871393
 20
-202.4469119598
 30
8.2881984631
 70
        32
  0
VERTEX
  5
99
100
AcDbEntity
  8
L1_120
  6
CONTINUOUS
 62
         7
100
AcDbVertex
100
AcDb3dPolylineVertex
 10
1238.3872871393
 20
-202.4469119598
 30
8.2881984631
 70
        32
  0
SEQEND
  5
9B
100
AcDbEntity
  8
L1_120
  6
CONTINUOUS
 62
         7
  0
ARC
  5
9C
100
AcDbEntity
  8
L1_120
  6
CONTINUOUS
 62
         7
100
AcDbCircle
 10
1240.7177206553
 20
-186.585996026
 30
77.0292807797
 40
2.4695428935
210
0.0
220
-0.3420201433256687
230
0.9396926207859084
100
AcDbArc
 50
178.7422741421
 51
199.3226899097
  0
POLYLINE
  5
9E
100
AcDbEntity
  8
L1_120
  6
CONTINUOUS
 62
         7
100
AcDb3dPolyline
 66
         1
 10
0.0
 20
0.0
 30
0.0
 70
         8
  0
VERTEX
  5
A0
100
AcDbEntity
  8
L1_120
  6
CONTINUOUS
 62
         7
100
AcDbVertex
100
AcDb3dPolylineVertex
 10
1238.2487727329
 20
-201.6281125528
 30
8.5862170751
 70
        32
  0
VERTEX
  5
A2
100
AcDbEntity
  8
L1_120
  6
CONTINUOUS
 62
         7
100
AcDbVertex
100
AcDb3dPolylineVertex
 10
1238.2487727329
 20
-201.6281125528
 30
8.5862170751
 70
        32
  0
SEQEND
  5
A4
100
AcDbEntity
  8
L1_120
  6
CONTINUOUS
 62
         7
  0
ARC
  5
A5
100
AcDbEntity
  8
L1_120
  6
CONTINUOUS
 62
         7
100
AcDbCircle
 10
1241.2202828813
 20
-186.5970297716
 30
77.0292807797
 40
2.9722262277
210
0.0
220
-0.3420201433256687
230
0.9396926207859084
100
AcDbArc
 50
160.0
 51
178.7422741421
  0
POLYLINE
  5
A7
100
AcDbEntity
  8
L1_120
  6
CONTINUOUS
 62
         7
100
AcDb3dPolyline
 66
         1
 10
0.0
 20
0.0
 30
0.0
 70
         8
  0
VERTEX
  5
A9
100
AcDbEntity
  8
L1_120
  6
CONTINUOUS
 62
         7
100
AcDbVertex
100
AcDb3dPolylineVertex
 10
1238.4273038278
 20
-200.7341624933
 30
8.9115882877
 70
        32
  0
VERTEX
  5
AB
100
AcDbEntity
  8
L1_120
  6
CONTINUOUS
 62
         7
100
AcDbVertex
100
AcDb3dPolylineVertex
 10
1238.4273038278
 20
-200.7341624933
 30
8.9115882877
 70
        32
  0
SEQEND
  5
AD
100
AcDbEntity
  8
L1_120
  6
CONTINUOUS
 62
         7
  0
ARC
  5
AE
100
AcDbEntity
  8
L1_120
  6
CONTINUOUS
 62
         7
100
AcDbCircle
 10
1221.7960060118
 20
-236.5568841245
 30
77.0292807797
 40
2.0780540551
210
0.0
220
-0.3420201433256687
230
0.9396926207859084
100
AcDbArc
 50
19.3226899096
 51
43.1760378472
  0
ARC
  5
AF
100
AcDbEntity
  8
L1_120
  6
CONTINUOUS
 62
         7
100
AcDbCircle
 10
1221.4265697438
 20
-236.6864231321
 30
77.0292807797
 40
2.4695428935
210
0.0
220
-0.3420201433256687
230
0.9396926207859084
100
AcDbArc
 50
358.742274142
 51
379.3226899097
  0
ARC
  5
B0
100
AcDbEntity
  8
L1_120
  6
CONTINUOUS
 62
         7
100
AcDbCircle
 10
1222.7511951417
 20
-237.340431294
 30
77.0292807797
 40
2.9722262277
210
0.0
220
-0.3420201433256687
230
0.9396926207859084
100
AcDbArc
 50
160.0
 51
178.742274142
  0
ARC
  5
B1
100
AcDbEntity
  8
L1_120
  6
CONTINUOUS
 62
         7
100
AcDbCircle
 10
1222.2486329158
 20
-237.3293975485
 30
77.0292807797
 40
2.4695428935
210
0.0
220
-0.3420201433256687
230
0.9396926207859084
100
AcDbArc
 50
178.742274142
 51
199.3226899096
  0
ARC
  5
B2
100
AcDbEntity
  8
L1_120
  6
CONTINUOUS
 62
         7
100
AcDbCircle
 10
1221.8791966478
 20
-237.4589365561
 30
77.0292807797
 40
2.0780540551
210
0.0
220
-0.3420201433256687
230
0.9396926207859084
100
AcDbArc
 50
199.3226899096
 51
223.1760378473
  0
POLYLINE
  5
B4
100
AcDbEntity
  8
L1_120
  6
CONTINUOUS
 62
         7
100
AcDb3dPolyline
 66
         1
 10
0.0
 20
0.0
 30
0.0
 70
         8
  0
VERTEX
  5
B6
100
AcDbEntity
  8
L1_120
  6
CONTINUOUS
 62
         7
100
AcDbVertex
100
AcDb3dPolylineVertex
 10
1220.3637656414
 20
-250.8201177124
 30
-9.3182085669
 70
        32
  0
VERTEX
  5
B8
100
AcDbEntity
  8
L1_120
  6
CONTINUOUS
 62
         7
100
AcDbVertex
100
AcDb3dPolylineVertex
 10
1220.3637656414
 20
-250.8201177124
 30
-9.3182085669
 70
        32
  0
SEQEND
  5
BA
100
AcDbEntity
  8
L1_120
  6
CONTINUOUS
 62
         7
  0
ARC
  5
BB
100
AcDbEntity
  8
L1_120
  6
CONTINUOUS
 62
         7
100
AcDbCircle
 10
1221.5667337331
 20
-237.7521129458
 30
77.0292807797
 40
1.6495853065
210
0.0
220
-0.3420201433256687
230
0.9396926207859084
100
AcDbArc
 50
223.1760378472
 51
250.0
  0
POLYLINE
  5
BD
100
AcDbEntity
  8
L1_120
  6
CONTINUOUS
 62
         7
100
AcDb3dPolyline
 66
         1
 10
0.0
 20
0.0
 30
0.0
 70
         8
  0
VERTEX
  5
BF
100
AcDbEntity
  8
L1_120
  6
CONTINUOUS
 62
         7
100
AcDbVertex
100
AcDb3dPolylineVertex
 10
1221.0025423302
 20
-251.216092246
 30
-9.4623315106
 70
        32
  0
VERTEX
  5
C1
100
AcDbEntity
  8
L1_120
  6
CONTINUOUS
 62
         7
100
AcDbVertex
100
AcDb3dPolylineVertex
 10
1221.0025423302
 20
-251.216092246
 30
-9.4623315106
 70
        32
  0
SEQEND
  5
C3
100
AcDbEntity
  8
L1_120
  6
CONTINUOUS
 62
         7
  0
ARC
  5
C4
100
AcDbEntity
  8
L1_120
  6
CONTINUOUS
 62
         7
100
AcDbCircle
 10
1221.5667337331
 20
-237.7521129458
 30
77.0292807797
 40
1.6495853065
210
0.0
220
-0.3420201433256687
230
0.9396926207859084
100
AcDbArc
 50
250.0
 51
276.8239621528
  0
POLYLINE
  5
C6
100
AcDbEntity
  8
L1_120
  6
CONTINUOUS
 62
         7
100
AcDb3dPolyline
 66
         1
 10
0.0
 20
0.0
 30
0.0
 70
         8
  0
VERTEX
  5
C8
100
AcDbEntity
  8
L1_120
  6
CONTINUOUS
 62
         7
100
AcDbVertex
100
AcDb3dPolylineVertex
 10
1221.7627361964
 20
-251.2985938222
 30
-9.4923596286
 70
        32
  0
VERTEX
  5
CA
100
AcDbEntity
  8
L1_120
  6
CONTINUOUS
 62
         7
100
AcDbVertex
100
AcDb3dPolylineVertex
 10
1221.7627361964
 20
-251.2985938222
 30
-9.4923596286
 70
        32
  0
SEQEND
  5
CC
100
AcDbEntity
  8
L1_120
  6
CONTINUOUS
 62
         7
  0
ARC
  5
CD
100
AcDbEntity
  8
L1_120
  6
CONTINUOUS
 62
         7
100
AcDbCircle
 10
1221.5158234044
 20
-237.3266795116
 30
77.0292807797
 40
2.0780540551
210
0.0
220
-0.3420201433256687
230
0.9396926207859084
100
AcDbArc
 50
276.8239621528
 51
300.6773100903
  0
POLYLINE
  5
CF
100
AcDbEntity
  8
L1_120
  6
CONTINUOUS
 62
         7
100
AcDb3dPolyline
 66
         1
 10
0.0
 20
0.0
 30
0.0
 70
         8
  0
VERTEX
  5
D1
100
AcDbEntity
  8
L1_120
  6
CONTINUOUS
 62
         7
100
AcDbVertex
100
AcDb3dPolylineVertex
 10
1222.5760514972
 20
-251.0391508793
 30
-9.39793012
 70
        32
  0
VERTEX
  5
D3
100
AcDbEntity
  8
L1_120
  6
CONTINUOUS
 62
         7
100
AcDbVertex
100
AcDb3dPolylineVertex
 10
1222.5760514972
 20
-251.0391508793
 30
-9.39793012
 70
        32
  0
SEQEND
  5
D5
100
AcDbEntity
  8
L1_120
  6
CONTINUOUS
 62
         7
  0
ARC
  5
D6
100
AcDbEntity
  8
L1_120
  6
CONTINUOUS
 62
         7
100
AcDbCircle
 10
1221.3160848733
 20
-236.989977819
 30
77.0292807797
 40
2.4695428935
210
0.0
220
-0.3420201433256687
230
0.9396926207859084
100
AcDbArc
 50
300.6773100904
 51
321.2577258581
  0
POLYLINE
  5
D8
100
AcDbEntity
  8
L1_120
  6
CONTINUOUS
 62
         7
100
AcDb3dPolyline
 66
         1
 10
0.0
 20
0.0
 30
0.0
 70
         8
  0
VERTEX
  5
DA
100
AcDbEntity
  8
L1_120
  6
CONTINUOUS
 62
         7
100
AcDbVertex
100
AcDb3dPolylineVertex
 10
1223.2422514696
 20
-250.4955799995
 30
-9.2000864995
 70
        32
  0
VERTEX
  5
DC
100
AcDbEntity
  8
L1_120
  6
CONTINUOUS
 62
         7
100
AcDbVertex
100
AcDb3dPolylineVertex
 10
1223.2422514696
 20
-250.4955799995
 30
-9.2000864995
 70
        32
  0
SEQEND
  5
DE
100
AcDbEntity
  8
L1_120
  6
CONTINUOUS
 62
         7
  0
ARC
  5
DF
100
AcDbEntity
  8
L1_120
  6
CONTINUOUS
 62
         7
100
AcDbCircle
 10
1220.9240075179
 20
-236.6753893865
 30
77.0292807797
 40
2.9722262277
210
0.0
220
-0.3420201433256687
230
0.9396926207859084
100
AcDbArc
 50
321.257725858
 51
340.0
  0
POLYLINE
  5
E1
100
AcDbEntity
  8
L1_120
  6
CONTINUOUS
 62
         7
100
AcDb3dPolyline
 66
         1
 10
0.0
 20
0.0
 30
0.0
 70
         8
  0
VERTEX
  5
E3
100
AcDbEntity
  8
L1_120
  6
CONTINUOUS
 62
         7
100
AcDbVertex
100
AcDb3dPolylineVertex
 10
1223.7169865714
 20
-249.7029376769
 30
-8.9115882876
 70
        32
  0
VERTEX
  5
E5
100
AcDbEntity
  8
L1_120
  6
CONTINUOUS
 62
         7
100
AcDbVertex
100
AcDb3dPolylineVertex
 10
1223.7169865714
 20
-249.7029376769
 30
-8.9115882876
 70
        32
  0
SEQEND
  5
E7
100
AcDbEntity
  8
L1_120
  6
CONTINUOUS
 62
         7
  0
ARC
  5
E8
100
AcDbEntity
  8
L1_120
  6
CONTINUOUS
 62
         7
100
AcDbCircle
 10
1220.9240075179
 20
-236.6753893865
 30
77.0292807797
 40
2.9722262277
210
0.0
220
-0.3420201433256687
230
0.9396926207859084
100
AcDbArc
 50
339.9999999999
 51
358.742274142
  0
POLYLINE
  5
EA
100
AcDbEntity
  8
L1_120
  6
CONTINUOUS
 62
         7
100
AcDb3dPolyline
 66
         1
 10
0.0
 20
0.0
 30
0.0
 70
         8
  0
VERTEX
  5
EC
100
AcDbEntity
  8
L1_120
  6
CONTINUOUS
 62
         7
100
AcDbVertex
100
AcDb3dPolylineVertex
 10
1223.8955176663
 20
-248.8089876174
 30
-8.5862170751
 70
        32
  0
VERTEX
  5
EE
100
AcDbEntity
  8
L1_120
  6
CONTINUOUS
 62
         7
100
AcDbVertex
100
AcDb3dPolylineVertex
 10
1223.8955176663
 20
-248.8089876174
 30
-8.5862170751
 70
        32
  0
SEQEND
  5
F0
100
AcDbEntity
  8
L1_120
  6
CONTINUOUS
 62
         7
  0
POLYLINE
  5
F2
100
AcDbEntity
  8
L1_120
  6
CONTINUOUS
 62
         7
100
AcDb3dPolyline
 66
         1
 10
0.0
 20
0.0
 30
0.0
 70
         8
  0
VERTEX
  5
F4
100
AcDbEntity
  8
L1_120
  6
CONTINUOUS
 62
         7
100
AcDbVertex
100
AcDb3dPolylineVertex
 10
1223.3114370182
 20
-247.300182422
 30
-8.0370568946
 70
        32
  0
VERTEX
  5
F6
100
AcDbEntity
  8
L1_120
  6
CONTINUOUS
 62
         7
100
AcDbVertex
100
AcDb3dPolylineVertex
 10
1223.3114370182
 20
-247.300182422
 30
-8.0370568946
 70
        32
  0
SEQEND
  5
F8
100
AcDbEntity
  8
L1_120
  6
CONTINUOUS
 62
         7
  0
ARC
  5
F9
100
AcDbEntity
  8
L1_120
  6
CONTINUOUS
 62
         7
100
AcDbCircle
 10
1222.1084689265
 20
-236.2637077347
 30
77.0292807797
 40
1.6495853065
210
0.0
220
-0.3420201433256687
230
0.9396926207859084
100
AcDbArc
 50
43.1760378472
 51
70.0
  0
POLYLINE
  5
FB
100
AcDbEntity
  8
L1_120
  6
CONTINUOUS
 62
         7
100
AcDb3dPolyline
 66
         1
 10
0.0
 20
0.0
 30
0.0
 70
         8
  0
VERTEX
  5
FD
100
AcDbEntity
  8
L1_120
  6
CONTINUOUS
 62
         7
100
AcDbVertex
100
AcDb3dPolylineVertex
 10
1222.6726603294
 20
-246.9042078884
 30
-7.8929339509
 70
        32
  0
VERTEX
  5
FF
100
AcDbEntity
  8
L1_120
  6
CONTINUOUS
 62
         7
100
AcDbVertex
100
AcDb3dPolylineVertex
 10
1222.6726603294
 20
-246.9042078884
 30
-7.8929339509
 70
        32
  0
SEQEND
  5
101
100
AcDbEntity
  8
L1_120
  6
CONTINUOUS
 62
         7
  0
ARC
  5
102
100
AcDbEntity
  8
L1_120
  6
CONTINUOUS
 62
         7
100
AcDbCircle
 10
1222.1084689265
 20
-236.2637077347
 30
77.0292807797
 40
1.6495853065
210
0.0
220
-0.3420201433256687
230
0.9396926207859084
100
AcDbArc
 50
70.0
 51
96.8239621528
  0
ARC
  5
103
100
AcDbEntity
  8
L1_120
  6
CONTINUOUS
 62
         7
100
AcDbCircle
 10
1222.1593792552
 20
-236.689141169
 30
77.0292807797
 40
2.0780540551
210
0.0
220
-0.3420201433256687
230
0.9396926207859084
100
AcDbArc
 50
96.8239621528
 51
120.6773100904
  0
POLYLINE
  5
105
100
AcDbEntity
  8
L1_120
  6
CONTINUOUS
 62
         7
100
AcDb3dPolyline
 66
         1
 10
0.0
 20
0.0
 30
0.0
 70
         8
  0
VERTEX
  5
107
100
AcDbEntity
  8
L1_120
  6
CONTINUOUS
 62
         7
100
AcDbVertex
100
AcDb3dPolylineVertex
 10
1221.0991511624
 20
-247.0811492551
 30
-7.9573353416
 70
        32
  0
VERTEX
  5
109
100
AcDbEntity
  8
L1_120
  6
CONTINUOUS
 62
         7
100
AcDbVertex
100
AcDb3dPolylineVertex
 10
1221.0991511624
 20
-247.0811492551
 30
-7.9573353416
 70
        32
  0
SEQEND
  5
10B
100
AcDbEntity
  8
L1_120
  6
CONTINUOUS
 62
         7
  0
ARC
  5
10C
100
AcDbEntity
  8
L1_120
  6
CONTINUOUS
 62
         7
100
AcDbCircle
 10
1222.3591177863
 20
-237.0258428616
 30
77.0292807797
 40
2.4695428935
210
0.0
220
-0.3420201433256687
230
0.9396926207859084
100
AcDbArc
 50
120.6773100904
 51
141.257725858
  0
POLYLINE
  5
10E
100
AcDbEntity
  8
L1_120
  6
CONTINUOUS
 62
         7
100
AcDb3dPolyline
 66
         1
 10
0.0
 20
0.0
 30
0.0
 70
         8
  0
VERTEX
  5
110
100
AcDbEntity
  8
L1_120
  6
CONTINUOUS
 62
         7
100
AcDbVertex
100
AcDb3dPolylineVertex
 10
1220.43295119
 20
-247.6247201349
 30
-8.155178962
 70
        32
  0
VERTEX
  5
112
100
AcDbEntity
  8
L1_120
  6
CONTINUOUS
 62
         7
100
AcDbVertex
100
AcDb3dPolylineVertex
 10
1220.43295119
 20
-247.6247201349
 30
-8.155178962
 70
        32
  0
SEQEND
  5
114
100
AcDbEntity
  8
L1_120
  6
CONTINUOUS
 62
         7
  0
ARC
  5
115
100
AcDbEntity
  8
L1_120
  6
CONTINUOUS
 62
         7
100
AcDbCircle
 10
1222.7511951417
 20
-237.340431294
 30
77.0292807797
 40
2.9722262277
210
0.0
220
-0.3420201433256687
230
0.9396926207859084
100
AcDbArc
 50
141.257725858
 51
160.0
  0
LINE
  5
116
100
AcDbEntity
  8
L1_120
  6
CENTER
 62
         1
100
AcDbLine
 10
1224.6566791922
 20
-250.0243314817
 30
-9.0285660661
 11
1219.0185234674
 21
-248.0959686527
 31
-8.3266993954
  0
LINE
  5
117
100
AcDbEntity
  8
L1_120
  6
CENTER
 62
         1
100
AcDbLine
 10
1243.2519449943
 20
-193.7729347238
 30
11.4452679897
 11
1219.021849326
 21
-256.3298142618
 31
-11.3235741107
  0
ARC
  5
118
100
AcDbEntity
  8
L1_120
  6
CONTINUOUS
 62
         7
100
AcDbCircle
 10
1231.0721451996
 20
-211.6362095791
 30
77.0292807797
 40
31.775
210
0.0
220
-0.3420201433256687
230
0.9396926207859084
100
AcDbArc
 50
195.411296411
 51
344.588703589
  0
ARC
  5
119
100
AcDbEntity
  8
L1_120
  6
CONTINUOUS
 62
         7
100
AcDbCircle
 10
1231.0721451996
 20
-211.6362095791
 30
77.0292807797
 40
31.775
210
0.0
220
-0.3420201433256687
230
0.9396926207859084
100
AcDbArc
 50
15.411296411
 51
164.588703589
  0
CIRCLE
  5
11A
100
AcDbEntity
  8
L1_120
  6
CONTINUOUS
 62
         7
100
AcDbCircle
 10
1231.0721451996
 20
-211.6362095791
 30
77.0292807797
 40
12.7165768873
210
0.0
220
-0.3420201433256687
230
0.9396926207859084
  0
CIRCLE
  5
11B
100
AcDbEntity
  8
L1_120
  6
CONTINUOUS
 62
         7
100
AcDbCircle
 10
1231.0721451996
 20
-211.6362095791
 30
77.0292807797
 40
7.0
210
0.0
220
-0.3420201433256687
230
0.9396926207859084
  0
ARC
  5
11C
100
AcDbEntity
  8
L1_120
  6
CONTINUOUS
 62
         5
100
AcDbCircle
 10
1231.0721451996
 20
-211.6362095791
 30
77.0292807797
 40
8.0
210
0.0
220
-0.3420201433256687
230
0.9396926207859084
100
AcDbArc
 50
352.9901372228
 51
621.2264515101
  0
CIRCLE
  5
11D
100
AcDbEntity
  8
L1_120
  6
CONTINUOUS
 62
         7
100
AcDbCircle
 10
1231.0721451996
 20
-211.6362095791
 30
77.0292807797
 40
9.5
210
0.0
220
-0.3420201433256687
230
0.9396926207859084
  0
CIRCLE
  5
11E
100
AcDbEntity
  8
L1_120
  6
CONTINUOUS
 62
         7
100
AcDbCircle
 10
1231.0721451996
 20
-211.6362095791
 30
77.0292807797
 40
8.5
210
0.0
220
-0.3420201433256687
230
0.9396926207859084
  0
CIRCLE
  5
11F
100
AcDbEntity
  8
L1_120
  6
CONTINUOUS
 62
         7
100
AcDbCircle
 10
1231.0721451996
 20
-211.6362095791
 30
77.0292807797
 40
22.225
210
0.0
220
-0.3420201433256687
230
0.9396926207859084
  0
LINE
  5
120
100
AcDbEntity
  8
L1_120
  6
CONTINUOUS
 62
         7
100
AcDbLine
 10
1261.3105271512
 20
-217.6540244878
 30
2.7532621538
 11
1256.5721451996
 21
-217.6540244878
 31
2.7532621538
  0
LINE
  5
121
100
AcDbEntity
  8
L1_120
  6
CONTINUOUS
 62
         7
100
AcDbLine
 10
1261.7046124323
 20
-217.2837054571
 30
2.8880472581
 11
1261.3105271512
 21
-217.6540244878
 31
2.7532621538
  0
LINE
  5
122
100
AcDbEntity
  8
L1_120
  6
CONTINUOUS
 62
         7
100
AcDbLine
 10
1256.0721451996
 20
-218.1238707982
 30
2.5822520821
 11
1256.5721451996
 21
-217.6540244878
 31
2.7532621538
  0
LINE
  5
123
100
AcDbEntity
  8
L1_120
  6
CONTINUOUS
 62
         7
100
AcDbLine
 10
1261.7046124323
 20
-233.1533947131
 30
-2.8880472581
 11
1261.3105271512
 21
-232.7830756824
 31
-2.7532621538
  0
LINE
  5
124
100
AcDbEntity
  8
L1_120
  6
CONTINUOUS
 62
         7
100
AcDbLine
 10
1256.0721451996
 20
-232.313229372
 30
-2.5822520821
 11
1256.5721451996
 21
-232.7830756824
 31
-2.7532621538
  0
LINE
  5
125
100
AcDbEntity
  8
L1_120
  6
CONTINUOUS
 62
         7
100
AcDbLine
 10
1256.0721451996
 20
-232.313229372
 30
-2.5822520821
 11
1256.0721451996
 21
-218.1238707982
 31
2.5822520821
  0
LINE
  5
126
100
AcDbEntity
  8
L1_120
  6
CONTINUOUS
 62
         7
100
AcDbLine
 10
1261.3105271512
 20
-232.7830756824
 30
-2.7532621538
 11
1256.5721451996
 21
-232.7830756824
 31
-2.7532621538
  0
LINE
  5
127
100
AcDbEntity
  8
L1_120
  6
CONTINUOUS
 62
         7
100
AcDbLine
 10
1200.4396779669
 20
-217.2837054571
 30
2.8880472581
 11
1200.833763248
 21
-217.6540244878
 31
2.7532621538
  0
LINE
  5
128
100
AcDbEntity
  8
L1_120
  6
CONTINUOUS
 62
         7
100
AcDbLine
 10
1208.2721451996
 20
-218.1238707982
 30
2.5822520821
 11
1207.7721451996
 21
-217.6540244878
 31
2.7532621538
  0
LINE
  5
129
100
AcDbEntity
  8
L1_120
  6
CONTINUOUS
 62
         7
100
AcDbLine
 10
1207.7721451996
 20
-217.6540244878
 30
2.7532621538
 11
1200.833763248
 21
-217.6540244878
 31
2.7532621538
  0
LINE
  5
12A
100
AcDbEntity
  8
L1_120
  6
CONTINUOUS
 62
         7
100
AcDbLine
 10
1200.4396779669
 20
-233.1533947131
 30
-2.8880472581
 11
1200.833763248
 21
-232.7830756824
 31
-2.7532621538
  0
LINE
  5
12B
100
AcDbEntity
  8
L1_120
  6
CONTINUOUS
 62
         7
100
AcDbLine
 10
1207.7721451996
 20
-232.7830756824
 30
-2.7532621538
 11
1200.833763248
 21
-232.7830756824
 31
-2.7532621538
  0
LINE
  5
12C
100
AcDbEntity
  8
L1_120
  6
CONTINUOUS
 62
         7
100
AcDbLine
 10
1208.2721451996
 20
-232.313229372
 30
-2.5822520821
 11
1207.7721451996
 21
-232.7830756824
 31
-2.7532621538
  0
LINE
  5
12D
100
AcDbEntity
  8
L1_120
  6
CONTINUOUS
 62
         7
100
AcDbLine
 10
1208.2721451996
 20
-232.313229372
 30
-2.5822520821
 11
1208.2721451996
 21
-218.1238707982
 31
2.5822520821
  0
LINE
  5
12E
100
AcDbEntity
  8
L1_120
  6
CONTINUOUS
 62
         7
100
AcDbLine
 10
1316.9276742862
 20
-349.8411278737
 30
-4.2484446952
 11
1385.3508425579
 21
-359.2177367114
 31
-7.6612512105
  0
LINE
  5
12F
100
AcDbEntity
  8
L1_120
  6
CONTINUOUS
 62
         7
100
AcDbLine
 10
1403.2508425579
 20
-215.9599537493
 30
3.0268782684
 11
1402.4508425579
 21
-216.7117078459
 31
2.7532621538
  0
LINE
  5
130
100
AcDbEntity
  8
L1_120
  6
CONTINUOUS
 62
         7
100
AcDbLine
 10
1402.4508425579
 20
-231.8407590405
 30
-2.7532621538
 11
1403.2508425579
 21
-232.5925131372
 31
-3.0268782684
  0
LINE
  5
131
100
AcDbEntity
  8
L1_120
  6
CONTINUOUS
 62
         7
100
AcDbLine
 10
1402.4508425579
 20
-216.7117078459
 30
2.7532621538
 11
1402.4508425579
 21
-231.8407590405
 31
-2.7532621538
  0
LINE
  5
132
100
AcDbEntity
  8
L1_120
  6
CONTINUOUS
 62
         4
100
AcDbLine
 10
1402.7508425579
 20
-254.1349664687
 30
-10.8676900542
 11
1402.7508425579
 21
-232.5925131372
 31
-3.0268782684
  0
LINE
  5
133
100
AcDbEntity
  8
L1_120
  6
CONTINUOUS
 62
         4
100
AcDbLine
 10
1402.7508425579
 20
-215.9599537493
 30
3.0268782684
 11
1402.7508425579
 21
-194.4175004178
 31
10.8676900542
  0
LINE
  5
134
100
AcDbEntity
  8
L1_120
  6
CENTER
 62
         1
100
AcDbLine
 10
1395.2508425579
 20
-189.0328142788
 30
12.8275555296
 11
1395.2508425579
 21
-259.5124103498
 31
-12.8249195633
  0
ARC
  5
135
100
AcDbEntity
  8
L1_120
  6
CONTINUOUS
 62
         7
100
AcDbCircle
 10
1396.1520422261
 20
-181.6257215843
 30
76.7069895068
 40
1.0
210
0.0
220
-0.3420201433256687
230
0.9396926207859084
100
AcDbArc
 50
270.0
 51
346.8556743105
  0
ARC
  5
136
100
AcDbEntity
  8
L1_120
  6
CONTINUOUS
 62
         7
100
AcDbCircle
 10
1394.3496428896
 20
-181.6257215843
 30
76.7069895068
 40
1.0
210
0.0
220
-0.3420201433256687
230
0.9396926207859084
100
AcDbArc
 50
193.1443256895
 51
270.0
  0
LINE
  5
137
100
AcDbEntity
  8
L1_120
  6
CONTINUOUS
 62
         7
100
AcDbLine
 10
1394.3496428896
 20
-197.8473784836
 30
9.619316531
 11
1396.1520422261
 21
-197.8473784836
 31
9.619316531
  0
LINE
  5
138
100
AcDbEntity
  8
L1_120
  6
CONTINUOUS
 62
         7
100
AcDbLine
 10
1398.7871129567
 20
-194.4175004178
 30
10.8676900542
 11
1402.2508425579
 21
-194.4175004178
 31
10.8676900542
  0
LINE
  5
139
100
AcDbEntity
  8
L1_120
  6
CONTINUOUS
 62
         7
100
AcDbLine
 10
1397.1258425579
 20
-197.121376415
 30
9.883559674
 11
1398.7871129567
 21
-194.4175004178
 31
10.8676900542
  0
LINE
  5
13A
100
AcDbEntity
  8
L1_120
  6
CONTINUOUS
 62
         7
100
AcDbLine
 10
1398.7871129567
 20
-254.1349664687
 30
-10.8676900542
 11
1402.2508425579
 21
-254.1349664687
 31
-10.8676900542
  0
ARC
  5
13B
100
AcDbEntity
  8
L1_120
  6
CONTINUOUS
 62
         7
100
AcDbCircle
 10
1396.1520422261
 20
-239.8757215843
 30
76.7069895068
 40
1.0
210
0.0
220
-0.3420201433256687
230
0.9396926207859084
100
AcDbArc
 50
13.1443256895
 51
90.0
  0
LINE
  5
13C
100
AcDbEntity
  8
L1_120
  6
CONTINUOUS
 62
         7
100
AcDbLine
 10
1397.1258425579
 20
-251.4310904714
 30
-9.883559674
 11
1398.7871129567
 21
-254.1349664687
 31
-10.8676900542
  0
ARC
  5
13D
100
AcDbEntity
  8
L1_120
  6
CONTINUOUS
 62
         7
100
AcDbCircle
 10
1394.3496428896
 20
-239.8757215843
 30
76.7069895068
 40
1.0
210
0.0
220
-0.3420201433256687
230
0.9396926207859084
100
AcDbArc
 50
90.0
 51
166.8556743105
  0
LINE
  5
13E
100
AcDbEntity
  8
L1_120
  6
CONTINUOUS
 62
         7
100
AcDbLine
 10
1394.3496428896
 20
-250.7050884028
 30
-9.619316531
 11
1396.1520422261
 21
-250.7050884028
 31
-9.619316531
  0
LINE
  5
13F
100
AcDbEntity
  8
L1_120
  6
CONTINUOUS
 62
         7
100
AcDbLine
 10
1403.2508425579
 20
-195.3571930385
 30
10.5256699108
 11
1403.2508425579
 21
-205.0125347171
 31
7.0114129382
  0
LINE
  5
140
100
AcDbEntity
  8
L1_120
  6
CONTINUOUS
 62
         7
100
AcDbLine
 10
1403.2508425579
 20
-195.3571930385
 30
10.5256699108
 11
1403.2508425579
 21
-224.2762334432
 31
0.0
  0
LINE
  5
141
100
AcDbEntity
  8
L1_120
  6
CONTINUOUS
 62
         7
100
AcDbLine
 10
1388.3508425579
 20
-194.4175004178
 30
10.8676900542
 11
1391.7145721591
 21
-194.4175004178
 31
10.8676900542
  0
LINE
  5
142
100
AcDbEntity
  8
L1_120
  6
CONTINUOUS
 62
         7
100
AcDbLine
 10
1387.6217806956
 20
-254.1349664687
 30
-10.8676900542
 11
1391.7145721591
 21
-254.1349664687
 31
-10.8676900542
  0
LINE
  5
143
100
AcDbEntity
  8
L1_120
  6
CONTINUOUS
 62
         7
100
AcDbLine
 10
1393.3758425579
 20
-251.4310904714
 30
-9.883559674
 11
1391.7145721591
 21
-254.1349664687
 31
-10.8676900542
  0
LINE
  5
144
100
AcDbEntity
  8
L1_120
  6
CENTER
 62
         1
100
AcDbLine
 10
1390.9398372993
 20
-254.9571975119
 30
-11.1669576796
 11
1399.3486718677
 21
-254.9571975119
 31
-11.1669576796
  0
LINE
  5
145
100
AcDbEntity
  8
L1_120
  6
CENTER
 62
         1
100
AcDbLine
 10
1390.9398372993
 20
-193.5952693746
 30
11.1669576796
 11
1399.3486718677
 21
-193.5952693746
 31
11.1669576796
  0
LINE
  5
146
100
AcDbEntity
  8
L1_120
  6
CONTINUOUS
 62
         7
100
AcDbLine
 10
1393.3758425579
 20
-197.121376415
 30
9.883559674
 11
1391.7145721591
 21
-194.4175004178
 31
10.8676900542
  0
LINE
  5
147
100
AcDbEntity
  8
L1_120
  6
CONTINUOUS
 62
         7
100
AcDbLine
 10
1398.7871129567
 20
-232.5925131372
 30
-3.0268782684
 11
1398.7871129567
 21
-254.1349664687
 31
-10.8676900542
  0
LINE
  5
148
100
AcDbEntity
  8
L1_120
  6
CONTINUOUS
 62
         7
100
AcDbLine
 10
1397.1258425579
 20
-231.8407590405
 30
-2.7532621538
 11
1397.1258425579
 21
-251.4310904714
 31
-9.883559674
  0
LINE
  5
149
100
AcDbEntity
  8
L1_120
  6
CONTINUOUS
 62
         7
100
AcDbLine
 10
1393.3758425579
 20
-231.8407590405
 30
-2.7532621538
 11
1393.3758425579
 21
-251.4310904714
 31
-9.883559674
  0
LINE
  5
14A
100
AcDbEntity
  8
L1_120
  6
CONTINUOUS
 62
         7
100
AcDbLine
 10
1391.7145721591
 20
-232.5925131372
 30
-3.0268782684
 11
1391.7145721591
 21
-254.1349664687
 31
-10.8676900542
  0
LINE
  5
14B
100
AcDbEntity
  8
L1_120
  6
CONTINUOUS
 62
         7
100
AcDbLine
 10
1403.2508425579
 20
-215.9599537493
 30
3.0268782684
 11
1398.7871129567
 21
-215.9599537493
 31
3.0268782684
  0
LINE
  5
14C
100
AcDbEntity
  8
L1_120
  6
CONTINUOUS
 62
         7
100
AcDbLine
 10
1397.1258425579
 20
-216.7117078459
 30
2.7532621538
 11
1398.7871129567
 21
-215.9599537493
 31
3.0268782684
  0
LINE
  5
14D
100
AcDbEntity
  8
L1_120
  6
CONTINUOUS
 62
         7
100
AcDbLine
 10
1397.1258425579
 20
-231.8407590405
 30
-2.7532621538
 11
1398.7871129567
 21
-232.5925131372
 31
-3.0268782684
  0
LINE
  5
14E
100
AcDbEntity
  8
L1_120
  6
CONTINUOUS
 62
         7
100
AcDbLine
 10
1403.2508425579
 20
-232.5925131372
 30
-3.0268782684
 11
1398.7871129567
 21
-232.5925131372
 31
-3.0268782684
  0
LINE
  5
14F
100
AcDbEntity
  8
L1_120
  6
CONTINUOUS
 62
         7
100
AcDbLine
 10
1391.7145721591
 20
-215.9599537493
 30
3.0268782684
 11
1385.1708425579
 21
-215.9599537493
 31
3.0268782684
  0
LINE
  5
150
100
AcDbEntity
  8
L1_120
  6
CONTINUOUS
 62
         7
100
AcDbLine
 10
1391.7145721591
 20
-232.5925131372
 30
-3.0268782684
 11
1385.1708425579
 21
-232.5925131372
 31
-3.0268782684
  0
LINE
  5
151
100
AcDbEntity
  8
L1_120
  6
CONTINUOUS
 62
         7
100
AcDbLine
 10
1391.7145721591
 20
-232.5925131372
 30
-3.0268782684
 11
1393.3758425579
 21
-231.8407590405
 31
-2.7532621538
  0
LINE
  5
152
100
AcDbEntity
  8
L1_120
  6
CONTINUOUS
 62
         7
100
AcDbLine
 10
1391.7145721591
 20
-215.9599537493
 30
3.0268782684
 11
1393.3758425579
 21
-216.7117078459
 31
2.7532621538
  0
LINE
  5
153
100
AcDbEntity
  8
L1_120
  6
CONTINUOUS
 62
         7
100
AcDbLine
 10
1402.4508425579
 20
-231.8407590405
 30
-2.7532621538
 11
1385.9708425579
 21
-231.8407590405
 31
-2.7532621538
  0
LINE
  5
154
100
AcDbEntity
  8
L1_120
  6
CONTINUOUS
 62
         7
100
AcDbLine
 10
1402.4508425579
 20
-216.7117078459
 30
2.7532621538
 11
1385.9708425579
 21
-216.7117078459
 31
2.7532621538
  0
LINE
  5
155
100
AcDbEntity
  8
L1_120
  6
CONTINUOUS
 62
         7
100
AcDbLine
 10
1398.7871129567
 20
-194.4175004178
 30
10.8676900542
 11
1398.7871129567
 21
-215.9599537493
 31
3.0268782684
  0
LINE
  5
156
100
AcDbEntity
  8
L1_120
  6
CONTINUOUS
 62
         7
100
AcDbLine
 10
1397.1258425579
 20
-197.121376415
 30
9.883559674
 11
1397.1258425579
 21
-216.7117078459
 31
2.7532621538
  0
LINE
  5
157
100
AcDbEntity
  8
L1_120
  6
CONTINUOUS
 62
         7
100
AcDbLine
 10
1393.3758425579
 20
-197.121376415
 30
9.883559674
 11
1393.3758425579
 21
-216.7117078459
 31
2.7532621538
  0
LINE
  5
158
100
AcDbEntity
  8
L1_120
  6
CONTINUOUS
 62
         7
100
AcDbLine
 10
1391.7145721591
 20
-194.4175004178
 30
10.8676900542
 11
1391.7145721591
 21
-215.9599537493
 31
3.0268782684
  0
LINE
  5
159
100
AcDbEntity
  8
L1_120
  6
CONTINUOUS
 62
         7
100
AcDbLine
 10
1403.2508425579
 20
-253.6651201583
 30
-10.6966799825
 11
1402.7508425579
 21
-254.1349664687
 31
-10.8676900542
  0
LINE
  5
15A
100
AcDbEntity
  8
L1_120
  6
CONTINUOUS
 62
         7
100
AcDbLine
 10
1401.2508425579
 20
-254.1349664687
 30
-10.8676900542
 11
1402.7508425579
 21
-254.1349664687
 31
-10.8676900542
  0
LINE
  5
15B
100
AcDbEntity
  8
L1_120
  6
CONTINUOUS
 62
         7
100
AcDbLine
 10
1403.2508425579
 20
-224.2762334432
 30
0.0
 11
1403.2508425579
 21
-253.6651201583
 31
-10.6966799825
  0
LINE
  5
15C
100
AcDbEntity
  8
L1_120
  6
CONTINUOUS
 62
         7
100
AcDbLine
 10
1401.2508425579
 20
-194.4175004178
 30
10.8676900542
 11
1402.7508425579
 21
-194.4175004178
 31
10.8676900542
  0
LINE
  5
15D
100
AcDbEntity
  8
L1_120
  6
CONTINUOUS
 62
         7
100
AcDbLine
 10
1403.2508425579
 20
-194.8873467281
 30
10.6966799825
 11
1403.2508425579
 21
-196.2968856593
 31
10.1836497675
  0
LINE
  5
15E
100
AcDbEntity
  8
L1_120
  6
CONTINUOUS
 62
         7
100
AcDbLine
 10
1402.7508425579
 20
-194.4175004178
 30
10.8676900542
 11
1403.2508425579
 21
-194.8873467281
 31
10.6966799825
  0
CIRCLE
  5
15F
100
AcDbEntity
  8
L1_120
  6
CONTINUOUS
 62
         7
100
AcDbCircle
 10
1395.2508425579
 20
-210.7507215843
 30
76.7069895068
 40
5.0
210
0.0
220
-0.3420201433256687
230
0.9396926207859084
  0
CIRCLE
  5
160
100
AcDbEntity
  8
L1_120
  6
CONTINUOUS
 62
         7
100
AcDbCircle
 10
1395.2508425579
 20
-197.5468338809
 30
76.7069895068
 40
1.875
210
0.0
220
-0.3420201433256687
230
0.9396926207859084
  0
CIRCLE
  5
161
100
AcDbEntity
  8
L1_120
  6
CONTINUOUS
 62
         7
100
AcDbCircle
 10
1395.2508425579
 20
-223.9546092876
 30
76.7069895068
 40
1.875
210
0.0
220
-0.3420201433256687
230
0.9396926207859084
  0
LINE
  5
162
100
AcDbEntity
  8
L1_120
  6
CONTINUOUS
 62
         7
100
AcDbLine
 10
1385.1708425579
 20
-215.9599537493
 30
3.0268782684
 11
1385.9708425579
 21
-216.7117078459
 31
2.7532621538
  0
LINE
  5
163
100
AcDbEntity
  8
L1_120
  6
CONTINUOUS
 62
         7
100
AcDbLine
 10
1385.9708425579
 20
-231.8407590405
 30
-2.7532621538
 11
1385.1708425579
 21
-232.5925131372
 31
-3.0268782684
  0
LINE
  5
164
100
AcDbEntity
  8
L1_120
  6
CONTINUOUS
 62
         7
100
AcDbLine
 10
1385.9708425579
 20
-216.7117078459
 30
2.7532621538
 11
1385.9708425579
 21
-231.8407590405
 31
-2.7532621538
  0
LINE
  5
165
100
AcDbEntity
  8
L1_120
  6
CONTINUOUS
 62
         7
100
AcDbLine
 10
1386.7199044201
 20
-254.1349664687
 30
-10.8676900542
 11
1386.7888751664
 21
-253.9294112822
 31
-10.7928740848
  0
ARC
  5
166
100
AcDbEntity
  8
L1_120
  6
CONTINUOUS
 62
         7
100
AcDbCircle
 10
1387.1708425579
 20
-242.4257215843
 30
76.7069895068
 40
0.4
210
0.0
220
-0.3420201433256687
230
0.9396926207859084
100
AcDbArc
 50
17.2695937807
 51
162.7304062193
  0
LINE
  5
167
100
AcDbEntity
  8
L1_120
  6
CONTINUOUS
 62
         7
100
AcDbLine
 10
1387.6217806956
 20
-254.1349664687
 30
-10.8676900542
 11
1387.5528099493
 21
-253.9294112822
 31
-10.7928740848
  0
LINE
  5
168
100
AcDbEntity
  8
L1_120
  6
CONTINUOUS
 62
         7
100
AcDbLine
 10
1386.7199044201
 20
-232.5925131372
 30
-3.0268782684
 11
1386.7199044201
 21
-254.1349664687
 31
-10.8676900542
  0
LINE
  5
169
100
AcDbEntity
  8
L1_120
  6
CONTINUOUS
 62
         7
100
AcDbLine
 10
1387.6217806956
 20
-232.5925131372
 30
-3.0268782684
 11
1387.6217806956
 21
-254.1349664687
 31
-10.8676900542
  0
LINE
  5
16A
100
AcDbEntity
  8
L1_120
  6
CONTINUOUS
 62
         7
100
AcDbLine
 10
1386.7199044201
 20
-194.4175004178
 30
10.8676900542
 11
1386.7888751664
 21
-194.6230556042
 31
10.7928740848
  0
ARC
  5
16B
100
AcDbEntity
  8
L1_120
  6
CONTINUOUS
 62
         7
100
AcDbCircle
 10
1387.1708425579
 20
-179.0757215843
 30
76.7069895068
 40
0.4
210
0.0
220
-0.3420201433256687
230
0.9396926207859084
100
AcDbArc
 50
197.2695937807
 51
342.7304062193
  0
LINE
  5
16C
100
AcDbEntity
  8
L1_120
  6
CONTINUOUS
 62
         7
100
AcDbLine
 10
1387.6217806956
 20
-194.4175004178
 30
10.8676900542
 11
1387.5528099493
 21
-194.6230556042
 31
10.7928740848
  0
LINE
  5
16D
100
AcDbEntity
  8
L1_120
  6
CONTINUOUS
 62
         7
100
AcDbLine
 10
1387.6217806956
 20
-215.9599537493
 30
3.0268782684
 11
1387.6217806956
 21
-194.4175004178
 31
10.8676900542
  0
LINE
  5
16E
100
AcDbEntity
  8
L1_120
  6
CONTINUOUS
 62
         7
100
AcDbLine
 10
1386.7199044201
 20
-215.9599537493
 30
3.0268782684
 11
1386.7199044201
 21
-194.4175004178
 31
10.8676900542
  0
LINE
  5
16F
100
AcDbEntity
  8
L1_120
  6
CONTINUOUS
 62
         7
100
AcDbLine
 10
1385.6708425579
 20
-194.4175004178
 30
10.8676900542
 11
1386.7199044201
 21
-194.4175004178
 31
10.8676900542
  0
LINE
  5
170
100
AcDbEntity
  8
L1_120
  6
CONTINUOUS
 62
         7
100
AcDbLine
 10
1385.1708425579
 20
-194.8873467281
 30
10.6966799825
 11
1385.1708425579
 21
-196.2968856593
 31
10.1836497675
  0
LINE
  5
171
100
AcDbEntity
  8
L1_120
  6
CONTINUOUS
 62
         7
100
AcDbLine
 10
1385.6708425579
 20
-254.1349664687
 30
-10.8676900542
 11
1386.7199044201
 21
-254.1349664687
 31
-10.8676900542
  0
LINE
  5
172
100
AcDbEntity
  8
L1_120
  6
CENTER
 62
         1
100
AcDbLine
 10
1384.1508425579
 20
-203.3915649463
 30
7.6013976854
 11
1384.1508425579
 21
-245.1609019402
 31
-7.6013976854
  0
LINE
  5
173
100
AcDbEntity
  8
L1_120
  6
CONTINUOUS
 62
         7
100
AcDbLine
 10
1385.1708425579
 20
-195.3571930385
 30
10.5256699108
 11
1385.1708425579
 21
-253.6651201583
 31
-10.6966799825
  0
LINE
  5
174
100
AcDbEntity
  8
L1_120
  6
CONTINUOUS
 62
         7
100
AcDbLine
 10
1384.3222711293
 20
-203.3680726307
 30
7.609948189
 11
1384.4088425579
 21
-203.3680726307
 31
7.609948189
  0
ARC
  5
175
100
AcDbEntity
  8
L1_120
  6
CONTINUOUS
 62
         7
100
AcDbCircle
 10
1384.4088425579
 20
-187.7387215843
 30
76.7069895068
 40
0.762
210
0.0
220
-0.3420201433256687
230
0.9396926207859084
100
AcDbArc
 50
270.0000000001
 51
359.9999999999
  0
LINE
  5
176
100
AcDbEntity
  8
L1_120
  6
CONTINUOUS
 62
         7
100
AcDbLine
 10
1384.3222711293
 20
-245.1843942557
 30
-7.609948189
 11
1384.3222711293
 21
-203.3680726307
 31
7.609948189
  0
LINE
  5
177
100
AcDbEntity
  8
L1_120
  6
CONTINUOUS
 62
         7
100
AcDbLine
 10
1384.3222711293
 20
-245.1843942557
 30
-7.609948189
 11
1384.4088425579
 21
-245.1843942557
 31
-7.609948189
  0
ARC
  5
178
100
AcDbEntity
  8
L1_120
  6
CONTINUOUS
 62
         7
100
AcDbCircle
 10
1384.4088425579
 20
-233.7627215843
 30
76.7069895068
 40
0.762
210
0.0
220
-0.3420201433256687
230
0.9396926207859084
100
AcDbArc
 50
0.0000000001
 51
89.9999999999
  0
LINE
  5
179
100
AcDbEntity
  8
L1_120
  6
CONTINUOUS
 62
         7
100
AcDbLine
 10
1385.1708425579
 20
-253.6651201583
 30
-10.6966799825
 11
1385.6708425579
 21
-254.1349664687
 31
-10.8676900542
  0
LINE
  5
17A
100
AcDbEntity
  8
L1_120
  6
CONTINUOUS
 62
         7
100
AcDbLine
 10
1385.6708425579
 20
-194.4175004178
 30
10.8676900542
 11
1385.1708425579
 21
-194.8873467281
 31
10.6966799825
  0
LINE
  5
17B
100
AcDbEntity
  8
L1_120
  6
CONTINUOUS
 62
         4
100
AcDbLine
 10
1385.6708425579
 20
-215.9599537493
 30
3.0268782684
 11
1385.6708425579
 21
-194.4175004178
 31
10.8676900542
  0
LINE
  5
17C
100
AcDbEntity
  8
L1_120
  6
CONTINUOUS
 62
         4
100
AcDbLine
 10
1385.6708425579
 20
-254.1349664687
 30
-10.8676900542
 11
1385.6708425579
 21
-232.5925131372
 31
-3.0268782684
  0
LINE
  5
17D
100
AcDbEntity
  8
L1_120
  6
CONTINUOUS
 62
         7
100
AcDbLine
 10
1387.6217806956
 20
-194.4175004178
 30
10.8676900542
 11
1389.3508425579
 21
-194.4175004178
 31
10.8676900542
  0
LINE
  5
17E
100
AcDbEntity
  8
L1_120
  6
CENTER
 62
         1
100
AcDbLine
 10
1193.0188256845
 20
-225.2185500851
 30
0.0
 11
1262.5721451996
 21
-225.2185500851
 31
0.0
  0
LINE
  5
17F
100
AcDbEntity
  8
L1_120
  6
CENTER
 62
         1
100
AcDbLine
 10
1231.0721451996
 20
-191.6969502521
 30
0.0
 11
1231.0721451996
 21
-263.4386336571
 31
0.0
  0
LINE
  5
180
100
AcDbEntity
  8
L1_120
  6
CONTINUOUS
 62
         7
100
AcDbLine
 10
1315.9008425579
 20
-213.0420517268
 30
0.0
 11
1315.9008425579
 21
-235.5104151597
 31
0.0
  0
LINE
  5
181
100
AcDbEntity
  8
L1_120
  6
CONTINUOUS
 62
         7
100
AcDbLine
 10
1315.9008425579
 20
-213.0420517268
 30
0.0
 11
1315.9008425579
 21
-236.2313999178
 31
0.0
  0
LINE
  5
182
100
AcDbEntity
  8
L1_120
  6
CONTINUOUS
 62
         7
100
AcDbLine
 10
1315.9008425579
 20
-327.1051127527
 30
1.9507951826
 11
1315.9008425579
 21
-349.2321312589
 31
-1.9507951826
  0
LINE
  5
183
100
AcDbEntity
  8
L1_120
  6
CONTINUOUS
 62
         7
100
AcDbLine
 10
1315.9008425579
 20
-327.0588171976
 30
4.0436382587
 11
1315.9008425579
 21
-349.2784268139
 31
-4.0436382587
  0
LINE
  5
184
100
AcDbEntity
  8
L1_120
  6
CENTER
 62
         1
100
AcDbLine
 10
1312.9839119704
 20
-338.1686220058
 30
0.0
 11
1447.6508425579
 21
-338.1686220058
 31
0.0
  0
LINE
  5
185
100
AcDbEntity
  8
L1_120
  6
CONTINUOUS
 62
         7
100
AcDbLine
 10
1315.9008425579
 20
-213.7195557837
 30
3.8423164408
 11
1315.9008425579
 21
-235.3860382514
 31
-4.0436382587
  0
LINE
  5
186
100
AcDbEntity
  8
L1_120
  6
CONTINUOUS
 62
         5
100
AcDbLine
 10
1346.9008425579
 20
-345.6861629721
 30
-2.7361611466
 11
1349.9008425579
 21
-344.7934549823
 31
-2.4112420104
  0
LINE
  5
187
100
AcDbEntity
  8
L1_120
  6
CONTINUOUS
 62
         5
100
AcDbLine
 10
1346.9008425579
 20
-330.6510810395
 30
2.7361611466
 11
1349.9008425579
 21
-331.5437890292
 31
2.4112420104
  0
LINE
  5
188
100
AcDbEntity
  8
L1_120
  6
CONTINUOUS
 62
         7
100
AcDbLine
 10
1346.9008425579
 20
-330.6510810395
 30
2.7361611466
 11
1346.9008425579
 21
-345.6861629721
 31
-2.7361611466
  0
LINE
  5
189
100
AcDbEntity
  8
L1_120
  6
CONTINUOUS
 62
         7
100
AcDbLine
 10
1315.9008425579
 20
-327.0588171976
 30
4.0436382587
 11
1315.9008425579
 21
-349.2784268139
 31
-4.0436382587
  0
LINE
  5
18A
100
AcDbEntity
  8
L1_120
  6
CONTINUOUS
 62
         7
100
AcDbLine
 10
1324.9008425579
 20
-331.5437890292
 30
2.4112420104
 11
1371.9605757762
 21
-331.5437890292
 31
2.4112420104
  0
LINE
  5
18B
100
AcDbEntity
  8
L1_120
  6
CONTINUOUS
 62
         7
100
AcDbLine
 10
1324.9008425579
 20
-330.5571117774
 30
2.7703631609
 11
1324.9008425579
 21
-345.7801322341
 31
-2.7703631609
  0
ARC
  5
18C
100
AcDbEntity
  8
L1_120
  6
CONTINUOUS
 62
         7
100
AcDbCircle
 10
1324.3008425579
 20
-309.6745586802
 30
115.6604805667
 40
0.6
210
0.0
220
-0.3420201433256687
230
0.9396926207859084
100
AcDbArc
 50
0.0
 51
90.0
  0
LINE
  5
18D
100
AcDbEntity
  8
L1_120
  6
CONTINUOUS
 62
         7
100
AcDbLine
 10
1323.7262442179
 20
-329.9932962049
 30
2.9755752469
 11
1324.3008425579
 21
-329.9932962049
 31
2.9755752469
  0
ARC
  5
18E
100
AcDbEntity
  8
L1_120
  6
CONTINUOUS
 62
         7
100
AcDbCircle
 10
1323.7262442179
 20
-309.6745586802
 30
115.6604805667
 40
0.6
210
0.0
220
-0.3420201433256687
230
0.9396926207859084
100
AcDbArc
 50
90.0
 51
105.0
  0
LINE
  5
18F
100
AcDbEntity
  8
L1_120
  6
CONTINUOUS
 62
         7
100
AcDbLine
 10
1322.9008425579
 20
-330.1812347291
 30
2.9071712183
 11
1323.5709527909
 21
-330.0125077547
 31
2.9685828147
  0
LINE
  5
190
100
AcDbEntity
  8
L1_120
  6
CONTINUOUS
 62
         7
100
AcDbLine
 10
1317.4008425579
 20
-330.1812347291
 30
2.9071712183
 11
1322.9008425579
 21
-330.1812347291
 31
2.9071712183
  0
ARC
  5
191
100
AcDbEntity
  8
L1_120
  6
CONTINUOUS
 62
         7
100
AcDbCircle
 10
1317.4008425579
 20
-307.7745586802
 30
115.6604805667
 40
1.5
210
0.0
220
-0.3420201433256687
230
0.9396926207859084
100
AcDbArc
 50
180.0
 51
270.0
  0
LINE
  5
192
100
AcDbEntity
  8
L1_120
  6
CONTINUOUS
 62
         7
100
AcDbLine
 10
1317.6328933654
 20
-330.1812347291
 30
2.9071712183
 11
1317.6328933654
 21
-346.1560092824
 31
-2.9071712183
  0
LINE
  5
193
100
AcDbEntity
  8
L1_120
  6
CONTINUOUS
 62
         7
100
AcDbLine
 10
1322.9008425579
 20
-330.1812347291
 30
2.9071712183
 11
1322.9008425579
 21
-346.1560092824
 31
-2.9071712183
  0
ARC
  5
194
100
AcDbEntity
  8
L1_120
  6
CONTINUOUS
 62
         7
100
AcDbCircle
 10
1324.3008425579
 20
-325.8745586802
 30
115.6604805667
 40
0.6
210
0.0
220
-0.3420201433256687
230
0.9396926207859084
100
AcDbArc
 50
270.0
 51
360.0
  0
LINE
  5
195
100
AcDbEntity
  8
L1_120
  6
CONTINUOUS
 62
         7
100
AcDbLine
 10
1323.7262442179
 20
-346.3439478066
 30
-2.9755752469
 11
1324.3008425579
 21
-346.3439478066
 31
-2.9755752469
  0
LINE
  5
196
100
AcDbEntity
  8
L1_120
  6
CONTINUOUS
 62
         7
100
AcDbLine
 10
1317.4008425579
 20
-346.1560092824
 30
-2.9071712183
 11
1322.9008425579
 21
-346.1560092824
 31
-2.9071712183
  0
LINE
  5
197
100
AcDbEntity
  8
L1_120
  6
CONTINUOUS
 62
         7
100
AcDbLine
 10
1322.9008425579
 20
-346.1560092824
 30
-2.9071712183
 11
1323.5709527909
 21
-346.3247362568
 31
-2.9685828147
  0
ARC
  5
198
100
AcDbEntity
  8
L1_120
  6
CONTINUOUS
 62
         7
100
AcDbCircle
 10
1323.7262442179
 20
-325.8745586802
 30
115.6604805667
 40
0.6
210
0.0
220
-0.3420201433256687
230
0.9396926207859084
100
AcDbArc
 50
255.0
 51
270.0
  0
ARC
  5
199
100
AcDbEntity
  8
L1_120
  6
CONTINUOUS
 62
         7
100
AcDbCircle
 10
1317.4008425579
 20
-327.7745586802
 30
115.6604805667
 40
1.5
210
0.0
220
-0.3420201433256687
230
0.9396926207859084
100
AcDbArc
 50
90.0
 51
180.0
  0
LINE
  5
19A
100
AcDbEntity
  8
L1_120
  6
CONTINUOUS
 62
         5
100
AcDbLine
 10
1324.9008425579
 20
-345.6861629721
 30
-2.7361611466
 11
1346.9008425579
 21
-345.6861629721
 31
-2.7361611466
  0
LINE
  5
19B
100
AcDbEntity
  8
L1_120
  6
CONTINUOUS
 62
         5
100
AcDbLine
 10
1324.9008425579
 20
-330.6510810395
 30
2.7361611466
 11
1346.9008425579
 21
-330.6510810395
 31
2.7361611466
  0
LINE
  5
19C
100
AcDbEntity
  8
L1_120
  6
CONTINUOUS
 62
         5
100
AcDbLine
 10
1346.9008425579
 20
-345.6861629721
 30
-2.7361611466
 11
1349.9008425579
 21
-344.7934549823
 31
-2.4112420104
  0
LINE
  5
19D
100
AcDbEntity
  8
L1_120
  6
CONTINUOUS
 62
         5
100
AcDbLine
 10
1346.9008425579
 20
-330.6510810395
 30
2.7361611466
 11
1349.9008425579
 21
-331.5437890292
 31
2.4112420104
  0
LINE
  5
19E
100
AcDbEntity
  8
L1_120
  6
CONTINUOUS
 62
         7
100
AcDbLine
 10
1346.9008425579
 20
-330.6510810395
 30
2.7361611466
 11
1346.9008425579
 21
-345.6861629721
 31
-2.7361611466
  0
LINE
  5
19F
100
AcDbEntity
  8
L1_120
  6
CONTINUOUS
 62
         7
100
AcDbLine
 10
1315.9008425579
 20
-327.0588171976
 30
4.0436382587
 11
1315.9008425579
 21
-349.2784268139
 31
-4.0436382587
  0
LINE
  5
1A0
100
AcDbEntity
  8
L1_120
  6
CONTINUOUS
 62
         7
100
AcDbLine
 10
1324.9008425579
 20
-344.7934549823
 30
-2.4112420104
 11
1382.6508425579
 21
-344.7934549823
 31
-2.4112420104
  0
LINE
  5
1A1
100
AcDbEntity
  8
L1_120
  6
CONTINUOUS
 62
         7
100
AcDbLine
 10
1324.9008425579
 20
-330.5571117774
 30
2.7703631609
 11
1324.9008425579
 21
-345.7801322341
 31
-2.7703631609
  0
ARC
  5
1A2
100
AcDbEntity
  8
L1_120
  6
CONTINUOUS
 62
         7
100
AcDbCircle
 10
1324.3008425579
 20
-309.6745586802
 30
115.6604805667
 40
0.6
210
0.0
220
-0.3420201433256687
230
0.9396926207859084
100
AcDbArc
 50
0.0
 51
90.0
  0
LINE
  5
1A3
100
AcDbEntity
  8
L1_120
  6
CONTINUOUS
 62
         7
100
AcDbLine
 10
1323.7262442179
 20
-329.9932962049
 30
2.9755752469
 11
1324.3008425579
 21
-329.9932962049
 31
2.9755752469
  0
ARC
  5
1A4
100
AcDbEntity
  8
L1_120
  6
CONTINUOUS
 62
         7
100
AcDbCircle
 10
1323.7262442179
 20
-309.6745586802
 30
115.6604805667
 40
0.6
210
0.0
220
-0.3420201433256687
230
0.9396926207859084
100
AcDbArc
 50
90.0
 51
105.0
  0
LINE
  5
1A5
100
AcDbEntity
  8
L1_120
  6
CONTINUOUS
 62
         7
100
AcDbLine
 10
1322.9008425579
 20
-330.1812347291
 30
2.9071712183
 11
1323.5709527909
 21
-330.0125077547
 31
2.9685828147
  0
LINE
  5
1A6
100
AcDbEntity
  8
L1_120
  6
CONTINUOUS
 62
         7
100
AcDbLine
 10
1317.4008425579
 20
-330.1812347291
 30
2.9071712183
 11
1322.9008425579
 21
-330.1812347291
 31
2.9071712183
  0
ARC
  5
1A7
100
AcDbEntity
  8
L1_120
  6
CONTINUOUS
 62
         7
100
AcDbCircle
 10
1317.4008425579
 20
-307.7745586802
 30
115.6604805667
 40
1.5
210
0.0
220
-0.3420201433256687
230
0.9396926207859084
100
AcDbArc
 50
180.0
 51
270.0
  0
LINE
  5
1A8
100
AcDbEntity
  8
L1_120
  6
CONTINUOUS
 62
         7
100
AcDbLine
 10
1317.6328933654
 20
-330.1812347291
 30
2.9071712183
 11
1317.6328933654
 21
-346.1560092824
 31
-2.9071712183
  0
LINE
  5
1A9
100
AcDbEntity
  8
L1_120
  6
CONTINUOUS
 62
         7
100
AcDbLine
 10
1322.9008425579
 20
-330.1812347291
 30
2.9071712183
 11
1322.9008425579
 21
-346.1560092824
 31
-2.9071712183
  0
ARC
  5
1AA
100
AcDbEntity
  8
L1_120
  6
CONTINUOUS
 62
         7
100
AcDbCircle
 10
1324.3008425579
 20
-325.8745586802
 30
115.6604805667
 40
0.6
210
0.0
220
-0.3420201433256687
230
0.9396926207859084
100
AcDbArc
 50
270.0
 51
360.0
  0
LINE
  5
1AB
100
AcDbEntity
  8
L1_120
  6
CONTINUOUS
 62
         7
100
AcDbLine
 10
1323.7262442179
 20
-346.3439478066
 30
-2.9755752469
 11
1324.3008425579
 21
-346.3439478066
 31
-2.9755752469
  0
LINE
  5
1AC
100
AcDbEntity
  8
L1_120
  6
CONTINUOUS
 62
         7
100
AcDbLine
 10
1317.4008425579
 20
-346.1560092824
 30
-2.9071712183
 11
1322.9008425579
 21
-346.1560092824
 31
-2.9071712183
  0
LINE
  5
1AD
100
AcDbEntity
  8
L1_120
  6
CONTINUOUS
 62
         7
100
AcDbLine
 10
1322.9008425579
 20
-346.1560092824
 30
-2.9071712183
 11
1323.5709527909
 21
-346.3247362568
 31
-2.9685828147
  0
ARC
  5
1AE
100
AcDbEntity
  8
L1_120
  6
CONTINUOUS
 62
         7
100
AcDbCircle
 10
1323.7262442179
 20
-325.8745586802
 30
115.6604805667
 40
0.6
210
0.0
220
-0.3420201433256687
230
0.9396926207859084
100
AcDbArc
 50
255.0
 51
270.0
  0
ARC
  5
1AF
100
AcDbEntity
  8
L1_120
  6
CONTINUOUS
 62
         7
100
AcDbCircle
 10
1317.4008425579
 20
-327.7745586802
 30
115.6604805667
 40
1.5
210
0.0
220
-0.3420201433256687
230
0.9396926207859084
100
AcDbArc
 50
90.0
 51
180.0
  0
LINE
  5
1B0
100
AcDbEntity
  8
L1_120
  6
CONTINUOUS
 62
         5
100
AcDbLine
 10
1324.9008425579
 20
-345.6861629721
 30
-2.7361611466
 11
1346.9008425579
 21
-345.6861629721
 31
-2.7361611466
  0
LINE
  5
1B1
100
AcDbEntity
  8
L1_120
  6
CONTINUOUS
 62
         5
100
AcDbLine
 10
1324.9008425579
 20
-330.6510810395
 30
2.7361611466
 11
1346.9008425579
 21
-330.6510810395
 31
2.7361611466
  0
LINE
  5
1B2
100
AcDbEntity
  8
L1_120
  6
CONTINUOUS
 62
         7
100
AcDbLine
 10
1316.9276742862
 20
-212.6037275753
 30
4.2484446952
 11
1384.3222711293
 21
-203.3680726307
 31
7.609948189
  0
LINE
  5
1B3
100
AcDbEntity
  8
L1_120
  6
CONTINUOUS
 62
         7
100
AcDbLine
 10
1316.9276742862
 20
-235.9487393111
 30
-4.2484446952
 11
1384.3222711293
 21
-245.1843942557
 31
-7.609948189
  0
LINE
  5
1B4
100
AcDbEntity
  8
L1_120
  6
CONTINUOUS
 62
         7
100
AcDbLine
 10
1315.9008425579
 20
-213.7195557837
 30
3.8423164408
 11
1315.9008425579
 21
-234.8329111027
 31
-3.8423164408
  0
ARC
  5
1B5
100
AcDbEntity
  8
L1_120
  6
CONTINUOUS
 62
         7
100
AcDbCircle
 10
1317.1008425579
 20
-221.9849033007
 30
76.7069895068
 40
1.2
210
0.0
220
-0.3420201433256687
230
0.9396926207859084
100
AcDbArc
 50
180.0
 51
261.7028550302
  0
ARC
  5
1B6
100
AcDbEntity
  8
L1_120
  6
CONTINUOUS
 62
         7
100
AcDbCircle
 10
1317.1008425579
 20
-199.5165398678
 30
76.7069895068
 40
1.2
210
0.0
220
-0.3420201433256687
230
0.9396926207859084
100
AcDbArc
 50
98.2971449698
 51
180.0
  0
LINE
  5
1B7
100
AcDbEntity
  8
L1_120
  6
CONTINUOUS
 62
         7
100
AcDbLine
 10
1315.9008425579
 20
-213.7195557837
 30
3.8423164408
 11
1315.9008425579
 21
-234.8329111027
 31
-3.8423164408
  0
LINE
  5
1B8
100
AcDbEntity
  8
L1_120
  6
CONTINUOUS
 62
         7
100
AcDbLine
 10
1316.7776742862
 20
-349.8205720976
 30
-4.2409630046
 11
1384.3422577662
 21
-359.0795217571
 31
-7.6109450812
  0
ARC
  5
1B9
100
AcDbEntity
  8
L1_120
  6
CONTINUOUS
 62
         7
100
AcDbCircle
 10
1317.1008425579
 20
-329.0087403966
 30
115.6604805667
 40
1.2
210
0.0
220
-0.3420201433256687
230
0.9396926207859084
100
AcDbArc
 50
180.0
 51
261.7028550302
  0
ARC
  5
1BA
100
AcDbEntity
  8
L1_120
  6
CONTINUOUS
 62
         7
100
AcDbCircle
 10
1317.1008425579
 20
-306.5403769637
 30
115.6604805667
 40
1.2
210
0.0
220
-0.3420201433256687
230
0.9396926207859084
100
AcDbArc
 50
98.2971449698
 51
180.0
  0
DIMENSION
  5
1BE
100
AcDbEntity
  8
L1_120
  6
CONTINUOUS
 62
         4
100
AcDbDimension
  2
*D0
 10
1502.3331817768
 20
-186.2947401382
 30
-67.8057402107
 11
1500.3081817768
 21
-216.1859330645
 31
0.0
210
0.0
220
-0.3420201433256687
230
0.9396926207859084
  3
DIMSTYLE1
100
AcDbAlignedDimension
 13
1485.7508425579
 23
-186.2947401382
 33
-67.8057402107
 14
1485.7508425579
 24
-209.7870556579
 34
-76.3562437938
 50
90.0
100
AcDbRotatedDimension
  0
LINE
  5
1CB
100
AcDbEntity
  8
L1_120
  6
CONTINUOUS
 62
         4
100
AcDbLine
 10
1475.0283079553
 20
-240.6740879382
 30
-5.968330942
 11
1475.0283079553
 21
-207.8783789483
 31
5.968330942
  0
ARC
  5
1CC
100
AcDbEntity
  8
L1_120
  6
CONTINUOUS
 62
         7
100
AcDbCircle
 10
1484.2508425579
 20
-222.295116193
 30
76.7069895068
 40
1.5
210
0.0
220
-0.3420201433256687
230
0.9396926207859084
100
AcDbArc
 50
295.0
 51
360.0
  0
ARC
  5
1CD
100
AcDbEntity
  8
L1_120
  6
CONTINUOUS
 62
         7
100
AcDbCircle
 10
1484.2508425579
 20
-199.2063269755
 30
76.7069895068
 40
1.5
210
0.0
220
-0.3420201433256687
230
0.9396926207859084
100
AcDbArc
 50
0.0
 51
65.0
  0
ARC
  5
1CE
100
AcDbEntity
  8
L1_120
  6
CONTINUOUS
 62
         7
100
AcDbCircle
 10
1474.58491863
 20
-226.2507215843
 30
76.7069895068
 40
2.0
210
0.0
220
-0.3420201433256687
230
0.9396926207859084
100
AcDbArc
 50
270.0
 51
295.0
  0
ARC
  5
1CF
100
AcDbEntity
  8
L1_120
  6
CONTINUOUS
 62
         7
100
AcDbCircle
 10
1474.58491863
 20
-195.2507215843
 30
76.7069895068
 40
2.0
210
0.0
220
-0.3420201433256687
230
0.9396926207859084
100
AcDbArc
 50
65.0
 51
90.0
  0
LINE
  5
1D0
100
AcDbEntity
  8
L1_120
  6
CONTINUOUS
 62
         7
100
AcDbLine
 10
1485.7508425579
 20
-235.1244158685
 30
-3.9484154987
 11
1485.7508425579
 21
-213.4280510179
 31
3.9484154987
  0
LINE
  5
1D1
100
AcDbEntity
  8
L1_120
  6
CONTINUOUS
 62
         7
100
AcDbLine
 10
1475.4301551535
 20
-240.5447705447
 30
-5.92126326
 11
1484.8847699505
 21
-236.401891978
 31
-4.4133787775
  0
LINE
  5
1D2
100
AcDbEntity
  8
L1_120
  6
CONTINUOUS
 62
         7
100
AcDbLine
 10
1484.8847699505
 20
-212.1505749084
 30
4.4133787775
 11
1475.4301551535
 21
-208.0076963418
 31
5.92126326
  0
LINE
  5
1D3
100
AcDbEntity
  8
L1_120
  6
CONTINUOUS
 62
         7
100
AcDbLine
 10
1474.58491863
 20
-207.8316125795
 30
5.9853525082
 11
1420.0028425579
 21
-207.8316125795
 31
5.9853525082
  0
LINE
  5
1D4
100
AcDbEntity
  8
L1_120
  6
CONTINUOUS
 62
         7
100
AcDbLine
 10
1474.58491863
 20
-240.720854307
 30
-5.9853525082
 11
1420.0028425579
 21
-240.720854307
 31
-5.9853525082
  0
LINE
  5
1D5
100
AcDbEntity
  8
L1_120
  6
CONTINUOUS
 62
         7
100
AcDbLine
 10
1403.7508425579
 20
-203.335183389
 30
7.621918894
 11
1418.4028425579
 21
-203.335183389
 31
7.621918894
  0
ARC
  5
1D6
100
AcDbEntity
  8
L1_120
  6
CONTINUOUS
 62
         7
100
AcDbCircle
 10
1403.7508425579
 20
-233.5357215843
 30
76.7069895068
 40
0.5
210
0.0
220
-0.3420201433256687
230
0.9396926207859084
100
AcDbArc
 50
90.0
 51
180.0
  0
ARC
  5
1D7
100
AcDbEntity
  8
L1_120
  6
CONTINUOUS
 62
         7
100
AcDbCircle
 10
1403.7508425579
 20
-187.9657215843
 30
76.7069895068
 40
0.5
210
0.0
220
-0.3420201433256687
230
0.9396926207859084
100
AcDbArc
 50
180.0
 51
270.0
  0
LINE
  5
1D8
100
AcDbEntity
  8
L1_120
  6
CONTINUOUS
 62
         7
100
AcDbLine
 10
1403.7508425579
 20
-245.2172834974
 30
-7.621918894
 11
1418.4028425579
 21
-245.2172834974
 31
-7.621918894
  0
LINE
  5
1D9
100
AcDbEntity
  8
L1_120
  6
CONTINUOUS
 62
         7
100
AcDbLine
 10
1419.2028425579
 20
-244.747437187
 30
-7.4509088223
 11
1418.7028425579
 21
-245.2172834974
 31
-7.621918894
  0
LINE
  5
1DA
100
AcDbEntity
  8
L1_120
  6
CONTINUOUS
 62
         7
100
AcDbLine
 10
1418.7028425579
 20
-245.2172834974
 30
-7.621918894
 11
1417.7028425579
 21
-245.2172834974
 31
-7.621918894
  0
LINE
  5
1DB
100
AcDbEntity
  8
L1_120
  6
CONTINUOUS
 62
         7
100
AcDbLine
 10
1418.7028425579
 20
-203.335183389
 30
7.621918894
 11
1417.7028425579
 21
-203.335183389
 31
7.621918894
  0
LINE
  5
1DC
100
AcDbEntity
  8
L1_120
  6
CONTINUOUS
 62
         7
100
AcDbLine
 10
1419.2028425579
 20
-203.8050296994
 30
7.4509088223
 11
1419.2028425579
 21
-244.747437187
 31
-7.4509088223
  0
LINE
  5
1DD
100
AcDbEntity
  8
L1_120
  6
CONTINUOUS
 62
         7
100
AcDbLine
 10
1418.7028425579
 20
-203.335183389
 30
7.621918894
 11
1419.2028425579
 21
-203.8050296994
 31
7.4509088223
  0
LINE
  5
1DE
100
AcDbEntity
  8
L1_120
  6
CONTINUOUS
 62
         4
100
AcDbLine
 10
1418.7028425579
 20
-245.2172834974
 30
-7.621918894
 11
1418.7028425579
 21
-203.335183389
 31
7.621918894
  0
ARC
  5
1DF
100
AcDbEntity
  8
L1_120
  6
CONTINUOUS
 62
         7
100
AcDbCircle
 10
1420.0028425579
 20
-192.4507215843
 30
76.7069895068
 40
0.8
210
0.0
220
-0.3420201433256687
230
0.9396926207859084
100
AcDbArc
 50
179.9999999999
 51
270.0
  0
ARC
  5
1E0
100
AcDbEntity
  8
L1_120
  6
CONTINUOUS
 62
         7
100
AcDbCircle
 10
1420.0028425579
 20
-229.0507215843
 30
76.7069895068
 40
0.8
210
0.0
220
-0.3420201433256687
230
0.9396926207859084
100
AcDbArc
 50
90.0
 51
180.0000000001
  0
LINE
  5
1E1
100
AcDbEntity
  8
L1_120
  6
CONTINUOUS
 62
         7
100
AcDbLine
 10
1402.7508425579
 20
-308.3098889803
 30
10.8676900542
 11
1403.2508425579
 21
-308.7797352907
 31
10.6966799825
  0
LINE
  5
1E2
100
AcDbEntity
  8
L1_120
  6
CONTINUOUS
 62
         7
100
AcDbLine
 10
1387.3508425579
 20
-308.7797352907
 30
10.6966799825
 11
1387.8508425579
 21
-308.3098889803
 31
10.8676900542
  0
LINE
  5
1E3
100
AcDbEntity
  8
L1_120
  6
CONTINUOUS
 62
         7
100
AcDbLine
 10
1387.3508425579
 20
-367.5575087208
 30
-10.6966799825
 11
1387.8508425579
 21
-368.0273550312
 31
-10.8676900542
  0
LINE
  5
1E4
100
AcDbEntity
  8
L1_120
  6
CONTINUOUS
 62
         7
100
AcDbLine
 10
1403.2508425579
 20
-367.5575087208
 30
-10.6966799825
 11
1402.7508425579
 21
-368.0273550312
 31
-10.8676900542
  0
LINE
  5
1E5
100
AcDbEntity
  8
L1_120
  6
CONTINUOUS
 62
         7
100
AcDbLine
 10
1387.8508425579
 20
-308.3098889803
 30
10.8676900542
 11
1389.3508425579
 21
-308.3098889803
 31
10.8676900542
  0
LINE
  5
1E6
100
AcDbEntity
  8
L1_120
  6
CONTINUOUS
 62
         7
100
AcDbLine
 10
1387.3508425579
 20
-308.7797352907
 30
10.6966799825
 11
1387.3508425579
 21
-310.1892742219
 31
10.1836497675
  0
LINE
  5
1E7
100
AcDbEntity
  8
L1_120
  6
CONTINUOUS
 62
         7
100
AcDbLine
 10
1401.2508425579
 20
-308.3098889803
 30
10.8676900542
 11
1402.7508425579
 21
-308.3098889803
 31
10.8676900542
  0
LINE
  5
1E8
100
AcDbEntity
  8
L1_120
  6
CONTINUOUS
 62
         7
100
AcDbLine
 10
1387.8508425579
 20
-368.0273550312
 30
-10.8676900542
 11
1389.3508425579
 21
-368.0273550312
 31
-10.8676900542
  0
LINE
  5
1E9
100
AcDbEntity
  8
L1_120
  6
CONTINUOUS
 62
         7
100
AcDbLine
 10
1401.2508425579
 20
-368.0273550312
 30
-10.8676900542
 11
1402.7508425579
 21
-368.0273550312
 31
-10.8676900542
  0
LINE
  5
1EA
100
AcDbEntity
  8
L1_120
  6
CONTINUOUS
 62
         7
100
AcDbLine
 10
1403.2508425579
 20
-308.7797352907
 30
10.6966799825
 11
1403.2508425579
 21
-316.7577256412
 31
7.7929289657
  0
LINE
  5
1EB
100
AcDbEntity
  8
L1_120
  6
CONTINUOUS
 62
         7
100
AcDbLine
 10
1387.3508425579
 20
-366.1479697897
 30
-10.1836497675
 11
1387.3508425579
 21
-367.5575087208
 31
-10.6966799825
  0
LINE
  5
1EC
100
AcDbEntity
  8
L1_120
  6
CONTINUOUS
 62
         7
100
AcDbLine
 10
1403.2508425579
 20
-359.5795183704
 30
-7.7929289657
 11
1403.2508425579
 21
-367.5575087208
 31
-10.6966799825
  0
LINE
  5
1ED
100
AcDbEntity
  8
L1_120
  6
CONTINUOUS
 62
         7
100
AcDbLine
 10
1398.7871129567
 20
-368.0273550314
 30
-10.8676900542
 11
1402.2508425579
 21
-368.0273550314
 31
-10.8676900542
  0
LINE
  5
1EE
100
AcDbEntity
  8
L1_120
  6
CONTINUOUS
 62
         7
100
AcDbLine
 10
1397.1258425579
 20
-365.323479034
 30
-9.883559674
 11
1398.7871129567
 21
-368.0273550312
 31
-10.8676900542
  0
ARC
  5
1EF
100
AcDbEntity
  8
L1_120
  6
CONTINUOUS
 62
         7
100
AcDbCircle
 10
1396.1520422261
 20
-346.8995586803
 30
115.6604805667
 40
1.0
210
0.0
220
-0.3420201433256687
230
0.9396926207859084
100
AcDbArc
 50
13.1443256895
 51
90.0
  0
LINE
  5
1F0
100
AcDbEntity
  8
L1_120
  6
CONTINUOUS
 62
         7
100
AcDbLine
 10
1394.3496428896
 20
-364.5974769654
 30
-9.619316531
 11
1396.1520422261
 21
-364.5974769654
 31
-9.619316531
  0
ARC
  5
1F1
100
AcDbEntity
  8
L1_120
  6
CONTINUOUS
 62
         7
100
AcDbCircle
 10
1394.3496428896
 20
-346.8995586802
 30
115.6604805667
 40
1.0
210
0.0
220
-0.3420201433256687
230
0.9396926207859084
100
AcDbArc
 50
90.0
 51
166.8556743105
  0
LINE
  5
1F2
100
AcDbEntity
  8
L1_120
  6
CONTINUOUS
 62
         7
100
AcDbLine
 10
1393.3758425579
 20
-365.323479034
 30
-9.883559674
 11
1391.7145721591
 21
-368.0273550312
 31
-10.8676900542
  0
LINE
  5
1F3
100
AcDbEntity
  8
L1_120
  6
CONTINUOUS
 62
         7
100
AcDbLine
 10
1387.3508425579
 20
-359.5936137599
 30
-7.7980592679
 11
1387.3508425579
 21
-367.0876624106
 31
-10.5256699109
  0
LINE
  5
1F4
100
AcDbEntity
  8
L1_120
  6
CONTINUOUS
 62
         7
100
AcDbLine
 10
1388.3508425579
 20
-368.0273550314
 30
-10.8676900542
 11
1391.7145721591
 21
-368.0273550314
 31
-10.8676900542
  0
ARC
  5
1F5
100
AcDbEntity
  8
L1_120
  6
CONTINUOUS
 62
         7
100
AcDbCircle
 10
1386.7508425579
 20
-340.5745586802
 30
115.6604805667
 40
0.6
210
0.0
220
-0.3420201433256687
230
0.9396926207859084
100
AcDbArc
 50
0.0
 51
90.0
  0
LINE
  5
1F6
100
AcDbEntity
  8
L1_120
  6
CONTINUOUS
 62
         7
100
AcDbLine
 10
1386.0972527194
 20
-359.0297981872
 30
-7.5928471818
 11
1386.7508425579
 21
-359.0297981872
 31
-7.5928471818
  0
LINE
  5
1F7
100
AcDbEntity
  8
L1_120
  6
CONTINUOUS
 62
         7
100
AcDbLine
 10
1385.3508425579
 20
-359.2177367115
 30
-7.6612512106
 11
1386.0972527194
 21
-359.0297981874
 31
-7.5928471819
  0
LINE
  5
1F8
100
AcDbEntity
  8
L1_120
  6
CONTINUOUS
 62
         7
100
AcDbLine
 10
1385.3508425579
 20
-317.1195073002
 30
7.6612512105
 11
1386.0972527194
 21
-317.3074458243
 31
7.5928471818
  0
LINE
  5
1F9
100
AcDbEntity
  8
L1_120
  6
CONTINUOUS
 62
         7
100
AcDbLine
 10
1386.0972527194
 20
-317.3074458243
 30
7.5928471818
 11
1386.7508425579
 21
-317.3074458243
 31
7.5928471818
  0
ARC
  5
1FA
100
AcDbEntity
  8
L1_120
  6
CONTINUOUS
 62
         7
100
AcDbCircle
 10
1386.7508425579
 20
-294.9745586802
 30
115.6604805667
 40
0.6
210
0.0
220
-0.3420201433256687
230
0.9396926207859084
100
AcDbArc
 50
270.0
 51
360.0
  0
LINE
  5
1FB
100
AcDbEntity
  8
L1_120
  6
CONTINUOUS
 62
         7
100
AcDbLine
 10
1387.3508425579
 20
-316.7436302518
 30
7.7980592678
 11
1387.3508425579
 21
-309.2495816009
 31
10.5256699109
  0
LINE
  5
1FC
100
AcDbEntity
  8
L1_120
  6
CONTINUOUS
 62
         7
100
AcDbLine
 10
1388.3508425579
 20
-308.3098889801
 30
10.8676900542
 11
1391.7145721591
 21
-308.3098889801
 31
10.8676900542
  0
LINE
  5
1FD
100
AcDbEntity
  8
L1_120
  6
CONTINUOUS
 62
         7
100
AcDbLine
 10
1393.3758425579
 20
-311.0137649776
 30
9.883559674
 11
1391.7145721591
 21
-308.3098889803
 31
10.8676900542
  0
ARC
  5
1FE
100
AcDbEntity
  8
L1_120
  6
CONTINUOUS
 62
         7
100
AcDbCircle
 10
1394.3496428896
 20
-288.64955868
 30
115.6604805667
 40
1.0
210
0.0
220
-0.3420201433256687
230
0.9396926207859084
100
AcDbArc
 50
193.1443256895
 51
270.0
  0
LINE
  5
1FF
100
AcDbEntity
  8
L1_120
  6
CONTINUOUS
 62
         7
100
AcDbLine
 10
1394.3496428896
 20
-311.739767046
 30
9.6193165311
 11
1396.1520422261
 21
-311.739767046
 31
9.6193165311
  0
ARC
  5
200
100
AcDbEntity
  8
L1_120
  6
CONTINUOUS
 62
         7
100
AcDbCircle
 10
1396.1520422261
 20
-288.64955868
 30
115.6604805667
 40
1.0
210
0.0
220
-0.3420201433256687
230
0.9396926207859084
100
AcDbArc
 50
270.0
 51
346.8556743105
  0
LINE
  5
201
100
AcDbEntity
  8
L1_120
  6
CONTINUOUS
 62
         7
100
AcDbLine
 10
1397.1258425579
 20
-311.0137649774
 30
9.8835596741
 11
1398.7871129567
 21
-308.3098889801
 31
10.8676900542
  0
LINE
  5
202
100
AcDbEntity
  8
L1_120
  6
CONTINUOUS
 62
         7
100
AcDbLine
 10
1398.7871129567
 20
-308.3098889801
 30
10.8676900542
 11
1402.2508425579
 21
-308.3098889801
 31
10.8676900542
  0
LINE
  5
203
100
AcDbEntity
  8
L1_120
  6
CONTINUOUS
 62
         7
100
AcDbLine
 10
1387.3508425579
 20
-315.09122699
 30
8.3994848702
 11
1389.6738271251
 21
-311.9737349081
 31
9.5341591935
  0
LINE
  5
204
100
AcDbEntity
  8
L1_120
  6
CONTINUOUS
 62
         4
100
AcDbLine
 10
1387.3508425579
 20
-315.09122699
 30
8.3994848702
 11
1391.4466027793
 21
-317.7861547134
 31
7.4186113953
  0
LINE
  5
205
100
AcDbEntity
  8
L1_120
  6
CONTINUOUS
 62
         7
100
AcDbLine
 10
1391.4466027793
 20
-317.7861547134
 30
7.4186113953
 11
1393.7409085247
 21
-314.7071501882
 31
8.5392773937
  0
LINE
  5
206
100
AcDbEntity
  8
L1_120
  6
CONTINUOUS
 62
         4
100
AcDbLine
 10
1389.6451483033
 20
-312.0122224647
 30
9.5201508685
 11
1393.7409085247
 21
-314.7071501882
 31
8.5392773937
  0
LINE
  5
207
100
AcDbEntity
  8
L1_120
  6
CONTINUOUS
 62
         7
100
AcDbLine
 10
1387.3508425579
 20
-310.4452578555
 30
10.0904793444
 11
1389.6738271251
 21
-311.9737349081
 31
9.5341591935
  0
LINE
  5
208
100
AcDbEntity
  8
L1_120
  6
CENTER
 62
         1
100
AcDbLine
 10
1386.6402119025
 20
-312.3293405878
 30
9.404729311
 11
1415.9138026927
 21
-331.5907736603
 31
2.3941410033
  0
LINE
  5
209
100
AcDbEntity
  8
L1_120
  6
CONTINUOUS
 62
         7
100
AcDbLine
 10
1387.5515943106
 20
-314.821814094
 30
8.497543145
 11
1413.0371154799
 21
-331.5907736603
 31
2.3941410033
  0
LINE
  5
20A
100
AcDbEntity
  8
L1_120
  6
CONTINUOUS
 62
         7
100
AcDbLine
 10
1389.4443965506
 20
-312.2816353606
 30
9.4220925937
 11
1418.7904899055
 21
-331.5907736603
 31
2.3941410033
  0
LINE
  5
20B
100
AcDbEntity
  8
L1_120
  6
CONTINUOUS
 62
         7
100
AcDbLine
 10
1419.2028425579
 20
-355.3649969662
 30
-6.2589686229
 11
1419.2028425579
 21
-358.3579179634
 31
-7.3483027794
  0
ARC
  5
20C
100
AcDbEntity
  8
L1_120
  6
CONTINUOUS
 62
         7
100
AcDbCircle
 10
1420.0028425579
 20
-336.0745586802
 30
115.6604805667
 40
0.8
210
0.0
220
-0.3420201433256687
230
0.9396926207859084
100
AcDbArc
 50
90.0
 51
180.0
  0
ARC
  5
20D
100
AcDbEntity
  8
L1_120
  6
CONTINUOUS
 62
         7
100
AcDbCircle
 10
1420.0028425579
 20
-299.4745586802
 30
115.6604805667
 40
0.8
210
0.0
220
-0.3420201433256687
230
0.9396926207859084
100
AcDbArc
 50
180.0
 51
270.0
  0
LINE
  5
20E
100
AcDbEntity
  8
L1_120
  6
CONTINUOUS
 62
         7
100
AcDbLine
 10
1419.2028425579
 20
-317.9793260482
 30
7.3483027794
 11
1419.2028425579
 21
-320.9722470454
 31
6.2589686229
  0
ARC
  5
20F
100
AcDbEntity
  8
L1_120
  6
CONTINUOUS
 62
         7
100
AcDbCircle
 10
1403.7508425579
 20
-294.9895586802
 30
115.6604805667
 40
0.5
210
0.0
220
-0.3420201433256687
230
0.9396926207859084
100
AcDbArc
 50
180.0
 51
270.0
  0
ARC
  5
210
100
AcDbEntity
  8
L1_120
  6
CONTINUOUS
 62
         7
100
AcDbCircle
 10
1403.7508425579
 20
-340.5595586802
 30
115.6604805667
 40
0.5
210
0.0
220
-0.3420201433256687
230
0.9396926207859084
100
AcDbArc
 50
90.0
 51
180.0
  0
LINE
  5
211
100
AcDbEntity
  8
L1_120
  6
CONTINUOUS
 62
         7
100
AcDbLine
 10
1403.7508425579
 20
-359.10967206
 30
-7.621918894
 11
1418.4028425579
 21
-359.10967206
 31
-7.621918894
  0
LINE
  5
212
100
AcDbEntity
  8
L1_120
  6
CONTINUOUS
 62
         7
100
AcDbLine
 10
1403.7508425579
 20
-317.2275719516
 30
7.621918894
 11
1418.4028425579
 21
-317.2275719516
 31
7.621918894
  0
ARC
  5
213
100
AcDbEntity
  8
L1_120
  6
CONTINUOUS
 62
         7
100
AcDbCircle
 10
1418.4028425579
 20
-296.2895586802
 30
115.6604805667
 40
0.8
210
0.0
220
-0.3420201433256687
230
0.9396926207859084
100
AcDbArc
 50
0.0
 51
90.0000000003
  0
LINE
  5
214
100
AcDbEntity
  8
L1_120
  6
CONTINUOUS
 62
         7
100
AcDbLine
 10
1419.2028425579
 20
-317.9793260482
 30
7.3483027794
 11
1419.2028425579
 21
-318.919018669
 31
7.006282636
  0
ARC
  5
215
100
AcDbEntity
  8
L1_120
  6
CONTINUOUS
 62
         7
100
AcDbCircle
 10
1418.4028425579
 20
-339.2595586802
 30
115.6604805667
 40
0.8
210
0.0
220
-0.3420201433256687
230
0.9396926207859084
100
AcDbArc
 50
269.9999999999
 51
360.0
  0
LINE
  5
216
100
AcDbEntity
  8
L1_120
  6
CONTINUOUS
 62
         7
100
AcDbLine
 10
1419.2028425579
 20
-357.4182253426
 30
-7.006282636
 11
1419.2028425579
 21
-358.3579179634
 31
-7.3483027794
  0
LINE
  5
217
100
AcDbEntity
  8
L1_120
  6
CONTINUOUS
 62
         7
100
AcDbLine
 10
1474.58491863
 20
-321.724001142
 30
5.9853525082
 11
1420.0028425579
 21
-321.724001142
 31
5.9853525082
  0
LINE
  5
218
100
AcDbEntity
  8
L1_120
  6
CONTINUOUS
 62
         7
100
AcDbLine
 10
1474.58491863
 20
-354.6132428695
 30
-5.9853525082
 11
1420.0028425579
 21
-354.6132428695
 31
-5.9853525082
  0
LINE
  5
219
100
AcDbEntity
  8
L1_120
  6
CONTINUOUS
 62
         7
100
AcDbLine
 10
1470.8118425579
 20
-354.6132428695
 30
-5.9853525082
 11
1468.7508425579
 21
-352.6765363781
 31
-5.2804489928
  0
LINE
  5
21A
100
AcDbEntity
  8
L1_120
  6
CONTINUOUS
 62
         7
100
AcDbLine
 10
1456.6898425579
 20
-354.6132428695
 30
-5.9853525082
 11
1458.7508425579
 21
-352.6765363781
 31
-5.2804489928
  0
LINE
  5
21B
100
AcDbEntity
  8
L1_120
  6
CONTINUOUS
 62
         7
100
AcDbLine
 10
1468.7508425579
 20
-352.6765363781
 30
-5.2804489928
 11
1468.7508425579
 21
-344.1356701478
 31
-2.1718279101
  0
LINE
  5
21C
100
AcDbEntity
  8
L1_120
  6
CONTINUOUS
 62
         7
100
AcDbLine
 10
1458.7508425579
 20
-352.6765363781
 30
-5.2804489928
 11
1458.7508425579
 21
-344.1356701478
 31
-2.1718279101
  0
LINE
  5
21D
100
AcDbEntity
  8
L1_120
  6
CONTINUOUS
 62
         4
100
AcDbLine
 10
1458.2008425579
 20
-353.1933673195
 30
-5.4685600716
 11
1458.2008425579
 21
-344.1356701478
 31
-2.1718279101
  0
LINE
  5
21E
100
AcDbEntity
  8
L1_120
  6
CONTINUOUS
 62
         4
100
AcDbLine
 10
1469.3008425579
 20
-344.1356701478
 30
-2.1718279101
 11
1469.3008425579
 21
-353.1933673195
 31
-5.4685600716
  0
LINE
  5
21F
100
AcDbEntity
  8
L1_120
  6
CONTINUOUS
 62
         7
100
AcDbLine
 10
1468.7508425579
 20
-352.6765363781
 30
-5.2804489928
 11
1458.7508425579
 21
-352.6765363781
 31
-5.2804489928
  0
LINE
  5
220
100
AcDbEntity
  8
L1_120
  6
CENTER
 62
         1
100
AcDbLine
 10
1463.7508425579
 20
-356.9244264169
 30
-6.8265545254
 11
1463.7508425579
 21
-342.127981709
 31
-1.4410890787
  0
ARC
  5
221
100
AcDbEntity
  8
L1_120
  6
CONTINUOUS
 62
         7
100
AcDbCircle
 10
1484.2508425579
 20
-329.3189532889
 30
115.6604805667
 40
1.5
210
0.0
220
-0.3420201433256687
230
0.9396926207859084
100
AcDbArc
 50
295.0
 51
360.0
  0
LINE
  5
222
100
AcDbEntity
  8
L1_120
  6
CONTINUOUS
 62
         7
100
AcDbLine
 10
1475.4301551535
 20
-354.4371591072
 30
-5.92126326
 11
1484.8847699505
 21
-350.2942805405
 31
-4.4133787775
  0
LINE
  5
223
100
AcDbEntity
  8
L1_120
  6
CONTINUOUS
 62
         7
100
AcDbLine
 10
1485.7508425579
 20
-349.0168044311
 30
-3.9484154987
 11
1485.7508425579
 21
-327.3204395804
 31
3.9484154987
  0
ARC
  5
224
100
AcDbEntity
  8
L1_120
  6
CONTINUOUS
 62
         7
100
AcDbCircle
 10
1484.2508425579
 20
-306.2301640714
 30
115.6604805667
 40
1.5
210
0.0
220
-0.3420201433256687
230
0.9396926207859084
100
AcDbArc
 50
0.0
 51
65.0
  0
LINE
  5
225
100
AcDbEntity
  8
L1_120
  6
CONTINUOUS
 62
         7
100
AcDbLine
 10
1484.8847699505
 20
-326.042963471
 30
4.4133787775
 11
1475.4301551535
 21
-321.9000849043
 31
5.92126326
  0
ARC
  5
226
100
AcDbEntity
  8
L1_120
  6
CONTINUOUS
 62
         7
100
AcDbCircle
 10
1474.58491863
 20
-333.2745586802
 30
115.6604805667
 40
2.0
210
0.0
220
-0.3420201433256687
230
0.9396926207859084
100
AcDbArc
 50
270.0
 51
295.0
  0
ARC
  5
227
100
AcDbEntity
  8
L1_120
  6
CONTINUOUS
 62
         7
100
AcDbCircle
 10
1474.58491863
 20
-302.2745586802
 30
115.6604805667
 40
2.0
210
0.0
220
-0.3420201433256687
230
0.9396926207859084
100
AcDbArc
 50
65.0
 51
90.0
  0
ARC
  5
228
100
AcDbEntity
  8
L1_120
  6
CONTINUOUS
 62
         7
100
AcDbCircle
 10
1465.2508425579
 20
-294.6995586802
 30
115.6604805667
 40
10.0
210
0.0
220
-0.3420201433256687
230
0.9396926207859084
100
AcDbArc
 50
213.883081796
 51
326.116918204
  0
LINE
  5
229
100
AcDbEntity
  8
L1_120
  6
CENTER
 62
         1
100
AcDbLine
 10
1465.2508425579
 20
-333.7902480357
 30
1.5935977996
 11
1465.2508425579
 21
-318.2782910735
 31
7.239488409
  0
DIMENSION
  5
22C
100
AcDbEntity
  8
L1_120
  6
CONTINUOUS
 62
         4
100
AcDbDimension
  2
*D1
 10
1420.7508425579
 20
-342.7067769535
 30
-124.7350658924
 11
1449.9634413558
 21
-362.6759345108
 31
0.0
210
0.0
220
-0.3420201433256687
230
0.9396926207859084
  3
DIMSTYLE1
100
AcDbAlignedDimension
 13
1420.7508425579
 23
-305.0473023176
 33
-111.0281380868
 14
1485.7508425579
 24
-309.4585902906
 34
-112.6337156037
100
AcDbRotatedDimension
  0
LINE
  5
238
100
AcDbEntity
  8
L1_120
  6
CONTINUOUS
 62
         7
100
AcDbLine
 10
1420.7508425579
 20
-331.5907736603
 30
2.3941410033
 11
1420.7508425579
 21
-344.7464703513
 31
-2.3941410033
  0
LINE
  5
239
100
AcDbEntity
  8
L1_120
  6
CONTINUOUS
 62
         7
100
AcDbLine
 10
1440.7508425579
 20
-344.6055164582
 30
-2.3428379818
 11
1420.7508425579
 21
-344.6055164582
 31
-2.3428379818
  0
LINE
  5
23A
100
AcDbEntity
  8
L1_120
  6
CONTINUOUS
 62
         7
100
AcDbLine
 10
1440.7508425579
 20
-331.7317275534
 30
2.3428379818
 11
1420.7508425579
 21
-331.7317275534
 31
2.3428379818
  0
LINE
  5
23B
100
AcDbEntity
  8
L1_120
  6
CONTINUOUS
 62
         4
100
AcDbLine
 10
1484.6396289399
 20
-344.1356701478
 30
-2.1718279101
 11
1484.6396289399
 21
-332.2015738638
 31
2.1718279101
  0
LINE
  5
23C
100
AcDbEntity
  8
L1_120
  6
CONTINUOUS
 62
         7
100
AcDbLine
 10
1440.7508425579
 20
-344.1356701478
 30
-2.1718279101
 11
1484.2508425579
 21
-344.1356701478
 31
-2.1718279101
  0
LINE
  5
23D
100
AcDbEntity
  8
L1_120
  6
CONTINUOUS
 62
         7
100
AcDbLine
 10
1484.6396289399
 20
-344.1838395823
 30
-2.1893601505
 11
1485.3110942815
 21
-344.5481308744
 31
-2.3219513374
  0
ARC
  5
23E
100
AcDbEntity
  8
L1_120
  6
CONTINUOUS
 62
         7
100
AcDbCircle
 10
1484.2508425579
 20
-325.6245586802
 30
115.6604805667
 40
1.5
210
0.0
220
-0.3420201433256687
230
0.9396926207859084
100
AcDbArc
 50
0.0
 51
45.022059707
  0
ARC
  5
23F
100
AcDbEntity
  8
L1_120
  6
CONTINUOUS
 62
         7
100
AcDbCircle
 10
1484.2508425579
 20
-325.6245586802
 30
115.6604805667
 40
1.5
210
0.0
220
-0.3420201433256687
230
0.9396926207859084
100
AcDbArc
 50
74.977940293
 51
90.0
  0
LINE
  5
240
100
AcDbEntity
  8
L1_120
  6
CONTINUOUS
 62
         7
100
AcDbLine
 10
1484.6396289399
 20
-332.1534044292
 30
2.1893601505
 11
1485.3110942815
 21
-331.7891131372
 31
2.3219513374
  0
ARC
  5
241
100
AcDbEntity
  8
L1_120
  6
CONTINUOUS
 62
         7
100
AcDbCircle
 10
1484.2508425579
 20
-309.9245586802
 30
115.6604805667
 40
1.5
210
0.0
220
-0.3420201433256687
230
0.9396926207859084
100
AcDbArc
 50
314.9779402929
 51
360.0
  0
ARC
  5
242
100
AcDbEntity
  8
L1_120
  6
CONTINUOUS
 62
         7
100
AcDbCircle
 10
1484.2508425579
 20
-309.9245586802
 30
115.6604805667
 40
1.5
210
0.0
220
-0.3420201433256687
230
0.9396926207859084
100
AcDbArc
 50
270.0
 51
285.022059707
  0
LINE
  5
243
100
AcDbEntity
  8
L1_120
  6
CONTINUOUS
 62
         7
100
AcDbLine
 10
1484.2508425579
 20
-332.2015738638
 30
2.1718279101
 11
1440.7508425579
 21
-332.2015738638
 31
2.1718279101
  0
LINE
  5
244
100
AcDbEntity
  8
L1_120
  6
CONTINUOUS
 62
         7
100
AcDbLine
 10
1440.7508425579
 20
-331.7317275534
 30
2.3428379818
 11
1440.7508425579
 21
-344.6055164582
 31
-2.3428379818
  0
LINE
  5
245
100
AcDbEntity
  8
L1_120
  6
CONTINUOUS
 62
         7
100
AcDbLine
 10
1316.9276742862
 20
-326.4961161379
 30
4.2484446952
 11
1385.3508425579
 21
-317.1195073002
 31
7.6612512105
  0
LINE
  5
246
100
AcDbEntity
  8
L1_120
  6
CONTINUOUS
 62
         7
100
AcDbLine
 10
1324.9008425579
 20
-344.7934549823
 30
-2.4112420104
 11
1420.7508425579
 21
-344.7934549823
 31
-2.4112420104
  0
LINE
  5
247
100
AcDbEntity
  8
L1_120
  6
CONTINUOUS
 62
         7
100
AcDbLine
 10
1324.9008425579
 20
-331.5437890292
 30
2.4112420104
 11
1420.7508425579
 21
-331.5437890292
 31
2.4112420104
  0
LINE
  5
248
100
AcDbEntity
  8
L1_120
  6
CENTER
 62
         1
100
AcDbLine
 10
1485.7508425579
 20
-224.6367258223
 30
0.0
 11
1315.9008425579
 21
-224.6367258223
 31
0.0
  0
DIMENSION
  5
24B
100
AcDbEntity
  8
L1_120
  6
CONTINUOUS
 62
         4
100
AcDbDimension
  2
*D2
 10
1513.770236033
 20
-181.5962770343
 30
-66.095639494
 11
1510.638236033
 21
-219.924682257
 31
0.0
210
0.0
220
-0.3420201433256687
230
0.9396926207859084
  3
DIMSTYLE1
100
AcDbAlignedDimension
 13
1474.58491863
 23
-181.5962770343
 33
-66.095639494
 14
1474.58491863
 24
-214.4855187618
 34
-78.0663445104
 50
90.0
100
AcDbRotatedDimension
  0
LINE
  5
257
100
AcDbEntity
  8
L1_120
  6
CENTER
 62
         1
100
AcDbLine
 10
1581.3208044032
 20
-224.2762334432
 30
0.0
 11
1533.6484476237
 21
-224.2762334432
 31
0.0
  0
LINE
  5
258
100
AcDbEntity
  8
L1_120
  6
CENTER
 62
         1
100
AcDbLine
 10
1557.4308425579
 20
-244.9193545718
 30
-7.5134816332
 11
1557.4308425579
 21
-202.6766697818
 31
7.8615982459
  0
LINE
  5
259
100
AcDbEntity
  8
L1_120
  6
CONTINUOUS
 62
         7
100
AcDbLine
 10
1532.4308425579
 20
-219.3898318151
 30
1.7785047453
 11
1532.4308425579
 21
-229.1626350713
 31
-1.7785047453
  0
LINE
  5
25A
100
AcDbEntity
  8
L1_120
  6
DASHED
 62
         2
100
AcDbLine
 10
1533.5997515957
 20
-210.2406499918
 30
5.1085345969
 11
1540.4638729092
 21
-213.6702631042
 31
3.8602575089
  0
LINE
  5
25B
100
AcDbEntity
  8
L1_120
  6
DASHED
 62
         2
100
AcDbLine
 10
1540.5444698444
 20
-215.8390682717
 30
3.070876984
 11
1540.4638729092
 21
-213.6702631042
 31
3.8602575089
  0
LINE
  5
25C
100
AcDbEntity
  8
L1_120
  6
DASHED
 62
         2
100
AcDbLine
 10
1538.585986658
 20
-216.9890604544
 30
2.6523140599
 11
1540.5444698444
 21
-215.8390682717
 31
3.070876984
  0
LINE
  5
25D
100
AcDbEntity
  8
L1_120
  6
DASHED
 62
         2
100
AcDbLine
 10
1538.585986658
 20
-216.9890604544
 30
2.6523140599
 11
1540.4638729092
 21
-213.6702631042
 31
3.8602575089
  0
LINE
  5
25E
100
AcDbEntity
  8
L1_120
  6
DASHED
 62
         2
100
AcDbLine
 10
1531.7218653445
 20
-213.559447342
 30
3.9005911479
 11
1538.585986658
 21
-216.9890604544
 31
2.6523140599
  0
LINE
  5
25F
100
AcDbEntity
  8
L1_120
  6
DASHED
 62
         2
100
AcDbLine
 10
1538.585986658
 20
-231.563406432
 30
-2.6523140599
 11
1540.5444698444
 21
-232.7133986148
 31
-3.070876984
  0
LINE
  5
260
100
AcDbEntity
  8
L1_120
  6
DASHED
 62
         2
100
AcDbLine
 10
1540.5444698444
 20
-232.7133986148
 30
-3.070876984
 11
1540.4638729092
 21
-234.8822037822
 31
-3.8602575089
  0
LINE
  5
261
100
AcDbEntity
  8
L1_120
  6
DASHED
 62
         2
100
AcDbLine
 10
1538.585986658
 20
-231.563406432
 30
-2.6523140599
 11
1540.4638729092
 21
-234.8822037822
 31
-3.8602575089
  0
LINE
  5
262
100
AcDbEntity
  8
L1_120
  6
DASHED
 62
         2
100
AcDbLine
 10
1533.5997515957
 20
-238.3118168947
 30
-5.1085345969
 11
1540.4638729092
 21
-234.8822037822
 31
-3.8602575089
  0
LINE
  5
263
100
AcDbEntity
  8
L1_120
  6
DASHED
 62
         2
100
AcDbLine
 10
1531.7218653445
 20
-234.9930195445
 30
-3.9005911479
 11
1538.585986658
 21
-231.563406432
 31
-2.6523140599
  0
LINE
  5
264
100
AcDbEntity
  8
L1_120
  6
CENTER
 62
         1
100
AcDbLine
 10
1524.0698934993
 20
-240.9448124367
 30
-6.0668666011
 11
1557.4044130876
 21
-224.2894387544
 31
-0.0048063402
  0
LINE
  5
265
100
AcDbEntity
  8
L1_120
  6
DASHED
 62
         2
100
AcDbLine
 10
1532.6308425579
 20
-228.9746965472
 30
-1.7101007166
 11
1536.8808425579
 21
-228.9746965472
 31
-1.7101007166
  0
LINE
  5
266
100
AcDbEntity
  8
L1_120
  6
DASHED
 62
         2
100
AcDbLine
 10
1532.6308425579
 20
-219.5777703393
 30
1.7101007166
 11
1536.8808425579
 21
-219.5777703393
 31
1.7101007166
  0
LINE
  5
267
100
AcDbEntity
  8
L1_120
  6
DASHED
 62
         2
100
AcDbLine
 10
1537.0808425579
 20
-219.7657088634
 30
1.641696688
 11
1537.0808425579
 21
-228.786758023
 31
-1.641696688
  0
ARC
  5
268
100
AcDbEntity
  8
L1_120
  6
DASHED
 62
         2
100
AcDbCircle
 10
1536.8808425579
 20
-205.9507215843
 30
76.7069895068
 40
0.2
210
0.0
220
-0.3420201433256687
230
0.9396926207859084
100
AcDbArc
 50
0.0
 51
90.0
  0
ARC
  5
269
100
AcDbEntity
  8
L1_120
  6
DASHED
 62
         2
100
AcDbCircle
 10
1536.8808425579
 20
-215.5507215843
 30
76.7069895068
 40
0.2
210
0.0
220
-0.3420201433256687
230
0.9396926207859084
100
AcDbArc
 50
270.0
 51
360.0
  0
LINE
  5
26A
100
AcDbEntity
  8
L1_120
  6
DASHED
 62
         2
100
AcDbLine
 10
1532.6308425579
 20
-219.5777703393
 30
1.7101007166
 11
1532.6308425579
 21
-228.9746965472
 31
-1.7101007166
  0
LINE
  5
26B
100
AcDbEntity
  8
L1_120
  6
DASHED
 62
         2
100
AcDbLine
 10
1532.4308425579
 20
-219.3898318151
 30
1.7785047453
 11
1532.6308425579
 21
-219.5777703393
 31
1.7101007166
  0
LINE
  5
26C
100
AcDbEntity
  8
L1_120
  6
DASHED
 62
         2
100
AcDbLine
 10
1532.4308425579
 20
-229.1626350713
 30
-1.7785047453
 11
1532.6308425579
 21
-228.9746965472
 31
-1.7101007166
  0
LINE
  5
26D
100
AcDbEntity
  8
L1_120
  6
CENTER
 62
         1
100
AcDbLine
 10
1524.0698934993
 20
-207.6076544497
 30
6.0668666011
 11
1557.4044130876
 21
-224.2630281321
 31
0.0048063402
  0
LINE
  5
26E
100
AcDbEntity
  8
L1_120
  6
CENTER
 62
         1
100
AcDbLine
 10
1525.6558425579
 20
-224.2762334432
 30
0.0
 11
1589.2058425579
 21
-224.2762334432
 31
0.0
  0
LINE
  5
26F
100
AcDbEntity
  8
L1_120
  6
CONTINUOUS
 62
         7
100
AcDbLine
 10
1527.1924606063
 20
-231.8407590405
 30
-2.7532621538
 11
1531.9308425579
 21
-231.8407590405
 31
-2.7532621538
  0
LINE
  5
270
100
AcDbEntity
  8
L1_120
  6
CONTINUOUS
 62
         7
100
AcDbLine
 10
1526.7983753251
 20
-232.2110780712
 30
-2.8880472581
 11
1527.1924606063
 21
-231.8407590405
 31
-2.7532621538
  0
LINE
  5
271
100
AcDbEntity
  8
L1_120
  6
CONTINUOUS
 62
         7
100
AcDbLine
 10
1532.4308425579
 20
-231.3709127302
 30
-2.5822520821
 11
1531.9308425579
 21
-231.8407590405
 31
-2.7532621538
  0
LINE
  5
272
100
AcDbEntity
  8
L1_120
  6
CONTINUOUS
 62
         7
100
AcDbLine
 10
1526.7983753251
 20
-216.3413888152
 30
2.8880472581
 11
1527.1924606063
 21
-216.7117078459
 31
2.7532621538
  0
LINE
  5
273
100
AcDbEntity
  8
L1_120
  6
CONTINUOUS
 62
         7
100
AcDbLine
 10
1532.4308425579
 20
-217.1815541563
 30
2.5822520821
 11
1531.9308425579
 21
-216.7117078459
 31
2.7532621538
  0
LINE
  5
274
100
AcDbEntity
  8
L1_120
  6
CONTINUOUS
 62
         7
100
AcDbLine
 10
1532.4308425579
 20
-217.1815541563
 30
2.5822520821
 11
1532.4308425579
 21
-231.3709127302
 31
-2.5822520821
  0
LINE
  5
275
100
AcDbEntity
  8
L1_120
  6
CONTINUOUS
 62
         7
100
AcDbLine
 10
1527.1924606063
 20
-216.7117078459
 30
2.7532621538
 11
1531.9308425579
 21
-216.7117078459
 31
2.7532621538
  0
LINE
  5
276
100
AcDbEntity
  8
L1_120
  6
CONTINUOUS
 62
         7
100
AcDbLine
 10
1588.0633097906
 20
-232.2110780712
 30
-2.8880472581
 11
1587.6692245094
 21
-231.8407590405
 31
-2.7532621538
  0
LINE
  5
277
100
AcDbEntity
  8
L1_120
  6
CONTINUOUS
 62
         7
100
AcDbLine
 10
1580.2308425579
 20
-231.3709127302
 30
-2.5822520821
 11
1580.7308425579
 21
-231.8407590405
 31
-2.7532621538
  0
LINE
  5
278
100
AcDbEntity
  8
L1_120
  6
CONTINUOUS
 62
         7
100
AcDbLine
 10
1580.7308425579
 20
-231.8407590405
 30
-2.7532621538
 11
1587.6692245094
 21
-231.8407590405
 31
-2.7532621538
  0
LINE
  5
279
100
AcDbEntity
  8
L1_120
  6
CONTINUOUS
 62
         7
100
AcDbLine
 10
1588.0633097906
 20
-216.3413888152
 30
2.8880472581
 11
1587.6692245094
 21
-216.7117078459
 31
2.7532621538
  0
LINE
  5
27A
100
AcDbEntity
  8
L1_120
  6
CONTINUOUS
 62
         7
100
AcDbLine
 10
1580.7308425579
 20
-216.7117078459
 30
2.7532621538
 11
1587.6692245094
 21
-216.7117078459
 31
2.7532621538
  0
LINE
  5
27B
100
AcDbEntity
  8
L1_120
  6
CONTINUOUS
 62
         7
100
AcDbLine
 10
1580.2308425579
 20
-217.1815541563
 30
2.5822520821
 11
1580.7308425579
 21
-216.7117078459
 31
2.7532621538
  0
LINE
  5
27C
100
AcDbEntity
  8
L1_120
  6
CONTINUOUS
 62
         7
100
AcDbLine
 10
1580.2308425579
 20
-217.1815541563
 30
2.5822520821
 11
1580.2308425579
 21
-231.3709127302
 31
-2.5822520821
  0
ARC
  5
27D
100
AcDbEntity
  8
L1_120
  6
DASHED
 62
         2
100
AcDbCircle
 10
1557.4308425579
 20
-210.7507215843
 30
76.7069895068
 40
28.125
210
0.0
220
-0.3420201433256687
230
0.9396926207859084
100
AcDbArc
 50
196.6319205355
 51
343.3680794645
  0
ARC
  5
27E
100
AcDbEntity
  8
L1_120
  6
DASHED
 62
         2
100
AcDbCircle
 10
1557.4308425579
 20
-210.7507215843
 30
76.7069895068
 40
28.125
210
0.0
220
-0.3420201433256687
230
0.9396926207859084
100
AcDbArc
 50
16.6319205355
 51
163.3680794645
  0
LINE
  5
27F
100
AcDbEntity
  8
L1_120
  6
CENTER
 62
         1
100
AcDbLine
 10
1557.4308425579
 20
-191.5984225554
 30
11.8937504842
 11
1557.4308425579
 21
-256.9540443311
 31
-11.8937504842
  0
ARC
  5
280
100
AcDbEntity
  8
L1_120
  6
CONTINUOUS
 62
         7
100
AcDbCircle
 10
1557.4308425579
 20
-210.7507215843
 30
76.7069895068
 40
31.775
210
0.0
220
-0.3420201433256687
230
0.9396926207859084
100
AcDbArc
 50
15.411296411
 51
164.588703589
  0
ARC
  5
281
100
AcDbEntity
  8
L1_120
  6
CONTINUOUS
 62
         7
100
AcDbCircle
 10
1557.4308425579
 20
-210.7507215843
 30
76.7069895068
 40
31.775
210
0.0
220
-0.3420201433256687
230
0.9396926207859084
100
AcDbArc
 50
195.411296411
 51
344.588703589
  0
LINE
  5
282
100
AcDbEntity
  8
L1_120
  6
CENTER
 62
         1
100
AcDbLine
 10
1581.2851867501
 20
-224.2762334432
 30
0.0
 11
1533.1030885265
 21
-224.2762334432
 31
0.0
  0
LINE
  5
283
100
AcDbEntity
  8
L1_120
  6
CENTER
 62
         1
100
AcDbLine
 10
1557.4308425579
 20
-246.7074330583
 30
-8.1642889788
 11
1557.4308425579
 21
-201.5090387071
 31
8.2865812017
  0
LINE
  5
284
100
AcDbEntity
  8
L1_120
  6
DASHED
 62
         2
100
AcDbLine
 10
1559.0888400419
 20
-233.0901629873
 30
-3.208008001
 11
1564.0388294051
 21
-245.869967597
 31
-7.8594764786
  0
LINE
  5
285
100
AcDbEntity
  8
L1_120
  6
DASHED
 62
         2
100
AcDbLine
 10
1562.1898256905
 20
-232.0295634314
 30
-2.8219813321
 11
1567.1398150537
 21
-244.809368041
 31
-7.4734498098
  0
LINE
  5
286
100
AcDbEntity
  8
L1_120
  6
DASHED
 62
         2
100
AcDbLine
 10
1567.468707471
 20
-244.6968802093
 30
-7.4325075873
 11
1568.905192073
 21
-248.4055735399
 31
-8.7823615677
  0
LINE
  5
287
100
AcDbEntity
  8
L1_120
  6
DASHED
 62
         2
100
AcDbLine
 10
1567.468707471
 20
-244.6968802093
 30
-7.4325075873
 11
1563.7099369879
 21
-245.9824554287
 31
-7.9004187011
  0
LINE
  5
288
100
AcDbEntity
  8
L1_120
  6
DASHED
 62
         2
100
AcDbLine
 10
1563.7099369879
 20
-245.9824554287
 30
-7.9004187011
 11
1565.1464215898
 21
-249.6911487592
 31
-9.2502726814
  0
LINE
  5
289
100
AcDbEntity
  8
L1_120
  6
DASHED
 62
         2
100
AcDbLine
 10
1551.1517481279
 20
-202.5700114577
 30
7.9004187011
 11
1547.3929776447
 21
-203.8555866771
 31
7.4325075873
  0
LINE
  5
28A
100
AcDbEntity
  8
L1_120
  6
DASHED
 62
         2
100
AcDbLine
 10
1547.721870062
 20
-203.7430988454
 30
7.4734498098
 11
1552.6718594253
 21
-216.5229034551
 31
2.8219813321
  0
LINE
  5
28B
100
AcDbEntity
  8
L1_120
  6
DASHED
 62
         2
100
AcDbLine
 10
1550.8228557106
 20
-202.6824992894
 30
7.8594764786
 11
1555.7728450739
 21
-215.4623038991
 31
3.208008001
  0
LINE
  5
28C
100
AcDbEntity
  8
L1_120
  6
DASHED
 62
         2
100
AcDbLine
 10
1547.3929776447
 20
-203.8555866771
 30
7.4325075873
 11
1545.9564930428
 21
-200.1468933466
 31
8.7823615677
  0
LINE
  5
28D
100
AcDbEntity
  8
L1_120
  6
DASHED
 62
         2
100
AcDbLine
 10
1551.1517481279
 20
-202.5700114577
 30
7.9004187011
 11
1549.7152635259
 21
-198.8613181272
 31
9.2502726814
  0
LINE
  5
28E
100
AcDbEntity
  8
L1_120
  6
CENTER
 62
         1
100
AcDbLine
 10
1545.5370920737
 20
-193.5691356885
 30
11.1764695634
 11
1569.4717158171
 21
-255.3631704626
 31
-11.3147197495
  0
CIRCLE
  5
28F
100
AcDbEntity
  8
L1_120
  6
CONTINUOUS
 62
         7
100
AcDbCircle
 10
1557.4308425579
 20
-210.7507215843
 30
76.7069895068
 40
22.225
210
0.0
220
-0.3420201433256687
230
0.9396926207859084
  0
CIRCLE
  5
290
100
AcDbEntity
  8
L1_120
  6
CONTINUOUS
 62
         7
100
AcDbCircle
 10
1557.4308425579
 20
-210.7507215843
 30
76.7069895068
 40
17.5
210
0.0
220
-0.3420201433256687
230
0.9396926207859084
  0
CIRCLE
  5
291
100
AcDbEntity
  8
L1_120
  6
CONTINUOUS
 62
         7
100
AcDbCircle
 10
1557.4308425579
 20
-210.7507215843
 30
76.7069895068
 40
12.5
210
0.0
220
-0.3420201433256687
230
0.9396926207859084
  0
CIRCLE
  5
292
100
AcDbEntity
  8
L1_120
  6
CONTINUOUS
 62
         7
100
AcDbCircle
 10
1557.4308425579
 20
-210.7507215843
 30
76.7069895068
 40
6.35
210
0.0
220
-0.3420201433256687
230
0.9396926207859084
  0
LINE
  5
293
100
AcDbEntity
  8
L1_120
  6
DASHED
 62
         2
100
AcDbLine
 10
1562.9858425579
 20
-239.3056191793
 30
-5.4702490472
 11
1562.9858425579
 21
-227.1671401765
 31
-1.0522040009
  0
LINE
  5
294
100
AcDbEntity
  8
L1_120
  6
DASHED
 62
         2
100
AcDbLine
 10
1551.8758425579
 20
-239.3056191793
 30
-5.4702490472
 11
1551.8758425579
 21
-227.1671401765
 31
-1.0522040009
  0
LINE
  5
295
100
AcDbEntity
  8
L1_120
  6
DASHED
 62
         2
100
AcDbLine
 10
1551.4305905495
 20
-239.724019206
 30
-5.622534203
 11
1552.4308425579
 21
-238.7840897748
 31
-5.2804278677
  0
LINE
  5
296
100
AcDbEntity
  8
L1_120
  6
DASHED
 62
         2
100
AcDbLine
 10
1563.4310945663
 20
-239.724019206
 30
-5.622534203
 11
1562.4308425579
 21
-238.7840897748
 31
-5.2804278677
  0
LINE
  5
297
100
AcDbEntity
  8
L1_120
  6
DASHED
 62
         2
100
AcDbLine
 10
1552.4308425579
 20
-238.7840897748
 30
-5.2804278677
 11
1552.4308425579
 21
-227.954562954
 31
-1.3388024537
  0
LINE
  5
298
100
AcDbEntity
  8
L1_120
  6
DASHED
 62
         2
100
AcDbLine
 10
1562.4308425579
 20
-238.7840897748
 30
-5.2804278677
 11
1562.4308425579
 21
-227.954562954
 31
-1.3388024537
  0
LINE
  5
299
100
AcDbEntity
  8
L1_120
  6
DASHED
 62
         2
100
AcDbLine
 10
1562.4308425579
 20
-238.7840897748
 30
-5.2804278677
 11
1552.4308425579
 21
-238.7840897748
 31
-5.2804278677
  0
DIMENSION
  5
29C
100
AcDbEntity
  8
L1_120
  6
CONTINUOUS
 62
         4
100
AcDbDimension
  2
*D3
 10
1384.1508425579
 20
-156.3766421231
 30
-56.9164430673
 11
1435.476906298
 21
-163.2805466818
 31
0.0
210
0.0
220
-0.3420201433256687
230
0.9396926207859084
  3
DIMSTYLE1
100
AcDbAlignedDimension
 13
1384.1508425579
 23
-177.1562294011
 33
-64.4795943168
 14
1485.7508425579
 24
-178.0395404646
 34
-64.8010932515
100
AcDbRotatedDimension
  0
DIMENSION
  5
2AA
100
AcDbEntity
  8
L1_120
  6
CONTINUOUS
 62
         4
100
AcDbDimension
  2
*D4
 10
1315.9008425579
 20
-143.0090146973
 30
-52.0510245816
 11
1397.0375262929
 21
-150.1620147046
 31
0.0
210
0.0
220
-0.3420201433256687
230
0.9396926207859084
  3
DIMSTYLE1
100
AcDbAlignedDimension
 13
1315.9008425579
 23
-187.4842202385
 33
-68.2386755614
 14
1485.7508425579
 24
-198.040897898
 34
-72.0809920022
100
AcDbRotatedDimension
  0
TEXT
  5
2B7
100
AcDbEntity
  8
L1_120
  6
CONTINUOUS
 62
         2
100
AcDbText
 10
1503.8491029741
 20
-173.1726118865
 30
0.0
 40
4.5
  1
521028
 41
0.98
  7
BOX
100
AcDbText
  0
INSERT
  5
320
100
AcDbEntity
  8
0
  6
CONTINUOUS
100
AcDbBlockReference
  2
*X5
 10
0.0
 20
0.0
 30
0.0
  0
LINE
  5
321
100
AcDbEntity
  8
L1_120
  6
CONTINUOUS
 62
         7
100
AcDbLine
 10
1515.8447641639
 20
-271.7833407967
 30
-98.9210462194
 11
1506.4128617001
 21
-271.7833407967
 31
-98.9210462194
  0
LINE
  5
322
100
AcDbEntity
  8
L1_120
  6
CONTINUOUS
 62
         7
100
AcDbLine
 10
1516.6914240572
 20
-271.1866347891
 30
-98.7038629941
 11
1505.5662018068
 21
-271.1866347891
 31
-98.7038629941
  0
LINE
  5
323
100
AcDbEntity
  8
L1_120
  6
CONTINUOUS
 62
         7
100
AcDbLine
 10
1515.8447641639
 20
-271.7833407967
 30
-98.9210462194
 11
1516.6914240572
 21
-271.1866347891
 31
-98.7038629941
  0
LINE
  5
324
100
AcDbEntity
  8
L1_120
  6
CONTINUOUS
 62
         7
100
AcDbLine
 10
1506.4128617001
 20
-271.7833407967
 30
-98.9210462194
 11
1505.5662018068
 21
-271.1866347891
 31
-98.7038629941
  0
LINE
  5
325
100
AcDbEntity
  8
L1_120
  6
CONTINUOUS
 62
         7
100
AcDbLine
 10
1505.5662018068
 20
-271.1866347891
 30
-98.7038629941
 11
1505.5662018068
 21
-270.5135504125
 31
-98.4588803158
  0
LINE
  5
326
100
AcDbEntity
  8
L1_120
  6
CONTINUOUS
 62
         7
100
AcDbLine
 10
1506.4128617001
 20
-269.8404660359
 30
-98.2138976376
 11
1505.5662018068
 21
-269.1673816593
 31
-97.9689149594
  0
LINE
  5
327
100
AcDbEntity
  8
L1_120
  6
CONTINUOUS
 62
         7
100
AcDbLine
 10
1505.5662018068
 20
-269.1673816593
 30
-97.9689149594
 11
1506.4128617001
 21
-268.4942972828
 31
-97.7239322811
  0
LINE
  5
328
100
AcDbEntity
  8
L1_120
  6
CONTINUOUS
 62
         7
100
AcDbLine
 10
1516.6914240572
 20
-269.8404660359
 30
-98.2138976376
 11
1515.8447641639
 21
-269.1673816593
 31
-97.9689149594
  0
LINE
  5
329
100
AcDbEntity
  8
L1_120
  6
CONTINUOUS
 62
         7
100
AcDbLine
 10
1515.8447641639
 20
-269.1673816593
 30
-97.9689149594
 11
1516.6914240572
 21
-268.4942972828
 31
-97.7239322811
  0
LINE
  5
32A
100
AcDbEntity
  8
L1_120
  6
CONTINUOUS
 62
         7
100
AcDbLine
 10
1516.6914240572
 20
-268.4942972828
 30
-97.7239322811
 11
1505.5662018068
 21
-269.1673816593
 31
-97.9689149594
  0
LINE
  5
32B
100
AcDbEntity
  8
L1_120
  6
CONTINUOUS
 62
         7
100
AcDbLine
 10
1515.8447641639
 20
-269.1673816593
 30
-97.9689149594
 11
1506.4128617001
 21
-269.8404660359
 31
-98.2138976376
  0
LINE
  5
32C
100
AcDbEntity
  8
L1_120
  6
CONTINUOUS
 62
         4
100
AcDbLine
 10
1506.4128617001
 20
-269.8404660359
 30
-98.2138976376
 11
1505.5662018068
 21
-270.5135504125
 31
-98.4588803158
  0
LINE
  5
32D
100
AcDbEntity
  8
L1_120
  6
CONTINUOUS
 62
         4
100
AcDbLine
 10
1516.6914240572
 20
-269.8404660359
 30
-98.2138976376
 11
1515.8447641639
 21
-270.5135504125
 31
-98.4588803158
  0
LINE
  5
32E
100
AcDbEntity
  8
L1_120
  6
CONTINUOUS
 62
         4
100
AcDbLine
 10
1515.8447641639
 20
-270.5135504125
 30
-98.4588803158
 11
1516.6914240572
 21
-271.1866347891
 31
-98.7038629941
  0
LINE
  5
32F
100
AcDbEntity
  8
L1_120
  6
CONTINUOUS
 62
         4
100
AcDbLine
 10
1516.6914240572
 20
-269.8404660359
 30
-98.2138976376
 11
1505.5662018068
 21
-270.5135504125
 31
-98.4588803158
  0
LINE
  5
330
100
AcDbEntity
  8
L1_120
  6
CONTINUOUS
 62
         4
100
AcDbLine
 10
1515.8447641639
 20
-270.5135504125
 30
-98.4588803158
 11
1507.1291431326
 21
-271.1866347891
 31
-98.7038629941
  0
LINE
  5
331
100
AcDbEntity
  8
L1_120
  6
CONTINUOUS
 62
         4
100
AcDbLine
 10
1516.6914240572
 20
-271.1866347891
 30
-98.7038629941
 11
1507.1291431326
 21
-271.1866347891
 31
-98.7038629941
  0
LINE
  5
332
100
AcDbEntity
  8
L1_120
  6
CONTINUOUS
 62
         7
100
AcDbLine
 10
1506.4128617001
 20
-268.4942972828
 30
-97.7239322811
 11
1505.5662018068
 21
-267.8212129062
 31
-97.4789496029
  0
LINE
  5
333
100
AcDbEntity
  8
L1_120
  6
CONTINUOUS
 62
         7
100
AcDbLine
 10
1505.5662018068
 20
-267.8212129062
 30
-97.4789496029
 11
1506.4128617001
 21
-267.1481285296
 31
-97.2339669247
  0
LINE
  5
334
100
AcDbEntity
  8
L1_120
  6
CONTINUOUS
 62
         7
100
AcDbLine
 10
1516.6914240572
 20
-268.4942972828
 30
-97.7239322811
 11
1515.8447641639
 21
-267.8212129062
 31
-97.4789496029
  0
LINE
  5
335
100
AcDbEntity
  8
L1_120
  6
CONTINUOUS
 62
         7
100
AcDbLine
 10
1515.8447641639
 20
-267.8212129062
 30
-97.4789496029
 11
1516.6914240572
 21
-267.1481285296
 31
-97.2339669247
  0
LINE
  5
336
100
AcDbEntity
  8
L1_120
  6
CONTINUOUS
 62
         7
100
AcDbLine
 10
1516.6914240572
 20
-267.1481285296
 30
-97.2339669247
 11
1505.5662018068
 21
-267.8212129062
 31
-97.4789496029
  0
LINE
  5
337
100
AcDbEntity
  8
L1_120
  6
CONTINUOUS
 62
         7
100
AcDbLine
 10
1515.8447641639
 20
-267.8212129062
 30
-97.4789496029
 11
1506.4128617001
 21
-268.4942972828
 31
-97.7239322811
  0
LINE
  5
338
100
AcDbEntity
  8
L1_120
  6
CONTINUOUS
 62
         4
100
AcDbLine
 10
1506.4128617001
 20
-269.8404660359
 30
-98.2138976376
 11
1505.5662018068
 21
-270.5135504125
 31
-98.4588803158
  0
LINE
  5
339
100
AcDbEntity
  8
L1_120
  6
CONTINUOUS
 62
         4
100
AcDbLine
 10
1516.6914240572
 20
-269.8404660359
 30
-98.2138976376
 11
1515.8447641639
 21
-270.5135504125
 31
-98.4588803158
  0
LINE
  5
33A
100
AcDbEntity
  8
L1_120
  6
CONTINUOUS
 62
         4
100
AcDbLine
 10
1515.8447641639
 20
-270.5135504125
 30
-98.4588803158
 11
1516.6914240572
 21
-271.1866347891
 31
-98.7038629941
  0
LINE
  5
33B
100
AcDbEntity
  8
L1_120
  6
CONTINUOUS
 62
         4
100
AcDbLine
 10
1516.6914240572
 20
-269.8404660359
 30
-98.2138976376
 11
1505.5662018068
 21
-270.5135504125
 31
-98.4588803158
  0
LINE
  5
33C
100
AcDbEntity
  8
L1_120
  6
CONTINUOUS
 62
         4
100
AcDbLine
 10
1515.8447641639
 20
-270.5135504125
 30
-98.4588803158
 11
1507.1291431326
 21
-271.1866347891
 31
-98.7038629941
  0
LINE
  5
33D
100
AcDbEntity
  8
L1_120
  6
CONTINUOUS
 62
         4
100
AcDbLine
 10
1516.6914240572
 20
-271.1866347891
 30
-98.7038629941
 11
1507.1291431326
 21
-271.1866347891
 31
-98.7038629941
  0
LINE
  5
33E
100
AcDbEntity
  8
L1_120
  6
CONTINUOUS
 62
         7
100
AcDbLine
 10
1506.4128617001
 20
-267.1481285296
 30
-97.2339669247
 11
1505.5662018068
 21
-266.475044153
 31
-96.9889842465
  0
LINE
  5
33F
100
AcDbEntity
  8
L1_120
  6
CONTINUOUS
 62
         7
100
AcDbLine
 10
1505.5662018068
 20
-266.475044153
 30
-96.9889842465
 11
1506.4128617001
 21
-265.8019597764
 31
-96.7440015682
  0
LINE
  5
340
100
AcDbEntity
  8
L1_120
  6
CONTINUOUS
 62
         7
100
AcDbLine
 10
1516.6914240572
 20
-267.1481285296
 30
-97.2339669247
 11
1515.8447641639
 21
-266.475044153
 31
-96.9889842465
  0
LINE
  5
341
100
AcDbEntity
  8
L1_120
  6
CONTINUOUS
 62
         7
100
AcDbLine
 10
1515.8447641639
 20
-266.475044153
 30
-96.9889842465
 11
1516.6914240572
 21
-265.8019597764
 31
-96.7440015682
  0
LINE
  5
342
100
AcDbEntity
  8
L1_120
  6
CONTINUOUS
 62
         7
100
AcDbLine
 10
1516.6914240572
 20
-265.8019597764
 30
-96.7440015682
 11
1505.5662018068
 21
-266.475044153
 31
-96.9889842465
  0
LINE
  5
343
100
AcDbEntity
  8
L1_120
  6
CONTINUOUS
 62
         7
100
AcDbLine
 10
1515.8447641639
 20
-266.475044153
 30
-96.9889842465
 11
1506.4128617001
 21
-267.1481285296
 31
-97.2339669247
  0
LINE
  5
344
100
AcDbEntity
  8
L1_120
  6
CONTINUOUS
 62
         7
100
AcDbLine
 10
1506.4128617001
 20
-269.8404660359
 30
-98.2138976376
 11
1505.5662018068
 21
-270.5135504125
 31
-98.4588803158
  0
LINE
  5
345
100
AcDbEntity
  8
L1_120
  6
CONTINUOUS
 62
         7
100
AcDbLine
 10
1516.6914240572
 20
-269.8404660359
 30
-98.2138976376
 11
1515.8447641639
 21
-270.5135504125
 31
-98.4588803158
  0
LINE
  5
346
100
AcDbEntity
  8
L1_120
  6
CONTINUOUS
 62
         7
100
AcDbLine
 10
1515.8447641639
 20
-270.5135504125
 30
-98.4588803158
 11
1516.6914240572
 21
-271.1866347891
 31
-98.7038629941
  0
LINE
  5
347
100
AcDbEntity
  8
L1_120
  6
CONTINUOUS
 62
         7
100
AcDbLine
 10
1516.6914240572
 20
-269.8404660359
 30
-98.2138976376
 11
1505.5662018068
 21
-270.5135504125
 31
-98.4588803158
  0
LINE
  5
348
100
AcDbEntity
  8
L1_120
  6
CONTINUOUS
 62
         7
100
AcDbLine
 10
1515.8447641639
 20
-270.5135504125
 30
-98.4588803158
 11
1507.1291431326
 21
-271.1866347891
 31
-98.7038629941
  0
LINE
  5
349
100
AcDbEntity
  8
L1_120
  6
CONTINUOUS
 62
         7
100
AcDbLine
 10
1516.6914240572
 20
-271.1866347891
 30
-98.7038629941
 11
1507.1291431326
 21
-271.1866347891
 31
-98.7038629941
  0
LINE
  5
34A
100
AcDbEntity
  8
L1_120
  6
CONTINUOUS
 62
         7
100
AcDbLine
 10
1506.4128617001
 20
-265.8019597764
 30
-96.7440015682
 11
1505.5662018068
 21
-265.1288753998
 31
-96.49901889
  0
LINE
  5
34B
100
AcDbEntity
  8
L1_120
  6
CONTINUOUS
 62
         7
100
AcDbLine
 10
1505.5662018068
 20
-265.1288753998
 30
-96.49901889
 11
1506.4128617001
 21
-264.4557910232
 31
-96.2540362118
  0
LINE
  5
34C
100
AcDbEntity
  8
L1_120
  6
CONTINUOUS
 62
         7
100
AcDbLine
 10
1516.6914240572
 20
-265.8019597764
 30
-96.7440015682
 11
1515.8447641639
 21
-265.1288753998
 31
-96.49901889
  0
LINE
  5
34D
100
AcDbEntity
  8
L1_120
  6
CONTINUOUS
 62
         7
100
AcDbLine
 10
1515.8447641639
 20
-265.1288753998
 30
-96.49901889
 11
1516.6914240572
 21
-264.4557910232
 31
-96.2540362118
  0
LINE
  5
34E
100
AcDbEntity
  8
L1_120
  6
CONTINUOUS
 62
         7
100
AcDbLine
 10
1516.6914240572
 20
-264.4557910232
 30
-96.2540362118
 11
1505.5662018068
 21
-265.1288753998
 31
-96.49901889
  0
LINE
  5
34F
100
AcDbEntity
  8
L1_120
  6
CONTINUOUS
 62
         7
100
AcDbLine
 10
1515.8447641639
 20
-265.1288753998
 30
-96.49901889
 11
1506.4128617001
 21
-265.8019597764
 31
-96.7440015682
  0
LINE
  5
350
100
AcDbEntity
  8
L1_120
  6
CONTINUOUS
 62
         7
100
AcDbLine
 10
1507.9284065312
 20
-262.2360446749
 30
-95.4461146134
 11
1514.3292193328
 21
-262.2360446749
 31
-95.4461146134
  0
LINE
  5
351
100
AcDbEntity
  8
L1_120
  6
CONTINUOUS
 62
         7
100
AcDbLine
 10
1505.5662018068
 20
-264.4557910232
 30
-96.2540362118
 11
1516.6914240572
 21
-264.4557910232
 31
-96.2540362118
  0
LINE
  5
352
100
AcDbEntity
  8
L1_120
  6
CONTINUOUS
 62
         7
100
AcDbLine
 10
1507.9284065312
 20
-262.2360446749
 30
-95.4461146134
 11
1505.5662018068
 21
-264.4557910232
 31
-96.2540362118
  0
LINE
  5
353
100
AcDbEntity
  8
L1_120
  6
CONTINUOUS
 62
         7
100
AcDbLine
 10
1514.3292193328
 20
-262.2360446749
 30
-95.4461146134
 11
1516.6914240572
 21
-264.4557910232
 31
-96.2540362118
  0
LINE
  5
354
100
AcDbEntity
  8
L1_120
  6
DASHED
 62
         2
100
AcDbLine
 10
1507.9172379014
 20
-266.55619617
 30
-97.0185211651
 11
1514.3403879625
 21
-266.55619617
 31
-97.0185211651
  0
LINE
  5
355
100
AcDbEntity
  8
L1_120
  6
DASHED
 62
         2
100
AcDbLine
 10
1507.9172379014
 20
-271.7833407967
 30
-98.9210462194
 11
1507.9172379014
 21
-266.55619617
 31
-97.0185211651
  0
LINE
  5
356
100
AcDbEntity
  8
L1_120
  6
DASHED
 62
         2
100
AcDbLine
 10
1514.3403879625
 20
-271.7833407967
 30
-98.9210462194
 11
1514.3403879625
 21
-266.55619617
 31
-97.0185211651
  0
LINE
  5
357
100
AcDbEntity
  8
L1_120
  6
DASHED
 62
         2
100
AcDbLine
 10
1509.5230254167
 20
-271.7833407967
 30
-98.9210462194
 11
1509.5230254167
 21
-266.55619617
 31
-97.0185211651
  0
LINE
  5
358
100
AcDbEntity
  8
L1_120
  6
DASHED
 62
         2
100
AcDbLine
 10
1512.7346004473
 20
-271.7833407967
 30
-98.9210462194
 11
1512.7346004473
 21
-266.55619617
 31
-97.0185211651
  0
DIMENSION
  5
35B
100
AcDbEntity
  8
L1_120
  6
CONTINUOUS
 62
         4
100
AcDbDimension
  2
*D6
 10
1507.8956514245
 20
-277.8800646099
 30
-101.140072214
 11
1516.0831239397
 21
-293.688788172
 31
0.0
210
0.0
220
-0.3420201433256687
230
0.9396926207859084
  3
DIMSTYLE1
100
AcDbAlignedDimension
 13
1507.8956514245
 23
-271.7833407967
 33
-98.9210462194
 14
1514.3619744395
 24
-271.7833407967
 34
-98.9210462194
100
AcDbRotatedDimension
  0
LINE
  5
368
100
AcDbEntity
  8
L1_120
  6
CENTER
 62
         1
100
AcDbLine
 10
1511.128812932
 20
-274.3944707347
 30
-99.8714197946
 11
1511.128812932
 21
-261.2117988129
 31
-95.073319607
  0
DIMENSION
  5
36B
100
AcDbEntity
  8
L1_120
  6
CONTINUOUS
 62
         4
100
AcDbDimension
  2
*D7
 10
1505.5662018068
 20
-256.1094195244
 30
-93.2162054221
 11
1495.8874990076
 21
-270.5209515795
 31
0.0
210
0.0
220
-0.3420201433256687
230
0.9396926207859084
  3
DIMSTYLE1
100
AcDbAlignedDimension
 13
1505.5662018068
 23
-264.4557910232
 33
-96.2540362118
 14
1516.6914240572
 24
-264.4557910232
 34
-96.2540362118
100
AcDbRotatedDimension
  0
DIMENSION
  5
379
100
AcDbEntity
  8
L1_120
  6
CONTINUOUS
 62
         4
100
AcDbDimension
  2
*D8
 10
1500.6939251419
 20
-262.2360446749
 30
-95.4461146134
 11
1498.6689251419
 21
-287.5137971184
 31
0.0
210
0.0
220
-0.3420201433256687
230
0.9396926207859084
  3
DIMSTYLE1
100
AcDbAlignedDimension
 13
1507.9284065312
 23
-262.2360446749
 33
-95.4461146134
 14
1506.4128617001
 24
-271.7833407967
 34
-98.9210462194
 50
90.0
100
AcDbRotatedDimension
  0
ENDSEC
  0
SECTION
  2
OBJECTS
  0
DICTIONARY
  5
19
100
AcDbDictionary
  3
ACAD_GROUP
350
1A
  3
ACAD_MLINESTYLE
350
1B
  0
DICTIONARY
  5
1A
102
{ACAD_REACTORS
330
19
102
}
100
AcDbDictionary
  0
DICTIONARY
  5
1B
102
{ACAD_REACTORS
330
19
102
}
100
AcDbDictionary
  3
STANDARD
350
1C
  0
MLINESTYLE
  5
1C
102
{ACAD_REACTORS
330
1B
102
}
100
AcDbMlineStyle
  2
STANDARD
 70
         0
  3

 62
         0
 51
90.0
 52
90.0
 71
         2
 49
0.5
 62
       256
  6
BYLAYER
 49
-0.5
 62
       256
  6
BYLAYER
  0
ENDSEC
  0
EOF
