  0
SECTION
  2
HEADER
  9
$ACADVER
  1
AC1014
  9
$ACADMAINTVER
 70
         0
  9
$DWGCODEPAGE
  3
BIG5
  9
$INSBASE
 10
0.0
 20
0.0
 30
0.0
  9
$EXTMIN
 10
1064.1814885291
 20
-447.8094309992
 30
0.0
  9
$EXTMAX
 10
1924.6495539659
 20
-27.757051229
 30
0.0
  9
$LIMMIN
 10
0.0
 20
0.0
  9
$LIMMAX
 10
0.0
 20
0.0
  9
$ORTHOMODE
 70
         0
  9
$REGENMODE
 70
         1
  9
$FILLMODE
 70
         1
  9
$QTEXTMODE
 70
         0
  9
$MIRRTEXT
 70
         1
  9
$DRAGMODE
 70
         2
  9
$LTSCALE
 40
1.0
  9
$OSMODE
 70
         0
  9
$ATTMODE
 70
         1
  9
$TEXTSIZE
 40
1.7
  9
$TRACEWID
 40
0.05
  9
$TEXTSTYLE
  7
STANDARD
  9
$CLAYER
  8
0
  9
$CELTYPE
  6
CONTINUOUS
  9
$CECOLOR
 62
        16
  9
$CELTSCALE
 40
1.0
  9
$DELOBJ
 70
         1
  9
$DISPSILH
 70
         0
  9
$DIMSCALE
 40
1.0
  9
$DIMASZ
 40
0.18
  9
$DIMEXO
 40
0.0625
  9
$DIMDLI
 40
0.38
  9
$DIMRND
 40
0.0
  9
$DIMDLE
 40
0.0
  9
$DIMEXE
 40
0.25
  9
$DIMTP
 40
0.01
  9
$DIMTM
 40
-0.01
  9
$DIMTXT
 40
2.7
  9
$DIMCEN
 40
0.09
  9
$DIMTSZ
 40
0.0
  9
$DIMTOL
 70
         0
  9
$DIMLIM
 70
         0
  9
$DIMTIH
 70
         1
  9
$DIMTOH
 70
         1
  9
$DIMSE1
 70
         0
  9
$DIMSE2
 70
         0
  9
$DIMTAD
 70
         0
  9
$DIMZIN
 70
         0
  9
$DIMBLK
  1

  9
$DIMASO
 70
         1
  9
$DIMSHO
 70
         1
  9
$DIMPOST
  1

  9
$DIMAPOST
  1

  9
$DIMALT
 70
         0
  9
$DIMALTD
 70
         2
  9
$DIMALTF
 40
25.4
  9
$DIMLFAC
 40
1.0
  9
$DIMTOFL
 70
         0
  9
$DIMTVP
 40
0.0
  9
$DIMTIX
 70
         0
  9
$DIMSOXD
 70
         0
  9
$DIMSAH
 70
         0
  9
$DIMBLK1
  1

  9
$DIMBLK2
  1

  9
$DIMSTYLE
  2
STANDARD
  9
$DIMCLRD
 70
         0
  9
$DIMCLRE
 70
         0
  9
$DIMCLRT
 70
        16
  9
$DIMTFAC
 40
1.0
  9
$DIMGAP
 40
0.09
  9
$DIMJUST
 70
         0
  9
$DIMSD1
 70
         0
  9
$DIMSD2
 70
         0
  9
$DIMTOLJ
 70
         1
  9
$DIMTZIN
 70
         0
  9
$DIMALTZ
 70
         0
  9
$DIMALTTZ
 70
         0
  9
$DIMFIT
 70
         3
  9
$DIMUPT
 70
         0
  9
$DIMUNIT
 70
         2
  9
$DIMDEC
 70
         4
  9
$DIMTDEC
 70
         4
  9
$DIMALTU
 70
         2
  9
$DIMALTTD
 70
         2
  9
$DIMTXSTY
  7
STANDARD
  9
$DIMAUNIT
 70
         0
  9
$LUNITS
 70
         2
  9
$LUPREC
 70
        10
  9
$SKETCHINC
 40
0.1
  9
$FILLETRAD
 40
0.0
  9
$AUNITS
 70
         0
  9
$AUPREC
 70
         0
  9
$MENU
  1
acad
  9
$ELEVATION
 40
0.0
  9
$PELEVATION
 40
0.0
  9
$THICKNESS
 40
0.0
  9
$LIMCHECK
 70
         0
  9
$BLIPMODE
 70
         1
  9
$CHAMFERA
 40
0.0
  9
$CHAMFERB
 40
0.0
  9
$CHAMFERC
 40
0.0
  9
$CHAMFERD
 40
0.0
  9
$SKPOLY
 70
         0
  9
$TDCREATE
 40
0.000000000
  9
$TDUPDATE
 40
0.000000000
  9
$TDINDWG
 40
0.0000000000
  9
$TDUSRTIMER
 40
0.0000000000
  9
$USRTIMER
 70
         1
  9
$ANGBASE
 50
0.0
  9
$ANGDIR
 70
         0
  9
$PDMODE
 70
         2
  9
$PDSIZE
 40
0.0
  9
$PLINEWID
 40
0.0
  9
$COORDS
 70
         0
  9
$SPLFRAME
 70
         0
  9
$SPLINETYPE
 70
         6
  9
$SPLINESEGS
 70
         8
  9
$ATTDIA
 70
         0
  9
$ATTREQ
 70
         1
  9
$HANDLING
 70
         1
  9
$HANDSEED
  5
411
  9
$SURFTAB1
 70
         6
  9
$SURFTAB2
 70
         6
  9
$SURFTYPE
 70
         6
  9
$SURFU
 70
         6
  9
$SURFV
 70
         6
  9
$UCSNAME
  2

  9
$UCSORG
 10
0.0
 20
0.0
 30
0.0
  9
$UCSXDIR
 10
1.0
 20
0.0
 30
0.0
  9
$UCSYDIR
 10
0.0
 20
1.0
 30
0.0
  9
$PUCSNAME
  2

  9
$PUCSORG
 10
0.0
 20
0.0
 30
0.0
  9
$PUCSXDIR
 10
1.0
 20
0.0
 30
0.0
  9
$PUCSYDIR
 10
0.0
 20
1.0
 30
0.0
  9
$USERI1
 70
         0
  9
$USERI2
 70
         0
  9
$USERI3
 70
         0
  9
$USERI4
 70
         0
  9
$USERI5
 70
         0
  9
$USERR1
 40
0.0
  9
$USERR2
 40
0.0
  9
$USERR3
 40
0.0
  9
$USERR4
 40
0.0
  9
$USERR5
 40
0.0
  9
$WORLDVIEW
 70
         1
  9
$SHADEDGE
 70
         3
  9
$SHADEDIF
 70
        70
  9
$TILEMODE
 70
         1
  9
$MAXACTVP
 70
        16
  9
$PINSBASE
 10
0.0
 20
0.0
 30
0.0
  9
$PLIMCHECK
 70
         0
  9
$PEXTMIN
 10
1.0000000000E+20
 20
1.0000000000E+20
 30
1.0000000000E+20
  9
$PEXTMAX
 10
-1.0000000000E+20
 20
-1.0000000000E+20
 30
-1.0000000000E+20
  9
$PLIMMIN
 10
0.0
 20
0.0
  9
$PLIMMAX
 10
12.0
 20
9.0
  9
$UNITMODE
 70
         0
  9
$VISRETAIN
 70
         0
  9
$PLINEGEN
 70
         1
  9
$PSLTSCALE
 70
         0
  9
$TREEDEPTH
 70
      3020
  9
$PICKSTYLE
 70
         1
  9
$CMLSTYLE
  2
STANDARD
  9
$CMLJUST
 70
         0
  9
$CMLSCALE
 40
1.0
  9
$PROXYGRAPHICS
 70
         0
  9
$MEASUREMENT
 70
         0
  0
ENDSEC
  0
SECTION
  2
CLASSES
  0
CLASS
  1
LWPOLYLINE
  2
AcDbPolyline
  3
"AutoCAD"
 90
        0
280
         0
281
         1
  0
CLASS
  1
IMAGE
  2
AcDbRasterImage
  3
ISM
 90
      127
280
         0
281
         1
  0
CLASS
  1
OLE2FRAME
  2
AcDbOle2Frame
  3
""
 90
        0
280
         0
281
         1
  0
CLASS
  1
HATCH
  2
AcDbHatch
  3
"ACAD_SEDONA"
 90
        0
280
         0
281
         1
  0
CLASS
  1
DICTIONARYVAR
  2
AcDbDictionaryVar
  3
"AutoCAD"
 90
        0
280
         0
281
         0
  0
CLASS
  1
RASTERVARIABLES
  2
AcDbRasterVariables
  3
ISM
 90
        0
280
         0
281
         0
  0
CLASS
  1
IMAGEDEF
  2
AcDbRasterImageDef
  3
ISM
 90
        0
280
         0
281
         0
  0
CLASS
  1
IMAGEDEF_REACTOR
  2
AcDbRasterImageDefReactor
  3
ISM
 90
        1
280
         0
281
         0
  0
CLASS
  1
IDBUFFER
  2
AcDbIdBuffer
  3
"Acad"
 90
        0
280
         0
281
         0
  0
CLASS
  1
SPATIAL_FILTER
  2
AcDbSpatialFilter
  3
"Acad"
 90
        0
280
         0
281
         0
  0
CLASS
  1
XRECORD
  2
AcDbXrecord
  3
"<Built In>"
 90
        0
280
         0
281
         0
  0
CLASS
  1
SORTENTSTABLE
  2
AcDbSortentsTable
  3
"AutoCAD"
 90
        0
280
         0
281
         0
  0
CLASS
  1
LAYER_INDEX
  2
AcDbLayerIndex
  3
"Acad"
 90
        0
280
         0
281
         0
  0
CLASS
  1
SPATIAL_INDEX
  2
AcDbSpatialIndex
  3
"Acad"
 90
        0
280
         0
281
         0
  0
CLASS
  1
OBJECT_PTR
  2
CAseDLPNTableRecord
  3
"ASE-LPNTableRecord"
 90
        1
280
         0
281
         0
  0
CLASS
  1
LAYOUT
  2
AcDbLayout
  3
"AutoCAD 2000"
 90
        1
280
         0
281
         0
  0
CLASS
  1
PLOTSETTINGS
  2
AcDbPlotSettings
  3
"AutoCAD 2000"
 90
        1
280
         0
281
         0
  0
CLASS
  1
ACDBDICTIONARYWDFLT
  2
AcDbDictionaryWithDefault
  3
"AutoCAD 2000"
 90
        1
280
         0
281
         0
  0
CLASS
  1
ACDBPLACEHOLDER
  2
AcDbPlaceHolder
  3
"AutoCAD 2000"
 90
        1
280
         0
281
         0
  0
CLASS
  1
VBA_PROJECT
  2
AcDbVbaProject
  3
"acadvba"
 90
        1
280
         0
281
         0
  0
CLASS
  1
WIPEOUT
  2
AcDbWipeout
  3
WipeOut|AutoCAD Express Tool|expresstools@autodesk.com
 90
      127
280
         0
281
         1
  0
CLASS
  1
WIPEOUTVARIABLES
  2
AcDbWipeoutVariables
  3
WipeOut|AutoCAD Express Tool|expresstools@autodesk.com
 90
        0
280
         0
281
         0
  0
CLASS
  1
RTEXT
  2
RText
  3
RText|AutoCAD Express Tool|expresstools@autodesk.com
 90
        0
280
         0
281
         1
  0
CLASS
  1
ARCALIGNEDTEXT
  2
AcDbArcAlignedText
  3
ATEXT|AutoCAD Express Tool|expresstools@autodesk.com
 90
        0
280
         0
281
         1
  0
ENDSEC
  0
SECTION
  2
TABLES
  0
TABLE
  2
VPORT
  5
7
100
AcDbSymbolTable
 70
         1
  0
VPORT
  5
15
100
AcDbSymbolTableRecord
100
AcDbViewportTableRecord
  2
*ACTIVE
 70
         0
 10
0.0
 20
0.0
 11
1.0
 21
1.0
 12
1494.4155212475
 22
-237.7832411141
 13
0.0
 23
0.0
 14
1.0
 24
1.0
 15
0.0
 25
0.0
 16
0.0
 26
0.0
 36
1.0
 17
0.0
 27
0.0
 37
0.0
 40
420.0523797702
 41
2.0484780158
 42
50.0
 43
0.0
 44
0.0
 50
0.0
 51
0.0
 71
         0
 72
       100
 73
         1
 74
         1
 75
         0
 76
         0
 77
         0
 78
         0
  0
ENDTAB
  0
TABLE
  2
LTYPE
  5
4
100
AcDbSymbolTable
 70
         6
  0
LTYPE
  5
11
100
AcDbSymbolTableRecord
100
AcDbLinetypeTableRecord
  2
BYBLOCK
 70
        64
  3

 72
        65
 73
         0
 40
0.0
  0
LTYPE
  5
12
100
AcDbSymbolTableRecord
100
AcDbLinetypeTableRecord
  2
BYLAYER
 70
        64
  3

 72
        65
 73
         0
 40
0.0
  0
LTYPE
  5
13
100
AcDbSymbolTableRecord
100
AcDbLinetypeTableRecord
  2
CONTINUOUS
 70
        64
  3
Solid line
 72
        65
 73
         0
 40
0.0
  0
LTYPE
  5
1D
100
AcDbSymbolTableRecord
100
AcDbLinetypeTableRecord
  2
DASHED
 70
        64
  3
_ _ _ _ _ _ _ _ _ _ _ _ _ _ _ _
 72
        65
 73
         2
 40
0.2
 49
0.1
 74
         0
 49
-0.1
 74
         0
  0
LTYPE
  5
1E
100
AcDbSymbolTableRecord
100
AcDbLinetypeTableRecord
  2
CENTER
 70
        64
  3
___ _ ___ _ ___ _ ___ _ ___ _ ___ _ ___ _ ___ _
 72
        65
 73
         4
 40
0.95
 49
0.625
 74
         0
 49
-0.125
 74
         0
 49
0.075
 74
         0
 49
-0.125
 74
         0
  0
LTYPE
  5
1F
100
AcDbSymbolTableRecord
100
AcDbLinetypeTableRecord
  2
PHANTOM
 70
        64
  3
______  __  __  ______  __  __  ______  __  __  
 72
        65
 73
         6
 40
1.025
 49
0.625
 74
         0
 49
-0.125
 74
         0
 49
0.075
 74
         0
 49
-0.125
 74
         0
 49
0.075
 74
         0
 49
-0.125
 74
         0
  0
ENDTAB
  0
TABLE
  2
LAYER
  5
2
100
AcDbSymbolTable
 70
         6
  0
LAYER
  5
14
100
AcDbSymbolTableRecord
100
AcDbLayerTableRecord
  2
0
 70
         0
 62
         7
  6
CONTINUOUS
  0
LAYER
  5
21
100
AcDbSymbolTableRecord
100
AcDbLayerTableRecord
  2
_____U
 70
         1
 62
         7
  6
CONTINUOUS
  0
LAYER
  5
22
100
AcDbSymbolTableRecord
100
AcDbLayerTableRecord
  2
_____T______
 70
         1
 62
         7
  6
CONTINUOUS
  0
LAYER
  5
23
100
AcDbSymbolTableRecord
100
AcDbLayerTableRecord
  2
______L_______
 70
         1
 62
         7
  6
CONTINUOUS
  0
LAYER
  5
24
100
AcDbSymbolTableRecord
100
AcDbLayerTableRecord
  2
L1_120
 70
         0
 62
         7
  6
CONTINUOUS
  0
LAYER
  5
1F6
100
AcDbSymbolTableRecord
100
AcDbLayerTableRecord
  2
DEFPOINTS
 70
         0
 62
        -7
  6
CONTINUOUS
  0
ENDTAB
  0
TABLE
  2
STYLE
  5
3
100
AcDbSymbolTable
 70
        10
  0
STYLE
  5
17
100
AcDbSymbolTableRecord
100
AcDbTextStyleTableRecord
  2
STANDARD
 70
         0
 40
0.0
 41
1.0
 50
0.0
 71
         0
 42
0.0
  3
txt
  4

  0
STYLE
  5
1FF
100
AcDbSymbolTableRecord
100
AcDbTextStyleTableRecord
  2
BOX
 70
         0
 40
1.0
 41
1.0
 50
0.0
 71
         0
 42
0.2
  3
txt.shx
  4

  0
STYLE
  5
20D
100
AcDbSymbolTableRecord
100
AcDbTextStyleTableRecord
  2
BOX
 70
         0
 40
1.0
 41
1.0
 50
0.0
 71
         0
 42
0.2
  3
txt.shx
  4

  0
STYLE
  5
321
100
AcDbSymbolTableRecord
100
AcDbTextStyleTableRecord
  2
BOX
 70
         0
 40
1.0
 41
1.0
 50
0.0
 71
         0
 42
0.2
  3
txt.shx
  4

  0
STYLE
  5
32F
100
AcDbSymbolTableRecord
100
AcDbTextStyleTableRecord
  2
BOX
 70
         0
 40
1.0
 41
1.0
 50
0.0
 71
         0
 42
0.2
  3
txt.shx
  4

  0
STYLE
  5
33D
100
AcDbSymbolTableRecord
100
AcDbTextStyleTableRecord
  2
BOX
 70
         0
 40
1.0
 41
1.0
 50
0.0
 71
         0
 42
0.2
  3
txt.shx
  4

  0
STYLE
  5
34B
100
AcDbSymbolTableRecord
100
AcDbTextStyleTableRecord
  2
BOX
 70
         0
 40
1.0
 41
1.0
 50
0.0
 71
         0
 42
0.2
  3
txt.shx
  4

  0
STYLE
  5
35A
100
AcDbSymbolTableRecord
100
AcDbTextStyleTableRecord
  2
BOX
 70
         0
 40
1.0
 41
1.0
 50
0.0
 71
         0
 42
0.2
  3
txt.shx
  4

  0
STYLE
  5
3B9
100
AcDbSymbolTableRecord
100
AcDbTextStyleTableRecord
  2
BOX
 70
         0
 40
1.0
 41
1.0
 50
0.0
 71
         0
 42
0.2
  3
txt.shx
  4

  0
STYLE
  5
40F
100
AcDbSymbolTableRecord
100
AcDbTextStyleTableRecord
  2
BOX
 70
         0
 40
1.0
 41
1.0
 50
0.0
 71
         0
 42
0.2
  3
txt.shx
  4

  0
ENDTAB
  0
TABLE
  2
VIEW
  5
5
100
AcDbSymbolTable
 70
         0
  0
ENDTAB
  0
TABLE
  2
UCS
  5
6
100
AcDbSymbolTable
 70
         1
  0
UCS
  5
20
100
AcDbSymbolTableRecord
100
AcDbUCSTableRecord
  2
CK_VIEW_1
 70
         0
 10
0.0
 20
0.0
 30
1.0
 11
1.0
 21
0.0
 31
0.0
 12
0.0
 22
1.0
 32
0.0
  0
ENDTAB
  0
TABLE
  2
APPID
  5
8
100
AcDbSymbolTable
 70
         1
  0
APPID
  5
16
100
AcDbSymbolTableRecord
100
AcDbRegAppTableRecord
  2
ACAD
 70
         0
  0
ENDTAB
  0
TABLE
  2
DIMSTYLE
  5
9
100
AcDbSymbolTable
 70
         2
  0
DIMSTYLE
105
18
100
AcDbSymbolTableRecord
100
AcDbDimStyleTableRecord
  2
STANDARD
 70
         0
  3

  4

  5

  6

  7

 40
1.0
 41
0.18
 42
0.0625
 43
0.38
 44
0.18
 45
0.0
 46
0.0
 47
0.0
 48
0.0
 71
         0
 72
         0
 73
         1
 74
         1
 75
         0
 76
         0
 77
         0
 78
         0
140
0.18
141
0.09
142
0.0
143
25.4
144
1.0
145
0.0
146
1.0
147
0.09
170
         0
171
         2
172
         0
173
         0
174
         0
175
         0
176
         0
177
         0
178
         0
270
         2
271
         4
272
         4
273
         2
274
         2
275
         0
280
         0
281
         0
282
         0
283
         1
284
         0
285
         0
286
         0
287
         0
288
         0
340
17
  0
DIMSTYLE
105
1F2
100
AcDbSymbolTableRecord
100
AcDbDimStyleTableRecord
  2
DIMSTYLE1
 70
         0
  3

  4

  5

  6

  7

 40
1.0
 41
3.5
 42
0.0625
 43
0.38
 44
3.5
 45
0.0
 46
0.0
 47
0.0
 48
0.0
 71
         0
 72
         0
 73
         1
 74
         1
 75
         0
 76
         0
 77
         0
 78
         0
140
3.5
141
0.09
142
0.0
143
25.4
144
1.0
145
0.0
146
1.0
147
0.09
170
         0
171
         2
172
         0
173
         0
174
         0
175
         0
176
         0
177
         0
178
         0
270
         2
271
         4
272
         4
273
         2
274
         2
275
         0
280
         0
281
         0
282
         0
283
         1
284
         0
285
         0
286
         0
287
         0
288
         0
340
17
  0
ENDTAB
  0
TABLE
  2
BLOCK_RECORD
  5
1
100
AcDbSymbolTable
 70
         9
  0
BLOCK_RECORD
  5
A
100
AcDbSymbolTableRecord
100
AcDbBlockTableRecord
  2
*MODEL_SPACE
  0
BLOCK_RECORD
  5
B
100
AcDbSymbolTableRecord
100
AcDbBlockTableRecord
  2
*PAPER_SPACE
  0
BLOCK_RECORD
  5
1F3
100
AcDbSymbolTableRecord
100
AcDbBlockTableRecord
  2
*D0
  0
BLOCK_RECORD
  5
202
100
AcDbSymbolTableRecord
100
AcDbBlockTableRecord
  2
*D1
  0
BLOCK_RECORD
  5
29F
100
AcDbSymbolTableRecord
100
AcDbBlockTableRecord
  2
*X2
  0
BLOCK_RECORD
  5
316
100
AcDbSymbolTableRecord
100
AcDbBlockTableRecord
  2
*D3
  0
BLOCK_RECORD
  5
324
100
AcDbSymbolTableRecord
100
AcDbBlockTableRecord
  2
*D4
  0
BLOCK_RECORD
  5
332
100
AcDbSymbolTableRecord
100
AcDbBlockTableRecord
  2
*D5
  0
BLOCK_RECORD
  5
340
100
AcDbSymbolTableRecord
100
AcDbBlockTableRecord
  2
*D6
  0
BLOCK_RECORD
  5
34F
100
AcDbSymbolTableRecord
100
AcDbBlockTableRecord
  2
*D7
  0
BLOCK_RECORD
  5
3AD
100
AcDbSymbolTableRecord
100
AcDbBlockTableRecord
  2
*D8
  0
ENDTAB
  0
ENDSEC
  0
SECTION
  2
BLOCKS
  0
BLOCK
  5
D
100
AcDbEntity
  8
0
100
AcDbBlockBegin
  2
*MODEL_SPACE
 70
         0
 10
0.0
 20
0.0
 30
0.0
  3
*MODEL_SPACE
  1

  0
ENDBLK
  5
E
100
AcDbEntity
  8
0
100
AcDbBlockEnd
  0
BLOCK
  5
F
100
AcDbEntity
 67
         1
  8
0
100
AcDbBlockBegin
  2
*PAPER_SPACE
 70
         0
 10
0.0
 20
0.0
 30
0.0
  3
*PAPER_SPACE
  1

  0
ENDBLK
  5
10
100
AcDbEntity
 67
         1
  8
0
100
AcDbBlockEnd
  0
BLOCK
  5
1F4
100
AcDbEntity
  8
0
100
AcDbBlockBegin
  2
*D0
 70
        65
 10
0.0
 20
0.0
 30
0.0
  3
*D0
  1

  0
POINT
  5
1F7
100
AcDbEntity
  8
DEFPOINTS
  6
CONTINUOUS
 62
         0
100
AcDbPoint
 10
1533.1310659591
 20
-182.1730152864
 30
-66.3055550508
  0
POINT
  5
1F8
100
AcDbEntity
  8
DEFPOINTS
  6
CONTINUOUS
 62
         0
100
AcDbPoint
 10
1519.1008425579
 20
-182.1730152864
 30
-66.3055550508
  0
POINT
  5
1F9
100
AcDbEntity
  8
DEFPOINTS
  6
CONTINUOUS
 62
         0
100
AcDbPoint
 10
1519.1008425579
 20
-214.5454260725
 30
-78.0881489883
  0
LINE
  5
1FA
100
AcDbEntity
  8
L1_120
  6
CONTINUOUS
 62
         4
100
AcDbLine
 10
1520.8508425579
 20
-182.1730152864
 30
-66.3055550508
 11
1534.0060659591
 21
-182.1730152864
 31
-66.3055550508
  0
LINE
  5
1FB
100
AcDbEntity
  8
L1_120
  6
CONTINUOUS
 62
         4
100
AcDbLine
 10
1520.8508425579
 20
-214.5454260725
 30
-78.0881489883
 11
1534.0060659591
 21
-214.5454260725
 31
-78.0881489883
  0
LINE
  5
1FC
100
AcDbEntity
  8
L1_120
  6
CONTINUOUS
 62
         4
100
AcDbLine
 10
1533.1310659591
 20
-182.1730152864
 30
-66.3055550508
 11
1533.1310659591
 21
-214.5454260725
 31
-78.0881489883
  0
SOLID
  5
1FD
100
AcDbEntity
  8
L1_120
  6
CONTINUOUS
 62
         4
100
AcDbTrace
 10
1533.1310659591
 20
-182.1730152864
 30
-66.3055550508
 11
1533.6560659591
 21
-185.4619394592
 31
-67.5026255524
 12
1532.6060659591
 22
-185.4619394592
 32
-67.5026255524
 13
1533.1310659591
 23
-182.1730152864
 33
-66.3055550508
  0
SOLID
  5
1FE
100
AcDbEntity
  8
L1_120
  6
CONTINUOUS
 62
         4
100
AcDbTrace
 10
1533.1310659591
 20
-214.5454260725
 30
-78.0881489883
 11
1532.6060659591
 21
-211.2565018997
 31
-76.8910784867
 12
1533.6560659591
 22
-211.2565018997
 32
-76.8910784867
 13
1533.1310659591
 23
-214.5454260725
 33
-78.0881489883
  0
TEXT
  5
200
100
AcDbEntity
  8
L1_120
  6
CONTINUOUS
 62
         4
100
AcDbText
 10
1530.5060659591
 20
-225.7981718409
 30
0.0
 40
3.5
  1
崷34.45
 50
90.0
  7
BOX
210
0.0
220
-0.3420201433256687
230
0.9396926207859084
100
AcDbText
  0
ENDBLK
  5
201
100
AcDbEntity
  8
0
  6
CONTINUOUS
100
AcDbBlockEnd
  0
BLOCK
  5
203
100
AcDbEntity
  8
0
100
AcDbBlockBegin
  2
*D1
 70
        65
 10
0.0
 20
0.0
 30
0.0
  3
*D1
  1

  0
POINT
  5
205
100
AcDbEntity
  8
DEFPOINTS
  6
CONTINUOUS
 62
         0
100
AcDbPoint
 10
1544.4693410206
 20
-177.4745521825
 30
-64.5954543341
  0
POINT
  5
206
100
AcDbEntity
  8
DEFPOINTS
  6
CONTINUOUS
 62
         0
100
AcDbPoint
 10
1508.3783079553
 20
-177.4745521825
 30
-64.5954543341
  0
POINT
  5
207
100
AcDbEntity
  8
DEFPOINTS
  6
CONTINUOUS
 62
         0
100
AcDbPoint
 10
1508.3783079553
 20
-219.2438891764
 30
-79.798249705
  0
LINE
  5
208
100
AcDbEntity
  8
L1_120
  6
CONTINUOUS
 62
         4
100
AcDbLine
 10
1510.1283079553
 20
-177.4745521825
 30
-64.5954543341
 11
1545.3443410206
 21
-177.4745521825
 31
-64.5954543341
  0
LINE
  5
209
100
AcDbEntity
  8
L1_120
  6
CONTINUOUS
 62
         4
100
AcDbLine
 10
1510.1283079553
 20
-219.2438891764
 30
-79.798249705
 11
1545.3443410206
 21
-219.2438891764
 31
-79.798249705
  0
LINE
  5
20A
100
AcDbEntity
  8
L1_120
  6
CONTINUOUS
 62
         4
100
AcDbLine
 10
1544.4693410206
 20
-177.4745521825
 30
-64.5954543341
 11
1544.4693410206
 21
-219.2438891764
 31
-79.798249705
  0
SOLID
  5
20B
100
AcDbEntity
  8
L1_120
  6
CONTINUOUS
 62
         4
100
AcDbTrace
 10
1544.4693410206
 20
-177.4745521825
 30
-64.5954543341
 11
1544.9943410206
 21
-180.7634763552
 31
-65.7925248358
 12
1543.9443410206
 22
-180.7634763552
 32
-65.7925248358
 13
1544.4693410206
 23
-177.4745521825
 33
-64.5954543341
  0
SOLID
  5
20C
100
AcDbEntity
  8
L1_120
  6
CONTINUOUS
 62
         4
100
AcDbTrace
 10
1544.4693410206
 20
-219.2438891764
 30
-79.798249705
 11
1543.9443410206
 21
-215.9549650037
 31
-78.6011792033
 12
1544.9943410206
 22
-215.9549650037
 32
-78.6011792033
 13
1544.4693410206
 23
-219.2438891764
 33
-79.798249705
  0
TEXT
  5
20E
100
AcDbEntity
  8
L1_120
  6
CONTINUOUS
 62
         4
100
AcDbText
 10
1541.8443410206
 20
-227.457431606
 30
0.0
 40
3.5
  1
崷44.45
 50
90.0
  7
BOX
210
0.0
220
-0.3420201433256687
230
0.9396926207859084
100
AcDbText
  0
ENDBLK
  5
20F
100
AcDbEntity
  8
0
  6
CONTINUOUS
100
AcDbBlockEnd
  0
BLOCK
  5
2A0
100
AcDbEntity
  8
0
100
AcDbBlockBegin
  2
*X2
 70
        65
 10
0.0
 20
0.0
 30
0.0
  3
*X2
  1

  0
LINE
  5
2A1
100
AcDbEntity
  8
L1_120
  6
CONTINUOUS
 62
         4
100
AcDbLine
 10
1510.8743971748
 20
-318.4625060541
 30
-115.9108729335
 11
1519.2508425579
 21
-310.5912221392
 31
-113.045959883
  0
LINE
  5
2A2
100
AcDbEntity
  8
L1_120
  6
CONTINUOUS
 62
         4
100
AcDbLine
 10
1505.5377571179
 20
-319.490529189
 30
-116.2850427548
 11
1518.0229314791
 21
-307.7583029726
 31
-112.0148616303
  0
LINE
  5
2A3
100
AcDbEntity
  8
L1_120
  6
CONTINUOUS
 62
         4
100
AcDbLine
 10
1503.1179794943
 20
-317.7775982195
 30
-115.6615868685
 11
1513.9951164308
 21
-307.5564329051
 31
-111.9413869345
  0
LINE
  5
2A4
100
AcDbEntity
  8
L1_120
  6
CONTINUOUS
 62
         4
100
AcDbLine
 10
1502.0008425579
 20
-314.8405854088
 30
-114.5926016277
 11
1509.7524757437
 21
-307.5564329051
 31
-111.9413869345
  0
LINE
  5
2A5
100
AcDbEntity
  8
L1_120
  6
CONTINUOUS
 62
         4
100
AcDbLine
 10
1502.0008425579
 20
-310.8538072625
 30
-113.1415330519
 11
1505.5098350566
 21
-307.5564329051
 31
-111.9413869345
  0
LINE
  5
2A6
100
AcDbEntity
  8
L1_120
  6
CONTINUOUS
 62
         4
100
AcDbLine
 10
1484.3245536823
 20
-319.490529189
 30
-116.2850427548
 11
1487.5008425579
 21
-316.5057939712
 31
-115.1986879783
  0
LINE
  5
2A7
100
AcDbEntity
  8
L1_120
  6
CONTINUOUS
 62
         4
100
AcDbLine
 10
1516.0745536823
 20
-289.6552884791
 30
-105.4259032042
 11
1519.2508425579
 21
-286.6705532612
 31
-104.3395484277
  0
LINE
  5
2A8
100
AcDbEntity
  8
L1_120
  6
CONTINUOUS
 62
         4
100
AcDbLine
 10
1480.0819129952
 20
-319.490529189
 30
-116.2850427548
 11
1487.5008425579
 21
-312.5190158249
 31
-113.7476194024
  0
LINE
  5
2A9
100
AcDbEntity
  8
L1_120
  6
CONTINUOUS
 62
         4
100
AcDbLine
 10
1511.8319129952
 20
-289.6552884791
 30
-105.4259032042
 11
1519.0758683491
 21
-282.8481970878
 31
-102.9483245558
  0
LINE
  5
2AA
100
AcDbEntity
  8
L1_120
  6
CONTINUOUS
 62
         4
100
AcDbLine
 10
1475.8392723081
 20
-319.490529189
 30
-116.2850427548
 11
1487.5008425579
 21
-308.5322376785
 31
-112.2965508265
  0
LINE
  5
2AB
100
AcDbEntity
  8
L1_120
  6
CONTINUOUS
 62
         4
100
AcDbLine
 10
1507.5892723081
 20
-289.6552884791
 30
-105.4259032042
 11
1516.549110607
 21
-281.2357945461
 31
-102.361458025
  0
LINE
  5
2AC
100
AcDbEntity
  8
L1_120
  6
CONTINUOUS
 62
         4
100
AcDbLine
 10
1471.596631621
 20
-319.490529189
 30
-116.2850427548
 11
1484.296631621
 21
-307.5564329051
 31
-111.9413869345
  0
LINE
  5
2AD
100
AcDbEntity
  8
L1_120
  6
CONTINUOUS
 62
         4
100
AcDbLine
 10
1503.346631621
 20
-289.6552884791
 30
-105.4259032042
 11
1513.6556928011
 21
-279.9679397609
 31
-101.8999966218
  0
LINE
  5
2AE
100
AcDbEntity
  8
L1_120
  6
CONTINUOUS
 62
         4
100
AcDbLine
 10
1467.3539909338
 20
-319.490529189
 30
-116.2850427548
 11
1480.0539909338
 21
-307.5564329051
 31
-111.9413869345
  0
LINE
  5
2AF
100
AcDbEntity
  8
L1_120
  6
CONTINUOUS
 62
         4
100
AcDbLine
 10
1499.1039909338
 20
-289.6552884791
 30
-105.4259032042
 11
1510.7622749951
 21
-278.7000849757
 31
-101.4385352186
  0
LINE
  5
2B0
100
AcDbEntity
  8
L1_120
  6
CONTINUOUS
 62
         4
100
AcDbLine
 10
1450.4065112461
 20
-331.4291726462
 30
-120.6303536107
 11
1452.7028425579
 21
-329.2713270576
 31
-119.8449620463
  0
LINE
  5
2B1
100
AcDbEntity
  8
L1_120
  6
CONTINUOUS
 62
         4
100
AcDbLine
 10
1463.1113502467
 20
-319.490529189
 30
-116.2850427548
 11
1475.8113502467
 21
-307.5564329051
 31
-111.9413869345
  0
LINE
  5
2B2
100
AcDbEntity
  8
L1_120
  6
CONTINUOUS
 62
         4
100
AcDbLine
 10
1494.8613502467
 20
-289.6552884791
 30
-105.4259032042
 11
1507.5613502467
 21
-277.7211921951
 31
-101.0822473839
  0
LINE
  5
2B3
100
AcDbEntity
  8
L1_120
  6
CONTINUOUS
 62
         4
100
AcDbLine
 10
1432.338870559
 20
-344.4204231286
 30
-125.3587820922
 11
1436.7508425579
 21
-340.2745255981
 31
-123.8497987968
  0
LINE
  5
2B4
100
AcDbEntity
  8
L1_120
  6
CONTINUOUS
 62
         4
100
AcDbLine
 10
1446.163870559
 20
-331.4291726462
 30
-120.6303536107
 11
1452.7028425579
 21
-325.2845489113
 31
-118.3938934704
  0
LINE
  5
2B5
100
AcDbEntity
  8
L1_120
  6
CONTINUOUS
 62
         4
100
AcDbLine
 10
1458.8687095596
 20
-319.490529189
 30
-116.2850427548
 11
1471.0687095596
 21
-308.0262792154
 31
-112.1123970062
  0
LINE
  5
2B6
100
AcDbEntity
  8
L1_120
  6
CONTINUOUS
 62
         4
100
AcDbLine
 10
1490.6187095596
 20
-289.6552884791
 30
-105.4259032042
 11
1498.6416898294
 21
-282.1161531228
 31
-102.6818823424
  0
LINE
  5
2B7
100
AcDbEntity
  8
L1_120
  6
CONTINUOUS
 62
         4
100
AcDbLine
 10
1430.7526509216
 20
-341.9242038704
 30
-124.450232584
 11
1436.7508425579
 21
-336.2877474518
 31
-122.3987302209
  0
LINE
  5
2B8
100
AcDbEntity
  8
L1_120
  6
CONTINUOUS
 62
         4
100
AcDbLine
 10
1441.9212298719
 20
-331.4291726462
 30
-120.6303536107
 11
1453.0771065179
 21
-320.9460776835
 31
-116.8148190813
  0
LINE
  5
2B9
100
AcDbEntity
  8
L1_120
  6
CONTINUOUS
 62
         4
100
AcDbLine
 10
1454.2518049125
 20
-319.8422222705
 30
-116.413048568
 11
1466.8260688725
 21
-308.0262792154
 31
-112.1123970062
  0
LINE
  5
2BA
100
AcDbEntity
  8
L1_120
  6
CONTINUOUS
 62
         4
100
AcDbLine
 10
1486.3760688725
 20
-289.6552884791
 30
-105.4259032042
 11
1493.6696856788
 21
-282.8015305873
 31
-102.9313393387
  0
LINE
  5
2BB
100
AcDbEntity
  8
L1_120
  6
CONTINUOUS
 62
         4
100
AcDbLine
 10
1423.8535891847
 20
-344.4204231286
 30
-125.3587820922
 11
1436.7508425579
 21
-332.3009693054
 31
-120.947661645
  0
LINE
  5
2BC
100
AcDbEntity
  8
L1_120
  6
CONTINUOUS
 62
         4
100
AcDbLine
 10
1437.6785891847
 20
-331.4291726462
 30
-120.6303536107
 11
1462.5834281854
 21
-308.0262792154
 31
-112.1123970062
  0
LINE
  5
2BD
100
AcDbEntity
  8
L1_120
  6
CONTINUOUS
 62
         4
100
AcDbLine
 10
1482.1334281854
 20
-289.6552884791
 30
-105.4259032042
 11
1490.376112667
 21
-281.9096986962
 31
-102.6067390764
  0
LINE
  5
2BE
100
AcDbEntity
  8
L1_120
  6
CONTINUOUS
 62
         4
100
AcDbLine
 10
1420.8508425579
 20
-343.2553038296
 30
-124.934713348
 11
1458.3407874982
 21
-308.0262792154
 31
-112.1123970062
  0
LINE
  5
2BF
100
AcDbEntity
  8
L1_120
  6
CONTINUOUS
 62
         4
100
AcDbLine
 10
1477.8907874982
 20
-289.6552884791
 30
-105.4259032042
 11
1487.8697328454
 21
-280.2781471731
 31
-102.0129028863
  0
LINE
  5
2C0
100
AcDbEntity
  8
L1_120
  6
CONTINUOUS
 62
         4
100
AcDbLine
 10
1420.8508425579
 20
-339.2685256833
 30
-123.4836447721
 11
1454.0981468111
 21
-308.0262792154
 31
-112.1123970062
  0
LINE
  5
2C1
100
AcDbEntity
  8
L1_120
  6
CONTINUOUS
 62
         4
100
AcDbLine
 10
1474.1481468111
 20
-289.1854421687
 30
-105.2548931325
 11
1486.0155071705
 21
-278.0337712107
 31
-101.1960168415
  0
LINE
  5
2C2
100
AcDbEntity
  8
L1_120
  6
CONTINUOUS
 62
         4
100
AcDbLine
 10
1420.8508425579
 20
-335.2817475369
 30
-122.0325761962
 11
1449.855506124
 21
-308.0262792154
 31
-112.1123970062
  0
LINE
  5
2C3
100
AcDbEntity
  8
L1_120
  6
CONTINUOUS
 62
         4
100
AcDbLine
 10
1469.905506124
 20
-289.1854421687
 30
-105.2548931325
 11
1482.105506124
 21
-277.7211921951
 31
-101.0822473839
  0
LINE
  5
2C4
100
AcDbEntity
  8
L1_120
  6
CONTINUOUS
 62
         4
100
AcDbLine
 10
1420.8142785165
 20
-331.3293283505
 30
-120.594013259
 11
1445.6128654369
 21
-308.0262792154
 31
-112.1123970062
  0
LINE
  5
2C5
100
AcDbEntity
  8
L1_120
  6
CONTINUOUS
 62
         4
100
AcDbLine
 10
1465.6628654369
 20
-289.1854421687
 30
-105.2548931325
 11
1477.8628654369
 21
-277.7211921951
 31
-101.0822473839
  0
LINE
  5
2C6
100
AcDbEntity
  8
L1_120
  6
CONTINUOUS
 62
         4
100
AcDbLine
 10
1416.61626331
 20
-331.2873941156
 30
-120.5787504457
 11
1441.3702247498
 21
-308.0262792154
 31
-112.1123970062
  0
LINE
  5
2C7
100
AcDbEntity
  8
L1_120
  6
CONTINUOUS
 62
         4
100
AcDbLine
 10
1461.4202247498
 20
-289.1854421687
 30
-105.2548931325
 11
1473.6202247498
 21
-277.7211921951
 31
-101.0822473839
  0
LINE
  5
2C8
100
AcDbEntity
  8
L1_120
  6
CONTINUOUS
 62
         4
100
AcDbLine
 10
1412.9135995107
 20
-330.7799818187
 30
-120.3940674731
 11
1437.1275840626
 21
-308.0262792154
 31
-112.1123970062
  0
LINE
  5
2C9
100
AcDbEntity
  8
L1_120
  6
CONTINUOUS
 62
         4
100
AcDbLine
 10
1457.1775840627
 20
-289.1854421687
 30
-105.2548931325
 11
1469.3775840626
 21
-277.7211921951
 31
-101.0822473839
  0
LINE
  5
2CA
100
AcDbEntity
  8
L1_120
  6
CONTINUOUS
 62
         4
100
AcDbLine
 10
1409.2109357115
 20
-330.2725695217
 30
-120.2093845005
 11
1432.8849433755
 21
-308.0262792154
 31
-112.1123970062
  0
LINE
  5
2CB
100
AcDbEntity
  8
L1_120
  6
CONTINUOUS
 62
         4
100
AcDbLine
 10
1452.9349433755
 20
-289.1854421687
 30
-105.2548931325
 11
1465.1349433755
 21
-277.7211921951
 31
-101.0822473839
  0
LINE
  5
2CC
100
AcDbEntity
  8
L1_120
  6
CONTINUOUS
 62
         4
100
AcDbLine
 10
1405.5082719123
 20
-329.7651572248
 30
-120.0247015279
 11
1428.6423026884
 21
-308.0262792154
 31
-112.1123970062
  0
LINE
  5
2CD
100
AcDbEntity
  8
L1_120
  6
CONTINUOUS
 62
         4
100
AcDbLine
 10
1448.6923026884
 20
-289.1854421687
 30
-105.2548931325
 11
1460.8923026884
 21
-277.7211921951
 31
-101.0822473839
  0
LINE
  5
2CE
100
AcDbEntity
  8
L1_120
  6
CONTINUOUS
 62
         4
100
AcDbLine
 10
1401.8056081131
 20
-329.2577449278
 30
-119.8400185553
 11
1424.3996620013
 21
-308.0262792154
 31
-112.1123970062
  0
LINE
  5
2CF
100
AcDbEntity
  8
L1_120
  6
CONTINUOUS
 62
         4
100
AcDbLine
 10
1444.4496620013
 20
-289.1854421687
 30
-105.2548931325
 11
1456.6496620013
 21
-277.7211921951
 31
-101.0822473839
  0
LINE
  5
2D0
100
AcDbEntity
  8
L1_120
  6
CONTINUOUS
 62
         4
100
AcDbLine
 10
1398.1029443138
 20
-328.7503326309
 30
-119.6553355828
 11
1419.7808408501
 21
-308.3797732216
 31
-112.2410583024
  0
LINE
  5
2D1
100
AcDbEntity
  8
L1_120
  6
CONTINUOUS
 62
         4
100
AcDbLine
 10
1440.2070213142
 20
-289.1854421687
 30
-105.2548931325
 11
1453.4387744636
 21
-276.7516613741
 31
-100.7293670239
  0
LINE
  5
2D2
100
AcDbEntity
  8
L1_120
  6
CONTINUOUS
 62
         4
100
AcDbLine
 10
1394.4002805146
 20
-328.2429203339
 30
-119.4706526102
 11
1415.538200163
 21
-308.3797732216
 31
-112.2410583024
  0
LINE
  5
2D3
100
AcDbEntity
  8
L1_120
  6
CONTINUOUS
 62
         4
100
AcDbLine
 10
1435.9643806271
 20
-289.1854421687
 30
-105.2548931325
 11
1452.7028425579
 21
-273.456433009
 31
-99.5300019839
  0
LINE
  5
2D4
100
AcDbEntity
  8
L1_120
  6
CONTINUOUS
 62
         4
100
AcDbLine
 10
1390.6976167154
 20
-327.735508037
 30
-119.2859696376
 11
1411.2955594759
 21
-308.3797732216
 31
-112.2410583024
  0
LINE
  5
2D5
100
AcDbEntity
  8
L1_120
  6
CONTINUOUS
 62
         4
100
AcDbLine
 10
1431.7217399399
 20
-289.1854421687
 30
-105.2548931325
 11
1452.7028425579
 21
-269.4696548627
 31
-98.078933408
  0
LINE
  5
2D6
100
AcDbEntity
  8
L1_120
  6
CONTINUOUS
 62
         4
100
AcDbLine
 10
1386.9949529162
 20
-327.22809574
 30
-119.101286665
 11
1407.0529187888
 21
-308.3797732216
 31
-112.2410583024
  0
LINE
  5
2D7
100
AcDbEntity
  8
L1_120
  6
CONTINUOUS
 62
         4
100
AcDbLine
 10
1430.4008425579
 20
-286.4399015451
 30
-104.2555980686
 11
1452.038551405
 21
-266.1071062107
 31
-96.8550657874
  0
LINE
  5
2D8
100
AcDbEntity
  8
L1_120
  6
CONTINUOUS
 62
         4
100
AcDbLine
 10
1383.292289117
 20
-326.7206834431
 30
-118.9166036924
 11
1402.8102781017
 21
-308.3797732216
 31
-112.2410583024
  0
LINE
  5
2D9
100
AcDbEntity
  8
L1_120
  6
CONTINUOUS
 62
         4
100
AcDbLine
 10
1423.2364585657
 20
-289.1854421687
 30
-105.2548931325
 11
1427.1008425579
 21
-285.5541090474
 31
-103.9331959656
  0
LINE
  5
2DA
100
AcDbEntity
  8
L1_120
  6
CONTINUOUS
 62
         4
100
AcDbLine
 10
1430.4008425579
 20
-282.4531233988
 30
-102.8045294927
 11
1448.1316195651
 21
-265.7916430843
 31
-96.7402465994
  0
LINE
  5
2DB
100
AcDbEntity
  8
L1_120
  6
CONTINUOUS
 62
         4
100
AcDbLine
 10
1379.5896253177
 20
-326.2132711461
 30
-118.7319207198
 11
1398.5676374145
 21
-308.3797732216
 31
-112.2410583024
  0
LINE
  5
2DC
100
AcDbEntity
  8
L1_120
  6
CONTINUOUS
 62
         4
100
AcDbLine
 10
1419.3603203414
 20
-288.8410425089
 30
-105.1295419077
 11
1427.1008425579
 21
-281.567330901
 31
-102.4821273898
  0
LINE
  5
2DD
100
AcDbEntity
  8
L1_120
  6
CONTINUOUS
 62
         4
100
AcDbLine
 10
1430.4008425579
 20
-278.4663452524
 30
-101.3534609168
 11
1443.888978878
 21
-265.7916430843
 31
-96.7402465994
  0
LINE
  5
2DE
100
AcDbEntity
  8
L1_120
  6
CONTINUOUS
 62
         4
100
AcDbLine
 10
1375.8869615185
 20
-325.7058588492
 30
-118.5472377472
 11
1394.3249967274
 21
-308.3797732216
 31
-112.2410583024
  0
LINE
  5
2DF
100
AcDbEntity
  8
L1_120
  6
CONTINUOUS
 62
         4
100
AcDbLine
 10
1415.1176796543
 20
-288.8410425089
 30
-105.1295419077
 11
1427.1008425579
 21
-277.5805527547
 31
-101.0310588139
  0
LINE
  5
2E0
100
AcDbEntity
  8
L1_120
  6
CONTINUOUS
 62
         4
100
AcDbLine
 10
1430.4008425579
 20
-274.4795671061
 30
-99.9023923409
 11
1439.6463381908
 21
-265.7916430843
 31
-96.7402465994
  0
LINE
  5
2E1
100
AcDbEntity
  8
L1_120
  6
CONTINUOUS
 62
         4
100
AcDbLine
 10
1372.1842977193
 20
-325.1984465522
 30
-118.3625547746
 11
1390.0823560403
 21
-308.3797732216
 31
-112.2410583024
  0
LINE
  5
2E2
100
AcDbEntity
  8
L1_120
  6
CONTINUOUS
 62
         4
100
AcDbLine
 10
1410.8750389671
 20
-288.8410425089
 30
-105.1295419077
 11
1427.1008425579
 21
-273.5937746084
 31
-99.579990238
  0
LINE
  5
2E3
100
AcDbEntity
  8
L1_120
  6
CONTINUOUS
 62
         4
100
AcDbLine
 10
1430.4008425579
 20
-270.4927889598
 30
-98.451323765
 11
1436.7508425579
 21
-264.5257408178
 31
-96.2794958549
  0
LINE
  5
2E4
100
AcDbEntity
  8
L1_120
  6
CONTINUOUS
 62
         4
100
AcDbLine
 10
1368.4816339201
 20
-324.6910342553
 30
-118.177871802
 11
1385.8397153532
 21
-308.3797732216
 31
-112.2410583024
  0
LINE
  5
2E5
100
AcDbEntity
  8
L1_120
  6
CONTINUOUS
 62
         4
100
AcDbLine
 10
1406.63239828
 20
-288.8410425089
 30
-105.1295419077
 11
1427.1008425579
 21
-269.606996462
 31
-98.1289216621
  0
LINE
  5
2E6
100
AcDbEntity
  8
L1_120
  6
CONTINUOUS
 62
         4
100
AcDbLine
 10
1432.8712284645
 20
-264.1846074065
 30
-96.1553334473
 11
1436.7508425579
 21
-260.5389626714
 31
-94.828427279
  0
LINE
  5
2E7
100
AcDbEntity
  8
L1_120
  6
CONTINUOUS
 62
         4
100
AcDbLine
 10
1364.7789701208
 20
-324.1836219583
 30
-117.9931888294
 11
1381.5970746661
 21
-308.3797732216
 31
-112.2410583024
  0
LINE
  5
2E8
100
AcDbEntity
  8
L1_120
  6
CONTINUOUS
 62
         4
100
AcDbLine
 10
1402.3897575929
 20
-288.8410425089
 30
-105.1295419077
 11
1426.7857868943
 21
-265.9162737979
 31
-96.7856084694
  0
LINE
  5
2E9
100
AcDbEntity
  8
L1_120
  6
CONTINUOUS
 62
         4
100
AcDbLine
 10
1430.4008425579
 20
-262.5192326671
 30
-95.5491866132
 11
1436.7508425579
 21
-256.5521845251
 31
-93.3773587031
  0
LINE
  5
2EA
100
AcDbEntity
  8
L1_120
  6
CONTINUOUS
 62
         4
100
AcDbLine
 10
1361.0763063216
 20
-323.6762096614
 30
-117.8085058569
 11
1377.3544339789
 21
-308.3797732216
 31
-112.2410583024
  0
LINE
  5
2EB
100
AcDbEntity
  8
L1_120
  6
CONTINUOUS
 62
         4
100
AcDbLine
 10
1398.1471169058
 20
-288.8410425089
 30
-105.1295419077
 11
1424.2904205395
 21
-264.2743730013
 31
-96.1880054519
  0
LINE
  5
2EC
100
AcDbEntity
  8
L1_120
  6
CONTINUOUS
 62
         4
100
AcDbLine
 10
1430.7508425579
 20
-258.2035621035
 30
-93.9784109872
 11
1436.3758090001
 21
-252.9178226456
 31
-92.0545591584
  0
LINE
  5
2ED
100
AcDbEntity
  8
L1_120
  6
CONTINUOUS
 62
         4
100
AcDbLine
 10
1357.3736425224
 20
-323.1687973644
 30
-117.6238228843
 11
1373.1117932918
 21
-308.3797732216
 31
-112.2410583024
  0
LINE
  5
2EE
100
AcDbEntity
  8
L1_120
  6
CONTINUOUS
 62
         4
100
AcDbLine
 10
1393.9044762187
 20
-288.8410425089
 30
-105.1295419077
 11
1418.2732490154
 21
-265.9418865342
 31
-96.7949307431
  0
LINE
  5
2EF
100
AcDbEntity
  8
L1_120
  6
CONTINUOUS
 62
         4
100
AcDbLine
 10
1420.8508425579
 20
-263.5197409029
 30
-95.9133418302
 11
1421.7950541846
 21
-262.6324722048
 31
-95.5904024343
  0
LINE
  5
2F0
100
AcDbEntity
  8
L1_120
  6
CONTINUOUS
 62
         4
100
AcDbLine
 10
1425.3851293999
 20
-259.2589050169
 30
-94.3625243946
 11
1426.7508425579
 21
-257.9755544403
 31
-93.8954229846
  0
LINE
  5
2F1
100
AcDbEntity
  8
L1_120
  6
CONTINUOUS
 62
         4
100
AcDbLine
 10
1353.6709787232
 20
-322.6613850675
 30
-117.4391399117
 11
1368.8691526047
 21
-308.3797732216
 31
-112.2410583024
  0
LINE
  5
2F2
100
AcDbEntity
  8
L1_120
  6
CONTINUOUS
 62
         4
100
AcDbLine
 10
1389.6618355315
 20
-288.8410425089
 30
-105.1295419077
 11
1413.5996963506
 21
-266.3468113398
 31
-96.9423113194
  0
LINE
  5
2F3
100
AcDbEntity
  8
L1_120
  6
CONTINUOUS
 62
         4
100
AcDbLine
 10
1423.2846713188
 20
-257.2459118298
 30
-93.6298547927
 11
1426.2397807318
 21
-254.4690173207
 31
-92.6191478477
  0
LINE
  5
2F4
100
AcDbEntity
  8
L1_120
  6
CONTINUOUS
 62
         4
100
AcDbLine
 10
1349.9683149239
 20
-322.1539727705
 30
-117.2544569391
 11
1364.6265119176
 21
-308.3797732216
 31
-112.2410583024
  0
LINE
  5
2F5
100
AcDbEntity
  8
L1_120
  6
CONTINUOUS
 62
         4
100
AcDbLine
 10
1385.4191948444
 20
-288.8410425089
 30
-105.1295419077
 11
1408.6326943913
 21
-267.0274882821
 31
-97.1900574656
  0
LINE
  5
2F6
100
AcDbEntity
  8
L1_120
  6
CONTINUOUS
 62
         4
100
AcDbLine
 10
1420.8508425579
 20
-255.5461846103
 30
-93.0112046784
 11
1423.772853381
 21
-252.8003926019
 31
-92.0118181179
  0
LINE
  5
2F7
100
AcDbEntity
  8
L1_120
  6
CONTINUOUS
 62
         4
100
AcDbLine
 10
1346.2656511247
 20
-321.6465604736
 30
-117.0697739665
 11
1360.3838712305
 21
-308.3797732216
 31
-112.2410583024
  0
LINE
  5
2F8
100
AcDbEntity
  8
L1_120
  6
CONTINUOUS
 62
         4
100
AcDbLine
 10
1381.1765541573
 20
-288.8410425089
 30
-105.1295419077
 11
1403.6656924319
 21
-267.7081652244
 31
-97.4378036117
  0
LINE
  5
2F9
100
AcDbEntity
  8
L1_120
  6
CONTINUOUS
 62
         4
100
AcDbLine
 10
1342.5629873255
 20
-321.1391481766
 30
-116.8850909939
 11
1356.1412305433
 21
-308.3797732216
 31
-112.2410583024
  0
LINE
  5
2FA
100
AcDbEntity
  8
L1_120
  6
CONTINUOUS
 62
         4
100
AcDbLine
 10
1376.9339134702
 20
-288.8410425089
 30
-105.1295419077
 11
1398.6986904726
 21
-268.3888421667
 31
-97.6855497578
  0
LINE
  5
2FB
100
AcDbEntity
  8
L1_120
  6
CONTINUOUS
 62
         4
100
AcDbLine
 10
1338.8603235263
 20
-320.6317358797
 30
-116.7004080213
 11
1351.8985898562
 21
-308.3797732216
 31
-112.2410583024
  0
LINE
  5
2FC
100
AcDbEntity
  8
L1_120
  6
CONTINUOUS
 62
         4
100
AcDbLine
 10
1372.6912727831
 20
-288.8410425089
 30
-105.1295419077
 11
1393.7316885133
 21
-269.069519109
 31
-97.933295904
  0
LINE
  5
2FD
100
AcDbEntity
  8
L1_120
  6
CONTINUOUS
 62
         4
100
AcDbLine
 10
1335.157659727
 20
-320.1243235827
 30
-116.5157250487
 11
1347.6559491691
 21
-308.3797732216
 31
-112.2410583024
  0
LINE
  5
2FE
100
AcDbEntity
  8
L1_120
  6
CONTINUOUS
 62
         4
100
AcDbLine
 10
1368.4486320959
 20
-288.8410425089
 30
-105.1295419077
 11
1388.7646865539
 21
-269.7501960512
 31
-98.1810420501
  0
LINE
  5
2FF
100
AcDbEntity
  8
L1_120
  6
CONTINUOUS
 62
         4
100
AcDbLine
 10
1331.4549959278
 20
-319.6169112858
 30
-116.3310420761
 11
1343.413308482
 21
-308.3797732216
 31
-112.2410583024
  0
LINE
  5
300
100
AcDbEntity
  8
L1_120
  6
CONTINUOUS
 62
         4
100
AcDbLine
 10
1364.2059914088
 20
-288.8410425089
 30
-105.1295419077
 11
1383.7976845946
 21
-270.4308729935
 31
-98.4287881963
  0
LINE
  5
301
100
AcDbEntity
  8
L1_120
  6
CONTINUOUS
 62
         4
100
AcDbLine
 10
1327.7523321286
 20
-319.1094989888
 30
-116.1463591035
 11
1339.1706677949
 21
-308.3797732216
 31
-112.2410583024
  0
LINE
  5
302
100
AcDbEntity
  8
L1_120
  6
CONTINUOUS
 62
         4
100
AcDbLine
 10
1359.9633507217
 20
-288.8410425089
 30
-105.1295419077
 11
1378.8306826353
 21
-271.1115499358
 31
-98.6765343424
  0
LINE
  5
303
100
AcDbEntity
  8
L1_120
  6
CONTINUOUS
 62
         4
100
AcDbLine
 10
1324.0496683294
 20
-318.6020866919
 30
-115.961676131
 11
1334.9280271078
 21
-308.3797732216
 31
-112.2410583024
  0
LINE
  5
304
100
AcDbEntity
  8
L1_120
  6
CONTINUOUS
 62
         4
100
AcDbLine
 10
1355.7207100346
 20
-288.8410425089
 30
-105.1295419077
 11
1373.863680676
 21
-271.7922268781
 31
-98.9242804885
  0
LINE
  5
305
100
AcDbEntity
  8
L1_120
  6
CONTINUOUS
 62
         4
100
AcDbLine
 10
1320.3470045301
 20
-318.0946743949
 30
-115.7769931584
 11
1330.6853864206
 21
-308.3797732216
 31
-112.2410583024
  0
LINE
  5
306
100
AcDbEntity
  8
L1_120
  6
CONTINUOUS
 62
         4
100
AcDbLine
 10
1351.4780693475
 20
-288.8410425089
 30
-105.1295419077
 11
1368.8966787166
 21
-272.4729038203
 31
-99.1720266347
  0
LINE
  5
307
100
AcDbEntity
  8
L1_120
  6
CONTINUOUS
 62
         4
100
AcDbLine
 10
1316.962315657
 20
-317.2884634064
 30
-115.483556356
 11
1326.4427457335
 21
-308.3797732216
 31
-112.2410583024
  0
LINE
  5
308
100
AcDbEntity
  8
L1_120
  6
CONTINUOUS
 62
         4
100
AcDbLine
 10
1347.2354286603
 20
-288.8410425089
 30
-105.1295419077
 11
1363.9296767573
 21
-273.1535807626
 31
-99.4197727808
  0
LINE
  5
309
100
AcDbEntity
  8
L1_120
  6
CONTINUOUS
 62
         4
100
AcDbLine
 10
1316.0508425579
 20
-314.1581898053
 30
-114.3442299401
 11
1320.0964465098
 21
-310.3565656251
 31
-112.9605518966
  0
LINE
  5
30A
100
AcDbEntity
  8
L1_120
  6
CONTINUOUS
 62
         4
100
AcDbLine
 10
1342.9927879732
 20
-288.8410425089
 30
-105.1295419077
 11
1358.962674798
 21
-273.8342577049
 31
-99.667518927
  0
LINE
  5
30B
100
AcDbEntity
  8
L1_120
  6
CONTINUOUS
 62
         4
100
AcDbLine
 10
1338.7501472861
 20
-288.8410425089
 30
-105.1295419077
 11
1353.9956728386
 21
-274.5149346472
 31
-99.9152650731
  0
LINE
  5
30C
100
AcDbEntity
  8
L1_120
  6
CONTINUOUS
 62
         4
100
AcDbLine
 10
1334.507506599
 20
-288.8410425089
 30
-105.1295419077
 11
1349.0286708793
 21
-275.1956115895
 31
-100.1630112192
  0
LINE
  5
30D
100
AcDbEntity
  8
L1_120
  6
CONTINUOUS
 62
         4
100
AcDbLine
 10
1330.2648659119
 20
-288.8410425089
 30
-105.1295419077
 11
1344.06166892
 21
-275.8762885317
 31
-100.4107573654
  0
LINE
  5
30E
100
AcDbEntity
  8
L1_120
  6
CONTINUOUS
 62
         4
100
AcDbLine
 10
1326.0222252247
 20
-288.8410425089
 30
-105.1295419077
 11
1339.0946669607
 21
-276.556965474
 31
-100.6585035115
  0
LINE
  5
30F
100
AcDbEntity
  8
L1_120
  6
CONTINUOUS
 62
         4
100
AcDbLine
 10
1323.0498855285
 20
-287.6473500416
 30
-104.6950733807
 11
1334.1276650013
 21
-277.2376424163
 31
-100.9062496577
  0
LINE
  5
310
100
AcDbEntity
  8
L1_120
  6
CONTINUOUS
 62
         4
100
AcDbLine
 10
1319.6406023871
 20
-286.8642501054
 30
-104.4100483135
 11
1329.160663042
 21
-277.9183193586
 31
-101.1539958038
  0
LINE
  5
311
100
AcDbEntity
  8
L1_120
  6
CONTINUOUS
 62
         4
100
AcDbLine
 10
1316.1189761439
 20
-286.186718153
 30
-104.16344685
 11
1324.1936610827
 21
-278.5989963008
 31
-101.4017419499
  0
LINE
  5
312
100
AcDbEntity
  8
L1_120
  6
CONTINUOUS
 62
         4
100
AcDbLine
 10
1316.0508425579
 20
-282.2639646347
 30
-102.735681333
 11
1319.2266591234
 21
-279.2796732431
 31
-101.6494880961
  0
ENDBLK
  5
313
100
AcDbEntity
  8
0
  6
CONTINUOUS
100
AcDbBlockEnd
  0
BLOCK
  5
317
100
AcDbEntity
  8
0
100
AcDbBlockBegin
  2
*D3
 70
        65
 10
0.0
 20
0.0
 30
0.0
  3
*D3
  1

  0
POINT
  5
319
100
AcDbEntity
  8
DEFPOINTS
  6
CONTINUOUS
 62
         0
100
AcDbPoint
 10
1519.2508425579
 20
-352.9267518472
 30
-128.4548325486
  0
POINT
  5
31A
100
AcDbEntity
  8
DEFPOINTS
  6
CONTINUOUS
 62
         0
100
AcDbPoint
 10
1519.2508425579
 20
-309.4358181466
 30
-112.6254272212
  0
POINT
  5
31B
100
AcDbEntity
  8
DEFPOINTS
  6
CONTINUOUS
 62
         0
100
AcDbPoint
 10
1421.2508425579
 20
-308.0262792154
 30
-112.1123970062
  0
LINE
  5
31C
100
AcDbEntity
  8
L1_120
  6
CONTINUOUS
 62
         4
100
AcDbLine
 10
1519.2508425579
 20
-311.080280233
 30
-113.223962472
 11
1519.2508425579
 21
-353.7489828904
 31
-128.754100174
  0
LINE
  5
31D
100
AcDbEntity
  8
L1_120
  6
CONTINUOUS
 62
         4
100
AcDbLine
 10
1421.2508425579
 20
-309.6707413018
 30
-112.710932257
 11
1421.2508425579
 21
-353.7489828904
 31
-128.754100174
  0
LINE
  5
31E
100
AcDbEntity
  8
L1_120
  6
CONTINUOUS
 62
         4
100
AcDbLine
 10
1519.2508425579
 20
-352.9267518472
 30
-128.4548325486
 11
1421.2508425579
 21
-352.9267518472
 31
-128.4548325486
  0
SOLID
  5
31F
100
AcDbEntity
  8
L1_120
  6
CONTINUOUS
 62
         4
100
AcDbTrace
 10
1519.2508425579
 20
-352.9267518472
 30
-128.4548325486
 11
1515.7508425579
 21
-353.4200904731
 31
-128.6343931239
 12
1515.7508425579
 22
-352.4334132213
 32
-128.2752719734
 13
1519.2508425579
 23
-352.9267518472
 33
-128.4548325486
  0
SOLID
  5
320
100
AcDbEntity
  8
L1_120
  6
CONTINUOUS
 62
         4
100
AcDbTrace
 10
1421.2508425579
 20
-352.9267518472
 30
-128.4548325486
 11
1424.7508425579
 21
-352.4334132213
 31
-128.2752719734
 12
1424.7508425579
 22
-353.4200904731
 32
-128.6343931239
 13
1421.2508425579
 23
-352.9267518472
 33
-128.4548325486
  0
TEXT
  5
322
100
AcDbEntity
  8
L1_120
  6
CONTINUOUS
 62
         4
100
AcDbText
 10
1469.5799588875
 20
-372.9518046279
 30
0.0
 40
3.5
  1
98
  7
BOX
210
0.0
220
-0.3420201433256687
230
0.9396926207859084
100
AcDbText
  0
ENDBLK
  5
323
100
AcDbEntity
  8
0
  6
CONTINUOUS
100
AcDbBlockEnd
  0
BLOCK
  5
325
100
AcDbEntity
  8
0
100
AcDbBlockBegin
  2
*D4
 70
        65
 10
0.0
 20
0.0
 30
0.0
  3
*D4
  1

  0
POINT
  5
327
100
AcDbEntity
  8
DEFPOINTS
  6
CONTINUOUS
 62
         0
100
AcDbPoint
 10
1519.1008425579
 20
-134.9221603335
 30
-49.1076503043
  0
POINT
  5
328
100
AcDbEntity
  8
DEFPOINTS
  6
CONTINUOUS
 62
         0
100
AcDbPoint
 10
1519.1008425579
 20
-198.3592206795
 30
-72.1968520196
  0
POINT
  5
329
100
AcDbEntity
  8
DEFPOINTS
  6
CONTINUOUS
 62
         0
100
AcDbPoint
 10
1417.5008425579
 20
-161.0299313187
 30
-58.6101018259
  0
LINE
  5
32A
100
AcDbEntity
  8
L1_120
  6
CONTINUOUS
 62
         4
100
AcDbLine
 10
1519.1008425579
 20
-196.7147585931
 30
-71.5983167687
 11
1519.1008425579
 21
-134.0999292903
 31
-48.8083826789
  0
LINE
  5
32B
100
AcDbEntity
  8
L1_120
  6
CONTINUOUS
 62
         4
100
AcDbLine
 10
1417.5008425579
 20
-159.3854692324
 30
-58.0115665751
 11
1417.5008425579
 21
-134.0999292903
 31
-48.8083826789
  0
LINE
  5
32C
100
AcDbEntity
  8
L1_120
  6
CONTINUOUS
 62
         4
100
AcDbLine
 10
1519.1008425579
 20
-134.9221603335
 30
-49.1076503043
 11
1417.5008425579
 21
-134.9221603335
 31
-49.1076503043
  0
SOLID
  5
32D
100
AcDbEntity
  8
L1_120
  6
CONTINUOUS
 62
         4
100
AcDbTrace
 10
1519.1008425579
 20
-134.9221603335
 30
-49.1076503043
 11
1515.6008425579
 21
-135.4154989594
 31
-49.2872108795
 12
1515.6008425579
 22
-134.4288217075
 32
-48.928089729
 13
1519.1008425579
 23
-134.9221603335
 33
-49.1076503043
  0
SOLID
  5
32E
100
AcDbEntity
  8
L1_120
  6
CONTINUOUS
 62
         4
100
AcDbTrace
 10
1417.5008425579
 20
-134.9221603335
 30
-49.1076503043
 11
1421.0008425579
 21
-134.4288217075
 31
-48.928089729
 12
1421.0008425579
 22
-135.4154989594
 32
-49.2872108795
 13
1417.5008425579
 23
-134.9221603335
 33
-49.1076503043
  0
TEXT
  5
330
100
AcDbEntity
  8
L1_120
  6
CONTINUOUS
 62
         4
100
AcDbText
 10
1454.7569432467
 20
-140.9561640413
 30
0.0
 40
3.5
  1
101.6
  7
BOX
210
0.0
220
-0.3420201433256687
230
0.9396926207859084
100
AcDbText
  0
ENDBLK
  5
331
100
AcDbEntity
  8
0
  6
CONTINUOUS
100
AcDbBlockEnd
  0
BLOCK
  5
333
100
AcDbEntity
  8
0
100
AcDbBlockBegin
  2
*D5
 70
        65
 10
0.0
 20
0.0
 30
0.0
  3
*D5
  1

  0
POINT
  5
335
100
AcDbEntity
  8
DEFPOINTS
  6
CONTINUOUS
 62
         0
100
AcDbPoint
 10
1315.9008425579
 20
-118.2051891056
 30
-43.0231703702
  0
POINT
  5
336
100
AcDbEntity
  8
DEFPOINTS
  6
CONTINUOUS
 62
         0
100
AcDbPoint
 10
1315.9008425579
 20
-181.4951813919
 30
-66.0588436894
  0
POINT
  5
337
100
AcDbEntity
  8
DEFPOINTS
  6
CONTINUOUS
 62
         0
100
AcDbPoint
 10
1519.1008425579
 20
-198.3592206795
 30
-72.1968520196
  0
LINE
  5
338
100
AcDbEntity
  8
L1_120
  6
CONTINUOUS
 62
         4
100
AcDbLine
 10
1315.9008425579
 20
-179.8507193055
 30
-65.4603084386
 11
1315.9008425579
 21
-117.3829580624
 31
-42.7239027448
  0
LINE
  5
339
100
AcDbEntity
  8
L1_120
  6
CONTINUOUS
 62
         4
100
AcDbLine
 10
1519.1008425579
 20
-196.7147585931
 30
-71.5983167687
 11
1519.1008425579
 21
-117.3829580624
 31
-42.7239027448
  0
LINE
  5
33A
100
AcDbEntity
  8
L1_120
  6
CONTINUOUS
 62
         4
100
AcDbLine
 10
1315.9008425579
 20
-118.2051891056
 30
-43.0231703702
 11
1519.1008425579
 21
-118.2051891056
 31
-43.0231703702
  0
SOLID
  5
33B
100
AcDbEntity
  8
L1_120
  6
CONTINUOUS
 62
         4
100
AcDbTrace
 10
1315.9008425579
 20
-118.2051891056
 30
-43.0231703702
 11
1319.4008425579
 21
-117.7118504797
 31
-42.843609795
 12
1319.4008425579
 22
-118.6985277315
 32
-43.2027309455
 13
1315.9008425579
 23
-118.2051891056
 33
-43.0231703702
  0
SOLID
  5
33C
100
AcDbEntity
  8
L1_120
  6
CONTINUOUS
 62
         4
100
AcDbTrace
 10
1519.1008425579
 20
-118.2051891056
 30
-43.0231703702
 11
1515.6008425579
 21
-118.6985277315
 31
-43.2027309455
 12
1515.6008425579
 22
-117.7118504797
 32
-42.843609795
 13
1519.1008425579
 23
-118.2051891056
 33
-43.0231703702
  0
TEXT
  5
33E
100
AcDbEntity
  8
L1_120
  6
CONTINUOUS
 62
         4
100
AcDbText
 10
1412.7082560377
 20
-123.1663348375
 30
0.0
 40
3.5
  1
203.2
  7
BOX
210
0.0
220
-0.3420201433256687
230
0.9396926207859084
100
AcDbText
  0
ENDBLK
  5
33F
100
AcDbEntity
  8
0
  6
CONTINUOUS
100
AcDbBlockEnd
  0
BLOCK
  5
341
100
AcDbEntity
  8
0
100
AcDbBlockBegin
  2
*D6
 70
        65
 10
0.0
 20
0.0
 30
0.0
  3
*D6
  1

  0
POINT
  5
343
100
AcDbEntity
  8
DEFPOINTS
  6
CONTINUOUS
 62
         0
100
AcDbPoint
 10
1559.5602128591
 20
-280.1489465341
 30
-101.9658776995
  0
POINT
  5
344
100
AcDbEntity
  8
DEFPOINTS
  6
CONTINUOUS
 62
         0
100
AcDbPoint
 10
1576.0666612535
 20
-280.1489465341
 30
-101.9658776995
  0
POINT
  5
345
100
AcDbEntity
  8
DEFPOINTS
  6
CONTINUOUS
 62
         0
100
AcDbPoint
 10
1573.7891138824
 20
-293.3003469419
 30
-106.7525959868
  0
LINE
  5
346
100
AcDbEntity
  8
L1_120
  6
CONTINUOUS
 62
         4
100
AcDbLine
 10
1574.3166612535
 20
-280.1489465341
 30
-101.9658776995
 11
1558.6852128591
 21
-280.1489465341
 31
-101.9658776995
  0
LINE
  5
347
100
AcDbEntity
  8
L1_120
  6
CONTINUOUS
 62
         4
100
AcDbLine
 10
1572.0391138824
 20
-293.3003469419
 30
-106.7525959868
 11
1558.6852128591
 21
-293.3003469419
 31
-106.7525959868
  0
LINE
  5
348
100
AcDbEntity
  8
L1_120
  6
CONTINUOUS
 62
         4
100
AcDbLine
 10
1559.5602128591
 20
-280.1489465341
 30
-101.9658776995
 11
1559.5602128591
 21
-293.3003469419
 31
-106.7525959868
  0
SOLID
  5
349
100
AcDbEntity
  8
L1_120
  6
CONTINUOUS
 62
         4
100
AcDbTrace
 10
1559.5602128591
 20
-280.1489465341
 30
-101.9658776995
 11
1560.0852128591
 21
-283.4378707069
 31
-103.1629482011
 12
1559.0352128591
 22
-283.4378707069
 32
-103.1629482011
 13
1559.5602128591
 23
-280.1489465341
 33
-101.9658776995
  0
SOLID
  5
34A
100
AcDbEntity
  8
L1_120
  6
CONTINUOUS
 62
         4
100
AcDbTrace
 10
1559.5602128591
 20
-293.3003469419
 30
-106.7525959868
 11
1559.0352128591
 21
-290.0114227691
 31
-105.5555254852
 12
1560.0852128591
 22
-290.0114227691
 32
-105.5555254852
 13
1559.5602128591
 23
-293.3003469419
 33
-106.7525959868
  0
TEXT
  5
34C
100
AcDbEntity
  8
L1_120
  6
CONTINUOUS
 62
         4
100
AcDbText
 10
1556.9352128591
 20
-308.6259958796
 30
0.0
 40
3.5
  1
13
 50
90.0
  7
BOX
210
0.0
220
-0.3420201433256687
230
0.9396926207859084
100
AcDbText
  0
ENDBLK
  5
34D
100
AcDbEntity
  8
0
  6
CONTINUOUS
100
AcDbBlockEnd
  0
BLOCK
  5
350
100
AcDbEntity
  8
0
100
AcDbBlockBegin
  2
*D7
 70
        65
 10
0.0
 20
0.0
 30
0.0
  3
*D7
  1

  0
POINT
  5
352
100
AcDbEntity
  8
DEFPOINTS
  6
CONTINUOUS
 62
         0
100
AcDbPoint
 10
1572.8408548019
 20
-272.881473052
 30
-99.3207336736
  0
POINT
  5
353
100
AcDbEntity
  8
DEFPOINTS
  6
CONTINUOUS
 62
         0
100
AcDbPoint
 10
1572.8408548019
 20
-283.1802130528
 30
-103.0691684844
  0
POINT
  5
354
100
AcDbEntity
  8
DEFPOINTS
  6
CONTINUOUS
 62
         0
100
AcDbPoint
 10
1588.715886552
 20
-283.1802130528
 30
-103.0691684844
  0
LINE
  5
355
100
AcDbEntity
  8
L1_120
  6
CONTINUOUS
 62
         4
100
AcDbLine
 10
1572.8408548019
 20
-281.5357509664
 30
-102.4706332336
 11
1572.8408548019
 21
-272.0592420088
 31
-99.0214660482
  0
LINE
  5
356
100
AcDbEntity
  8
L1_120
  6
CONTINUOUS
 62
         4
100
AcDbLine
 10
1588.715886552
 20
-281.5357509664
 30
-102.4706332336
 11
1588.715886552
 21
-272.0592420088
 31
-99.0214660482
  0
LINE
  5
357
100
AcDbEntity
  8
L1_120
  6
CONTINUOUS
 62
         4
100
AcDbLine
 10
1572.8408548019
 20
-272.881473052
 30
-99.3207336736
 11
1588.715886552
 21
-272.881473052
 31
-99.3207336736
  0
SOLID
  5
358
100
AcDbEntity
  8
L1_120
  6
CONTINUOUS
 62
         4
100
AcDbTrace
 10
1572.8408548019
 20
-272.881473052
 30
-99.3207336736
 11
1576.3408548019
 21
-272.3881344261
 31
-99.1411730984
 12
1576.3408548019
 22
-273.3748116779
 32
-99.5002942489
 13
1572.8408548019
 23
-272.881473052
 33
-99.3207336736
  0
SOLID
  5
359
100
AcDbEntity
  8
L1_120
  6
CONTINUOUS
 62
         4
100
AcDbTrace
 10
1588.715886552
 20
-272.881473052
 30
-99.3207336736
 11
1585.215886552
 21
-273.3748116779
 31
-99.5002942489
 12
1585.215886552
 22
-272.3881344261
 32
-99.1411730984
 13
1588.715886552
 23
-272.881473052
 33
-99.3207336736
  0
TEXT
  5
35B
100
AcDbEntity
  8
L1_120
  6
CONTINUOUS
 62
         4
100
AcDbText
 10
1563.2783706769
 20
-287.7693981424
 30
0.0
 40
3.5
  1
5/8"-18UNF
  7
BOX
210
0.0
220
-0.3420201433256687
230
0.9396926207859084
100
AcDbText
  0
ENDBLK
  5
35C
100
AcDbEntity
  8
0
  6
CONTINUOUS
100
AcDbBlockEnd
  0
BLOCK
  5
3AE
100
AcDbEntity
  8
0
100
AcDbBlockBegin
  2
*D8
 70
        65
 10
0.0
 20
0.0
 30
0.0
  3
*D8
  1

  0
POINT
  5
3B0
100
AcDbEntity
  8
DEFPOINTS
  6
CONTINUOUS
 62
         0
100
AcDbPoint
 10
1576.1595685234
 20
-306.3230804603
 30
-111.4924833563
  0
POINT
  5
3B1
100
AcDbEntity
  8
DEFPOINTS
  6
CONTINUOUS
 62
         0
100
AcDbPoint
 10
1576.1595685234
 20
-293.3003469419
 30
-106.7525959868
  0
POINT
  5
3B2
100
AcDbEntity
  8
DEFPOINTS
  6
CONTINUOUS
 62
         0
100
AcDbPoint
 10
1585.3971728305
 20
-293.3003469419
 30
-106.7525959868
  0
LINE
  5
3B3
100
AcDbEntity
  8
L1_120
  6
CONTINUOUS
 62
         4
100
AcDbLine
 10
1576.1595685234
 20
-294.9448090282
 30
-107.3511312376
 11
1576.1595685234
 21
-307.1453115035
 31
-111.7917509817
  0
LINE
  5
3B4
100
AcDbEntity
  8
L1_120
  6
CONTINUOUS
 62
         4
100
AcDbLine
 10
1585.3971728305
 20
-294.9448090282
 30
-107.3511312376
 11
1585.3971728305
 21
-307.1453115035
 31
-111.7917509817
  0
LINE
  5
3B5
100
AcDbEntity
  8
L1_120
  6
CONTINUOUS
 62
         4
100
AcDbLine
 10
1576.1595685234
 20
-306.3230804603
 30
-111.4924833563
 11
1585.3971728305
 21
-306.3230804603
 31
-111.4924833563
  0
SOLID
  5
3B6
100
AcDbEntity
  8
L1_120
  6
CONTINUOUS
 62
         4
100
AcDbTrace
 10
1576.1595685234
 20
-306.3230804603
 30
-111.4924833563
 11
1579.6595685234
 21
-305.8297418344
 31
-111.312922781
 12
1579.6595685234
 22
-306.8164190862
 32
-111.6720439315
 13
1576.1595685234
 23
-306.3230804603
 33
-111.4924833563
  0
LINE
  5
3B7
100
AcDbEntity
  8
L1_120
  6
CONTINUOUS
 62
         4
100
AcDbLine
 10
1585.3971728305
 20
-306.3230804603
 30
-111.4924833563
 11
1609.0270890512
 21
-306.3230804603
 31
-111.4924833563
  0
SOLID
  5
3B8
100
AcDbEntity
  8
L1_120
  6
CONTINUOUS
 62
         4
100
AcDbTrace
 10
1585.3971728305
 20
-306.3230804603
 30
-111.4924833563
 11
1581.8971728305
 21
-306.8164190862
 31
-111.6720439315
 12
1581.8971728305
 22
-305.8297418344
 32
-111.312922781
 13
1585.3971728305
 23
-306.3230804603
 33
-111.4924833563
  0
TEXT
  5
3BA
100
AcDbEntity
  8
L1_120
  6
CONTINUOUS
 62
         4
100
AcDbText
 10
1589.7770890512
 20
-323.3572134222
 30
0.0
 40
3.5
  1
5/16"
  7
BOX
210
0.0
220
-0.3420201433256687
230
0.9396926207859084
100
AcDbText
  0
ENDBLK
  5
3BB
100
AcDbEntity
  8
0
  6
CONTINUOUS
100
AcDbBlockEnd
  0
ENDSEC
  0
SECTION
  2
ENTITIES
  0
ARC
  5
25
100
AcDbEntity
  8
L1_120
  6
CONTINUOUS
 62
         7
100
AcDbCircle
 10
1231.0721451996
 20
-211.6362095791
 30
77.0292807797
 40
48.75
210
0.0
220
-0.3420201433256687
230
0.9396926207859084
100
AcDbArc
 50
16.5052120024
 51
163.4947879976
  0
ARC
  5
26
100
AcDbEntity
  8
L1_120
  6
CONTINUOUS
 62
         7
100
AcDbCircle
 10
1231.0721451996
 20
-211.6362095791
 30
77.0292807797
 40
48.75
210
0.0
220
-0.3420201433256687
230
0.9396926207859084
100
AcDbArc
 50
196.5052120024
 51
343.4947879976
  0
CIRCLE
  5
27
100
AcDbEntity
  8
L1_120
  6
CONTINUOUS
 62
         7
100
AcDbCircle
 10
1231.0721451996
 20
-211.6362095791
 30
77.0292807797
 40
34.925
210
0.0
220
-0.3420201433256687
230
0.9396926207859084
  0
CIRCLE
  5
28
100
AcDbEntity
  8
L1_120
  6
CONTINUOUS
 62
         7
100
AcDbCircle
 10
1231.0721451996
 20
-211.6362095791
 30
77.0292807797
 40
20.3982925257
210
0.0
220
-0.3420201433256687
230
0.9396926207859084
  0
CIRCLE
  5
29
100
AcDbEntity
  8
L1_120
  6
CONTINUOUS
 62
         7
100
AcDbCircle
 10
1231.0721451996
 20
-211.6362095791
 30
77.0292807797
 40
10.3963414634
210
0.0
220
-0.3420201433256687
230
0.9396926207859084
  0
ARC
  5
2A
100
AcDbEntity
  8
L1_120
  6
CONTINUOUS
 62
         4
100
AcDbCircle
 10
1231.0721451996
 20
-211.6362095791
 30
77.0292807797
 40
12.0
210
0.0
220
-0.3420201433256687
230
0.9396926207859084
100
AcDbArc
 50
278.1340859252
 51
549.6704111119
  0
CIRCLE
  5
2B
100
AcDbEntity
  8
L1_120
  6
CONTINUOUS
 62
         7
100
AcDbCircle
 10
1231.0721451996
 20
-211.6362095791
 30
77.0292807797
 40
12.6589889012
210
0.0
220
-0.3420201433256687
230
0.9396926207859084
  0
LINE
  5
2C
100
AcDbEntity
  8
L1_120
  6
CONTINUOUS
 62
         7
100
AcDbLine
 10
1195.0721451996
 20
-236.8237539518
 30
-4.2239487701
 11
1195.0721451996
 21
-213.6133462184
 31
4.2239487701
  0
LINE
  5
2D
100
AcDbEntity
  8
L1_120
  6
CONTINUOUS
 62
         7
100
AcDbLine
 10
1185.3309428188
 20
-237.2936002622
 30
-4.3949588417
 11
1194.5721451996
 21
-237.2936002622
 31
-4.3949588417
  0
LINE
  5
2E
100
AcDbEntity
  8
L1_120
  6
CONTINUOUS
 62
         7
100
AcDbLine
 10
1184.3309428188
 20
-238.233292883
 30
-4.7369789851
 11
1185.3309428188
 21
-237.2936002622
 31
-4.3949588417
  0
LINE
  5
2F
100
AcDbEntity
  8
L1_120
  6
CONTINUOUS
 62
         7
100
AcDbLine
 10
1184.3309428188
 20
-212.2038072872
 30
4.7369789851
 11
1185.3309428188
 21
-213.143499908
 31
4.3949588417
  0
LINE
  5
30
100
AcDbEntity
  8
L1_120
  6
CONTINUOUS
 62
         7
100
AcDbLine
 10
1185.3309428188
 20
-213.143499908
 30
4.3949588417
 11
1194.5721451996
 21
-213.143499908
 31
4.3949588417
  0
LINE
  5
31
100
AcDbEntity
  8
L1_120
  6
CONTINUOUS
 62
         7
100
AcDbLine
 10
1268.7721451996
 20
-236.8237539518
 30
-4.2239487701
 11
1268.7721451996
 21
-213.6133462184
 31
4.2239487701
  0
LINE
  5
32
100
AcDbEntity
  8
L1_120
  6
CONTINUOUS
 62
         7
100
AcDbLine
 10
1276.8133475804
 20
-213.143499908
 30
4.3949588417
 11
1269.2721451996
 21
-213.143499908
 31
4.3949588417
  0
LINE
  5
33
100
AcDbEntity
  8
L1_120
  6
CONTINUOUS
 62
         7
100
AcDbLine
 10
1277.8133475804
 20
-212.2038072872
 30
4.7369789851
 11
1276.8133475804
 21
-213.143499908
 31
4.3949588417
  0
LINE
  5
34
100
AcDbEntity
  8
L1_120
  6
CONTINUOUS
 62
         7
100
AcDbLine
 10
1276.8133475804
 20
-237.2936002622
 30
-4.3949588417
 11
1269.2721451996
 21
-237.2936002622
 31
-4.3949588417
  0
LINE
  5
35
100
AcDbEntity
  8
L1_120
  6
CONTINUOUS
 62
         7
100
AcDbLine
 10
1277.8133475804
 20
-238.233292883
 30
-4.7369789851
 11
1276.8133475804
 21
-237.2936002622
 31
-4.3949588417
  0
LINE
  5
36
100
AcDbEntity
  8
L1_120
  6
CONTINUOUS
 62
         7
100
AcDbLine
 10
1194.5721451996
 20
-237.2936002622
 30
-4.3949588417
 11
1195.0721451996
 21
-236.8237539518
 31
-4.2239487701
  0
LINE
  5
37
100
AcDbEntity
  8
L1_120
  6
CONTINUOUS
 62
         7
100
AcDbLine
 10
1195.0721451996
 20
-213.6133462184
 30
4.2239487701
 11
1194.5721451996
 21
-213.143499908
 31
4.3949588417
  0
LINE
  5
38
100
AcDbEntity
  8
L1_120
  6
CONTINUOUS
 62
         7
100
AcDbLine
 10
1269.2721451996
 20
-213.143499908
 30
4.3949588417
 11
1268.7721451996
 21
-213.6133462184
 31
4.2239487701
  0
LINE
  5
39
100
AcDbEntity
  8
L1_120
  6
CONTINUOUS
 62
         7
100
AcDbLine
 10
1268.7721451996
 20
-236.8237539518
 30
-4.2239487701
 11
1269.2721451996
 21
-237.2936002622
 31
-4.3949588417
  0
POLYLINE
  5
3B
100
AcDbEntity
  8
L1_120
  6
CONTINUOUS
 62
         7
100
AcDb2dPolyline
 66
         1
 10
0.0
 20
0.0
 30
77.0292807797
 70
         2
210
0.0
220
-0.3420201433256687
230
0.9396926207859084
  0
VERTEX
  5
3D
100
AcDbEntity
  8
L1_120
  6
CONTINUOUS
 62
         7
100
AcDbVertex
100
AcDb2dVertex
 10
1246.3263585584
 20
-169.8323956272
 30
77.0292807797
 70
         1
  0
VERTEX
  5
3F
100
AcDbEntity
  8
L1_120
  6
CONTINUOUS
 62
         7
100
AcDbVertex
100
AcDb2dVertex
 10
1245.9463574937
 20
-169.7394242823
 30
77.0292807797
 70
         1
  0
VERTEX
  5
41
100
AcDbEntity
  8
L1_120
  6
CONTINUOUS
 62
         7
100
AcDbVertex
100
AcDb2dVertex
 10
1245.7692888263
 20
-169.7244227844
 30
77.0292807797
 70
         1
  0
VERTEX
  5
43
100
AcDbEntity
  8
L1_120
  6
CONTINUOUS
 62
         7
100
AcDbVertex
100
AcDb2dVertex
 10
1245.5846615562
 20
-169.7262559239
 30
77.0292807797
 70
         1
  0
VERTEX
  5
45
100
AcDbEntity
  8
L1_120
  6
CONTINUOUS
 62
         7
100
AcDbVertex
100
AcDb2dVertex
 10
1245.3936547066
 20
-169.746092975
 30
77.0292807797
 70
         1
  0
VERTEX
  5
47
100
AcDbEntity
  8
L1_120
  6
CONTINUOUS
 62
         7
100
AcDbVertex
100
AcDb2dVertex
 10
1245.1976699789
 20
-169.7848492463
 30
77.0292807797
 70
         1
  0
VERTEX
  5
49
100
AcDbEntity
  8
L1_120
  6
CONTINUOUS
 62
         7
100
AcDbVertex
100
AcDb2dVertex
 10
1244.9983073468
 20
-169.8431311055
 30
77.0292807797
 70
         1
  0
VERTEX
  5
4B
100
AcDbEntity
  8
L1_120
  6
CONTINUOUS
 62
         7
100
AcDbVertex
100
AcDb2dVertex
 10
1244.7973281144
 20
-169.921190466
 30
77.0292807797
 70
         1
  0
VERTEX
  5
4D
100
AcDbEntity
  8
L1_120
  6
CONTINUOUS
 62
         7
100
AcDbVertex
100
AcDb2dVertex
 10
1244.5966065877
 20
-170.0188930284
 30
77.0292807797
 70
         1
  0
VERTEX
  5
4F
100
AcDbEntity
  8
L1_120
  6
CONTINUOUS
 62
         7
100
AcDbVertex
100
AcDb2dVertex
 10
1244.3980727177
 20
-170.135703785
 30
77.0292807797
 70
         1
  0
VERTEX
  5
51
100
AcDbEntity
  8
L1_120
  6
CONTINUOUS
 62
         7
100
AcDbVertex
100
AcDb2dVertex
 10
1244.2036491381
 20
-170.2706919984
 30
77.0292807797
 70
         1
  0
VERTEX
  5
53
100
AcDbEntity
  8
L1_120
  6
CONTINUOUS
 62
         7
100
AcDbVertex
100
AcDb2dVertex
 10
1244.0151867674
 20
-170.4225561814
 30
77.0292807797
 70
         1
  0
VERTEX
  5
55
100
AcDbEntity
  8
L1_120
  6
CONTINUOUS
 62
         7
100
AcDbVertex
100
AcDb2dVertex
 10
1243.774857967
 20
-170.649738732
 30
77.0292807797
 70
         1
  0
VERTEX
  5
57
100
AcDbEntity
  8
L1_120
  6
CONTINUOUS
 62
         7
100
AcDbVertex
100
AcDb2dVertex
 10
1243.5518978873
 20
-170.8996474081
 30
77.0292807797
 70
         1
  0
VERTEX
  5
59
100
AcDbEntity
  8
L1_120
  6
CONTINUOUS
 62
         7
100
AcDbVertex
100
AcDb2dVertex
 10
1243.3491195331
 20
-171.1670845202
 30
77.0292807797
 70
         1
  0
VERTEX
  5
5B
100
AcDbEntity
  8
L1_120
  6
CONTINUOUS
 62
         7
100
AcDbVertex
100
AcDb2dVertex
 10
1243.1684599659
 20
-171.4466314553
 30
77.0292807797
 70
         1
  0
VERTEX
  5
5D
100
AcDbEntity
  8
L1_120
  6
CONTINUOUS
 62
         7
100
AcDbVertex
100
AcDb2dVertex
 10
1243.0109626916
 20
-171.7329639651
 30
77.0292807797
 70
         1
  0
VERTEX
  5
5F
100
AcDbEntity
  8
L1_120
  6
CONTINUOUS
 62
         7
100
AcDbVertex
100
AcDb2dVertex
 10
1242.8768323966
 20
-172.0211187997
 30
77.0292807797
 70
         1
  0
VERTEX
  5
61
100
AcDbEntity
  8
L1_120
  6
CONTINUOUS
 62
         7
100
AcDbVertex
100
AcDb2dVertex
 10
1242.7324333339
 20
-172.4034014757
 30
77.0292807797
 70
         1
  0
VERTEX
  5
63
100
AcDbEntity
  8
L1_120
  6
CONTINUOUS
 62
         7
100
AcDbVertex
100
AcDb2dVertex
 10
1242.6263105083
 20
-172.7723960861
 30
77.0292807797
 70
         1
  0
VERTEX
  5
65
100
AcDbEntity
  8
L1_120
  6
CONTINUOUS
 62
         7
100
AcDbVertex
100
AcDb2dVertex
 10
1242.554363387
 20
-173.1217591265
 30
77.0292807797
 70
         1
  0
VERTEX
  5
67
100
AcDbEntity
  8
L1_120
  6
CONTINUOUS
 62
         7
100
AcDbVertex
100
AcDb2dVertex
 10
1242.5118688432
 20
-173.4473861645
 30
77.0292807797
 70
         1
  0
VERTEX
  5
69
100
AcDbEntity
  8
L1_120
  6
CONTINUOUS
 62
         7
100
AcDbVertex
100
AcDb2dVertex
 10
1242.4939747203
 20
-173.747089958
 30
77.0292807797
 70
         1
  0
VERTEX
  5
6B
100
AcDbEntity
  8
L1_120
  6
CONTINUOUS
 62
         7
100
AcDbVertex
100
AcDb2dVertex
 10
1242.496047562
 20
-174.0201975717
 30
77.0292807797
 70
         1
  0
VERTEX
  5
6D
100
AcDbEntity
  8
L1_120
  6
CONTINUOUS
 62
         7
100
AcDbVertex
100
AcDb2dVertex
 10
1242.5230608341
 20
-174.3468454234
 30
77.0292807797
 70
         1
  0
VERTEX
  5
6F
100
AcDbEntity
  8
L1_120
  6
CONTINUOUS
 62
         7
100
AcDbVertex
100
AcDb2dVertex
 10
1242.5700108459
 20
-174.6292298715
 30
77.0292807797
 70
         1
  0
VERTEX
  5
71
100
AcDbEntity
  8
L1_120
  6
CONTINUOUS
 62
         7
100
AcDbVertex
100
AcDb2dVertex
 10
1242.6299933991
 20
-174.8717083921
 30
77.0292807797
 70
         1
  0
VERTEX
  5
73
100
AcDbEntity
  8
L1_120
  6
CONTINUOUS
 62
         7
100
AcDbVertex
100
AcDb2dVertex
 10
1242.7226618171
 20
-175.1445109744
 30
77.0292807797
 70
         1
  0
VERTEX
  5
75
100
AcDbEntity
  8
L1_120
  6
CONTINUOUS
 62
         7
100
AcDbVertex
100
AcDb2dVertex
 10
1242.8206164901
 20
-175.3646633177
 30
77.0292807797
 70
         1
  0
VERTEX
  5
77
100
AcDbEntity
  8
L1_120
  6
CONTINUOUS
 62
         7
100
AcDbVertex
100
AcDb2dVertex
 10
1242.9181381139
 20
-175.5423510427
 30
77.0292807797
 70
         1
  0
VERTEX
  5
79
100
AcDbEntity
  8
L1_120
  6
CONTINUOUS
 62
         7
100
AcDbVertex
100
AcDb2dVertex
 10
1243.0440772093
 20
-175.7307195001
 30
77.0292807797
 70
         1
  0
VERTEX
  5
7B
100
AcDbEntity
  8
L1_120
  6
CONTINUOUS
 62
         7
100
AcDbVertex
100
AcDb2dVertex
 10
1243.1980156459
 20
-175.91632644
 30
77.0292807797
 70
         1
  0
VERTEX
  5
7D
100
AcDbEntity
  8
L1_120
  6
CONTINUOUS
 62
         7
100
AcDbVertex
100
AcDb2dVertex
 10
1243.3286404884
 20
-176.0449857497
 30
77.0292807797
 70
         1
  0
VERTEX
  5
7F
100
AcDbEntity
  8
L1_120
  6
CONTINUOUS
 62
         7
100
AcDbVertex
100
AcDb2dVertex
 10
1243.4736669869
 20
-176.1633533987
 30
77.0292807797
 70
         1
  0
VERTEX
  5
81
100
AcDbEntity
  8
L1_120
  6
CONTINUOUS
 62
         7
100
AcDbVertex
100
AcDb2dVertex
 10
1243.6211269116
 20
-176.2617710843
 30
77.0292807797
 70
         1
  0
VERTEX
  5
83
100
AcDbEntity
  8
L1_120
  6
CONTINUOUS
 62
         7
100
AcDbVertex
100
AcDb2dVertex
 10
1243.7979126034
 20
-176.3550847338
 30
77.0292807797
 70
         1
  0
VERTEX
  5
85
100
AcDbEntity
  8
L1_120
  6
CONTINUOUS
 62
         7
100
AcDbVertex
100
AcDb2dVertex
 10
1243.9322175551
 20
-176.4102439728
 30
77.0292807797
 70
         1
  0
VERTEX
  5
87
100
AcDbEntity
  8
L1_120
  6
CONTINUOUS
 62
         7
100
AcDbVertex
100
AcDb2dVertex
 10
1243.9322175551
 20
-176.4102439728
 30
77.0292807797
 70
         1
  0
VERTEX
  5
89
100
AcDbEntity
  8
L1_120
  6
CONTINUOUS
 62
         7
100
AcDbVertex
100
AcDb2dVertex
 10
1244.3122186198
 20
-176.5032153177
 30
77.0292807797
 70
         1
  0
VERTEX
  5
8B
100
AcDbEntity
  8
L1_120
  6
CONTINUOUS
 62
         7
100
AcDbVertex
100
AcDb2dVertex
 10
1244.4892872871
 20
-176.5182168156
 30
77.0292807797
 70
         1
  0
VERTEX
  5
8D
100
AcDbEntity
  8
L1_120
  6
CONTINUOUS
 62
         7
100
AcDbVertex
100
AcDb2dVertex
 10
1244.6739145573
 20
-176.5163836761
 30
77.0292807797
 70
         1
  0
VERTEX
  5
8F
100
AcDbEntity
  8
L1_120
  6
CONTINUOUS
 62
         7
100
AcDbVertex
100
AcDb2dVertex
 10
1244.8649214069
 20
-176.496546625
 30
77.0292807797
 70
         1
  0
VERTEX
  5
91
100
AcDbEntity
  8
L1_120
  6
CONTINUOUS
 62
         7
100
AcDbVertex
100
AcDb2dVertex
 10
1245.0609061346
 20
-176.4577903537
 30
77.0292807797
 70
         1
  0
VERTEX
  5
93
100
AcDbEntity
  8
L1_120
  6
CONTINUOUS
 62
         7
100
AcDbVertex
100
AcDb2dVertex
 10
1245.2602687667
 20
-176.3995084945
 30
77.0292807797
 70
         1
  0
VERTEX
  5
95
100
AcDbEntity
  8
L1_120
  6
CONTINUOUS
 62
         7
100
AcDbVertex
100
AcDb2dVertex
 10
1245.4612479991
 20
-176.321449134
 30
77.0292807797
 70
         1
  0
VERTEX
  5
97
100
AcDbEntity
  8
L1_120
  6
CONTINUOUS
 62
         7
100
AcDbVertex
100
AcDb2dVertex
 10
1245.6619695258
 20
-176.2237465716
 30
77.0292807797
 70
         1
  0
VERTEX
  5
99
100
AcDbEntity
  8
L1_120
  6
CONTINUOUS
 62
         7
100
AcDbVertex
100
AcDb2dVertex
 10
1245.8605033958
 20
-176.106935815
 30
77.0292807797
 70
         1
  0
VERTEX
  5
9B
100
AcDbEntity
  8
L1_120
  6
CONTINUOUS
 62
         7
100
AcDbVertex
100
AcDb2dVertex
 10
1246.0549269753
 20
-175.9719476016
 30
77.0292807797
 70
         1
  0
VERTEX
  5
9D
100
AcDbEntity
  8
L1_120
  6
CONTINUOUS
 62
         7
100
AcDbVertex
100
AcDb2dVertex
 10
1246.2433893461
 20
-175.8200834187
 30
77.0292807797
 70
         1
  0
VERTEX
  5
9F
100
AcDbEntity
  8
L1_120
  6
CONTINUOUS
 62
         7
100
AcDbVertex
100
AcDb2dVertex
 10
1246.4837181464
 20
-175.5929008681
 30
77.0292807797
 70
         1
  0
VERTEX
  5
A1
100
AcDbEntity
  8
L1_120
  6
CONTINUOUS
 62
         7
100
AcDbVertex
100
AcDb2dVertex
 10
1246.7066782262
 20
-175.3429921919
 30
77.0292807797
 70
         1
  0
VERTEX
  5
A3
100
AcDbEntity
  8
L1_120
  6
CONTINUOUS
 62
         7
100
AcDbVertex
100
AcDb2dVertex
 10
1246.9094565804
 20
-175.0755550798
 30
77.0292807797
 70
         1
  0
VERTEX
  5
A5
100
AcDbEntity
  8
L1_120
  6
CONTINUOUS
 62
         7
100
AcDbVertex
100
AcDb2dVertex
 10
1247.0901161476
 20
-174.7960081447
 30
77.0292807797
 70
         1
  0
VERTEX
  5
A7
100
AcDbEntity
  8
L1_120
  6
CONTINUOUS
 62
         7
100
AcDbVertex
100
AcDb2dVertex
 10
1247.2476134218
 20
-174.5096756349
 30
77.0292807797
 70
         1
  0
VERTEX
  5
A9
100
AcDbEntity
  8
L1_120
  6
CONTINUOUS
 62
         7
100
AcDbVertex
100
AcDb2dVertex
 10
1247.3817437169
 20
-174.2215208003
 30
77.0292807797
 70
         1
  0
VERTEX
  5
AB
100
AcDbEntity
  8
L1_120
  6
CONTINUOUS
 62
         7
100
AcDbVertex
100
AcDb2dVertex
 10
1247.5261427795
 20
-173.8392381243
 30
77.0292807797
 70
         1
  0
VERTEX
  5
AD
100
AcDbEntity
  8
L1_120
  6
CONTINUOUS
 62
         7
100
AcDbVertex
100
AcDb2dVertex
 10
1247.6322656051
 20
-173.4702435139
 30
77.0292807797
 70
         1
  0
VERTEX
  5
AF
100
AcDbEntity
  8
L1_120
  6
CONTINUOUS
 62
         7
100
AcDbVertex
100
AcDb2dVertex
 10
1247.7042127264
 20
-173.1208804735
 30
77.0292807797
 70
         1
  0
VERTEX
  5
B1
100
AcDbEntity
  8
L1_120
  6
CONTINUOUS
 62
         7
100
AcDbVertex
100
AcDb2dVertex
 10
1247.7467072702
 20
-172.7952534355
 30
77.0292807797
 70
         1
  0
VERTEX
  5
B3
100
AcDbEntity
  8
L1_120
  6
CONTINUOUS
 62
         7
100
AcDbVertex
100
AcDb2dVertex
 10
1247.7646013931
 20
-172.495549642
 30
77.0292807797
 70
         1
  0
VERTEX
  5
B5
100
AcDbEntity
  8
L1_120
  6
CONTINUOUS
 62
         7
100
AcDbVertex
100
AcDb2dVertex
 10
1247.7625285515
 20
-172.2224420283
 30
77.0292807797
 70
         1
  0
VERTEX
  5
B7
100
AcDbEntity
  8
L1_120
  6
CONTINUOUS
 62
         7
100
AcDbVertex
100
AcDb2dVertex
 10
1247.7355152794
 20
-171.8957941766
 30
77.0292807797
 70
         1
  0
VERTEX
  5
B9
100
AcDbEntity
  8
L1_120
  6
CONTINUOUS
 62
         7
100
AcDbVertex
100
AcDb2dVertex
 10
1247.6885652675
 20
-171.6134097285
 30
77.0292807797
 70
         1
  0
VERTEX
  5
BB
100
AcDbEntity
  8
L1_120
  6
CONTINUOUS
 62
         7
100
AcDbVertex
100
AcDb2dVertex
 10
1247.6285827143
 20
-171.3709312079
 30
77.0292807797
 70
         1
  0
VERTEX
  5
BD
100
AcDbEntity
  8
L1_120
  6
CONTINUOUS
 62
         7
100
AcDbVertex
100
AcDb2dVertex
 10
1247.5359142964
 20
-171.0981286256
 30
77.0292807797
 70
         1
  0
VERTEX
  5
BF
100
AcDbEntity
  8
L1_120
  6
CONTINUOUS
 62
         7
100
AcDbVertex
100
AcDb2dVertex
 10
1247.4379596234
 20
-170.8779762823
 30
77.0292807797
 70
         1
  0
VERTEX
  5
C1
100
AcDbEntity
  8
L1_120
  6
CONTINUOUS
 62
         7
100
AcDbVertex
100
AcDb2dVertex
 10
1247.3404379996
 20
-170.7002885574
 30
77.0292807797
 70
         1
  0
VERTEX
  5
C3
100
AcDbEntity
  8
L1_120
  6
CONTINUOUS
 62
         7
100
AcDbVertex
100
AcDb2dVertex
 10
1247.2144989042
 20
-170.5119200999
 30
77.0292807797
 70
         1
  0
VERTEX
  5
C5
100
AcDbEntity
  8
L1_120
  6
CONTINUOUS
 62
         7
100
AcDbVertex
100
AcDb2dVertex
 10
1247.0605604676
 20
-170.32631316
 30
77.0292807797
 70
         1
  0
VERTEX
  5
C7
100
AcDbEntity
  8
L1_120
  6
CONTINUOUS
 62
         7
100
AcDbVertex
100
AcDb2dVertex
 10
1246.9299356251
 20
-170.1976538503
 30
77.0292807797
 70
         1
  0
VERTEX
  5
C9
100
AcDbEntity
  8
L1_120
  6
CONTINUOUS
 62
         7
100
AcDbVertex
100
AcDb2dVertex
 10
1246.7849091266
 20
-170.0792862013
 30
77.0292807797
 70
         1
  0
VERTEX
  5
CB
100
AcDbEntity
  8
L1_120
  6
CONTINUOUS
 62
         7
100
AcDbVertex
100
AcDb2dVertex
 10
1246.6374492019
 20
-169.9808685157
 30
77.0292807797
 70
         1
  0
VERTEX
  5
CD
100
AcDbEntity
  8
L1_120
  6
CONTINUOUS
 62
         7
100
AcDbVertex
100
AcDb2dVertex
 10
1246.4606635101
 20
-169.8875548662
 30
77.0292807797
 70
         1
  0
VERTEX
  5
CF
100
AcDbEntity
  8
L1_120
  6
CONTINUOUS
 62
         7
100
AcDbVertex
100
AcDb2dVertex
 10
1246.3263585584
 20
-169.8323956273
 30
77.0292807797
 70
         1
  0
SEQEND
  5
D1
100
AcDbEntity
  8
L1_120
  6
CONTINUOUS
 62
         7
  0
LINE
  5
D2
100
AcDbEntity
  8
L1_120
  6
CENTER
 62
         1
100
AcDbLine
 10
1249.8277511607
 20
-190.6333613935
 30
12.5879792302
 11
1240.4308249528
 21
-187.4194233451
 31
13.7577570146
  0
POLYLINE
  5
D4
100
AcDbEntity
  8
L1_120
  6
CONTINUOUS
 62
         7
100
AcDb3dPolyline
 66
         1
 10
0.0
 20
0.0
 30
0.0
 70
         8
  0
VERTEX
  5
D6
100
AcDbEntity
  8
L1_120
  6
CONTINUOUS
 62
         7
100
AcDbVertex
100
AcDb3dPolylineVertex
 10
1244.3375717432
 20
-186.6342890987
 30
14.0435225102
 70
        32
  0
VERTEX
  5
D8
100
AcDbEntity
  8
L1_120
  6
CONTINUOUS
 62
         7
100
AcDbVertex
100
AcDb3dPolylineVertex
 10
1244.3375717432
 20
-186.6342890987
 30
14.0435225102
 70
        32
  0
SEQEND
  5
DA
100
AcDbEntity
  8
L1_120
  6
CONTINUOUS
 62
         7
  0
POLYLINE
  5
DC
100
AcDbEntity
  8
L1_120
  6
CONTINUOUS
 62
         7
100
AcDb2dPolyline
 66
         1
 10
0.0
 20
0.0
 30
77.0292807797
 70
         2
210
0.0
220
-0.3420201433256687
230
0.9396926207859084
  0
VERTEX
  5
DE
100
AcDbEntity
  8
L1_120
  6
CONTINUOUS
 62
         7
100
AcDbVertex
100
AcDb2dVertex
 10
1218.2120728441
 20
-246.8621751854
 30
77.0292807797
 70
         1
  0
VERTEX
  5
E0
100
AcDbEntity
  8
L1_120
  6
CONTINUOUS
 62
         7
100
AcDbVertex
100
AcDb2dVertex
 10
1217.8320717794
 20
-246.7692038404
 30
77.0292807797
 70
         1
  0
VERTEX
  5
E2
100
AcDbEntity
  8
L1_120
  6
CONTINUOUS
 62
         7
100
AcDbVertex
100
AcDb2dVertex
 10
1217.655003112
 20
-246.7542023426
 30
77.0292807797
 70
         1
  0
VERTEX
  5
E4
100
AcDbEntity
  8
L1_120
  6
CONTINUOUS
 62
         7
100
AcDbVertex
100
AcDb2dVertex
 10
1217.4703758419
 20
-246.756035482
 30
77.0292807797
 70
         1
  0
VERTEX
  5
E6
100
AcDbEntity
  8
L1_120
  6
CONTINUOUS
 62
         7
100
AcDbVertex
100
AcDb2dVertex
 10
1217.2793689923
 20
-246.7758725331
 30
77.0292807797
 70
         1
  0
VERTEX
  5
E8
100
AcDbEntity
  8
L1_120
  6
CONTINUOUS
 62
         7
100
AcDbVertex
100
AcDb2dVertex
 10
1217.0833842646
 20
-246.8146288044
 30
77.0292807797
 70
         1
  0
VERTEX
  5
EA
100
AcDbEntity
  8
L1_120
  6
CONTINUOUS
 62
         7
100
AcDbVertex
100
AcDb2dVertex
 10
1216.8840216325
 20
-246.8729106636
 30
77.0292807797
 70
         1
  0
VERTEX
  5
EC
100
AcDbEntity
  8
L1_120
  6
CONTINUOUS
 62
         7
100
AcDbVertex
100
AcDb2dVertex
 10
1216.6830424001
 20
-246.9509700242
 30
77.0292807797
 70
         1
  0
VERTEX
  5
EE
100
AcDbEntity
  8
L1_120
  6
CONTINUOUS
 62
         7
100
AcDbVertex
100
AcDb2dVertex
 10
1216.4823208734
 20
-247.0486725865
 30
77.0292807797
 70
         1
  0
VERTEX
  5
F0
100
AcDbEntity
  8
L1_120
  6
CONTINUOUS
 62
         7
100
AcDbVertex
100
AcDb2dVertex
 10
1216.2837870034
 20
-247.1654833431
 30
77.0292807797
 70
         1
  0
VERTEX
  5
F2
100
AcDbEntity
  8
L1_120
  6
CONTINUOUS
 62
         7
100
AcDbVertex
100
AcDb2dVertex
 10
1216.0893634238
 20
-247.3004715566
 30
77.0292807797
 70
         1
  0
VERTEX
  5
F4
100
AcDbEntity
  8
L1_120
  6
CONTINUOUS
 62
         7
100
AcDbVertex
100
AcDb2dVertex
 10
1215.9009010531
 20
-247.4523357395
 30
77.0292807797
 70
         1
  0
VERTEX
  5
F6
100
AcDbEntity
  8
L1_120
  6
CONTINUOUS
 62
         7
100
AcDbVertex
100
AcDb2dVertex
 10
1215.6605722527
 20
-247.6795182901
 30
77.0292807797
 70
         1
  0
VERTEX
  5
F8
100
AcDbEntity
  8
L1_120
  6
CONTINUOUS
 62
         7
100
AcDbVertex
100
AcDb2dVertex
 10
1215.437612173
 20
-247.9294269662
 30
77.0292807797
 70
         1
  0
VERTEX
  5
FA
100
AcDbEntity
  8
L1_120
  6
CONTINUOUS
 62
         7
100
AcDbVertex
100
AcDb2dVertex
 10
1215.2348338188
 20
-248.1968640783
 30
77.0292807797
 70
         1
  0
VERTEX
  5
FC
100
AcDbEntity
  8
L1_120
  6
CONTINUOUS
 62
         7
100
AcDbVertex
100
AcDb2dVertex
 10
1215.0541742516
 20
-248.4764110134
 30
77.0292807797
 70
         1
  0
VERTEX
  5
FE
100
AcDbEntity
  8
L1_120
  6
CONTINUOUS
 62
         7
100
AcDbVertex
100
AcDb2dVertex
 10
1214.8966769774
 20
-248.7627435233
 30
77.0292807797
 70
         1
  0
VERTEX
  5
100
100
AcDbEntity
  8
L1_120
  6
CONTINUOUS
 62
         7
100
AcDbVertex
100
AcDb2dVertex
 10
1214.7625466823
 20
-249.0508983579
 30
77.0292807797
 70
         1
  0
VERTEX
  5
102
100
AcDbEntity
  8
L1_120
  6
CONTINUOUS
 62
         7
100
AcDbVertex
100
AcDb2dVertex
 10
1214.6181476197
 20
-249.4331810338
 30
77.0292807797
 70
         1
  0
VERTEX
  5
104
100
AcDbEntity
  8
L1_120
  6
CONTINUOUS
 62
         7
100
AcDbVertex
100
AcDb2dVertex
 10
1214.512024794
 20
-249.8021756442
 30
77.0292807797
 70
         1
  0
VERTEX
  5
106
100
AcDbEntity
  8
L1_120
  6
CONTINUOUS
 62
         7
100
AcDbVertex
100
AcDb2dVertex
 10
1214.4400776727
 20
-250.1515386846
 30
77.0292807797
 70
         1
  0
VERTEX
  5
108
100
AcDbEntity
  8
L1_120
  6
CONTINUOUS
 62
         7
100
AcDbVertex
100
AcDb2dVertex
 10
1214.3975831289
 20
-250.4771657227
 30
77.0292807797
 70
         1
  0
VERTEX
  5
10A
100
AcDbEntity
  8
L1_120
  6
CONTINUOUS
 62
         7
100
AcDbVertex
100
AcDb2dVertex
 10
1214.379689006
 20
-250.7768695161
 30
77.0292807797
 70
         1
  0
VERTEX
  5
10C
100
AcDbEntity
  8
L1_120
  6
CONTINUOUS
 62
         7
100
AcDbVertex
100
AcDb2dVertex
 10
1214.3817618477
 20
-251.0499771298
 30
77.0292807797
 70
         1
  0
VERTEX
  5
10E
100
AcDbEntity
  8
L1_120
  6
CONTINUOUS
 62
         7
100
AcDbVertex
100
AcDb2dVertex
 10
1214.4087751198
 20
-251.3766249816
 30
77.0292807797
 70
         1
  0
VERTEX
  5
110
100
AcDbEntity
  8
L1_120
  6
CONTINUOUS
 62
         7
100
AcDbVertex
100
AcDb2dVertex
 10
1214.4557251316
 20
-251.6590094297
 30
77.0292807797
 70
         1
  0
VERTEX
  5
112
100
AcDbEntity
  8
L1_120
  6
CONTINUOUS
 62
         7
100
AcDbVertex
100
AcDb2dVertex
 10
1214.5157076848
 20
-251.9014879502
 30
77.0292807797
 70
         1
  0
VERTEX
  5
114
100
AcDbEntity
  8
L1_120
  6
CONTINUOUS
 62
         7
100
AcDbVertex
100
AcDb2dVertex
 10
1214.6083761028
 20
-252.1742905325
 30
77.0292807797
 70
         1
  0
VERTEX
  5
116
100
AcDbEntity
  8
L1_120
  6
CONTINUOUS
 62
         7
100
AcDbVertex
100
AcDb2dVertex
 10
1214.7063307758
 20
-252.3944428758
 30
77.0292807797
 70
         1
  0
VERTEX
  5
118
100
AcDbEntity
  8
L1_120
  6
CONTINUOUS
 62
         7
100
AcDbVertex
100
AcDb2dVertex
 10
1214.8038523996
 20
-252.5721306008
 30
77.0292807797
 70
         1
  0
VERTEX
  5
11A
100
AcDbEntity
  8
L1_120
  6
CONTINUOUS
 62
         7
100
AcDbVertex
100
AcDb2dVertex
 10
1214.929791495
 20
-252.7604990583
 30
77.0292807797
 70
         1
  0
VERTEX
  5
11C
100
AcDbEntity
  8
L1_120
  6
CONTINUOUS
 62
         7
100
AcDbVertex
100
AcDb2dVertex
 10
1215.0837299316
 20
-252.9461059981
 30
77.0292807797
 70
         1
  0
VERTEX
  5
11E
100
AcDbEntity
  8
L1_120
  6
CONTINUOUS
 62
         7
100
AcDbVertex
100
AcDb2dVertex
 10
1215.2143547741
 20
-253.0747653078
 30
77.0292807797
 70
         1
  0
VERTEX
  5
120
100
AcDbEntity
  8
L1_120
  6
CONTINUOUS
 62
         7
100
AcDbVertex
100
AcDb2dVertex
 10
1215.3593812726
 20
-253.1931329569
 30
77.0292807797
 70
         1
  0
VERTEX
  5
122
100
AcDbEntity
  8
L1_120
  6
CONTINUOUS
 62
         7
100
AcDbVertex
100
AcDb2dVertex
 10
1215.5068411973
 20
-253.2915506424
 30
77.0292807797
 70
         1
  0
VERTEX
  5
124
100
AcDbEntity
  8
L1_120
  6
CONTINUOUS
 62
         7
100
AcDbVertex
100
AcDb2dVertex
 10
1215.6836268891
 20
-253.3848642919
 30
77.0292807797
 70
         1
  0
VERTEX
  5
126
100
AcDbEntity
  8
L1_120
  6
CONTINUOUS
 62
         7
100
AcDbVertex
100
AcDb2dVertex
 10
1215.8179318408
 20
-253.4400235309
 30
77.0292807797
 70
         1
  0
VERTEX
  5
128
100
AcDbEntity
  8
L1_120
  6
CONTINUOUS
 62
         7
100
AcDbVertex
100
AcDb2dVertex
 10
1215.8179318408
 20
-253.4400235309
 30
77.0292807797
 70
         1
  0
VERTEX
  5
12A
100
AcDbEntity
  8
L1_120
  6
CONTINUOUS
 62
         7
100
AcDbVertex
100
AcDb2dVertex
 10
1216.1979329055
 20
-253.5329948759
 30
77.0292807797
 70
         1
  0
VERTEX
  5
12C
100
AcDbEntity
  8
L1_120
  6
CONTINUOUS
 62
         7
100
AcDbVertex
100
AcDb2dVertex
 10
1216.3750015728
 20
-253.5479963737
 30
77.0292807797
 70
         1
  0
VERTEX
  5
12E
100
AcDbEntity
  8
L1_120
  6
CONTINUOUS
 62
         7
100
AcDbVertex
100
AcDb2dVertex
 10
1216.559628843
 20
-253.5461632342
 30
77.0292807797
 70
         1
  0
VERTEX
  5
130
100
AcDbEntity
  8
L1_120
  6
CONTINUOUS
 62
         7
100
AcDbVertex
100
AcDb2dVertex
 10
1216.7506356926
 20
-253.5263261832
 30
77.0292807797
 70
         1
  0
VERTEX
  5
132
100
AcDbEntity
  8
L1_120
  6
CONTINUOUS
 62
         7
100
AcDbVertex
100
AcDb2dVertex
 10
1216.9466204203
 20
-253.4875699118
 30
77.0292807797
 70
         1
  0
VERTEX
  5
134
100
AcDbEntity
  8
L1_120
  6
CONTINUOUS
 62
         7
100
AcDbVertex
100
AcDb2dVertex
 10
1217.1459830524
 20
-253.4292880526
 30
77.0292807797
 70
         1
  0
VERTEX
  5
136
100
AcDbEntity
  8
L1_120
  6
CONTINUOUS
 62
         7
100
AcDbVertex
100
AcDb2dVertex
 10
1217.3469622848
 20
-253.3512286921
 30
77.0292807797
 70
         1
  0
VERTEX
  5
138
100
AcDbEntity
  8
L1_120
  6
CONTINUOUS
 62
         7
100
AcDbVertex
100
AcDb2dVertex
 10
1217.5476838115
 20
-253.2535261298
 30
77.0292807797
 70
         1
  0
VERTEX
  5
13A
100
AcDbEntity
  8
L1_120
  6
CONTINUOUS
 62
         7
100
AcDbVertex
100
AcDb2dVertex
 10
1217.7462176815
 20
-253.1367153731
 30
77.0292807797
 70
         1
  0
VERTEX
  5
13C
100
AcDbEntity
  8
L1_120
  6
CONTINUOUS
 62
         7
100
AcDbVertex
100
AcDb2dVertex
 10
1217.940641261
 20
-253.0017271597
 30
77.0292807797
 70
         1
  0
VERTEX
  5
13E
100
AcDbEntity
  8
L1_120
  6
CONTINUOUS
 62
         7
100
AcDbVertex
100
AcDb2dVertex
 10
1218.1291036318
 20
-252.8498629768
 30
77.0292807797
 70
         1
  0
VERTEX
  5
140
100
AcDbEntity
  8
L1_120
  6
CONTINUOUS
 62
         7
100
AcDbVertex
100
AcDb2dVertex
 10
1218.3694324321
 20
-252.6226804262
 30
77.0292807797
 70
         1
  0
VERTEX
  5
142
100
AcDbEntity
  8
L1_120
  6
CONTINUOUS
 62
         7
100
AcDbVertex
100
AcDb2dVertex
 10
1218.5923925119
 20
-252.3727717501
 30
77.0292807797
 70
         1
  0
VERTEX
  5
144
100
AcDbEntity
  8
L1_120
  6
CONTINUOUS
 62
         7
100
AcDbVertex
100
AcDb2dVertex
 10
1218.7951708661
 20
-252.105334638
 30
77.0292807797
 70
         1
  0
VERTEX
  5
146
100
AcDbEntity
  8
L1_120
  6
CONTINUOUS
 62
         7
100
AcDbVertex
100
AcDb2dVertex
 10
1218.9758304333
 20
-251.8257877029
 30
77.0292807797
 70
         1
  0
VERTEX
  5
148
100
AcDbEntity
  8
L1_120
  6
CONTINUOUS
 62
         7
100
AcDbVertex
100
AcDb2dVertex
 10
1219.1333277075
 20
-251.539455193
 30
77.0292807797
 70
         1
  0
VERTEX
  5
14A
100
AcDbEntity
  8
L1_120
  6
CONTINUOUS
 62
         7
100
AcDbVertex
100
AcDb2dVertex
 10
1219.2674580026
 20
-251.2513003584
 30
77.0292807797
 70
         1
  0
VERTEX
  5
14C
100
AcDbEntity
  8
L1_120
  6
CONTINUOUS
 62
         7
100
AcDbVertex
100
AcDb2dVertex
 10
1219.4118570652
 20
-250.8690176825
 30
77.0292807797
 70
         1
  0
VERTEX
  5
14E
100
AcDbEntity
  8
L1_120
  6
CONTINUOUS
 62
         7
100
AcDbVertex
100
AcDb2dVertex
 10
1219.5179798908
 20
-250.5000230721
 30
77.0292807797
 70
         1
  0
VERTEX
  5
150
100
AcDbEntity
  8
L1_120
  6
CONTINUOUS
 62
         7
100
AcDbVertex
100
AcDb2dVertex
 10
1219.5899270121
 20
-250.1506600317
 30
77.0292807797
 70
         1
  0
VERTEX
  5
152
100
AcDbEntity
  8
L1_120
  6
CONTINUOUS
 62
         7
100
AcDbVertex
100
AcDb2dVertex
 10
1219.632421556
 20
-249.8250329936
 30
77.0292807797
 70
         1
  0
VERTEX
  5
154
100
AcDbEntity
  8
L1_120
  6
CONTINUOUS
 62
         7
100
AcDbVertex
100
AcDb2dVertex
 10
1219.6503156789
 20
-249.5253292002
 30
77.0292807797
 70
         1
  0
VERTEX
  5
156
100
AcDbEntity
  8
L1_120
  6
CONTINUOUS
 62
         7
100
AcDbVertex
100
AcDb2dVertex
 10
1219.6482428372
 20
-249.2522215865
 30
77.0292807797
 70
         1
  0
VERTEX
  5
158
100
AcDbEntity
  8
L1_120
  6
CONTINUOUS
 62
         7
100
AcDbVertex
100
AcDb2dVertex
 10
1219.6212295651
 20
-248.9255737347
 30
77.0292807797
 70
         1
  0
VERTEX
  5
15A
100
AcDbEntity
  8
L1_120
  6
CONTINUOUS
 62
         7
100
AcDbVertex
100
AcDb2dVertex
 10
1219.5742795532
 20
-248.6431892866
 30
77.0292807797
 70
         1
  0
VERTEX
  5
15C
100
AcDbEntity
  8
L1_120
  6
CONTINUOUS
 62
         7
100
AcDbVertex
100
AcDb2dVertex
 10
1219.5142970001
 20
-248.4007107661
 30
77.0292807797
 70
         1
  0
VERTEX
  5
15E
100
AcDbEntity
  8
L1_120
  6
CONTINUOUS
 62
         7
100
AcDbVertex
100
AcDb2dVertex
 10
1219.4216285821
 20
-248.1279081838
 30
77.0292807797
 70
         1
  0
VERTEX
  5
160
100
AcDbEntity
  8
L1_120
  6
CONTINUOUS
 62
         7
100
AcDbVertex
100
AcDb2dVertex
 10
1219.3236739091
 20
-247.9077558405
 30
77.0292807797
 70
         1
  0
VERTEX
  5
162
100
AcDbEntity
  8
L1_120
  6
CONTINUOUS
 62
         7
100
AcDbVertex
100
AcDb2dVertex
 10
1219.2261522853
 20
-247.7300681155
 30
77.0292807797
 70
         1
  0
VERTEX
  5
164
100
AcDbEntity
  8
L1_120
  6
CONTINUOUS
 62
         7
100
AcDbVertex
100
AcDb2dVertex
 10
1219.1002131899
 20
-247.541699658
 30
77.0292807797
 70
         1
  0
VERTEX
  5
166
100
AcDbEntity
  8
L1_120
  6
CONTINUOUS
 62
         7
100
AcDbVertex
100
AcDb2dVertex
 10
1218.9462747533
 20
-247.3560927182
 30
77.0292807797
 70
         1
  0
VERTEX
  5
168
100
AcDbEntity
  8
L1_120
  6
CONTINUOUS
 62
         7
100
AcDbVertex
100
AcDb2dVertex
 10
1218.8156499108
 20
-247.2274334085
 30
77.0292807797
 70
         1
  0
VERTEX
  5
16A
100
AcDbEntity
  8
L1_120
  6
CONTINUOUS
 62
         7
100
AcDbVertex
100
AcDb2dVertex
 10
1218.6706234123
 20
-247.1090657594
 30
77.0292807797
 70
         1
  0
VERTEX
  5
16C
100
AcDbEntity
  8
L1_120
  6
CONTINUOUS
 62
         7
100
AcDbVertex
100
AcDb2dVertex
 10
1218.5231634876
 20
-247.0106480739
 30
77.0292807797
 70
         1
  0
VERTEX
  5
16E
100
AcDbEntity
  8
L1_120
  6
CONTINUOUS
 62
         7
100
AcDbVertex
100
AcDb2dVertex
 10
1218.3463777958
 20
-246.9173344244
 30
77.0292807797
 70
         1
  0
VERTEX
  5
170
100
AcDbEntity
  8
L1_120
  6
CONTINUOUS
 62
         7
100
AcDbVertex
100
AcDb2dVertex
 10
1218.2120728441
 20
-246.8621751854
 30
77.0292807797
 70
         1
  0
SEQEND
  5
172
100
AcDbEntity
  8
L1_120
  6
CONTINUOUS
 62
         7
  0
LINE
  5
173
100
AcDbEntity
  8
L1_120
  6
CENTER
 62
         1
100
AcDbLine
 10
1221.7134654464
 20
-263.0176768251
 30
-13.7577570146
 11
1212.3165392385
 21
-259.8037387767
 31
-12.5879792302
  0
ARC
  5
174
100
AcDbEntity
  8
L1_120
  6
CONTINUOUS
 62
         7
100
AcDbCircle
 10
1318.5508425579
 20
-335.7208944442
 30
115.6604805667
 40
2.5
210
0.0
220
-0.3420201433256687
230
0.9396926207859084
100
AcDbArc
 50
180.0
 51
261.702778
  0
LINE
  5
175
100
AcDbEntity
  8
L1_120
  6
CONTINUOUS
 62
         7
100
AcDbLine
 10
1316.0508425579
 20
-321.3045827182
 30
6.1380083302
 11
1316.0508425579
 21
-355.0326612934
 31
-6.1380083302
  0
ARC
  5
176
100
AcDbEntity
  8
L1_120
  6
CONTINUOUS
 62
         7
100
AcDbCircle
 10
1318.5508425579
 20
-299.8282229161
 30
115.6604805667
 40
2.5
210
0.0
220
-0.3420201433256687
230
0.9396926207859084
100
AcDbArc
 50
98.297222
 51
180.0
  0
LINE
  5
177
100
AcDbEntity
  8
L1_120
  6
CONTINUOUS
 62
         7
100
AcDbLine
 10
1317.4008425579
 20
-326.4224642459
 30
4.2752517916
 11
1320.2508425579
 21
-326.4224642459
 31
4.2752517916
  0
LINE
  5
178
100
AcDbEntity
  8
L1_120
  6
CONTINUOUS
 62
         7
100
AcDbLine
 10
1418.8508425579
 20
-371.1518345436
 30
-12.0049075943
 11
1318.0400719993
 21
-357.3367469688
 31
-6.9766269332
  0
LINE
  5
179
100
AcDbEntity
  8
L1_120
  6
CONTINUOUS
 62
         5
100
AcDbLine
 10
1322.7165279828
 20
-349.4449334552
 30
-4.1042417199
 11
1360.5508425579
 21
-349.4449334552
 31
-4.1042417199
  0
LINE
  5
17A
100
AcDbEntity
  8
L1_120
  6
CONTINUOUS
 62
         7
100
AcDbLine
 10
1418.8508425579
 20
-305.1854094679
 30
12.0049075943
 11
1318.0400719993
 21
-319.0004970427
 31
6.9766269332
  0
LINE
  5
17B
100
AcDbEntity
  8
L1_120
  6
CONTINUOUS
 62
         5
100
AcDbLine
 10
1322.7165279828
 20
-326.8923105563
 30
4.1042417199
 11
1360.5508425579
 21
-326.8923105563
 31
4.1042417199
  0
LINE
  5
17C
100
AcDbEntity
  8
L1_120
  6
CENTER
 62
         1
100
AcDbLine
 10
1315.9008425579
 20
-338.1686220058
 30
0.0
 11
1436.7508425579
 21
-338.1686220058
 31
0.0
  0
LINE
  5
17D
100
AcDbEntity
  8
L1_120
  6
CONTINUOUS
 62
         7
100
AcDbLine
 10
1322.2508425579
 20
-349.8825346126
 30
-4.2635155157
 11
1322.2508425579
 21
-326.4547093989
 31
4.2635155157
  0
LINE
  5
17E
100
AcDbEntity
  8
L1_120
  6
CONTINUOUS
 62
         7
100
AcDbLine
 10
1320.9972527194
 20
-326.2345257218
 30
4.3436558202
 11
1321.8508425579
 21
-326.2345257218
 31
4.3436558202
  0
LINE
  5
17F
100
AcDbEntity
  8
L1_120
  6
CONTINUOUS
 62
         7
100
AcDbLine
 10
1320.2508425579
 20
-349.9147797656
 30
-4.2752517916
 11
1320.2508425579
 21
-326.4224642459
 31
4.2752517916
  0
ARC
  5
180
100
AcDbEntity
  8
L1_120
  6
CONTINUOUS
 62
         7
100
AcDbCircle
 10
1321.8508425579
 20
-305.4745586802
 30
115.6604805667
 40
0.4
210
0.0
220
-0.3420201433256687
230
0.9396926207859084
100
AcDbArc
 50
45.0
 51
90.0
  0
LINE
  5
181
100
AcDbEntity
  8
L1_120
  6
CONTINUOUS
 62
         7
100
AcDbLine
 10
1320.9972527194
 20
-326.2345257218
 30
4.3436558202
 11
1320.2508425579
 21
-326.4224642459
 31
4.2752517916
  0
ARC
  5
182
100
AcDbEntity
  8
L1_120
  6
CONTINUOUS
 62
         7
100
AcDbCircle
 10
1317.4008425579
 20
-303.7745586802
 30
115.6604805667
 40
1.5
210
0.0
220
-0.3420201433256687
230
0.9396926207859084
100
AcDbArc
 50
205.8419327625
 51
270.0
  0
LINE
  5
183
100
AcDbEntity
  8
L1_120
  6
CONTINUOUS
 62
         7
100
AcDbLine
 10
1322.1336852703
 20
-326.3446175603
 30
4.303585668
 11
1324.3201865194
 21
-328.3992566494
 31
3.5557581974
  0
LINE
  5
184
100
AcDbEntity
  8
L1_120
  6
CONTINUOUS
 62
         7
100
AcDbLine
 10
1317.4008425579
 20
-349.9147797656
 30
-4.2752517916
 11
1320.2508425579
 21
-349.9147797656
 31
-4.2752517916
  0
LINE
  5
185
100
AcDbEntity
  8
L1_120
  6
CONTINUOUS
 62
         7
100
AcDbLine
 10
1320.9972527194
 20
-350.1027182897
 30
-4.3436558202
 11
1321.8508425579
 21
-350.1027182897
 31
-4.3436558202
  0
LINE
  5
186
100
AcDbEntity
  8
L1_120
  6
CONTINUOUS
 62
         7
100
AcDbLine
 10
1320.9972527194
 20
-350.1027182897
 30
-4.3436558202
 11
1320.2508425579
 21
-349.9147797656
 31
-4.2752517916
  0
ARC
  5
187
100
AcDbEntity
  8
L1_120
  6
CONTINUOUS
 62
         7
100
AcDbCircle
 10
1317.4008425579
 20
-331.7745586802
 30
115.6604805667
 40
1.5
210
0.0
220
-0.3420201433256687
230
0.9396926207859084
100
AcDbArc
 50
90.0
 51
154.1580672375
  0
ARC
  5
188
100
AcDbEntity
  8
L1_120
  6
CONTINUOUS
 62
         7
100
AcDbCircle
 10
1321.8508425579
 20
-330.0745586802
 30
115.6604805667
 40
0.4
210
0.0
220
-0.3420201433256687
230
0.9396926207859084
100
AcDbArc
 50
270.0
 51
315.0
  0
LINE
  5
189
100
AcDbEntity
  8
L1_120
  6
CONTINUOUS
 62
         7
100
AcDbLine
 10
1322.1336852703
 20
-349.9926264512
 30
-4.303585668
 11
1324.3201865194
 21
-347.9379873621
 31
-3.5557581974
  0
LINE
  5
18A
100
AcDbEntity
  8
L1_120
  6
CONTINUOUS
 62
         7
100
AcDbLine
 10
1324.3201865194
 20
-347.9379873621
 30
-3.5557581974
 11
1324.3201865194
 21
-328.3992566494
 31
3.5557581974
  0
LINE
  5
18B
100
AcDbEntity
  8
L1_120
  6
CONTINUOUS
 62
         7
100
AcDbLine
 10
1360.5508425579
 20
-326.8923105563
 30
4.1042417199
 11
1360.5508425579
 21
-349.4449334552
 31
-4.1042417199
  0
LINE
  5
18C
100
AcDbEntity
  8
L1_120
  6
CONTINUOUS
 62
         5
100
AcDbLine
 10
1360.5508425579
 20
-326.8923105563
 30
4.1042417199
 11
1366.9508425579
 21
-328.3992566494
 31
3.5557581974
  0
LINE
  5
18D
100
AcDbEntity
  8
L1_120
  6
CONTINUOUS
 62
         5
100
AcDbLine
 10
1360.5508425579
 20
-349.4449334552
 30
-4.1042417199
 11
1366.9508425579
 21
-347.9379873621
 31
-3.5557581974
  0
ARC
  5
18E
100
AcDbEntity
  8
L1_120
  6
CONTINUOUS
 62
         7
100
AcDbCircle
 10
1318.4008425579
 20
-229.0358093767
 30
76.830285162
 40
2.5
210
0.0
220
-0.3420201433256687
230
0.9396926207859084
100
AcDbArc
 50
180.0
 51
261.702778
  0
ARC
  5
18F
100
AcDbEntity
  8
L1_120
  6
CONTINUOUS
 62
         7
100
AcDbCircle
 10
1318.4008425579
 20
-193.1431378487
 30
76.830285162
 40
2.5
210
0.0
220
-0.3420201433256687
230
0.9396926207859084
100
AcDbArc
 50
98.297222
 51
180.0
  0
LINE
  5
190
100
AcDbEntity
  8
L1_120
  6
CONTINUOUS
 62
         7
100
AcDbLine
 10
1315.9008425579
 20
-207.7726865347
 30
6.1380083302
 11
1315.9008425579
 21
-241.5007651099
 31
-6.1380083302
  0
LINE
  5
191
100
AcDbEntity
  8
L1_120
  6
CONTINUOUS
 62
         7
100
AcDbLine
 10
1418.0151234302
 20
-257.5259675498
 30
-11.9707050164
 11
1318.0400719993
 21
-243.8254067549
 31
-6.9841086943
  0
LINE
  5
192
100
AcDbEntity
  8
L1_120
  6
CONTINUOUS
 62
         7
100
AcDbLine
 10
1418.063496447
 20
-191.7408550664
 30
11.9731177854
 11
1318.0400719993
 21
-205.4480448897
 31
6.9841086943
  0
LINE
  5
193
100
AcDbEntity
  8
L1_120
  6
CENTER
 62
         1
100
AcDbLine
 10
1310.9546999898
 20
-224.6367258223
 30
0.0
 11
1384.8759329857
 21
-224.6367258223
 31
0.0
  0
LINE
  5
194
100
AcDbEntity
  8
L1_120
  6
CONTINUOUS
 62
         7
100
AcDbLine
 10
1315.9008425579
 20
-207.7726865347
 30
6.1380083302
 11
1315.9008425579
 21
-241.5007651099
 31
-6.1380083302
  0
LINE
  5
195
100
AcDbEntity
  8
L1_120
  6
CONTINUOUS
 62
         4
100
AcDbLine
 10
1419.5208425579
 20
-270.4467410856
 30
-16.6734819871
 11
1419.5208425579
 21
-237.6514686202
 31
-4.7369789851
  0
LINE
  5
196
100
AcDbEntity
  8
L1_120
  6
CONTINUOUS
 62
         7
100
AcDbLine
 10
1419.0208425579
 20
-269.9768947752
 30
-16.5024719155
 11
1419.5208425579
 21
-270.4467410856
 31
-16.6734819871
  0
LINE
  5
197
100
AcDbEntity
  8
L1_120
  6
CENTER
 62
         1
100
AcDbLine
 10
1417.5008425579
 20
-187.3074364616
 30
13.5867501936
 11
1417.5008425579
 21
-260.5997531805
 31
-13.0894714925
  0
LINE
  5
198
100
AcDbEntity
  8
L1_120
  6
CONTINUOUS
 62
         7
100
AcDbLine
 10
1419.0208425579
 20
-268.0975095336
 30
-15.8184316288
 11
1419.0208425579
 21
-269.9768947752
 31
-16.5024719155
  0
LINE
  5
199
100
AcDbEntity
  8
L1_120
  6
CONTINUOUS
 62
         7
100
AcDbLine
 10
1418.0151234302
 20
-191.7474840948
 30
11.9707050164
 11
1418.2208425579
 21
-191.7474840948
 31
11.9707050164
  0
ARC
  5
19A
100
AcDbEntity
  8
L1_120
  6
CONTINUOUS
 62
         7
100
AcDbCircle
 10
1418.2208425579
 20
-175.2894736127
 30
76.830285162
 40
0.8
210
0.0
220
-0.3420201433256687
230
0.9396926207859084
100
AcDbArc
 50
270.0
 51
360.0
  0
LINE
  5
19B
100
AcDbEntity
  8
L1_120
  6
CONTINUOUS
 62
         7
100
AcDbLine
 10
1418.0151234302
 20
-257.5259675498
 30
-11.9707050164
 11
1418.0151234302
 21
-191.7474840948
 31
11.9707050164
  0
ARC
  5
19C
100
AcDbEntity
  8
L1_120
  6
CONTINUOUS
 62
         7
100
AcDbCircle
 10
1418.2208425579
 20
-246.8894736127
 30
76.830285162
 40
0.8
210
0.0
220
-0.3420201433256687
230
0.9396926207859084
100
AcDbArc
 50
0.0
 51
90.0
  0
LINE
  5
19D
100
AcDbEntity
  8
L1_120
  6
CONTINUOUS
 62
         7
100
AcDbLine
 10
1418.0151234302
 20
-257.5259675498
 30
-11.9707050164
 11
1418.2208425579
 21
-257.5259675498
 31
-11.9707050164
  0
CIRCLE
  5
19E
100
AcDbEntity
  8
L1_120
  6
CONTINUOUS
 62
         7
100
AcDbCircle
 10
1428.6008425579
 20
-210.7468680594
 30
76.7069895068
 40
4.76
210
0.0
220
-0.3420201433256687
230
0.9396926207859084
  0
LINE
  5
19F
100
AcDbEntity
  8
L1_120
  6
CONTINUOUS
 62
         7
100
AcDbLine
 10
1436.6008425579
 20
-237.2909762411
 30
-4.7369789851
 11
1432.1371129567
 21
-237.2909762411
 31
-4.7369789851
  0
LINE
  5
1A0
100
AcDbEntity
  8
L1_120
  6
CONTINUOUS
 62
         7
100
AcDbLine
 10
1425.0645721591
 20
-237.2909762411
 30
-4.7369789851
 11
1419.0208425579
 21
-237.2909762411
 31
-4.7369789851
  0
LINE
  5
1A1
100
AcDbEntity
  8
L1_120
  6
CONTINUOUS
 62
         7
100
AcDbLine
 10
1425.0645721591
 20
-237.2909762411
 30
-4.7369789851
 11
1426.7258425579
 21
-236.3324012818
 31
-4.3880862326
  0
LINE
  5
1A2
100
AcDbEntity
  8
L1_120
  6
CONTINUOUS
 62
         7
100
AcDbLine
 10
1435.4807483929
 20
-236.3324012818
 30
-4.3880862326
 11
1419.0208425579
 21
-236.3324012818
 31
-4.3880862326
  0
LINE
  5
1A3
100
AcDbEntity
  8
L1_120
  6
CONTINUOUS
 62
         7
100
AcDbLine
 10
1430.4758425579
 20
-236.3324012818
 30
-4.3880862326
 11
1432.1371129567
 21
-237.2909762411
 31
-4.7369789851
  0
LINE
  5
1A4
100
AcDbEntity
  8
L1_120
  6
CONTINUOUS
 62
         7
100
AcDbLine
 10
1436.5008425579
 20
-237.2909762411
 30
-4.7369789851
 11
1435.4807483929
 21
-236.3324012818
 31
-4.3880862326
  0
LINE
  5
1A5
100
AcDbEntity
  8
L1_120
  6
CONTINUOUS
 62
         7
100
AcDbLine
 10
1432.1371129567
 20
-237.2909762411
 30
-4.7369789851
 11
1432.1371129567
 21
-270.0862487065
 31
-16.6734819871
  0
LINE
  5
1A6
100
AcDbEntity
  8
L1_120
  6
CONTINUOUS
 62
         7
100
AcDbLine
 10
1430.4758425579
 20
-236.3324012818
 30
-4.3880862326
 11
1430.4758425579
 21
-267.3823870624
 31
-15.6893568311
  0
LINE
  5
1A7
100
AcDbEntity
  8
L1_120
  6
CONTINUOUS
 62
         7
100
AcDbLine
 10
1426.7258425579
 20
-236.3324012818
 30
-4.3880862326
 11
1426.7258425579
 21
-267.3823870624
 31
-15.6893568311
  0
LINE
  5
1A8
100
AcDbEntity
  8
L1_120
  6
CONTINUOUS
 62
         7
100
AcDbLine
 10
1425.0645721591
 20
-237.2909762411
 30
-4.7369789851
 11
1425.0645721591
 21
-270.0862487065
 31
-16.6734819871
  0
LINE
  5
1A9
100
AcDbEntity
  8
L1_120
  6
CONTINUOUS
 62
         7
100
AcDbLine
 10
1436.6008425579
 20
-211.2614906453
 30
4.7369789851
 11
1432.1371129567
 21
-211.2614906453
 31
4.7369789851
  0
LINE
  5
1AA
100
AcDbEntity
  8
L1_120
  6
CONTINUOUS
 62
         7
100
AcDbLine
 10
1425.0645721591
 20
-211.2614906453
 30
4.7369789851
 11
1426.7258425579
 21
-212.2200656046
 31
4.3880862326
  0
LINE
  5
1AB
100
AcDbEntity
  8
L1_120
  6
CONTINUOUS
 62
         7
100
AcDbLine
 10
1425.0645721591
 20
-211.2614906453
 30
4.7369789851
 11
1419.0208425579
 21
-211.2614906453
 31
4.7369789851
  0
LINE
  5
1AC
100
AcDbEntity
  8
L1_120
  6
CONTINUOUS
 62
         7
100
AcDbLine
 10
1435.4807483929
 20
-212.2200656046
 30
4.3880862326
 11
1421.7209367228
 21
-212.2200656046
 31
4.3880862326
  0
LINE
  5
1AD
100
AcDbEntity
  8
L1_120
  6
CONTINUOUS
 62
         7
100
AcDbLine
 10
1435.4807483929
 20
-212.2200656046
 30
4.3880862326
 11
1419.0208425579
 21
-212.2200656046
 31
4.3880862326
  0
LINE
  5
1AE
100
AcDbEntity
  8
L1_120
  6
CONTINUOUS
 62
         7
100
AcDbLine
 10
1430.4758425579
 20
-212.2200656046
 30
4.3880862326
 11
1432.1371129567
 21
-211.2614906453
 31
4.7369789851
  0
LINE
  5
1AF
100
AcDbEntity
  8
L1_120
  6
CONTINUOUS
 62
         7
100
AcDbLine
 10
1436.5008425579
 20
-211.2614906453
 30
4.7369789851
 11
1435.4807483929
 21
-212.2200656046
 31
4.3880862326
  0
LINE
  5
1B0
100
AcDbEntity
  8
L1_120
  6
CONTINUOUS
 62
         7
100
AcDbLine
 10
1432.1371129567
 20
-178.4662181799
 30
16.6734819871
 11
1432.1371129567
 21
-211.2614906453
 31
4.7369789851
  0
LINE
  5
1B1
100
AcDbEntity
  8
L1_120
  6
CONTINUOUS
 62
         7
100
AcDbLine
 10
1430.4758425579
 20
-181.1700798241
 30
15.6893568311
 11
1430.4758425579
 21
-212.2200656046
 31
4.3880862326
  0
LINE
  5
1B2
100
AcDbEntity
  8
L1_120
  6
CONTINUOUS
 62
         7
100
AcDbLine
 10
1426.7258425579
 20
-181.1700798241
 30
15.6893568311
 11
1426.7258425579
 21
-212.2200656046
 31
4.3880862326
  0
LINE
  5
1B3
100
AcDbEntity
  8
L1_120
  6
CONTINUOUS
 62
         7
100
AcDbLine
 10
1425.0645721591
 20
-178.4662181799
 30
16.6734819871
 11
1425.0645721591
 21
-211.2614906453
 31
4.7369789851
  0
LINE
  5
1B4
100
AcDbEntity
  8
L1_120
  6
CONTINUOUS
 62
         7
100
AcDbLine
 10
1436.6008425579
 20
-257.5648445346
 30
-12.1160635773
 11
1436.6008425579
 21
-269.6164023961
 31
-16.5024719155
  0
LINE
  5
1B5
100
AcDbEntity
  8
L1_120
  6
CONTINUOUS
 62
         7
100
AcDbLine
 10
1434.1008425579
 20
-270.0862487065
 30
-16.6734819871
 11
1436.1008425579
 21
-270.0862487065
 31
-16.6734819871
  0
LINE
  5
1B6
100
AcDbEntity
  8
L1_120
  6
CONTINUOUS
 62
         7
100
AcDbLine
 10
1436.6008425579
 20
-178.9360644903
 30
16.5024719155
 11
1436.6008425579
 21
-190.9876223519
 31
12.1160635773
  0
LINE
  5
1B7
100
AcDbEntity
  8
L1_120
  6
CONTINUOUS
 62
         7
100
AcDbLine
 10
1434.1008425579
 20
-178.4662181799
 30
16.6734819871
 11
1436.1008425579
 21
-178.4662181799
 31
16.6734819871
  0
LINE
  5
1B8
100
AcDbEntity
  8
L1_120
  6
CONTINUOUS
 62
         7
100
AcDbLine
 10
1436.1008425579
 20
-178.4662181799
 30
16.6734819871
 11
1436.6008425579
 21
-178.9360644903
 31
16.5024719155
  0
LINE
  5
1B9
100
AcDbEntity
  8
L1_120
  6
CONTINUOUS
 62
         7
100
AcDbLine
 10
1436.6008425579
 20
-269.6164023961
 30
-16.5024719155
 11
1436.1008425579
 21
-270.0862487065
 31
-16.6734819871
  0
LINE
  5
1BA
100
AcDbEntity
  8
L1_120
  6
CONTINUOUS
 62
         7
100
AcDbLine
 10
1436.6008425579
 20
-179.8757571111
 30
16.1604517721
 11
1436.6008425579
 21
-268.6767097754
 31
-16.1604517721
  0
LINE
  5
1BB
100
AcDbEntity
  8
L1_120
  6
CONTINUOUS
 62
         7
100
AcDbLine
 10
1430.4772309327
 20
-181.1678344647
 30
15.6901740751
 11
1432.1371129567
 21
-178.4662181799
 31
16.6734819871
  0
LINE
  5
1BC
100
AcDbEntity
  8
L1_120
  6
CONTINUOUS
 62
         7
100
AcDbLine
 10
1427.1574668849
 20
-181.4027576199
 30
15.6046690392
 11
1430.0442182308
 21
-181.4027576199
 31
15.6046690392
  0
LINE
  5
1BD
100
AcDbEntity
  8
L1_120
  6
CONTINUOUS
 62
         7
100
AcDbLine
 10
1422.6183930364
 20
-178.4662181799
 30
16.6734819871
 11
1425.0645721591
 21
-178.4662181799
 31
16.6734819871
  0
ARC
  5
1BE
100
AcDbEntity
  8
L1_120
  6
CONTINUOUS
 62
         7
100
AcDbCircle
 10
1427.1574668849
 20
-164.6257215843
 30
76.7069895068
 40
0.5
210
0.0
220
-0.3420201433256687
230
0.9396926207859084
100
AcDbArc
 50
210.0
 51
270.0
  0
LINE
  5
1BF
100
AcDbEntity
  8
L1_120
  6
CONTINUOUS
 62
         7
100
AcDbLine
 10
1426.724454183
 20
-181.1678344647
 30
15.6901740751
 11
1425.0645721591
 21
-178.4662181799
 31
16.6734819871
  0
ARC
  5
1C0
100
AcDbEntity
  8
L1_120
  6
CONTINUOUS
 62
         7
100
AcDbCircle
 10
1430.0442182308
 20
-164.6257215843
 30
76.7069895068
 40
0.5
210
0.0
220
-0.3420201433256687
230
0.9396926207859084
100
AcDbArc
 50
270.0
 51
330.0
  0
LINE
  5
1C1
100
AcDbEntity
  8
L1_120
  6
CONTINUOUS
 62
         7
100
AcDbLine
 10
1432.1371129567
 20
-178.4662181799
 30
16.6734819871
 11
1435.1008425579
 21
-178.4662181799
 31
16.6734819871
  0
LINE
  5
1C2
100
AcDbEntity
  8
L1_120
  6
CONTINUOUS
 62
         7
100
AcDbLine
 10
1430.4772309327
 20
-267.3846324218
 30
-15.6901740751
 11
1432.1371129567
 21
-270.0862487065
 31
-16.6734819871
  0
LINE
  5
1C3
100
AcDbEntity
  8
L1_120
  6
CENTER
 62
         1
100
AcDbLine
 10
1424.2898372993
 20
-270.9084797497
 30
-16.9727496125
 11
1432.6986718677
 21
-270.9084797497
 31
-16.9727496125
  0
LINE
  5
1C4
100
AcDbEntity
  8
L1_120
  6
CONTINUOUS
 62
         7
100
AcDbLine
 10
1427.1574668849
 20
-267.1497092666
 30
-15.6046690392
 11
1430.0442182308
 21
-267.1497092666
 31
-15.6046690392
  0
ARC
  5
1C5
100
AcDbEntity
  8
L1_120
  6
CONTINUOUS
 62
         7
100
AcDbCircle
 10
1427.1574668849
 20
-256.8757215843
 30
76.7069895068
 40
0.5
210
0.0
220
-0.3420201433256687
230
0.9396926207859084
100
AcDbArc
 50
90.0
 51
150.0
  0
LINE
  5
1C6
100
AcDbEntity
  8
L1_120
  6
CONTINUOUS
 62
         7
100
AcDbLine
 10
1422.6183930364
 20
-270.0862487065
 30
-16.6734819871
 11
1425.0645721591
 21
-270.0862487065
 31
-16.6734819871
  0
LINE
  5
1C7
100
AcDbEntity
  8
L1_120
  6
CONTINUOUS
 62
         7
100
AcDbLine
 10
1426.724454183
 20
-267.3846324218
 30
-15.6901740751
 11
1425.0645721591
 21
-270.0862487065
 31
-16.6734819871
  0
ARC
  5
1C8
100
AcDbEntity
  8
L1_120
  6
CONTINUOUS
 62
         7
100
AcDbCircle
 10
1430.0442182308
 20
-256.8757215843
 30
76.7069895068
 40
0.5
210
0.0
220
-0.3420201433256687
230
0.9396926207859084
100
AcDbArc
 50
30.0
 51
90.0
  0
LINE
  5
1C9
100
AcDbEntity
  8
L1_120
  6
CONTINUOUS
 62
         7
100
AcDbLine
 10
1432.1371129567
 20
-270.0862487065
 30
-16.6734819871
 11
1435.1008425579
 21
-270.0862487065
 31
-16.6734819871
  0
LINE
  5
1CA
100
AcDbEntity
  8
L1_120
  6
CENTER
 62
         1
100
AcDbLine
 10
1428.6008425579
 20
-172.5881934151
 30
18.8129080378
 11
1428.6008425579
 21
-275.9570312135
 31
-18.8102720715
  0
LINE
  5
1CB
100
AcDbEntity
  8
L1_120
  6
CONTINUOUS
 62
         4
100
AcDbLine
 10
1436.1008425579
 20
-211.2614906453
 30
4.7369789851
 11
1436.1008425579
 21
-178.4662181799
 31
16.6734819871
  0
LINE
  5
1CC
100
AcDbEntity
  8
L1_120
  6
CONTINUOUS
 62
         4
100
AcDbLine
 10
1436.1008425579
 20
-270.0862487065
 30
-16.6734819871
 11
1436.1008425579
 21
-237.2909762411
 31
-4.7369789851
  0
CIRCLE
  5
1CD
100
AcDbEntity
  8
L1_120
  6
CONTINUOUS
 62
         7
100
AcDbCircle
 10
1428.6008425579
 20
-181.4517274324
 30
76.7069895068
 40
1.5320888862
210
0.0
220
-0.3420201433256687
230
0.9396926207859084
  0
CIRCLE
  5
1CE
100
AcDbEntity
  8
L1_120
  6
CONTINUOUS
 62
         7
100
AcDbCircle
 10
1428.6008425579
 20
-191.4872980325
 30
76.7069895068
 40
1.8126155741
210
0.0
220
-0.3420201433256687
230
0.9396926207859084
  0
CIRCLE
  5
1CF
100
AcDbEntity
  8
L1_120
  6
CONTINUOUS
 62
         7
100
AcDbCircle
 10
1428.6008425579
 20
-230.014145136
 30
76.7069895068
 40
1.8126155741
210
0.0
220
-0.3420201433256687
230
0.9396926207859084
  0
CIRCLE
  5
1D0
100
AcDbEntity
  8
L1_120
  6
CONTINUOUS
 62
         7
100
AcDbCircle
 10
1428.6008425579
 20
-240.0497157361
 30
76.7069895068
 40
1.5320888862
210
0.0
220
-0.3420201433256687
230
0.9396926207859084
  0
LINE
  5
1D1
100
AcDbEntity
  8
L1_120
  6
CONTINUOUS
 62
         4
100
AcDbLine
 10
1419.5208425579
 20
-211.2614906453
 30
4.7369789851
 11
1419.5208425579
 21
-178.4662181799
 31
16.6734819871
  0
LINE
  5
1D2
100
AcDbEntity
  8
L1_120
  6
CONTINUOUS
 62
         4
100
AcDbLine
 10
1419.5208425579
 20
-270.0862487065
 30
-16.6734819871
 11
1419.5208425579
 21
-237.2909762411
 31
-4.7369789851
  0
LINE
  5
1D3
100
AcDbEntity
  8
L1_120
  6
CONTINUOUS
 62
         7
100
AcDbLine
 10
1419.5208425579
 20
-178.4662181799
 30
16.6734819871
 11
1419.0208425579
 21
-178.9360644903
 31
16.5024719155
  0
LINE
  5
1D4
100
AcDbEntity
  8
L1_120
  6
CONTINUOUS
 62
         7
100
AcDbLine
 10
1419.0208425579
 20
-269.6164023961
 30
-16.5024719155
 11
1419.5208425579
 21
-270.0862487065
 31
-16.6734819871
  0
LINE
  5
1D5
100
AcDbEntity
  8
L1_120
  6
CONTINUOUS
 62
         7
100
AcDbLine
 10
1419.0208425579
 20
-179.8757571111
 30
16.1604517721
 11
1419.0208425579
 21
-268.6767097754
 31
-16.1604517721
  0
LINE
  5
1D6
100
AcDbEntity
  8
L1_120
  6
CONTINUOUS
 62
         7
100
AcDbLine
 10
1419.5208425579
 20
-178.4662181799
 30
16.6734819871
 11
1421.4232920886
 21
-178.4662181799
 31
16.6734819871
  0
LINE
  5
1D7
100
AcDbEntity
  8
L1_120
  6
CONTINUOUS
 62
         7
100
AcDbLine
 10
1419.0208425579
 20
-178.9360644903
 30
16.5024719155
 11
1419.0208425579
 21
-180.8154497319
 31
15.8184316288
  0
LINE
  5
1D8
100
AcDbEntity
  8
L1_120
  6
CONTINUOUS
 62
         7
100
AcDbLine
 10
1419.5208425579
 20
-270.0862487065
 30
-16.6734819871
 11
1421.4232920886
 21
-270.0862487065
 31
-16.6734819871
  0
LINE
  5
1D9
100
AcDbEntity
  8
L1_120
  6
CONTINUOUS
 62
         7
100
AcDbLine
 10
1419.0208425579
 20
-267.7370171546
 30
-15.8184316288
 11
1419.0208425579
 21
-269.6164023961
 31
-16.5024719155
  0
LINE
  5
1DA
100
AcDbEntity
  8
L1_120
  6
CONTINUOUS
 62
         7
100
AcDbLine
 10
1422.4276496379
 20
-178.5976424369
 30
16.6256474695
 11
1422.4023293382
 21
-178.6731051395
 31
16.598181292
  0
ARC
  5
1DB
100
AcDbEntity
  8
L1_120
  6
CONTINUOUS
 62
         7
100
AcDbCircle
 10
1422.0208425579
 20
-162.1006037683
 30
76.7069895068
 40
0.4
210
0.0
220
-0.3420201433256687
230
0.9396926207859084
100
AcDbArc
 50
197.5000000001
 51
342.4999999999
  0
LINE
  5
1DC
100
AcDbEntity
  8
L1_120
  6
CONTINUOUS
 62
         7
100
AcDbLine
 10
1421.6140354788
 20
-178.5976424393
 30
16.6256474686
 11
1421.6393557776
 21
-178.6731051395
 31
16.598181292
  0
ARC
  5
1DD
100
AcDbEntity
  8
L1_120
  6
CONTINUOUS
 62
         7
100
AcDbCircle
 10
1421.4232920886
 20
-162.2007215198
 30
76.7069895068
 40
0.2
210
0.0
220
-0.3420201433256687
230
0.9396926207859084
100
AcDbArc
 50
17.4999999997
 51
90.0459929054
  0
ARC
  5
1DE
100
AcDbEntity
  8
L1_120
  6
CONTINUOUS
 62
         7
100
AcDbCircle
 10
1422.6183930364
 20
-162.2007215198
 30
76.7069895068
 40
0.2
210
0.0
220
-0.3420201433256687
230
0.9396926207859084
100
AcDbArc
 50
89.9540070946
 51
162.5000000003
  0
LINE
  5
1DF
100
AcDbEntity
  8
L1_120
  6
CONTINUOUS
 62
         7
100
AcDbLine
 10
1421.569901029
 20
-211.2614906453
 30
4.7369789851
 11
1421.569901029
 21
-178.5263245307
 31
16.6516050645
  0
LINE
  5
1E0
100
AcDbEntity
  8
L1_120
  6
CONTINUOUS
 62
         7
100
AcDbLine
 10
1422.4717840868
 20
-211.2614906453
 30
4.7369789851
 11
1422.4717840868
 21
-178.5263245401
 31
16.6516050611
  0
LINE
  5
1E1
100
AcDbEntity
  8
L1_120
  6
CONTINUOUS
 62
         7
100
AcDbLine
 10
1422.4276496379
 20
-269.9548244496
 30
-16.6256474695
 11
1422.4023293382
 21
-269.8793617469
 31
-16.598181292
  0
ARC
  5
1E2
100
AcDbEntity
  8
L1_120
  6
CONTINUOUS
 62
         7
100
AcDbCircle
 10
1422.0208425579
 20
-259.4008394002
 30
76.7069895068
 40
0.4
210
0.0
220
-0.3420201433256687
230
0.9396926207859084
100
AcDbArc
 50
17.5000000001
 51
162.4999999999
  0
LINE
  5
1E3
100
AcDbEntity
  8
L1_120
  6
CONTINUOUS
 62
         7
100
AcDbLine
 10
1421.6140354788
 20
-269.9548244471
 30
-16.6256474686
 11
1421.6393557776
 21
-269.8793617469
 31
-16.598181292
  0
ARC
  5
1E4
100
AcDbEntity
  8
L1_120
  6
CONTINUOUS
 62
         7
100
AcDbCircle
 10
1421.4232920886
 20
-259.3007216487
 30
76.7069895068
 40
0.2
210
0.0
220
-0.3420201433256687
230
0.9396926207859084
100
AcDbArc
 50
269.9540070946
 51
342.5000000003
  0
ARC
  5
1E5
100
AcDbEntity
  8
L1_120
  6
CONTINUOUS
 62
         7
100
AcDbCircle
 10
1422.6183930364
 20
-259.3007216487
 30
76.7069895068
 40
0.2
210
0.0
220
-0.3420201433256687
230
0.9396926207859084
100
AcDbArc
 50
197.4999999997
 51
270.0459929054
  0
LINE
  5
1E6
100
AcDbEntity
  8
L1_120
  6
CONTINUOUS
 62
         7
100
AcDbLine
 10
1422.4717840868
 20
-237.2909762411
 30
-4.7369789851
 11
1422.4717840868
 21
-270.0261423463
 31
-16.6516050611
  0
LINE
  5
1E7
100
AcDbEntity
  8
L1_120
  6
CONTINUOUS
 62
         7
100
AcDbLine
 10
1421.5699010289
 20
-237.2909762411
 30
-4.7369789851
 11
1421.5699010289
 21
-270.0261423557
 31
-16.6516050645
  0
LINE
  5
1E8
100
AcDbEntity
  8
L1_120
  6
CENTER
 62
         1
100
AcDbLine
 10
1315.9008425579
 20
-338.1686220058
 30
0.0
 11
1493.8508425579
 21
-338.1686220058
 31
0.0
  0
LINE
  5
1E9
100
AcDbEntity
  8
L1_120
  6
CENTER
 62
         1
100
AcDbLine
 10
1247.7456271867
 20
-182.1712167841
 30
15.6679479861
 11
1214.3986632125
 21
-268.2658833861
 31
-15.6679479861
  0
LINE
  5
1EA
100
AcDbEntity
  8
L1_120
  6
CENTER
 62
         1
100
AcDbLine
 10
1182.3221451996
 20
-225.2185500851
 30
0.0
 11
1279.8221451996
 21
-225.2185500851
 31
0.0
  0
LINE
  5
1EB
100
AcDbEntity
  8
L1_120
  6
CENTER
 62
         1
100
AcDbLine
 10
1231.0721451996
 20
-173.3398836769
 30
0.0
 11
1231.0721451996
 21
-277.0972164933
 31
0.0
  0
LINE
  5
1EC
100
AcDbEntity
  8
L1_120
  6
CONTINUOUS
 62
         7
100
AcDbLine
 10
1315.9008425579
 20
-213.0420517268
 30
0.0
 11
1315.9008425579
 21
-236.2313999178
 31
0.0
  0
LINE
  5
1ED
100
AcDbEntity
  8
L1_120
  6
CONTINUOUS
 62
         7
100
AcDbLine
 10
1315.9008425579
 20
-213.7195557837
 30
3.8423164408
 11
1315.9008425579
 21
-235.3860382514
 31
-4.0436382587
  0
LINE
  5
1EE
100
AcDbEntity
  8
L1_120
  6
CONTINUOUS
 62
         7
100
AcDbLine
 10
1315.9008425579
 20
-213.7195557837
 30
3.8423164408
 11
1315.9008425579
 21
-234.8329111027
 31
-3.8423164408
  0
LINE
  5
1EF
100
AcDbEntity
  8
L1_120
  6
CONTINUOUS
 62
         7
100
AcDbLine
 10
1315.9008425579
 20
-213.7195557837
 30
3.8423164408
 11
1315.9008425579
 21
-234.8329111027
 31
-3.8423164408
  0
LINE
  5
1F0
100
AcDbEntity
  8
L1_120
  6
CENTER
 62
         1
100
AcDbLine
 10
1315.9008425579
 20
-224.6367258223
 30
0.0
 11
1493.7008425579
 21
-224.6367258223
 31
0.0
  0
ARC
  5
1F1
100
AcDbEntity
  8
L1_120
  6
CONTINUOUS
 62
         7
100
AcDbCircle
 10
1455.5528425579
 20
-236.3144736127
 30
76.830285162
 40
3.0
210
0.0
220
-0.3420201433256687
230
0.9396926207859084
100
AcDbArc
 50
90.0
 51
180.0
  0
DIMENSION
  5
1F5
100
AcDbEntity
  8
L1_120
  6
CONTINUOUS
 62
         4
100
AcDbDimension
  2
*D0
 10
1533.1310659591
 20
-182.1730152864
 30
-66.3055550508
 11
1530.5060659591
 21
-225.7981718409
 31
0.0
210
0.0
220
-0.3420201433256687
230
0.9396926207859084
  3
DIMSTYLE1
100
AcDbAlignedDimension
 13
1519.1008425579
 23
-182.1730152864
 33
-66.3055550508
 14
1519.1008425579
 24
-214.5454260725
 34
-78.0881489883
 50
90.0
100
AcDbRotatedDimension
  0
DIMENSION
  5
204
100
AcDbEntity
  8
L1_120
  6
CONTINUOUS
 62
         4
100
AcDbDimension
  2
*D1
 10
1544.4693410206
 20
-177.4745521825
 30
-64.5954543341
 11
1541.8443410206
 21
-227.457431606
 31
0.0
210
0.0
220
-0.3420201433256687
230
0.9396926207859084
  3
DIMSTYLE1
100
AcDbAlignedDimension
 13
1508.3783079553
 23
-177.4745521825
 33
-64.5954543341
 14
1508.3783079553
 24
-219.2438891764
 34
-79.798249705
 50
90.0
100
AcDbRotatedDimension
  0
ARC
  5
210
100
AcDbEntity
  8
L1_120
  6
CONTINUOUS
 62
         7
100
AcDbCircle
 10
1517.1008425579
 20
-195.1386141343
 30
76.830285162
 40
2.0
210
0.0
220
-0.3420201433256687
230
0.9396926207859084
100
AcDbArc
 50
0.0
 51
65.0
  0
LINE
  5
211
100
AcDbEntity
  8
L1_120
  6
CONTINUOUS
 62
         7
100
AcDbLine
 10
1508.7801551535
 20
-203.9281410876
 30
7.5373084372
 11
1517.9460790814
 21
-207.944519396
 31
6.0754662834
  0
ARC
  5
212
100
AcDbEntity
  8
L1_120
  6
CONTINUOUS
 62
         7
100
AcDbCircle
 10
1507.93491863
 20
-190.8644736127
 30
76.830285162
 40
2.0
210
0.0
220
-0.3420201433256687
230
0.9396926207859084
100
AcDbArc
 50
65.0
 51
90.0
  0
LINE
  5
213
100
AcDbEntity
  8
L1_120
  6
CONTINUOUS
 62
         7
100
AcDbLine
 10
1519.1008425579
 20
-239.6256307693
 30
-5.455515245
 11
1519.1008425579
 21
-209.6478208753
 31
5.455515245
  0
ARC
  5
214
100
AcDbEntity
  8
L1_120
  6
CONTINUOUS
 62
         7
100
AcDbCircle
 10
1517.1008425579
 20
-227.0403330911
 30
76.830285162
 40
2.0
210
0.0
220
-0.3420201433256687
230
0.9396926207859084
100
AcDbArc
 50
295.0
 51
360.0
  0
LINE
  5
215
100
AcDbEntity
  8
L1_120
  6
CONTINUOUS
 62
         7
100
AcDbLine
 10
1508.7801551535
 20
-245.345310557
 30
-7.5373084372
 11
1517.9460790814
 21
-241.3289322486
 31
-6.0754662834
  0
ARC
  5
216
100
AcDbEntity
  8
L1_120
  6
CONTINUOUS
 62
         7
100
AcDbCircle
 10
1507.93491863
 20
-231.3144736127
 30
76.830285162
 40
2.0
210
0.0
220
-0.3420201433256687
230
0.9396926207859084
100
AcDbArc
 50
270.0
 51
295.0
  0
LINE
  5
217
100
AcDbEntity
  8
L1_120
  6
CONTINUOUS
 62
         7
100
AcDbLine
 10
1507.93491863
 20
-203.7520573253
 30
7.6013976854
 11
1455.5528425579
 21
-203.7520573253
 31
7.6013976854
  0
LINE
  5
218
100
AcDbEntity
  8
L1_120
  6
CONTINUOUS
 62
         7
100
AcDbLine
 10
1507.93491863
 20
-245.5213943193
 30
-7.6013976854
 11
1455.5528425579
 21
-245.5213943193
 31
-7.6013976854
  0
LINE
  5
219
100
AcDbEntity
  8
L1_120
  6
CENTER
 62
         1
100
AcDbLine
 10
1528.5227809752
 20
-224.6367258223
 30
0.0
 11
1452.5528425579
 21
-224.6367258223
 31
0.0
  0
LINE
  5
21A
100
AcDbEntity
  8
L1_120
  6
CONTINUOUS
 62
         4
100
AcDbLine
 10
1508.3783079553
 20
-203.7520573253
 30
7.6013976854
 11
1508.3783079553
 21
-245.5213943193
 31
-7.6013976854
  0
LINE
  5
21B
100
AcDbEntity
  8
L1_120
  6
CONTINUOUS
 62
         7
100
AcDbLine
 10
1519.1008425579
 20
-239.6256307693
 30
-5.455515245
 11
1519.1008425579
 21
-209.6478208753
 31
5.455515245
  0
ARC
  5
21C
100
AcDbEntity
  8
L1_120
  6
CONTINUOUS
 62
         7
100
AcDbCircle
 10
1455.5528425579
 20
-185.8644736127
 30
76.830285162
 40
3.0
210
0.0
220
-0.3420201433256687
230
0.9396926207859084
100
AcDbArc
 50
180.0
 51
270.0
  0
LINE
  5
21D
100
AcDbEntity
  8
L1_120
  6
CONTINUOUS
 62
         7
100
AcDbLine
 10
1519.1008425579
 20
-235.4849082476
 30
-3.9484154987
 11
1519.1008425579
 21
-213.788543397
 31
3.9484154987
  0
LINE
  5
21E
100
AcDbEntity
  8
L1_120
  6
CONTINUOUS
 62
         4
100
AcDbLine
 10
1451.5528425579
 20
-257.4554906032
 30
-11.9450535056
 11
1451.5528425579
 21
-191.8179610414
 31
11.9450535056
  0
LINE
  5
21F
100
AcDbEntity
  8
L1_120
  6
CONTINUOUS
 62
         7
100
AcDbLine
 10
1452.5528425579
 20
-256.5157979825
 30
-11.6030333623
 11
1452.5528425579
 21
-192.7576536621
 31
11.6030333623
  0
ARC
  5
220
100
AcDbEntity
  8
L1_120
  6
CONTINUOUS
 62
         7
100
AcDbCircle
 10
1437.1008425579
 20
-246.5144736127
 30
76.830285162
 40
0.5
210
0.0
220
-0.3420201433256687
230
0.9396926207859084
100
AcDbArc
 50
90.0
 51
180.0
  0
LINE
  5
221
100
AcDbEntity
  8
L1_120
  6
CONTINUOUS
 62
         7
100
AcDbLine
 10
1437.1008425579
 20
-257.4554906032
 30
-11.9450535056
 11
1451.5528425579
 21
-257.4554906032
 31
-11.9450535056
  0
LINE
  5
222
100
AcDbEntity
  8
L1_120
  6
CONTINUOUS
 62
         7
100
AcDbLine
 10
1437.1008425579
 20
-191.8179610414
 30
11.9450535056
 11
1451.5528425579
 21
-191.8179610414
 31
11.9450535056
  0
ARC
  5
223
100
AcDbEntity
  8
L1_120
  6
CONTINUOUS
 62
         7
100
AcDbCircle
 10
1437.1008425579
 20
-175.6644736127
 30
76.830285162
 40
0.5
210
0.0
220
-0.3420201433256687
230
0.9396926207859084
100
AcDbArc
 50
180.0
 51
270.0
  0
ARC
  5
224
100
AcDbEntity
  8
L1_120
  6
CONTINUOUS
 62
         7
100
AcDbCircle
 10
1437.1008425579
 20
-175.6644736127
 30
76.830285162
 40
0.5
210
0.0
220
-0.3420201433256687
230
0.9396926207859084
100
AcDbArc
 50
180.0
 51
270.0
  0
LINE
  5
225
100
AcDbEntity
  8
L1_120
  6
CONTINUOUS
 62
         7
100
AcDbLine
 10
1452.5528425579
 20
-256.5157979825
 30
-11.6030333623
 11
1451.5528425579
 21
-257.4554906032
 31
-11.9450535056
  0
LINE
  5
226
100
AcDbEntity
  8
L1_120
  6
CONTINUOUS
 62
         7
100
AcDbLine
 10
1451.5528425579
 20
-191.8179610414
 30
11.9450535056
 11
1452.5528425579
 21
-192.7576536621
 31
11.6030333623
  0
LINE
  5
227
100
AcDbEntity
  8
L1_120
  6
CONTINUOUS
 62
         7
100
AcDbLine
 10
1519.1008425579
 20
-210.7989443357
 30
5.0365405694
 11
1519.1008425579
 21
-238.4745073089
 31
-5.0365405694
  0
ARC
  5
228
100
AcDbEntity
  8
L1_120
  6
CONTINUOUS
 62
         7
100
AcDbCircle
 10
1455.7028425579
 20
-342.9947196795
 30
115.6604805667
 40
3.0
210
0.0
220
-0.3420201433256687
230
0.9396926207859084
100
AcDbArc
 50
90.0
 51
180.0
  0
ARC
  5
229
100
AcDbEntity
  8
L1_120
  6
CONTINUOUS
 62
         7
100
AcDbCircle
 10
1455.7028425579
 20
-292.5447196795
 30
115.6604805667
 40
3.0
210
0.0
220
-0.3420201433256687
230
0.9396926207859084
100
AcDbArc
 50
180.0
 51
270.0
  0
LINE
  5
22A
100
AcDbEntity
  8
L1_120
  6
CONTINUOUS
 62
         7
100
AcDbLine
 10
1421.2508425579
 20
-347.9379873621
 30
-3.5557581974
 11
1421.2508425579
 21
-328.3992566494
 31
3.5557581974
  0
LINE
  5
22B
100
AcDbEntity
  8
L1_120
  6
CONTINUOUS
 62
         7
100
AcDbLine
 10
1517.2508425579
 20
-329.2135026196
 30
3.2593969009
 11
1474.2508425579
 21
-329.2135026196
 31
3.2593969009
  0
LINE
  5
22C
100
AcDbEntity
  8
L1_120
  6
CONTINUOUS
 62
         7
100
AcDbLine
 10
1517.2508425579
 20
-347.1146470456
 30
-3.2560868295
 11
1474.2508425579
 21
-347.1146470456
 31
-3.2560868295
  0
LINE
  5
22D
100
AcDbEntity
  8
L1_120
  6
CONTINUOUS
 62
         7
100
AcDbLine
 10
1474.2508425579
 20
-347.584493356
 30
-3.4270969012
 11
1474.2508425579
 21
-328.7436563092
 31
3.4304069725
  0
LINE
  5
22E
100
AcDbEntity
  8
L1_120
  6
CONTINUOUS
 62
         7
100
AcDbLine
 10
1474.2508425579
 20
-328.7436563092
 30
3.4304069725
 11
1421.2508425579
 21
-328.7436563092
 31
3.4304069725
  0
LINE
  5
22F
100
AcDbEntity
  8
L1_120
  6
CONTINUOUS
 62
         7
100
AcDbLine
 10
1474.2508425579
 20
-347.584493356
 30
-3.4270969012
 11
1421.2508425579
 21
-347.584493356
 31
-3.4270969012
  0
ARC
  5
230
100
AcDbEntity
  8
L1_120
  6
CONTINUOUS
 62
         7
100
AcDbCircle
 10
1517.2508425579
 20
-306.2447196795
 30
115.6604805667
 40
2.0
210
0.0
220
-0.3420201433256687
230
0.9396926207859084
100
AcDbArc
 50
270.0
 51
285.0220597071
  0
LINE
  5
231
100
AcDbEntity
  8
L1_120
  6
CONTINUOUS
 62
         7
100
AcDbLine
 10
1518.6645115227
 20
-328.6635549841
 30
3.4595614706
 11
1517.7692244006
 21
-329.1492767068
 31
3.2827732214
  0
ARC
  5
232
100
AcDbEntity
  8
L1_120
  6
CONTINUOUS
 62
         7
100
AcDbCircle
 10
1517.2508425579
 20
-306.2447196795
 30
115.6604805667
 40
2.0
210
0.0
220
-0.3420201433256687
230
0.9396926207859084
100
AcDbArc
 50
314.9779402929
 51
360.0
  0
LINE
  5
233
100
AcDbEntity
  8
L1_120
  6
CONTINUOUS
 62
         7
100
AcDbLine
 10
1518.6645115227
 20
-347.6645946811
 30
-3.4562513992
 11
1517.7692244006
 21
-347.1788729583
 31
-3.27946315
  0
ARC
  5
234
100
AcDbEntity
  8
L1_120
  6
CONTINUOUS
 62
         7
100
AcDbCircle
 10
1517.2508425579
 20
-329.2947196795
 30
115.6604805667
 40
2.0
210
0.0
220
-0.3420201433256687
230
0.9396926207859084
100
AcDbArc
 50
74.9779402929
 51
90.0
  0
ARC
  5
235
100
AcDbEntity
  8
L1_120
  6
CONTINUOUS
 62
         7
100
AcDbCircle
 10
1517.2508425579
 20
-329.2947196795
 30
115.6604805667
 40
2.0
210
0.0
220
-0.3420201433256687
230
0.9396926207859084
100
AcDbArc
 50
0.0
 51
45.022059707
  0
LINE
  5
236
100
AcDbEntity
  8
L1_120
  6
CENTER
 62
         1
100
AcDbLine
 10
1528.6727809752
 20
-338.1640748326
 30
0.0016550357
 11
1459.4066940551
 21
-338.1640748326
 31
0.0016550357
  0
LINE
  5
237
100
AcDbEntity
  8
L1_120
  6
CONTINUOUS
 62
         7
100
AcDbLine
 10
1508.08491863
 20
-317.2794063356
 30
7.6030527211
 11
1455.7028425579
 21
-317.2794063356
 31
7.6030527211
  0
LINE
  5
238
100
AcDbEntity
  8
L1_120
  6
CONTINUOUS
 62
         7
100
AcDbLine
 10
1508.08491863
 20
-359.0487433296
 30
-7.5997426497
 11
1455.7028425579
 21
-359.0487433296
 31
-7.5997426497
  0
LINE
  5
239
100
AcDbEntity
  8
L1_120
  6
CONTINUOUS
 62
         7
100
AcDbLine
 10
1519.2508425579
 20
-353.1529797796
 30
-5.4538602093
 11
1519.2508425579
 21
-323.1751698856
 31
5.4571702806
  0
LINE
  5
23A
100
AcDbEntity
  8
L1_120
  6
CONTINUOUS
 62
         7
100
AcDbLine
 10
1508.9301551535
 20
-317.4554900979
 30
7.5389634729
 11
1518.0960790814
 21
-321.4718684063
 31
6.0771213191
  0
LINE
  5
23B
100
AcDbEntity
  8
L1_120
  6
CONTINUOUS
 62
         7
100
AcDbLine
 10
1508.9301551535
 20
-358.8726595673
 30
-7.5356534015
 11
1518.0960790814
 21
-354.8562812589
 31
-6.0738112477
  0
ARC
  5
23C
100
AcDbEntity
  8
L1_120
  6
CONTINUOUS
 62
         7
100
AcDbCircle
 10
1517.2508425579
 20
-301.8188602012
 30
115.6604805667
 40
2.0
210
0.0
220
-0.3420201433256687
230
0.9396926207859084
100
AcDbArc
 50
0.0
 51
65.0
  0
ARC
  5
23D
100
AcDbEntity
  8
L1_120
  6
CONTINUOUS
 62
         7
100
AcDbCircle
 10
1508.08491863
 20
-297.5447196795
 30
115.6604805667
 40
2.0
210
0.0
220
-0.3420201433256687
230
0.9396926207859084
100
AcDbArc
 50
65.0
 51
90.0
  0
ARC
  5
23E
100
AcDbEntity
  8
L1_120
  6
CONTINUOUS
 62
         7
100
AcDbCircle
 10
1517.2508425579
 20
-333.7205791579
 30
115.6604805667
 40
2.0
210
0.0
220
-0.3420201433256687
230
0.9396926207859084
100
AcDbArc
 50
295.0
 51
360.0
  0
ARC
  5
23F
100
AcDbEntity
  8
L1_120
  6
CONTINUOUS
 62
         7
100
AcDbCircle
 10
1508.08491863
 20
-337.9947196795
 30
115.6604805667
 40
2.0
210
0.0
220
-0.3420201433256687
230
0.9396926207859084
100
AcDbArc
 50
270.0
 51
295.0
  0
LINE
  5
240
100
AcDbEntity
  8
L1_120
  6
CENTER
 62
         1
100
AcDbLine
 10
1494.7508425579
 20
-363.7138694718
 30
-9.2977097046
 11
1494.7508425579
 21
-343.4445196787
 31
-1.920269712
  0
LINE
  5
241
100
AcDbEntity
  8
L1_120
  6
CENTER
 62
         1
100
AcDbLine
 10
1494.7508425579
 20
-325.3884159516
 30
4.6516145915
 11
1494.7508425579
 21
-315.2537410551
 31
8.3403345878
  0
ARC
  5
242
100
AcDbEntity
  8
L1_120
  6
CONTINUOUS
 62
         7
100
AcDbCircle
 10
1494.7508425579
 20
-291.0097196795
 30
115.6604805667
 40
10.0
210
0.0
220
-0.3420201433256687
230
0.9396926207859084
100
AcDbArc
 50
206.9684630525
 51
333.0315369475
  0
LINE
  5
243
100
AcDbEntity
  8
L1_120
  6
CONTINUOUS
 62
         4
100
AcDbLine
 10
1486.7008425579
 20
-357.0378011211
 30
-6.867819543
 11
1486.7008425579
 21
-347.1146470456
 31
-3.2560868295
  0
LINE
  5
244
100
AcDbEntity
  8
L1_120
  6
CONTINUOUS
 62
         7
100
AcDbLine
 10
1487.5008425579
 20
-356.2860470245
 30
-6.5942034284
 11
1487.5008425579
 21
-347.1146470456
 31
-3.2560868295
  0
LINE
  5
245
100
AcDbEntity
  8
L1_120
  6
CONTINUOUS
 62
         7
100
AcDbLine
 10
1487.5008425579
 20
-356.2860470245
 30
-6.5942034284
 11
1484.5608425579
 21
-359.0487433296
 31
-7.5997426497
  0
LINE
  5
246
100
AcDbEntity
  8
L1_120
  6
CONTINUOUS
 62
         4
100
AcDbLine
 10
1502.8008425579
 20
-357.0378011211
 30
-6.867819543
 11
1502.8008425579
 21
-347.1146470456
 31
-3.2560868295
  0
LINE
  5
247
100
AcDbEntity
  8
L1_120
  6
CONTINUOUS
 62
         7
100
AcDbLine
 10
1502.0008425579
 20
-356.2860470245
 30
-6.5942034284
 11
1502.0008425579
 21
-347.1146470456
 31
-3.2560868295
  0
LINE
  5
248
100
AcDbEntity
  8
L1_120
  6
CONTINUOUS
 62
         7
100
AcDbLine
 10
1504.9408425579
 20
-359.0487433296
 30
-7.5997426497
 11
1502.0008425579
 21
-356.2860470245
 31
-6.5942034284
  0
LINE
  5
249
100
AcDbEntity
  8
L1_120
  6
CONTINUOUS
 62
         7
100
AcDbLine
 10
1502.0008425579
 20
-356.2860470245
 30
-6.5942034284
 11
1487.5008425579
 21
-356.2860470245
 31
-6.5942034284
  0
LINE
  5
24A
100
AcDbEntity
  8
L1_120
  6
CONTINUOUS
 62
         4
100
AcDbLine
 10
1424.9752816011
 20
-304.8567883614
 30
12.1245158954
 11
1420.8795213797
 21
-302.1618606379
 31
13.1053893702
  0
LINE
  5
24B
100
AcDbEntity
  8
L1_120
  6
CONTINUOUS
 62
         7
100
AcDbLine
 10
1427.1008425579
 20
-305.6817882187
 30
11.824240504
 11
1421.1663095979
 21
-301.7769850723
 31
13.24547262
  0
LINE
  5
24C
100
AcDbEntity
  8
L1_120
  6
CONTINUOUS
 62
         7
100
AcDbLine
 10
1420.8795213797
 20
-302.1618606379
 30
13.1053893702
 11
1424.3209799978
 21
-297.54335385
 31
14.7863883678
  0
LINE
  5
24D
100
AcDbEntity
  8
L1_120
  6
CONTINUOUS
 62
         7
100
AcDbLine
 10
1424.3496588196
 20
-297.5048662934
 30
14.8003966928
 11
1420.8508425579
 21
-295.202715671
 31
15.6383109941
  0
LINE
  5
24E
100
AcDbEntity
  8
L1_120
  6
CONTINUOUS
 62
         7
100
AcDbLine
 10
1426.7508425579
 20
-294.8590333194
 30
15.7634011402
 11
1426.7508425579
 21
-299.0539166656
 31
14.2365884659
  0
LINE
  5
24F
100
AcDbEntity
  8
L1_120
  6
CONTINUOUS
 62
         7
100
AcDbLine
 10
1430.7508425579
 20
-294.8590333194
 30
15.7634011402
 11
1430.7508425579
 21
-299.0539166656
 31
14.2365884659
  0
LINE
  5
250
100
AcDbEntity
  8
L1_120
  6
CENTER
 62
         1
100
AcDbLine
 10
1432.9366614182
 20
-306.3669690761
 30
11.5748550669
 11
1420.994236667
 21
-298.5090941499
 31
14.4348876446
  0
LINE
  5
251
100
AcDbEntity
  8
L1_120
  6
CONTINUOUS
 62
         4
100
AcDbLine
 10
1427.1008425579
 20
-299.9460238552
 30
13.9118880031
 11
1427.1008425579
 21
-305.6817882187
 31
11.824240504
  0
LINE
  5
252
100
AcDbEntity
  8
L1_120
  6
CONTINUOUS
 62
         4
100
AcDbLine
 10
1430.4008425579
 20
-302.1173573822
 30
13.1215872306
 11
1430.4008425579
 21
-307.6077335689
 31
11.1232537237
  0
LINE
  5
253
100
AcDbEntity
  8
L1_120
  6
CONTINUOUS
 62
         7
100
AcDbLine
 10
1427.1008425579
 20
-299.3724474189
 30
14.120652753
 11
1427.1008425579
 21
-299.2438027912
 31
14.1674755683
  0
LINE
  5
254
100
AcDbEntity
  8
L1_120
  6
CONTINUOUS
 62
         4
100
AcDbLine
 10
1427.1008425579
 20
-302.0042427416
 30
13.1627575929
 11
1428.4167402192
 21
-300.2382815735
 31
13.8055148929
  0
LINE
  5
255
100
AcDbEntity
  8
L1_120
  6
CONTINUOUS
 62
         4
100
AcDbLine
 10
1430.4008425579
 20
-307.6077335689
 30
11.1232537237
 11
1430.176982085
 21
-307.7058260639
 31
11.0875509754
  0
LINE
  5
256
100
AcDbEntity
  8
L1_120
  6
CONTINUOUS
 62
         4
100
AcDbLine
 10
1430.176982085
 20
-307.7058260639
 30
11.0875509754
 11
1430.4008425579
 21
-307.4054008001
 31
11.196896829
  0
LINE
  5
257
100
AcDbEntity
  8
L1_120
  6
CONTINUOUS
 62
         4
100
AcDbLine
 10
1430.176982085
 20
-307.7058260639
 30
11.0875509754
 11
1427.1008425579
 21
-305.6817882187
 31
11.824240504
  0
LINE
  5
258
100
AcDbEntity
  8
L1_120
  6
CONTINUOUS
 62
         4
100
AcDbLine
 10
1430.4008425579
 20
-302.1173573822
 30
13.1215872306
 11
1427.1008425579
 21
-299.9460238552
 31
13.9118880031
  0
LINE
  5
259
100
AcDbEntity
  8
L1_120
  6
CONTINUOUS
 62
         7
100
AcDbLine
 10
1433.0448642668
 20
-303.8570704073
 30
12.4883834733
 11
1430.4008425579
 21
-302.1173573822
 31
13.1215872306
  0
LINE
  5
25A
100
AcDbEntity
  8
L1_120
  6
CONTINUOUS
 62
         7
100
AcDbLine
 10
1430.4008425579
 20
-299.2438027912
 30
14.1674755683
 11
1430.4008425579
 21
-302.1173573822
 31
13.1215872306
  0
LINE
  5
25B
100
AcDbEntity
  8
L1_120
  6
CONTINUOUS
 62
         7
100
AcDbLine
 10
1430.7508425579
 20
-299.0539166656
 30
14.2365884659
 11
1430.4008425579
 21
-299.2438027912
 31
14.1674755683
  0
LINE
  5
25C
100
AcDbEntity
  8
L1_120
  6
CONTINUOUS
 62
         7
100
AcDbLine
 10
1427.1008425579
 20
-299.2438027912
 30
14.1674755683
 11
1430.4008425579
 21
-299.2438027912
 31
14.1674755683
  0
LINE
  5
25D
100
AcDbEntity
  8
L1_120
  6
CONTINUOUS
 62
         7
100
AcDbLine
 10
1426.7508425579
 20
-299.0539166656
 30
14.2365884659
 11
1427.1008425579
 21
-299.2438027912
 31
14.1674755683
  0
LINE
  5
25E
100
AcDbEntity
  8
L1_120
  6
CONTINUOUS
 62
         4
100
AcDbLine
 10
1426.7508425579
 20
-299.0539166656
 30
14.2365884659
 11
1430.7508425579
 21
-299.0539166656
 31
14.2365884659
  0
LINE
  5
25F
100
AcDbEntity
  8
L1_120
  6
CONTINUOUS
 62
         7
100
AcDbLine
 10
1424.3209799978
 20
-297.54335385
 30
14.7863883678
 11
1424.3496588196
 21
-297.5048662934
 31
14.8003966928
  0
LINE
  5
260
100
AcDbEntity
  8
L1_120
  6
CONTINUOUS
 62
         7
100
AcDbLine
 10
1424.9752816011
 20
-304.8567883614
 30
12.1245158954
 11
1425.2620698193
 21
-304.4719127958
 31
12.2645991452
  0
LINE
  5
261
100
AcDbEntity
  8
L1_120
  6
CONTINUOUS
 62
         4
100
AcDbLine
 10
1424.3209799978
 20
-297.54335385
 30
14.7863883678
 11
1427.1008425579
 21
-299.3724474189
 31
14.120652753
  0
LINE
  5
262
100
AcDbEntity
  8
L1_120
  6
CONTINUOUS
 62
         7
100
AcDbLine
 10
1432.7932673091
 20
-306.5594068589
 30
11.504813442
 11
1433.0448642668
 21
-303.8570704073
 31
12.4883834733
  0
LINE
  5
263
100
AcDbEntity
  8
L1_120
  6
CONTINUOUS
 62
         7
100
AcDbLine
 10
1432.7932673091
 20
-306.5594068589
 30
11.504813442
 11
1430.4008425579
 21
-307.6077335689
 31
11.1232537237
  0
LINE
  5
264
100
AcDbEntity
  8
L1_120
  6
CONTINUOUS
 62
         7
100
AcDbLine
 10
1430.4008425579
 20
-307.4054008001
 30
11.196896829
 11
1433.0448642668
 21
-303.8570704073
 31
12.4883834733
  0
LINE
  5
265
100
AcDbEntity
  8
L1_120
  6
CONTINUOUS
 62
         7
100
AcDbLine
 10
1427.1008425579
 20
-299.9460238552
 30
13.9118880031
 11
1424.0341917796
 21
-297.9282294157
 31
14.646305118
  0
LINE
  5
266
100
AcDbEntity
  8
L1_120
  6
CONTINUOUS
 62
         7
100
AcDbLine
 10
1425.2620698193
 20
-304.4719127958
 30
12.2645991452
 11
1427.1008425579
 21
-302.0042427416
 31
13.1627575929
  0
LINE
  5
267
100
AcDbEntity
  8
L1_120
  6
CONTINUOUS
 62
         7
100
AcDbLine
 10
1427.1008425579
 20
-299.9460238552
 30
13.9118880031
 11
1427.1008425579
 21
-299.3724474189
 31
14.120652753
  0
LINE
  5
268
100
AcDbEntity
  8
L1_120
  6
CONTINUOUS
 62
         7
100
AcDbLine
 10
1427.1008425579
 20
-299.3724474189
 30
14.120652753
 11
1428.4167402192
 21
-300.2382815735
 31
13.8055148929
  0
LINE
  5
269
100
AcDbEntity
  8
L1_120
  6
CONTINUOUS
 62
         7
100
AcDbLine
 10
1427.1008425579
 20
-328.7436563092
 30
3.4304069725
 11
1427.1008425579
 21
-305.6817882187
 31
11.824240504
  0
LINE
  5
26A
100
AcDbEntity
  8
L1_120
  6
CONTINUOUS
 62
         7
100
AcDbLine
 10
1430.4008425579
 20
-307.6077335689
 30
11.1232537237
 11
1430.4008425579
 21
-328.7436563092
 31
3.4304069725
  0
LINE
  5
26B
100
AcDbEntity
  8
L1_120
  6
CENTER
 62
         1
100
AcDbLine
 10
1428.7508425579
 20
-293.0340377935
 30
16.4276451892
 11
1428.7508425579
 21
-328.7436563092
 31
3.4304069725
  0
ARC
  5
26C
100
AcDbEntity
  8
L1_120
  6
CONTINUOUS
 62
         7
100
AcDbCircle
 10
1429.9055430963
 20
-364.3995586802
 30
115.6604805667
 40
1.0
210
0.0
220
-0.3420201433256687
230
0.9396926207859084
100
AcDbArc
 50
30.0
 51
90.0
  0
LINE
  5
26D
100
AcDbEntity
  8
L1_120
  6
CONTINUOUS
 62
         7
100
AcDbLine
 10
1417.6508425579
 20
-305.3498572248
 30
11.9450535056
 11
1419.5972527194
 21
-305.8197035352
 31
11.774043434
  0
LINE
  5
26E
100
AcDbEntity
  8
L1_120
  6
CONTINUOUS
 62
         7
100
AcDbLine
 10
1417.6508425579
 20
-370.9873867867
 30
-11.9450535057
 11
1419.5972527194
 21
-370.5175404763
 31
-11.774043434
  0
LINE
  5
26F
100
AcDbEntity
  8
L1_120
  6
CONTINUOUS
 62
         7
100
AcDbLine
 10
1432.2871129567
 20
-383.9786372691
 30
-16.6734819871
 11
1435.2508425579
 21
-383.9786372691
 31
-16.6734819871
  0
ARC
  5
270
100
AcDbEntity
  8
L1_120
  6
CONTINUOUS
 62
         7
100
AcDbCircle
 10
1420.2508425579
 20
-352.7995586802
 30
115.6604805667
 40
0.6
210
0.0
220
-0.3420201433256687
230
0.9396926207859084
100
AcDbArc
 50
0.0
 51
90.0
  0
LINE
  5
271
100
AcDbEntity
  8
L1_120
  6
CONTINUOUS
 62
         7
100
AcDbLine
 10
1419.5972527194
 20
-370.5175404763
 30
-11.774043434
 11
1420.2508425579
 21
-370.5175404763
 31
-11.774043434
  0
ARC
  5
272
100
AcDbEntity
  8
L1_120
  6
CONTINUOUS
 62
         7
100
AcDbCircle
 10
1427.3074668849
 20
-363.8995586802
 30
115.6604805667
 40
0.5
210
0.0
220
-0.3420201433256687
230
0.9396926207859084
100
AcDbArc
 50
90.0
 51
150.0
  0
LINE
  5
273
100
AcDbEntity
  8
L1_120
  6
CONTINUOUS
 62
         7
100
AcDbLine
 10
1426.874454183
 20
-381.2770209843
 30
-15.6901740751
 11
1425.2145721591
 21
-383.9786372691
 31
-16.6734819871
  0
LINE
  5
274
100
AcDbEntity
  8
L1_120
  6
CONTINUOUS
 62
         7
100
AcDbLine
 10
1422.3508425579
 20
-383.9786372691
 30
-16.6734819871
 11
1425.2145721591
 21
-383.9786372691
 31
-16.6734819871
  0
LINE
  5
275
100
AcDbEntity
  8
L1_120
  6
CONTINUOUS
 62
         7
100
AcDbLine
 10
1427.3074668849
 20
-381.0420978291
 30
-15.6046690392
 11
1429.9055430963
 21
-381.0420978291
 31
-15.6046690392
  0
LINE
  5
276
100
AcDbEntity
  8
L1_120
  6
CONTINUOUS
 62
         7
100
AcDbLine
 10
1420.8508425579
 20
-371.0813560488
 30
-11.97925552
 11
1420.8508425579
 21
-382.5690983379
 31
-16.1604517721
  0
LINE
  5
277
100
AcDbEntity
  8
L1_120
  6
CONTINUOUS
 62
         7
100
AcDbLine
 10
1430.7715685
 20
-381.5119441395
 30
-15.7756791109
 11
1432.2871129567
 21
-383.9786372691
 31
-16.6734819871
  0
LINE
  5
278
100
AcDbEntity
  8
L1_120
  6
CONTINUOUS
 62
         7
100
AcDbLine
 10
1432.2871129567
 20
-292.3586067425
 30
16.6734819871
 11
1435.2508425579
 21
-292.3586067425
 31
16.6734819871
  0
LINE
  5
279
100
AcDbEntity
  8
L1_120
  6
CONTINUOUS
 62
         7
100
AcDbLine
 10
1426.874454183
 20
-295.0602230272
 30
15.6901740751
 11
1425.2145721591
 21
-292.3586067425
 31
16.6734819871
  0
ARC
  5
27A
100
AcDbEntity
  8
L1_120
  6
CONTINUOUS
 62
         7
100
AcDbCircle
 10
1430.1942182308
 20
-271.6495586802
 30
115.6604805667
 40
0.5
210
0.0
220
-0.3420201433256687
230
0.9396926207859084
100
AcDbArc
 50
270.0
 51
330.0
  0
ARC
  5
27B
100
AcDbEntity
  8
L1_120
  6
CONTINUOUS
 62
         7
100
AcDbCircle
 10
1427.3074668849
 20
-271.6495586802
 30
115.6604805667
 40
0.5
210
0.0
220
-0.3420201433256687
230
0.9396926207859084
100
AcDbArc
 50
210.0
 51
270.0
  0
ARC
  5
27C
100
AcDbEntity
  8
L1_120
  6
CONTINUOUS
 62
         7
100
AcDbCircle
 10
1420.2508425579
 20
-282.7495586802
 30
115.6604805667
 40
0.6
210
0.0
220
-0.3420201433256687
230
0.9396926207859084
100
AcDbArc
 50
270.0
 51
360.0
  0
LINE
  5
27D
100
AcDbEntity
  8
L1_120
  6
CONTINUOUS
 62
         7
100
AcDbLine
 10
1419.5972527194
 20
-305.8197035352
 30
11.774043434
 11
1420.2508425579
 21
-305.8197035352
 31
11.774043434
  0
LINE
  5
27E
100
AcDbEntity
  8
L1_120
  6
CONTINUOUS
 62
         7
100
AcDbLine
 10
1420.8508425579
 20
-293.7681456736
 30
16.1604517721
 11
1420.8508425579
 21
-305.2558879627
 31
11.97925552
  0
LINE
  5
27F
100
AcDbEntity
  8
L1_120
  6
CONTINUOUS
 62
         7
100
AcDbLine
 10
1427.3074668849
 20
-295.2951461824
 30
15.6046690392
 11
1430.1942182308
 21
-295.2951461824
 31
15.6046690392
  0
LINE
  5
280
100
AcDbEntity
  8
L1_120
  6
CONTINUOUS
 62
         7
100
AcDbLine
 10
1422.3508425579
 20
-292.3586067425
 30
16.6734819871
 11
1425.2145721591
 21
-292.3586067425
 31
16.6734819871
  0
LINE
  5
281
100
AcDbEntity
  8
L1_120
  6
CONTINUOUS
 62
         7
100
AcDbLine
 10
1430.6272309327
 20
-295.0602230272
 30
15.6901740751
 11
1432.2871129567
 21
-292.3586067425
 31
16.6734819871
  0
LINE
  5
282
100
AcDbEntity
  8
L1_120
  6
CONTINUOUS
 62
         7
100
AcDbLine
 10
1427.3074668849
 20
-295.2951461824
 30
15.6046690392
 11
1430.1942182308
 21
-295.2951461824
 31
15.6046690392
  0
LINE
  5
283
100
AcDbEntity
  8
L1_120
  6
CONTINUOUS
 62
         7
100
AcDbLine
 10
1420.8508425579
 20
-293.7681456736
 30
16.1604517721
 11
1420.8508425579
 21
-305.2558879627
 31
11.97925552
  0
LINE
  5
284
100
AcDbEntity
  8
L1_120
  6
CONTINUOUS
 62
         7
100
AcDbLine
 10
1419.5972527194
 20
-305.8197035352
 30
11.774043434
 11
1420.2508425579
 21
-305.8197035352
 31
11.774043434
  0
ARC
  5
285
100
AcDbEntity
  8
L1_120
  6
CONTINUOUS
 62
         7
100
AcDbCircle
 10
1420.2508425579
 20
-282.7495586802
 30
115.6604805667
 40
0.6
210
0.0
220
-0.3420201433256687
230
0.9396926207859084
100
AcDbArc
 50
270.0
 51
360.0
  0
ARC
  5
286
100
AcDbEntity
  8
L1_120
  6
CONTINUOUS
 62
         7
100
AcDbCircle
 10
1427.3074668849
 20
-271.6495586802
 30
115.6604805667
 40
0.5
210
0.0
220
-0.3420201433256687
230
0.9396926207859084
100
AcDbArc
 50
210.0
 51
270.0
  0
ARC
  5
287
100
AcDbEntity
  8
L1_120
  6
CONTINUOUS
 62
         7
100
AcDbCircle
 10
1430.1942182308
 20
-271.6495586802
 30
115.6604805667
 40
0.5
210
0.0
220
-0.3420201433256687
230
0.9396926207859084
100
AcDbArc
 50
270.0
 51
330.0
  0
LINE
  5
288
100
AcDbEntity
  8
L1_120
  6
CONTINUOUS
 62
         7
100
AcDbLine
 10
1417.6508425579
 20
-305.3498572248
 30
11.9450535056
 11
1419.5972527194
 21
-305.8197035352
 31
11.774043434
  0
LINE
  5
289
100
AcDbEntity
  8
L1_120
  6
CONTINUOUS
 62
         7
100
AcDbLine
 10
1436.2508425579
 20
-292.3586067425
 30
16.6734819871
 11
1436.7508425579
 21
-292.8284530528
 31
16.5024719155
  0
LINE
  5
28A
100
AcDbEntity
  8
L1_120
  6
CONTINUOUS
 62
         7
100
AcDbLine
 10
1421.3508425579
 20
-292.3586067425
 30
16.6734819871
 11
1420.8508425579
 21
-292.8284530528
 31
16.5024719155
  0
LINE
  5
28B
100
AcDbEntity
  8
L1_120
  6
CONTINUOUS
 62
         7
100
AcDbLine
 10
1436.7508425579
 20
-383.5087909587
 30
-16.5024719155
 11
1436.2508425579
 21
-383.9786372691
 31
-16.6734819871
  0
LINE
  5
28C
100
AcDbEntity
  8
L1_120
  6
CONTINUOUS
 62
         7
100
AcDbLine
 10
1420.8508425579
 20
-383.5087909587
 30
-16.5024719155
 11
1421.3508425579
 21
-383.9786372691
 31
-16.6734819871
  0
LINE
  5
28D
100
AcDbEntity
  8
L1_120
  6
CONTINUOUS
 62
         7
100
AcDbLine
 10
1437.2508425579
 20
-370.9873867867
 30
-11.9450535057
 11
1451.7028425579
 21
-370.9873867867
 31
-11.9450535057
  0
LINE
  5
28E
100
AcDbEntity
  8
L1_120
  6
CONTINUOUS
 62
         7
100
AcDbLine
 10
1437.2508425579
 20
-305.3498572248
 30
11.9450535056
 11
1451.7028425579
 21
-305.3498572248
 31
11.9450535056
  0
LINE
  5
28F
100
AcDbEntity
  8
L1_120
  6
CONTINUOUS
 62
         7
100
AcDbLine
 10
1420.8508425579
 20
-381.6294057171
 30
-15.8184316288
 11
1420.8508425579
 21
-383.5087909587
 31
-16.5024719155
  0
LINE
  5
290
100
AcDbEntity
  8
L1_120
  6
CONTINUOUS
 62
         7
100
AcDbLine
 10
1436.7508425579
 20
-371.4572330971
 30
-12.1160635773
 11
1436.7508425579
 21
-383.5087909587
 31
-16.5024719155
  0
LINE
  5
291
100
AcDbEntity
  8
L1_120
  6
CONTINUOUS
 62
         7
100
AcDbLine
 10
1434.2508425579
 20
-383.9786372691
 30
-16.6734819871
 11
1436.2508425579
 21
-383.9786372691
 31
-16.6734819871
  0
LINE
  5
292
100
AcDbEntity
  8
L1_120
  6
CONTINUOUS
 62
         7
100
AcDbLine
 10
1421.3508425579
 20
-383.9786372691
 30
-16.6734819871
 11
1423.3508425579
 21
-383.9786372691
 31
-16.6734819871
  0
LINE
  5
293
100
AcDbEntity
  8
L1_120
  6
CONTINUOUS
 62
         7
100
AcDbLine
 10
1436.7508425579
 20
-292.8284530528
 30
16.5024719155
 11
1436.7508425579
 21
-304.8800109144
 31
12.1160635773
  0
LINE
  5
294
100
AcDbEntity
  8
L1_120
  6
CONTINUOUS
 62
         7
100
AcDbLine
 10
1434.2508425579
 20
-292.3586067425
 30
16.6734819871
 11
1436.2508425579
 21
-292.3586067425
 31
16.6734819871
  0
LINE
  5
295
100
AcDbEntity
  8
L1_120
  6
CONTINUOUS
 62
         7
100
AcDbLine
 10
1421.3508425579
 20
-292.3586067425
 30
16.6734819871
 11
1423.3508425579
 21
-292.3586067425
 31
16.6734819871
  0
LINE
  5
296
100
AcDbEntity
  8
L1_120
  6
CONTINUOUS
 62
         7
100
AcDbLine
 10
1420.8508425579
 20
-292.8284530528
 30
16.5024719155
 11
1420.8508425579
 21
-294.7078382944
 31
15.8184316288
  0
ARC
  5
297
100
AcDbEntity
  8
L1_120
  6
CONTINUOUS
 62
         7
100
AcDbCircle
 10
1437.2508425579
 20
-282.3495586802
 30
115.6604805667
 40
0.5
210
0.0
220
-0.3420201433256687
230
0.9396926207859084
100
AcDbArc
 50
180.0
 51
270.0
  0
ARC
  5
298
100
AcDbEntity
  8
L1_120
  6
CONTINUOUS
 62
         7
100
AcDbCircle
 10
1437.2508425579
 20
-353.1995586802
 30
115.6604805667
 40
0.5
210
0.0
220
-0.3420201433256687
230
0.9396926207859084
100
AcDbArc
 50
90.0
 51
180.0
  0
LINE
  5
299
100
AcDbEntity
  8
L1_120
  6
CONTINUOUS
 62
         7
100
AcDbLine
 10
1452.7028425579
 20
-370.0476941659
 30
-11.6030333623
 11
1451.7028425579
 21
-370.9873867867
 31
-11.9450535057
  0
LINE
  5
29A
100
AcDbEntity
  8
L1_120
  6
CONTINUOUS
 62
         7
100
AcDbLine
 10
1451.7028425579
 20
-305.3498572248
 30
11.9450535056
 11
1452.7028425579
 21
-306.2895498456
 31
11.6030333623
  0
LINE
  5
29B
100
AcDbEntity
  8
L1_120
  6
CONTINUOUS
 62
         7
100
AcDbLine
 10
1452.7028425579
 20
-306.2895498456
 30
11.6030333623
 11
1452.7028425579
 21
-314.4603284733
 31
8.6291131511
  0
LINE
  5
29C
100
AcDbEntity
  8
L1_120
  6
CONTINUOUS
 62
         7
100
AcDbLine
 10
1452.7028425579
 20
-361.8678211919
 30
-8.6258030797
 11
1452.7028425579
 21
-370.0476941659
 31
-11.6030333623
  0
LINE
  5
29D
100
AcDbEntity
  8
L1_120
  6
CONTINUOUS
 62
         7
100
AcDbLine
 10
1324.3201865194
 20
-347.9379873621
 30
-3.5557581974
 11
1421.2508425579
 21
-347.9379873621
 31
-3.5557581974
  0
LINE
  5
29E
100
AcDbEntity
  8
L1_120
  6
CONTINUOUS
 62
         7
100
AcDbLine
 10
1324.3201865194
 20
-328.3992566494
 30
3.5557581974
 11
1421.2508425579
 21
-328.3992566494
 31
3.5557581974
  0
INSERT
  5
315
100
AcDbEntity
  8
0
  6
CONTINUOUS
100
AcDbBlockReference
  2
*X2
 10
0.0
 20
0.0
 30
0.0
  0
DIMENSION
  5
318
100
AcDbEntity
  8
L1_120
  6
CONTINUOUS
 62
         4
100
AcDbDimension
  2
*D3
 10
1519.2508425579
 20
-352.9267518472
 30
-128.4548325486
 11
1469.5799588875
 21
-372.9518046279
 31
0.0
210
0.0
220
-0.3420201433256687
230
0.9396926207859084
  3
DIMSTYLE1
100
AcDbAlignedDimension
 13
1519.2508425579
 23
-309.4358181466
 33
-112.6254272212
 14
1421.2508425579
 24
-308.0262792154
 34
-112.1123970062
100
AcDbRotatedDimension
  0
DIMENSION
  5
326
100
AcDbEntity
  8
L1_120
  6
CONTINUOUS
 62
         4
100
AcDbDimension
  2
*D4
 10
1519.1008425579
 20
-134.9221603335
 30
-49.1076503043
 11
1454.7569432467
 21
-140.9561640413
 31
0.0
210
0.0
220
-0.3420201433256687
230
0.9396926207859084
  3
DIMSTYLE1
100
AcDbAlignedDimension
 13
1519.1008425579
 23
-198.3592206795
 33
-72.1968520196
 14
1417.5008425579
 24
-161.0299313187
 34
-58.6101018259
100
AcDbRotatedDimension
  0
DIMENSION
  5
334
100
AcDbEntity
  8
L1_120
  6
CONTINUOUS
 62
         4
100
AcDbDimension
  2
*D5
 10
1315.9008425579
 20
-118.2051891056
 30
-43.0231703702
 11
1412.7082560377
 21
-123.1663348375
 31
0.0
210
0.0
220
-0.3420201433256687
230
0.9396926207859084
  3
DIMSTYLE1
100
AcDbAlignedDimension
 13
1315.9008425579
 23
-181.4951813919
 33
-66.0588436894
 14
1519.1008425579
 24
-198.3592206795
 34
-72.1968520196
100
AcDbRotatedDimension
  0
DIMENSION
  5
342
100
AcDbEntity
  8
L1_120
  6
CONTINUOUS
 62
         4
100
AcDbDimension
  2
*D6
 10
1559.5602128591
 20
-280.1489465341
 30
-101.9658776995
 11
1556.9352128591
 21
-308.6259958796
 31
0.0
210
0.0
220
-0.3420201433256687
230
0.9396926207859084
  3
DIMSTYLE1
100
AcDbAlignedDimension
 13
1576.0666612535
 23
-280.1489465341
 33
-101.9658776995
 14
1573.7891138824
 24
-293.3003469419
 34
-106.7525959868
 50
90.0
100
AcDbRotatedDimension
  0
LINE
  5
34E
100
AcDbEntity
  8
L1_120
  6
CENTER
 62
         1
100
AcDbLine
 10
1580.7783706769
 20
-298.7505641424
 30
-108.7363128181
 11
1580.7783706769
 21
-274.6944330503
 31
-99.9805971489
  0
DIMENSION
  5
351
100
AcDbEntity
  8
L1_120
  6
CONTINUOUS
 62
         4
100
AcDbDimension
  2
*D7
 10
1572.8408548019
 20
-272.881473052
 30
-99.3207336736
 11
1563.2783706769
 21
-287.7693981424
 31
0.0
210
0.0
220
-0.3420201433256687
230
0.9396926207859084
  3
DIMSTYLE1
100
AcDbAlignedDimension
 13
1572.8408548019
 23
-283.1802130528
 33
-103.0691684844
 14
1588.715886552
 24
-283.1802130528
 34
-103.0691684844
100
AcDbRotatedDimension
  0
LINE
  5
35D
100
AcDbEntity
  8
L1_120
  6
DASHED
 62
         2
100
AcDbLine
 10
1583.066067959
 20
-293.3003469419
 30
-106.7525959868
 11
1583.066067959
 21
-285.8534559669
 31
-104.0421493341
  0
LINE
  5
35E
100
AcDbEntity
  8
L1_120
  6
DASHED
 62
         2
100
AcDbLine
 10
1578.4906733949
 20
-293.3003469419
 30
-106.7525959868
 11
1578.4906733949
 21
-285.8534559669
 31
-104.0421493341
  0
LINE
  5
35F
100
AcDbEntity
  8
L1_120
  6
DASHED
 62
         2
100
AcDbLine
 10
1585.353765241
 20
-293.3003469419
 30
-106.7525959868
 11
1585.353765241
 21
-285.8534559669
 31
-104.0421493341
  0
LINE
  5
360
100
AcDbEntity
  8
L1_120
  6
DASHED
 62
         2
100
AcDbLine
 10
1576.2029761129
 20
-293.3003469419
 30
-106.7525959868
 11
1576.2029761129
 21
-285.8534559669
 31
-104.0421493341
  0
LINE
  5
361
100
AcDbEntity
  8
L1_120
  6
DASHED
 62
         2
100
AcDbLine
 10
1576.2029761129
 20
-285.8534559669
 30
-104.0421493341
 11
1585.353765241
 21
-285.8534559669
 31
-104.0421493341
  0
LINE
  5
362
100
AcDbEntity
  8
L1_120
  6
CONTINUOUS
 62
         7
100
AcDbLine
 10
1585.4900801004
 20
-280.1489465341
 30
-101.9658776995
 11
1588.715886552
 21
-283.1802130528
 31
-103.0691684844
  0
LINE
  5
363
100
AcDbEntity
  8
L1_120
  6
CONTINUOUS
 62
         7
100
AcDbLine
 10
1576.0666612535
 20
-280.1489465341
 30
-101.9658776995
 11
1572.8408548019
 21
-283.1802130528
 31
-103.0691684844
  0
LINE
  5
364
100
AcDbEntity
  8
L1_120
  6
CONTINUOUS
 62
         7
100
AcDbLine
 10
1572.8408548019
 20
-283.1802130528
 30
-103.0691684844
 11
1588.715886552
 21
-283.1802130528
 31
-103.0691684844
  0
LINE
  5
365
100
AcDbEntity
  8
L1_120
  6
CONTINUOUS
 62
         7
100
AcDbLine
 10
1576.0666612535
 20
-280.1489465341
 30
-101.9658776995
 11
1585.4900801004
 21
-280.1489465341
 31
-101.9658776995
  0
LINE
  5
366
100
AcDbEntity
  8
L1_120
  6
CONTINUOUS
 62
         7
100
AcDbLine
 10
1587.7676274715
 20
-283.8553432785
 30
-103.3148957908
 11
1573.7891138824
 21
-284.5304735043
 31
-103.5606230972
  0
LINE
  5
367
100
AcDbEntity
  8
L1_120
  6
CONTINUOUS
 62
         7
100
AcDbLine
 10
1588.715886552
 20
-283.1802130528
 30
-103.0691684844
 11
1572.8408548019
 21
-283.8553432785
 31
-103.3148957908
  0
LINE
  5
368
100
AcDbEntity
  8
L1_120
  6
CONTINUOUS
 62
         7
100
AcDbLine
 10
1587.7676274715
 20
-283.8553432785
 30
-103.3148957908
 11
1588.715886552
 21
-283.1802130528
 31
-103.0691684844
  0
LINE
  5
369
100
AcDbEntity
  8
L1_120
  6
CONTINUOUS
 62
         7
100
AcDbLine
 10
1588.715886552
 20
-284.5304735043
 30
-103.5606230972
 11
1587.7676274715
 21
-283.8553432785
 31
-103.3148957908
  0
LINE
  5
36A
100
AcDbEntity
  8
L1_120
  6
CONTINUOUS
 62
         7
100
AcDbLine
 10
1572.8408548019
 20
-283.8553432785
 30
-103.3148957908
 11
1573.7891138824
 21
-283.1802130528
 31
-103.0691684844
  0
LINE
  5
36B
100
AcDbEntity
  8
L1_120
  6
CONTINUOUS
 62
         7
100
AcDbLine
 10
1573.7891138824
 20
-284.5304735043
 30
-103.5606230972
 11
1572.8408548019
 21
-283.8553432785
 31
-103.3148957908
  0
LINE
  5
36C
100
AcDbEntity
  8
L1_120
  6
CONTINUOUS
 62
         7
100
AcDbLine
 10
1588.715886552
 20
-292.6320362134
 30
-106.5093507744
 11
1574.5075724622
 21
-292.6320362134
 31
-106.5093507744
  0
LINE
  5
36D
100
AcDbEntity
  8
L1_120
  6
CONTINUOUS
 62
         7
100
AcDbLine
 10
1587.7676274715
 20
-291.9569059876
 30
-106.2636234679
 11
1574.5075724622
 21
-292.6320362134
 31
-106.5093507744
  0
LINE
  5
36E
100
AcDbEntity
  8
L1_120
  6
CONTINUOUS
 62
         7
100
AcDbLine
 10
1588.715886552
 20
-291.2817757618
 30
-106.0178961615
 11
1572.8408548019
 21
-291.9569059876
 31
-106.2636234679
  0
LINE
  5
36F
100
AcDbEntity
  8
L1_120
  6
CONTINUOUS
 62
         7
100
AcDbLine
 10
1587.7676274715
 20
-291.9569059876
 30
-106.2636234679
 11
1588.715886552
 21
-292.6320362134
 31
-106.5093507744
  0
LINE
  5
370
100
AcDbEntity
  8
L1_120
  6
CONTINUOUS
 62
         7
100
AcDbLine
 10
1588.715886552
 20
-291.2817757618
 30
-106.0178961615
 11
1587.7676274715
 21
-291.9569059876
 31
-106.2636234679
  0
LINE
  5
371
100
AcDbEntity
  8
L1_120
  6
CONTINUOUS
 62
         7
100
AcDbLine
 10
1573.7891138824
 20
-291.2817757618
 30
-106.0178961615
 11
1572.8408548019
 21
-291.9569059876
 31
-106.2636234679
  0
LINE
  5
372
100
AcDbEntity
  8
L1_120
  6
CONTINUOUS
 62
         7
100
AcDbLine
 10
1587.7676274715
 20
-285.2056037301
 30
-103.8063504037
 11
1573.7891138824
 21
-285.8807339558
 31
-104.0520777101
  0
LINE
  5
373
100
AcDbEntity
  8
L1_120
  6
CONTINUOUS
 62
         7
100
AcDbLine
 10
1588.715886552
 20
-284.5304735043
 30
-103.5606230972
 11
1572.8408548019
 21
-285.2056037301
 31
-103.8063504037
  0
LINE
  5
374
100
AcDbEntity
  8
L1_120
  6
CONTINUOUS
 62
         7
100
AcDbLine
 10
1587.7676274715
 20
-285.2056037301
 30
-103.8063504037
 11
1588.715886552
 21
-284.5304735043
 31
-103.5606230972
  0
LINE
  5
375
100
AcDbEntity
  8
L1_120
  6
CONTINUOUS
 62
         7
100
AcDbLine
 10
1588.715886552
 20
-285.8807339558
 30
-104.0520777101
 11
1587.7676274715
 21
-285.2056037301
 31
-103.8063504037
  0
LINE
  5
376
100
AcDbEntity
  8
L1_120
  6
CONTINUOUS
 62
         7
100
AcDbLine
 10
1572.8408548019
 20
-285.2056037301
 30
-103.8063504037
 11
1573.7891138824
 21
-284.5304735043
 31
-103.5606230972
  0
LINE
  5
377
100
AcDbEntity
  8
L1_120
  6
CONTINUOUS
 62
         7
100
AcDbLine
 10
1573.7891138824
 20
-285.8807339558
 30
-104.0520777101
 11
1572.8408548019
 21
-285.2056037301
 31
-103.8063504037
  0
LINE
  5
378
100
AcDbEntity
  8
L1_120
  6
CONTINUOUS
 62
         7
100
AcDbLine
 10
1588.715886552
 20
-292.6320362134
 30
-106.5093507744
 11
1574.5075724622
 21
-292.6320362134
 31
-106.5093507744
  0
LINE
  5
379
100
AcDbEntity
  8
L1_120
  6
CONTINUOUS
 62
         7
100
AcDbLine
 10
1587.7676274715
 20
-291.9569059876
 30
-106.2636234679
 11
1574.5075724622
 21
-292.6320362134
 31
-106.5093507744
  0
LINE
  5
37A
100
AcDbEntity
  8
L1_120
  6
CONTINUOUS
 62
         7
100
AcDbLine
 10
1588.715886552
 20
-291.2817757618
 30
-106.0178961615
 11
1572.8408548019
 21
-291.9569059876
 31
-106.2636234679
  0
LINE
  5
37B
100
AcDbEntity
  8
L1_120
  6
CONTINUOUS
 62
         7
100
AcDbLine
 10
1587.7676274715
 20
-291.9569059876
 30
-106.2636234679
 11
1588.715886552
 21
-292.6320362134
 31
-106.5093507744
  0
LINE
  5
37C
100
AcDbEntity
  8
L1_120
  6
CONTINUOUS
 62
         7
100
AcDbLine
 10
1588.715886552
 20
-291.2817757618
 30
-106.0178961615
 11
1587.7676274715
 21
-291.9569059876
 31
-106.2636234679
  0
LINE
  5
37D
100
AcDbEntity
  8
L1_120
  6
CONTINUOUS
 62
         7
100
AcDbLine
 10
1573.7891138824
 20
-291.2817757618
 30
-106.0178961615
 11
1572.8408548019
 21
-291.9569059876
 31
-106.2636234679
  0
LINE
  5
37E
100
AcDbEntity
  8
L1_120
  6
CONTINUOUS
 62
         7
100
AcDbLine
 10
1587.7676274715
 20
-286.5558641816
 30
-104.2978050165
 11
1573.7891138824
 21
-287.2309944073
 31
-104.5435323229
  0
LINE
  5
37F
100
AcDbEntity
  8
L1_120
  6
CONTINUOUS
 62
         7
100
AcDbLine
 10
1588.715886552
 20
-285.8807339558
 30
-104.0520777101
 11
1572.8408548019
 21
-286.5558641816
 31
-104.2978050165
  0
LINE
  5
380
100
AcDbEntity
  8
L1_120
  6
CONTINUOUS
 62
         7
100
AcDbLine
 10
1587.7676274715
 20
-286.5558641816
 30
-104.2978050165
 11
1588.715886552
 21
-285.8807339558
 31
-104.0520777101
  0
LINE
  5
381
100
AcDbEntity
  8
L1_120
  6
CONTINUOUS
 62
         7
100
AcDbLine
 10
1588.715886552
 20
-287.2309944073
 30
-104.5435323229
 11
1587.7676274715
 21
-286.5558641816
 31
-104.2978050165
  0
LINE
  5
382
100
AcDbEntity
  8
L1_120
  6
CONTINUOUS
 62
         7
100
AcDbLine
 10
1572.8408548019
 20
-286.5558641816
 30
-104.2978050165
 11
1573.7891138824
 21
-285.8807339558
 31
-104.0520777101
  0
LINE
  5
383
100
AcDbEntity
  8
L1_120
  6
CONTINUOUS
 62
         7
100
AcDbLine
 10
1573.7891138824
 20
-287.2309944073
 30
-104.5435323229
 11
1572.8408548019
 21
-286.5558641816
 31
-104.2978050165
  0
LINE
  5
384
100
AcDbEntity
  8
L1_120
  6
CONTINUOUS
 62
         7
100
AcDbLine
 10
1588.715886552
 20
-292.6320362134
 30
-106.5093507744
 11
1574.5075724622
 21
-292.6320362134
 31
-106.5093507744
  0
LINE
  5
385
100
AcDbEntity
  8
L1_120
  6
CONTINUOUS
 62
         7
100
AcDbLine
 10
1587.7676274715
 20
-291.9569059876
 30
-106.2636234679
 11
1574.5075724622
 21
-292.6320362134
 31
-106.5093507744
  0
LINE
  5
386
100
AcDbEntity
  8
L1_120
  6
CONTINUOUS
 62
         7
100
AcDbLine
 10
1588.715886552
 20
-291.2817757618
 30
-106.0178961615
 11
1572.8408548019
 21
-291.9569059876
 31
-106.2636234679
  0
LINE
  5
387
100
AcDbEntity
  8
L1_120
  6
CONTINUOUS
 62
         7
100
AcDbLine
 10
1587.7676274715
 20
-291.9569059876
 30
-106.2636234679
 11
1588.715886552
 21
-292.6320362134
 31
-106.5093507744
  0
LINE
  5
388
100
AcDbEntity
  8
L1_120
  6
CONTINUOUS
 62
         7
100
AcDbLine
 10
1588.715886552
 20
-291.2817757618
 30
-106.0178961615
 11
1587.7676274715
 21
-291.9569059876
 31
-106.2636234679
  0
LINE
  5
389
100
AcDbEntity
  8
L1_120
  6
CONTINUOUS
 62
         7
100
AcDbLine
 10
1573.7891138824
 20
-291.2817757618
 30
-106.0178961615
 11
1572.8408548019
 21
-291.9569059876
 31
-106.2636234679
  0
LINE
  5
38A
100
AcDbEntity
  8
L1_120
  6
CONTINUOUS
 62
         7
100
AcDbLine
 10
1587.7676274715
 20
-287.9061246331
 30
-104.7892596294
 11
1573.7891138824
 21
-288.5812548588
 31
-105.0349869358
  0
LINE
  5
38B
100
AcDbEntity
  8
L1_120
  6
CONTINUOUS
 62
         7
100
AcDbLine
 10
1588.715886552
 20
-287.2309944073
 30
-104.5435323229
 11
1572.8408548019
 21
-287.9061246331
 31
-104.7892596294
  0
LINE
  5
38C
100
AcDbEntity
  8
L1_120
  6
CONTINUOUS
 62
         7
100
AcDbLine
 10
1587.7676274715
 20
-287.9061246331
 30
-104.7892596294
 11
1588.715886552
 21
-287.2309944073
 31
-104.5435323229
  0
LINE
  5
38D
100
AcDbEntity
  8
L1_120
  6
CONTINUOUS
 62
         7
100
AcDbLine
 10
1588.715886552
 20
-288.5812548588
 30
-105.0349869358
 11
1587.7676274715
 21
-287.9061246331
 31
-104.7892596294
  0
LINE
  5
38E
100
AcDbEntity
  8
L1_120
  6
CONTINUOUS
 62
         7
100
AcDbLine
 10
1572.8408548019
 20
-287.9061246331
 30
-104.7892596294
 11
1573.7891138824
 21
-287.2309944073
 31
-104.5435323229
  0
LINE
  5
38F
100
AcDbEntity
  8
L1_120
  6
CONTINUOUS
 62
         7
100
AcDbLine
 10
1573.7891138824
 20
-288.5812548588
 30
-105.0349869358
 11
1572.8408548019
 21
-287.9061246331
 31
-104.7892596294
  0
LINE
  5
390
100
AcDbEntity
  8
L1_120
  6
CONTINUOUS
 62
         7
100
AcDbLine
 10
1588.715886552
 20
-292.6320362134
 30
-106.5093507744
 11
1574.5075724622
 21
-292.6320362134
 31
-106.5093507744
  0
LINE
  5
391
100
AcDbEntity
  8
L1_120
  6
CONTINUOUS
 62
         7
100
AcDbLine
 10
1587.7676274715
 20
-291.9569059876
 30
-106.2636234679
 11
1574.5075724622
 21
-292.6320362134
 31
-106.5093507744
  0
LINE
  5
392
100
AcDbEntity
  8
L1_120
  6
CONTINUOUS
 62
         7
100
AcDbLine
 10
1588.715886552
 20
-291.2817757618
 30
-106.0178961615
 11
1572.8408548019
 21
-291.9569059876
 31
-106.2636234679
  0
LINE
  5
393
100
AcDbEntity
  8
L1_120
  6
CONTINUOUS
 62
         7
100
AcDbLine
 10
1587.7676274715
 20
-291.9569059876
 30
-106.2636234679
 11
1588.715886552
 21
-292.6320362134
 31
-106.5093507744
  0
LINE
  5
394
100
AcDbEntity
  8
L1_120
  6
CONTINUOUS
 62
         7
100
AcDbLine
 10
1588.715886552
 20
-291.2817757618
 30
-106.0178961615
 11
1587.7676274715
 21
-291.9569059876
 31
-106.2636234679
  0
LINE
  5
395
100
AcDbEntity
  8
L1_120
  6
CONTINUOUS
 62
         7
100
AcDbLine
 10
1573.7891138824
 20
-291.2817757618
 30
-106.0178961615
 11
1572.8408548019
 21
-291.9569059876
 31
-106.2636234679
  0
LINE
  5
396
100
AcDbEntity
  8
L1_120
  6
CONTINUOUS
 62
         7
100
AcDbLine
 10
1587.7676274715
 20
-289.2563850846
 30
-105.2807142422
 11
1573.7891138824
 21
-289.9315153103
 31
-105.5264415487
  0
LINE
  5
397
100
AcDbEntity
  8
L1_120
  6
CONTINUOUS
 62
         7
100
AcDbLine
 10
1588.715886552
 20
-288.5812548588
 30
-105.0349869358
 11
1572.8408548019
 21
-289.2563850846
 31
-105.2807142422
  0
LINE
  5
398
100
AcDbEntity
  8
L1_120
  6
CONTINUOUS
 62
         7
100
AcDbLine
 10
1587.7676274715
 20
-289.2563850846
 30
-105.2807142422
 11
1588.715886552
 21
-288.5812548588
 31
-105.0349869358
  0
LINE
  5
399
100
AcDbEntity
  8
L1_120
  6
CONTINUOUS
 62
         7
100
AcDbLine
 10
1588.715886552
 20
-289.9315153103
 30
-105.5264415487
 11
1587.7676274715
 21
-289.2563850846
 31
-105.2807142422
  0
LINE
  5
39A
100
AcDbEntity
  8
L1_120
  6
CONTINUOUS
 62
         7
100
AcDbLine
 10
1572.8408548019
 20
-289.2563850846
 30
-105.2807142422
 11
1573.7891138824
 21
-288.5812548588
 31
-105.0349869358
  0
LINE
  5
39B
100
AcDbEntity
  8
L1_120
  6
CONTINUOUS
 62
         7
100
AcDbLine
 10
1573.7891138824
 20
-289.9315153103
 30
-105.5264415487
 11
1572.8408548019
 21
-289.2563850846
 31
-105.2807142422
  0
LINE
  5
39C
100
AcDbEntity
  8
L1_120
  6
CONTINUOUS
 62
         7
100
AcDbLine
 10
1588.715886552
 20
-292.6320362134
 30
-106.5093507744
 11
1574.5075724622
 21
-292.6320362134
 31
-106.5093507744
  0
LINE
  5
39D
100
AcDbEntity
  8
L1_120
  6
CONTINUOUS
 62
         7
100
AcDbLine
 10
1587.7676274715
 20
-291.9569059876
 30
-106.2636234679
 11
1574.5075724622
 21
-292.6320362134
 31
-106.5093507744
  0
LINE
  5
39E
100
AcDbEntity
  8
L1_120
  6
CONTINUOUS
 62
         7
100
AcDbLine
 10
1588.715886552
 20
-291.2817757618
 30
-106.0178961615
 11
1572.8408548019
 21
-291.9569059876
 31
-106.2636234679
  0
LINE
  5
39F
100
AcDbEntity
  8
L1_120
  6
CONTINUOUS
 62
         7
100
AcDbLine
 10
1587.7676274715
 20
-291.9569059876
 30
-106.2636234679
 11
1588.715886552
 21
-292.6320362134
 31
-106.5093507744
  0
LINE
  5
3A0
100
AcDbEntity
  8
L1_120
  6
CONTINUOUS
 62
         7
100
AcDbLine
 10
1588.715886552
 20
-291.2817757618
 30
-106.0178961615
 11
1587.7676274715
 21
-291.9569059876
 31
-106.2636234679
  0
LINE
  5
3A1
100
AcDbEntity
  8
L1_120
  6
CONTINUOUS
 62
         7
100
AcDbLine
 10
1573.7891138824
 20
-291.2817757618
 30
-106.0178961615
 11
1572.8408548019
 21
-291.9569059876
 31
-106.2636234679
  0
LINE
  5
3A2
100
AcDbEntity
  8
L1_120
  6
CONTINUOUS
 62
         7
100
AcDbLine
 10
1587.7676274715
 20
-290.6066455361
 30
-105.7721688551
 11
1573.7891138824
 21
-291.2817757618
 31
-106.0178961615
  0
LINE
  5
3A3
100
AcDbEntity
  8
L1_120
  6
CONTINUOUS
 62
         7
100
AcDbLine
 10
1588.715886552
 20
-289.9315153103
 30
-105.5264415487
 11
1572.8408548019
 21
-290.6066455361
 31
-105.7721688551
  0
LINE
  5
3A4
100
AcDbEntity
  8
L1_120
  6
CONTINUOUS
 62
         7
100
AcDbLine
 10
1587.7676274715
 20
-290.6066455361
 30
-105.7721688551
 11
1588.715886552
 21
-289.9315153103
 31
-105.5264415487
  0
LINE
  5
3A5
100
AcDbEntity
  8
L1_120
  6
CONTINUOUS
 62
         7
100
AcDbLine
 10
1588.715886552
 20
-291.2817757618
 30
-106.0178961615
 11
1587.7676274715
 21
-290.6066455361
 31
-105.7721688551
  0
LINE
  5
3A6
100
AcDbEntity
  8
L1_120
  6
CONTINUOUS
 62
         7
100
AcDbLine
 10
1572.8408548019
 20
-290.6066455361
 30
-105.7721688551
 11
1573.7891138824
 21
-289.9315153103
 31
-105.5264415487
  0
LINE
  5
3A7
100
AcDbEntity
  8
L1_120
  6
CONTINUOUS
 62
         7
100
AcDbLine
 10
1573.7891138824
 20
-291.2817757618
 30
-106.0178961615
 11
1572.8408548019
 21
-290.6066455361
 31
-105.7721688551
  0
LINE
  5
3A8
100
AcDbEntity
  8
L1_120
  6
CONTINUOUS
 62
         7
100
AcDbLine
 10
1572.8408548019
 20
-292.6320362134
 30
-106.5093507744
 11
1572.8408548019
 21
-291.9569059876
 31
-106.2636234679
  0
LINE
  5
3A9
100
AcDbEntity
  8
L1_120
  6
CONTINUOUS
 62
         7
100
AcDbLine
 10
1573.7891138824
 20
-293.3003469419
 30
-106.7525959868
 11
1572.8408548019
 21
-292.6320362134
 31
-106.5093507744
  0
LINE
  5
3AA
100
AcDbEntity
  8
L1_120
  6
CONTINUOUS
 62
         7
100
AcDbLine
 10
1587.7676274715
 20
-293.3003469419
 30
-106.7525959868
 11
1588.715886552
 21
-292.6320362134
 31
-106.5093507744
  0
LINE
  5
3AB
100
AcDbEntity
  8
L1_120
  6
CONTINUOUS
 62
         7
100
AcDbLine
 10
1588.715886552
 20
-292.6320362134
 30
-106.5093507744
 11
1572.8408548019
 21
-292.6320362134
 31
-106.5093507744
  0
LINE
  5
3AC
100
AcDbEntity
  8
L1_120
  6
CONTINUOUS
 62
         7
100
AcDbLine
 10
1587.7676274715
 20
-293.3003469419
 30
-106.7525959868
 11
1573.7891138824
 21
-293.3003469419
 31
-106.7525959868
  0
DIMENSION
  5
3AF
100
AcDbEntity
  8
L1_120
  6
CONTINUOUS
 62
         4
100
AcDbDimension
  2
*D8
 10
1576.1595685234
 20
-306.3230804603
 30
-111.4924833563
 11
1589.7770890512
 21
-323.3572134222
 31
0.0
210
0.0
220
-0.3420201433256687
230
0.9396926207859084
  3
DIMSTYLE1
100
AcDbAlignedDimension
 13
1576.1595685234
 23
-293.3003469419
 33
-106.7525959868
 14
1585.3971728305
 24
-293.3003469419
 34
-106.7525959868
100
AcDbRotatedDimension
  0
CIRCLE
  5
3BC
100
AcDbEntity
  8
L1_120
  6
CONTINUOUS
 62
         7
100
AcDbCircle
 10
1609.556202115
 20
-211.0894736127
 30
76.830285162
 40
22.0
210
0.0
220
-0.3420201433256687
230
0.9396926207859084
  0
CIRCLE
  5
3BD
100
AcDbEntity
  8
L1_120
  6
CONTINUOUS
 62
         7
100
AcDbCircle
 10
1609.556202115
 20
-211.0894736127
 30
76.830285162
 40
17.0
210
0.0
220
-0.3420201433256687
230
0.9396926207859084
  0
CIRCLE
  5
3BE
100
AcDbEntity
  8
L1_120
  6
CONTINUOUS
 62
         7
100
AcDbCircle
 10
1609.556202115
 20
-211.0894736127
 30
76.830285162
 40
9.525
210
0.0
220
-0.3420201433256687
230
0.9396926207859084
  0
CIRCLE
  5
3BF
100
AcDbEntity
  8
L1_120
  6
CONTINUOUS
 62
         7
100
AcDbCircle
 10
1609.556202115
 20
-211.0894736127
 30
76.830285162
 40
10.025
210
0.0
220
-0.3420201433256687
230
0.9396926207859084
  0
ARC
  5
3C0
100
AcDbEntity
  8
L1_120
  6
DASHED
 62
         2
100
AcDbCircle
 10
1609.556202115
 20
-184.5544736127
 30
76.830285162
 40
10.0
210
0.0
220
-0.3420201433256687
230
0.9396926207859084
100
AcDbArc
 50
217.097799843
 51
322.902200157
  0
LINE
  5
3C1
100
AcDbEntity
  8
L1_120
  6
DASHED
 62
         2
100
AcDbLine
 10
1602.306202115
 20
-242.5432343439
 30
-6.5174361015
 11
1602.306202115
 21
-230.5503067525
 31
-2.1523674365
  0
LINE
  5
3C2
100
AcDbEntity
  8
L1_120
  6
DASHED
 62
         2
100
AcDbLine
 10
1616.806202115
 20
-242.5432343439
 30
-6.5174361015
 11
1616.806202115
 21
-230.5503067525
 31
-2.1523674365
  0
LINE
  5
3C3
100
AcDbEntity
  8
L1_120
  6
DASHED
 62
         2
100
AcDbLine
 10
1616.806202115
 20
-242.5432343439
 30
-6.5174361015
 11
1602.306202115
 21
-242.5432343439
 31
-6.5174361015
  0
LINE
  5
3C4
100
AcDbEntity
  8
L1_120
  6
DASHED
 62
         2
100
AcDbLine
 10
1618.0462737219
 20
-243.7085204821
 30
-6.9415655702
 11
1616.806202115
 21
-242.5432343439
 31
-6.5174361015
  0
LINE
  5
3C5
100
AcDbEntity
  8
L1_120
  6
DASHED
 62
         2
100
AcDbLine
 10
1602.306202115
 20
-242.5432343439
 30
-6.5174361015
 11
1601.0661305082
 21
-243.7085204821
 31
-6.9415655702
  0
LINE
  5
3C6
100
AcDbEntity
  8
L1_120
  6
DASHED
 62
         2
100
AcDbLine
 10
1601.506202115
 20
-243.2949884405
 30
-6.7910522161
 11
1601.506202115
 21
-229.5665869747
 31
-1.7943227185
  0
LINE
  5
3C7
100
AcDbEntity
  8
L1_120
  6
DASHED
 62
         2
100
AcDbLine
 10
1617.606202115
 20
-243.2949884405
 30
-6.7910522161
 11
1617.606202115
 21
-229.5665869747
 31
-1.7943227185
  0
LINE
  5
3C8
100
AcDbEntity
  8
L1_120
  6
CENTER
 62
         1
100
AcDbLine
 10
1635.500687513
 20
-224.6367258223
 30
0.0
 11
1583.4765891889
 21
-224.6367258223
 31
0.0
  0
LINE
  5
3C9
100
AcDbEntity
  8
L1_120
  6
CENTER
 62
         1
100
AcDbLine
 10
1609.556202115
 20
-250.7500358894
 30
-9.5044675826
 11
1609.556202115
 21
-198.9428727474
 31
9.3517977229
  0
LINE
  5
3CA
100
AcDbEntity
  8
L1_120
  6
CENTER
 62
         1
100
AcDbLine
 10
1635.500687513
 20
-224.6367258223
 30
0.0
 11
1583.4765891889
 21
-224.6367258223
 31
0.0
  0
LINE
  5
3CB
100
AcDbEntity
  8
L1_120
  6
CENTER
 62
         1
100
AcDbLine
 10
1609.556202115
 20
-250.7500358894
 30
-9.5044675826
 11
1609.556202115
 21
-198.9428727474
 31
9.3517977229
  0
LINE
  5
3CC
100
AcDbEntity
  8
L1_120
  6
CENTER
 62
         1
100
AcDbLine
 10
1591.278691024
 20
-177.4481354333
 30
17.1752422986
 11
1630.6417544609
 21
-279.0750729157
 31
-19.8139379447
  0
LINE
  5
3CD
100
AcDbEntity
  8
L1_120
  6
DASHED
 62
         2
100
AcDbLine
 10
1611.3877009883
 20
-233.8985985219
 30
-3.3710459762
 11
1622.1588938549
 21
-261.7074946922
 31
-13.49265643
  0
LINE
  5
3CE
100
AcDbEntity
  8
L1_120
  6
DASHED
 62
         2
100
AcDbLine
 10
1623.2664860396
 20
-265.5286758545
 30
-14.8834526328
 11
1621.8300014376
 21
-261.8199825239
 31
-13.5335986525
  0
LINE
  5
3CF
100
AcDbEntity
  8
L1_120
  6
DASHED
 62
         2
100
AcDbLine
 10
1625.5887719208
 20
-260.5344073046
 30
-13.0656875387
 11
1621.8300014376
 21
-261.8199825239
 31
-13.5335986525
  0
LINE
  5
3D0
100
AcDbEntity
  8
L1_120
  6
DASHED
 62
         2
100
AcDbLine
 10
1627.0252565227
 20
-264.2431006351
 30
-14.4155415191
 11
1625.5887719208
 21
-260.5344073046
 31
-13.0656875387
  0
LINE
  5
3D1
100
AcDbEntity
  8
L1_120
  6
DASHED
 62
         2
100
AcDbLine
 10
1614.4886866369
 20
-232.8379989659
 30
-2.9850193074
 11
1625.2598795035
 21
-260.6468951362
 31
-13.1066297612
  0
LINE
  5
3D2
100
AcDbEntity
  8
L1_120
  6
DASHED
 62
         2
100
AcDbLine
 10
1592.0871477073
 20
-185.0303510095
 30
14.4155415191
 11
1593.5236323092
 21
-188.73904434
 31
13.0656875387
  0
LINE
  5
3D3
100
AcDbEntity
  8
L1_120
  6
DASHED
 62
         2
100
AcDbLine
 10
1593.8525247265
 20
-188.6265565084
 30
13.1066297612
 11
1604.6237175931
 21
-216.4354526787
 31
2.9850193074
  0
LINE
  5
3D4
100
AcDbEntity
  8
L1_120
  6
DASHED
 62
         2
100
AcDbLine
 10
1595.8459181904
 20
-183.7447757901
 30
14.8834526328
 11
1597.2824027924
 21
-187.4534691207
 31
13.5335986525
  0
LINE
  5
3D5
100
AcDbEntity
  8
L1_120
  6
DASHED
 62
         2
100
AcDbLine
 10
1593.5236323092
 20
-188.73904434
 30
13.0656875387
 11
1597.2824027924
 21
-187.4534691207
 31
13.5335986525
  0
LINE
  5
3D6
100
AcDbEntity
  8
L1_120
  6
DASHED
 62
         2
100
AcDbLine
 10
1596.9535103751
 20
-187.5659569524
 30
13.49265643
 11
1607.7247032417
 21
-215.3748531227
 31
3.3710459762
  0
LINE
  5
3D7
100
AcDbEntity
  8
L1_120
  6
DASHED
 62
         2
100
AcDbLine
 10
1587.4152624413
 20
-244.5481254407
 30
-7.2471567837
 11
1586.8441120025
 21
-242.5451119299
 31
-6.5181194869
  0
LINE
  5
3D8
100
AcDbEntity
  8
L1_120
  6
DASHED
 62
         2
100
AcDbLine
 10
1584.8441120025
 20
-241.6687401991
 30
-6.1991462628
 11
1586.8441120025
 21
-242.5451119299
 31
-6.5181194869
  0
LINE
  5
3D9
100
AcDbEntity
  8
L1_120
  6
DASHED
 62
         2
100
AcDbLine
 10
1587.4152624413
 20
-244.5481254407
 30
-7.2471567837
 11
1584.8441120025
 21
-241.6687401991
 31
-6.1991462628
  0
LINE
  5
3DA
100
AcDbEntity
  8
L1_120
  6
DASHED
 62
         2
100
AcDbLine
 10
1582.6855103246
 20
-238.4847553347
 30
-5.0402705458
 11
1582.6855103246
 21
-236.411083158
 31
-4.2855155978
  0
LINE
  5
3DB
100
AcDbEntity
  8
L1_120
  6
DASHED
 62
         2
100
AcDbLine
 10
1580.9950372776
 20
-235.0781523762
 30
-3.8003684689
 11
1582.6855103246
 21
-236.411083158
 31
-4.2855155978
  0
LINE
  5
3DC
100
AcDbEntity
  8
L1_120
  6
DASHED
 62
         2
100
AcDbLine
 10
1582.6855103246
 20
-238.4847553347
 30
-5.0402705458
 11
1580.9950372776
 21
-235.0781523762
 31
-3.8003684689
  0
LINE
  5
3DD
100
AcDbEntity
  8
L1_120
  6
DASHED
 62
         2
100
AcDbLine
 10
1575.9245957945
 20
-253.608467044
 30
-10.5448514396
 11
1587.4152624413
 21
-244.5481254407
 31
-7.2471567837
  0
LINE
  5
3DE
100
AcDbEntity
  8
L1_120
  6
DASHED
 62
         2
100
AcDbLine
 10
1573.3534453558
 20
-250.7290818025
 30
-9.4968409187
 11
1584.8441120025
 21
-241.6687401991
 31
-6.1991462628
  0
LINE
  5
3DF
100
AcDbEntity
  8
L1_120
  6
DASHED
 62
         2
100
AcDbLine
 10
1569.090893519
 20
-244.4417242642
 30
-7.2084299226
 11
1582.6855103246
 21
-238.4847553347
 31
-5.0402705458
  0
LINE
  5
3E0
100
AcDbEntity
  8
L1_120
  6
DASHED
 62
         2
100
AcDbLine
 10
1567.4004204721
 20
-241.0351213057
 30
-5.9685278457
 11
1580.9950372776
 21
-235.0781523762
 31
-3.8003684689
  0
LINE
  5
3E1
100
AcDbEntity
  8
L1_120
  6
DASHED
 62
         2
100
AcDbLine
 10
1587.4152624413
 20
-204.7253262039
 30
7.2471567837
 11
1586.8441120025
 21
-206.7283397147
 31
6.5181194869
  0
LINE
  5
3E2
100
AcDbEntity
  8
L1_120
  6
DASHED
 62
         2
100
AcDbLine
 10
1587.4152624413
 20
-204.7253262039
 30
7.2471567837
 11
1584.8441120025
 21
-207.6047114455
 31
6.1991462628
  0
LINE
  5
3E3
100
AcDbEntity
  8
L1_120
  6
DASHED
 62
         2
100
AcDbLine
 10
1584.8441120025
 20
-207.6047114455
 30
6.1991462628
 11
1586.8441120025
 21
-206.7283397147
 31
6.5181194869
  0
LINE
  5
3E4
100
AcDbEntity
  8
L1_120
  6
DASHED
 62
         2
100
AcDbLine
 10
1582.6855103246
 20
-210.7886963099
 30
5.0402705458
 11
1582.6855103246
 21
-212.8623684866
 31
4.2855155978
  0
LINE
  5
3E5
100
AcDbEntity
  8
L1_120
  6
DASHED
 62
         2
100
AcDbLine
 10
1580.9950372776
 20
-214.1952992684
 30
3.8003684689
 11
1582.6855103246
 21
-212.8623684866
 31
4.2855155978
  0
LINE
  5
3E6
100
AcDbEntity
  8
L1_120
  6
DASHED
 62
         2
100
AcDbLine
 10
1582.6855103246
 20
-210.7886963099
 30
5.0402705458
 11
1580.9950372776
 21
-214.1952992684
 31
3.8003684689
  0
LINE
  5
3E7
100
AcDbEntity
  8
L1_120
  6
DASHED
 62
         2
100
AcDbLine
 10
1567.4004204721
 20
-208.2383303389
 30
5.9685278457
 11
1580.9950372776
 21
-214.1952992684
 31
3.8003684689
  0
LINE
  5
3E8
100
AcDbEntity
  8
L1_120
  6
DASHED
 62
         2
100
AcDbLine
 10
1569.090893519
 20
-204.8317273804
 30
7.2084299226
 11
1582.6855103246
 21
-210.7886963099
 31
5.0402705458
  0
LINE
  5
3E9
100
AcDbEntity
  8
L1_120
  6
DASHED
 62
         2
100
AcDbLine
 10
1573.3534453558
 20
-198.5443698421
 30
9.4968409187
 11
1584.8441120025
 21
-207.6047114455
 31
6.1991462628
  0
LINE
  5
3EA
100
AcDbEntity
  8
L1_120
  6
DASHED
 62
         2
100
AcDbLine
 10
1575.9245957945
 20
-195.6649846006
 30
10.5448514396
 11
1587.4152624413
 21
-204.7253262039
 31
7.2471567837
  0
LINE
  5
3EB
100
AcDbEntity
  8
L1_120
  6
CENTER
 62
         1
100
AcDbLine
 10
1572.211535513
 20
-254.0828360331
 30
-10.7175076317
 11
1609.556202115
 21
-224.6367258223
 31
0.0
  0
LINE
  5
3EC
100
AcDbEntity
  8
L1_120
  6
CENTER
 62
         1
100
AcDbLine
 10
1565.373697497
 20
-243.9968748432
 30
-7.0465179746
 11
1609.556202115
 21
-224.6367258223
 31
0.0
  0
LINE
  5
3ED
100
AcDbEntity
  8
L1_120
  6
CENTER
 62
         1
100
AcDbLine
 10
1565.373697497
 20
-205.2765768014
 30
7.0465179746
 11
1609.556202115
 21
-224.6367258223
 31
0.0
  0
LINE
  5
3EE
100
AcDbEntity
  8
L1_120
  6
CENTER
 62
         1
100
AcDbLine
 10
1572.211535513
 20
-195.1906156115
 30
10.7175076317
 11
1609.556202115
 21
-224.6367258223
 31
0.0
  0
CIRCLE
  5
3EF
100
AcDbEntity
  8
L1_120
  6
CONTINUOUS
 62
         7
100
AcDbCircle
 10
1609.556202115
 20
-211.0894736127
 30
76.830285162
 40
34.925
210
0.0
220
-0.3420201433256687
230
0.9396926207859084
  0
LINE
  5
3F0
100
AcDbEntity
  8
L1_120
  6
CONTINUOUS
 62
         7
100
AcDbLine
 10
1563.8149997342
 20
-236.7117759994
 30
-4.3949588417
 11
1571.356202115
 21
-236.7117759994
 31
-4.3949588417
  0
LINE
  5
3F1
100
AcDbEntity
  8
L1_120
  6
CONTINUOUS
 62
         7
100
AcDbLine
 10
1562.8149997342
 20
-237.6514686202
 30
-4.7369789851
 11
1563.8149997342
 21
-236.7117759994
 31
-4.3949588417
  0
LINE
  5
3F2
100
AcDbEntity
  8
L1_120
  6
CONTINUOUS
 62
         7
100
AcDbLine
 10
1563.8149997342
 20
-212.5616756452
 30
4.3949588417
 11
1571.356202115
 21
-212.5616756452
 31
4.3949588417
  0
LINE
  5
3F3
100
AcDbEntity
  8
L1_120
  6
CONTINUOUS
 62
         7
100
AcDbLine
 10
1562.8149997342
 20
-211.6219830244
 30
4.7369789851
 11
1563.8149997342
 21
-212.5616756452
 31
4.3949588417
  0
LINE
  5
3F4
100
AcDbEntity
  8
L1_120
  6
CONTINUOUS
 62
         7
100
AcDbLine
 10
1571.856202115
 20
-213.0315219556
 30
4.2239487701
 11
1571.856202115
 21
-236.241929689
 31
-4.2239487701
  0
LINE
  5
3F5
100
AcDbEntity
  8
L1_120
  6
CONTINUOUS
 62
         7
100
AcDbLine
 10
1571.356202115
 20
-212.5616756452
 30
4.3949588417
 11
1571.856202115
 21
-213.0315219556
 31
4.2239487701
  0
LINE
  5
3F6
100
AcDbEntity
  8
L1_120
  6
CONTINUOUS
 62
         7
100
AcDbLine
 10
1571.856202115
 20
-236.241929689
 30
-4.2239487701
 11
1571.356202115
 21
-236.7117759994
 31
-4.3949588417
  0
LINE
  5
3F7
100
AcDbEntity
  8
L1_120
  6
CONTINUOUS
 62
         7
100
AcDbLine
 10
1645.056202115
 20
-236.241929689
 30
-4.2239487701
 11
1645.556202115
 21
-236.7117759994
 31
-4.3949588417
  0
LINE
  5
3F8
100
AcDbEntity
  8
L1_120
  6
CONTINUOUS
 62
         7
100
AcDbLine
 10
1645.056202115
 20
-213.0315219556
 30
4.2239487701
 11
1645.556202115
 21
-212.5616756452
 31
4.3949588417
  0
LINE
  5
3F9
100
AcDbEntity
  8
L1_120
  6
CONTINUOUS
 62
         7
100
AcDbLine
 10
1655.2974044958
 20
-236.7117759994
 30
-4.3949588417
 11
1645.556202115
 21
-236.7117759994
 31
-4.3949588417
  0
LINE
  5
3FA
100
AcDbEntity
  8
L1_120
  6
CONTINUOUS
 62
         7
100
AcDbLine
 10
1656.2974044958
 20
-237.6514686202
 30
-4.7369789851
 11
1655.2974044958
 21
-236.7117759994
 31
-4.3949588417
  0
LINE
  5
3FB
100
AcDbEntity
  8
L1_120
  6
CONTINUOUS
 62
         7
100
AcDbLine
 10
1656.2974044958
 20
-211.6219830244
 30
4.7369789851
 11
1655.2974044958
 21
-212.5616756452
 31
4.3949588417
  0
LINE
  5
3FC
100
AcDbEntity
  8
L1_120
  6
CONTINUOUS
 62
         7
100
AcDbLine
 10
1655.2974044958
 20
-212.5616756452
 30
4.3949588417
 11
1645.556202115
 21
-212.5616756452
 31
4.3949588417
  0
LINE
  5
3FD
100
AcDbEntity
  8
L1_120
  6
CONTINUOUS
 62
         7
100
AcDbLine
 10
1645.056202115
 20
-213.0315219556
 30
4.2239487701
 11
1645.056202115
 21
-236.241929689
 31
-4.2239487701
  0
LINE
  5
3FE
100
AcDbEntity
  8
L1_120
  6
CENTER
 62
         1
100
AcDbLine
 10
1609.556202115
 20
-276.0848968103
 30
-18.7256028471
 11
1609.556202115
 21
-175.6180146407
 31
17.8413517922
  0
LINE
  5
3FF
100
AcDbEntity
  8
L1_120
  6
CENTER
 62
         1
100
AcDbLine
 10
1554.806202115
 20
-224.6367258223
 30
0.0
 11
1664.306202115
 21
-224.6367258223
 31
0.0
  0
ARC
  5
400
100
AcDbEntity
  8
L1_120
  6
CONTINUOUS
 62
         7
100
AcDbCircle
 10
1609.556202115
 20
-211.0894736127
 30
76.830285162
 40
48.75
210
0.0
220
-0.3420201433256687
230
0.9396926207859084
100
AcDbArc
 50
196.5052120024
 51
343.4947879976
  0
ARC
  5
401
100
AcDbEntity
  8
L1_120
  6
DASHED
 62
         2
100
AcDbCircle
 10
1609.556202115
 20
-211.0894736127
 30
76.830285162
 40
45.625
210
0.0
220
-0.3420201433256687
230
0.9396926207859084
100
AcDbArc
 50
16.3583384794
 51
163.6416615206
  0
ARC
  5
402
100
AcDbEntity
  8
L1_120
  6
CONTINUOUS
 62
         7
100
AcDbCircle
 10
1609.556202115
 20
-211.0894736127
 30
76.830285162
 40
48.75
210
0.0
220
-0.3420201433256687
230
0.9396926207859084
100
AcDbArc
 50
16.5052120024
 51
163.4947879976
  0
ARC
  5
403
100
AcDbEntity
  8
L1_120
  6
DASHED
 62
         2
100
AcDbCircle
 10
1609.556202115
 20
-211.0894736127
 30
76.830285162
 40
45.625
210
0.0
220
-0.3420201433256687
230
0.9396926207859084
100
AcDbArc
 50
197.6716498685
 51
343.6416615206
  0
LINE
  5
404
100
AcDbEntity
  8
L1_120
  6
DASHED
 62
         2
100
AcDbLine
 10
1572.356202115
 20
-219.9382627184
 30
1.7101007166
 11
1572.356202115
 21
-229.3351889262
 31
-1.7101007166
  0
LINE
  5
405
100
AcDbEntity
  8
L1_120
  6
DASHED
 62
         2
100
AcDbLine
 10
1572.356202115
 20
-219.9382627184
 30
1.7101007166
 11
1571.856202115
 21
-219.468416408
 31
1.8811107883
  0
LINE
  5
406
100
AcDbEntity
  8
L1_120
  6
DASHED
 62
         2
100
AcDbLine
 10
1572.356202115
 20
-229.3351889262
 30
-1.7101007166
 11
1571.856202115
 21
-229.8050352366
 31
-1.8811107883
  0
LINE
  5
407
100
AcDbEntity
  8
L1_120
  6
DASHED
 62
         2
100
AcDbLine
 10
1572.056202115
 20
-219.9382627184
 30
1.7101007166
 11
1576.306202115
 21
-219.9382627184
 31
1.7101007166
  0
LINE
  5
408
100
AcDbEntity
  8
L1_120
  6
DASHED
 62
         2
100
AcDbLine
 10
1571.856202115
 20
-229.5231274504
 30
-1.7785047453
 11
1572.056202115
 21
-229.3351889262
 31
-1.7101007166
  0
LINE
  5
409
100
AcDbEntity
  8
L1_120
  6
DASHED
 62
         2
100
AcDbLine
 10
1571.856202115
 20
-219.7503241942
 30
1.7785047453
 11
1572.056202115
 21
-219.9382627184
 31
1.7101007166
  0
LINE
  5
40A
100
AcDbEntity
  8
L1_120
  6
DASHED
 62
         2
100
AcDbLine
 10
1572.056202115
 20
-219.9382627184
 30
1.7101007166
 11
1572.056202115
 21
-229.3351889262
 31
-1.7101007166
  0
ARC
  5
40B
100
AcDbEntity
  8
L1_120
  6
DASHED
 62
         2
100
AcDbCircle
 10
1576.306202115
 20
-215.8894736127
 30
76.830285162
 40
0.2
210
0.0
220
-0.3420201433256687
230
0.9396926207859084
100
AcDbArc
 50
270.0
 51
360.0
  0
ARC
  5
40C
100
AcDbEntity
  8
L1_120
  6
DASHED
 62
         2
100
AcDbCircle
 10
1576.306202115
 20
-206.2894736127
 30
76.830285162
 40
0.2
210
0.0
220
-0.3420201433256687
230
0.9396926207859084
100
AcDbArc
 50
0.0
 51
90.0
  0
LINE
  5
40D
100
AcDbEntity
  8
L1_120
  6
DASHED
 62
         2
100
AcDbLine
 10
1576.506202115
 20
-220.1262012425
 30
1.641696688
 11
1576.506202115
 21
-229.1472504021
 31
-1.641696688
  0
LINE
  5
40E
100
AcDbEntity
  8
L1_120
  6
DASHED
 62
         2
100
AcDbLine
 10
1572.056202115
 20
-229.3351889262
 30
-1.7101007166
 11
1576.306202115
 21
-229.3351889262
 31
-1.7101007166
  0
TEXT
  5
410
100
AcDbEntity
  8
L1_120
  6
CONTINUOUS
 62
         2
100
AcDbText
 10
1569.2364880131
 20
-139.4348619045
 30
0.0
 40
4.5
  1
521140
 41
0.98
  7
BOX
100
AcDbText
  0
ENDSEC
  0
SECTION
  2
OBJECTS
  0
DICTIONARY
  5
19
100
AcDbDictionary
  3
ACAD_GROUP
350
1A
  3
ACAD_MLINESTYLE
350
1B
  0
DICTIONARY
  5
1A
102
{ACAD_REACTORS
330
19
102
}
100
AcDbDictionary
  0
DICTIONARY
  5
1B
102
{ACAD_REACTORS
330
19
102
}
100
AcDbDictionary
  3
STANDARD
350
1C
  0
MLINESTYLE
  5
1C
102
{ACAD_REACTORS
330
1B
102
}
100
AcDbMlineStyle
  2
STANDARD
 70
         0
  3

 62
         0
 51
90.0
 52
90.0
 71
         2
 49
0.5
 62
       256
  6
BYLAYER
 49
-0.5
 62
       256
  6
BYLAYER
  0
ENDSEC
  0
EOF
