  0
SECTION
  2
HEADER
  9
$ACADVER
  1
AC1014
  9
$ACADMAINTVER
 70
         0
  9
$DWGCODEPAGE
  3
BIG5
  9
$INSBASE
 10
0.0
 20
0.0
 30
0.0
  9
$EXTMIN
 10
1093.5500917817
 20
-771.2566530379
 30
0.0
  9
$EXTMAX
 10
1593.0522584894
 20
-526.9535324408
 30
0.0
  9
$LIMMIN
 10
0.0
 20
0.0
  9
$LIMMAX
 10
0.0
 20
0.0
  9
$ORTHOMODE
 70
         0
  9
$REGENMODE
 70
         1
  9
$FILLMODE
 70
         1
  9
$QTEXTMODE
 70
         0
  9
$MIRRTEXT
 70
         1
  9
$DRAGMODE
 70
         2
  9
$LTSCALE
 40
1.0
  9
$OSMODE
 70
         0
  9
$ATTMODE
 70
         1
  9
$TEXTSIZE
 40
1.7
  9
$TRACEWID
 40
0.05
  9
$TEXTSTYLE
  7
STANDARD
  9
$CLAYER
  8
0
  9
$CELTYPE
  6
CONTINUOUS
  9
$CECOLOR
 62
        16
  9
$CELTSCALE
 40
1.0
  9
$DELOBJ
 70
         1
  9
$DISPSILH
 70
         0
  9
$DIMSCALE
 40
1.0
  9
$DIMASZ
 40
0.18
  9
$DIMEXO
 40
0.0625
  9
$DIMDLI
 40
0.38
  9
$DIMRND
 40
0.0
  9
$DIMDLE
 40
0.0
  9
$DIMEXE
 40
0.25
  9
$DIMTP
 40
0.01
  9
$DIMTM
 40
-0.01
  9
$DIMTXT
 40
2.7
  9
$DIMCEN
 40
0.09
  9
$DIMTSZ
 40
0.0
  9
$DIMTOL
 70
         0
  9
$DIMLIM
 70
         0
  9
$DIMTIH
 70
         1
  9
$DIMTOH
 70
         1
  9
$DIMSE1
 70
         0
  9
$DIMSE2
 70
         0
  9
$DIMTAD
 70
         0
  9
$DIMZIN
 70
         0
  9
$DIMBLK
  1

  9
$DIMASO
 70
         1
  9
$DIMSHO
 70
         1
  9
$DIMPOST
  1

  9
$DIMAPOST
  1

  9
$DIMALT
 70
         0
  9
$DIMALTD
 70
         2
  9
$DIMALTF
 40
25.4
  9
$DIMLFAC
 40
1.0
  9
$DIMTOFL
 70
         0
  9
$DIMTVP
 40
0.0
  9
$DIMTIX
 70
         0
  9
$DIMSOXD
 70
         0
  9
$DIMSAH
 70
         0
  9
$DIMBLK1
  1

  9
$DIMBLK2
  1

  9
$DIMSTYLE
  2
STANDARD
  9
$DIMCLRD
 70
         0
  9
$DIMCLRE
 70
         0
  9
$DIMCLRT
 70
        16
  9
$DIMTFAC
 40
1.0
  9
$DIMGAP
 40
0.09
  9
$DIMJUST
 70
         0
  9
$DIMSD1
 70
         0
  9
$DIMSD2
 70
         0
  9
$DIMTOLJ
 70
         1
  9
$DIMTZIN
 70
         0
  9
$DIMALTZ
 70
         0
  9
$DIMALTTZ
 70
         0
  9
$DIMFIT
 70
         3
  9
$DIMUPT
 70
         0
  9
$DIMUNIT
 70
         2
  9
$DIMDEC
 70
         4
  9
$DIMTDEC
 70
         4
  9
$DIMALTU
 70
         2
  9
$DIMALTTD
 70
         2
  9
$DIMTXSTY
  7
STANDARD
  9
$DIMAUNIT
 70
         0
  9
$LUNITS
 70
         2
  9
$LUPREC
 70
        10
  9
$SKETCHINC
 40
0.1
  9
$FILLETRAD
 40
0.0
  9
$AUNITS
 70
         0
  9
$AUPREC
 70
         0
  9
$MENU
  1
acad
  9
$ELEVATION
 40
0.0
  9
$PELEVATION
 40
0.0
  9
$THICKNESS
 40
0.0
  9
$LIMCHECK
 70
         0
  9
$BLIPMODE
 70
         1
  9
$CHAMFERA
 40
0.0
  9
$CHAMFERB
 40
0.0
  9
$CHAMFERC
 40
0.0
  9
$CHAMFERD
 40
0.0
  9
$SKPOLY
 70
         0
  9
$TDCREATE
 40
0.000000000
  9
$TDUPDATE
 40
0.000000000
  9
$TDINDWG
 40
0.0000000000
  9
$TDUSRTIMER
 40
0.0000000000
  9
$USRTIMER
 70
         1
  9
$ANGBASE
 50
0.0
  9
$ANGDIR
 70
         0
  9
$PDMODE
 70
         2
  9
$PDSIZE
 40
0.0
  9
$PLINEWID
 40
0.0
  9
$COORDS
 70
         0
  9
$SPLFRAME
 70
         0
  9
$SPLINETYPE
 70
         6
  9
$SPLINESEGS
 70
         8
  9
$ATTDIA
 70
         0
  9
$ATTREQ
 70
         1
  9
$HANDLING
 70
         1
  9
$HANDSEED
  5
369
  9
$SURFTAB1
 70
         6
  9
$SURFTAB2
 70
         6
  9
$SURFTYPE
 70
         6
  9
$SURFU
 70
         6
  9
$SURFV
 70
         6
  9
$UCSNAME
  2

  9
$UCSORG
 10
0.0
 20
0.0
 30
0.0
  9
$UCSXDIR
 10
1.0
 20
0.0
 30
0.0
  9
$UCSYDIR
 10
0.0
 20
1.0
 30
0.0
  9
$PUCSNAME
  2

  9
$PUCSORG
 10
0.0
 20
0.0
 30
0.0
  9
$PUCSXDIR
 10
1.0
 20
0.0
 30
0.0
  9
$PUCSYDIR
 10
0.0
 20
1.0
 30
0.0
  9
$USERI1
 70
         0
  9
$USERI2
 70
         0
  9
$USERI3
 70
         0
  9
$USERI4
 70
         0
  9
$USERI5
 70
         0
  9
$USERR1
 40
0.0
  9
$USERR2
 40
0.0
  9
$USERR3
 40
0.0
  9
$USERR4
 40
0.0
  9
$USERR5
 40
0.0
  9
$WORLDVIEW
 70
         1
  9
$SHADEDGE
 70
         3
  9
$SHADEDIF
 70
        70
  9
$TILEMODE
 70
         1
  9
$MAXACTVP
 70
        16
  9
$PINSBASE
 10
0.0
 20
0.0
 30
0.0
  9
$PLIMCHECK
 70
         0
  9
$PEXTMIN
 10
1.0000000000E+20
 20
1.0000000000E+20
 30
1.0000000000E+20
  9
$PEXTMAX
 10
-1.0000000000E+20
 20
-1.0000000000E+20
 30
-1.0000000000E+20
  9
$PLIMMIN
 10
0.0
 20
0.0
  9
$PLIMMAX
 10
12.0
 20
9.0
  9
$UNITMODE
 70
         0
  9
$VISRETAIN
 70
         0
  9
$PLINEGEN
 70
         1
  9
$PSLTSCALE
 70
         0
  9
$TREEDEPTH
 70
      3020
  9
$PICKSTYLE
 70
         1
  9
$CMLSTYLE
  2
STANDARD
  9
$CMLJUST
 70
         0
  9
$CMLSCALE
 40
1.0
  9
$PROXYGRAPHICS
 70
         0
  9
$MEASUREMENT
 70
         0
  0
ENDSEC
  0
SECTION
  2
CLASSES
  0
CLASS
  1
LWPOLYLINE
  2
AcDbPolyline
  3
"AutoCAD"
 90
        0
280
         0
281
         1
  0
CLASS
  1
IMAGE
  2
AcDbRasterImage
  3
ISM
 90
      127
280
         0
281
         1
  0
CLASS
  1
OLE2FRAME
  2
AcDbOle2Frame
  3
""
 90
        0
280
         0
281
         1
  0
CLASS
  1
HATCH
  2
AcDbHatch
  3
"ACAD_SEDONA"
 90
        0
280
         0
281
         1
  0
CLASS
  1
DICTIONARYVAR
  2
AcDbDictionaryVar
  3
"AutoCAD"
 90
        0
280
         0
281
         0
  0
CLASS
  1
RASTERVARIABLES
  2
AcDbRasterVariables
  3
ISM
 90
        0
280
         0
281
         0
  0
CLASS
  1
IMAGEDEF
  2
AcDbRasterImageDef
  3
ISM
 90
        0
280
         0
281
         0
  0
CLASS
  1
IMAGEDEF_REACTOR
  2
AcDbRasterImageDefReactor
  3
ISM
 90
        1
280
         0
281
         0
  0
CLASS
  1
IDBUFFER
  2
AcDbIdBuffer
  3
"Acad"
 90
        0
280
         0
281
         0
  0
CLASS
  1
SPATIAL_FILTER
  2
AcDbSpatialFilter
  3
"Acad"
 90
        0
280
         0
281
         0
  0
CLASS
  1
XRECORD
  2
AcDbXrecord
  3
"<Built In>"
 90
        0
280
         0
281
         0
  0
CLASS
  1
SORTENTSTABLE
  2
AcDbSortentsTable
  3
"AutoCAD"
 90
        0
280
         0
281
         0
  0
CLASS
  1
LAYER_INDEX
  2
AcDbLayerIndex
  3
"Acad"
 90
        0
280
         0
281
         0
  0
CLASS
  1
SPATIAL_INDEX
  2
AcDbSpatialIndex
  3
"Acad"
 90
        0
280
         0
281
         0
  0
CLASS
  1
OBJECT_PTR
  2
CAseDLPNTableRecord
  3
"ASE-LPNTableRecord"
 90
        1
280
         0
281
         0
  0
CLASS
  1
LAYOUT
  2
AcDbLayout
  3
"AutoCAD 2000"
 90
        1
280
         0
281
         0
  0
CLASS
  1
PLOTSETTINGS
  2
AcDbPlotSettings
  3
"AutoCAD 2000"
 90
        1
280
         0
281
         0
  0
CLASS
  1
ACDBDICTIONARYWDFLT
  2
AcDbDictionaryWithDefault
  3
"AutoCAD 2000"
 90
        1
280
         0
281
         0
  0
CLASS
  1
ACDBPLACEHOLDER
  2
AcDbPlaceHolder
  3
"AutoCAD 2000"
 90
        1
280
         0
281
         0
  0
CLASS
  1
VBA_PROJECT
  2
AcDbVbaProject
  3
"acadvba"
 90
        1
280
         0
281
         0
  0
CLASS
  1
WIPEOUT
  2
AcDbWipeout
  3
WipeOut|AutoCAD Express Tool|expresstools@autodesk.com
 90
      127
280
         0
281
         1
  0
CLASS
  1
WIPEOUTVARIABLES
  2
AcDbWipeoutVariables
  3
WipeOut|AutoCAD Express Tool|expresstools@autodesk.com
 90
        0
280
         0
281
         0
  0
CLASS
  1
RTEXT
  2
RText
  3
RText|AutoCAD Express Tool|expresstools@autodesk.com
 90
        0
280
         0
281
         1
  0
CLASS
  1
ARCALIGNEDTEXT
  2
AcDbArcAlignedText
  3
ATEXT|AutoCAD Express Tool|expresstools@autodesk.com
 90
        0
280
         0
281
         1
  0
ENDSEC
  0
SECTION
  2
TABLES
  0
TABLE
  2
VPORT
  5
7
100
AcDbSymbolTable
 70
         1
  0
VPORT
  5
15
100
AcDbSymbolTableRecord
100
AcDbViewportTableRecord
  2
*ACTIVE
 70
         0
 10
0.0
 20
0.0
 11
1.0
 21
1.0
 12
1343.3011751355
 22
-649.1050927394
 13
0.0
 23
0.0
 14
1.0
 24
1.0
 15
0.0
 25
0.0
 16
0.0
 26
0.0
 36
1.0
 17
0.0
 27
0.0
 37
0.0
 40
244.3031205971
 41
2.0446000259
 42
50.0
 43
0.0
 44
0.0
 50
0.0
 51
0.0
 71
         0
 72
       100
 73
         1
 74
         1
 75
         0
 76
         0
 77
         0
 78
         0
  0
ENDTAB
  0
TABLE
  2
LTYPE
  5
4
100
AcDbSymbolTable
 70
         6
  0
LTYPE
  5
11
100
AcDbSymbolTableRecord
100
AcDbLinetypeTableRecord
  2
BYBLOCK
 70
        64
  3

 72
        65
 73
         0
 40
0.0
  0
LTYPE
  5
12
100
AcDbSymbolTableRecord
100
AcDbLinetypeTableRecord
  2
BYLAYER
 70
        64
  3

 72
        65
 73
         0
 40
0.0
  0
LTYPE
  5
13
100
AcDbSymbolTableRecord
100
AcDbLinetypeTableRecord
  2
CONTINUOUS
 70
        64
  3
Solid line
 72
        65
 73
         0
 40
0.0
  0
LTYPE
  5
1D
100
AcDbSymbolTableRecord
100
AcDbLinetypeTableRecord
  2
DASHED
 70
        64
  3
_ _ _ _ _ _ _ _ _ _ _ _ _ _ _ _
 72
        65
 73
         2
 40
0.2
 49
0.1
 74
         0
 49
-0.1
 74
         0
  0
LTYPE
  5
1E
100
AcDbSymbolTableRecord
100
AcDbLinetypeTableRecord
  2
CENTER
 70
        64
  3
___ _ ___ _ ___ _ ___ _ ___ _ ___ _ ___ _ ___ _
 72
        65
 73
         4
 40
0.95
 49
0.625
 74
         0
 49
-0.125
 74
         0
 49
0.075
 74
         0
 49
-0.125
 74
         0
  0
LTYPE
  5
1F
100
AcDbSymbolTableRecord
100
AcDbLinetypeTableRecord
  2
PHANTOM
 70
        64
  3
______  __  __  ______  __  __  ______  __  __  
 72
        65
 73
         6
 40
1.025
 49
0.625
 74
         0
 49
-0.125
 74
         0
 49
0.075
 74
         0
 49
-0.125
 74
         0
 49
0.075
 74
         0
 49
-0.125
 74
         0
  0
ENDTAB
  0
TABLE
  2
LAYER
  5
2
100
AcDbSymbolTable
 70
         6
  0
LAYER
  5
14
100
AcDbSymbolTableRecord
100
AcDbLayerTableRecord
  2
0
 70
         0
 62
         7
  6
CONTINUOUS
  0
LAYER
  5
21
100
AcDbSymbolTableRecord
100
AcDbLayerTableRecord
  2
_____U
 70
         1
 62
         7
  6
CONTINUOUS
  0
LAYER
  5
22
100
AcDbSymbolTableRecord
100
AcDbLayerTableRecord
  2
_____T______
 70
         1
 62
         7
  6
CONTINUOUS
  0
LAYER
  5
23
100
AcDbSymbolTableRecord
100
AcDbLayerTableRecord
  2
______L_______
 70
         1
 62
         7
  6
CONTINUOUS
  0
LAYER
  5
24
100
AcDbSymbolTableRecord
100
AcDbLayerTableRecord
  2
L1_120
 70
         0
 62
         7
  6
CONTINUOUS
  0
LAYER
  5
208
100
AcDbSymbolTableRecord
100
AcDbLayerTableRecord
  2
DEFPOINTS
 70
         0
 62
        -7
  6
CONTINUOUS
  0
ENDTAB
  0
TABLE
  2
STYLE
  5
3
100
AcDbSymbolTable
 70
         6
  0
STYLE
  5
17
100
AcDbSymbolTableRecord
100
AcDbTextStyleTableRecord
  2
STANDARD
 70
         0
 40
0.0
 41
1.0
 50
0.0
 71
         0
 42
0.0
  3
txt
  4

  0
STYLE
  5
90
100
AcDbSymbolTableRecord
100
AcDbTextStyleTableRecord
  2
BOX
 70
         0
 40
1.0
 41
1.0
 50
0.0
 71
         0
 42
0.2
  3
txt.shx
  4

  0
STYLE
  5
211
100
AcDbSymbolTableRecord
100
AcDbTextStyleTableRecord
  2
BOX
 70
         0
 40
1.0
 41
1.0
 50
0.0
 71
         0
 42
0.2
  3
txt.shx
  4

  0
STYLE
  5
2B8
100
AcDbSymbolTableRecord
100
AcDbTextStyleTableRecord
  2
BOX
 70
         0
 40
1.0
 41
1.0
 50
0.0
 71
         0
 42
0.2
  3
txt.shx
  4

  0
STYLE
  5
2E2
100
AcDbSymbolTableRecord
100
AcDbTextStyleTableRecord
  2
BOX
 70
         0
 40
1.0
 41
1.0
 50
0.0
 71
         0
 42
0.2
  3
txt.shx
  4

  0
STYLE
  5
2F0
100
AcDbSymbolTableRecord
100
AcDbTextStyleTableRecord
  2
BOX
 70
         0
 40
1.0
 41
1.0
 50
0.0
 71
         0
 42
0.2
  3
txt.shx
  4

  0
ENDTAB
  0
TABLE
  2
VIEW
  5
5
100
AcDbSymbolTable
 70
         0
  0
ENDTAB
  0
TABLE
  2
UCS
  5
6
100
AcDbSymbolTable
 70
         1
  0
UCS
  5
20
100
AcDbSymbolTableRecord
100
AcDbUCSTableRecord
  2
CK_VIEW_1
 70
         0
 10
0.0
 20
0.0
 30
1.0
 11
1.0
 21
0.0
 31
0.0
 12
0.0
 22
1.0
 32
0.0
  0
ENDTAB
  0
TABLE
  2
APPID
  5
8
100
AcDbSymbolTable
 70
         1
  0
APPID
  5
16
100
AcDbSymbolTableRecord
100
AcDbRegAppTableRecord
  2
ACAD
 70
         0
  0
ENDTAB
  0
TABLE
  2
DIMSTYLE
  5
9
100
AcDbSymbolTable
 70
         2
  0
DIMSTYLE
105
18
100
AcDbSymbolTableRecord
100
AcDbDimStyleTableRecord
  2
STANDARD
 70
         0
  3

  4

  5

  6

  7

 40
1.0
 41
0.18
 42
0.0625
 43
0.38
 44
0.18
 45
0.0
 46
0.0
 47
0.0
 48
0.0
 71
         0
 72
         0
 73
         1
 74
         1
 75
         0
 76
         0
 77
         0
 78
         0
140
0.18
141
0.09
142
0.0
143
25.4
144
1.0
145
0.0
146
1.0
147
0.09
170
         0
171
         2
172
         0
173
         0
174
         0
175
         0
176
         0
177
         0
178
         0
270
         2
271
         4
272
         4
273
         2
274
         2
275
         0
280
         0
281
         0
282
         0
283
         1
284
         0
285
         0
286
         0
287
         0
288
         0
340
17
  0
DIMSTYLE
105
204
100
AcDbSymbolTableRecord
100
AcDbDimStyleTableRecord
  2
DIMSTYLE1
 70
         0
  3

  4

  5

  6

  7

 40
1.0
 41
2.7
 42
0.0625
 43
0.38
 44
2.7
 45
0.0
 46
0.0
 47
0.0
 48
0.0
 71
         0
 72
         0
 73
         1
 74
         1
 75
         0
 76
         0
 77
         0
 78
         0
140
2.7
141
0.09
142
0.0
143
25.4
144
1.0
145
0.0
146
1.0
147
0.09
170
         0
171
         2
172
         0
173
         0
174
         0
175
         0
176
         0
177
         0
178
         0
270
         2
271
         4
272
         4
273
         2
274
         2
275
         0
280
         0
281
         0
282
         0
283
         1
284
         0
285
         0
286
         0
287
         0
288
         0
340
17
  0
ENDTAB
  0
TABLE
  2
BLOCK_RECORD
  5
1
100
AcDbSymbolTable
 70
         9
  0
BLOCK_RECORD
  5
A
100
AcDbSymbolTableRecord
100
AcDbBlockTableRecord
  2
*MODEL_SPACE
  0
BLOCK_RECORD
  5
B
100
AcDbSymbolTableRecord
100
AcDbBlockTableRecord
  2
*PAPER_SPACE
  0
BLOCK_RECORD
  5
205
100
AcDbSymbolTableRecord
100
AcDbBlockTableRecord
  2
*D0
  0
BLOCK_RECORD
  5
214
100
AcDbSymbolTableRecord
100
AcDbBlockTableRecord
  2
*X1
  0
BLOCK_RECORD
  5
222
100
AcDbSymbolTableRecord
100
AcDbBlockTableRecord
  2
*X2
  0
BLOCK_RECORD
  5
22A
100
AcDbSymbolTableRecord
100
AcDbBlockTableRecord
  2
*X3
  0
BLOCK_RECORD
  5
231
100
AcDbSymbolTableRecord
100
AcDbBlockTableRecord
  2
*X4
  0
BLOCK_RECORD
  5
2AD
100
AcDbSymbolTableRecord
100
AcDbBlockTableRecord
  2
*D5
  0
BLOCK_RECORD
  5
2D7
100
AcDbSymbolTableRecord
100
AcDbBlockTableRecord
  2
*D6
  0
BLOCK_RECORD
  5
2E5
100
AcDbSymbolTableRecord
100
AcDbBlockTableRecord
  2
*D7
  0
BLOCK_RECORD
  5
2F3
100
AcDbSymbolTableRecord
100
AcDbBlockTableRecord
  2
*X8
  0
ENDTAB
  0
ENDSEC
  0
SECTION
  2
BLOCKS
  0
BLOCK
  5
D
100
AcDbEntity
  8
0
100
AcDbBlockBegin
  2
*MODEL_SPACE
 70
         0
 10
0.0
 20
0.0
 30
0.0
  3
*MODEL_SPACE
  1

  0
ENDBLK
  5
E
100
AcDbEntity
  8
0
100
AcDbBlockEnd
  0
BLOCK
  5
F
100
AcDbEntity
 67
         1
  8
0
100
AcDbBlockBegin
  2
*PAPER_SPACE
 70
         0
 10
0.0
 20
0.0
 30
0.0
  3
*PAPER_SPACE
  1

  0
ENDBLK
  5
10
100
AcDbEntity
 67
         1
  8
0
100
AcDbBlockEnd
  0
BLOCK
  5
206
100
AcDbEntity
  8
0
100
AcDbBlockBegin
  2
*D0
 70
        65
 10
0.0
 20
0.0
 30
0.0
  3
*D0
  1

  0
POINT
  5
209
100
AcDbEntity
  8
DEFPOINTS
  6
CONTINUOUS
 62
         0
100
AcDbPoint
 10
1483.6062207378
 20
-583.4710233153
 30
0.0
  0
POINT
  5
20A
100
AcDbEntity
  8
DEFPOINTS
  6
CONTINUOUS
 62
         0
100
AcDbPoint
 10
1427.3786810937
 20
-583.4710233153
 30
0.0
  0
POINT
  5
20B
100
AcDbEntity
  8
DEFPOINTS
  6
CONTINUOUS
 62
         0
100
AcDbPoint
 10
1427.3786810937
 20
-633.3710233153
 30
0.0
  0
LINE
  5
20C
100
AcDbEntity
  8
L1_120
  6
CONTINUOUS
 62
         4
100
AcDbLine
 10
1428.7286810937
 20
-583.4710233153
 30
0.0
 11
1484.2812207378
 21
-583.4710233153
 31
0.0
  0
LINE
  5
20D
100
AcDbEntity
  8
L1_120
  6
CONTINUOUS
 62
         4
100
AcDbLine
 10
1428.7286810937
 20
-633.3710233153
 30
0.0
 11
1484.2812207378
 21
-633.3710233153
 31
0.0
  0
LINE
  5
20E
100
AcDbEntity
  8
L1_120
  6
CONTINUOUS
 62
         4
100
AcDbLine
 10
1483.6062207378
 20
-583.4710233153
 30
0.0
 11
1483.6062207378
 21
-633.3710233153
 31
0.0
  0
SOLID
  5
20F
100
AcDbEntity
  8
L1_120
  6
CONTINUOUS
 62
         4
100
AcDbTrace
 10
1483.6062207378
 20
-583.4710233153
 30
0.0
 11
1484.0112207378
 21
-586.1710233153
 31
0.0
 12
1483.2012207378
 22
-586.1710233153
 32
0.0
 13
1483.6062207378
 23
-583.4710233153
 33
0.0
  0
SOLID
  5
210
100
AcDbEntity
  8
L1_120
  6
CONTINUOUS
 62
         4
100
AcDbTrace
 10
1483.6062207378
 20
-633.3710233153
 30
0.0
 11
1483.2012207378
 21
-630.6710233153
 31
0.0
 12
1484.0112207378
 22
-630.6710233153
 32
0.0
 13
1483.6062207378
 23
-633.3710233153
 33
0.0
  0
TEXT
  5
212
100
AcDbEntity
  8
L1_120
  6
CONTINUOUS
 62
         4
100
AcDbText
 10
1481.5812207378
 20
-615.7140846836
 30
0.0
 40
2.7
  1
崷50
 50
90.0
  7
BOX
100
AcDbText
  0
ENDBLK
  5
213
100
AcDbEntity
  8
0
  6
CONTINUOUS
100
AcDbBlockEnd
  0
BLOCK
  5
215
100
AcDbEntity
  8
0
100
AcDbBlockBegin
  2
*X1
 70
        65
 10
0.0
 20
0.0
 30
0.0
  3
*X1
  1

  0
LINE
  5
216
100
AcDbEntity
  8
L1_120
  6
CONTINUOUS
 62
         2
100
AcDbLine
 10
1442.5123360846
 20
-628.4210233153
 30
0.0
 11
1441.2396835722
 21
-629.6936758277
 31
0.0
  0
LINE
  5
217
100
AcDbEntity
  8
L1_120
  6
CONTINUOUS
 62
         2
100
AcDbLine
 10
1446.7549767718
 20
-628.4210233153
 30
0.0
 11
1442.1067841535
 21
-633.0692159336
 31
0.0
  0
LINE
  5
218
100
AcDbEntity
  8
L1_120
  6
CONTINUOUS
 62
         2
100
AcDbLine
 10
1456.0976174589
 20
-623.3210233153
 30
0.0
 11
1455.8396835722
 21
-623.5789572019
 31
0.0
  0
LINE
  5
219
100
AcDbEntity
  8
L1_120
  6
CONTINUOUS
 62
         2
100
AcDbLine
 10
1450.9976174589
 20
-628.4210233153
 30
0.0
 11
1449.1976174589
 21
-630.2210233153
 31
0.0
  0
LINE
  5
21A
100
AcDbEntity
  8
L1_120
  6
CONTINUOUS
 62
         2
100
AcDbLine
 10
1448.2396835722
 20
-631.1789572019
 30
0.0
 11
1445.9976174589
 21
-633.4210233153
 31
0.0
  0
LINE
  5
21B
100
AcDbEntity
  8
L1_120
  6
CONTINUOUS
 62
         2
100
AcDbLine
 10
1459.4220332244
 20
-624.2392482369
 30
0.0
 11
1458.5396835722
 21
-625.1215978891
 31
0.0
  0
LINE
  5
21C
100
AcDbEntity
  8
L1_120
  6
CONTINUOUS
 62
         2
100
AcDbLine
 10
1457.5396835722
 20
-626.1215978891
 30
0.0
 11
1455.8396835722
 21
-627.8215978891
 31
0.0
  0
LINE
  5
21D
100
AcDbEntity
  8
L1_120
  6
CONTINUOUS
 62
         2
100
AcDbLine
 10
1454.740258146
 20
-628.9210233153
 30
0.0
 11
1453.440258146
 21
-630.2210233153
 31
0.0
  0
LINE
  5
21E
100
AcDbEntity
  8
L1_120
  6
CONTINUOUS
 62
         2
100
AcDbLine
 10
1463.7396835722
 20
-624.1642385762
 30
0.0
 11
1457.6828988331
 21
-630.2210233153
 31
0.0
  0
ENDBLK
  5
21F
100
AcDbEntity
  8
0
  6
CONTINUOUS
100
AcDbBlockEnd
  0
BLOCK
  5
223
100
AcDbEntity
  8
0
100
AcDbBlockBegin
  2
*X2
 70
        65
 10
0.0
 20
0.0
 30
0.0
  3
*X2
  1

  0
LINE
  5
224
100
AcDbEntity
  8
L1_120
  6
CONTINUOUS
 62
         2
100
AcDbLine
 10
1443.3243360846
 20
-627.6090233153
 30
0.0
 11
1442.5123360846
 21
-628.4210233153
 31
0.0
  0
LINE
  5
225
100
AcDbEntity
  8
L1_120
  6
CONTINUOUS
 62
         2
100
AcDbLine
 10
1447.5669767718
 20
-627.6090233153
 30
0.0
 11
1446.7549767718
 21
-628.4210233153
 31
0.0
  0
LINE
  5
226
100
AcDbEntity
  8
L1_120
  6
CONTINUOUS
 62
         2
100
AcDbLine
 10
1451.6686505155
 20
-627.7499902586
 30
0.0
 11
1450.9976174589
 21
-628.4210233153
 31
0.0
  0
ENDBLK
  5
227
100
AcDbEntity
  8
0
  6
CONTINUOUS
100
AcDbBlockEnd
  0
BLOCK
  5
22B
100
AcDbEntity
  8
0
100
AcDbBlockBegin
  2
*X3
 70
        65
 10
0.0
 20
0.0
 30
0.0
  3
*X3
  1

  0
LINE
  5
22C
100
AcDbEntity
  8
L1_120
  6
CONTINUOUS
 62
         2
100
AcDbLine
 10
1444.3285699006
 20
-588.4210233153
 30
0.0
 11
1443.5165699006
 21
-589.2330233153
 31
0.0
  0
LINE
  5
22D
100
AcDbEntity
  8
L1_120
  6
CONTINUOUS
 62
         2
100
AcDbLine
 10
1448.5712105877
 20
-588.4210233153
 30
0.0
 11
1447.7592105877
 21
-589.2330233153
 31
0.0
  0
ENDBLK
  5
22E
100
AcDbEntity
  8
0
  6
CONTINUOUS
100
AcDbBlockEnd
  0
BLOCK
  5
232
100
AcDbEntity
  8
0
100
AcDbBlockBegin
  2
*X4
 70
        65
 10
0.0
 20
0.0
 30
0.0
  3
*X4
  1

  0
LINE
  5
233
100
AcDbEntity
  8
L1_120
  6
CONTINUOUS
 62
         2
100
AcDbLine
 10
1445.0859292134
 20
-583.4210233153
 30
0.0
 11
1441.2396835722
 21
-587.2672689565
 31
0.0
  0
LINE
  5
234
100
AcDbEntity
  8
L1_120
  6
CONTINUOUS
 62
         2
100
AcDbLine
 10
1448.2396835722
 20
-584.5099096436
 30
0.0
 11
1444.3285699006
 21
-588.4210233153
 31
0.0
  0
LINE
  5
235
100
AcDbEntity
  8
L1_120
  6
CONTINUOUS
 62
         2
100
AcDbLine
 10
1450.3712105877
 20
-586.6210233153
 30
0.0
 11
1448.5712105877
 21
-588.4210233153
 31
0.0
  0
LINE
  5
236
100
AcDbEntity
  8
L1_120
  6
CONTINUOUS
 62
         2
100
AcDbLine
 10
1454.6138512748
 20
-586.6210233153
 30
0.0
 11
1453.3138512748
 21
-587.9210233153
 31
0.0
  0
LINE
  5
237
100
AcDbEntity
  8
L1_120
  6
CONTINUOUS
 62
         2
100
AcDbLine
 10
1458.8564919619
 20
-586.6210233153
 30
0.0
 11
1455.8396835722
 21
-589.637831705
 31
0.0
  0
LINE
  5
238
100
AcDbEntity
  8
L1_120
  6
CONTINUOUS
 62
         2
100
AcDbLine
 10
1462.2973418294
 20
-587.4228141349
 30
0.0
 11
1458.5396835722
 21
-591.1804723921
 31
0.0
  0
LINE
  5
239
100
AcDbEntity
  8
L1_120
  6
CONTINUOUS
 62
         2
100
AcDbLine
 10
1463.7273796434
 20
-590.235417008
 30
0.0
 11
1460.6506538239
 21
-593.3121428275
 31
0.0
  0
ENDBLK
  5
23A
100
AcDbEntity
  8
0
  6
CONTINUOUS
100
AcDbBlockEnd
  0
BLOCK
  5
2AE
100
AcDbEntity
  8
0
100
AcDbBlockBegin
  2
*D5
 70
        65
 10
0.0
 20
0.0
 30
0.0
  3
*D5
  1

  0
POINT
  5
2B0
100
AcDbEntity
  8
DEFPOINTS
  6
CONTINUOUS
 62
         0
100
AcDbPoint
 10
1340.7396835722
 20
-759.4769657381
 30
0.0
  0
POINT
  5
2B1
100
AcDbEntity
  8
DEFPOINTS
  6
CONTINUOUS
 62
         0
100
AcDbPoint
 10
1340.7396835722
 20
-726.2161083827
 30
0.0
  0
POINT
  5
2B2
100
AcDbEntity
  8
DEFPOINTS
  6
CONTINUOUS
 62
         0
100
AcDbPoint
 10
1450.7396835722
 20
-734.1061083827
 30
0.0
  0
LINE
  5
2B3
100
AcDbEntity
  8
L1_120
  6
CONTINUOUS
 62
         4
100
AcDbLine
 10
1340.7396835722
 20
-727.5661083827
 30
0.0
 11
1340.7396835722
 21
-760.1519657381
 31
0.0
  0
LINE
  5
2B4
100
AcDbEntity
  8
L1_120
  6
CONTINUOUS
 62
         4
100
AcDbLine
 10
1450.7396835722
 20
-735.4561083827
 30
0.0
 11
1450.7396835722
 21
-760.1519657381
 31
0.0
  0
LINE
  5
2B5
100
AcDbEntity
  8
L1_120
  6
CONTINUOUS
 62
         4
100
AcDbLine
 10
1340.7396835722
 20
-759.4769657381
 30
0.0
 11
1450.7396835722
 21
-759.4769657381
 31
0.0
  0
SOLID
  5
2B6
100
AcDbEntity
  8
L1_120
  6
CONTINUOUS
 62
         4
100
AcDbTrace
 10
1340.7396835722
 20
-759.4769657381
 30
0.0
 11
1343.4396835722
 21
-759.0719657381
 31
0.0
 12
1343.4396835722
 22
-759.8819657381
 32
0.0
 13
1340.7396835722
 23
-759.4769657381
 33
0.0
  0
SOLID
  5
2B7
100
AcDbEntity
  8
L1_120
  6
CONTINUOUS
 62
         4
100
AcDbTrace
 10
1450.7396835722
 20
-759.4769657381
 30
0.0
 11
1448.0396835722
 21
-759.8819657381
 31
0.0
 12
1448.0396835722
 22
-759.0719657381
 32
0.0
 13
1450.7396835722
 23
-759.4769657381
 33
0.0
  0
TEXT
  5
2B9
100
AcDbEntity
  8
L1_120
  6
CONTINUOUS
 62
         4
100
AcDbText
 10
1391.4284660643
 20
-757.4519657381
 30
0.0
 40
2.7
  1
110
  7
BOX
100
AcDbText
  0
ENDBLK
  5
2BA
100
AcDbEntity
  8
0
  6
CONTINUOUS
100
AcDbBlockEnd
  0
BLOCK
  5
2D8
100
AcDbEntity
  8
0
100
AcDbBlockBegin
  2
*D6
 70
        65
 10
0.0
 20
0.0
 30
0.0
  3
*D6
  1

  0
POINT
  5
2DA
100
AcDbEntity
  8
DEFPOINTS
  6
CONTINUOUS
 62
         0
100
AcDbPoint
 10
1243.0896835722
 20
-542.7832197407
 30
0.0
  0
POINT
  5
2DB
100
AcDbEntity
  8
DEFPOINTS
  6
CONTINUOUS
 62
         0
100
AcDbPoint
 10
1243.0896835722
 20
-597.1868415988
 30
0.0
  0
POINT
  5
2DC
100
AcDbEntity
  8
DEFPOINTS
  6
CONTINUOUS
 62
         0
100
AcDbPoint
 10
1450.7396835722
 20
-590.4210233153
 30
0.0
  0
LINE
  5
2DD
100
AcDbEntity
  8
L1_120
  6
CONTINUOUS
 62
         4
100
AcDbLine
 10
1243.0896835722
 20
-595.8368415988
 30
0.0
 11
1243.0896835722
 21
-542.1082197407
 31
0.0
  0
LINE
  5
2DE
100
AcDbEntity
  8
L1_120
  6
CONTINUOUS
 62
         4
100
AcDbLine
 10
1450.7396835722
 20
-589.0710233153
 30
0.0
 11
1450.7396835722
 21
-542.1082197407
 31
0.0
  0
LINE
  5
2DF
100
AcDbEntity
  8
L1_120
  6
CONTINUOUS
 62
         4
100
AcDbLine
 10
1243.0896835722
 20
-542.7832197407
 30
0.0
 11
1450.7396835722
 21
-542.7832197407
 31
0.0
  0
SOLID
  5
2E0
100
AcDbEntity
  8
L1_120
  6
CONTINUOUS
 62
         4
100
AcDbTrace
 10
1243.0896835722
 20
-542.7832197407
 30
0.0
 11
1245.7896835722
 21
-542.3782197407
 31
0.0
 12
1245.7896835722
 22
-543.1882197407
 32
0.0
 13
1243.0896835722
 23
-542.7832197407
 33
0.0
  0
SOLID
  5
2E1
100
AcDbEntity
  8
L1_120
  6
CONTINUOUS
 62
         4
100
AcDbTrace
 10
1450.7396835722
 20
-542.7832197407
 30
0.0
 11
1448.0396835722
 21
-543.1882197407
 31
0.0
 12
1448.0396835722
 22
-542.3782197407
 32
0.0
 13
1450.7396835722
 23
-542.7832197407
 33
0.0
  0
TEXT
  5
2E3
100
AcDbEntity
  8
L1_120
  6
CONTINUOUS
 62
         4
100
AcDbText
 10
1341.016994265
 20
-540.7582197407
 30
0.0
 40
2.7
  1
207.65
  7
BOX
100
AcDbText
  0
ENDBLK
  5
2E4
100
AcDbEntity
  8
0
  6
CONTINUOUS
100
AcDbBlockEnd
  0
BLOCK
  5
2E6
100
AcDbEntity
  8
0
100
AcDbBlockBegin
  2
*D7
 70
        65
 10
0.0
 20
0.0
 30
0.0
  3
*D7
  1

  0
POINT
  5
2E8
100
AcDbEntity
  8
DEFPOINTS
  6
CONTINUOUS
 62
         0
100
AcDbPoint
 10
1311.3396835722
 20
-558.0411646513
 30
0.0
  0
POINT
  5
2E9
100
AcDbEntity
  8
DEFPOINTS
  6
CONTINUOUS
 62
         0
100
AcDbPoint
 10
1311.3396835722
 20
-586.1960233153
 30
0.0
  0
POINT
  5
2EA
100
AcDbEntity
  8
DEFPOINTS
  6
CONTINUOUS
 62
         0
100
AcDbPoint
 10
1450.7396835722
 20
-590.4210233153
 30
0.0
  0
LINE
  5
2EB
100
AcDbEntity
  8
L1_120
  6
CONTINUOUS
 62
         4
100
AcDbLine
 10
1311.3396835722
 20
-584.8460233153
 30
0.0
 11
1311.3396835722
 21
-557.3661646513
 31
0.0
  0
LINE
  5
2EC
100
AcDbEntity
  8
L1_120
  6
CONTINUOUS
 62
         4
100
AcDbLine
 10
1450.7396835722
 20
-589.0710233153
 30
0.0
 11
1450.7396835722
 21
-557.3661646513
 31
0.0
  0
LINE
  5
2ED
100
AcDbEntity
  8
L1_120
  6
CONTINUOUS
 62
         4
100
AcDbLine
 10
1311.3396835722
 20
-558.0411646513
 30
0.0
 11
1450.7396835722
 21
-558.0411646513
 31
0.0
  0
SOLID
  5
2EE
100
AcDbEntity
  8
L1_120
  6
CONTINUOUS
 62
         4
100
AcDbTrace
 10
1311.3396835722
 20
-558.0411646513
 30
0.0
 11
1314.0396835722
 21
-557.6361646513
 31
0.0
 12
1314.0396835722
 22
-558.4461646513
 32
0.0
 13
1311.3396835722
 23
-558.0411646513
 33
0.0
  0
SOLID
  5
2EF
100
AcDbEntity
  8
L1_120
  6
CONTINUOUS
 62
         4
100
AcDbTrace
 10
1450.7396835722
 20
-558.0411646513
 30
0.0
 11
1448.0396835722
 21
-558.4461646513
 31
0.0
 12
1448.0396835722
 22
-557.6361646513
 32
0.0
 13
1450.7396835722
 23
-558.0411646513
 33
0.0
  0
TEXT
  5
2F1
100
AcDbEntity
  8
L1_120
  6
CONTINUOUS
 62
         4
100
AcDbText
 10
1376.5942760915
 20
-556.0161646513
 30
0.0
 40
2.7
  1
139.4
  7
BOX
100
AcDbText
  0
ENDBLK
  5
2F2
100
AcDbEntity
  8
0
  6
CONTINUOUS
100
AcDbBlockEnd
  0
BLOCK
  5
2F4
100
AcDbEntity
  8
0
100
AcDbBlockBegin
  2
*X8
 70
        65
 10
0.0
 20
0.0
 30
0.0
  3
*X8
  1

  0
LINE
  5
2F5
100
AcDbEntity
  8
L1_120
  6
CONTINUOUS
 62
         4
100
AcDbLine
 10
1448.1036457248
 20
-735.1061083827
 30
0.0
 11
1450.7396835722
 21
-732.4700705353
 31
0.0
  0
LINE
  5
2F6
100
AcDbEntity
  8
L1_120
  6
CONTINUOUS
 62
         4
100
AcDbLine
 10
1443.8610050376
 20
-735.1061083827
 30
0.0
 11
1448.2157243706
 21
-730.7513890498
 31
0.0
  0
LINE
  5
2F7
100
AcDbEntity
  8
L1_120
  6
CONTINUOUS
 62
         4
100
AcDbLine
 10
1439.6183643505
 20
-735.1061083827
 30
0.0
 11
1444.4958744906
 21
-730.2285982427
 31
0.0
  0
LINE
  5
2F8
100
AcDbEntity
  8
L1_120
  6
CONTINUOUS
 62
         4
100
AcDbLine
 10
1430.2257236634
 20
-740.2561083827
 30
0.0
 11
1432.2396835722
 21
-738.2421484739
 31
0.0
  0
LINE
  5
2F9
100
AcDbEntity
  8
L1_120
  6
CONTINUOUS
 62
         4
100
AcDbLine
 10
1435.3757236634
 20
-735.1061083827
 30
0.0
 11
1440.7760246106
 21
-729.7058074356
 31
0.0
  0
LINE
  5
2FA
100
AcDbEntity
  8
L1_120
  6
CONTINUOUS
 62
         4
100
AcDbLine
 10
1425.9830829763
 20
-740.2561083827
 30
0.0
 11
1437.0561747305
 21
-729.1830166284
 31
0.0
  0
LINE
  5
2FB
100
AcDbEntity
  8
L1_120
  6
CONTINUOUS
 62
         4
100
AcDbLine
 10
1421.7404422892
 20
-740.2561083827
 30
0.0
 11
1433.3363248505
 21
-728.6602258213
 31
0.0
  0
LINE
  5
2FC
100
AcDbEntity
  8
L1_120
  6
CONTINUOUS
 62
         4
100
AcDbLine
 10
1417.497801602
 20
-740.2561083827
 30
0.0
 11
1429.6164749705
 21
-728.1374350142
 31
0.0
  0
LINE
  5
2FD
100
AcDbEntity
  8
L1_120
  6
CONTINUOUS
 62
         4
100
AcDbLine
 10
1413.2551609149
 20
-740.2561083827
 30
0.0
 11
1425.8966250905
 21
-727.6146442071
 31
0.0
  0
LINE
  5
2FE
100
AcDbEntity
  8
L1_120
  6
CONTINUOUS
 62
         4
100
AcDbLine
 10
1409.0125202278
 20
-740.2561083827
 30
0.0
 11
1422.1125202278
 21
-727.1561083827
 31
0.0
  0
LINE
  5
2FF
100
AcDbEntity
  8
L1_120
  6
CONTINUOUS
 62
         4
100
AcDbLine
 10
1404.7698795407
 20
-740.2561083827
 30
0.0
 11
1417.8698795407
 21
-727.1561083827
 31
0.0
  0
LINE
  5
300
100
AcDbEntity
  8
L1_120
  6
CONTINUOUS
 62
         4
100
AcDbLine
 10
1445.1317335658
 20
-699.8942543576
 30
0.0
 11
1449.6832882382
 21
-695.3426996852
 31
0.0
  0
LINE
  5
301
100
AcDbEntity
  8
L1_120
  6
CONTINUOUS
 62
         4
100
AcDbLine
 10
1400.5272388536
 20
-740.2561083827
 30
0.0
 11
1413.7396835722
 21
-727.0436636641
 31
0.0
  0
LINE
  5
302
100
AcDbEntity
  8
L1_120
  6
CONTINUOUS
 62
         4
100
AcDbLine
 10
1440.1953260453
 20
-700.5880211909
 30
0.0
 11
1445.6772388536
 21
-695.1061083827
 31
0.0
  0
LINE
  5
303
100
AcDbEntity
  8
L1_120
  6
CONTINUOUS
 62
         4
100
AcDbLine
 10
1396.2845981664
 20
-740.2561083827
 30
0.0
 11
1410.1245981664
 21
-726.4161083827
 31
0.0
  0
LINE
  5
304
100
AcDbEntity
  8
L1_120
  6
CONTINUOUS
 62
         4
100
AcDbLine
 10
1435.2589185249
 20
-701.2817880243
 30
0.0
 11
1441.4345981664
 21
-695.1061083827
 31
0.0
  0
LINE
  5
305
100
AcDbEntity
  8
L1_120
  6
CONTINUOUS
 62
         4
100
AcDbLine
 10
1392.0419574793
 20
-740.2561083827
 30
0.0
 11
1405.8819574793
 21
-726.4161083827
 31
0.0
  0
LINE
  5
306
100
AcDbEntity
  8
L1_120
  6
CONTINUOUS
 62
         4
100
AcDbLine
 10
1430.3225110044
 20
-701.9755548577
 30
0.0
 11
1437.1919574793
 21
-695.1061083827
 31
0.0
  0
LINE
  5
307
100
AcDbEntity
  8
L1_120
  6
CONTINUOUS
 62
         4
100
AcDbLine
 10
1387.7993167922
 20
-740.2561083827
 30
0.0
 11
1401.6393167922
 21
-726.4161083827
 31
0.0
  0
LINE
  5
308
100
AcDbEntity
  8
L1_120
  6
CONTINUOUS
 62
         4
100
AcDbLine
 10
1425.3861034839
 20
-702.669321691
 30
0.0
 11
1432.9493167922
 21
-695.1061083827
 31
0.0
  0
LINE
  5
309
100
AcDbEntity
  8
L1_120
  6
CONTINUOUS
 62
         4
100
AcDbLine
 10
1383.5566761051
 20
-740.2561083827
 30
0.0
 11
1397.3966761051
 21
-726.4161083827
 31
0.0
  0
LINE
  5
30A
100
AcDbEntity
  8
L1_120
  6
CONTINUOUS
 62
         4
100
AcDbLine
 10
1420.7566761051
 20
-703.0561083827
 30
0.0
 11
1432.2396835722
 21
-691.5731009156
 31
0.0
  0
LINE
  5
30B
100
AcDbEntity
  8
L1_120
  6
CONTINUOUS
 62
         4
100
AcDbLine
 10
1379.314035418
 20
-740.2561083827
 30
0.0
 11
1393.154035418
 21
-726.4161083827
 31
0.0
  0
LINE
  5
30C
100
AcDbEntity
  8
L1_120
  6
CONTINUOUS
 62
         4
100
AcDbLine
 10
1416.514035418
 20
-703.0561083827
 30
0.0
 11
1429.414035418
 21
-690.1561083827
 31
0.0
  0
LINE
  5
30D
100
AcDbEntity
  8
L1_120
  6
CONTINUOUS
 62
         4
100
AcDbLine
 10
1375.0713947308
 20
-740.2561083827
 30
0.0
 11
1388.9113947308
 21
-726.4161083827
 31
0.0
  0
LINE
  5
30E
100
AcDbEntity
  8
L1_120
  6
CONTINUOUS
 62
         4
100
AcDbLine
 10
1411.5313947308
 20
-703.7961083827
 30
0.0
 11
1425.1713947308
 21
-690.1561083827
 31
0.0
  0
LINE
  5
30F
100
AcDbEntity
  8
L1_120
  6
CONTINUOUS
 62
         4
100
AcDbLine
 10
1370.8287540437
 20
-740.2561083827
 30
0.0
 11
1384.6687540437
 21
-726.4161083827
 31
0.0
  0
LINE
  5
310
100
AcDbEntity
  8
L1_120
  6
CONTINUOUS
 62
         4
100
AcDbLine
 10
1407.2887540437
 20
-703.7961083827
 30
0.0
 11
1420.9287540437
 21
-690.1561083827
 31
0.0
  0
LINE
  5
311
100
AcDbEntity
  8
L1_120
  6
CONTINUOUS
 62
         4
100
AcDbLine
 10
1366.5861133566
 20
-740.2561083827
 30
0.0
 11
1380.4261133566
 21
-726.4161083827
 31
0.0
  0
LINE
  5
312
100
AcDbEntity
  8
L1_120
  6
CONTINUOUS
 62
         4
100
AcDbLine
 10
1403.0461133566
 20
-703.7961083827
 30
0.0
 11
1416.6861133566
 21
-690.1561083827
 31
0.0
  0
LINE
  5
313
100
AcDbEntity
  8
L1_120
  6
CONTINUOUS
 62
         4
100
AcDbLine
 10
1362.3434726695
 20
-740.2561083827
 30
0.0
 11
1376.1834726695
 21
-726.4161083827
 31
0.0
  0
LINE
  5
314
100
AcDbEntity
  8
L1_120
  6
CONTINUOUS
 62
         4
100
AcDbLine
 10
1398.8034726695
 20
-703.7961083827
 30
0.0
 11
1412.4434726695
 21
-690.1561083827
 31
0.0
  0
LINE
  5
315
100
AcDbEntity
  8
L1_120
  6
CONTINUOUS
 62
         4
100
AcDbLine
 10
1358.1008319824
 20
-740.2561083827
 30
0.0
 11
1371.9408319824
 21
-726.4161083827
 31
0.0
  0
LINE
  5
316
100
AcDbEntity
  8
L1_120
  6
CONTINUOUS
 62
         4
100
AcDbLine
 10
1394.5608319824
 20
-703.7961083827
 30
0.0
 11
1408.2008319824
 21
-690.1561083827
 31
0.0
  0
LINE
  5
317
100
AcDbEntity
  8
L1_120
  6
CONTINUOUS
 62
         4
100
AcDbLine
 10
1353.8581912952
 20
-740.2561083827
 30
0.0
 11
1367.6981912952
 21
-726.4161083827
 31
0.0
  0
LINE
  5
318
100
AcDbEntity
  8
L1_120
  6
CONTINUOUS
 62
         4
100
AcDbLine
 10
1390.3181912953
 20
-703.7961083827
 30
0.0
 11
1403.9581912952
 21
-690.1561083827
 31
0.0
  0
LINE
  5
319
100
AcDbEntity
  8
L1_120
  6
CONTINUOUS
 62
         4
100
AcDbLine
 10
1349.6155506081
 20
-740.2561083827
 30
0.0
 11
1363.4555506081
 21
-726.4161083827
 31
0.0
  0
LINE
  5
31A
100
AcDbEntity
  8
L1_120
  6
CONTINUOUS
 62
         4
100
AcDbLine
 10
1386.0755506081
 20
-703.7961083827
 30
0.0
 11
1399.7155506081
 21
-690.1561083827
 31
0.0
  0
LINE
  5
31B
100
AcDbEntity
  8
L1_120
  6
CONTINUOUS
 62
         4
100
AcDbLine
 10
1346.3916835722
 20
-739.2373347315
 30
0.0
 11
1359.212909921
 21
-726.4161083827
 31
0.0
  0
LINE
  5
31C
100
AcDbEntity
  8
L1_120
  6
CONTINUOUS
 62
         4
100
AcDbLine
 10
1381.832909921
 20
-703.7961083827
 30
0.0
 11
1395.472909921
 21
-690.1561083827
 31
0.0
  0
LINE
  5
31D
100
AcDbEntity
  8
L1_120
  6
CONTINUOUS
 62
         4
100
AcDbLine
 10
1343.9952692339
 20
-737.3911083827
 30
0.0
 11
1354.9702692339
 21
-726.4161083827
 31
0.0
  0
LINE
  5
31E
100
AcDbEntity
  8
L1_120
  6
CONTINUOUS
 62
         4
100
AcDbLine
 10
1377.5902692339
 20
-703.7961083827
 30
0.0
 11
1391.2302692339
 21
-690.1561083827
 31
0.0
  0
LINE
  5
31F
100
AcDbEntity
  8
L1_120
  6
CONTINUOUS
 62
         4
100
AcDbLine
 10
1339.7526285468
 20
-737.3911083827
 30
0.0
 11
1350.7276285468
 21
-726.4161083827
 31
0.0
  0
LINE
  5
320
100
AcDbEntity
  8
L1_120
  6
CONTINUOUS
 62
         4
100
AcDbLine
 10
1373.3476285468
 20
-703.7961083827
 30
0.0
 11
1386.9876285468
 21
-690.1561083827
 31
0.0
  0
LINE
  5
321
100
AcDbEntity
  8
L1_120
  6
CONTINUOUS
 62
         4
100
AcDbLine
 10
1326.0199878595
 20
-746.8811083829
 30
0.0
 11
1330.4396835722
 21
-742.4614126702
 31
0.0
  0
LINE
  5
322
100
AcDbEntity
  8
L1_120
  6
CONTINUOUS
 62
         4
100
AcDbLine
 10
1335.5099878597
 20
-737.3911083827
 30
0.0
 11
1346.4849878597
 21
-726.4161083827
 31
0.0
  0
LINE
  5
323
100
AcDbEntity
  8
L1_120
  6
CONTINUOUS
 62
         4
100
AcDbLine
 10
1369.1049878597
 20
-703.7961083827
 30
0.0
 11
1382.7449878597
 21
-690.1561083827
 31
0.0
  0
LINE
  5
324
100
AcDbEntity
  8
L1_120
  6
CONTINUOUS
 62
         4
100
AcDbLine
 10
1324.4391572223
 20
-744.219298333
 30
0.0
 11
1330.4396835722
 21
-738.218771983
 31
0.0
  0
LINE
  5
325
100
AcDbEntity
  8
L1_120
  6
CONTINUOUS
 62
         4
100
AcDbLine
 10
1331.2673471725
 20
-737.3911083827
 30
0.0
 11
1342.2423471725
 21
-726.4161083827
 31
0.0
  0
LINE
  5
326
100
AcDbEntity
  8
L1_120
  6
CONTINUOUS
 62
         4
100
AcDbLine
 10
1364.8623471725
 20
-703.7961083827
 30
0.0
 11
1378.5023471725
 21
-690.1561083827
 31
0.0
  0
LINE
  5
327
100
AcDbEntity
  8
L1_120
  6
CONTINUOUS
 62
         4
100
AcDbLine
 10
1317.5347064852
 20
-746.8811083829
 30
0.0
 11
1320.65709171
 21
-743.7587231581
 31
0.0
  0
LINE
  5
328
100
AcDbEntity
  8
L1_120
  6
CONTINUOUS
 62
         4
100
AcDbLine
 10
1321.0660986794
 20
-743.3497161887
 30
0.0
 11
1337.9997064854
 21
-726.4161083827
 31
0.0
  0
LINE
  5
329
100
AcDbEntity
  8
L1_120
  6
CONTINUOUS
 62
         4
100
AcDbLine
 10
1360.6197064854
 20
-703.7961083827
 30
0.0
 11
1374.2597064854
 21
-690.1561083827
 31
0.0
  0
LINE
  5
32A
100
AcDbEntity
  8
L1_120
  6
CONTINUOUS
 62
         4
100
AcDbLine
 10
1313.2920657983
 20
-746.8811083827
 30
0.0
 11
1333.7570657983
 21
-726.4161083827
 31
0.0
  0
LINE
  5
32B
100
AcDbEntity
  8
L1_120
  6
CONTINUOUS
 62
         4
100
AcDbLine
 10
1356.3770657983
 20
-703.7961083827
 30
0.0
 11
1370.0170657983
 21
-690.1561083827
 31
0.0
  0
LINE
  5
32C
100
AcDbEntity
  8
L1_120
  6
CONTINUOUS
 62
         4
100
AcDbLine
 10
1312.3596835722
 20
-743.5708499217
 30
0.0
 11
1330.2912078493
 21
-725.6393256446
 31
0.0
  0
LINE
  5
32D
100
AcDbEntity
  8
L1_120
  6
CONTINUOUS
 62
         4
100
AcDbLine
 10
1352.1344251112
 20
-703.7961083827
 30
0.0
 11
1365.7744251112
 21
-690.1561083827
 31
0.0
  0
LINE
  5
32E
100
AcDbEntity
  8
L1_120
  6
CONTINUOUS
 62
         4
100
AcDbLine
 10
1312.3596835722
 20
-739.3282092346
 30
0.0
 11
1328.7382935787
 21
-722.9495992281
 31
0.0
  0
LINE
  5
32F
100
AcDbEntity
  8
L1_120
  6
CONTINUOUS
 62
         4
100
AcDbLine
 10
1347.8917844241
 20
-703.7961083827
 30
0.0
 11
1361.5317844241
 21
-690.1561083827
 31
0.0
  0
LINE
  5
330
100
AcDbEntity
  8
L1_120
  6
CONTINUOUS
 62
         4
100
AcDbLine
 10
1310.2701215342
 20
-737.1751305855
 30
0.0
 11
1325.3391437369
 21
-722.1061083827
 31
0.0
  0
LINE
  5
331
100
AcDbEntity
  8
L1_120
  6
CONTINUOUS
 62
         4
100
AcDbLine
 10
1343.6491437369
 20
-703.7961083827
 30
0.0
 11
1357.2891437369
 21
-690.1561083827
 31
0.0
  0
LINE
  5
332
100
AcDbEntity
  8
L1_120
  6
CONTINUOUS
 62
         4
100
AcDbLine
 10
1306.5674532981
 20
-736.6351581344
 30
0.0
 11
1321.0965030498
 21
-722.1061083827
 31
0.0
  0
LINE
  5
333
100
AcDbEntity
  8
L1_120
  6
CONTINUOUS
 62
         4
100
AcDbLine
 10
1339.4065030498
 20
-703.7961083827
 30
0.0
 11
1353.0465030498
 21
-690.1561083827
 31
0.0
  0
LINE
  5
334
100
AcDbEntity
  8
L1_120
  6
CONTINUOUS
 62
         4
100
AcDbLine
 10
1302.8647850621
 20
-736.0951856833
 30
0.0
 11
1316.8538623627
 21
-722.1061083827
 31
0.0
  0
LINE
  5
335
100
AcDbEntity
  8
L1_120
  6
CONTINUOUS
 62
         4
100
AcDbLine
 10
1336.185278949
 20
-702.7746917964
 30
0.0
 11
1348.8038623627
 21
-690.1561083827
 31
0.0
  0
LINE
  5
336
100
AcDbEntity
  8
L1_120
  6
CONTINUOUS
 62
         4
100
AcDbLine
 10
1299.1621168261
 20
-735.5552132322
 30
0.0
 11
1312.6112216756
 21
-722.1061083827
 31
0.0
  0
LINE
  5
337
100
AcDbEntity
  8
L1_120
  6
CONTINUOUS
 62
         4
100
AcDbLine
 10
1326.6112216756
 20
-708.1061083827
 30
0.0
 11
1330.4916979113
 21
-704.225632147
 31
0.0
  0
LINE
  5
338
100
AcDbEntity
  8
L1_120
  6
CONTINUOUS
 62
         4
100
AcDbLine
 10
1330.9212216756
 20
-703.7961083827
 30
0.0
 11
1331.320462952
 21
-703.3968671063
 31
0.0
  0
LINE
  5
339
100
AcDbEntity
  8
L1_120
  6
CONTINUOUS
 62
         4
100
AcDbLine
 10
1333.6899125941
 20
-701.0274174642
 30
0.0
 11
1341.8962216756
 21
-692.8211083827
 31
0.0
  0
LINE
  5
33A
100
AcDbEntity
  8
L1_120
  6
CONTINUOUS
 62
         4
100
AcDbLine
 10
1295.45944859
 20
-735.0152407811
 30
0.0
 11
1308.3685809885
 21
-722.1061083827
 31
0.0
  0
LINE
  5
33B
100
AcDbEntity
  8
L1_120
  6
CONTINUOUS
 62
         4
100
AcDbLine
 10
1322.3685809885
 20
-708.1061083827
 30
0.0
 11
1328.8250965972
 21
-701.649592774
 31
0.0
  0
LINE
  5
33C
100
AcDbEntity
  8
L1_120
  6
CONTINUOUS
 62
         4
100
AcDbLine
 10
1331.1945462393
 20
-699.2801431319
 30
0.0
 11
1337.6535809885
 21
-692.8211083827
 31
0.0
  0
LINE
  5
33D
100
AcDbEntity
  8
L1_120
  6
CONTINUOUS
 62
         4
100
AcDbLine
 10
1291.756780354
 20
-734.4752683301
 30
0.0
 11
1304.1259403013
 21
-722.1061083827
 31
0.0
  0
LINE
  5
33E
100
AcDbEntity
  8
L1_120
  6
CONTINUOUS
 62
         4
100
AcDbLine
 10
1318.1259403013
 20
-708.1061083827
 30
0.0
 11
1326.3297302423
 21
-699.9023184417
 31
0.0
  0
LINE
  5
33F
100
AcDbEntity
  8
L1_120
  6
CONTINUOUS
 62
         4
100
AcDbLine
 10
1328.6991798844
 20
-697.5328687996
 30
0.0
 11
1333.4109403013
 21
-692.8211083827
 31
0.0
  0
LINE
  5
340
100
AcDbEntity
  8
L1_120
  6
CONTINUOUS
 62
         4
100
AcDbLine
 10
1288.054112118
 20
-733.935295879
 30
0.0
 11
1299.8832996142
 21
-722.1061083827
 31
0.0
  0
LINE
  5
341
100
AcDbEntity
  8
L1_120
  6
CONTINUOUS
 62
         4
100
AcDbLine
 10
1313.8832996142
 20
-708.1061083827
 30
0.0
 11
1323.8343638875
 21
-698.1550441095
 31
0.0
  0
LINE
  5
342
100
AcDbEntity
  8
L1_120
  6
CONTINUOUS
 62
         4
100
AcDbLine
 10
1326.2038135296
 20
-695.7855944674
 30
0.0
 11
1330.4396835722
 21
-691.5497244247
 31
0.0
  0
LINE
  5
343
100
AcDbEntity
  8
L1_120
  6
CONTINUOUS
 62
         4
100
AcDbLine
 10
1284.3514438819
 20
-733.3953234279
 30
0.0
 11
1295.6406589271
 21
-722.1061083827
 31
0.0
  0
LINE
  5
344
100
AcDbEntity
  8
L1_120
  6
CONTINUOUS
 62
         4
100
AcDbLine
 10
1309.6406589271
 20
-708.1061083827
 30
0.0
 11
1321.3389975326
 21
-696.4077697772
 31
0.0
  0
LINE
  5
345
100
AcDbEntity
  8
L1_120
  6
CONTINUOUS
 62
         4
100
AcDbLine
 10
1323.7084471747
 20
-694.0383201351
 30
0.0
 11
1330.4396835722
 21
-687.3070837376
 31
0.0
  0
LINE
  5
346
100
AcDbEntity
  8
L1_120
  6
CONTINUOUS
 62
         4
100
AcDbLine
 10
1280.6487756459
 20
-732.8553509768
 30
0.0
 11
1291.39801824
 21
-722.1061083827
 31
0.0
  0
LINE
  5
347
100
AcDbEntity
  8
L1_120
  6
CONTINUOUS
 62
         4
100
AcDbLine
 10
1305.39801824
 20
-708.1061083827
 30
0.0
 11
1318.8436311778
 21
-694.6604954449
 31
0.0
  0
LINE
  5
348
100
AcDbEntity
  8
L1_120
  6
CONTINUOUS
 62
         4
100
AcDbLine
 10
1321.2130808199
 20
-692.2910458028
 30
0.0
 11
1330.0563509061
 21
-683.4477757166
 31
0.0
  0
LINE
  5
349
100
AcDbEntity
  8
L1_120
  6
CONTINUOUS
 62
         4
100
AcDbLine
 10
1276.9461074099
 20
-732.3153785257
 30
0.0
 11
1287.1553775529
 21
-722.1061083827
 31
0.0
  0
LINE
  5
34A
100
AcDbEntity
  8
L1_120
  6
CONTINUOUS
 62
         4
100
AcDbLine
 10
1301.1553775529
 20
-708.1061083827
 30
0.0
 11
1316.3482648229
 21
-692.9132211127
 31
0.0
  0
LINE
  5
34B
100
AcDbEntity
  8
L1_120
  6
CONTINUOUS
 62
         4
100
AcDbLine
 10
1318.717714465
 20
-690.5437714706
 30
0.0
 11
1322.280377553
 21
-686.9811083825
 31
0.0
  0
LINE
  5
34C
100
AcDbEntity
  8
L1_120
  6
CONTINUOUS
 62
         4
100
AcDbLine
 10
1273.2434391738
 20
-731.7754060746
 30
0.0
 11
1282.9127368657
 21
-722.1061083827
 31
0.0
  0
LINE
  5
34D
100
AcDbEntity
  8
L1_120
  6
CONTINUOUS
 62
         4
100
AcDbLine
 10
1296.9127368657
 20
-708.1061083827
 30
0.0
 11
1313.8528984681
 21
-691.1659467804
 31
0.0
  0
LINE
  5
34E
100
AcDbEntity
  8
L1_120
  6
CONTINUOUS
 62
         4
100
AcDbLine
 10
1316.2223481102
 20
-688.7964971383
 30
0.0
 11
1319.9225463772
 21
-685.0962988713
 31
0.0
  0
LINE
  5
34F
100
AcDbEntity
  8
L1_120
  6
CONTINUOUS
 62
         4
100
AcDbLine
 10
1269.5407709378
 20
-731.2354336235
 30
0.0
 11
1278.6700961786
 21
-722.1061083827
 31
0.0
  0
LINE
  5
350
100
AcDbEntity
  8
L1_120
  6
CONTINUOUS
 62
         4
100
AcDbLine
 10
1292.6700961786
 20
-708.1061083827
 30
0.0
 11
1307.3069958919
 21
-693.4692086694
 31
0.0
  0
LINE
  5
351
100
AcDbEntity
  8
L1_120
  6
CONTINUOUS
 62
         4
100
AcDbLine
 10
1314.0141877725
 20
-686.7620167888
 30
0.0
 11
1317.4450961788
 21
-683.3311083825
 31
0.0
  0
LINE
  5
352
100
AcDbEntity
  8
L1_120
  6
CONTINUOUS
 62
         4
100
AcDbLine
 10
1265.8381027018
 20
-730.6954611724
 30
0.0
 11
1274.4274554915
 21
-722.1061083827
 31
0.0
  0
LINE
  5
353
100
AcDbEntity
  8
L1_120
  6
CONTINUOUS
 62
         4
100
AcDbLine
 10
1288.4274554915
 20
-708.1061083827
 30
0.0
 11
1302.3400019167
 21
-694.1935619575
 31
0.0
  0
LINE
  5
354
100
AcDbEntity
  8
L1_120
  6
CONTINUOUS
 62
         4
100
AcDbLine
 10
1312.3596835722
 20
-684.173880302
 30
0.0
 11
1313.2024554915
 21
-683.3311083827
 31
0.0
  0
LINE
  5
355
100
AcDbEntity
  8
L1_120
  6
CONTINUOUS
 62
         4
100
AcDbLine
 10
1262.1354344657
 20
-730.1554887214
 30
0.0
 11
1270.1848148044
 21
-722.1061083827
 31
0.0
  0
LINE
  5
356
100
AcDbEntity
  8
L1_120
  6
CONTINUOUS
 62
         4
100
AcDbLine
 10
1284.1848148044
 20
-708.1061083827
 30
0.0
 11
1297.3730079416
 21
-694.9179152455
 31
0.0
  0
LINE
  5
357
100
AcDbEntity
  8
L1_120
  6
CONTINUOUS
 62
         4
100
AcDbLine
 10
1258.4327662297
 20
-729.6155162703
 30
0.0
 11
1265.9421741173
 21
-722.1061083827
 31
0.0
  0
LINE
  5
358
100
AcDbEntity
  8
L1_120
  6
CONTINUOUS
 62
         4
100
AcDbLine
 10
1279.9421741173
 20
-708.1061083827
 30
0.0
 11
1292.4060139664
 21
-695.6422685336
 31
0.0
  0
LINE
  5
359
100
AcDbEntity
  8
L1_120
  6
CONTINUOUS
 62
         4
100
AcDbLine
 10
1254.7300979937
 20
-729.0755438192
 30
0.0
 11
1261.6995334301
 21
-722.1061083827
 31
0.0
  0
LINE
  5
35A
100
AcDbEntity
  8
L1_120
  6
CONTINUOUS
 62
         4
100
AcDbLine
 10
1275.6995334301
 20
-708.1061083827
 30
0.0
 11
1287.4390199913
 21
-696.3666218216
 31
0.0
  0
LINE
  5
35B
100
AcDbEntity
  8
L1_120
  6
CONTINUOUS
 62
         4
100
AcDbLine
 10
1251.0274297577
 20
-728.5355713681
 30
0.0
 11
1257.456892743
 21
-722.1061083827
 31
0.0
  0
LINE
  5
35C
100
AcDbEntity
  8
L1_120
  6
CONTINUOUS
 62
         4
100
AcDbLine
 10
1271.456892743
 20
-708.1061083827
 30
0.0
 11
1282.4720260161
 21
-697.0909751096
 31
0.0
  0
LINE
  5
35D
100
AcDbEntity
  8
L1_120
  6
CONTINUOUS
 62
         4
100
AcDbLine
 10
1247.3247615216
 20
-727.995598917
 30
0.0
 11
1253.2142520559
 21
-722.1061083827
 31
0.0
  0
LINE
  5
35E
100
AcDbEntity
  8
L1_120
  6
CONTINUOUS
 62
         4
100
AcDbLine
 10
1267.2142520559
 20
-708.1061083827
 30
0.0
 11
1277.5050320409
 21
-697.8153283977
 31
0.0
  0
LINE
  5
35F
100
AcDbEntity
  8
L1_120
  6
CONTINUOUS
 62
         4
100
AcDbLine
 10
1243.6950941135
 20
-727.382625638
 30
0.0
 11
1247.7372765295
 21
-723.340443222
 31
0.0
  0
LINE
  5
360
100
AcDbEntity
  8
L1_120
  6
CONTINUOUS
 62
         4
100
AcDbLine
 10
1262.9716113688
 20
-708.1061083827
 30
0.0
 11
1272.5380380658
 21
-698.5396816857
 31
0.0
  0
LINE
  5
361
100
AcDbEntity
  8
L1_120
  6
CONTINUOUS
 62
         4
100
AcDbLine
 10
1258.7289706817
 20
-708.1061083827
 30
0.0
 11
1267.5710440906
 21
-699.2640349738
 31
0.0
  0
LINE
  5
362
100
AcDbEntity
  8
L1_120
  6
CONTINUOUS
 62
         4
100
AcDbLine
 10
1254.4863299945
 20
-708.1061083827
 30
0.0
 11
1262.6040501154
 21
-699.9883882618
 31
0.0
  0
LINE
  5
363
100
AcDbEntity
  8
L1_120
  6
CONTINUOUS
 62
         4
100
AcDbLine
 10
1250.2436893074
 20
-708.1061083827
 30
0.0
 11
1257.6370561403
 21
-700.7127415499
 31
0.0
  0
LINE
  5
364
100
AcDbEntity
  8
L1_120
  6
CONTINUOUS
 62
         4
100
AcDbLine
 10
1247.2508744597
 20
-706.8562825433
 30
0.0
 11
1252.6700621651
 21
-701.4370948379
 31
0.0
  0
LINE
  5
365
100
AcDbEntity
  8
L1_120
  6
CONTINUOUS
 62
         4
100
AcDbLine
 10
1243.2977720646
 20
-706.5667442513
 30
0.0
 11
1247.7030681899
 21
-702.161448126
 31
0.0
  0
ENDBLK
  5
366
100
AcDbEntity
  8
0
  6
CONTINUOUS
100
AcDbBlockEnd
  0
ENDSEC
  0
SECTION
  2
ENTITIES
  0
LINE
  5
25
100
AcDbEntity
  8
L1_120
  6
CONTINUOUS
 62
         7
100
AcDbLine
 10
1314.81062171
 20
-576.6460233153
 30
0.0
 11
1316.5396835722
 21
-576.6460233153
 31
0.0
  0
LINE
  5
26
100
AcDbEntity
  8
L1_120
  6
CONTINUOUS
 62
         4
100
AcDbLine
 10
1312.8596835722
 20
-640.1960233153
 30
0.0
 11
1312.8596835722
 21
-617.2710233153
 31
0.0
  0
LINE
  5
27
100
AcDbEntity
  8
L1_120
  6
CONTINUOUS
 62
         4
100
AcDbLine
 10
1312.8596835722
 20
-599.5710233153
 30
0.0
 11
1312.8596835722
 21
-576.6460233153
 31
0.0
  0
LINE
  5
28
100
AcDbEntity
  8
L1_120
  6
CONTINUOUS
 62
         7
100
AcDbLine
 10
1312.8596835722
 20
-576.6460233153
 30
0.0
 11
1312.3596835722
 21
-577.1460233153
 31
0.0
  0
LINE
  5
29
100
AcDbEntity
  8
L1_120
  6
CONTINUOUS
 62
         7
100
AcDbLine
 10
1312.3596835722
 20
-639.6960233153
 30
0.0
 11
1312.8596835722
 21
-640.1960233153
 31
0.0
  0
ARC
  5
2A
100
AcDbEntity
  8
L1_120
  6
CONTINUOUS
 62
         7
100
AcDbCircle
 10
1311.5976835722
 20
-631.4330233153
 30
0.0
 40
0.762
100
AcDbArc
 50
0.0000000001
 51
89.9999999999
  0
LINE
  5
2B
100
AcDbEntity
  8
L1_120
  6
CONTINUOUS
 62
         7
100
AcDbLine
 10
1311.5111121436
 20
-630.6710233153
 30
0.0
 11
1311.5976835722
 21
-630.6710233153
 31
0.0
  0
LINE
  5
2C
100
AcDbEntity
  8
L1_120
  6
CONTINUOUS
 62
         7
100
AcDbLine
 10
1311.5111121436
 20
-630.6710233153
 30
0.0
 11
1311.5111121436
 21
-586.1710233153
 31
0.0
  0
ARC
  5
2D
100
AcDbEntity
  8
L1_120
  6
CONTINUOUS
 62
         7
100
AcDbCircle
 10
1311.5976835722
 20
-585.4090233153
 30
0.0
 40
0.762
100
AcDbArc
 50
270.0000000001
 51
359.9999999999
  0
LINE
  5
2E
100
AcDbEntity
  8
L1_120
  6
CONTINUOUS
 62
         7
100
AcDbLine
 10
1311.5111121436
 20
-586.1710233153
 30
0.0
 11
1311.5976835722
 21
-586.1710233153
 31
0.0
  0
LINE
  5
2F
100
AcDbEntity
  8
L1_120
  6
CONTINUOUS
 62
         7
100
AcDbLine
 10
1312.3596835722
 20
-577.6460233153
 30
0.0
 11
1312.3596835722
 21
-639.6960233153
 31
0.0
  0
LINE
  5
30
100
AcDbEntity
  8
L1_120
  6
CENTER
 62
         1
100
AcDbLine
 10
1311.3396835722
 20
-586.1960233153
 30
0.0
 11
1311.3396835722
 21
-630.6460233153
 31
0.0
  0
LINE
  5
31
100
AcDbEntity
  8
L1_120
  6
CONTINUOUS
 62
         7
100
AcDbLine
 10
1312.8596835722
 20
-640.1960233153
 30
0.0
 11
1313.9087454345
 21
-640.1960233153
 31
0.0
  0
LINE
  5
32
100
AcDbEntity
  8
L1_120
  6
CONTINUOUS
 62
         7
100
AcDbLine
 10
1312.3596835722
 20
-577.1460233153
 30
0.0
 11
1312.3596835722
 21
-578.6460233153
 31
0.0
  0
LINE
  5
33
100
AcDbEntity
  8
L1_120
  6
CONTINUOUS
 62
         7
100
AcDbLine
 10
1312.8596835722
 20
-576.6460233153
 30
0.0
 11
1313.9087454345
 21
-576.6460233153
 31
0.0
  0
LINE
  5
34
100
AcDbEntity
  8
L1_120
  6
CONTINUOUS
 62
         7
100
AcDbLine
 10
1313.9087454345
 20
-599.5710233153
 30
0.0
 11
1313.9087454345
 21
-576.6460233153
 31
0.0
  0
LINE
  5
35
100
AcDbEntity
  8
L1_120
  6
CONTINUOUS
 62
         7
100
AcDbLine
 10
1314.81062171
 20
-599.5710233153
 30
0.0
 11
1314.81062171
 21
-576.6460233153
 31
0.0
  0
LINE
  5
36
100
AcDbEntity
  8
L1_120
  6
CONTINUOUS
 62
         7
100
AcDbLine
 10
1314.81062171
 20
-576.6460233153
 30
0.0
 11
1314.7416509637
 21
-576.8647705758
 31
0.0
  0
ARC
  5
37
100
AcDbEntity
  8
L1_120
  6
CONTINUOUS
 62
         7
100
AcDbCircle
 10
1314.3596835722
 20
-576.7460233153
 30
0.0
 40
0.4
100
AcDbArc
 50
197.2695937807
 51
342.7304062193
  0
LINE
  5
38
100
AcDbEntity
  8
L1_120
  6
CONTINUOUS
 62
         7
100
AcDbLine
 10
1313.9087454345
 20
-576.6460233153
 30
0.0
 11
1313.9777161808
 21
-576.8647705758
 31
0.0
  0
LINE
  5
39
100
AcDbEntity
  8
L1_120
  6
CONTINUOUS
 62
         7
100
AcDbLine
 10
1314.81062171
 20
-617.2710233153
 30
0.0
 11
1314.81062171
 21
-640.1960233153
 31
0.0
  0
LINE
  5
3A
100
AcDbEntity
  8
L1_120
  6
CONTINUOUS
 62
         7
100
AcDbLine
 10
1313.9087454345
 20
-617.2710233153
 30
0.0
 11
1313.9087454345
 21
-640.1960233153
 31
0.0
  0
LINE
  5
3B
100
AcDbEntity
  8
L1_120
  6
CONTINUOUS
 62
         7
100
AcDbLine
 10
1314.81062171
 20
-640.1960233153
 30
0.0
 11
1314.7416509637
 21
-639.9772760548
 31
0.0
  0
ARC
  5
3C
100
AcDbEntity
  8
L1_120
  6
CONTINUOUS
 62
         7
100
AcDbCircle
 10
1314.3596835722
 20
-640.0960233153
 30
0.0
 40
0.4
100
AcDbArc
 50
17.2695937807
 51
162.7304062193
  0
LINE
  5
3D
100
AcDbEntity
  8
L1_120
  6
CONTINUOUS
 62
         7
100
AcDbLine
 10
1313.9087454345
 20
-640.1960233153
 30
0.0
 11
1313.9777161808
 21
-639.9772760548
 31
0.0
  0
LINE
  5
3E
100
AcDbEntity
  8
L1_120
  6
CONTINUOUS
 62
         7
100
AcDbLine
 10
1313.1596835722
 20
-600.3710233153
 30
0.0
 11
1313.1596835722
 21
-616.4710233153
 31
0.0
  0
LINE
  5
3F
100
AcDbEntity
  8
L1_120
  6
CONTINUOUS
 62
         7
100
AcDbLine
 10
1313.1596835722
 20
-616.4710233153
 30
0.0
 11
1312.3596835722
 21
-617.2710233153
 31
0.0
  0
LINE
  5
40
100
AcDbEntity
  8
L1_120
  6
CONTINUOUS
 62
         7
100
AcDbLine
 10
1312.3596835722
 20
-599.5710233153
 30
0.0
 11
1313.1596835722
 21
-600.3710233153
 31
0.0
  0
CIRCLE
  5
41
100
AcDbEntity
  8
L1_120
  6
CONTINUOUS
 62
         7
100
AcDbCircle
 10
1322.4396835722
 20
-621.6249110186
 30
0.0
 40
1.875
  0
CIRCLE
  5
42
100
AcDbEntity
  8
L1_120
  6
CONTINUOUS
 62
         7
100
AcDbCircle
 10
1322.4396835722
 20
-595.2171356119
 30
0.0
 40
1.875
  0
CIRCLE
  5
43
100
AcDbEntity
  8
L1_120
  6
CONTINUOUS
 62
         7
100
AcDbCircle
 10
1322.4396835722
 20
-608.4210233153
 30
0.0
 40
5.0
  0
LINE
  5
44
100
AcDbEntity
  8
L1_120
  6
CONTINUOUS
 62
         7
100
AcDbLine
 10
1330.4396835722
 20
-639.6960233153
 30
0.0
 11
1329.9396835722
 21
-640.1960233153
 31
0.0
  0
LINE
  5
45
100
AcDbEntity
  8
L1_120
  6
CONTINUOUS
 62
         7
100
AcDbLine
 10
1328.4396835722
 20
-640.1960233153
 30
0.0
 11
1329.9396835722
 21
-640.1960233153
 31
0.0
  0
LINE
  5
46
100
AcDbEntity
  8
L1_120
  6
CONTINUOUS
 62
         7
100
AcDbLine
 10
1330.4396835722
 20
-638.1960233153
 30
0.0
 11
1330.4396835722
 21
-639.6960233153
 31
0.0
  0
LINE
  5
47
100
AcDbEntity
  8
L1_120
  6
CONTINUOUS
 62
         7
100
AcDbLine
 10
1329.9396835722
 20
-576.6460233153
 30
0.0
 11
1330.4396835722
 21
-577.1460233153
 31
0.0
  0
LINE
  5
48
100
AcDbEntity
  8
L1_120
  6
CONTINUOUS
 62
         7
100
AcDbLine
 10
1330.4396835722
 20
-577.1460233153
 30
0.0
 11
1330.4396835722
 21
-578.6460233153
 31
0.0
  0
LINE
  5
49
100
AcDbEntity
  8
L1_120
  6
CONTINUOUS
 62
         7
100
AcDbLine
 10
1328.4396835722
 20
-576.6460233153
 30
0.0
 11
1329.9396835722
 21
-576.6460233153
 31
0.0
  0
LINE
  5
4A
100
AcDbEntity
  8
L1_120
  6
CONTINUOUS
 62
         7
100
AcDbLine
 10
1330.4396835722
 20
-631.2060233153
 30
0.0
 11
1330.4396835722
 21
-639.1960233153
 31
0.0
  0
LINE
  5
4B
100
AcDbEntity
  8
L1_120
  6
CONTINUOUS
 62
         7
100
AcDbLine
 10
1330.4396835722
 20
-577.6460233153
 30
0.0
 11
1330.4396835722
 21
-585.6360233153
 31
0.0
  0
LINE
  5
4C
100
AcDbEntity
  8
L1_120
  6
CONTINUOUS
 62
         7
100
AcDbLine
 10
1325.975953971
 20
-617.2710233153
 30
0.0
 11
1325.975953971
 21
-640.1960233153
 31
0.0
  0
LINE
  5
4D
100
AcDbEntity
  8
L1_120
  6
CONTINUOUS
 62
         7
100
AcDbLine
 10
1324.3146835722
 20
-616.4710233153
 30
0.0
 11
1324.3146835722
 21
-637.3186185795
 31
0.0
  0
LINE
  5
4E
100
AcDbEntity
  8
L1_120
  6
CONTINUOUS
 62
         7
100
AcDbLine
 10
1320.5646835722
 20
-616.4710233153
 30
0.0
 11
1320.5646835722
 21
-637.3186185795
 31
0.0
  0
LINE
  5
4F
100
AcDbEntity
  8
L1_120
  6
CONTINUOUS
 62
         7
100
AcDbLine
 10
1318.9034131734
 20
-617.2710233153
 30
0.0
 11
1318.9034131734
 21
-640.1960233153
 31
0.0
  0
LINE
  5
50
100
AcDbEntity
  8
L1_120
  6
CONTINUOUS
 62
         7
100
AcDbLine
 10
1330.4396835722
 20
-599.5710233153
 30
0.0
 11
1325.975953971
 21
-599.5710233153
 31
0.0
  0
LINE
  5
51
100
AcDbEntity
  8
L1_120
  6
CONTINUOUS
 62
         7
100
AcDbLine
 10
1324.3146835722
 20
-600.3710233153
 30
0.0
 11
1325.975953971
 21
-599.5710233153
 31
0.0
  0
LINE
  5
52
100
AcDbEntity
  8
L1_120
  6
CONTINUOUS
 62
         7
100
AcDbLine
 10
1330.4396835722
 20
-599.5710233153
 30
0.0
 11
1329.6396835722
 21
-600.3710233153
 31
0.0
  0
LINE
  5
53
100
AcDbEntity
  8
L1_120
  6
CONTINUOUS
 62
         7
100
AcDbLine
 10
1324.3146835722
 20
-616.4710233153
 30
0.0
 11
1325.975953971
 21
-617.2710233153
 31
0.0
  0
LINE
  5
54
100
AcDbEntity
  8
L1_120
  6
CONTINUOUS
 62
         7
100
AcDbLine
 10
1329.6396835722
 20
-616.4710233153
 30
0.0
 11
1330.4396835722
 21
-617.2710233153
 31
0.0
  0
LINE
  5
55
100
AcDbEntity
  8
L1_120
  6
CONTINUOUS
 62
         7
100
AcDbLine
 10
1330.4396835722
 20
-617.2710233153
 30
0.0
 11
1325.975953971
 21
-617.2710233153
 31
0.0
  0
LINE
  5
56
100
AcDbEntity
  8
L1_120
  6
CONTINUOUS
 62
         7
100
AcDbLine
 10
1329.6396835722
 20
-600.3710233153
 30
0.0
 11
1329.6396835722
 21
-616.4710233153
 31
0.0
  0
LINE
  5
57
100
AcDbEntity
  8
L1_120
  6
CONTINUOUS
 62
         7
100
AcDbLine
 10
1318.9034131734
 20
-599.5710233153
 30
0.0
 11
1312.3596835722
 21
-599.5710233153
 31
0.0
  0
LINE
  5
58
100
AcDbEntity
  8
L1_120
  6
CONTINUOUS
 62
         7
100
AcDbLine
 10
1318.9034131734
 20
-617.2710233153
 30
0.0
 11
1312.3596835722
 21
-617.2710233153
 31
0.0
  0
LINE
  5
59
100
AcDbEntity
  8
L1_120
  6
CONTINUOUS
 62
         7
100
AcDbLine
 10
1318.9034131734
 20
-617.2710233153
 30
0.0
 11
1320.5646835722
 21
-616.4710233153
 31
0.0
  0
LINE
  5
5A
100
AcDbEntity
  8
L1_120
  6
CONTINUOUS
 62
         7
100
AcDbLine
 10
1318.9034131734
 20
-599.5710233153
 30
0.0
 11
1320.5646835722
 21
-600.3710233153
 31
0.0
  0
LINE
  5
5B
100
AcDbEntity
  8
L1_120
  6
CONTINUOUS
 62
         7
100
AcDbLine
 10
1329.6396835722
 20
-616.4710233153
 30
0.0
 11
1313.1596835722
 21
-616.4710233153
 31
0.0
  0
LINE
  5
5C
100
AcDbEntity
  8
L1_120
  6
CONTINUOUS
 62
         7
100
AcDbLine
 10
1329.6396835722
 20
-600.3710233153
 30
0.0
 11
1313.1596835722
 21
-600.3710233153
 31
0.0
  0
LINE
  5
5D
100
AcDbEntity
  8
L1_120
  6
CONTINUOUS
 62
         7
100
AcDbLine
 10
1325.975953971
 20
-576.6460233153
 30
0.0
 11
1325.975953971
 21
-599.5710233153
 31
0.0
  0
LINE
  5
5E
100
AcDbEntity
  8
L1_120
  6
CONTINUOUS
 62
         7
100
AcDbLine
 10
1324.3146835722
 20
-579.5234280511
 30
0.0
 11
1324.3146835722
 21
-600.3710233153
 31
0.0
  0
LINE
  5
5F
100
AcDbEntity
  8
L1_120
  6
CONTINUOUS
 62
         7
100
AcDbLine
 10
1320.5646835722
 20
-579.5234280511
 30
0.0
 11
1320.5646835722
 21
-600.3710233153
 31
0.0
  0
LINE
  5
60
100
AcDbEntity
  8
L1_120
  6
CONTINUOUS
 62
         7
100
AcDbLine
 10
1318.9034131734
 20
-576.6460233153
 30
0.0
 11
1318.9034131734
 21
-599.5710233153
 31
0.0
  0
LINE
  5
61
100
AcDbEntity
  8
L1_120
  6
CONTINUOUS
 62
         7
100
AcDbLine
 10
1320.5646835722
 20
-579.5234280511
 30
0.0
 11
1318.9034131734
 21
-576.6460233153
 31
0.0
  0
LINE
  5
62
100
AcDbEntity
  8
L1_120
  6
CENTER
 62
         1
100
AcDbLine
 10
1318.1286783136
 20
-575.7710233153
 30
0.0
 11
1326.537512882
 21
-575.7710233153
 31
0.0
  0
LINE
  5
63
100
AcDbEntity
  8
L1_120
  6
CENTER
 62
         1
100
AcDbLine
 10
1318.1286783136
 20
-641.0710233153
 30
0.0
 11
1326.537512882
 21
-641.0710233153
 31
0.0
  0
LINE
  5
64
100
AcDbEntity
  8
L1_120
  6
CONTINUOUS
 62
         7
100
AcDbLine
 10
1320.5646835722
 20
-637.3186185795
 30
0.0
 11
1318.9034131734
 21
-640.1960233153
 31
0.0
  0
LINE
  5
65
100
AcDbEntity
  8
L1_120
  6
CONTINUOUS
 62
         7
100
AcDbLine
 10
1314.81062171
 20
-640.1960233153
 30
0.0
 11
1318.9034131734
 21
-640.1960233153
 31
0.0
  0
LINE
  5
66
100
AcDbEntity
  8
L1_120
  6
CONTINUOUS
 62
         7
100
AcDbLine
 10
1315.5396835722
 20
-576.6460233153
 30
0.0
 11
1318.9034131734
 21
-576.6460233153
 31
0.0
  0
LINE
  5
67
100
AcDbEntity
  8
L1_120
  6
CONTINUOUS
 62
         7
100
AcDbLine
 10
1330.4396835722
 20
-577.6460233153
 30
0.0
 11
1330.4396835722
 21
-639.1960233153
 31
0.0
  0
LINE
  5
68
100
AcDbEntity
  8
L1_120
  6
CONTINUOUS
 62
         7
100
AcDbLine
 10
1330.4396835722
 20
-577.6460233153
 30
0.0
 11
1330.4396835722
 21
-589.4210233153
 31
0.0
  0
LINE
  5
69
100
AcDbEntity
  8
L1_120
  6
CONTINUOUS
 62
         7
100
AcDbLine
 10
1321.538483904
 20
-636.5460233153
 30
0.0
 11
1323.3408832405
 21
-636.5460233153
 31
0.0
  0
ARC
  5
6A
100
AcDbEntity
  8
L1_120
  6
CONTINUOUS
 62
         7
100
AcDbCircle
 10
1321.538483904
 20
-637.5460233153
 30
0.0
 40
1.0
100
AcDbArc
 50
90.0
 51
166.8556743105
  0
LINE
  5
6B
100
AcDbEntity
  8
L1_120
  6
CONTINUOUS
 62
         7
100
AcDbLine
 10
1324.3146835722
 20
-637.3186185795
 30
0.0
 11
1325.975953971
 21
-640.1960233153
 31
0.0
  0
ARC
  5
6C
100
AcDbEntity
  8
L1_120
  6
CONTINUOUS
 62
         7
100
AcDbCircle
 10
1323.3408832405
 20
-637.5460233153
 30
0.0
 40
1.0
100
AcDbArc
 50
13.1443256895
 51
90.0
  0
LINE
  5
6D
100
AcDbEntity
  8
L1_120
  6
CONTINUOUS
 62
         7
100
AcDbLine
 10
1325.975953971
 20
-640.1960233153
 30
0.0
 11
1329.4396835722
 21
-640.1960233153
 31
0.0
  0
LINE
  5
6E
100
AcDbEntity
  8
L1_120
  6
CONTINUOUS
 62
         7
100
AcDbLine
 10
1324.3146835722
 20
-579.5234280511
 30
0.0
 11
1325.975953971
 21
-576.6460233153
 31
0.0
  0
LINE
  5
6F
100
AcDbEntity
  8
L1_120
  6
CONTINUOUS
 62
         7
100
AcDbLine
 10
1325.975953971
 20
-576.6460233153
 30
0.0
 11
1329.4396835722
 21
-576.6460233153
 31
0.0
  0
LINE
  5
70
100
AcDbEntity
  8
L1_120
  6
CONTINUOUS
 62
         7
100
AcDbLine
 10
1321.538483904
 20
-580.2960233153
 30
0.0
 11
1323.3408832405
 21
-580.2960233153
 31
0.0
  0
ARC
  5
71
100
AcDbEntity
  8
L1_120
  6
CONTINUOUS
 62
         7
100
AcDbCircle
 10
1321.538483904
 20
-579.2960233153
 30
0.0
 40
1.0
100
AcDbArc
 50
193.1443256895
 51
270.0
  0
ARC
  5
72
100
AcDbEntity
  8
L1_120
  6
CONTINUOUS
 62
         7
100
AcDbCircle
 10
1323.3408832405
 20
-579.2960233153
 30
0.0
 40
1.0
100
AcDbArc
 50
270.0
 51
346.8556743105
  0
LINE
  5
73
100
AcDbEntity
  8
L1_120
  6
CENTER
 62
         1
100
AcDbLine
 10
1322.4396835722
 20
-570.9157600145
 30
0.0
 11
1322.4396835722
 21
-645.9185795663
 31
0.0
  0
LINE
  5
74
100
AcDbEntity
  8
L1_120
  6
CENTER
 62
         1
100
AcDbLine
 10
1307.9871921538
 20
-608.4210233153
 30
0.0
 11
1330.4396835722
 21
-608.4210233153
 31
0.0
  0
LINE
  5
75
100
AcDbEntity
  8
L1_120
  6
CONTINUOUS
 62
         4
100
AcDbLine
 10
1329.9396835722
 20
-599.5710233153
 30
0.0
 11
1329.9396835722
 21
-576.6460233153
 31
0.0
  0
LINE
  5
76
100
AcDbEntity
  8
L1_120
  6
CONTINUOUS
 62
         4
100
AcDbLine
 10
1329.9396835722
 20
-640.1960233153
 30
0.0
 11
1329.9396835722
 21
-617.2710233153
 31
0.0
  0
LINE
  5
77
100
AcDbEntity
  8
L1_120
  6
CENTER
 62
         1
100
AcDbLine
 10
1243.0896835722
 20
-608.4210233153
 30
0.0
 11
1463.7396835722
 21
-608.4210233153
 31
0.0
  0
LINE
  5
78
100
AcDbEntity
  8
L1_120
  6
CONTINUOUS
 62
         7
100
AcDbLine
 10
1243.9665153005
 20
-727.5058546764
 30
38.8301954047
 11
1312.5396835727
 21
-737.5061083828
 31
38.8301954047
  0
ARC
  5
79
100
AcDbEntity
  8
L1_120
  6
CONTINUOUS
 62
         7
100
AcDbCircle
 10
1244.2896835722
 20
-703.8719266663
 30
38.8301954047
 40
1.2
100
AcDbArc
 50
98.2971449698
 51
180.0
  0
ARC
  5
7A
100
AcDbEntity
  8
L1_120
  6
CONTINUOUS
 62
         7
100
AcDbCircle
 10
1244.2896835722
 20
-726.3402900992
 30
38.8301954047
 40
1.2
100
AcDbArc
 50
180.0
 51
261.7028550302
  0
LINE
  5
7B
100
AcDbEntity
  8
L1_120
  6
CONTINUOUS
 62
         7
100
AcDbLine
 10
1243.0896835722
 20
-596.8480895704
 30
-0.1232956552
 11
1243.0896835722
 21
-619.3164530032
 31
-0.1232956552
  0
ARC
  5
7C
100
AcDbEntity
  8
L1_120
  6
CONTINUOUS
 62
         7
100
AcDbCircle
 10
1244.2896835722
 20
-596.8480895704
 30
-0.1232956552
 40
1.2
100
AcDbArc
 50
98.2971449698
 51
180.0
  0
ARC
  5
7D
100
AcDbEntity
  8
L1_120
  6
CONTINUOUS
 62
         7
100
AcDbCircle
 10
1244.2896835722
 20
-619.3164530032
 30
-0.1232956552
 40
1.2
100
AcDbArc
 50
180.0
 51
261.7028550302
  0
LINE
  5
7E
100
AcDbEntity
  8
L1_120
  6
CONTINUOUS
 62
         7
100
AcDbLine
 10
1243.0896835722
 20
-596.8480895704
 30
-0.1232956552
 11
1243.0896835722
 21
-619.3164530032
 31
-0.1232956552
  0
LINE
  5
7F
100
AcDbEntity
  8
L1_120
  6
CONTINUOUS
 62
         7
100
AcDbLine
 10
1244.1165153005
 20
-620.5038925805
 30
-0.1232956552
 11
1311.5111121436
 21
-630.3322712868
 31
-0.1232956552
  0
LINE
  5
80
100
AcDbEntity
  8
L1_120
  6
CONTINUOUS
 62
         7
100
AcDbLine
 10
1244.1165153005
 20
-595.6606499931
 30
-0.1232956552
 11
1311.5111121436
 21
-585.8322712868
 31
-0.1232956552
  0
LINE
  5
81
100
AcDbEntity
  8
L1_120
  6
CONTINUOUS
 62
         5
100
AcDbLine
 10
1252.0896835722
 20
-707.1061083827
 30
38.8301954047
 11
1274.0896835722
 21
-707.1061083827
 31
38.8301954047
  0
LINE
  5
82
100
AcDbEntity
  8
L1_120
  6
CONTINUOUS
 62
         5
100
AcDbLine
 10
1252.0896835722
 20
-723.1061083827
 30
38.8301954047
 11
1274.0896835722
 21
-723.1061083827
 31
38.8301954047
  0
LINE
  5
83
100
AcDbEntity
  8
L1_120
  6
CONTINUOUS
 62
         7
100
AcDbLine
 10
1248.9925262847
 20
-722.1561083827
 30
38.8301954047
 11
1328.251303912
 21
-722.1561083827
 31
38.8301954047
  0
LINE
  5
84
100
AcDbEntity
  8
L1_120
  6
CONTINUOUS
 62
         7
100
AcDbLine
 10
1274.0896835722
 20
-707.1061083827
 30
38.8301954047
 11
1274.0896835722
 21
-723.1061083827
 31
38.8301954047
  0
LINE
  5
85
100
AcDbEntity
  8
L1_120
  6
CONTINUOUS
 62
         5
100
AcDbLine
 10
1274.0896835722
 20
-707.1061083827
 30
38.8301954047
 11
1277.0896835722
 21
-708.0561083827
 31
38.8301954047
  0
LINE
  5
86
100
AcDbEntity
  8
L1_120
  6
CONTINUOUS
 62
         5
100
AcDbLine
 10
1274.0896835722
 20
-723.1061083827
 30
38.8301954047
 11
1277.0896835722
 21
-722.1561083827
 31
38.8301954047
  0
LINE
  5
87
100
AcDbEntity
  8
L1_120
  6
CONTINUOUS
 62
         5
100
AcDbLine
 10
1247.8596835722
 20
-707.1061083827
 30
38.8301954047
 11
1274.0896835722
 21
-707.1061083827
 31
38.8301954047
  0
LINE
  5
88
100
AcDbEntity
  8
L1_120
  6
CONTINUOUS
 62
         5
100
AcDbLine
 10
1247.0335694578
 20
-723.1061083827
 30
38.8301954047
 11
1274.0896835722
 21
-723.1061083827
 31
38.8301954047
  0
LINE
  5
89
100
AcDbEntity
  8
L1_120
  6
CONTINUOUS
 62
         7
100
AcDbLine
 10
1248.9925262847
 20
-708.0561083827
 30
38.8301954047
 11
1328.251303912
 21
-708.0561083827
 31
38.8301954047
  0
LINE
  5
8A
100
AcDbEntity
  8
L1_120
  6
CONTINUOUS
 62
         7
100
AcDbLine
 10
1274.0896835722
 20
-707.1061083827
 30
38.8301954047
 11
1274.0896835722
 21
-723.1061083827
 31
38.8301954047
  0
LINE
  5
8B
100
AcDbEntity
  8
L1_120
  6
CONTINUOUS
 62
         5
100
AcDbLine
 10
1274.0896835722
 20
-707.1061083827
 30
38.8301954047
 11
1277.0896835722
 21
-708.0561083827
 31
38.8301954047
  0
LINE
  5
8C
100
AcDbEntity
  8
L1_120
  6
CONTINUOUS
 62
         5
100
AcDbLine
 10
1274.0896835722
 20
-723.1061083827
 30
38.8301954047
 11
1277.0896835722
 21
-722.1561083827
 31
38.8301954047
  0
LINE
  5
8D
100
AcDbEntity
  8
L1_120
  6
CONTINUOUS
 62
         7
100
AcDbLine
 10
1243.0896835722
 20
-596.8480895704
 30
-0.1232956552
 11
1243.0896835722
 21
-619.9050786202
 31
-0.1232956552
  0
LINE
  5
8E
100
AcDbEntity
  8
L1_120
  6
CONTINUOUS
 62
         7
100
AcDbLine
 10
1243.0896835722
 20
-597.5255936273
 30
-3.965612096
 11
1243.0896835722
 21
-619.3164530032
 31
3.965612096
  0
LINE
  5
8F
100
AcDbEntity
  8
L1_120
  6
CONTINUOUS
 62
         7
100
AcDbLine
 10
1243.0896835722
 20
-597.5255936273
 30
-3.965612096
 11
1243.0896835722
 21
-618.6389489463
 31
3.7190207856
  0
TEXT
  5
91
100
AcDbEntity
  8
L1_120
  6
CONTINUOUS
 62
         2
100
AcDbText
 10
1498.8098051448
 20
-566.7951371066
 30
0.0
 40
4.5
  1
521425
 41
0.98
  7
BOX
100
AcDbText
  0
LINE
  5
92
100
AcDbEntity
  8
L1_120
  6
CENTER
 62
         1
100
AcDbLine
 10
1158.2609862139
 20
-577.4677592816
 30
-11.2660667616
 11
1158.2609862139
 21
-644.8828897801
 31
13.271034079
  0
LINE
  5
93
100
AcDbEntity
  8
L1_120
  6
CENTER
 62
         1
100
AcDbLine
 10
1120.2076666989
 20
-608.9677592816
 30
0.1989956178
 11
1189.7609862139
 21
-608.9677592816
 31
0.1989956178
  0
LINE
  5
94
100
AcDbEntity
  8
L1_120
  6
CONTINUOUS
 62
         7
100
AcDbLine
 10
1244.1165153005
 20
-727.5277296764
 30
38.8301954047
 11
1312.5396835722
 21
-737.5061083827
 31
38.8301954047
  0
LINE
  5
95
100
AcDbEntity
  8
L1_120
  6
CONTINUOUS
 62
         7
100
AcDbLine
 10
1135.4609862139
 20
-616.5177592816
 30
0.1989956178
 11
1135.4609862139
 21
-601.4177592816
 31
0.1989956178
  0
LINE
  5
96
100
AcDbEntity
  8
L1_120
  6
CONTINUOUS
 62
         7
100
AcDbLine
 10
1135.4609862139
 20
-616.5177592816
 30
0.1989956178
 11
1134.9609862139
 21
-617.0177592816
 31
0.1989956178
  0
LINE
  5
97
100
AcDbEntity
  8
L1_120
  6
CONTINUOUS
 62
         7
100
AcDbLine
 10
1134.9609862139
 20
-617.0177592816
 30
0.1989956178
 11
1128.0226042624
 21
-617.0177592816
 31
0.1989956178
  0
LINE
  5
98
100
AcDbEntity
  8
L1_120
  6
CONTINUOUS
 62
         7
100
AcDbLine
 10
1127.6285189812
 20
-617.4118445628
 30
0.1989956178
 11
1128.0226042624
 21
-617.0177592816
 31
0.1989956178
  0
LINE
  5
99
100
AcDbEntity
  8
L1_120
  6
CONTINUOUS
 62
         7
100
AcDbLine
 10
1134.9609862139
 20
-600.9177592816
 30
0.1989956178
 11
1128.0226042624
 21
-600.9177592816
 31
0.1989956178
  0
LINE
  5
9A
100
AcDbEntity
  8
L1_120
  6
CONTINUOUS
 62
         7
100
AcDbLine
 10
1135.4609862139
 20
-601.4177592816
 30
0.1989956178
 11
1134.9609862139
 21
-600.9177592816
 31
0.1989956178
  0
LINE
  5
9B
100
AcDbEntity
  8
L1_120
  6
CONTINUOUS
 62
         7
100
AcDbLine
 10
1127.6285189812
 20
-600.5236740005
 30
0.1989956178
 11
1128.0226042624
 21
-600.9177592816
 31
0.1989956178
  0
LINE
  5
9C
100
AcDbEntity
  8
L1_120
  6
CONTINUOUS
 62
         7
100
AcDbLine
 10
1188.4993681655
 20
-617.0177592816
 30
0.1989956178
 11
1183.7609862139
 21
-617.0177592816
 31
0.1989956178
  0
LINE
  5
9D
100
AcDbEntity
  8
L1_120
  6
CONTINUOUS
 62
         7
100
AcDbLine
 10
1183.2609862139
 20
-616.5177592816
 30
0.1989956178
 11
1183.2609862139
 21
-601.4177592816
 31
0.1989956178
  0
LINE
  5
9E
100
AcDbEntity
  8
L1_120
  6
CONTINUOUS
 62
         7
100
AcDbLine
 10
1183.2609862139
 20
-616.5177592816
 30
0.1989956178
 11
1183.7609862139
 21
-617.0177592816
 31
0.1989956178
  0
LINE
  5
9F
100
AcDbEntity
  8
L1_120
  6
CONTINUOUS
 62
         7
100
AcDbLine
 10
1188.8934534467
 20
-617.4118445628
 30
0.1989956178
 11
1188.4993681655
 21
-617.0177592816
 31
0.1989956178
  0
LINE
  5
A0
100
AcDbEntity
  8
L1_120
  6
CONTINUOUS
 62
         7
100
AcDbLine
 10
1183.2609862139
 20
-601.4177592816
 30
0.1989956178
 11
1183.7609862139
 21
-600.9177592816
 31
0.1989956178
  0
LINE
  5
A1
100
AcDbEntity
  8
L1_120
  6
CONTINUOUS
 62
         7
100
AcDbLine
 10
1188.8934534467
 20
-600.5236740005
 30
0.1989956178
 11
1188.4993681655
 21
-600.9177592816
 31
0.1989956178
  0
LINE
  5
A2
100
AcDbEntity
  8
L1_120
  6
CONTINUOUS
 62
         7
100
AcDbLine
 10
1188.4993681655
 20
-600.9177592816
 30
0.1989956178
 11
1183.7609862139
 21
-600.9177592816
 31
0.1989956178
  0
CIRCLE
  5
A3
100
AcDbEntity
  8
L1_120
  6
CONTINUOUS
 62
         7
100
AcDbCircle
 10
1158.2609862139
 20
-608.9677592816
 30
0.1989956178
 40
22.225
  0
CIRCLE
  5
A4
100
AcDbEntity
  8
L1_120
  6
CONTINUOUS
 62
         7
100
AcDbCircle
 10
1158.2609862139
 20
-608.9677592816
 30
0.1989956178
 40
8.5
  0
CIRCLE
  5
A5
100
AcDbEntity
  8
L1_120
  6
CONTINUOUS
 62
         7
100
AcDbCircle
 10
1158.2609862139
 20
-608.9677592816
 30
0.1989956178
 40
9.5
  0
ARC
  5
A6
100
AcDbEntity
  8
L1_120
  6
CONTINUOUS
 62
         5
100
AcDbCircle
 10
1158.2609862139
 20
-608.9677592816
 30
0.1989956178
 40
8.0
100
AcDbArc
 50
352.9901372228
 51
621.2264515101
  0
CIRCLE
  5
A7
100
AcDbEntity
  8
L1_120
  6
CONTINUOUS
 62
         7
100
AcDbCircle
 10
1158.2609862139
 20
-608.9677592816
 30
0.1989956178
 40
7.0
  0
CIRCLE
  5
A8
100
AcDbEntity
  8
L1_120
  6
CONTINUOUS
 62
         7
100
AcDbCircle
 10
1158.2609862139
 20
-608.9677592816
 30
0.1989956178
 40
12.7165768873
  0
ARC
  5
A9
100
AcDbEntity
  8
L1_120
  6
CONTINUOUS
 62
         7
100
AcDbCircle
 10
1158.2609862139
 20
-608.9677592816
 30
0.1989956178
 40
31.775
100
AcDbArc
 50
15.411296411
 51
164.588703589
  0
ARC
  5
AA
100
AcDbEntity
  8
L1_120
  6
CONTINUOUS
 62
         7
100
AcDbCircle
 10
1158.2609862139
 20
-608.9677592816
 30
0.1989956178
 40
31.775
100
AcDbArc
 50
195.411296411
 51
344.588703589
  0
LINE
  5
AB
100
AcDbEntity
  8
L1_120
  6
CENTER
 62
         1
100
AcDbLine
 10
1170.4407860086
 20
-575.5040343723
 30
0.1989956178
 11
1146.2106903403
 21
-642.0756750921
 31
0.1989956178
  0
LINE
  5
AC
100
AcDbEntity
  8
L1_120
  6
CENTER
 62
         1
100
AcDbLine
 10
1151.8455202065
 20
-635.3655204728
 30
0.1989956178
 11
1146.2073644818
 21
-633.3133996129
 31
0.1989956178
  0
ARC
  5
AD
100
AcDbEntity
  8
L1_120
  6
CONTINUOUS
 62
         7
100
AcDbCircle
 10
1149.9400361561
 20
-634.6719809966
 30
0.1989956178
 40
2.9722262277
100
AcDbArc
 50
141.257725858
 51
160.0
  0
POLYLINE
  5
AF
100
AcDbEntity
  8
L1_120
  6
CONTINUOUS
 62
         7
100
AcDb3dPolyline
 66
         1
 10
0.0
 20
0.0
 30
0.0
 70
         8
  0
VERTEX
  5
B1
100
AcDbEntity
  8
L1_120
  6
CONTINUOUS
 62
         7
100
AcDbVertex
100
AcDb3dPolylineVertex
 10
1147.6217922043
 20
-632.811907415
 30
0.1989956178
 70
        32
  0
VERTEX
  5
B3
100
AcDbEntity
  8
L1_120
  6
CONTINUOUS
 62
         7
100
AcDbVertex
100
AcDb3dPolylineVertex
 10
1147.6217922043
 20
-632.811907415
 30
0.1989956178
 70
        32
  0
SEQEND
  5
B5
100
AcDbEntity
  8
L1_120
  6
CONTINUOUS
 62
         7
  0
ARC
  5
B6
100
AcDbEntity
  8
L1_120
  6
CONTINUOUS
 62
         7
100
AcDbCircle
 10
1149.5479588006
 20
-634.3573925641
 30
0.1989956178
 40
2.4695428935
100
AcDbArc
 50
120.6773100904
 51
141.257725858
  0
POLYLINE
  5
B8
100
AcDbEntity
  8
L1_120
  6
CONTINUOUS
 62
         7
100
AcDb3dPolyline
 66
         1
 10
0.0
 20
0.0
 30
0.0
 70
         8
  0
VERTEX
  5
BA
100
AcDbEntity
  8
L1_120
  6
CONTINUOUS
 62
         7
100
AcDbVertex
100
AcDb3dPolylineVertex
 10
1148.2879921767
 20
-632.2334513669
 30
0.1989956178
 70
        32
  0
VERTEX
  5
BC
100
AcDbEntity
  8
L1_120
  6
CONTINUOUS
 62
         7
100
AcDbVertex
100
AcDb3dPolylineVertex
 10
1148.2879921767
 20
-632.2334513669
 30
0.1989956178
 70
        32
  0
SEQEND
  5
BE
100
AcDbEntity
  8
L1_120
  6
CONTINUOUS
 62
         7
  0
ARC
  5
BF
100
AcDbEntity
  8
L1_120
  6
CONTINUOUS
 62
         7
100
AcDbCircle
 10
1149.3482202695
 20
-634.0206908715
 30
0.1989956178
 40
2.0780540551
100
AcDbArc
 50
96.8239621528
 51
120.6773100904
  0
ARC
  5
C0
100
AcDbEntity
  8
L1_120
  6
CONTINUOUS
 62
         7
100
AcDbCircle
 10
1149.2973099408
 20
-633.5952574373
 30
0.1989956178
 40
1.6495853065
100
AcDbArc
 50
70.0
 51
96.8239621528
  0
POLYLINE
  5
C2
100
AcDbEntity
  8
L1_120
  6
CONTINUOUS
 62
         7
100
AcDb3dPolyline
 66
         1
 10
0.0
 20
0.0
 30
0.0
 70
         8
  0
VERTEX
  5
C4
100
AcDbEntity
  8
L1_120
  6
CONTINUOUS
 62
         7
100
AcDbVertex
100
AcDb3dPolylineVertex
 10
1149.8615013438
 20
-632.0451542974
 30
0.1989956178
 70
        32
  0
VERTEX
  5
C6
100
AcDbEntity
  8
L1_120
  6
CONTINUOUS
 62
         7
100
AcDbVertex
100
AcDb3dPolylineVertex
 10
1149.8615013438
 20
-632.0451542974
 30
0.1989956178
 70
        32
  0
SEQEND
  5
C8
100
AcDbEntity
  8
L1_120
  6
CONTINUOUS
 62
         7
  0
ARC
  5
C9
100
AcDbEntity
  8
L1_120
  6
CONTINUOUS
 62
         7
100
AcDbCircle
 10
1149.2973099408
 20
-633.5952574373
 30
0.1989956178
 40
1.6495853065
100
AcDbArc
 50
43.1760378472
 51
70.0
  0
POLYLINE
  5
CB
100
AcDbEntity
  8
L1_120
  6
CONTINUOUS
 62
         7
100
AcDb3dPolyline
 66
         1
 10
0.0
 20
0.0
 30
0.0
 70
         8
  0
VERTEX
  5
CD
100
AcDbEntity
  8
L1_120
  6
CONTINUOUS
 62
         7
100
AcDbVertex
100
AcDb3dPolylineVertex
 10
1150.5002780325
 20
-632.4665415945
 30
0.1989956178
 70
        32
  0
VERTEX
  5
CF
100
AcDbEntity
  8
L1_120
  6
CONTINUOUS
 62
         7
100
AcDbVertex
100
AcDb3dPolylineVertex
 10
1150.5002780325
 20
-632.4665415945
 30
0.1989956178
 70
        32
  0
SEQEND
  5
D1
100
AcDbEntity
  8
L1_120
  6
CONTINUOUS
 62
         7
  0
POLYLINE
  5
D3
100
AcDbEntity
  8
L1_120
  6
CONTINUOUS
 62
         7
100
AcDb3dPolyline
 66
         1
 10
0.0
 20
0.0
 30
0.0
 70
         8
  0
VERTEX
  5
D5
100
AcDbEntity
  8
L1_120
  6
CONTINUOUS
 62
         7
100
AcDbVertex
100
AcDb3dPolylineVertex
 10
1151.0843586806
 20
-634.0721785465
 30
0.1989956178
 70
        32
  0
VERTEX
  5
D7
100
AcDbEntity
  8
L1_120
  6
CONTINUOUS
 62
         7
100
AcDbVertex
100
AcDb3dPolylineVertex
 10
1151.0843586806
 20
-634.0721785465
 30
0.1989956178
 70
        32
  0
SEQEND
  5
D9
100
AcDbEntity
  8
L1_120
  6
CONTINUOUS
 62
         7
  0
ARC
  5
DA
100
AcDbEntity
  8
L1_120
  6
CONTINUOUS
 62
         7
100
AcDbCircle
 10
1148.1128485322
 20
-634.0069390891
 30
0.1989956178
 40
2.9722262277
100
AcDbArc
 50
339.9999999999
 51
358.7422741419
  0
POLYLINE
  5
DC
100
AcDbEntity
  8
L1_120
  6
CONTINUOUS
 62
         7
100
AcDb3dPolyline
 66
         1
 10
0.0
 20
0.0
 30
0.0
 70
         8
  0
VERTEX
  5
DE
100
AcDbEntity
  8
L1_120
  6
CONTINUOUS
 62
         7
100
AcDbVertex
100
AcDb3dPolylineVertex
 10
1150.9058275857
 20
-635.0235003295
 30
0.1989956178
 70
        32
  0
VERTEX
  5
E0
100
AcDbEntity
  8
L1_120
  6
CONTINUOUS
 62
         7
100
AcDbVertex
100
AcDb3dPolylineVertex
 10
1150.9058275857
 20
-635.0235003295
 30
0.1989956178
 70
        32
  0
SEQEND
  5
E2
100
AcDbEntity
  8
L1_120
  6
CONTINUOUS
 62
         7
  0
ARC
  5
E3
100
AcDbEntity
  8
L1_120
  6
CONTINUOUS
 62
         7
100
AcDbCircle
 10
1148.1128485322
 20
-634.0069390891
 30
0.1989956178
 40
2.9722262277
100
AcDbArc
 50
321.257725858
 51
340.0
  0
POLYLINE
  5
E5
100
AcDbEntity
  8
L1_120
  6
CONTINUOUS
 62
         7
100
AcDb3dPolyline
 66
         1
 10
0.0
 20
0.0
 30
0.0
 70
         8
  0
VERTEX
  5
E7
100
AcDbEntity
  8
L1_120
  6
CONTINUOUS
 62
         7
100
AcDbVertex
100
AcDb3dPolylineVertex
 10
1150.4310924839
 20
-635.8670126707
 30
0.1989956178
 70
        32
  0
VERTEX
  5
E9
100
AcDbEntity
  8
L1_120
  6
CONTINUOUS
 62
         7
100
AcDbVertex
100
AcDb3dPolylineVertex
 10
1150.4310924839
 20
-635.8670126707
 30
0.1989956178
 70
        32
  0
SEQEND
  5
EB
100
AcDbEntity
  8
L1_120
  6
CONTINUOUS
 62
         7
  0
ARC
  5
EC
100
AcDbEntity
  8
L1_120
  6
CONTINUOUS
 62
         7
100
AcDbCircle
 10
1148.5049258877
 20
-634.3215275216
 30
0.1989956178
 40
2.4695428935
100
AcDbArc
 50
300.6773100904
 51
321.2577258581
  0
POLYLINE
  5
EE
100
AcDbEntity
  8
L1_120
  6
CONTINUOUS
 62
         7
100
AcDb3dPolyline
 66
         1
 10
0.0
 20
0.0
 30
0.0
 70
         8
  0
VERTEX
  5
F0
100
AcDbEntity
  8
L1_120
  6
CONTINUOUS
 62
         7
100
AcDbVertex
100
AcDb3dPolylineVertex
 10
1149.7648925116
 20
-636.4454687188
 30
0.1989956178
 70
        32
  0
VERTEX
  5
F2
100
AcDbEntity
  8
L1_120
  6
CONTINUOUS
 62
         7
100
AcDbVertex
100
AcDb3dPolylineVertex
 10
1149.7648925116
 20
-636.4454687188
 30
0.1989956178
 70
        32
  0
SEQEND
  5
F4
100
AcDbEntity
  8
L1_120
  6
CONTINUOUS
 62
         7
  0
ARC
  5
F5
100
AcDbEntity
  8
L1_120
  6
CONTINUOUS
 62
         7
100
AcDbCircle
 10
1148.7046644188
 20
-634.6582292141
 30
0.1989956178
 40
2.0780540551
100
AcDbArc
 50
276.8239621528
 51
300.6773100903
  0
POLYLINE
  5
F7
100
AcDbEntity
  8
L1_120
  6
CONTINUOUS
 62
         7
100
AcDb3dPolyline
 66
         1
 10
0.0
 20
0.0
 30
0.0
 70
         8
  0
VERTEX
  5
F9
100
AcDbEntity
  8
L1_120
  6
CONTINUOUS
 62
         7
100
AcDbVertex
100
AcDb3dPolylineVertex
 10
1148.9515772107
 20
-636.7215621318
 30
0.1989956178
 70
        32
  0
VERTEX
  5
FB
100
AcDbEntity
  8
L1_120
  6
CONTINUOUS
 62
         7
100
AcDbVertex
100
AcDb3dPolylineVertex
 10
1148.9515772107
 20
-636.7215621318
 30
0.1989956178
 70
        32
  0
SEQEND
  5
FD
100
AcDbEntity
  8
L1_120
  6
CONTINUOUS
 62
         7
  0
ARC
  5
FE
100
AcDbEntity
  8
L1_120
  6
CONTINUOUS
 62
         7
100
AcDbCircle
 10
1148.7555747475
 20
-635.0836626484
 30
0.1989956178
 40
1.6495853065
100
AcDbArc
 50
250.0
 51
276.8239621528
  0
POLYLINE
  5
100
100
AcDbEntity
  8
L1_120
  6
CONTINUOUS
 62
         7
100
AcDb3dPolyline
 66
         1
 10
0.0
 20
0.0
 30
0.0
 70
         8
  0
VERTEX
  5
102
100
AcDbEntity
  8
L1_120
  6
CONTINUOUS
 62
         7
100
AcDbVertex
100
AcDb3dPolylineVertex
 10
1148.1913833445
 20
-636.6337657882
 30
0.1989956178
 70
        32
  0
VERTEX
  5
104
100
AcDbEntity
  8
L1_120
  6
CONTINUOUS
 62
         7
100
AcDbVertex
100
AcDb3dPolylineVertex
 10
1148.1913833445
 20
-636.6337657882
 30
0.1989956178
 70
        32
  0
SEQEND
  5
106
100
AcDbEntity
  8
L1_120
  6
CONTINUOUS
 62
         7
  0
ARC
  5
107
100
AcDbEntity
  8
L1_120
  6
CONTINUOUS
 62
         7
100
AcDbCircle
 10
1148.7555747475
 20
-635.0836626484
 30
0.1989956178
 40
1.6495853065
100
AcDbArc
 50
223.1760378472
 51
250.0
  0
POLYLINE
  5
109
100
AcDbEntity
  8
L1_120
  6
CONTINUOUS
 62
         7
100
AcDb3dPolyline
 66
         1
 10
0.0
 20
0.0
 30
0.0
 70
         8
  0
VERTEX
  5
10B
100
AcDbEntity
  8
L1_120
  6
CONTINUOUS
 62
         7
100
AcDbVertex
100
AcDb3dPolylineVertex
 10
1147.5526066558
 20
-636.2123784912
 30
0.1989956178
 70
        32
  0
VERTEX
  5
10D
100
AcDbEntity
  8
L1_120
  6
CONTINUOUS
 62
         7
100
AcDbVertex
100
AcDb3dPolylineVertex
 10
1147.5526066558
 20
-636.2123784912
 30
0.1989956178
 70
        32
  0
SEQEND
  5
10F
100
AcDbEntity
  8
L1_120
  6
CONTINUOUS
 62
         7
  0
ARC
  5
110
100
AcDbEntity
  8
L1_120
  6
CONTINUOUS
 62
         7
100
AcDbCircle
 10
1149.0680376621
 20
-634.7904862587
 30
0.1989956178
 40
2.0780540551
100
AcDbArc
 50
199.3226899097
 51
223.1760378473
  0
ARC
  5
111
100
AcDbEntity
  8
L1_120
  6
CONTINUOUS
 62
         7
100
AcDbCircle
 10
1149.4374739301
 20
-634.660947251
 30
0.1989956178
 40
2.4695428935
100
AcDbArc
 50
178.742274142
 51
199.3226899096
  0
ARC
  5
112
100
AcDbEntity
  8
L1_120
  6
CONTINUOUS
 62
         7
100
AcDbCircle
 10
1149.9400361561
 20
-634.6719809966
 30
0.1989956178
 40
2.9722262277
100
AcDbArc
 50
160.0
 51
178.742274142
  0
ARC
  5
113
100
AcDbEntity
  8
L1_120
  6
CONTINUOUS
 62
         7
100
AcDbCircle
 10
1148.6154107582
 20
-634.0179728347
 30
0.1989956178
 40
2.4695428935
100
AcDbArc
 50
358.742274142
 51
379.3226899097
  0
ARC
  5
114
100
AcDbEntity
  8
L1_120
  6
CONTINUOUS
 62
         7
100
AcDbCircle
 10
1148.9848470261
 20
-633.888433827
 30
0.1989956178
 40
2.0780540551
100
AcDbArc
 50
19.3226899096
 51
43.1760378472
  0
POLYLINE
  5
116
100
AcDbEntity
  8
L1_120
  6
CONTINUOUS
 62
         7
100
AcDb3dPolyline
 66
         1
 10
0.0
 20
0.0
 30
0.0
 70
         8
  0
VERTEX
  5
118
100
AcDbEntity
  8
L1_120
  6
CONTINUOUS
 62
         7
100
AcDbVertex
100
AcDb3dPolylineVertex
 10
1165.6161448421
 20
-582.9120182338
 30
0.1989956178
 70
        32
  0
VERTEX
  5
11A
100
AcDbEntity
  8
L1_120
  6
CONTINUOUS
 62
         7
100
AcDbVertex
100
AcDb3dPolylineVertex
 10
1165.6161448421
 20
-582.9120182338
 30
0.1989956178
 70
        32
  0
SEQEND
  5
11C
100
AcDbEntity
  8
L1_120
  6
CONTINUOUS
 62
         7
  0
ARC
  5
11D
100
AcDbEntity
  8
L1_120
  6
CONTINUOUS
 62
         7
100
AcDbCircle
 10
1168.4091238957
 20
-583.9285794742
 30
0.1989956178
 40
2.9722262277
100
AcDbArc
 50
160.0
 51
178.7422741421
  0
POLYLINE
  5
11F
100
AcDbEntity
  8
L1_120
  6
CONTINUOUS
 62
         7
100
AcDb3dPolyline
 66
         1
 10
0.0
 20
0.0
 30
0.0
 70
         8
  0
VERTEX
  5
121
100
AcDbEntity
  8
L1_120
  6
CONTINUOUS
 62
         7
100
AcDbVertex
100
AcDb3dPolylineVertex
 10
1165.4376137473
 20
-583.8633400168
 30
0.1989956178
 70
        32
  0
VERTEX
  5
123
100
AcDbEntity
  8
L1_120
  6
CONTINUOUS
 62
         7
100
AcDbVertex
100
AcDb3dPolylineVertex
 10
1165.4376137473
 20
-583.8633400168
 30
0.1989956178
 70
        32
  0
SEQEND
  5
125
100
AcDbEntity
  8
L1_120
  6
CONTINUOUS
 62
         7
  0
ARC
  5
126
100
AcDbEntity
  8
L1_120
  6
CONTINUOUS
 62
         7
100
AcDbCircle
 10
1167.9065616697
 20
-583.9175457286
 30
0.1989956178
 40
2.4695428935
100
AcDbArc
 50
178.7422741421
 51
199.3226899097
  0
POLYLINE
  5
128
100
AcDbEntity
  8
L1_120
  6
CONTINUOUS
 62
         7
100
AcDb3dPolyline
 66
         1
 10
0.0
 20
0.0
 30
0.0
 70
         8
  0
VERTEX
  5
12A
100
AcDbEntity
  8
L1_120
  6
CONTINUOUS
 62
         7
100
AcDbVertex
100
AcDb3dPolylineVertex
 10
1165.5761281536
 20
-584.7346881458
 30
0.1989956178
 70
        32
  0
VERTEX
  5
12C
100
AcDbEntity
  8
L1_120
  6
CONTINUOUS
 62
         7
100
AcDbVertex
100
AcDb3dPolylineVertex
 10
1165.5761281536
 20
-584.7346881458
 30
0.1989956178
 70
        32
  0
SEQEND
  5
12E
100
AcDbEntity
  8
L1_120
  6
CONTINUOUS
 62
         7
  0
ARC
  5
12F
100
AcDbEntity
  8
L1_120
  6
CONTINUOUS
 62
         7
100
AcDbCircle
 10
1167.5371254017
 20
-584.0470847362
 30
0.1989956178
 40
2.0780540551
100
AcDbArc
 50
199.3226899097
 51
223.1760378473
  0
POLYLINE
  5
131
100
AcDbEntity
  8
L1_120
  6
CONTINUOUS
 62
         7
100
AcDb3dPolyline
 66
         1
 10
0.0
 20
0.0
 30
0.0
 70
         8
  0
VERTEX
  5
133
100
AcDbEntity
  8
L1_120
  6
CONTINUOUS
 62
         7
100
AcDbVertex
100
AcDb3dPolylineVertex
 10
1166.0216943954
 20
-585.4689769687
 30
0.1989956178
 70
        32
  0
VERTEX
  5
135
100
AcDbEntity
  8
L1_120
  6
CONTINUOUS
 62
         7
100
AcDbVertex
100
AcDb3dPolylineVertex
 10
1166.0216943954
 20
-585.4689769687
 30
0.1989956178
 70
        32
  0
SEQEND
  5
137
100
AcDbEntity
  8
L1_120
  6
CONTINUOUS
 62
         7
  0
ARC
  5
138
100
AcDbEntity
  8
L1_120
  6
CONTINUOUS
 62
         7
100
AcDbCircle
 10
1167.224662487
 20
-584.340261126
 30
0.1989956178
 40
1.6495853065
100
AcDbArc
 50
223.1760378472
 51
249.9999999999
  0
POLYLINE
  5
13A
100
AcDbEntity
  8
L1_120
  6
CONTINUOUS
 62
         7
100
AcDb3dPolyline
 66
         1
 10
0.0
 20
0.0
 30
0.0
 70
         8
  0
VERTEX
  5
13C
100
AcDbEntity
  8
L1_120
  6
CONTINUOUS
 62
         7
100
AcDbVertex
100
AcDb3dPolylineVertex
 10
1166.6604710841
 20
-585.8903642658
 30
0.1989956178
 70
        32
  0
VERTEX
  5
13E
100
AcDbEntity
  8
L1_120
  6
CONTINUOUS
 62
         7
100
AcDbVertex
100
AcDb3dPolylineVertex
 10
1166.6604710841
 20
-585.8903642658
 30
0.1989956178
 70
        32
  0
SEQEND
  5
140
100
AcDbEntity
  8
L1_120
  6
CONTINUOUS
 62
         7
  0
ARC
  5
141
100
AcDbEntity
  8
L1_120
  6
CONTINUOUS
 62
         7
100
AcDbCircle
 10
1167.224662487
 20
-584.3402611259
 30
0.1989956178
 40
1.6495853065
100
AcDbArc
 50
250.0
 51
276.8239621528
  0
POLYLINE
  5
143
100
AcDbEntity
  8
L1_120
  6
CONTINUOUS
 62
         7
100
AcDb3dPolyline
 66
         1
 10
0.0
 20
0.0
 30
0.0
 70
         8
  0
VERTEX
  5
145
100
AcDbEntity
  8
L1_120
  6
CONTINUOUS
 62
         7
100
AcDbVertex
100
AcDb3dPolylineVertex
 10
1167.4206649503
 20
-585.9781606094
 30
0.1989956178
 70
        32
  0
VERTEX
  5
147
100
AcDbEntity
  8
L1_120
  6
CONTINUOUS
 62
         7
100
AcDbVertex
100
AcDb3dPolylineVertex
 10
1167.4206649503
 20
-585.9781606094
 30
0.1989956178
 70
        32
  0
SEQEND
  5
149
100
AcDbEntity
  8
L1_120
  6
CONTINUOUS
 62
         7
  0
ARC
  5
14A
100
AcDbEntity
  8
L1_120
  6
CONTINUOUS
 62
         7
100
AcDbCircle
 10
1167.1737521583
 20
-583.9148276917
 30
0.1989956178
 40
2.0780540551
100
AcDbArc
 50
276.8239621528
 51
300.6773100904
  0
POLYLINE
  5
14C
100
AcDbEntity
  8
L1_120
  6
CONTINUOUS
 62
         7
100
AcDb3dPolyline
 66
         1
 10
0.0
 20
0.0
 30
0.0
 70
         8
  0
VERTEX
  5
14E
100
AcDbEntity
  8
L1_120
  6
CONTINUOUS
 62
         7
100
AcDbVertex
100
AcDb3dPolylineVertex
 10
1168.2339802512
 20
-585.7020671964
 30
0.1989956178
 70
        32
  0
VERTEX
  5
150
100
AcDbEntity
  8
L1_120
  6
CONTINUOUS
 62
         7
100
AcDbVertex
100
AcDb3dPolylineVertex
 10
1168.2339802512
 20
-585.7020671964
 30
0.1989956178
 70
        32
  0
SEQEND
  5
152
100
AcDbEntity
  8
L1_120
  6
CONTINUOUS
 62
         7
  0
ARC
  5
153
100
AcDbEntity
  8
L1_120
  6
CONTINUOUS
 62
         7
100
AcDbCircle
 10
1166.9740136273
 20
-583.5781259991
 30
0.1989956178
 40
2.4695428935
100
AcDbArc
 50
300.6773100903
 51
321.257725858
  0
POLYLINE
  5
155
100
AcDbEntity
  8
L1_120
  6
CONTINUOUS
 62
         7
100
AcDb3dPolyline
 66
         1
 10
0.0
 20
0.0
 30
0.0
 70
         8
  0
VERTEX
  5
157
100
AcDbEntity
  8
L1_120
  6
CONTINUOUS
 62
         7
100
AcDbVertex
100
AcDb3dPolylineVertex
 10
1168.9001802235
 20
-585.1236111483
 30
0.1989956178
 70
        32
  0
VERTEX
  5
159
100
AcDbEntity
  8
L1_120
  6
CONTINUOUS
 62
         7
100
AcDbVertex
100
AcDb3dPolylineVertex
 10
1168.9001802235
 20
-585.1236111483
 30
0.1989956178
 70
        32
  0
SEQEND
  5
15B
100
AcDbEntity
  8
L1_120
  6
CONTINUOUS
 62
         7
  0
ARC
  5
15C
100
AcDbEntity
  8
L1_120
  6
CONTINUOUS
 62
         7
100
AcDbCircle
 10
1166.5819362718
 20
-583.2635375667
 30
0.1989956178
 40
2.9722262277
100
AcDbArc
 50
321.257725858
 51
340.0
  0
POLYLINE
  5
15E
100
AcDbEntity
  8
L1_120
  6
CONTINUOUS
 62
         7
100
AcDb3dPolyline
 66
         1
 10
0.0
 20
0.0
 30
0.0
 70
         8
  0
VERTEX
  5
160
100
AcDbEntity
  8
L1_120
  6
CONTINUOUS
 62
         7
100
AcDbVertex
100
AcDb3dPolylineVertex
 10
1169.3749153253
 20
-584.2800988071
 30
0.1989956178
 70
        32
  0
VERTEX
  5
162
100
AcDbEntity
  8
L1_120
  6
CONTINUOUS
 62
         7
100
AcDbVertex
100
AcDb3dPolylineVertex
 10
1169.3749153253
 20
-584.2800988071
 30
0.1989956178
 70
        32
  0
SEQEND
  5
164
100
AcDbEntity
  8
L1_120
  6
CONTINUOUS
 62
         7
  0
ARC
  5
165
100
AcDbEntity
  8
L1_120
  6
CONTINUOUS
 62
         7
100
AcDbCircle
 10
1166.5819362718
 20
-583.2635375667
 30
0.1989956178
 40
2.9722262277
100
AcDbArc
 50
339.9999999999
 51
358.742274142
  0
POLYLINE
  5
167
100
AcDbEntity
  8
L1_120
  6
CONTINUOUS
 62
         7
100
AcDb3dPolyline
 66
         1
 10
0.0
 20
0.0
 30
0.0
 70
         8
  0
VERTEX
  5
169
100
AcDbEntity
  8
L1_120
  6
CONTINUOUS
 62
         7
100
AcDbVertex
100
AcDb3dPolylineVertex
 10
1169.5534464202
 20
-583.3287770241
 30
0.1989956178
 70
        32
  0
VERTEX
  5
16B
100
AcDbEntity
  8
L1_120
  6
CONTINUOUS
 62
         7
100
AcDbVertex
100
AcDb3dPolylineVertex
 10
1169.5534464202
 20
-583.3287770241
 30
0.1989956178
 70
        32
  0
SEQEND
  5
16D
100
AcDbEntity
  8
L1_120
  6
CONTINUOUS
 62
         7
  0
ARC
  5
16E
100
AcDbEntity
  8
L1_120
  6
CONTINUOUS
 62
         7
100
AcDbCircle
 10
1167.0844984978
 20
-583.2745713122
 30
0.1989956178
 40
2.4695428935
100
AcDbArc
 50
358.742274142
 51
379.3226899097
  0
POLYLINE
  5
170
100
AcDbEntity
  8
L1_120
  6
CONTINUOUS
 62
         7
100
AcDb3dPolyline
 66
         1
 10
0.0
 20
0.0
 30
0.0
 70
         8
  0
VERTEX
  5
172
100
AcDbEntity
  8
L1_120
  6
CONTINUOUS
 62
         7
100
AcDbVertex
100
AcDb3dPolylineVertex
 10
1169.4149320138
 20
-582.457428895
 30
0.1989956178
 70
        32
  0
VERTEX
  5
174
100
AcDbEntity
  8
L1_120
  6
CONTINUOUS
 62
         7
100
AcDbVertex
100
AcDb3dPolylineVertex
 10
1169.4149320138
 20
-582.457428895
 30
0.1989956178
 70
        32
  0
SEQEND
  5
176
100
AcDbEntity
  8
L1_120
  6
CONTINUOUS
 62
         7
  0
ARC
  5
177
100
AcDbEntity
  8
L1_120
  6
CONTINUOUS
 62
         7
100
AcDbCircle
 10
1167.4539347657
 20
-583.1450323046
 30
0.1989956178
 40
2.0780540551
100
AcDbArc
 50
19.3226899096
 51
43.1760378472
  0
POLYLINE
  5
179
100
AcDbEntity
  8
L1_120
  6
CONTINUOUS
 62
         7
100
AcDb3dPolyline
 66
         1
 10
0.0
 20
0.0
 30
0.0
 70
         8
  0
VERTEX
  5
17B
100
AcDbEntity
  8
L1_120
  6
CONTINUOUS
 62
         7
100
AcDbVertex
100
AcDb3dPolylineVertex
 10
1168.9693657721
 20
-581.7231400721
 30
0.1989956178
 70
        32
  0
VERTEX
  5
17D
100
AcDbEntity
  8
L1_120
  6
CONTINUOUS
 62
         7
100
AcDbVertex
100
AcDb3dPolylineVertex
 10
1168.9693657721
 20
-581.7231400721
 30
0.1989956178
 70
        32
  0
SEQEND
  5
17F
100
AcDbEntity
  8
L1_120
  6
CONTINUOUS
 62
         7
  0
ARC
  5
180
100
AcDbEntity
  8
L1_120
  6
CONTINUOUS
 62
         7
100
AcDbCircle
 10
1167.7663976804
 20
-582.8518559149
 30
0.1989956178
 40
1.6495853065
100
AcDbArc
 50
43.1760378472
 51
70.0
  0
POLYLINE
  5
182
100
AcDbEntity
  8
L1_120
  6
CONTINUOUS
 62
         7
100
AcDb3dPolyline
 66
         1
 10
0.0
 20
0.0
 30
0.0
 70
         8
  0
VERTEX
  5
184
100
AcDbEntity
  8
L1_120
  6
CONTINUOUS
 62
         7
100
AcDbVertex
100
AcDb3dPolylineVertex
 10
1168.3305890834
 20
-581.301752775
 30
0.1989956178
 70
        32
  0
VERTEX
  5
186
100
AcDbEntity
  8
L1_120
  6
CONTINUOUS
 62
         7
100
AcDbVertex
100
AcDb3dPolylineVertex
 10
1168.3305890834
 20
-581.301752775
 30
0.1989956178
 70
        32
  0
SEQEND
  5
188
100
AcDbEntity
  8
L1_120
  6
CONTINUOUS
 62
         7
  0
ARC
  5
189
100
AcDbEntity
  8
L1_120
  6
CONTINUOUS
 62
         7
100
AcDbCircle
 10
1167.7663976804
 20
-582.8518559149
 30
0.1989956178
 40
1.6495853065
100
AcDbArc
 50
70.0000000001
 51
96.8239621529
  0
POLYLINE
  5
18B
100
AcDbEntity
  8
L1_120
  6
CONTINUOUS
 62
         7
100
AcDb3dPolyline
 66
         1
 10
0.0
 20
0.0
 30
0.0
 70
         8
  0
VERTEX
  5
18D
100
AcDbEntity
  8
L1_120
  6
CONTINUOUS
 62
         7
100
AcDbVertex
100
AcDb3dPolylineVertex
 10
1167.5703952171
 20
-581.2139564315
 30
0.1989956178
 70
        32
  0
VERTEX
  5
18F
100
AcDbEntity
  8
L1_120
  6
CONTINUOUS
 62
         7
100
AcDbVertex
100
AcDb3dPolylineVertex
 10
1167.5703952171
 20
-581.2139564315
 30
0.1989956178
 70
        32
  0
SEQEND
  5
191
100
AcDbEntity
  8
L1_120
  6
CONTINUOUS
 62
         7
  0
ARC
  5
192
100
AcDbEntity
  8
L1_120
  6
CONTINUOUS
 62
         7
100
AcDbCircle
 10
1167.8173080091
 20
-583.2772893491
 30
0.1989956178
 40
2.0780540551
100
AcDbArc
 50
96.8239621528
 51
120.6773100904
  0
POLYLINE
  5
194
100
AcDbEntity
  8
L1_120
  6
CONTINUOUS
 62
         7
100
AcDb3dPolyline
 66
         1
 10
0.0
 20
0.0
 30
0.0
 70
         8
  0
VERTEX
  5
196
100
AcDbEntity
  8
L1_120
  6
CONTINUOUS
 62
         7
100
AcDbVertex
100
AcDb3dPolylineVertex
 10
1166.7570799163
 20
-581.4900498444
 30
0.1989956178
 70
        32
  0
VERTEX
  5
198
100
AcDbEntity
  8
L1_120
  6
CONTINUOUS
 62
         7
100
AcDbVertex
100
AcDb3dPolylineVertex
 10
1166.7570799163
 20
-581.4900498444
 30
0.1989956178
 70
        32
  0
SEQEND
  5
19A
100
AcDbEntity
  8
L1_120
  6
CONTINUOUS
 62
         7
  0
ARC
  5
19B
100
AcDbEntity
  8
L1_120
  6
CONTINUOUS
 62
         7
100
AcDbCircle
 10
1168.0170465402
 20
-583.6139910417
 30
0.1989956178
 40
2.4695428935
100
AcDbArc
 50
120.6773100903
 51
141.257725858
  0
ARC
  5
19C
100
AcDbEntity
  8
L1_120
  6
CONTINUOUS
 62
         7
100
AcDbCircle
 10
1168.4091238957
 20
-583.9285794742
 30
0.1989956178
 40
2.9722262277
100
AcDbArc
 50
141.257725858
 51
160.0
  0
LINE
  5
19D
100
AcDbEntity
  8
L1_120
  6
CENTER
 62
         1
100
AcDbLine
 10
1170.3146079461
 20
-584.6221189504
 30
0.1989956178
 11
1164.6764522214
 21
-582.5699980904
 31
0.1989956178
  0
LINE
  5
19E
100
AcDbEntity
  8
L1_120
  6
CONTINUOUS
 62
         7
100
AcDbLine
 10
1244.1165153005
 20
-702.684487089
 30
38.8301954047
 11
1312.5396835722
 21
-692.7061083827
 31
38.8301954047
  0
LINE
  5
19F
100
AcDbEntity
  8
L1_120
  6
CENTER
 62
         1
100
AcDbLine
 10
1243.0896835722
 20
-715.1061083827
 30
38.8301954047
 11
1450.7396835722
 21
-715.1061083827
 31
38.8301954047
  0
ARC
  5
1A0
100
AcDbEntity
  8
L1_120
  6
CONTINUOUS
 62
         7
100
AcDbCircle
 10
1244.2896835722
 20
-703.8719266663
 30
38.8301954047
 40
1.2
100
AcDbArc
 50
98.2971449698
 51
180.0
  0
ARC
  5
1A1
100
AcDbEntity
  8
L1_120
  6
CONTINUOUS
 62
         7
100
AcDbCircle
 10
1244.2896835722
 20
-726.3402900992
 30
38.8301954047
 40
1.2
100
AcDbArc
 50
180.0
 51
261.7028550302
  0
ARC
  5
1A2
100
AcDbEntity
  8
L1_120
  6
CONTINUOUS
 62
         7
100
AcDbCircle
 10
1244.0896835722
 20
-705.9561083827
 30
38.8301954047
 40
1.0
100
AcDbArc
 50
180.0
 51
270.0
  0
LINE
  5
1A3
100
AcDbEntity
  8
L1_120
  6
CONTINUOUS
 62
         7
100
AcDbLine
 10
1244.0896835722
 20
-706.9561083827
 30
38.8301954047
 11
1246.8596835722
 21
-706.9561083827
 31
38.8301954047
  0
ARC
  5
1A4
100
AcDbEntity
  8
L1_120
  6
CONTINUOUS
 62
         7
100
AcDbCircle
 10
1247.2592191525
 20
-707.0561083827
 30
38.8301954047
 40
0.2
100
AcDbArc
 50
90.0
 51
105.0
  0
LINE
  5
1A5
100
AcDbEntity
  8
L1_120
  6
CONTINUOUS
 62
         7
100
AcDbLine
 10
1247.2074553435
 20
-706.8629232175
 30
38.8301954047
 11
1246.8596835722
 21
-706.9561083827
 31
38.8301954047
  0
LINE
  5
1A6
100
AcDbEntity
  8
L1_120
  6
CONTINUOUS
 62
         7
100
AcDbLine
 10
1247.2592191525
 20
-706.8561083827
 30
38.8301954047
 11
1247.6596835722
 21
-706.8561083827
 31
38.8301954047
  0
LINE
  5
1A7
100
AcDbEntity
  8
L1_120
  6
CONTINUOUS
 62
         7
100
AcDbLine
 10
1247.8011049284
 20
-706.9146870265
 30
38.8301954047
 11
1248.9925262847
 21
-708.1061083827
 31
38.8301954047
  0
ARC
  5
1A8
100
AcDbEntity
  8
L1_120
  6
CONTINUOUS
 62
         7
100
AcDbCircle
 10
1247.6596835722
 20
-707.0561083827
 30
38.8301954047
 40
0.2
100
AcDbArc
 50
45.0000000038
 51
90.0
  0
LINE
  5
1A9
100
AcDbEntity
  8
L1_120
  6
CONTINUOUS
 62
         7
100
AcDbLine
 10
1247.8596835722
 20
-707.312585542
 30
38.8301954047
 11
1247.8596835722
 21
-722.7848617182
 31
38.8301954047
  0
LINE
  5
1AA
100
AcDbEntity
  8
L1_120
  6
CONTINUOUS
 62
         7
100
AcDbLine
 10
1246.8596835722
 20
-706.9561083827
 30
38.8301954047
 11
1246.8596835722
 21
-723.2561083827
 31
38.8301954047
  0
LINE
  5
1AB
100
AcDbEntity
  8
L1_120
  6
CONTINUOUS
 62
         7
100
AcDbLine
 10
1248.9925262847
 20
-708.1061083827
 30
38.8301954047
 11
1248.9925262847
 21
-722.1061083827
 31
38.8301954047
  0
LINE
  5
1AC
100
AcDbEntity
  8
L1_120
  6
CONTINUOUS
 62
         7
100
AcDbLine
 10
1247.8011049284
 20
-723.297529739
 30
38.8301954047
 11
1248.9925262847
 21
-722.1061083827
 31
38.8301954047
  0
ARC
  5
1AD
100
AcDbEntity
  8
L1_120
  6
CONTINUOUS
 62
         7
100
AcDbCircle
 10
1247.6596835722
 20
-723.1561083827
 30
38.8301954047
 40
0.2
100
AcDbArc
 50
270.0
 51
314.9999999962
  0
LINE
  5
1AE
100
AcDbEntity
  8
L1_120
  6
CONTINUOUS
 62
         7
100
AcDbLine
 10
1247.2592191525
 20
-723.3561083827
 30
38.8301954047
 11
1247.6596835722
 21
-723.3561083827
 31
38.8301954047
  0
LINE
  5
1AF
100
AcDbEntity
  8
L1_120
  6
CONTINUOUS
 62
         7
100
AcDbLine
 10
1247.2074553435
 20
-723.349293548
 30
38.8301954047
 11
1246.8596835722
 21
-723.2561083827
 31
38.8301954047
  0
LINE
  5
1B0
100
AcDbEntity
  8
L1_120
  6
CONTINUOUS
 62
         7
100
AcDbLine
 10
1244.0896835722
 20
-723.2561083827
 30
38.8301954047
 11
1246.8596835722
 21
-723.2561083827
 31
38.8301954047
  0
ARC
  5
1B1
100
AcDbEntity
  8
L1_120
  6
CONTINUOUS
 62
         7
100
AcDbCircle
 10
1244.0896835722
 20
-724.2561083827
 30
38.8301954047
 40
1.0
100
AcDbArc
 50
90.0
 51
180.0
  0
LINE
  5
1B2
100
AcDbEntity
  8
L1_120
  6
CONTINUOUS
 62
         7
100
AcDbLine
 10
1243.0896835722
 20
-703.8719266663
 30
38.8301954047
 11
1243.0896835722
 21
-726.3402900992
 31
38.8301954047
  0
LINE
  5
1B3
100
AcDbEntity
  8
L1_120
  6
CONTINUOUS
 62
         7
100
AcDbLine
 10
1346.3916835722
 20
-583.9710233153
 30
0.0
 11
1346.3916835722
 21
-632.8710233153
 31
0.0
  0
LINE
  5
1B4
100
AcDbEntity
  8
L1_120
  6
CONTINUOUS
 62
         7
100
AcDbLine
 10
1330.9396835722
 20
-630.7060233153
 30
0.0
 11
1345.8916835722
 21
-630.7060233153
 31
0.0
  0
ARC
  5
1B5
100
AcDbEntity
  8
L1_120
  6
CONTINUOUS
 62
         7
100
AcDbCircle
 10
1330.9396835722
 20
-585.6360233153
 30
0.0
 40
0.5
100
AcDbArc
 50
180.0
 51
270.0
  0
ARC
  5
1B6
100
AcDbEntity
  8
L1_120
  6
CONTINUOUS
 62
         7
100
AcDbCircle
 10
1330.9396835722
 20
-631.2060233153
 30
0.0
 40
0.5
100
AcDbArc
 50
90.0
 51
180.0
  0
LINE
  5
1B7
100
AcDbEntity
  8
L1_120
  6
CONTINUOUS
 62
         7
100
AcDbLine
 10
1330.9396835722
 20
-586.1360233153
 30
0.0
 11
1345.8916835722
 21
-586.1360233153
 31
0.0
  0
LINE
  5
1B8
100
AcDbEntity
  8
L1_120
  6
CENTER
 62
         1
100
AcDbLine
 10
1522.7259330881
 20
-575.7432124275
 30
0.0
 11
1546.6605568315
 21
-641.5030507056
 31
0.0
  0
LINE
  5
1B9
100
AcDbEntity
  8
L1_120
  6
DASHED
 62
         2
100
AcDbLine
 10
1528.3405891422
 20
-585.3217443539
 30
0.0
 11
1526.9041045402
 21
-581.3750353466
 31
0.0
  0
LINE
  5
1BA
100
AcDbEntity
  8
L1_120
  6
DASHED
 62
         2
100
AcDbLine
 10
1524.5818186591
 20
-586.6898249272
 30
0.0
 11
1523.1453340571
 21
-582.7431159199
 31
0.0
  0
LINE
  5
1BB
100
AcDbEntity
  8
L1_120
  6
DASHED
 62
         2
100
AcDbLine
 10
1528.0116967249
 20
-585.4414514041
 30
0.0
 11
1532.9616860882
 21
-599.0414354063
 31
0.0
  0
LINE
  5
1BC
100
AcDbEntity
  8
L1_120
  6
DASHED
 62
         2
100
AcDbLine
 10
1524.9107110763
 20
-586.570117877
 30
0.0
 11
1529.8607004396
 21
-600.1701018792
 31
0.0
  0
LINE
  5
1BD
100
AcDbEntity
  8
L1_120
  6
DASHED
 62
         2
100
AcDbLine
 10
1528.3405891422
 20
-585.3217443539
 30
0.0
 11
1524.5818186591
 21
-586.6898249272
 31
0.0
  0
LINE
  5
1BE
100
AcDbEntity
  8
L1_120
  6
DASHED
 62
         2
100
AcDbLine
 10
1540.8987780022
 20
-631.5203022767
 30
0.0
 11
1542.3352626042
 21
-635.467011284
 31
0.0
  0
LINE
  5
1BF
100
AcDbEntity
  8
L1_120
  6
DASHED
 62
         2
100
AcDbLine
 10
1544.6575484854
 20
-630.1522217033
 30
0.0
 11
1540.8987780022
 21
-631.5203022767
 31
0.0
  0
LINE
  5
1C0
100
AcDbEntity
  8
L1_120
  6
DASHED
 62
         2
100
AcDbLine
 10
1544.6575484854
 20
-630.1522217033
 30
0.0
 11
1546.0940330873
 21
-634.0989307106
 31
0.0
  0
LINE
  5
1C1
100
AcDbEntity
  8
L1_120
  6
DASHED
 62
         2
100
AcDbLine
 10
1539.3786667048
 20
-616.6719447513
 30
0.0
 11
1544.3286560681
 21
-630.2719287535
 31
0.0
  0
LINE
  5
1C2
100
AcDbEntity
  8
L1_120
  6
DASHED
 62
         2
100
AcDbLine
 10
1536.2776810562
 20
-617.8006112243
 30
0.0
 11
1541.2276704195
 21
-631.4005952265
 31
0.0
  0
ARC
  5
1C3
100
AcDbEntity
  8
L1_120
  6
CONTINUOUS
 62
         7
100
AcDbCircle
 10
1534.6196835722
 20
-608.4210233153
 30
0.0
 40
31.775
100
AcDbArc
 50
195.411296411
 51
344.588703589
  0
ARC
  5
1C4
100
AcDbEntity
  8
L1_120
  6
CONTINUOUS
 62
         7
100
AcDbCircle
 10
1534.6196835722
 20
-608.4210233153
 30
0.0
 40
31.775
100
AcDbArc
 50
15.411296411
 51
164.588703589
  0
LINE
  5
1C5
100
AcDbEntity
  8
L1_120
  6
CENTER
 62
         1
100
AcDbLine
 10
1534.6196835722
 20
-573.6460233153
 30
0.0
 11
1534.6196835722
 21
-643.1960233153
 31
0.0
  0
ARC
  5
1C6
100
AcDbEntity
  8
L1_120
  6
DASHED
 62
         2
100
AcDbCircle
 10
1534.6196835722
 20
-608.4210233153
 30
0.0
 40
28.125
100
AcDbArc
 50
16.6319205355
 51
163.3680794645
  0
ARC
  5
1C7
100
AcDbEntity
  8
L1_120
  6
DASHED
 62
         2
100
AcDbCircle
 10
1534.6196835722
 20
-608.4210233153
 30
0.0
 40
28.125
100
AcDbArc
 50
196.6319205355
 51
343.3680794645
  0
LINE
  5
1C8
100
AcDbEntity
  8
L1_120
  6
DASHED
 62
         2
100
AcDbLine
 10
1557.4196835722
 20
-600.8710233153
 30
0.0
 11
1557.4196835722
 21
-615.9710233153
 31
0.0
  0
LINE
  5
1C9
100
AcDbEntity
  8
L1_120
  6
DASHED
 62
         2
100
AcDbLine
 10
1557.4196835722
 20
-600.8710233153
 30
0.0
 11
1557.9196835722
 21
-600.3710233153
 31
0.0
  0
LINE
  5
1CA
100
AcDbEntity
  8
L1_120
  6
CONTINUOUS
 62
         7
100
AcDbLine
 10
1558.2353563342
 20
-600.3710233153
 30
0.0
 11
1564.8580655238
 21
-600.3710233153
 31
0.0
  0
LINE
  5
1CB
100
AcDbEntity
  8
L1_120
  6
CONTINUOUS
 62
         7
100
AcDbLine
 10
1565.2521508049
 20
-599.9769380341
 30
0.0
 11
1564.8580655238
 21
-600.3710233153
 31
0.0
  0
LINE
  5
1CC
100
AcDbEntity
  8
L1_120
  6
CONTINUOUS
 62
         7
100
AcDbLine
 10
1558.2353563342
 20
-616.4710233153
 30
0.0
 11
1564.8580655238
 21
-616.4710233153
 31
0.0
  0
LINE
  5
1CD
100
AcDbEntity
  8
L1_120
  6
DASHED
 62
         2
100
AcDbLine
 10
1557.4196835722
 20
-615.9710233153
 30
0.0
 11
1557.9196835722
 21
-616.4710233153
 31
0.0
  0
LINE
  5
1CE
100
AcDbEntity
  8
L1_120
  6
CONTINUOUS
 62
         7
100
AcDbLine
 10
1565.2521508049
 20
-616.8651085965
 30
0.0
 11
1564.8580655238
 21
-616.4710233153
 31
0.0
  0
LINE
  5
1CF
100
AcDbEntity
  8
L1_120
  6
CONTINUOUS
 62
         7
100
AcDbLine
 10
1504.3813016207
 20
-600.3710233153
 30
0.0
 11
1509.1196835722
 21
-600.3710233153
 31
0.0
  0
LINE
  5
1D0
100
AcDbEntity
  8
L1_120
  6
CONTINUOUS
 62
         7
100
AcDbLine
 10
1509.6196835722
 20
-600.8710233153
 30
0.0
 11
1509.6196835722
 21
-615.9710233153
 31
0.0
  0
LINE
  5
1D1
100
AcDbEntity
  8
L1_120
  6
CONTINUOUS
 62
         7
100
AcDbLine
 10
1509.6196835722
 20
-600.8710233153
 30
0.0
 11
1509.1196835722
 21
-600.3710233153
 31
0.0
  0
LINE
  5
1D2
100
AcDbEntity
  8
L1_120
  6
CONTINUOUS
 62
         7
100
AcDbLine
 10
1503.9872163395
 20
-599.9769380341
 30
0.0
 11
1504.3813016207
 21
-600.3710233153
 31
0.0
  0
LINE
  5
1D3
100
AcDbEntity
  8
L1_120
  6
CONTINUOUS
 62
         7
100
AcDbLine
 10
1509.6196835722
 20
-615.9710233153
 30
0.0
 11
1509.1196835722
 21
-616.4710233153
 31
0.0
  0
LINE
  5
1D4
100
AcDbEntity
  8
L1_120
  6
CONTINUOUS
 62
         7
100
AcDbLine
 10
1503.9872163395
 20
-616.8651085965
 30
0.0
 11
1504.3813016207
 21
-616.4710233153
 31
0.0
  0
LINE
  5
1D5
100
AcDbEntity
  8
L1_120
  6
CONTINUOUS
 62
         7
100
AcDbLine
 10
1504.3813016207
 20
-616.4710233153
 30
0.0
 11
1509.1196835722
 21
-616.4710233153
 31
0.0
  0
LINE
  5
1D6
100
AcDbEntity
  8
L1_120
  6
CENTER
 62
         1
100
AcDbLine
 10
1502.8446835722
 20
-608.4210233153
 30
0.0
 11
1566.3946835722
 21
-608.4210233153
 31
0.0
  0
LINE
  5
1D7
100
AcDbEntity
  8
L1_120
  6
CENTER
 62
         1
100
AcDbLine
 10
1501.2587345136
 20
-590.6826920517
 30
0.0
 11
1534.5932541019
 21
-608.4069705167
 31
0.0
  0
LINE
  5
1D8
100
AcDbEntity
  8
L1_120
  6
DASHED
 62
         2
100
AcDbLine
 10
1509.6196835722
 20
-613.6210233153
 30
0.0
 11
1509.8196835722
 21
-613.4210233153
 31
0.0
  0
LINE
  5
1D9
100
AcDbEntity
  8
L1_120
  6
DASHED
 62
         2
100
AcDbLine
 10
1509.6196835722
 20
-603.2210233153
 30
0.0
 11
1509.8196835722
 21
-603.4210233153
 31
0.0
  0
LINE
  5
1DA
100
AcDbEntity
  8
L1_120
  6
DASHED
 62
         2
100
AcDbLine
 10
1509.8196835722
 20
-603.4210233153
 30
0.0
 11
1509.8196835722
 21
-613.4210233153
 31
0.0
  0
ARC
  5
1DB
100
AcDbEntity
  8
L1_120
  6
DASHED
 62
         2
100
AcDbCircle
 10
1514.0696835722
 20
-613.2210233153
 30
0.0
 40
0.2
100
AcDbArc
 50
270.0
 51
360.0
  0
ARC
  5
1DC
100
AcDbEntity
  8
L1_120
  6
DASHED
 62
         2
100
AcDbCircle
 10
1514.0696835722
 20
-603.6210233153
 30
0.0
 40
0.2
100
AcDbArc
 50
0.0
 51
90.0
  0
LINE
  5
1DD
100
AcDbEntity
  8
L1_120
  6
DASHED
 62
         2
100
AcDbLine
 10
1514.2696835722
 20
-603.6210233153
 30
0.0
 11
1514.2696835722
 21
-613.2210233153
 31
0.0
  0
LINE
  5
1DE
100
AcDbEntity
  8
L1_120
  6
DASHED
 62
         2
100
AcDbLine
 10
1509.8196835722
 20
-603.4210233153
 30
0.0
 11
1514.0696835722
 21
-603.4210233153
 31
0.0
  0
LINE
  5
1DF
100
AcDbEntity
  8
L1_120
  6
DASHED
 62
         2
100
AcDbLine
 10
1509.8196835722
 20
-613.4210233153
 30
0.0
 11
1514.0696835722
 21
-613.4210233153
 31
0.0
  0
LINE
  5
1E0
100
AcDbEntity
  8
L1_120
  6
CENTER
 62
         1
100
AcDbLine
 10
1501.2587345136
 20
-626.1593545789
 30
0.0
 11
1534.5932541019
 21
-608.4350761139
 31
0.0
  0
LINE
  5
1E1
100
AcDbEntity
  8
L1_120
  6
DASHED
 62
         2
100
AcDbLine
 10
1508.9107063588
 20
-619.8255888766
 30
0.0
 11
1515.7748276724
 21
-616.1758708341
 31
0.0
  0
LINE
  5
1E2
100
AcDbEntity
  8
L1_120
  6
DASHED
 62
         2
100
AcDbLine
 10
1510.78859261
 20
-623.3573792481
 30
0.0
 11
1517.6527139235
 21
-619.7076612056
 31
0.0
  0
LINE
  5
1E3
100
AcDbEntity
  8
L1_120
  6
DASHED
 62
         2
100
AcDbLine
 10
1515.7748276724
 20
-616.1758708341
 30
0.0
 11
1517.6527139235
 21
-619.7076612056
 31
0.0
  0
LINE
  5
1E4
100
AcDbEntity
  8
L1_120
  6
DASHED
 62
         2
100
AcDbLine
 10
1517.7333108588
 20
-617.3996669536
 30
0.0
 11
1517.6527139235
 21
-619.7076612056
 31
0.0
  0
LINE
  5
1E5
100
AcDbEntity
  8
L1_120
  6
DASHED
 62
         2
100
AcDbLine
 10
1515.7748276724
 20
-616.1758708341
 30
0.0
 11
1517.7333108588
 21
-617.3996669536
 31
0.0
  0
LINE
  5
1E6
100
AcDbEntity
  8
L1_120
  6
DASHED
 62
         2
100
AcDbLine
 10
1508.9107063588
 20
-597.0164577539
 30
0.0
 11
1515.7748276724
 21
-600.6661757964
 31
0.0
  0
LINE
  5
1E7
100
AcDbEntity
  8
L1_120
  6
DASHED
 62
         2
100
AcDbLine
 10
1515.7748276724
 20
-600.6661757964
 30
0.0
 11
1517.6527139235
 21
-597.134385425
 31
0.0
  0
LINE
  5
1E8
100
AcDbEntity
  8
L1_120
  6
DASHED
 62
         2
100
AcDbLine
 10
1515.7748276724
 20
-600.6661757964
 30
0.0
 11
1517.7333108588
 21
-599.442379677
 31
0.0
  0
LINE
  5
1E9
100
AcDbEntity
  8
L1_120
  6
DASHED
 62
         2
100
AcDbLine
 10
1517.7333108588
 20
-599.442379677
 30
0.0
 11
1517.6527139235
 21
-597.134385425
 31
0.0
  0
LINE
  5
1EA
100
AcDbEntity
  8
L1_120
  6
DASHED
 62
         2
100
AcDbLine
 10
1510.78859261
 20
-593.4846673825
 30
0.0
 11
1517.6527139235
 21
-597.134385425
 31
0.0
  0
LINE
  5
1EB
100
AcDbEntity
  8
L1_120
  6
CONTINUOUS
 62
         7
100
AcDbLine
 10
1509.6196835722
 20
-603.2210233153
 30
0.0
 11
1509.6196835722
 21
-613.6210233153
 31
0.0
  0
ARC
  5
1EC
100
AcDbEntity
  8
L1_120
  6
CONTINUOUS
 62
         7
100
AcDbCircle
 10
1345.8916835722
 20
-585.6360233153
 30
0.0
 40
0.5
100
AcDbArc
 50
270.0
 51
360.0
  0
ARC
  5
1ED
100
AcDbEntity
  8
L1_120
  6
CONTINUOUS
 62
         7
100
AcDbCircle
 10
1345.8916835722
 20
-631.2060233153
 30
0.0
 40
0.5
100
AcDbArc
 50
0.0
 51
90.0
  0
LINE
  5
1EE
100
AcDbEntity
  8
L1_120
  6
CONTINUOUS
 62
         7
100
AcDbLine
 10
1432.2396835722
 20
-587.9210233153
 30
0.0
 11
1432.2396835722
 21
-583.9710233153
 31
0.0
  0
LINE
  5
1EF
100
AcDbEntity
  8
L1_120
  6
CONTINUOUS
 62
         7
100
AcDbLine
 10
1432.2396835722
 20
-632.8710233153
 30
0.0
 11
1432.2396835722
 21
-587.9210233153
 31
0.0
  0
LINE
  5
1F0
100
AcDbEntity
  8
L1_120
  6
CONTINUOUS
 62
         4
100
AcDbLine
 10
1431.7396835722
 20
-583.4710233153
 30
0.0
 11
1431.7396835722
 21
-633.3710233153
 31
0.0
  0
LINE
  5
1F1
100
AcDbEntity
  8
L1_120
  6
CONTINUOUS
 62
         7
100
AcDbLine
 10
1431.7396835722
 20
-583.4710233153
 30
0.0
 11
1432.2396835722
 21
-583.9710233153
 31
0.0
  0
LINE
  5
1F2
100
AcDbEntity
  8
L1_120
  6
CONTINUOUS
 62
         7
100
AcDbLine
 10
1431.7396835722
 20
-633.3710233153
 30
0.0
 11
1432.2396835722
 21
-632.8710233153
 31
0.0
  0
ARC
  5
1F3
100
AcDbEntity
  8
L1_120
  6
CONTINUOUS
 62
         7
100
AcDbCircle
 10
1432.7396835722
 20
-587.9210233153
 30
0.0
 40
0.5
100
AcDbArc
 50
180.0
 51
270.0
  0
ARC
  5
1F4
100
AcDbEntity
  8
L1_120
  6
CONTINUOUS
 62
         7
100
AcDbCircle
 10
1432.7396835722
 20
-628.9210233153
 30
0.0
 40
0.5
100
AcDbArc
 50
90.0
 51
180.0
  0
LINE
  5
1F5
100
AcDbEntity
  8
L1_120
  6
CONTINUOUS
 62
         7
100
AcDbLine
 10
1346.8916835722
 20
-633.3710233153
 30
0.0
 11
1431.7396835722
 21
-633.3710233153
 31
0.0
  0
LINE
  5
1F6
100
AcDbEntity
  8
L1_120
  6
CONTINUOUS
 62
         7
100
AcDbLine
 10
1434.7396835722
 20
-628.4210233153
 30
0.0
 11
1434.7396835722
 21
-588.4210233153
 31
0.0
  0
LINE
  5
1F7
100
AcDbEntity
  8
L1_120
  6
CONTINUOUS
 62
         4
100
AcDbLine
 10
1434.7396835722
 20
-627.4210233153
 30
0.0
 11
1450.4717343798
 21
-627.4210233153
 31
0.0
  0
LINE
  5
1F8
100
AcDbEntity
  8
L1_120
  6
CONTINUOUS
 62
         7
100
AcDbLine
 10
1449.2396835722
 20
-628.4210233153
 30
0.0
 11
1432.7396835722
 21
-628.4210233153
 31
0.0
  0
ARC
  5
1F9
100
AcDbEntity
  8
L1_120
  6
CONTINUOUS
 62
         7
100
AcDbCircle
 10
1448.7396835722
 20
-626.4210233153
 30
0.0
 40
2.0
100
AcDbArc
 50
270.0
 51
360.0
  0
LINE
  5
1FA
100
AcDbEntity
  8
L1_120
  6
CONTINUOUS
 62
         7
100
AcDbLine
 10
1450.7396835722
 20
-626.4210233153
 30
0.0
 11
1450.7396835722
 21
-590.4210233153
 31
0.0
  0
ARC
  5
1FB
100
AcDbEntity
  8
L1_120
  6
CONTINUOUS
 62
         7
100
AcDbCircle
 10
1448.7396835722
 20
-590.4210233153
 30
0.0
 40
2.0
100
AcDbArc
 50
0.0
 51
90.0
  0
LINE
  5
1FC
100
AcDbEntity
  8
L1_120
  6
CONTINUOUS
 62
         7
100
AcDbLine
 10
1449.2396835722
 20
-588.4210233153
 30
0.0
 11
1432.7396835722
 21
-588.4210233153
 31
0.0
  0
LINE
  5
1FD
100
AcDbEntity
  8
L1_120
  6
CONTINUOUS
 62
         4
100
AcDbLine
 10
1434.7396835722
 20
-589.4210233153
 30
0.0
 11
1450.4717343798
 21
-589.4210233153
 31
0.0
  0
LINE
  5
1FE
100
AcDbEntity
  8
L1_120
  6
CONTINUOUS
 62
         7
100
AcDbLine
 10
1346.8916835722
 20
-583.4710233153
 30
0.0
 11
1431.7396835722
 21
-583.4710233153
 31
0.0
  0
LINE
  5
1FF
100
AcDbEntity
  8
L1_120
  6
CONTINUOUS
 62
         4
100
AcDbLine
 10
1435.7396835722
 20
-627.4210233153
 30
0.0
 11
1450.4717343798
 21
-627.4210233153
 31
0.0
  0
LINE
  5
200
100
AcDbEntity
  8
L1_120
  6
CONTINUOUS
 62
         4
100
AcDbLine
 10
1435.7396835722
 20
-589.4210233153
 30
0.0
 11
1450.4717343798
 21
-589.4210233153
 31
0.0
  0
LINE
  5
201
100
AcDbEntity
  8
L1_120
  6
CONTINUOUS
 62
         7
100
AcDbLine
 10
1450.7396835722
 20
-626.4210233153
 30
0.0
 11
1450.7396835722
 21
-590.4210233153
 31
0.0
  0
ARC
  5
202
100
AcDbEntity
  8
L1_120
  6
CONTINUOUS
 62
         7
100
AcDbCircle
 10
1448.7396835722
 20
-590.4210233153
 30
0.0
 40
2.0
100
AcDbArc
 50
0.0
 51
90.0
  0
ARC
  5
203
100
AcDbEntity
  8
L1_120
  6
CONTINUOUS
 62
         7
100
AcDbCircle
 10
1448.7396835722
 20
-626.4210233153
 30
0.0
 40
2.0
100
AcDbArc
 50
270.0
 51
360.0
  0
DIMENSION
  5
207
100
AcDbEntity
  8
L1_120
  6
CONTINUOUS
 62
         4
100
AcDbDimension
  2
*D0
 10
1483.6062207378
 20
-583.4710233153
 30
0.0
 11
1481.5812207378
 21
-615.7140846836
 31
0.0
  3
DIMSTYLE1
100
AcDbAlignedDimension
 13
1427.3786810937
 23
-583.4710233153
 33
0.0
 14
1427.3786810937
 24
-633.3710233153
 34
0.0
 50
90.0
100
AcDbRotatedDimension
  0
INSERT
  5
221
100
AcDbEntity
  8
0
  6
CONTINUOUS
100
AcDbBlockReference
  2
*X1
 10
0.0
 20
0.0
 30
0.0
  0
INSERT
  5
229
100
AcDbEntity
  8
0
  6
CONTINUOUS
100
AcDbBlockReference
  2
*X2
 10
0.0
 20
0.0
 30
0.0
  0
INSERT
  5
230
100
AcDbEntity
  8
0
  6
CONTINUOUS
100
AcDbBlockReference
  2
*X3
 10
0.0
 20
0.0
 30
0.0
  0
INSERT
  5
23C
100
AcDbEntity
  8
0
  6
CONTINUOUS
100
AcDbBlockReference
  2
*X4
 10
0.0
 20
0.0
 30
0.0
  0
LINE
  5
23D
100
AcDbEntity
  8
L1_120
  6
DASHED
 62
         2
100
AcDbLine
 10
1441.2396835722
 20
-631.4210233153
 30
0.0
 11
1441.2396835722
 21
-585.4210233153
 31
0.0
  0
LINE
  5
23E
100
AcDbEntity
  8
L1_120
  6
DASHED
 62
         2
100
AcDbLine
 10
1458.8322062841
 20
-633.4210233153
 30
0.0
 11
1443.2396835722
 21
-633.4210233153
 31
0.0
  0
LINE
  5
23F
100
AcDbEntity
  8
L1_120
  6
DASHED
 62
         2
100
AcDbLine
 10
1458.8322062841
 20
-583.4210233153
 30
0.0
 11
1443.2396835722
 21
-583.4210233153
 31
0.0
  0
LINE
  5
240
100
AcDbEntity
  8
L1_120
  6
DASHED
 62
         2
100
AcDbLine
 10
1463.7396835722
 20
-626.3851249304
 30
0.0
 11
1463.7396835722
 21
-590.4569217001
 31
0.0
  0
LINE
  5
241
100
AcDbEntity
  8
L1_120
  6
DASHED
 62
         2
100
AcDbLine
 10
1457.5396835722
 20
-626.5210233153
 30
0.0
 11
1457.5396835722
 21
-590.3210233153
 31
0.0
  0
LINE
  5
242
100
AcDbEntity
  8
L1_120
  6
DASHED
 62
         2
100
AcDbLine
 10
1455.8396835722
 20
-627.9210233153
 30
0.0
 11
1455.8396835722
 21
-588.9210233153
 31
0.0
  0
LINE
  5
243
100
AcDbEntity
  8
L1_120
  6
DASHED
 62
         2
100
AcDbLine
 10
1457.5396835722
 20
-623.3210233153
 30
0.0
 11
1455.8396835722
 21
-623.3210233153
 31
0.0
  0
LINE
  5
244
100
AcDbEntity
  8
L1_120
  6
DASHED
 62
         2
100
AcDbLine
 10
1458.5396835722
 20
-624.7486730461
 30
0.0
 11
1463.7396835722
 21
-621.7464516463
 31
0.0
  0
LINE
  5
245
100
AcDbEntity
  8
L1_120
  6
DASHED
 62
         2
100
AcDbLine
 10
1458.5396835722
 20
-592.0933735845
 30
0.0
 11
1463.7396835722
 21
-595.0955949843
 31
0.0
  0
LINE
  5
246
100
AcDbEntity
  8
L1_120
  6
DASHED
 62
         2
100
AcDbLine
 10
1452.3396835722
 20
-628.4210233153
 30
0.0
 11
1441.6726962741
 21
-628.4210233153
 31
0.0
  0
LINE
  5
247
100
AcDbEntity
  8
L1_120
  6
DASHED
 62
         2
100
AcDbLine
 10
1452.3396835722
 20
-588.4210233153
 30
0.0
 11
1441.6726962741
 21
-588.4210233153
 31
0.0
  0
LINE
  5
248
100
AcDbEntity
  8
L1_120
  6
DASHED
 62
         2
100
AcDbLine
 10
1451.5276835722
 20
-627.6090233153
 30
0.0
 11
1442.1415046927
 21
-627.6090233153
 31
0.0
  0
LINE
  5
249
100
AcDbEntity
  8
L1_120
  6
DASHED
 62
         2
100
AcDbLine
 10
1451.5276835722
 20
-589.2330233153
 30
0.0
 11
1442.1415046927
 21
-589.2330233153
 31
0.0
  0
LINE
  5
24A
100
AcDbEntity
  8
L1_120
  6
DASHED
 62
         2
100
AcDbLine
 10
1454.8396835722
 20
-628.9210233153
 30
0.0
 11
1452.8396835722
 21
-628.9210233153
 31
0.0
  0
LINE
  5
24B
100
AcDbEntity
  8
L1_120
  6
DASHED
 62
         2
100
AcDbLine
 10
1454.8396835722
 20
-587.9210233153
 30
0.0
 11
1452.8396835722
 21
-587.9210233153
 31
0.0
  0
LINE
  5
24C
100
AcDbEntity
  8
L1_120
  6
DASHED
 62
         2
100
AcDbLine
 10
1452.8396835722
 20
-628.9210233153
 30
0.0
 11
1452.8396835722
 21
-587.9210233153
 31
0.0
  0
LINE
  5
24D
100
AcDbEntity
  8
L1_120
  6
DASHED
 62
         2
100
AcDbLine
 10
1458.5396835722
 20
-626.5210233153
 30
0.0
 11
1458.5396835722
 21
-590.3210233153
 31
0.0
  0
LINE
  5
24E
100
AcDbEntity
  8
L1_120
  6
DASHED
 62
         2
100
AcDbLine
 10
1458.5396835722
 20
-626.5210233153
 30
0.0
 11
1457.5396835722
 21
-626.5210233153
 31
0.0
  0
ARC
  5
24F
100
AcDbEntity
  8
L1_120
  6
DASHED
 62
         2
100
AcDbCircle
 10
1454.8396835722
 20
-588.9210233153
 30
0.0
 40
1.0
100
AcDbArc
 50
0.0
 51
90.0
  0
LINE
  5
250
100
AcDbEntity
  8
L1_120
  6
DASHED
 62
         2
100
AcDbLine
 10
1452.8396835722
 20
-587.9210233153
 30
0.0
 11
1451.5276835722
 21
-589.2330233153
 31
0.0
  0
ARC
  5
251
100
AcDbEntity
  8
L1_120
  6
DASHED
 62
         2
100
AcDbCircle
 10
1454.8396835722
 20
-627.9210233153
 30
0.0
 40
1.0
100
AcDbArc
 50
270.0
 51
360.0
  0
LINE
  5
252
100
AcDbEntity
  8
L1_120
  6
DASHED
 62
         2
100
AcDbLine
 10
1452.8396835722
 20
-628.9210233153
 30
0.0
 11
1451.5276835722
 21
-627.6090233153
 31
0.0
  0
ARC
  5
253
100
AcDbEntity
  8
L1_120
  6
DASHED
 62
         2
100
AcDbCircle
 10
1443.2396835722
 20
-631.4210233153
 30
0.0
 40
2.0
100
AcDbArc
 50
180.0
 51
270.0
  0
ARC
  5
254
100
AcDbEntity
  8
L1_120
  6
DASHED
 62
         2
100
AcDbCircle
 10
1443.2396835722
 20
-585.4210233153
 30
0.0
 40
2.0
100
AcDbArc
 50
90.0
 51
180.0
  0
LINE
  5
255
100
AcDbEntity
  8
L1_120
  6
DASHED
 62
         2
100
AcDbLine
 10
1441.2396835722
 20
-629.1710233153
 30
0.0
 11
1442.1415046927
 21
-627.6090233153
 31
0.0
  0
LINE
  5
256
100
AcDbEntity
  8
L1_120
  6
DASHED
 62
         2
100
AcDbLine
 10
1441.2396835722
 20
-587.6710233153
 30
0.0
 11
1442.1415046927
 21
-589.2330233153
 31
0.0
  0
LINE
  5
257
100
AcDbEntity
  8
L1_120
  6
DASHED
 62
         2
100
AcDbLine
 10
1442.1415046927
 20
-589.2330233153
 30
0.0
 11
1442.1415046927
 21
-627.6090233153
 31
0.0
  0
LINE
  5
258
100
AcDbEntity
  8
L1_120
  6
DASHED
 62
         2
100
AcDbLine
 10
1463.4717343798
 20
-627.3851249304
 30
0.0
 11
1460.5642570917
 21
-632.4210233153
 31
0.0
  0
LINE
  5
259
100
AcDbEntity
  8
L1_120
  6
DASHED
 62
         2
100
AcDbLine
 10
1463.4717343798
 20
-589.4569217001
 30
0.0
 11
1460.5642570917
 21
-584.4210233153
 31
0.0
  0
ARC
  5
25A
100
AcDbEntity
  8
L1_120
  6
DASHED
 62
         2
100
AcDbCircle
 10
1458.8322062841
 20
-585.4210233153
 30
0.0
 40
2.0
100
AcDbArc
 50
30.0
 51
90.0
  0
ARC
  5
25B
100
AcDbEntity
  8
L1_120
  6
DASHED
 62
         2
100
AcDbCircle
 10
1461.7396835722
 20
-590.4569217001
 30
0.0
 40
2.0
100
AcDbArc
 50
0.0
 51
30.0
  0
ARC
  5
25C
100
AcDbEntity
  8
L1_120
  6
DASHED
 62
         2
100
AcDbCircle
 10
1461.7396835722
 20
-626.3851249304
 30
0.0
 40
2.0
100
AcDbArc
 50
330.0
 51
360.0
  0
ARC
  5
25D
100
AcDbEntity
  8
L1_120
  6
DASHED
 62
         2
100
AcDbCircle
 10
1458.8322062841
 20
-631.4210233153
 30
0.0
 40
2.0
100
AcDbArc
 50
270.0
 51
330.0
  0
LINE
  5
25E
100
AcDbEntity
  8
L1_120
  6
DASHED
 62
         2
100
AcDbLine
 10
1461.8344276839
 20
-630.2210233153
 30
0.0
 11
1448.2396835722
 21
-630.2210233153
 31
0.0
  0
LINE
  5
25F
100
AcDbEntity
  8
L1_120
  6
DASHED
 62
         2
100
AcDbLine
 10
1448.2396835722
 20
-633.4210233153
 30
0.0
 11
1448.2396835722
 21
-630.2210233153
 31
0.0
  0
LINE
  5
260
100
AcDbEntity
  8
L1_120
  6
DASHED
 62
         2
100
AcDbLine
 10
1461.8344276839
 20
-586.6210233153
 30
0.0
 11
1448.2396835722
 21
-586.6210233153
 31
0.0
  0
LINE
  5
261
100
AcDbEntity
  8
L1_120
  6
DASHED
 62
         2
100
AcDbLine
 10
1448.2396835722
 20
-583.4210233153
 30
0.0
 11
1448.2396835722
 21
-586.6210233153
 31
0.0
  0
LINE
  5
262
100
AcDbEntity
  8
L1_120
  6
DASHED
 62
         2
100
AcDbLine
 10
1458.5396835722
 20
-590.3210233153
 30
0.0
 11
1455.8396835722
 21
-590.3210233153
 31
0.0
  0
LINE
  5
263
100
AcDbEntity
  8
L1_120
  6
DASHED
 62
         2
100
AcDbLine
 10
1451.5276835722
 20
-589.2330233153
 30
0.0
 11
1451.5276835722
 21
-627.6090233153
 31
0.0
  0
ARC
  5
264
100
AcDbEntity
  8
L1_120
  6
CONTINUOUS
 62
         7
100
AcDbCircle
 10
1346.8916835722
 20
-583.9710233153
 30
0.0
 40
0.5
100
AcDbArc
 50
90.0
 51
180.0
  0
ARC
  5
265
100
AcDbEntity
  8
L1_120
  6
CONTINUOUS
 62
         7
100
AcDbCircle
 10
1346.8916835722
 20
-632.8710233153
 30
0.0
 40
0.5
100
AcDbArc
 50
180.0
 51
270.0
  0
ARC
  5
266
100
AcDbEntity
  8
L1_120
  6
CONTINUOUS
 62
         4
100
AcDbCircle
 10
1534.6196835722
 20
-608.4210233153
 30
0.0
 40
11.11
100
AcDbArc
 50
180.0
 51
450.0
  0
CIRCLE
  5
267
100
AcDbEntity
  8
L1_120
  6
CONTINUOUS
 62
         7
100
AcDbCircle
 10
1534.6196835722
 20
-608.4210233153
 30
0.0
 40
10.245
  0
CIRCLE
  5
268
100
AcDbEntity
  8
L1_120
  6
CONTINUOUS
 62
         7
100
AcDbCircle
 10
1534.6196835722
 20
-608.4210233153
 30
0.0
 40
12.5
  0
ARC
  5
269
100
AcDbEntity
  8
L1_120
  6
CONTINUOUS
 62
         4
100
AcDbCircle
 10
1534.6196835722
 20
-608.4210233153
 30
0.0
 40
19.0
100
AcDbArc
 50
165.9957742927
 51
464.626061893
  0
CIRCLE
  5
26A
100
AcDbEntity
  8
L1_120
  6
CONTINUOUS
 62
         7
100
AcDbCircle
 10
1534.6196835722
 20
-608.4210233153
 30
0.0
 40
16.0
  0
CIRCLE
  5
26B
100
AcDbEntity
  8
L1_120
  6
CONTINUOUS
 62
         7
100
AcDbCircle
 10
1534.6196835722
 20
-608.4210233153
 30
0.0
 40
20.0
  0
CIRCLE
  5
26C
100
AcDbEntity
  8
L1_120
  6
CONTINUOUS
 62
         7
100
AcDbCircle
 10
1534.6196835722
 20
-608.4210233153
 30
0.0
 40
24.95
  0
LINE
  5
26D
100
AcDbEntity
  8
L1_120
  6
DASHED
 62
         2
100
AcDbLine
 10
1557.9196835722
 20
-600.3710233153
 30
0.0
 11
1558.2353563342
 21
-600.3710233153
 31
0.0
  0
LINE
  5
26E
100
AcDbEntity
  8
L1_120
  6
DASHED
 62
         2
100
AcDbLine
 10
1557.9196835722
 20
-616.4710233153
 30
0.0
 11
1558.2353563342
 21
-616.4710233153
 31
0.0
  0
LINE
  5
26F
100
AcDbEntity
  8
L1_120
  6
CONTINUOUS
 62
         7
100
AcDbLine
 10
1346.3916835722
 20
-739.7561083827
 30
38.8301954047
 11
1346.3916835722
 21
-737.8911083827
 31
38.8301954047
  0
LINE
  5
270
100
AcDbEntity
  8
L1_120
  6
CONTINUOUS
 62
         7
100
AcDbLine
 10
1450.7396835722
 20
-705.6061083827
 30
38.8301954047
 11
1450.7396835722
 21
-724.6061083827
 31
38.8301954047
  0
LINE
  5
271
100
AcDbEntity
  8
L1_120
  6
CONTINUOUS
 62
         7
100
AcDbLine
 10
1346.3916835722
 20
-690.6561083827
 30
38.8301954047
 11
1346.3916835722
 21
-692.3211083827
 31
38.8301954047
  0
LINE
  5
272
100
AcDbEntity
  8
L1_120
  6
CONTINUOUS
 62
         7
100
AcDbLine
 10
1330.9396835722
 20
-692.8211083827
 30
38.8301954047
 11
1345.8916835722
 21
-692.8211083827
 31
38.8301954047
  0
LINE
  5
273
100
AcDbEntity
  8
L1_120
  6
CONTINUOUS
 62
         7
100
AcDbLine
 10
1330.9396835722
 20
-737.3911083827
 30
38.8301954047
 11
1345.8916835722
 21
-737.3911083827
 31
38.8301954047
  0
ARC
  5
274
100
AcDbEntity
  8
L1_120
  6
CONTINUOUS
 62
         7
100
AcDbCircle
 10
1330.9396835722
 20
-737.8911083827
 30
38.8301954047
 40
0.5
100
AcDbArc
 50
90.0
 51
180.0
  0
ARC
  5
275
100
AcDbEntity
  8
L1_120
  6
CONTINUOUS
 62
         7
100
AcDbCircle
 10
1330.9396835722
 20
-692.3211083827
 30
38.8301954047
 40
0.5
100
AcDbArc
 50
180.0
 51
270.0
  0
LINE
  5
276
100
AcDbEntity
  8
L1_120
  6
CONTINUOUS
 62
         7
100
AcDbLine
 10
1314.4532375649
 20
-687.5577525986
 30
38.8301954047
 11
1337.6440130108
 21
-703.7961083827
 31
38.8301954047
  0
LINE
  5
277
100
AcDbEntity
  8
L1_120
  6
CONTINUOUS
 62
         7
100
AcDbLine
 10
1312.5604353249
 20
-690.2609543447
 30
38.8301954047
 11
1331.8906385852
 21
-703.7961083827
 31
38.8301954047
  0
LINE
  5
278
100
AcDbEntity
  8
L1_120
  6
CENTER
 62
         1
100
AcDbLine
 10
1311.6490529169
 20
-687.608519441
 30
38.8301954047
 11
1334.767325798
 21
-703.7961083827
 31
38.8301954047
  0
LINE
  5
279
100
AcDbEntity
  8
L1_120
  6
CONTINUOUS
 62
         7
100
AcDbLine
 10
1312.3596835722
 20
-685.6035204758
 30
38.8301954047
 11
1314.6826681394
 21
-687.2300917809
 31
38.8301954047
  0
LINE
  5
27A
100
AcDbEntity
  8
L1_120
  6
CONTINUOUS
 62
         4
100
AcDbLine
 10
1314.6539893176
 20
-687.2710493831
 30
38.8301954047
 11
1318.7497495391
 21
-690.1389315648
 31
38.8301954047
  0
LINE
  5
27B
100
AcDbEntity
  8
L1_120
  6
CONTINUOUS
 62
         7
100
AcDbLine
 10
1316.4554437937
 20
-693.415539742
 30
38.8301954047
 11
1318.7497495391
 21
-690.1389315648
 31
38.8301954047
  0
LINE
  5
27C
100
AcDbEntity
  8
L1_120
  6
CONTINUOUS
 62
         4
100
AcDbLine
 10
1312.3596835722
 20
-690.5476575602
 30
38.8301954047
 11
1316.4554437937
 21
-693.415539742
 31
38.8301954047
  0
LINE
  5
27D
100
AcDbEntity
  8
L1_120
  6
CONTINUOUS
 62
         7
100
AcDbLine
 10
1312.3596835722
 20
-690.5476575603
 30
38.8301954047
 11
1314.6826681394
 21
-687.2300917809
 31
38.8301954047
  0
LINE
  5
27E
100
AcDbEntity
  8
L1_120
  6
CONTINUOUS
 62
         7
100
AcDbLine
 10
1325.975953971
 20
-683.3311083825
 30
38.8301954047
 11
1329.4396835722
 21
-683.3311083825
 31
38.8301954047
  0
LINE
  5
27F
100
AcDbEntity
  8
L1_120
  6
CONTINUOUS
 62
         7
100
AcDbLine
 10
1324.3146835722
 20
-686.2085131183
 30
38.8301954047
 11
1325.975953971
 21
-683.3311083825
 31
38.8301954047
  0
ARC
  5
280
100
AcDbEntity
  8
L1_120
  6
CONTINUOUS
 62
         7
100
AcDbCircle
 10
1323.3408832405
 20
-685.9811083825
 30
38.8301954047
 40
1.0
100
AcDbArc
 50
270.0
 51
346.8556743105
  0
LINE
  5
281
100
AcDbEntity
  8
L1_120
  6
CONTINUOUS
 62
         7
100
AcDbLine
 10
1321.538483904
 20
-686.9811083825
 30
38.8301954047
 11
1323.3408832405
 21
-686.9811083825
 31
38.8301954047
  0
ARC
  5
282
100
AcDbEntity
  8
L1_120
  6
CONTINUOUS
 62
         7
100
AcDbCircle
 10
1321.538483904
 20
-685.9811083825
 30
38.8301954047
 40
1.0
100
AcDbArc
 50
193.1443256895
 51
270.0
  0
LINE
  5
283
100
AcDbEntity
  8
L1_120
  6
CONTINUOUS
 62
         7
100
AcDbLine
 10
1320.5646835722
 20
-686.2085131185
 30
38.8301954047
 11
1318.9034131734
 21
-683.3311083827
 31
38.8301954047
  0
LINE
  5
284
100
AcDbEntity
  8
L1_120
  6
CONTINUOUS
 62
         7
100
AcDbLine
 10
1313.3596835722
 20
-683.3311083825
 30
38.8301954047
 11
1318.9034131734
 21
-683.3311083825
 31
38.8301954047
  0
LINE
  5
285
100
AcDbEntity
  8
L1_120
  6
CONTINUOUS
 62
         7
100
AcDbLine
 10
1312.3596835722
 20
-692.3061083827
 30
38.8301954047
 11
1312.3596835722
 21
-684.3311083825
 31
38.8301954047
  0
LINE
  5
286
100
AcDbEntity
  8
L1_120
  6
CONTINUOUS
 62
         7
100
AcDbLine
 10
1313.3596835722
 20
-746.8811083829
 30
38.8301954047
 11
1318.9034131734
 21
-746.8811083829
 31
38.8301954047
  0
LINE
  5
287
100
AcDbEntity
  8
L1_120
  6
CONTINUOUS
 62
         7
100
AcDbLine
 10
1312.3596835722
 20
-737.9061083829
 30
38.8301954047
 11
1312.3596835722
 21
-745.8811083829
 31
38.8301954047
  0
LINE
  5
288
100
AcDbEntity
  8
L1_120
  6
CONTINUOUS
 62
         7
100
AcDbLine
 10
1320.5646835722
 20
-744.0037036469
 30
38.8301954047
 11
1318.9034131734
 21
-746.8811083827
 31
38.8301954047
  0
ARC
  5
289
100
AcDbEntity
  8
L1_120
  6
CONTINUOUS
 62
         7
100
AcDbCircle
 10
1321.538483904
 20
-744.2311083827
 30
38.8301954047
 40
1.0
100
AcDbArc
 50
90.0
 51
166.8556743105
  0
LINE
  5
28A
100
AcDbEntity
  8
L1_120
  6
CONTINUOUS
 62
         7
100
AcDbLine
 10
1321.538483904
 20
-743.2311083827
 30
38.8301954047
 11
1323.3408832405
 21
-743.2311083827
 31
38.8301954047
  0
ARC
  5
28B
100
AcDbEntity
  8
L1_120
  6
CONTINUOUS
 62
         7
100
AcDbCircle
 10
1323.3408832405
 20
-744.2311083829
 30
38.8301954047
 40
1.0
100
AcDbArc
 50
13.1443256895
 51
90.0
  0
LINE
  5
28C
100
AcDbEntity
  8
L1_120
  6
CONTINUOUS
 62
         7
100
AcDbLine
 10
1324.3146835722
 20
-744.0037036469
 30
38.8301954047
 11
1325.975953971
 21
-746.8811083827
 31
38.8301954047
  0
LINE
  5
28D
100
AcDbEntity
  8
L1_120
  6
CONTINUOUS
 62
         7
100
AcDbLine
 10
1325.975953971
 20
-746.8811083829
 30
38.8301954047
 11
1329.4396835722
 21
-746.8811083829
 31
38.8301954047
  0
LINE
  5
28E
100
AcDbEntity
  8
L1_120
  6
CONTINUOUS
 62
         7
100
AcDbLine
 10
1330.4396835722
 20
-737.8911083827
 30
38.8301954047
 11
1330.4396835722
 21
-746.3811083827
 31
38.8301954047
  0
LINE
  5
28F
100
AcDbEntity
  8
L1_120
  6
CONTINUOUS
 62
         7
100
AcDbLine
 10
1312.3596835722
 20
-744.8811083827
 30
38.8301954047
 11
1312.3596835722
 21
-746.3811083827
 31
38.8301954047
  0
LINE
  5
290
100
AcDbEntity
  8
L1_120
  6
CONTINUOUS
 62
         7
100
AcDbLine
 10
1330.4396835722
 20
-683.8311083827
 30
38.8301954047
 11
1330.4396835722
 21
-692.3211083827
 31
38.8301954047
  0
LINE
  5
291
100
AcDbEntity
  8
L1_120
  6
CONTINUOUS
 62
         7
100
AcDbLine
 10
1328.4396835722
 20
-746.8811083827
 30
38.8301954047
 11
1329.9396835722
 21
-746.8811083827
 31
38.8301954047
  0
LINE
  5
292
100
AcDbEntity
  8
L1_120
  6
CONTINUOUS
 62
         7
100
AcDbLine
 10
1312.8596835722
 20
-746.8811083827
 30
38.8301954047
 11
1314.3596835722
 21
-746.8811083827
 31
38.8301954047
  0
LINE
  5
293
100
AcDbEntity
  8
L1_120
  6
CONTINUOUS
 62
         7
100
AcDbLine
 10
1328.4396835722
 20
-683.3311083827
 30
38.8301954047
 11
1329.9396835722
 21
-683.3311083827
 31
38.8301954047
  0
LINE
  5
294
100
AcDbEntity
  8
L1_120
  6
CONTINUOUS
 62
         7
100
AcDbLine
 10
1312.3596835722
 20
-683.8311083827
 30
38.8301954047
 11
1312.3596835722
 21
-685.3311083827
 31
38.8301954047
  0
LINE
  5
295
100
AcDbEntity
  8
L1_120
  6
CONTINUOUS
 62
         7
100
AcDbLine
 10
1312.8596835722
 20
-683.3311083827
 30
38.8301954047
 11
1314.3596835722
 21
-683.3311083827
 31
38.8301954047
  0
LINE
  5
296
100
AcDbEntity
  8
L1_120
  6
CONTINUOUS
 62
         7
100
AcDbLine
 10
1330.4396835722
 20
-746.3811083827
 30
38.8301954047
 11
1329.9396835722
 21
-746.8811083827
 31
38.8301954047
  0
LINE
  5
297
100
AcDbEntity
  8
L1_120
  6
CONTINUOUS
 62
         7
100
AcDbLine
 10
1312.3596835722
 20
-746.3811083827
 30
38.8301954047
 11
1312.8596835722
 21
-746.8811083827
 31
38.8301954047
  0
LINE
  5
298
100
AcDbEntity
  8
L1_120
  6
CONTINUOUS
 62
         7
100
AcDbLine
 10
1312.3596835722
 20
-683.8311083827
 30
38.8301954047
 11
1312.8596835722
 21
-683.3311083827
 31
38.8301954047
  0
LINE
  5
299
100
AcDbEntity
  8
L1_120
  6
CONTINUOUS
 62
         7
100
AcDbLine
 10
1329.9396835722
 20
-683.3311083827
 30
38.8301954047
 11
1330.4396835722
 21
-683.8311083827
 31
38.8301954047
  0
ARC
  5
29A
100
AcDbEntity
  8
L1_120
  6
CONTINUOUS
 62
         7
100
AcDbCircle
 10
1311.5976835722
 20
-692.0941083827
 30
38.8301954047
 40
0.762
100
AcDbArc
 50
270.0000000001
 51
359.9999999999
  0
LINE
  5
29B
100
AcDbEntity
  8
L1_120
  6
CONTINUOUS
 62
         7
100
AcDbLine
 10
1311.5111121436
 20
-692.8561083827
 30
38.8301954047
 11
1311.5976835722
 21
-692.8561083827
 31
38.8301954047
  0
ARC
  5
29C
100
AcDbEntity
  8
L1_120
  6
CONTINUOUS
 62
         7
100
AcDbCircle
 10
1311.5976835722
 20
-738.1181083827
 30
38.8301954047
 40
0.762
100
AcDbArc
 50
0.0000000001
 51
89.9999999999
  0
LINE
  5
29D
100
AcDbEntity
  8
L1_120
  6
CONTINUOUS
 62
         7
100
AcDbLine
 10
1311.5111121436
 20
-737.3561083827
 30
38.8301954047
 11
1311.5976835722
 21
-737.3561083827
 31
38.8301954047
  0
ARC
  5
29E
100
AcDbEntity
  8
L1_120
  6
CONTINUOUS
 62
         7
100
AcDbCircle
 10
1345.8916835722
 20
-692.3211083827
 30
38.8301954047
 40
0.5
100
AcDbArc
 50
270.0
 51
360.0
  0
ARC
  5
29F
100
AcDbEntity
  8
L1_120
  6
CONTINUOUS
 62
         7
100
AcDbCircle
 10
1345.8916835722
 20
-737.8911083827
 30
38.8301954047
 40
0.5
100
AcDbArc
 50
0.0
 51
90.0
  0
LINE
  5
2A0
100
AcDbEntity
  8
L1_120
  6
CENTER
 62
         6
100
AcDbLine
 10
1450.7396835722
 20
-736.1061083827
 30
38.8301954047
 11
1434.7396835722
 21
-736.1061083827
 31
38.8301954047
  0
LINE
  5
2A1
100
AcDbEntity
  8
L1_120
  6
CENTER
 62
         6
100
AcDbLine
 10
1450.7396835722
 20
-694.1061083827
 30
38.8301954047
 11
1434.7396835722
 21
-694.1061083827
 31
38.8301954047
  0
LINE
  5
2A2
100
AcDbEntity
  8
L1_120
  6
CONTINUOUS
 62
         4
100
AcDbLine
 10
1340.7396835722
 20
-727.0123583827
 30
38.8301954047
 11
1413.7396835722
 21
-727.0123583827
 31
38.8301954047
  0
LINE
  5
2A3
100
AcDbEntity
  8
L1_120
  6
CONTINUOUS
 62
         4
100
AcDbLine
 10
1340.7396835722
 20
-703.1998583827
 30
38.8301954047
 11
1413.7396835722
 21
-703.1998583827
 31
38.8301954047
  0
LINE
  5
2A4
100
AcDbEntity
  8
L1_120
  6
CONTINUOUS
 62
         7
100
AcDbLine
 10
1330.7396835722
 20
-726.4161083827
 30
38.8301954047
 11
1413.7396835722
 21
-726.4161083827
 31
38.8301954047
  0
LINE
  5
2A5
100
AcDbEntity
  8
L1_120
  6
CONTINUOUS
 62
         7
100
AcDbLine
 10
1330.7396835722
 20
-703.7961083827
 30
38.8301954047
 11
1413.7396835722
 21
-703.7961083827
 31
38.8301954047
  0
LINE
  5
2A6
100
AcDbEntity
  8
L1_120
  6
CONTINUOUS
 62
         7
100
AcDbLine
 10
1422.6339731688
 20
-703.0561083827
 30
38.8301954047
 11
1422.6339731688
 21
-727.1561083827
 31
38.8301954047
  0
LINE
  5
2A7
100
AcDbEntity
  8
L1_120
  6
CONTINUOUS
 62
         7
100
AcDbLine
 10
1413.7396835722
 20
-727.1561083827
 30
38.8301954047
 11
1422.6339731688
 21
-727.1561083827
 31
38.8301954047
  0
LINE
  5
2A8
100
AcDbEntity
  8
L1_120
  6
CONTINUOUS
 62
         7
100
AcDbLine
 10
1413.7396835722
 20
-703.0561083827
 30
38.8301954047
 11
1422.6339731688
 21
-703.0561083827
 31
38.8301954047
  0
ARC
  5
2A9
100
AcDbEntity
  8
L1_120
  6
CONTINUOUS
 62
         7
100
AcDbCircle
 10
1449.2396835722
 20
-732.4100384894
 30
38.8301954047
 40
1.5
100
AcDbArc
 50
0.0
 51
82.0
  0
ARC
  5
2AA
100
AcDbEntity
  8
L1_120
  6
CONTINUOUS
 62
         7
100
AcDbCircle
 10
1449.2396835722
 20
-697.802178276
 30
38.8301954047
 40
1.5
100
AcDbArc
 50
278.0
 51
360.0
  0
LINE
  5
2AB
100
AcDbEntity
  8
L1_120
  6
CONTINUOUS
 62
         7
100
AcDbLine
 10
1449.4484432237
 20
-730.9246363863
 30
38.8301954047
 11
1422.6339731688
 21
-727.1561083827
 31
38.8301954047
  0
LINE
  5
2AC
100
AcDbEntity
  8
L1_120
  6
CONTINUOUS
 62
         7
100
AcDbLine
 10
1413.7396835722
 20
-727.1561083827
 30
38.8301954047
 11
1413.7396835722
 21
-703.0561083827
 31
38.8301954047
  0
DIMENSION
  5
2AF
100
AcDbEntity
  8
L1_120
  6
CONTINUOUS
 62
         4
100
AcDbDimension
  2
*D5
 10
1340.7396835722
 20
-759.4769657381
 30
0.0
 11
1391.4284660643
 21
-757.4519657381
 31
0.0
  3
DIMSTYLE1
100
AcDbAlignedDimension
 13
1340.7396835722
 23
-726.2161083827
 33
0.0
 14
1450.7396835722
 24
-734.1061083827
 34
0.0
100
AcDbRotatedDimension
  0
LINE
  5
2BB
100
AcDbEntity
  8
L1_120
  6
CONTINUOUS
 62
         7
100
AcDbLine
 10
1330.7396835722
 20
-726.4161083827
 30
38.8301954047
 11
1330.7396835722
 21
-703.7961083827
 31
38.8301954047
  0
LINE
  5
2BC
100
AcDbEntity
  8
L1_120
  6
CONTINUOUS
 62
         7
100
AcDbLine
 10
1340.7396835722
 20
-727.0123583827
 30
38.8301954047
 11
1340.7396835722
 21
-703.1998583827
 31
38.8301954047
  0
LINE
  5
2BD
100
AcDbEntity
  8
L1_120
  6
CONTINUOUS
 62
         4
100
AcDbLine
 10
1449.4484432237
 20
-730.9246363863
 30
38.8301954047
 11
1449.4484432237
 21
-699.2875803791
 31
38.8301954047
  0
LINE
  5
2BE
100
AcDbEntity
  8
L1_120
  6
CONTINUOUS
 62
         7
100
AcDbLine
 10
1449.4484432237
 20
-699.2875803791
 30
38.8301954047
 11
1422.6339731688
 21
-703.0561083827
 31
38.8301954047
  0
LINE
  5
2BF
100
AcDbEntity
  8
L1_120
  6
CONTINUOUS
 62
         7
100
AcDbLine
 10
1432.2396835722
 20
-739.7561083827
 30
38.8301954047
 11
1432.2396835722
 21
-735.6061083827
 31
38.8301954047
  0
LINE
  5
2C0
100
AcDbEntity
  8
L1_120
  6
CONTINUOUS
 62
         7
100
AcDbLine
 10
1431.7396835722
 20
-740.2561083827
 30
38.8301954047
 11
1432.2396835722
 21
-739.7561083827
 31
38.8301954047
  0
LINE
  5
2C1
100
AcDbEntity
  8
L1_120
  6
CONTINUOUS
 62
         7
100
AcDbLine
 10
1432.2396835722
 20
-694.6061083827
 30
38.8301954047
 11
1432.2396835722
 21
-690.6561083827
 31
38.8301954047
  0
LINE
  5
2C2
100
AcDbEntity
  8
L1_120
  6
CONTINUOUS
 62
         7
100
AcDbLine
 10
1431.7396835722
 20
-690.1561083827
 30
38.8301954047
 11
1432.2396835722
 21
-690.6561083827
 31
38.8301954047
  0
ARC
  5
2C3
100
AcDbEntity
  8
L1_120
  6
CONTINUOUS
 62
         7
100
AcDbCircle
 10
1432.7396835722
 20
-694.6061083827
 30
38.8301954047
 40
0.5
100
AcDbArc
 50
180.0
 51
270.0
  0
ARC
  5
2C4
100
AcDbEntity
  8
L1_120
  6
CONTINUOUS
 62
         7
100
AcDbCircle
 10
1432.7396835722
 20
-735.6061083827
 30
38.8301954047
 40
0.5
100
AcDbArc
 50
90.0
 51
180.0
  0
LINE
  5
2C5
100
AcDbEntity
  8
L1_120
  6
CONTINUOUS
 62
         7
100
AcDbLine
 10
1450.7396835722
 20
-732.4100384894
 30
38.8301954047
 11
1450.7396835722
 21
-697.1061083827
 31
38.8301954047
  0
LINE
  5
2C6
100
AcDbEntity
  8
L1_120
  6
CONTINUOUS
 62
         7
100
AcDbLine
 10
1434.7396835722
 20
-696.1061083827
 30
38.8301954047
 11
1434.7396835722
 21
-695.1061083827
 31
38.8301954047
  0
LINE
  5
2C7
100
AcDbEntity
  8
L1_120
  6
CONTINUOUS
 62
         7
100
AcDbLine
 10
1346.8916835722
 20
-740.2561083827
 30
38.8301954047
 11
1431.7396835722
 21
-740.2561083827
 31
38.8301954047
  0
LINE
  5
2C8
100
AcDbEntity
  8
L1_120
  6
CONTINUOUS
 62
         7
100
AcDbLine
 10
1434.7396835722
 20
-735.1061083827
 30
38.8301954047
 11
1434.7396835722
 21
-734.1061083827
 31
38.8301954047
  0
LINE
  5
2C9
100
AcDbEntity
  8
L1_120
  6
CONTINUOUS
 62
         4
100
AcDbLine
 10
1434.7396835722
 20
-734.1061083827
 30
38.8301954047
 11
1450.4717343798
 21
-734.1061083827
 31
38.8301954047
  0
LINE
  5
2CA
100
AcDbEntity
  8
L1_120
  6
CONTINUOUS
 62
         7
100
AcDbLine
 10
1448.7396835722
 20
-735.1061083827
 30
38.8301954047
 11
1432.7396835722
 21
-735.1061083827
 31
38.8301954047
  0
ARC
  5
2CB
100
AcDbEntity
  8
L1_120
  6
CONTINUOUS
 62
         7
100
AcDbCircle
 10
1448.7396835722
 20
-733.1061083827
 30
38.8301954047
 40
2.0
100
AcDbArc
 50
270.0
 51
360.0
  0
ARC
  5
2CC
100
AcDbEntity
  8
L1_120
  6
CONTINUOUS
 62
         7
100
AcDbCircle
 10
1448.7396835722
 20
-697.1061083827
 30
38.8301954047
 40
2.0
100
AcDbArc
 50
0.0
 51
90.0
  0
LINE
  5
2CD
100
AcDbEntity
  8
L1_120
  6
CONTINUOUS
 62
         7
100
AcDbLine
 10
1448.7396835722
 20
-695.1061083827
 30
38.8301954047
 11
1432.7396835722
 21
-695.1061083827
 31
38.8301954047
  0
LINE
  5
2CE
100
AcDbEntity
  8
L1_120
  6
CONTINUOUS
 62
         4
100
AcDbLine
 10
1434.7396835722
 20
-696.1061083827
 30
38.8301954047
 11
1450.4717343798
 21
-696.1061083827
 31
38.8301954047
  0
LINE
  5
2CF
100
AcDbEntity
  8
L1_120
  6
CONTINUOUS
 62
         7
100
AcDbLine
 10
1346.8916835722
 20
-690.1561083827
 30
38.8301954047
 11
1431.7396835722
 21
-690.1561083827
 31
38.8301954047
  0
ARC
  5
2D0
100
AcDbEntity
  8
L1_120
  6
CONTINUOUS
 62
         7
100
AcDbCircle
 10
1448.7396835722
 20
-697.1061083827
 30
38.8301954047
 40
2.0
100
AcDbArc
 50
0.0
 51
90.0
  0
ARC
  5
2D1
100
AcDbEntity
  8
L1_120
  6
CONTINUOUS
 62
         7
100
AcDbCircle
 10
1448.7396835722
 20
-733.1061083827
 30
38.8301954047
 40
2.0
100
AcDbArc
 50
270.0
 51
360.0
  0
ARC
  5
2D2
100
AcDbEntity
  8
L1_120
  6
CONTINUOUS
 62
         7
100
AcDbCircle
 10
1346.8916835722
 20
-690.6561083827
 30
38.8301954047
 40
0.5
100
AcDbArc
 50
90.0
 51
180.0
  0
ARC
  5
2D3
100
AcDbEntity
  8
L1_120
  6
CONTINUOUS
 62
         7
100
AcDbCircle
 10
1346.8916835722
 20
-739.7561083827
 30
38.8301954047
 40
0.5
100
AcDbArc
 50
180.0
 51
270.0
  0
LINE
  5
2D4
100
AcDbEntity
  8
L1_120
  6
CONTINUOUS
 62
         7
100
AcDbLine
 10
1328.251303912
 20
-722.1061083827
 30
38.8301954047
 11
1330.7396835722
 21
-726.4161083827
 31
38.8301954047
  0
LINE
  5
2D5
100
AcDbEntity
  8
L1_120
  6
CONTINUOUS
 62
         7
100
AcDbLine
 10
1328.251303912
 20
-708.1061083827
 30
38.8301954047
 11
1330.7396835722
 21
-703.7961083827
 31
38.8301954047
  0
LINE
  5
2D6
100
AcDbEntity
  8
L1_120
  6
CONTINUOUS
 62
         7
100
AcDbLine
 10
1328.251303912
 20
-708.1061083827
 30
38.8301954047
 11
1328.251303912
 21
-722.1061083827
 31
38.8301954047
  0
DIMENSION
  5
2D9
100
AcDbEntity
  8
L1_120
  6
CONTINUOUS
 62
         4
100
AcDbDimension
  2
*D6
 10
1243.0896835722
 20
-542.7832197407
 30
0.0
 11
1341.016994265
 21
-540.7582197407
 31
0.0
  3
DIMSTYLE1
100
AcDbAlignedDimension
 13
1243.0896835722
 23
-597.1868415988
 33
0.0
 14
1450.7396835722
 24
-590.4210233153
 34
0.0
100
AcDbRotatedDimension
  0
DIMENSION
  5
2E7
100
AcDbEntity
  8
L1_120
  6
CONTINUOUS
 62
         4
100
AcDbDimension
  2
*D7
 10
1311.3396835722
 20
-558.0411646513
 30
0.0
 11
1376.5942760915
 21
-556.0161646513
 31
0.0
  3
DIMSTYLE1
100
AcDbAlignedDimension
 13
1311.3396835722
 23
-586.1960233153
 33
0.0
 14
1450.7396835722
 24
-590.4210233153
 34
0.0
100
AcDbRotatedDimension
  0
INSERT
  5
368
100
AcDbEntity
  8
0
  6
CONTINUOUS
100
AcDbBlockReference
  2
*X8
 10
0.0
 20
0.0
 30
0.0
  0
ENDSEC
  0
SECTION
  2
OBJECTS
  0
DICTIONARY
  5
19
100
AcDbDictionary
  3
ACAD_GROUP
350
1A
  3
ACAD_MLINESTYLE
350
1B
  0
DICTIONARY
  5
1A
102
{ACAD_REACTORS
330
19
102
}
100
AcDbDictionary
  0
DICTIONARY
  5
1B
102
{ACAD_REACTORS
330
19
102
}
100
AcDbDictionary
  3
STANDARD
350
1C
  0
MLINESTYLE
  5
1C
102
{ACAD_REACTORS
330
1B
102
}
100
AcDbMlineStyle
  2
STANDARD
 70
         0
  3

 62
         0
 51
90.0
 52
90.0
 71
         2
 49
0.5
 62
       256
  6
BYLAYER
 49
-0.5
 62
       256
  6
BYLAYER
  0
ENDSEC
  0
EOF
