  0
SECTION
  2
HEADER
  9
$ACADVER
  1
AC1014
  9
$ACADMAINTVER
 70
         0
  9
$DWGCODEPAGE
  3
BIG5
  9
$INSBASE
 10
0.0
 20
0.0
 30
0.0
  9
$EXTMIN
 10
1115.9142119155
 20
-424.0253519763
 30
0.0
  9
$EXTMAX
 10
1854.6590705556
 20
-63.3942624805
 30
0.0
  9
$LIMMIN
 10
0.0
 20
0.0
  9
$LIMMAX
 10
0.0
 20
0.0
  9
$ORTHOMODE
 70
         0
  9
$REGENMODE
 70
         1
  9
$FILLMODE
 70
         1
  9
$QTEXTMODE
 70
         0
  9
$MIRRTEXT
 70
         1
  9
$DRAGMODE
 70
         2
  9
$LTSCALE
 40
1.0
  9
$OSMODE
 70
         0
  9
$ATTMODE
 70
         1
  9
$TEXTSIZE
 40
1.7
  9
$TRACEWID
 40
0.05
  9
$TEXTSTYLE
  7
STANDARD
  9
$CLAYER
  8
0
  9
$CELTYPE
  6
CONTINUOUS
  9
$CECOLOR
 62
        16
  9
$CELTSCALE
 40
1.0
  9
$DELOBJ
 70
         1
  9
$DISPSILH
 70
         0
  9
$DIMSCALE
 40
1.0
  9
$DIMASZ
 40
0.18
  9
$DIMEXO
 40
0.0625
  9
$DIMDLI
 40
0.38
  9
$DIMRND
 40
0.0
  9
$DIMDLE
 40
0.0
  9
$DIMEXE
 40
0.25
  9
$DIMTP
 40
0.01
  9
$DIMTM
 40
-0.01
  9
$DIMTXT
 40
2.7
  9
$DIMCEN
 40
0.09
  9
$DIMTSZ
 40
0.0
  9
$DIMTOL
 70
         0
  9
$DIMLIM
 70
         0
  9
$DIMTIH
 70
         1
  9
$DIMTOH
 70
         1
  9
$DIMSE1
 70
         0
  9
$DIMSE2
 70
         0
  9
$DIMTAD
 70
         0
  9
$DIMZIN
 70
         0
  9
$DIMBLK
  1

  9
$DIMASO
 70
         1
  9
$DIMSHO
 70
         1
  9
$DIMPOST
  1

  9
$DIMAPOST
  1

  9
$DIMALT
 70
         0
  9
$DIMALTD
 70
         2
  9
$DIMALTF
 40
25.4
  9
$DIMLFAC
 40
1.0
  9
$DIMTOFL
 70
         0
  9
$DIMTVP
 40
0.0
  9
$DIMTIX
 70
         0
  9
$DIMSOXD
 70
         0
  9
$DIMSAH
 70
         0
  9
$DIMBLK1
  1

  9
$DIMBLK2
  1

  9
$DIMSTYLE
  2
STANDARD
  9
$DIMCLRD
 70
         0
  9
$DIMCLRE
 70
         0
  9
$DIMCLRT
 70
        16
  9
$DIMTFAC
 40
1.0
  9
$DIMGAP
 40
0.09
  9
$DIMJUST
 70
         0
  9
$DIMSD1
 70
         0
  9
$DIMSD2
 70
         0
  9
$DIMTOLJ
 70
         1
  9
$DIMTZIN
 70
         0
  9
$DIMALTZ
 70
         0
  9
$DIMALTTZ
 70
         0
  9
$DIMFIT
 70
         3
  9
$DIMUPT
 70
         0
  9
$DIMUNIT
 70
         2
  9
$DIMDEC
 70
         4
  9
$DIMTDEC
 70
         4
  9
$DIMALTU
 70
         2
  9
$DIMALTTD
 70
         2
  9
$DIMTXSTY
  7
STANDARD
  9
$DIMAUNIT
 70
         0
  9
$LUNITS
 70
         2
  9
$LUPREC
 70
        10
  9
$SKETCHINC
 40
0.1
  9
$FILLETRAD
 40
0.0
  9
$AUNITS
 70
         0
  9
$AUPREC
 70
         0
  9
$MENU
  1
acad
  9
$ELEVATION
 40
0.0
  9
$PELEVATION
 40
0.0
  9
$THICKNESS
 40
0.0
  9
$LIMCHECK
 70
         0
  9
$BLIPMODE
 70
         1
  9
$CHAMFERA
 40
0.0
  9
$CHAMFERB
 40
0.0
  9
$CHAMFERC
 40
0.0
  9
$CHAMFERD
 40
0.0
  9
$SKPOLY
 70
         0
  9
$TDCREATE
 40
0.000000000
  9
$TDUPDATE
 40
0.000000000
  9
$TDINDWG
 40
0.0000000000
  9
$TDUSRTIMER
 40
0.0000000000
  9
$USRTIMER
 70
         1
  9
$ANGBASE
 50
0.0
  9
$ANGDIR
 70
         0
  9
$PDMODE
 70
         2
  9
$PDSIZE
 40
0.0
  9
$PLINEWID
 40
0.0
  9
$COORDS
 70
         0
  9
$SPLFRAME
 70
         0
  9
$SPLINETYPE
 70
         6
  9
$SPLINESEGS
 70
         8
  9
$ATTDIA
 70
         0
  9
$ATTREQ
 70
         1
  9
$HANDLING
 70
         1
  9
$HANDSEED
  5
481
  9
$SURFTAB1
 70
         6
  9
$SURFTAB2
 70
         6
  9
$SURFTYPE
 70
         6
  9
$SURFU
 70
         6
  9
$SURFV
 70
         6
  9
$UCSNAME
  2

  9
$UCSORG
 10
0.0
 20
0.0
 30
0.0
  9
$UCSXDIR
 10
1.0
 20
0.0
 30
0.0
  9
$UCSYDIR
 10
0.0
 20
1.0
 30
0.0
  9
$PUCSNAME
  2

  9
$PUCSORG
 10
0.0
 20
0.0
 30
0.0
  9
$PUCSXDIR
 10
1.0
 20
0.0
 30
0.0
  9
$PUCSYDIR
 10
0.0
 20
1.0
 30
0.0
  9
$USERI1
 70
         0
  9
$USERI2
 70
         0
  9
$USERI3
 70
         0
  9
$USERI4
 70
         0
  9
$USERI5
 70
         0
  9
$USERR1
 40
0.0
  9
$USERR2
 40
0.0
  9
$USERR3
 40
0.0
  9
$USERR4
 40
0.0
  9
$USERR5
 40
0.0
  9
$WORLDVIEW
 70
         1
  9
$SHADEDGE
 70
         3
  9
$SHADEDIF
 70
        70
  9
$TILEMODE
 70
         1
  9
$MAXACTVP
 70
        16
  9
$PINSBASE
 10
0.0
 20
0.0
 30
0.0
  9
$PLIMCHECK
 70
         0
  9
$PEXTMIN
 10
1.0000000000E+20
 20
1.0000000000E+20
 30
1.0000000000E+20
  9
$PEXTMAX
 10
-1.0000000000E+20
 20
-1.0000000000E+20
 30
-1.0000000000E+20
  9
$PLIMMIN
 10
0.0
 20
0.0
  9
$PLIMMAX
 10
12.0
 20
9.0
  9
$UNITMODE
 70
         0
  9
$VISRETAIN
 70
         0
  9
$PLINEGEN
 70
         1
  9
$PSLTSCALE
 70
         0
  9
$TREEDEPTH
 70
      3020
  9
$PICKSTYLE
 70
         1
  9
$CMLSTYLE
  2
STANDARD
  9
$CMLJUST
 70
         0
  9
$CMLSCALE
 40
1.0
  9
$PROXYGRAPHICS
 70
         0
  9
$MEASUREMENT
 70
         0
  0
ENDSEC
  0
SECTION
  2
CLASSES
  0
CLASS
  1
LWPOLYLINE
  2
AcDbPolyline
  3
"AutoCAD"
 90
        0
280
         0
281
         1
  0
CLASS
  1
IMAGE
  2
AcDbRasterImage
  3
ISM
 90
      127
280
         0
281
         1
  0
CLASS
  1
OLE2FRAME
  2
AcDbOle2Frame
  3
""
 90
        0
280
         0
281
         1
  0
CLASS
  1
HATCH
  2
AcDbHatch
  3
"ACAD_SEDONA"
 90
        0
280
         0
281
         1
  0
CLASS
  1
DICTIONARYVAR
  2
AcDbDictionaryVar
  3
"AutoCAD"
 90
        0
280
         0
281
         0
  0
CLASS
  1
RASTERVARIABLES
  2
AcDbRasterVariables
  3
ISM
 90
        0
280
         0
281
         0
  0
CLASS
  1
IMAGEDEF
  2
AcDbRasterImageDef
  3
ISM
 90
        0
280
         0
281
         0
  0
CLASS
  1
IMAGEDEF_REACTOR
  2
AcDbRasterImageDefReactor
  3
ISM
 90
        1
280
         0
281
         0
  0
CLASS
  1
IDBUFFER
  2
AcDbIdBuffer
  3
"Acad"
 90
        0
280
         0
281
         0
  0
CLASS
  1
SPATIAL_FILTER
  2
AcDbSpatialFilter
  3
"Acad"
 90
        0
280
         0
281
         0
  0
CLASS
  1
XRECORD
  2
AcDbXrecord
  3
"<Built In>"
 90
        0
280
         0
281
         0
  0
CLASS
  1
SORTENTSTABLE
  2
AcDbSortentsTable
  3
"AutoCAD"
 90
        0
280
         0
281
         0
  0
CLASS
  1
LAYER_INDEX
  2
AcDbLayerIndex
  3
"Acad"
 90
        0
280
         0
281
         0
  0
CLASS
  1
SPATIAL_INDEX
  2
AcDbSpatialIndex
  3
"Acad"
 90
        0
280
         0
281
         0
  0
CLASS
  1
OBJECT_PTR
  2
CAseDLPNTableRecord
  3
"ASE-LPNTableRecord"
 90
        1
280
         0
281
         0
  0
CLASS
  1
LAYOUT
  2
AcDbLayout
  3
"AutoCAD 2000"
 90
        1
280
         0
281
         0
  0
CLASS
  1
PLOTSETTINGS
  2
AcDbPlotSettings
  3
"AutoCAD 2000"
 90
        1
280
         0
281
         0
  0
CLASS
  1
ACDBDICTIONARYWDFLT
  2
AcDbDictionaryWithDefault
  3
"AutoCAD 2000"
 90
        1
280
         0
281
         0
  0
CLASS
  1
ACDBPLACEHOLDER
  2
AcDbPlaceHolder
  3
"AutoCAD 2000"
 90
        1
280
         0
281
         0
  0
CLASS
  1
VBA_PROJECT
  2
AcDbVbaProject
  3
"acadvba"
 90
        1
280
         0
281
         0
  0
CLASS
  1
WIPEOUT
  2
AcDbWipeout
  3
WipeOut|AutoCAD Express Tool|expresstools@autodesk.com
 90
      127
280
         0
281
         1
  0
CLASS
  1
WIPEOUTVARIABLES
  2
AcDbWipeoutVariables
  3
WipeOut|AutoCAD Express Tool|expresstools@autodesk.com
 90
        0
280
         0
281
         0
  0
CLASS
  1
RTEXT
  2
RText
  3
RText|AutoCAD Express Tool|expresstools@autodesk.com
 90
        0
280
         0
281
         1
  0
CLASS
  1
ARCALIGNEDTEXT
  2
AcDbArcAlignedText
  3
ATEXT|AutoCAD Express Tool|expresstools@autodesk.com
 90
        0
280
         0
281
         1
  0
ENDSEC
  0
SECTION
  2
TABLES
  0
TABLE
  2
VPORT
  5
7
100
AcDbSymbolTable
 70
         1
  0
VPORT
  5
15
100
AcDbSymbolTableRecord
100
AcDbViewportTableRecord
  2
*ACTIVE
 70
         0
 10
0.0
 20
0.0
 11
1.0
 21
1.0
 12
1485.2866412355
 22
-243.7098072284
 13
0.0
 23
0.0
 14
1.0
 24
1.0
 15
0.0
 25
0.0
 16
0.0
 26
0.0
 36
1.0
 17
0.0
 27
0.0
 37
0.0
 40
360.6310894957
 41
2.0484780158
 42
50.0
 43
0.0
 44
0.0
 50
0.0
 51
0.0
 71
         0
 72
       100
 73
         1
 74
         1
 75
         0
 76
         0
 77
         0
 78
         0
  0
ENDTAB
  0
TABLE
  2
LTYPE
  5
4
100
AcDbSymbolTable
 70
         6
  0
LTYPE
  5
11
100
AcDbSymbolTableRecord
100
AcDbLinetypeTableRecord
  2
BYBLOCK
 70
        64
  3

 72
        65
 73
         0
 40
0.0
  0
LTYPE
  5
12
100
AcDbSymbolTableRecord
100
AcDbLinetypeTableRecord
  2
BYLAYER
 70
        64
  3

 72
        65
 73
         0
 40
0.0
  0
LTYPE
  5
13
100
AcDbSymbolTableRecord
100
AcDbLinetypeTableRecord
  2
CONTINUOUS
 70
        64
  3
Solid line
 72
        65
 73
         0
 40
0.0
  0
LTYPE
  5
1D
100
AcDbSymbolTableRecord
100
AcDbLinetypeTableRecord
  2
DASHED
 70
        64
  3
_ _ _ _ _ _ _ _ _ _ _ _ _ _ _ _
 72
        65
 73
         2
 40
0.2
 49
0.1
 74
         0
 49
-0.1
 74
         0
  0
LTYPE
  5
1E
100
AcDbSymbolTableRecord
100
AcDbLinetypeTableRecord
  2
CENTER
 70
        64
  3
___ _ ___ _ ___ _ ___ _ ___ _ ___ _ ___ _ ___ _
 72
        65
 73
         4
 40
0.95
 49
0.625
 74
         0
 49
-0.125
 74
         0
 49
0.075
 74
         0
 49
-0.125
 74
         0
  0
LTYPE
  5
1F
100
AcDbSymbolTableRecord
100
AcDbLinetypeTableRecord
  2
PHANTOM
 70
        64
  3
______  __  __  ______  __  __  ______  __  __  
 72
        65
 73
         6
 40
1.025
 49
0.625
 74
         0
 49
-0.125
 74
         0
 49
0.075
 74
         0
 49
-0.125
 74
         0
 49
0.075
 74
         0
 49
-0.125
 74
         0
  0
ENDTAB
  0
TABLE
  2
LAYER
  5
2
100
AcDbSymbolTable
 70
         6
  0
LAYER
  5
14
100
AcDbSymbolTableRecord
100
AcDbLayerTableRecord
  2
0
 70
         0
 62
         7
  6
CONTINUOUS
  0
LAYER
  5
21
100
AcDbSymbolTableRecord
100
AcDbLayerTableRecord
  2
_____U
 70
         1
 62
         7
  6
CONTINUOUS
  0
LAYER
  5
22
100
AcDbSymbolTableRecord
100
AcDbLayerTableRecord
  2
_____T______
 70
         1
 62
         7
  6
CONTINUOUS
  0
LAYER
  5
23
100
AcDbSymbolTableRecord
100
AcDbLayerTableRecord
  2
______L_______
 70
         1
 62
         7
  6
CONTINUOUS
  0
LAYER
  5
24
100
AcDbSymbolTableRecord
100
AcDbLayerTableRecord
  2
L1_120
 70
         0
 62
         7
  6
CONTINUOUS
  0
LAYER
  5
2A4
100
AcDbSymbolTableRecord
100
AcDbLayerTableRecord
  2
DEFPOINTS
 70
         0
 62
        -7
  6
CONTINUOUS
  0
ENDTAB
  0
TABLE
  2
STYLE
  5
3
100
AcDbSymbolTable
 70
        12
  0
STYLE
  5
17
100
AcDbSymbolTableRecord
100
AcDbTextStyleTableRecord
  2
STANDARD
 70
         0
 40
0.0
 41
1.0
 50
0.0
 71
         0
 42
0.0
  3
txt
  4

  0
STYLE
  5
1EC
100
AcDbSymbolTableRecord
100
AcDbTextStyleTableRecord
  2
BOX
 70
         0
 40
1.0
 41
1.0
 50
0.0
 71
         0
 42
0.2
  3
txt.shx
  4

  0
STYLE
  5
2AD
100
AcDbSymbolTableRecord
100
AcDbTextStyleTableRecord
  2
BOX
 70
         0
 40
1.0
 41
1.0
 50
0.0
 71
         0
 42
0.2
  3
txt.shx
  4

  0
STYLE
  5
2D6
100
AcDbSymbolTableRecord
100
AcDbTextStyleTableRecord
  2
BOX
 70
         0
 40
1.0
 41
1.0
 50
0.0
 71
         0
 42
0.2
  3
txt.shx
  4

  0
STYLE
  5
2EB
100
AcDbSymbolTableRecord
100
AcDbTextStyleTableRecord
  2
BOX
 70
         0
 40
1.0
 41
1.0
 50
0.0
 71
         0
 42
0.2
  3
txt.shx
  4

  0
STYLE
  5
343
100
AcDbSymbolTableRecord
100
AcDbTextStyleTableRecord
  2
BOX
 70
         0
 40
1.0
 41
1.0
 50
0.0
 71
         0
 42
0.2
  3
txt.shx
  4

  0
STYLE
  5
411
100
AcDbSymbolTableRecord
100
AcDbTextStyleTableRecord
  2
BOX
 70
         0
 40
1.0
 41
1.0
 50
0.0
 71
         0
 42
0.2
  3
txt.shx
  4

  0
STYLE
  5
41F
100
AcDbSymbolTableRecord
100
AcDbTextStyleTableRecord
  2
BOX
 70
         0
 40
1.0
 41
1.0
 50
0.0
 71
         0
 42
0.2
  3
txt.shx
  4

  0
STYLE
  5
42E
100
AcDbSymbolTableRecord
100
AcDbTextStyleTableRecord
  2
STSL
 70
         0
 40
1.0
 41
1.0
 50
0.0
 71
         0
 42
0.2
  3

  4
Stsl
  0
STYLE
  5
43C
100
AcDbSymbolTableRecord
100
AcDbTextStyleTableRecord
  2
BOX
 70
         0
 40
1.0
 41
1.0
 50
0.0
 71
         0
 42
0.2
  3
txt.shx
  4

  0
STYLE
  5
46E
100
AcDbSymbolTableRecord
100
AcDbTextStyleTableRecord
  2
BOX
 70
         0
 40
1.0
 41
1.0
 50
0.0
 71
         0
 42
0.2
  3
txt.shx
  4

  0
STYLE
  5
47E
100
AcDbSymbolTableRecord
100
AcDbTextStyleTableRecord
  2
BOX
 70
         0
 40
1.0
 41
1.0
 50
0.0
 71
         0
 42
0.2
  3
txt.shx
  4

  0
ENDTAB
  0
TABLE
  2
VIEW
  5
5
100
AcDbSymbolTable
 70
         0
  0
ENDTAB
  0
TABLE
  2
UCS
  5
6
100
AcDbSymbolTable
 70
         1
  0
UCS
  5
20
100
AcDbSymbolTableRecord
100
AcDbUCSTableRecord
  2
CK_VIEW_1
 70
         0
 10
0.0
 20
0.0
 30
1.0
 11
1.0
 21
0.0
 31
0.0
 12
0.0
 22
1.0
 32
0.0
  0
ENDTAB
  0
TABLE
  2
APPID
  5
8
100
AcDbSymbolTable
 70
         1
  0
APPID
  5
16
100
AcDbSymbolTableRecord
100
AcDbRegAppTableRecord
  2
ACAD
 70
         0
  0
ENDTAB
  0
TABLE
  2
DIMSTYLE
  5
9
100
AcDbSymbolTable
 70
         2
  0
DIMSTYLE
105
18
100
AcDbSymbolTableRecord
100
AcDbDimStyleTableRecord
  2
STANDARD
 70
         0
  3

  4

  5

  6

  7

 40
1.0
 41
0.18
 42
0.0625
 43
0.38
 44
0.18
 45
0.0
 46
0.0
 47
0.0
 48
0.0
 71
         0
 72
         0
 73
         1
 74
         1
 75
         0
 76
         0
 77
         0
 78
         0
140
0.18
141
0.09
142
0.0
143
25.4
144
1.0
145
0.0
146
1.0
147
0.09
170
         0
171
         2
172
         0
173
         0
174
         0
175
         0
176
         0
177
         0
178
         0
270
         2
271
         4
272
         4
273
         2
274
         2
275
         0
280
         0
281
         0
282
         0
283
         1
284
         0
285
         0
286
         0
287
         0
288
         0
340
17
  0
DIMSTYLE
105
2A0
100
AcDbSymbolTableRecord
100
AcDbDimStyleTableRecord
  2
DIMSTYLE1
 70
         0
  3

  4

  5

  6

  7

 40
1.0
 41
3.5
 42
0.0625
 43
0.38
 44
3.5
 45
0.0
 46
0.0
 47
0.0
 48
0.0
 71
         0
 72
         0
 73
         1
 74
         1
 75
         0
 76
         0
 77
         0
 78
         0
140
3.5
141
0.09
142
0.0
143
25.4
144
1.0
145
0.0
146
1.0
147
0.09
170
         0
171
         2
172
         0
173
         0
174
         0
175
         0
176
         0
177
         0
178
         0
270
         2
271
         4
272
         4
273
         2
274
         2
275
         0
280
         0
281
         0
282
         0
283
         1
284
         0
285
         0
286
         0
287
         0
288
         0
340
17
  0
ENDTAB
  0
TABLE
  2
BLOCK_RECORD
  5
1
100
AcDbSymbolTable
 70
        16
  0
BLOCK_RECORD
  5
A
100
AcDbSymbolTableRecord
100
AcDbBlockTableRecord
  2
*MODEL_SPACE
  0
BLOCK_RECORD
  5
B
100
AcDbSymbolTableRecord
100
AcDbBlockTableRecord
  2
*PAPER_SPACE
  0
BLOCK_RECORD
  5
23D
100
AcDbSymbolTableRecord
100
AcDbBlockTableRecord
  2
*X0
  0
BLOCK_RECORD
  5
24E
100
AcDbSymbolTableRecord
100
AcDbBlockTableRecord
  2
*X1
  0
BLOCK_RECORD
  5
257
100
AcDbSymbolTableRecord
100
AcDbBlockTableRecord
  2
*X2
  0
BLOCK_RECORD
  5
266
100
AcDbSymbolTableRecord
100
AcDbBlockTableRecord
  2
*X3
  0
BLOCK_RECORD
  5
26E
100
AcDbSymbolTableRecord
100
AcDbBlockTableRecord
  2
*X4
  0
BLOCK_RECORD
  5
2A1
100
AcDbSymbolTableRecord
100
AcDbBlockTableRecord
  2
*D5
  0
BLOCK_RECORD
  5
2C8
100
AcDbSymbolTableRecord
100
AcDbBlockTableRecord
  2
*D6
  0
BLOCK_RECORD
  5
2E0
100
AcDbSymbolTableRecord
100
AcDbBlockTableRecord
  2
*D7
  0
BLOCK_RECORD
  5
338
100
AcDbSymbolTableRecord
100
AcDbBlockTableRecord
  2
*D8
  0
BLOCK_RECORD
  5
379
100
AcDbSymbolTableRecord
100
AcDbBlockTableRecord
  2
*X9
  0
BLOCK_RECORD
  5
406
100
AcDbSymbolTableRecord
100
AcDbBlockTableRecord
  2
*D10
  0
BLOCK_RECORD
  5
414
100
AcDbSymbolTableRecord
100
AcDbBlockTableRecord
  2
*D11
  0
BLOCK_RECORD
  5
422
100
AcDbSymbolTableRecord
100
AcDbBlockTableRecord
  2
*D12
  0
BLOCK_RECORD
  5
431
100
AcDbSymbolTableRecord
100
AcDbBlockTableRecord
  2
*D13
  0
BLOCK_RECORD
  5
461
100
AcDbSymbolTableRecord
100
AcDbBlockTableRecord
  2
*D14
  0
BLOCK_RECORD
  5
471
100
AcDbSymbolTableRecord
100
AcDbBlockTableRecord
  2
*D15
  0
ENDTAB
  0
ENDSEC
  0
SECTION
  2
BLOCKS
  0
BLOCK
  5
D
100
AcDbEntity
  8
0
100
AcDbBlockBegin
  2
*MODEL_SPACE
 70
         0
 10
0.0
 20
0.0
 30
0.0
  3
*MODEL_SPACE
  1

  0
ENDBLK
  5
E
100
AcDbEntity
  8
0
100
AcDbBlockEnd
  0
BLOCK
  5
F
100
AcDbEntity
 67
         1
  8
0
100
AcDbBlockBegin
  2
*PAPER_SPACE
 70
         0
 10
0.0
 20
0.0
 30
0.0
  3
*PAPER_SPACE
  1

  0
ENDBLK
  5
10
100
AcDbEntity
 67
         1
  8
0
100
AcDbBlockEnd
  0
BLOCK
  5
23E
100
AcDbEntity
  8
0
100
AcDbBlockBegin
  2
*X0
 70
        65
 10
0.0
 20
0.0
 30
0.0
  3
*X0
  1

  0
LINE
  5
23F
100
AcDbEntity
  8
L1_120
  6
CONTINUOUS
 62
         1
100
AcDbLine
 10
1553.6028660965
 20
-208.3775167267
 30
-75.8432135788
 11
1552.4008425579
 21
-209.507049376
 31
-76.2543298418
  0
LINE
  5
240
100
AcDbEntity
  8
L1_120
  6
CONTINUOUS
 62
         1
100
AcDbLine
 10
1555.7241864401
 20
-208.3775167267
 30
-75.8432135788
 11
1553.0142482239
 21
-210.9240256712
 31
-76.7700670359
  0
LINE
  5
241
100
AcDbEntity
  8
L1_120
  6
CONTINUOUS
 62
         1
100
AcDbLine
 10
1557.8455067837
 20
-208.3775167267
 30
-75.8432135788
 11
1554.8455067837
 21
-211.196594589
 31
-76.8692740088
  0
LINE
  5
242
100
AcDbEntity
  8
L1_120
  6
CONTINUOUS
 62
         1
100
AcDbLine
 10
1559.9668271272
 20
-208.3775167267
 30
-75.8432135788
 11
1558.3158299992
 21
-209.9289465448
 31
-76.4078878532
  0
LINE
  5
243
100
AcDbEntity
  8
L1_120
  6
CONTINUOUS
 62
         1
100
AcDbLine
 10
1557.9952153588
 20
-210.2302257565
 30
-76.5175445184
 11
1556.9668271272
 21
-211.196594589
 31
-76.8692740088
  0
LINE
  5
244
100
AcDbEntity
  8
L1_120
  6
CONTINUOUS
 62
         1
100
AcDbLine
 10
1565.2008425579
 20
-205.4525401226
 30
-74.778609159
 11
1564.1008425579
 21
-206.4862020054
 31
-75.1548313167
  0
LINE
  5
245
100
AcDbEntity
  8
L1_120
  6
CONTINUOUS
 62
         1
100
AcDbLine
 10
1561.5881474708
 20
-208.8473630371
 30
-76.0142236505
 11
1560.5881474708
 21
-209.7870556579
 31
-76.3562437938
  0
LINE
  5
246
100
AcDbEntity
  8
L1_120
  6
CONTINUOUS
 62
         1
100
AcDbLine
 10
1567.9303492211
 20
-204.8810319259
 30
-74.5705971868
 11
1566.2008425579
 21
-206.5062365749
 31
-75.1621233036
  0
LINE
  5
247
100
AcDbEntity
  8
L1_120
  6
CONTINUOUS
 62
         1
100
AcDbLine
 10
1565.4094678143
 20
-207.2498855817
 30
-75.4327894068
 11
1562.7094678143
 21
-209.7870556579
 31
-76.3562437938
  0
LINE
  5
248
100
AcDbEntity
  8
L1_120
  6
CONTINUOUS
 62
         1
100
AcDbLine
 10
1569.9008425579
 20
-205.0227629512
 30
-74.6221830613
 11
1564.8307881579
 21
-209.7870556579
 31
-76.3562437938
  0
LINE
  5
249
100
AcDbEntity
  8
L1_120
  6
CONTINUOUS
 62
         1
100
AcDbLine
 10
1569.9008425579
 20
-207.0161520244
 30
-75.3477173492
 11
1566.9521085015
 21
-209.7870556579
 31
-76.3562437938
  0
LINE
  5
24A
100
AcDbEntity
  8
L1_120
  6
CONTINUOUS
 62
         1
100
AcDbLine
 10
1569.3235789543
 20
-209.551991446
 30
-76.2706874176
 11
1569.073428845
 21
-209.7870556579
 31
-76.3562437938
  0
ENDBLK
  5
24B
100
AcDbEntity
  8
0
  6
CONTINUOUS
100
AcDbBlockEnd
  0
BLOCK
  5
24F
100
AcDbEntity
  8
0
100
AcDbBlockBegin
  2
*X1
 70
        65
 10
0.0
 20
0.0
 30
0.0
  3
*X1
  1

  0
LINE
  5
250
100
AcDbEntity
  8
L1_120
  6
CONTINUOUS
 62
         1
100
AcDbLine
 10
1554.4148660965
 20
-207.6144863186
 30
-75.5654932224
 11
1553.6028660965
 21
-208.3775167267
 31
-75.8432135788
  0
LINE
  5
251
100
AcDbEntity
  8
L1_120
  6
CONTINUOUS
 62
         1
100
AcDbLine
 10
1556.5361864401
 20
-207.6144863186
 30
-75.5654932224
 11
1555.7241864401
 21
-208.3775167267
 31
-75.8432135788
  0
LINE
  5
252
100
AcDbEntity
  8
L1_120
  6
CONTINUOUS
 62
         1
100
AcDbLine
 10
1558.6575067837
 20
-207.6144863186
 30
-75.5654932224
 11
1557.8455067837
 21
-208.3775167267
 31
-75.8432135788
  0
LINE
  5
253
100
AcDbEntity
  8
L1_120
  6
CONTINUOUS
 62
         1
100
AcDbLine
 10
1560.2838348425
 20
-208.0796269158
 30
-75.7347905546
 11
1559.9668271272
 21
-208.3775167267
 31
-75.8432135788
  0
ENDBLK
  5
254
100
AcDbEntity
  8
0
  6
CONTINUOUS
100
AcDbBlockEnd
  0
BLOCK
  5
258
100
AcDbEntity
  8
0
100
AcDbBlockBegin
  2
*X2
 70
        65
 10
0.0
 20
0.0
 30
0.0
  3
*X2
  1

  0
LINE
  5
259
100
AcDbEntity
  8
L1_120
  6
CONTINUOUS
 62
         1
100
AcDbLine
 10
1555.2683423174
 20
-184.885201207
 30
-67.2927099957
 11
1552.4438504548
 21
-187.5393553678
 31
-68.2587431073
  0
LINE
  5
25A
100
AcDbEntity
  8
L1_120
  6
CONTINUOUS
 62
         1
100
AcDbLine
 10
1557.3896626609
 20
-184.885201207
 30
-67.2927099957
 11
1554.3896626609
 21
-187.7042790694
 31
-68.3187704257
  0
LINE
  5
25B
100
AcDbEntity
  8
L1_120
  6
CONTINUOUS
 62
         1
100
AcDbLine
 10
1558.2254272932
 20
-186.0932284225
 30
-67.7323959443
 11
1556.5109830045
 21
-187.7042790694
 31
-68.3187704257
  0
LINE
  5
25C
100
AcDbEntity
  8
L1_120
  6
CONTINUOUS
 62
         1
100
AcDbLine
 10
1560.1323033481
 20
-186.2947401382
 30
-67.8057402107
 11
1558.6323033481
 21
-187.7042790694
 31
-68.3187704257
  0
LINE
  5
25D
100
AcDbEntity
  8
L1_120
  6
CONTINUOUS
 62
         1
100
AcDbLine
 10
1562.2536236916
 20
-186.2947401382
 30
-67.8057402107
 11
1561.2536236916
 21
-187.234432759
 31
-68.147760354
  0
LINE
  5
25E
100
AcDbEntity
  8
L1_120
  6
CONTINUOUS
 62
         1
100
AcDbLine
 10
1564.3749440352
 20
-186.2947401382
 30
-67.8057402107
 11
1563.3447440473
 21
-187.2628114648
 31
-68.1580893582
  0
LINE
  5
25F
100
AcDbEntity
  8
L1_120
  6
CONTINUOUS
 62
         1
100
AcDbLine
 10
1566.4962643787
 20
-186.2947401382
 30
-67.8057402107
 11
1564.1008425579
 21
-188.5457003469
 31
-68.6250227252
  0
LINE
  5
260
100
AcDbEntity
  8
L1_120
  6
CONTINUOUS
 62
         1
100
AcDbLine
 10
1568.6175847223
 20
-186.2947401382
 30
-67.8057402107
 11
1565.9175847223
 21
-188.8319102143
 31
-68.7291945976
  0
LINE
  5
261
100
AcDbEntity
  8
L1_120
  6
CONTINUOUS
 62
         1
100
AcDbLine
 10
1569.7475569815
 20
-187.2263026177
 30
-68.1448012246
 11
1566.400996097
 21
-190.3710411859
 31
-69.2893924579
  0
LINE
  5
262
100
AcDbEntity
  8
L1_120
  6
CONTINUOUS
 62
         1
100
AcDbLine
 10
1569.9008425579
 20
-189.0756503659
 30
-68.8179087577
 11
1568.4985393726
 21
-190.3933843212
 31
-69.2975246941
  0
ENDBLK
  5
263
100
AcDbEntity
  8
0
  6
CONTINUOUS
100
AcDbBlockEnd
  0
BLOCK
  5
267
100
AcDbEntity
  8
0
100
AcDbBlockBegin
  2
*X3
 70
        65
 10
0.0
 20
0.0
 30
0.0
  3
*X3
  1

  0
LINE
  5
268
100
AcDbEntity
  8
L1_120
  6
CONTINUOUS
 62
         1
100
AcDbLine
 10
1554.3896626609
 20
-187.7042790694
 30
-68.3187704257
 11
1553.5776626609
 21
-188.4673094775
 31
-68.596490782
  0
LINE
  5
269
100
AcDbEntity
  8
L1_120
  6
CONTINUOUS
 62
         1
100
AcDbLine
 10
1556.5109830045
 20
-187.7042790694
 30
-68.3187704257
 11
1555.6989830045
 21
-188.4673094775
 31
-68.596490782
  0
LINE
  5
26A
100
AcDbEntity
  8
L1_120
  6
CONTINUOUS
 62
         1
100
AcDbLine
 10
1558.6323033481
 20
-187.7042790694
 30
-68.3187704257
 11
1557.8203033481
 21
-188.4673094775
 31
-68.596490782
  0
ENDBLK
  5
26B
100
AcDbEntity
  8
0
  6
CONTINUOUS
100
AcDbBlockEnd
  0
BLOCK
  5
26F
100
AcDbEntity
  8
0
100
AcDbBlockBegin
  2
*X4
 70
        65
 10
0.0
 20
0.0
 30
0.0
  3
*X4
  1

  0
LINE
  5
270
100
AcDbEntity
  8
L1_120
  6
CONTINUOUS
 62
         1
100
AcDbLine
 10
1568.4985393726
 20
-190.3933843212
 30
-69.2975246941
 11
1567.7458593052
 21
-191.1006722263
 31
-69.5549564386
  0
LINE
  5
271
100
AcDbEntity
  8
L1_120
  6
CONTINUOUS
 62
         1
100
AcDbLine
 10
1569.9008425579
 20
-191.069039439
 30
-69.5434430456
 11
1569.0907225135
 21
-191.8303032667
 31
-69.8205204193
  0
ENDBLK
  5
272
100
AcDbEntity
  8
0
  6
CONTINUOUS
100
AcDbBlockEnd
  0
BLOCK
  5
2A2
100
AcDbEntity
  8
0
100
AcDbBlockBegin
  2
*D5
 70
        65
 10
0.0
 20
0.0
 30
0.0
  3
*D5
  1

  0
POINT
  5
2A5
100
AcDbEntity
  8
DEFPOINTS
  6
CONTINUOUS
 62
         0
100
AcDbPoint
 10
1584.6898645178
 20
-184.885201207
 30
-67.2927099957
  0
POINT
  5
2A6
100
AcDbEntity
  8
DEFPOINTS
  6
CONTINUOUS
 62
         0
100
AcDbPoint
 10
1538.9623410046
 20
-184.885201207
 30
-67.2927099957
  0
POINT
  5
2A7
100
AcDbEntity
  8
DEFPOINTS
  6
CONTINUOUS
 62
         0
100
AcDbPoint
 10
1538.9623410046
 20
-211.196594589
 30
-76.8692740088
  0
LINE
  5
2A8
100
AcDbEntity
  8
L1_120
  6
CONTINUOUS
 62
         4
100
AcDbLine
 10
1540.7123410046
 20
-184.885201207
 30
-67.2927099957
 11
1585.5648645178
 21
-184.885201207
 31
-67.2927099957
  0
LINE
  5
2A9
100
AcDbEntity
  8
L1_120
  6
CONTINUOUS
 62
         4
100
AcDbLine
 10
1540.7123410046
 20
-211.196594589
 30
-76.8692740088
 11
1585.5648645178
 21
-211.196594589
 31
-76.8692740088
  0
LINE
  5
2AA
100
AcDbEntity
  8
L1_120
  6
CONTINUOUS
 62
         4
100
AcDbLine
 10
1584.6898645178
 20
-184.885201207
 30
-67.2927099957
 11
1584.6898645178
 21
-211.196594589
 31
-76.8692740088
  0
SOLID
  5
2AB
100
AcDbEntity
  8
L1_120
  6
CONTINUOUS
 62
         4
100
AcDbTrace
 10
1584.6898645178
 20
-184.885201207
 30
-67.2927099957
 11
1585.2148645178
 21
-188.1741253798
 31
-68.4897804973
 12
1584.1648645178
 22
-188.1741253798
 32
-68.4897804973
 13
1584.6898645178
 23
-184.885201207
 33
-67.2927099957
  0
SOLID
  5
2AC
100
AcDbEntity
  8
L1_120
  6
CONTINUOUS
 62
         4
100
AcDbTrace
 10
1584.6898645178
 20
-211.196594589
 30
-76.8692740088
 11
1584.1648645178
 21
-207.9076704163
 31
-75.6722035072
 12
1585.2148645178
 22
-207.9076704163
 32
-75.6722035072
 13
1584.6898645178
 23
-211.196594589
 33
-76.8692740088
  0
TEXT
  5
2AE
100
AcDbEntity
  8
L1_120
  6
CONTINUOUS
 62
         4
100
AcDbText
 10
1582.0648645178
 20
-221.8684755338
 30
0.0
 40
3.5
  1
ØÙ28
 50
90.0
  7
BOX
210
0.0
220
-0.3420201433256687
230
0.9396926207859084
100
AcDbText
  0
ENDBLK
  5
2AF
100
AcDbEntity
  8
0
  6
CONTINUOUS
100
AcDbBlockEnd
  0
BLOCK
  5
2C9
100
AcDbEntity
  8
0
100
AcDbBlockBegin
  2
*D6
 70
        65
 10
0.0
 20
0.0
 30
0.0
  3
*D6
  1

  0
POINT
  5
2CB
100
AcDbEntity
  8
DEFPOINTS
  6
CONTINUOUS
 62
         0
100
AcDbPoint
 10
1543.3008425579
 20
-184.885201207
 30
-67.2927099957
  0
POINT
  5
2CC
100
AcDbEntity
  8
DEFPOINTS
  6
CONTINUOUS
 62
         0
100
AcDbPoint
 10
1509.737451987
 20
-184.885201207
 30
-67.2927099957
  0
POINT
  5
2CD
100
AcDbEntity
  8
DEFPOINTS
  6
CONTINUOUS
 62
         0
100
AcDbPoint
 10
1508.8658945595
 20
-184.8494430658
 30
-67.2796950966
  0
POINT
  5
2CE
100
AcDbEntity
  8
DEFPOINTS
  6
CONTINUOUS
 62
         0
100
AcDbPoint
 10
1457.1170638441
 20
-180.5950448295
 30
-65.7312207739
  0
LINE
  5
2CF
100
AcDbEntity
  8
L1_120
  6
CONTINUOUS
 62
         4
100
AcDbLine
 10
1507.987451987
 20
-184.885201207
 30
-67.2927099957
 11
1476.5872787791
 21
-184.885201207
 31
-67.2927099957
  0
ARC
  5
2D0
100
AcDbEntity
  8
L1_120
  6
CONTINUOUS
 62
         4
100
AcDbCircle
 10
1509.3008425579
 20
-196.7507215842
 30
0.0
 40
31.8385637787
210
0.0
220
-0.3420201433256687
230
0.9396926207859084
100
AcDbArc
 50
169.441073558
 51
175.0
  0
SOLID
  5
2D1
100
AcDbEntity
  8
L1_120
  6
CONTINUOUS
 62
         4
100
AcDbTrace
 10
1477.5834341266
 20
-182.2776353041
 30
-66.3436336231
 11
1477.5597702112
 21
-178.9519908946
 31
-65.1331980483
 12
1478.5991716137
 22
-179.0918275268
 32
-65.1840944201
 13
1477.5834341266
 23
-182.2776353041
 33
-66.3436336231
  0
ARC
  5
2D2
100
AcDbEntity
  8
L1_120
  6
CONTINUOUS
 62
         4
100
AcDbCircle
 10
1509.3008425579
 20
-196.7507215842
 30
0.0
 40
31.8385637787
210
0.0
220
-0.3420201433256687
230
0.9396926207859084
100
AcDbArc
 50
180.0
 51
192.5970021568
  0
SOLID
  5
2D3
100
AcDbEntity
  8
L1_120
  6
CONTINUOUS
 62
         4
100
AcDbTrace
 10
1477.4622787791
 20
-184.885201207
 30
-67.2927099957
 11
1478.1786699424
 21
-188.1420745263
 31
-68.4781149407
 12
1477.1302540396
 22
-188.1962524701
 32
-68.4978340996
 13
1477.4622787791
 23
-184.885201207
 33
-67.2927099957
  0
ARC
  5
2D4
100
AcDbEntity
  8
L1_120
  6
CONTINUOUS
 62
         4
100
AcDbCircle
 10
1509.3008425579
 20
-196.7507215842
 30
0.0
 40
31.8385637787
210
0.0
220
-0.3420201433256687
230
0.9396926207859084
100
AcDbArc
 50
175.0
 51
180.0
  0
SOLID
  5
2D5
100
AcDbEntity
  8
L1_120
  6
CONTINUOUS
 62
         4
100
AcDbTrace
 10
1509.3008425579
 20
-184.885201207
 30
-67.2927099957
 11
1510.6927451684
 21
-181.8274824084
 31
-66.1797913682
 12
1511.5861938691
 22
-182.3458056646
 32
-66.3684456052
 13
1509.3008425579
 23
-184.885201207
 33
-67.2927099957
  0
TEXT
  5
2D7
100
AcDbEntity
  8
L1_120
  6
CONTINUOUS
 62
         4
100
AcDbText
 10
1469.2514022761
 20
-189.1664108674
 30
0.0
 40
3.5
  1
5%%d
  7
BOX
210
0.0
220
-0.3420201433256687
230
0.9396926207859084
100
AcDbText
  0
ENDBLK
  5
2D8
100
AcDbEntity
  8
0
  6
CONTINUOUS
100
AcDbBlockEnd
  0
BLOCK
  5
2E1
100
AcDbEntity
  8
0
100
AcDbBlockBegin
  2
*D7
 70
        65
 10
0.0
 20
0.0
 30
0.0
  3
*D7
  1

  0
POINT
  5
2E3
100
AcDbEntity
  8
DEFPOINTS
  6
CONTINUOUS
 62
         0
100
AcDbPoint
 10
1594.6989244347
 20
-180.2198090083
 30
-65.5946461042
  0
POINT
  5
2E4
100
AcDbEntity
  8
DEFPOINTS
  6
CONTINUOUS
 62
         0
100
AcDbPoint
 10
1452.5528425579
 20
-180.2198090083
 30
-65.5946461042
  0
POINT
  5
2E5
100
AcDbEntity
  8
DEFPOINTS
  6
CONTINUOUS
 62
         0
100
AcDbPoint
 10
1452.5528425579
 20
-215.8619867878
 30
-78.5673379003
  0
LINE
  5
2E6
100
AcDbEntity
  8
L1_120
  6
CONTINUOUS
 62
         4
100
AcDbLine
 10
1454.3028425579
 20
-180.2198090083
 30
-65.5946461042
 11
1595.5739244347
 21
-180.2198090083
 31
-65.5946461042
  0
LINE
  5
2E7
100
AcDbEntity
  8
L1_120
  6
CONTINUOUS
 62
         4
100
AcDbLine
 10
1454.3028425579
 20
-215.8619867878
 30
-78.5673379003
 11
1595.5739244347
 21
-215.8619867878
 31
-78.5673379003
  0
LINE
  5
2E8
100
AcDbEntity
  8
L1_120
  6
CONTINUOUS
 62
         4
100
AcDbLine
 10
1594.6989244347
 20
-180.2198090083
 30
-65.5946461042
 11
1594.6989244347
 21
-215.8619867878
 31
-78.5673379003
  0
SOLID
  5
2E9
100
AcDbEntity
  8
L1_120
  6
CONTINUOUS
 62
         4
100
AcDbTrace
 10
1594.6989244347
 20
-180.2198090083
 30
-65.5946461042
 11
1595.2239244347
 21
-183.508733181
 31
-66.7917166058
 12
1594.1739244347
 22
-183.508733181
 32
-66.7917166058
 13
1594.6989244347
 23
-180.2198090083
 33
-65.5946461042
  0
SOLID
  5
2EA
100
AcDbEntity
  8
L1_120
  6
CONTINUOUS
 62
         4
100
AcDbTrace
 10
1594.6989244347
 20
-215.8619867878
 30
-78.5673379003
 11
1594.1739244347
 21
-212.573062615
 31
-77.3702673987
 12
1595.2239244347
 22
-212.573062615
 32
-77.3702673987
 13
1594.6989244347
 23
-215.8619867878
 33
-78.5673379003
  0
TEXT
  5
2EC
100
AcDbEntity
  8
L1_120
  6
CONTINUOUS
 62
         4
100
AcDbText
 10
1590.6389244347
 20
-225.0423882509
 30
0.0
 40
3.5
  1
ØÙ37.939
 50
90.0
  7
BOX
210
0.0
220
-0.3420201433256687
230
0.9396926207859084
100
AcDbText
  0
ENDBLK
  5
2ED
100
AcDbEntity
  8
0
  6
CONTINUOUS
100
AcDbBlockEnd
  0
BLOCK
  5
339
100
AcDbEntity
  8
0
100
AcDbBlockBegin
  2
*D8
 70
        65
 10
0.0
 20
0.0
 30
0.0
  3
*D8
  1

  0
POINT
  5
33B
100
AcDbEntity
  8
DEFPOINTS
  6
CONTINUOUS
 62
         0
100
AcDbPoint
 10
1469.4508425579
 20
-350.3716803877
 30
-127.524862591
  0
POINT
  5
33C
100
AcDbEntity
  8
DEFPOINTS
  6
CONTINUOUS
 62
         0
100
AcDbPoint
 10
1469.4508425579
 20
-316.6994908154
 30
-115.2691878641
  0
POINT
  5
33D
100
AcDbEntity
  8
DEFPOINTS
  6
CONTINUOUS
 62
         0
100
AcDbPoint
 10
1559.4508425579
 20
-322.1027233849
 30
-117.2358036882
  0
LINE
  5
33E
100
AcDbEntity
  8
L1_120
  6
CONTINUOUS
 62
         4
100
AcDbLine
 10
1469.4508425579
 20
-318.3439529017
 30
-115.8677231149
 11
1469.4508425579
 21
-351.1939114309
 31
-127.8241302164
  0
LINE
  5
33F
100
AcDbEntity
  8
L1_120
  6
CONTINUOUS
 62
         4
100
AcDbLine
 10
1559.4508425579
 20
-323.7471854713
 30
-117.834338939
 11
1559.4508425579
 21
-351.1939114309
 31
-127.8241302164
  0
LINE
  5
340
100
AcDbEntity
  8
L1_120
  6
CONTINUOUS
 62
         4
100
AcDbLine
 10
1469.4508425579
 20
-350.3716803877
 30
-127.524862591
 11
1559.4508425579
 21
-350.3716803877
 31
-127.524862591
  0
SOLID
  5
341
100
AcDbEntity
  8
L1_120
  6
CONTINUOUS
 62
         4
100
AcDbTrace
 10
1469.4508425579
 20
-350.3716803877
 30
-127.524862591
 11
1472.9508425579
 21
-349.8783417618
 31
-127.3453020157
 12
1472.9508425579
 22
-350.8650190136
 32
-127.7044231662
 13
1469.4508425579
 23
-350.3716803877
 33
-127.524862591
  0
SOLID
  5
342
100
AcDbEntity
  8
L1_120
  6
CONTINUOUS
 62
         4
100
AcDbTrace
 10
1559.4508425579
 20
-350.3716803877
 30
-127.524862591
 11
1555.9508425579
 21
-350.8650190136
 31
-127.7044231662
 12
1555.9508425579
 22
-349.8783417618
 32
-127.3453020157
 13
1559.4508425579
 23
-350.3716803877
 33
-127.524862591
  0
TEXT
  5
344
100
AcDbEntity
  8
L1_120
  6
CONTINUOUS
 62
         4
100
AcDbText
 10
1513.6115627658
 20
-370.2327543736
 30
0.0
 40
3.5
  1
90
  7
BOX
210
0.0
220
-0.3420201433256687
230
0.9396926207859084
100
AcDbText
  0
ENDBLK
  5
345
100
AcDbEntity
  8
0
  6
CONTINUOUS
100
AcDbBlockEnd
  0
BLOCK
  5
37A
100
AcDbEntity
  8
0
100
AcDbBlockBegin
  2
*X9
 70
        65
 10
0.0
 20
0.0
 30
0.0
  3
*X9
  1

  0
LINE
  5
37B
100
AcDbEntity
  8
L1_120
  6
CONTINUOUS
 62
         4
100
AcDbLine
 10
1556.697511888
 20
-323.0424160057
 30
-117.5778238315
 11
1559.2093630993
 21
-320.682047958
 31
-116.7187201202
  0
LINE
  5
37C
100
AcDbEntity
  8
L1_120
  6
CONTINUOUS
 62
         4
100
AcDbLine
 10
1552.4548712009
 20
-323.0424160057
 30
-117.5778238315
 11
1555.9469298785
 21
-319.760954235
 31
-116.3834694221
  0
LINE
  5
37D
100
AcDbEntity
  8
L1_120
  6
CONTINUOUS
 62
         4
100
AcDbLine
 10
1548.2122305138
 20
-323.0424160057
 30
-117.5778238315
 11
1552.2270799985
 21
-319.2696915714
 31
-116.2046644353
  0
LINE
  5
37E
100
AcDbEntity
  8
L1_120
  6
CONTINUOUS
 62
         4
100
AcDbLine
 10
1540.9695898267
 20
-325.861493868
 30
-118.6038842615
 11
1548.5072301185
 21
-318.7784289077
 31
-116.0258594486
  0
LINE
  5
37F
100
AcDbEntity
  8
L1_120
  6
CONTINUOUS
 62
         4
100
AcDbLine
 10
1536.7269491396
 20
-325.861493868
 30
-118.6038842615
 11
1544.7873802384
 21
-318.2871662441
 31
-115.8470544618
  0
LINE
  5
380
100
AcDbEntity
  8
L1_120
  6
CONTINUOUS
 62
         4
100
AcDbLine
 10
1558.7837794807
 20
-305.1348531586
 30
-111.0600039869
 11
1559.1983264586
 21
-304.7453064224
 31
-110.9182205701
  0
LINE
  5
381
100
AcDbEntity
  8
L1_120
  6
CONTINUOUS
 62
         4
100
AcDbLine
 10
1532.4843084525
 20
-325.861493868
 30
-118.6038842615
 11
1540.8793084524
 21
-317.9727743165
 31
-115.7326251583
  0
LINE
  5
382
100
AcDbEntity
  8
L1_120
  6
CONTINUOUS
 62
         4
100
AcDbLine
 10
1553.672615772
 20
-305.9509978329
 30
-111.3570563552
 11
1557.4843084525
 21
-302.3691783484
 31
-110.0533806783
  0
LINE
  5
383
100
AcDbEntity
  8
L1_120
  6
CONTINUOUS
 62
         4
100
AcDbLine
 10
1528.2416677653
 20
-325.861493868
 30
-118.6038842615
 11
1537.1666677653
 21
-317.4747372275
 31
-115.5513544823
  0
LINE
  5
384
100
AcDbEntity
  8
L1_120
  6
CONTINUOUS
 62
         4
100
AcDbLine
 10
1548.7362082515
 20
-306.6029254068
 30
-111.594338587
 11
1553.2416677653
 21
-302.3691783484
 31
-110.0533806783
  0
LINE
  5
385
100
AcDbEntity
  8
L1_120
  6
CONTINUOUS
 62
         4
100
AcDbLine
 10
1523.9990270782
 20
-325.861493868
 30
-118.6038842615
 11
1532.9240270782
 21
-317.4747372275
 31
-115.5513544823
  0
LINE
  5
386
100
AcDbEntity
  8
L1_120
  6
CONTINUOUS
 62
         4
100
AcDbLine
 10
1543.799800731
 20
-307.2548529806
 30
-111.8316208188
 11
1548.9990270782
 21
-302.3691783484
 31
-110.0533806783
  0
LINE
  5
387
100
AcDbEntity
  8
L1_120
  6
CONTINUOUS
 62
         4
100
AcDbLine
 10
1519.7563863911
 20
-325.861493868
 30
-118.6038842615
 11
1528.6813863911
 21
-317.4747372275
 31
-115.5513544823
  0
LINE
  5
388
100
AcDbEntity
  8
L1_120
  6
CONTINUOUS
 62
         4
100
AcDbLine
 10
1539.3613863911
 20
-307.4388200375
 30
-111.8985793516
 11
1544.7563863911
 21
-302.3691783484
 31
-110.0533806783
  0
LINE
  5
389
100
AcDbEntity
  8
L1_120
  6
CONTINUOUS
 62
         4
100
AcDbLine
 10
1515.513745704
 20
-325.861493868
 30
-118.6038842615
 11
1524.438745704
 21
-317.4747372275
 31
-115.5513544823
  0
LINE
  5
38A
100
AcDbEntity
  8
L1_120
  6
CONTINUOUS
 62
         4
100
AcDbLine
 10
1534.588745704
 20
-307.9368571265
 30
-112.0798500275
 11
1543.4822941309
 21
-299.5796552971
 31
-109.0380773199
  0
LINE
  5
38B
100
AcDbEntity
  8
L1_120
  6
CONTINUOUS
 62
         4
100
AcDbLine
 10
1511.2711050169
 20
-325.861493868
 30
-118.6038842615
 11
1520.1961050169
 21
-317.4747372275
 31
-115.5513544823
  0
LINE
  5
38C
100
AcDbEntity
  8
L1_120
  6
CONTINUOUS
 62
         4
100
AcDbLine
 10
1530.3461050169
 20
-307.9368571265
 30
-112.0798500275
 11
1539.2711050169
 21
-299.550100486
 31
-109.0273202484
  0
LINE
  5
38D
100
AcDbEntity
  8
L1_120
  6
CONTINUOUS
 62
         4
100
AcDbLine
 10
1506.7962144658
 20
-326.0797373514
 30
-118.6833183932
 11
1515.9534643297
 21
-317.4747372275
 31
-115.5513544823
  0
LINE
  5
38E
100
AcDbEntity
  8
L1_120
  6
CONTINUOUS
 62
         4
100
AcDbLine
 10
1526.1034643297
 20
-307.9368571265
 30
-112.0798500275
 11
1535.0284643297
 21
-299.550100486
 31
-109.0273202484
  0
LINE
  5
38F
100
AcDbEntity
  8
L1_120
  6
CONTINUOUS
 62
         4
100
AcDbLine
 10
1502.1468029818
 20
-326.4619768676
 30
-118.8224421995
 11
1511.7108236426
 21
-317.4747372275
 31
-115.5513544823
  0
LINE
  5
390
100
AcDbEntity
  8
L1_120
  6
CONTINUOUS
 62
         4
100
AcDbLine
 10
1521.8608236426
 20
-307.9368571265
 30
-112.0798500275
 11
1530.7858236426
 21
-299.550100486
 31
-109.0273202484
  0
LINE
  5
391
100
AcDbEntity
  8
L1_120
  6
CONTINUOUS
 62
         4
100
AcDbLine
 10
1497.4973914977
 20
-326.8442163838
 30
-118.9615660058
 11
1507.4681829555
 21
-317.4747372275
 31
-115.5513544823
  0
LINE
  5
392
100
AcDbEntity
  8
L1_120
  6
CONTINUOUS
 62
         4
100
AcDbLine
 10
1517.6181829555
 20
-307.9368571265
 30
-112.0798500275
 11
1526.5431829555
 21
-299.550100486
 31
-109.0273202484
  0
LINE
  5
393
100
AcDbEntity
  8
L1_120
  6
CONTINUOUS
 62
         4
100
AcDbLine
 10
1492.8479800137
 20
-327.2264559
 30
-119.100689812
 11
1503.2255422684
 21
-317.4747372275
 31
-115.5513544823
  0
LINE
  5
394
100
AcDbEntity
  8
L1_120
  6
CONTINUOUS
 62
         4
100
AcDbLine
 10
1513.3755422684
 20
-307.9368571265
 30
-112.0798500275
 11
1522.3005422684
 21
-299.550100486
 31
-109.0273202484
  0
LINE
  5
395
100
AcDbEntity
  8
L1_120
  6
CONTINUOUS
 62
         4
100
AcDbLine
 10
1488.1985685296
 20
-327.6086954162
 30
-119.2398136183
 11
1498.9829015813
 21
-317.4747372275
 31
-115.5513544823
  0
LINE
  5
396
100
AcDbEntity
  8
L1_120
  6
CONTINUOUS
 62
         4
100
AcDbLine
 10
1509.1329015813
 20
-307.9368571265
 30
-112.0798500275
 11
1518.0579015813
 21
-299.550100486
 31
-109.0273202484
  0
LINE
  5
397
100
AcDbEntity
  8
L1_120
  6
CONTINUOUS
 62
         4
100
AcDbLine
 10
1483.5491570456
 20
-327.9909349324
 30
-119.3789374246
 11
1494.7402608941
 21
-317.4747372275
 31
-115.5513544823
  0
LINE
  5
398
100
AcDbEntity
  8
L1_120
  6
CONTINUOUS
 62
         4
100
AcDbLine
 10
1504.8902608941
 20
-307.9368571265
 30
-112.0798500275
 11
1513.8152608941
 21
-299.550100486
 31
-109.0273202484
  0
LINE
  5
399
100
AcDbEntity
  8
L1_120
  6
CONTINUOUS
 62
         4
100
AcDbLine
 10
1478.8997455616
 20
-328.3731744487
 30
-119.5180612308
 11
1490.497620207
 21
-317.4747372275
 31
-115.5513544823
  0
LINE
  5
39A
100
AcDbEntity
  8
L1_120
  6
CONTINUOUS
 62
         4
100
AcDbLine
 10
1500.647620207
 20
-307.9368571265
 30
-112.0798500275
 11
1509.5774271329
 21
-299.5455834533
 31
-109.0256761829
  0
LINE
  5
39B
100
AcDbEntity
  8
L1_120
  6
CONTINUOUS
 62
         4
100
AcDbLine
 10
1474.2503340775
 20
-328.7554139649
 30
-119.6571850371
 11
1486.2549795199
 21
-317.4747372275
 31
-115.5513544823
  0
LINE
  5
39C
100
AcDbEntity
  8
L1_120
  6
CONTINUOUS
 62
         4
100
AcDbLine
 10
1496.4049795199
 20
-307.9368571265
 30
-112.0798500275
 11
1505.6615037112
 21
-299.2385696498
 31
-108.9139322969
  0
LINE
  5
39D
100
AcDbEntity
  8
L1_120
  6
CONTINUOUS
 62
         4
100
AcDbLine
 10
1469.6009225935
 20
-329.1376534811
 30
-119.7963088433
 11
1482.0123388328
 21
-317.4747372275
 31
-115.5513544823
  0
LINE
  5
39E
100
AcDbEntity
  8
L1_120
  6
CONTINUOUS
 62
         4
100
AcDbLine
 10
1492.1623388328
 20
-307.9368571265
 30
-112.0798500275
 11
1501.7601842498
 21
-298.9178326127
 31
-108.7971935624
  0
LINE
  5
39F
100
AcDbEntity
  8
L1_120
  6
CONTINUOUS
 62
         4
100
AcDbLine
 10
1434.0946981457
 20
-358.5158124403
 30
-130.489084242
 11
1436.7508425579
 21
-356.0198531365
 31
-129.5806293495
  0
LINE
  5
3A0
100
AcDbEntity
  8
L1_120
  6
CONTINUOUS
 62
         4
100
AcDbLine
 10
1447.9196981457
 20
-345.524561958
 30
-125.7606557606
 11
1452.5528425579
 21
-341.1708303428
 31
-124.1760270447
  0
LINE
  5
3A1
100
AcDbEntity
  8
L1_120
  6
CONTINUOUS
 62
         4
100
AcDbLine
 10
1464.9515111094
 20
-329.5198929973
 30
-119.9354326496
 11
1477.7696981457
 21
-317.4747372275
 31
-115.5513544823
  0
LINE
  5
3A2
100
AcDbEntity
  8
L1_120
  6
CONTINUOUS
 62
         4
100
AcDbLine
 10
1487.9196981457
 20
-307.9368571265
 30
-112.0798500275
 11
1497.8588647883
 21
-298.5970955757
 31
-108.6804548279
  0
LINE
  5
3A3
100
AcDbEntity
  8
L1_120
  6
CONTINUOUS
 62
         4
100
AcDbLine
 10
1431.3958207847
 20
-357.0651494345
 30
-129.961086088
 11
1436.7508425579
 21
-352.0330749901
 31
-128.1295607736
  0
LINE
  5
3A4
100
AcDbEntity
  8
L1_120
  6
CONTINUOUS
 62
         4
100
AcDbLine
 10
1443.6770574585
 20
-345.524561958
 30
-125.7606557606
 11
1452.5528425579
 21
-337.1840521965
 31
-122.7249584688
  0
LINE
  5
3A5
100
AcDbEntity
  8
L1_120
  6
CONTINUOUS
 62
         4
100
AcDbLine
 10
1460.3020996254
 20
-329.9021325135
 30
-120.0745564559
 11
1473.5270574585
 21
-317.4747372275
 31
-115.5513544823
  0
LINE
  5
3A6
100
AcDbEntity
  8
L1_120
  6
CONTINUOUS
 62
         4
100
AcDbLine
 10
1483.6770574585
 20
-307.9368571265
 30
-112.0798500275
 11
1493.9575453269
 21
-298.2763585386
 31
-108.5637160934
  0
LINE
  5
3A7
100
AcDbEntity
  8
L1_120
  6
CONTINUOUS
 62
         4
100
AcDbLine
 10
1428.7344167714
 20
-355.5792730004
 30
-129.4202712942
 11
1436.7508425579
 21
-348.0462968438
 31
-126.6784921977
  0
LINE
  5
3A8
100
AcDbEntity
  8
L1_120
  6
CONTINUOUS
 62
         4
100
AcDbLine
 10
1439.4344167714
 20
-345.524561958
 30
-125.7606557606
 11
1453.1279053086
 21
-332.6568918268
 31
-121.0772068485
  0
LINE
  5
3A9
100
AcDbEntity
  8
L1_120
  6
CONTINUOUS
 62
         4
100
AcDbLine
 10
1455.2247681733
 20
-330.686485266
 30
-120.3600375109
 11
1463.963075308
 21
-322.4751625334
 31
-117.3713604523
  0
LINE
  5
3AA
100
AcDbEntity
  8
L1_120
  6
CONTINUOUS
 62
         4
100
AcDbLine
 10
1479.4344167714
 20
-307.9368571265
 30
-112.0798500275
 11
1490.0562258654
 21
-297.9556215015
 31
-108.4469773588
  0
LINE
  5
3AB
100
AcDbEntity
  8
L1_120
  6
CONTINUOUS
 62
         4
100
AcDbLine
 10
1421.3667760843
 20
-358.5158124403
 30
-130.4890842421
 11
1459.7204346209
 21
-322.4751625334
 31
-117.3713604523
  0
LINE
  5
3AC
100
AcDbEntity
  8
L1_120
  6
CONTINUOUS
 62
         4
100
AcDbLine
 10
1475.1917760843
 20
-307.9368571265
 30
-112.0798500275
 11
1486.154906404
 21
-297.6348844644
 31
-108.3302386243
  0
LINE
  5
3AD
100
AcDbEntity
  8
L1_120
  6
CONTINUOUS
 62
         4
100
AcDbLine
 10
1420.8508425579
 20
-355.0138532216
 30
-129.2144753248
 11
1455.4777939338
 21
-322.4751625334
 31
-117.3713604523
  0
LINE
  5
3AE
100
AcDbEntity
  8
L1_120
  6
CONTINUOUS
 62
         4
100
AcDbLine
 10
1470.9491353972
 20
-307.9368571265
 30
-112.0798500275
 11
1482.2535869425
 21
-297.3141474273
 31
-108.2134998898
  0
LINE
  5
3AF
100
AcDbEntity
  8
L1_120
  6
CONTINUOUS
 62
         4
100
AcDbLine
 10
1420.8508425579
 20
-351.0270750753
 30
-127.7634067489
 11
1451.2351532466
 21
-322.4751625334
 31
-117.3713604523
  0
LINE
  5
3B0
100
AcDbEntity
  8
L1_120
  6
CONTINUOUS
 62
         4
100
AcDbLine
 10
1468.4463415288
 20
-306.3019359097
 30
-111.4847873693
 11
1478.3522674811
 21
-296.9934103903
 31
-108.0967611553
  0
LINE
  5
3B1
100
AcDbEntity
  8
L1_120
  6
CONTINUOUS
 62
         4
100
AcDbLine
 10
1420.8508425579
 20
-347.040296929
 30
-126.312338173
 11
1446.9925125595
 21
-322.4751625334
 31
-117.3713604523
  0
LINE
  5
3B2
100
AcDbEntity
  8
L1_120
  6
CONTINUOUS
 62
         4
100
AcDbLine
 10
1466.8934272581
 20
-303.7744198442
 30
-110.5648467548
 11
1474.4509480196
 21
-296.6726733532
 31
-107.9800224207
  0
LINE
  5
3B3
100
AcDbEntity
  8
L1_120
  6
CONTINUOUS
 62
         4
100
AcDbLine
 10
1418.1486200949
 20
-345.5927772908
 30
-125.7854841112
 11
1442.7498718724
 21
-322.4751625334
 31
-117.3713604523
  0
LINE
  5
3B4
100
AcDbEntity
  8
L1_120
  6
CONTINUOUS
 62
         4
100
AcDbLine
 10
1463.5425547992
 20
-302.9364318207
 30
-110.2598440575
 11
1470.5496285582
 21
-296.3519363161
 31
-107.8632836862
  0
LINE
  5
3B5
100
AcDbEntity
  8
L1_120
  6
CONTINUOUS
 62
         4
100
AcDbLine
 10
1414.4459562957
 20
-345.0853649939
 30
-125.6008011387
 11
1438.5072311853
 21
-322.4751625334
 31
-117.3713604523
  0
LINE
  5
3B6
100
AcDbEntity
  8
L1_120
  6
CONTINUOUS
 62
         4
100
AcDbLine
 10
1459.2999141121
 20
-302.9364318207
 30
-110.2598440575
 11
1466.6483090967
 21
-296.031199279
 31
-107.7465449517
  0
LINE
  5
3B7
100
AcDbEntity
  8
L1_120
  6
CONTINUOUS
 62
         4
100
AcDbLine
 10
1410.7432924964
 20
-344.5779526969
 30
-125.4161181661
 11
1434.2645904982
 21
-322.4751625334
 31
-117.3713604523
  0
LINE
  5
3B8
100
AcDbEntity
  8
L1_120
  6
CONTINUOUS
 62
         4
100
AcDbLine
 10
1455.057273425
 20
-302.9364318207
 30
-110.2598440575
 11
1462.7469896353
 21
-295.7104622419
 31
-107.6298062172
  0
LINE
  5
3B9
100
AcDbEntity
  8
L1_120
  6
CONTINUOUS
 62
         4
100
AcDbLine
 10
1407.0406286972
 20
-344.0705404
 30
-125.2314351935
 11
1430.0219498111
 21
-322.4751625334
 31
-117.3713604523
  0
LINE
  5
3BA
100
AcDbEntity
  8
L1_120
  6
CONTINUOUS
 62
         4
100
AcDbLine
 10
1450.8146327379
 20
-302.9364318207
 30
-110.2598440575
 11
1458.8456701738
 21
-295.3897252049
 31
-107.5130674826
  0
LINE
  5
3BB
100
AcDbEntity
  8
L1_120
  6
CONTINUOUS
 62
         4
100
AcDbLine
 10
1403.337964898
 20
-343.563128103
 30
-125.0467522209
 11
1425.7793091239
 21
-322.4751625334
 31
-117.3713604523
  0
LINE
  5
3BC
100
AcDbEntity
  8
L1_120
  6
CONTINUOUS
 62
         4
100
AcDbLine
 10
1446.5719920508
 20
-302.9364318207
 30
-110.2598440575
 11
1455.281110826
 21
-294.7525371741
 31
-107.2811500058
  0
LINE
  5
3BD
100
AcDbEntity
  8
L1_120
  6
CONTINUOUS
 62
         4
100
AcDbLine
 10
1399.6353010988
 20
-343.0557158061
 30
-124.8620692483
 11
1421.5366684368
 21
-322.4751625334
 31
-117.3713604523
  0
LINE
  5
3BE
100
AcDbEntity
  8
L1_120
  6
CONTINUOUS
 62
         4
100
AcDbLine
 10
1442.3293513636
 20
-302.9364318207
 30
-110.2598440575
 11
1453.1405828796
 21
-292.7771973436
 31
-106.5621851049
  0
LINE
  5
3BF
100
AcDbEntity
  8
L1_120
  6
CONTINUOUS
 62
         4
100
AcDbLine
 10
1395.9326372995
 20
-342.5483035091
 30
-124.6773862757
 11
1417.2940277497
 21
-322.4751625334
 31
-117.3713604523
  0
LINE
  5
3C0
100
AcDbEntity
  8
L1_120
  6
CONTINUOUS
 62
         4
100
AcDbLine
 10
1438.0867106765
 20
-302.9364318207
 30
-110.2598440575
 11
1452.5528425579
 21
-289.3427144405
 31
-105.3121355581
  0
LINE
  5
3C1
100
AcDbEntity
  8
L1_120
  6
CONTINUOUS
 62
         4
100
AcDbLine
 10
1392.2299735003
 20
-342.0408912122
 30
-124.4927033031
 11
1413.0513870626
 21
-322.4751625334
 31
-117.3713604523
  0
LINE
  5
3C2
100
AcDbEntity
  8
L1_120
  6
CONTINUOUS
 62
         4
100
AcDbLine
 10
1433.8440699894
 20
-302.9364318207
 30
-110.2598440575
 11
1452.5528425579
 21
-285.3559362941
 31
-103.8610669822
  0
LINE
  5
3C3
100
AcDbEntity
  8
L1_120
  6
CONTINUOUS
 62
         4
100
AcDbLine
 10
1388.5273097011
 20
-341.5334789152
 30
-124.3080203305
 11
1408.8087463755
 21
-322.4751625334
 31
-117.3713604523
  0
LINE
  5
3C4
100
AcDbEntity
  8
L1_120
  6
CONTINUOUS
 62
         4
100
AcDbLine
 10
1430.4008425579
 20
-302.1852290835
 30
-109.9864286213
 11
1452.5528425579
 21
-281.3691581478
 31
-102.4099984063
  0
LINE
  5
3C5
100
AcDbEntity
  8
L1_120
  6
CONTINUOUS
 62
         4
100
AcDbLine
 10
1384.8246459019
 20
-341.0260666183
 30
-124.1233373579
 11
1404.5661056883
 21
-322.4751625334
 31
-117.3713604523
  0
LINE
  5
3C6
100
AcDbEntity
  8
L1_120
  6
CONTINUOUS
 62
         4
100
AcDbLine
 10
1425.3587886152
 20
-302.9364318207
 30
-110.2598440575
 11
1427.1008425579
 21
-301.2994365857
 31
-109.6640265184
  0
LINE
  5
3C7
100
AcDbEntity
  8
L1_120
  6
CONTINUOUS
 62
         4
100
AcDbLine
 10
1430.4008425579
 20
-298.1984509371
 30
-108.5353600454
 11
1449.8874471518
 21
-279.8870323961
 31
-101.8705487493
  0
LINE
  5
3C8
100
AcDbEntity
  8
L1_120
  6
CONTINUOUS
 62
         4
100
AcDbLine
 10
1381.1219821026
 20
-340.5186543213
 30
-123.9386543853
 11
1400.3234650012
 21
-322.4751625334
 31
-117.3713604523
  0
LINE
  5
3C9
100
AcDbEntity
  8
L1_120
  6
CONTINUOUS
 62
         4
100
AcDbLine
 10
1421.116147928
 20
-302.9364318207
 30
-110.2598440575
 11
1427.1008425579
 21
-297.3126584394
 31
-108.2129579425
  0
LINE
  5
3CA
100
AcDbEntity
  8
L1_120
  6
CONTINUOUS
 62
         4
100
AcDbLine
 10
1430.4008425579
 20
-294.2116727908
 30
-107.0842914695
 11
1445.6448064646
 21
-279.8870323961
 31
-101.8705487493
  0
LINE
  5
3CB
100
AcDbEntity
  8
L1_120
  6
CONTINUOUS
 62
         4
100
AcDbLine
 10
1377.4193183034
 20
-340.0112420244
 30
-123.7539714127
 11
1396.0808243141
 21
-322.4751625334
 31
-117.3713604523
  0
LINE
  5
3CC
100
AcDbEntity
  8
L1_120
  6
CONTINUOUS
 62
         4
100
AcDbLine
 10
1416.8735072409
 20
-302.9364318207
 30
-110.2598440575
 11
1427.1008425579
 21
-293.3258802931
 31
-106.7618893666
  0
LINE
  5
3CD
100
AcDbEntity
  8
L1_120
  6
CONTINUOUS
 62
         4
100
AcDbLine
 10
1430.4008425579
 20
-290.2248946445
 30
-105.6332228936
 11
1441.4021657775
 21
-279.8870323961
 31
-101.8705487493
  0
LINE
  5
3CE
100
AcDbEntity
  8
L1_120
  6
CONTINUOUS
 62
         4
100
AcDbLine
 10
1373.7166545042
 20
-339.5038297274
 30
-123.5692884402
 11
1391.838183627
 21
-322.4751625334
 31
-117.3713604523
  0
LINE
  5
3CF
100
AcDbEntity
  8
L1_120
  6
CONTINUOUS
 62
         4
100
AcDbLine
 10
1412.6308665538
 20
-302.9364318207
 30
-110.2598440575
 11
1427.1008425579
 21
-289.3391021467
 31
-105.3108207907
  0
LINE
  5
3D0
100
AcDbEntity
  8
L1_120
  6
CONTINUOUS
 62
         4
100
AcDbLine
 10
1430.4008425579
 20
-286.2381164981
 30
-104.1821543177
 11
1437.1666623398
 21
-279.8803255755
 31
-101.8681076662
  0
LINE
  5
3D1
100
AcDbEntity
  8
L1_120
  6
CONTINUOUS
 62
         4
100
AcDbLine
 10
1370.013990705
 20
-338.9964174305
 30
-123.3846054676
 11
1387.5955429399
 21
-322.4751625334
 31
-117.3713604523
  0
LINE
  5
3D2
100
AcDbEntity
  8
L1_120
  6
CONTINUOUS
 62
         4
100
AcDbLine
 10
1408.3882258667
 20
-302.9364318207
 30
-110.2598440575
 11
1427.1008425579
 21
-285.3523240004
 31
-103.8597522148
  0
LINE
  5
3D3
100
AcDbEntity
  8
L1_120
  6
CONTINUOUS
 62
         4
100
AcDbLine
 10
1430.4008425579
 20
-282.2513383518
 30
-102.7310857419
 11
1430.6130622548
 21
-282.0519170686
 31
-102.6585023307
  0
LINE
  5
3D4
100
AcDbEntity
  8
L1_120
  6
CONTINUOUS
 62
         4
100
AcDbLine
 10
1432.9048255935
 20
-279.8983639706
 30
-101.8746731051
 11
1436.7508425579
 21
-276.2842902098
 31
-100.5592578317
  0
LINE
  5
3D5
100
AcDbEntity
  8
L1_120
  6
CONTINUOUS
 62
         4
100
AcDbLine
 10
1366.3113269057
 20
-338.4890051335
 30
-123.199922495
 11
1383.3529022527
 21
-322.4751625334
 31
-117.3713604523
  0
LINE
  5
3D6
100
AcDbEntity
  8
L1_120
  6
CONTINUOUS
 62
         4
100
AcDbLine
 10
1404.1455851796
 20
-302.9364318207
 30
-110.2598440575
 11
1427.1008425579
 21
-281.3655458541
 31
-102.4086836389
  0
LINE
  5
3D7
100
AcDbEntity
  8
L1_120
  6
CONTINUOUS
 62
         4
100
AcDbLine
 10
1431.4085757915
 20
-277.3176007221
 30
-100.935352101
 11
1436.7508425579
 21
-272.2975120635
 31
-99.1081892558
  0
LINE
  5
3D8
100
AcDbEntity
  8
L1_120
  6
CONTINUOUS
 62
         4
100
AcDbLine
 10
1362.6086631065
 20
-337.9815928366
 30
-123.0152395224
 11
1379.1102615656
 21
-322.4751625334
 31
-117.3713604523
  0
LINE
  5
3D9
100
AcDbEntity
  8
L1_120
  6
CONTINUOUS
 62
         4
100
AcDbLine
 10
1399.9029444925
 20
-302.9364318207
 30
-110.2598440575
 11
1425.3231342213
 21
-279.0492671135
 31
-101.5656271231
  0
LINE
  5
3DA
100
AcDbEntity
  8
L1_120
  6
CONTINUOUS
 62
         4
100
AcDbLine
 10
1430.4008425579
 20
-274.2777820591
 30
-99.8289485901
 11
1436.7508425579
 21
-268.3107339171
 31
-97.65712068
  0
LINE
  5
3DB
100
AcDbEntity
  8
L1_120
  6
CONTINUOUS
 62
         4
100
AcDbLine
 10
1358.9059993073
 20
-337.4741805396
 30
-122.8305565498
 11
1374.8676208785
 21
-322.4751625334
 31
-117.3713604523
  0
LINE
  5
3DC
100
AcDbEntity
  8
L1_120
  6
CONTINUOUS
 62
         4
100
AcDbLine
 10
1395.6603038053
 20
-302.9364318207
 30
-110.2598440575
 11
1420.5062095506
 21
-279.5889175351
 31
-101.7620438135
  0
LINE
  5
3DD
100
AcDbEntity
  8
L1_120
  6
CONTINUOUS
 62
         4
100
AcDbLine
 10
1420.7085969968
 20
-279.3987355454
 30
-101.6928232301
 11
1422.8277678665
 21
-277.407366317
 31
-100.9680241056
  0
LINE
  5
3DE
100
AcDbEntity
  8
L1_120
  6
CONTINUOUS
 62
         4
100
AcDbLine
 10
1426.4178430818
 20
-274.0337991291
 30
-99.7401460659
 11
1426.8384069922
 21
-273.6385983259
 31
-99.596304737
  0
LINE
  5
3DF
100
AcDbEntity
  8
L1_120
  6
CONTINUOUS
 62
         4
100
AcDbLine
 10
1430.7508425579
 20
-269.9621114955
 30
-98.258172964
 11
1434.0139623419
 21
-266.8957819137
 31
-97.1421202678
  0
LINE
  5
3E0
100
AcDbEntity
  8
L1_120
  6
CONTINUOUS
 62
         4
100
AcDbLine
 10
1355.2033355081
 20
-336.9667682427
 30
-122.6458735772
 11
1370.6249801914
 21
-322.4751625334
 31
-117.3713604523
  0
LINE
  5
3E1
100
AcDbEntity
  8
L1_120
  6
CONTINUOUS
 62
         4
100
AcDbLine
 10
1391.4176631182
 20
-302.9364318207
 30
-110.2598440575
 11
1415.6553026831
 21
-280.1605007763
 31
-101.9700830997
  0
LINE
  5
3E2
100
AcDbEntity
  8
L1_120
  6
CONTINUOUS
 62
         4
100
AcDbLine
 10
1424.3173850006
 20
-272.0208059419
 30
-99.007476464
 11
1426.7508425579
 21
-269.7341038323
 31
-98.1751849614
  0
LINE
  5
3E3
100
AcDbEntity
  8
L1_120
  6
CONTINUOUS
 62
         4
100
AcDbLine
 10
1351.5006717088
 20
-336.4593559457
 30
-122.4611906046
 11
1366.3823395043
 21
-322.4751625334
 31
-117.3713604523
  0
LINE
  5
3E4
100
AcDbEntity
  8
L1_120
  6
CONTINUOUS
 62
         4
100
AcDbLine
 10
1387.1750224311
 20
-302.9364318207
 30
-110.2598440575
 11
1410.6883007238
 21
-280.8411777185
 31
-102.2178292458
  0
LINE
  5
3E5
100
AcDbEntity
  8
L1_120
  6
CONTINUOUS
 62
         4
100
AcDbLine
 10
1421.8220186457
 20
-270.3789051454
 30
-98.4098734464
 11
1425.3295439626
 21
-267.0829094879
 31
-97.2102291348
  0
LINE
  5
3E6
100
AcDbEntity
  8
L1_120
  6
CONTINUOUS
 62
         4
100
AcDbLine
 10
1347.7980079096
 20
-335.9519436488
 30
-122.276507632
 11
1362.1396988171
 21
-322.4751625334
 31
-117.3713604523
  0
LINE
  5
3E7
100
AcDbEntity
  8
L1_120
  6
CONTINUOUS
 62
         4
100
AcDbLine
 10
1382.932381744
 20
-302.9364318207
 30
-110.2598440575
 11
1405.7212987645
 21
-281.5218546608
 31
-102.4655753919
  0
LINE
  5
3E8
100
AcDbEntity
  8
L1_120
  6
CONTINUOUS
 62
         4
100
AcDbLine
 10
1344.0953441104
 20
-335.4445313518
 30
-122.0918246594
 11
1357.89705813
 21
-322.4751625334
 31
-117.3713604523
  0
LINE
  5
3E9
100
AcDbEntity
  8
L1_120
  6
CONTINUOUS
 62
         4
100
AcDbLine
 10
1378.6897410569
 20
-302.9364318207
 30
-110.2598440575
 11
1400.7542968052
 21
-282.2025316031
 31
-102.7133215381
  0
LINE
  5
3EA
100
AcDbEntity
  8
L1_120
  6
CONTINUOUS
 62
         4
100
AcDbLine
 10
1340.3926803112
 20
-334.9371190549
 30
-121.9071416868
 11
1353.6544174429
 21
-322.4751625334
 31
-117.3713604523
  0
LINE
  5
3EB
100
AcDbEntity
  8
L1_120
  6
CONTINUOUS
 62
         4
100
AcDbLine
 10
1374.4471003697
 20
-302.9364318207
 30
-110.2598440575
 11
1395.7872948458
 21
-282.8832085454
 31
-102.9610676842
  0
LINE
  5
3EC
100
AcDbEntity
  8
L1_120
  6
CONTINUOUS
 62
         4
100
AcDbLine
 10
1336.690016512
 20
-334.4297067579
 30
-121.7224587143
 11
1349.4117767558
 21
-322.4751625334
 31
-117.3713604523
  0
LINE
  5
3ED
100
AcDbEntity
  8
L1_120
  6
CONTINUOUS
 62
         4
100
AcDbLine
 10
1370.2044596826
 20
-302.9364318207
 30
-110.2598440575
 11
1390.8202928865
 21
-283.5638854876
 31
-103.2088138304
  0
LINE
  5
3EE
100
AcDbEntity
  8
L1_120
  6
CONTINUOUS
 62
         4
100
AcDbLine
 10
1332.9873527127
 20
-333.922294461
 30
-121.5377757417
 11
1345.1691360687
 21
-322.4751625334
 31
-117.3713604523
  0
LINE
  5
3EF
100
AcDbEntity
  8
L1_120
  6
CONTINUOUS
 62
         4
100
AcDbLine
 10
1365.9618189955
 20
-302.9364318207
 30
-110.2598440575
 11
1385.8532909272
 21
-284.2445624299
 31
-103.4565599765
  0
LINE
  5
3F0
100
AcDbEntity
  8
L1_120
  6
CONTINUOUS
 62
         4
100
AcDbLine
 10
1329.2846889135
 20
-333.414882164
 30
-121.3530927691
 11
1340.9264953815
 21
-322.4751625334
 31
-117.3713604523
  0
LINE
  5
3F1
100
AcDbEntity
  8
L1_120
  6
CONTINUOUS
 62
         4
100
AcDbLine
 10
1361.7191783084
 20
-302.9364318207
 30
-110.2598440575
 11
1380.8862889679
 21
-284.9252393722
 31
-103.7043061227
  0
LINE
  5
3F2
100
AcDbEntity
  8
L1_120
  6
CONTINUOUS
 62
         4
100
AcDbLine
 10
1325.5820251143
 20
-332.9074698671
 30
-121.1684097965
 11
1336.6838546944
 21
-322.4751625334
 31
-117.3713604523
  0
LINE
  5
3F3
100
AcDbEntity
  8
L1_120
  6
CONTINUOUS
 62
         4
100
AcDbLine
 10
1357.4765376213
 20
-302.9364318207
 30
-110.2598440575
 11
1375.9192870085
 21
-285.6059163145
 31
-103.9520522688
  0
LINE
  5
3F4
100
AcDbEntity
  8
L1_120
  6
CONTINUOUS
 62
         4
100
AcDbLine
 10
1321.8793613151
 20
-332.4000575701
 30
-120.9837268239
 11
1332.4412140073
 21
-322.4751625334
 31
-117.3713604523
  0
LINE
  5
3F5
100
AcDbEntity
  8
L1_120
  6
CONTINUOUS
 62
         4
100
AcDbLine
 10
1353.2338969341
 20
-302.9364318207
 30
-110.2598440575
 11
1370.9522850492
 21
-286.2865932568
 31
-104.1997984149
  0
LINE
  5
3F6
100
AcDbEntity
  8
L1_120
  6
CONTINUOUS
 62
         4
100
AcDbLine
 10
1318.1767296103
 20
-331.8926151143
 30
-120.7990328744
 11
1328.1985733202
 21
-322.4751625334
 31
-117.3713604523
  0
LINE
  5
3F7
100
AcDbEntity
  8
L1_120
  6
CONTINUOUS
 62
         4
100
AcDbLine
 10
1348.991256247
 20
-302.9364318207
 30
-110.2598440575
 11
1365.9852830899
 21
-286.967270199
 31
-104.4475445611
  0
LINE
  5
3F8
100
AcDbEntity
  8
L1_120
  6
CONTINUOUS
 62
         4
100
AcDbLine
 10
1316.0730981389
 20
-329.8826039384
 30
-120.0674486358
 11
1321.6522740965
 21
-324.639893461
 31
-118.1592580752
  0
LINE
  5
3F9
100
AcDbEntity
  8
L1_120
  6
CONTINUOUS
 62
         4
100
AcDbLine
 10
1344.7486155599
 20
-302.9364318207
 30
-110.2598440575
 11
1361.0182811305
 21
-287.6479471413
 31
-104.6952907072
  0
LINE
  5
3FA
100
AcDbEntity
  8
L1_120
  6
CONTINUOUS
 62
         4
100
AcDbLine
 10
1316.0508425579
 20
-325.9167391974
 30
-118.6239919169
 11
1317.6096334094
 21
-324.4519549369
 31
-118.0908540465
  0
LINE
  5
3FB
100
AcDbEntity
  8
L1_120
  6
CONTINUOUS
 62
         4
100
AcDbLine
 10
1340.5059748728
 20
-302.9364318207
 30
-110.2598440575
 11
1356.0512791712
 21
-288.3286240836
 31
-104.9430368534
  0
LINE
  5
3FC
100
AcDbEntity
  8
L1_120
  6
CONTINUOUS
 62
         4
100
AcDbLine
 10
1336.2633341857
 20
-302.9364318207
 30
-110.2598440575
 11
1351.0842772119
 21
-289.0093010259
 31
-105.1907829995
  0
LINE
  5
3FD
100
AcDbEntity
  8
L1_120
  6
CONTINUOUS
 62
         4
100
AcDbLine
 10
1332.0206934985
 20
-302.9364318207
 30
-110.2598440575
 11
1346.1172752526
 21
-289.6899779681
 31
-105.4385291456
  0
LINE
  5
3FE
100
AcDbEntity
  8
L1_120
  6
CONTINUOUS
 62
         4
100
AcDbLine
 10
1327.7780528114
 20
-302.9364318207
 30
-110.2598440575
 11
1341.1502732932
 21
-290.3706549104
 31
-105.6862752918
  0
LINE
  5
3FF
100
AcDbEntity
  8
L1_120
  6
CONTINUOUS
 62
         4
100
AcDbLine
 10
1323.9277993219
 20
-302.5677084667
 30
-110.125639732
 11
1336.1832713339
 21
-291.0513318527
 31
-105.9340214379
  0
LINE
  5
400
100
AcDbEntity
  8
L1_120
  6
CONTINUOUS
 62
         4
100
AcDbLine
 10
1321.5964299738
 20
-300.7717008931
 30
-109.4719464347
 11
1331.2162693746
 21
-291.732008795
 31
-106.1817675841
  0
LINE
  5
401
100
AcDbEntity
  8
L1_120
  6
CONTINUOUS
 62
         4
100
AcDbLine
 10
1317.1714356014
 20
-300.9430573055
 30
-109.5343150683
 11
1326.2492674152
 21
-292.4126857372
 31
-106.4295137302
  0
LINE
  5
402
100
AcDbEntity
  8
L1_120
  6
CONTINUOUS
 62
         4
100
AcDbLine
 10
1316.0508425579
 20
-298.009292173
 30
-108.4665118857
 11
1321.2822654559
 21
-293.0933626795
 31
-106.6772598763
  0
ENDBLK
  5
403
100
AcDbEntity
  8
0
  6
CONTINUOUS
100
AcDbBlockEnd
  0
BLOCK
  5
407
100
AcDbEntity
  8
0
100
AcDbBlockBegin
  2
*D10
 70
        65
 10
0.0
 20
0.0
 30
0.0
  3
*D10
  1

  0
POINT
  5
409
100
AcDbEntity
  8
DEFPOINTS
  6
CONTINUOUS
 62
         0
100
AcDbPoint
 10
1315.9008425579
 20
-116.4836393987
 30
-42.3965775201
  0
POINT
  5
40A
100
AcDbEntity
  8
DEFPOINTS
  6
CONTINUOUS
 62
         0
100
AcDbPoint
 10
1315.9008425579
 20
-181.4951813919
 30
-66.0588436894
  0
POINT
  5
40B
100
AcDbEntity
  8
DEFPOINTS
  6
CONTINUOUS
 62
         0
100
AcDbPoint
 10
1559.3008425579
 20
-181.4951813919
 30
-66.0588436894
  0
LINE
  5
40C
100
AcDbEntity
  8
L1_120
  6
CONTINUOUS
 62
         4
100
AcDbLine
 10
1315.9008425579
 20
-179.8507193055
 30
-65.4603084386
 11
1315.9008425579
 21
-115.6614083556
 31
-42.0973098947
  0
LINE
  5
40D
100
AcDbEntity
  8
L1_120
  6
CONTINUOUS
 62
         4
100
AcDbLine
 10
1559.3008425579
 20
-179.8507193055
 30
-65.4603084386
 11
1559.3008425579
 21
-115.6614083556
 31
-42.0973098947
  0
LINE
  5
40E
100
AcDbEntity
  8
L1_120
  6
CONTINUOUS
 62
         4
100
AcDbLine
 10
1315.9008425579
 20
-116.4836393987
 30
-42.3965775201
 11
1559.3008425579
 21
-116.4836393987
 31
-42.3965775201
  0
SOLID
  5
40F
100
AcDbEntity
  8
L1_120
  6
CONTINUOUS
 62
         4
100
AcDbTrace
 10
1315.9008425579
 20
-116.4836393987
 30
-42.3965775201
 11
1319.4008425579
 21
-115.9903007728
 31
-42.2170169449
 12
1319.4008425579
 22
-116.9769780247
 32
-42.5761380954
 13
1315.9008425579
 23
-116.4836393987
 33
-42.3965775201
  0
SOLID
  5
410
100
AcDbEntity
  8
L1_120
  6
CONTINUOUS
 62
         4
100
AcDbTrace
 10
1559.3008425579
 20
-116.4836393987
 30
-42.3965775201
 11
1555.8008425579
 21
-116.9769780247
 31
-42.5761380954
 12
1555.8008425579
 22
-115.9903007728
 32
-42.2170169449
 13
1559.3008425579
 23
-116.4836393987
 33
-42.3965775201
  0
TEXT
  5
412
100
AcDbEntity
  8
L1_120
  6
CONTINUOUS
 62
         4
100
AcDbText
 10
1431.1205663245
 20
-121.3342999052
 30
0.0
 40
3.5
  1
243.4
  7
BOX
210
0.0
220
-0.3420201433256687
230
0.9396926207859084
100
AcDbText
  0
ENDBLK
  5
413
100
AcDbEntity
  8
0
  6
CONTINUOUS
100
AcDbBlockEnd
  0
BLOCK
  5
415
100
AcDbEntity
  8
0
100
AcDbBlockBegin
  2
*D11
 70
        65
 10
0.0
 20
0.0
 30
0.0
  3
*D11
  1

  0
POINT
  5
417
100
AcDbEntity
  8
DEFPOINTS
  6
CONTINUOUS
 62
         0
100
AcDbPoint
 10
1417.5008425579
 20
-132.1405427339
 30
-48.0952242949
  0
POINT
  5
418
100
AcDbEntity
  8
DEFPOINTS
  6
CONTINUOUS
 62
         0
100
AcDbPoint
 10
1417.5008425579
 20
-161.0299313187
 30
-58.610101826
  0
POINT
  5
419
100
AcDbEntity
  8
DEFPOINTS
  6
CONTINUOUS
 62
         0
100
AcDbPoint
 10
1559.3008425579
 20
-189.432140782
 30
-68.947660658
  0
LINE
  5
41A
100
AcDbEntity
  8
L1_120
  6
CONTINUOUS
 62
         4
100
AcDbLine
 10
1417.5008425579
 20
-159.3854692324
 30
-58.0115665751
 11
1417.5008425579
 21
-131.3183116908
 31
-47.7959566695
  0
LINE
  5
41B
100
AcDbEntity
  8
L1_120
  6
CONTINUOUS
 62
         4
100
AcDbLine
 10
1559.3008425579
 20
-187.7876786956
 30
-68.3491254071
 11
1559.3008425579
 21
-131.3183116908
 31
-47.7959566695
  0
LINE
  5
41C
100
AcDbEntity
  8
L1_120
  6
CONTINUOUS
 62
         4
100
AcDbLine
 10
1417.5008425579
 20
-132.1405427339
 30
-48.0952242949
 11
1559.3008425579
 21
-132.1405427339
 31
-48.0952242949
  0
SOLID
  5
41D
100
AcDbEntity
  8
L1_120
  6
CONTINUOUS
 62
         4
100
AcDbTrace
 10
1417.5008425579
 20
-132.1405427339
 30
-48.0952242949
 11
1421.0008425579
 21
-131.647204108
 31
-47.9156637197
 12
1421.0008425579
 22
-132.6338813599
 32
-48.2747848702
 13
1417.5008425579
 23
-132.1405427339
 33
-48.0952242949
  0
SOLID
  5
41E
100
AcDbEntity
  8
L1_120
  6
CONTINUOUS
 62
         4
100
AcDbTrace
 10
1559.3008425579
 20
-132.1405427339
 30
-48.0952242949
 11
1555.8008425579
 21
-132.6338813599
 31
-48.2747848702
 12
1555.8008425579
 22
-131.647204108
 32
-47.9156637197
 13
1559.3008425579
 23
-132.1405427339
 33
-48.0952242949
  0
TEXT
  5
420
100
AcDbEntity
  8
L1_120
  6
CONTINUOUS
 62
         4
100
AcDbText
 10
1487.1050111471
 20
-137.9960284204
 30
0.0
 40
3.5
  1
142
  7
BOX
210
0.0
220
-0.3420201433256687
230
0.9396926207859084
100
AcDbText
  0
ENDBLK
  5
421
100
AcDbEntity
  8
0
  6
CONTINUOUS
100
AcDbBlockEnd
  0
BLOCK
  5
423
100
AcDbEntity
  8
0
100
AcDbBlockBegin
  2
*D12
 70
        65
 10
0.0
 20
0.0
 30
0.0
  3
*D12
  1

  0
POINT
  5
425
100
AcDbEntity
  8
DEFPOINTS
  6
CONTINUOUS
 62
         0
100
AcDbPoint
 10
1668.4643846581
 20
-306.6107090954
 30
-111.597171618
  0
POINT
  5
426
100
AcDbEntity
  8
DEFPOINTS
  6
CONTINUOUS
 62
         0
100
AcDbPoint
 10
1651.8047910368
 20
-306.6107090954
 30
-111.597171618
  0
POINT
  5
427
100
AcDbEntity
  8
DEFPOINTS
  6
CONTINUOUS
 62
         0
100
AcDbPoint
 10
1651.8047910368
 20
-317.0506941124
 30
-115.3970154103
  0
LINE
  5
428
100
AcDbEntity
  8
L1_120
  6
CONTINUOUS
 62
         4
100
AcDbLine
 10
1653.5547910368
 20
-306.6107090954
 30
-111.597171618
 11
1669.3393846581
 21
-306.6107090954
 31
-111.597171618
  0
LINE
  5
429
100
AcDbEntity
  8
L1_120
  6
CONTINUOUS
 62
         4
100
AcDbLine
 10
1653.5547910368
 20
-317.0506941124
 30
-115.3970154103
 11
1669.3393846581
 21
-317.0506941124
 31
-115.3970154103
  0
LINE
  5
42A
100
AcDbEntity
  8
L1_120
  6
CONTINUOUS
 62
         4
100
AcDbLine
 10
1668.4643846581
 20
-306.6107090954
 30
-111.597171618
 11
1668.4643846581
 21
-317.0506941124
 31
-115.3970154103
  0
SOLID
  5
42B
100
AcDbEntity
  8
L1_120
  6
CONTINUOUS
 62
         4
100
AcDbTrace
 10
1668.4643846581
 20
-306.6107090954
 30
-111.597171618
 11
1668.9893846581
 21
-309.8996332682
 31
-112.7942421196
 12
1667.9393846581
 22
-309.8996332682
 32
-112.7942421196
 13
1668.4643846581
 23
-306.6107090954
 33
-111.597171618
  0
LINE
  5
42C
100
AcDbEntity
  8
L1_120
  6
CONTINUOUS
 62
         4
100
AcDbLine
 10
1668.4643846581
 20
-306.6107090954
 30
-111.597171618
 11
1668.4643846581
 21
-317.9997595258
 31
-115.7424469712
  0
SOLID
  5
42D
100
AcDbEntity
  8
L1_120
  6
CONTINUOUS
 62
         4
100
AcDbTrace
 10
1668.4643846581
 20
-317.0506941124
 30
-115.3970154103
 11
1667.9393846581
 21
-313.7617699396
 31
-114.1999449087
 12
1668.9893846581
 22
-313.7617699396
 32
-114.1999449087
 13
1668.4643846581
 23
-317.0506941124
 33
-115.3970154103
  0
TEXT
  5
42F
100
AcDbEntity
  8
L1_120
  6
CONTINUOUS
 62
         4
100
AcDbText
 10
1665.8393846581
 20
-336.6582757401
 30
0.0
 40
3.5
  1
7/16"-20UNF†Š’»„Ú
 50
90.0
  7
STSL
210
0.0
220
-0.3420201433256687
230
0.9396926207859084
100
AcDbText
  0
ENDBLK
  5
430
100
AcDbEntity
  8
0
  6
CONTINUOUS
100
AcDbBlockEnd
  0
BLOCK
  5
432
100
AcDbEntity
  8
0
100
AcDbBlockBegin
  2
*D13
 70
        65
 10
0.0
 20
0.0
 30
0.0
  3
*D13
  1

  0
POINT
  5
434
100
AcDbEntity
  8
DEFPOINTS
  6
CONTINUOUS
 62
         0
100
AcDbPoint
 10
1642.2797910368
 20
-300.158585022
 30
-109.2487905075
  0
POINT
  5
435
100
AcDbEntity
  8
DEFPOINTS
  6
CONTINUOUS
 62
         0
100
AcDbPoint
 10
1642.2797910368
 20
-308.4666020215
 30
-112.2726614011
  0
POINT
  5
436
100
AcDbEntity
  8
DEFPOINTS
  6
CONTINUOUS
 62
         0
100
AcDbPoint
 10
1655.2797910368
 20
-308.4666020215
 30
-112.2726614011
  0
LINE
  5
437
100
AcDbEntity
  8
L1_120
  6
CONTINUOUS
 62
         4
100
AcDbLine
 10
1642.2797910368
 20
-306.8221399351
 30
-111.6741261502
 11
1642.2797910368
 21
-299.3363539788
 31
-108.9495228821
  0
LINE
  5
438
100
AcDbEntity
  8
L1_120
  6
CONTINUOUS
 62
         4
100
AcDbLine
 10
1655.2797910368
 20
-306.8221399351
 30
-111.6741261502
 11
1655.2797910368
 21
-299.3363539788
 31
-108.9495228821
  0
LINE
  5
439
100
AcDbEntity
  8
L1_120
  6
CONTINUOUS
 62
         4
100
AcDbLine
 10
1642.2797910368
 20
-300.158585022
 30
-109.2487905075
 11
1655.2797910368
 21
-300.158585022
 31
-109.2487905075
  0
SOLID
  5
43A
100
AcDbEntity
  8
L1_120
  6
CONTINUOUS
 62
         4
100
AcDbTrace
 10
1642.2797910368
 20
-300.158585022
 30
-109.2487905075
 11
1645.7797910368
 21
-299.6652463961
 31
-109.0692299322
 12
1645.7797910368
 22
-300.6519236479
 32
-109.4283510827
 13
1642.2797910368
 23
-300.158585022
 33
-109.2487905075
  0
SOLID
  5
43B
100
AcDbEntity
  8
L1_120
  6
CONTINUOUS
 62
         4
100
AcDbTrace
 10
1655.2797910368
 20
-300.158585022
 30
-109.2487905075
 11
1651.7797910368
 21
-300.6519236479
 31
-109.4283510827
 12
1651.7797910368
 22
-299.6652463961
 32
-109.0692299322
 13
1655.2797910368
 23
-300.158585022
 33
-109.2487905075
  0
TEXT
  5
43D
100
AcDbEntity
  8
L1_120
  6
CONTINUOUS
 62
         4
100
AcDbText
 10
1645.2540864121
 20
-316.7970943982
 30
0.0
 40
3.5
  1
13
  7
BOX
210
0.0
220
-0.3420201433256687
230
0.9396926207859084
100
AcDbText
  0
ENDBLK
  5
43E
100
AcDbEntity
  8
0
  6
CONTINUOUS
100
AcDbBlockEnd
  0
BLOCK
  5
462
100
AcDbEntity
  8
0
100
AcDbBlockBegin
  2
*D14
 70
        65
 10
0.0
 20
0.0
 30
0.0
  3
*D14
  1

  0
POINT
  5
464
100
AcDbEntity
  8
DEFPOINTS
  6
CONTINUOUS
 62
         0
100
AcDbPoint
 10
1623.8838053599
 20
-301.0063984027
 30
-109.5573693423
  0
POINT
  5
465
100
AcDbEntity
  8
DEFPOINTS
  6
CONTINUOUS
 62
         0
100
AcDbPoint
 10
1623.8838053599
 20
-308.1136975835
 30
-112.1442146901
  0
POINT
  5
466
100
AcDbEntity
  8
DEFPOINTS
  6
CONTINUOUS
 62
         0
100
AcDbPoint
 10
1625.8838053599
 20
-308.1136975835
 30
-112.1442146901
  0
LINE
  5
467
100
AcDbEntity
  8
L1_120
  6
CONTINUOUS
 62
         4
100
AcDbLine
 10
1623.8838053599
 20
-306.4692354972
 30
-111.5456794393
 11
1623.8838053599
 21
-300.1841673595
 31
-109.2581017168
  0
LINE
  5
468
100
AcDbEntity
  8
L1_120
  6
CONTINUOUS
 62
         4
100
AcDbLine
 10
1625.8838053599
 20
-306.4692354972
 30
-111.5456794393
 11
1625.8838053599
 21
-300.1841673595
 31
-109.2581017168
  0
LINE
  5
469
100
AcDbEntity
  8
L1_120
  6
CONTINUOUS
 62
         4
100
AcDbLine
 10
1623.8838053599
 20
-301.0063984027
 30
-109.5573693423
 11
1616.8838053599
 21
-301.0063984027
 31
-109.5573693423
  0
SOLID
  5
46A
100
AcDbEntity
  8
L1_120
  6
CONTINUOUS
 62
         4
100
AcDbTrace
 10
1623.8838053599
 20
-301.0063984027
 30
-109.5573693423
 11
1620.3838053599
 21
-301.4997370286
 31
-109.7369299175
 12
1620.3838053599
 22
-300.5130597768
 32
-109.377808767
 13
1623.8838053599
 23
-301.0063984027
 33
-109.5573693423
  0
LINE
  5
46B
100
AcDbEntity
  8
L1_120
  6
CONTINUOUS
 62
         4
100
AcDbLine
 10
1625.8838053599
 20
-301.0063984027
 30
-109.5573693423
 11
1632.8838053599
 21
-301.0063984027
 31
-109.5573693423
  0
SOLID
  5
46C
100
AcDbEntity
  8
L1_120
  6
CONTINUOUS
 62
         4
100
AcDbTrace
 10
1625.8838053599
 20
-301.0063984027
 30
-109.5573693423
 11
1629.3838053599
 21
-300.5130597768
 31
-109.377808767
 12
1629.3838053599
 22
-301.4997370286
 32
-109.7369299175
 13
1625.8838053599
 23
-301.0063984027
 33
-109.5573693423
  0
LINE
  5
46D
100
AcDbEntity
  8
L1_120
  6
CONTINUOUS
 62
         4
100
AcDbLine
 10
1623.8838053599
 20
-301.0063984027
 30
-109.5573693423
 11
1625.8838053599
 21
-301.0063984027
 31
-109.5573693423
  0
TEXT
  5
46F
100
AcDbEntity
  8
L1_120
  6
CONTINUOUS
 62
         4
100
AcDbText
 10
1622.6440342281
 20
-317.6993185532
 30
0.0
 40
3.5
  1
2
  7
BOX
210
0.0
220
-0.3420201433256687
230
0.9396926207859084
100
AcDbText
  0
ENDBLK
  5
470
100
AcDbEntity
  8
0
  6
CONTINUOUS
100
AcDbBlockEnd
  0
BLOCK
  5
472
100
AcDbEntity
  8
0
100
AcDbBlockBegin
  2
*D15
 70
        65
 10
0.0
 20
0.0
 30
0.0
  3
*D15
  1

  0
POINT
  5
474
100
AcDbEntity
  8
DEFPOINTS
  6
CONTINUOUS
 62
         0
100
AcDbPoint
 10
1639.0543895947
 20
-310.4211626727
 30
-112.9840632992
  0
POINT
  5
475
100
AcDbEntity
  8
DEFPOINTS
  6
CONTINUOUS
 62
         0
100
AcDbPoint
 10
1642.2797910368
 20
-310.4211626727
 30
-112.9840632992
  0
POINT
  5
476
100
AcDbEntity
  8
DEFPOINTS
  6
CONTINUOUS
 62
         0
100
AcDbPoint
 10
1642.2797910368
 20
-313.2402405351
 30
-114.0101237292
  0
LINE
  5
477
100
AcDbEntity
  8
L1_120
  6
CONTINUOUS
 62
         4
100
AcDbLine
 10
1640.5297910368
 20
-310.4211626727
 30
-112.9840632992
 11
1638.1793895947
 21
-310.4211626727
 31
-112.9840632992
  0
LINE
  5
478
100
AcDbEntity
  8
L1_120
  6
CONTINUOUS
 62
         4
100
AcDbLine
 10
1640.5297910368
 20
-313.2402405351
 30
-114.0101237292
 11
1638.1793895947
 21
-313.2402405351
 31
-114.0101237292
  0
LINE
  5
479
100
AcDbEntity
  8
L1_120
  6
CONTINUOUS
 62
         4
100
AcDbLine
 10
1639.0543895947
 20
-310.4211626727
 30
-112.9840632992
 11
1639.0543895947
 21
-303.8433143272
 31
-110.5899222959
  0
SOLID
  5
47A
100
AcDbEntity
  8
L1_120
  6
CONTINUOUS
 62
         4
100
AcDbTrace
 10
1639.0543895947
 20
-310.4211626727
 30
-112.9840632992
 11
1638.5293895947
 21
-307.1322385
 31
-111.7869927975
 12
1639.5793895947
 22
-307.1322385
 32
-111.7869927975
 13
1639.0543895947
 23
-310.4211626727
 33
-112.9840632992
  0
LINE
  5
47B
100
AcDbEntity
  8
L1_120
  6
CONTINUOUS
 62
         4
100
AcDbLine
 10
1639.0543895947
 20
-313.2402405351
 30
-114.0101237292
 11
1639.0543895947
 21
-319.8180888806
 31
-116.4042647324
  0
SOLID
  5
47C
100
AcDbEntity
  8
L1_120
  6
CONTINUOUS
 62
         4
100
AcDbTrace
 10
1639.0543895947
 20
-313.2402405351
 30
-114.0101237292
 11
1639.5793895947
 21
-316.5291647078
 31
-115.2071942308
 12
1638.5293895947
 22
-316.5291647078
 32
-115.2071942308
 13
1639.0543895947
 23
-313.2402405351
 33
-114.0101237292
  0
LINE
  5
47D
100
AcDbEntity
  8
L1_120
  6
CONTINUOUS
 62
         4
100
AcDbLine
 10
1639.0543895947
 20
-310.4211626727
 30
-112.9840632992
 11
1639.0543895947
 21
-313.2402405351
 31
-114.0101237292
  0
TEXT
  5
47F
100
AcDbEntity
  8
L1_120
  6
CONTINUOUS
 62
         4
100
AcDbText
 10
1636.4293895947
 20
-337.4393533426
 30
0.0
 40
3.5
  1
ØÙ3
 50
90.0
  7
BOX
210
0.0
220
-0.3420201433256687
230
0.9396926207859084
100
AcDbText
  0
ENDBLK
  5
480
100
AcDbEntity
  8
0
  6
CONTINUOUS
100
AcDbBlockEnd
  0
ENDSEC
  0
SECTION
  2
ENTITIES
  0
ARC
  5
25
100
AcDbEntity
  8
L1_120
  6
CONTINUOUS
 62
         7
100
AcDbCircle
 10
1231.0721451996
 20
-211.6362095791
 30
77.0292807797
 40
48.75
210
0.0
220
-0.3420201433256687
230
0.9396926207859084
100
AcDbArc
 50
16.5052120024
 51
163.4947879976
  0
ARC
  5
26
100
AcDbEntity
  8
L1_120
  6
CONTINUOUS
 62
         7
100
AcDbCircle
 10
1231.0721451996
 20
-211.6362095791
 30
77.0292807797
 40
48.75
210
0.0
220
-0.3420201433256687
230
0.9396926207859084
100
AcDbArc
 50
196.5052120024
 51
343.4947879976
  0
CIRCLE
  5
27
100
AcDbEntity
  8
L1_120
  6
CONTINUOUS
 62
         7
100
AcDbCircle
 10
1231.0721451996
 20
-211.6362095791
 30
77.0292807797
 40
34.925
210
0.0
220
-0.3420201433256687
230
0.9396926207859084
  0
CIRCLE
  5
28
100
AcDbEntity
  8
L1_120
  6
CONTINUOUS
 62
         7
100
AcDbCircle
 10
1231.0721451996
 20
-211.6362095791
 30
77.0292807797
 40
20.3982925257
210
0.0
220
-0.3420201433256687
230
0.9396926207859084
  0
CIRCLE
  5
29
100
AcDbEntity
  8
L1_120
  6
CONTINUOUS
 62
         7
100
AcDbCircle
 10
1231.0721451996
 20
-211.6362095791
 30
77.0292807797
 40
10.3963414634
210
0.0
220
-0.3420201433256687
230
0.9396926207859084
  0
ARC
  5
2A
100
AcDbEntity
  8
L1_120
  6
CONTINUOUS
 62
         4
100
AcDbCircle
 10
1231.0721451996
 20
-211.6362095791
 30
77.0292807797
 40
12.0
210
0.0
220
-0.3420201433256687
230
0.9396926207859084
100
AcDbArc
 50
278.1340859252
 51
549.6704111119
  0
CIRCLE
  5
2B
100
AcDbEntity
  8
L1_120
  6
CONTINUOUS
 62
         7
100
AcDbCircle
 10
1231.0721451996
 20
-211.6362095791
 30
77.0292807797
 40
12.6589889012
210
0.0
220
-0.3420201433256687
230
0.9396926207859084
  0
LINE
  5
2C
100
AcDbEntity
  8
L1_120
  6
CONTINUOUS
 62
         7
100
AcDbLine
 10
1195.0721451996
 20
-236.8237539518
 30
-4.2239487701
 11
1195.0721451996
 21
-213.6133462184
 31
4.2239487701
  0
LINE
  5
2D
100
AcDbEntity
  8
L1_120
  6
CONTINUOUS
 62
         7
100
AcDbLine
 10
1185.3309428188
 20
-237.2936002622
 30
-4.3949588417
 11
1194.5721451996
 21
-237.2936002622
 31
-4.3949588417
  0
LINE
  5
2E
100
AcDbEntity
  8
L1_120
  6
CONTINUOUS
 62
         7
100
AcDbLine
 10
1184.3309428188
 20
-238.233292883
 30
-4.7369789851
 11
1185.3309428188
 21
-237.2936002622
 31
-4.3949588417
  0
LINE
  5
2F
100
AcDbEntity
  8
L1_120
  6
CONTINUOUS
 62
         7
100
AcDbLine
 10
1184.3309428188
 20
-212.2038072872
 30
4.7369789851
 11
1185.3309428188
 21
-213.143499908
 31
4.3949588417
  0
LINE
  5
30
100
AcDbEntity
  8
L1_120
  6
CONTINUOUS
 62
         7
100
AcDbLine
 10
1185.3309428188
 20
-213.143499908
 30
4.3949588417
 11
1194.5721451996
 21
-213.143499908
 31
4.3949588417
  0
LINE
  5
31
100
AcDbEntity
  8
L1_120
  6
CONTINUOUS
 62
         7
100
AcDbLine
 10
1268.7721451996
 20
-236.8237539518
 30
-4.2239487701
 11
1268.7721451996
 21
-213.6133462184
 31
4.2239487701
  0
LINE
  5
32
100
AcDbEntity
  8
L1_120
  6
CONTINUOUS
 62
         7
100
AcDbLine
 10
1276.8133475804
 20
-213.143499908
 30
4.3949588417
 11
1269.2721451996
 21
-213.143499908
 31
4.3949588417
  0
LINE
  5
33
100
AcDbEntity
  8
L1_120
  6
CONTINUOUS
 62
         7
100
AcDbLine
 10
1277.8133475804
 20
-212.2038072872
 30
4.7369789851
 11
1276.8133475804
 21
-213.143499908
 31
4.3949588417
  0
LINE
  5
34
100
AcDbEntity
  8
L1_120
  6
CONTINUOUS
 62
         7
100
AcDbLine
 10
1276.8133475804
 20
-237.2936002622
 30
-4.3949588417
 11
1269.2721451996
 21
-237.2936002622
 31
-4.3949588417
  0
LINE
  5
35
100
AcDbEntity
  8
L1_120
  6
CONTINUOUS
 62
         7
100
AcDbLine
 10
1277.8133475804
 20
-238.233292883
 30
-4.7369789851
 11
1276.8133475804
 21
-237.2936002622
 31
-4.3949588417
  0
LINE
  5
36
100
AcDbEntity
  8
L1_120
  6
CONTINUOUS
 62
         7
100
AcDbLine
 10
1194.5721451996
 20
-237.2936002622
 30
-4.3949588417
 11
1195.0721451996
 21
-236.8237539518
 31
-4.2239487701
  0
LINE
  5
37
100
AcDbEntity
  8
L1_120
  6
CONTINUOUS
 62
         7
100
AcDbLine
 10
1195.0721451996
 20
-213.6133462184
 30
4.2239487701
 11
1194.5721451996
 21
-213.143499908
 31
4.3949588417
  0
LINE
  5
38
100
AcDbEntity
  8
L1_120
  6
CONTINUOUS
 62
         7
100
AcDbLine
 10
1269.2721451996
 20
-213.143499908
 30
4.3949588417
 11
1268.7721451996
 21
-213.6133462184
 31
4.2239487701
  0
LINE
  5
39
100
AcDbEntity
  8
L1_120
  6
CONTINUOUS
 62
         7
100
AcDbLine
 10
1268.7721451996
 20
-236.8237539518
 30
-4.2239487701
 11
1269.2721451996
 21
-237.2936002622
 31
-4.3949588417
  0
POLYLINE
  5
3B
100
AcDbEntity
  8
L1_120
  6
CONTINUOUS
 62
         7
100
AcDb2dPolyline
 66
         1
 10
0.0
 20
0.0
 30
77.0292807797
 70
         2
210
0.0
220
-0.3420201433256687
230
0.9396926207859084
  0
VERTEX
  5
3D
100
AcDbEntity
  8
L1_120
  6
CONTINUOUS
 62
         7
100
AcDbVertex
100
AcDb2dVertex
 10
1246.3263585584
 20
-169.8323956272
 30
77.0292807797
 70
         1
  0
VERTEX
  5
3F
100
AcDbEntity
  8
L1_120
  6
CONTINUOUS
 62
         7
100
AcDbVertex
100
AcDb2dVertex
 10
1245.9463574937
 20
-169.7394242823
 30
77.0292807797
 70
         1
  0
VERTEX
  5
41
100
AcDbEntity
  8
L1_120
  6
CONTINUOUS
 62
         7
100
AcDbVertex
100
AcDb2dVertex
 10
1245.7692888263
 20
-169.7244227844
 30
77.0292807797
 70
         1
  0
VERTEX
  5
43
100
AcDbEntity
  8
L1_120
  6
CONTINUOUS
 62
         7
100
AcDbVertex
100
AcDb2dVertex
 10
1245.5846615562
 20
-169.7262559239
 30
77.0292807797
 70
         1
  0
VERTEX
  5
45
100
AcDbEntity
  8
L1_120
  6
CONTINUOUS
 62
         7
100
AcDbVertex
100
AcDb2dVertex
 10
1245.3936547066
 20
-169.746092975
 30
77.0292807797
 70
         1
  0
VERTEX
  5
47
100
AcDbEntity
  8
L1_120
  6
CONTINUOUS
 62
         7
100
AcDbVertex
100
AcDb2dVertex
 10
1245.1976699789
 20
-169.7848492463
 30
77.0292807797
 70
         1
  0
VERTEX
  5
49
100
AcDbEntity
  8
L1_120
  6
CONTINUOUS
 62
         7
100
AcDbVertex
100
AcDb2dVertex
 10
1244.9983073468
 20
-169.8431311055
 30
77.0292807797
 70
         1
  0
VERTEX
  5
4B
100
AcDbEntity
  8
L1_120
  6
CONTINUOUS
 62
         7
100
AcDbVertex
100
AcDb2dVertex
 10
1244.7973281144
 20
-169.921190466
 30
77.0292807797
 70
         1
  0
VERTEX
  5
4D
100
AcDbEntity
  8
L1_120
  6
CONTINUOUS
 62
         7
100
AcDbVertex
100
AcDb2dVertex
 10
1244.5966065877
 20
-170.0188930284
 30
77.0292807797
 70
         1
  0
VERTEX
  5
4F
100
AcDbEntity
  8
L1_120
  6
CONTINUOUS
 62
         7
100
AcDbVertex
100
AcDb2dVertex
 10
1244.3980727177
 20
-170.135703785
 30
77.0292807797
 70
         1
  0
VERTEX
  5
51
100
AcDbEntity
  8
L1_120
  6
CONTINUOUS
 62
         7
100
AcDbVertex
100
AcDb2dVertex
 10
1244.2036491381
 20
-170.2706919984
 30
77.0292807797
 70
         1
  0
VERTEX
  5
53
100
AcDbEntity
  8
L1_120
  6
CONTINUOUS
 62
         7
100
AcDbVertex
100
AcDb2dVertex
 10
1244.0151867674
 20
-170.4225561814
 30
77.0292807797
 70
         1
  0
VERTEX
  5
55
100
AcDbEntity
  8
L1_120
  6
CONTINUOUS
 62
         7
100
AcDbVertex
100
AcDb2dVertex
 10
1243.774857967
 20
-170.649738732
 30
77.0292807797
 70
         1
  0
VERTEX
  5
57
100
AcDbEntity
  8
L1_120
  6
CONTINUOUS
 62
         7
100
AcDbVertex
100
AcDb2dVertex
 10
1243.5518978873
 20
-170.8996474081
 30
77.0292807797
 70
         1
  0
VERTEX
  5
59
100
AcDbEntity
  8
L1_120
  6
CONTINUOUS
 62
         7
100
AcDbVertex
100
AcDb2dVertex
 10
1243.3491195331
 20
-171.1670845202
 30
77.0292807797
 70
         1
  0
VERTEX
  5
5B
100
AcDbEntity
  8
L1_120
  6
CONTINUOUS
 62
         7
100
AcDbVertex
100
AcDb2dVertex
 10
1243.1684599659
 20
-171.4466314553
 30
77.0292807797
 70
         1
  0
VERTEX
  5
5D
100
AcDbEntity
  8
L1_120
  6
CONTINUOUS
 62
         7
100
AcDbVertex
100
AcDb2dVertex
 10
1243.0109626916
 20
-171.7329639651
 30
77.0292807797
 70
         1
  0
VERTEX
  5
5F
100
AcDbEntity
  8
L1_120
  6
CONTINUOUS
 62
         7
100
AcDbVertex
100
AcDb2dVertex
 10
1242.8768323966
 20
-172.0211187997
 30
77.0292807797
 70
         1
  0
VERTEX
  5
61
100
AcDbEntity
  8
L1_120
  6
CONTINUOUS
 62
         7
100
AcDbVertex
100
AcDb2dVertex
 10
1242.7324333339
 20
-172.4034014757
 30
77.0292807797
 70
         1
  0
VERTEX
  5
63
100
AcDbEntity
  8
L1_120
  6
CONTINUOUS
 62
         7
100
AcDbVertex
100
AcDb2dVertex
 10
1242.6263105083
 20
-172.7723960861
 30
77.0292807797
 70
         1
  0
VERTEX
  5
65
100
AcDbEntity
  8
L1_120
  6
CONTINUOUS
 62
         7
100
AcDbVertex
100
AcDb2dVertex
 10
1242.554363387
 20
-173.1217591265
 30
77.0292807797
 70
         1
  0
VERTEX
  5
67
100
AcDbEntity
  8
L1_120
  6
CONTINUOUS
 62
         7
100
AcDbVertex
100
AcDb2dVertex
 10
1242.5118688432
 20
-173.4473861645
 30
77.0292807797
 70
         1
  0
VERTEX
  5
69
100
AcDbEntity
  8
L1_120
  6
CONTINUOUS
 62
         7
100
AcDbVertex
100
AcDb2dVertex
 10
1242.4939747203
 20
-173.747089958
 30
77.0292807797
 70
         1
  0
VERTEX
  5
6B
100
AcDbEntity
  8
L1_120
  6
CONTINUOUS
 62
         7
100
AcDbVertex
100
AcDb2dVertex
 10
1242.496047562
 20
-174.0201975717
 30
77.0292807797
 70
         1
  0
VERTEX
  5
6D
100
AcDbEntity
  8
L1_120
  6
CONTINUOUS
 62
         7
100
AcDbVertex
100
AcDb2dVertex
 10
1242.5230608341
 20
-174.3468454234
 30
77.0292807797
 70
         1
  0
VERTEX
  5
6F
100
AcDbEntity
  8
L1_120
  6
CONTINUOUS
 62
         7
100
AcDbVertex
100
AcDb2dVertex
 10
1242.5700108459
 20
-174.6292298715
 30
77.0292807797
 70
         1
  0
VERTEX
  5
71
100
AcDbEntity
  8
L1_120
  6
CONTINUOUS
 62
         7
100
AcDbVertex
100
AcDb2dVertex
 10
1242.6299933991
 20
-174.8717083921
 30
77.0292807797
 70
         1
  0
VERTEX
  5
73
100
AcDbEntity
  8
L1_120
  6
CONTINUOUS
 62
         7
100
AcDbVertex
100
AcDb2dVertex
 10
1242.7226618171
 20
-175.1445109744
 30
77.0292807797
 70
         1
  0
VERTEX
  5
75
100
AcDbEntity
  8
L1_120
  6
CONTINUOUS
 62
         7
100
AcDbVertex
100
AcDb2dVertex
 10
1242.8206164901
 20
-175.3646633177
 30
77.0292807797
 70
         1
  0
VERTEX
  5
77
100
AcDbEntity
  8
L1_120
  6
CONTINUOUS
 62
         7
100
AcDbVertex
100
AcDb2dVertex
 10
1242.9181381139
 20
-175.5423510427
 30
77.0292807797
 70
         1
  0
VERTEX
  5
79
100
AcDbEntity
  8
L1_120
  6
CONTINUOUS
 62
         7
100
AcDbVertex
100
AcDb2dVertex
 10
1243.0440772093
 20
-175.7307195001
 30
77.0292807797
 70
         1
  0
VERTEX
  5
7B
100
AcDbEntity
  8
L1_120
  6
CONTINUOUS
 62
         7
100
AcDbVertex
100
AcDb2dVertex
 10
1243.1980156459
 20
-175.91632644
 30
77.0292807797
 70
         1
  0
VERTEX
  5
7D
100
AcDbEntity
  8
L1_120
  6
CONTINUOUS
 62
         7
100
AcDbVertex
100
AcDb2dVertex
 10
1243.3286404884
 20
-176.0449857497
 30
77.0292807797
 70
         1
  0
VERTEX
  5
7F
100
AcDbEntity
  8
L1_120
  6
CONTINUOUS
 62
         7
100
AcDbVertex
100
AcDb2dVertex
 10
1243.4736669869
 20
-176.1633533987
 30
77.0292807797
 70
         1
  0
VERTEX
  5
81
100
AcDbEntity
  8
L1_120
  6
CONTINUOUS
 62
         7
100
AcDbVertex
100
AcDb2dVertex
 10
1243.6211269116
 20
-176.2617710843
 30
77.0292807797
 70
         1
  0
VERTEX
  5
83
100
AcDbEntity
  8
L1_120
  6
CONTINUOUS
 62
         7
100
AcDbVertex
100
AcDb2dVertex
 10
1243.7979126034
 20
-176.3550847338
 30
77.0292807797
 70
         1
  0
VERTEX
  5
85
100
AcDbEntity
  8
L1_120
  6
CONTINUOUS
 62
         7
100
AcDbVertex
100
AcDb2dVertex
 10
1243.9322175551
 20
-176.4102439728
 30
77.0292807797
 70
         1
  0
VERTEX
  5
87
100
AcDbEntity
  8
L1_120
  6
CONTINUOUS
 62
         7
100
AcDbVertex
100
AcDb2dVertex
 10
1243.9322175551
 20
-176.4102439728
 30
77.0292807797
 70
         1
  0
VERTEX
  5
89
100
AcDbEntity
  8
L1_120
  6
CONTINUOUS
 62
         7
100
AcDbVertex
100
AcDb2dVertex
 10
1244.3122186198
 20
-176.5032153177
 30
77.0292807797
 70
         1
  0
VERTEX
  5
8B
100
AcDbEntity
  8
L1_120
  6
CONTINUOUS
 62
         7
100
AcDbVertex
100
AcDb2dVertex
 10
1244.4892872871
 20
-176.5182168156
 30
77.0292807797
 70
         1
  0
VERTEX
  5
8D
100
AcDbEntity
  8
L1_120
  6
CONTINUOUS
 62
         7
100
AcDbVertex
100
AcDb2dVertex
 10
1244.6739145573
 20
-176.5163836761
 30
77.0292807797
 70
         1
  0
VERTEX
  5
8F
100
AcDbEntity
  8
L1_120
  6
CONTINUOUS
 62
         7
100
AcDbVertex
100
AcDb2dVertex
 10
1244.8649214069
 20
-176.496546625
 30
77.0292807797
 70
         1
  0
VERTEX
  5
91
100
AcDbEntity
  8
L1_120
  6
CONTINUOUS
 62
         7
100
AcDbVertex
100
AcDb2dVertex
 10
1245.0609061346
 20
-176.4577903537
 30
77.0292807797
 70
         1
  0
VERTEX
  5
93
100
AcDbEntity
  8
L1_120
  6
CONTINUOUS
 62
         7
100
AcDbVertex
100
AcDb2dVertex
 10
1245.2602687667
 20
-176.3995084945
 30
77.0292807797
 70
         1
  0
VERTEX
  5
95
100
AcDbEntity
  8
L1_120
  6
CONTINUOUS
 62
         7
100
AcDbVertex
100
AcDb2dVertex
 10
1245.4612479991
 20
-176.321449134
 30
77.0292807797
 70
         1
  0
VERTEX
  5
97
100
AcDbEntity
  8
L1_120
  6
CONTINUOUS
 62
         7
100
AcDbVertex
100
AcDb2dVertex
 10
1245.6619695258
 20
-176.2237465716
 30
77.0292807797
 70
         1
  0
VERTEX
  5
99
100
AcDbEntity
  8
L1_120
  6
CONTINUOUS
 62
         7
100
AcDbVertex
100
AcDb2dVertex
 10
1245.8605033958
 20
-176.106935815
 30
77.0292807797
 70
         1
  0
VERTEX
  5
9B
100
AcDbEntity
  8
L1_120
  6
CONTINUOUS
 62
         7
100
AcDbVertex
100
AcDb2dVertex
 10
1246.0549269753
 20
-175.9719476016
 30
77.0292807797
 70
         1
  0
VERTEX
  5
9D
100
AcDbEntity
  8
L1_120
  6
CONTINUOUS
 62
         7
100
AcDbVertex
100
AcDb2dVertex
 10
1246.2433893461
 20
-175.8200834187
 30
77.0292807797
 70
         1
  0
VERTEX
  5
9F
100
AcDbEntity
  8
L1_120
  6
CONTINUOUS
 62
         7
100
AcDbVertex
100
AcDb2dVertex
 10
1246.4837181464
 20
-175.5929008681
 30
77.0292807797
 70
         1
  0
VERTEX
  5
A1
100
AcDbEntity
  8
L1_120
  6
CONTINUOUS
 62
         7
100
AcDbVertex
100
AcDb2dVertex
 10
1246.7066782262
 20
-175.3429921919
 30
77.0292807797
 70
         1
  0
VERTEX
  5
A3
100
AcDbEntity
  8
L1_120
  6
CONTINUOUS
 62
         7
100
AcDbVertex
100
AcDb2dVertex
 10
1246.9094565804
 20
-175.0755550798
 30
77.0292807797
 70
         1
  0
VERTEX
  5
A5
100
AcDbEntity
  8
L1_120
  6
CONTINUOUS
 62
         7
100
AcDbVertex
100
AcDb2dVertex
 10
1247.0901161476
 20
-174.7960081447
 30
77.0292807797
 70
         1
  0
VERTEX
  5
A7
100
AcDbEntity
  8
L1_120
  6
CONTINUOUS
 62
         7
100
AcDbVertex
100
AcDb2dVertex
 10
1247.2476134218
 20
-174.5096756349
 30
77.0292807797
 70
         1
  0
VERTEX
  5
A9
100
AcDbEntity
  8
L1_120
  6
CONTINUOUS
 62
         7
100
AcDbVertex
100
AcDb2dVertex
 10
1247.3817437169
 20
-174.2215208003
 30
77.0292807797
 70
         1
  0
VERTEX
  5
AB
100
AcDbEntity
  8
L1_120
  6
CONTINUOUS
 62
         7
100
AcDbVertex
100
AcDb2dVertex
 10
1247.5261427795
 20
-173.8392381243
 30
77.0292807797
 70
         1
  0
VERTEX
  5
AD
100
AcDbEntity
  8
L1_120
  6
CONTINUOUS
 62
         7
100
AcDbVertex
100
AcDb2dVertex
 10
1247.6322656051
 20
-173.4702435139
 30
77.0292807797
 70
         1
  0
VERTEX
  5
AF
100
AcDbEntity
  8
L1_120
  6
CONTINUOUS
 62
         7
100
AcDbVertex
100
AcDb2dVertex
 10
1247.7042127264
 20
-173.1208804735
 30
77.0292807797
 70
         1
  0
VERTEX
  5
B1
100
AcDbEntity
  8
L1_120
  6
CONTINUOUS
 62
         7
100
AcDbVertex
100
AcDb2dVertex
 10
1247.7467072702
 20
-172.7952534355
 30
77.0292807797
 70
         1
  0
VERTEX
  5
B3
100
AcDbEntity
  8
L1_120
  6
CONTINUOUS
 62
         7
100
AcDbVertex
100
AcDb2dVertex
 10
1247.7646013931
 20
-172.495549642
 30
77.0292807797
 70
         1
  0
VERTEX
  5
B5
100
AcDbEntity
  8
L1_120
  6
CONTINUOUS
 62
         7
100
AcDbVertex
100
AcDb2dVertex
 10
1247.7625285515
 20
-172.2224420283
 30
77.0292807797
 70
         1
  0
VERTEX
  5
B7
100
AcDbEntity
  8
L1_120
  6
CONTINUOUS
 62
         7
100
AcDbVertex
100
AcDb2dVertex
 10
1247.7355152794
 20
-171.8957941766
 30
77.0292807797
 70
         1
  0
VERTEX
  5
B9
100
AcDbEntity
  8
L1_120
  6
CONTINUOUS
 62
         7
100
AcDbVertex
100
AcDb2dVertex
 10
1247.6885652675
 20
-171.6134097285
 30
77.0292807797
 70
         1
  0
VERTEX
  5
BB
100
AcDbEntity
  8
L1_120
  6
CONTINUOUS
 62
         7
100
AcDbVertex
100
AcDb2dVertex
 10
1247.6285827143
 20
-171.3709312079
 30
77.0292807797
 70
         1
  0
VERTEX
  5
BD
100
AcDbEntity
  8
L1_120
  6
CONTINUOUS
 62
         7
100
AcDbVertex
100
AcDb2dVertex
 10
1247.5359142964
 20
-171.0981286256
 30
77.0292807797
 70
         1
  0
VERTEX
  5
BF
100
AcDbEntity
  8
L1_120
  6
CONTINUOUS
 62
         7
100
AcDbVertex
100
AcDb2dVertex
 10
1247.4379596234
 20
-170.8779762823
 30
77.0292807797
 70
         1
  0
VERTEX
  5
C1
100
AcDbEntity
  8
L1_120
  6
CONTINUOUS
 62
         7
100
AcDbVertex
100
AcDb2dVertex
 10
1247.3404379996
 20
-170.7002885574
 30
77.0292807797
 70
         1
  0
VERTEX
  5
C3
100
AcDbEntity
  8
L1_120
  6
CONTINUOUS
 62
         7
100
AcDbVertex
100
AcDb2dVertex
 10
1247.2144989042
 20
-170.5119200999
 30
77.0292807797
 70
         1
  0
VERTEX
  5
C5
100
AcDbEntity
  8
L1_120
  6
CONTINUOUS
 62
         7
100
AcDbVertex
100
AcDb2dVertex
 10
1247.0605604676
 20
-170.32631316
 30
77.0292807797
 70
         1
  0
VERTEX
  5
C7
100
AcDbEntity
  8
L1_120
  6
CONTINUOUS
 62
         7
100
AcDbVertex
100
AcDb2dVertex
 10
1246.9299356251
 20
-170.1976538503
 30
77.0292807797
 70
         1
  0
VERTEX
  5
C9
100
AcDbEntity
  8
L1_120
  6
CONTINUOUS
 62
         7
100
AcDbVertex
100
AcDb2dVertex
 10
1246.7849091266
 20
-170.0792862013
 30
77.0292807797
 70
         1
  0
VERTEX
  5
CB
100
AcDbEntity
  8
L1_120
  6
CONTINUOUS
 62
         7
100
AcDbVertex
100
AcDb2dVertex
 10
1246.6374492019
 20
-169.9808685157
 30
77.0292807797
 70
         1
  0
VERTEX
  5
CD
100
AcDbEntity
  8
L1_120
  6
CONTINUOUS
 62
         7
100
AcDbVertex
100
AcDb2dVertex
 10
1246.4606635101
 20
-169.8875548662
 30
77.0292807797
 70
         1
  0
VERTEX
  5
CF
100
AcDbEntity
  8
L1_120
  6
CONTINUOUS
 62
         7
100
AcDbVertex
100
AcDb2dVertex
 10
1246.3263585584
 20
-169.8323956273
 30
77.0292807797
 70
         1
  0
SEQEND
  5
D1
100
AcDbEntity
  8
L1_120
  6
CONTINUOUS
 62
         7
  0
LINE
  5
D2
100
AcDbEntity
  8
L1_120
  6
CENTER
 62
         1
100
AcDbLine
 10
1249.8277511607
 20
-190.6333613935
 30
12.5879792302
 11
1240.4308249528
 21
-187.4194233451
 31
13.7577570146
  0
POLYLINE
  5
D4
100
AcDbEntity
  8
L1_120
  6
CONTINUOUS
 62
         7
100
AcDb3dPolyline
 66
         1
 10
0.0
 20
0.0
 30
0.0
 70
         8
  0
VERTEX
  5
D6
100
AcDbEntity
  8
L1_120
  6
CONTINUOUS
 62
         7
100
AcDbVertex
100
AcDb3dPolylineVertex
 10
1244.3375717432
 20
-186.6342890987
 30
14.0435225102
 70
        32
  0
VERTEX
  5
D8
100
AcDbEntity
  8
L1_120
  6
CONTINUOUS
 62
         7
100
AcDbVertex
100
AcDb3dPolylineVertex
 10
1244.3375717432
 20
-186.6342890987
 30
14.0435225102
 70
        32
  0
SEQEND
  5
DA
100
AcDbEntity
  8
L1_120
  6
CONTINUOUS
 62
         7
  0
POLYLINE
  5
DC
100
AcDbEntity
  8
L1_120
  6
CONTINUOUS
 62
         7
100
AcDb2dPolyline
 66
         1
 10
0.0
 20
0.0
 30
77.0292807797
 70
         2
210
0.0
220
-0.3420201433256687
230
0.9396926207859084
  0
VERTEX
  5
DE
100
AcDbEntity
  8
L1_120
  6
CONTINUOUS
 62
         7
100
AcDbVertex
100
AcDb2dVertex
 10
1218.2120728441
 20
-246.8621751854
 30
77.0292807797
 70
         1
  0
VERTEX
  5
E0
100
AcDbEntity
  8
L1_120
  6
CONTINUOUS
 62
         7
100
AcDbVertex
100
AcDb2dVertex
 10
1217.8320717794
 20
-246.7692038404
 30
77.0292807797
 70
         1
  0
VERTEX
  5
E2
100
AcDbEntity
  8
L1_120
  6
CONTINUOUS
 62
         7
100
AcDbVertex
100
AcDb2dVertex
 10
1217.655003112
 20
-246.7542023426
 30
77.0292807797
 70
         1
  0
VERTEX
  5
E4
100
AcDbEntity
  8
L1_120
  6
CONTINUOUS
 62
         7
100
AcDbVertex
100
AcDb2dVertex
 10
1217.4703758419
 20
-246.756035482
 30
77.0292807797
 70
         1
  0
VERTEX
  5
E6
100
AcDbEntity
  8
L1_120
  6
CONTINUOUS
 62
         7
100
AcDbVertex
100
AcDb2dVertex
 10
1217.2793689923
 20
-246.7758725331
 30
77.0292807797
 70
         1
  0
VERTEX
  5
E8
100
AcDbEntity
  8
L1_120
  6
CONTINUOUS
 62
         7
100
AcDbVertex
100
AcDb2dVertex
 10
1217.0833842646
 20
-246.8146288044
 30
77.0292807797
 70
         1
  0
VERTEX
  5
EA
100
AcDbEntity
  8
L1_120
  6
CONTINUOUS
 62
         7
100
AcDbVertex
100
AcDb2dVertex
 10
1216.8840216325
 20
-246.8729106636
 30
77.0292807797
 70
         1
  0
VERTEX
  5
EC
100
AcDbEntity
  8
L1_120
  6
CONTINUOUS
 62
         7
100
AcDbVertex
100
AcDb2dVertex
 10
1216.6830424001
 20
-246.9509700242
 30
77.0292807797
 70
         1
  0
VERTEX
  5
EE
100
AcDbEntity
  8
L1_120
  6
CONTINUOUS
 62
         7
100
AcDbVertex
100
AcDb2dVertex
 10
1216.4823208734
 20
-247.0486725865
 30
77.0292807797
 70
         1
  0
VERTEX
  5
F0
100
AcDbEntity
  8
L1_120
  6
CONTINUOUS
 62
         7
100
AcDbVertex
100
AcDb2dVertex
 10
1216.2837870034
 20
-247.1654833431
 30
77.0292807797
 70
         1
  0
VERTEX
  5
F2
100
AcDbEntity
  8
L1_120
  6
CONTINUOUS
 62
         7
100
AcDbVertex
100
AcDb2dVertex
 10
1216.0893634238
 20
-247.3004715566
 30
77.0292807797
 70
         1
  0
VERTEX
  5
F4
100
AcDbEntity
  8
L1_120
  6
CONTINUOUS
 62
         7
100
AcDbVertex
100
AcDb2dVertex
 10
1215.9009010531
 20
-247.4523357395
 30
77.0292807797
 70
         1
  0
VERTEX
  5
F6
100
AcDbEntity
  8
L1_120
  6
CONTINUOUS
 62
         7
100
AcDbVertex
100
AcDb2dVertex
 10
1215.6605722527
 20
-247.6795182901
 30
77.0292807797
 70
         1
  0
VERTEX
  5
F8
100
AcDbEntity
  8
L1_120
  6
CONTINUOUS
 62
         7
100
AcDbVertex
100
AcDb2dVertex
 10
1215.437612173
 20
-247.9294269662
 30
77.0292807797
 70
         1
  0
VERTEX
  5
FA
100
AcDbEntity
  8
L1_120
  6
CONTINUOUS
 62
         7
100
AcDbVertex
100
AcDb2dVertex
 10
1215.2348338188
 20
-248.1968640783
 30
77.0292807797
 70
         1
  0
VERTEX
  5
FC
100
AcDbEntity
  8
L1_120
  6
CONTINUOUS
 62
         7
100
AcDbVertex
100
AcDb2dVertex
 10
1215.0541742516
 20
-248.4764110134
 30
77.0292807797
 70
         1
  0
VERTEX
  5
FE
100
AcDbEntity
  8
L1_120
  6
CONTINUOUS
 62
         7
100
AcDbVertex
100
AcDb2dVertex
 10
1214.8966769774
 20
-248.7627435233
 30
77.0292807797
 70
         1
  0
VERTEX
  5
100
100
AcDbEntity
  8
L1_120
  6
CONTINUOUS
 62
         7
100
AcDbVertex
100
AcDb2dVertex
 10
1214.7625466823
 20
-249.0508983579
 30
77.0292807797
 70
         1
  0
VERTEX
  5
102
100
AcDbEntity
  8
L1_120
  6
CONTINUOUS
 62
         7
100
AcDbVertex
100
AcDb2dVertex
 10
1214.6181476197
 20
-249.4331810338
 30
77.0292807797
 70
         1
  0
VERTEX
  5
104
100
AcDbEntity
  8
L1_120
  6
CONTINUOUS
 62
         7
100
AcDbVertex
100
AcDb2dVertex
 10
1214.512024794
 20
-249.8021756442
 30
77.0292807797
 70
         1
  0
VERTEX
  5
106
100
AcDbEntity
  8
L1_120
  6
CONTINUOUS
 62
         7
100
AcDbVertex
100
AcDb2dVertex
 10
1214.4400776727
 20
-250.1515386846
 30
77.0292807797
 70
         1
  0
VERTEX
  5
108
100
AcDbEntity
  8
L1_120
  6
CONTINUOUS
 62
         7
100
AcDbVertex
100
AcDb2dVertex
 10
1214.3975831289
 20
-250.4771657227
 30
77.0292807797
 70
         1
  0
VERTEX
  5
10A
100
AcDbEntity
  8
L1_120
  6
CONTINUOUS
 62
         7
100
AcDbVertex
100
AcDb2dVertex
 10
1214.379689006
 20
-250.7768695161
 30
77.0292807797
 70
         1
  0
VERTEX
  5
10C
100
AcDbEntity
  8
L1_120
  6
CONTINUOUS
 62
         7
100
AcDbVertex
100
AcDb2dVertex
 10
1214.3817618477
 20
-251.0499771298
 30
77.0292807797
 70
         1
  0
VERTEX
  5
10E
100
AcDbEntity
  8
L1_120
  6
CONTINUOUS
 62
         7
100
AcDbVertex
100
AcDb2dVertex
 10
1214.4087751198
 20
-251.3766249816
 30
77.0292807797
 70
         1
  0
VERTEX
  5
110
100
AcDbEntity
  8
L1_120
  6
CONTINUOUS
 62
         7
100
AcDbVertex
100
AcDb2dVertex
 10
1214.4557251316
 20
-251.6590094297
 30
77.0292807797
 70
         1
  0
VERTEX
  5
112
100
AcDbEntity
  8
L1_120
  6
CONTINUOUS
 62
         7
100
AcDbVertex
100
AcDb2dVertex
 10
1214.5157076848
 20
-251.9014879502
 30
77.0292807797
 70
         1
  0
VERTEX
  5
114
100
AcDbEntity
  8
L1_120
  6
CONTINUOUS
 62
         7
100
AcDbVertex
100
AcDb2dVertex
 10
1214.6083761028
 20
-252.1742905325
 30
77.0292807797
 70
         1
  0
VERTEX
  5
116
100
AcDbEntity
  8
L1_120
  6
CONTINUOUS
 62
         7
100
AcDbVertex
100
AcDb2dVertex
 10
1214.7063307758
 20
-252.3944428758
 30
77.0292807797
 70
         1
  0
VERTEX
  5
118
100
AcDbEntity
  8
L1_120
  6
CONTINUOUS
 62
         7
100
AcDbVertex
100
AcDb2dVertex
 10
1214.8038523996
 20
-252.5721306008
 30
77.0292807797
 70
         1
  0
VERTEX
  5
11A
100
AcDbEntity
  8
L1_120
  6
CONTINUOUS
 62
         7
100
AcDbVertex
100
AcDb2dVertex
 10
1214.929791495
 20
-252.7604990583
 30
77.0292807797
 70
         1
  0
VERTEX
  5
11C
100
AcDbEntity
  8
L1_120
  6
CONTINUOUS
 62
         7
100
AcDbVertex
100
AcDb2dVertex
 10
1215.0837299316
 20
-252.9461059981
 30
77.0292807797
 70
         1
  0
VERTEX
  5
11E
100
AcDbEntity
  8
L1_120
  6
CONTINUOUS
 62
         7
100
AcDbVertex
100
AcDb2dVertex
 10
1215.2143547741
 20
-253.0747653078
 30
77.0292807797
 70
         1
  0
VERTEX
  5
120
100
AcDbEntity
  8
L1_120
  6
CONTINUOUS
 62
         7
100
AcDbVertex
100
AcDb2dVertex
 10
1215.3593812726
 20
-253.1931329569
 30
77.0292807797
 70
         1
  0
VERTEX
  5
122
100
AcDbEntity
  8
L1_120
  6
CONTINUOUS
 62
         7
100
AcDbVertex
100
AcDb2dVertex
 10
1215.5068411973
 20
-253.2915506424
 30
77.0292807797
 70
         1
  0
VERTEX
  5
124
100
AcDbEntity
  8
L1_120
  6
CONTINUOUS
 62
         7
100
AcDbVertex
100
AcDb2dVertex
 10
1215.6836268891
 20
-253.3848642919
 30
77.0292807797
 70
         1
  0
VERTEX
  5
126
100
AcDbEntity
  8
L1_120
  6
CONTINUOUS
 62
         7
100
AcDbVertex
100
AcDb2dVertex
 10
1215.8179318408
 20
-253.4400235309
 30
77.0292807797
 70
         1
  0
VERTEX
  5
128
100
AcDbEntity
  8
L1_120
  6
CONTINUOUS
 62
         7
100
AcDbVertex
100
AcDb2dVertex
 10
1215.8179318408
 20
-253.4400235309
 30
77.0292807797
 70
         1
  0
VERTEX
  5
12A
100
AcDbEntity
  8
L1_120
  6
CONTINUOUS
 62
         7
100
AcDbVertex
100
AcDb2dVertex
 10
1216.1979329055
 20
-253.5329948759
 30
77.0292807797
 70
         1
  0
VERTEX
  5
12C
100
AcDbEntity
  8
L1_120
  6
CONTINUOUS
 62
         7
100
AcDbVertex
100
AcDb2dVertex
 10
1216.3750015728
 20
-253.5479963737
 30
77.0292807797
 70
         1
  0
VERTEX
  5
12E
100
AcDbEntity
  8
L1_120
  6
CONTINUOUS
 62
         7
100
AcDbVertex
100
AcDb2dVertex
 10
1216.559628843
 20
-253.5461632342
 30
77.0292807797
 70
         1
  0
VERTEX
  5
130
100
AcDbEntity
  8
L1_120
  6
CONTINUOUS
 62
         7
100
AcDbVertex
100
AcDb2dVertex
 10
1216.7506356926
 20
-253.5263261832
 30
77.0292807797
 70
         1
  0
VERTEX
  5
132
100
AcDbEntity
  8
L1_120
  6
CONTINUOUS
 62
         7
100
AcDbVertex
100
AcDb2dVertex
 10
1216.9466204203
 20
-253.4875699118
 30
77.0292807797
 70
         1
  0
VERTEX
  5
134
100
AcDbEntity
  8
L1_120
  6
CONTINUOUS
 62
         7
100
AcDbVertex
100
AcDb2dVertex
 10
1217.1459830524
 20
-253.4292880526
 30
77.0292807797
 70
         1
  0
VERTEX
  5
136
100
AcDbEntity
  8
L1_120
  6
CONTINUOUS
 62
         7
100
AcDbVertex
100
AcDb2dVertex
 10
1217.3469622848
 20
-253.3512286921
 30
77.0292807797
 70
         1
  0
VERTEX
  5
138
100
AcDbEntity
  8
L1_120
  6
CONTINUOUS
 62
         7
100
AcDbVertex
100
AcDb2dVertex
 10
1217.5476838115
 20
-253.2535261298
 30
77.0292807797
 70
         1
  0
VERTEX
  5
13A
100
AcDbEntity
  8
L1_120
  6
CONTINUOUS
 62
         7
100
AcDbVertex
100
AcDb2dVertex
 10
1217.7462176815
 20
-253.1367153731
 30
77.0292807797
 70
         1
  0
VERTEX
  5
13C
100
AcDbEntity
  8
L1_120
  6
CONTINUOUS
 62
         7
100
AcDbVertex
100
AcDb2dVertex
 10
1217.940641261
 20
-253.0017271597
 30
77.0292807797
 70
         1
  0
VERTEX
  5
13E
100
AcDbEntity
  8
L1_120
  6
CONTINUOUS
 62
         7
100
AcDbVertex
100
AcDb2dVertex
 10
1218.1291036318
 20
-252.8498629768
 30
77.0292807797
 70
         1
  0
VERTEX
  5
140
100
AcDbEntity
  8
L1_120
  6
CONTINUOUS
 62
         7
100
AcDbVertex
100
AcDb2dVertex
 10
1218.3694324321
 20
-252.6226804262
 30
77.0292807797
 70
         1
  0
VERTEX
  5
142
100
AcDbEntity
  8
L1_120
  6
CONTINUOUS
 62
         7
100
AcDbVertex
100
AcDb2dVertex
 10
1218.5923925119
 20
-252.3727717501
 30
77.0292807797
 70
         1
  0
VERTEX
  5
144
100
AcDbEntity
  8
L1_120
  6
CONTINUOUS
 62
         7
100
AcDbVertex
100
AcDb2dVertex
 10
1218.7951708661
 20
-252.105334638
 30
77.0292807797
 70
         1
  0
VERTEX
  5
146
100
AcDbEntity
  8
L1_120
  6
CONTINUOUS
 62
         7
100
AcDbVertex
100
AcDb2dVertex
 10
1218.9758304333
 20
-251.8257877029
 30
77.0292807797
 70
         1
  0
VERTEX
  5
148
100
AcDbEntity
  8
L1_120
  6
CONTINUOUS
 62
         7
100
AcDbVertex
100
AcDb2dVertex
 10
1219.1333277075
 20
-251.539455193
 30
77.0292807797
 70
         1
  0
VERTEX
  5
14A
100
AcDbEntity
  8
L1_120
  6
CONTINUOUS
 62
         7
100
AcDbVertex
100
AcDb2dVertex
 10
1219.2674580026
 20
-251.2513003584
 30
77.0292807797
 70
         1
  0
VERTEX
  5
14C
100
AcDbEntity
  8
L1_120
  6
CONTINUOUS
 62
         7
100
AcDbVertex
100
AcDb2dVertex
 10
1219.4118570652
 20
-250.8690176825
 30
77.0292807797
 70
         1
  0
VERTEX
  5
14E
100
AcDbEntity
  8
L1_120
  6
CONTINUOUS
 62
         7
100
AcDbVertex
100
AcDb2dVertex
 10
1219.5179798908
 20
-250.5000230721
 30
77.0292807797
 70
         1
  0
VERTEX
  5
150
100
AcDbEntity
  8
L1_120
  6
CONTINUOUS
 62
         7
100
AcDbVertex
100
AcDb2dVertex
 10
1219.5899270121
 20
-250.1506600317
 30
77.0292807797
 70
         1
  0
VERTEX
  5
152
100
AcDbEntity
  8
L1_120
  6
CONTINUOUS
 62
         7
100
AcDbVertex
100
AcDb2dVertex
 10
1219.632421556
 20
-249.8250329936
 30
77.0292807797
 70
         1
  0
VERTEX
  5
154
100
AcDbEntity
  8
L1_120
  6
CONTINUOUS
 62
         7
100
AcDbVertex
100
AcDb2dVertex
 10
1219.6503156789
 20
-249.5253292002
 30
77.0292807797
 70
         1
  0
VERTEX
  5
156
100
AcDbEntity
  8
L1_120
  6
CONTINUOUS
 62
         7
100
AcDbVertex
100
AcDb2dVertex
 10
1219.6482428372
 20
-249.2522215865
 30
77.0292807797
 70
         1
  0
VERTEX
  5
158
100
AcDbEntity
  8
L1_120
  6
CONTINUOUS
 62
         7
100
AcDbVertex
100
AcDb2dVertex
 10
1219.6212295651
 20
-248.9255737347
 30
77.0292807797
 70
         1
  0
VERTEX
  5
15A
100
AcDbEntity
  8
L1_120
  6
CONTINUOUS
 62
         7
100
AcDbVertex
100
AcDb2dVertex
 10
1219.5742795532
 20
-248.6431892866
 30
77.0292807797
 70
         1
  0
VERTEX
  5
15C
100
AcDbEntity
  8
L1_120
  6
CONTINUOUS
 62
         7
100
AcDbVertex
100
AcDb2dVertex
 10
1219.5142970001
 20
-248.4007107661
 30
77.0292807797
 70
         1
  0
VERTEX
  5
15E
100
AcDbEntity
  8
L1_120
  6
CONTINUOUS
 62
         7
100
AcDbVertex
100
AcDb2dVertex
 10
1219.4216285821
 20
-248.1279081838
 30
77.0292807797
 70
         1
  0
VERTEX
  5
160
100
AcDbEntity
  8
L1_120
  6
CONTINUOUS
 62
         7
100
AcDbVertex
100
AcDb2dVertex
 10
1219.3236739091
 20
-247.9077558405
 30
77.0292807797
 70
         1
  0
VERTEX
  5
162
100
AcDbEntity
  8
L1_120
  6
CONTINUOUS
 62
         7
100
AcDbVertex
100
AcDb2dVertex
 10
1219.2261522853
 20
-247.7300681155
 30
77.0292807797
 70
         1
  0
VERTEX
  5
164
100
AcDbEntity
  8
L1_120
  6
CONTINUOUS
 62
         7
100
AcDbVertex
100
AcDb2dVertex
 10
1219.1002131899
 20
-247.541699658
 30
77.0292807797
 70
         1
  0
VERTEX
  5
166
100
AcDbEntity
  8
L1_120
  6
CONTINUOUS
 62
         7
100
AcDbVertex
100
AcDb2dVertex
 10
1218.9462747533
 20
-247.3560927182
 30
77.0292807797
 70
         1
  0
VERTEX
  5
168
100
AcDbEntity
  8
L1_120
  6
CONTINUOUS
 62
         7
100
AcDbVertex
100
AcDb2dVertex
 10
1218.8156499108
 20
-247.2274334085
 30
77.0292807797
 70
         1
  0
VERTEX
  5
16A
100
AcDbEntity
  8
L1_120
  6
CONTINUOUS
 62
         7
100
AcDbVertex
100
AcDb2dVertex
 10
1218.6706234123
 20
-247.1090657594
 30
77.0292807797
 70
         1
  0
VERTEX
  5
16C
100
AcDbEntity
  8
L1_120
  6
CONTINUOUS
 62
         7
100
AcDbVertex
100
AcDb2dVertex
 10
1218.5231634876
 20
-247.0106480739
 30
77.0292807797
 70
         1
  0
VERTEX
  5
16E
100
AcDbEntity
  8
L1_120
  6
CONTINUOUS
 62
         7
100
AcDbVertex
100
AcDb2dVertex
 10
1218.3463777958
 20
-246.9173344244
 30
77.0292807797
 70
         1
  0
VERTEX
  5
170
100
AcDbEntity
  8
L1_120
  6
CONTINUOUS
 62
         7
100
AcDbVertex
100
AcDb2dVertex
 10
1218.2120728441
 20
-246.8621751854
 30
77.0292807797
 70
         1
  0
SEQEND
  5
172
100
AcDbEntity
  8
L1_120
  6
CONTINUOUS
 62
         7
  0
LINE
  5
173
100
AcDbEntity
  8
L1_120
  6
CENTER
 62
         1
100
AcDbLine
 10
1221.7134654464
 20
-263.0176768251
 30
-13.7577570146
 11
1212.3165392385
 21
-259.8037387767
 31
-12.5879792302
  0
ARC
  5
174
100
AcDbEntity
  8
L1_120
  6
CONTINUOUS
 62
         7
100
AcDbCircle
 10
1318.5508425579
 20
-350.7208944442
 30
115.6604805667
 40
2.5
210
0.0
220
-0.3420201433256687
230
0.9396926207859084
100
AcDbArc
 50
180.0
 51
261.702778
  0
LINE
  5
175
100
AcDbEntity
  8
L1_120
  6
CONTINUOUS
 62
         7
100
AcDbLine
 10
1316.0508425579
 20
-335.39997203
 30
1.0077061803
 11
1316.0508425579
 21
-369.1280506051
 31
-11.2683104801
  0
ARC
  5
176
100
AcDbEntity
  8
L1_120
  6
CONTINUOUS
 62
         7
100
AcDbCircle
 10
1318.5508425579
 20
-314.8282229161
 30
115.6604805667
 40
2.5
210
0.0
220
-0.3420201433256687
230
0.9396926207859084
100
AcDbArc
 50
98.297222
 51
180.0
  0
LINE
  5
177
100
AcDbEntity
  8
L1_120
  6
CONTINUOUS
 62
         7
100
AcDbLine
 10
1317.4008425579
 20
-340.5178535577
 30
-0.8550503583
 11
1320.2508425579
 21
-340.5178535577
 31
-0.8550503583
  0
LINE
  5
178
100
AcDbEntity
  8
L1_120
  6
CONTINUOUS
 62
         7
100
AcDbLine
 10
1418.8508425579
 20
-385.2472238554
 30
-17.1352097441
 11
1318.0400719993
 21
-371.4321362806
 31
-12.1069290831
  0
LINE
  5
179
100
AcDbEntity
  8
L1_120
  6
CONTINUOUS
 62
         7
100
AcDbLine
 10
1324.3201865194
 20
-362.0333766739
 30
-8.6860603473
 11
1466.3785646315
 21
-362.0333766739
 31
-8.6860603473
  0
LINE
  5
17A
100
AcDbEntity
  8
L1_120
  6
CONTINUOUS
 62
         5
100
AcDbLine
 10
1322.7165279828
 20
-363.540322767
 30
-9.2345438698
 11
1360.5508425579
 21
-363.540322767
 31
-9.2345438698
  0
LINE
  5
17B
100
AcDbEntity
  8
L1_120
  6
CONTINUOUS
 62
         7
100
AcDbLine
 10
1419.3567507873
 20
-319.2114692184
 30
6.899839341
 11
1318.0400719993
 21
-333.0958863545
 31
1.8463247833
  0
LINE
  5
17C
100
AcDbEntity
  8
L1_120
  6
CONTINUOUS
 62
         7
100
AcDbLine
 10
1324.3201865194
 20
-342.4946459612
 30
-1.5745439525
 11
1466.3785646315
 21
-342.4946459612
 31
-1.5745439525
  0
LINE
  5
17D
100
AcDbEntity
  8
L1_120
  6
CONTINUOUS
 62
         5
100
AcDbLine
 10
1322.7165279828
 20
-340.9876998681
 30
-1.02606043
 11
1360.5508425579
 21
-340.9876998681
 31
-1.02606043
  0
LINE
  5
17E
100
AcDbEntity
  8
L1_120
  6
CENTER
 62
         1
100
AcDbLine
 10
1315.9008425579
 20
-352.2640113176
 30
-5.1303021499
 11
1559.4508425579
 21
-352.2640113176
 31
-5.1303021499
  0
LINE
  5
17F
100
AcDbEntity
  8
L1_120
  6
CONTINUOUS
 62
         7
100
AcDbLine
 10
1322.2508425579
 20
-363.9779239244
 30
-9.3938176656
 11
1322.2508425579
 21
-340.5500987107
 31
-0.8667866342
  0
LINE
  5
180
100
AcDbEntity
  8
L1_120
  6
CONTINUOUS
 62
         7
100
AcDbLine
 10
1320.9972527194
 20
-340.3299150336
 30
-0.7866463297
 11
1321.8508425579
 21
-340.3299150336
 31
-0.7866463297
  0
LINE
  5
181
100
AcDbEntity
  8
L1_120
  6
CONTINUOUS
 62
         7
100
AcDbLine
 10
1320.2508425579
 20
-364.0101690774
 30
-9.4055539415
 11
1320.2508425579
 21
-340.5178535577
 31
-0.8550503583
  0
ARC
  5
182
100
AcDbEntity
  8
L1_120
  6
CONTINUOUS
 62
         7
100
AcDbCircle
 10
1321.8508425579
 20
-320.4745586802
 30
115.6604805667
 40
0.4
210
0.0
220
-0.3420201433256687
230
0.9396926207859084
100
AcDbArc
 50
45.0
 51
90.0
  0
LINE
  5
183
100
AcDbEntity
  8
L1_120
  6
CONTINUOUS
 62
         7
100
AcDbLine
 10
1320.9972527194
 20
-340.3299150336
 30
-0.7866463297
 11
1320.2508425579
 21
-340.5178535577
 31
-0.8550503583
  0
ARC
  5
184
100
AcDbEntity
  8
L1_120
  6
CONTINUOUS
 62
         7
100
AcDbCircle
 10
1317.4008425579
 20
-318.7745586802
 30
115.6604805667
 40
1.5
210
0.0
220
-0.3420201433256687
230
0.9396926207859084
100
AcDbArc
 50
205.8419327625
 51
270.0
  0
LINE
  5
185
100
AcDbEntity
  8
L1_120
  6
CONTINUOUS
 62
         7
100
AcDbLine
 10
1322.1336852703
 20
-340.4400068721
 30
-0.8267164819
 11
1324.3201865194
 21
-342.4946459612
 31
-1.5745439525
  0
LINE
  5
186
100
AcDbEntity
  8
L1_120
  6
CONTINUOUS
 62
         7
100
AcDbLine
 10
1317.4008425579
 20
-364.0101690774
 30
-9.4055539415
 11
1320.2508425579
 21
-364.0101690774
 31
-9.4055539415
  0
LINE
  5
187
100
AcDbEntity
  8
L1_120
  6
CONTINUOUS
 62
         7
100
AcDbLine
 10
1320.9972527194
 20
-364.1981076015
 30
-9.4739579701
 11
1321.8508425579
 21
-364.1981076015
 31
-9.4739579701
  0
LINE
  5
188
100
AcDbEntity
  8
L1_120
  6
CONTINUOUS
 62
         7
100
AcDbLine
 10
1320.9972527194
 20
-364.1981076015
 30
-9.4739579701
 11
1320.2508425579
 21
-364.0101690774
 31
-9.4055539415
  0
ARC
  5
189
100
AcDbEntity
  8
L1_120
  6
CONTINUOUS
 62
         7
100
AcDbCircle
 10
1317.4008425579
 20
-346.7745586802
 30
115.6604805667
 40
1.5
210
0.0
220
-0.3420201433256687
230
0.9396926207859084
100
AcDbArc
 50
90.0
 51
154.1580672375
  0
ARC
  5
18A
100
AcDbEntity
  8
L1_120
  6
CONTINUOUS
 62
         7
100
AcDbCircle
 10
1321.8508425579
 20
-345.0745586802
 30
115.6604805667
 40
0.4
210
0.0
220
-0.3420201433256687
230
0.9396926207859084
100
AcDbArc
 50
270.0
 51
315.0
  0
LINE
  5
18B
100
AcDbEntity
  8
L1_120
  6
CONTINUOUS
 62
         7
100
AcDbLine
 10
1322.1336852703
 20
-364.088015763
 30
-9.4338878179
 11
1324.3201865194
 21
-362.0333766739
 31
-8.6860603473
  0
LINE
  5
18C
100
AcDbEntity
  8
L1_120
  6
CONTINUOUS
 62
         7
100
AcDbLine
 10
1324.3201865194
 20
-362.0333766739
 30
-8.6860603473
 11
1324.3201865194
 21
-342.4946459612
 31
-1.5745439525
  0
LINE
  5
18D
100
AcDbEntity
  8
L1_120
  6
CONTINUOUS
 62
         7
100
AcDbLine
 10
1360.5508425579
 20
-340.9876998681
 30
-1.02606043
 11
1360.5508425579
 21
-363.540322767
 31
-9.2345438698
  0
LINE
  5
18E
100
AcDbEntity
  8
L1_120
  6
CONTINUOUS
 62
         5
100
AcDbLine
 10
1360.5508425579
 20
-340.9876998681
 30
-1.02606043
 11
1366.9508425579
 21
-342.4946459612
 31
-1.5745439525
  0
LINE
  5
18F
100
AcDbEntity
  8
L1_120
  6
CONTINUOUS
 62
         5
100
AcDbLine
 10
1360.5508425579
 20
-363.540322767
 30
-9.2345438698
 11
1366.9508425579
 21
-362.0333766739
 31
-8.6860603473
  0
ARC
  5
190
100
AcDbEntity
  8
L1_120
  6
CONTINUOUS
 62
         7
100
AcDbCircle
 10
1318.4008425579
 20
-229.0358093767
 30
76.830285162
 40
2.5
210
0.0
220
-0.3420201433256687
230
0.9396926207859084
100
AcDbArc
 50
180.0
 51
261.702778
  0
ARC
  5
191
100
AcDbEntity
  8
L1_120
  6
CONTINUOUS
 62
         7
100
AcDbCircle
 10
1318.4008425579
 20
-193.1431378487
 30
76.830285162
 40
2.5
210
0.0
220
-0.3420201433256687
230
0.9396926207859084
100
AcDbArc
 50
98.297222
 51
180.0
  0
LINE
  5
192
100
AcDbEntity
  8
L1_120
  6
CONTINUOUS
 62
         7
100
AcDbLine
 10
1315.9008425579
 20
-207.7726865347
 30
6.1380083302
 11
1315.9008425579
 21
-241.5007651099
 31
-6.1380083302
  0
LINE
  5
193
100
AcDbEntity
  8
L1_120
  6
CONTINUOUS
 62
         7
100
AcDbLine
 10
1418.0151234302
 20
-257.5259675498
 30
-11.9707050164
 11
1318.0400719993
 21
-243.8254067549
 31
-6.9841086943
  0
LINE
  5
194
100
AcDbEntity
  8
L1_120
  6
CONTINUOUS
 62
         7
100
AcDbLine
 10
1418.063496447
 20
-191.7408550664
 30
11.9731177854
 11
1318.0400719993
 21
-205.4480448897
 31
6.9841086943
  0
LINE
  5
195
100
AcDbEntity
  8
L1_120
  6
CONTINUOUS
 62
         7
100
AcDbLine
 10
1315.9008425579
 20
-207.7726865347
 30
6.1380083302
 11
1315.9008425579
 21
-241.5007651099
 31
-6.1380083302
  0
LINE
  5
196
100
AcDbEntity
  8
L1_120
  6
CONTINUOUS
 62
         4
100
AcDbLine
 10
1419.5208425579
 20
-270.4467410856
 30
-16.6734819871
 11
1419.5208425579
 21
-237.6514686202
 31
-4.7369789851
  0
LINE
  5
197
100
AcDbEntity
  8
L1_120
  6
CONTINUOUS
 62
         7
100
AcDbLine
 10
1419.0208425579
 20
-269.9768947752
 30
-16.5024719155
 11
1419.5208425579
 21
-270.4467410856
 31
-16.6734819871
  0
LINE
  5
198
100
AcDbEntity
  8
L1_120
  6
CENTER
 62
         1
100
AcDbLine
 10
1417.5008425579
 20
-187.3074364616
 30
13.5867501936
 11
1417.5008425579
 21
-260.5997531805
 31
-13.0894714925
  0
LINE
  5
199
100
AcDbEntity
  8
L1_120
  6
CONTINUOUS
 62
         7
100
AcDbLine
 10
1419.0208425579
 20
-268.0975095336
 30
-15.8184316288
 11
1419.0208425579
 21
-269.9768947752
 31
-16.5024719155
  0
LINE
  5
19A
100
AcDbEntity
  8
L1_120
  6
CONTINUOUS
 62
         7
100
AcDbLine
 10
1418.0151234302
 20
-191.7474840948
 30
11.9707050164
 11
1418.2208425579
 21
-191.7474840948
 31
11.9707050164
  0
ARC
  5
19B
100
AcDbEntity
  8
L1_120
  6
CONTINUOUS
 62
         7
100
AcDbCircle
 10
1418.2208425579
 20
-175.2894736127
 30
76.830285162
 40
0.8
210
0.0
220
-0.3420201433256687
230
0.9396926207859084
100
AcDbArc
 50
270.0
 51
360.0
  0
LINE
  5
19C
100
AcDbEntity
  8
L1_120
  6
CONTINUOUS
 62
         7
100
AcDbLine
 10
1418.0151234302
 20
-257.5259675498
 30
-11.9707050164
 11
1418.0151234302
 21
-191.7474840948
 31
11.9707050164
  0
ARC
  5
19D
100
AcDbEntity
  8
L1_120
  6
CONTINUOUS
 62
         7
100
AcDbCircle
 10
1418.2208425579
 20
-246.8894736127
 30
76.830285162
 40
0.8
210
0.0
220
-0.3420201433256687
230
0.9396926207859084
100
AcDbArc
 50
0.0
 51
90.0
  0
LINE
  5
19E
100
AcDbEntity
  8
L1_120
  6
CONTINUOUS
 62
         7
100
AcDbLine
 10
1418.0151234302
 20
-257.5259675498
 30
-11.9707050164
 11
1418.2208425579
 21
-257.5259675498
 31
-11.9707050164
  0
CIRCLE
  5
19F
100
AcDbEntity
  8
L1_120
  6
CONTINUOUS
 62
         7
100
AcDbCircle
 10
1428.6008425579
 20
-210.7468680594
 30
76.7069895068
 40
4.76
210
0.0
220
-0.3420201433256687
230
0.9396926207859084
  0
LINE
  5
1A0
100
AcDbEntity
  8
L1_120
  6
CONTINUOUS
 62
         7
100
AcDbLine
 10
1436.6008425579
 20
-237.2909762411
 30
-4.7369789851
 11
1432.1371129567
 21
-237.2909762411
 31
-4.7369789851
  0
LINE
  5
1A1
100
AcDbEntity
  8
L1_120
  6
CONTINUOUS
 62
         7
100
AcDbLine
 10
1425.0645721591
 20
-237.2909762411
 30
-4.7369789851
 11
1419.0208425579
 21
-237.2909762411
 31
-4.7369789851
  0
LINE
  5
1A2
100
AcDbEntity
  8
L1_120
  6
CONTINUOUS
 62
         7
100
AcDbLine
 10
1425.0645721591
 20
-237.2909762411
 30
-4.7369789851
 11
1426.7258425579
 21
-236.3324012818
 31
-4.3880862326
  0
LINE
  5
1A3
100
AcDbEntity
  8
L1_120
  6
CONTINUOUS
 62
         7
100
AcDbLine
 10
1435.4807483929
 20
-236.3324012818
 30
-4.3880862326
 11
1419.0208425579
 21
-236.3324012818
 31
-4.3880862326
  0
LINE
  5
1A4
100
AcDbEntity
  8
L1_120
  6
CONTINUOUS
 62
         7
100
AcDbLine
 10
1430.4758425579
 20
-236.3324012818
 30
-4.3880862326
 11
1432.1371129567
 21
-237.2909762411
 31
-4.7369789851
  0
LINE
  5
1A5
100
AcDbEntity
  8
L1_120
  6
CONTINUOUS
 62
         7
100
AcDbLine
 10
1436.5008425579
 20
-237.2909762411
 30
-4.7369789851
 11
1435.4807483929
 21
-236.3324012818
 31
-4.3880862326
  0
LINE
  5
1A6
100
AcDbEntity
  8
L1_120
  6
CONTINUOUS
 62
         7
100
AcDbLine
 10
1432.1371129567
 20
-237.2909762411
 30
-4.7369789851
 11
1432.1371129567
 21
-270.0862487065
 31
-16.6734819871
  0
LINE
  5
1A7
100
AcDbEntity
  8
L1_120
  6
CONTINUOUS
 62
         7
100
AcDbLine
 10
1430.4758425579
 20
-236.3324012818
 30
-4.3880862326
 11
1430.4758425579
 21
-267.3823870624
 31
-15.6893568311
  0
LINE
  5
1A8
100
AcDbEntity
  8
L1_120
  6
CONTINUOUS
 62
         7
100
AcDbLine
 10
1426.7258425579
 20
-236.3324012818
 30
-4.3880862326
 11
1426.7258425579
 21
-267.3823870624
 31
-15.6893568311
  0
LINE
  5
1A9
100
AcDbEntity
  8
L1_120
  6
CONTINUOUS
 62
         7
100
AcDbLine
 10
1425.0645721591
 20
-237.2909762411
 30
-4.7369789851
 11
1425.0645721591
 21
-270.0862487065
 31
-16.6734819871
  0
LINE
  5
1AA
100
AcDbEntity
  8
L1_120
  6
CONTINUOUS
 62
         7
100
AcDbLine
 10
1436.6008425579
 20
-211.2614906453
 30
4.7369789851
 11
1432.1371129567
 21
-211.2614906453
 31
4.7369789851
  0
LINE
  5
1AB
100
AcDbEntity
  8
L1_120
  6
CONTINUOUS
 62
         7
100
AcDbLine
 10
1425.0645721591
 20
-211.2614906453
 30
4.7369789851
 11
1426.7258425579
 21
-212.2200656046
 31
4.3880862326
  0
LINE
  5
1AC
100
AcDbEntity
  8
L1_120
  6
CONTINUOUS
 62
         7
100
AcDbLine
 10
1425.0645721591
 20
-211.2614906453
 30
4.7369789851
 11
1419.0208425579
 21
-211.2614906453
 31
4.7369789851
  0
LINE
  5
1AD
100
AcDbEntity
  8
L1_120
  6
CONTINUOUS
 62
         7
100
AcDbLine
 10
1435.4807483929
 20
-212.2200656046
 30
4.3880862326
 11
1421.7209367228
 21
-212.2200656046
 31
4.3880862326
  0
LINE
  5
1AE
100
AcDbEntity
  8
L1_120
  6
CONTINUOUS
 62
         7
100
AcDbLine
 10
1435.4807483929
 20
-212.2200656046
 30
4.3880862326
 11
1419.0208425579
 21
-212.2200656046
 31
4.3880862326
  0
LINE
  5
1AF
100
AcDbEntity
  8
L1_120
  6
CONTINUOUS
 62
         7
100
AcDbLine
 10
1430.4758425579
 20
-212.2200656046
 30
4.3880862326
 11
1432.1371129567
 21
-211.2614906453
 31
4.7369789851
  0
LINE
  5
1B0
100
AcDbEntity
  8
L1_120
  6
CONTINUOUS
 62
         7
100
AcDbLine
 10
1436.5008425579
 20
-211.2614906453
 30
4.7369789851
 11
1435.4807483929
 21
-212.2200656046
 31
4.3880862326
  0
LINE
  5
1B1
100
AcDbEntity
  8
L1_120
  6
CONTINUOUS
 62
         7
100
AcDbLine
 10
1432.1371129567
 20
-178.4662181799
 30
16.6734819871
 11
1432.1371129567
 21
-211.2614906453
 31
4.7369789851
  0
LINE
  5
1B2
100
AcDbEntity
  8
L1_120
  6
CONTINUOUS
 62
         7
100
AcDbLine
 10
1430.4758425579
 20
-181.1700798241
 30
15.6893568311
 11
1430.4758425579
 21
-212.2200656046
 31
4.3880862326
  0
LINE
  5
1B3
100
AcDbEntity
  8
L1_120
  6
CONTINUOUS
 62
         7
100
AcDbLine
 10
1426.7258425579
 20
-181.1700798241
 30
15.6893568311
 11
1426.7258425579
 21
-212.2200656046
 31
4.3880862326
  0
LINE
  5
1B4
100
AcDbEntity
  8
L1_120
  6
CONTINUOUS
 62
         7
100
AcDbLine
 10
1425.0645721591
 20
-178.4662181799
 30
16.6734819871
 11
1425.0645721591
 21
-211.2614906453
 31
4.7369789851
  0
LINE
  5
1B5
100
AcDbEntity
  8
L1_120
  6
CONTINUOUS
 62
         7
100
AcDbLine
 10
1436.6008425579
 20
-257.5648445346
 30
-12.1160635773
 11
1436.6008425579
 21
-269.6164023961
 31
-16.5024719155
  0
LINE
  5
1B6
100
AcDbEntity
  8
L1_120
  6
CONTINUOUS
 62
         7
100
AcDbLine
 10
1434.1008425579
 20
-270.0862487065
 30
-16.6734819871
 11
1436.1008425579
 21
-270.0862487065
 31
-16.6734819871
  0
LINE
  5
1B7
100
AcDbEntity
  8
L1_120
  6
CONTINUOUS
 62
         7
100
AcDbLine
 10
1436.6008425579
 20
-178.9360644903
 30
16.5024719155
 11
1436.6008425579
 21
-190.9876223519
 31
12.1160635773
  0
LINE
  5
1B8
100
AcDbEntity
  8
L1_120
  6
CONTINUOUS
 62
         7
100
AcDbLine
 10
1434.1008425579
 20
-178.4662181799
 30
16.6734819871
 11
1436.1008425579
 21
-178.4662181799
 31
16.6734819871
  0
LINE
  5
1B9
100
AcDbEntity
  8
L1_120
  6
CONTINUOUS
 62
         7
100
AcDbLine
 10
1436.1008425579
 20
-178.4662181799
 30
16.6734819871
 11
1436.6008425579
 21
-178.9360644903
 31
16.5024719155
  0
LINE
  5
1BA
100
AcDbEntity
  8
L1_120
  6
CONTINUOUS
 62
         7
100
AcDbLine
 10
1436.6008425579
 20
-269.6164023961
 30
-16.5024719155
 11
1436.1008425579
 21
-270.0862487065
 31
-16.6734819871
  0
LINE
  5
1BB
100
AcDbEntity
  8
L1_120
  6
CONTINUOUS
 62
         7
100
AcDbLine
 10
1436.6008425579
 20
-179.8757571111
 30
16.1604517721
 11
1436.6008425579
 21
-268.6767097754
 31
-16.1604517721
  0
LINE
  5
1BC
100
AcDbEntity
  8
L1_120
  6
CONTINUOUS
 62
         7
100
AcDbLine
 10
1430.4772309327
 20
-181.1678344647
 30
15.6901740751
 11
1432.1371129567
 21
-178.4662181799
 31
16.6734819871
  0
LINE
  5
1BD
100
AcDbEntity
  8
L1_120
  6
CONTINUOUS
 62
         7
100
AcDbLine
 10
1427.1574668849
 20
-181.4027576199
 30
15.6046690392
 11
1430.0442182308
 21
-181.4027576199
 31
15.6046690392
  0
LINE
  5
1BE
100
AcDbEntity
  8
L1_120
  6
CONTINUOUS
 62
         7
100
AcDbLine
 10
1422.6183930364
 20
-178.4662181799
 30
16.6734819871
 11
1425.0645721591
 21
-178.4662181799
 31
16.6734819871
  0
ARC
  5
1BF
100
AcDbEntity
  8
L1_120
  6
CONTINUOUS
 62
         7
100
AcDbCircle
 10
1427.1574668849
 20
-164.6257215843
 30
76.7069895068
 40
0.5
210
0.0
220
-0.3420201433256687
230
0.9396926207859084
100
AcDbArc
 50
210.0
 51
270.0
  0
LINE
  5
1C0
100
AcDbEntity
  8
L1_120
  6
CONTINUOUS
 62
         7
100
AcDbLine
 10
1426.724454183
 20
-181.1678344647
 30
15.6901740751
 11
1425.0645721591
 21
-178.4662181799
 31
16.6734819871
  0
ARC
  5
1C1
100
AcDbEntity
  8
L1_120
  6
CONTINUOUS
 62
         7
100
AcDbCircle
 10
1430.0442182308
 20
-164.6257215843
 30
76.7069895068
 40
0.5
210
0.0
220
-0.3420201433256687
230
0.9396926207859084
100
AcDbArc
 50
270.0
 51
330.0
  0
LINE
  5
1C2
100
AcDbEntity
  8
L1_120
  6
CONTINUOUS
 62
         7
100
AcDbLine
 10
1432.1371129567
 20
-178.4662181799
 30
16.6734819871
 11
1435.1008425579
 21
-178.4662181799
 31
16.6734819871
  0
LINE
  5
1C3
100
AcDbEntity
  8
L1_120
  6
CONTINUOUS
 62
         7
100
AcDbLine
 10
1430.4772309327
 20
-267.3846324218
 30
-15.6901740751
 11
1432.1371129567
 21
-270.0862487065
 31
-16.6734819871
  0
LINE
  5
1C4
100
AcDbEntity
  8
L1_120
  6
CENTER
 62
         1
100
AcDbLine
 10
1424.2898372993
 20
-270.9084797497
 30
-16.9727496125
 11
1432.6986718677
 21
-270.9084797497
 31
-16.9727496125
  0
LINE
  5
1C5
100
AcDbEntity
  8
L1_120
  6
CONTINUOUS
 62
         7
100
AcDbLine
 10
1427.1574668849
 20
-267.1497092666
 30
-15.6046690392
 11
1430.0442182308
 21
-267.1497092666
 31
-15.6046690392
  0
ARC
  5
1C6
100
AcDbEntity
  8
L1_120
  6
CONTINUOUS
 62
         7
100
AcDbCircle
 10
1427.1574668849
 20
-256.8757215843
 30
76.7069895068
 40
0.5
210
0.0
220
-0.3420201433256687
230
0.9396926207859084
100
AcDbArc
 50
90.0
 51
150.0
  0
LINE
  5
1C7
100
AcDbEntity
  8
L1_120
  6
CONTINUOUS
 62
         7
100
AcDbLine
 10
1422.6183930364
 20
-270.0862487065
 30
-16.6734819871
 11
1425.0645721591
 21
-270.0862487065
 31
-16.6734819871
  0
LINE
  5
1C8
100
AcDbEntity
  8
L1_120
  6
CONTINUOUS
 62
         7
100
AcDbLine
 10
1426.724454183
 20
-267.3846324218
 30
-15.6901740751
 11
1425.0645721591
 21
-270.0862487065
 31
-16.6734819871
  0
ARC
  5
1C9
100
AcDbEntity
  8
L1_120
  6
CONTINUOUS
 62
         7
100
AcDbCircle
 10
1430.0442182308
 20
-256.8757215843
 30
76.7069895068
 40
0.5
210
0.0
220
-0.3420201433256687
230
0.9396926207859084
100
AcDbArc
 50
30.0
 51
90.0
  0
LINE
  5
1CA
100
AcDbEntity
  8
L1_120
  6
CONTINUOUS
 62
         7
100
AcDbLine
 10
1432.1371129567
 20
-270.0862487065
 30
-16.6734819871
 11
1435.1008425579
 21
-270.0862487065
 31
-16.6734819871
  0
LINE
  5
1CB
100
AcDbEntity
  8
L1_120
  6
CENTER
 62
         1
100
AcDbLine
 10
1428.6008425579
 20
-172.5881934151
 30
18.8129080378
 11
1428.6008425579
 21
-275.9570312135
 31
-18.8102720715
  0
LINE
  5
1CC
100
AcDbEntity
  8
L1_120
  6
CONTINUOUS
 62
         4
100
AcDbLine
 10
1436.1008425579
 20
-211.2614906453
 30
4.7369789851
 11
1436.1008425579
 21
-178.4662181799
 31
16.6734819871
  0
LINE
  5
1CD
100
AcDbEntity
  8
L1_120
  6
CONTINUOUS
 62
         4
100
AcDbLine
 10
1436.1008425579
 20
-270.0862487065
 30
-16.6734819871
 11
1436.1008425579
 21
-237.2909762411
 31
-4.7369789851
  0
CIRCLE
  5
1CE
100
AcDbEntity
  8
L1_120
  6
CONTINUOUS
 62
         7
100
AcDbCircle
 10
1428.6008425579
 20
-181.4517274324
 30
76.7069895068
 40
1.5320888862
210
0.0
220
-0.3420201433256687
230
0.9396926207859084
  0
CIRCLE
  5
1CF
100
AcDbEntity
  8
L1_120
  6
CONTINUOUS
 62
         7
100
AcDbCircle
 10
1428.6008425579
 20
-191.4872980325
 30
76.7069895068
 40
1.8126155741
210
0.0
220
-0.3420201433256687
230
0.9396926207859084
  0
CIRCLE
  5
1D0
100
AcDbEntity
  8
L1_120
  6
CONTINUOUS
 62
         7
100
AcDbCircle
 10
1428.6008425579
 20
-230.014145136
 30
76.7069895068
 40
1.8126155741
210
0.0
220
-0.3420201433256687
230
0.9396926207859084
  0
CIRCLE
  5
1D1
100
AcDbEntity
  8
L1_120
  6
CONTINUOUS
 62
         7
100
AcDbCircle
 10
1428.6008425579
 20
-240.0497157361
 30
76.7069895068
 40
1.5320888862
210
0.0
220
-0.3420201433256687
230
0.9396926207859084
  0
LINE
  5
1D2
100
AcDbEntity
  8
L1_120
  6
CONTINUOUS
 62
         4
100
AcDbLine
 10
1419.5208425579
 20
-211.2614906453
 30
4.7369789851
 11
1419.5208425579
 21
-178.4662181799
 31
16.6734819871
  0
LINE
  5
1D3
100
AcDbEntity
  8
L1_120
  6
CONTINUOUS
 62
         4
100
AcDbLine
 10
1419.5208425579
 20
-270.0862487065
 30
-16.6734819871
 11
1419.5208425579
 21
-237.2909762411
 31
-4.7369789851
  0
LINE
  5
1D4
100
AcDbEntity
  8
L1_120
  6
CONTINUOUS
 62
         7
100
AcDbLine
 10
1419.5208425579
 20
-178.4662181799
 30
16.6734819871
 11
1419.0208425579
 21
-178.9360644903
 31
16.5024719155
  0
LINE
  5
1D5
100
AcDbEntity
  8
L1_120
  6
CONTINUOUS
 62
         7
100
AcDbLine
 10
1419.0208425579
 20
-269.6164023961
 30
-16.5024719155
 11
1419.5208425579
 21
-270.0862487065
 31
-16.6734819871
  0
LINE
  5
1D6
100
AcDbEntity
  8
L1_120
  6
CONTINUOUS
 62
         7
100
AcDbLine
 10
1419.0208425579
 20
-179.8757571111
 30
16.1604517721
 11
1419.0208425579
 21
-268.6767097754
 31
-16.1604517721
  0
LINE
  5
1D7
100
AcDbEntity
  8
L1_120
  6
CONTINUOUS
 62
         7
100
AcDbLine
 10
1419.5208425579
 20
-178.4662181799
 30
16.6734819871
 11
1421.4232920886
 21
-178.4662181799
 31
16.6734819871
  0
LINE
  5
1D8
100
AcDbEntity
  8
L1_120
  6
CONTINUOUS
 62
         7
100
AcDbLine
 10
1419.0208425579
 20
-178.9360644903
 30
16.5024719155
 11
1419.0208425579
 21
-180.8154497319
 31
15.8184316288
  0
LINE
  5
1D9
100
AcDbEntity
  8
L1_120
  6
CONTINUOUS
 62
         7
100
AcDbLine
 10
1419.5208425579
 20
-270.0862487065
 30
-16.6734819871
 11
1421.4232920886
 21
-270.0862487065
 31
-16.6734819871
  0
LINE
  5
1DA
100
AcDbEntity
  8
L1_120
  6
CONTINUOUS
 62
         7
100
AcDbLine
 10
1419.0208425579
 20
-267.7370171546
 30
-15.8184316288
 11
1419.0208425579
 21
-269.6164023961
 31
-16.5024719155
  0
LINE
  5
1DB
100
AcDbEntity
  8
L1_120
  6
CONTINUOUS
 62
         7
100
AcDbLine
 10
1422.4276496379
 20
-178.5976424369
 30
16.6256474695
 11
1422.4023293382
 21
-178.6731051395
 31
16.598181292
  0
ARC
  5
1DC
100
AcDbEntity
  8
L1_120
  6
CONTINUOUS
 62
         7
100
AcDbCircle
 10
1422.0208425579
 20
-162.1006037683
 30
76.7069895068
 40
0.4
210
0.0
220
-0.3420201433256687
230
0.9396926207859084
100
AcDbArc
 50
197.5000000001
 51
342.4999999999
  0
LINE
  5
1DD
100
AcDbEntity
  8
L1_120
  6
CONTINUOUS
 62
         7
100
AcDbLine
 10
1421.6140354788
 20
-178.5976424393
 30
16.6256474686
 11
1421.6393557776
 21
-178.6731051395
 31
16.598181292
  0
ARC
  5
1DE
100
AcDbEntity
  8
L1_120
  6
CONTINUOUS
 62
         7
100
AcDbCircle
 10
1421.4232920886
 20
-162.2007215198
 30
76.7069895068
 40
0.2
210
0.0
220
-0.3420201433256687
230
0.9396926207859084
100
AcDbArc
 50
17.4999999997
 51
90.0459929054
  0
ARC
  5
1DF
100
AcDbEntity
  8
L1_120
  6
CONTINUOUS
 62
         7
100
AcDbCircle
 10
1422.6183930364
 20
-162.2007215198
 30
76.7069895068
 40
0.2
210
0.0
220
-0.3420201433256687
230
0.9396926207859084
100
AcDbArc
 50
89.9540070946
 51
162.5000000003
  0
LINE
  5
1E0
100
AcDbEntity
  8
L1_120
  6
CONTINUOUS
 62
         7
100
AcDbLine
 10
1421.569901029
 20
-211.2614906453
 30
4.7369789851
 11
1421.569901029
 21
-178.5263245307
 31
16.6516050645
  0
LINE
  5
1E1
100
AcDbEntity
  8
L1_120
  6
CONTINUOUS
 62
         7
100
AcDbLine
 10
1422.4717840868
 20
-211.2614906453
 30
4.7369789851
 11
1422.4717840868
 21
-178.5263245401
 31
16.6516050611
  0
LINE
  5
1E2
100
AcDbEntity
  8
L1_120
  6
CONTINUOUS
 62
         7
100
AcDbLine
 10
1422.4276496379
 20
-269.9548244496
 30
-16.6256474695
 11
1422.4023293382
 21
-269.8793617469
 31
-16.598181292
  0
ARC
  5
1E3
100
AcDbEntity
  8
L1_120
  6
CONTINUOUS
 62
         7
100
AcDbCircle
 10
1422.0208425579
 20
-259.4008394002
 30
76.7069895068
 40
0.4
210
0.0
220
-0.3420201433256687
230
0.9396926207859084
100
AcDbArc
 50
17.5000000001
 51
162.4999999999
  0
LINE
  5
1E4
100
AcDbEntity
  8
L1_120
  6
CONTINUOUS
 62
         7
100
AcDbLine
 10
1421.6140354788
 20
-269.9548244471
 30
-16.6256474686
 11
1421.6393557776
 21
-269.8793617469
 31
-16.598181292
  0
ARC
  5
1E5
100
AcDbEntity
  8
L1_120
  6
CONTINUOUS
 62
         7
100
AcDbCircle
 10
1421.4232920886
 20
-259.3007216487
 30
76.7069895068
 40
0.2
210
0.0
220
-0.3420201433256687
230
0.9396926207859084
100
AcDbArc
 50
269.9540070946
 51
342.5000000003
  0
ARC
  5
1E6
100
AcDbEntity
  8
L1_120
  6
CONTINUOUS
 62
         7
100
AcDbCircle
 10
1422.6183930364
 20
-259.3007216487
 30
76.7069895068
 40
0.2
210
0.0
220
-0.3420201433256687
230
0.9396926207859084
100
AcDbArc
 50
197.4999999997
 51
270.0459929054
  0
LINE
  5
1E7
100
AcDbEntity
  8
L1_120
  6
CONTINUOUS
 62
         7
100
AcDbLine
 10
1422.4717840868
 20
-237.2909762411
 30
-4.7369789851
 11
1422.4717840868
 21
-270.0261423463
 31
-16.6516050611
  0
LINE
  5
1E8
100
AcDbEntity
  8
L1_120
  6
CONTINUOUS
 62
         7
100
AcDbLine
 10
1421.5699010289
 20
-237.2909762411
 30
-4.7369789851
 11
1421.5699010289
 21
-270.0261423557
 31
-16.6516050645
  0
LINE
  5
1E9
100
AcDbEntity
  8
L1_120
  6
CENTER
 62
         1
100
AcDbLine
 10
1247.7456271867
 20
-182.1712167841
 30
15.6679479861
 11
1214.3986632125
 21
-268.2658833861
 31
-15.6679479861
  0
LINE
  5
1EA
100
AcDbEntity
  8
L1_120
  6
CENTER
 62
         1
100
AcDbLine
 10
1182.3221451996
 20
-225.2185500851
 30
0.0
 11
1279.8221451996
 21
-225.2185500851
 31
0.0
  0
LINE
  5
1EB
100
AcDbEntity
  8
L1_120
  6
CENTER
 62
         1
100
AcDbLine
 10
1231.0721451996
 20
-173.3398836769
 30
0.0
 11
1231.0721451996
 21
-277.0972164933
 31
0.0
  0
TEXT
  5
1ED
100
AcDbEntity
  8
L1_120
  6
CONTINUOUS
 62
         2
100
AcDbText
 10
1616.4848885848
 20
-142.1345057966
 30
0.0
 40
4.5
  1
521434
 41
0.98
  7
BOX
100
AcDbText
  0
LINE
  5
1EE
100
AcDbEntity
  8
L1_120
  6
CONTINUOUS
 62
         7
100
AcDbLine
 10
1315.9008425579
 20
-213.0420517268
 30
0.0
 11
1315.9008425579
 21
-236.2313999178
 31
0.0
  0
LINE
  5
1EF
100
AcDbEntity
  8
L1_120
  6
CONTINUOUS
 62
         7
100
AcDbLine
 10
1315.9008425579
 20
-213.7195557837
 30
3.8423164408
 11
1315.9008425579
 21
-235.3860382514
 31
-4.0436382587
  0
LINE
  5
1F0
100
AcDbEntity
  8
L1_120
  6
CONTINUOUS
 62
         7
100
AcDbLine
 10
1315.9008425579
 20
-213.7195557837
 30
3.8423164408
 11
1315.9008425579
 21
-234.8329111027
 31
-3.8423164408
  0
LINE
  5
1F1
100
AcDbEntity
  8
L1_120
  6
CONTINUOUS
 62
         7
100
AcDbLine
 10
1315.9008425579
 20
-213.7195557837
 30
3.8423164408
 11
1315.9008425579
 21
-234.8329111027
 31
-3.8423164408
  0
LINE
  5
1F2
100
AcDbEntity
  8
L1_120
  6
CENTER
 62
         1
100
AcDbLine
 10
1315.9008425579
 20
-224.6367258223
 30
0.0
 11
1522.6608425579
 21
-224.6367258223
 31
0.0
  0
LINE
  5
1F3
100
AcDbEntity
  8
L1_120
  6
DASHED
 62
         2
100
AcDbLine
 10
1656.9535103751
 20
-187.2054645733
 30
13.49265643
 11
1666.9444526284
 21
-212.9999219938
 31
4.1042417199
  0
LINE
  5
1F4
100
AcDbEntity
  8
L1_120
  6
DASHED
 62
         2
100
AcDbLine
 10
1653.5236323092
 20
-188.378551961
 30
13.0656875387
 11
1657.2824027924
 21
-187.0929767416
 31
13.5335986525
  0
LINE
  5
1F5
100
AcDbEntity
  8
L1_120
  6
DASHED
 62
         2
100
AcDbLine
 10
1655.8459181904
 20
-183.384283411
 30
14.8834526328
 11
1657.2824027924
 21
-187.0929767416
 31
13.5335986525
  0
LINE
  5
1F6
100
AcDbEntity
  8
L1_120
  6
DASHED
 62
         2
100
AcDbLine
 10
1653.8525247265
 20
-188.2660641293
 30
13.1066297612
 11
1663.4326659792
 21
-212.9999219938
 31
4.1042417199
  0
LINE
  5
1F7
100
AcDbEntity
  8
L1_120
  6
DASHED
 62
         2
100
AcDbLine
 10
1652.0871477073
 20
-184.6698586304
 30
14.4155415191
 11
1653.5236323092
 21
-188.378551961
 31
13.0656875387
  0
LINE
  5
1F8
100
AcDbEntity
  8
L1_120
  6
DASHED
 62
         2
100
AcDbLine
 10
1675.6797382508
 20
-235.5525448927
 30
-4.1042417199
 11
1685.2598795035
 21
-260.2864027572
 31
-13.1066297612
  0
LINE
  5
1F9
100
AcDbEntity
  8
L1_120
  6
DASHED
 62
         2
100
AcDbLine
 10
1687.0252565227
 20
-263.882608256
 30
-14.4155415191
 11
1685.5887719208
 21
-260.1739149255
 31
-13.0656875387
  0
LINE
  5
1FA
100
AcDbEntity
  8
L1_120
  6
DASHED
 62
         2
100
AcDbLine
 10
1685.5887719208
 20
-260.1739149255
 30
-13.0656875387
 11
1681.8300014376
 21
-261.4594901448
 31
-13.5335986525
  0
LINE
  5
1FB
100
AcDbEntity
  8
L1_120
  6
DASHED
 62
         2
100
AcDbLine
 10
1683.2664860396
 20
-265.1681834754
 30
-14.8834526328
 11
1681.8300014376
 21
-261.4594901448
 31
-13.5335986525
  0
LINE
  5
1FC
100
AcDbEntity
  8
L1_120
  6
DASHED
 62
         2
100
AcDbLine
 10
1672.1679516016
 20
-235.5525448927
 30
-4.1042417199
 11
1682.1588938549
 21
-261.3470023132
 31
-13.49265643
  0
LINE
  5
1FD
100
AcDbEntity
  8
L1_120
  6
CENTER
 62
         1
100
AcDbLine
 10
1651.278691024
 20
-177.0876430542
 30
17.1752422986
 11
1690.6417544609
 21
-278.7145805367
 31
-19.8139379447
  0
LINE
  5
1FE
100
AcDbEntity
  8
L1_120
  6
DASHED
 62
         2
100
AcDbLine
 10
1632.056202115
 20
-228.9746965472
 30
-1.7101007166
 11
1636.306202115
 21
-228.9746965472
 31
-1.7101007166
  0
LINE
  5
1FF
100
AcDbEntity
  8
L1_120
  6
DASHED
 62
         2
100
AcDbLine
 10
1636.506202115
 20
-219.7657088634
 30
1.641696688
 11
1636.506202115
 21
-228.786758023
 31
-1.641696688
  0
ARC
  5
200
100
AcDbEntity
  8
L1_120
  6
DASHED
 62
         2
100
AcDbCircle
 10
1636.306202115
 20
-205.9507215843
 30
76.7069895068
 40
0.2
210
0.0
220
-0.3420201433256687
230
0.9396926207859084
100
AcDbArc
 50
0.0
 51
90.0
  0
ARC
  5
201
100
AcDbEntity
  8
L1_120
  6
DASHED
 62
         2
100
AcDbCircle
 10
1636.306202115
 20
-215.5507215843
 30
76.7069895068
 40
0.2
210
0.0
220
-0.3420201433256687
230
0.9396926207859084
100
AcDbArc
 50
270.0
 51
360.0
  0
LINE
  5
202
100
AcDbEntity
  8
L1_120
  6
DASHED
 62
         2
100
AcDbLine
 10
1632.056202115
 20
-219.5777703393
 30
1.7101007166
 11
1632.056202115
 21
-228.9746965472
 31
-1.7101007166
  0
LINE
  5
203
100
AcDbEntity
  8
L1_120
  6
DASHED
 62
         2
100
AcDbLine
 10
1631.856202115
 20
-219.3898318151
 30
1.7785047453
 11
1632.056202115
 21
-219.5777703393
 31
1.7101007166
  0
LINE
  5
204
100
AcDbEntity
  8
L1_120
  6
DASHED
 62
         2
100
AcDbLine
 10
1631.856202115
 20
-229.1626350713
 30
-1.7785047453
 11
1632.056202115
 21
-228.9746965472
 31
-1.7101007166
  0
LINE
  5
205
100
AcDbEntity
  8
L1_120
  6
DASHED
 62
         2
100
AcDbLine
 10
1632.056202115
 20
-219.5777703393
 30
1.7101007166
 11
1636.306202115
 21
-219.5777703393
 31
1.7101007166
  0
LINE
  5
206
100
AcDbEntity
  8
L1_120
  6
DASHED
 62
         2
100
AcDbLine
 10
1632.356202115
 20
-228.9746965471
 30
-1.7101007166
 11
1631.856202115
 21
-229.4445428575
 31
-1.8811107883
  0
LINE
  5
207
100
AcDbEntity
  8
L1_120
  6
DASHED
 62
         2
100
AcDbLine
 10
1632.356202115
 20
-219.5777703393
 30
1.7101007166
 11
1631.856202115
 21
-219.1079240289
 31
1.8811107883
  0
LINE
  5
208
100
AcDbEntity
  8
L1_120
  6
DASHED
 62
         2
100
AcDbLine
 10
1632.356202115
 20
-219.5777703393
 30
1.7101007166
 11
1632.356202115
 21
-228.9746965471
 31
-1.7101007166
  0
ARC
  5
209
100
AcDbEntity
  8
L1_120
  6
DASHED
 62
         2
100
AcDbCircle
 10
1669.556202115
 20
-210.7507215842
 30
76.7069895068
 40
45.625
210
0.0
220
-0.3420201433256687
230
0.9396926207859084
100
AcDbArc
 50
196.3583384794
 51
343.6416615206
  0
ARC
  5
20A
100
AcDbEntity
  8
L1_120
  6
CONTINUOUS
 62
         7
100
AcDbCircle
 10
1669.556202115
 20
-210.7507215842
 30
76.7069895068
 40
48.75
210
0.0
220
-0.3420201433256687
230
0.9396926207859084
100
AcDbArc
 50
16.5052120024
 51
163.4947879976
  0
ARC
  5
20B
100
AcDbEntity
  8
L1_120
  6
DASHED
 62
         2
100
AcDbCircle
 10
1669.556202115
 20
-210.7507215842
 30
76.7069895068
 40
45.625
210
0.0
220
-0.3420201433256687
230
0.9396926207859084
100
AcDbArc
 50
16.3583384794
 51
163.6416615206
  0
ARC
  5
20C
100
AcDbEntity
  8
L1_120
  6
CONTINUOUS
 62
         7
100
AcDbCircle
 10
1669.556202115
 20
-210.7507215842
 30
76.7069895068
 40
48.75
210
0.0
220
-0.3420201433256687
230
0.9396926207859084
100
AcDbArc
 50
196.5052120024
 51
343.4947879976
  0
LINE
  5
20D
100
AcDbEntity
  8
L1_120
  6
CENTER
 62
         1
100
AcDbLine
 10
1614.806202115
 20
-224.2762334432
 30
0.0
 11
1724.306202115
 21
-224.2762334432
 31
0.0
  0
LINE
  5
20E
100
AcDbEntity
  8
L1_120
  6
CENTER
 62
         1
100
AcDbLine
 10
1669.556202115
 20
-275.7244044312
 30
-18.7256028471
 11
1669.556202115
 21
-175.2575222617
 31
17.8413517922
  0
LINE
  5
20F
100
AcDbEntity
  8
L1_120
  6
CONTINUOUS
 62
         7
100
AcDbLine
 10
1705.056202115
 20
-212.6710295765
 30
4.2239487701
 11
1705.056202115
 21
-235.8814373099
 31
-4.2239487701
  0
LINE
  5
210
100
AcDbEntity
  8
L1_120
  6
CONTINUOUS
 62
         7
100
AcDbLine
 10
1715.2974044958
 20
-212.2011832661
 30
4.3949588417
 11
1705.556202115
 21
-212.2011832661
 31
4.3949588417
  0
LINE
  5
211
100
AcDbEntity
  8
L1_120
  6
CONTINUOUS
 62
         7
100
AcDbLine
 10
1716.2974044958
 20
-211.2614906453
 30
4.7369789851
 11
1715.2974044958
 21
-212.2011832661
 31
4.3949588417
  0
LINE
  5
212
100
AcDbEntity
  8
L1_120
  6
CONTINUOUS
 62
         7
100
AcDbLine
 10
1716.2974044958
 20
-237.2909762411
 30
-4.7369789851
 11
1715.2974044958
 21
-236.3512836203
 31
-4.3949588417
  0
LINE
  5
213
100
AcDbEntity
  8
L1_120
  6
CONTINUOUS
 62
         7
100
AcDbLine
 10
1715.2974044958
 20
-236.3512836203
 30
-4.3949588417
 11
1705.556202115
 21
-236.3512836203
 31
-4.3949588417
  0
LINE
  5
214
100
AcDbEntity
  8
L1_120
  6
CONTINUOUS
 62
         7
100
AcDbLine
 10
1705.056202115
 20
-212.6710295765
 30
4.2239487701
 11
1705.556202115
 21
-212.2011832661
 31
4.3949588417
  0
LINE
  5
215
100
AcDbEntity
  8
L1_120
  6
CONTINUOUS
 62
         7
100
AcDbLine
 10
1705.056202115
 20
-235.8814373099
 30
-4.2239487701
 11
1705.556202115
 21
-236.3512836203
 31
-4.3949588417
  0
LINE
  5
216
100
AcDbEntity
  8
L1_120
  6
CONTINUOUS
 62
         7
100
AcDbLine
 10
1631.856202115
 20
-235.8814373099
 30
-4.2239487701
 11
1631.356202115
 21
-236.3512836203
 31
-4.3949588417
  0
LINE
  5
217
100
AcDbEntity
  8
L1_120
  6
CONTINUOUS
 62
         7
100
AcDbLine
 10
1631.356202115
 20
-212.2011832661
 30
4.3949588417
 11
1631.856202115
 21
-212.6710295765
 31
4.2239487701
  0
LINE
  5
218
100
AcDbEntity
  8
L1_120
  6
CONTINUOUS
 62
         7
100
AcDbLine
 10
1631.856202115
 20
-212.6710295765
 30
4.2239487701
 11
1631.856202115
 21
-235.8814373099
 31
-4.2239487701
  0
LINE
  5
219
100
AcDbEntity
  8
L1_120
  6
CONTINUOUS
 62
         7
100
AcDbLine
 10
1622.8149997342
 20
-211.2614906453
 30
4.7369789851
 11
1623.8149997342
 21
-212.2011832661
 31
4.3949588417
  0
LINE
  5
21A
100
AcDbEntity
  8
L1_120
  6
CONTINUOUS
 62
         7
100
AcDbLine
 10
1623.8149997342
 20
-212.2011832661
 30
4.3949588417
 11
1631.356202115
 21
-212.2011832661
 31
4.3949588417
  0
LINE
  5
21B
100
AcDbEntity
  8
L1_120
  6
CONTINUOUS
 62
         7
100
AcDbLine
 10
1622.8149997342
 20
-237.2909762411
 30
-4.7369789851
 11
1623.8149997342
 21
-236.3512836203
 31
-4.3949588417
  0
LINE
  5
21C
100
AcDbEntity
  8
L1_120
  6
CONTINUOUS
 62
         7
100
AcDbLine
 10
1623.8149997342
 20
-236.3512836203
 30
-4.3949588417
 11
1631.356202115
 21
-236.3512836203
 31
-4.3949588417
  0
CIRCLE
  5
21D
100
AcDbEntity
  8
L1_120
  6
CONTINUOUS
 62
         7
100
AcDbCircle
 10
1669.556202115
 20
-210.7507215842
 30
76.7069895068
 40
34.925
210
0.0
220
-0.3420201433256687
230
0.9396926207859084
  0
LINE
  5
21E
100
AcDbEntity
  8
L1_120
  6
CONTINUOUS
 62
         7
100
AcDbLine
 10
1451.5528425579
 20
-191.4574686623
 30
11.9450535056
 11
1450.5528425579
 21
-191.4574686623
 31
11.9450535056
  0
LINE
  5
21F
100
AcDbEntity
  8
L1_120
  6
CONTINUOUS
 62
         7
100
AcDbLine
 10
1451.5528425579
 20
-257.0949982242
 30
-11.9450535056
 11
1450.5528425579
 21
-257.0949982242
 31
-11.9450535056
  0
ARC
  5
220
100
AcDbEntity
  8
L1_120
  6
CONTINUOUS
 62
         7
100
AcDbCircle
 10
1437.1008425579
 20
-175.3257215843
 30
76.7069895068
 40
0.5
210
0.0
220
-0.3420201433256687
230
0.9396926207859084
100
AcDbArc
 50
180.0
 51
270.0
  0
ARC
  5
221
100
AcDbEntity
  8
L1_120
  6
CONTINUOUS
 62
         7
100
AcDbCircle
 10
1437.1008425579
 20
-175.3257215843
 30
76.7069895068
 40
0.5
210
0.0
220
-0.3420201433256687
230
0.9396926207859084
100
AcDbArc
 50
180.0
 51
270.0
  0
LINE
  5
222
100
AcDbEntity
  8
L1_120
  6
CONTINUOUS
 62
         7
100
AcDbLine
 10
1437.1008425579
 20
-191.4574686623
 30
11.9450535056
 11
1451.5528425579
 21
-191.4574686623
 31
11.9450535056
  0
LINE
  5
223
100
AcDbEntity
  8
L1_120
  6
CONTINUOUS
 62
         7
100
AcDbLine
 10
1437.1008425579
 20
-257.0949982242
 30
-11.9450535056
 11
1451.5528425579
 21
-257.0949982242
 31
-11.9450535056
  0
ARC
  5
224
100
AcDbEntity
  8
L1_120
  6
CONTINUOUS
 62
         7
100
AcDbCircle
 10
1437.1008425579
 20
-246.1757215843
 30
76.7069895068
 40
0.5
210
0.0
220
-0.3420201433256687
230
0.9396926207859084
100
AcDbArc
 50
90.0
 51
180.0
  0
LINE
  5
225
100
AcDbEntity
  8
L1_120
  6
CENTER
 62
         1
100
AcDbLine
 10
1632.211535513
 20
-194.8301232324
 30
10.7175076317
 11
1669.556202115
 21
-224.2762334432
 31
0.0
  0
LINE
  5
226
100
AcDbEntity
  8
L1_120
  6
CENTER
 62
         1
100
AcDbLine
 10
1625.373697497
 20
-204.9160844223
 30
7.0465179746
 11
1669.556202115
 21
-224.2762334432
 31
0.0
  0
LINE
  5
227
100
AcDbEntity
  8
L1_120
  6
CENTER
 62
         1
100
AcDbLine
 10
1625.373697497
 20
-243.6363824641
 30
-7.0465179746
 11
1669.556202115
 21
-224.2762334432
 31
0.0
  0
LINE
  5
228
100
AcDbEntity
  8
L1_120
  6
CENTER
 62
         1
100
AcDbLine
 10
1632.211535513
 20
-253.722343654
 30
-10.7175076317
 11
1669.556202115
 21
-224.2762334432
 31
0.0
  0
LINE
  5
229
100
AcDbEntity
  8
L1_120
  6
DASHED
 62
         2
100
AcDbLine
 10
1635.9245957945
 20
-195.3044922215
 30
10.5448514396
 11
1647.4152624413
 21
-204.3648338248
 31
7.2471567837
  0
LINE
  5
22A
100
AcDbEntity
  8
L1_120
  6
DASHED
 62
         2
100
AcDbLine
 10
1633.3534453558
 20
-198.183877463
 30
9.4968409187
 11
1644.8441120025
 21
-207.2442190664
 31
6.1991462628
  0
LINE
  5
22B
100
AcDbEntity
  8
L1_120
  6
DASHED
 62
         2
100
AcDbLine
 10
1629.090893519
 20
-204.4712350013
 30
7.2084299226
 11
1642.6855103246
 21
-210.4282039308
 31
5.0402705458
  0
LINE
  5
22C
100
AcDbEntity
  8
L1_120
  6
DASHED
 62
         2
100
AcDbLine
 10
1627.4004204721
 20
-207.8778379598
 30
5.9685278457
 11
1640.9950372776
 21
-213.8348068893
 31
3.8003684689
  0
LINE
  5
22D
100
AcDbEntity
  8
L1_120
  6
DASHED
 62
         2
100
AcDbLine
 10
1642.6855103246
 20
-210.4282039308
 30
5.0402705458
 11
1640.9950372776
 21
-213.8348068893
 31
3.8003684689
  0
LINE
  5
22E
100
AcDbEntity
  8
L1_120
  6
DASHED
 62
         2
100
AcDbLine
 10
1640.9950372776
 20
-213.8348068893
 30
3.8003684689
 11
1642.6855103246
 21
-212.5018761076
 31
4.2855155978
  0
LINE
  5
22F
100
AcDbEntity
  8
L1_120
  6
DASHED
 62
         2
100
AcDbLine
 10
1642.6855103246
 20
-210.4282039308
 30
5.0402705458
 11
1642.6855103246
 21
-212.5018761076
 31
4.2855155978
  0
LINE
  5
230
100
AcDbEntity
  8
L1_120
  6
DASHED
 62
         2
100
AcDbLine
 10
1644.8441120025
 20
-207.2442190664
 30
6.1991462628
 11
1646.8441120025
 21
-206.3678473356
 31
6.5181194869
  0
LINE
  5
231
100
AcDbEntity
  8
L1_120
  6
DASHED
 62
         2
100
AcDbLine
 10
1647.4152624413
 20
-204.3648338248
 30
7.2471567837
 11
1644.8441120025
 21
-207.2442190664
 31
6.1991462628
  0
LINE
  5
232
100
AcDbEntity
  8
L1_120
  6
DASHED
 62
         2
100
AcDbLine
 10
1647.4152624413
 20
-204.3648338248
 30
7.2471567837
 11
1646.8441120025
 21
-206.3678473356
 31
6.5181194869
  0
LINE
  5
233
100
AcDbEntity
  8
L1_120
  6
DASHED
 62
         2
100
AcDbLine
 10
1627.4004204721
 20
-240.6746289266
 30
-5.9685278457
 11
1640.9950372776
 21
-234.7176599971
 31
-3.8003684689
  0
LINE
  5
234
100
AcDbEntity
  8
L1_120
  6
DASHED
 62
         2
100
AcDbLine
 10
1629.090893519
 20
-244.0812318852
 30
-7.2084299226
 11
1642.6855103246
 21
-238.1242629556
 31
-5.0402705458
  0
LINE
  5
235
100
AcDbEntity
  8
L1_120
  6
DASHED
 62
         2
100
AcDbLine
 10
1633.3534453558
 20
-250.3685894234
 30
-9.4968409187
 11
1644.8441120025
 21
-241.3082478201
 31
-6.1991462628
  0
LINE
  5
236
100
AcDbEntity
  8
L1_120
  6
DASHED
 62
         2
100
AcDbLine
 10
1635.9245957945
 20
-253.247974665
 30
-10.5448514396
 11
1647.4152624413
 21
-244.1876330616
 31
-7.2471567837
  0
LINE
  5
237
100
AcDbEntity
  8
L1_120
  6
DASHED
 62
         2
100
AcDbLine
 10
1642.6855103246
 20
-238.1242629556
 30
-5.0402705458
 11
1640.9950372776
 21
-234.7176599971
 31
-3.8003684689
  0
LINE
  5
238
100
AcDbEntity
  8
L1_120
  6
DASHED
 62
         2
100
AcDbLine
 10
1640.9950372776
 20
-234.7176599971
 30
-3.8003684689
 11
1642.6855103246
 21
-236.0505907789
 31
-4.2855155978
  0
LINE
  5
239
100
AcDbEntity
  8
L1_120
  6
DASHED
 62
         2
100
AcDbLine
 10
1642.6855103246
 20
-238.1242629556
 30
-5.0402705458
 11
1642.6855103246
 21
-236.0505907789
 31
-4.2855155978
  0
LINE
  5
23A
100
AcDbEntity
  8
L1_120
  6
DASHED
 62
         2
100
AcDbLine
 10
1647.4152624413
 20
-244.1876330616
 30
-7.2471567837
 11
1644.8441120025
 21
-241.3082478201
 31
-6.1991462628
  0
LINE
  5
23B
100
AcDbEntity
  8
L1_120
  6
DASHED
 62
         2
100
AcDbLine
 10
1644.8441120025
 20
-241.3082478201
 30
-6.1991462628
 11
1646.8441120025
 21
-242.1846195508
 31
-6.5181194869
  0
LINE
  5
23C
100
AcDbEntity
  8
L1_120
  6
DASHED
 62
         2
100
AcDbLine
 10
1647.4152624413
 20
-244.1876330616
 30
-7.2471567837
 11
1646.8441120025
 21
-242.1846195508
 31
-6.5181194869
  0
INSERT
  5
24D
100
AcDbEntity
  8
0
  6
CONTINUOUS
100
AcDbBlockReference
  2
*X0
 10
0.0
 20
0.0
 30
0.0
  0
INSERT
  5
256
100
AcDbEntity
  8
0
  6
CONTINUOUS
100
AcDbBlockReference
  2
*X1
 10
0.0
 20
0.0
 30
0.0
  0
INSERT
  5
265
100
AcDbEntity
  8
0
  6
CONTINUOUS
100
AcDbBlockReference
  2
*X2
 10
0.0
 20
0.0
 30
0.0
  0
INSERT
  5
26D
100
AcDbEntity
  8
0
  6
CONTINUOUS
100
AcDbBlockReference
  2
*X3
 10
0.0
 20
0.0
 30
0.0
  0
INSERT
  5
274
100
AcDbEntity
  8
0
  6
CONTINUOUS
100
AcDbBlockReference
  2
*X4
 10
0.0
 20
0.0
 30
0.0
  0
LINE
  5
275
100
AcDbEntity
  8
L1_120
  6
CENTER
 62
         1
100
AcDbLine
 10
1560.6008425579
 20
-213.9396146146
 30
3.7622215766
 11
1552.5451801252
 21
-213.9396146146
 31
3.7622215766
  0
LINE
  5
276
100
AcDbEntity
  8
L1_120
  6
CENTER
 62
         1
100
AcDbLine
 10
1560.6008425579
 20
-234.6128522719
 30
-3.7622215766
 11
1552.5451801252
 21
-234.6128522719
 31
-3.7622215766
  0
LINE
  5
277
100
AcDbEntity
  8
L1_120
  6
CENTER
 62
         1
100
AcDbLine
 10
1565.2008425579
 20
-233.4852211269
 30
-3.3517974046
 11
1565.2008425579
 21
-231.0420203129
 31
-2.4625450319
  0
LINE
  5
278
100
AcDbEntity
  8
L1_120
  6
CENTER
 62
         1
100
AcDbLine
 10
1553.0139885438
 20
-214.7026450227
 30
3.4845012202
 11
1553.0139885438
 21
-233.8498218638
 31
-3.4845012202
  0
LINE
  5
279
100
AcDbEntity
  8
L1_120
  6
CENTER
 62
         1
100
AcDbLine
 10
1552.4008425579
 20
-213.7046914594
 30
3.8477266124
 11
1553.0139885438
 21
-214.7026450227
 31
3.4845012202
  0
LINE
  5
27A
100
AcDbEntity
  8
L1_120
  6
CENTER
 62
         1
100
AcDbLine
 10
1552.4008425579
 20
-234.8477754271
 30
-3.8477266124
 11
1553.0139885438
 21
-233.8498218638
 31
-3.4845012202
  0
LINE
  5
27B
100
AcDbEntity
  8
L1_120
  6
CENTER
 62
         1
100
AcDbLine
 10
1569.1791547214
 20
-212.5300756834
 30
4.2752517916
 11
1558.8442182308
 21
-212.5300756834
 31
4.2752517916
  0
LINE
  5
27C
100
AcDbEntity
  8
L1_120
  6
CENTER
 62
         1
100
AcDbLine
 10
1557.4008425579
 20
-211.1205367522
 30
4.7882820066
 11
1557.9781928271
 21
-212.060229373
 31
4.4462618632
  0
LINE
  5
27D
100
AcDbEntity
  8
L1_120
  6
CENTER
 62
         1
100
AcDbLine
 10
1557.4008425579
 20
-237.4319301342
 30
-4.7882820066
 11
1557.9781928271
 21
-236.4922375134
 31
-4.4462618632
  0
LINE
  5
27E
100
AcDbEntity
  8
L1_120
  6
CENTER
 62
         1
100
AcDbLine
 10
1569.1791547214
 20
-236.022391203
 30
-4.2752517916
 11
1558.8442182308
 21
-236.022391203
 31
-4.2752517916
  0
LINE
  5
27F
100
AcDbEntity
  8
L1_120
  6
CENTER
 62
         1
100
AcDbLine
 10
1557.4008425579
 20
-211.1205367522
 30
4.7882820066
 11
1553.9008425579
 21
-211.1205367522
 31
4.7882820066
  0
ARC
  5
280
100
AcDbEntity
  8
L1_120
  6
CENTER
 62
         1
100
AcDbCircle
 10
1568.4008425579
 20
-199.9026453729
 30
76.7069895068
 40
1.5
210
0.0
220
-0.3420201433256687
230
0.9396926207859084
100
AcDbArc
 50
0.0
 51
30.0
  0
LINE
  5
281
100
AcDbEntity
  8
L1_120
  6
CENTER
 62
         1
100
AcDbLine
 10
1569.6998806635
 20
-213.3776068121
 30
3.9667756881
 11
1569.1791547214
 21
-212.5300756834
 31
4.2752517916
  0
ARC
  5
282
100
AcDbEntity
  8
L1_120
  6
CENTER
 62
         1
100
AcDbCircle
 10
1553.9008425579
 20
-198.2507215843
 30
76.7069895068
 40
1.5
210
0.0
220
-0.3420201433256687
230
0.9396926207859084
100
AcDbArc
 50
90.0
 51
180.0
  0
ARC
  5
283
100
AcDbEntity
  8
L1_120
  6
CENTER
 62
         1
100
AcDbCircle
 10
1553.9008425579
 20
-223.2507215843
 30
76.7069895068
 40
1.5
210
0.0
220
-0.3420201433256687
230
0.9396926207859084
100
AcDbArc
 50
180.0
 51
270.0
  0
LINE
  5
284
100
AcDbEntity
  8
L1_120
  6
CENTER
 62
         1
100
AcDbLine
 10
1557.4008425579
 20
-237.4319301342
 30
-4.7882820066
 11
1553.9008425579
 21
-237.4319301342
 31
-4.7882820066
  0
ARC
  5
285
100
AcDbEntity
  8
L1_120
  6
CENTER
 62
         1
100
AcDbCircle
 10
1568.4008425579
 20
-221.5987977956
 30
76.7069895068
 40
1.5
210
0.0
220
-0.3420201433256687
230
0.9396926207859084
100
AcDbArc
 50
330.0
 51
360.0
  0
LINE
  5
286
100
AcDbEntity
  8
L1_120
  6
CENTER
 62
         1
100
AcDbLine
 10
1569.6998806635
 20
-235.1748600743
 30
-3.9667756881
 11
1569.1791547214
 21
-236.022391203
 31
-4.2752517916
  0
LINE
  5
287
100
AcDbEntity
  8
L1_120
  6
CENTER
 62
         1
100
AcDbLine
 10
1561.1008425579
 20
-213.4697683042
 30
3.9332316482
 11
1559.7888425579
 21
-214.7026450227
 31
3.4845012202
  0
ARC
  5
288
100
AcDbEntity
  8
L1_120
  6
CENTER
 62
         1
100
AcDbCircle
 10
1563.1008425579
 20
-221.2507215843
 30
76.7069895068
 40
1.0
210
0.0
220
-0.3420201433256687
230
0.9396926207859084
100
AcDbArc
 50
270.0
 51
360.0
  0
ARC
  5
289
100
AcDbEntity
  8
L1_120
  6
CENTER
 62
         1
100
AcDbCircle
 10
1563.1008425579
 20
-200.2507215843
 30
76.7069895068
 40
1.0
210
0.0
220
-0.3420201433256687
230
0.9396926207859084
100
AcDbArc
 50
0.0
 51
90.0
  0
LINE
  5
28A
100
AcDbEntity
  8
L1_120
  6
CENTER
 62
         1
100
AcDbLine
 10
1566.2008425579
 20
-233.4852211269
 30
-3.3517974046
 11
1565.2008425579
 21
-233.4852211269
 31
-3.3517974046
  0
LINE
  5
28B
100
AcDbEntity
  8
L1_120
  6
CENTER
 62
         1
100
AcDbLine
 10
1566.2008425579
 20
-215.0672457595
 30
3.3517974046
 11
1564.1008425579
 21
-215.0672457595
 31
3.3517974046
  0
LINE
  5
28C
100
AcDbEntity
  8
L1_120
  6
CENTER
 62
         1
100
AcDbLine
 10
1566.2008425579
 20
-233.4852211269
 30
-3.3517974046
 11
1566.2008425579
 21
-215.0672457595
 31
3.3517974046
  0
LINE
  5
28D
100
AcDbEntity
  8
L1_120
  6
CENTER
 62
         1
100
AcDbLine
 10
1563.1008425579
 20
-213.4697683042
 30
3.9332316482
 11
1561.1008425579
 21
-213.4697683042
 31
3.9332316482
  0
LINE
  5
28E
100
AcDbEntity
  8
L1_120
  6
CENTER
 62
         1
100
AcDbLine
 10
1563.1008425579
 20
-235.0826985823
 30
-3.9332316482
 11
1561.1008425579
 21
-235.0826985823
 31
-3.9332316482
  0
LINE
  5
28F
100
AcDbEntity
  8
L1_120
  6
CENTER
 62
         1
100
AcDbLine
 10
1561.1008425579
 20
-235.0826985823
 30
-3.9332316482
 11
1561.1008425579
 21
-213.4697683042
 31
3.9332316482
  0
LINE
  5
290
100
AcDbEntity
  8
L1_120
  6
CENTER
 62
         1
100
AcDbLine
 10
1559.7888425579
 20
-214.7026450227
 30
3.4845012202
 11
1553.0139885438
 21
-214.7026450227
 31
3.4845012202
  0
LINE
  5
291
100
AcDbEntity
  8
L1_120
  6
CENTER
 62
         1
100
AcDbLine
 10
1559.7888425579
 20
-233.8498218638
 30
-3.4845012202
 11
1553.0139885438
 21
-233.8498218638
 31
-3.4845012202
  0
LINE
  5
292
100
AcDbEntity
  8
L1_120
  6
CENTER
 62
         1
100
AcDbLine
 10
1565.2008425579
 20
-231.0420203129
 30
-2.4625450319
 11
1564.1008425579
 21
-231.0420203129
 31
-2.4625450319
  0
LINE
  5
293
100
AcDbEntity
  8
L1_120
  6
CENTER
 62
         1
100
AcDbLine
 10
1566.2008425579
 20
-216.4977870737
 30
2.8311229473
 11
1569.9008425579
 21
-218.5051546877
 31
2.1005008866
  0
LINE
  5
294
100
AcDbEntity
  8
L1_120
  6
CENTER
 62
         1
100
AcDbLine
 10
1566.2008425579
 20
-232.0546798127
 30
-2.8311229473
 11
1569.9008425579
 21
-230.0473121987
 31
-2.1005008866
  0
LINE
  5
295
100
AcDbEntity
  8
L1_120
  6
CENTER
 62
         1
100
AcDbLine
 10
1564.1008425579
 20
-234.1430059615
 30
-3.5912115049
 11
1564.1008425579
 21
-214.409460925
 31
3.5912115049
  0
LINE
  5
296
100
AcDbEntity
  8
L1_120
  6
CENTER
 62
         1
100
AcDbLine
 10
1565.2008425579
 20
-231.0420203129
 30
-2.4625450319
 11
1565.2008425579
 21
-215.0672457595
 31
3.3517974046
  0
LINE
  5
297
100
AcDbEntity
  8
L1_120
  6
CENTER
 62
         1
100
AcDbLine
 10
1569.9008425579
 20
-234.4700906088
 30
-3.7102605806
 11
1569.9008425579
 21
-214.0823762777
 31
3.7102605806
  0
LINE
  5
298
100
AcDbEntity
  8
L1_120
  6
CENTER
 62
         1
100
AcDbLine
 10
1552.4008425579
 20
-236.022391203
 30
-4.2752517916
 11
1552.4008425579
 21
-212.5300756834
 31
4.2752517916
  0
ARC
  5
299
100
AcDbEntity
  8
L1_120
  6
CENTER
 62
         1
100
AcDbCircle
 10
1558.8442182308
 20
-224.2507215843
 30
76.7069895068
 40
1.0
210
0.0
220
-0.3420201433256687
230
0.9396926207859084
100
AcDbArc
 50
90.0
 51
150.0
  0
ARC
  5
29A
100
AcDbEntity
  8
L1_120
  6
CENTER
 62
         1
100
AcDbCircle
 10
1558.8442182308
 20
-197.2507215843
 30
76.7069895068
 40
1.0
210
0.0
220
-0.3420201433256687
230
0.9396926207859084
100
AcDbArc
 50
210.0
 51
270.0
  0
LINE
  5
29B
100
AcDbEntity
  8
L1_120
  6
CENTER
 62
         1
100
AcDbLine
 10
1559.7888425579
 20
-214.7026450227
 30
3.4845012202
 11
1559.7888425579
 21
-233.8498218638
 31
-3.4845012202
  0
LINE
  5
29C
100
AcDbEntity
  8
L1_120
  6
CENTER
 62
         1
100
AcDbLine
 10
1561.1008425579
 20
-235.0826985823
 30
-3.9332316482
 11
1559.7888425579
 21
-233.8498218638
 31
-3.4845012202
  0
ARC
  5
29D
100
AcDbEntity
  8
L1_120
  6
CONTINUOUS
 62
         7
100
AcDbCircle
 10
1557.8008425579
 20
-220.2507215843
 30
76.7069895068
 40
1.5
210
0.0
220
-0.3420201433256687
230
0.9396926207859084
100
AcDbArc
 50
270.0
 51
360.0
  0
ARC
  5
29E
100
AcDbEntity
  8
L1_120
  6
CONTINUOUS
 62
         7
100
AcDbCircle
 10
1557.8008425579
 20
-201.2507215843
 30
76.7069895068
 40
1.5
210
0.0
220
-0.3420201433256687
230
0.9396926207859084
100
AcDbArc
 50
0.0
 51
90.0
  0
LINE
  5
29F
100
AcDbEntity
  8
L1_120
  6
CONTINUOUS
 62
         7
100
AcDbLine
 10
1559.3008425579
 20
-233.2033133407
 30
-3.2491913616
 11
1559.3008425579
 21
-215.3491535458
 31
3.2491913616
  0
DIMENSION
  5
2A3
100
AcDbEntity
  8
L1_120
  6
CONTINUOUS
 62
         4
100
AcDbDimension
  2
*D5
 10
1584.6898645178
 20
-184.885201207
 30
-67.2927099957
 11
1582.0648645178
 21
-221.8684755338
 31
0.0
210
0.0
220
-0.3420201433256687
230
0.9396926207859084
  3
DIMSTYLE1
100
AcDbAlignedDimension
 13
1538.9623410046
 23
-184.885201207
 33
-67.2927099957
 14
1538.9623410046
 24
-211.196594589
 34
-76.8692740088
 50
90.0
100
AcDbRotatedDimension
  0
LINE
  5
2B0
100
AcDbEntity
  8
L1_120
  6
CONTINUOUS
 62
         7
100
AcDbLine
 10
1546.3008425579
 20
-213.9396146146
 30
3.7622215766
 11
1546.3008425579
 21
-234.6128522719
 31
-3.7622215766
  0
LINE
  5
2B1
100
AcDbEntity
  8
L1_120
  6
CONTINUOUS
 62
         4
100
AcDbLine
 10
1559.2150561202
 20
-233.6731596511
 30
-3.4202014333
 11
1546.3008425579
 21
-233.6731596511
 31
-3.4202014333
  0
LINE
  5
2B2
100
AcDbEntity
  8
L1_120
  6
CONTINUOUS
 62
         4
100
AcDbLine
 10
1559.2150561202
 20
-214.8793072354
 30
3.4202014333
 11
1546.3008425579
 21
-214.8793072354
 31
3.4202014333
  0
LINE
  5
2B3
100
AcDbEntity
  8
L1_120
  6
CONTINUOUS
 62
         7
100
AcDbLine
 10
1544.3008425579
 20
-234.6128522719
 30
-3.7622215766
 11
1557.8008425579
 21
-234.6128522719
 31
-3.7622215766
  0
LINE
  5
2B4
100
AcDbEntity
  8
L1_120
  6
CONTINUOUS
 62
         7
100
AcDbLine
 10
1544.3008425579
 20
-213.9396146146
 30
3.7622215766
 11
1557.8008425579
 21
-213.9396146146
 31
3.7622215766
  0
LINE
  5
2B5
100
AcDbEntity
  8
L1_120
  6
CONTINUOUS
 62
         7
100
AcDbLine
 10
1509.3008425579
 20
-237.4319301342
 30
-4.7882820066
 11
1543.3008425579
 21
-237.4319301342
 31
-4.7882820066
  0
LINE
  5
2B6
100
AcDbEntity
  8
L1_120
  6
CONTINUOUS
 62
         7
100
AcDbLine
 10
1509.3008425579
 20
-211.1205367522
 30
4.7882820066
 11
1543.3008425579
 21
-211.1205367522
 31
4.7882820066
  0
LINE
  5
2B7
100
AcDbEntity
  8
L1_120
  6
CONTINUOUS
 62
         7
100
AcDbLine
 10
1543.8008425579
 20
-211.5903830626
 30
4.6172719349
 11
1543.3008425579
 21
-211.1205367522
 31
4.7882820066
  0
LINE
  5
2B8
100
AcDbEntity
  8
L1_120
  6
CONTINUOUS
 62
         7
100
AcDbLine
 10
1543.8008425579
 20
-236.9620838238
 30
-4.6172719349
 11
1543.8008425579
 21
-211.5903830626
 31
4.6172719349
  0
LINE
  5
2B9
100
AcDbEntity
  8
L1_120
  6
CONTINUOUS
 62
         4
100
AcDbLine
 10
1543.3008425579
 20
-211.1205367522
 30
4.7882820066
 11
1543.3008425579
 21
-237.4319301342
 31
-4.7882820066
  0
ARC
  5
2BA
100
AcDbEntity
  8
L1_120
  6
CONTINUOUS
 62
         7
100
AcDbCircle
 10
1544.3008425579
 20
-199.2507215843
 30
76.7069895068
 40
0.5
210
0.0
220
-0.3420201433256687
230
0.9396926207859084
100
AcDbArc
 50
180.0
 51
270.0
  0
ARC
  5
2BB
100
AcDbEntity
  8
L1_120
  6
CONTINUOUS
 62
         7
100
AcDbCircle
 10
1544.3008425579
 20
-222.2507215843
 30
76.7069895068
 40
0.5
210
0.0
220
-0.3420201433256687
230
0.9396926207859084
100
AcDbArc
 50
90.0
 51
180.0
  0
LINE
  5
2BC
100
AcDbEntity
  8
L1_120
  6
CONTINUOUS
 62
         7
100
AcDbLine
 10
1543.8008425579
 20
-236.9620838238
 30
-4.6172719349
 11
1543.3008425579
 21
-237.4319301342
 31
-4.7882820066
  0
LINE
  5
2BD
100
AcDbEntity
  8
L1_120
  6
CONTINUOUS
 62
         7
100
AcDbLine
 10
1452.5528425579
 20
-256.1553056034
 30
-11.6030333623
 11
1451.5528425579
 21
-257.0949982242
 31
-11.9450535056
  0
LINE
  5
2BE
100
AcDbEntity
  8
L1_120
  6
CONTINUOUS
 62
         7
100
AcDbLine
 10
1452.5528425579
 20
-192.3971612831
 30
11.6030333623
 11
1452.5528425579
 21
-256.1553056034
 31
-11.6030333623
  0
LINE
  5
2BF
100
AcDbEntity
  8
L1_120
  6
CONTINUOUS
 62
         7
100
AcDbLine
 10
1451.5528425579
 20
-191.4574686623
 30
11.9450535056
 11
1452.5528425579
 21
-192.3971612831
 31
11.6030333623
  0
LINE
  5
2C0
100
AcDbEntity
  8
L1_120
  6
CONTINUOUS
 62
         4
100
AcDbLine
 10
1451.5528425579
 20
-257.0949982242
 30
-11.9450535056
 11
1451.5528425579
 21
-191.4574686623
 31
11.9450535056
  0
ARC
  5
2C1
100
AcDbEntity
  8
L1_120
  6
CONTINUOUS
 62
         4
100
AcDbCircle
 10
1669.556202115
 20
-210.7507215842
 30
76.7069895068
 40
5.4
210
0.0
220
-0.3420201433256687
230
0.9396926207859084
100
AcDbArc
 50
180.0
 51
450.0
  0
CIRCLE
  5
2C2
100
AcDbEntity
  8
L1_120
  6
CONTINUOUS
 62
         7
100
AcDbCircle
 10
1669.556202115
 20
-210.7507215842
 30
76.7069895068
 40
4.97
210
0.0
220
-0.3420201433256687
230
0.9396926207859084
  0
CIRCLE
  5
2C3
100
AcDbEntity
  8
L1_120
  6
CONTINUOUS
 62
         7
100
AcDbCircle
 10
1669.556202115
 20
-210.7507215842
 30
76.7069895068
 40
5.75
210
0.0
220
-0.3420201433256687
230
0.9396926207859084
  0
CIRCLE
  5
2C4
100
AcDbEntity
  8
L1_120
  6
CONTINUOUS
 62
         7
100
AcDbCircle
 10
1669.556202115
 20
-210.7507215842
 30
76.7069895068
 40
14.0
210
0.0
220
-0.3420201433256687
230
0.9396926207859084
  0
CIRCLE
  5
2C5
100
AcDbEntity
  8
L1_120
  6
CONTINUOUS
 62
         7
100
AcDbCircle
 10
1669.556202115
 20
-210.7507215842
 30
76.7069895068
 40
8.0
210
0.0
220
-0.3420201433256687
230
0.9396926207859084
  0
CIRCLE
  5
2C6
100
AcDbEntity
  8
L1_120
  6
CONTINUOUS
 62
         7
100
AcDbCircle
 10
1669.556202115
 20
-210.7507215842
 30
76.7069895068
 40
11.0
210
0.0
220
-0.3420201433256687
230
0.9396926207859084
  0
ARC
  5
2C7
100
AcDbEntity
  8
L1_120
  6
CONTINUOUS
 62
         4
100
AcDbCircle
 10
1669.556202115
 20
-210.7507215842
 30
76.7069895068
 40
10.0
210
0.0
220
-0.3420201433256687
230
0.9396926207859084
100
AcDbArc
 50
250.2170796992
 51
556.8024117489
  0
DIMENSION
  5
2CA
100
AcDbEntity
  8
L1_120
  6
CONTINUOUS
 62
         4
100
AcDbDimension
  2
*D6
 10
1508.8658945595
 20
-184.8494430658
 30
-67.2796950966
 11
1469.2514022761
 21
-189.1664108674
 31
0.0
 70
         2
210
0.0
220
-0.3420201433256687
230
0.9396926207859084
  3
DIMSTYLE1
100
AcDb2LineAngularDimension
 13
1543.3008425579
 23
-184.885201207
 33
-67.2927099957
 14
1509.737451987
 24
-184.885201207
 34
-67.2927099957
 15
1457.1170638441
 25
-180.5950448295
 35
-65.7312207739
 16
1477.5834341266
 26
-193.9758079101
 36
-67.2927099957
  0
ARC
  5
2D9
100
AcDbEntity
  8
L1_120
  6
CONTINUOUS
 62
         7
100
AcDbCircle
 10
1509.737451987
 20
-234.7507215843
 30
76.7069895068
 40
10.0
210
0.0
220
-0.3420201433256687
230
0.9396926207859084
100
AcDbArc
 50
90.0
 51
95.0
  0
ARC
  5
2DA
100
AcDbEntity
  8
L1_120
  6
CONTINUOUS
 62
         7
100
AcDbCircle
 10
1509.737451987
 20
-186.7507215842
 30
76.7069895068
 40
10.0
210
0.0
220
-0.3420201433256687
230
0.9396926207859084
100
AcDbArc
 50
265.0
 51
270.0
  0
ARC
  5
2DB
100
AcDbEntity
  8
L1_120
  6
CONTINUOUS
 62
         7
100
AcDbCircle
 10
1457.5528425579
 20
-234.2971841321
 30
76.7069895068
 40
5.0
210
0.0
220
-0.3420201433256687
230
0.9396926207859084
100
AcDbArc
 50
95.0
 51
180.0
  0
ARC
  5
2DC
100
AcDbEntity
  8
L1_120
  6
CONTINUOUS
 62
         7
100
AcDbCircle
 10
1457.5528425579
 20
-187.2042590364
 30
76.7069895068
 40
5.0
210
0.0
220
-0.3420201433256687
230
0.9396926207859084
100
AcDbArc
 50
180.0
 51
265.0
  0
LINE
  5
2DD
100
AcDbEntity
  8
L1_120
  6
CONTINUOUS
 62
         7
100
AcDbLine
 10
1457.1170638441
 20
-206.8303803747
 30
6.3497712283
 11
1508.8658945595
 21
-211.084778611
 31
4.8012969056
  0
LINE
  5
2DE
100
AcDbEntity
  8
L1_120
  6
CONTINUOUS
 62
         7
100
AcDbLine
 10
1457.1170638441
 20
-241.7220865117
 30
-6.3497712283
 11
1508.8658945595
 21
-237.4676882755
 31
-4.8012969056
  0
LINE
  5
2DF
100
AcDbEntity
  8
L1_120
  6
CONTINUOUS
 62
         4
100
AcDbLine
 10
1509.3008425579
 20
-237.4319301342
 30
-4.7882820066
 11
1509.3008425579
 21
-211.1205367522
 31
4.7882820066
  0
DIMENSION
  5
2E2
100
AcDbEntity
  8
L1_120
  6
CONTINUOUS
 62
         4
100
AcDbDimension
  2
*D7
 10
1594.6989244347
 20
-180.2198090083
 30
-65.5946461042
 11
1590.6389244347
 21
-225.0423882509
 31
0.0
210
0.0
220
-0.3420201433256687
230
0.9396926207859084
  3
DIMSTYLE1
100
AcDbAlignedDimension
 13
1452.5528425579
 23
-180.2198090083
 33
-65.5946461042
 14
1452.5528425579
 24
-215.8619867878
 34
-78.5673379003
 50
90.0
100
AcDbRotatedDimension
  0
CIRCLE
  5
2EE
100
AcDbEntity
  8
L1_120
  6
CONTINUOUS
 62
         7
100
AcDbCircle
 10
1669.556202115
 20
-210.7507215842
 30
76.7069895068
 40
18.9648066778
210
0.0
220
-0.3420201433256687
230
0.9396926207859084
  0
LINE
  5
2EF
100
AcDbEntity
  8
L1_120
  6
CENTER
 62
         1
100
AcDbLine
 10
1428.7508425579
 20
-307.1294271053
 30
11.2973430394
 11
1428.7508425579
 21
-347.0957019032
 31
-3.2491913616
  0
LINE
  5
2F0
100
AcDbEntity
  8
L1_120
  6
CONTINUOUS
 62
         7
100
AcDbLine
 10
1430.4008425579
 20
-321.7031228807
 30
5.9929515739
 11
1430.4008425579
 21
-342.4946459612
 31
-1.5745439525
  0
LINE
  5
2F1
100
AcDbEntity
  8
L1_120
  6
CONTINUOUS
 62
         7
100
AcDbLine
 10
1427.1008425579
 20
-342.4946459612
 30
-1.5745439525
 11
1427.1008425579
 21
-319.7771775305
 31
6.6939383541
  0
LINE
  5
2F2
100
AcDbEntity
  8
L1_120
  6
CONTINUOUS
 62
         7
100
AcDbLine
 10
1427.1008425579
 20
-313.4678367307
 30
8.9903506031
 11
1428.4167402192
 21
-314.3336708853
 31
8.675212743
  0
LINE
  5
2F3
100
AcDbEntity
  8
L1_120
  6
CONTINUOUS
 62
         7
100
AcDbLine
 10
1427.1008425579
 20
-314.041413167
 30
8.7815858532
 11
1427.1008425579
 21
-313.4678367307
 31
8.9903506031
  0
LINE
  5
2F4
100
AcDbEntity
  8
L1_120
  6
CONTINUOUS
 62
         7
100
AcDbLine
 10
1425.2620698193
 20
-318.5673021075
 30
7.1342969953
 11
1427.1008425579
 21
-316.0996320534
 31
8.032455443
  0
LINE
  5
2F5
100
AcDbEntity
  8
L1_120
  6
CONTINUOUS
 62
         7
100
AcDbLine
 10
1427.1008425579
 20
-314.041413167
 30
8.7815858532
 11
1424.0341917796
 21
-312.0236187275
 31
9.5160029681
  0
LINE
  5
2F6
100
AcDbEntity
  8
L1_120
  6
CONTINUOUS
 62
         7
100
AcDbLine
 10
1430.4008425579
 20
-321.5007901119
 30
6.0665946791
 11
1433.0448642668
 21
-317.9524597191
 31
7.3580813234
  0
LINE
  5
2F7
100
AcDbEntity
  8
L1_120
  6
CONTINUOUS
 62
         7
100
AcDbLine
 10
1432.7932673091
 20
-320.6547961707
 30
6.3745112921
 11
1430.4008425579
 21
-321.7031228807
 31
5.9929515739
  0
LINE
  5
2F8
100
AcDbEntity
  8
L1_120
  6
CONTINUOUS
 62
         7
100
AcDbLine
 10
1432.7932673091
 20
-320.6547961707
 30
6.3745112921
 11
1433.0448642668
 21
-317.9524597191
 31
7.3580813234
  0
LINE
  5
2F9
100
AcDbEntity
  8
L1_120
  6
CONTINUOUS
 62
         4
100
AcDbLine
 10
1424.3209799978
 20
-311.6387431618
 30
9.6560862179
 11
1427.1008425579
 21
-313.4678367307
 31
8.9903506031
  0
LINE
  5
2FA
100
AcDbEntity
  8
L1_120
  6
CONTINUOUS
 62
         7
100
AcDbLine
 10
1424.9752816011
 20
-318.9521776732
 30
6.9942137455
 11
1425.2620698193
 21
-318.5673021075
 31
7.1342969953
  0
LINE
  5
2FB
100
AcDbEntity
  8
L1_120
  6
CONTINUOUS
 62
         7
100
AcDbLine
 10
1424.3209799978
 20
-311.6387431618
 30
9.6560862179
 11
1424.3496588196
 21
-311.6002556052
 31
9.6700945429
  0
LINE
  5
2FC
100
AcDbEntity
  8
L1_120
  6
CONTINUOUS
 62
         4
100
AcDbLine
 10
1426.7508425579
 20
-313.1493059773
 30
9.106286316
 11
1430.7508425579
 21
-313.1493059773
 31
9.106286316
  0
LINE
  5
2FD
100
AcDbEntity
  8
L1_120
  6
CONTINUOUS
 62
         7
100
AcDbLine
 10
1426.7508425579
 20
-313.1493059773
 30
9.106286316
 11
1427.1008425579
 21
-313.339192103
 31
9.0371734184
  0
LINE
  5
2FE
100
AcDbEntity
  8
L1_120
  6
CONTINUOUS
 62
         7
100
AcDbLine
 10
1427.1008425579
 20
-313.339192103
 30
9.0371734184
 11
1430.4008425579
 21
-313.339192103
 31
9.0371734184
  0
LINE
  5
2FF
100
AcDbEntity
  8
L1_120
  6
CONTINUOUS
 62
         7
100
AcDbLine
 10
1430.7508425579
 20
-313.1493059773
 30
9.106286316
 11
1430.4008425579
 21
-313.339192103
 31
9.0371734184
  0
LINE
  5
300
100
AcDbEntity
  8
L1_120
  6
CONTINUOUS
 62
         7
100
AcDbLine
 10
1430.4008425579
 20
-313.339192103
 30
9.0371734184
 11
1430.4008425579
 21
-316.212746694
 31
7.9912850807
  0
LINE
  5
301
100
AcDbEntity
  8
L1_120
  6
CONTINUOUS
 62
         7
100
AcDbLine
 10
1433.0448642668
 20
-317.9524597191
 30
7.3580813234
 11
1430.4008425579
 21
-316.212746694
 31
7.9912850807
  0
LINE
  5
302
100
AcDbEntity
  8
L1_120
  6
CONTINUOUS
 62
         4
100
AcDbLine
 10
1430.4008425579
 20
-316.212746694
 30
7.9912850807
 11
1427.1008425579
 21
-314.041413167
 31
8.7815858532
  0
LINE
  5
303
100
AcDbEntity
  8
L1_120
  6
CONTINUOUS
 62
         4
100
AcDbLine
 10
1430.176982085
 20
-321.8012153757
 30
5.9572488255
 11
1427.1008425579
 21
-319.7771775305
 31
6.6939383541
  0
LINE
  5
304
100
AcDbEntity
  8
L1_120
  6
CONTINUOUS
 62
         4
100
AcDbLine
 10
1430.176982085
 20
-321.8012153757
 30
5.9572488255
 11
1430.4008425579
 21
-321.5007901119
 31
6.0665946791
  0
LINE
  5
305
100
AcDbEntity
  8
L1_120
  6
CONTINUOUS
 62
         4
100
AcDbLine
 10
1430.4008425579
 20
-321.7031228807
 30
5.9929515739
 11
1430.176982085
 21
-321.8012153757
 31
5.9572488255
  0
LINE
  5
306
100
AcDbEntity
  8
L1_120
  6
CONTINUOUS
 62
         4
100
AcDbLine
 10
1427.1008425579
 20
-316.0996320534
 30
8.032455443
 11
1428.4167402192
 21
-314.3336708853
 31
8.675212743
  0
LINE
  5
307
100
AcDbEntity
  8
L1_120
  6
CONTINUOUS
 62
         7
100
AcDbLine
 10
1427.1008425579
 20
-313.4678367307
 30
8.9903506031
 11
1427.1008425579
 21
-313.339192103
 31
9.0371734184
  0
LINE
  5
308
100
AcDbEntity
  8
L1_120
  6
CONTINUOUS
 62
         4
100
AcDbLine
 10
1430.4008425579
 20
-316.212746694
 30
7.9912850807
 11
1430.4008425579
 21
-321.7031228807
 31
5.9929515739
  0
LINE
  5
309
100
AcDbEntity
  8
L1_120
  6
CONTINUOUS
 62
         4
100
AcDbLine
 10
1427.1008425579
 20
-314.041413167
 30
8.7815858532
 11
1427.1008425579
 21
-319.7771775305
 31
6.6939383541
  0
LINE
  5
30A
100
AcDbEntity
  8
L1_120
  6
CENTER
 62
         1
100
AcDbLine
 10
1432.9366614182
 20
-320.4623583879
 30
6.444552917
 11
1420.994236667
 21
-312.6044834617
 31
9.3045854947
  0
LINE
  5
30B
100
AcDbEntity
  8
L1_120
  6
CONTINUOUS
 62
         7
100
AcDbLine
 10
1430.7508425579
 20
-308.9544226312
 30
10.6330989903
 11
1430.7508425579
 21
-313.1493059773
 31
9.106286316
  0
LINE
  5
30C
100
AcDbEntity
  8
L1_120
  6
CONTINUOUS
 62
         7
100
AcDbLine
 10
1426.7508425579
 20
-308.9544226312
 30
10.6330989903
 11
1426.7508425579
 21
-313.1493059773
 31
9.106286316
  0
LINE
  5
30D
100
AcDbEntity
  8
L1_120
  6
CONTINUOUS
 62
         7
100
AcDbLine
 10
1424.3496588196
 20
-311.6002556052
 30
9.6700945429
 11
1420.8508425579
 21
-309.2981049828
 31
10.5080088442
  0
LINE
  5
30E
100
AcDbEntity
  8
L1_120
  6
CONTINUOUS
 62
         7
100
AcDbLine
 10
1420.8795213797
 20
-316.2572499497
 30
7.9750872203
 11
1424.3209799978
 21
-311.6387431618
 31
9.6560862179
  0
LINE
  5
30F
100
AcDbEntity
  8
L1_120
  6
CONTINUOUS
 62
         7
100
AcDbLine
 10
1427.1008425579
 20
-319.7771775305
 30
6.6939383541
 11
1421.1663095979
 21
-315.8723743841
 31
8.1151704701
  0
LINE
  5
310
100
AcDbEntity
  8
L1_120
  6
CONTINUOUS
 62
         4
100
AcDbLine
 10
1424.9752816011
 20
-318.9521776732
 30
6.9942137455
 11
1420.8795213797
 21
-316.2572499497
 31
7.9750872203
  0
ARC
  5
311
100
AcDbEntity
  8
L1_120
  6
CONTINUOUS
 62
         7
100
AcDbCircle
 10
1420.0508425579
 20
-368.6745603278
 30
115.6604805667
 40
0.8
210
0.0
220
-0.3420201433256687
230
0.9396926207859084
100
AcDbArc
 50
0.0
 51
90.0000000001
  0
LINE
  5
312
100
AcDbEntity
  8
L1_120
  6
CONTINUOUS
 62
         7
100
AcDbLine
 10
1420.0508425579
 20
-385.2472238554
 30
-17.1352097441
 11
1418.8508425579
 21
-385.2472238554
 31
-17.1352097441
  0
ARC
  5
313
100
AcDbEntity
  8
L1_120
  6
CONTINUOUS
 62
         7
100
AcDbCircle
 10
1420.0508425579
 20
-296.8745570325
 30
115.6604805667
 40
0.8
210
0.0
220
-0.3420201433256687
230
0.9396926207859084
100
AcDbArc
 50
270.0
 51
360.0
  0
LINE
  5
314
100
AcDbEntity
  8
L1_120
  6
CONTINUOUS
 62
         7
100
AcDbLine
 10
1420.0508425579
 20
-319.2807987797
 30
6.8746054444
 11
1418.8508425579
 21
-319.2807987797
 31
6.8746054444
  0
ARC
  5
315
100
AcDbEntity
  8
L1_120
  6
CONTINUOUS
 62
         7
100
AcDbCircle
 10
1437.2508425579
 20
-368.1995586802
 30
115.6604805667
 40
0.5
210
0.0
220
-0.3420201433256687
230
0.9396926207859084
100
AcDbArc
 50
90.0
 51
180.0
  0
ARC
  5
316
100
AcDbEntity
  8
L1_120
  6
CONTINUOUS
 62
         7
100
AcDbCircle
 10
1437.2508425579
 20
-297.3495586802
 30
115.6604805667
 40
0.5
210
0.0
220
-0.3420201433256687
230
0.9396926207859084
100
AcDbArc
 50
180.0
 51
270.0
  0
LINE
  5
317
100
AcDbEntity
  8
L1_120
  6
CONTINUOUS
 62
         7
100
AcDbLine
 10
1420.8508425579
 20
-306.9238423646
 30
11.3721697656
 11
1420.8508425579
 21
-308.8032276062
 31
10.6881294789
  0
LINE
  5
318
100
AcDbEntity
  8
L1_120
  6
CONTINUOUS
 62
         7
100
AcDbLine
 10
1421.3508425579
 20
-306.4539960542
 30
11.5431798372
 11
1423.3508425579
 21
-306.4539960542
 31
11.5431798372
  0
LINE
  5
319
100
AcDbEntity
  8
L1_120
  6
CONTINUOUS
 62
         7
100
AcDbLine
 10
1434.2508425579
 20
-306.4539960542
 30
11.5431798372
 11
1436.2508425579
 21
-306.4539960542
 31
11.5431798372
  0
LINE
  5
31A
100
AcDbEntity
  8
L1_120
  6
CONTINUOUS
 62
         7
100
AcDbLine
 10
1436.7508425579
 20
-306.9238423646
 30
11.3721697656
 11
1436.7508425579
 21
-318.9754002262
 31
6.9857614274
  0
LINE
  5
31B
100
AcDbEntity
  8
L1_120
  6
CONTINUOUS
 62
         7
100
AcDbLine
 10
1421.3508425579
 20
-398.0740265809
 30
-21.803784137
 11
1423.3508425579
 21
-398.0740265809
 31
-21.803784137
  0
LINE
  5
31C
100
AcDbEntity
  8
L1_120
  6
CONTINUOUS
 62
         7
100
AcDbLine
 10
1434.2508425579
 20
-398.0740265809
 30
-21.803784137
 11
1436.2508425579
 21
-398.0740265809
 31
-21.803784137
  0
LINE
  5
31D
100
AcDbEntity
  8
L1_120
  6
CONTINUOUS
 62
         7
100
AcDbLine
 10
1436.7508425579
 20
-385.5526224089
 30
-17.2463657272
 11
1436.7508425579
 21
-397.6041802705
 31
-21.6327740653
  0
LINE
  5
31E
100
AcDbEntity
  8
L1_120
  6
CONTINUOUS
 62
         7
100
AcDbLine
 10
1420.8508425579
 20
-395.7247950289
 30
-20.9487337787
 11
1420.8508425579
 21
-397.6041802705
 31
-21.6327740653
  0
LINE
  5
31F
100
AcDbEntity
  8
L1_120
  6
CONTINUOUS
 62
         7
100
AcDbLine
 10
1437.2508425579
 20
-319.4452465366
 30
6.8147513558
 11
1451.5528425579
 21
-319.4452465366
 31
6.8147513558
  0
LINE
  5
320
100
AcDbEntity
  8
L1_120
  6
CONTINUOUS
 62
         7
100
AcDbLine
 10
1437.2508425579
 20
-385.0827760985
 30
-17.0753556555
 11
1451.5528425579
 21
-385.0827760985
 31
-17.0753556555
  0
LINE
  5
321
100
AcDbEntity
  8
L1_120
  6
CONTINUOUS
 62
         7
100
AcDbLine
 10
1420.8508425579
 20
-397.6041802705
 30
-21.6327740653
 11
1421.3508425579
 21
-398.0740265809
 31
-21.803784137
  0
LINE
  5
322
100
AcDbEntity
  8
L1_120
  6
CONTINUOUS
 62
         7
100
AcDbLine
 10
1436.7508425579
 20
-397.6041802705
 30
-21.6327740653
 11
1436.2508425579
 21
-398.0740265809
 31
-21.803784137
  0
LINE
  5
323
100
AcDbEntity
  8
L1_120
  6
CONTINUOUS
 62
         7
100
AcDbLine
 10
1421.3508425579
 20
-306.4539960542
 30
11.5431798372
 11
1420.8508425579
 21
-306.9238423646
 31
11.3721697656
  0
LINE
  5
324
100
AcDbEntity
  8
L1_120
  6
CONTINUOUS
 62
         7
100
AcDbLine
 10
1436.2508425579
 20
-306.4539960542
 30
11.5431798372
 11
1436.7508425579
 21
-306.9238423646
 31
11.3721697656
  0
ARC
  5
325
100
AcDbEntity
  8
L1_120
  6
CONTINUOUS
 62
         7
100
AcDbCircle
 10
1430.1942182308
 20
-286.6495586802
 30
115.6604805667
 40
0.5
210
0.0
220
-0.3420201433256687
230
0.9396926207859084
100
AcDbArc
 50
270.0
 51
330.0
  0
ARC
  5
326
100
AcDbEntity
  8
L1_120
  6
CONTINUOUS
 62
         7
100
AcDbCircle
 10
1427.3074668849
 20
-286.6495586802
 30
115.6604805667
 40
0.5
210
0.0
220
-0.3420201433256687
230
0.9396926207859084
100
AcDbArc
 50
210.0
 51
270.0
  0
LINE
  5
327
100
AcDbEntity
  8
L1_120
  6
CONTINUOUS
 62
         7
100
AcDbLine
 10
1420.8508425579
 20
-307.8635349854
 30
11.0301496223
 11
1420.8508425579
 21
-318.5290446831
 31
7.148221559
  0
LINE
  5
328
100
AcDbEntity
  8
L1_120
  6
CONTINUOUS
 62
         7
100
AcDbLine
 10
1427.3074668849
 20
-309.3905354942
 30
10.4743668893
 11
1430.1942182308
 21
-309.3905354942
 31
10.4743668893
  0
LINE
  5
329
100
AcDbEntity
  8
L1_120
  6
CONTINUOUS
 62
         7
100
AcDbLine
 10
1430.6272309327
 20
-309.155612339
 30
10.5598719252
 11
1432.2871129567
 21
-306.4539960542
 31
11.5431798372
  0
LINE
  5
32A
100
AcDbEntity
  8
L1_120
  6
CONTINUOUS
 62
         7
100
AcDbLine
 10
1422.3508425579
 20
-306.4539960542
 30
11.5431798372
 11
1425.2145721591
 21
-306.4539960542
 31
11.5431798372
  0
LINE
  5
32B
100
AcDbEntity
  8
L1_120
  6
CONTINUOUS
 62
         7
100
AcDbLine
 10
1427.3074668849
 20
-309.3905354942
 30
10.4743668893
 11
1430.1942182308
 21
-309.3905354942
 31
10.4743668893
  0
ARC
  5
32C
100
AcDbEntity
  8
L1_120
  6
CONTINUOUS
 62
         7
100
AcDbCircle
 10
1427.3074668849
 20
-286.6495586802
 30
115.6604805667
 40
0.5
210
0.0
220
-0.3420201433256687
230
0.9396926207859084
100
AcDbArc
 50
210.0
 51
270.0
  0
ARC
  5
32D
100
AcDbEntity
  8
L1_120
  6
CONTINUOUS
 62
         7
100
AcDbCircle
 10
1430.1942182308
 20
-286.6495586802
 30
115.6604805667
 40
0.5
210
0.0
220
-0.3420201433256687
230
0.9396926207859084
100
AcDbArc
 50
270.0
 51
330.0
  0
LINE
  5
32E
100
AcDbEntity
  8
L1_120
  6
CONTINUOUS
 62
         7
100
AcDbLine
 10
1426.874454183
 20
-309.155612339
 30
10.5598719252
 11
1425.2145721591
 21
-306.4539960542
 31
11.5431798372
  0
LINE
  5
32F
100
AcDbEntity
  8
L1_120
  6
CONTINUOUS
 62
         7
100
AcDbLine
 10
1432.2871129567
 20
-306.4539960542
 30
11.5431798372
 11
1435.2508425579
 21
-306.4539960542
 31
11.5431798372
  0
LINE
  5
330
100
AcDbEntity
  8
L1_120
  6
CONTINUOUS
 62
         7
100
AcDbLine
 10
1430.7715685
 20
-395.6073334513
 30
-20.9059812608
 11
1432.2871129567
 21
-398.0740265809
 31
-21.803784137
  0
LINE
  5
331
100
AcDbEntity
  8
L1_120
  6
CONTINUOUS
 62
         7
100
AcDbLine
 10
1420.8508425579
 20
-385.998977952
 30
-17.4088258588
 11
1420.8508425579
 21
-396.6644876497
 31
-21.290753922
  0
LINE
  5
332
100
AcDbEntity
  8
L1_120
  6
CONTINUOUS
 62
         7
100
AcDbLine
 10
1427.3074668849
 20
-395.1374871409
 30
-20.7349711891
 11
1429.9055430963
 21
-395.1374871409
 31
-20.7349711891
  0
LINE
  5
333
100
AcDbEntity
  8
L1_120
  6
CONTINUOUS
 62
         7
100
AcDbLine
 10
1422.3508425579
 20
-398.0740265809
 30
-21.803784137
 11
1425.2145721591
 21
-398.0740265809
 31
-21.803784137
  0
LINE
  5
334
100
AcDbEntity
  8
L1_120
  6
CONTINUOUS
 62
         7
100
AcDbLine
 10
1426.874454183
 20
-395.3724102961
 30
-20.820476225
 11
1425.2145721591
 21
-398.0740265809
 31
-21.803784137
  0
ARC
  5
335
100
AcDbEntity
  8
L1_120
  6
CONTINUOUS
 62
         7
100
AcDbCircle
 10
1427.3074668849
 20
-378.8995586802
 30
115.6604805667
 40
0.5
210
0.0
220
-0.3420201433256687
230
0.9396926207859084
100
AcDbArc
 50
90.0
 51
150.0
  0
LINE
  5
336
100
AcDbEntity
  8
L1_120
  6
CONTINUOUS
 62
         7
100
AcDbLine
 10
1432.2871129567
 20
-398.0740265809
 30
-21.803784137
 11
1435.2508425579
 21
-398.0740265809
 31
-21.803784137
  0
ARC
  5
337
100
AcDbEntity
  8
L1_120
  6
CONTINUOUS
 62
         7
100
AcDbCircle
 10
1429.9055430962
 20
-379.3995586802
 30
115.6604805667
 40
1.0
210
0.0
220
-0.3420201433256687
230
0.9396926207859084
100
AcDbArc
 50
30.0
 51
90.0
  0
DIMENSION
  5
33A
100
AcDbEntity
  8
L1_120
  6
CONTINUOUS
 62
         4
100
AcDbDimension
  2
*D8
 10
1469.4508425579
 20
-350.3716803877
 30
-127.524862591
 11
1513.6115627658
 21
-370.2327543736
 31
0.0
210
0.0
220
-0.3420201433256687
230
0.9396926207859084
  3
DIMSTYLE1
100
AcDbAlignedDimension
 13
1469.4508425579
 23
-316.6994908154
 33
-115.2691878641
 14
1559.4508425579
 24
-322.1027233849
 34
-117.2358036882
100
AcDbRotatedDimension
  0
ARC
  5
346
100
AcDbEntity
  8
L1_120
  6
CONTINUOUS
 62
         7
100
AcDbCircle
 10
1557.9508425579
 20
-342.078872922
 30
115.6604805667
 40
1.5
210
0.0
220
-0.3420201433256687
230
0.9396926207859084
100
AcDbArc
 50
0.0
 51
82.0
  0
ARC
  5
347
100
AcDbEntity
  8
L1_120
  6
CONTINUOUS
 62
         7
100
AcDbCircle
 10
1557.9508425579
 20
-323.4702444383
 30
115.6604805667
 40
1.5
210
0.0
220
-0.3420201433256687
230
0.9396926207859084
100
AcDbArc
 50
278.0
 51
360.0
  0
LINE
  5
348
100
AcDbEntity
  8
L1_120
  6
CONTINUOUS
 62
         4
100
AcDbLine
 10
1558.1596022093
 20
-359.6113853569
 30
-7.8045276002
 11
1558.1596022093
 21
-344.9166372782
 31
-2.4560766995
  0
LINE
  5
349
100
AcDbEntity
  8
L1_120
  6
CONTINUOUS
 62
         7
100
AcDbLine
 10
1542.4067988093
 20
-357.5309884571
 30
-7.0473250532
 11
1558.1596022093
 21
-359.6113853569
 31
-7.8045276002
  0
LINE
  5
34A
100
AcDbEntity
  8
L1_120
  6
CONTINUOUS
 62
         7
100
AcDbLine
 10
1542.4067988093
 20
-346.9970341781
 30
-3.2132792465
 11
1558.1596022093
 21
-344.9166372782
 31
-2.4560766995
  0
LINE
  5
34B
100
AcDbEntity
  8
L1_120
  6
CONTINUOUS
 62
         7
100
AcDbLine
 10
1479.4508425579
 20
-347.0440188091
 30
-3.2303802537
 11
1479.4508425579
 21
-357.484003826
 31
-7.0302240461
  0
LINE
  5
34C
100
AcDbEntity
  8
L1_120
  6
CONTINUOUS
 62
         7
100
AcDbLine
 10
1469.4508425579
 20
-347.4950712671
 30
-3.3945499225
 11
1469.4508425579
 21
-357.032951368
 31
-6.8660543773
  0
LINE
  5
34D
100
AcDbEntity
  8
L1_120
  6
CONTINUOUS
 62
         7
100
AcDbLine
 10
1546.4508425579
 20
-361.6609375254
 30
-8.5505035831
 11
1546.4508425579
 21
-362.6006301462
 31
-8.8925237265
  0
LINE
  5
34E
100
AcDbEntity
  8
L1_120
  6
CONTINUOUS
 62
         7
100
AcDbLine
 10
1546.4508425579
 20
-341.9273924889
 30
-1.3680805733
 11
1546.4508425579
 21
-342.8670851097
 31
-1.7101007166
  0
LINE
  5
34F
100
AcDbEntity
  8
L1_120
  6
CONTINUOUS
 62
         7
100
AcDbLine
 10
1544.4508425579
 20
-341.9273924889
 30
-1.3680805733
 11
1557.9508425579
 21
-341.9273924889
 31
-1.3680805733
  0
LINE
  5
350
100
AcDbEntity
  8
L1_120
  6
CONTINUOUS
 62
         7
100
AcDbLine
 10
1544.4508425579
 20
-362.6006301462
 30
-8.8925237265
 11
1557.9508425579
 21
-362.6006301462
 31
-8.8925237265
  0
LINE
  5
351
100
AcDbEntity
  8
L1_120
  6
CONTINUOUS
 62
         7
100
AcDbLine
 10
1509.8874519869
 20
-365.4197080086
 30
-9.9185841564
 11
1543.4508425579
 21
-365.4197080086
 31
-9.9185841564
  0
LINE
  5
352
100
AcDbEntity
  8
L1_120
  6
CONTINUOUS
 62
         7
100
AcDbLine
 10
1509.8874519869
 20
-339.1083146266
 30
-0.3420201433
 11
1543.4508425579
 21
-339.1083146266
 31
-0.3420201433
  0
LINE
  5
353
100
AcDbEntity
  8
L1_120
  6
CONTINUOUS
 62
         7
100
AcDbLine
 10
1559.4508425579
 20
-343.3369314201
 30
-1.8811107883
 11
1559.4508425579
 21
-361.191091215
 31
-8.3794935115
  0
LINE
  5
354
100
AcDbEntity
  8
L1_120
  6
CONTINUOUS
 62
         4
100
AcDbLine
 10
1559.3650561202
 20
-342.8670851097
 30
-1.7101007166
 11
1546.4508425579
 21
-342.8670851097
 31
-1.7101007166
  0
LINE
  5
355
100
AcDbEntity
  8
L1_120
  6
CONTINUOUS
 62
         4
100
AcDbLine
 10
1559.3650561202
 20
-361.6609375254
 30
-8.5505035831
 11
1546.4508425579
 21
-361.6609375254
 31
-8.5505035831
  0
ARC
  5
356
100
AcDbEntity
  8
L1_120
  6
CONTINUOUS
 62
         7
100
AcDbCircle
 10
1557.9508425579
 20
-323.2745586802
 30
115.6604805667
 40
1.5
210
0.0
220
-0.3420201433256687
230
0.9396926207859084
100
AcDbArc
 50
0.0
 51
90.0
  0
ARC
  5
357
100
AcDbEntity
  8
L1_120
  6
CONTINUOUS
 62
         7
100
AcDbCircle
 10
1557.9508425579
 20
-342.2745586802
 30
115.6604805667
 40
1.5
210
0.0
220
-0.3420201433256687
230
0.9396926207859084
100
AcDbArc
 50
270.0
 51
360.0
  0
LINE
  5
358
100
AcDbEntity
  8
L1_120
  6
CONTINUOUS
 62
         7
100
AcDbLine
 10
1543.9508425579
 20
-339.5781609369
 30
-0.513030215
 11
1543.4508425579
 21
-339.1083146266
 31
-0.3420201433
  0
LINE
  5
359
100
AcDbEntity
  8
L1_120
  6
CONTINUOUS
 62
         7
100
AcDbLine
 10
1543.9508425579
 20
-364.9498616982
 30
-9.7475740848
 11
1543.9508425579
 21
-363.0704764566
 31
-9.0635337981
  0
ARC
  5
35A
100
AcDbEntity
  8
L1_120
  6
CONTINUOUS
 62
         7
100
AcDbCircle
 10
1544.4508425579
 20
-321.2745586802
 30
115.6604805667
 40
0.5
210
0.0
220
-0.3420201433256687
230
0.9396926207859084
100
AcDbArc
 50
180.0
 51
270.0
  0
ARC
  5
35B
100
AcDbEntity
  8
L1_120
  6
CONTINUOUS
 62
         7
100
AcDbCircle
 10
1544.4508425579
 20
-344.2745586802
 30
115.6604805667
 40
0.5
210
0.0
220
-0.3420201433256687
230
0.9396926207859084
100
AcDbArc
 50
90.0
 51
180.0
  0
LINE
  5
35C
100
AcDbEntity
  8
L1_120
  6
CONTINUOUS
 62
         7
100
AcDbLine
 10
1543.9508425579
 20
-364.9498616982
 30
-9.7475740848
 11
1543.4508425579
 21
-365.4197080086
 31
-9.9185841564
  0
LINE
  5
35D
100
AcDbEntity
  8
L1_120
  6
CONTINUOUS
 62
         7
100
AcDbLine
 10
1543.9508425579
 20
-341.4575461785
 30
-1.1970705016
 11
1543.9508425579
 21
-339.5781609369
 31
-0.513030215
  0
LINE
  5
35E
100
AcDbEntity
  8
L1_120
  6
CONTINUOUS
 62
         4
100
AcDbLine
 10
1479.4508425579
 20
-347.0440188091
 30
-3.2303802537
 11
1537.4508425579
 21
-347.0440188091
 31
-3.2303802537
  0
LINE
  5
35F
100
AcDbEntity
  8
L1_120
  6
CONTINUOUS
 62
         7
100
AcDbLine
 10
1469.4508425579
 20
-347.4950712671
 30
-3.3945499225
 11
1537.4508425579
 21
-347.4950712671
 31
-3.3945499225
  0
LINE
  5
360
100
AcDbEntity
  8
L1_120
  6
CONTINUOUS
 62
         7
100
AcDbLine
 10
1469.4508425579
 20
-357.032951368
 30
-6.8660543773
 11
1537.4508425579
 21
-357.032951368
 31
-6.8660543773
  0
LINE
  5
361
100
AcDbEntity
  8
L1_120
  6
CONTINUOUS
 62
         4
100
AcDbLine
 10
1479.4508425579
 20
-357.484003826
 30
-7.0302240461
 11
1537.4508425579
 21
-357.484003826
 31
-7.0302240461
  0
LINE
  5
362
100
AcDbEntity
  8
L1_120
  6
CONTINUOUS
 62
         7
100
AcDbLine
 10
1537.4508425579
 20
-346.9970341781
 30
-3.2132792465
 11
1542.4067988093
 21
-346.9970341781
 31
-3.2132792465
  0
LINE
  5
363
100
AcDbEntity
  8
L1_120
  6
CONTINUOUS
 62
         7
100
AcDbLine
 10
1537.4508425579
 20
-346.9970341781
 30
-3.2132792465
 11
1537.4508425579
 21
-357.5309884571
 31
-7.0473250532
  0
LINE
  5
364
100
AcDbEntity
  8
L1_120
  6
CONTINUOUS
 62
         7
100
AcDbLine
 10
1542.4067988093
 20
-357.5309884571
 30
-7.0473250532
 11
1542.4067988093
 21
-346.9970341781
 31
-3.2132792465
  0
LINE
  5
365
100
AcDbEntity
  8
L1_120
  6
CONTINUOUS
 62
         7
100
AcDbLine
 10
1537.4508425579
 20
-357.5309884571
 30
-7.0473250532
 11
1542.4067988093
 21
-357.5309884571
 31
-7.0473250532
  0
LINE
  5
366
100
AcDbEntity
  8
L1_120
  6
CENTER
 62
         6
100
AcDbLine
 10
1559.4508425579
 20
-340.5178535577
 30
-0.8550503583
 11
1546.4508425579
 21
-340.5178535577
 31
-0.8550503583
  0
LINE
  5
367
100
AcDbEntity
  8
L1_120
  6
CENTER
 62
         6
100
AcDbLine
 10
1560.9508425579
 20
-341.9273924889
 30
-1.3680805733
 11
1560.9508425579
 21
-344.5480116044
 31
-2.3219079267
  0
ARC
  5
368
100
AcDbEntity
  8
L1_120
  6
CENTER
 62
         6
100
AcDbCircle
 10
1559.4508425579
 20
-321.7745586802
 30
115.6604805667
 40
1.5
210
0.0
220
-0.3420201433256687
230
0.9396926207859084
100
AcDbArc
 50
0.0
 51
90.0
  0
LINE
  5
369
100
AcDbEntity
  8
L1_120
  6
CENTER
 62
         6
100
AcDbLine
 10
1559.4508425579
 20
-364.0101690774
 30
-9.4055539415
 11
1546.4508425579
 21
-364.0101690774
 31
-9.4055539415
  0
ARC
  5
36A
100
AcDbEntity
  8
L1_120
  6
CENTER
 62
         6
100
AcDbCircle
 10
1559.4508425579
 20
-343.7745586802
 30
115.6604805667
 40
1.5
210
0.0
220
-0.3420201433256687
230
0.9396926207859084
100
AcDbArc
 50
270.0
 51
360.0
  0
LINE
  5
36B
100
AcDbEntity
  8
L1_120
  6
CENTER
 62
         6
100
AcDbLine
 10
1560.9508425579
 20
-362.6006301462
 30
-8.8925237265
 11
1560.9508425579
 21
-359.9800110307
 31
-7.9386963731
  0
LINE
  5
36C
100
AcDbEntity
  8
L1_120
  6
CONTINUOUS
 62
         7
100
AcDbLine
 10
1466.3785646315
 20
-362.0333766739
 30
-8.6860603473
 11
1469.4508425579
 21
-357.032951368
 31
-6.8660543773
  0
LINE
  5
36D
100
AcDbEntity
  8
L1_120
  6
CONTINUOUS
 62
         7
100
AcDbLine
 10
1466.3785646315
 20
-342.4946459612
 30
-1.5745439525
 11
1469.4508425579
 21
-347.4950712671
 31
-3.3945499225
  0
LINE
  5
36E
100
AcDbEntity
  8
L1_120
  6
CONTINUOUS
 62
         7
100
AcDbLine
 10
1466.3785646315
 20
-342.4946459612
 30
-1.5745439525
 11
1466.3785646315
 21
-362.0333766739
 31
-8.6860603473
  0
LINE
  5
36F
100
AcDbEntity
  8
L1_120
  6
CONTINUOUS
 62
         7
100
AcDbLine
 10
1452.5528425579
 20
-384.1430834777
 30
-16.7333355122
 11
1451.5528425579
 21
-385.0827760985
 31
-17.0753556555
  0
LINE
  5
370
100
AcDbEntity
  8
L1_120
  6
CONTINUOUS
 62
         7
100
AcDbLine
 10
1451.5528425579
 20
-319.4452465366
 30
6.8147513558
 11
1452.5528425579
 21
-320.3849391574
 31
6.4727312124
  0
LINE
  5
371
100
AcDbEntity
  8
L1_120
  6
CONTINUOUS
 62
         7
100
AcDbLine
 10
1452.5528425579
 20
-374.4027802871
 30
-13.1881550781
 11
1452.5528425579
 21
-384.1430834777
 31
-16.7333355122
  0
LINE
  5
372
100
AcDbEntity
  8
L1_120
  6
CONTINUOUS
 62
         7
100
AcDbLine
 10
1452.5528425579
 20
-320.3849391574
 30
6.4727312124
 11
1452.5528425579
 21
-330.125242348
 31
2.9275507783
  0
LINE
  5
373
100
AcDbEntity
  8
L1_120
  6
CONTINUOUS
 62
         7
100
AcDbLine
 10
1457.1170638441
 20
-334.8058263813
 30
1.2239575112
 11
1509.0158945595
 21
-339.0725564853
 31
-0.3290052443
  0
LINE
  5
374
100
AcDbEntity
  8
L1_120
  6
CONTINUOUS
 62
         7
100
AcDbLine
 10
1457.1170638441
 20
-369.7221962538
 30
-11.484561811
 11
1509.0158945595
 21
-365.4554661498
 31
-9.9315990555
  0
ARC
  5
375
100
AcDbEntity
  8
L1_120
  6
CONTINUOUS
 62
         7
100
AcDbCircle
 10
1457.5528425579
 20
-309.2149728328
 30
115.6604805667
 40
5.0
210
0.0
220
-0.3420201433256687
230
0.9396926207859084
100
AcDbArc
 50
180.0
 51
265.0
  0
ARC
  5
376
100
AcDbEntity
  8
L1_120
  6
CONTINUOUS
 62
         7
100
AcDbCircle
 10
1457.5528425579
 20
-356.3341445275
 30
115.6604805667
 40
5.0
210
0.0
220
-0.3420201433256687
230
0.9396926207859084
100
AcDbArc
 50
95.0
 51
180.0
  0
ARC
  5
377
100
AcDbEntity
  8
L1_120
  6
CONTINUOUS
 62
         7
100
AcDbCircle
 10
1509.8874519869
 20
-308.7745586802
 30
115.6604805667
 40
10.0
210
0.0
220
-0.3420201433256687
230
0.9396926207859084
100
AcDbArc
 50
265.0
 51
270.0
  0
ARC
  5
378
100
AcDbEntity
  8
L1_120
  6
CONTINUOUS
 62
         7
100
AcDbCircle
 10
1509.8874519869
 20
-356.7745586802
 30
115.6604805667
 40
10.0
210
0.0
220
-0.3420201433256687
230
0.9396926207859084
100
AcDbArc
 50
90.0
 51
95.0
  0
INSERT
  5
405
100
AcDbEntity
  8
0
  6
CONTINUOUS
100
AcDbBlockReference
  2
*X9
 10
0.0
 20
0.0
 30
0.0
  0
DIMENSION
  5
408
100
AcDbEntity
  8
L1_120
  6
CONTINUOUS
 62
         4
100
AcDbDimension
  2
*D10
 10
1315.9008425579
 20
-116.4836393987
 30
-42.3965775201
 11
1431.1205663245
 21
-121.3342999052
 31
0.0
210
0.0
220
-0.3420201433256687
230
0.9396926207859084
  3
DIMSTYLE1
100
AcDbAlignedDimension
 13
1315.9008425579
 23
-181.4951813919
 33
-66.0588436894
 14
1559.3008425579
 24
-181.4951813919
 34
-66.0588436894
100
AcDbRotatedDimension
  0
DIMENSION
  5
416
100
AcDbEntity
  8
L1_120
  6
CONTINUOUS
 62
         4
100
AcDbDimension
  2
*D11
 10
1417.5008425579
 20
-132.1405427339
 30
-48.0952242949
 11
1487.1050111471
 21
-137.9960284204
 31
0.0
210
0.0
220
-0.3420201433256687
230
0.9396926207859084
  3
DIMSTYLE1
100
AcDbAlignedDimension
 13
1417.5008425579
 23
-161.0299313187
 33
-58.610101826
 14
1559.3008425579
 24
-189.432140782
 34
-68.947660658
100
AcDbRotatedDimension
  0
DIMENSION
  5
424
100
AcDbEntity
  8
L1_120
  6
CONTINUOUS
 62
         4
100
AcDbDimension
  2
*D12
 10
1668.4643846581
 20
-306.6107090954
 30
-111.597171618
 11
1665.8393846581
 21
-336.6582757401
 31
0.0
210
0.0
220
-0.3420201433256687
230
0.9396926207859084
  3
DIMSTYLE1
100
AcDbAlignedDimension
 13
1651.8047910368
 23
-306.6107090954
 33
-111.597171618
 14
1651.8047910368
 24
-317.0506941124
 34
-115.3970154103
 50
90.0
100
AcDbRotatedDimension
  0
DIMENSION
  5
433
100
AcDbEntity
  8
L1_120
  6
CONTINUOUS
 62
         4
100
AcDbDimension
  2
*D13
 10
1642.2797910368
 20
-300.158585022
 30
-109.2487905075
 11
1645.2540864121
 21
-316.7970943982
 31
0.0
210
0.0
220
-0.3420201433256687
230
0.9396926207859084
  3
DIMSTYLE1
100
AcDbAlignedDimension
 13
1642.2797910368
 23
-308.4666020215
 33
-112.2726614011
 14
1655.2797910368
 24
-308.4666020215
 34
-112.2726614011
100
AcDbRotatedDimension
  0
LINE
  5
43F
100
AcDbEntity
  8
L1_120
  6
CENTER
 62
         1
100
AcDbLine
 10
1632.6249080606
 20
-311.8307016039
 30
-113.4970935142
 11
1616.9402746697
 21
-311.8307016039
 31
-113.4970935142
  0
LINE
  5
440
100
AcDbEntity
  8
L1_120
  6
CENTER
 62
         1
100
AcDbLine
 10
1624.8838053599
 20
-319.6063576336
 30
-116.3272008609
 11
1624.8838053599
 21
-304.0860238324
 31
-110.6782613314
  0
LINE
  5
441
100
AcDbEntity
  8
L1_120
  6
CENTER
 62
         1
100
AcDbLine
 10
1640.9778342015
 20
-311.8307016039
 30
-113.4970935142
 11
1656.477362949
 21
-311.8307016039
 31
-113.4970935142
  0
LINE
  5
442
100
AcDbEntity
  8
L1_120
  6
CONTINUOUS
 62
         7
100
AcDbLine
 10
1642.2797910368
 20
-315.1948011863
 30
-114.7215256273
 11
1642.2797910368
 21
-308.4666020215
 31
-112.2726614011
  0
LINE
  5
443
100
AcDbEntity
  8
L1_120
  6
CONTINUOUS
 62
         7
100
AcDbLine
 10
1644.2797910368
 20
-315.6646474967
 30
-114.8925356989
 11
1644.2797910368
 21
-307.9967557111
 31
-112.1016513294
  0
LINE
  5
444
100
AcDbEntity
  8
L1_120
  6
CONTINUOUS
 62
         7
100
AcDbLine
 10
1655.2797910368
 20
-315.1948011863
 30
-114.7215256273
 11
1655.2797910368
 21
-308.4666020215
 31
-112.2726614011
  0
LINE
  5
445
100
AcDbEntity
  8
L1_120
  6
CONTINUOUS
 62
         7
100
AcDbLine
 10
1653.2797910368
 20
-315.6646474967
 30
-114.8925356989
 11
1653.2797910368
 21
-307.9967557111
 31
-112.1016513294
  0
LINE
  5
446
100
AcDbEntity
  8
L1_120
  6
CONTINUOUS
 62
         7
100
AcDbLine
 10
1642.7797910368
 20
-307.9967557111
 30
-112.1016513294
 11
1644.2797910368
 21
-307.9967557111
 31
-112.1016513294
  0
LINE
  5
447
100
AcDbEntity
  8
L1_120
  6
CONTINUOUS
 62
         7
100
AcDbLine
 10
1645.7547910368
 20
-306.6107090954
 30
-111.597171618
 11
1651.8047910368
 21
-306.6107090954
 31
-111.597171618
  0
LINE
  5
448
100
AcDbEntity
  8
L1_120
  6
CONTINUOUS
 62
         7
100
AcDbLine
 10
1653.2797910368
 20
-307.9967557111
 30
-112.1016513294
 11
1654.7797910368
 21
-307.9967557111
 31
-112.1016513294
  0
LINE
  5
449
100
AcDbEntity
  8
L1_120
  6
CONTINUOUS
 62
         7
100
AcDbLine
 10
1651.8047910368
 20
-306.6107090954
 30
-111.597171618
 11
1653.2797910368
 21
-307.9967557111
 31
-112.1016513294
  0
LINE
  5
44A
100
AcDbEntity
  8
L1_120
  6
CONTINUOUS
 62
         7
100
AcDbLine
 10
1645.7547910368
 20
-306.6107090954
 30
-111.597171618
 11
1644.2797910368
 21
-307.9967557111
 31
-112.1016513294
  0
LINE
  5
44B
100
AcDbEntity
  8
L1_120
  6
CONTINUOUS
 62
         7
100
AcDbLine
 10
1654.7797910368
 20
-307.9967557111
 30
-112.1016513294
 11
1655.2797910368
 21
-308.4666020215
 31
-112.2726614011
  0
LINE
  5
44C
100
AcDbEntity
  8
L1_120
  6
CONTINUOUS
 62
         7
100
AcDbLine
 10
1642.7797910368
 20
-307.9967557111
 30
-112.1016513294
 11
1642.2797910368
 21
-308.4666020215
 31
-112.2726614011
  0
LINE
  5
44D
100
AcDbEntity
  8
L1_120
  6
CONTINUOUS
 62
         7
100
AcDbLine
 10
1642.7797910368
 20
-315.6646474967
 30
-114.8925356989
 11
1642.7797910368
 21
-307.9967557111
 31
-112.1016513294
  0
LINE
  5
44E
100
AcDbEntity
  8
L1_120
  6
CONTINUOUS
 62
         7
100
AcDbLine
 10
1654.7797910368
 20
-315.6646474967
 30
-114.8925356989
 11
1654.7797910368
 21
-307.9967557111
 31
-112.1016513294
  0
LINE
  5
44F
100
AcDbEntity
  8
L1_120
  6
CONTINUOUS
 62
         7
100
AcDbLine
 10
1645.7547910368
 20
-317.0506941124
 30
-115.3970154103
 11
1651.8047910368
 21
-317.0506941124
 31
-115.3970154103
  0
LINE
  5
450
100
AcDbEntity
  8
L1_120
  6
CONTINUOUS
 62
         7
100
AcDbLine
 10
1645.7547910368
 20
-317.0506941124
 30
-115.3970154103
 11
1644.2797910368
 21
-315.6646474967
 31
-114.8925356989
  0
LINE
  5
451
100
AcDbEntity
  8
L1_120
  6
CONTINUOUS
 62
         7
100
AcDbLine
 10
1651.8047910368
 20
-317.0506941124
 30
-115.3970154103
 11
1653.2797910368
 21
-315.6646474967
 31
-114.8925356989
  0
LINE
  5
452
100
AcDbEntity
  8
L1_120
  6
CONTINUOUS
 62
         7
100
AcDbLine
 10
1653.2797910368
 20
-315.6646474967
 30
-114.8925356989
 11
1654.7797910368
 21
-315.6646474967
 31
-114.8925356989
  0
LINE
  5
453
100
AcDbEntity
  8
L1_120
  6
CONTINUOUS
 62
         7
100
AcDbLine
 10
1654.7797910368
 20
-315.6646474967
 30
-114.8925356989
 11
1655.2797910368
 21
-315.1948011863
 31
-114.7215256273
  0
LINE
  5
454
100
AcDbEntity
  8
L1_120
  6
CONTINUOUS
 62
         7
100
AcDbLine
 10
1642.7797910368
 20
-315.6646474967
 30
-114.8925356989
 11
1644.2797910368
 21
-315.6646474967
 31
-114.8925356989
  0
LINE
  5
455
100
AcDbEntity
  8
L1_120
  6
CONTINUOUS
 62
         7
100
AcDbLine
 10
1642.7797910368
 20
-315.6646474967
 30
-114.8925356989
 11
1642.2797910368
 21
-315.1948011863
 31
-114.7215256273
  0
CIRCLE
  5
456
100
AcDbEntity
  8
L1_120
  6
CONTINUOUS
 62
         7
100
AcDbCircle
 10
1624.8838053599
 20
-331.8433014224
 30
0.0
 40
4.08
210
0.0
220
-0.3420201433256687
230
0.9396926207859084
  0
CIRCLE
  5
457
100
AcDbEntity
  8
L1_120
  6
CONTINUOUS
 62
         7
100
AcDbCircle
 10
1624.8838053599
 20
-331.8433014224
 30
0.0
 40
5.555
210
0.0
220
-0.3420201433256687
230
0.9396926207859084
  0
LINE
  5
458
100
AcDbEntity
  8
L1_120
  6
CONTINUOUS
 62
         4
100
AcDbLine
 10
1644.9647910368
 20
-307.3530662658
 30
-111.8673675312
 11
1652.5947910368
 21
-307.3530662658
 31
-111.8673675312
  0
LINE
  5
459
100
AcDbEntity
  8
L1_120
  6
CONTINUOUS
 62
         4
100
AcDbLine
 10
1644.9647910368
 20
-316.3083369419
 30
-115.1268194971
 11
1652.5947910368
 21
-316.3083369419
 31
-115.1268194971
  0
CIRCLE
  5
45A
100
AcDbEntity
  8
L1_120
  6
CONTINUOUS
 62
         7
100
AcDbCircle
 10
1624.8838053599
 20
-331.8433014224
 30
0.0
 40
1.5
210
0.0
220
-0.3420201433256687
230
0.9396926207859084
  0
LINE
  5
45B
100
AcDbEntity
  8
L1_120
  6
DASHED
 62
         2
100
AcDbLine
 10
1655.2797910368
 20
-310.4211626727
 30
-112.9840632992
 11
1642.2797910368
 21
-310.4211626727
 31
-112.9840632992
  0
LINE
  5
45C
100
AcDbEntity
  8
L1_120
  6
DASHED
 62
         2
100
AcDbLine
 10
1655.2797910368
 20
-313.2402405351
 30
-114.0101237292
 11
1642.2797910368
 21
-313.2402405351
 31
-114.0101237292
  0
LINE
  5
45D
100
AcDbEntity
  8
L1_120
  6
CONTINUOUS
 62
         7
100
AcDbLine
 10
1625.8838053599
 20
-315.5477056243
 30
-114.8499723382
 11
1625.8838053599
 21
-312.8813098929
 31
-113.8794836592
  0
LINE
  5
45E
100
AcDbEntity
  8
L1_120
  6
CONTINUOUS
 62
         7
100
AcDbLine
 10
1623.8838053599
 20
-315.5477056243
 30
-114.8499723382
 11
1623.8838053599
 21
-312.8813098929
 31
-113.8794836592
  0
LINE
  5
45F
100
AcDbEntity
  8
L1_120
  6
CONTINUOUS
 62
         7
100
AcDbLine
 10
1623.8838053599
 20
-310.7800933149
 30
-113.1147033691
 11
1623.8838053599
 21
-308.1136975835
 31
-112.1442146901
  0
LINE
  5
460
100
AcDbEntity
  8
L1_120
  6
CONTINUOUS
 62
         7
100
AcDbLine
 10
1625.8838053599
 20
-310.7800933149
 30
-113.1147033691
 11
1625.8838053599
 21
-308.1136975835
 31
-112.1442146901
  0
DIMENSION
  5
463
100
AcDbEntity
  8
L1_120
  6
CONTINUOUS
 62
         4
100
AcDbDimension
  2
*D14
 10
1623.8838053599
 20
-301.0063984027
 30
-109.5573693423
 11
1622.6440342281
 21
-317.6993185532
 31
0.0
210
0.0
220
-0.3420201433256687
230
0.9396926207859084
  3
DIMSTYLE1
100
AcDbAlignedDimension
 13
1623.8838053599
 23
-308.1136975835
 33
-112.1442146901
 14
1625.8838053599
 24
-308.1136975835
 34
-112.1442146901
100
AcDbRotatedDimension
  0
DIMENSION
  5
473
100
AcDbEntity
  8
L1_120
  6
CONTINUOUS
 62
         4
100
AcDbDimension
  2
*D15
 10
1639.0543895947
 20
-310.4211626727
 30
-112.9840632992
 11
1636.4293895947
 21
-337.4393533426
 31
0.0
210
0.0
220
-0.3420201433256687
230
0.9396926207859084
  3
DIMSTYLE1
100
AcDbAlignedDimension
 13
1642.2797910368
 23
-310.4211626727
 33
-112.9840632992
 14
1642.2797910368
 24
-313.2402405351
 34
-114.0101237292
 50
90.0
100
AcDbRotatedDimension
  0
ENDSEC
  0
SECTION
  2
OBJECTS
  0
DICTIONARY
  5
19
100
AcDbDictionary
  3
ACAD_GROUP
350
1A
  3
ACAD_MLINESTYLE
350
1B
  0
DICTIONARY
  5
1A
102
{ACAD_REACTORS
330
19
102
}
100
AcDbDictionary
  0
DICTIONARY
  5
1B
102
{ACAD_REACTORS
330
19
102
}
100
AcDbDictionary
  3
STANDARD
350
1C
  0
MLINESTYLE
  5
1C
102
{ACAD_REACTORS
330
1B
102
}
100
AcDbMlineStyle
  2
STANDARD
 70
         0
  3

 62
         0
 51
90.0
 52
90.0
 71
         2
 49
0.5
 62
       256
  6
BYLAYER
 49
-0.5
 62
       256
  6
BYLAYER
  0
ENDSEC
  0
EOF
