  0
SECTION
  2
HEADER
  9
$ACADVER
  1
AC1014
  9
$ACADMAINTVER
 70
         0
  9
$DWGCODEPAGE
  3
BIG5
  9
$INSBASE
 10
0.0
 20
0.0
 30
0.0
  9
$EXTMIN
 10
1100.0724708152
 20
-420.4883287926
 30
0.0
  9
$EXTMAX
 10
1912.6918153194
 20
-23.7941303473
 30
0.0
  9
$LIMMIN
 10
0.0
 20
0.0
  9
$LIMMAX
 10
0.0
 20
0.0
  9
$ORTHOMODE
 70
         0
  9
$REGENMODE
 70
         1
  9
$FILLMODE
 70
         1
  9
$QTEXTMODE
 70
         0
  9
$MIRRTEXT
 70
         1
  9
$DRAGMODE
 70
         2
  9
$LTSCALE
 40
1.0
  9
$OSMODE
 70
         0
  9
$ATTMODE
 70
         1
  9
$TEXTSIZE
 40
1.7
  9
$TRACEWID
 40
0.05
  9
$TEXTSTYLE
  7
STANDARD
  9
$CLAYER
  8
0
  9
$CELTYPE
  6
CONTINUOUS
  9
$CECOLOR
 62
        16
  9
$CELTSCALE
 40
1.0
  9
$DELOBJ
 70
         1
  9
$DISPSILH
 70
         0
  9
$DIMSCALE
 40
1.0
  9
$DIMASZ
 40
0.18
  9
$DIMEXO
 40
0.0625
  9
$DIMDLI
 40
0.38
  9
$DIMRND
 40
0.0
  9
$DIMDLE
 40
0.0
  9
$DIMEXE
 40
0.25
  9
$DIMTP
 40
0.01
  9
$DIMTM
 40
-0.01
  9
$DIMTXT
 40
2.7
  9
$DIMCEN
 40
0.09
  9
$DIMTSZ
 40
0.0
  9
$DIMTOL
 70
         0
  9
$DIMLIM
 70
         0
  9
$DIMTIH
 70
         1
  9
$DIMTOH
 70
         1
  9
$DIMSE1
 70
         0
  9
$DIMSE2
 70
         0
  9
$DIMTAD
 70
         0
  9
$DIMZIN
 70
         0
  9
$DIMBLK
  1

  9
$DIMASO
 70
         1
  9
$DIMSHO
 70
         1
  9
$DIMPOST
  1

  9
$DIMAPOST
  1

  9
$DIMALT
 70
         0
  9
$DIMALTD
 70
         2
  9
$DIMALTF
 40
25.4
  9
$DIMLFAC
 40
1.0
  9
$DIMTOFL
 70
         0
  9
$DIMTVP
 40
0.0
  9
$DIMTIX
 70
         0
  9
$DIMSOXD
 70
         0
  9
$DIMSAH
 70
         0
  9
$DIMBLK1
  1

  9
$DIMBLK2
  1

  9
$DIMSTYLE
  2
STANDARD
  9
$DIMCLRD
 70
         0
  9
$DIMCLRE
 70
         0
  9
$DIMCLRT
 70
        16
  9
$DIMTFAC
 40
1.0
  9
$DIMGAP
 40
0.09
  9
$DIMJUST
 70
         0
  9
$DIMSD1
 70
         0
  9
$DIMSD2
 70
         0
  9
$DIMTOLJ
 70
         1
  9
$DIMTZIN
 70
         0
  9
$DIMALTZ
 70
         0
  9
$DIMALTTZ
 70
         0
  9
$DIMFIT
 70
         3
  9
$DIMUPT
 70
         0
  9
$DIMUNIT
 70
         2
  9
$DIMDEC
 70
         4
  9
$DIMTDEC
 70
         4
  9
$DIMALTU
 70
         2
  9
$DIMALTTD
 70
         2
  9
$DIMTXSTY
  7
STANDARD
  9
$DIMAUNIT
 70
         0
  9
$LUNITS
 70
         2
  9
$LUPREC
 70
        10
  9
$SKETCHINC
 40
0.1
  9
$FILLETRAD
 40
0.0
  9
$AUNITS
 70
         0
  9
$AUPREC
 70
         0
  9
$MENU
  1
acad
  9
$ELEVATION
 40
0.0
  9
$PELEVATION
 40
0.0
  9
$THICKNESS
 40
0.0
  9
$LIMCHECK
 70
         0
  9
$BLIPMODE
 70
         1
  9
$CHAMFERA
 40
0.0
  9
$CHAMFERB
 40
0.0
  9
$CHAMFERC
 40
0.0
  9
$CHAMFERD
 40
0.0
  9
$SKPOLY
 70
         0
  9
$TDCREATE
 40
0.000000000
  9
$TDUPDATE
 40
0.000000000
  9
$TDINDWG
 40
0.0000000000
  9
$TDUSRTIMER
 40
0.0000000000
  9
$USRTIMER
 70
         1
  9
$ANGBASE
 50
0.0
  9
$ANGDIR
 70
         0
  9
$PDMODE
 70
         2
  9
$PDSIZE
 40
0.0
  9
$PLINEWID
 40
0.0
  9
$COORDS
 70
         0
  9
$SPLFRAME
 70
         0
  9
$SPLINETYPE
 70
         6
  9
$SPLINESEGS
 70
         8
  9
$ATTDIA
 70
         0
  9
$ATTREQ
 70
         1
  9
$HANDLING
 70
         1
  9
$HANDSEED
  5
502
  9
$SURFTAB1
 70
         6
  9
$SURFTAB2
 70
         6
  9
$SURFTYPE
 70
         6
  9
$SURFU
 70
         6
  9
$SURFV
 70
         6
  9
$UCSNAME
  2

  9
$UCSORG
 10
0.0
 20
0.0
 30
0.0
  9
$UCSXDIR
 10
1.0
 20
0.0
 30
0.0
  9
$UCSYDIR
 10
0.0
 20
1.0
 30
0.0
  9
$PUCSNAME
  2

  9
$PUCSORG
 10
0.0
 20
0.0
 30
0.0
  9
$PUCSXDIR
 10
1.0
 20
0.0
 30
0.0
  9
$PUCSYDIR
 10
0.0
 20
1.0
 30
0.0
  9
$USERI1
 70
         0
  9
$USERI2
 70
         0
  9
$USERI3
 70
         0
  9
$USERI4
 70
         0
  9
$USERI5
 70
         0
  9
$USERR1
 40
0.0
  9
$USERR2
 40
0.0
  9
$USERR3
 40
0.0
  9
$USERR4
 40
0.0
  9
$USERR5
 40
0.0
  9
$WORLDVIEW
 70
         1
  9
$SHADEDGE
 70
         3
  9
$SHADEDIF
 70
        70
  9
$TILEMODE
 70
         1
  9
$MAXACTVP
 70
        16
  9
$PINSBASE
 10
0.0
 20
0.0
 30
0.0
  9
$PLIMCHECK
 70
         0
  9
$PEXTMIN
 10
1.0000000000E+20
 20
1.0000000000E+20
 30
1.0000000000E+20
  9
$PEXTMAX
 10
-1.0000000000E+20
 20
-1.0000000000E+20
 30
-1.0000000000E+20
  9
$PLIMMIN
 10
0.0
 20
0.0
  9
$PLIMMAX
 10
12.0
 20
9.0
  9
$UNITMODE
 70
         0
  9
$VISRETAIN
 70
         0
  9
$PLINEGEN
 70
         1
  9
$PSLTSCALE
 70
         0
  9
$TREEDEPTH
 70
      3020
  9
$PICKSTYLE
 70
         1
  9
$CMLSTYLE
  2
STANDARD
  9
$CMLJUST
 70
         0
  9
$CMLSCALE
 40
1.0
  9
$PROXYGRAPHICS
 70
         0
  9
$MEASUREMENT
 70
         0
  0
ENDSEC
  0
SECTION
  2
CLASSES
  0
CLASS
  1
LWPOLYLINE
  2
AcDbPolyline
  3
"AutoCAD"
 90
        0
280
         0
281
         1
  0
CLASS
  1
IMAGE
  2
AcDbRasterImage
  3
ISM
 90
      127
280
         0
281
         1
  0
CLASS
  1
OLE2FRAME
  2
AcDbOle2Frame
  3
""
 90
        0
280
         0
281
         1
  0
CLASS
  1
HATCH
  2
AcDbHatch
  3
"ACAD_SEDONA"
 90
        0
280
         0
281
         1
  0
CLASS
  1
DICTIONARYVAR
  2
AcDbDictionaryVar
  3
"AutoCAD"
 90
        0
280
         0
281
         0
  0
CLASS
  1
RASTERVARIABLES
  2
AcDbRasterVariables
  3
ISM
 90
        0
280
         0
281
         0
  0
CLASS
  1
IMAGEDEF
  2
AcDbRasterImageDef
  3
ISM
 90
        0
280
         0
281
         0
  0
CLASS
  1
IMAGEDEF_REACTOR
  2
AcDbRasterImageDefReactor
  3
ISM
 90
        1
280
         0
281
         0
  0
CLASS
  1
IDBUFFER
  2
AcDbIdBuffer
  3
"Acad"
 90
        0
280
         0
281
         0
  0
CLASS
  1
SPATIAL_FILTER
  2
AcDbSpatialFilter
  3
"Acad"
 90
        0
280
         0
281
         0
  0
CLASS
  1
XRECORD
  2
AcDbXrecord
  3
"<Built In>"
 90
        0
280
         0
281
         0
  0
CLASS
  1
SORTENTSTABLE
  2
AcDbSortentsTable
  3
"AutoCAD"
 90
        0
280
         0
281
         0
  0
CLASS
  1
LAYER_INDEX
  2
AcDbLayerIndex
  3
"Acad"
 90
        0
280
         0
281
         0
  0
CLASS
  1
SPATIAL_INDEX
  2
AcDbSpatialIndex
  3
"Acad"
 90
        0
280
         0
281
         0
  0
CLASS
  1
OBJECT_PTR
  2
CAseDLPNTableRecord
  3
"ASE-LPNTableRecord"
 90
        1
280
         0
281
         0
  0
CLASS
  1
LAYOUT
  2
AcDbLayout
  3
"AutoCAD 2000"
 90
        1
280
         0
281
         0
  0
CLASS
  1
PLOTSETTINGS
  2
AcDbPlotSettings
  3
"AutoCAD 2000"
 90
        1
280
         0
281
         0
  0
CLASS
  1
ACDBDICTIONARYWDFLT
  2
AcDbDictionaryWithDefault
  3
"AutoCAD 2000"
 90
        1
280
         0
281
         0
  0
CLASS
  1
ACDBPLACEHOLDER
  2
AcDbPlaceHolder
  3
"AutoCAD 2000"
 90
        1
280
         0
281
         0
  0
CLASS
  1
VBA_PROJECT
  2
AcDbVbaProject
  3
"acadvba"
 90
        1
280
         0
281
         0
  0
CLASS
  1
WIPEOUT
  2
AcDbWipeout
  3
WipeOut|AutoCAD Express Tool|expresstools@autodesk.com
 90
      127
280
         0
281
         1
  0
CLASS
  1
WIPEOUTVARIABLES
  2
AcDbWipeoutVariables
  3
WipeOut|AutoCAD Express Tool|expresstools@autodesk.com
 90
        0
280
         0
281
         0
  0
CLASS
  1
RTEXT
  2
RText
  3
RText|AutoCAD Express Tool|expresstools@autodesk.com
 90
        0
280
         0
281
         1
  0
CLASS
  1
ARCALIGNEDTEXT
  2
AcDbArcAlignedText
  3
ATEXT|AutoCAD Express Tool|expresstools@autodesk.com
 90
        0
280
         0
281
         1
  0
ENDSEC
  0
SECTION
  2
TABLES
  0
TABLE
  2
VPORT
  5
7
100
AcDbSymbolTable
 70
         1
  0
VPORT
  5
15
100
AcDbSymbolTableRecord
100
AcDbViewportTableRecord
  2
*ACTIVE
 70
         0
 10
0.0
 20
0.0
 11
1.0
 21
1.0
 12
1506.3821430673
 22
-222.14122957
 13
0.0
 23
0.0
 14
1.0
 24
1.0
 15
0.0
 25
0.0
 16
0.0
 26
0.0
 36
1.0
 17
0.0
 27
0.0
 37
0.0
 40
396.6941984453
 41
2.0484780158
 42
50.0
 43
0.0
 44
0.0
 50
0.0
 51
0.0
 71
         0
 72
       100
 73
         1
 74
         1
 75
         0
 76
         0
 77
         0
 78
         0
  0
ENDTAB
  0
TABLE
  2
LTYPE
  5
4
100
AcDbSymbolTable
 70
         6
  0
LTYPE
  5
11
100
AcDbSymbolTableRecord
100
AcDbLinetypeTableRecord
  2
BYBLOCK
 70
        64
  3

 72
        65
 73
         0
 40
0.0
  0
LTYPE
  5
12
100
AcDbSymbolTableRecord
100
AcDbLinetypeTableRecord
  2
BYLAYER
 70
        64
  3

 72
        65
 73
         0
 40
0.0
  0
LTYPE
  5
13
100
AcDbSymbolTableRecord
100
AcDbLinetypeTableRecord
  2
CONTINUOUS
 70
        64
  3
Solid line
 72
        65
 73
         0
 40
0.0
  0
LTYPE
  5
1D
100
AcDbSymbolTableRecord
100
AcDbLinetypeTableRecord
  2
DASHED
 70
        64
  3
_ _ _ _ _ _ _ _ _ _ _ _ _ _ _ _
 72
        65
 73
         2
 40
0.2
 49
0.1
 74
         0
 49
-0.1
 74
         0
  0
LTYPE
  5
1E
100
AcDbSymbolTableRecord
100
AcDbLinetypeTableRecord
  2
CENTER
 70
        64
  3
___ _ ___ _ ___ _ ___ _ ___ _ ___ _ ___ _ ___ _
 72
        65
 73
         4
 40
0.95
 49
0.625
 74
         0
 49
-0.125
 74
         0
 49
0.075
 74
         0
 49
-0.125
 74
         0
  0
LTYPE
  5
1F
100
AcDbSymbolTableRecord
100
AcDbLinetypeTableRecord
  2
PHANTOM
 70
        64
  3
______  __  __  ______  __  __  ______  __  __  
 72
        65
 73
         6
 40
1.025
 49
0.625
 74
         0
 49
-0.125
 74
         0
 49
0.075
 74
         0
 49
-0.125
 74
         0
 49
0.075
 74
         0
 49
-0.125
 74
         0
  0
ENDTAB
  0
TABLE
  2
LAYER
  5
2
100
AcDbSymbolTable
 70
         6
  0
LAYER
  5
14
100
AcDbSymbolTableRecord
100
AcDbLayerTableRecord
  2
0
 70
         0
 62
         7
  6
CONTINUOUS
  0
LAYER
  5
21
100
AcDbSymbolTableRecord
100
AcDbLayerTableRecord
  2
_____U
 70
         1
 62
         7
  6
CONTINUOUS
  0
LAYER
  5
22
100
AcDbSymbolTableRecord
100
AcDbLayerTableRecord
  2
_____T______
 70
         1
 62
         7
  6
CONTINUOUS
  0
LAYER
  5
23
100
AcDbSymbolTableRecord
100
AcDbLayerTableRecord
  2
______L_______
 70
         1
 62
         7
  6
CONTINUOUS
  0
LAYER
  5
24
100
AcDbSymbolTableRecord
100
AcDbLayerTableRecord
  2
L1_120
 70
         0
 62
         7
  6
CONTINUOUS
  0
LAYER
  5
25A
100
AcDbSymbolTableRecord
100
AcDbLayerTableRecord
  2
DEFPOINTS
 70
         0
 62
        -7
  6
CONTINUOUS
  0
ENDTAB
  0
TABLE
  2
STYLE
  5
3
100
AcDbSymbolTable
 70
         7
  0
STYLE
  5
17
100
AcDbSymbolTableRecord
100
AcDbTextStyleTableRecord
  2
STANDARD
 70
         0
 40
0.0
 41
1.0
 50
0.0
 71
         0
 42
0.0
  3
txt
  4

  0
STYLE
  5
263
100
AcDbSymbolTableRecord
100
AcDbTextStyleTableRecord
  2
BOX
 70
         0
 40
1.0
 41
1.0
 50
0.0
 71
         0
 42
0.2
  3
txt.shx
  4

  0
STYLE
  5
271
100
AcDbSymbolTableRecord
100
AcDbTextStyleTableRecord
  2
BOX
 70
         0
 40
1.0
 41
1.0
 50
0.0
 71
         0
 42
0.2
  3
txt.shx
  4

  0
STYLE
  5
27F
100
AcDbSymbolTableRecord
100
AcDbTextStyleTableRecord
  2
BOX
 70
         0
 40
1.0
 41
1.0
 50
0.0
 71
         0
 42
0.2
  3
txt.shx
  4

  0
STYLE
  5
28D
100
AcDbSymbolTableRecord
100
AcDbTextStyleTableRecord
  2
BOX
 70
         0
 40
1.0
 41
1.0
 50
0.0
 71
         0
 42
0.2
  3
txt.shx
  4

  0
STYLE
  5
290
100
AcDbSymbolTableRecord
100
AcDbTextStyleTableRecord
  2
BOX
 70
         0
 40
1.0
 41
1.0
 50
0.0
 71
         0
 42
0.2
  3
txt.shx
  4

  0
STYLE
  5
30E
100
AcDbSymbolTableRecord
100
AcDbTextStyleTableRecord
  2
BOX
 70
         0
 40
1.0
 41
1.0
 50
0.0
 71
         0
 42
0.2
  3
txt.shx
  4

  0
ENDTAB
  0
TABLE
  2
VIEW
  5
5
100
AcDbSymbolTable
 70
         0
  0
ENDTAB
  0
TABLE
  2
UCS
  5
6
100
AcDbSymbolTable
 70
         1
  0
UCS
  5
20
100
AcDbSymbolTableRecord
100
AcDbUCSTableRecord
  2
CK_VIEW_1
 70
         0
 10
0.0
 20
0.0
 30
1.0
 11
1.0
 21
0.0
 31
0.0
 12
0.0
 22
1.0
 32
0.0
  0
ENDTAB
  0
TABLE
  2
APPID
  5
8
100
AcDbSymbolTable
 70
         1
  0
APPID
  5
16
100
AcDbSymbolTableRecord
100
AcDbRegAppTableRecord
  2
ACAD
 70
         0
  0
ENDTAB
  0
TABLE
  2
DIMSTYLE
  5
9
100
AcDbSymbolTable
 70
         2
  0
DIMSTYLE
105
18
100
AcDbSymbolTableRecord
100
AcDbDimStyleTableRecord
  2
STANDARD
 70
         0
  3

  4

  5

  6

  7

 40
1.0
 41
0.18
 42
0.0625
 43
0.38
 44
0.18
 45
0.0
 46
0.0
 47
0.0
 48
0.0
 71
         0
 72
         0
 73
         1
 74
         1
 75
         0
 76
         0
 77
         0
 78
         0
140
0.18
141
0.09
142
0.0
143
25.4
144
1.0
145
0.0
146
1.0
147
0.09
170
         0
171
         2
172
         0
173
         0
174
         0
175
         0
176
         0
177
         0
178
         0
270
         2
271
         4
272
         4
273
         2
274
         2
275
         0
280
         0
281
         0
282
         0
283
         1
284
         0
285
         0
286
         0
287
         0
288
         0
340
17
  0
DIMSTYLE
105
256
100
AcDbSymbolTableRecord
100
AcDbDimStyleTableRecord
  2
DIMSTYLE1
 70
         0
  3

  4

  5

  6

  7

 40
1.0
 41
3.5
 42
0.0625
 43
0.38
 44
3.5
 45
0.0
 46
0.0
 47
0.0
 48
0.0
 71
         0
 72
         0
 73
         1
 74
         1
 75
         0
 76
         0
 77
         0
 78
         0
140
3.5
141
0.09
142
0.0
143
25.4
144
1.0
145
0.0
146
1.0
147
0.09
170
         0
171
         2
172
         0
173
         0
174
         0
175
         0
176
         0
177
         0
178
         0
270
         2
271
         4
272
         4
273
         2
274
         2
275
         0
280
         0
281
         0
282
         0
283
         1
284
         0
285
         0
286
         0
287
         0
288
         0
340
17
  0
ENDTAB
  0
TABLE
  2
BLOCK_RECORD
  5
1
100
AcDbSymbolTable
 70
        10
  0
BLOCK_RECORD
  5
A
100
AcDbSymbolTableRecord
100
AcDbBlockTableRecord
  2
*MODEL_SPACE
  0
BLOCK_RECORD
  5
B
100
AcDbSymbolTableRecord
100
AcDbBlockTableRecord
  2
*PAPER_SPACE
  0
BLOCK_RECORD
  5
1F7
100
AcDbSymbolTableRecord
100
AcDbBlockTableRecord
  2
*X0
  0
BLOCK_RECORD
  5
203
100
AcDbSymbolTableRecord
100
AcDbBlockTableRecord
  2
*X1
  0
BLOCK_RECORD
  5
20A
100
AcDbSymbolTableRecord
100
AcDbBlockTableRecord
  2
*X2
  0
BLOCK_RECORD
  5
212
100
AcDbSymbolTableRecord
100
AcDbBlockTableRecord
  2
*X3
  0
BLOCK_RECORD
  5
257
100
AcDbSymbolTableRecord
100
AcDbBlockTableRecord
  2
*D4
  0
BLOCK_RECORD
  5
266
100
AcDbSymbolTableRecord
100
AcDbBlockTableRecord
  2
*D5
  0
BLOCK_RECORD
  5
274
100
AcDbSymbolTableRecord
100
AcDbBlockTableRecord
  2
*D6
  0
BLOCK_RECORD
  5
282
100
AcDbSymbolTableRecord
100
AcDbBlockTableRecord
  2
*D7
  0
BLOCK_RECORD
  5
303
100
AcDbSymbolTableRecord
100
AcDbBlockTableRecord
  2
*D8
  0
BLOCK_RECORD
  5
317
100
AcDbSymbolTableRecord
100
AcDbBlockTableRecord
  2
*X9
  0
ENDTAB
  0
ENDSEC
  0
SECTION
  2
BLOCKS
  0
BLOCK
  5
D
100
AcDbEntity
  8
0
100
AcDbBlockBegin
  2
*MODEL_SPACE
 70
         0
 10
0.0
 20
0.0
 30
0.0
  3
*MODEL_SPACE
  1

  0
ENDBLK
  5
E
100
AcDbEntity
  8
0
100
AcDbBlockEnd
  0
BLOCK
  5
F
100
AcDbEntity
 67
         1
  8
0
100
AcDbBlockBegin
  2
*PAPER_SPACE
 70
         0
 10
0.0
 20
0.0
 30
0.0
  3
*PAPER_SPACE
  1

  0
ENDBLK
  5
10
100
AcDbEntity
 67
         1
  8
0
100
AcDbBlockEnd
  0
BLOCK
  5
1F8
100
AcDbEntity
  8
0
100
AcDbBlockBegin
  2
*X0
 70
        65
 10
0.0
 20
0.0
 30
0.0
  3
*X0
  1

  0
LINE
  5
1F9
100
AcDbEntity
  8
L1_120
  6
CONTINUOUS
 62
         2
100
AcDbLine
 10
1500.4470881991
 20
-146.8269092721
 30
-84.7705555925
 11
1496.6008425579
 21
-150.1578557066
 31
-86.6936784131
  0
LINE
  5
1FA
100
AcDbEntity
  8
L1_120
  6
CONTINUOUS
 62
         2
100
AcDbLine
 10
1503.6008425579
 20
-147.7699124943
 30
-85.3149987567
 11
1499.6897288862
 21
-151.157036291
 31
-87.2705555925
  0
LINE
  5
1FB
100
AcDbEntity
  8
L1_120
  6
CONTINUOUS
 62
         2
100
AcDbLine
 10
1505.7323695733
 20
-149.5981905642
 30
-86.3705555925
 11
1503.9323695733
 21
-151.157036291
 31
-87.2705555925
  0
LINE
  5
1FC
100
AcDbEntity
  8
L1_120
  6
CONTINUOUS
 62
         2
100
AcDbLine
 10
1509.9750102605
 20
-149.5981905642
 30
-86.3705555925
 11
1508.6750102604
 21
-150.7240235891
 31
-87.0205555925
  0
LINE
  5
1FD
100
AcDbEntity
  8
L1_120
  6
CONTINUOUS
 62
         2
100
AcDbLine
 10
1514.2176509476
 20
-149.5981905642
 30
-86.3705555925
 11
1511.2008425579
 21
-152.210823268
 31
-87.8789597874
  0
LINE
  5
1FE
100
AcDbEntity
  8
L1_120
  6
CONTINUOUS
 62
         2
100
AcDbLine
 10
1517.6585008151
 20
-150.2925617825
 30
-86.7714510023
 11
1513.9008425579
 21
-153.546789292
 31
-88.6502801309
  0
LINE
  5
1FF
100
AcDbEntity
  8
L1_120
  6
CONTINUOUS
 62
         2
100
AcDbLine
 10
1519.088538629
 20
-152.7283473214
 30
-88.1777524389
 11
1516.0118128096
 21
-155.3928700416
 31
-89.7161153486
  0
ENDBLK
  5
200
100
AcDbEntity
  8
0
  6
CONTINUOUS
100
AcDbBlockEnd
  0
BLOCK
  5
204
100
AcDbEntity
  8
0
100
AcDbBlockBegin
  2
*X1
 70
        65
 10
0.0
 20
0.0
 30
0.0
  3
*X1
  1

  0
LINE
  5
205
100
AcDbEntity
  8
L1_120
  6
CONTINUOUS
 62
         2
100
AcDbLine
 10
1499.6897288862
 20
-151.157036291
 30
-87.2705555925
 11
1498.8777288862
 21
-151.8602489189
 31
-87.6765555925
  0
LINE
  5
206
100
AcDbEntity
  8
L1_120
  6
CONTINUOUS
 62
         2
100
AcDbLine
 10
1503.9323695733
 20
-151.157036291
 30
-87.2705555925
 11
1503.1203695733
 21
-151.8602489189
 31
-87.6765555925
  0
ENDBLK
  5
207
100
AcDbEntity
  8
0
  6
CONTINUOUS
100
AcDbBlockEnd
  0
BLOCK
  5
20B
100
AcDbEntity
  8
0
100
AcDbBlockBegin
  2
*X2
 70
        65
 10
0.0
 20
0.0
 30
0.0
  3
*X2
  1

  0
LINE
  5
20C
100
AcDbEntity
  8
L1_120
  6
CONTINUOUS
 62
         2
100
AcDbLine
 10
1498.6854950703
 20
-185.0948398145
 30
-106.8645555925
 11
1497.8734950703
 21
-185.7980524424
 31
-107.2705555925
  0
LINE
  5
20D
100
AcDbEntity
  8
L1_120
  6
CONTINUOUS
 62
         2
100
AcDbLine
 10
1502.9281357574
 20
-185.0948398145
 30
-106.8645555925
 11
1502.1161357574
 21
-185.7980524424
 31
-107.2705555925
  0
LINE
  5
20E
100
AcDbEntity
  8
L1_120
  6
CONTINUOUS
 62
         2
100
AcDbLine
 10
1507.0298095012
 20
-185.2169207685
 30
-106.9350390642
 11
1506.3587764445
 21
-185.7980524424
 31
-107.2705555925
  0
ENDBLK
  5
20F
100
AcDbEntity
  8
0
  6
CONTINUOUS
100
AcDbBlockEnd
  0
BLOCK
  5
213
100
AcDbEntity
  8
0
100
AcDbBlockBegin
  2
*X3
 70
        65
 10
0.0
 20
0.0
 30
0.0
  3
*X3
  1

  0
LINE
  5
214
100
AcDbEntity
  8
L1_120
  6
CONTINUOUS
 62
         2
100
AcDbLine
 10
1497.8734950703
 20
-185.7980524424
 30
-107.2705555925
 11
1496.6008425579
 21
-186.9002018483
 31
-107.9068818487
  0
LINE
  5
215
100
AcDbEntity
  8
L1_120
  6
CONTINUOUS
 62
         2
100
AcDbLine
 10
1502.1161357574
 20
-185.7980524424
 30
-107.2705555925
 11
1497.4679431391
 21
-189.8235053315
 31
-109.5946519017
  0
LINE
  5
216
100
AcDbEntity
  8
L1_120
  6
CONTINUOUS
 62
         2
100
AcDbLine
 10
1511.4587764445
 20
-181.3813228831
 30
-104.7205555925
 11
1511.2008425579
 21
-181.6047001814
 31
-104.8495225358
  0
LINE
  5
217
100
AcDbEntity
  8
L1_120
  6
CONTINUOUS
 62
         2
100
AcDbLine
 10
1506.3587764445
 20
-185.7980524424
 30
-107.2705555925
 11
1504.5587764445
 21
-187.3568981692
 31
-108.1705555925
  0
LINE
  5
218
100
AcDbEntity
  8
L1_120
  6
CONTINUOUS
 62
         2
100
AcDbLine
 10
1503.6008425579
 20
-188.1864932502
 30
-108.6495225358
 11
1501.3587764445
 21
-190.1281794613
 31
-109.7705555925
  0
LINE
  5
219
100
AcDbEntity
  8
L1_120
  6
CONTINUOUS
 62
         2
100
AcDbLine
 10
1514.78319221
 20
-182.1765289916
 30
-105.1796680533
 11
1513.9008425579
 21
-182.9406662054
 31
-105.6208428794
  0
LINE
  5
21A
100
AcDbEntity
  8
L1_120
  6
CONTINUOUS
 62
         2
100
AcDbLine
 10
1512.9008425579
 20
-183.8066916092
 30
-106.1208428794
 11
1511.2008425579
 21
-185.2789347956
 31
-106.9708428794
  0
LINE
  5
21B
100
AcDbEntity
  8
L1_120
  6
CONTINUOUS
 62
         2
100
AcDbLine
 10
1510.1014171316
 20
-186.2310651443
 30
-107.5205555925
 11
1508.8014171316
 21
-187.3568981692
 31
-108.1705555925
  0
LINE
  5
21C
100
AcDbEntity
  8
L1_120
  6
CONTINUOUS
 62
         2
100
AcDbLine
 10
1519.1008425579
 20
-182.1115687199
 30
-105.142163223
 11
1513.0440578188
 21
-187.3568981692
 31
-108.1705555925
  0
ENDBLK
  5
21D
100
AcDbEntity
  8
0
  6
CONTINUOUS
100
AcDbBlockEnd
  0
BLOCK
  5
258
100
AcDbEntity
  8
0
100
AcDbBlockBegin
  2
*D4
 70
        65
 10
0.0
 20
0.0
 30
0.0
  3
*D4
  1

  0
POINT
  5
25B
100
AcDbEntity
  8
DEFPOINTS
  6
CONTINUOUS
 62
         0
100
AcDbPoint
 10
1548.6996903992
 20
-146.8702105423
 30
-84.7955555925
  0
POINT
  5
25C
100
AcDbEntity
  8
DEFPOINTS
  6
CONTINUOUS
 62
         0
100
AcDbPoint
 10
1482.7398400794
 20
-146.8702105423
 30
-84.7955555925
  0
POINT
  5
25D
100
AcDbEntity
  8
DEFPOINTS
  6
CONTINUOUS
 62
         0
100
AcDbPoint
 10
1482.7398400794
 20
-190.0848781911
 30
-109.7455555925
  0
LINE
  5
25E
100
AcDbEntity
  8
L1_120
  6
CONTINUOUS
 62
         4
100
AcDbLine
 10
1484.4898400794
 20
-146.8702105423
 30
-84.7955555925
 11
1549.5746903992
 21
-146.8702105423
 31
-84.7955555925
  0
LINE
  5
25F
100
AcDbEntity
  8
L1_120
  6
CONTINUOUS
 62
         4
100
AcDbLine
 10
1484.4898400794
 20
-190.0848781911
 30
-109.7455555925
 11
1549.5746903992
 21
-190.0848781911
 31
-109.7455555925
  0
LINE
  5
260
100
AcDbEntity
  8
L1_120
  6
CONTINUOUS
 62
         4
100
AcDbLine
 10
1548.6996903992
 20
-146.8702105423
 30
-84.7955555925
 11
1548.6996903992
 21
-190.0848781911
 31
-109.7455555925
  0
SOLID
  5
261
100
AcDbEntity
  8
L1_120
  6
CONTINUOUS
 62
         4
100
AcDbTrace
 10
1548.6996903992
 20
-146.8702105423
 30
-84.7955555925
 11
1549.2246903992
 21
-149.9012994555
 31
-86.5455555925
 12
1548.1746903992
 22
-149.9012994555
 32
-86.5455555925
 13
1548.6996903992
 23
-146.8702105423
 33
-84.7955555925
  0
SOLID
  5
262
100
AcDbEntity
  8
L1_120
  6
CONTINUOUS
 62
         4
100
AcDbTrace
 10
1548.6996903992
 20
-190.0848781911
 30
-109.7455555925
 11
1548.1746903992
 21
-187.0537892779
 31
-107.9955555925
 12
1549.2246903992
 22
-187.0537892779
 32
-107.9955555925
 13
1548.6996903992
 23
-190.0848781911
 33
-109.7455555925
  0
TEXT
  5
264
100
AcDbEntity
  8
L1_120
  6
CONTINUOUS
 62
         4
100
AcDbText
 10
1546.0746903992
 20
-203.157477918
 30
0.0
 40
3.5
  1
崷50
 50
90.0
  7
BOX
210
0.0
220
-0.5
230
0.8660254037844387
100
AcDbText
  0
ENDBLK
  5
265
100
AcDbEntity
  8
0
  6
CONTINUOUS
100
AcDbBlockEnd
  0
BLOCK
  5
267
100
AcDbEntity
  8
0
100
AcDbBlockBegin
  2
*D5
 70
        65
 10
0.0
 20
0.0
 30
0.0
  3
*D5
  1

  0
POINT
  5
269
100
AcDbEntity
  8
DEFPOINTS
  6
CONTINUOUS
 62
         0
100
AcDbPoint
 10
1537.01603404
 20
-185.7980524424
 30
-107.2705555925
  0
POINT
  5
26A
100
AcDbEntity
  8
DEFPOINTS
  6
CONTINUOUS
 62
         0
100
AcDbPoint
 10
1505.1008425579
 20
-185.7980524424
 30
-107.2705555925
  0
POINT
  5
26B
100
AcDbEntity
  8
DEFPOINTS
  6
CONTINUOUS
 62
         0
100
AcDbPoint
 10
1505.1008425579
 20
-151.157036291
 30
-87.2705555925
  0
LINE
  5
26C
100
AcDbEntity
  8
L1_120
  6
CONTINUOUS
 62
         4
100
AcDbLine
 10
1506.8508425579
 20
-185.7980524424
 30
-107.2705555925
 11
1537.89103404
 21
-185.7980524424
 31
-107.2705555925
  0
LINE
  5
26D
100
AcDbEntity
  8
L1_120
  6
CONTINUOUS
 62
         4
100
AcDbLine
 10
1506.8508425579
 20
-151.157036291
 30
-87.2705555925
 11
1537.89103404
 21
-151.157036291
 31
-87.2705555925
  0
LINE
  5
26E
100
AcDbEntity
  8
L1_120
  6
CONTINUOUS
 62
         4
100
AcDbLine
 10
1537.01603404
 20
-185.7980524424
 30
-107.2705555925
 11
1537.01603404
 21
-151.157036291
 31
-87.2705555925
  0
SOLID
  5
26F
100
AcDbEntity
  8
L1_120
  6
CONTINUOUS
 62
         4
100
AcDbTrace
 10
1537.01603404
 20
-185.7980524424
 30
-107.2705555925
 11
1536.49103404
 21
-182.7669635291
 31
-105.5205555925
 12
1537.54103404
 22
-182.7669635291
 32
-105.5205555925
 13
1537.01603404
 23
-185.7980524424
 33
-107.2705555925
  0
SOLID
  5
270
100
AcDbEntity
  8
L1_120
  6
CONTINUOUS
 62
         4
100
AcDbTrace
 10
1537.01603404
 20
-151.157036291
 30
-87.2705555925
 11
1537.54103404
 21
-154.1881252043
 31
-89.0205555925
 12
1536.49103404
 22
-154.1881252043
 32
-89.0205555925
 13
1537.01603404
 23
-151.157036291
 33
-87.2705555925
  0
TEXT
  5
272
100
AcDbEntity
  8
L1_120
  6
CONTINUOUS
 62
         4
100
AcDbText
 10
1534.39103404
 20
-208.1988411973
 30
0.0
 40
3.5
  1
崷40.83
 50
90.0
  7
BOX
210
0.0
220
-0.5
230
0.8660254037844387
100
AcDbText
  0
ENDBLK
  5
273
100
AcDbEntity
  8
0
  6
CONTINUOUS
100
AcDbBlockEnd
  0
BLOCK
  5
275
100
AcDbEntity
  8
0
100
AcDbBlockBegin
  2
*D6
 70
        65
 10
0.0
 20
0.0
 30
0.0
  3
*D6
  1

  0
POINT
  5
277
100
AcDbEntity
  8
DEFPOINTS
  6
CONTINUOUS
 62
         0
100
AcDbPoint
 10
1506.1008425579
 20
-117.0898625229
 30
-67.6018636469
  0
POINT
  5
278
100
AcDbEntity
  8
DEFPOINTS
  6
CONTINUOUS
 62
         0
100
AcDbPoint
 10
1506.1008425579
 20
-168.4775443667
 30
-97.2705555925
  0
POINT
  5
279
100
AcDbEntity
  8
DEFPOINTS
  6
CONTINUOUS
 62
         0
100
AcDbPoint
 10
1417.5008425579
 20
-134.0746852014
 30
-77.4080555925
  0
LINE
  5
27A
100
AcDbEntity
  8
L1_120
  6
CONTINUOUS
 62
         4
100
AcDbLine
 10
1506.1008425579
 20
-166.9619999101
 30
-96.3955555925
 11
1506.1008425579
 21
-116.3320902945
 31
-67.1643636469
  0
LINE
  5
27B
100
AcDbEntity
  8
L1_120
  6
CONTINUOUS
 62
         4
100
AcDbLine
 10
1417.5008425579
 20
-132.5591407447
 30
-76.5330555925
 11
1417.5008425579
 21
-116.3320902945
 31
-67.1643636469
  0
LINE
  5
27C
100
AcDbEntity
  8
L1_120
  6
CONTINUOUS
 62
         4
100
AcDbLine
 10
1506.1008425579
 20
-117.0898625229
 30
-67.6018636469
 11
1417.5008425579
 21
-117.0898625229
 31
-67.6018636469
  0
SOLID
  5
27D
100
AcDbEntity
  8
L1_120
  6
CONTINUOUS
 62
         4
100
AcDbTrace
 10
1506.1008425579
 20
-117.0898625229
 30
-67.6018636469
 11
1502.6008425579
 21
-117.5445258598
 31
-67.8643636469
 12
1502.6008425579
 22
-116.6351991859
 32
-67.3393636469
 13
1506.1008425579
 23
-117.0898625229
 33
-67.6018636469
  0
SOLID
  5
27E
100
AcDbEntity
  8
L1_120
  6
CONTINUOUS
 62
         4
100
AcDbTrace
 10
1417.5008425579
 20
-117.0898625229
 30
-67.6018636469
 11
1421.0008425579
 21
-116.6351991859
 31
-67.3393636469
 12
1421.0008425579
 22
-117.5445258598
 32
-67.8643636469
 13
1417.5008425579
 23
-117.0898625229
 33
-67.6018636469
  0
TEXT
  5
280
100
AcDbEntity
  8
L1_120
  6
CONTINUOUS
 62
         4
100
AcDbText
 10
1459.0816727134
 20
-131.1437272939
 30
0.0
 40
3.5
  1
88
  7
BOX
210
0.0
220
-0.5
230
0.8660254037844387
100
AcDbText
  0
ENDBLK
  5
281
100
AcDbEntity
  8
0
  6
CONTINUOUS
100
AcDbBlockEnd
  0
BLOCK
  5
283
100
AcDbEntity
  8
0
100
AcDbBlockBegin
  2
*D7
 70
        65
 10
0.0
 20
0.0
 30
0.0
  3
*D7
  1

  0
POINT
  5
285
100
AcDbEntity
  8
DEFPOINTS
  6
CONTINUOUS
 62
         0
100
AcDbPoint
 10
1315.9008425579
 20
-106.0901422528
 30
-61.251172188
  0
POINT
  5
286
100
AcDbEntity
  8
DEFPOINTS
  6
CONTINUOUS
 62
         0
100
AcDbPoint
 10
1315.9008425579
 20
-152.9355616902
 30
-88.2973877105
  0
POINT
  5
287
100
AcDbEntity
  8
DEFPOINTS
  6
CONTINUOUS
 62
         0
100
AcDbPoint
 10
1506.1008425579
 20
-168.4775443667
 30
-97.2705555925
  0
LINE
  5
288
100
AcDbEntity
  8
L1_120
  6
CONTINUOUS
 62
         4
100
AcDbLine
 10
1315.9008425579
 20
-151.4200172336
 30
-87.4223877105
 11
1315.9008425579
 21
-105.3323700245
 31
-60.813672188
  0
LINE
  5
289
100
AcDbEntity
  8
L1_120
  6
CONTINUOUS
 62
         4
100
AcDbLine
 10
1506.1008425579
 20
-166.9619999101
 30
-96.3955555925
 11
1506.1008425579
 21
-105.3323700245
 31
-60.813672188
  0
LINE
  5
28A
100
AcDbEntity
  8
L1_120
  6
CONTINUOUS
 62
         4
100
AcDbLine
 10
1315.9008425579
 20
-106.0901422528
 30
-61.251172188
 11
1506.1008425579
 21
-106.0901422528
 31
-61.251172188
  0
SOLID
  5
28B
100
AcDbEntity
  8
L1_120
  6
CONTINUOUS
 62
         4
100
AcDbTrace
 10
1315.9008425579
 20
-106.0901422528
 30
-61.251172188
 11
1319.4008425579
 21
-105.6354789158
 31
-60.988672188
 12
1319.4008425579
 22
-106.5448055898
 32
-61.513672188
 13
1315.9008425579
 23
-106.0901422528
 33
-61.251172188
  0
SOLID
  5
28C
100
AcDbEntity
  8
L1_120
  6
CONTINUOUS
 62
         4
100
AcDbTrace
 10
1506.1008425579
 20
-106.0901422528
 30
-61.251172188
 11
1502.6008425579
 21
-106.5448055898
 31
-61.513672188
 12
1502.6008425579
 22
-105.6354789158
 32
-60.988672188
 13
1506.1008425579
 23
-106.0901422528
 33
-61.251172188
  0
TEXT
  5
28E
100
AcDbEntity
  8
L1_120
  6
CONTINUOUS
 62
         4
100
AcDbText
 10
1409.5581110962
 20
-119.8773443761
 30
0.0
 40
3.5
  1
190.2
  7
BOX
210
0.0
220
-0.5
230
0.8660254037844387
100
AcDbText
  0
ENDBLK
  5
28F
100
AcDbEntity
  8
0
  6
CONTINUOUS
100
AcDbBlockEnd
  0
BLOCK
  5
304
100
AcDbEntity
  8
0
100
AcDbBlockBegin
  2
*D8
 70
        65
 10
0.0
 20
0.0
 30
0.0
  3
*D8
  1

  0
POINT
  5
306
100
AcDbEntity
  8
DEFPOINTS
  6
CONTINUOUS
 62
         0
100
AcDbPoint
 10
1416.2508425579
 20
-319.8277460194
 30
-184.6526352586
  0
POINT
  5
307
100
AcDbEntity
  8
DEFPOINTS
  6
CONTINUOUS
 62
         0
100
AcDbPoint
 10
1416.2508425579
 20
-275.2919247454
 30
-158.9398668575
  0
POINT
  5
308
100
AcDbEntity
  8
DEFPOINTS
  6
CONTINUOUS
 62
         0
100
AcDbPoint
 10
1506.2508425579
 20
-282.8739771555
 30
-163.3173668575
  0
LINE
  5
309
100
AcDbEntity
  8
L1_120
  6
CONTINUOUS
 62
         4
100
AcDbLine
 10
1416.2508425579
 20
-276.807469202
 30
-159.8148668575
 11
1416.2508425579
 21
-320.5855182477
 31
-185.0901352586
  0
LINE
  5
30A
100
AcDbEntity
  8
L1_120
  6
CONTINUOUS
 62
         4
100
AcDbLine
 10
1506.2508425579
 20
-284.3895216121
 30
-164.1923668575
 11
1506.2508425579
 21
-320.5855182477
 31
-185.0901352586
  0
LINE
  5
30B
100
AcDbEntity
  8
L1_120
  6
CONTINUOUS
 62
         4
100
AcDbLine
 10
1416.2508425579
 20
-319.8277460194
 30
-184.6526352586
 11
1506.2508425579
 21
-319.8277460194
 31
-184.6526352586
  0
SOLID
  5
30C
100
AcDbEntity
  8
L1_120
  6
CONTINUOUS
 62
         4
100
AcDbTrace
 10
1416.2508425579
 20
-319.8277460194
 30
-184.6526352586
 11
1419.7508425579
 21
-319.3730826824
 31
-184.3901352586
 12
1419.7508425579
 22
-320.2824093564
 32
-184.9151352586
 13
1416.2508425579
 23
-319.8277460194
 33
-184.6526352586
  0
SOLID
  5
30D
100
AcDbEntity
  8
L1_120
  6
CONTINUOUS
 62
         4
100
AcDbTrace
 10
1506.2508425579
 20
-319.8277460194
 30
-184.6526352586
 11
1502.7508425579
 21
-320.2824093564
 31
-184.9151352586
 12
1502.7508425579
 22
-319.3730826824
 32
-184.3901352586
 13
1506.2508425579
 23
-319.8277460194
 33
-184.6526352586
  0
TEXT
  5
30F
100
AcDbEntity
  8
L1_120
  6
CONTINUOUS
 62
         4
100
AcDbText
 10
1463.2046469738
 20
-366.6802705173
 30
0.0
 40
3.5
  1
90
  7
BOX
210
0.0
220
-0.5
230
0.8660254037844387
100
AcDbText
  0
ENDBLK
  5
310
100
AcDbEntity
  8
0
  6
CONTINUOUS
100
AcDbBlockEnd
  0
BLOCK
  5
318
100
AcDbEntity
  8
0
100
AcDbBlockBegin
  2
*X9
 70
        65
 10
0.0
 20
0.0
 30
0.0
  3
*X9
  1

  0
LINE
  5
319
100
AcDbEntity
  8
L1_120
  6
CONTINUOUS
 62
         4
100
AcDbLine
 10
1504.0921699743
 20
-283.7400025593
 30
-163.8173668575
 11
1506.4008425579
 21
-281.7406334529
 31
-162.6630305657
  0
LINE
  5
31A
100
AcDbEntity
  8
L1_120
  6
CONTINUOUS
 62
         4
100
AcDbLine
 10
1499.8495292872
 20
-283.7400025593
 30
-163.8173668575
 11
1504.1639096984
 21
-280.0036395216
 31
-161.6601766518
  0
LINE
  5
31B
100
AcDbEntity
  8
L1_120
  6
CONTINUOUS
 62
         4
100
AcDbLine
 10
1495.6068886
 20
-283.7400025593
 30
-163.8173668575
 11
1500.4440598184
 21
-279.5508894017
 31
-161.3987812483
  0
LINE
  5
31C
100
AcDbEntity
  8
L1_120
  6
CONTINUOUS
 62
         4
100
AcDbLine
 10
1486.4142479129
 20
-288.026828308
 30
-166.2923668575
 11
1487.9008425579
 21
-286.7393995804
 31
-165.549069535
  0
LINE
  5
31D
100
AcDbEntity
  8
L1_120
  6
CONTINUOUS
 62
         4
100
AcDbLine
 10
1491.3642479129
 20
-283.7400025593
 30
-163.8173668575
 11
1496.7242099384
 21
-279.0981392819
 31
-161.1373858447
  0
LINE
  5
31E
100
AcDbEntity
  8
L1_120
  6
CONTINUOUS
 62
         4
100
AcDbLine
 10
1482.1716072258
 20
-288.026828308
 30
-166.2923668575
 11
1493.0043600584
 21
-278.6453891621
 31
-160.8759904412
  0
LINE
  5
31F
100
AcDbEntity
  8
L1_120
  6
CONTINUOUS
 62
         4
100
AcDbLine
 10
1477.9289665387
 20
-288.026828308
 30
-166.2923668575
 11
1489.2845101783
 21
-278.1926390423
 31
-160.6145950376
  0
LINE
  5
320
100
AcDbEntity
  8
L1_120
  6
CONTINUOUS
 62
         4
100
AcDbLine
 10
1473.6863258516
 20
-288.026828308
 30
-166.2923668575
 11
1485.5646602983
 21
-277.7398889225
 31
-160.3531996341
  0
LINE
  5
321
100
AcDbEntity
  8
L1_120
  6
CONTINUOUS
 62
         4
100
AcDbLine
 10
1469.4436851644
 20
-288.026828308
 30
-166.2923668575
 11
1481.8448104183
 21
-277.2871388026
 31
-160.0918042305
  0
LINE
  5
322
100
AcDbEntity
  8
L1_120
  6
CONTINUOUS
 62
         4
100
AcDbLine
 10
1465.2010444773
 20
-288.026828308
 30
-166.2923668575
 11
1478.1010444773
 21
-276.8551005992
 31
-159.8423668575
  0
LINE
  5
323
100
AcDbEntity
  8
L1_120
  6
CONTINUOUS
 62
         4
100
AcDbLine
 10
1450.9834037902
 20
-296.6654317108
 30
-171.2798668575
 11
1452.8528425579
 21
-295.0464502471
 31
-170.3451474736
  0
LINE
  5
324
100
AcDbEntity
  8
L1_120
  6
CONTINUOUS
 62
         4
100
AcDbLine
 10
1460.9584037902
 20
-288.026828308
 30
-166.2923668575
 11
1473.8584037902
 21
-276.8551005992
 31
-159.8423668575
  0
LINE
  5
325
100
AcDbEntity
  8
L1_120
  6
CONTINUOUS
 62
         4
100
AcDbLine
 10
1501.1737893725
 20
-253.1992827708
 30
-146.1846740663
 11
1505.5472379862
 21
-249.4117651692
 31
-143.9979497595
  0
LINE
  5
326
100
AcDbEntity
  8
L1_120
  6
CONTINUOUS
 62
         4
100
AcDbLine
 10
1432.9157631031
 20
-308.6382329181
 30
-178.1923668575
 11
1436.9008425579
 21
-305.1870528741
 31
-176.1998271301
  0
LINE
  5
327
100
AcDbEntity
  8
L1_120
  6
CONTINUOUS
 62
         4
100
AcDbLine
 10
1446.7407631031
 20
-296.6654317108
 30
-171.2798668575
 11
1452.8528425579
 21
-291.372215633
 31
-168.2238271301
  0
LINE
  5
328
100
AcDbEntity
  8
L1_120
  6
CONTINUOUS
 62
         4
100
AcDbLine
 10
1456.7157631031
 20
-288.026828308
 30
-166.2923668575
 11
1469.6157631031
 21
-276.8551005992
 31
-159.8423668575
  0
LINE
  5
329
100
AcDbEntity
  8
L1_120
  6
CONTINUOUS
 62
         4
100
AcDbLine
 10
1496.237381852
 20
-253.8001024727
 30
-146.531557483
 11
1501.6657631031
 21
-249.0989864079
 31
-143.8173668575
  0
LINE
  5
32A
100
AcDbEntity
  8
L1_120
  6
CONTINUOUS
 62
         4
100
AcDbLine
 10
1431.0593967992
 20
-306.5716586818
 30
-176.9992296659
 11
1436.9008425579
 21
-301.51281826
 31
-174.0785067865
  0
LINE
  5
32B
100
AcDbEntity
  8
L1_120
  6
CONTINUOUS
 62
         4
100
AcDbLine
 10
1442.498122416
 20
-296.6654317108
 30
-171.2798668575
 11
1466.113122416
 21
-276.2142418004
 31
-159.4723668575
  0
LINE
  5
32C
100
AcDbEntity
  8
L1_120
  6
CONTINUOUS
 62
         4
100
AcDbLine
 10
1491.3009743315
 20
-254.4009221747
 30
-146.8784408997
 11
1497.423122416
 21
-249.0989864079
 31
-143.8173668575
  0
LINE
  5
32D
100
AcDbEntity
  8
L1_120
  6
CONTINUOUS
 62
         4
100
AcDbLine
 10
1424.4304817288
 20
-308.6382329181
 30
-178.1923668575
 11
1426.6405634162
 21
-306.7242460324
 31
-177.0873260138
  0
LINE
  5
32E
100
AcDbEntity
  8
L1_120
  6
CONTINUOUS
 62
         4
100
AcDbLine
 10
1427.5554817288
 20
-305.9319035313
 30
-176.6298668575
 11
1436.9008425579
 21
-297.8385836458
 31
-171.957186443
  0
LINE
  5
32F
100
AcDbEntity
  8
L1_120
  6
CONTINUOUS
 62
         4
100
AcDbLine
 10
1438.2554817288
 20
-296.6654317108
 30
-171.2798668575
 11
1461.8704817288
 21
-276.2142418004
 31
-159.4723668575
  0
LINE
  5
330
100
AcDbEntity
  8
L1_120
  6
CONTINUOUS
 62
         4
100
AcDbLine
 10
1486.3645668111
 20
-255.0017418767
 30
-147.2253243164
 11
1493.1804817288
 21
-249.0989864079
 31
-143.8173668575
  0
LINE
  5
331
100
AcDbEntity
  8
L1_120
  6
CONTINUOUS
 62
         4
100
AcDbLine
 10
1421.0008425579
 20
-307.9341529518
 30
-177.7858660994
 11
1457.6278410417
 21
-276.2142418004
 31
-159.4723668575
  0
LINE
  5
332
100
AcDbEntity
  8
L1_120
  6
CONTINUOUS
 62
         4
100
AcDbLine
 10
1481.4281592906
 20
-255.6025615787
 30
-147.572207733
 11
1488.9378410417
 21
-249.0989864079
 31
-143.8173668575
  0
LINE
  5
333
100
AcDbEntity
  8
L1_120
  6
CONTINUOUS
 62
         4
100
AcDbLine
 10
1421.0008425579
 20
-304.2599183376
 30
-175.6645457558
 11
1453.3852003546
 21
-276.2142418004
 31
-159.4723668575
  0
LINE
  5
334
100
AcDbEntity
  8
L1_120
  6
CONTINUOUS
 62
         4
100
AcDbLine
 10
1476.7452003546
 20
-255.983888368
 30
-147.7923668575
 11
1487.9008425579
 21
-246.3228188244
 31
-142.2145457558
  0
LINE
  5
335
100
AcDbEntity
  8
L1_120
  6
CONTINUOUS
 62
         4
100
AcDbLine
 10
1421.0008425579
 20
-300.5856837234
 30
-173.5432254123
 11
1449.1425596675
 21
-276.2142418004
 31
-159.4723668575
  0
LINE
  5
336
100
AcDbEntity
  8
L1_120
  6
CONTINUOUS
 62
         4
100
AcDbLine
 10
1472.5025596675
 20
-255.983888368
 30
-147.7923668575
 11
1485.4025596675
 21
-244.8121606592
 31
-141.3423668575
  0
LINE
  5
337
100
AcDbEntity
  8
L1_120
  6
CONTINUOUS
 62
         4
100
AcDbLine
 10
1421.0008425579
 20
-296.9114491093
 30
-171.4219050687
 11
1444.8999189804
 21
-276.2142418004
 31
-159.4723668575
  0
LINE
  5
338
100
AcDbEntity
  8
L1_120
  6
CONTINUOUS
 62
         4
100
AcDbLine
 10
1467.5199189804
 20
-256.6247471668
 30
-148.1623668575
 11
1481.1599189804
 21
-244.8121606592
 31
-141.3423668575
  0
LINE
  5
339
100
AcDbEntity
  8
L1_120
  6
CONTINUOUS
 62
         4
100
AcDbLine
 10
1417.1388236293
 20
-296.5818209971
 30
-171.2315941894
 11
1440.6572782933
 21
-276.2142418004
 31
-159.4723668575
  0
LINE
  5
33A
100
AcDbEntity
  8
L1_120
  6
CONTINUOUS
 62
         4
100
AcDbLine
 10
1463.2772782933
 20
-256.6247471668
 30
-148.1623668575
 11
1476.9172782933
 21
-244.8121606592
 31
-141.3423668575
  0
LINE
  5
33B
100
AcDbEntity
  8
L1_120
  6
CONTINUOUS
 62
         4
100
AcDbLine
 10
1413.4361598301
 20
-296.1141872947
 30
-170.9616057455
 11
1436.4146376061
 21
-276.2142418004
 31
-159.4723668575
  0
LINE
  5
33C
100
AcDbEntity
  8
L1_120
  6
CONTINUOUS
 62
         4
100
AcDbLine
 10
1459.0346376061
 20
-256.6247471668
 30
-148.1623668575
 11
1472.6746376061
 21
-244.8121606592
 31
-141.3423668575
  0
LINE
  5
33D
100
AcDbEntity
  8
L1_120
  6
CONTINUOUS
 62
         4
100
AcDbLine
 10
1409.7334960309
 20
-295.6465535924
 30
-170.6916173015
 11
1432.171996919
 21
-276.2142418004
 31
-159.4723668575
  0
LINE
  5
33E
100
AcDbEntity
  8
L1_120
  6
CONTINUOUS
 62
         4
100
AcDbLine
 10
1454.791996919
 20
-256.6247471668
 30
-148.1623668575
 11
1468.431996919
 21
-244.8121606592
 31
-141.3423668575
  0
LINE
  5
33F
100
AcDbEntity
  8
L1_120
  6
CONTINUOUS
 62
         4
100
AcDbLine
 10
1406.0308322316
 20
-295.17891989
 30
-170.4216288576
 11
1427.9293562319
 21
-276.2142418004
 31
-159.4723668575
  0
LINE
  5
340
100
AcDbEntity
  8
L1_120
  6
CONTINUOUS
 62
         4
100
AcDbLine
 10
1450.5493562319
 20
-256.6247471668
 30
-148.1623668575
 11
1464.1893562319
 21
-244.8121606592
 31
-141.3423668575
  0
LINE
  5
341
100
AcDbEntity
  8
L1_120
  6
CONTINUOUS
 62
         4
100
AcDbLine
 10
1402.3281684324
 20
-294.7112861876
 30
-170.1516404136
 11
1423.6867155448
 21
-276.2142418004
 31
-159.4723668575
  0
LINE
  5
342
100
AcDbEntity
  8
L1_120
  6
CONTINUOUS
 62
         4
100
AcDbLine
 10
1446.3067155448
 20
-256.6247471668
 30
-148.1623668575
 11
1459.9467155448
 21
-244.8121606592
 31
-141.3423668575
  0
LINE
  5
343
100
AcDbEntity
  8
L1_120
  6
CONTINUOUS
 62
         4
100
AcDbLine
 10
1398.6255046332
 20
-294.2436524853
 30
-169.8816519697
 11
1419.4440748577
 21
-276.2142418004
 31
-159.4723668575
  0
LINE
  5
344
100
AcDbEntity
  8
L1_120
  6
CONTINUOUS
 62
         4
100
AcDbLine
 10
1442.0640748577
 20
-256.6247471668
 30
-148.1623668575
 11
1455.7075931524
 21
-244.8091137266
 31
-141.3406077101
  0
LINE
  5
345
100
AcDbEntity
  8
L1_120
  6
CONTINUOUS
 62
         4
100
AcDbLine
 10
1394.922840834
 20
-293.7760187829
 30
-169.6116635258
 11
1415.9618286186
 21
-275.5557208915
 31
-159.0921696334
  0
LINE
  5
346
100
AcDbEntity
  8
L1_120
  6
CONTINUOUS
 62
         4
100
AcDbLine
 10
1437.8214341705
 20
-256.6247471668
 30
-148.1623668575
 11
1453.1531434353
 21
-243.34709746
 31
-140.4965122251
  0
LINE
  5
347
100
AcDbEntity
  8
L1_120
  6
CONTINUOUS
 62
         4
100
AcDbLine
 10
1391.2201770347
 20
-293.3083850805
 30
-169.3416750818
 11
1411.87245202
 21
-275.4229902973
 31
-159.0155375892
  0
LINE
  5
348
100
AcDbEntity
  8
L1_120
  6
CONTINUOUS
 62
         4
100
AcDbLine
 10
1433.5787934834
 20
-256.6247471668
 30
-148.1623668575
 11
1452.8528425579
 21
-239.9329310345
 31
-138.5253423202
  0
LINE
  5
349
100
AcDbEntity
  8
L1_120
  6
CONTINUOUS
 62
         4
100
AcDbLine
 10
1387.5175132355
 20
-292.8407513781
 30
-169.0716866379
 11
1407.6298113329
 21
-275.4229902973
 31
-159.0155375892
  0
LINE
  5
34A
100
AcDbEntity
  8
L1_120
  6
CONTINUOUS
 62
         4
100
AcDbLine
 10
1429.3361527963
 20
-256.6247471668
 30
-148.1623668575
 11
1452.4019976771
 21
-236.6491395403
 31
-136.6294444171
  0
LINE
  5
34B
100
AcDbEntity
  8
L1_120
  6
CONTINUOUS
 62
         4
100
AcDbLine
 10
1383.8148494363
 20
-292.3731176758
 30
-168.8016981939
 11
1403.3871706458
 21
-275.4229902973
 31
-159.0155375892
  0
LINE
  5
34C
100
AcDbEntity
  8
L1_120
  6
CONTINUOUS
 62
         4
100
AcDbLine
 10
1425.0935121092
 20
-256.6247471668
 30
-148.1623668575
 11
1448.7085121092
 21
-236.1735572564
 31
-136.3548668575
  0
LINE
  5
34D
100
AcDbEntity
  8
L1_120
  6
CONTINUOUS
 62
         4
100
AcDbLine
 10
1380.1121856371
 20
-291.9054839734
 30
-168.53170975
 11
1399.1445299586
 21
-275.4229902973
 31
-159.0155375892
  0
LINE
  5
34E
100
AcDbEntity
  8
L1_120
  6
CONTINUOUS
 62
         4
100
AcDbLine
 10
1420.8508714221
 20
-256.6247471668
 30
-148.1623668575
 11
1444.4658714221
 21
-236.1735572564
 31
-136.3548668575
  0
LINE
  5
34F
100
AcDbEntity
  8
L1_120
  6
CONTINUOUS
 62
         4
100
AcDbLine
 10
1376.4095218378
 20
-291.437850271
 30
-168.261721306
 11
1394.9018892715
 21
-275.4229902973
 31
-159.0155375892
  0
LINE
  5
350
100
AcDbEntity
  8
L1_120
  6
CONTINUOUS
 62
         4
100
AcDbLine
 10
1415.6945721984
 20
-257.4159986699
 30
-148.6191961258
 11
1416.1175450395
 21
-257.0496934443
 31
-148.4077097052
  0
LINE
  5
351
100
AcDbEntity
  8
L1_120
  6
CONTINUOUS
 62
         4
100
AcDbLine
 10
1416.6082307349
 20
-256.6247471668
 30
-148.1623668575
 11
1440.2232307349
 21
-236.1735572564
 31
-136.3548668575
  0
LINE
  5
352
100
AcDbEntity
  8
L1_120
  6
CONTINUOUS
 62
         4
100
AcDbLine
 10
1372.7068580386
 20
-290.9702165686
 30
-167.9917328621
 11
1390.6592485844
 21
-275.4229902973
 31
-159.0155375892
  0
LINE
  5
353
100
AcDbEntity
  8
L1_120
  6
CONTINUOUS
 62
         4
100
AcDbLine
 10
1416.5987623196
 20
-252.9587124408
 30
-146.0457807216
 11
1436.9008425579
 21
-235.3765952048
 31
-135.8947406024
  0
LINE
  5
354
100
AcDbEntity
  8
L1_120
  6
CONTINUOUS
 62
         4
100
AcDbLine
 10
1369.0041942394
 20
-290.5025828663
 30
-167.7217444181
 11
1386.4166078973
 21
-275.4229902973
 31
-159.0155375892
  0
LINE
  5
355
100
AcDbEntity
  8
L1_120
  6
CONTINUOUS
 62
         4
100
AcDbLine
 10
1407.2092908241
 20
-257.4159986699
 30
-148.6191961258
 11
1411.9508809972
 21
-253.3096611256
 31
-146.2484010392
  0
LINE
  5
356
100
AcDbEntity
  8
L1_120
  6
CONTINUOUS
 62
         4
100
AcDbLine
 10
1365.3015304402
 20
-290.0349491639
 30
-167.4517559742
 11
1382.1739672102
 21
-275.4229902973
 31
-159.0155375892
  0
LINE
  5
357
100
AcDbEntity
  8
L1_120
  6
CONTINUOUS
 62
         4
100
AcDbLine
 10
1402.966650137
 20
-257.4159986699
 30
-148.6191961258
 11
1427.1868695031
 21
-236.4406734136
 31
-136.5090864427
  0
LINE
  5
358
100
AcDbEntity
  8
L1_120
  6
CONTINUOUS
 62
         4
100
AcDbLine
 10
1430.7769447184
 20
-233.3315770756
 30
-134.7140488351
 11
1431.266985466
 21
-232.9071893393
 31
-134.4690284612
  0
LINE
  5
359
100
AcDbEntity
  8
L1_120
  6
CONTINUOUS
 62
         4
100
AcDbLine
 10
1361.5988666409
 20
-289.5673154615
 30
-167.1817675302
 11
1377.931326523
 21
-275.4229902973
 31
-159.0155375892
  0
LINE
  5
35A
100
AcDbEntity
  8
L1_120
  6
CONTINUOUS
 62
         4
100
AcDbLine
 10
1398.7240094499
 20
-257.4159986699
 30
-148.6191961258
 11
1424.6915031482
 21
-234.9274894545
 31
-135.6354492766
  0
LINE
  5
35B
100
AcDbEntity
  8
L1_120
  6
CONTINUOUS
 62
         4
100
AcDbLine
 10
1428.2815783635
 20
-231.8183931165
 30
-133.8404116689
 11
1436.7392552722
 21
-224.4938300566
 31
-129.6115732146
  0
LINE
  5
35C
100
AcDbEntity
  8
L1_120
  6
CONTINUOUS
 62
         4
100
AcDbLine
 10
1357.8962028417
 20
-289.0996817591
 30
-166.9117790863
 11
1373.6886858359
 21
-275.4229902973
 31
-159.0155375892
  0
LINE
  5
35D
100
AcDbEntity
  8
L1_120
  6
CONTINUOUS
 62
         4
100
AcDbLine
 10
1394.4813687628
 20
-257.4159986699
 30
-148.6191961258
 11
1418.7628927917
 21
-236.3875820182
 31
-136.4784341113
  0
LINE
  5
35E
100
AcDbEntity
  8
L1_120
  6
CONTINUOUS
 62
         4
100
AcDbLine
 10
1421.0008425579
 20
-234.4494606683
 30
-135.3594592282
 11
1422.1961367934
 21
-233.4143054954
 31
-134.7618121105
  0
LINE
  5
35F
100
AcDbEntity
  8
L1_120
  6
CONTINUOUS
 62
         4
100
AcDbLine
 10
1425.7862120087
 20
-230.3052091574
 30
-132.9667745028
 11
1429.7100272993
 21
-226.9070854359
 31
-131.0048668575
  0
LINE
  5
360
100
AcDbEntity
  8
L1_120
  6
CONTINUOUS
 62
         4
100
AcDbLine
 10
1431.893551856
 20
-225.0160977001
 30
-129.9131045791
 11
1432.8350272993
 21
-224.2007560491
 31
-129.4423668575
  0
LINE
  5
361
100
AcDbEntity
  8
L1_120
  6
CONTINUOUS
 62
         4
100
AcDbLine
 10
1354.1935390425
 20
-288.6320480568
 30
-166.6417906423
 11
1369.4460451488
 21
-275.4229902973
 31
-159.0155375892
  0
LINE
  5
362
100
AcDbEntity
  8
L1_120
  6
CONTINUOUS
 62
         4
100
AcDbLine
 10
1390.2387280756
 20
-257.4159986699
 30
-148.6191961258
 11
1414.2494737909
 21
-236.6220829166
 31
-136.6138232681
  0
LINE
  5
363
100
AcDbEntity
  8
L1_120
  6
CONTINUOUS
 62
         4
100
AcDbLine
 10
1423.6857539275
 20
-228.4500246011
 30
-131.8956831998
 11
1426.5460342476
 21
-225.9729491819
 31
-130.4655430398
  0
LINE
  5
364
100
AcDbEntity
  8
L1_120
  6
CONTINUOUS
 62
         4
100
AcDbLine
 10
1350.4908752433
 20
-288.1644143544
 30
-166.3718021984
 11
1365.2034044617
 21
-275.4229902973
 31
-159.0155375892
  0
LINE
  5
365
100
AcDbEntity
  8
L1_120
  6
CONTINUOUS
 62
         4
100
AcDbLine
 10
1385.9960873885
 20
-257.4159986699
 30
-148.6191961258
 11
1409.2824718316
 21
-237.2493981798
 31
-136.9760039042
  0
LINE
  5
366
100
AcDbEntity
  8
L1_120
  6
CONTINUOUS
 62
         4
100
AcDbLine
 10
1421.1903875726
 20
-226.936840642
 30
-131.0220460337
 11
1424.3497459251
 21
-224.2007560491
 31
-129.4423668575
  0
LINE
  5
367
100
AcDbEntity
  8
L1_120
  6
CONTINUOUS
 62
         4
100
AcDbLine
 10
1346.788211444
 20
-287.696780652
 30
-166.1018137544
 11
1360.9607637746
 21
-275.4229902973
 31
-159.0155375892
  0
LINE
  5
368
100
AcDbEntity
  8
L1_120
  6
CONTINUOUS
 62
         4
100
AcDbLine
 10
1381.7534467014
 20
-257.4159986699
 30
-148.6191961258
 11
1404.3154698723
 21
-237.8767134431
 31
-137.3381845403
  0
LINE
  5
369
100
AcDbEntity
  8
L1_120
  6
CONTINUOUS
 62
         4
100
AcDbLine
 10
1343.0855476448
 20
-287.2291469496
 30
-165.8318253105
 11
1356.7181230875
 21
-275.4229902973
 31
-159.0155375892
  0
LINE
  5
36A
100
AcDbEntity
  8
L1_120
  6
CONTINUOUS
 62
         4
100
AcDbLine
 10
1377.5108060143
 20
-257.4159986699
 30
-148.6191961258
 11
1399.348467913
 21
-238.5040287063
 31
-137.7003651764
  0
LINE
  5
36B
100
AcDbEntity
  8
L1_120
  6
CONTINUOUS
 62
         4
100
AcDbLine
 10
1339.3828838456
 20
-286.7615132473
 30
-165.5618368665
 11
1352.4754824003
 21
-275.4229902973
 31
-159.0155375892
  0
LINE
  5
36C
100
AcDbEntity
  8
L1_120
  6
CONTINUOUS
 62
         4
100
AcDbLine
 10
1373.2681653272
 20
-257.4159986699
 30
-148.6191961258
 11
1394.3814659536
 21
-239.1313439696
 31
-138.0625458125
  0
LINE
  5
36D
100
AcDbEntity
  8
L1_120
  6
CONTINUOUS
 62
         4
100
AcDbLine
 10
1335.6802200464
 20
-286.2938795449
 30
-165.2918484226
 11
1348.2328417132
 21
-275.4229902973
 31
-159.0155375892
  0
LINE
  5
36E
100
AcDbEntity
  8
L1_120
  6
CONTINUOUS
 62
         4
100
AcDbLine
 10
1369.02552464
 20
-257.4159986699
 30
-148.6191961258
 11
1389.4144639943
 21
-239.7586592328
 31
-138.4247264486
  0
LINE
  5
36F
100
AcDbEntity
  8
L1_120
  6
CONTINUOUS
 62
         4
100
AcDbLine
 10
1331.9775562471
 20
-285.8262458425
 30
-165.0218599786
 11
1343.9902010261
 21
-275.4229902973
 31
-159.0155375892
  0
LINE
  5
370
100
AcDbEntity
  8
L1_120
  6
CONTINUOUS
 62
         4
100
AcDbLine
 10
1364.7828839529
 20
-257.4159986699
 30
-148.6191961258
 11
1384.447462035
 21
-240.3859744961
 31
-138.7869070847
  0
LINE
  5
371
100
AcDbEntity
  8
L1_120
  6
CONTINUOUS
 62
         4
100
AcDbLine
 10
1328.2748924479
 20
-285.3586121402
 30
-164.7518715347
 11
1339.747560339
 21
-275.4229902973
 31
-159.0155375892
  0
LINE
  5
372
100
AcDbEntity
  8
L1_120
  6
CONTINUOUS
 62
         4
100
AcDbLine
 10
1360.5402432658
 20
-257.4159986699
 30
-148.6191961258
 11
1379.4804600756
 21
-241.0132897593
 31
-139.1490877208
  0
LINE
  5
373
100
AcDbEntity
  8
L1_120
  6
CONTINUOUS
 62
         4
100
AcDbLine
 10
1324.5722286487
 20
-284.8909784378
 30
-164.4818830907
 11
1335.5049196519
 21
-275.4229902973
 31
-159.0155375892
  0
LINE
  5
374
100
AcDbEntity
  8
L1_120
  6
CONTINUOUS
 62
         4
100
AcDbLine
 10
1356.2976025787
 20
-257.4159986699
 30
-148.6191961258
 11
1374.5134581163
 21
-241.6406050226
 31
-139.5112683569
  0
LINE
  5
375
100
AcDbEntity
  8
L1_120
  6
CONTINUOUS
 62
         4
100
AcDbLine
 10
1320.8695648495
 20
-284.4233447354
 30
-164.2118946468
 11
1331.2622789647
 21
-275.4229902973
 31
-159.0155375892
  0
LINE
  5
376
100
AcDbEntity
  8
L1_120
  6
CONTINUOUS
 62
         4
100
AcDbLine
 10
1352.0549618916
 20
-257.4159986699
 30
-148.6191961258
 11
1369.546456157
 21
-242.2679202858
 31
-139.873448993
  0
LINE
  5
377
100
AcDbEntity
  8
L1_120
  6
CONTINUOUS
 62
         4
100
AcDbLine
 10
1317.3597763467
 20
-283.7886761265
 30
-163.8454685546
 11
1327.0196382776
 21
-275.4229902973
 31
-159.0155375892
  0
LINE
  5
378
100
AcDbEntity
  8
L1_120
  6
CONTINUOUS
 62
         4
100
AcDbLine
 10
1347.8123212044
 20
-257.4159986699
 30
-148.6191961258
 11
1364.5794541977
 21
-242.8952355491
 31
-140.2356296291
  0
LINE
  5
379
100
AcDbEntity
  8
L1_120
  6
CONTINUOUS
 62
         4
100
AcDbLine
 10
1316.2008425579
 20
-281.1181076148
 30
-162.3036151055
 11
1320.6157537686
 21
-277.2946823509
 31
-160.0961595001
  0
LINE
  5
37A
100
AcDbEntity
  8
L1_120
  6
CONTINUOUS
 62
         4
100
AcDbLine
 10
1343.5696805173
 20
-257.4159986699
 30
-148.6191961258
 11
1359.6124522383
 21
-243.5225508123
 31
-140.5978102653
  0
LINE
  5
37B
100
AcDbEntity
  8
L1_120
  6
CONTINUOUS
 62
         4
100
AcDbLine
 10
1339.3270398302
 20
-257.4159986699
 30
-148.6191961258
 11
1354.645450279
 21
-244.1498660756
 31
-140.9599909014
  0
LINE
  5
37C
100
AcDbEntity
  8
L1_120
  6
CONTINUOUS
 62
         4
100
AcDbLine
 10
1335.0843991431
 20
-257.4159986699
 30
-148.6191961258
 11
1349.6784483197
 21
-244.7771813388
 31
-141.3221715375
  0
LINE
  5
37D
100
AcDbEntity
  8
L1_120
  6
CONTINUOUS
 62
         4
100
AcDbLine
 10
1330.841758456
 20
-257.4159986699
 30
-148.6191961258
 11
1344.7114463603
 21
-245.4044966021
 31
-141.6843521736
  0
LINE
  5
37E
100
AcDbEntity
  8
L1_120
  6
CONTINUOUS
 62
         4
100
AcDbLine
 10
1326.5991177688
 20
-257.4159986699
 30
-148.6191961258
 11
1339.744444401
 21
-246.0318118653
 31
-142.0465328097
  0
LINE
  5
37F
100
AcDbEntity
  8
L1_120
  6
CONTINUOUS
 62
         4
100
AcDbLine
 10
1323.4133318006
 20
-256.5007356352
 30
-148.0907687663
 11
1334.7774424417
 21
-246.6591271286
 31
-142.4087134458
  0
LINE
  5
380
100
AcDbEntity
  8
L1_120
  6
CONTINUOUS
 62
         4
100
AcDbLine
 10
1320.2174949312
 20
-255.5941769363
 30
-147.5673668575
 11
1329.8104404824
 21
-247.2864423918
 31
-142.7708940819
  0
LINE
  5
381
100
AcDbEntity
  8
L1_120
  6
CONTINUOUS
 62
         4
100
AcDbLine
 10
1316.4528689464
 20
-255.1802040607
 30
-147.3283595063
 11
1324.843438523
 21
-247.9137576551
 31
-143.133074718
  0
LINE
  5
382
100
AcDbEntity
  8
L1_120
  6
CONTINUOUS
 62
         4
100
AcDbLine
 10
1316.2008425579
 20
-251.7242307014
 30
-145.333052357
 11
1319.8764365637
 21
-248.5410729183
 31
-143.4952553541
  0
ENDBLK
  5
383
100
AcDbEntity
  8
0
  6
CONTINUOUS
100
AcDbBlockEnd
  0
ENDSEC
  0
SECTION
  2
ENTITIES
  0
LINE
  5
25
100
AcDbEntity
  8
L1_120
  6
CONTINUOUS
 62
         7
100
AcDbLine
 10
1315.9008425579
 20
-213.7195557837
 30
3.8423164408
 11
1315.9008425579
 21
-234.8329111027
 31
-3.8423164408
  0
LINE
  5
26
100
AcDbEntity
  8
L1_120
  6
CONTINUOUS
 62
         7
100
AcDbLine
 10
1315.9008425579
 20
-213.7195557837
 30
3.8423164408
 11
1315.9008425579
 21
-234.8329111027
 31
-3.8423164408
  0
LINE
  5
27
100
AcDbEntity
  8
L1_120
  6
CONTINUOUS
 62
         7
100
AcDbLine
 10
1315.9008425579
 20
-213.7195557837
 30
3.8423164408
 11
1315.9008425579
 21
-235.3860382514
 31
-4.0436382587
  0
LINE
  5
28
100
AcDbEntity
  8
L1_120
  6
CONTINUOUS
 62
         7
100
AcDbLine
 10
1315.9008425579
 20
-213.0420517268
 30
0.0
 11
1315.9008425579
 21
-236.2313999178
 31
0.0
  0
LINE
  5
29
100
AcDbEntity
  8
L1_120
  6
CENTER
 62
         1
100
AcDbLine
 10
1231.0721451996
 20
-173.3398836769
 30
0.0
 11
1231.0721451996
 21
-277.0972164933
 31
0.0
  0
LINE
  5
2A
100
AcDbEntity
  8
L1_120
  6
CENTER
 62
         1
100
AcDbLine
 10
1182.3221451996
 20
-225.2185500851
 30
0.0
 11
1279.8221451996
 21
-225.2185500851
 31
0.0
  0
LINE
  5
2B
100
AcDbEntity
  8
L1_120
  6
CENTER
 62
         1
100
AcDbLine
 10
1247.7456271867
 20
-182.1712167841
 30
15.6679479861
 11
1214.3986632125
 21
-268.2658833861
 31
-15.6679479861
  0
LINE
  5
2C
100
AcDbEntity
  8
L1_120
  6
CONTINUOUS
 62
         7
100
AcDbLine
 10
1421.5699010289
 20
-237.2909762411
 30
-4.7369789851
 11
1421.5699010289
 21
-270.0261423557
 31
-16.6516050645
  0
LINE
  5
2D
100
AcDbEntity
  8
L1_120
  6
CONTINUOUS
 62
         7
100
AcDbLine
 10
1422.4717840868
 20
-237.2909762411
 30
-4.7369789851
 11
1422.4717840868
 21
-270.0261423463
 31
-16.6516050611
  0
ARC
  5
2E
100
AcDbEntity
  8
L1_120
  6
CONTINUOUS
 62
         7
100
AcDbCircle
 10
1422.6183930364
 20
-259.3007216487
 30
76.7069895068
 40
0.2
210
0.0
220
-0.3420201433256687
230
0.9396926207859084
100
AcDbArc
 50
197.4999999997
 51
270.0459929054
  0
ARC
  5
2F
100
AcDbEntity
  8
L1_120
  6
CONTINUOUS
 62
         7
100
AcDbCircle
 10
1421.4232920886
 20
-259.3007216487
 30
76.7069895068
 40
0.2
210
0.0
220
-0.3420201433256687
230
0.9396926207859084
100
AcDbArc
 50
269.9540070946
 51
342.5000000003
  0
LINE
  5
30
100
AcDbEntity
  8
L1_120
  6
CONTINUOUS
 62
         7
100
AcDbLine
 10
1421.6140354788
 20
-269.9548244471
 30
-16.6256474686
 11
1421.6393557776
 21
-269.8793617469
 31
-16.598181292
  0
ARC
  5
31
100
AcDbEntity
  8
L1_120
  6
CONTINUOUS
 62
         7
100
AcDbCircle
 10
1422.0208425579
 20
-259.4008394002
 30
76.7069895068
 40
0.4
210
0.0
220
-0.3420201433256687
230
0.9396926207859084
100
AcDbArc
 50
17.5000000001
 51
162.4999999999
  0
LINE
  5
32
100
AcDbEntity
  8
L1_120
  6
CONTINUOUS
 62
         7
100
AcDbLine
 10
1422.4276496379
 20
-269.9548244496
 30
-16.6256474695
 11
1422.4023293382
 21
-269.8793617469
 31
-16.598181292
  0
LINE
  5
33
100
AcDbEntity
  8
L1_120
  6
CONTINUOUS
 62
         7
100
AcDbLine
 10
1422.4717840868
 20
-211.2614906453
 30
4.7369789851
 11
1422.4717840868
 21
-178.5263245401
 31
16.6516050611
  0
LINE
  5
34
100
AcDbEntity
  8
L1_120
  6
CONTINUOUS
 62
         7
100
AcDbLine
 10
1421.569901029
 20
-211.2614906453
 30
4.7369789851
 11
1421.569901029
 21
-178.5263245307
 31
16.6516050645
  0
ARC
  5
35
100
AcDbEntity
  8
L1_120
  6
CONTINUOUS
 62
         7
100
AcDbCircle
 10
1422.6183930364
 20
-162.2007215198
 30
76.7069895068
 40
0.2
210
0.0
220
-0.3420201433256687
230
0.9396926207859084
100
AcDbArc
 50
89.9540070946
 51
162.5000000003
  0
ARC
  5
36
100
AcDbEntity
  8
L1_120
  6
CONTINUOUS
 62
         7
100
AcDbCircle
 10
1421.4232920886
 20
-162.2007215198
 30
76.7069895068
 40
0.2
210
0.0
220
-0.3420201433256687
230
0.9396926207859084
100
AcDbArc
 50
17.4999999997
 51
90.0459929054
  0
LINE
  5
37
100
AcDbEntity
  8
L1_120
  6
CONTINUOUS
 62
         7
100
AcDbLine
 10
1421.6140354788
 20
-178.5976424393
 30
16.6256474686
 11
1421.6393557776
 21
-178.6731051395
 31
16.598181292
  0
ARC
  5
38
100
AcDbEntity
  8
L1_120
  6
CONTINUOUS
 62
         7
100
AcDbCircle
 10
1422.0208425579
 20
-162.1006037683
 30
76.7069895068
 40
0.4
210
0.0
220
-0.3420201433256687
230
0.9396926207859084
100
AcDbArc
 50
197.5000000001
 51
342.4999999999
  0
LINE
  5
39
100
AcDbEntity
  8
L1_120
  6
CONTINUOUS
 62
         7
100
AcDbLine
 10
1422.4276496379
 20
-178.5976424369
 30
16.6256474695
 11
1422.4023293382
 21
-178.6731051395
 31
16.598181292
  0
LINE
  5
3A
100
AcDbEntity
  8
L1_120
  6
CONTINUOUS
 62
         7
100
AcDbLine
 10
1419.0208425579
 20
-267.7370171546
 30
-15.8184316288
 11
1419.0208425579
 21
-269.6164023961
 31
-16.5024719155
  0
LINE
  5
3B
100
AcDbEntity
  8
L1_120
  6
CONTINUOUS
 62
         7
100
AcDbLine
 10
1419.5208425579
 20
-270.0862487065
 30
-16.6734819871
 11
1421.4232920886
 21
-270.0862487065
 31
-16.6734819871
  0
LINE
  5
3C
100
AcDbEntity
  8
L1_120
  6
CONTINUOUS
 62
         7
100
AcDbLine
 10
1419.0208425579
 20
-178.9360644903
 30
16.5024719155
 11
1419.0208425579
 21
-180.8154497319
 31
15.8184316288
  0
LINE
  5
3D
100
AcDbEntity
  8
L1_120
  6
CONTINUOUS
 62
         7
100
AcDbLine
 10
1419.5208425579
 20
-178.4662181799
 30
16.6734819871
 11
1421.4232920886
 21
-178.4662181799
 31
16.6734819871
  0
LINE
  5
3E
100
AcDbEntity
  8
L1_120
  6
CONTINUOUS
 62
         7
100
AcDbLine
 10
1419.0208425579
 20
-179.8757571111
 30
16.1604517721
 11
1419.0208425579
 21
-268.6767097754
 31
-16.1604517721
  0
LINE
  5
3F
100
AcDbEntity
  8
L1_120
  6
CONTINUOUS
 62
         7
100
AcDbLine
 10
1419.0208425579
 20
-269.6164023961
 30
-16.5024719155
 11
1419.5208425579
 21
-270.0862487065
 31
-16.6734819871
  0
LINE
  5
40
100
AcDbEntity
  8
L1_120
  6
CONTINUOUS
 62
         7
100
AcDbLine
 10
1419.5208425579
 20
-178.4662181799
 30
16.6734819871
 11
1419.0208425579
 21
-178.9360644903
 31
16.5024719155
  0
LINE
  5
41
100
AcDbEntity
  8
L1_120
  6
CONTINUOUS
 62
         4
100
AcDbLine
 10
1419.5208425579
 20
-270.0862487065
 30
-16.6734819871
 11
1419.5208425579
 21
-237.2909762411
 31
-4.7369789851
  0
LINE
  5
42
100
AcDbEntity
  8
L1_120
  6
CONTINUOUS
 62
         4
100
AcDbLine
 10
1419.5208425579
 20
-211.2614906453
 30
4.7369789851
 11
1419.5208425579
 21
-178.4662181799
 31
16.6734819871
  0
CIRCLE
  5
43
100
AcDbEntity
  8
L1_120
  6
CONTINUOUS
 62
         7
100
AcDbCircle
 10
1428.6008425579
 20
-240.0497157361
 30
76.7069895068
 40
1.5320888862
210
0.0
220
-0.3420201433256687
230
0.9396926207859084
  0
CIRCLE
  5
44
100
AcDbEntity
  8
L1_120
  6
CONTINUOUS
 62
         7
100
AcDbCircle
 10
1428.6008425579
 20
-230.014145136
 30
76.7069895068
 40
1.8126155741
210
0.0
220
-0.3420201433256687
230
0.9396926207859084
  0
CIRCLE
  5
45
100
AcDbEntity
  8
L1_120
  6
CONTINUOUS
 62
         7
100
AcDbCircle
 10
1428.6008425579
 20
-191.4872980325
 30
76.7069895068
 40
1.8126155741
210
0.0
220
-0.3420201433256687
230
0.9396926207859084
  0
CIRCLE
  5
46
100
AcDbEntity
  8
L1_120
  6
CONTINUOUS
 62
         7
100
AcDbCircle
 10
1428.6008425579
 20
-181.4517274324
 30
76.7069895068
 40
1.5320888862
210
0.0
220
-0.3420201433256687
230
0.9396926207859084
  0
LINE
  5
47
100
AcDbEntity
  8
L1_120
  6
CONTINUOUS
 62
         4
100
AcDbLine
 10
1436.1008425579
 20
-270.0862487065
 30
-16.6734819871
 11
1436.1008425579
 21
-237.2909762411
 31
-4.7369789851
  0
LINE
  5
48
100
AcDbEntity
  8
L1_120
  6
CONTINUOUS
 62
         4
100
AcDbLine
 10
1436.1008425579
 20
-211.2614906453
 30
4.7369789851
 11
1436.1008425579
 21
-178.4662181799
 31
16.6734819871
  0
LINE
  5
49
100
AcDbEntity
  8
L1_120
  6
CENTER
 62
         1
100
AcDbLine
 10
1428.6008425579
 20
-172.5881934151
 30
18.8129080378
 11
1428.6008425579
 21
-275.9570312135
 31
-18.8102720715
  0
LINE
  5
4A
100
AcDbEntity
  8
L1_120
  6
CONTINUOUS
 62
         7
100
AcDbLine
 10
1432.1371129567
 20
-270.0862487065
 30
-16.6734819871
 11
1435.1008425579
 21
-270.0862487065
 31
-16.6734819871
  0
ARC
  5
4B
100
AcDbEntity
  8
L1_120
  6
CONTINUOUS
 62
         7
100
AcDbCircle
 10
1430.0442182308
 20
-256.8757215843
 30
76.7069895068
 40
0.5
210
0.0
220
-0.3420201433256687
230
0.9396926207859084
100
AcDbArc
 50
30.0
 51
90.0
  0
LINE
  5
4C
100
AcDbEntity
  8
L1_120
  6
CONTINUOUS
 62
         7
100
AcDbLine
 10
1426.724454183
 20
-267.3846324218
 30
-15.6901740751
 11
1425.0645721591
 21
-270.0862487065
 31
-16.6734819871
  0
LINE
  5
4D
100
AcDbEntity
  8
L1_120
  6
CONTINUOUS
 62
         7
100
AcDbLine
 10
1422.6183930364
 20
-270.0862487065
 30
-16.6734819871
 11
1425.0645721591
 21
-270.0862487065
 31
-16.6734819871
  0
ARC
  5
4E
100
AcDbEntity
  8
L1_120
  6
CONTINUOUS
 62
         7
100
AcDbCircle
 10
1427.1574668849
 20
-256.8757215843
 30
76.7069895068
 40
0.5
210
0.0
220
-0.3420201433256687
230
0.9396926207859084
100
AcDbArc
 50
90.0
 51
150.0
  0
LINE
  5
4F
100
AcDbEntity
  8
L1_120
  6
CONTINUOUS
 62
         7
100
AcDbLine
 10
1427.1574668849
 20
-267.1497092666
 30
-15.6046690392
 11
1430.0442182308
 21
-267.1497092666
 31
-15.6046690392
  0
LINE
  5
50
100
AcDbEntity
  8
L1_120
  6
CENTER
 62
         1
100
AcDbLine
 10
1424.2898372993
 20
-270.9084797497
 30
-16.9727496125
 11
1432.6986718677
 21
-270.9084797497
 31
-16.9727496125
  0
LINE
  5
51
100
AcDbEntity
  8
L1_120
  6
CONTINUOUS
 62
         7
100
AcDbLine
 10
1430.4772309327
 20
-267.3846324218
 30
-15.6901740751
 11
1432.1371129567
 21
-270.0862487065
 31
-16.6734819871
  0
LINE
  5
52
100
AcDbEntity
  8
L1_120
  6
CONTINUOUS
 62
         7
100
AcDbLine
 10
1432.1371129567
 20
-178.4662181799
 30
16.6734819871
 11
1435.1008425579
 21
-178.4662181799
 31
16.6734819871
  0
ARC
  5
53
100
AcDbEntity
  8
L1_120
  6
CONTINUOUS
 62
         7
100
AcDbCircle
 10
1430.0442182308
 20
-164.6257215843
 30
76.7069895068
 40
0.5
210
0.0
220
-0.3420201433256687
230
0.9396926207859084
100
AcDbArc
 50
270.0
 51
330.0
  0
LINE
  5
54
100
AcDbEntity
  8
L1_120
  6
CONTINUOUS
 62
         7
100
AcDbLine
 10
1426.724454183
 20
-181.1678344647
 30
15.6901740751
 11
1425.0645721591
 21
-178.4662181799
 31
16.6734819871
  0
ARC
  5
55
100
AcDbEntity
  8
L1_120
  6
CONTINUOUS
 62
         7
100
AcDbCircle
 10
1427.1574668849
 20
-164.6257215843
 30
76.7069895068
 40
0.5
210
0.0
220
-0.3420201433256687
230
0.9396926207859084
100
AcDbArc
 50
210.0
 51
270.0
  0
LINE
  5
56
100
AcDbEntity
  8
L1_120
  6
CONTINUOUS
 62
         7
100
AcDbLine
 10
1422.6183930364
 20
-178.4662181799
 30
16.6734819871
 11
1425.0645721591
 21
-178.4662181799
 31
16.6734819871
  0
LINE
  5
57
100
AcDbEntity
  8
L1_120
  6
CONTINUOUS
 62
         7
100
AcDbLine
 10
1427.1574668849
 20
-181.4027576199
 30
15.6046690392
 11
1430.0442182308
 21
-181.4027576199
 31
15.6046690392
  0
LINE
  5
58
100
AcDbEntity
  8
L1_120
  6
CONTINUOUS
 62
         7
100
AcDbLine
 10
1430.4772309327
 20
-181.1678344647
 30
15.6901740751
 11
1432.1371129567
 21
-178.4662181799
 31
16.6734819871
  0
LINE
  5
59
100
AcDbEntity
  8
L1_120
  6
CONTINUOUS
 62
         7
100
AcDbLine
 10
1436.6008425579
 20
-179.8757571111
 30
16.1604517721
 11
1436.6008425579
 21
-268.6767097754
 31
-16.1604517721
  0
LINE
  5
5A
100
AcDbEntity
  8
L1_120
  6
CONTINUOUS
 62
         7
100
AcDbLine
 10
1436.6008425579
 20
-269.6164023961
 30
-16.5024719155
 11
1436.1008425579
 21
-270.0862487065
 31
-16.6734819871
  0
LINE
  5
5B
100
AcDbEntity
  8
L1_120
  6
CONTINUOUS
 62
         7
100
AcDbLine
 10
1436.1008425579
 20
-178.4662181799
 30
16.6734819871
 11
1436.6008425579
 21
-178.9360644903
 31
16.5024719155
  0
LINE
  5
5C
100
AcDbEntity
  8
L1_120
  6
CONTINUOUS
 62
         7
100
AcDbLine
 10
1434.1008425579
 20
-178.4662181799
 30
16.6734819871
 11
1436.1008425579
 21
-178.4662181799
 31
16.6734819871
  0
LINE
  5
5D
100
AcDbEntity
  8
L1_120
  6
CONTINUOUS
 62
         7
100
AcDbLine
 10
1436.6008425579
 20
-178.9360644903
 30
16.5024719155
 11
1436.6008425579
 21
-190.9876223519
 31
12.1160635773
  0
LINE
  5
5E
100
AcDbEntity
  8
L1_120
  6
CONTINUOUS
 62
         7
100
AcDbLine
 10
1434.1008425579
 20
-270.0862487065
 30
-16.6734819871
 11
1436.1008425579
 21
-270.0862487065
 31
-16.6734819871
  0
LINE
  5
5F
100
AcDbEntity
  8
L1_120
  6
CONTINUOUS
 62
         7
100
AcDbLine
 10
1436.6008425579
 20
-257.5648445346
 30
-12.1160635773
 11
1436.6008425579
 21
-269.6164023961
 31
-16.5024719155
  0
LINE
  5
60
100
AcDbEntity
  8
L1_120
  6
CONTINUOUS
 62
         7
100
AcDbLine
 10
1425.0645721591
 20
-178.4662181799
 30
16.6734819871
 11
1425.0645721591
 21
-211.2614906453
 31
4.7369789851
  0
LINE
  5
61
100
AcDbEntity
  8
L1_120
  6
CONTINUOUS
 62
         7
100
AcDbLine
 10
1426.7258425579
 20
-181.1700798241
 30
15.6893568311
 11
1426.7258425579
 21
-212.2200656046
 31
4.3880862326
  0
LINE
  5
62
100
AcDbEntity
  8
L1_120
  6
CONTINUOUS
 62
         7
100
AcDbLine
 10
1430.4758425579
 20
-181.1700798241
 30
15.6893568311
 11
1430.4758425579
 21
-212.2200656046
 31
4.3880862326
  0
LINE
  5
63
100
AcDbEntity
  8
L1_120
  6
CONTINUOUS
 62
         7
100
AcDbLine
 10
1432.1371129567
 20
-178.4662181799
 30
16.6734819871
 11
1432.1371129567
 21
-211.2614906453
 31
4.7369789851
  0
LINE
  5
64
100
AcDbEntity
  8
L1_120
  6
CONTINUOUS
 62
         7
100
AcDbLine
 10
1436.5008425579
 20
-211.2614906453
 30
4.7369789851
 11
1435.4807483929
 21
-212.2200656046
 31
4.3880862326
  0
LINE
  5
65
100
AcDbEntity
  8
L1_120
  6
CONTINUOUS
 62
         7
100
AcDbLine
 10
1430.4758425579
 20
-212.2200656046
 30
4.3880862326
 11
1432.1371129567
 21
-211.2614906453
 31
4.7369789851
  0
LINE
  5
66
100
AcDbEntity
  8
L1_120
  6
CONTINUOUS
 62
         7
100
AcDbLine
 10
1435.4807483929
 20
-212.2200656046
 30
4.3880862326
 11
1419.0208425579
 21
-212.2200656046
 31
4.3880862326
  0
LINE
  5
67
100
AcDbEntity
  8
L1_120
  6
CONTINUOUS
 62
         7
100
AcDbLine
 10
1435.4807483929
 20
-212.2200656046
 30
4.3880862326
 11
1421.7209367228
 21
-212.2200656046
 31
4.3880862326
  0
LINE
  5
68
100
AcDbEntity
  8
L1_120
  6
CONTINUOUS
 62
         7
100
AcDbLine
 10
1425.0645721591
 20
-211.2614906453
 30
4.7369789851
 11
1419.0208425579
 21
-211.2614906453
 31
4.7369789851
  0
LINE
  5
69
100
AcDbEntity
  8
L1_120
  6
CONTINUOUS
 62
         7
100
AcDbLine
 10
1425.0645721591
 20
-211.2614906453
 30
4.7369789851
 11
1426.7258425579
 21
-212.2200656046
 31
4.3880862326
  0
LINE
  5
6A
100
AcDbEntity
  8
L1_120
  6
CONTINUOUS
 62
         7
100
AcDbLine
 10
1436.6008425579
 20
-211.2614906453
 30
4.7369789851
 11
1432.1371129567
 21
-211.2614906453
 31
4.7369789851
  0
LINE
  5
6B
100
AcDbEntity
  8
L1_120
  6
CONTINUOUS
 62
         7
100
AcDbLine
 10
1425.0645721591
 20
-237.2909762411
 30
-4.7369789851
 11
1425.0645721591
 21
-270.0862487065
 31
-16.6734819871
  0
LINE
  5
6C
100
AcDbEntity
  8
L1_120
  6
CONTINUOUS
 62
         7
100
AcDbLine
 10
1426.7258425579
 20
-236.3324012818
 30
-4.3880862326
 11
1426.7258425579
 21
-267.3823870624
 31
-15.6893568311
  0
LINE
  5
6D
100
AcDbEntity
  8
L1_120
  6
CONTINUOUS
 62
         7
100
AcDbLine
 10
1430.4758425579
 20
-236.3324012818
 30
-4.3880862326
 11
1430.4758425579
 21
-267.3823870624
 31
-15.6893568311
  0
LINE
  5
6E
100
AcDbEntity
  8
L1_120
  6
CONTINUOUS
 62
         7
100
AcDbLine
 10
1432.1371129567
 20
-237.2909762411
 30
-4.7369789851
 11
1432.1371129567
 21
-270.0862487065
 31
-16.6734819871
  0
LINE
  5
6F
100
AcDbEntity
  8
L1_120
  6
CONTINUOUS
 62
         7
100
AcDbLine
 10
1436.5008425579
 20
-237.2909762411
 30
-4.7369789851
 11
1435.4807483929
 21
-236.3324012818
 31
-4.3880862326
  0
LINE
  5
70
100
AcDbEntity
  8
L1_120
  6
CONTINUOUS
 62
         7
100
AcDbLine
 10
1430.4758425579
 20
-236.3324012818
 30
-4.3880862326
 11
1432.1371129567
 21
-237.2909762411
 31
-4.7369789851
  0
LINE
  5
71
100
AcDbEntity
  8
L1_120
  6
CONTINUOUS
 62
         7
100
AcDbLine
 10
1435.4807483929
 20
-236.3324012818
 30
-4.3880862326
 11
1419.0208425579
 21
-236.3324012818
 31
-4.3880862326
  0
LINE
  5
72
100
AcDbEntity
  8
L1_120
  6
CONTINUOUS
 62
         7
100
AcDbLine
 10
1425.0645721591
 20
-237.2909762411
 30
-4.7369789851
 11
1426.7258425579
 21
-236.3324012818
 31
-4.3880862326
  0
LINE
  5
73
100
AcDbEntity
  8
L1_120
  6
CONTINUOUS
 62
         7
100
AcDbLine
 10
1425.0645721591
 20
-237.2909762411
 30
-4.7369789851
 11
1419.0208425579
 21
-237.2909762411
 31
-4.7369789851
  0
LINE
  5
74
100
AcDbEntity
  8
L1_120
  6
CONTINUOUS
 62
         7
100
AcDbLine
 10
1436.6008425579
 20
-237.2909762411
 30
-4.7369789851
 11
1432.1371129567
 21
-237.2909762411
 31
-4.7369789851
  0
CIRCLE
  5
75
100
AcDbEntity
  8
L1_120
  6
CONTINUOUS
 62
         7
100
AcDbCircle
 10
1428.6008425579
 20
-210.7468680594
 30
76.7069895068
 40
4.76
210
0.0
220
-0.3420201433256687
230
0.9396926207859084
  0
LINE
  5
76
100
AcDbEntity
  8
L1_120
  6
CONTINUOUS
 62
         7
100
AcDbLine
 10
1418.0151234302
 20
-257.5259675498
 30
-11.9707050164
 11
1418.2208425579
 21
-257.5259675498
 31
-11.9707050164
  0
ARC
  5
77
100
AcDbEntity
  8
L1_120
  6
CONTINUOUS
 62
         7
100
AcDbCircle
 10
1418.2208425579
 20
-246.8894736127
 30
76.830285162
 40
0.8
210
0.0
220
-0.3420201433256687
230
0.9396926207859084
100
AcDbArc
 50
0.0
 51
90.0
  0
LINE
  5
78
100
AcDbEntity
  8
L1_120
  6
CONTINUOUS
 62
         7
100
AcDbLine
 10
1418.0151234302
 20
-257.5259675498
 30
-11.9707050164
 11
1418.0151234302
 21
-191.7474840948
 31
11.9707050164
  0
ARC
  5
79
100
AcDbEntity
  8
L1_120
  6
CONTINUOUS
 62
         7
100
AcDbCircle
 10
1418.2208425579
 20
-175.2894736127
 30
76.830285162
 40
0.8
210
0.0
220
-0.3420201433256687
230
0.9396926207859084
100
AcDbArc
 50
270.0
 51
360.0
  0
LINE
  5
7A
100
AcDbEntity
  8
L1_120
  6
CONTINUOUS
 62
         7
100
AcDbLine
 10
1418.0151234302
 20
-191.7474840948
 30
11.9707050164
 11
1418.2208425579
 21
-191.7474840948
 31
11.9707050164
  0
LINE
  5
7B
100
AcDbEntity
  8
L1_120
  6
CONTINUOUS
 62
         7
100
AcDbLine
 10
1419.0208425579
 20
-268.0975095336
 30
-15.8184316288
 11
1419.0208425579
 21
-269.9768947752
 31
-16.5024719155
  0
LINE
  5
7C
100
AcDbEntity
  8
L1_120
  6
CENTER
 62
         1
100
AcDbLine
 10
1417.5008425579
 20
-187.3074364616
 30
13.5867501936
 11
1417.5008425579
 21
-260.5997531805
 31
-13.0894714925
  0
LINE
  5
7D
100
AcDbEntity
  8
L1_120
  6
CONTINUOUS
 62
         7
100
AcDbLine
 10
1419.0208425579
 20
-269.9768947752
 30
-16.5024719155
 11
1419.5208425579
 21
-270.4467410856
 31
-16.6734819871
  0
LINE
  5
7E
100
AcDbEntity
  8
L1_120
  6
CONTINUOUS
 62
         4
100
AcDbLine
 10
1419.5208425579
 20
-270.4467410856
 30
-16.6734819871
 11
1419.5208425579
 21
-237.6514686202
 31
-4.7369789851
  0
LINE
  5
7F
100
AcDbEntity
  8
L1_120
  6
CONTINUOUS
 62
         7
100
AcDbLine
 10
1315.9008425579
 20
-207.7726865347
 30
6.1380083302
 11
1315.9008425579
 21
-241.5007651099
 31
-6.1380083302
  0
LINE
  5
80
100
AcDbEntity
  8
L1_120
  6
CONTINUOUS
 62
         7
100
AcDbLine
 10
1418.063496447
 20
-191.7408550664
 30
11.9731177854
 11
1318.0400719993
 21
-205.4480448897
 31
6.9841086943
  0
LINE
  5
81
100
AcDbEntity
  8
L1_120
  6
CONTINUOUS
 62
         7
100
AcDbLine
 10
1418.0151234302
 20
-257.5259675498
 30
-11.9707050164
 11
1318.0400719993
 21
-243.8254067549
 31
-6.9841086943
  0
LINE
  5
82
100
AcDbEntity
  8
L1_120
  6
CONTINUOUS
 62
         7
100
AcDbLine
 10
1315.9008425579
 20
-207.7726865347
 30
6.1380083302
 11
1315.9008425579
 21
-241.5007651099
 31
-6.1380083302
  0
ARC
  5
83
100
AcDbEntity
  8
L1_120
  6
CONTINUOUS
 62
         7
100
AcDbCircle
 10
1318.4008425579
 20
-193.1431378487
 30
76.830285162
 40
2.5
210
0.0
220
-0.3420201433256687
230
0.9396926207859084
100
AcDbArc
 50
98.297222
 51
180.0
  0
ARC
  5
84
100
AcDbEntity
  8
L1_120
  6
CONTINUOUS
 62
         7
100
AcDbCircle
 10
1318.4008425579
 20
-229.0358093767
 30
76.830285162
 40
2.5
210
0.0
220
-0.3420201433256687
230
0.9396926207859084
100
AcDbArc
 50
180.0
 51
261.702778
  0
LINE
  5
85
100
AcDbEntity
  8
L1_120
  6
CONTINUOUS
 62
         5
100
AcDbLine
 10
1360.5508425579
 20
-363.540322767
 30
-9.2345438698
 11
1366.9508425579
 21
-362.0333766739
 31
-8.6860603473
  0
LINE
  5
86
100
AcDbEntity
  8
L1_120
  6
CONTINUOUS
 62
         5
100
AcDbLine
 10
1360.5508425579
 20
-340.9876998681
 30
-1.02606043
 11
1366.9508425579
 21
-342.4946459612
 31
-1.5745439525
  0
LINE
  5
87
100
AcDbEntity
  8
L1_120
  6
CONTINUOUS
 62
         7
100
AcDbLine
 10
1360.5508425579
 20
-340.9876998681
 30
-1.02606043
 11
1360.5508425579
 21
-363.540322767
 31
-9.2345438698
  0
LINE
  5
88
100
AcDbEntity
  8
L1_120
  6
CONTINUOUS
 62
         7
100
AcDbLine
 10
1324.3201865194
 20
-362.0333766739
 30
-8.6860603473
 11
1324.3201865194
 21
-342.4946459612
 31
-1.5745439525
  0
LINE
  5
89
100
AcDbEntity
  8
L1_120
  6
CONTINUOUS
 62
         7
100
AcDbLine
 10
1322.1336852703
 20
-364.088015763
 30
-9.4338878179
 11
1324.3201865194
 21
-362.0333766739
 31
-8.6860603473
  0
ARC
  5
8A
100
AcDbEntity
  8
L1_120
  6
CONTINUOUS
 62
         7
100
AcDbCircle
 10
1321.8508425579
 20
-345.0745586802
 30
115.6604805667
 40
0.4
210
0.0
220
-0.3420201433256687
230
0.9396926207859084
100
AcDbArc
 50
270.0
 51
315.0
  0
ARC
  5
8B
100
AcDbEntity
  8
L1_120
  6
CONTINUOUS
 62
         7
100
AcDbCircle
 10
1317.4008425579
 20
-346.7745586802
 30
115.6604805667
 40
1.5
210
0.0
220
-0.3420201433256687
230
0.9396926207859084
100
AcDbArc
 50
90.0
 51
154.1580672375
  0
LINE
  5
8C
100
AcDbEntity
  8
L1_120
  6
CONTINUOUS
 62
         7
100
AcDbLine
 10
1320.9972527194
 20
-364.1981076015
 30
-9.4739579701
 11
1320.2508425579
 21
-364.0101690774
 31
-9.4055539415
  0
LINE
  5
8D
100
AcDbEntity
  8
L1_120
  6
CONTINUOUS
 62
         7
100
AcDbLine
 10
1320.9972527194
 20
-364.1981076015
 30
-9.4739579701
 11
1321.8508425579
 21
-364.1981076015
 31
-9.4739579701
  0
LINE
  5
8E
100
AcDbEntity
  8
L1_120
  6
CONTINUOUS
 62
         7
100
AcDbLine
 10
1317.4008425579
 20
-364.0101690774
 30
-9.4055539415
 11
1320.2508425579
 21
-364.0101690774
 31
-9.4055539415
  0
LINE
  5
8F
100
AcDbEntity
  8
L1_120
  6
CONTINUOUS
 62
         7
100
AcDbLine
 10
1322.1336852703
 20
-340.4400068721
 30
-0.8267164819
 11
1324.3201865194
 21
-342.4946459612
 31
-1.5745439525
  0
ARC
  5
90
100
AcDbEntity
  8
L1_120
  6
CONTINUOUS
 62
         7
100
AcDbCircle
 10
1317.4008425579
 20
-318.7745586802
 30
115.6604805667
 40
1.5
210
0.0
220
-0.3420201433256687
230
0.9396926207859084
100
AcDbArc
 50
205.8419327625
 51
270.0
  0
LINE
  5
91
100
AcDbEntity
  8
L1_120
  6
CONTINUOUS
 62
         7
100
AcDbLine
 10
1320.9972527194
 20
-340.3299150336
 30
-0.7866463297
 11
1320.2508425579
 21
-340.5178535577
 31
-0.8550503583
  0
ARC
  5
92
100
AcDbEntity
  8
L1_120
  6
CONTINUOUS
 62
         7
100
AcDbCircle
 10
1321.8508425579
 20
-320.4745586802
 30
115.6604805667
 40
0.4
210
0.0
220
-0.3420201433256687
230
0.9396926207859084
100
AcDbArc
 50
45.0
 51
90.0
  0
LINE
  5
93
100
AcDbEntity
  8
L1_120
  6
CONTINUOUS
 62
         7
100
AcDbLine
 10
1320.2508425579
 20
-364.0101690774
 30
-9.4055539415
 11
1320.2508425579
 21
-340.5178535577
 31
-0.8550503583
  0
LINE
  5
94
100
AcDbEntity
  8
L1_120
  6
CONTINUOUS
 62
         7
100
AcDbLine
 10
1320.9972527194
 20
-340.3299150336
 30
-0.7866463297
 11
1321.8508425579
 21
-340.3299150336
 31
-0.7866463297
  0
LINE
  5
95
100
AcDbEntity
  8
L1_120
  6
CONTINUOUS
 62
         7
100
AcDbLine
 10
1322.2508425579
 20
-363.9779239244
 30
-9.3938176656
 11
1322.2508425579
 21
-340.5500987107
 31
-0.8667866342
  0
LINE
  5
96
100
AcDbEntity
  8
L1_120
  6
CONTINUOUS
 62
         5
100
AcDbLine
 10
1322.7165279828
 20
-340.9876998681
 30
-1.02606043
 11
1360.5508425579
 21
-340.9876998681
 31
-1.02606043
  0
LINE
  5
97
100
AcDbEntity
  8
L1_120
  6
CONTINUOUS
 62
         5
100
AcDbLine
 10
1322.7165279828
 20
-363.540322767
 30
-9.2345438698
 11
1360.5508425579
 21
-363.540322767
 31
-9.2345438698
  0
LINE
  5
98
100
AcDbEntity
  8
L1_120
  6
CONTINUOUS
 62
         7
100
AcDbLine
 10
1317.4008425579
 20
-340.5178535577
 30
-0.8550503583
 11
1320.2508425579
 21
-340.5178535577
 31
-0.8550503583
  0
LINE
  5
99
100
AcDbEntity
  8
L1_120
  6
CENTER
 62
         1
100
AcDbLine
 10
1221.7134654464
 20
-263.0176768251
 30
-13.7577570146
 11
1212.3165392385
 21
-259.8037387767
 31
-12.5879792302
  0
POLYLINE
  5
9B
100
AcDbEntity
  8
L1_120
  6
CONTINUOUS
 62
         7
100
AcDb2dPolyline
 66
         1
 10
0.0
 20
0.0
 30
77.0292807797
 70
         2
210
0.0
220
-0.3420201433256687
230
0.9396926207859084
  0
VERTEX
  5
9D
100
AcDbEntity
  8
L1_120
  6
CONTINUOUS
 62
         7
100
AcDbVertex
100
AcDb2dVertex
 10
1218.2120728441
 20
-246.8621751854
 30
77.0292807797
 70
         1
  0
VERTEX
  5
9F
100
AcDbEntity
  8
L1_120
  6
CONTINUOUS
 62
         7
100
AcDbVertex
100
AcDb2dVertex
 10
1217.8320717794
 20
-246.7692038404
 30
77.0292807797
 70
         1
  0
VERTEX
  5
A1
100
AcDbEntity
  8
L1_120
  6
CONTINUOUS
 62
         7
100
AcDbVertex
100
AcDb2dVertex
 10
1217.655003112
 20
-246.7542023426
 30
77.0292807797
 70
         1
  0
VERTEX
  5
A3
100
AcDbEntity
  8
L1_120
  6
CONTINUOUS
 62
         7
100
AcDbVertex
100
AcDb2dVertex
 10
1217.4703758419
 20
-246.756035482
 30
77.0292807797
 70
         1
  0
VERTEX
  5
A5
100
AcDbEntity
  8
L1_120
  6
CONTINUOUS
 62
         7
100
AcDbVertex
100
AcDb2dVertex
 10
1217.2793689923
 20
-246.7758725331
 30
77.0292807797
 70
         1
  0
VERTEX
  5
A7
100
AcDbEntity
  8
L1_120
  6
CONTINUOUS
 62
         7
100
AcDbVertex
100
AcDb2dVertex
 10
1217.0833842646
 20
-246.8146288044
 30
77.0292807797
 70
         1
  0
VERTEX
  5
A9
100
AcDbEntity
  8
L1_120
  6
CONTINUOUS
 62
         7
100
AcDbVertex
100
AcDb2dVertex
 10
1216.8840216325
 20
-246.8729106636
 30
77.0292807797
 70
         1
  0
VERTEX
  5
AB
100
AcDbEntity
  8
L1_120
  6
CONTINUOUS
 62
         7
100
AcDbVertex
100
AcDb2dVertex
 10
1216.6830424001
 20
-246.9509700242
 30
77.0292807797
 70
         1
  0
VERTEX
  5
AD
100
AcDbEntity
  8
L1_120
  6
CONTINUOUS
 62
         7
100
AcDbVertex
100
AcDb2dVertex
 10
1216.4823208734
 20
-247.0486725865
 30
77.0292807797
 70
         1
  0
VERTEX
  5
AF
100
AcDbEntity
  8
L1_120
  6
CONTINUOUS
 62
         7
100
AcDbVertex
100
AcDb2dVertex
 10
1216.2837870034
 20
-247.1654833431
 30
77.0292807797
 70
         1
  0
VERTEX
  5
B1
100
AcDbEntity
  8
L1_120
  6
CONTINUOUS
 62
         7
100
AcDbVertex
100
AcDb2dVertex
 10
1216.0893634238
 20
-247.3004715566
 30
77.0292807797
 70
         1
  0
VERTEX
  5
B3
100
AcDbEntity
  8
L1_120
  6
CONTINUOUS
 62
         7
100
AcDbVertex
100
AcDb2dVertex
 10
1215.9009010531
 20
-247.4523357395
 30
77.0292807797
 70
         1
  0
VERTEX
  5
B5
100
AcDbEntity
  8
L1_120
  6
CONTINUOUS
 62
         7
100
AcDbVertex
100
AcDb2dVertex
 10
1215.6605722527
 20
-247.6795182901
 30
77.0292807797
 70
         1
  0
VERTEX
  5
B7
100
AcDbEntity
  8
L1_120
  6
CONTINUOUS
 62
         7
100
AcDbVertex
100
AcDb2dVertex
 10
1215.437612173
 20
-247.9294269662
 30
77.0292807797
 70
         1
  0
VERTEX
  5
B9
100
AcDbEntity
  8
L1_120
  6
CONTINUOUS
 62
         7
100
AcDbVertex
100
AcDb2dVertex
 10
1215.2348338188
 20
-248.1968640783
 30
77.0292807797
 70
         1
  0
VERTEX
  5
BB
100
AcDbEntity
  8
L1_120
  6
CONTINUOUS
 62
         7
100
AcDbVertex
100
AcDb2dVertex
 10
1215.0541742516
 20
-248.4764110134
 30
77.0292807797
 70
         1
  0
VERTEX
  5
BD
100
AcDbEntity
  8
L1_120
  6
CONTINUOUS
 62
         7
100
AcDbVertex
100
AcDb2dVertex
 10
1214.8966769774
 20
-248.7627435233
 30
77.0292807797
 70
         1
  0
VERTEX
  5
BF
100
AcDbEntity
  8
L1_120
  6
CONTINUOUS
 62
         7
100
AcDbVertex
100
AcDb2dVertex
 10
1214.7625466823
 20
-249.0508983579
 30
77.0292807797
 70
         1
  0
VERTEX
  5
C1
100
AcDbEntity
  8
L1_120
  6
CONTINUOUS
 62
         7
100
AcDbVertex
100
AcDb2dVertex
 10
1214.6181476197
 20
-249.4331810338
 30
77.0292807797
 70
         1
  0
VERTEX
  5
C3
100
AcDbEntity
  8
L1_120
  6
CONTINUOUS
 62
         7
100
AcDbVertex
100
AcDb2dVertex
 10
1214.512024794
 20
-249.8021756442
 30
77.0292807797
 70
         1
  0
VERTEX
  5
C5
100
AcDbEntity
  8
L1_120
  6
CONTINUOUS
 62
         7
100
AcDbVertex
100
AcDb2dVertex
 10
1214.4400776727
 20
-250.1515386846
 30
77.0292807797
 70
         1
  0
VERTEX
  5
C7
100
AcDbEntity
  8
L1_120
  6
CONTINUOUS
 62
         7
100
AcDbVertex
100
AcDb2dVertex
 10
1214.3975831289
 20
-250.4771657227
 30
77.0292807797
 70
         1
  0
VERTEX
  5
C9
100
AcDbEntity
  8
L1_120
  6
CONTINUOUS
 62
         7
100
AcDbVertex
100
AcDb2dVertex
 10
1214.379689006
 20
-250.7768695161
 30
77.0292807797
 70
         1
  0
VERTEX
  5
CB
100
AcDbEntity
  8
L1_120
  6
CONTINUOUS
 62
         7
100
AcDbVertex
100
AcDb2dVertex
 10
1214.3817618477
 20
-251.0499771298
 30
77.0292807797
 70
         1
  0
VERTEX
  5
CD
100
AcDbEntity
  8
L1_120
  6
CONTINUOUS
 62
         7
100
AcDbVertex
100
AcDb2dVertex
 10
1214.4087751198
 20
-251.3766249816
 30
77.0292807797
 70
         1
  0
VERTEX
  5
CF
100
AcDbEntity
  8
L1_120
  6
CONTINUOUS
 62
         7
100
AcDbVertex
100
AcDb2dVertex
 10
1214.4557251316
 20
-251.6590094297
 30
77.0292807797
 70
         1
  0
VERTEX
  5
D1
100
AcDbEntity
  8
L1_120
  6
CONTINUOUS
 62
         7
100
AcDbVertex
100
AcDb2dVertex
 10
1214.5157076848
 20
-251.9014879502
 30
77.0292807797
 70
         1
  0
VERTEX
  5
D3
100
AcDbEntity
  8
L1_120
  6
CONTINUOUS
 62
         7
100
AcDbVertex
100
AcDb2dVertex
 10
1214.6083761028
 20
-252.1742905325
 30
77.0292807797
 70
         1
  0
VERTEX
  5
D5
100
AcDbEntity
  8
L1_120
  6
CONTINUOUS
 62
         7
100
AcDbVertex
100
AcDb2dVertex
 10
1214.7063307758
 20
-252.3944428758
 30
77.0292807797
 70
         1
  0
VERTEX
  5
D7
100
AcDbEntity
  8
L1_120
  6
CONTINUOUS
 62
         7
100
AcDbVertex
100
AcDb2dVertex
 10
1214.8038523996
 20
-252.5721306008
 30
77.0292807797
 70
         1
  0
VERTEX
  5
D9
100
AcDbEntity
  8
L1_120
  6
CONTINUOUS
 62
         7
100
AcDbVertex
100
AcDb2dVertex
 10
1214.929791495
 20
-252.7604990583
 30
77.0292807797
 70
         1
  0
VERTEX
  5
DB
100
AcDbEntity
  8
L1_120
  6
CONTINUOUS
 62
         7
100
AcDbVertex
100
AcDb2dVertex
 10
1215.0837299316
 20
-252.9461059981
 30
77.0292807797
 70
         1
  0
VERTEX
  5
DD
100
AcDbEntity
  8
L1_120
  6
CONTINUOUS
 62
         7
100
AcDbVertex
100
AcDb2dVertex
 10
1215.2143547741
 20
-253.0747653078
 30
77.0292807797
 70
         1
  0
VERTEX
  5
DF
100
AcDbEntity
  8
L1_120
  6
CONTINUOUS
 62
         7
100
AcDbVertex
100
AcDb2dVertex
 10
1215.3593812726
 20
-253.1931329569
 30
77.0292807797
 70
         1
  0
VERTEX
  5
E1
100
AcDbEntity
  8
L1_120
  6
CONTINUOUS
 62
         7
100
AcDbVertex
100
AcDb2dVertex
 10
1215.5068411973
 20
-253.2915506424
 30
77.0292807797
 70
         1
  0
VERTEX
  5
E3
100
AcDbEntity
  8
L1_120
  6
CONTINUOUS
 62
         7
100
AcDbVertex
100
AcDb2dVertex
 10
1215.6836268891
 20
-253.3848642919
 30
77.0292807797
 70
         1
  0
VERTEX
  5
E5
100
AcDbEntity
  8
L1_120
  6
CONTINUOUS
 62
         7
100
AcDbVertex
100
AcDb2dVertex
 10
1215.8179318408
 20
-253.4400235309
 30
77.0292807797
 70
         1
  0
VERTEX
  5
E7
100
AcDbEntity
  8
L1_120
  6
CONTINUOUS
 62
         7
100
AcDbVertex
100
AcDb2dVertex
 10
1215.8179318408
 20
-253.4400235309
 30
77.0292807797
 70
         1
  0
VERTEX
  5
E9
100
AcDbEntity
  8
L1_120
  6
CONTINUOUS
 62
         7
100
AcDbVertex
100
AcDb2dVertex
 10
1216.1979329055
 20
-253.5329948759
 30
77.0292807797
 70
         1
  0
VERTEX
  5
EB
100
AcDbEntity
  8
L1_120
  6
CONTINUOUS
 62
         7
100
AcDbVertex
100
AcDb2dVertex
 10
1216.3750015728
 20
-253.5479963737
 30
77.0292807797
 70
         1
  0
VERTEX
  5
ED
100
AcDbEntity
  8
L1_120
  6
CONTINUOUS
 62
         7
100
AcDbVertex
100
AcDb2dVertex
 10
1216.559628843
 20
-253.5461632342
 30
77.0292807797
 70
         1
  0
VERTEX
  5
EF
100
AcDbEntity
  8
L1_120
  6
CONTINUOUS
 62
         7
100
AcDbVertex
100
AcDb2dVertex
 10
1216.7506356926
 20
-253.5263261832
 30
77.0292807797
 70
         1
  0
VERTEX
  5
F1
100
AcDbEntity
  8
L1_120
  6
CONTINUOUS
 62
         7
100
AcDbVertex
100
AcDb2dVertex
 10
1216.9466204203
 20
-253.4875699118
 30
77.0292807797
 70
         1
  0
VERTEX
  5
F3
100
AcDbEntity
  8
L1_120
  6
CONTINUOUS
 62
         7
100
AcDbVertex
100
AcDb2dVertex
 10
1217.1459830524
 20
-253.4292880526
 30
77.0292807797
 70
         1
  0
VERTEX
  5
F5
100
AcDbEntity
  8
L1_120
  6
CONTINUOUS
 62
         7
100
AcDbVertex
100
AcDb2dVertex
 10
1217.3469622848
 20
-253.3512286921
 30
77.0292807797
 70
         1
  0
VERTEX
  5
F7
100
AcDbEntity
  8
L1_120
  6
CONTINUOUS
 62
         7
100
AcDbVertex
100
AcDb2dVertex
 10
1217.5476838115
 20
-253.2535261298
 30
77.0292807797
 70
         1
  0
VERTEX
  5
F9
100
AcDbEntity
  8
L1_120
  6
CONTINUOUS
 62
         7
100
AcDbVertex
100
AcDb2dVertex
 10
1217.7462176815
 20
-253.1367153731
 30
77.0292807797
 70
         1
  0
VERTEX
  5
FB
100
AcDbEntity
  8
L1_120
  6
CONTINUOUS
 62
         7
100
AcDbVertex
100
AcDb2dVertex
 10
1217.940641261
 20
-253.0017271597
 30
77.0292807797
 70
         1
  0
VERTEX
  5
FD
100
AcDbEntity
  8
L1_120
  6
CONTINUOUS
 62
         7
100
AcDbVertex
100
AcDb2dVertex
 10
1218.1291036318
 20
-252.8498629768
 30
77.0292807797
 70
         1
  0
VERTEX
  5
FF
100
AcDbEntity
  8
L1_120
  6
CONTINUOUS
 62
         7
100
AcDbVertex
100
AcDb2dVertex
 10
1218.3694324321
 20
-252.6226804262
 30
77.0292807797
 70
         1
  0
VERTEX
  5
101
100
AcDbEntity
  8
L1_120
  6
CONTINUOUS
 62
         7
100
AcDbVertex
100
AcDb2dVertex
 10
1218.5923925119
 20
-252.3727717501
 30
77.0292807797
 70
         1
  0
VERTEX
  5
103
100
AcDbEntity
  8
L1_120
  6
CONTINUOUS
 62
         7
100
AcDbVertex
100
AcDb2dVertex
 10
1218.7951708661
 20
-252.105334638
 30
77.0292807797
 70
         1
  0
VERTEX
  5
105
100
AcDbEntity
  8
L1_120
  6
CONTINUOUS
 62
         7
100
AcDbVertex
100
AcDb2dVertex
 10
1218.9758304333
 20
-251.8257877029
 30
77.0292807797
 70
         1
  0
VERTEX
  5
107
100
AcDbEntity
  8
L1_120
  6
CONTINUOUS
 62
         7
100
AcDbVertex
100
AcDb2dVertex
 10
1219.1333277075
 20
-251.539455193
 30
77.0292807797
 70
         1
  0
VERTEX
  5
109
100
AcDbEntity
  8
L1_120
  6
CONTINUOUS
 62
         7
100
AcDbVertex
100
AcDb2dVertex
 10
1219.2674580026
 20
-251.2513003584
 30
77.0292807797
 70
         1
  0
VERTEX
  5
10B
100
AcDbEntity
  8
L1_120
  6
CONTINUOUS
 62
         7
100
AcDbVertex
100
AcDb2dVertex
 10
1219.4118570652
 20
-250.8690176825
 30
77.0292807797
 70
         1
  0
VERTEX
  5
10D
100
AcDbEntity
  8
L1_120
  6
CONTINUOUS
 62
         7
100
AcDbVertex
100
AcDb2dVertex
 10
1219.5179798908
 20
-250.5000230721
 30
77.0292807797
 70
         1
  0
VERTEX
  5
10F
100
AcDbEntity
  8
L1_120
  6
CONTINUOUS
 62
         7
100
AcDbVertex
100
AcDb2dVertex
 10
1219.5899270121
 20
-250.1506600317
 30
77.0292807797
 70
         1
  0
VERTEX
  5
111
100
AcDbEntity
  8
L1_120
  6
CONTINUOUS
 62
         7
100
AcDbVertex
100
AcDb2dVertex
 10
1219.632421556
 20
-249.8250329936
 30
77.0292807797
 70
         1
  0
VERTEX
  5
113
100
AcDbEntity
  8
L1_120
  6
CONTINUOUS
 62
         7
100
AcDbVertex
100
AcDb2dVertex
 10
1219.6503156789
 20
-249.5253292002
 30
77.0292807797
 70
         1
  0
VERTEX
  5
115
100
AcDbEntity
  8
L1_120
  6
CONTINUOUS
 62
         7
100
AcDbVertex
100
AcDb2dVertex
 10
1219.6482428372
 20
-249.2522215865
 30
77.0292807797
 70
         1
  0
VERTEX
  5
117
100
AcDbEntity
  8
L1_120
  6
CONTINUOUS
 62
         7
100
AcDbVertex
100
AcDb2dVertex
 10
1219.6212295651
 20
-248.9255737347
 30
77.0292807797
 70
         1
  0
VERTEX
  5
119
100
AcDbEntity
  8
L1_120
  6
CONTINUOUS
 62
         7
100
AcDbVertex
100
AcDb2dVertex
 10
1219.5742795532
 20
-248.6431892866
 30
77.0292807797
 70
         1
  0
VERTEX
  5
11B
100
AcDbEntity
  8
L1_120
  6
CONTINUOUS
 62
         7
100
AcDbVertex
100
AcDb2dVertex
 10
1219.5142970001
 20
-248.4007107661
 30
77.0292807797
 70
         1
  0
VERTEX
  5
11D
100
AcDbEntity
  8
L1_120
  6
CONTINUOUS
 62
         7
100
AcDbVertex
100
AcDb2dVertex
 10
1219.4216285821
 20
-248.1279081838
 30
77.0292807797
 70
         1
  0
VERTEX
  5
11F
100
AcDbEntity
  8
L1_120
  6
CONTINUOUS
 62
         7
100
AcDbVertex
100
AcDb2dVertex
 10
1219.3236739091
 20
-247.9077558405
 30
77.0292807797
 70
         1
  0
VERTEX
  5
121
100
AcDbEntity
  8
L1_120
  6
CONTINUOUS
 62
         7
100
AcDbVertex
100
AcDb2dVertex
 10
1219.2261522853
 20
-247.7300681155
 30
77.0292807797
 70
         1
  0
VERTEX
  5
123
100
AcDbEntity
  8
L1_120
  6
CONTINUOUS
 62
         7
100
AcDbVertex
100
AcDb2dVertex
 10
1219.1002131899
 20
-247.541699658
 30
77.0292807797
 70
         1
  0
VERTEX
  5
125
100
AcDbEntity
  8
L1_120
  6
CONTINUOUS
 62
         7
100
AcDbVertex
100
AcDb2dVertex
 10
1218.9462747533
 20
-247.3560927182
 30
77.0292807797
 70
         1
  0
VERTEX
  5
127
100
AcDbEntity
  8
L1_120
  6
CONTINUOUS
 62
         7
100
AcDbVertex
100
AcDb2dVertex
 10
1218.8156499108
 20
-247.2274334085
 30
77.0292807797
 70
         1
  0
VERTEX
  5
129
100
AcDbEntity
  8
L1_120
  6
CONTINUOUS
 62
         7
100
AcDbVertex
100
AcDb2dVertex
 10
1218.6706234123
 20
-247.1090657594
 30
77.0292807797
 70
         1
  0
VERTEX
  5
12B
100
AcDbEntity
  8
L1_120
  6
CONTINUOUS
 62
         7
100
AcDbVertex
100
AcDb2dVertex
 10
1218.5231634876
 20
-247.0106480739
 30
77.0292807797
 70
         1
  0
VERTEX
  5
12D
100
AcDbEntity
  8
L1_120
  6
CONTINUOUS
 62
         7
100
AcDbVertex
100
AcDb2dVertex
 10
1218.3463777958
 20
-246.9173344244
 30
77.0292807797
 70
         1
  0
VERTEX
  5
12F
100
AcDbEntity
  8
L1_120
  6
CONTINUOUS
 62
         7
100
AcDbVertex
100
AcDb2dVertex
 10
1218.2120728441
 20
-246.8621751854
 30
77.0292807797
 70
         1
  0
SEQEND
  5
131
100
AcDbEntity
  8
L1_120
  6
CONTINUOUS
 62
         7
  0
POLYLINE
  5
133
100
AcDbEntity
  8
L1_120
  6
CONTINUOUS
 62
         7
100
AcDb3dPolyline
 66
         1
 10
0.0
 20
0.0
 30
0.0
 70
         8
  0
VERTEX
  5
135
100
AcDbEntity
  8
L1_120
  6
CONTINUOUS
 62
         7
100
AcDbVertex
100
AcDb3dPolylineVertex
 10
1244.3375717432
 20
-186.6342890987
 30
14.0435225102
 70
        32
  0
VERTEX
  5
137
100
AcDbEntity
  8
L1_120
  6
CONTINUOUS
 62
         7
100
AcDbVertex
100
AcDb3dPolylineVertex
 10
1244.3375717432
 20
-186.6342890987
 30
14.0435225102
 70
        32
  0
SEQEND
  5
139
100
AcDbEntity
  8
L1_120
  6
CONTINUOUS
 62
         7
  0
LINE
  5
13A
100
AcDbEntity
  8
L1_120
  6
CENTER
 62
         1
100
AcDbLine
 10
1249.8277511607
 20
-190.6333613935
 30
12.5879792302
 11
1240.4308249528
 21
-187.4194233451
 31
13.7577570146
  0
POLYLINE
  5
13C
100
AcDbEntity
  8
L1_120
  6
CONTINUOUS
 62
         7
100
AcDb2dPolyline
 66
         1
 10
0.0
 20
0.0
 30
77.0292807797
 70
         2
210
0.0
220
-0.3420201433256687
230
0.9396926207859084
  0
VERTEX
  5
13E
100
AcDbEntity
  8
L1_120
  6
CONTINUOUS
 62
         7
100
AcDbVertex
100
AcDb2dVertex
 10
1246.3263585584
 20
-169.8323956272
 30
77.0292807797
 70
         1
  0
VERTEX
  5
140
100
AcDbEntity
  8
L1_120
  6
CONTINUOUS
 62
         7
100
AcDbVertex
100
AcDb2dVertex
 10
1245.9463574937
 20
-169.7394242823
 30
77.0292807797
 70
         1
  0
VERTEX
  5
142
100
AcDbEntity
  8
L1_120
  6
CONTINUOUS
 62
         7
100
AcDbVertex
100
AcDb2dVertex
 10
1245.7692888263
 20
-169.7244227844
 30
77.0292807797
 70
         1
  0
VERTEX
  5
144
100
AcDbEntity
  8
L1_120
  6
CONTINUOUS
 62
         7
100
AcDbVertex
100
AcDb2dVertex
 10
1245.5846615562
 20
-169.7262559239
 30
77.0292807797
 70
         1
  0
VERTEX
  5
146
100
AcDbEntity
  8
L1_120
  6
CONTINUOUS
 62
         7
100
AcDbVertex
100
AcDb2dVertex
 10
1245.3936547066
 20
-169.746092975
 30
77.0292807797
 70
         1
  0
VERTEX
  5
148
100
AcDbEntity
  8
L1_120
  6
CONTINUOUS
 62
         7
100
AcDbVertex
100
AcDb2dVertex
 10
1245.1976699789
 20
-169.7848492463
 30
77.0292807797
 70
         1
  0
VERTEX
  5
14A
100
AcDbEntity
  8
L1_120
  6
CONTINUOUS
 62
         7
100
AcDbVertex
100
AcDb2dVertex
 10
1244.9983073468
 20
-169.8431311055
 30
77.0292807797
 70
         1
  0
VERTEX
  5
14C
100
AcDbEntity
  8
L1_120
  6
CONTINUOUS
 62
         7
100
AcDbVertex
100
AcDb2dVertex
 10
1244.7973281144
 20
-169.921190466
 30
77.0292807797
 70
         1
  0
VERTEX
  5
14E
100
AcDbEntity
  8
L1_120
  6
CONTINUOUS
 62
         7
100
AcDbVertex
100
AcDb2dVertex
 10
1244.5966065877
 20
-170.0188930284
 30
77.0292807797
 70
         1
  0
VERTEX
  5
150
100
AcDbEntity
  8
L1_120
  6
CONTINUOUS
 62
         7
100
AcDbVertex
100
AcDb2dVertex
 10
1244.3980727177
 20
-170.135703785
 30
77.0292807797
 70
         1
  0
VERTEX
  5
152
100
AcDbEntity
  8
L1_120
  6
CONTINUOUS
 62
         7
100
AcDbVertex
100
AcDb2dVertex
 10
1244.2036491381
 20
-170.2706919984
 30
77.0292807797
 70
         1
  0
VERTEX
  5
154
100
AcDbEntity
  8
L1_120
  6
CONTINUOUS
 62
         7
100
AcDbVertex
100
AcDb2dVertex
 10
1244.0151867674
 20
-170.4225561814
 30
77.0292807797
 70
         1
  0
VERTEX
  5
156
100
AcDbEntity
  8
L1_120
  6
CONTINUOUS
 62
         7
100
AcDbVertex
100
AcDb2dVertex
 10
1243.774857967
 20
-170.649738732
 30
77.0292807797
 70
         1
  0
VERTEX
  5
158
100
AcDbEntity
  8
L1_120
  6
CONTINUOUS
 62
         7
100
AcDbVertex
100
AcDb2dVertex
 10
1243.5518978873
 20
-170.8996474081
 30
77.0292807797
 70
         1
  0
VERTEX
  5
15A
100
AcDbEntity
  8
L1_120
  6
CONTINUOUS
 62
         7
100
AcDbVertex
100
AcDb2dVertex
 10
1243.3491195331
 20
-171.1670845202
 30
77.0292807797
 70
         1
  0
VERTEX
  5
15C
100
AcDbEntity
  8
L1_120
  6
CONTINUOUS
 62
         7
100
AcDbVertex
100
AcDb2dVertex
 10
1243.1684599659
 20
-171.4466314553
 30
77.0292807797
 70
         1
  0
VERTEX
  5
15E
100
AcDbEntity
  8
L1_120
  6
CONTINUOUS
 62
         7
100
AcDbVertex
100
AcDb2dVertex
 10
1243.0109626916
 20
-171.7329639651
 30
77.0292807797
 70
         1
  0
VERTEX
  5
160
100
AcDbEntity
  8
L1_120
  6
CONTINUOUS
 62
         7
100
AcDbVertex
100
AcDb2dVertex
 10
1242.8768323966
 20
-172.0211187997
 30
77.0292807797
 70
         1
  0
VERTEX
  5
162
100
AcDbEntity
  8
L1_120
  6
CONTINUOUS
 62
         7
100
AcDbVertex
100
AcDb2dVertex
 10
1242.7324333339
 20
-172.4034014757
 30
77.0292807797
 70
         1
  0
VERTEX
  5
164
100
AcDbEntity
  8
L1_120
  6
CONTINUOUS
 62
         7
100
AcDbVertex
100
AcDb2dVertex
 10
1242.6263105083
 20
-172.7723960861
 30
77.0292807797
 70
         1
  0
VERTEX
  5
166
100
AcDbEntity
  8
L1_120
  6
CONTINUOUS
 62
         7
100
AcDbVertex
100
AcDb2dVertex
 10
1242.554363387
 20
-173.1217591265
 30
77.0292807797
 70
         1
  0
VERTEX
  5
168
100
AcDbEntity
  8
L1_120
  6
CONTINUOUS
 62
         7
100
AcDbVertex
100
AcDb2dVertex
 10
1242.5118688432
 20
-173.4473861645
 30
77.0292807797
 70
         1
  0
VERTEX
  5
16A
100
AcDbEntity
  8
L1_120
  6
CONTINUOUS
 62
         7
100
AcDbVertex
100
AcDb2dVertex
 10
1242.4939747203
 20
-173.747089958
 30
77.0292807797
 70
         1
  0
VERTEX
  5
16C
100
AcDbEntity
  8
L1_120
  6
CONTINUOUS
 62
         7
100
AcDbVertex
100
AcDb2dVertex
 10
1242.496047562
 20
-174.0201975717
 30
77.0292807797
 70
         1
  0
VERTEX
  5
16E
100
AcDbEntity
  8
L1_120
  6
CONTINUOUS
 62
         7
100
AcDbVertex
100
AcDb2dVertex
 10
1242.5230608341
 20
-174.3468454234
 30
77.0292807797
 70
         1
  0
VERTEX
  5
170
100
AcDbEntity
  8
L1_120
  6
CONTINUOUS
 62
         7
100
AcDbVertex
100
AcDb2dVertex
 10
1242.5700108459
 20
-174.6292298715
 30
77.0292807797
 70
         1
  0
VERTEX
  5
172
100
AcDbEntity
  8
L1_120
  6
CONTINUOUS
 62
         7
100
AcDbVertex
100
AcDb2dVertex
 10
1242.6299933991
 20
-174.8717083921
 30
77.0292807797
 70
         1
  0
VERTEX
  5
174
100
AcDbEntity
  8
L1_120
  6
CONTINUOUS
 62
         7
100
AcDbVertex
100
AcDb2dVertex
 10
1242.7226618171
 20
-175.1445109744
 30
77.0292807797
 70
         1
  0
VERTEX
  5
176
100
AcDbEntity
  8
L1_120
  6
CONTINUOUS
 62
         7
100
AcDbVertex
100
AcDb2dVertex
 10
1242.8206164901
 20
-175.3646633177
 30
77.0292807797
 70
         1
  0
VERTEX
  5
178
100
AcDbEntity
  8
L1_120
  6
CONTINUOUS
 62
         7
100
AcDbVertex
100
AcDb2dVertex
 10
1242.9181381139
 20
-175.5423510427
 30
77.0292807797
 70
         1
  0
VERTEX
  5
17A
100
AcDbEntity
  8
L1_120
  6
CONTINUOUS
 62
         7
100
AcDbVertex
100
AcDb2dVertex
 10
1243.0440772093
 20
-175.7307195001
 30
77.0292807797
 70
         1
  0
VERTEX
  5
17C
100
AcDbEntity
  8
L1_120
  6
CONTINUOUS
 62
         7
100
AcDbVertex
100
AcDb2dVertex
 10
1243.1980156459
 20
-175.91632644
 30
77.0292807797
 70
         1
  0
VERTEX
  5
17E
100
AcDbEntity
  8
L1_120
  6
CONTINUOUS
 62
         7
100
AcDbVertex
100
AcDb2dVertex
 10
1243.3286404884
 20
-176.0449857497
 30
77.0292807797
 70
         1
  0
VERTEX
  5
180
100
AcDbEntity
  8
L1_120
  6
CONTINUOUS
 62
         7
100
AcDbVertex
100
AcDb2dVertex
 10
1243.4736669869
 20
-176.1633533987
 30
77.0292807797
 70
         1
  0
VERTEX
  5
182
100
AcDbEntity
  8
L1_120
  6
CONTINUOUS
 62
         7
100
AcDbVertex
100
AcDb2dVertex
 10
1243.6211269116
 20
-176.2617710843
 30
77.0292807797
 70
         1
  0
VERTEX
  5
184
100
AcDbEntity
  8
L1_120
  6
CONTINUOUS
 62
         7
100
AcDbVertex
100
AcDb2dVertex
 10
1243.7979126034
 20
-176.3550847338
 30
77.0292807797
 70
         1
  0
VERTEX
  5
186
100
AcDbEntity
  8
L1_120
  6
CONTINUOUS
 62
         7
100
AcDbVertex
100
AcDb2dVertex
 10
1243.9322175551
 20
-176.4102439728
 30
77.0292807797
 70
         1
  0
VERTEX
  5
188
100
AcDbEntity
  8
L1_120
  6
CONTINUOUS
 62
         7
100
AcDbVertex
100
AcDb2dVertex
 10
1243.9322175551
 20
-176.4102439728
 30
77.0292807797
 70
         1
  0
VERTEX
  5
18A
100
AcDbEntity
  8
L1_120
  6
CONTINUOUS
 62
         7
100
AcDbVertex
100
AcDb2dVertex
 10
1244.3122186198
 20
-176.5032153177
 30
77.0292807797
 70
         1
  0
VERTEX
  5
18C
100
AcDbEntity
  8
L1_120
  6
CONTINUOUS
 62
         7
100
AcDbVertex
100
AcDb2dVertex
 10
1244.4892872871
 20
-176.5182168156
 30
77.0292807797
 70
         1
  0
VERTEX
  5
18E
100
AcDbEntity
  8
L1_120
  6
CONTINUOUS
 62
         7
100
AcDbVertex
100
AcDb2dVertex
 10
1244.6739145573
 20
-176.5163836761
 30
77.0292807797
 70
         1
  0
VERTEX
  5
190
100
AcDbEntity
  8
L1_120
  6
CONTINUOUS
 62
         7
100
AcDbVertex
100
AcDb2dVertex
 10
1244.8649214069
 20
-176.496546625
 30
77.0292807797
 70
         1
  0
VERTEX
  5
192
100
AcDbEntity
  8
L1_120
  6
CONTINUOUS
 62
         7
100
AcDbVertex
100
AcDb2dVertex
 10
1245.0609061346
 20
-176.4577903537
 30
77.0292807797
 70
         1
  0
VERTEX
  5
194
100
AcDbEntity
  8
L1_120
  6
CONTINUOUS
 62
         7
100
AcDbVertex
100
AcDb2dVertex
 10
1245.2602687667
 20
-176.3995084945
 30
77.0292807797
 70
         1
  0
VERTEX
  5
196
100
AcDbEntity
  8
L1_120
  6
CONTINUOUS
 62
         7
100
AcDbVertex
100
AcDb2dVertex
 10
1245.4612479991
 20
-176.321449134
 30
77.0292807797
 70
         1
  0
VERTEX
  5
198
100
AcDbEntity
  8
L1_120
  6
CONTINUOUS
 62
         7
100
AcDbVertex
100
AcDb2dVertex
 10
1245.6619695258
 20
-176.2237465716
 30
77.0292807797
 70
         1
  0
VERTEX
  5
19A
100
AcDbEntity
  8
L1_120
  6
CONTINUOUS
 62
         7
100
AcDbVertex
100
AcDb2dVertex
 10
1245.8605033958
 20
-176.106935815
 30
77.0292807797
 70
         1
  0
VERTEX
  5
19C
100
AcDbEntity
  8
L1_120
  6
CONTINUOUS
 62
         7
100
AcDbVertex
100
AcDb2dVertex
 10
1246.0549269753
 20
-175.9719476016
 30
77.0292807797
 70
         1
  0
VERTEX
  5
19E
100
AcDbEntity
  8
L1_120
  6
CONTINUOUS
 62
         7
100
AcDbVertex
100
AcDb2dVertex
 10
1246.2433893461
 20
-175.8200834187
 30
77.0292807797
 70
         1
  0
VERTEX
  5
1A0
100
AcDbEntity
  8
L1_120
  6
CONTINUOUS
 62
         7
100
AcDbVertex
100
AcDb2dVertex
 10
1246.4837181464
 20
-175.5929008681
 30
77.0292807797
 70
         1
  0
VERTEX
  5
1A2
100
AcDbEntity
  8
L1_120
  6
CONTINUOUS
 62
         7
100
AcDbVertex
100
AcDb2dVertex
 10
1246.7066782262
 20
-175.3429921919
 30
77.0292807797
 70
         1
  0
VERTEX
  5
1A4
100
AcDbEntity
  8
L1_120
  6
CONTINUOUS
 62
         7
100
AcDbVertex
100
AcDb2dVertex
 10
1246.9094565804
 20
-175.0755550798
 30
77.0292807797
 70
         1
  0
VERTEX
  5
1A6
100
AcDbEntity
  8
L1_120
  6
CONTINUOUS
 62
         7
100
AcDbVertex
100
AcDb2dVertex
 10
1247.0901161476
 20
-174.7960081447
 30
77.0292807797
 70
         1
  0
VERTEX
  5
1A8
100
AcDbEntity
  8
L1_120
  6
CONTINUOUS
 62
         7
100
AcDbVertex
100
AcDb2dVertex
 10
1247.2476134218
 20
-174.5096756349
 30
77.0292807797
 70
         1
  0
VERTEX
  5
1AA
100
AcDbEntity
  8
L1_120
  6
CONTINUOUS
 62
         7
100
AcDbVertex
100
AcDb2dVertex
 10
1247.3817437169
 20
-174.2215208003
 30
77.0292807797
 70
         1
  0
VERTEX
  5
1AC
100
AcDbEntity
  8
L1_120
  6
CONTINUOUS
 62
         7
100
AcDbVertex
100
AcDb2dVertex
 10
1247.5261427795
 20
-173.8392381243
 30
77.0292807797
 70
         1
  0
VERTEX
  5
1AE
100
AcDbEntity
  8
L1_120
  6
CONTINUOUS
 62
         7
100
AcDbVertex
100
AcDb2dVertex
 10
1247.6322656051
 20
-173.4702435139
 30
77.0292807797
 70
         1
  0
VERTEX
  5
1B0
100
AcDbEntity
  8
L1_120
  6
CONTINUOUS
 62
         7
100
AcDbVertex
100
AcDb2dVertex
 10
1247.7042127264
 20
-173.1208804735
 30
77.0292807797
 70
         1
  0
VERTEX
  5
1B2
100
AcDbEntity
  8
L1_120
  6
CONTINUOUS
 62
         7
100
AcDbVertex
100
AcDb2dVertex
 10
1247.7467072702
 20
-172.7952534355
 30
77.0292807797
 70
         1
  0
VERTEX
  5
1B4
100
AcDbEntity
  8
L1_120
  6
CONTINUOUS
 62
         7
100
AcDbVertex
100
AcDb2dVertex
 10
1247.7646013931
 20
-172.495549642
 30
77.0292807797
 70
         1
  0
VERTEX
  5
1B6
100
AcDbEntity
  8
L1_120
  6
CONTINUOUS
 62
         7
100
AcDbVertex
100
AcDb2dVertex
 10
1247.7625285515
 20
-172.2224420283
 30
77.0292807797
 70
         1
  0
VERTEX
  5
1B8
100
AcDbEntity
  8
L1_120
  6
CONTINUOUS
 62
         7
100
AcDbVertex
100
AcDb2dVertex
 10
1247.7355152794
 20
-171.8957941766
 30
77.0292807797
 70
         1
  0
VERTEX
  5
1BA
100
AcDbEntity
  8
L1_120
  6
CONTINUOUS
 62
         7
100
AcDbVertex
100
AcDb2dVertex
 10
1247.6885652675
 20
-171.6134097285
 30
77.0292807797
 70
         1
  0
VERTEX
  5
1BC
100
AcDbEntity
  8
L1_120
  6
CONTINUOUS
 62
         7
100
AcDbVertex
100
AcDb2dVertex
 10
1247.6285827143
 20
-171.3709312079
 30
77.0292807797
 70
         1
  0
VERTEX
  5
1BE
100
AcDbEntity
  8
L1_120
  6
CONTINUOUS
 62
         7
100
AcDbVertex
100
AcDb2dVertex
 10
1247.5359142964
 20
-171.0981286256
 30
77.0292807797
 70
         1
  0
VERTEX
  5
1C0
100
AcDbEntity
  8
L1_120
  6
CONTINUOUS
 62
         7
100
AcDbVertex
100
AcDb2dVertex
 10
1247.4379596234
 20
-170.8779762823
 30
77.0292807797
 70
         1
  0
VERTEX
  5
1C2
100
AcDbEntity
  8
L1_120
  6
CONTINUOUS
 62
         7
100
AcDbVertex
100
AcDb2dVertex
 10
1247.3404379996
 20
-170.7002885574
 30
77.0292807797
 70
         1
  0
VERTEX
  5
1C4
100
AcDbEntity
  8
L1_120
  6
CONTINUOUS
 62
         7
100
AcDbVertex
100
AcDb2dVertex
 10
1247.2144989042
 20
-170.5119200999
 30
77.0292807797
 70
         1
  0
VERTEX
  5
1C6
100
AcDbEntity
  8
L1_120
  6
CONTINUOUS
 62
         7
100
AcDbVertex
100
AcDb2dVertex
 10
1247.0605604676
 20
-170.32631316
 30
77.0292807797
 70
         1
  0
VERTEX
  5
1C8
100
AcDbEntity
  8
L1_120
  6
CONTINUOUS
 62
         7
100
AcDbVertex
100
AcDb2dVertex
 10
1246.9299356251
 20
-170.1976538503
 30
77.0292807797
 70
         1
  0
VERTEX
  5
1CA
100
AcDbEntity
  8
L1_120
  6
CONTINUOUS
 62
         7
100
AcDbVertex
100
AcDb2dVertex
 10
1246.7849091266
 20
-170.0792862013
 30
77.0292807797
 70
         1
  0
VERTEX
  5
1CC
100
AcDbEntity
  8
L1_120
  6
CONTINUOUS
 62
         7
100
AcDbVertex
100
AcDb2dVertex
 10
1246.6374492019
 20
-169.9808685157
 30
77.0292807797
 70
         1
  0
VERTEX
  5
1CE
100
AcDbEntity
  8
L1_120
  6
CONTINUOUS
 62
         7
100
AcDbVertex
100
AcDb2dVertex
 10
1246.4606635101
 20
-169.8875548662
 30
77.0292807797
 70
         1
  0
VERTEX
  5
1D0
100
AcDbEntity
  8
L1_120
  6
CONTINUOUS
 62
         7
100
AcDbVertex
100
AcDb2dVertex
 10
1246.3263585584
 20
-169.8323956273
 30
77.0292807797
 70
         1
  0
SEQEND
  5
1D2
100
AcDbEntity
  8
L1_120
  6
CONTINUOUS
 62
         7
  0
LINE
  5
1D3
100
AcDbEntity
  8
L1_120
  6
CONTINUOUS
 62
         7
100
AcDbLine
 10
1268.7721451996
 20
-236.8237539518
 30
-4.2239487701
 11
1269.2721451996
 21
-237.2936002622
 31
-4.3949588417
  0
LINE
  5
1D4
100
AcDbEntity
  8
L1_120
  6
CONTINUOUS
 62
         7
100
AcDbLine
 10
1269.2721451996
 20
-213.143499908
 30
4.3949588417
 11
1268.7721451996
 21
-213.6133462184
 31
4.2239487701
  0
LINE
  5
1D5
100
AcDbEntity
  8
L1_120
  6
CONTINUOUS
 62
         7
100
AcDbLine
 10
1195.0721451996
 20
-213.6133462184
 30
4.2239487701
 11
1194.5721451996
 21
-213.143499908
 31
4.3949588417
  0
LINE
  5
1D6
100
AcDbEntity
  8
L1_120
  6
CONTINUOUS
 62
         7
100
AcDbLine
 10
1194.5721451996
 20
-237.2936002622
 30
-4.3949588417
 11
1195.0721451996
 21
-236.8237539518
 31
-4.2239487701
  0
LINE
  5
1D7
100
AcDbEntity
  8
L1_120
  6
CONTINUOUS
 62
         7
100
AcDbLine
 10
1277.8133475804
 20
-238.233292883
 30
-4.7369789851
 11
1276.8133475804
 21
-237.2936002622
 31
-4.3949588417
  0
LINE
  5
1D8
100
AcDbEntity
  8
L1_120
  6
CONTINUOUS
 62
         7
100
AcDbLine
 10
1276.8133475804
 20
-237.2936002622
 30
-4.3949588417
 11
1269.2721451996
 21
-237.2936002622
 31
-4.3949588417
  0
LINE
  5
1D9
100
AcDbEntity
  8
L1_120
  6
CONTINUOUS
 62
         7
100
AcDbLine
 10
1277.8133475804
 20
-212.2038072872
 30
4.7369789851
 11
1276.8133475804
 21
-213.143499908
 31
4.3949588417
  0
LINE
  5
1DA
100
AcDbEntity
  8
L1_120
  6
CONTINUOUS
 62
         7
100
AcDbLine
 10
1276.8133475804
 20
-213.143499908
 30
4.3949588417
 11
1269.2721451996
 21
-213.143499908
 31
4.3949588417
  0
LINE
  5
1DB
100
AcDbEntity
  8
L1_120
  6
CONTINUOUS
 62
         7
100
AcDbLine
 10
1268.7721451996
 20
-236.8237539518
 30
-4.2239487701
 11
1268.7721451996
 21
-213.6133462184
 31
4.2239487701
  0
LINE
  5
1DC
100
AcDbEntity
  8
L1_120
  6
CONTINUOUS
 62
         7
100
AcDbLine
 10
1185.3309428188
 20
-213.143499908
 30
4.3949588417
 11
1194.5721451996
 21
-213.143499908
 31
4.3949588417
  0
LINE
  5
1DD
100
AcDbEntity
  8
L1_120
  6
CONTINUOUS
 62
         7
100
AcDbLine
 10
1184.3309428188
 20
-212.2038072872
 30
4.7369789851
 11
1185.3309428188
 21
-213.143499908
 31
4.3949588417
  0
LINE
  5
1DE
100
AcDbEntity
  8
L1_120
  6
CONTINUOUS
 62
         7
100
AcDbLine
 10
1184.3309428188
 20
-238.233292883
 30
-4.7369789851
 11
1185.3309428188
 21
-237.2936002622
 31
-4.3949588417
  0
LINE
  5
1DF
100
AcDbEntity
  8
L1_120
  6
CONTINUOUS
 62
         7
100
AcDbLine
 10
1185.3309428188
 20
-237.2936002622
 30
-4.3949588417
 11
1194.5721451996
 21
-237.2936002622
 31
-4.3949588417
  0
LINE
  5
1E0
100
AcDbEntity
  8
L1_120
  6
CONTINUOUS
 62
         7
100
AcDbLine
 10
1195.0721451996
 20
-236.8237539518
 30
-4.2239487701
 11
1195.0721451996
 21
-213.6133462184
 31
4.2239487701
  0
CIRCLE
  5
1E1
100
AcDbEntity
  8
L1_120
  6
CONTINUOUS
 62
         7
100
AcDbCircle
 10
1231.0721451996
 20
-211.6362095791
 30
77.0292807797
 40
12.6589889012
210
0.0
220
-0.3420201433256687
230
0.9396926207859084
  0
ARC
  5
1E2
100
AcDbEntity
  8
L1_120
  6
CONTINUOUS
 62
         4
100
AcDbCircle
 10
1231.0721451996
 20
-211.6362095791
 30
77.0292807797
 40
12.0
210
0.0
220
-0.3420201433256687
230
0.9396926207859084
100
AcDbArc
 50
278.1340859252
 51
549.6704111119
  0
CIRCLE
  5
1E3
100
AcDbEntity
  8
L1_120
  6
CONTINUOUS
 62
         7
100
AcDbCircle
 10
1231.0721451996
 20
-211.6362095791
 30
77.0292807797
 40
10.3963414634
210
0.0
220
-0.3420201433256687
230
0.9396926207859084
  0
CIRCLE
  5
1E4
100
AcDbEntity
  8
L1_120
  6
CONTINUOUS
 62
         7
100
AcDbCircle
 10
1231.0721451996
 20
-211.6362095791
 30
77.0292807797
 40
20.3982925257
210
0.0
220
-0.3420201433256687
230
0.9396926207859084
  0
CIRCLE
  5
1E5
100
AcDbEntity
  8
L1_120
  6
CONTINUOUS
 62
         7
100
AcDbCircle
 10
1231.0721451996
 20
-211.6362095791
 30
77.0292807797
 40
34.925
210
0.0
220
-0.3420201433256687
230
0.9396926207859084
  0
ARC
  5
1E6
100
AcDbEntity
  8
L1_120
  6
CONTINUOUS
 62
         7
100
AcDbCircle
 10
1231.0721451996
 20
-211.6362095791
 30
77.0292807797
 40
48.75
210
0.0
220
-0.3420201433256687
230
0.9396926207859084
100
AcDbArc
 50
196.5052120024
 51
343.4947879976
  0
ARC
  5
1E7
100
AcDbEntity
  8
L1_120
  6
CONTINUOUS
 62
         7
100
AcDbCircle
 10
1231.0721451996
 20
-211.6362095791
 30
77.0292807797
 40
48.75
210
0.0
220
-0.3420201433256687
230
0.9396926207859084
100
AcDbArc
 50
16.5052120024
 51
163.4947879976
  0
LINE
  5
1E8
100
AcDbEntity
  8
L1_120
  6
CONTINUOUS
 62
         4
100
AcDbLine
 10
1451.5528425579
 20
-254.8826630495
 30
-17.4625
 11
1451.5528425579
 21
-194.3907885951
 31
17.4625
  0
ARC
  5
1E9
100
AcDbEntity
  8
L1_120
  6
CONTINUOUS
 62
         7
100
AcDbCircle
 10
1437.1008425579
 20
-229.9661111851
 30
112.3183629111
 40
0.5
210
0.0
220
-0.5
230
0.8660254037844387
100
AcDbArc
 50
90.0
 51
180.0
  0
LINE
  5
1EA
100
AcDbEntity
  8
L1_120
  6
CONTINUOUS
 62
         7
100
AcDbLine
 10
1437.1008425579
 20
-254.8826630495
 30
-17.4625
 11
1451.5528425579
 21
-254.8826630495
 31
-17.4625
  0
LINE
  5
1EB
100
AcDbEntity
  8
L1_120
  6
CONTINUOUS
 62
         7
100
AcDbLine
 10
1437.1008425579
 20
-194.3907885951
 30
17.4625
 11
1451.5528425579
 21
-194.3907885951
 31
17.4625
  0
ARC
  5
1EC
100
AcDbEntity
  8
L1_120
  6
CONTINUOUS
 62
         7
100
AcDbCircle
 10
1437.1008425579
 20
-159.1161111851
 30
112.3183629111
 40
0.5
210
0.0
220
-0.5
230
0.8660254037844387
100
AcDbArc
 50
180.0
 51
270.0
  0
ARC
  5
1ED
100
AcDbEntity
  8
L1_120
  6
CONTINUOUS
 62
         7
100
AcDbCircle
 10
1437.1008425579
 20
-159.1161111851
 30
112.3183629111
 40
0.5
210
0.0
220
-0.5
230
0.8660254037844387
100
AcDbArc
 50
180.0
 51
270.0
  0
LINE
  5
1EE
100
AcDbEntity
  8
L1_120
  6
CONTINUOUS
 62
         7
100
AcDbLine
 10
1451.5528425579
 20
-254.8826630495
 30
-17.4625
 11
1450.5528425579
 21
-254.8826630495
 31
-17.4625
  0
LINE
  5
1EF
100
AcDbEntity
  8
L1_120
  6
CONTINUOUS
 62
         7
100
AcDbLine
 10
1452.5528425579
 20
-254.0166376457
 30
-16.9625
 11
1451.5528425579
 21
-254.8826630495
 31
-17.4625
  0
LINE
  5
1F0
100
AcDbEntity
  8
L1_120
  6
CONTINUOUS
 62
         7
100
AcDbLine
 10
1451.5528425579
 20
-194.3907885951
 30
17.4625
 11
1452.5528425579
 21
-195.2568139989
 31
16.9625
  0
LINE
  5
1F1
100
AcDbEntity
  8
L1_120
  6
CONTINUOUS
 62
         7
100
AcDbLine
 10
1451.5528425579
 20
-194.3907885951
 30
17.4625
 11
1450.5528425579
 21
-194.3907885951
 31
17.4625
  0
LINE
  5
1F2
100
AcDbEntity
  8
L1_120
  6
CONTINUOUS
 62
         7
100
AcDbLine
 10
1452.5528425579
 20
-195.2568139989
 30
16.9625
 11
1452.5528425579
 21
-254.0166376457
 31
-16.9625
  0
ARC
  5
1F3
100
AcDbEntity
  8
L1_120
  6
CONTINUOUS
 62
         7
100
AcDbCircle
 10
1455.5528425579
 20
-222.4911111851
 30
112.3183629111
 40
3.0
210
0.0
220
-0.5
230
0.8660254037844387
100
AcDbArc
 50
90.0
 51
180.0
  0
ARC
  5
1F4
100
AcDbEntity
  8
L1_120
  6
CONTINUOUS
 62
         7
100
AcDbCircle
 10
1455.5528425579
 20
-166.5911111851
 30
112.3183629111
 40
3.0
210
0.0
220
-0.5
230
0.8660254037844387
100
AcDbArc
 50
180.0
 51
270.0
  0
LINE
  5
1F5
100
AcDbEntity
  8
L1_120
  6
CONTINUOUS
 62
         2
100
AcDbLine
 10
1507.7008425579
 20
-207.3162177466
 30
10.0
 11
1497.0338552598
 21
-207.3162177466
 31
10.0
  0
LINE
  5
1F6
100
AcDbEntity
  8
L1_120
  6
CONTINUOUS
 62
         2
100
AcDbLine
 10
1507.7008425579
 20
-241.957233898
 30
-10.0
 11
1497.0338552598
 21
-241.957233898
 31
-10.0
  0
INSERT
  5
202
100
AcDbEntity
  8
0
  6
CONTINUOUS
100
AcDbBlockReference
  2
*X0
 10
0.0
 20
0.0
 30
0.0
  0
INSERT
  5
209
100
AcDbEntity
  8
0
  6
CONTINUOUS
100
AcDbBlockReference
  2
*X1
 10
0.0
 20
0.0
 30
0.0
  0
INSERT
  5
211
100
AcDbEntity
  8
0
  6
CONTINUOUS
100
AcDbBlockReference
  2
*X2
 10
0.0
 20
0.0
 30
0.0
  0
INSERT
  5
21F
100
AcDbEntity
  8
0
  6
CONTINUOUS
100
AcDbBlockReference
  2
*X3
 10
0.0
 20
0.0
 30
0.0
  0
LINE
  5
220
100
AcDbEntity
  8
L1_120
  6
DASHED
 62
         2
100
AcDbLine
 10
1506.8888425579
 20
-208.0194303745
 30
9.594
 11
1506.8888425579
 21
-241.2540212701
 31
-9.594
  0
LINE
  5
221
100
AcDbEntity
  8
L1_120
  6
DASHED
 62
         2
100
AcDbLine
 10
1513.9008425579
 20
-208.9616660138
 30
9.05
 11
1511.2008425579
 21
-208.9616660138
 31
9.05
  0
LINE
  5
222
100
AcDbEntity
  8
L1_120
  6
DASHED
 62
         2
100
AcDbLine
 10
1503.6008425579
 20
-202.9860907277
 30
12.5
 11
1503.6008425579
 21
-205.7573720198
 31
10.9
  0
LINE
  5
223
100
AcDbEntity
  8
L1_120
  6
DASHED
 62
         2
100
AcDbLine
 10
1517.1955866695
 20
-205.7573720198
 30
10.9
 11
1503.6008425579
 21
-205.7573720198
 31
10.9
  0
LINE
  5
224
100
AcDbEntity
  8
L1_120
  6
DASHED
 62
         2
100
AcDbLine
 10
1503.6008425579
 20
-246.2873609169
 30
-12.5
 11
1503.6008425579
 21
-243.5160796248
 31
-10.9
  0
LINE
  5
225
100
AcDbEntity
  8
L1_120
  6
DASHED
 62
         2
100
AcDbLine
 10
1517.1955866695
 20
-243.5160796248
 30
-10.9
 11
1503.6008425579
 21
-243.5160796248
 31
-10.9
  0
ARC
  5
226
100
AcDbEntity
  8
L1_120
  6
DASHED
 62
         2
100
AcDbCircle
 10
1514.1933652698
 20
-217.5411111851
 30
112.3183629111
 40
2.0
210
0.0
220
-0.5
230
0.8660254037844387
100
AcDbArc
 50
270.0
 51
330.0
  0
ARC
  5
227
100
AcDbEntity
  8
L1_120
  6
DASHED
 62
         2
100
AcDbCircle
 10
1517.1008425579
 20
-212.5052128002
 30
112.3183629111
 40
2.0
210
0.0
220
-0.5
230
0.8660254037844387
100
AcDbArc
 50
330.0
 51
360.0
  0
ARC
  5
228
100
AcDbEntity
  8
L1_120
  6
DASHED
 62
         2
100
AcDbCircle
 10
1517.1008425579
 20
-176.5770095699
 30
112.3183629111
 40
2.0
210
0.0
220
-0.5
230
0.8660254037844387
100
AcDbArc
 50
0.0
 51
30.0
  0
ARC
  5
229
100
AcDbEntity
  8
L1_120
  6
DASHED
 62
         2
100
AcDbCircle
 10
1514.1933652698
 20
-171.5411111851
 30
112.3183629111
 40
2.0
210
0.0
220
-0.5
230
0.8660254037844387
100
AcDbArc
 50
30.0
 51
90.0
  0
LINE
  5
22A
100
AcDbEntity
  8
L1_120
  6
DASHED
 62
         2
100
AcDbLine
 10
1518.8328933654
 20
-208.2133320636
 30
9.4820508076
 11
1515.9254160773
 21
-203.8521161315
 31
12.0
  0
LINE
  5
22B
100
AcDbEntity
  8
L1_120
  6
DASHED
 62
         2
100
AcDbLine
 10
1518.8328933654
 20
-241.060119581
 30
-9.4820508076
 11
1515.9254160773
 21
-245.4213355131
 31
-12.0
  0
LINE
  5
22C
100
AcDbEntity
  8
L1_120
  6
DASHED
 62
         2
100
AcDbLine
 10
1497.5026636783
 20
-208.0194303745
 30
9.594
 11
1497.5026636783
 21
-241.2540212701
 31
-9.594
  0
LINE
  5
22D
100
AcDbEntity
  8
L1_120
  6
DASHED
 62
         2
100
AcDbLine
 10
1496.6008425579
 20
-206.6666986938
 30
10.375
 11
1497.5026636783
 21
-208.0194303745
 31
9.594
  0
LINE
  5
22E
100
AcDbEntity
  8
L1_120
  6
DASHED
 62
         2
100
AcDbLine
 10
1496.6008425579
 20
-242.6067529508
 30
-10.375
 11
1497.5026636783
 21
-241.2540212701
 31
-9.594
  0
ARC
  5
22F
100
AcDbEntity
  8
L1_120
  6
DASHED
 62
         2
100
AcDbCircle
 10
1498.6008425579
 20
-171.5411111851
 30
112.3183629111
 40
2.0
210
0.0
220
-0.5
230
0.8660254037844387
100
AcDbArc
 50
90.0
 51
180.0
  0
ARC
  5
230
100
AcDbEntity
  8
L1_120
  6
DASHED
 62
         2
100
AcDbCircle
 10
1498.6008425579
 20
-217.5411111851
 30
112.3183629111
 40
2.0
210
0.0
220
-0.5
230
0.8660254037844387
100
AcDbArc
 50
180.0
 51
270.0
  0
LINE
  5
231
100
AcDbEntity
  8
L1_120
  6
DASHED
 62
         2
100
AcDbLine
 10
1508.2008425579
 20
-242.3902465999
 30
-10.25
 11
1506.8888425579
 21
-241.2540212701
 31
-9.594
  0
ARC
  5
232
100
AcDbEntity
  8
L1_120
  6
DASHED
 62
         2
100
AcDbCircle
 10
1510.2008425579
 20
-214.0411111851
 30
112.3183629111
 40
1.0
210
0.0
220
-0.5
230
0.8660254037844387
100
AcDbArc
 50
270.0
 51
360.0
  0
LINE
  5
233
100
AcDbEntity
  8
L1_120
  6
DASHED
 62
         2
100
AcDbLine
 10
1508.2008425579
 20
-206.8832050447
 30
10.25
 11
1506.8888425579
 21
-208.0194303745
 31
9.594
  0
ARC
  5
234
100
AcDbEntity
  8
L1_120
  6
DASHED
 62
         2
100
AcDbCircle
 10
1510.2008425579
 20
-175.0411111851
 30
112.3183629111
 40
1.0
210
0.0
220
-0.5
230
0.8660254037844387
100
AcDbArc
 50
0.0
 51
90.0
  0
LINE
  5
235
100
AcDbEntity
  8
L1_120
  6
DASHED
 62
         2
100
AcDbLine
 10
1513.9008425579
 20
-240.3117856308
 30
-9.05
 11
1512.9008425579
 21
-240.3117856308
 31
-9.05
  0
LINE
  5
236
100
AcDbEntity
  8
L1_120
  6
DASHED
 62
         2
100
AcDbLine
 10
1513.9008425579
 20
-240.3117856308
 30
-9.05
 11
1513.9008425579
 21
-208.9616660138
 31
9.05
  0
LINE
  5
237
100
AcDbEntity
  8
L1_120
  6
DASHED
 62
         2
100
AcDbLine
 10
1508.2008425579
 20
-242.3902465999
 30
-10.25
 11
1508.2008425579
 21
-206.8832050447
 31
10.25
  0
LINE
  5
238
100
AcDbEntity
  8
L1_120
  6
DASHED
 62
         2
100
AcDbLine
 10
1510.2008425579
 20
-206.8832050447
 30
10.25
 11
1508.2008425579
 21
-206.8832050447
 31
10.25
  0
LINE
  5
239
100
AcDbEntity
  8
L1_120
  6
DASHED
 62
         2
100
AcDbLine
 10
1510.2008425579
 20
-242.3902465999
 30
-10.25
 11
1508.2008425579
 21
-242.3902465999
 31
-10.25
  0
LINE
  5
23A
100
AcDbEntity
  8
L1_120
  6
DASHED
 62
         2
100
AcDbLine
 10
1506.8888425579
 20
-208.0194303745
 30
9.594
 11
1497.5026636783
 21
-208.0194303745
 31
9.594
  0
LINE
  5
23B
100
AcDbEntity
  8
L1_120
  6
DASHED
 62
         2
100
AcDbLine
 10
1506.8888425579
 20
-241.2540212701
 30
-9.594
 11
1497.5026636783
 21
-241.2540212701
 31
-9.594
  0
LINE
  5
23C
100
AcDbEntity
  8
L1_120
  6
DASHED
 62
         2
100
AcDbLine
 10
1513.9008425579
 20
-210.4965663713
 30
8.1638248654
 11
1519.1008425579
 21
-213.0965663713
 31
6.6627141655
  0
LINE
  5
23D
100
AcDbEntity
  8
L1_120
  6
DASHED
 62
         2
100
AcDbLine
 10
1513.9008425579
 20
-238.7768852733
 30
-8.1638248654
 11
1519.1008425579
 21
-236.1768852733
 31
-6.6627141655
  0
LINE
  5
23E
100
AcDbEntity
  8
L1_120
  6
DASHED
 62
         2
100
AcDbLine
 10
1512.9008425579
 20
-237.5405043387
 30
-7.45
 11
1511.2008425579
 21
-237.5405043387
 31
-7.45
  0
LINE
  5
23F
100
AcDbEntity
  8
L1_120
  6
DASHED
 62
         2
100
AcDbLine
 10
1511.2008425579
 20
-241.5242211961
 30
-9.75
 11
1511.2008425579
 21
-207.7492304485
 31
9.75
  0
LINE
  5
240
100
AcDbEntity
  8
L1_120
  6
DASHED
 62
         2
100
AcDbLine
 10
1512.9008425579
 20
-240.3117856308
 30
-9.05
 11
1512.9008425579
 21
-208.9616660138
 31
9.05
  0
LINE
  5
241
100
AcDbEntity
  8
L1_120
  6
DASHED
 62
         2
100
AcDbLine
 10
1519.1008425579
 20
-240.1940941772
 30
-8.9820508076
 11
1519.1008425579
 21
-209.0793574674
 31
8.9820508076
  0
LINE
  5
242
100
AcDbEntity
  8
L1_120
  6
DASHED
 62
         2
100
AcDbLine
 10
1514.1933652698
 20
-202.9860907277
 30
12.5
 11
1498.6008425579
 21
-202.9860907277
 31
12.5
  0
LINE
  5
243
100
AcDbEntity
  8
L1_120
  6
DASHED
 62
         2
100
AcDbLine
 10
1514.1933652698
 20
-246.2873609169
 30
-12.5
 11
1498.6008425579
 21
-246.2873609169
 31
-12.5
  0
LINE
  5
244
100
AcDbEntity
  8
L1_120
  6
DASHED
 62
         2
100
AcDbLine
 10
1496.6008425579
 20
-244.5553101093
 30
-11.5
 11
1496.6008425579
 21
-204.7181415353
 31
11.5
  0
ARC
  5
245
100
AcDbEntity
  8
L1_120
  6
CONTINUOUS
 62
         7
100
AcDbCircle
 10
1504.1008425579
 20
-212.5411111851
 30
112.3183629111
 40
2.0
210
0.0
220
-0.5
230
0.8660254037844387
100
AcDbArc
 50
270.0
 51
360.0
  0
ARC
  5
246
100
AcDbEntity
  8
L1_120
  6
CONTINUOUS
 62
         7
100
AcDbCircle
 10
1504.1008425579
 20
-176.5411111851
 30
112.3183629111
 40
2.0
210
0.0
220
-0.5
230
0.8660254037844387
100
AcDbArc
 50
0.0
 51
90.0
  0
LINE
  5
247
100
AcDbEntity
  8
L1_120
  6
CONTINUOUS
 62
         7
100
AcDbLine
 10
1490.1008425579
 20
-241.957233898
 30
-10.0
 11
1490.1008425579
 21
-207.3162177466
 31
10.0
  0
LINE
  5
248
100
AcDbEntity
  8
L1_120
  6
CONTINUOUS
 62
         4
100
AcDbLine
 10
1490.1008425579
 20
-241.0912084942
 30
-9.5
 11
1505.8328933654
 21
-241.0912084942
 31
-9.5
  0
LINE
  5
249
100
AcDbEntity
  8
L1_120
  6
CONTINUOUS
 62
         4
100
AcDbLine
 10
1490.1008425579
 20
-208.1822431504
 30
9.5
 11
1505.8328933654
 21
-208.1822431504
 31
9.5
  0
LINE
  5
24A
100
AcDbEntity
  8
L1_120
  6
CONTINUOUS
 62
         7
100
AcDbLine
 10
1455.5528425579
 20
-203.0293919979
 30
12.475
 11
1487.1008425579
 21
-203.0293919979
 31
12.475
  0
LINE
  5
24B
100
AcDbEntity
  8
L1_120
  6
CONTINUOUS
 62
         7
100
AcDbLine
 10
1506.1008425579
 20
-240.2251830904
 30
-9.0
 11
1506.1008425579
 21
-209.0482685542
 31
9.0
  0
LINE
  5
24C
100
AcDbEntity
  8
L1_120
  6
CONTINUOUS
 62
         7
100
AcDbLine
 10
1504.1008425579
 20
-207.3162177466
 30
10.0
 11
1488.1008425579
 21
-207.3162177466
 31
10.0
  0
LINE
  5
24D
100
AcDbEntity
  8
L1_120
  6
CONTINUOUS
 62
         7
100
AcDbLine
 10
1504.1008425579
 20
-241.957233898
 30
-10.0
 11
1488.1008425579
 21
-241.957233898
 31
-10.0
  0
LINE
  5
24E
100
AcDbEntity
  8
L1_120
  6
CONTINUOUS
 62
         7
100
AcDbLine
 10
1455.5528425579
 20
-246.2440596467
 30
-12.475
 11
1487.1008425579
 21
-246.2440596467
 31
-12.475
  0
LINE
  5
24F
100
AcDbEntity
  8
L1_120
  6
CONTINUOUS
 62
         4
100
AcDbLine
 10
1487.1008425579
 20
-203.0293919979
 30
12.475
 11
1487.1008425579
 21
-246.2440596467
 31
-12.475
  0
LINE
  5
250
100
AcDbEntity
  8
L1_120
  6
CONTINUOUS
 62
         7
100
AcDbLine
 10
1487.1008425579
 20
-203.0293919979
 30
12.475
 11
1487.6008425579
 21
-203.4624046998
 31
12.225
  0
LINE
  5
251
100
AcDbEntity
  8
L1_120
  6
CONTINUOUS
 62
         7
100
AcDbLine
 10
1487.6008425579
 20
-245.8110469448
 30
-12.225
 11
1487.6008425579
 21
-203.4624046998
 31
12.225
  0
LINE
  5
252
100
AcDbEntity
  8
L1_120
  6
CONTINUOUS
 62
         7
100
AcDbLine
 10
1487.1008425579
 20
-246.2440596467
 30
-12.475
 11
1487.6008425579
 21
-245.8110469448
 31
-12.225
  0
ARC
  5
253
100
AcDbEntity
  8
L1_120
  6
CONTINUOUS
 62
         7
100
AcDbCircle
 10
1488.1008425579
 20
-174.0411111851
 30
112.3183629111
 40
0.5
210
0.0
220
-0.5
230
0.8660254037844387
100
AcDbArc
 50
180.0
 51
270.0
  0
ARC
  5
254
100
AcDbEntity
  8
L1_120
  6
CONTINUOUS
 62
         7
100
AcDbCircle
 10
1488.1008425579
 20
-215.0411111851
 30
112.3183629111
 40
0.5
210
0.0
220
-0.5
230
0.8660254037844387
100
AcDbArc
 50
90.0
 51
180.0
  0
LINE
  5
255
100
AcDbEntity
  8
L1_120
  6
CENTER
 62
         1
100
AcDbLine
 10
1315.9008425579
 20
-224.6367258223
 30
0.0
 11
1519.1008425579
 21
-224.6367258223
 31
0.0
  0
DIMENSION
  5
259
100
AcDbEntity
  8
L1_120
  6
CONTINUOUS
 62
         4
100
AcDbDimension
  2
*D4
 10
1548.6996903992
 20
-146.8702105423
 30
-84.7955555925
 11
1546.0746903992
 21
-203.157477918
 31
0.0
210
0.0
220
-0.5
230
0.8660254037844387
  3
DIMSTYLE1
100
AcDbAlignedDimension
 13
1482.7398400794
 23
-146.8702105423
 33
-84.7955555925
 14
1482.7398400794
 24
-190.0848781911
 34
-109.7455555925
 50
90.0
100
AcDbRotatedDimension
  0
DIMENSION
  5
268
100
AcDbEntity
  8
L1_120
  6
CONTINUOUS
 62
         4
100
AcDbDimension
  2
*D5
 10
1537.01603404
 20
-185.7980524424
 30
-107.2705555925
 11
1534.39103404
 21
-208.1988411973
 31
0.0
210
0.0
220
-0.5
230
0.8660254037844387
  3
DIMSTYLE1
100
AcDbAlignedDimension
 13
1505.1008425579
 23
-185.7980524424
 33
-107.2705555925
 14
1505.1008425579
 24
-151.157036291
 34
-87.2705555925
 50
90.0
100
AcDbRotatedDimension
  0
DIMENSION
  5
276
100
AcDbEntity
  8
L1_120
  6
CONTINUOUS
 62
         4
100
AcDbDimension
  2
*D6
 10
1506.1008425579
 20
-117.0898625229
 30
-67.6018636469
 11
1459.0816727134
 21
-131.1437272939
 31
0.0
210
0.0
220
-0.5
230
0.8660254037844387
  3
DIMSTYLE1
100
AcDbAlignedDimension
 13
1506.1008425579
 23
-168.4775443667
 33
-97.2705555925
 14
1417.5008425579
 24
-134.0746852014
 34
-77.4080555925
100
AcDbRotatedDimension
  0
DIMENSION
  5
284
100
AcDbEntity
  8
L1_120
  6
CONTINUOUS
 62
         4
100
AcDbDimension
  2
*D7
 10
1315.9008425579
 20
-106.0901422528
 30
-61.251172188
 11
1409.5581110962
 21
-119.8773443761
 31
0.0
210
0.0
220
-0.5
230
0.8660254037844387
  3
DIMSTYLE1
100
AcDbAlignedDimension
 13
1315.9008425579
 23
-152.9355616902
 33
-88.2973877105
 14
1506.1008425579
 24
-168.4775443667
 34
-97.2705555925
100
AcDbRotatedDimension
  0
TEXT
  5
291
100
AcDbEntity
  8
L1_120
  6
CONTINUOUS
 62
         2
100
AcDbText
 10
1589.9222457082
 20
-145.1601102117
 30
0.0
 40
4.5
  1
521454
 41
0.98
  7
BOX
100
AcDbText
  0
LINE
  5
292
100
AcDbEntity
  8
L1_120
  6
CONTINUOUS
 62
         7
100
AcDbLine
 10
1431.8161362004
 20
-319.8972166703
 30
13.5566754525
 11
1430.5874081339
 21
-319.152119023
 31
13.9868577798
  0
LINE
  5
293
100
AcDbEntity
  8
L1_120
  6
CONTINUOUS
 62
         4
100
AcDbLine
 10
1428.9482540186
 20
-323.4442490699
 30
11.5087953418
 11
1427.7195259522
 21
-322.6991514226
 31
11.938977669
  0
LINE
  5
294
100
AcDbEntity
  8
L1_120
  6
CONTINUOUS
 62
         7
100
AcDbLine
 10
1431.5645392427
 20
-322.3877034156
 30
12.1187922597
 11
1431.8161362004
 21
-319.8972166703
 31
13.5566754525
  0
LINE
  5
295
100
AcDbEntity
  8
L1_120
  6
CONTINUOUS
 62
         7
100
AcDbLine
 10
1428.9482540186
 20
-323.4442490699
 30
11.5087953418
 11
1431.8161362004
 21
-319.8972166703
 31
13.5566754525
  0
LINE
  5
296
100
AcDbEntity
  8
L1_120
  6
CONTINUOUS
 62
         7
100
AcDbLine
 10
1431.5645392427
 20
-322.3877034156
 30
12.1187922597
 11
1428.9482540186
 21
-323.4442490699
 31
11.5087953418
  0
LINE
  5
297
100
AcDbEntity
  8
L1_120
  6
CONTINUOUS
 62
         4
100
AcDbLine
 10
1430.9613465853
 20
-319.378874371
 30
13.8559405185
 11
1427.7351318156
 21
-322.7086147794
 31
11.9335139974
  0
LINE
  5
298
100
AcDbEntity
  8
L1_120
  6
CENTER
 62
         1
100
AcDbLine
 10
1432.9366614182
 20
-322.9554494429
 30
11.791003938
 11
1419.7800761192
 21
-314.9773287985
 31
16.3971740397
  0
LINE
  5
299
100
AcDbEntity
  8
L1_120
  6
CONTINUOUS
 62
         4
100
AcDbLine
 10
1424.9752816011
 20
-321.5636593679
 30
12.5945543125
 11
1420.8795213797
 21
-319.0800005434
 31
14.0284954034
  0
LINE
  5
29A
100
AcDbEntity
  8
L1_120
  6
CONTINUOUS
 62
         4
100
AcDbLine
 10
1424.3209799978
 20
-314.8235616639
 30
16.4859515362
 11
1428.4167402192
 21
-317.3072204884
 31
15.0520104453
  0
LINE
  5
29B
100
AcDbEntity
  8
L1_120
  6
CONTINUOUS
 62
         7
100
AcDbLine
 10
1424.3496588196
 20
-314.7880913399
 30
16.5064303373
 11
1420.8508425579
 21
-312.6664178498
 31
17.731379098
  0
LINE
  5
29C
100
AcDbEntity
  8
L1_120
  6
CONTINUOUS
 62
         7
100
AcDbLine
 10
1424.9752816011
 20
-321.5636593679
 30
12.5945543125
 11
1428.4167402192
 21
-317.3072204884
 31
15.0520104453
  0
LINE
  5
29D
100
AcDbEntity
  8
L1_120
  6
CONTINUOUS
 62
         7
100
AcDbLine
 10
1420.8795213797
 20
-319.0800005434
 30
14.0284954034
 11
1424.3209799978
 21
-314.8235616639
 31
16.4859515362
  0
LINE
  5
29E
100
AcDbEntity
  8
L1_120
  6
CONTINUOUS
 62
         7
100
AcDbLine
 10
1430.5874081339
 20
-319.152119023
 30
13.9868577798
 11
1424.0341917796
 21
-315.1782649039
 31
16.2811635252
  0
LINE
  5
29F
100
AcDbEntity
  8
L1_120
  6
CONTINUOUS
 62
         7
100
AcDbLine
 10
1427.7195259522
 20
-322.6991514226
 30
11.938977669
 11
1421.1663095979
 21
-318.7252973034
 31
14.2332834144
  0
ARC
  5
2A0
100
AcDbEntity
  8
L1_120
  6
CONTINUOUS
 62
         7
100
AcDbCircle
 10
1429.9055430962
 20
-354.259733715
 30
171.6890336679
 40
1.0
210
0.0
220
-0.5
230
0.8660254037844387
100
AcDbArc
 50
30.0
 51
90.0
  0
LINE
  5
2A1
100
AcDbEntity
  8
L1_120
  6
CONTINUOUS
 62
         7
100
AcDbLine
 10
1432.2871129567
 20
-394.482749752
 30
-29.5053021499
 11
1435.2508425579
 21
-394.482749752
 31
-29.5053021499
  0
ARC
  5
2A2
100
AcDbEntity
  8
L1_120
  6
CONTINUOUS
 62
         7
100
AcDbCircle
 10
1427.3074668849
 20
-353.759733715
 30
171.6890336679
 40
0.5
210
0.0
220
-0.5
230
0.8660254037844387
100
AcDbArc
 50
90.0
 51
150.0
  0
LINE
  5
2A3
100
AcDbEntity
  8
L1_120
  6
CONTINUOUS
 62
         7
100
AcDbLine
 10
1426.874454183
 20
-391.9929267162
 30
-28.0678021499
 11
1425.2145721591
 21
-394.482749752
 31
-29.5053021499
  0
LINE
  5
2A4
100
AcDbEntity
  8
L1_120
  6
CONTINUOUS
 62
         7
100
AcDbLine
 10
1422.3508425579
 20
-394.482749752
 30
-29.5053021499
 11
1425.2145721591
 21
-394.482749752
 31
-29.5053021499
  0
LINE
  5
2A5
100
AcDbEntity
  8
L1_120
  6
CONTINUOUS
 62
         7
100
AcDbLine
 10
1427.3074668849
 20
-391.7764203652
 30
-27.9428021499
 11
1429.9055430962
 21
-391.7764203652
 31
-27.9428021499
  0
LINE
  5
2A6
100
AcDbEntity
  8
L1_120
  6
CONTINUOUS
 62
         7
100
AcDbLine
 10
1420.8508425579
 20
-383.3543247403
 30
-23.0803029737
 11
1420.8508425579
 21
-393.1837116464
 31
-28.7553021499
  0
LINE
  5
2A7
100
AcDbEntity
  8
L1_120
  6
CONTINUOUS
 62
         7
100
AcDbLine
 10
1430.7715685
 20
-392.2094330671
 30
-28.1928021499
 11
1432.2871129567
 21
-394.482749752
 31
-29.5053021499
  0
LINE
  5
2A8
100
AcDbEntity
  8
L1_120
  6
CONTINUOUS
 62
         7
100
AcDbLine
 10
1432.2871129567
 20
-310.0452728831
 30
19.2446978501
 11
1435.2508425579
 21
-310.0452728831
 31
19.2446978501
  0
LINE
  5
2A9
100
AcDbEntity
  8
L1_120
  6
CONTINUOUS
 62
         7
100
AcDbLine
 10
1426.874454183
 20
-312.5350959189
 30
17.8071978501
 11
1425.2145721591
 21
-310.0452728831
 31
19.2446978501
  0
ARC
  5
2AA
100
AcDbEntity
  8
L1_120
  6
CONTINUOUS
 62
         7
100
AcDbCircle
 10
1430.1942182308
 20
-261.509733715
 30
171.6890336679
 40
0.5
210
0.0
220
-0.5
230
0.8660254037844387
100
AcDbArc
 50
270.0
 51
330.0
  0
ARC
  5
2AB
100
AcDbEntity
  8
L1_120
  6
CONTINUOUS
 62
         7
100
AcDbCircle
 10
1427.3074668849
 20
-261.509733715
 30
171.6890336679
 40
0.5
210
0.0
220
-0.5
230
0.8660254037844387
100
AcDbArc
 50
210.0
 51
270.0
  0
LINE
  5
2AC
100
AcDbEntity
  8
L1_120
  6
CONTINUOUS
 62
         7
100
AcDbLine
 10
1427.3074668849
 20
-312.7516022699
 30
17.6821978501
 11
1430.1942182308
 21
-312.7516022699
 31
17.6821978501
  0
LINE
  5
2AD
100
AcDbEntity
  8
L1_120
  6
CONTINUOUS
 62
         7
100
AcDbLine
 10
1422.3508425579
 20
-310.0452728831
 30
19.2446978501
 11
1425.2145721591
 21
-310.0452728831
 31
19.2446978501
  0
LINE
  5
2AE
100
AcDbEntity
  8
L1_120
  6
CONTINUOUS
 62
         7
100
AcDbLine
 10
1430.6272309327
 20
-312.5350959189
 30
17.8071978501
 11
1432.2871129567
 21
-310.0452728831
 31
19.2446978501
  0
LINE
  5
2AF
100
AcDbEntity
  8
L1_120
  6
CONTINUOUS
 62
         7
100
AcDbLine
 10
1427.3074668849
 20
-312.7516022699
 30
17.6821978501
 11
1430.1942182308
 21
-312.7516022699
 31
17.6821978501
  0
LINE
  5
2B0
100
AcDbEntity
  8
L1_120
  6
CONTINUOUS
 62
         7
100
AcDbLine
 10
1420.8508425579
 20
-311.3443109887
 30
18.4946978501
 11
1420.8508425579
 21
-321.1736978948
 31
12.8196986739
  0
ARC
  5
2B1
100
AcDbEntity
  8
L1_120
  6
CONTINUOUS
 62
         7
100
AcDbCircle
 10
1427.3074668849
 20
-261.509733715
 30
171.6890336679
 40
0.5
210
0.0
220
-0.5
230
0.8660254037844387
100
AcDbArc
 50
210.0
 51
270.0
  0
ARC
  5
2B2
100
AcDbEntity
  8
L1_120
  6
CONTINUOUS
 62
         7
100
AcDbCircle
 10
1430.1942182308
 20
-261.509733715
 30
171.6890336679
 40
0.5
210
0.0
220
-0.5
230
0.8660254037844387
100
AcDbArc
 50
270.0
 51
330.0
  0
LINE
  5
2B3
100
AcDbEntity
  8
L1_120
  6
CONTINUOUS
 62
         7
100
AcDbLine
 10
1436.2508425579
 20
-310.0452728831
 30
19.2446978501
 11
1436.7508425579
 21
-310.478285585
 31
18.9946978501
  0
LINE
  5
2B4
100
AcDbEntity
  8
L1_120
  6
CONTINUOUS
 62
         7
100
AcDbLine
 10
1421.3508425579
 20
-310.0452728831
 30
19.2446978501
 11
1420.8508425579
 21
-310.478285585
 31
18.9946978501
  0
LINE
  5
2B5
100
AcDbEntity
  8
L1_120
  6
CONTINUOUS
 62
         7
100
AcDbLine
 10
1436.7508425579
 20
-394.0497370502
 30
-29.2553021499
 11
1436.2508425579
 21
-394.482749752
 31
-29.5053021499
  0
LINE
  5
2B6
100
AcDbEntity
  8
L1_120
  6
CONTINUOUS
 62
         7
100
AcDbLine
 10
1420.8508425579
 20
-394.0497370502
 30
-29.2553021499
 11
1421.3508425579
 21
-394.482749752
 31
-29.5053021499
  0
LINE
  5
2B7
100
AcDbEntity
  8
L1_120
  6
CONTINUOUS
 62
         7
100
AcDbLine
 10
1437.2508425579
 20
-382.5099485447
 30
-22.5928021499
 11
1451.7028425579
 21
-382.5099485447
 31
-22.5928021499
  0
LINE
  5
2B8
100
AcDbEntity
  8
L1_120
  6
CONTINUOUS
 62
         7
100
AcDbLine
 10
1437.2508425579
 20
-322.0180740904
 30
12.3321978501
 11
1451.7028425579
 21
-322.0180740904
 31
12.3321978501
  0
LINE
  5
2B9
100
AcDbEntity
  8
L1_120
  6
CONTINUOUS
 62
         7
100
AcDbLine
 10
1420.8508425579
 20
-392.3176862426
 30
-28.2553021499
 11
1420.8508425579
 21
-394.0497370502
 31
-29.2553021499
  0
LINE
  5
2BA
100
AcDbEntity
  8
L1_120
  6
CONTINUOUS
 62
         7
100
AcDbLine
 10
1436.7508425579
 20
-382.9429612466
 30
-22.8428021499
 11
1436.7508425579
 21
-394.0497370502
 31
-29.2553021499
  0
LINE
  5
2BB
100
AcDbEntity
  8
L1_120
  6
CONTINUOUS
 62
         7
100
AcDbLine
 10
1434.2508425579
 20
-394.482749752
 30
-29.5053021499
 11
1436.2508425579
 21
-394.482749752
 31
-29.5053021499
  0
LINE
  5
2BC
100
AcDbEntity
  8
L1_120
  6
CONTINUOUS
 62
         7
100
AcDbLine
 10
1421.3508425579
 20
-394.482749752
 30
-29.5053021499
 11
1423.3508425579
 21
-394.482749752
 31
-29.5053021499
  0
LINE
  5
2BD
100
AcDbEntity
  8
L1_120
  6
CONTINUOUS
 62
         7
100
AcDbLine
 10
1436.7508425579
 20
-310.478285585
 30
18.9946978501
 11
1436.7508425579
 21
-321.5850613885
 31
12.5821978501
  0
LINE
  5
2BE
100
AcDbEntity
  8
L1_120
  6
CONTINUOUS
 62
         7
100
AcDbLine
 10
1434.2508425579
 20
-310.0452728831
 30
19.2446978501
 11
1436.2508425579
 21
-310.0452728831
 31
19.2446978501
  0
LINE
  5
2BF
100
AcDbEntity
  8
L1_120
  6
CONTINUOUS
 62
         7
100
AcDbLine
 10
1421.3508425579
 20
-310.0452728831
 30
19.2446978501
 11
1423.3508425579
 21
-310.0452728831
 31
19.2446978501
  0
LINE
  5
2C0
100
AcDbEntity
  8
L1_120
  6
CONTINUOUS
 62
         7
100
AcDbLine
 10
1420.8508425579
 20
-310.478285585
 30
18.9946978501
 11
1420.8508425579
 21
-312.2103363925
 31
17.9946978501
  0
ARC
  5
2C1
100
AcDbEntity
  8
L1_120
  6
CONTINUOUS
 62
         7
100
AcDbCircle
 10
1437.2508425579
 20
-272.209733715
 30
171.6890336679
 40
0.5
210
0.0
220
-0.5
230
0.8660254037844387
100
AcDbArc
 50
180.0
 51
270.0
  0
ARC
  5
2C2
100
AcDbEntity
  8
L1_120
  6
CONTINUOUS
 62
         7
100
AcDbCircle
 10
1437.2508425579
 20
-343.059733715
 30
171.6890336679
 40
0.5
210
0.0
220
-0.5
230
0.8660254037844387
100
AcDbArc
 50
90.0
 51
180.0
  0
LINE
  5
2C3
100
AcDbEntity
  8
L1_120
  6
CONTINUOUS
 62
         7
100
AcDbLine
 10
1451.7028425579
 20
-382.5099485447
 30
-22.5928021499
 11
1450.7028425579
 21
-382.5099485447
 31
-22.5928021499
  0
LINE
  5
2C4
100
AcDbEntity
  8
L1_120
  6
CONTINUOUS
 62
         7
100
AcDbLine
 10
1452.7028425579
 20
-381.6439231409
 30
-22.0928021499
 11
1451.7028425579
 21
-382.5099485447
 31
-22.5928021499
  0
LINE
  5
2C5
100
AcDbEntity
  8
L1_120
  6
CONTINUOUS
 62
         7
100
AcDbLine
 10
1451.7028425579
 20
-322.0180740904
 30
12.3321978501
 11
1450.7028425579
 21
-322.0180740904
 31
12.3321978501
  0
LINE
  5
2C6
100
AcDbEntity
  8
L1_120
  6
CONTINUOUS
 62
         7
100
AcDbLine
 10
1451.7028425579
 20
-322.0180740904
 30
12.3321978501
 11
1452.7028425579
 21
-322.8840994942
 31
11.8321978501
  0
LINE
  5
2C7
100
AcDbEntity
  8
L1_120
  6
CONTINUOUS
 62
         7
100
AcDbLine
 10
1452.7028425579
 20
-322.8840994942
 30
11.8321978501
 11
1452.7028425579
 21
-328.0586012818
 31
8.8446978501
  0
LINE
  5
2C8
100
AcDbEntity
  8
L1_120
  6
CONTINUOUS
 62
         7
100
AcDbLine
 10
1452.7028425579
 20
-376.4694213533
 30
-19.1053021499
 11
1452.7028425579
 21
-381.6439231409
 31
-22.0928021499
  0
LINE
  5
2C9
100
AcDbEntity
  8
L1_120
  6
CONTINUOUS
 62
         7
100
AcDbLine
 10
1420.0508425579
 20
-321.8665182178
 30
12.4196986739
 11
1418.8508425579
 21
-321.8665182178
 31
12.4196986739
  0
ARC
  5
2CA
100
AcDbEntity
  8
L1_120
  6
CONTINUOUS
 62
         7
100
AcDbCircle
 10
1420.0508425579
 20
-271.7347320673
 30
171.6890336679
 40
0.8
210
0.0
220
-0.5
230
0.8660254037844387
100
AcDbArc
 50
270.0
 51
360.0
  0
LINE
  5
2CB
100
AcDbEntity
  8
L1_120
  6
CONTINUOUS
 62
         7
100
AcDbLine
 10
1420.0508425579
 20
-382.6615044173
 30
-22.6803029737
 11
1418.8508425579
 21
-382.6615044173
 31
-22.6803029737
  0
ARC
  5
2CC
100
AcDbEntity
  8
L1_120
  6
CONTINUOUS
 62
         7
100
AcDbCircle
 10
1420.0508425579
 20
-343.5347353626
 30
171.6890336679
 40
0.8
210
0.0
220
-0.5
230
0.8660254037844387
100
AcDbArc
 50
0.0
 51
90.0000000001
  0
ARC
  5
2CD
100
AcDbEntity
  8
L1_120
  6
CONTINUOUS
 62
         7
100
AcDbCircle
 10
1455.7028425579
 20
-335.584733715
 30
171.6890336679
 40
3.0
210
0.0
220
-0.5
230
0.8660254037844387
100
AcDbArc
 50
90.0
 51
180.0
  0
ARC
  5
2CE
100
AcDbEntity
  8
L1_120
  6
CONTINUOUS
 62
         7
100
AcDbCircle
 10
1455.7028425579
 20
-279.684733715
 30
171.6890336679
 40
3.0
210
0.0
220
-0.5
230
0.8660254037844387
100
AcDbArc
 50
180.0
 51
270.0
  0
LINE
  5
2CF
100
AcDbEntity
  8
L1_120
  6
CENTER
 62
         6
100
AcDbLine
 10
1506.2508425579
 20
-370.450544797
 30
-15.6303021499
 11
1490.2508425579
 21
-370.450544797
 31
-15.6303021499
  0
LINE
  5
2D0
100
AcDbEntity
  8
L1_120
  6
CONTINUOUS
 62
         7
100
AcDbLine
 10
1504.9596022093
 20
-338.564764216
 30
2.7789618519
 11
1478.1451321544
 21
-341.828405202
 31
0.8946978501
  0
LINE
  5
2D1
100
AcDbEntity
  8
L1_120
  6
CONTINUOUS
 62
         4
100
AcDbLine
 10
1504.9596022093
 20
-365.9632584192
 30
-13.0395661517
 11
1504.9596022093
 21
-338.564764216
 31
2.7789618519
  0
LINE
  5
2D2
100
AcDbEntity
  8
L1_120
  6
CONTINUOUS
 62
         7
100
AcDbLine
 10
1426.2508425579
 20
-362.5751262814
 30
-11.0834271499
 11
1426.2508425579
 21
-341.9528963537
 31
0.8228228501
  0
LINE
  5
2D3
100
AcDbEntity
  8
L1_120
  6
CONTINUOUS
 62
         7
100
AcDbLine
 10
1416.2508425579
 20
-362.0587586344
 30
-10.7853021499
 11
1416.2508425579
 21
-342.4692640008
 31
0.5246978501
  0
LINE
  5
2D4
100
AcDbEntity
  8
L1_120
  6
CONTINUOUS
 62
         7
100
AcDbLine
 10
1469.2508425579
 20
-362.6996174332
 30
-11.1553021499
 11
1469.2508425579
 21
-341.828405202
 31
0.8946978501
  0
LINE
  5
2D5
100
AcDbEntity
  8
L1_120
  6
CONTINUOUS
 62
         7
100
AcDbLine
 10
1504.9596022093
 20
-365.9632584192
 30
-13.0395661517
 11
1478.1451321544
 21
-362.6996174332
 31
-11.1553021499
  0
ARC
  5
2D6
100
AcDbEntity
  8
L1_120
  6
CONTINUOUS
 62
         7
100
AcDbCircle
 10
1504.7508425579
 20
-290.3308036082
 30
171.6890336679
 40
1.5
210
0.0
220
-0.5
230
0.8660254037844387
100
AcDbArc
 50
278.0
 51
360.0
  0
ARC
  5
2D7
100
AcDbEntity
  8
L1_120
  6
CONTINUOUS
 62
         7
100
AcDbCircle
 10
1504.7508425579
 20
-324.9386638217
 30
171.6890336679
 40
1.5
210
0.0
220
-0.5
230
0.8660254037844387
100
AcDbArc
 50
0.0
 51
82.0
  0
ARC
  5
2D8
100
AcDbEntity
  8
L1_120
  6
CONTINUOUS
 62
         7
100
AcDbCircle
 10
1504.2508425579
 20
-325.634733715
 30
171.6890336679
 40
2.0
210
0.0
220
-0.5
230
0.8660254037844387
100
AcDbArc
 50
270.0
 51
360.0
  0
ARC
  5
2D9
100
AcDbEntity
  8
L1_120
  6
CONTINUOUS
 62
         7
100
AcDbCircle
 10
1504.2508425579
 20
-289.634733715
 30
171.6890336679
 40
2.0
210
0.0
220
-0.5
230
0.8660254037844387
100
AcDbArc
 50
0.0
 51
90.0
  0
LINE
  5
2DA
100
AcDbEntity
  8
L1_120
  6
CENTER
 62
         1
100
AcDbLine
 10
1486.2592575105
 20
-352.2640113176
 30
-5.1303021499
 11
1508.4601061225
 21
-352.2640113176
 31
-5.1303021499
  0
LINE
  5
2DB
100
AcDbEntity
  8
L1_120
  6
CONTINUOUS
 62
         7
100
AcDbLine
 10
1490.2508425579
 20
-335.8095286457
 30
4.3696978501
 11
1490.2508425579
 21
-334.9435032419
 31
4.8696978501
  0
LINE
  5
2DC
100
AcDbEntity
  8
L1_120
  6
CONTINUOUS
 62
         4
100
AcDbLine
 10
1490.2508425579
 20
-368.7184939895
 30
-14.6303021499
 11
1505.9828933654
 21
-368.7184939895
 31
-14.6303021499
  0
LINE
  5
2DD
100
AcDbEntity
  8
L1_120
  6
CONTINUOUS
 62
         4
100
AcDbLine
 10
1490.2508425579
 20
-335.8095286457
 30
4.3696978501
 11
1505.9828933654
 21
-335.8095286457
 31
4.3696978501
  0
LINE
  5
2DE
100
AcDbEntity
  8
L1_120
  6
CONTINUOUS
 62
         7
100
AcDbLine
 10
1490.2508425579
 20
-369.5845193932
 30
-15.1303021499
 11
1490.2508425579
 21
-368.7184939895
 31
-14.6303021499
  0
LINE
  5
2DF
100
AcDbEntity
  8
L1_120
  6
CONTINUOUS
 62
         7
100
AcDbLine
 10
1506.2508425579
 20
-367.8524685857
 30
-14.1303021499
 11
1506.2508425579
 21
-336.6755540494
 31
3.8696978501
  0
LINE
  5
2E0
100
AcDbEntity
  8
L1_120
  6
CONTINUOUS
 62
         7
100
AcDbLine
 10
1455.7028425579
 20
-330.6566774931
 30
7.3446978501
 11
1487.2508425579
 21
-330.6566774931
 31
7.3446978501
  0
LINE
  5
2E1
100
AcDbEntity
  8
L1_120
  6
CONTINUOUS
 62
         7
100
AcDbLine
 10
1455.7028425579
 20
-373.871345142
 30
-17.6053021499
 11
1487.2508425579
 21
-373.871345142
 31
-17.6053021499
  0
LINE
  5
2E2
100
AcDbEntity
  8
L1_120
  6
CONTINUOUS
 62
         7
100
AcDbLine
 10
1504.2508425579
 20
-369.5845193932
 30
-15.1303021499
 11
1488.2508425579
 21
-369.5845193932
 31
-15.1303021499
  0
LINE
  5
2E3
100
AcDbEntity
  8
L1_120
  6
CONTINUOUS
 62
         7
100
AcDbLine
 10
1504.2508425579
 20
-334.9435032419
 30
4.8696978501
 11
1488.2508425579
 21
-334.9435032419
 31
4.8696978501
  0
LINE
  5
2E4
100
AcDbEntity
  8
L1_120
  6
CONTINUOUS
 62
         7
100
AcDbLine
 10
1487.7508425579
 20
-373.4383324401
 30
-17.3553021499
 11
1487.7508425579
 21
-370.0175320951
 31
-15.3803021499
  0
ARC
  5
2E5
100
AcDbEntity
  8
L1_120
  6
CONTINUOUS
 62
         7
100
AcDbCircle
 10
1488.2508425579
 20
-287.134733715
 30
171.6890336679
 40
0.5
210
0.0
220
-0.5
230
0.8660254037844387
100
AcDbArc
 50
180.0
 51
270.0
  0
ARC
  5
2E6
100
AcDbEntity
  8
L1_120
  6
CONTINUOUS
 62
         7
100
AcDbCircle
 10
1488.2508425579
 20
-328.134733715
 30
171.6890336679
 40
0.5
210
0.0
220
-0.5
230
0.8660254037844387
100
AcDbArc
 50
90.0
 51
180.0
  0
LINE
  5
2E7
100
AcDbEntity
  8
L1_120
  6
CONTINUOUS
 62
         7
100
AcDbLine
 10
1487.2508425579
 20
-330.6566774931
 30
7.3446978501
 11
1487.7508425579
 21
-331.089690195
 31
7.0946978501
  0
LINE
  5
2E8
100
AcDbEntity
  8
L1_120
  6
CONTINUOUS
 62
         7
100
AcDbLine
 10
1487.2508425579
 20
-373.871345142
 30
-17.6053021499
 11
1487.7508425579
 21
-373.4383324401
 31
-17.3553021499
  0
LINE
  5
2E9
100
AcDbEntity
  8
L1_120
  6
CONTINUOUS
 62
         7
100
AcDbLine
 10
1487.7508425579
 20
-334.51049054
 30
5.1196978501
 11
1487.7508425579
 21
-331.089690195
 31
7.0946978501
  0
LINE
  5
2EA
100
AcDbEntity
  8
L1_120
  6
CONTINUOUS
 62
         7
100
AcDbLine
 10
1469.2508425579
 20
-341.828405202
 30
0.8946978501
 11
1478.1451321544
 21
-341.828405202
 31
0.8946978501
  0
LINE
  5
2EB
100
AcDbEntity
  8
L1_120
  6
CONTINUOUS
 62
         7
100
AcDbLine
 10
1469.2508425579
 20
-362.6996174332
 30
-11.1553021499
 11
1478.1451321544
 21
-362.6996174332
 31
-11.1553021499
  0
LINE
  5
2EC
100
AcDbEntity
  8
L1_120
  6
CONTINUOUS
 62
         7
100
AcDbLine
 10
1478.1451321544
 20
-362.6996174332
 30
-11.1553021499
 11
1478.1451321544
 21
-341.828405202
 31
0.8946978501
  0
LINE
  5
2ED
100
AcDbEntity
  8
L1_120
  6
CONTINUOUS
 62
         7
100
AcDbLine
 10
1416.2508425579
 20
-342.4692640008
 30
0.5246978501
 11
1469.2508425579
 21
-342.4692640008
 31
0.5246978501
  0
LINE
  5
2EE
100
AcDbEntity
  8
L1_120
  6
CONTINUOUS
 62
         7
100
AcDbLine
 10
1416.2508425579
 20
-362.0587586344
 30
-10.7853021499
 11
1469.2508425579
 21
-362.0587586344
 31
-10.7853021499
  0
LINE
  5
2EF
100
AcDbEntity
  8
L1_120
  6
CONTINUOUS
 62
         4
100
AcDbLine
 10
1426.2508425579
 20
-341.9528963537
 30
0.8228228501
 11
1469.2508425579
 21
-341.9528963537
 31
0.8228228501
  0
LINE
  5
2F0
100
AcDbEntity
  8
L1_120
  6
CONTINUOUS
 62
         4
100
AcDbLine
 10
1426.2508425579
 20
-362.5751262814
 30
-11.0834271499
 11
1469.2508425579
 21
-362.5751262814
 31
-11.0834271499
  0
LINE
  5
2F1
100
AcDbEntity
  8
L1_120
  6
CENTER
 62
         6
100
AcDbLine
 10
1506.2508425579
 20
-334.0774778381
 30
5.3696978501
 11
1490.2508425579
 21
-334.0774778381
 31
5.3696978501
  0
LINE
  5
2F2
100
AcDbEntity
  8
L1_120
  6
CONTINUOUS
 62
         7
100
AcDbLine
 10
1407.8222144318
 20
-343.2605155038
 30
0.0678685818
 11
1427.7351318156
 21
-322.7086147794
 31
11.9335139974
  0
LINE
  5
2F3
100
AcDbEntity
  8
L1_120
  6
CENTER
 62
         1
100
AcDbLine
 10
1436.7508425579
 20
-315.6266389071
 30
16.0222946737
 11
1409.9761364592
 21
-343.2605155038
 31
0.0678685818
  0
LINE
  5
2F4
100
AcDbEntity
  8
L1_120
  6
CONTINUOUS
 62
         7
100
AcDbLine
 10
1433.7816868042
 20
-320.9141105482
 30
12.9695714983
 11
1412.1300584866
 21
-343.2605155038
 31
0.0678685818
  0
LINE
  5
2F5
100
AcDbEntity
  8
L1_120
  6
CONTINUOUS
 62
         7
100
AcDbLine
 10
1430.9613465853
 20
-319.378874371
 30
13.8559405185
 11
1431.2537401419
 21
-319.0770982308
 31
14.0301710543
  0
LINE
  5
2F6
100
AcDbEntity
  8
L1_120
  6
CONTINUOUS
 62
         7
100
AcDbLine
 10
1424.3209799978
 20
-314.8235616639
 30
16.4859515362
 11
1424.3496588196
 21
-314.7880913399
 31
16.5064303373
  0
LINE
  5
2F7
100
AcDbEntity
  8
L1_120
  6
CONTINUOUS
 62
         7
100
AcDbLine
 10
1436.7508425579
 20
-312.9320461964
 30
17.5780185006
 11
1431.1155143466
 21
-318.7482058135
 31
14.22005718
  0
LINE
  5
2F8
100
AcDbEntity
  8
L1_120
  6
CONTINUOUS
 62
         7
100
AcDbLine
 10
1436.7508425579
 20
-318.3212316177
 30
14.4665708468
 11
1434.1796921191
 21
-320.9748874104
 31
12.9344819606
  0
LINE
  5
2F9
100
AcDbEntity
  8
L1_120
  6
CONTINUOUS
 62
         4
100
AcDbLine
 10
1431.1155143466
 20
-318.7482058135
 30
14.22005718
 11
1434.1796921191
 21
-320.9748874104
 31
12.9344819606
  0
LINE
  5
2FA
100
AcDbEntity
  8
L1_120
  6
CONTINUOUS
 62
         7
100
AcDbLine
 10
1434.1796921191
 20
-320.9748874104
 30
12.9344819606
 11
1433.7816868042
 21
-320.9141105482
 31
12.9695714983
  0
LINE
  5
2FB
100
AcDbEntity
  8
L1_120
  6
CONTINUOUS
 62
         7
100
AcDbLine
 10
1431.2537401419
 20
-319.0770982308
 30
14.0301710543
 11
1433.7816868042
 21
-320.9141105482
 31
12.9695714983
  0
LINE
  5
2FC
100
AcDbEntity
  8
L1_120
  6
CONTINUOUS
 62
         7
100
AcDbLine
 10
1431.1155143466
 20
-318.7482058135
 30
14.22005718
 11
1431.2537401419
 21
-319.0770982308
 31
14.0301710543
  0
LINE
  5
2FD
100
AcDbEntity
  8
L1_120
  6
CONTINUOUS
 62
         7
100
AcDbLine
 10
1416.2508425579
 20
-362.0587586344
 30
-10.7853021499
 11
1415.7233415558
 21
-361.2675071313
 31
-10.3284728816
  0
LINE
  5
2FE
100
AcDbEntity
  8
L1_120
  6
CONTINUOUS
 62
         7
100
AcDbLine
 10
1416.2508425579
 20
-342.4692640008
 30
0.5246978501
 11
1415.7233415558
 21
-343.2605155038
 31
0.0678685818
  0
LINE
  5
2FF
100
AcDbEntity
  8
L1_120
  6
CONTINUOUS
 62
         7
100
AcDbLine
 10
1415.7233415558
 20
-361.2675071313
 30
-10.3284728816
 11
1415.7233415558
 21
-343.2605155038
 31
0.0678685818
  0
LINE
  5
300
100
AcDbEntity
  8
L1_120
  6
CONTINUOUS
 62
         7
100
AcDbLine
 10
1324.3201865194
 20
-362.0333766739
 30
-8.6860603473
 11
1415.6321526677
 21
-362.0333766739
 31
-8.6860603473
  0
LINE
  5
301
100
AcDbEntity
  8
L1_120
  6
CONTINUOUS
 62
         7
100
AcDbLine
 10
1324.3201865194
 20
-342.4946459612
 30
-1.5745439525
 11
1415.6321526677
 21
-342.4946459612
 31
-1.5745439525
  0
LINE
  5
302
100
AcDbEntity
  8
L1_120
  6
CENTER
 62
         1
100
AcDbLine
 10
1316.0508425579
 20
-352.2640113176
 30
-5.1303021499
 11
1508.4601061225
 21
-352.2640113176
 31
-5.1303021499
  0
DIMENSION
  5
305
100
AcDbEntity
  8
L1_120
  6
CONTINUOUS
 62
         4
100
AcDbDimension
  2
*D8
 10
1416.2508425579
 20
-319.8277460194
 30
-184.6526352586
 11
1463.2046469738
 21
-366.6802705173
 31
0.0
210
0.0
220
-0.5
230
0.8660254037844387
  3
DIMSTYLE1
100
AcDbAlignedDimension
 13
1416.2508425579
 23
-275.2919247454
 33
-158.9398668575
 14
1506.2508425579
 24
-282.8739771555
 34
-163.3173668575
100
AcDbRotatedDimension
  0
LINE
  5
311
100
AcDbEntity
  8
L1_120
  6
CONTINUOUS
 62
         7
100
AcDbLine
 10
1419.0008425579
 20
-321.8665182178
 30
12.4196986739
 11
1318.1900719993
 21
-334.5985717965
 31
5.068844113
  0
LINE
  5
312
100
AcDbEntity
  8
L1_120
  6
CONTINUOUS
 62
         7
100
AcDbLine
 10
1419.0008425579
 20
-382.6615044173
 30
-22.6803029737
 11
1318.1900719993
 21
-369.9294508386
 31
-15.3294484127
  0
ARC
  5
313
100
AcDbEntity
  8
L1_120
  6
CONTINUOUS
 62
         7
100
AcDbCircle
 10
1318.7008425579
 20
-289.6883979509
 30
171.6890336679
 40
2.5
210
0.0
220
-0.5
230
0.8660254037844387
100
AcDbArc
 50
98.297222
 51
180.0
  0
LINE
  5
314
100
AcDbEntity
  8
L1_120
  6
CONTINUOUS
 62
         7
100
AcDbLine
 10
1316.0508425579
 20
-335.1398170411
 30
1.1023948526
 11
1316.0508425579
 21
-369.1280506051
 31
-11.2683104801
  0
ARC
  5
315
100
AcDbEntity
  8
L1_120
  6
CONTINUOUS
 62
         7
100
AcDbCircle
 10
1318.7008425579
 20
-289.6883979509
 30
171.6890336679
 40
2.5
210
0.0
220
-0.5
230
0.8660254037844387
100
AcDbArc
 50
98.297222
 51
180.0
  0
ARC
  5
316
100
AcDbEntity
  8
L1_120
  6
CONTINUOUS
 62
         7
100
AcDbCircle
 10
1318.7008425579
 20
-325.581069479
 30
171.6890336679
 40
2.5
210
0.0
220
-0.5
230
0.8660254037844387
100
AcDbArc
 50
180.0
 51
261.702778
  0
INSERT
  5
385
100
AcDbEntity
  8
0
  6
CONTINUOUS
100
AcDbBlockReference
  2
*X9
 10
0.0
 20
0.0
 30
0.0
  0
LINE
  5
386
100
AcDbEntity
  8
L1_120
  6
DASHED
 62
         2
100
AcDbLine
 10
1592.4152624413
 20
-242.9871709711
 30
-10.5946344464
 11
1591.8441120025
 21
-241.1411837343
 31
-9.5288532183
  0
LINE
  5
387
100
AcDbEntity
  8
L1_120
  6
DASHED
 62
         2
100
AcDbLine
 10
1589.8441120025
 20
-240.3335151784
 30
-9.0625455602
 11
1591.8441120025
 21
-241.1411837343
 31
-9.5288532183
  0
LINE
  5
388
100
AcDbEntity
  8
L1_120
  6
DASHED
 62
         2
100
AcDbLine
 10
1592.4152624413
 20
-242.9871709711
 30
-10.5946344464
 11
1589.8441120025
 21
-240.3335151784
 31
-9.0625455602
  0
LINE
  5
389
100
AcDbEntity
  8
L1_120
  6
DASHED
 62
         2
100
AcDbLine
 10
1587.6855103246
 20
-237.3991388549
 30
-7.3683825999
 11
1587.6855103246
 21
-235.4880322393
 31
-6.2650046809
  0
LINE
  5
38A
100
AcDbEntity
  8
L1_120
  6
DASHED
 62
         2
100
AcDbLine
 10
1585.9950372776
 20
-234.259596586
 30
-5.5557670258
 11
1587.6855103246
 21
-235.4880322393
 31
-6.2650046809
  0
LINE
  5
38B
100
AcDbEntity
  8
L1_120
  6
DASHED
 62
         2
100
AcDbLine
 10
1587.6855103246
 20
-237.3991388549
 30
-7.3683825999
 11
1585.9950372776
 21
-234.259596586
 31
-5.5557670258
  0
LINE
  5
38C
100
AcDbEntity
  8
L1_120
  6
DASHED
 62
         2
100
AcDbLine
 10
1580.9245957945
 20
-251.3372269595
 30
-15.4155415191
 11
1592.4152624413
 21
-242.9871709711
 31
-10.5946344464
  0
LINE
  5
38D
100
AcDbEntity
  8
L1_120
  6
DASHED
 62
         2
100
AcDbLine
 10
1578.3534453558
 20
-248.6835711668
 30
-13.8834526328
 11
1589.8441120025
 21
-240.3335151784
 31
-9.0625455602
  0
LINE
  5
38E
100
AcDbEntity
  8
L1_120
  6
DASHED
 62
         2
100
AcDbLine
 10
1574.090893519
 20
-242.8891111164
 30
-10.5380195629
 11
1587.6855103246
 21
-237.3991388549
 31
-7.3683825999
  0
LINE
  5
38F
100
AcDbEntity
  8
L1_120
  6
DASHED
 62
         2
100
AcDbLine
 10
1572.4004204721
 20
-239.7495688475
 30
-8.7254039888
 11
1585.9950372776
 21
-234.259596586
 31
-5.5557670258
  0
LINE
  5
390
100
AcDbEntity
  8
L1_120
  6
DASHED
 62
         2
100
AcDbLine
 10
1592.4152624413
 20
-206.2862806735
 30
10.5946344464
 11
1591.8441120025
 21
-208.1322679103
 31
9.5288532183
  0
LINE
  5
391
100
AcDbEntity
  8
L1_120
  6
DASHED
 62
         2
100
AcDbLine
 10
1592.4152624413
 20
-206.2862806735
 30
10.5946344464
 11
1589.8441120025
 21
-208.9399364662
 31
9.0625455602
  0
LINE
  5
392
100
AcDbEntity
  8
L1_120
  6
DASHED
 62
         2
100
AcDbLine
 10
1589.8441120025
 20
-208.9399364662
 30
9.0625455602
 11
1591.8441120025
 21
-208.1322679103
 31
9.5288532183
  0
LINE
  5
393
100
AcDbEntity
  8
L1_120
  6
DASHED
 62
         2
100
AcDbLine
 10
1587.6855103246
 20
-211.8743127897
 30
7.3683825999
 11
1587.6855103246
 21
-213.7854194053
 31
6.2650046809
  0
LINE
  5
394
100
AcDbEntity
  8
L1_120
  6
DASHED
 62
         2
100
AcDbLine
 10
1585.9950372776
 20
-215.0138550586
 30
5.5557670258
 11
1587.6855103246
 21
-213.7854194053
 31
6.2650046809
  0
LINE
  5
395
100
AcDbEntity
  8
L1_120
  6
DASHED
 62
         2
100
AcDbLine
 10
1587.6855103246
 20
-211.8743127897
 30
7.3683825999
 11
1585.9950372776
 21
-215.0138550586
 31
5.5557670258
  0
LINE
  5
396
100
AcDbEntity
  8
L1_120
  6
DASHED
 62
         2
100
AcDbLine
 10
1572.4004204721
 20
-209.5238827971
 30
8.7254039888
 11
1585.9950372776
 21
-215.0138550586
 31
5.5557670258
  0
LINE
  5
397
100
AcDbEntity
  8
L1_120
  6
DASHED
 62
         2
100
AcDbLine
 10
1574.090893519
 20
-206.3843405282
 30
10.5380195629
 11
1587.6855103246
 21
-211.8743127897
 31
7.3683825999
  0
LINE
  5
398
100
AcDbEntity
  8
L1_120
  6
DASHED
 62
         2
100
AcDbLine
 10
1578.3534453558
 20
-200.5898804778
 30
13.8834526328
 11
1589.8441120025
 21
-208.9399364662
 31
9.0625455602
  0
LINE
  5
399
100
AcDbEntity
  8
L1_120
  6
DASHED
 62
         2
100
AcDbLine
 10
1580.9245957945
 20
-197.9362246851
 30
15.4155415191
 11
1592.4152624413
 21
-206.2862806735
 31
10.5946344464
  0
LINE
  5
39A
100
AcDbEntity
  8
L1_120
  6
CENTER
 62
         1
100
AcDbLine
 10
1577.211535513
 20
-251.7744077846
 30
-15.6679479861
 11
1614.556202115
 21
-224.6367258223
 31
0.0
  0
LINE
  5
39B
100
AcDbEntity
  8
L1_120
  6
CENTER
 62
         1
100
AcDbLine
 10
1570.373697497
 20
-242.4791356724
 30
-10.3013201299
 11
1614.556202115
 21
-224.6367258223
 31
0.0
  0
LINE
  5
39C
100
AcDbEntity
  8
L1_120
  6
CENTER
 62
         1
100
AcDbLine
 10
1570.373697497
 20
-206.7943159722
 30
10.3013201299
 11
1614.556202115
 21
-224.6367258223
 31
0.0
  0
LINE
  5
39D
100
AcDbEntity
  8
L1_120
  6
CENTER
 62
         1
100
AcDbLine
 10
1577.211535513
 20
-197.49904386
 30
15.6679479861
 11
1614.556202115
 21
-224.6367258223
 31
0.0
  0
CIRCLE
  5
39E
100
AcDbEntity
  8
L1_120
  6
CONTINUOUS
 62
         7
100
AcDbCircle
 10
1614.556202115
 20
-194.5411111851
 30
112.3183629111
 40
34.925
210
0.0
220
-0.5
230
0.8660254037844387
  0
LINE
  5
39F
100
AcDbEntity
  8
L1_120
  6
CONTINUOUS
 62
         7
100
AcDbLine
 10
1568.8149997342
 20
-235.7651522609
 30
-6.425
 11
1576.356202115
 21
-235.7651522609
 31
-6.425
  0
LINE
  5
3A0
100
AcDbEntity
  8
L1_120
  6
CONTINUOUS
 62
         7
100
AcDbLine
 10
1567.8149997342
 20
-236.6311776647
 30
-6.925
 11
1568.8149997342
 21
-235.7651522609
 31
-6.425
  0
LINE
  5
3A1
100
AcDbEntity
  8
L1_120
  6
CONTINUOUS
 62
         7
100
AcDbLine
 10
1568.8149997342
 20
-213.5082993837
 30
6.425
 11
1576.356202115
 21
-213.5082993837
 31
6.425
  0
LINE
  5
3A2
100
AcDbEntity
  8
L1_120
  6
CONTINUOUS
 62
         7
100
AcDbLine
 10
1567.8149997342
 20
-212.6422739799
 30
6.925
 11
1568.8149997342
 21
-213.5082993837
 31
6.425
  0
LINE
  5
3A3
100
AcDbEntity
  8
L1_120
  6
CONTINUOUS
 62
         7
100
AcDbLine
 10
1576.856202115
 20
-213.9413120856
 30
6.175
 11
1576.856202115
 21
-235.332139559
 31
-6.175
  0
LINE
  5
3A4
100
AcDbEntity
  8
L1_120
  6
CONTINUOUS
 62
         7
100
AcDbLine
 10
1576.356202115
 20
-213.5082993837
 30
6.425
 11
1576.856202115
 21
-213.9413120856
 31
6.175
  0
LINE
  5
3A5
100
AcDbEntity
  8
L1_120
  6
CONTINUOUS
 62
         7
100
AcDbLine
 10
1576.856202115
 20
-235.332139559
 30
-6.175
 11
1576.356202115
 21
-235.7651522609
 31
-6.425
  0
LINE
  5
3A6
100
AcDbEntity
  8
L1_120
  6
CONTINUOUS
 62
         7
100
AcDbLine
 10
1650.056202115
 20
-235.332139559
 30
-6.175
 11
1650.556202115
 21
-235.7651522609
 31
-6.425
  0
LINE
  5
3A7
100
AcDbEntity
  8
L1_120
  6
CONTINUOUS
 62
         7
100
AcDbLine
 10
1650.056202115
 20
-213.9413120856
 30
6.175
 11
1650.556202115
 21
-213.5082993837
 31
6.425
  0
LINE
  5
3A8
100
AcDbEntity
  8
L1_120
  6
CONTINUOUS
 62
         7
100
AcDbLine
 10
1660.2974044958
 20
-235.7651522609
 30
-6.425
 11
1650.556202115
 21
-235.7651522609
 31
-6.425
  0
LINE
  5
3A9
100
AcDbEntity
  8
L1_120
  6
CONTINUOUS
 62
         7
100
AcDbLine
 10
1661.2974044958
 20
-236.6311776647
 30
-6.925
 11
1660.2974044958
 21
-235.7651522609
 31
-6.425
  0
LINE
  5
3AA
100
AcDbEntity
  8
L1_120
  6
CONTINUOUS
 62
         7
100
AcDbLine
 10
1661.2974044958
 20
-212.6422739799
 30
6.925
 11
1660.2974044958
 21
-213.5082993837
 31
6.425
  0
LINE
  5
3AB
100
AcDbEntity
  8
L1_120
  6
CONTINUOUS
 62
         7
100
AcDbLine
 10
1660.2974044958
 20
-213.5082993837
 30
6.425
 11
1650.556202115
 21
-213.5082993837
 31
6.425
  0
LINE
  5
3AC
100
AcDbEntity
  8
L1_120
  6
CONTINUOUS
 62
         7
100
AcDbLine
 10
1650.056202115
 20
-213.9413120856
 30
6.175
 11
1650.056202115
 21
-235.332139559
 31
-6.175
  0
LINE
  5
3AD
100
AcDbEntity
  8
L1_120
  6
CENTER
 62
         1
100
AcDbLine
 10
1614.556202115
 20
-272.0516166795
 30
-27.375
 11
1614.556202115
 21
-179.4608372339
 31
26.0823114374
  0
LINE
  5
3AE
100
AcDbEntity
  8
L1_120
  6
CENTER
 62
         1
100
AcDbLine
 10
1559.806202115
 20
-224.6367258223
 30
0.0
 11
1669.306202115
 21
-224.6367258223
 31
0.0
  0
ARC
  5
3AF
100
AcDbEntity
  8
L1_120
  6
CONTINUOUS
 62
         7
100
AcDbCircle
 10
1614.556202115
 20
-194.5411111851
 30
112.3183629111
 40
48.75
210
0.0
220
-0.5
230
0.8660254037844387
100
AcDbArc
 50
196.5052120024
 51
343.4947879976
  0
ARC
  5
3B0
100
AcDbEntity
  8
L1_120
  6
DASHED
 62
         2
100
AcDbCircle
 10
1614.556202115
 20
-194.5411111851
 30
112.3183629111
 40
45.625
210
0.0
220
-0.5
230
0.8660254037844387
100
AcDbArc
 50
16.3583384794
 51
163.6416615206
  0
ARC
  5
3B1
100
AcDbEntity
  8
L1_120
  6
CONTINUOUS
 62
         7
100
AcDbCircle
 10
1614.556202115
 20
-194.5411111851
 30
112.3183629111
 40
48.75
210
0.0
220
-0.5
230
0.8660254037844387
100
AcDbArc
 50
16.5052120024
 51
163.4947879976
  0
ARC
  5
3B2
100
AcDbEntity
  8
L1_120
  6
DASHED
 62
         2
100
AcDbCircle
 10
1614.556202115
 20
-194.5411111851
 30
112.3183629111
 40
45.625
210
0.0
220
-0.5
230
0.8660254037844387
100
AcDbArc
 50
197.6716498685
 51
343.6416615206
  0
LINE
  5
3B3
100
AcDbEntity
  8
L1_120
  6
DASHED
 62
         2
100
AcDbLine
 10
1577.356202115
 20
-220.3065988034
 30
2.5
 11
1577.356202115
 21
-228.9668528412
 31
-2.5
  0
LINE
  5
3B4
100
AcDbEntity
  8
L1_120
  6
DASHED
 62
         2
100
AcDbLine
 10
1577.356202115
 20
-220.3065988034
 30
2.5
 11
1576.856202115
 21
-219.8735861015
 31
2.75
  0
LINE
  5
3B5
100
AcDbEntity
  8
L1_120
  6
DASHED
 62
         2
100
AcDbLine
 10
1577.356202115
 20
-228.9668528412
 30
-2.5
 11
1576.856202115
 21
-229.3998655431
 31
-2.75
  0
LINE
  5
3B6
100
AcDbEntity
  8
L1_120
  6
DASHED
 62
         2
100
AcDbLine
 10
1577.056202115
 20
-220.3065988034
 30
2.5
 11
1581.306202115
 21
-220.3065988034
 31
2.5
  0
LINE
  5
3B7
100
AcDbEntity
  8
L1_120
  6
DASHED
 62
         2
100
AcDbLine
 10
1576.856202115
 20
-229.140057922
 30
-2.6
 11
1577.056202115
 21
-228.9668528412
 31
-2.5
  0
LINE
  5
3B8
100
AcDbEntity
  8
L1_120
  6
DASHED
 62
         2
100
AcDbLine
 10
1576.856202115
 20
-220.1333937226
 30
2.6
 11
1577.056202115
 21
-220.3065988034
 31
2.5
  0
LINE
  5
3B9
100
AcDbEntity
  8
L1_120
  6
DASHED
 62
         2
100
AcDbLine
 10
1577.056202115
 20
-220.3065988034
 30
2.5
 11
1577.056202115
 21
-228.9668528412
 31
-2.5
  0
ARC
  5
3BA
100
AcDbEntity
  8
L1_120
  6
DASHED
 62
         2
100
AcDbCircle
 10
1581.306202115
 20
-199.3411111851
 30
112.3183629111
 40
0.2
210
0.0
220
-0.5
230
0.8660254037844387
100
AcDbArc
 50
270.0
 51
360.0
  0
ARC
  5
3BB
100
AcDbEntity
  8
L1_120
  6
DASHED
 62
         2
100
AcDbCircle
 10
1581.306202115
 20
-189.7411111851
 30
112.3183629111
 40
0.2
210
0.0
220
-0.5
230
0.8660254037844387
100
AcDbArc
 50
0.0
 51
90.0
  0
LINE
  5
3BC
100
AcDbEntity
  8
L1_120
  6
DASHED
 62
         2
100
AcDbLine
 10
1581.506202115
 20
-220.4798038841
 30
2.4
 11
1581.506202115
 21
-228.7936477605
 31
-2.4
  0
LINE
  5
3BD
100
AcDbEntity
  8
L1_120
  6
DASHED
 62
         2
100
AcDbLine
 10
1577.056202115
 20
-228.9668528412
 30
-2.5
 11
1581.306202115
 21
-228.9668528412
 31
-2.5
  0
CIRCLE
  5
3BE
100
AcDbEntity
  8
L1_120
  6
CONTINUOUS
 62
         7
100
AcDbCircle
 10
1614.556202115
 20
-194.5411111851
 30
112.3183629111
 40
24.95
210
0.0
220
-0.5
230
0.8660254037844387
  0
CIRCLE
  5
3BF
100
AcDbEntity
  8
L1_120
  6
CONTINUOUS
 62
         7
100
AcDbCircle
 10
1614.556202115
 20
-194.5411111851
 30
112.3183629111
 40
20.0
210
0.0
220
-0.5
230
0.8660254037844387
  0
CIRCLE
  5
3C0
100
AcDbEntity
  8
L1_120
  6
CONTINUOUS
 62
         7
100
AcDbCircle
 10
1614.556202115
 20
-194.5411111851
 30
112.3183629111
 40
16.0
210
0.0
220
-0.5
230
0.8660254037844387
  0
ARC
  5
3C1
100
AcDbEntity
  8
L1_120
  6
CONTINUOUS
 62
         4
100
AcDbCircle
 10
1614.556202115
 20
-194.5411111851
 30
112.3183629111
 40
19.0
210
0.0
220
-0.5
230
0.8660254037844387
100
AcDbArc
 50
165.9957742927
 51
464.626061893
  0
CIRCLE
  5
3C2
100
AcDbEntity
  8
L1_120
  6
CONTINUOUS
 62
         7
100
AcDbCircle
 10
1614.556202115
 20
-194.5411111851
 30
112.3183629111
 40
12.5
210
0.0
220
-0.5
230
0.8660254037844387
  0
CIRCLE
  5
3C3
100
AcDbEntity
  8
L1_120
  6
CONTINUOUS
 62
         7
100
AcDbCircle
 10
1614.556202115
 20
-194.5411111851
 30
112.3183629111
 40
10.245
210
0.0
220
-0.5
230
0.8660254037844387
  0
ARC
  5
3C4
100
AcDbEntity
  8
L1_120
  6
CONTINUOUS
 62
         4
100
AcDbCircle
 10
1614.556202115
 20
-194.5411111851
 30
112.3183629111
 40
11.11
210
0.0
220
-0.5
230
0.8660254037844387
100
AcDbArc
 50
180.0
 51
450.0
  0
LINE
  5
3C5
100
AcDbEntity
  8
L1_120
  6
DASHED
 62
         2
100
AcDbLine
 10
1601.9535103751
 20
-190.47212043
 30
19.72494412
 11
1611.9444526284
 21
-214.2444209769
 31
6.0
  0
LINE
  5
3C6
100
AcDbEntity
  8
L1_120
  6
DASHED
 62
         2
100
AcDbLine
 10
1598.5236323092
 20
-191.5532436145
 30
19.1007573584
 11
1602.2824027924
 21
-190.3684510836
 31
19.7847976451
  0
LINE
  5
3C7
100
AcDbEntity
  8
L1_120
  6
DASHED
 62
         2
100
AcDbLine
 10
1600.8459181904
 20
-186.9505008219
 30
21.7581521487
 11
1602.2824027924
 21
-190.3684510836
 31
19.7847976451
  0
LINE
  5
3C8
100
AcDbEntity
  8
L1_120
  6
DASHED
 62
         2
100
AcDbLine
 10
1598.8525247265
 20
-191.449574268
 30
19.1606108835
 11
1608.4326659792
 21
-214.2444209769
 31
6.0
  0
LINE
  5
3C9
100
AcDbEntity
  8
L1_120
  6
DASHED
 62
         2
100
AcDbLine
 10
1597.0871477073
 20
-188.1352933528
 30
21.0741118621
 11
1598.5236323092
 21
-191.5532436145
 31
19.1007573584
  0
LINE
  5
3CA
100
AcDbEntity
  8
L1_120
  6
DASHED
 62
         2
100
AcDbLine
 10
1620.6797382508
 20
-235.0290306677
 30
-6.0
 11
1630.2598795035
 21
-257.8238773766
 31
-19.1606108835
  0
LINE
  5
3CB
100
AcDbEntity
  8
L1_120
  6
DASHED
 62
         2
100
AcDbLine
 10
1632.0252565227
 20
-261.1381582918
 30
-21.0741118621
 11
1630.5887719208
 21
-257.7202080301
 31
-19.1007573584
  0
LINE
  5
3CC
100
AcDbEntity
  8
L1_120
  6
DASHED
 62
         2
100
AcDbLine
 10
1630.5887719208
 20
-257.7202080301
 30
-19.1007573584
 11
1626.8300014376
 21
-258.905000561
 31
-19.7847976451
  0
LINE
  5
3CD
100
AcDbEntity
  8
L1_120
  6
DASHED
 62
         2
100
AcDbLine
 10
1628.2664860396
 20
-262.3229508227
 30
-21.7581521487
 11
1626.8300014376
 21
-258.905000561
 31
-19.7847976451
  0
LINE
  5
3CE
100
AcDbEntity
  8
L1_120
  6
DASHED
 62
         2
100
AcDbLine
 10
1617.1679516016
 20
-235.0290306677
 30
-6.0
 11
1627.1588938549
 21
-258.8013312146
 31
-19.72494412
  0
LINE
  5
3CF
100
AcDbEntity
  8
L1_120
  6
CENTER
 62
         1
100
AcDbLine
 10
1596.278691024
 20
-181.1474856797
 30
25.1085245032
 11
1635.6417544609
 21
-274.8073778846
 31
-28.9660394736
  0
LINE
  5
3D0
100
AcDbEntity
  8
L1_120
  6
CENTER
 62
         1
100
AcDbLine
 10
1605.1975223618
 20
-189.800862186
 30
20.1124952478
 11
1595.8005961539
 21
-192.7628435133
 31
18.4023945312
  0
POLYLINE
  5
3D2
100
AcDbEntity
  8
L1_120
  6
CONTINUOUS
 62
         7
100
AcDb2dPolyline
 66
         1
 10
0.0
 20
0.0
 30
112.3183629111
 70
         2
210
0.0
220
-0.5
230
0.8660254037844387
  0
VERTEX
  5
3D4
100
AcDbEntity
  8
L1_120
  6
CONTINUOUS
 62
         7
100
AcDbVertex
100
AcDb2dVertex
 10
1601.6961297595
 20
-159.3151455787
 30
112.3183629111
 70
         1
  0
VERTEX
  5
3D6
100
AcDbEntity
  8
L1_120
  6
CONTINUOUS
 62
         7
100
AcDbVertex
100
AcDb2dVertex
 10
1602.0469882921
 20
-159.1421057849
 30
112.3183629111
 70
         1
  0
VERTEX
  5
3D8
100
AcDbEntity
  8
L1_120
  6
CONTINUOUS
 62
         7
100
AcDbVertex
100
AcDb2dVertex
 10
1602.1922735377
 20
-159.0397800535
 30
112.3183629111
 70
         1
  0
VERTEX
  5
3DA
100
AcDbEntity
  8
L1_120
  6
CONTINUOUS
 62
         7
100
AcDbVertex
100
AcDb2dVertex
 10
1602.3325279127
 20
-158.9196996656
 30
112.3183629111
 70
         1
  0
VERTEX
  5
3DC
100
AcDbEntity
  8
L1_120
  6
CONTINUOUS
 62
         7
100
AcDbVertex
100
AcDb2dVertex
 10
1602.4660966378
 20
-158.7817267665
 30
112.3183629111
 70
         1
  0
VERTEX
  5
3DE
100
AcDbEntity
  8
L1_120
  6
CONTINUOUS
 62
         7
100
AcDbVertex
100
AcDb2dVertex
 10
1602.5913175984
 20
-158.6260611856
 30
112.3183629111
 70
         1
  0
VERTEX
  5
3E0
100
AcDbEntity
  8
L1_120
  6
CONTINUOUS
 62
         7
100
AcDbVertex
100
AcDb2dVertex
 10
1602.7065753779
 20
-158.4532668615
 30
112.3183629111
 70
         1
  0
VERTEX
  5
3E2
100
AcDbEntity
  8
L1_120
  6
CONTINUOUS
 62
         7
100
AcDbVertex
100
AcDb2dVertex
 10
1602.8103588123
 20
-158.2642829617
 30
112.3183629111
 70
         1
  0
VERTEX
  5
3E4
100
AcDbEntity
  8
L1_120
  6
CONTINUOUS
 62
         7
100
AcDbVertex
100
AcDb2dVertex
 10
1602.901318426
 20
-158.0604171463
 30
112.3183629111
 70
         1
  0
VERTEX
  5
3E6
100
AcDbEntity
  8
L1_120
  6
CONTINUOUS
 62
         7
100
AcDbVertex
100
AcDb2dVertex
 10
1602.9783196868
 20
-157.8433198036
 30
112.3183629111
 70
         1
  0
VERTEX
  5
3E8
100
AcDbEntity
  8
L1_120
  6
CONTINUOUS
 62
         7
100
AcDbVertex
100
AcDb2dVertex
 10
1603.0404880385
 20
-157.6149397649
 30
112.3183629111
 70
         1
  0
VERTEX
  5
3EA
100
AcDbEntity
  8
L1_120
  6
CONTINUOUS
 62
         7
100
AcDbVertex
100
AcDb2dVertex
 10
1603.0872421752
 20
-157.3774637746
 30
112.3183629111
 70
         1
  0
VERTEX
  5
3EC
100
AcDbEntity
  8
L1_120
  6
CONTINUOUS
 62
         7
100
AcDbVertex
100
AcDb2dVertex
 10
1603.1253145885
 20
-157.048951469
 30
112.3183629111
 70
         1
  0
VERTEX
  5
3EE
100
AcDbEntity
  8
L1_120
  6
CONTINUOUS
 62
         7
100
AcDbVertex
100
AcDb2dVertex
 10
1603.1354737181
 20
-156.7141943397
 30
112.3183629111
 70
         1
  0
VERTEX
  5
3F0
100
AcDbEntity
  8
L1_120
  6
CONTINUOUS
 62
         7
100
AcDbVertex
100
AcDb2dVertex
 10
1603.1189056875
 20
-156.3789822125
 30
112.3183629111
 70
         1
  0
VERTEX
  5
3F2
100
AcDbEntity
  8
L1_120
  6
CONTINUOUS
 62
         7
100
AcDbVertex
100
AcDb2dVertex
 10
1603.0776096388
 20
-156.0487111049
 30
112.3183629111
 70
         1
  0
VERTEX
  5
3F4
100
AcDbEntity
  8
L1_120
  6
CONTINUOUS
 62
         7
100
AcDbVertex
100
AcDb2dVertex
 10
1603.014208561
 20
-155.7281303804
 30
112.3183629111
 70
         1
  0
VERTEX
  5
3F6
100
AcDbEntity
  8
L1_120
  6
CONTINUOUS
 62
         7
100
AcDbVertex
100
AcDb2dVertex
 10
1602.9317359708
 20
-155.4211736789
 30
112.3183629111
 70
         1
  0
VERTEX
  5
3F8
100
AcDbEntity
  8
L1_120
  6
CONTINUOUS
 62
         7
100
AcDbVertex
100
AcDb2dVertex
 10
1602.7966255029
 20
-155.0355102309
 30
112.3183629111
 70
         1
  0
VERTEX
  5
3FA
100
AcDbEntity
  8
L1_120
  6
CONTINUOUS
 62
         7
100
AcDbVertex
100
AcDb2dVertex
 10
1602.6407351401
 20
-154.6846295227
 30
112.3183629111
 70
         1
  0
VERTEX
  5
3FC
100
AcDbEntity
  8
L1_120
  6
CONTINUOUS
 62
         7
100
AcDbVertex
100
AcDb2dVertex
 10
1602.4712835989
 20
-154.3707551888
 30
112.3183629111
 70
         1
  0
VERTEX
  5
3FE
100
AcDbEntity
  8
L1_120
  6
CONTINUOUS
 62
         7
100
AcDbVertex
100
AcDb2dVertex
 10
1602.2945272826
 20
-154.0939954396
 30
112.3183629111
 70
         1
  0
VERTEX
  5
400
100
AcDbEntity
  8
L1_120
  6
CONTINUOUS
 62
         7
100
AcDbVertex
100
AcDb2dVertex
 10
1602.115589091
 20
-153.8529068935
 30
112.3183629111
 70
         1
  0
VERTEX
  5
402
100
AcDbEntity
  8
L1_120
  6
CONTINUOUS
 62
         7
100
AcDbVertex
100
AcDb2dVertex
 10
1601.938451012
 20
-153.6450267206
 30
112.3183629111
 70
         1
  0
VERTEX
  5
404
100
AcDbEntity
  8
L1_120
  6
CONTINUOUS
 62
         7
100
AcDbVertex
100
AcDb2dVertex
 10
1601.7077924532
 20
-153.4121637455
 30
112.3183629111
 70
         1
  0
VERTEX
  5
406
100
AcDbEntity
  8
L1_120
  6
CONTINUOUS
 62
         7
100
AcDbVertex
100
AcDb2dVertex
 10
1601.4903134331
 20
-153.2260235941
 30
112.3183629111
 70
         1
  0
VERTEX
  5
408
100
AcDbEntity
  8
L1_120
  6
CONTINUOUS
 62
         7
100
AcDbVertex
100
AcDb2dVertex
 10
1601.2885019429
 20
-153.0788303129
 30
112.3183629111
 70
         1
  0
VERTEX
  5
40A
100
AcDbEntity
  8
L1_120
  6
CONTINUOUS
 62
         7
100
AcDbVertex
100
AcDb2dVertex
 10
1601.0421596965
 20
-152.9294175215
 30
112.3183629111
 70
         1
  0
VERTEX
  5
40C
100
AcDbEntity
  8
L1_120
  6
CONTINUOUS
 62
         7
100
AcDbVertex
100
AcDb2dVertex
 10
1600.8256108651
 20
-152.8237350924
 30
112.3183629111
 70
         1
  0
VERTEX
  5
40E
100
AcDbEntity
  8
L1_120
  6
CONTINUOUS
 62
         7
100
AcDbVertex
100
AcDb2dVertex
 10
1600.636689499
 20
-152.7503040895
 30
112.3183629111
 70
         1
  0
VERTEX
  5
410
100
AcDbEntity
  8
L1_120
  6
CONTINUOUS
 62
         7
100
AcDbVertex
100
AcDb2dVertex
 10
1600.4191336443
 20
-152.6869575695
 30
112.3183629111
 70
         1
  0
VERTEX
  5
412
100
AcDbEntity
  8
L1_120
  6
CONTINUOUS
 62
         7
100
AcDbVertex
100
AcDb2dVertex
 10
1600.1819041192
 20
-152.6437241243
 30
112.3183629111
 70
         1
  0
VERTEX
  5
414
100
AcDbEntity
  8
L1_120
  6
CONTINUOUS
 62
         7
100
AcDbVertex
100
AcDb2dVertex
 10
1599.9991390743
 20
-152.6291294054
 30
112.3183629111
 70
         1
  0
VERTEX
  5
416
100
AcDbEntity
  8
L1_120
  6
CONTINUOUS
 62
         7
100
AcDbVertex
100
AcDb2dVertex
 10
1599.8119570728
 20
-152.6316757619
 30
112.3183629111
 70
         1
  0
VERTEX
  5
418
100
AcDbEntity
  8
L1_120
  6
CONTINUOUS
 62
         7
100
AcDbVertex
100
AcDb2dVertex
 10
1599.6357345481
 20
-152.6510688533
 30
112.3183629111
 70
         1
  0
VERTEX
  5
41A
100
AcDbEntity
  8
L1_120
  6
CONTINUOUS
 62
         7
100
AcDbVertex
100
AcDb2dVertex
 10
1599.4403279935
 20
-152.6932221029
 30
112.3183629111
 70
         1
  0
VERTEX
  5
41C
100
AcDbEntity
  8
L1_120
  6
CONTINUOUS
 62
         7
100
AcDbVertex
100
AcDb2dVertex
 10
1599.3019887562
 20
-152.7372972332
 30
112.3183629111
 70
         1
  0
VERTEX
  5
41E
100
AcDbEntity
  8
L1_120
  6
CONTINUOUS
 62
         7
100
AcDbVertex
100
AcDb2dVertex
 10
1599.3019887562
 20
-152.7372972332
 30
112.3183629111
 70
         1
  0
VERTEX
  5
420
100
AcDbEntity
  8
L1_120
  6
CONTINUOUS
 62
         7
100
AcDbVertex
100
AcDb2dVertex
 10
1598.9511302236
 20
-152.9103370271
 30
112.3183629111
 70
         1
  0
VERTEX
  5
422
100
AcDbEntity
  8
L1_120
  6
CONTINUOUS
 62
         7
100
AcDbVertex
100
AcDb2dVertex
 10
1598.805844978
 20
-153.0126627585
 30
112.3183629111
 70
         1
  0
VERTEX
  5
424
100
AcDbEntity
  8
L1_120
  6
CONTINUOUS
 62
         7
100
AcDbVertex
100
AcDb2dVertex
 10
1598.665590603
 20
-153.1327431464
 30
112.3183629111
 70
         1
  0
VERTEX
  5
426
100
AcDbEntity
  8
L1_120
  6
CONTINUOUS
 62
         7
100
AcDbVertex
100
AcDb2dVertex
 10
1598.5320218779
 20
-153.2707160455
 30
112.3183629111
 70
         1
  0
VERTEX
  5
428
100
AcDbEntity
  8
L1_120
  6
CONTINUOUS
 62
         7
100
AcDbVertex
100
AcDb2dVertex
 10
1598.4068009173
 20
-153.4263816264
 30
112.3183629111
 70
         1
  0
VERTEX
  5
42A
100
AcDbEntity
  8
L1_120
  6
CONTINUOUS
 62
         7
100
AcDbVertex
100
AcDb2dVertex
 10
1598.2915431378
 20
-153.5991759505
 30
112.3183629111
 70
         1
  0
VERTEX
  5
42C
100
AcDbEntity
  8
L1_120
  6
CONTINUOUS
 62
         7
100
AcDbVertex
100
AcDb2dVertex
 10
1598.1877597034
 20
-153.7881598503
 30
112.3183629111
 70
         1
  0
VERTEX
  5
42E
100
AcDbEntity
  8
L1_120
  6
CONTINUOUS
 62
         7
100
AcDbVertex
100
AcDb2dVertex
 10
1598.0968000898
 20
-153.9920256656
 30
112.3183629111
 70
         1
  0
VERTEX
  5
430
100
AcDbEntity
  8
L1_120
  6
CONTINUOUS
 62
         7
100
AcDbVertex
100
AcDb2dVertex
 10
1598.0197988289
 20
-154.2091230084
 30
112.3183629111
 70
         1
  0
VERTEX
  5
432
100
AcDbEntity
  8
L1_120
  6
CONTINUOUS
 62
         7
100
AcDbVertex
100
AcDb2dVertex
 10
1597.9576304773
 20
-154.4375030471
 30
112.3183629111
 70
         1
  0
VERTEX
  5
434
100
AcDbEntity
  8
L1_120
  6
CONTINUOUS
 62
         7
100
AcDbVertex
100
AcDb2dVertex
 10
1597.9108763406
 20
-154.6749790373
 30
112.3183629111
 70
         1
  0
VERTEX
  5
436
100
AcDbEntity
  8
L1_120
  6
CONTINUOUS
 62
         7
100
AcDbVertex
100
AcDb2dVertex
 10
1597.8728039272
 20
-155.0034913429
 30
112.3183629111
 70
         1
  0
VERTEX
  5
438
100
AcDbEntity
  8
L1_120
  6
CONTINUOUS
 62
         7
100
AcDbVertex
100
AcDb2dVertex
 10
1597.8626447976
 20
-155.3382484723
 30
112.3183629111
 70
         1
  0
VERTEX
  5
43A
100
AcDbEntity
  8
L1_120
  6
CONTINUOUS
 62
         7
100
AcDbVertex
100
AcDb2dVertex
 10
1597.8792128282
 20
-155.6734605995
 30
112.3183629111
 70
         1
  0
VERTEX
  5
43C
100
AcDbEntity
  8
L1_120
  6
CONTINUOUS
 62
         7
100
AcDbVertex
100
AcDb2dVertex
 10
1597.9205088769
 20
-156.0037317071
 30
112.3183629111
 70
         1
  0
VERTEX
  5
43E
100
AcDbEntity
  8
L1_120
  6
CONTINUOUS
 62
         7
100
AcDbVertex
100
AcDb2dVertex
 10
1597.9839099547
 20
-156.3243124316
 30
112.3183629111
 70
         1
  0
VERTEX
  5
440
100
AcDbEntity
  8
L1_120
  6
CONTINUOUS
 62
         7
100
AcDbVertex
100
AcDb2dVertex
 10
1598.0663825449
 20
-156.6312691331
 30
112.3183629111
 70
         1
  0
VERTEX
  5
442
100
AcDbEntity
  8
L1_120
  6
CONTINUOUS
 62
         7
100
AcDbVertex
100
AcDb2dVertex
 10
1598.2014930128
 20
-157.0169325811
 30
112.3183629111
 70
         1
  0
VERTEX
  5
444
100
AcDbEntity
  8
L1_120
  6
CONTINUOUS
 62
         7
100
AcDbVertex
100
AcDb2dVertex
 10
1598.3573833756
 20
-157.3678132893
 30
112.3183629111
 70
         1
  0
VERTEX
  5
446
100
AcDbEntity
  8
L1_120
  6
CONTINUOUS
 62
         7
100
AcDbVertex
100
AcDb2dVertex
 10
1598.5268349168
 20
-157.6816876232
 30
112.3183629111
 70
         1
  0
VERTEX
  5
448
100
AcDbEntity
  8
L1_120
  6
CONTINUOUS
 62
         7
100
AcDbVertex
100
AcDb2dVertex
 10
1598.7035912331
 20
-157.9584473724
 30
112.3183629111
 70
         1
  0
VERTEX
  5
44A
100
AcDbEntity
  8
L1_120
  6
CONTINUOUS
 62
         7
100
AcDbVertex
100
AcDb2dVertex
 10
1598.8825294247
 20
-158.1995359185
 30
112.3183629111
 70
         1
  0
VERTEX
  5
44C
100
AcDbEntity
  8
L1_120
  6
CONTINUOUS
 62
         7
100
AcDbVertex
100
AcDb2dVertex
 10
1599.0596675037
 20
-158.4074160914
 30
112.3183629111
 70
         1
  0
VERTEX
  5
44E
100
AcDbEntity
  8
L1_120
  6
CONTINUOUS
 62
         7
100
AcDbVertex
100
AcDb2dVertex
 10
1599.2903260625
 20
-158.6402790665
 30
112.3183629111
 70
         1
  0
VERTEX
  5
450
100
AcDbEntity
  8
L1_120
  6
CONTINUOUS
 62
         7
100
AcDbVertex
100
AcDb2dVertex
 10
1599.5078050826
 20
-158.8264192179
 30
112.3183629111
 70
         1
  0
VERTEX
  5
452
100
AcDbEntity
  8
L1_120
  6
CONTINUOUS
 62
         7
100
AcDbVertex
100
AcDb2dVertex
 10
1599.7096165728
 20
-158.9736124991
 30
112.3183629111
 70
         1
  0
VERTEX
  5
454
100
AcDbEntity
  8
L1_120
  6
CONTINUOUS
 62
         7
100
AcDbVertex
100
AcDb2dVertex
 10
1599.9559588192
 20
-159.1230252905
 30
112.3183629111
 70
         1
  0
VERTEX
  5
456
100
AcDbEntity
  8
L1_120
  6
CONTINUOUS
 62
         7
100
AcDbVertex
100
AcDb2dVertex
 10
1600.1725076506
 20
-159.2287077196
 30
112.3183629111
 70
         1
  0
VERTEX
  5
458
100
AcDbEntity
  8
L1_120
  6
CONTINUOUS
 62
         7
100
AcDbVertex
100
AcDb2dVertex
 10
1600.3614290167
 20
-159.3021387225
 30
112.3183629111
 70
         1
  0
VERTEX
  5
45A
100
AcDbEntity
  8
L1_120
  6
CONTINUOUS
 62
         7
100
AcDbVertex
100
AcDb2dVertex
 10
1600.5789848714
 20
-159.3654852425
 30
112.3183629111
 70
         1
  0
VERTEX
  5
45C
100
AcDbEntity
  8
L1_120
  6
CONTINUOUS
 62
         7
100
AcDbVertex
100
AcDb2dVertex
 10
1600.8162143965
 20
-159.4087186877
 30
112.3183629111
 70
         1
  0
VERTEX
  5
45E
100
AcDbEntity
  8
L1_120
  6
CONTINUOUS
 62
         7
100
AcDbVertex
100
AcDb2dVertex
 10
1600.9989794414
 20
-159.4233134066
 30
112.3183629111
 70
         1
  0
VERTEX
  5
460
100
AcDbEntity
  8
L1_120
  6
CONTINUOUS
 62
         7
100
AcDbVertex
100
AcDb2dVertex
 10
1601.1861614429
 20
-159.4207670501
 30
112.3183629111
 70
         1
  0
VERTEX
  5
462
100
AcDbEntity
  8
L1_120
  6
CONTINUOUS
 62
         7
100
AcDbVertex
100
AcDb2dVertex
 10
1601.3623839677
 20
-159.4013739587
 30
112.3183629111
 70
         1
  0
VERTEX
  5
464
100
AcDbEntity
  8
L1_120
  6
CONTINUOUS
 62
         7
100
AcDbVertex
100
AcDb2dVertex
 10
1601.5577905222
 20
-159.3592207091
 30
112.3183629111
 70
         1
  0
VERTEX
  5
466
100
AcDbEntity
  8
L1_120
  6
CONTINUOUS
 62
         7
100
AcDbVertex
100
AcDb2dVertex
 10
1601.6961297595
 20
-159.3151455787
 30
112.3183629111
 70
         1
  0
SEQEND
  5
468
100
AcDbEntity
  8
L1_120
  6
CONTINUOUS
 62
         7
  0
LINE
  5
469
100
AcDbEntity
  8
L1_120
  6
CENTER
 62
         1
100
AcDbLine
 10
1623.9148818682
 20
-259.4725894586
 30
-20.1124952478
 11
1633.3118080761
 21
-256.5106081313
 31
-18.4023945312
  0
POLYLINE
  5
46B
100
AcDbEntity
  8
L1_120
  6
CONTINUOUS
 62
         7
100
AcDb2dPolyline
 66
         1
 10
0.0
 20
0.0
 30
112.3183629111
 70
         2
210
0.0
220
-0.5
230
0.8660254037844387
  0
VERTEX
  5
46D
100
AcDbEntity
  8
L1_120
  6
CONTINUOUS
 62
         7
100
AcDbVertex
100
AcDb2dVertex
 10
1629.8104154738
 20
-236.3449251369
 30
112.3183629111
 70
         1
  0
VERTEX
  5
46F
100
AcDbEntity
  8
L1_120
  6
CONTINUOUS
 62
         7
100
AcDbVertex
100
AcDb2dVertex
 10
1630.1612740064
 20
-236.171885343
 30
112.3183629111
 70
         1
  0
VERTEX
  5
471
100
AcDbEntity
  8
L1_120
  6
CONTINUOUS
 62
         7
100
AcDbVertex
100
AcDb2dVertex
 10
1630.306559252
 20
-236.0695596116
 30
112.3183629111
 70
         1
  0
VERTEX
  5
473
100
AcDbEntity
  8
L1_120
  6
CONTINUOUS
 62
         7
100
AcDbVertex
100
AcDb2dVertex
 10
1630.446813627
 20
-235.9494792237
 30
112.3183629111
 70
         1
  0
VERTEX
  5
475
100
AcDbEntity
  8
L1_120
  6
CONTINUOUS
 62
         7
100
AcDbVertex
100
AcDb2dVertex
 10
1630.5803823521
 20
-235.8115063246
 30
112.3183629111
 70
         1
  0
VERTEX
  5
477
100
AcDbEntity
  8
L1_120
  6
CONTINUOUS
 62
         7
100
AcDbVertex
100
AcDb2dVertex
 10
1630.7056033127
 20
-235.6558407437
 30
112.3183629111
 70
         1
  0
VERTEX
  5
479
100
AcDbEntity
  8
L1_120
  6
CONTINUOUS
 62
         7
100
AcDbVertex
100
AcDb2dVertex
 10
1630.8208610922
 20
-235.4830464196
 30
112.3183629111
 70
         1
  0
VERTEX
  5
47B
100
AcDbEntity
  8
L1_120
  6
CONTINUOUS
 62
         7
100
AcDbVertex
100
AcDb2dVertex
 10
1630.9246445266
 20
-235.2940625198
 30
112.3183629111
 70
         1
  0
VERTEX
  5
47D
100
AcDbEntity
  8
L1_120
  6
CONTINUOUS
 62
         7
100
AcDbVertex
100
AcDb2dVertex
 10
1631.0156041403
 20
-235.0901967045
 30
112.3183629111
 70
         1
  0
VERTEX
  5
47F
100
AcDbEntity
  8
L1_120
  6
CONTINUOUS
 62
         7
100
AcDbVertex
100
AcDb2dVertex
 10
1631.0926054011
 20
-234.8730993618
 30
112.3183629111
 70
         1
  0
VERTEX
  5
481
100
AcDbEntity
  8
L1_120
  6
CONTINUOUS
 62
         7
100
AcDbVertex
100
AcDb2dVertex
 10
1631.1547737527
 20
-234.644719323
 30
112.3183629111
 70
         1
  0
VERTEX
  5
483
100
AcDbEntity
  8
L1_120
  6
CONTINUOUS
 62
         7
100
AcDbVertex
100
AcDb2dVertex
 10
1631.2015278894
 20
-234.4072433328
 30
112.3183629111
 70
         1
  0
VERTEX
  5
485
100
AcDbEntity
  8
L1_120
  6
CONTINUOUS
 62
         7
100
AcDbVertex
100
AcDb2dVertex
 10
1631.2396003028
 20
-234.0787310272
 30
112.3183629111
 70
         1
  0
VERTEX
  5
487
100
AcDbEntity
  8
L1_120
  6
CONTINUOUS
 62
         7
100
AcDbVertex
100
AcDb2dVertex
 10
1631.2497594324
 20
-233.7439738979
 30
112.3183629111
 70
         1
  0
VERTEX
  5
489
100
AcDbEntity
  8
L1_120
  6
CONTINUOUS
 62
         7
100
AcDbVertex
100
AcDb2dVertex
 10
1631.2331914018
 20
-233.4087617706
 30
112.3183629111
 70
         1
  0
VERTEX
  5
48B
100
AcDbEntity
  8
L1_120
  6
CONTINUOUS
 62
         7
100
AcDbVertex
100
AcDb2dVertex
 10
1631.1918953531
 20
-233.078490663
 30
112.3183629111
 70
         1
  0
VERTEX
  5
48D
100
AcDbEntity
  8
L1_120
  6
CONTINUOUS
 62
         7
100
AcDbVertex
100
AcDb2dVertex
 10
1631.1284942753
 20
-232.7579099385
 30
112.3183629111
 70
         1
  0
VERTEX
  5
48F
100
AcDbEntity
  8
L1_120
  6
CONTINUOUS
 62
         7
100
AcDbVertex
100
AcDb2dVertex
 10
1631.0460216851
 20
-232.450953237
 30
112.3183629111
 70
         1
  0
VERTEX
  5
491
100
AcDbEntity
  8
L1_120
  6
CONTINUOUS
 62
         7
100
AcDbVertex
100
AcDb2dVertex
 10
1630.9109112172
 20
-232.0652897891
 30
112.3183629111
 70
         1
  0
VERTEX
  5
493
100
AcDbEntity
  8
L1_120
  6
CONTINUOUS
 62
         7
100
AcDbVertex
100
AcDb2dVertex
 10
1630.7550208544
 20
-231.7144090808
 30
112.3183629111
 70
         1
  0
VERTEX
  5
495
100
AcDbEntity
  8
L1_120
  6
CONTINUOUS
 62
         7
100
AcDbVertex
100
AcDb2dVertex
 10
1630.5855693132
 20
-231.400534747
 30
112.3183629111
 70
         1
  0
VERTEX
  5
497
100
AcDbEntity
  8
L1_120
  6
CONTINUOUS
 62
         7
100
AcDbVertex
100
AcDb2dVertex
 10
1630.4088129969
 20
-231.1237749977
 30
112.3183629111
 70
         1
  0
VERTEX
  5
499
100
AcDbEntity
  8
L1_120
  6
CONTINUOUS
 62
         7
100
AcDbVertex
100
AcDb2dVertex
 10
1630.2298748053
 20
-230.8826864517
 30
112.3183629111
 70
         1
  0
VERTEX
  5
49B
100
AcDbEntity
  8
L1_120
  6
CONTINUOUS
 62
         7
100
AcDbVertex
100
AcDb2dVertex
 10
1630.0527367263
 20
-230.6748062787
 30
112.3183629111
 70
         1
  0
VERTEX
  5
49D
100
AcDbEntity
  8
L1_120
  6
CONTINUOUS
 62
         7
100
AcDbVertex
100
AcDb2dVertex
 10
1629.8220781675
 20
-230.4419433037
 30
112.3183629111
 70
         1
  0
VERTEX
  5
49F
100
AcDbEntity
  8
L1_120
  6
CONTINUOUS
 62
         7
100
AcDbVertex
100
AcDb2dVertex
 10
1629.6045991474
 20
-230.2558031523
 30
112.3183629111
 70
         1
  0
VERTEX
  5
4A1
100
AcDbEntity
  8
L1_120
  6
CONTINUOUS
 62
         7
100
AcDbVertex
100
AcDb2dVertex
 10
1629.4027876572
 20
-230.108609871
 30
112.3183629111
 70
         1
  0
VERTEX
  5
4A3
100
AcDbEntity
  8
L1_120
  6
CONTINUOUS
 62
         7
100
AcDbVertex
100
AcDb2dVertex
 10
1629.1564454108
 20
-229.9591970797
 30
112.3183629111
 70
         1
  0
VERTEX
  5
4A5
100
AcDbEntity
  8
L1_120
  6
CONTINUOUS
 62
         7
100
AcDbVertex
100
AcDb2dVertex
 10
1628.9398965794
 20
-229.8535146505
 30
112.3183629111
 70
         1
  0
VERTEX
  5
4A7
100
AcDbEntity
  8
L1_120
  6
CONTINUOUS
 62
         7
100
AcDbVertex
100
AcDb2dVertex
 10
1628.7509752133
 20
-229.7800836477
 30
112.3183629111
 70
         1
  0
VERTEX
  5
4A9
100
AcDbEntity
  8
L1_120
  6
CONTINUOUS
 62
         7
100
AcDbVertex
100
AcDb2dVertex
 10
1628.5334193586
 20
-229.7167371276
 30
112.3183629111
 70
         1
  0
VERTEX
  5
4AB
100
AcDbEntity
  8
L1_120
  6
CONTINUOUS
 62
         7
100
AcDbVertex
100
AcDb2dVertex
 10
1628.2961898335
 20
-229.6735036825
 30
112.3183629111
 70
         1
  0
VERTEX
  5
4AD
100
AcDbEntity
  8
L1_120
  6
CONTINUOUS
 62
         7
100
AcDbVertex
100
AcDb2dVertex
 10
1628.1134247886
 20
-229.6589089635
 30
112.3183629111
 70
         1
  0
VERTEX
  5
4AF
100
AcDbEntity
  8
L1_120
  6
CONTINUOUS
 62
         7
100
AcDbVertex
100
AcDb2dVertex
 10
1627.9262427871
 20
-229.66145532
 30
112.3183629111
 70
         1
  0
VERTEX
  5
4B1
100
AcDbEntity
  8
L1_120
  6
CONTINUOUS
 62
         7
100
AcDbVertex
100
AcDb2dVertex
 10
1627.7500202623
 20
-229.6808484114
 30
112.3183629111
 70
         1
  0
VERTEX
  5
4B3
100
AcDbEntity
  8
L1_120
  6
CONTINUOUS
 62
         7
100
AcDbVertex
100
AcDb2dVertex
 10
1627.5546137078
 20
-229.723001661
 30
112.3183629111
 70
         1
  0
VERTEX
  5
4B5
100
AcDbEntity
  8
L1_120
  6
CONTINUOUS
 62
         7
100
AcDbVertex
100
AcDb2dVertex
 10
1627.4162744705
 20
-229.7670767914
 30
112.3183629111
 70
         1
  0
VERTEX
  5
4B7
100
AcDbEntity
  8
L1_120
  6
CONTINUOUS
 62
         7
100
AcDbVertex
100
AcDb2dVertex
 10
1627.4162744705
 20
-229.7670767914
 30
112.3183629111
 70
         1
  0
VERTEX
  5
4B9
100
AcDbEntity
  8
L1_120
  6
CONTINUOUS
 62
         7
100
AcDbVertex
100
AcDb2dVertex
 10
1627.0654159379
 20
-229.9401165853
 30
112.3183629111
 70
         1
  0
VERTEX
  5
4BB
100
AcDbEntity
  8
L1_120
  6
CONTINUOUS
 62
         7
100
AcDbVertex
100
AcDb2dVertex
 10
1626.9201306923
 20
-230.0424423166
 30
112.3183629111
 70
         1
  0
VERTEX
  5
4BD
100
AcDbEntity
  8
L1_120
  6
CONTINUOUS
 62
         7
100
AcDbVertex
100
AcDb2dVertex
 10
1626.7798763173
 20
-230.1625227046
 30
112.3183629111
 70
         1
  0
VERTEX
  5
4BF
100
AcDbEntity
  8
L1_120
  6
CONTINUOUS
 62
         7
100
AcDbVertex
100
AcDb2dVertex
 10
1626.6463075922
 20
-230.3004956036
 30
112.3183629111
 70
         1
  0
VERTEX
  5
4C1
100
AcDbEntity
  8
L1_120
  6
CONTINUOUS
 62
         7
100
AcDbVertex
100
AcDb2dVertex
 10
1626.5210866316
 20
-230.4561611846
 30
112.3183629111
 70
         1
  0
VERTEX
  5
4C3
100
AcDbEntity
  8
L1_120
  6
CONTINUOUS
 62
         7
100
AcDbVertex
100
AcDb2dVertex
 10
1626.4058288521
 20
-230.6289555087
 30
112.3183629111
 70
         1
  0
VERTEX
  5
4C5
100
AcDbEntity
  8
L1_120
  6
CONTINUOUS
 62
         7
100
AcDbVertex
100
AcDb2dVertex
 10
1626.3020454177
 20
-230.8179394084
 30
112.3183629111
 70
         1
  0
VERTEX
  5
4C7
100
AcDbEntity
  8
L1_120
  6
CONTINUOUS
 62
         7
100
AcDbVertex
100
AcDb2dVertex
 10
1626.211085804
 20
-231.0218052238
 30
112.3183629111
 70
         1
  0
VERTEX
  5
4C9
100
AcDbEntity
  8
L1_120
  6
CONTINUOUS
 62
         7
100
AcDbVertex
100
AcDb2dVertex
 10
1626.1340845432
 20
-231.2389025665
 30
112.3183629111
 70
         1
  0
VERTEX
  5
4CB
100
AcDbEntity
  8
L1_120
  6
CONTINUOUS
 62
         7
100
AcDbVertex
100
AcDb2dVertex
 10
1626.0719161915
 20
-231.4672826053
 30
112.3183629111
 70
         1
  0
VERTEX
  5
4CD
100
AcDbEntity
  8
L1_120
  6
CONTINUOUS
 62
         7
100
AcDbVertex
100
AcDb2dVertex
 10
1626.0251620548
 20
-231.7047585955
 30
112.3183629111
 70
         1
  0
VERTEX
  5
4CF
100
AcDbEntity
  8
L1_120
  6
CONTINUOUS
 62
         7
100
AcDbVertex
100
AcDb2dVertex
 10
1625.9870896415
 20
-232.0332709011
 30
112.3183629111
 70
         1
  0
VERTEX
  5
4D1
100
AcDbEntity
  8
L1_120
  6
CONTINUOUS
 62
         7
100
AcDbVertex
100
AcDb2dVertex
 10
1625.9769305119
 20
-232.3680280304
 30
112.3183629111
 70
         1
  0
VERTEX
  5
4D3
100
AcDbEntity
  8
L1_120
  6
CONTINUOUS
 62
         7
100
AcDbVertex
100
AcDb2dVertex
 10
1625.9934985425
 20
-232.7032401576
 30
112.3183629111
 70
         1
  0
VERTEX
  5
4D5
100
AcDbEntity
  8
L1_120
  6
CONTINUOUS
 62
         7
100
AcDbVertex
100
AcDb2dVertex
 10
1626.0347945912
 20
-233.0335112652
 30
112.3183629111
 70
         1
  0
VERTEX
  5
4D7
100
AcDbEntity
  8
L1_120
  6
CONTINUOUS
 62
         7
100
AcDbVertex
100
AcDb2dVertex
 10
1626.098195669
 20
-233.3540919897
 30
112.3183629111
 70
         1
  0
VERTEX
  5
4D9
100
AcDbEntity
  8
L1_120
  6
CONTINUOUS
 62
         7
100
AcDbVertex
100
AcDb2dVertex
 10
1626.1806682592
 20
-233.6610486913
 30
112.3183629111
 70
         1
  0
VERTEX
  5
4DB
100
AcDbEntity
  8
L1_120
  6
CONTINUOUS
 62
         7
100
AcDbVertex
100
AcDb2dVertex
 10
1626.3157787271
 20
-234.0467121392
 30
112.3183629111
 70
         1
  0
VERTEX
  5
4DD
100
AcDbEntity
  8
L1_120
  6
CONTINUOUS
 62
         7
100
AcDbVertex
100
AcDb2dVertex
 10
1626.4716690899
 20
-234.3975928474
 30
112.3183629111
 70
         1
  0
VERTEX
  5
4DF
100
AcDbEntity
  8
L1_120
  6
CONTINUOUS
 62
         7
100
AcDbVertex
100
AcDb2dVertex
 10
1626.6411206311
 20
-234.7114671813
 30
112.3183629111
 70
         1
  0
VERTEX
  5
4E1
100
AcDbEntity
  8
L1_120
  6
CONTINUOUS
 62
         7
100
AcDbVertex
100
AcDb2dVertex
 10
1626.8178769474
 20
-234.9882269306
 30
112.3183629111
 70
         1
  0
VERTEX
  5
4E3
100
AcDbEntity
  8
L1_120
  6
CONTINUOUS
 62
         7
100
AcDbVertex
100
AcDb2dVertex
 10
1626.996815139
 20
-235.2293154766
 30
112.3183629111
 70
         1
  0
VERTEX
  5
4E5
100
AcDbEntity
  8
L1_120
  6
CONTINUOUS
 62
         7
100
AcDbVertex
100
AcDb2dVertex
 10
1627.173953218
 20
-235.4371956495
 30
112.3183629111
 70
         1
  0
VERTEX
  5
4E7
100
AcDbEntity
  8
L1_120
  6
CONTINUOUS
 62
         7
100
AcDbVertex
100
AcDb2dVertex
 10
1627.4046117768
 20
-235.6700586246
 30
112.3183629111
 70
         1
  0
VERTEX
  5
4E9
100
AcDbEntity
  8
L1_120
  6
CONTINUOUS
 62
         7
100
AcDbVertex
100
AcDb2dVertex
 10
1627.6220907969
 20
-235.856198776
 30
112.3183629111
 70
         1
  0
VERTEX
  5
4EB
100
AcDbEntity
  8
L1_120
  6
CONTINUOUS
 62
         7
100
AcDbVertex
100
AcDb2dVertex
 10
1627.8239022871
 20
-236.0033920573
 30
112.3183629111
 70
         1
  0
VERTEX
  5
4ED
100
AcDbEntity
  8
L1_120
  6
CONTINUOUS
 62
         7
100
AcDbVertex
100
AcDb2dVertex
 10
1628.0702445335
 20
-236.1528048486
 30
112.3183629111
 70
         1
  0
VERTEX
  5
4EF
100
AcDbEntity
  8
L1_120
  6
CONTINUOUS
 62
         7
100
AcDbVertex
100
AcDb2dVertex
 10
1628.2867933649
 20
-236.2584872777
 30
112.3183629111
 70
         1
  0
VERTEX
  5
4F1
100
AcDbEntity
  8
L1_120
  6
CONTINUOUS
 62
         7
100
AcDbVertex
100
AcDb2dVertex
 10
1628.475714731
 20
-236.3319182806
 30
112.3183629111
 70
         1
  0
VERTEX
  5
4F3
100
AcDbEntity
  8
L1_120
  6
CONTINUOUS
 62
         7
100
AcDbVertex
100
AcDb2dVertex
 10
1628.6932705857
 20
-236.3952648006
 30
112.3183629111
 70
         1
  0
VERTEX
  5
4F5
100
AcDbEntity
  8
L1_120
  6
CONTINUOUS
 62
         7
100
AcDbVertex
100
AcDb2dVertex
 10
1628.9305001108
 20
-236.4384982458
 30
112.3183629111
 70
         1
  0
VERTEX
  5
4F7
100
AcDbEntity
  8
L1_120
  6
CONTINUOUS
 62
         7
100
AcDbVertex
100
AcDb2dVertex
 10
1629.1132651557
 20
-236.4530929648
 30
112.3183629111
 70
         1
  0
VERTEX
  5
4F9
100
AcDbEntity
  8
L1_120
  6
CONTINUOUS
 62
         7
100
AcDbVertex
100
AcDb2dVertex
 10
1629.3004471572
 20
-236.4505466082
 30
112.3183629111
 70
         1
  0
VERTEX
  5
4FB
100
AcDbEntity
  8
L1_120
  6
CONTINUOUS
 62
         7
100
AcDbVertex
100
AcDb2dVertex
 10
1629.4766696819
 20
-236.4311535169
 30
112.3183629111
 70
         1
  0
VERTEX
  5
4FD
100
AcDbEntity
  8
L1_120
  6
CONTINUOUS
 62
         7
100
AcDbVertex
100
AcDb2dVertex
 10
1629.6720762365
 20
-236.3890002673
 30
112.3183629111
 70
         1
  0
VERTEX
  5
4FF
100
AcDbEntity
  8
L1_120
  6
CONTINUOUS
 62
         7
100
AcDbVertex
100
AcDb2dVertex
 10
1629.8104154738
 20
-236.3449251369
 30
112.3183629111
 70
         1
  0
SEQEND
  5
501
100
AcDbEntity
  8
L1_120
  6
CONTINUOUS
 62
         7
  0
ENDSEC
  0
SECTION
  2
OBJECTS
  0
DICTIONARY
  5
19
100
AcDbDictionary
  3
ACAD_GROUP
350
1A
  3
ACAD_MLINESTYLE
350
1B
  0
DICTIONARY
  5
1A
102
{ACAD_REACTORS
330
19
102
}
100
AcDbDictionary
  0
DICTIONARY
  5
1B
102
{ACAD_REACTORS
330
19
102
}
100
AcDbDictionary
  3
STANDARD
350
1C
  0
MLINESTYLE
  5
1C
102
{ACAD_REACTORS
330
1B
102
}
100
AcDbMlineStyle
  2
STANDARD
 70
         0
  3

 62
         0
 51
90.0
 52
90.0
 71
         2
 49
0.5
 62
       256
  6
BYLAYER
 49
-0.5
 62
       256
  6
BYLAYER
  0
ENDSEC
  0
EOF
