  0
SECTION
  2
HEADER
  9
$ACADVER
  1
AC1014
  9
$ACADMAINTVER
 70
         0
  9
$DWGCODEPAGE
  3
BIG5
  9
$INSBASE
 10
0.0
 20
0.0
 30
0.0
  9
$EXTMIN
 10
1085.1717407592
 20
-405.5825811222
 30
0.0
  9
$EXTMAX
 10
1726.4666059092
 20
-92.5233926862
 30
0.0
  9
$LIMMIN
 10
0.0
 20
0.0
  9
$LIMMAX
 10
0.0
 20
0.0
  9
$ORTHOMODE
 70
         0
  9
$REGENMODE
 70
         1
  9
$FILLMODE
 70
         1
  9
$QTEXTMODE
 70
         0
  9
$MIRRTEXT
 70
         1
  9
$DRAGMODE
 70
         2
  9
$LTSCALE
 40
1.0
  9
$OSMODE
 70
         0
  9
$ATTMODE
 70
         1
  9
$TEXTSIZE
 40
1.7
  9
$TRACEWID
 40
0.05
  9
$TEXTSTYLE
  7
STANDARD
  9
$CLAYER
  8
0
  9
$CELTYPE
  6
CONTINUOUS
  9
$CECOLOR
 62
         1
  9
$CELTSCALE
 40
1.0
  9
$DELOBJ
 70
         1
  9
$DISPSILH
 70
         0
  9
$DIMSCALE
 40
1.0
  9
$DIMASZ
 40
0.18
  9
$DIMEXO
 40
0.0625
  9
$DIMDLI
 40
0.38
  9
$DIMRND
 40
0.0
  9
$DIMDLE
 40
0.0
  9
$DIMEXE
 40
0.25
  9
$DIMTP
 40
0.01
  9
$DIMTM
 40
-0.01
  9
$DIMTXT
 40
2.7
  9
$DIMCEN
 40
0.09
  9
$DIMTSZ
 40
0.0
  9
$DIMTOL
 70
         0
  9
$DIMLIM
 70
         0
  9
$DIMTIH
 70
         1
  9
$DIMTOH
 70
         1
  9
$DIMSE1
 70
         0
  9
$DIMSE2
 70
         0
  9
$DIMTAD
 70
         0
  9
$DIMZIN
 70
         0
  9
$DIMBLK
  1

  9
$DIMASO
 70
         1
  9
$DIMSHO
 70
         1
  9
$DIMPOST
  1

  9
$DIMAPOST
  1

  9
$DIMALT
 70
         0
  9
$DIMALTD
 70
         2
  9
$DIMALTF
 40
25.4
  9
$DIMLFAC
 40
1.0
  9
$DIMTOFL
 70
         0
  9
$DIMTVP
 40
0.0
  9
$DIMTIX
 70
         0
  9
$DIMSOXD
 70
         0
  9
$DIMSAH
 70
         0
  9
$DIMBLK1
  1

  9
$DIMBLK2
  1

  9
$DIMSTYLE
  2
STANDARD
  9
$DIMCLRD
 70
         0
  9
$DIMCLRE
 70
         0
  9
$DIMCLRT
 70
         1
  9
$DIMTFAC
 40
1.0
  9
$DIMGAP
 40
0.09
  9
$DIMJUST
 70
         0
  9
$DIMSD1
 70
         0
  9
$DIMSD2
 70
         0
  9
$DIMTOLJ
 70
         1
  9
$DIMTZIN
 70
         0
  9
$DIMALTZ
 70
         0
  9
$DIMALTTZ
 70
         0
  9
$DIMFIT
 70
         3
  9
$DIMUPT
 70
         0
  9
$DIMUNIT
 70
         2
  9
$DIMDEC
 70
         4
  9
$DIMTDEC
 70
         4
  9
$DIMALTU
 70
         2
  9
$DIMALTTD
 70
         2
  9
$DIMTXSTY
  7
STANDARD
  9
$DIMAUNIT
 70
         0
  9
$LUNITS
 70
         2
  9
$LUPREC
 70
        10
  9
$SKETCHINC
 40
0.1
  9
$FILLETRAD
 40
0.0
  9
$AUNITS
 70
         0
  9
$AUPREC
 70
         0
  9
$MENU
  1
acad
  9
$ELEVATION
 40
0.0
  9
$PELEVATION
 40
0.0
  9
$THICKNESS
 40
0.0
  9
$LIMCHECK
 70
         0
  9
$BLIPMODE
 70
         1
  9
$CHAMFERA
 40
0.0
  9
$CHAMFERB
 40
0.0
  9
$CHAMFERC
 40
0.0
  9
$CHAMFERD
 40
0.0
  9
$SKPOLY
 70
         0
  9
$TDCREATE
 40
0.000000000
  9
$TDUPDATE
 40
0.000000000
  9
$TDINDWG
 40
0.0000000000
  9
$TDUSRTIMER
 40
0.0000000000
  9
$USRTIMER
 70
         1
  9
$ANGBASE
 50
0.0
  9
$ANGDIR
 70
         0
  9
$PDMODE
 70
         2
  9
$PDSIZE
 40
0.0
  9
$PLINEWID
 40
0.0
  9
$COORDS
 70
         0
  9
$SPLFRAME
 70
         0
  9
$SPLINETYPE
 70
         6
  9
$SPLINESEGS
 70
         8
  9
$ATTDIA
 70
         0
  9
$ATTREQ
 70
         1
  9
$HANDLING
 70
         1
  9
$HANDSEED
  5
37F
  9
$SURFTAB1
 70
         6
  9
$SURFTAB2
 70
         6
  9
$SURFTYPE
 70
         6
  9
$SURFU
 70
         6
  9
$SURFV
 70
         6
  9
$UCSNAME
  2

  9
$UCSORG
 10
0.0
 20
0.0
 30
0.0
  9
$UCSXDIR
 10
1.0
 20
0.0
 30
0.0
  9
$UCSYDIR
 10
0.0
 20
1.0
 30
0.0
  9
$PUCSNAME
  2

  9
$PUCSORG
 10
0.0
 20
0.0
 30
0.0
  9
$PUCSXDIR
 10
1.0
 20
0.0
 30
0.0
  9
$PUCSYDIR
 10
0.0
 20
1.0
 30
0.0
  9
$USERI1
 70
         0
  9
$USERI2
 70
         0
  9
$USERI3
 70
         0
  9
$USERI4
 70
         0
  9
$USERI5
 70
         0
  9
$USERR1
 40
0.0
  9
$USERR2
 40
0.0
  9
$USERR3
 40
0.0
  9
$USERR4
 40
0.0
  9
$USERR5
 40
0.0
  9
$WORLDVIEW
 70
         1
  9
$SHADEDGE
 70
         3
  9
$SHADEDIF
 70
        70
  9
$TILEMODE
 70
         1
  9
$MAXACTVP
 70
        16
  9
$PINSBASE
 10
0.0
 20
0.0
 30
0.0
  9
$PLIMCHECK
 70
         0
  9
$PEXTMIN
 10
1.0000000000E+20
 20
1.0000000000E+20
 30
1.0000000000E+20
  9
$PEXTMAX
 10
-1.0000000000E+20
 20
-1.0000000000E+20
 30
-1.0000000000E+20
  9
$PLIMMIN
 10
0.0
 20
0.0
  9
$PLIMMAX
 10
12.0
 20
9.0
  9
$UNITMODE
 70
         0
  9
$VISRETAIN
 70
         0
  9
$PLINEGEN
 70
         1
  9
$PSLTSCALE
 70
         0
  9
$TREEDEPTH
 70
      3020
  9
$PICKSTYLE
 70
         1
  9
$CMLSTYLE
  2
STANDARD
  9
$CMLJUST
 70
         0
  9
$CMLSCALE
 40
1.0
  9
$PROXYGRAPHICS
 70
         0
  9
$MEASUREMENT
 70
         0
  0
ENDSEC
  0
SECTION
  2
CLASSES
  0
CLASS
  1
LWPOLYLINE
  2
AcDbPolyline
  3
"AutoCAD"
 90
        0
280
         0
281
         1
  0
CLASS
  1
IMAGE
  2
AcDbRasterImage
  3
ISM
 90
      127
280
         0
281
         1
  0
CLASS
  1
OLE2FRAME
  2
AcDbOle2Frame
  3
""
 90
        0
280
         0
281
         1
  0
CLASS
  1
HATCH
  2
AcDbHatch
  3
"ACAD_SEDONA"
 90
        0
280
         0
281
         1
  0
CLASS
  1
DICTIONARYVAR
  2
AcDbDictionaryVar
  3
"AutoCAD"
 90
        0
280
         0
281
         0
  0
CLASS
  1
RASTERVARIABLES
  2
AcDbRasterVariables
  3
ISM
 90
        0
280
         0
281
         0
  0
CLASS
  1
IMAGEDEF
  2
AcDbRasterImageDef
  3
ISM
 90
        0
280
         0
281
         0
  0
CLASS
  1
IMAGEDEF_REACTOR
  2
AcDbRasterImageDefReactor
  3
ISM
 90
        1
280
         0
281
         0
  0
CLASS
  1
IDBUFFER
  2
AcDbIdBuffer
  3
"Acad"
 90
        0
280
         0
281
         0
  0
CLASS
  1
SPATIAL_FILTER
  2
AcDbSpatialFilter
  3
"Acad"
 90
        0
280
         0
281
         0
  0
CLASS
  1
XRECORD
  2
AcDbXrecord
  3
"<Built In>"
 90
        0
280
         0
281
         0
  0
CLASS
  1
SORTENTSTABLE
  2
AcDbSortentsTable
  3
"AutoCAD"
 90
        0
280
         0
281
         0
  0
CLASS
  1
LAYER_INDEX
  2
AcDbLayerIndex
  3
"Acad"
 90
        0
280
         0
281
         0
  0
CLASS
  1
SPATIAL_INDEX
  2
AcDbSpatialIndex
  3
"Acad"
 90
        0
280
         0
281
         0
  0
CLASS
  1
OBJECT_PTR
  2
CAseDLPNTableRecord
  3
"ASE-LPNTableRecord"
 90
        1
280
         0
281
         0
  0
CLASS
  1
LAYOUT
  2
AcDbLayout
  3
"AutoCAD 2000"
 90
        1
280
         0
281
         0
  0
CLASS
  1
PLOTSETTINGS
  2
AcDbPlotSettings
  3
"AutoCAD 2000"
 90
        1
280
         0
281
         0
  0
CLASS
  1
ACDBDICTIONARYWDFLT
  2
AcDbDictionaryWithDefault
  3
"AutoCAD 2000"
 90
        1
280
         0
281
         0
  0
CLASS
  1
ACDBPLACEHOLDER
  2
AcDbPlaceHolder
  3
"AutoCAD 2000"
 90
        1
280
         0
281
         0
  0
CLASS
  1
VBA_PROJECT
  2
AcDbVbaProject
  3
"acadvba"
 90
        1
280
         0
281
         0
  0
CLASS
  1
WIPEOUT
  2
AcDbWipeout
  3
WipeOut|AutoCAD Express Tool|expresstools@autodesk.com
 90
      127
280
         0
281
         1
  0
CLASS
  1
WIPEOUTVARIABLES
  2
AcDbWipeoutVariables
  3
WipeOut|AutoCAD Express Tool|expresstools@autodesk.com
 90
        0
280
         0
281
         0
  0
CLASS
  1
RTEXT
  2
RText
  3
RText|AutoCAD Express Tool|expresstools@autodesk.com
 90
        0
280
         0
281
         1
  0
CLASS
  1
ARCALIGNEDTEXT
  2
AcDbArcAlignedText
  3
ATEXT|AutoCAD Express Tool|expresstools@autodesk.com
 90
        0
280
         0
281
         1
  0
ENDSEC
  0
SECTION
  2
TABLES
  0
TABLE
  2
VPORT
  5
7
100
AcDbSymbolTable
 70
         1
  0
VPORT
  5
15
100
AcDbSymbolTableRecord
100
AcDbViewportTableRecord
  2
*ACTIVE
 70
         0
 10
0.0
 20
0.0
 11
1.0
 21
1.0
 12
1405.8191733342
 22
-249.0529869042
 13
0.0
 23
0.0
 14
1.0
 24
1.0
 15
0.0
 25
0.0
 16
0.0
 26
0.0
 36
1.0
 17
0.0
 27
0.0
 37
0.0
 40
313.0591884359
 41
2.0484780158
 42
50.0
 43
0.0
 44
0.0
 50
0.0
 51
0.0
 71
         0
 72
       100
 73
         1
 74
         1
 75
         0
 76
         0
 77
         0
 78
         0
  0
ENDTAB
  0
TABLE
  2
LTYPE
  5
4
100
AcDbSymbolTable
 70
         6
  0
LTYPE
  5
11
100
AcDbSymbolTableRecord
100
AcDbLinetypeTableRecord
  2
BYBLOCK
 70
        64
  3

 72
        65
 73
         0
 40
0.0
  0
LTYPE
  5
12
100
AcDbSymbolTableRecord
100
AcDbLinetypeTableRecord
  2
BYLAYER
 70
        64
  3

 72
        65
 73
         0
 40
0.0
  0
LTYPE
  5
13
100
AcDbSymbolTableRecord
100
AcDbLinetypeTableRecord
  2
CONTINUOUS
 70
        64
  3
Solid line
 72
        65
 73
         0
 40
0.0
  0
LTYPE
  5
1D
100
AcDbSymbolTableRecord
100
AcDbLinetypeTableRecord
  2
DASHED
 70
        64
  3
_ _ _ _ _ _ _ _ _ _ _ _ _ _ _ _
 72
        65
 73
         2
 40
0.2
 49
0.1
 74
         0
 49
-0.1
 74
         0
  0
LTYPE
  5
1E
100
AcDbSymbolTableRecord
100
AcDbLinetypeTableRecord
  2
CENTER
 70
        64
  3
___ _ ___ _ ___ _ ___ _ ___ _ ___ _ ___ _ ___ _
 72
        65
 73
         4
 40
0.95
 49
0.625
 74
         0
 49
-0.125
 74
         0
 49
0.075
 74
         0
 49
-0.125
 74
         0
  0
LTYPE
  5
1F
100
AcDbSymbolTableRecord
100
AcDbLinetypeTableRecord
  2
PHANTOM
 70
        64
  3
______  __  __  ______  __  __  ______  __  __  
 72
        65
 73
         6
 40
1.025
 49
0.625
 74
         0
 49
-0.125
 74
         0
 49
0.075
 74
         0
 49
-0.125
 74
         0
 49
0.075
 74
         0
 49
-0.125
 74
         0
  0
ENDTAB
  0
TABLE
  2
LAYER
  5
2
100
AcDbSymbolTable
 70
         6
  0
LAYER
  5
14
100
AcDbSymbolTableRecord
100
AcDbLayerTableRecord
  2
0
 70
         0
 62
         7
  6
CONTINUOUS
  0
LAYER
  5
21
100
AcDbSymbolTableRecord
100
AcDbLayerTableRecord
  2
_____U
 70
         1
 62
         7
  6
CONTINUOUS
  0
LAYER
  5
22
100
AcDbSymbolTableRecord
100
AcDbLayerTableRecord
  2
_____T______
 70
         1
 62
         7
  6
CONTINUOUS
  0
LAYER
  5
23
100
AcDbSymbolTableRecord
100
AcDbLayerTableRecord
  2
______L_______
 70
         1
 62
         7
  6
CONTINUOUS
  0
LAYER
  5
24
100
AcDbSymbolTableRecord
100
AcDbLayerTableRecord
  2
L1_120
 70
         0
 62
         7
  6
CONTINUOUS
  0
LAYER
  5
1B7
100
AcDbSymbolTableRecord
100
AcDbLayerTableRecord
  2
DEFPOINTS
 70
         0
 62
        -7
  6
CONTINUOUS
  0
ENDTAB
  0
TABLE
  2
STYLE
  5
3
100
AcDbSymbolTable
 70
        11
  0
STYLE
  5
17
100
AcDbSymbolTableRecord
100
AcDbTextStyleTableRecord
  2
STANDARD
 70
         0
 40
0.0
 41
1.0
 50
0.0
 71
         0
 42
0.0
  3
txt
  4

  0
STYLE
  5
1C2
100
AcDbSymbolTableRecord
100
AcDbTextStyleTableRecord
  2
BOX
 70
         0
 40
1.0
 41
1.0
 50
0.0
 71
         0
 42
0.2
  3
txt.shx
  4

  0
STYLE
  5
1D4
100
AcDbSymbolTableRecord
100
AcDbTextStyleTableRecord
  2
BOX
 70
         0
 40
1.0
 41
1.0
 50
0.0
 71
         0
 42
0.2
  3
txt.shx
  4

  0
STYLE
  5
226
100
AcDbSymbolTableRecord
100
AcDbTextStyleTableRecord
  2
BOX
 70
         0
 40
1.0
 41
1.0
 50
0.0
 71
         0
 42
0.2
  3
txt.shx
  4

  0
STYLE
  5
268
100
AcDbSymbolTableRecord
100
AcDbTextStyleTableRecord
  2
BOX
 70
         0
 40
1.0
 41
1.0
 50
0.0
 71
         0
 42
0.2
  3
txt.shx
  4

  0
STYLE
  5
276
100
AcDbSymbolTableRecord
100
AcDbTextStyleTableRecord
  2
BOX
 70
         0
 40
1.0
 41
1.0
 50
0.0
 71
         0
 42
0.2
  3
txt.shx
  4

  0
STYLE
  5
284
100
AcDbSymbolTableRecord
100
AcDbTextStyleTableRecord
  2
BOX
 70
         0
 40
1.0
 41
1.0
 50
0.0
 71
         0
 42
0.2
  3
txt.shx
  4

  0
STYLE
  5
314
100
AcDbSymbolTableRecord
100
AcDbTextStyleTableRecord
  2
BOX
 70
         0
 40
1.0
 41
1.0
 50
0.0
 71
         0
 42
0.2
  3
txt.shx
  4

  0
STYLE
  5
324
100
AcDbSymbolTableRecord
100
AcDbTextStyleTableRecord
  2
BOX
 70
         0
 40
1.0
 41
1.0
 50
0.0
 71
         0
 42
0.2
  3
txt.shx
  4

  0
STYLE
  5
333
100
AcDbSymbolTableRecord
100
AcDbTextStyleTableRecord
  2
BOX
 70
         0
 40
1.0
 41
1.0
 50
0.0
 71
         0
 42
0.2
  3
txt.shx
  4

  0
STYLE
  5
37D
100
AcDbSymbolTableRecord
100
AcDbTextStyleTableRecord
  2
BOX
 70
         0
 40
1.0
 41
1.0
 50
0.0
 71
         0
 42
0.2
  3
txt.shx
  4

  0
ENDTAB
  0
TABLE
  2
VIEW
  5
5
100
AcDbSymbolTable
 70
         0
  0
ENDTAB
  0
TABLE
  2
UCS
  5
6
100
AcDbSymbolTable
 70
         1
  0
UCS
  5
20
100
AcDbSymbolTableRecord
100
AcDbUCSTableRecord
  2
CK_VIEW_1
 70
         0
 10
0.0
 20
0.0
 30
1.0
 11
1.0
 21
0.0
 31
0.0
 12
0.0
 22
1.0
 32
0.0
  0
ENDTAB
  0
TABLE
  2
APPID
  5
8
100
AcDbSymbolTable
 70
         1
  0
APPID
  5
16
100
AcDbSymbolTableRecord
100
AcDbRegAppTableRecord
  2
ACAD
 70
         0
  0
ENDTAB
  0
TABLE
  2
DIMSTYLE
  5
9
100
AcDbSymbolTable
 70
         2
  0
DIMSTYLE
105
18
100
AcDbSymbolTableRecord
100
AcDbDimStyleTableRecord
  2
STANDARD
 70
         0
  3

  4

  5

  6

  7

 40
1.0
 41
0.18
 42
0.0625
 43
0.38
 44
0.18
 45
0.0
 46
0.0
 47
0.0
 48
0.0
 71
         0
 72
         0
 73
         1
 74
         1
 75
         0
 76
         0
 77
         0
 78
         0
140
0.18
141
0.09
142
0.0
143
25.4
144
1.0
145
0.0
146
1.0
147
0.09
170
         0
171
         2
172
         0
173
         0
174
         0
175
         0
176
         0
177
         0
178
         0
270
         2
271
         4
272
         4
273
         2
274
         2
275
         0
280
         0
281
         0
282
         0
283
         1
284
         0
285
         0
286
         0
287
         0
288
         0
340
17
  0
DIMSTYLE
105
1B3
100
AcDbSymbolTableRecord
100
AcDbDimStyleTableRecord
  2
DIMSTYLE1
 70
         0
  3

  4

  5

  6

  7

 40
1.0
 41
2.7
 42
0.0625
 43
0.38
 44
2.7
 45
0.0
 46
0.0
 47
0.0
 48
0.0
 71
         0
 72
         0
 73
         1
 74
         1
 75
         0
 76
         0
 77
         0
 78
         0
140
2.7
141
0.09
142
0.0
143
25.4
144
1.0
145
0.0
146
1.0
147
0.09
170
         0
171
         2
172
         0
173
         0
174
         0
175
         0
176
         0
177
         0
178
         0
270
         2
271
         4
272
         4
273
         2
274
         2
275
         0
280
         0
281
         0
282
         0
283
         1
284
         0
285
         0
286
         0
287
         0
288
         0
340
17
  0
ENDTAB
  0
TABLE
  2
BLOCK_RECORD
  5
1
100
AcDbSymbolTable
 70
        10
  0
BLOCK_RECORD
  5
A
100
AcDbSymbolTableRecord
100
AcDbBlockTableRecord
  2
*MODEL_SPACE
  0
BLOCK_RECORD
  5
B
100
AcDbSymbolTableRecord
100
AcDbBlockTableRecord
  2
*PAPER_SPACE
  0
BLOCK_RECORD
  5
1B4
100
AcDbSymbolTableRecord
100
AcDbBlockTableRecord
  2
*D0
  0
BLOCK_RECORD
  5
1C9
100
AcDbSymbolTableRecord
100
AcDbBlockTableRecord
  2
*D1
  0
BLOCK_RECORD
  5
21B
100
AcDbSymbolTableRecord
100
AcDbBlockTableRecord
  2
*D2
  0
BLOCK_RECORD
  5
25D
100
AcDbSymbolTableRecord
100
AcDbBlockTableRecord
  2
*D3
  0
BLOCK_RECORD
  5
26B
100
AcDbSymbolTableRecord
100
AcDbBlockTableRecord
  2
*D4
  0
BLOCK_RECORD
  5
279
100
AcDbSymbolTableRecord
100
AcDbBlockTableRecord
  2
*D5
  0
BLOCK_RECORD
  5
287
100
AcDbSymbolTableRecord
100
AcDbBlockTableRecord
  2
*X6
  0
BLOCK_RECORD
  5
309
100
AcDbSymbolTableRecord
100
AcDbBlockTableRecord
  2
*D7
  0
BLOCK_RECORD
  5
317
100
AcDbSymbolTableRecord
100
AcDbBlockTableRecord
  2
*D8
  0
BLOCK_RECORD
  5
328
100
AcDbSymbolTableRecord
100
AcDbBlockTableRecord
  2
*D9
  0
ENDTAB
  0
ENDSEC
  0
SECTION
  2
BLOCKS
  0
BLOCK
  5
D
100
AcDbEntity
  8
0
100
AcDbBlockBegin
  2
*MODEL_SPACE
 70
         0
 10
0.0
 20
0.0
 30
0.0
  3
*MODEL_SPACE
  1

  0
ENDBLK
  5
E
100
AcDbEntity
  8
0
100
AcDbBlockEnd
  0
BLOCK
  5
F
100
AcDbEntity
 67
         1
  8
0
100
AcDbBlockBegin
  2
*PAPER_SPACE
 70
         0
 10
0.0
 20
0.0
 30
0.0
  3
*PAPER_SPACE
  1

  0
ENDBLK
  5
10
100
AcDbEntity
 67
         1
  8
0
100
AcDbBlockEnd
  0
BLOCK
  5
1B5
100
AcDbEntity
  8
0
100
AcDbBlockBegin
  2
*D0
 70
        65
 10
0.0
 20
0.0
 30
0.0
  3
*D0
  1

  0
POINT
  5
1B8
100
AcDbEntity
  8
DEFPOINTS
  6
CONTINUOUS
 62
         0
100
AcDbPoint
 10
1447.6508425579
 20
-202.1083187324
 30
-79.3946694502
  0
POINT
  5
1B9
100
AcDbEntity
  8
DEFPOINTS
  6
CONTINUOUS
 62
         0
100
AcDbPoint
 10
1447.6508425579
 20
-217.9526830905
 30
-82.1884583787
  0
POINT
  5
1BA
100
AcDbEntity
  8
DEFPOINTS
  6
CONTINUOUS
 62
         0
100
AcDbPoint
 10
1446.7847699505
 20
-219.2914914934
 30
-82.4245264221
  0
POINT
  5
1BB
100
AcDbEntity
  8
DEFPOINTS
  6
CONTINUOUS
 62
         0
100
AcDbPoint
 10
1440.1180141502
 20
-222.3530217393
 30
-82.9643568067
  0
LINE
  5
1BC
100
AcDbEntity
  8
L1_120
  6
CONTINUOUS
 62
         4
100
AcDbLine
 10
1438.8944986377
 20
-233.9521237387
 30
-43.0927447832
 11
1433.924154627
 21
-236.2698332145
 31
-43.0927447832
  0
LINE
  5
1BD
100
AcDbEntity
  8
L1_120
  6
CONTINUOUS
 62
         4
100
AcDbLine
 10
1447.6508425579
 20
-230.26336812
 30
-43.0927447832
 11
1447.6508425579
 21
-245.0146978747
 31
-43.0927447832
  0
ARC
  5
1BE
100
AcDbEntity
  8
L1_120
  6
CONTINUOUS
 62
         4
100
AcDbCircle
 10
1447.6508425579
 20
-229.8689735113
 30
-43.0927447832
 40
14.4707243634
100
AcDbArc
 50
205.0
 51
237.5
  0
SOLID
  5
1BF
100
AcDbEntity
  8
L1_120
  6
CONTINUOUS
 62
         4
100
AcDbTrace
 10
1434.5359123832
 20
-224.9164534753
 30
-83.416358985
 11
1436.249202937
 21
-227.0098732118
 31
-83.7854853665
 12
1435.5501199952
 22
-227.4127824127
 32
-83.8565291294
 13
1434.5359123832
 23
-224.9164534753
 33
-83.416358985
  0
ARC
  5
1C0
100
AcDbEntity
  8
L1_120
  6
CONTINUOUS
 62
         4
100
AcDbCircle
 10
1447.6508425579
 20
-229.8689735113
 30
-43.0927447832
 40
14.4707243634
100
AcDbArc
 50
237.5
 51
270.0
  0
SOLID
  5
1C1
100
AcDbEntity
  8
L1_120
  6
CONTINUOUS
 62
         4
100
AcDbTrace
 10
1447.6508425579
 20
-233.1446522334
 30
-84.8672124287
 11
1444.9248757247
 21
-233.2944266475
 31
-84.8936216989
 12
1445.0002234311
 22
-232.5001911168
 32
-84.7535765458
 13
1447.6508425579
 23
-233.1446522334
 33
-84.8672124287
  0
TEXT
  5
1C3
100
AcDbEntity
  8
L1_120
  6
CONTINUOUS
 62
         4
100
AcDbText
 10
1435.6395757133
 20
-244.3911000464
 30
-43.0927447832
 40
2.7
  1
65%%d
  7
BOX
100
AcDbText
  0
ENDBLK
  5
1C4
100
AcDbEntity
  8
0
  6
CONTINUOUS
100
AcDbBlockEnd
  0
BLOCK
  5
1CA
100
AcDbEntity
  8
0
100
AcDbBlockBegin
  2
*D1
 70
        65
 10
0.0
 20
0.0
 30
0.0
  3
*D1
  1

  0
POINT
  5
1CC
100
AcDbEntity
  8
DEFPOINTS
  6
CONTINUOUS
 62
         0
100
AcDbPoint
 10
1463.2322888244
 20
-208.6502077366
 30
-36.7906611544
  0
POINT
  5
1CD
100
AcDbEntity
  8
DEFPOINTS
  6
CONTINUOUS
 62
         0
100
AcDbPoint
 10
1447.6508425579
 20
-208.6502077366
 30
-36.7906611544
  0
POINT
  5
1CE
100
AcDbEntity
  8
DEFPOINTS
  6
CONTINUOUS
 62
         0
100
AcDbPoint
 10
1447.6508425579
 20
-226.3767472908
 30
-39.9163283524
  0
LINE
  5
1CF
100
AcDbEntity
  8
L1_120
  6
CONTINUOUS
 62
         4
100
AcDbLine
 10
1449.0008425579
 20
-208.6502077366
 30
-36.7906611544
 11
1463.9072888244
 21
-208.6502077366
 31
-36.7906611544
  0
LINE
  5
1D0
100
AcDbEntity
  8
L1_120
  6
CONTINUOUS
 62
         4
100
AcDbLine
 10
1449.0008425579
 20
-226.3767472908
 30
-39.9163283524
 11
1463.9072888244
 21
-226.3767472908
 31
-39.9163283524
  0
LINE
  5
1D1
100
AcDbEntity
  8
L1_120
  6
CONTINUOUS
 62
         4
100
AcDbLine
 10
1463.2322888244
 20
-208.6502077366
 30
-36.7906611544
 11
1463.2322888244
 21
-226.3767472908
 31
-39.9163283524
  0
SOLID
  5
1D2
100
AcDbEntity
  8
L1_120
  6
CONTINUOUS
 62
         4
100
AcDbTrace
 10
1463.2322888244
 20
-208.6502077366
 30
-36.7906611544
 11
1463.6372888244
 21
-211.3091886698
 31
-37.2595112341
 12
1462.8272888244
 22
-211.3091886698
 32
-37.2595112341
 13
1463.2322888244
 23
-208.6502077366
 33
-36.7906611544
  0
SOLID
  5
1D3
100
AcDbEntity
  8
L1_120
  6
CONTINUOUS
 62
         4
100
AcDbTrace
 10
1463.2322888244
 20
-226.3767472908
 30
-39.9163283524
 11
1462.8272888244
 21
-223.7177663577
 31
-39.4474782727
 12
1463.6372888244
 22
-223.7177663577
 32
-39.4474782727
 13
1463.2322888244
 23
-226.3767472908
 33
-39.9163283524
  0
TEXT
  5
1D5
100
AcDbEntity
  8
L1_120
  6
CONTINUOUS
 62
         4
100
AcDbText
 10
1461.2072888244
 20
-226.2986054356
 30
0.0
 40
2.7
  1
崷18
 50
90.0
  7
BOX
210
0.0
220
-0.1736481776669303
230
0.9848077530122081
100
AcDbText
  0
ENDBLK
  5
1D6
100
AcDbEntity
  8
0
  6
CONTINUOUS
100
AcDbBlockEnd
  0
BLOCK
  5
21C
100
AcDbEntity
  8
0
100
AcDbBlockBegin
  2
*D2
 70
        65
 10
0.0
 20
0.0
 30
0.0
  3
*D2
  1

  0
POINT
  5
21E
100
AcDbEntity
  8
DEFPOINTS
  6
CONTINUOUS
 62
         0
100
AcDbPoint
 10
1407.6508425579
 20
-365.1774361762
 30
-64.3906347438
  0
POINT
  5
21F
100
AcDbEntity
  8
DEFPOINTS
  6
CONTINUOUS
 62
         0
100
AcDbPoint
 10
1407.6508425579
 20
-332.6617372667
 30
-58.6572397295
  0
POINT
  5
220
100
AcDbEntity
  8
DEFPOINTS
  6
CONTINUOUS
 62
         0
100
AcDbPoint
 10
1447.6508425579
 20
-335.893772522
 30
-59.2271347476
  0
LINE
  5
221
100
AcDbEntity
  8
L1_120
  6
CONTINUOUS
 62
         4
100
AcDbLine
 10
1407.6508425579
 20
-333.9912277332
 30
-58.8916647693
 11
1407.6508425579
 21
-365.8421814095
 31
-64.5078472637
  0
LINE
  5
222
100
AcDbEntity
  8
L1_120
  6
CONTINUOUS
 62
         4
100
AcDbLine
 10
1447.6508425579
 20
-337.2232629886
 30
-59.4615597874
 11
1447.6508425579
 21
-365.8421814095
 31
-64.5078472637
  0
LINE
  5
223
100
AcDbEntity
  8
L1_120
  6
CONTINUOUS
 62
         4
100
AcDbLine
 10
1407.6508425579
 20
-365.1774361762
 30
-64.3906347438
 11
1447.6508425579
 21
-365.1774361762
 31
-64.3906347438
  0
SOLID
  5
224
100
AcDbEntity
  8
L1_120
  6
CONTINUOUS
 62
         4
100
AcDbTrace
 10
1407.6508425579
 20
-365.1774361762
 30
-64.3906347438
 11
1410.3508425579
 21
-364.7785890362
 31
-64.3203072319
 12
1410.3508425579
 22
-365.5762833162
 32
-64.4609622558
 13
1407.6508425579
 23
-365.1774361762
 33
-64.3906347438
  0
SOLID
  5
225
100
AcDbEntity
  8
L1_120
  6
CONTINUOUS
 62
         4
100
AcDbTrace
 10
1447.6508425579
 20
-365.1774361762
 30
-64.3906347438
 11
1444.9508425579
 21
-365.5762833162
 31
-64.4609622558
 12
1444.9508425579
 22
-364.7785890362
 32
-64.3203072319
 13
1447.6508425579
 23
-365.1774361762
 33
-64.3906347438
  0
TEXT
  5
227
100
AcDbEntity
  8
L1_120
  6
CONTINUOUS
 62
         4
100
AcDbText
 10
1422.5744150148
 20
-368.7858867535
 30
0.0
 40
2.7
  1
40
  7
BOX
210
0.0
220
-0.1736481776669303
230
0.9848077530122081
100
AcDbText
  0
ENDBLK
  5
228
100
AcDbEntity
  8
0
  6
CONTINUOUS
100
AcDbBlockEnd
  0
BLOCK
  5
25E
100
AcDbEntity
  8
0
100
AcDbBlockBegin
  2
*D3
 70
        65
 10
0.0
 20
0.0
 30
0.0
  3
*D3
  1

  0
POINT
  5
260
100
AcDbEntity
  8
DEFPOINTS
  6
CONTINUOUS
 62
         0
100
AcDbPoint
 10
1384.1508425579
 20
-172.9508367884
 30
-30.4958988619
  0
POINT
  5
261
100
AcDbEntity
  8
DEFPOINTS
  6
CONTINUOUS
 62
         0
100
AcDbPoint
 10
1384.1508425579
 20
-195.626125203
 30
-34.4941640047
  0
POINT
  5
262
100
AcDbEntity
  8
DEFPOINTS
  6
CONTINUOUS
 62
         0
100
AcDbPoint
 10
1447.6508425579
 20
-217.5134775137
 30
-38.3534947534
  0
LINE
  5
263
100
AcDbEntity
  8
L1_120
  6
CONTINUOUS
 62
         4
100
AcDbLine
 10
1384.1508425579
 20
-194.2966347365
 30
-34.2597389649
 11
1384.1508425579
 21
-172.2860915551
 31
-30.378686342
  0
LINE
  5
264
100
AcDbEntity
  8
L1_120
  6
CONTINUOUS
 62
         4
100
AcDbLine
 10
1447.6508425579
 20
-216.1839870472
 30
-38.1190697135
 11
1447.6508425579
 21
-172.2860915551
 31
-30.378686342
  0
LINE
  5
265
100
AcDbEntity
  8
L1_120
  6
CONTINUOUS
 62
         4
100
AcDbLine
 10
1384.1508425579
 20
-172.9508367884
 30
-30.4958988619
 11
1447.6508425579
 21
-172.9508367884
 31
-30.4958988619
  0
SOLID
  5
266
100
AcDbEntity
  8
L1_120
  6
CONTINUOUS
 62
         4
100
AcDbTrace
 10
1384.1508425579
 20
-172.9508367884
 30
-30.4958988619
 11
1386.8508425579
 21
-172.5519896484
 31
-30.4255713499
 12
1386.8508425579
 22
-173.3496839283
 32
-30.5662263739
 13
1384.1508425579
 23
-172.9508367884
 33
-30.4958988619
  0
SOLID
  5
267
100
AcDbEntity
  8
L1_120
  6
CONTINUOUS
 62
         4
100
AcDbTrace
 10
1447.6508425579
 20
-172.9508367884
 30
-30.4958988619
 11
1444.9508425579
 21
-173.3496839283
 31
-30.5662263739
 12
1444.9508425579
 22
-172.5519896484
 32
-30.4255713499
 13
1447.6508425579
 23
-172.9508367884
 33
-30.4958988619
  0
TEXT
  5
269
100
AcDbEntity
  8
L1_120
  6
CONTINUOUS
 62
         4
100
AcDbText
 10
1409.7568368112
 20
-173.5938822228
 30
0.0
 40
2.7
  1
63.5
  7
BOX
210
0.0
220
-0.1736481776669303
230
0.9848077530122081
100
AcDbText
  0
ENDBLK
  5
26A
100
AcDbEntity
  8
0
  6
CONTINUOUS
100
AcDbBlockEnd
  0
BLOCK
  5
26C
100
AcDbEntity
  8
0
100
AcDbBlockBegin
  2
*D4
 70
        65
 10
0.0
 20
0.0
 30
0.0
  3
*D4
  1

  0
POINT
  5
26E
100
AcDbEntity
  8
DEFPOINTS
  6
CONTINUOUS
 62
         0
100
AcDbPoint
 10
1315.9008425579
 20
-160.4654058111
 30
-28.2943805148
  0
POINT
  5
26F
100
AcDbEntity
  8
DEFPOINTS
  6
CONTINUOUS
 62
         0
100
AcDbPoint
 10
1315.9008425579
 20
-206.4499682606
 30
-36.4026995708
  0
POINT
  5
270
100
AcDbEntity
  8
DEFPOINTS
  6
CONTINUOUS
 62
         0
100
AcDbPoint
 10
1447.6508425579
 20
-217.5134775137
 30
-38.3534947534
  0
LINE
  5
271
100
AcDbEntity
  8
L1_120
  6
CONTINUOUS
 62
         4
100
AcDbLine
 10
1315.9008425579
 20
-205.1204777941
 30
-36.1682745309
 11
1315.9008425579
 21
-159.8006605778
 31
-28.1771679949
  0
LINE
  5
272
100
AcDbEntity
  8
L1_120
  6
CONTINUOUS
 62
         4
100
AcDbLine
 10
1447.6508425579
 20
-216.1839870472
 30
-38.1190697135
 11
1447.6508425579
 21
-159.8006605778
 31
-28.1771679949
  0
LINE
  5
273
100
AcDbEntity
  8
L1_120
  6
CONTINUOUS
 62
         4
100
AcDbLine
 10
1315.9008425579
 20
-160.4654058111
 30
-28.2943805148
 11
1447.6508425579
 21
-160.4654058111
 31
-28.2943805148
  0
SOLID
  5
274
100
AcDbEntity
  8
L1_120
  6
CONTINUOUS
 62
         4
100
AcDbTrace
 10
1315.9008425579
 20
-160.4654058111
 30
-28.2943805148
 11
1318.6008425579
 21
-160.0665586711
 31
-28.2240530029
 12
1318.6008425579
 22
-160.8642529511
 32
-28.3647080268
 13
1315.9008425579
 23
-160.4654058111
 33
-28.2943805148
  0
SOLID
  5
275
100
AcDbEntity
  8
L1_120
  6
CONTINUOUS
 62
         4
100
AcDbTrace
 10
1447.6508425579
 20
-160.4654058111
 30
-28.2943805148
 11
1444.9508425579
 21
-160.8642529511
 31
-28.3647080268
 12
1444.9508425579
 22
-160.0665586711
 32
-28.2240530029
 13
1447.6508425579
 23
-160.4654058111
 33
-28.2943805148
  0
TEXT
  5
277
100
AcDbEntity
  8
L1_120
  6
CONTINUOUS
 62
         4
100
AcDbText
 10
1378.4406919215
 20
-160.9158433476
 30
0.0
 40
2.7
  1
131.75
  7
BOX
210
0.0
220
-0.1736481776669303
230
0.9848077530122081
100
AcDbText
  0
ENDBLK
  5
278
100
AcDbEntity
  8
0
  6
CONTINUOUS
100
AcDbBlockEnd
  0
BLOCK
  5
27A
100
AcDbEntity
  8
0
100
AcDbBlockBegin
  2
*D5
 70
        65
 10
0.0
 20
0.0
 30
0.0
  3
*D5
  1

  0
POINT
  5
27C
100
AcDbEntity
  8
DEFPOINTS
  6
CONTINUOUS
 62
         0
100
AcDbPoint
 10
1473.067714928
 20
-230.020535977
 30
-40.5588266098
  0
POINT
  5
27D
100
AcDbEntity
  8
DEFPOINTS
  6
CONTINUOUS
 62
         0
100
AcDbPoint
 10
1439.2727776267
 20
-230.020535977
 30
-40.5588266098
  0
POINT
  5
27E
100
AcDbEntity
  8
DEFPOINTS
  6
CONTINUOUS
 62
         0
100
AcDbPoint
 10
1439.2727776267
 20
-205.0064190505
 30
-36.148162897
  0
LINE
  5
27F
100
AcDbEntity
  8
L1_120
  6
CONTINUOUS
 62
         4
100
AcDbLine
 10
1440.6227776267
 20
-230.020535977
 30
-40.5588266098
 11
1473.742714928
 21
-230.020535977
 31
-40.5588266098
  0
LINE
  5
280
100
AcDbEntity
  8
L1_120
  6
CONTINUOUS
 62
         4
100
AcDbLine
 10
1440.6227776267
 20
-205.0064190505
 30
-36.148162897
 11
1473.742714928
 21
-205.0064190505
 31
-36.148162897
  0
LINE
  5
281
100
AcDbEntity
  8
L1_120
  6
CONTINUOUS
 62
         4
100
AcDbLine
 10
1473.067714928
 20
-230.020535977
 30
-40.5588266098
 11
1473.067714928
 21
-205.0064190505
 31
-36.148162897
  0
SOLID
  5
282
100
AcDbEntity
  8
L1_120
  6
CONTINUOUS
 62
         4
100
AcDbTrace
 10
1473.067714928
 20
-230.020535977
 30
-40.5588266098
 11
1472.662714928
 21
-227.3615550439
 31
-40.0899765301
 12
1473.472714928
 22
-227.3615550439
 32
-40.0899765301
 13
1473.067714928
 23
-230.020535977
 33
-40.5588266098
  0
SOLID
  5
283
100
AcDbEntity
  8
L1_120
  6
CONTINUOUS
 62
         4
100
AcDbTrace
 10
1473.067714928
 20
-205.0064190505
 30
-36.148162897
 11
1473.472714928
 21
-207.6653999836
 31
-36.6170129767
 12
1472.662714928
 22
-207.6653999836
 32
-36.6170129767
 13
1473.067714928
 23
-205.0064190505
 33
-36.148162897
  0
TEXT
  5
285
100
AcDbEntity
  8
L1_120
  6
CONTINUOUS
 62
         4
100
AcDbText
 10
1469.935714928
 20
-229.6948893128
 30
0.0
 40
2.7
  1
崷25.4
 50
90.0
  7
BOX
210
0.0
220
-0.1736481776669303
230
0.9848077530122081
100
AcDbText
  0
ENDBLK
  5
286
100
AcDbEntity
  8
0
  6
CONTINUOUS
100
AcDbBlockEnd
  0
BLOCK
  5
288
100
AcDbEntity
  8
0
100
AcDbBlockBegin
  2
*X6
 70
        65
 10
0.0
 20
0.0
 30
0.0
  3
*X6
  1

  0
LINE
  5
289
100
AcDbEntity
  8
L1_120
  6
CONTINUOUS
 62
         4
100
AcDbLine
 10
1441.7086892551
 20
-339.5636359455
 30
-59.8742306847
 11
1447.6009002504
 21
-333.7609408749
 31
-58.8510589829
  0
LINE
  5
28A
100
AcDbEntity
  8
L1_120
  6
CONTINUOUS
 62
         4
100
AcDbLine
 10
1437.5368813584
 20
-339.4938792643
 30
-59.8619306997
 11
1444.474420159
 21
-332.6617372667
 31
-58.6572397295
  0
LINE
  5
28B
100
AcDbEntity
  8
L1_120
  6
CONTINUOUS
 62
         4
100
AcDbLine
 10
1436.4008425579
 20
-336.4344736409
 30
-59.3224749433
 11
1439.2008425579
 21
-333.6770119324
 31
-58.8362600459
  0
LINE
  5
28C
100
AcDbEntity
  8
L1_120
  6
CONTINUOUS
 62
         4
100
AcDbLine
 10
1418.4666387847
 20
-349.9180311188
 30
-61.6999899226
 11
1419.2028425579
 21
-349.1930119353
 31
-61.572149479
  0
LINE
  5
28D
100
AcDbEntity
  8
L1_120
  6
CONTINUOUS
 62
         4
100
AcDbLine
 10
1445.5141387847
 20
-323.2814434192
 30
-57.0032408372
 11
1447.6508425579
 21
-321.1772009776
 31
-56.6322061208
  0
LINE
  5
28E
100
AcDbEntity
  8
L1_120
  6
CONTINUOUS
 62
         4
100
AcDbLine
 10
1414.2239980976
 20
-349.9180311188
 30
-61.6999899226
 11
1419.2028425579
 21
-345.0148264933
 31
-60.8354226552
  0
LINE
  5
28F
100
AcDbEntity
  8
L1_120
  6
CONTINUOUS
 62
         4
100
AcDbLine
 10
1423.8089980976
 20
-340.4786488062
 30
-60.0355721397
 11
1427.9008425579
 21
-336.4489686576
 31
-59.3250308059
  0
LINE
  5
290
100
AcDbEntity
  8
L1_120
  6
CONTINUOUS
 62
         4
100
AcDbLine
 10
1442.4008425579
 20
-322.169256239
 30
-56.8071322297
 11
1446.1901365128
 21
-318.4375301737
 31
-56.1491282398
  0
LINE
  5
291
100
AcDbEntity
  8
L1_120
  6
CONTINUOUS
 62
         4
100
AcDbLine
 10
1400.4913574103
 20
-359.2638566951
 30
-63.3479111287
 11
1403.2508425579
 21
-356.5462943275
 31
-62.8687315616
  0
LINE
  5
292
100
AcDbEntity
  8
L1_120
  6
CONTINUOUS
 62
         4
100
AcDbLine
 10
1409.9813574105
 20
-349.9180311188
 30
-61.6999899226
 11
1427.5038574105
 21
-332.6617372667
 31
-58.6572397295
  0
LINE
  5
293
100
AcDbEntity
  8
L1_120
  6
CONTINUOUS
 62
         4
100
AcDbLine
 10
1437.0288574105
 20
-323.2814434192
 30
-57.0032408372
 11
1443.2967187068
 21
-317.1088050198
 31
-55.9148381452
  0
LINE
  5
294
100
AcDbEntity
  8
L1_120
  6
CONTINUOUS
 62
         4
100
AcDbLine
 10
1397.8579954504
 20
-357.6790265278
 30
-63.0684628104
 11
1403.2508425579
 21
-352.3681088855
 31
-62.1320047377
  0
LINE
  5
295
100
AcDbEntity
  8
L1_120
  6
CONTINUOUS
 62
         4
100
AcDbLine
 10
1405.7387167234
 20
-349.9180311188
 30
-61.6999899226
 11
1423.2612167234
 21
-332.6617372667
 31
-58.6572397295
  0
LINE
  5
296
100
AcDbEntity
  8
L1_120
  6
CONTINUOUS
 62
         4
100
AcDbLine
 10
1432.7862167234
 20
-323.2814434192
 30
-57.0032408372
 11
1440.4033009008
 21
-315.7800798659
 31
-55.6805480506
  0
LINE
  5
297
100
AcDbEntity
  8
L1_120
  6
CONTINUOUS
 62
         4
100
AcDbLine
 10
1395.6560760362
 20
-355.6693083964
 30
-62.7140952802
 11
1419.0185760363
 21
-332.6617372667
 31
-58.6572397295
  0
LINE
  5
298
100
AcDbEntity
  8
L1_120
  6
CONTINUOUS
 62
         4
100
AcDbLine
 10
1428.5435760363
 20
-323.2814434192
 30
-57.0032408372
 11
1434.3446923198
 21
-317.568459127
 31
-55.9958875661
  0
LINE
  5
299
100
AcDbEntity
  8
L1_120
  6
CONTINUOUS
 62
         4
100
AcDbLine
 10
1387.8071389535
 20
-359.2208170465
 30
-63.3403220774
 11
1414.7759353491
 21
-332.6617372667
 31
-58.6572397295
  0
LINE
  5
29A
100
AcDbEntity
  8
L1_120
  6
CONTINUOUS
 62
         4
100
AcDbLine
 10
1424.3009353491
 20
-323.2814434192
 30
-57.0032408372
 11
1430.0760427165
 21
-317.5940729093
 31
-56.000403967
  0
LINE
  5
29B
100
AcDbEntity
  8
L1_120
  6
CONTINUOUS
 62
         4
100
AcDbLine
 10
1387.3508425579
 20
-355.4919958327
 30
-62.6828302912
 11
1410.533294662
 21
-332.6617372667
 31
-58.6572397295
  0
LINE
  5
29C
100
AcDbEntity
  8
L1_120
  6
CONTINUOUS
 62
         4
100
AcDbLine
 10
1420.058294662
 20
-323.2814434192
 30
-57.0032408372
 11
1427.0277714597
 21
-316.4178486344
 31
-55.793003892
  0
LINE
  5
29D
100
AcDbEntity
  8
L1_120
  6
CONTINUOUS
 62
         4
100
AcDbLine
 10
1387.3508425579
 20
-351.3138103908
 30
-61.9461034674
 11
1404.0531539749
 21
-334.865244614
 31
-59.045777527
  0
LINE
  5
29E
100
AcDbEntity
  8
L1_120
  6
CONTINUOUS
 62
         4
100
AcDbLine
 10
1415.8156539749
 20
-323.2814434192
 30
-57.0032408372
 11
1423.7531539749
 21
-315.4645318797
 31
-55.624908427
  0
LINE
  5
29F
100
AcDbEntity
  8
L1_120
  6
CONTINUOUS
 62
         4
100
AcDbLine
 10
1384.5301915585
 20
-349.9134239215
 30
-61.6991775494
 11
1399.8105132878
 21
-334.865244614
 31
-59.045777527
  0
LINE
  5
2A0
100
AcDbEntity
  8
L1_120
  6
CONTINUOUS
 62
         4
100
AcDbLine
 10
1411.5730132878
 20
-323.2814434192
 30
-57.0032408372
 11
1419.6665078855
 21
-315.3109071905
 31
-55.5978202493
  0
LINE
  5
2A1
100
AcDbEntity
  8
L1_120
  6
CONTINUOUS
 62
         4
100
AcDbLine
 10
1380.8275233225
 20
-349.3816548653
 30
-61.6054123173
 11
1395.5678726007
 21
-334.865244614
 31
-59.045777527
  0
LINE
  5
2A2
100
AcDbEntity
  8
L1_120
  6
CONTINUOUS
 62
         4
100
AcDbLine
 10
1407.5335424124
 20
-323.0813602135
 30
-56.9679607696
 11
1419.2028425579
 21
-311.589342958
 31
-54.9416080647
  0
LINE
  5
2A3
100
AcDbEntity
  8
L1_120
  6
CONTINUOUS
 62
         4
100
AcDbLine
 10
1377.1248550865
 20
-348.8498858091
 30
-61.5116470852
 11
1391.3252319135
 21
-334.865244614
 31
-59.045777527
  0
LINE
  5
2A4
100
AcDbEntity
  8
L1_120
  6
CONTINUOUS
 62
         4
100
AcDbLine
 10
1405.3252319135
 20
-321.0779360719
 30
-56.6147030397
 11
1419.2028425579
 21
-307.4111575161
 31
-54.2048812409
  0
LINE
  5
2A5
100
AcDbEntity
  8
L1_120
  6
CONTINUOUS
 62
         4
100
AcDbLine
 10
1373.4221868504
 20
-348.3181167528
 30
-61.4178818531
 11
1387.0825912264
 21
-334.865244614
 31
-59.045777527
  0
LINE
  5
2A6
100
AcDbEntity
  8
L1_120
  6
CONTINUOUS
 62
         4
100
AcDbLine
 10
1401.0825912264
 20
-321.0779360719
 30
-56.6147030397
 11
1416.3675912264
 21
-306.0251495671
 31
-53.960490644
  0
LINE
  5
2A7
100
AcDbEntity
  8
L1_120
  6
CONTINUOUS
 62
         4
100
AcDbLine
 10
1369.7195186144
 20
-347.7863476966
 30
-61.324116621
 11
1382.8399505393
 21
-334.865244614
 31
-59.045777527
  0
LINE
  5
2A8
100
AcDbEntity
  8
L1_120
  6
CONTINUOUS
 62
         4
100
AcDbLine
 10
1396.8399505393
 20
-321.0779360719
 30
-56.6147030397
 11
1412.1249505393
 21
-306.0251495671
 31
-53.960490644
  0
LINE
  5
2A9
100
AcDbEntity
  8
L1_120
  6
CONTINUOUS
 62
         4
100
AcDbLine
 10
1366.0168503784
 20
-347.2545786403
 30
-61.2303513888
 11
1378.5973098522
 21
-334.865244614
 31
-59.045777527
  0
LINE
  5
2AA
100
AcDbEntity
  8
L1_120
  6
CONTINUOUS
 62
         4
100
AcDbLine
 10
1392.5973098522
 20
-321.0779360719
 30
-56.6147030397
 11
1407.8823098522
 21
-306.0251495671
 31
-53.960490644
  0
LINE
  5
2AB
100
AcDbEntity
  8
L1_120
  6
CONTINUOUS
 62
         4
100
AcDbLine
 10
1362.3141821423
 20
-346.7228095841
 30
-61.1365861567
 11
1374.3546691651
 21
-334.865244614
 31
-59.045777527
  0
LINE
  5
2AC
100
AcDbEntity
  8
L1_120
  6
CONTINUOUS
 62
         4
100
AcDbLine
 10
1388.3546691651
 20
-321.0779360719
 30
-56.6147030397
 11
1403.6499535293
 21
-306.0150214454
 31
-53.9587047829
  0
LINE
  5
2AD
100
AcDbEntity
  8
L1_120
  6
CONTINUOUS
 62
         4
100
AcDbLine
 10
1358.6115139063
 20
-346.1910405278
 30
-61.0428209246
 11
1370.1120284779
 21
-334.865244614
 31
-59.045777527
  0
LINE
  5
2AE
100
AcDbEntity
  8
L1_120
  6
CONTINUOUS
 62
         4
100
AcDbLine
 10
1384.1120284779
 20
-321.0779360719
 30
-56.6147030397
 11
1403.2508425579
 21
-302.2298835825
 31
-53.291282852
  0
LINE
  5
2AF
100
AcDbEntity
  8
L1_120
  6
CONTINUOUS
 62
         4
100
AcDbLine
 10
1354.9088456703
 20
-345.6592714716
 30
-60.9490556925
 11
1365.8693877908
 21
-334.865244614
 31
-59.045777527
  0
LINE
  5
2B0
100
AcDbEntity
  8
L1_120
  6
CONTINUOUS
 62
         4
100
AcDbLine
 10
1379.8693877908
 20
-321.0779360719
 30
-56.6147030397
 11
1403.2508425579
 21
-298.0516981406
 31
-52.5545560282
  0
LINE
  5
2B1
100
AcDbEntity
  8
L1_120
  6
CONTINUOUS
 62
         4
100
AcDbLine
 10
1351.2061774342
 20
-345.1275024153
 30
-60.8552904604
 11
1361.6267471037
 21
-334.865244614
 31
-59.045777527
  0
LINE
  5
2B2
100
AcDbEntity
  8
L1_120
  6
CONTINUOUS
 62
         4
100
AcDbLine
 10
1375.6267471037
 20
-321.0779360719
 30
-56.6147030397
 11
1400.4017471039
 21
-296.6793239908
 31
-52.3125694379
  0
LINE
  5
2B3
100
AcDbEntity
  8
L1_120
  6
CONTINUOUS
 62
         4
100
AcDbLine
 10
1347.5035091982
 20
-344.5957333591
 30
-60.7615252282
 11
1357.3841064166
 21
-334.865244614
 31
-59.045777527
  0
LINE
  5
2B4
100
AcDbEntity
  8
L1_120
  6
CONTINUOUS
 62
         4
100
AcDbLine
 10
1371.3841064166
 20
-321.0779360719
 30
-56.6147030397
 11
1386.8370586684
 21
-305.8597488874
 31
-53.9313260416
  0
LINE
  5
2B5
100
AcDbEntity
  8
L1_120
  6
CONTINUOUS
 62
         4
100
AcDbLine
 10
1387.2978903061
 20
-305.4059183178
 30
-53.8513034675
 11
1393.3413846053
 21
-299.4542382766
 31
-52.8018616957
  0
LINE
  5
2B6
100
AcDbEntity
  8
L1_120
  6
CONTINUOUS
 62
         4
100
AcDbLine
 10
1343.8008409622
 20
-344.0639643029
 30
-60.6677599961
 11
1353.1414657295
 21
-334.865244614
 31
-59.045777527
  0
LINE
  5
2B7
100
AcDbEntity
  8
L1_120
  6
CONTINUOUS
 62
         4
100
AcDbLine
 10
1367.1414657295
 20
-321.0779360719
 30
-56.6147030397
 11
1382.0618160271
 21
-306.3842594212
 31
-54.0238114003
  0
LINE
  5
2B8
100
AcDbEntity
  8
L1_120
  6
CONTINUOUS
 62
         4
100
AcDbLine
 10
1387.3508425579
 20
-301.1755850877
 30
-53.1053815816
 11
1391.7884703347
 21
-296.8053748481
 31
-52.334795605
  0
LINE
  5
2B9
100
AcDbEntity
  8
L1_120
  6
CONTINUOUS
 62
         4
100
AcDbLine
 10
1340.0981727261
 20
-343.5321952466
 30
-60.573994764
 11
1348.8988250423
 21
-334.865244614
 31
-59.045777527
  0
LINE
  5
2BA
100
AcDbEntity
  8
L1_120
  6
CONTINUOUS
 62
         4
100
AcDbLine
 10
1362.8988250423
 20
-321.0779360719
 30
-56.6147030397
 11
1377.0948220519
 21
-307.0976081551
 31
-54.1495940288
  0
LINE
  5
2BB
100
AcDbEntity
  8
L1_120
  6
CONTINUOUS
 62
         4
100
AcDbLine
 10
1336.3955044901
 20
-343.0004261904
 30
-60.4802295319
 11
1344.6561843552
 21
-334.865244614
 31
-59.045777527
  0
LINE
  5
2BC
100
AcDbEntity
  8
L1_120
  6
CONTINUOUS
 62
         4
100
AcDbLine
 10
1358.6561843552
 20
-321.0779360719
 30
-56.6147030397
 11
1372.1278280767
 21
-307.8109568891
 31
-54.2753766572
  0
LINE
  5
2BD
100
AcDbEntity
  8
L1_120
  6
CONTINUOUS
 62
         4
100
AcDbLine
 10
1332.6928362541
 20
-342.4686571341
 30
-60.3864642997
 11
1340.4135436681
 21
-334.865244614
 31
-59.045777527
  0
LINE
  5
2BE
100
AcDbEntity
  8
L1_120
  6
CONTINUOUS
 62
         4
100
AcDbLine
 10
1354.4135436681
 20
-321.0779360719
 30
-56.6147030397
 11
1367.1608341016
 21
-308.5243056231
 31
-54.4011592857
  0
LINE
  5
2BF
100
AcDbEntity
  8
L1_120
  6
CONTINUOUS
 62
         4
100
AcDbLine
 10
1328.990168018
 20
-341.9368880779
 30
-60.2926990676
 11
1336.170902981
 21
-334.865244614
 31
-59.045777527
  0
LINE
  5
2C0
100
AcDbEntity
  8
L1_120
  6
CONTINUOUS
 62
         4
100
AcDbLine
 10
1350.170902981
 20
-321.0779360719
 30
-56.6147030397
 11
1362.1938401264
 21
-309.2376543571
 31
-54.5269419142
  0
LINE
  5
2C1
100
AcDbEntity
  8
L1_120
  6
CONTINUOUS
 62
         4
100
AcDbLine
 10
1325.287499782
 20
-341.4051190216
 30
-60.1989338355
 11
1331.9282622939
 21
-334.865244614
 31
-59.045777527
  0
LINE
  5
2C2
100
AcDbEntity
  8
L1_120
  6
CONTINUOUS
 62
         4
100
AcDbLine
 10
1345.9282622939
 20
-321.0779360719
 30
-56.6147030397
 11
1357.2268461512
 21
-309.9510030911
 31
-54.6527245426
  0
LINE
  5
2C3
100
AcDbEntity
  8
L1_120
  6
CONTINUOUS
 62
         4
100
AcDbLine
 10
1321.584831546
 20
-340.8733499654
 30
-60.1051686034
 11
1327.6856216067
 21
-334.865244614
 31
-59.045777527
  0
LINE
  5
2C4
100
AcDbEntity
  8
L1_120
  6
CONTINUOUS
 62
         4
100
AcDbLine
 10
1341.6856216068
 20
-321.0779360719
 30
-56.6147030397
 11
1352.2598521761
 21
-310.6643518251
 31
-54.7785071711
  0
LINE
  5
2C5
100
AcDbEntity
  8
L1_120
  6
CONTINUOUS
 62
         4
100
AcDbLine
 10
1317.88216331
 20
-340.3415809091
 30
-60.0114033713
 11
1323.4429809196
 21
-334.865244614
 31
-59.045777527
  0
LINE
  5
2C6
100
AcDbEntity
  8
L1_120
  6
CONTINUOUS
 62
         4
100
AcDbLine
 10
1337.4429809196
 20
-321.0779360719
 30
-56.6147030397
 11
1347.2928582009
 21
-311.3777005591
 31
-54.9042897995
  0
LINE
  5
2C7
100
AcDbEntity
  8
L1_120
  6
CONTINUOUS
 62
         4
100
AcDbLine
 10
1315.9008425579
 20
-338.1146155051
 30
-59.6187292854
 11
1318.0503402325
 21
-335.99777353
 31
-59.2454729313
  0
LINE
  5
2C8
100
AcDbEntity
  8
L1_120
  6
CONTINUOUS
 62
         4
100
AcDbLine
 10
1333.2003402325
 20
-321.0779360719
 30
-56.6147030397
 11
1342.3258642257
 21
-312.091049293
 31
-55.030072428
  0
LINE
  5
2C9
100
AcDbEntity
  8
L1_120
  6
CONTINUOUS
 62
         4
100
AcDbLine
 10
1328.9576995454
 20
-321.0779360719
 30
-56.6147030397
 11
1337.3588702506
 21
-312.804398027
 31
-55.1558550564
  0
LINE
  5
2CA
100
AcDbEntity
  8
L1_120
  6
CONTINUOUS
 62
         4
100
AcDbLine
 10
1324.7150588583
 20
-321.0779360719
 30
-56.6147030397
 11
1332.3918762754
 21
-313.517746761
 31
-55.2816376849
  0
LINE
  5
2CB
100
AcDbEntity
  8
L1_120
  6
CONTINUOUS
 62
         4
100
AcDbLine
 10
1321.1380517207
 20
-320.4224149916
 30
-56.4991169868
 11
1327.4248823003
 21
-314.231095495
 31
-55.4074203133
  0
LINE
  5
2CC
100
AcDbEntity
  8
L1_120
  6
CONTINUOUS
 62
         4
100
AcDbLine
 10
1317.379777484
 20
-319.9454071559
 30
-56.4150076353
 11
1322.4578883251
 21
-314.944444229
 31
-55.5332029418
  0
LINE
  5
2CD
100
AcDbEntity
  8
L1_120
  6
CONTINUOUS
 62
         4
100
AcDbLine
 10
1315.9008425579
 20
-317.2236882955
 30
-55.9350951663
 11
1317.4908943499
 21
-315.657792963
 31
-55.6589855703
  0
ENDBLK
  5
2CE
100
AcDbEntity
  8
0
  6
CONTINUOUS
100
AcDbBlockEnd
  0
BLOCK
  5
30A
100
AcDbEntity
  8
0
100
AcDbBlockBegin
  2
*D7
 70
        65
 10
0.0
 20
0.0
 30
0.0
  3
*D7
  1

  0
POINT
  5
30C
100
AcDbEntity
  8
DEFPOINTS
  6
CONTINUOUS
 62
         0
100
AcDbPoint
 10
1486.3272272236
 20
-289.0826431939
 30
-50.9730696496
  0
POINT
  5
30D
100
AcDbEntity
  8
DEFPOINTS
  6
CONTINUOUS
 62
         0
100
AcDbPoint
 10
1486.3272272236
 20
-297.3082102149
 30
-52.423459047
  0
POINT
  5
30E
100
AcDbEntity
  8
DEFPOINTS
  6
CONTINUOUS
 62
         0
100
AcDbPoint
 10
1495.8522462737
 20
-297.3082102149
 30
-52.423459047
  0
LINE
  5
30F
100
AcDbEntity
  8
L1_120
  6
CONTINUOUS
 62
         4
100
AcDbLine
 10
1486.3272272236
 20
-295.9787197483
 30
-52.1890340072
 11
1486.3272272236
 21
-288.4178979606
 31
-50.8558571297
  0
LINE
  5
310
100
AcDbEntity
  8
L1_120
  6
CONTINUOUS
 62
         4
100
AcDbLine
 10
1495.8522462737
 20
-295.9787197483
 30
-52.1890340072
 11
1495.8522462737
 21
-288.4178979606
 31
-50.8558571297
  0
LINE
  5
311
100
AcDbEntity
  8
L1_120
  6
CONTINUOUS
 62
         4
100
AcDbLine
 10
1486.3272272236
 20
-289.0826431939
 30
-50.9730696496
 11
1495.8522462737
 21
-289.0826431939
 31
-50.9730696496
  0
SOLID
  5
312
100
AcDbEntity
  8
L1_120
  6
CONTINUOUS
 62
         4
100
AcDbTrace
 10
1486.3272272236
 20
-289.0826431939
 30
-50.9730696496
 11
1489.0272272236
 21
-288.6837960539
 31
-50.9027421376
 12
1489.0272272236
 22
-289.4814903338
 32
-51.0433971616
 13
1486.3272272236
 23
-289.0826431939
 33
-50.9730696496
  0
SOLID
  5
313
100
AcDbEntity
  8
L1_120
  6
CONTINUOUS
 62
         4
100
AcDbTrace
 10
1495.8522462737
 20
-289.0826431939
 30
-50.9730696496
 11
1493.1522462737
 21
-289.4814903338
 31
-51.0433971616
 12
1493.1522462737
 22
-288.6837960539
 32
-50.9027421376
 13
1495.8522462737
 23
-289.0826431939
 33
-50.9730696496
  0
TEXT
  5
315
100
AcDbEntity
  8
L1_120
  6
CONTINUOUS
 62
         4
100
AcDbText
 10
1478.4921395986
 20
-291.5172089333
 30
0.0
 40
2.7
  1
3/8"-24UNF
  7
BOX
210
0.0
220
-0.1736481776669303
230
0.9848077530122081
100
AcDbText
  0
ENDBLK
  5
316
100
AcDbEntity
  8
0
  6
CONTINUOUS
100
AcDbBlockEnd
  0
BLOCK
  5
318
100
AcDbEntity
  8
0
100
AcDbBlockBegin
  2
*D8
 70
        65
 10
0.0
 20
0.0
 30
0.0
  3
*D8
  1

  0
POINT
  5
31A
100
AcDbEntity
  8
DEFPOINTS
  6
CONTINUOUS
 62
         0
100
AcDbPoint
 10
1488.3184554565
 20
-312.9061382409
 30
-55.1737946012
  0
POINT
  5
31B
100
AcDbEntity
  8
DEFPOINTS
  6
CONTINUOUS
 62
         0
100
AcDbPoint
 10
1488.3184554565
 20
-303.1465167822
 30
-53.4529100165
  0
POINT
  5
31C
100
AcDbEntity
  8
DEFPOINTS
  6
CONTINUOUS
 62
         0
100
AcDbPoint
 10
1493.8610180407
 20
-303.1465167822
 30
-53.4529100165
  0
LINE
  5
31D
100
AcDbEntity
  8
L1_120
  6
CONTINUOUS
 62
         4
100
AcDbLine
 10
1488.3184554565
 20
-304.4760072487
 30
-53.6873350563
 11
1488.3184554565
 21
-313.5708834742
 31
-55.2910071211
  0
LINE
  5
31E
100
AcDbEntity
  8
L1_120
  6
CONTINUOUS
 62
         4
100
AcDbLine
 10
1493.8610180407
 20
-304.4760072487
 30
-53.6873350563
 11
1493.8610180407
 21
-313.5708834742
 31
-55.2910071211
  0
LINE
  5
31F
100
AcDbEntity
  8
L1_120
  6
CONTINUOUS
 62
         4
100
AcDbLine
 10
1488.3184554565
 20
-312.9061382409
 30
-55.1737946012
 11
1482.9184554565
 21
-312.9061382409
 31
-55.1737946012
  0
SOLID
  5
320
100
AcDbEntity
  8
L1_120
  6
CONTINUOUS
 62
         4
100
AcDbTrace
 10
1488.3184554565
 20
-312.9061382409
 30
-55.1737946012
 11
1485.6184554565
 21
-313.3049853809
 31
-55.2441221131
 12
1485.6184554565
 22
-312.507291101
 32
-55.1034670892
 13
1488.3184554565
 23
-312.9061382409
 33
-55.1737946012
  0
LINE
  5
321
100
AcDbEntity
  8
L1_120
  6
CONTINUOUS
 62
         4
100
AcDbLine
 10
1493.8610180407
 20
-312.9061382409
 30
-55.1737946012
 11
1513.6110858755
 21
-312.9061382409
 31
-55.1737946012
  0
SOLID
  5
322
100
AcDbEntity
  8
L1_120
  6
CONTINUOUS
 62
         4
100
AcDbTrace
 10
1493.8610180407
 20
-312.9061382409
 30
-55.1737946012
 11
1496.5610180407
 21
-312.507291101
 31
-55.1034670892
 12
1496.5610180407
 22
-313.3049853809
 32
-55.2441221131
 13
1493.8610180407
 23
-312.9061382409
 33
-55.1737946012
  0
LINE
  5
323
100
AcDbEntity
  8
L1_120
  6
CONTINUOUS
 62
         4
100
AcDbLine
 10
1488.3184554565
 20
-312.9061382409
 30
-55.1737946012
 11
1493.8610180407
 21
-312.9061382409
 31
-55.1737946012
  0
TEXT
  5
325
100
AcDbEntity
  8
L1_120
  6
CONTINUOUS
 62
         4
100
AcDbText
 10
1496.0610858755
 20
-315.7082197922
 30
0.0
 40
2.7
  1
4.8Hex
  7
BOX
210
0.0
220
-0.1736481776669303
230
0.9848077530122081
100
AcDbText
  0
ENDBLK
  5
326
100
AcDbEntity
  8
0
  6
CONTINUOUS
100
AcDbBlockEnd
  0
BLOCK
  5
329
100
AcDbEntity
  8
0
100
AcDbBlockBegin
  2
*D9
 70
        65
 10
0.0
 20
0.0
 30
0.0
  3
*D9
  1

  0
POINT
  5
32B
100
AcDbEntity
  8
DEFPOINTS
  6
CONTINUOUS
 62
         0
100
AcDbPoint
 10
1480.6538954644
 20
-295.2695556081
 30
-52.0639892355
  0
POINT
  5
32C
100
AcDbEntity
  8
DEFPOINTS
  6
CONTINUOUS
 62
         0
100
AcDbPoint
 10
1488.3973313638
 20
-295.2695556081
 30
-52.0639892355
  0
POINT
  5
32D
100
AcDbEntity
  8
DEFPOINTS
  6
CONTINUOUS
 62
         0
100
AcDbPoint
 10
1487.038421534
 20
-303.1465167822
 30
-53.4529100165
  0
LINE
  5
32E
100
AcDbEntity
  8
L1_120
  6
CONTINUOUS
 62
         4
100
AcDbLine
 10
1487.0473313638
 20
-295.2695556081
 30
-52.0639892355
 11
1479.9788954644
 21
-295.2695556081
 31
-52.0639892355
  0
LINE
  5
32F
100
AcDbEntity
  8
L1_120
  6
CONTINUOUS
 62
         4
100
AcDbLine
 10
1485.688421534
 20
-303.1465167822
 30
-53.4529100165
 11
1479.9788954644
 21
-303.1465167822
 31
-53.4529100165
  0
LINE
  5
330
100
AcDbEntity
  8
L1_120
  6
CONTINUOUS
 62
         4
100
AcDbLine
 10
1480.6538954644
 20
-295.2695556081
 30
-52.0639892355
 11
1480.6538954644
 21
-303.1465167822
 31
-53.4529100165
  0
SOLID
  5
331
100
AcDbEntity
  8
L1_120
  6
CONTINUOUS
 62
         4
100
AcDbTrace
 10
1480.6538954644
 20
-295.2695556081
 30
-52.0639892355
 11
1481.0588954644
 21
-297.9285365412
 31
-52.5328393152
 12
1480.2488954644
 22
-297.9285365412
 32
-52.5328393152
 13
1480.6538954644
 23
-295.2695556081
 33
-52.0639892355
  0
SOLID
  5
332
100
AcDbEntity
  8
L1_120
  6
CONTINUOUS
 62
         4
100
AcDbTrace
 10
1480.6538954644
 20
-303.1465167822
 30
-53.4529100165
 11
1480.2488954644
 21
-300.487535849
 31
-52.9840599368
 12
1481.0588954644
 22
-300.487535849
 32
-52.9840599368
 13
1480.6538954644
 23
-303.1465167822
 33
-53.4529100165
  0
TEXT
  5
334
100
AcDbEntity
  8
L1_120
  6
CONTINUOUS
 62
         4
100
AcDbText
 10
1478.6288954644
 20
-304.9160378958
 30
0.0
 40
2.7
  1
8
 50
90.0
  7
BOX
210
0.0
220
-0.1736481776669303
230
0.9848077530122081
100
AcDbText
  0
ENDBLK
  5
335
100
AcDbEntity
  8
0
  6
CONTINUOUS
100
AcDbBlockEnd
  0
ENDSEC
  0
SECTION
  2
ENTITIES
  0
ARC
  5
25
100
AcDbEntity
  8
L1_120
  6
CONTINUOUS
 62
         7
100
AcDbCircle
 10
1317.1008425579
 20
-321.7968990603
 30
58.7223649554
 40
1.2
210
0.0
220
-0.1736481776669303
230
0.9848077530122081
100
AcDbArc
 50
98.2971449698
 51
180.0
  0
LINE
  5
26
100
AcDbEntity
  8
L1_120
  6
CONTINUOUS
 62
         7
100
AcDbLine
 10
1315.9008425579
 20
-327.1051127527
 30
1.9507951826
 11
1315.9008425579
 21
-349.2321312589
 31
-1.9507951826
  0
ARC
  5
27
100
AcDbEntity
  8
L1_120
  6
CONTINUOUS
 62
         7
100
AcDbCircle
 10
1317.1008425579
 20
-344.2652624932
 30
58.7223649554
 40
1.2
210
0.0
220
-0.1736481776669303
230
0.9848077530122081
100
AcDbArc
 50
180.0
 51
261.7028550302
  0
LINE
  5
28
100
AcDbEntity
  8
L1_120
  6
CONTINUOUS
 62
         7
100
AcDbLine
 10
1316.7776742862
 20
-350.3799882912
 30
-2.1531933474
 11
1385.3508425583
 21
-360.2283156733
 31
-3.8897191798
  0
LINE
  5
29
100
AcDbEntity
  8
L1_120
  6
CONTINUOUS
 62
         7
100
AcDbLine
 10
1316.7776742862
 20
-325.9572557203
 30
2.1531933474
 11
1385.3508425579
 21
-316.1089283383
 31
3.8897191797
  0
LINE
  5
2A
100
AcDbEntity
  8
L1_120
  6
CENTER
 62
         1
100
AcDbLine
 10
1243.1257669317
 20
-200.8729097539
 30
0.0
 11
1237.487611207
 21
-198.8207888939
 31
0.0
  0
ARC
  5
2B
100
AcDbEntity
  8
L1_120
  6
CONTINUOUS
 62
         7
100
AcDbCircle
 10
1241.2202828813
 20
-200.1793702776
 30
0.0
 40
2.9722262277
100
AcDbArc
 50
141.257725858
 51
160.0
  0
ARC
  5
2C
100
AcDbEntity
  8
L1_120
  6
CONTINUOUS
 62
         7
100
AcDbCircle
 10
1240.8282055258
 20
-199.8647818452
 30
0.0
 40
2.4695428935
100
AcDbArc
 50
120.6773100903
 51
141.257725858
  0
POLYLINE
  5
2E
100
AcDbEntity
  8
L1_120
  6
CONTINUOUS
 62
         7
100
AcDb3dPolyline
 66
         1
 10
0.0
 20
0.0
 30
0.0
 70
         8
  0
VERTEX
  5
30
100
AcDbEntity
  8
L1_120
  6
CONTINUOUS
 62
         7
100
AcDbVertex
100
AcDb3dPolylineVertex
 10
1239.5682389019
 20
-197.7408406479
 30
0.0
 70
        32
  0
VERTEX
  5
32
100
AcDbEntity
  8
L1_120
  6
CONTINUOUS
 62
         7
100
AcDbVertex
100
AcDb3dPolylineVertex
 10
1239.5682389019
 20
-197.7408406479
 30
0.0
 70
        32
  0
SEQEND
  5
34
100
AcDbEntity
  8
L1_120
  6
CONTINUOUS
 62
         7
  0
ARC
  5
35
100
AcDbEntity
  8
L1_120
  6
CONTINUOUS
 62
         7
100
AcDbCircle
 10
1240.6284669948
 20
-199.5280801526
 30
0.0
 40
2.0780540551
100
AcDbArc
 50
96.8239621528
 51
120.6773100904
  0
POLYLINE
  5
37
100
AcDbEntity
  8
L1_120
  6
CONTINUOUS
 62
         7
100
AcDb3dPolyline
 66
         1
 10
0.0
 20
0.0
 30
0.0
 70
         8
  0
VERTEX
  5
39
100
AcDbEntity
  8
L1_120
  6
CONTINUOUS
 62
         7
100
AcDbVertex
100
AcDb3dPolylineVertex
 10
1240.3815542028
 20
-197.4647472349
 30
0.0
 70
        32
  0
VERTEX
  5
3B
100
AcDbEntity
  8
L1_120
  6
CONTINUOUS
 62
         7
100
AcDbVertex
100
AcDb3dPolylineVertex
 10
1240.3815542028
 20
-197.4647472349
 30
0.0
 70
        32
  0
SEQEND
  5
3D
100
AcDbEntity
  8
L1_120
  6
CONTINUOUS
 62
         7
  0
ARC
  5
3E
100
AcDbEntity
  8
L1_120
  6
CONTINUOUS
 62
         7
100
AcDbCircle
 10
1240.5775566661
 20
-199.1026467183
 30
0.0
 40
1.6495853065
100
AcDbArc
 50
70.0000000001
 51
96.8239621529
  0
POLYLINE
  5
40
100
AcDbEntity
  8
L1_120
  6
CONTINUOUS
 62
         7
100
AcDb3dPolyline
 66
         1
 10
0.0
 20
0.0
 30
0.0
 70
         8
  0
VERTEX
  5
42
100
AcDbEntity
  8
L1_120
  6
CONTINUOUS
 62
         7
100
AcDbVertex
100
AcDb3dPolylineVertex
 10
1241.141748069
 20
-197.5525435785
 30
0.0
 70
        32
  0
VERTEX
  5
44
100
AcDbEntity
  8
L1_120
  6
CONTINUOUS
 62
         7
100
AcDbVertex
100
AcDb3dPolylineVertex
 10
1241.141748069
 20
-197.5525435785
 30
0.0
 70
        32
  0
SEQEND
  5
46
100
AcDbEntity
  8
L1_120
  6
CONTINUOUS
 62
         7
  0
ARC
  5
47
100
AcDbEntity
  8
L1_120
  6
CONTINUOUS
 62
         7
100
AcDbCircle
 10
1240.5775566661
 20
-199.1026467183
 30
0.0
 40
1.6495853065
100
AcDbArc
 50
43.1760378472
 51
70.0
  0
POLYLINE
  5
49
100
AcDbEntity
  8
L1_120
  6
CONTINUOUS
 62
         7
100
AcDb3dPolyline
 66
         1
 10
0.0
 20
0.0
 30
0.0
 70
         8
  0
VERTEX
  5
4B
100
AcDbEntity
  8
L1_120
  6
CONTINUOUS
 62
         7
100
AcDbVertex
100
AcDb3dPolylineVertex
 10
1241.7805247577
 20
-197.9739308755
 30
0.0
 70
        32
  0
VERTEX
  5
4D
100
AcDbEntity
  8
L1_120
  6
CONTINUOUS
 62
         7
100
AcDbVertex
100
AcDb3dPolylineVertex
 10
1241.7805247577
 20
-197.9739308755
 30
0.0
 70
        32
  0
SEQEND
  5
4F
100
AcDbEntity
  8
L1_120
  6
CONTINUOUS
 62
         7
  0
ARC
  5
50
100
AcDbEntity
  8
L1_120
  6
CONTINUOUS
 62
         7
100
AcDbCircle
 10
1240.2650937514
 20
-199.3958231081
 30
0.0
 40
2.0780540551
100
AcDbArc
 50
19.3226899096
 51
43.1760378472
  0
POLYLINE
  5
52
100
AcDbEntity
  8
L1_120
  6
CONTINUOUS
 62
         7
100
AcDb3dPolyline
 66
         1
 10
0.0
 20
0.0
 30
0.0
 70
         8
  0
VERTEX
  5
54
100
AcDbEntity
  8
L1_120
  6
CONTINUOUS
 62
         7
100
AcDbVertex
100
AcDb3dPolylineVertex
 10
1242.2260909995
 20
-198.7082196985
 30
0.0
 70
        32
  0
VERTEX
  5
56
100
AcDbEntity
  8
L1_120
  6
CONTINUOUS
 62
         7
100
AcDbVertex
100
AcDb3dPolylineVertex
 10
1242.2260909995
 20
-198.7082196985
 30
0.0
 70
        32
  0
SEQEND
  5
58
100
AcDbEntity
  8
L1_120
  6
CONTINUOUS
 62
         7
  0
ARC
  5
59
100
AcDbEntity
  8
L1_120
  6
CONTINUOUS
 62
         7
100
AcDbCircle
 10
1239.8956574834
 20
-199.5253621157
 30
0.0
 40
2.4695428935
100
AcDbArc
 50
358.742274142
 51
379.3226899097
  0
POLYLINE
  5
5B
100
AcDbEntity
  8
L1_120
  6
CONTINUOUS
 62
         7
100
AcDb3dPolyline
 66
         1
 10
0.0
 20
0.0
 30
0.0
 70
         8
  0
VERTEX
  5
5D
100
AcDbEntity
  8
L1_120
  6
CONTINUOUS
 62
         7
100
AcDbVertex
100
AcDb3dPolylineVertex
 10
1242.3646054058
 20
-199.5795678275
 30
0.0
 70
        32
  0
VERTEX
  5
5F
100
AcDbEntity
  8
L1_120
  6
CONTINUOUS
 62
         7
100
AcDbVertex
100
AcDb3dPolylineVertex
 10
1242.3646054058
 20
-199.5795678275
 30
0.0
 70
        32
  0
SEQEND
  5
61
100
AcDbEntity
  8
L1_120
  6
CONTINUOUS
 62
         7
  0
ARC
  5
62
100
AcDbEntity
  8
L1_120
  6
CONTINUOUS
 62
         7
100
AcDbCircle
 10
1239.3930952575
 20
-199.5143283701
 30
0.0
 40
2.9722262277
100
AcDbArc
 50
339.9999999999
 51
358.742274142
  0
POLYLINE
  5
64
100
AcDbEntity
  8
L1_120
  6
CONTINUOUS
 62
         7
100
AcDb3dPolyline
 66
         1
 10
0.0
 20
0.0
 30
0.0
 70
         8
  0
VERTEX
  5
66
100
AcDbEntity
  8
L1_120
  6
CONTINUOUS
 62
         7
100
AcDbVertex
100
AcDb3dPolylineVertex
 10
1242.186074311
 20
-200.5308896105
 30
0.0
 70
        32
  0
VERTEX
  5
68
100
AcDbEntity
  8
L1_120
  6
CONTINUOUS
 62
         7
100
AcDbVertex
100
AcDb3dPolylineVertex
 10
1242.186074311
 20
-200.5308896105
 30
0.0
 70
        32
  0
SEQEND
  5
6A
100
AcDbEntity
  8
L1_120
  6
CONTINUOUS
 62
         7
  0
ARC
  5
6B
100
AcDbEntity
  8
L1_120
  6
CONTINUOUS
 62
         7
100
AcDbCircle
 10
1239.3930952574
 20
-199.5143283701
 30
0.0
 40
2.9722262277
100
AcDbArc
 50
321.257725858
 51
340.0
  0
POLYLINE
  5
6D
100
AcDbEntity
  8
L1_120
  6
CONTINUOUS
 62
         7
100
AcDb3dPolyline
 66
         1
 10
0.0
 20
0.0
 30
0.0
 70
         8
  0
VERTEX
  5
6F
100
AcDbEntity
  8
L1_120
  6
CONTINUOUS
 62
         7
100
AcDbVertex
100
AcDb3dPolylineVertex
 10
1241.7113392092
 20
-201.3744019518
 30
0.0
 70
        32
  0
VERTEX
  5
71
100
AcDbEntity
  8
L1_120
  6
CONTINUOUS
 62
         7
100
AcDbVertex
100
AcDb3dPolylineVertex
 10
1241.7113392092
 20
-201.3744019518
 30
0.0
 70
        32
  0
SEQEND
  5
73
100
AcDbEntity
  8
L1_120
  6
CONTINUOUS
 62
         7
  0
ARC
  5
74
100
AcDbEntity
  8
L1_120
  6
CONTINUOUS
 62
         7
100
AcDbCircle
 10
1239.7851726129
 20
-199.8289168026
 30
0.0
 40
2.4695428935
100
AcDbArc
 50
300.6773100903
 51
321.257725858
  0
POLYLINE
  5
76
100
AcDbEntity
  8
L1_120
  6
CONTINUOUS
 62
         7
100
AcDb3dPolyline
 66
         1
 10
0.0
 20
0.0
 30
0.0
 70
         8
  0
VERTEX
  5
78
100
AcDbEntity
  8
L1_120
  6
CONTINUOUS
 62
         7
100
AcDbVertex
100
AcDb3dPolylineVertex
 10
1241.0451392368
 20
-201.9528579999
 30
0.0
 70
        32
  0
VERTEX
  5
7A
100
AcDbEntity
  8
L1_120
  6
CONTINUOUS
 62
         7
100
AcDbVertex
100
AcDb3dPolylineVertex
 10
1241.0451392368
 20
-201.9528579999
 30
0.0
 70
        32
  0
SEQEND
  5
7C
100
AcDbEntity
  8
L1_120
  6
CONTINUOUS
 62
         7
  0
ARC
  5
7D
100
AcDbEntity
  8
L1_120
  6
CONTINUOUS
 62
         7
100
AcDbCircle
 10
1239.984911144
 20
-200.1656184952
 30
0.0
 40
2.0780540551
100
AcDbArc
 50
276.8239621528
 51
300.6773100904
  0
POLYLINE
  5
7F
100
AcDbEntity
  8
L1_120
  6
CONTINUOUS
 62
         7
100
AcDb3dPolyline
 66
         1
 10
0.0
 20
0.0
 30
0.0
 70
         8
  0
VERTEX
  5
81
100
AcDbEntity
  8
L1_120
  6
CONTINUOUS
 62
         7
100
AcDbVertex
100
AcDb3dPolylineVertex
 10
1240.231823936
 20
-202.2289514128
 30
0.0
 70
        32
  0
VERTEX
  5
83
100
AcDbEntity
  8
L1_120
  6
CONTINUOUS
 62
         7
100
AcDbVertex
100
AcDb3dPolylineVertex
 10
1240.231823936
 20
-202.2289514128
 30
0.0
 70
        32
  0
SEQEND
  5
85
100
AcDbEntity
  8
L1_120
  6
CONTINUOUS
 62
         7
  0
ARC
  5
86
100
AcDbEntity
  8
L1_120
  6
CONTINUOUS
 62
         7
100
AcDbCircle
 10
1240.0358214727
 20
-200.5910519294
 30
0.0
 40
1.6495853065
100
AcDbArc
 50
250.0
 51
276.8239621528
  0
POLYLINE
  5
88
100
AcDbEntity
  8
L1_120
  6
CONTINUOUS
 62
         7
100
AcDb3dPolyline
 66
         1
 10
0.0
 20
0.0
 30
0.0
 70
         8
  0
VERTEX
  5
8A
100
AcDbEntity
  8
L1_120
  6
CONTINUOUS
 62
         7
100
AcDbVertex
100
AcDb3dPolylineVertex
 10
1239.4716300697
 20
-202.1411550693
 30
0.0
 70
        32
  0
VERTEX
  5
8C
100
AcDbEntity
  8
L1_120
  6
CONTINUOUS
 62
         7
100
AcDbVertex
100
AcDb3dPolylineVertex
 10
1239.4716300697
 20
-202.1411550693
 30
0.0
 70
        32
  0
SEQEND
  5
8E
100
AcDbEntity
  8
L1_120
  6
CONTINUOUS
 62
         7
  0
ARC
  5
8F
100
AcDbEntity
  8
L1_120
  6
CONTINUOUS
 62
         7
100
AcDbCircle
 10
1240.0358214727
 20
-200.5910519294
 30
0.0
 40
1.6495853065
100
AcDbArc
 50
223.1760378472
 51
249.9999999999
  0
POLYLINE
  5
91
100
AcDbEntity
  8
L1_120
  6
CONTINUOUS
 62
         7
100
AcDb3dPolyline
 66
         1
 10
0.0
 20
0.0
 30
0.0
 70
         8
  0
VERTEX
  5
93
100
AcDbEntity
  8
L1_120
  6
CONTINUOUS
 62
         7
100
AcDbVertex
100
AcDb3dPolylineVertex
 10
1238.832853381
 20
-201.7197677722
 30
0.0
 70
        32
  0
VERTEX
  5
95
100
AcDbEntity
  8
L1_120
  6
CONTINUOUS
 62
         7
100
AcDbVertex
100
AcDb3dPolylineVertex
 10
1238.832853381
 20
-201.7197677722
 30
0.0
 70
        32
  0
SEQEND
  5
97
100
AcDbEntity
  8
L1_120
  6
CONTINUOUS
 62
         7
  0
ARC
  5
98
100
AcDbEntity
  8
L1_120
  6
CONTINUOUS
 62
         7
100
AcDbCircle
 10
1240.3482843874
 20
-200.2978755397
 30
0.0
 40
2.0780540551
100
AcDbArc
 50
199.3226899097
 51
223.1760378473
  0
POLYLINE
  5
9A
100
AcDbEntity
  8
L1_120
  6
CONTINUOUS
 62
         7
100
AcDb3dPolyline
 66
         1
 10
0.0
 20
0.0
 30
0.0
 70
         8
  0
VERTEX
  5
9C
100
AcDbEntity
  8
L1_120
  6
CONTINUOUS
 62
         7
100
AcDbVertex
100
AcDb3dPolylineVertex
 10
1238.3872871393
 20
-200.9854789493
 30
0.0
 70
        32
  0
VERTEX
  5
9E
100
AcDbEntity
  8
L1_120
  6
CONTINUOUS
 62
         7
100
AcDbVertex
100
AcDb3dPolylineVertex
 10
1238.3872871393
 20
-200.9854789493
 30
0.0
 70
        32
  0
SEQEND
  5
A0
100
AcDbEntity
  8
L1_120
  6
CONTINUOUS
 62
         7
  0
ARC
  5
A1
100
AcDbEntity
  8
L1_120
  6
CONTINUOUS
 62
         7
100
AcDbCircle
 10
1240.7177206553
 20
-200.1683365321
 30
0.0
 40
2.4695428935
100
AcDbArc
 50
178.7422741421
 51
199.3226899097
  0
POLYLINE
  5
A3
100
AcDbEntity
  8
L1_120
  6
CONTINUOUS
 62
         7
100
AcDb3dPolyline
 66
         1
 10
0.0
 20
0.0
 30
0.0
 70
         8
  0
VERTEX
  5
A5
100
AcDbEntity
  8
L1_120
  6
CONTINUOUS
 62
         7
100
AcDbVertex
100
AcDb3dPolylineVertex
 10
1238.2487727329
 20
-200.1141308202
 30
0.0
 70
        32
  0
VERTEX
  5
A7
100
AcDbEntity
  8
L1_120
  6
CONTINUOUS
 62
         7
100
AcDbVertex
100
AcDb3dPolylineVertex
 10
1238.2487727329
 20
-200.1141308202
 30
0.0
 70
        32
  0
SEQEND
  5
A9
100
AcDbEntity
  8
L1_120
  6
CONTINUOUS
 62
         7
  0
ARC
  5
AA
100
AcDbEntity
  8
L1_120
  6
CONTINUOUS
 62
         7
100
AcDbCircle
 10
1241.2202828813
 20
-200.1793702776
 30
0.0
 40
2.9722262277
100
AcDbArc
 50
160.0
 51
178.7422741421
  0
POLYLINE
  5
AC
100
AcDbEntity
  8
L1_120
  6
CONTINUOUS
 62
         7
100
AcDb3dPolyline
 66
         1
 10
0.0
 20
0.0
 30
0.0
 70
         8
  0
VERTEX
  5
AE
100
AcDbEntity
  8
L1_120
  6
CONTINUOUS
 62
         7
100
AcDbVertex
100
AcDb3dPolylineVertex
 10
1238.4273038278
 20
-199.1628090372
 30
0.0
 70
        32
  0
VERTEX
  5
B0
100
AcDbEntity
  8
L1_120
  6
CONTINUOUS
 62
         7
100
AcDbVertex
100
AcDb3dPolylineVertex
 10
1238.4273038278
 20
-199.1628090372
 30
0.0
 70
        32
  0
SEQEND
  5
B2
100
AcDbEntity
  8
L1_120
  6
CONTINUOUS
 62
         7
  0
ARC
  5
B3
100
AcDbEntity
  8
L1_120
  6
CONTINUOUS
 62
         7
100
AcDbCircle
 10
1221.7960060118
 20
-250.1392246305
 30
0.0
 40
2.0780540551
100
AcDbArc
 50
19.3226899096
 51
43.1760378472
  0
ARC
  5
B4
100
AcDbEntity
  8
L1_120
  6
CONTINUOUS
 62
         7
100
AcDbCircle
 10
1221.4265697438
 20
-250.2687636381
 30
0.0
 40
2.4695428935
100
AcDbArc
 50
358.742274142
 51
379.3226899097
  0
ARC
  5
B5
100
AcDbEntity
  8
L1_120
  6
CONTINUOUS
 62
         7
100
AcDbCircle
 10
1222.7511951417
 20
-250.9227718001
 30
0.0
 40
2.9722262277
100
AcDbArc
 50
160.0
 51
178.742274142
  0
ARC
  5
B6
100
AcDbEntity
  8
L1_120
  6
CONTINUOUS
 62
         7
100
AcDbCircle
 10
1222.2486329158
 20
-250.9117380545
 30
0.0
 40
2.4695428935
100
AcDbArc
 50
178.742274142
 51
199.3226899096
  0
ARC
  5
B7
100
AcDbEntity
  8
L1_120
  6
CONTINUOUS
 62
         7
100
AcDbCircle
 10
1221.8791966478
 20
-251.0412770621
 30
0.0
 40
2.0780540551
100
AcDbArc
 50
199.3226899096
 51
223.1760378473
  0
POLYLINE
  5
B9
100
AcDbEntity
  8
L1_120
  6
CONTINUOUS
 62
         7
100
AcDb3dPolyline
 66
         1
 10
0.0
 20
0.0
 30
0.0
 70
         8
  0
VERTEX
  5
BB
100
AcDbEntity
  8
L1_120
  6
CONTINUOUS
 62
         7
100
AcDbVertex
100
AcDb3dPolylineVertex
 10
1220.3637656414
 20
-252.4631692947
 30
0.0
 70
        32
  0
VERTEX
  5
BD
100
AcDbEntity
  8
L1_120
  6
CONTINUOUS
 62
         7
100
AcDbVertex
100
AcDb3dPolylineVertex
 10
1220.3637656414
 20
-252.4631692947
 30
0.0
 70
        32
  0
SEQEND
  5
BF
100
AcDbEntity
  8
L1_120
  6
CONTINUOUS
 62
         7
  0
ARC
  5
C0
100
AcDbEntity
  8
L1_120
  6
CONTINUOUS
 62
         7
100
AcDbCircle
 10
1221.5667337331
 20
-251.3344534519
 30
0.0
 40
1.6495853065
100
AcDbArc
 50
223.1760378472
 51
250.0
  0
POLYLINE
  5
C2
100
AcDbEntity
  8
L1_120
  6
CONTINUOUS
 62
         7
100
AcDb3dPolyline
 66
         1
 10
0.0
 20
0.0
 30
0.0
 70
         8
  0
VERTEX
  5
C4
100
AcDbEntity
  8
L1_120
  6
CONTINUOUS
 62
         7
100
AcDbVertex
100
AcDb3dPolylineVertex
 10
1221.0025423302
 20
-252.8845565917
 30
0.0
 70
        32
  0
VERTEX
  5
C6
100
AcDbEntity
  8
L1_120
  6
CONTINUOUS
 62
         7
100
AcDbVertex
100
AcDb3dPolylineVertex
 10
1221.0025423302
 20
-252.8845565917
 30
0.0
 70
        32
  0
SEQEND
  5
C8
100
AcDbEntity
  8
L1_120
  6
CONTINUOUS
 62
         7
  0
ARC
  5
C9
100
AcDbEntity
  8
L1_120
  6
CONTINUOUS
 62
         7
100
AcDbCircle
 10
1221.5667337331
 20
-251.3344534519
 30
0.0
 40
1.6495853065
100
AcDbArc
 50
250.0
 51
276.8239621528
  0
POLYLINE
  5
CB
100
AcDbEntity
  8
L1_120
  6
CONTINUOUS
 62
         7
100
AcDb3dPolyline
 66
         1
 10
0.0
 20
0.0
 30
0.0
 70
         8
  0
VERTEX
  5
CD
100
AcDbEntity
  8
L1_120
  6
CONTINUOUS
 62
         7
100
AcDbVertex
100
AcDb3dPolylineVertex
 10
1221.7627361964
 20
-252.9723529353
 30
0.0
 70
        32
  0
VERTEX
  5
CF
100
AcDbEntity
  8
L1_120
  6
CONTINUOUS
 62
         7
100
AcDbVertex
100
AcDb3dPolylineVertex
 10
1221.7627361964
 20
-252.9723529353
 30
0.0
 70
        32
  0
SEQEND
  5
D1
100
AcDbEntity
  8
L1_120
  6
CONTINUOUS
 62
         7
  0
ARC
  5
D2
100
AcDbEntity
  8
L1_120
  6
CONTINUOUS
 62
         7
100
AcDbCircle
 10
1221.5158234044
 20
-250.9090200176
 30
0.0
 40
2.0780540551
100
AcDbArc
 50
276.8239621528
 51
300.6773100903
  0
POLYLINE
  5
D4
100
AcDbEntity
  8
L1_120
  6
CONTINUOUS
 62
         7
100
AcDb3dPolyline
 66
         1
 10
0.0
 20
0.0
 30
0.0
 70
         8
  0
VERTEX
  5
D6
100
AcDbEntity
  8
L1_120
  6
CONTINUOUS
 62
         7
100
AcDbVertex
100
AcDb3dPolylineVertex
 10
1222.5760514972
 20
-252.6962595223
 30
0.0
 70
        32
  0
VERTEX
  5
D8
100
AcDbEntity
  8
L1_120
  6
CONTINUOUS
 62
         7
100
AcDbVertex
100
AcDb3dPolylineVertex
 10
1222.5760514972
 20
-252.6962595223
 30
0.0
 70
        32
  0
SEQEND
  5
DA
100
AcDbEntity
  8
L1_120
  6
CONTINUOUS
 62
         7
  0
ARC
  5
DB
100
AcDbEntity
  8
L1_120
  6
CONTINUOUS
 62
         7
100
AcDbCircle
 10
1221.3160848733
 20
-250.572318325
 30
0.0
 40
2.4695428935
100
AcDbArc
 50
300.6773100904
 51
321.2577258581
  0
POLYLINE
  5
DD
100
AcDbEntity
  8
L1_120
  6
CONTINUOUS
 62
         7
100
AcDb3dPolyline
 66
         1
 10
0.0
 20
0.0
 30
0.0
 70
         8
  0
VERTEX
  5
DF
100
AcDbEntity
  8
L1_120
  6
CONTINUOUS
 62
         7
100
AcDbVertex
100
AcDb3dPolylineVertex
 10
1223.2422514696
 20
-252.1178034742
 30
0.0
 70
        32
  0
VERTEX
  5
E1
100
AcDbEntity
  8
L1_120
  6
CONTINUOUS
 62
         7
100
AcDbVertex
100
AcDb3dPolylineVertex
 10
1223.2422514696
 20
-252.1178034742
 30
0.0
 70
        32
  0
SEQEND
  5
E3
100
AcDbEntity
  8
L1_120
  6
CONTINUOUS
 62
         7
  0
ARC
  5
E4
100
AcDbEntity
  8
L1_120
  6
CONTINUOUS
 62
         7
100
AcDbCircle
 10
1220.9240075179
 20
-250.2577298926
 30
0.0
 40
2.9722262277
100
AcDbArc
 50
321.257725858
 51
340.0
  0
POLYLINE
  5
E6
100
AcDbEntity
  8
L1_120
  6
CONTINUOUS
 62
         7
100
AcDb3dPolyline
 66
         1
 10
0.0
 20
0.0
 30
0.0
 70
         8
  0
VERTEX
  5
E8
100
AcDbEntity
  8
L1_120
  6
CONTINUOUS
 62
         7
100
AcDbVertex
100
AcDb3dPolylineVertex
 10
1223.7169865714
 20
-251.274291133
 30
0.0
 70
        32
  0
VERTEX
  5
EA
100
AcDbEntity
  8
L1_120
  6
CONTINUOUS
 62
         7
100
AcDbVertex
100
AcDb3dPolylineVertex
 10
1223.7169865714
 20
-251.274291133
 30
0.0
 70
        32
  0
SEQEND
  5
EC
100
AcDbEntity
  8
L1_120
  6
CONTINUOUS
 62
         7
  0
ARC
  5
ED
100
AcDbEntity
  8
L1_120
  6
CONTINUOUS
 62
         7
100
AcDbCircle
 10
1220.9240075179
 20
-250.2577298926
 30
0.0
 40
2.9722262277
100
AcDbArc
 50
339.9999999999
 51
358.742274142
  0
POLYLINE
  5
EF
100
AcDbEntity
  8
L1_120
  6
CONTINUOUS
 62
         7
100
AcDb3dPolyline
 66
         1
 10
0.0
 20
0.0
 30
0.0
 70
         8
  0
VERTEX
  5
F1
100
AcDbEntity
  8
L1_120
  6
CONTINUOUS
 62
         7
100
AcDbVertex
100
AcDb3dPolylineVertex
 10
1223.8955176663
 20
-250.32296935
 30
0.0
 70
        32
  0
VERTEX
  5
F3
100
AcDbEntity
  8
L1_120
  6
CONTINUOUS
 62
         7
100
AcDbVertex
100
AcDb3dPolylineVertex
 10
1223.8955176663
 20
-250.32296935
 30
0.0
 70
        32
  0
SEQEND
  5
F5
100
AcDbEntity
  8
L1_120
  6
CONTINUOUS
 62
         7
  0
POLYLINE
  5
F7
100
AcDbEntity
  8
L1_120
  6
CONTINUOUS
 62
         7
100
AcDb3dPolyline
 66
         1
 10
0.0
 20
0.0
 30
0.0
 70
         8
  0
VERTEX
  5
F9
100
AcDbEntity
  8
L1_120
  6
CONTINUOUS
 62
         7
100
AcDbVertex
100
AcDb3dPolylineVertex
 10
1223.3114370182
 20
-248.717332398
 30
0.0
 70
        32
  0
VERTEX
  5
FB
100
AcDbEntity
  8
L1_120
  6
CONTINUOUS
 62
         7
100
AcDbVertex
100
AcDb3dPolylineVertex
 10
1223.3114370182
 20
-248.717332398
 30
0.0
 70
        32
  0
SEQEND
  5
FD
100
AcDbEntity
  8
L1_120
  6
CONTINUOUS
 62
         7
  0
ARC
  5
FE
100
AcDbEntity
  8
L1_120
  6
CONTINUOUS
 62
         7
100
AcDbCircle
 10
1222.1084689265
 20
-249.8460482408
 30
0.0
 40
1.6495853065
100
AcDbArc
 50
43.1760378472
 51
70.0
  0
POLYLINE
  5
100
100
AcDbEntity
  8
L1_120
  6
CONTINUOUS
 62
         7
100
AcDb3dPolyline
 66
         1
 10
0.0
 20
0.0
 30
0.0
 70
         8
  0
VERTEX
  5
102
100
AcDbEntity
  8
L1_120
  6
CONTINUOUS
 62
         7
100
AcDbVertex
100
AcDb3dPolylineVertex
 10
1222.6726603294
 20
-248.2959451009
 30
0.0
 70
        32
  0
VERTEX
  5
104
100
AcDbEntity
  8
L1_120
  6
CONTINUOUS
 62
         7
100
AcDbVertex
100
AcDb3dPolylineVertex
 10
1222.6726603294
 20
-248.2959451009
 30
0.0
 70
        32
  0
SEQEND
  5
106
100
AcDbEntity
  8
L1_120
  6
CONTINUOUS
 62
         7
  0
ARC
  5
107
100
AcDbEntity
  8
L1_120
  6
CONTINUOUS
 62
         7
100
AcDbCircle
 10
1222.1084689265
 20
-249.8460482408
 30
0.0
 40
1.6495853065
100
AcDbArc
 50
70.0
 51
96.8239621528
  0
ARC
  5
108
100
AcDbEntity
  8
L1_120
  6
CONTINUOUS
 62
         7
100
AcDbCircle
 10
1222.1593792552
 20
-250.271481675
 30
0.0
 40
2.0780540551
100
AcDbArc
 50
96.8239621528
 51
120.6773100904
  0
POLYLINE
  5
10A
100
AcDbEntity
  8
L1_120
  6
CONTINUOUS
 62
         7
100
AcDb3dPolyline
 66
         1
 10
0.0
 20
0.0
 30
0.0
 70
         8
  0
VERTEX
  5
10C
100
AcDbEntity
  8
L1_120
  6
CONTINUOUS
 62
         7
100
AcDbVertex
100
AcDb3dPolylineVertex
 10
1221.0991511624
 20
-248.4842421703
 30
0.0
 70
        32
  0
VERTEX
  5
10E
100
AcDbEntity
  8
L1_120
  6
CONTINUOUS
 62
         7
100
AcDbVertex
100
AcDb3dPolylineVertex
 10
1221.0991511624
 20
-248.4842421703
 30
0.0
 70
        32
  0
SEQEND
  5
110
100
AcDbEntity
  8
L1_120
  6
CONTINUOUS
 62
         7
  0
ARC
  5
111
100
AcDbEntity
  8
L1_120
  6
CONTINUOUS
 62
         7
100
AcDbCircle
 10
1222.3591177863
 20
-250.6081833676
 30
0.0
 40
2.4695428935
100
AcDbArc
 50
120.6773100904
 51
141.257725858
  0
POLYLINE
  5
113
100
AcDbEntity
  8
L1_120
  6
CONTINUOUS
 62
         7
100
AcDb3dPolyline
 66
         1
 10
0.0
 20
0.0
 30
0.0
 70
         8
  0
VERTEX
  5
115
100
AcDbEntity
  8
L1_120
  6
CONTINUOUS
 62
         7
100
AcDbVertex
100
AcDb3dPolylineVertex
 10
1220.43295119
 20
-249.0626982184
 30
0.0
 70
        32
  0
VERTEX
  5
117
100
AcDbEntity
  8
L1_120
  6
CONTINUOUS
 62
         7
100
AcDbVertex
100
AcDb3dPolylineVertex
 10
1220.43295119
 20
-249.0626982184
 30
0.0
 70
        32
  0
SEQEND
  5
119
100
AcDbEntity
  8
L1_120
  6
CONTINUOUS
 62
         7
  0
ARC
  5
11A
100
AcDbEntity
  8
L1_120
  6
CONTINUOUS
 62
         7
100
AcDbCircle
 10
1222.7511951417
 20
-250.9227718001
 30
0.0
 40
2.9722262277
100
AcDbArc
 50
141.257725858
 51
160.0
  0
POLYLINE
  5
11C
100
AcDbEntity
  8
L1_120
  6
CONTINUOUS
 62
         7
100
AcDb3dPolyline
 66
         1
 10
0.0
 20
0.0
 30
0.0
 70
         8
  0
VERTEX
  5
11E
100
AcDbEntity
  8
L1_120
  6
CONTINUOUS
 62
         7
100
AcDbVertex
100
AcDb3dPolylineVertex
 10
1219.9582160882
 20
-249.9062105597
 30
0.0
 70
        32
  0
VERTEX
  5
120
100
AcDbEntity
  8
L1_120
  6
CONTINUOUS
 62
         7
100
AcDbVertex
100
AcDb3dPolylineVertex
 10
1219.9582160882
 20
-249.9062105597
 30
0.0
 70
        32
  0
SEQEND
  5
122
100
AcDbEntity
  8
L1_120
  6
CONTINUOUS
 62
         7
  0
LINE
  5
123
100
AcDbEntity
  8
L1_120
  6
CENTER
 62
         1
100
AcDbLine
 10
1224.6566791922
 20
-251.6163112763
 30
0.0
 11
1219.0185234674
 21
-249.5641904163
 31
0.0
  0
ARC
  5
124
100
AcDbEntity
  8
L1_120
  6
CONTINUOUS
 62
         7
100
AcDbCircle
 10
1231.0721451996
 20
-225.2185500851
 30
0.0
 40
31.775
100
AcDbArc
 50
195.411296411
 51
344.588703589
  0
ARC
  5
125
100
AcDbEntity
  8
L1_120
  6
CONTINUOUS
 62
         7
100
AcDbCircle
 10
1231.0721451996
 20
-225.2185500851
 30
0.0
 40
31.775
100
AcDbArc
 50
15.411296411
 51
164.588703589
  0
CIRCLE
  5
126
100
AcDbEntity
  8
L1_120
  6
CONTINUOUS
 62
         7
100
AcDbCircle
 10
1231.0721451996
 20
-225.2185500851
 30
0.0
 40
12.7165768873
  0
CIRCLE
  5
127
100
AcDbEntity
  8
L1_120
  6
CONTINUOUS
 62
         7
100
AcDbCircle
 10
1231.0721451996
 20
-225.2185500851
 30
0.0
 40
7.0
  0
ARC
  5
128
100
AcDbEntity
  8
L1_120
  6
CONTINUOUS
 62
         5
100
AcDbCircle
 10
1231.0721451996
 20
-225.2185500851
 30
0.0
 40
8.0
100
AcDbArc
 50
352.9901372228
 51
621.2264515101
  0
CIRCLE
  5
129
100
AcDbEntity
  8
L1_120
  6
CONTINUOUS
 62
         7
100
AcDbCircle
 10
1231.0721451996
 20
-225.2185500851
 30
0.0
 40
9.5
  0
CIRCLE
  5
12A
100
AcDbEntity
  8
L1_120
  6
CONTINUOUS
 62
         7
100
AcDbCircle
 10
1231.0721451996
 20
-225.2185500851
 30
0.0
 40
8.5
  0
CIRCLE
  5
12B
100
AcDbEntity
  8
L1_120
  6
CONTINUOUS
 62
         7
100
AcDbCircle
 10
1231.0721451996
 20
-225.2185500851
 30
0.0
 40
22.225
  0
LINE
  5
12C
100
AcDbEntity
  8
L1_120
  6
CONTINUOUS
 62
         7
100
AcDbLine
 10
1261.3105271512
 20
-217.1685500851
 30
0.0
 11
1256.5721451996
 21
-217.1685500851
 31
0.0
  0
LINE
  5
12D
100
AcDbEntity
  8
L1_120
  6
CONTINUOUS
 62
         7
100
AcDbLine
 10
1261.7046124323
 20
-216.7744648039
 30
0.0
 11
1261.3105271512
 21
-217.1685500851
 31
0.0
  0
LINE
  5
12E
100
AcDbEntity
  8
L1_120
  6
CONTINUOUS
 62
         7
100
AcDbLine
 10
1256.0721451996
 20
-217.6685500851
 30
0.0
 11
1256.5721451996
 21
-217.1685500851
 31
0.0
  0
LINE
  5
12F
100
AcDbEntity
  8
L1_120
  6
CONTINUOUS
 62
         7
100
AcDbLine
 10
1261.7046124323
 20
-233.6626353663
 30
0.0
 11
1261.3105271512
 21
-233.2685500851
 31
0.0
  0
LINE
  5
130
100
AcDbEntity
  8
L1_120
  6
CONTINUOUS
 62
         7
100
AcDbLine
 10
1256.0721451996
 20
-232.7685500851
 30
0.0
 11
1256.5721451996
 21
-233.2685500851
 31
0.0
  0
LINE
  5
131
100
AcDbEntity
  8
L1_120
  6
CONTINUOUS
 62
         7
100
AcDbLine
 10
1256.0721451996
 20
-232.7685500851
 30
0.0
 11
1256.0721451996
 21
-217.6685500851
 31
0.0
  0
LINE
  5
132
100
AcDbEntity
  8
L1_120
  6
CONTINUOUS
 62
         7
100
AcDbLine
 10
1261.3105271512
 20
-233.2685500851
 30
0.0
 11
1256.5721451996
 21
-233.2685500851
 31
0.0
  0
LINE
  5
133
100
AcDbEntity
  8
L1_120
  6
CONTINUOUS
 62
         7
100
AcDbLine
 10
1200.4396779669
 20
-216.7744648039
 30
0.0
 11
1200.833763248
 21
-217.1685500851
 31
0.0
  0
LINE
  5
134
100
AcDbEntity
  8
L1_120
  6
CONTINUOUS
 62
         7
100
AcDbLine
 10
1208.2721451996
 20
-217.6685500851
 30
0.0
 11
1207.7721451996
 21
-217.1685500851
 31
0.0
  0
LINE
  5
135
100
AcDbEntity
  8
L1_120
  6
CONTINUOUS
 62
         7
100
AcDbLine
 10
1207.7721451996
 20
-217.1685500851
 30
0.0
 11
1200.833763248
 21
-217.1685500851
 31
0.0
  0
LINE
  5
136
100
AcDbEntity
  8
L1_120
  6
CONTINUOUS
 62
         7
100
AcDbLine
 10
1200.4396779669
 20
-233.6626353663
 30
0.0
 11
1200.833763248
 21
-233.2685500851
 31
0.0
  0
LINE
  5
137
100
AcDbEntity
  8
L1_120
  6
CONTINUOUS
 62
         7
100
AcDbLine
 10
1207.7721451996
 20
-233.2685500851
 30
0.0
 11
1200.833763248
 21
-233.2685500851
 31
0.0
  0
LINE
  5
138
100
AcDbEntity
  8
L1_120
  6
CONTINUOUS
 62
         7
100
AcDbLine
 10
1208.2721451996
 20
-232.7685500851
 30
0.0
 11
1207.7721451996
 21
-233.2685500851
 31
0.0
  0
LINE
  5
139
100
AcDbEntity
  8
L1_120
  6
CONTINUOUS
 62
         7
100
AcDbLine
 10
1208.2721451996
 20
-232.7685500851
 30
0.0
 11
1208.2721451996
 21
-217.6685500851
 31
0.0
  0
ARC
  5
13A
100
AcDbEntity
  8
L1_120
  6
CONTINUOUS
 62
         7
100
AcDbCircle
 10
1316.9008425579
 20
-329.0186220058
 30
0.0
 40
1.0
100
AcDbArc
 50
180.0
 51
270.0
  0
LINE
  5
13B
100
AcDbEntity
  8
L1_120
  6
CONTINUOUS
 62
         7
100
AcDbLine
 10
1316.9008425579
 20
-330.0186220058
 30
0.0
 11
1319.6708425579
 21
-330.0186220058
 31
0.0
  0
ARC
  5
13C
100
AcDbEntity
  8
L1_120
  6
CONTINUOUS
 62
         7
100
AcDbCircle
 10
1320.0703781381
 20
-330.1186220058
 30
0.0
 40
0.2
100
AcDbArc
 50
90.0
 51
105.0
  0
LINE
  5
13D
100
AcDbEntity
  8
L1_120
  6
CONTINUOUS
 62
         7
100
AcDbLine
 10
1320.0186143291
 20
-329.9254368405
 30
0.0
 11
1319.6708425579
 21
-330.0186220058
 31
0.0
  0
LINE
  5
13E
100
AcDbEntity
  8
L1_120
  6
CONTINUOUS
 62
         7
100
AcDbLine
 10
1320.0703781381
 20
-329.9186220058
 30
0.0
 11
1320.4708425579
 21
-329.9186220058
 31
0.0
  0
LINE
  5
13F
100
AcDbEntity
  8
L1_120
  6
CONTINUOUS
 62
         7
100
AcDbLine
 10
1320.6122639141
 20
-329.9772006495
 30
0.0
 11
1321.8036852703
 21
-331.1686220058
 31
0.0
  0
ARC
  5
140
100
AcDbEntity
  8
L1_120
  6
CONTINUOUS
 62
         7
100
AcDbCircle
 10
1320.4708425579
 20
-330.1186220058
 30
0.0
 40
0.2
100
AcDbArc
 50
45.0000000038
 51
90.0
  0
LINE
  5
141
100
AcDbEntity
  8
L1_120
  6
CONTINUOUS
 62
         7
100
AcDbLine
 10
1320.6708425579
 20
-330.3750991651
 30
0.0
 11
1320.6708425579
 21
-345.8473753413
 31
0.0
  0
LINE
  5
142
100
AcDbEntity
  8
L1_120
  6
CONTINUOUS
 62
         7
100
AcDbLine
 10
1319.6708425579
 20
-330.0186220058
 30
0.0
 11
1319.6708425579
 21
-346.3186220058
 31
0.0
  0
LINE
  5
143
100
AcDbEntity
  8
L1_120
  6
CONTINUOUS
 62
         5
100
AcDbLine
 10
1320.8036852703
 20
-330.1686220058
 30
0.0
 11
1344.3508425579
 21
-330.1686220058
 31
0.0
  0
LINE
  5
144
100
AcDbEntity
  8
L1_120
  6
CONTINUOUS
 62
         7
100
AcDbLine
 10
1321.8036852703
 20
-331.1686220058
 30
0.0
 11
1321.8036852703
 21
-345.1686220058
 31
0.0
  0
LINE
  5
145
100
AcDbEntity
  8
L1_120
  6
CONTINUOUS
 62
         7
100
AcDbLine
 10
1320.6122639141
 20
-346.360043362
 30
0.0
 11
1321.8036852703
 21
-345.1686220058
 31
0.0
  0
ARC
  5
146
100
AcDbEntity
  8
L1_120
  6
CONTINUOUS
 62
         7
100
AcDbCircle
 10
1320.4708425579
 20
-346.2186220058
 30
0.0
 40
0.2
100
AcDbArc
 50
270.0
 51
314.9999999962
  0
LINE
  5
147
100
AcDbEntity
  8
L1_120
  6
CONTINUOUS
 62
         7
100
AcDbLine
 10
1320.0703781381
 20
-346.4186220058
 30
0.0
 11
1320.4708425579
 21
-346.4186220058
 31
0.0
  0
LINE
  5
148
100
AcDbEntity
  8
L1_120
  6
CONTINUOUS
 62
         7
100
AcDbLine
 10
1320.0186143291
 20
-346.411807171
 30
0.0
 11
1319.6708425579
 21
-346.3186220058
 31
0.0
  0
LINE
  5
149
100
AcDbEntity
  8
L1_120
  6
CONTINUOUS
 62
         7
100
AcDbLine
 10
1316.9008425579
 20
-346.3186220058
 30
0.0
 11
1319.6708425579
 21
-346.3186220058
 31
0.0
  0
ARC
  5
14A
100
AcDbEntity
  8
L1_120
  6
CONTINUOUS
 62
         7
100
AcDbCircle
 10
1316.9008425579
 20
-347.3186220058
 30
0.0
 40
1.0
100
AcDbArc
 50
90.0
 51
180.0
  0
LINE
  5
14B
100
AcDbEntity
  8
L1_120
  6
CONTINUOUS
 62
         5
100
AcDbLine
 10
1320.8036852703
 20
-346.1686220058
 30
0.0
 11
1344.3508425579
 21
-346.1686220058
 31
0.0
  0
LINE
  5
14C
100
AcDbEntity
  8
L1_120
  6
CONTINUOUS
 62
         7
100
AcDbLine
 10
1344.3508425579
 20
-330.1686220058
 30
0.0
 11
1344.3508425579
 21
-346.1686220058
 31
0.0
  0
ARC
  5
14D
100
AcDbEntity
  8
L1_120
  6
CONTINUOUS
 62
         7
100
AcDbCircle
 10
1317.1008425579
 20
-235.5104151597
 30
0.0
 40
1.2
100
AcDbArc
 50
180.0
 51
261.7028550302
  0
ARC
  5
14E
100
AcDbEntity
  8
L1_120
  6
CONTINUOUS
 62
         7
100
AcDbCircle
 10
1317.1008425579
 20
-213.0420517268
 30
0.0
 40
1.2
100
AcDbArc
 50
98.2971449698
 51
180.0
  0
LINE
  5
14F
100
AcDbEntity
  8
L1_120
  6
CONTINUOUS
 62
         7
100
AcDbLine
 10
1315.9008425579
 20
-213.0420517268
 30
0.0
 11
1315.9008425579
 21
-235.5104151597
 31
0.0
  0
LINE
  5
150
100
AcDbEntity
  8
L1_120
  6
CONTINUOUS
 62
         4
100
AcDbLine
 10
1343.5016874219
 20
-247.395472328
 30
0.0
 11
1343.8974082645
 21
-247.395472328
 31
0.0
  0
LINE
  5
151
100
AcDbEntity
  8
L1_120
  6
CONTINUOUS
 62
         7
100
AcDbLine
 10
1316.9276742862
 20
-236.6978547369
 30
0.0
 11
1385.3508425579
 21
-246.6762334432
 31
0.0
  0
LINE
  5
152
100
AcDbEntity
  8
L1_120
  6
CONTINUOUS
 62
         7
100
AcDbLine
 10
1316.9276742862
 20
-211.8546121495
 30
0.0
 11
1385.3508425579
 21
-201.8762334432
 31
0.0
  0
LINE
  5
153
100
AcDbEntity
  8
L1_120
  6
CENTER
 62
         1
100
AcDbLine
 10
1315.9008425579
 20
-224.2762334432
 30
0.0
 11
1419.1508425579
 21
-224.2762334432
 31
0.0
  0
LINE
  5
154
100
AcDbEntity
  8
L1_120
  6
CONTINUOUS
 62
         7
100
AcDbLine
 10
1315.9008425579
 20
-213.0420517268
 30
0.0
 11
1315.9008425579
 21
-235.5104151597
 31
0.0
  0
LINE
  5
155
100
AcDbEntity
  8
L1_120
  6
DASHED
 62
         2
100
AcDbLine
 10
1229.0721451996
 20
-179.6406455357
 30
0.0
 11
1231.0721451996
 21
-180.795346074
 31
0.0
  0
LINE
  5
156
100
AcDbEntity
  8
L1_120
  6
CENTER
 62
         1
100
AcDbLine
 10
1231.0721451996
 20
-193.4435500851
 30
0.0
 11
1231.0721451996
 21
-256.9935500851
 31
0.0
  0
LINE
  5
157
100
AcDbEntity
  8
L1_120
  6
CENTER
 62
         1
100
AcDbLine
 10
1193.76139216
 20
-225.0406455357
 30
0.0
 11
1269.969672421
 21
-225.0406455357
 31
0.0
  0
LINE
  5
158
100
AcDbEntity
  8
L1_120
  6
CONTINUOUS
 62
         7
100
AcDbLine
 10
1386.5508425579
 20
-246.3359271107
 30
-3.8897191797
 11
1385.3508425579
 21
-246.3359271107
 31
-3.8897191797
  0
ARC
  5
159
100
AcDbEntity
  8
L1_120
  6
CONTINUOUS
 62
         7
100
AcDbCircle
 10
1386.5508425579
 20
-244.0689735113
 30
38.9451592314
 40
0.8
210
0.0
220
-0.1736481776669303
230
0.9848077530122081
100
AcDbArc
 50
0.0
 51
90.0000000001
  0
ARC
  5
15A
100
AcDbEntity
  8
L1_120
  6
CONTINUOUS
 62
         7
100
AcDbCircle
 10
1386.5508425579
 20
-197.6689735113
 30
38.9451592314
 40
0.8
210
0.0
220
-0.1736481776669303
230
0.9848077530122081
100
AcDbArc
 50
269.9999999999
 51
360.0
  0
LINE
  5
15B
100
AcDbEntity
  8
L1_120
  6
CONTINUOUS
 62
         7
100
AcDbLine
 10
1386.5508425579
 20
-202.2165397757
 30
3.8897191797
 11
1385.3508425579
 21
-202.2165397757
 31
3.8897191797
  0
CIRCLE
  5
15C
100
AcDbEntity
  8
L1_120
  6
CONTINUOUS
 62
         7
100
AcDbCircle
 10
1395.2508425579
 20
-234.0728612146
 30
38.9451592314
 40
1.875
210
0.0
220
-0.1736481776669303
230
0.9848077530122081
  0
CIRCLE
  5
15D
100
AcDbEntity
  8
L1_120
  6
CONTINUOUS
 62
         7
100
AcDbCircle
 10
1395.2508425579
 20
-207.6650858079
 30
38.9451592314
 40
1.875
210
0.0
220
-0.1736481776669303
230
0.9848077530122081
  0
CIRCLE
  5
15E
100
AcDbEntity
  8
L1_120
  6
CONTINUOUS
 62
         7
100
AcDbCircle
 10
1395.2508425579
 20
-220.8689735113
 30
38.9451592314
 40
5.0
210
0.0
220
-0.1736481776669303
230
0.9848077530122081
  0
LINE
  5
15F
100
AcDbEntity
  8
L1_120
  6
CONTINUOUS
 62
         7
100
AcDbLine
 10
1418.7028425579
 20
-202.3297926673
 30
3.8697496393
 11
1417.7028425579
 21
-202.3297926673
 31
3.8697496393
  0
LINE
  5
160
100
AcDbEntity
  8
L1_120
  6
CONTINUOUS
 62
         7
100
AcDbLine
 10
1419.2028425579
 20
-245.7302703426
 30
-3.7829255505
 11
1418.7028425579
 21
-246.2226742191
 31
-3.8697496393
  0
LINE
  5
161
100
AcDbEntity
  8
L1_120
  6
CONTINUOUS
 62
         7
100
AcDbLine
 10
1418.7028425579
 20
-246.2226742191
 30
-3.8697496393
 11
1417.7028425579
 21
-246.2226742191
 31
-3.8697496393
  0
LINE
  5
162
100
AcDbEntity
  8
L1_120
  6
CONTINUOUS
 62
         7
100
AcDbLine
 10
1419.2028425579
 20
-202.8221965438
 30
3.7829255505
 11
1419.2028425579
 21
-245.7302703426
 31
-3.7829255505
  0
LINE
  5
163
100
AcDbEntity
  8
L1_120
  6
CONTINUOUS
 62
         7
100
AcDbLine
 10
1385.3508425579
 20
-246.3359271107
 30
-3.8897191797
 11
1385.3508425579
 21
-202.2165397757
 31
3.8897191797
  0
LINE
  5
164
100
AcDbEntity
  8
L1_120
  6
CENTER
 62
         1
100
AcDbLine
 10
1380.7983511394
 20
-224.2762334432
 30
0.0
 11
1403.2508425579
 21
-224.2762334432
 31
0.0
  0
LINE
  5
165
100
AcDbEntity
  8
L1_120
  6
CENTER
 62
         1
100
AcDbLine
 10
1395.2508425579
 20
-187.3407593659
 30
6.5127206251
 11
1395.2508425579
 21
-261.2041175582
 31
-6.51138231
  0
ARC
  5
166
100
AcDbEntity
  8
L1_120
  6
CONTINUOUS
 62
         7
100
AcDbCircle
 10
1396.1520422261
 20
-191.7439735113
 30
38.9451592314
 40
1.0
210
0.0
220
-0.1736481776669303
230
0.9848077530122081
100
AcDbArc
 50
270.0
 51
346.8556743105
  0
ARC
  5
167
100
AcDbEntity
  8
L1_120
  6
CONTINUOUS
 62
         7
100
AcDbCircle
 10
1394.3496428896
 20
-191.7439735113
 30
38.9451592314
 40
1.0
210
0.0
220
-0.1736481776669303
230
0.9848077530122081
100
AcDbArc
 50
193.1443256895
 51
270.0
  0
LINE
  5
168
100
AcDbEntity
  8
L1_120
  6
CONTINUOUS
 62
         7
100
AcDbLine
 10
1394.3496428896
 20
-196.5785153898
 30
4.8838549969
 11
1396.1520422261
 21
-196.5785153898
 31
4.8838549969
  0
LINE
  5
169
100
AcDbEntity
  8
L1_120
  6
CONTINUOUS
 62
         7
100
AcDbLine
 10
1398.7871129567
 20
-192.9839670913
 30
5.5176708454
 11
1402.2508425579
 21
-192.9839670913
 31
5.5176708454
  0
LINE
  5
16A
100
AcDbEntity
  8
L1_120
  6
CONTINUOUS
 62
         7
100
AcDbLine
 10
1397.1258425579
 20
-195.8176575836
 30
5.0180147566
 11
1398.7871129567
 21
-192.9839670913
 31
5.5176708454
  0
LINE
  5
16B
100
AcDbEntity
  8
L1_120
  6
CONTINUOUS
 62
         7
100
AcDbLine
 10
1398.7871129567
 20
-255.5684997952
 30
-5.5176708454
 11
1402.2508425579
 21
-255.5684997952
 31
-5.5176708454
  0
ARC
  5
16C
100
AcDbEntity
  8
L1_120
  6
CONTINUOUS
 62
         7
100
AcDbCircle
 10
1396.1520422261
 20
-249.9939735113
 30
38.9451592314
 40
1.0
210
0.0
220
-0.1736481776669303
230
0.9848077530122081
100
AcDbArc
 50
13.1443256895
 51
90.0
  0
LINE
  5
16D
100
AcDbEntity
  8
L1_120
  6
CONTINUOUS
 62
         7
100
AcDbLine
 10
1397.1258425579
 20
-252.7348093028
 30
-5.0180147566
 11
1398.7871129567
 21
-255.5684997952
 31
-5.5176708454
  0
ARC
  5
16E
100
AcDbEntity
  8
L1_120
  6
CONTINUOUS
 62
         7
100
AcDbCircle
 10
1394.3496428896
 20
-249.9939735113
 30
38.9451592314
 40
1.0
210
0.0
220
-0.1736481776669303
230
0.9848077530122081
100
AcDbArc
 50
90.0
 51
166.8556743105
  0
LINE
  5
16F
100
AcDbEntity
  8
L1_120
  6
CONTINUOUS
 62
         7
100
AcDbLine
 10
1394.3496428896
 20
-251.9739514967
 30
-4.8838549969
 11
1396.1520422261
 21
-251.9739514967
 31
-4.8838549969
  0
LINE
  5
170
100
AcDbEntity
  8
L1_120
  6
CONTINUOUS
 62
         7
100
AcDbLine
 10
1403.2508425579
 20
-193.9687748443
 30
5.3440226677
 11
1403.2508425579
 21
-205.564886136
 31
3.2993153757
  0
LINE
  5
171
100
AcDbEntity
  8
L1_120
  6
CONTINUOUS
 62
         7
100
AcDbLine
 10
1403.2508425579
 20
-193.9687748443
 30
5.3440226677
 11
1403.2508425579
 21
-254.5836920422
 31
-5.3440226677
  0
LINE
  5
172
100
AcDbEntity
  8
L1_120
  6
CONTINUOUS
 62
         7
100
AcDbLine
 10
1388.3508425579
 20
-192.9839670913
 30
5.5176708454
 11
1391.7145721591
 21
-192.9839670913
 31
5.5176708454
  0
LINE
  5
173
100
AcDbEntity
  8
L1_120
  6
CONTINUOUS
 62
         7
100
AcDbLine
 10
1388.3508425579
 20
-255.5684997952
 30
-5.5176708454
 11
1391.7145721591
 21
-255.5684997952
 31
-5.5176708454
  0
LINE
  5
174
100
AcDbEntity
  8
L1_120
  6
CENTER
 62
         1
100
AcDbLine
 10
1384.1508425579
 20
-202.3888811325
 30
3.8593307486
 11
1384.1508425579
 21
-246.1635857539
 31
-3.8593307486
  0
LINE
  5
175
100
AcDbEntity
  8
L1_120
  6
CONTINUOUS
 62
         7
100
AcDbLine
 10
1387.3508425579
 20
-193.9687748443
 30
5.3440226677
 11
1387.3508425579
 21
-254.5836920422
 31
-5.3440226677
  0
LINE
  5
176
100
AcDbEntity
  8
L1_120
  6
CONTINUOUS
 62
         7
100
AcDbLine
 10
1393.3758425579
 20
-252.7348093028
 30
-5.0180147566
 11
1391.7145721591
 21
-255.5684997952
 31
-5.5176708454
  0
LINE
  5
177
100
AcDbEntity
  8
L1_120
  6
CENTER
 62
         1
100
AcDbLine
 10
1390.9398372993
 20
-256.4302065791
 30
-5.6696130008
 11
1399.3486718677
 21
-256.4302065791
 31
-5.6696130008
  0
LINE
  5
178
100
AcDbEntity
  8
L1_120
  6
CENTER
 62
         1
100
AcDbLine
 10
1390.9398372993
 20
-192.1222603074
 30
5.6696130008
 11
1399.3486718677
 21
-192.1222603074
 31
5.6696130008
  0
LINE
  5
179
100
AcDbEntity
  8
L1_120
  6
CONTINUOUS
 62
         7
100
AcDbLine
 10
1393.3758425579
 20
-195.8176575836
 30
5.0180147566
 11
1391.7145721591
 21
-192.9839670913
 31
5.5176708454
  0
LINE
  5
17A
100
AcDbEntity
  8
L1_120
  6
CONTINUOUS
 62
         7
100
AcDbLine
 10
1398.7871129567
 20
-232.9917820574
 30
-1.5367863724
 11
1398.7871129567
 21
-255.5684997952
 31
-5.5176708454
  0
LINE
  5
17B
100
AcDbEntity
  8
L1_120
  6
CONTINUOUS
 62
         7
100
AcDbLine
 10
1397.1258425579
 20
-232.203935855
 30
-1.3978678302
 11
1397.1258425579
 21
-252.7348093028
 31
-5.0180147566
  0
LINE
  5
17C
100
AcDbEntity
  8
L1_120
  6
CONTINUOUS
 62
         7
100
AcDbLine
 10
1393.3758425579
 20
-232.203935855
 30
-1.3978678302
 11
1393.3758425579
 21
-252.7348093028
 31
-5.0180147566
  0
LINE
  5
17D
100
AcDbEntity
  8
L1_120
  6
CONTINUOUS
 62
         7
100
AcDbLine
 10
1391.7145721591
 20
-232.9917820574
 30
-1.5367863724
 11
1391.7145721591
 21
-255.5684997952
 31
-5.5176708454
  0
LINE
  5
17E
100
AcDbEntity
  8
L1_120
  6
CONTINUOUS
 62
         7
100
AcDbLine
 10
1403.2508425579
 20
-215.5606848291
 30
1.5367863724
 11
1398.7871129567
 21
-215.5606848291
 31
1.5367863724
  0
LINE
  5
17F
100
AcDbEntity
  8
L1_120
  6
CONTINUOUS
 62
         7
100
AcDbLine
 10
1397.1258425579
 20
-216.3485310315
 30
1.3978678302
 11
1398.7871129567
 21
-215.5606848291
 31
1.5367863724
  0
LINE
  5
180
100
AcDbEntity
  8
L1_120
  6
CONTINUOUS
 62
         7
100
AcDbLine
 10
1403.2508425579
 20
-215.5606848291
 30
1.5367863724
 11
1402.4508425579
 21
-216.3485310315
 31
1.3978678302
  0
LINE
  5
181
100
AcDbEntity
  8
L1_120
  6
CONTINUOUS
 62
         7
100
AcDbLine
 10
1397.1258425579
 20
-232.203935855
 30
-1.3978678302
 11
1398.7871129567
 21
-232.9917820574
 31
-1.5367863724
  0
LINE
  5
182
100
AcDbEntity
  8
L1_120
  6
CONTINUOUS
 62
         7
100
AcDbLine
 10
1402.4508425579
 20
-232.203935855
 30
-1.3978678302
 11
1403.2508425579
 21
-232.9917820574
 31
-1.5367863724
  0
LINE
  5
183
100
AcDbEntity
  8
L1_120
  6
CONTINUOUS
 62
         7
100
AcDbLine
 10
1403.2508425579
 20
-232.9917820574
 30
-1.5367863724
 11
1398.7871129567
 21
-232.9917820574
 31
-1.5367863724
  0
LINE
  5
184
100
AcDbEntity
  8
L1_120
  6
CONTINUOUS
 62
         7
100
AcDbLine
 10
1402.4508425579
 20
-216.3485310315
 30
1.3978678302
 11
1402.4508425579
 21
-232.203935855
 31
-1.3978678302
  0
LINE
  5
185
100
AcDbEntity
  8
L1_120
  6
CONTINUOUS
 62
         7
100
AcDbLine
 10
1391.7145721591
 20
-215.5606848291
 30
1.5367863724
 11
1387.3508425579
 21
-215.5606848291
 31
1.5367863724
  0
LINE
  5
186
100
AcDbEntity
  8
L1_120
  6
CONTINUOUS
 62
         7
100
AcDbLine
 10
1387.3508425579
 20
-215.5606848291
 30
1.5367863724
 11
1388.1508425579
 21
-216.3485310315
 31
1.3978678302
  0
LINE
  5
187
100
AcDbEntity
  8
L1_120
  6
CONTINUOUS
 62
         7
100
AcDbLine
 10
1388.1508425579
 20
-232.203935855
 30
-1.3978678302
 11
1387.3508425579
 21
-232.9917820574
 31
-1.5367863724
  0
LINE
  5
188
100
AcDbEntity
  8
L1_120
  6
CONTINUOUS
 62
         7
100
AcDbLine
 10
1391.7145721591
 20
-232.9917820574
 30
-1.5367863724
 11
1387.3508425579
 21
-232.9917820574
 31
-1.5367863724
  0
LINE
  5
189
100
AcDbEntity
  8
L1_120
  6
CONTINUOUS
 62
         7
100
AcDbLine
 10
1388.1508425579
 20
-216.3485310315
 30
1.3978678302
 11
1388.1508425579
 21
-232.203935855
 31
-1.3978678302
  0
LINE
  5
18A
100
AcDbEntity
  8
L1_120
  6
CONTINUOUS
 62
         7
100
AcDbLine
 10
1391.7145721591
 20
-232.9917820574
 30
-1.5367863724
 11
1393.3758425579
 21
-232.203935855
 31
-1.3978678302
  0
LINE
  5
18B
100
AcDbEntity
  8
L1_120
  6
CONTINUOUS
 62
         7
100
AcDbLine
 10
1391.7145721591
 20
-215.5606848291
 30
1.5367863724
 11
1393.3758425579
 21
-216.3485310315
 31
1.3978678302
  0
LINE
  5
18C
100
AcDbEntity
  8
L1_120
  6
CONTINUOUS
 62
         7
100
AcDbLine
 10
1402.4508425579
 20
-232.203935855
 30
-1.3978678302
 11
1388.1508425579
 21
-232.203935855
 31
-1.3978678302
  0
LINE
  5
18D
100
AcDbEntity
  8
L1_120
  6
CONTINUOUS
 62
         7
100
AcDbLine
 10
1402.4508425579
 20
-216.3485310315
 30
1.3978678302
 11
1388.1508425579
 21
-216.3485310315
 31
1.3978678302
  0
LINE
  5
18E
100
AcDbEntity
  8
L1_120
  6
CONTINUOUS
 62
         7
100
AcDbLine
 10
1398.7871129567
 20
-192.9839670913
 30
5.5176708454
 11
1398.7871129567
 21
-215.5606848291
 31
1.5367863724
  0
LINE
  5
18F
100
AcDbEntity
  8
L1_120
  6
CONTINUOUS
 62
         7
100
AcDbLine
 10
1397.1258425579
 20
-195.8176575836
 30
5.0180147566
 11
1397.1258425579
 21
-216.3485310315
 31
1.3978678302
  0
LINE
  5
190
100
AcDbEntity
  8
L1_120
  6
CONTINUOUS
 62
         7
100
AcDbLine
 10
1393.3758425579
 20
-195.8176575836
 30
5.0180147566
 11
1393.3758425579
 21
-216.3485310315
 31
1.3978678302
  0
LINE
  5
191
100
AcDbEntity
  8
L1_120
  6
CONTINUOUS
 62
         7
100
AcDbLine
 10
1391.7145721591
 20
-192.9839670913
 30
5.5176708454
 11
1391.7145721591
 21
-215.5606848291
 31
1.5367863724
  0
LINE
  5
192
100
AcDbEntity
  8
L1_120
  6
CONTINUOUS
 62
         7
100
AcDbLine
 10
1403.2508425579
 20
-193.9687748443
 30
5.3440226677
 11
1403.2508425579
 21
-201.8373887908
 31
3.9565737281
  0
LINE
  5
193
100
AcDbEntity
  8
L1_120
  6
CONTINUOUS
 62
         7
100
AcDbLine
 10
1403.2508425579
 20
-246.7150780956
 30
-3.9565737281
 11
1403.2508425579
 21
-254.5836920422
 31
-5.3440226677
  0
LINE
  5
194
100
AcDbEntity
  8
L1_120
  6
CONTINUOUS
 62
         7
100
AcDbLine
 10
1403.7508425579
 20
-202.3297926673
 30
3.8697496393
 11
1418.4028425579
 21
-202.3297926673
 31
3.8697496393
  0
LINE
  5
195
100
AcDbEntity
  8
L1_120
  6
CONTINUOUS
 62
         7
100
AcDbLine
 10
1403.7508425579
 20
-246.2226742191
 30
-3.8697496393
 11
1418.4028425579
 21
-246.2226742191
 31
-3.8697496393
  0
ARC
  5
196
100
AcDbEntity
  8
L1_120
  6
CONTINUOUS
 62
         7
100
AcDbCircle
 10
1403.7508425579
 20
-243.6539735113
 30
38.9451592314
 40
0.5
210
0.0
220
-0.1736481776669303
230
0.9848077530122081
100
AcDbArc
 50
90.0
 51
180.0
  0
ARC
  5
197
100
AcDbEntity
  8
L1_120
  6
CONTINUOUS
 62
         7
100
AcDbCircle
 10
1403.7508425579
 20
-198.0839735113
 30
38.9451592314
 40
0.5
210
0.0
220
-0.1736481776669303
230
0.9848077530122081
100
AcDbArc
 50
180.0
 51
270.0
  0
LINE
  5
198
100
AcDbEntity
  8
L1_120
  6
CONTINUOUS
 62
         7
100
AcDbLine
 10
1387.8508425579
 20
-192.9839670913
 30
5.5176708454
 11
1389.3508425579
 21
-192.9839670913
 31
5.5176708454
  0
LINE
  5
199
100
AcDbEntity
  8
L1_120
  6
CONTINUOUS
 62
         7
100
AcDbLine
 10
1387.3508425579
 20
-193.4763709678
 30
5.4308467565
 11
1387.3508425579
 21
-194.9535825973
 31
5.17037449
  0
LINE
  5
19A
100
AcDbEntity
  8
L1_120
  6
CONTINUOUS
 62
         7
100
AcDbLine
 10
1401.2508425579
 20
-192.9839670913
 30
5.5176708454
 11
1402.7508425579
 21
-192.9839670913
 31
5.5176708454
  0
LINE
  5
19B
100
AcDbEntity
  8
L1_120
  6
CONTINUOUS
 62
         7
100
AcDbLine
 10
1387.8508425579
 20
-192.9839670913
 30
5.5176708454
 11
1387.3508425579
 21
-193.4763709678
 31
5.4308467565
  0
LINE
  5
19C
100
AcDbEntity
  8
L1_120
  6
CONTINUOUS
 62
         7
100
AcDbLine
 10
1402.7508425579
 20
-192.9839670913
 30
5.5176708454
 11
1403.2508425579
 21
-193.4763709678
 31
5.4308467565
  0
LINE
  5
19D
100
AcDbEntity
  8
L1_120
  6
CONTINUOUS
 62
         7
100
AcDbLine
 10
1403.2508425579
 20
-253.5988842892
 30
-5.17037449
 11
1403.2508425579
 21
-255.0760959187
 31
-5.4308467565
  0
LINE
  5
19E
100
AcDbEntity
  8
L1_120
  6
CONTINUOUS
 62
         7
100
AcDbLine
 10
1387.3508425579
 20
-253.5988842892
 30
-5.17037449
 11
1387.3508425579
 21
-255.0760959187
 31
-5.4308467565
  0
LINE
  5
19F
100
AcDbEntity
  8
L1_120
  6
CONTINUOUS
 62
         7
100
AcDbLine
 10
1401.2508425579
 20
-255.5684997952
 30
-5.5176708454
 11
1402.7508425579
 21
-255.5684997952
 31
-5.5176708454
  0
LINE
  5
1A0
100
AcDbEntity
  8
L1_120
  6
CONTINUOUS
 62
         7
100
AcDbLine
 10
1387.8508425579
 20
-255.5684997952
 30
-5.5176708454
 11
1389.3508425579
 21
-255.5684997952
 31
-5.5176708454
  0
LINE
  5
1A1
100
AcDbEntity
  8
L1_120
  6
CONTINUOUS
 62
         7
100
AcDbLine
 10
1403.2508425579
 20
-255.0760959187
 30
-5.4308467565
 11
1402.7508425579
 21
-255.5684997952
 31
-5.5176708454
  0
LINE
  5
1A2
100
AcDbEntity
  8
L1_120
  6
CONTINUOUS
 62
         7
100
AcDbLine
 10
1387.3508425579
 20
-255.0760959187
 30
-5.4308467565
 11
1387.8508425579
 21
-255.5684997952
 31
-5.5176708454
  0
LINE
  5
1A3
100
AcDbEntity
  8
L1_120
  6
CONTINUOUS
 62
         4
100
AcDbLine
 10
1387.8508425579
 20
-215.5606848291
 30
1.5367863724
 11
1387.8508425579
 21
-192.9839670913
 31
5.5176708454
  0
LINE
  5
1A4
100
AcDbEntity
  8
L1_120
  6
CONTINUOUS
 62
         4
100
AcDbLine
 10
1402.7508425579
 20
-215.5606848291
 30
1.5367863724
 11
1402.7508425579
 21
-192.9839670913
 31
5.5176708454
  0
LINE
  5
1A5
100
AcDbEntity
  8
L1_120
  6
CONTINUOUS
 62
         4
100
AcDbLine
 10
1387.8508425579
 20
-255.5684997952
 30
-5.5176708454
 11
1387.8508425579
 21
-232.9917820574
 31
-1.5367863724
  0
LINE
  5
1A6
100
AcDbEntity
  8
L1_120
  6
CONTINUOUS
 62
         4
100
AcDbLine
 10
1402.7508425579
 20
-255.5684997952
 30
-5.5176708454
 11
1402.7508425579
 21
-232.9917820574
 31
-1.5367863724
  0
LINE
  5
1A7
100
AcDbEntity
  8
L1_120
  6
CONTINUOUS
 62
         7
100
AcDbLine
 10
1418.7028425579
 20
-246.2226742191
 30
-3.8697496393
 11
1418.7028425579
 21
-202.3297926673
 31
3.8697496393
  0
LINE
  5
1A8
100
AcDbEntity
  8
L1_120
  6
CENTER
 62
         1
100
AcDbLine
 10
1451.86895451
 20
-224.2762334432
 30
0.0
 11
1406.5090595095
 21
-224.2762334432
 31
0.0
  0
LINE
  5
1A9
100
AcDbEntity
  8
L1_120
  6
CONTINUOUS
 62
         7
100
AcDbLine
 10
1387.3508425579
 20
-193.9687748443
 30
5.3440226677
 11
1387.3508425579
 21
-254.5836920422
 31
-5.3440226677
  0
LINE
  5
1AA
100
AcDbEntity
  8
L1_120
  6
CENTER
 62
         1
100
AcDbLine
 10
1384.1508425579
 20
-202.3888811325
 30
3.8593307486
 11
1384.1508425579
 21
-246.1635857539
 31
-3.8593307486
  0
LINE
  5
1AB
100
AcDbEntity
  8
L1_120
  6
CONTINUOUS
 62
         4
100
AcDbLine
 10
1439.7056568546
 20
-236.7366041545
 30
-2.197099546
 11
1439.7056568546
 21
-211.8158627319
 31
2.197099546
  0
LINE
  5
1AC
100
AcDbEntity
  8
L1_120
  6
CONTINUOUS
 62
         7
100
AcDbLine
 10
1446.7847699505
 20
-215.0152428613
 30
1.6329625077
 11
1440.1180141502
 21
-211.9537126154
 31
2.1727928923
  0
LINE
  5
1AD
100
AcDbEntity
  8
L1_120
  6
CONTINUOUS
 62
         7
100
AcDbLine
 10
1446.7847699505
 20
-233.5372240252
 30
-1.6329625077
 11
1440.1180141502
 21
-236.598754271
 31
-2.1727928923
  0
LINE
  5
1AE
100
AcDbEntity
  8
L1_120
  6
CONTINUOUS
 62
         7
100
AcDbLine
 10
1447.6508425579
 20
-232.1984156222
 30
-1.3968944643
 11
1447.6508425579
 21
-216.3540512642
 31
1.3968944642
  0
ARC
  5
1AF
100
AcDbEntity
  8
L1_120
  6
CONTINUOUS
 62
         7
100
AcDbCircle
 10
1446.1508425579
 20
-212.8245789025
 30
38.9451592314
 40
1.5
210
0.0
220
-0.1736481776669303
230
0.9848077530122081
100
AcDbArc
 50
0.0
 51
65.0
  0
ARC
  5
1B0
100
AcDbEntity
  8
L1_120
  6
CONTINUOUS
 62
         7
100
AcDbCircle
 10
1446.1508425579
 20
-228.91336812
 30
38.9451592314
 40
1.5
210
0.0
220
-0.1736481776669303
230
0.9848077530122081
100
AcDbArc
 50
295.0
 51
360.0
  0
ARC
  5
1B1
100
AcDbEntity
  8
L1_120
  6
CONTINUOUS
 62
         7
100
AcDbCircle
 10
1439.2727776267
 20
-231.5689735113
 30
38.9451592314
 40
2.0
210
0.0
220
-0.1736481776669303
230
0.9848077530122081
100
AcDbArc
 50
270.0
 51
295.0
  0
ARC
  5
1B2
100
AcDbEntity
  8
L1_120
  6
CONTINUOUS
 62
         7
100
AcDbCircle
 10
1439.2727776267
 20
-210.1689735113
 30
38.9451592314
 40
2.0
210
0.0
220
-0.1736481776669303
230
0.9848077530122081
100
AcDbArc
 50
65.0
 51
90.0
  0
DIMENSION
  5
1B6
100
AcDbEntity
  8
L1_120
  6
CONTINUOUS
 62
         4
100
AcDbDimension
  2
*D0
 10
1446.7847699505
 20
-226.7744680957
 30
-39.9864572611
 11
1435.6395757133
 21
-244.3911000464
 31
-43.0927447832
 70
         2
  3
DIMSTYLE1
100
AcDb2LineAngularDimension
 13
1447.6508425579
 23
-209.5912953347
 33
-36.9566002891
 14
1447.6508425579
 24
-225.4356596928
 34
-39.7503892176
 15
1440.1180141502
 25
-229.8359983415
 35
-40.5262876457
 16
1434.5359123832
 26
-235.9845658879
 36
-39.7503892176
  0
LINE
  5
1C5
100
AcDbEntity
  8
L1_120
  6
CONTINUOUS
 62
         7
100
AcDbLine
 10
1439.2727776267
 20
-211.76917498
 30
2.2053318564
 11
1420.2028425579
 21
-211.76917498
 31
2.2053318564
  0
LINE
  5
1C6
100
AcDbEntity
  8
L1_120
  6
CONTINUOUS
 62
         7
100
AcDbLine
 10
1439.2727776267
 20
-236.7832919065
 30
-2.2053318564
 11
1420.2028425579
 21
-236.7832919065
 31
-2.2053318564
  0
ARC
  5
1C7
100
AcDbEntity
  8
L1_120
  6
CONTINUOUS
 62
         7
100
AcDbCircle
 10
1420.2028425579
 20
-207.1689735113
 30
38.9451592314
 40
1.0
210
0.0
220
-0.1736481776669303
230
0.9848077530122081
100
AcDbArc
 50
180.0
 51
270.0
  0
ARC
  5
1C8
100
AcDbEntity
  8
L1_120
  6
CONTINUOUS
 62
         7
100
AcDbCircle
 10
1420.2028425579
 20
-234.5689735113
 30
38.9451592314
 40
1.0
210
0.0
220
-0.1736481776669303
230
0.9848077530122081
100
AcDbArc
 50
90.0
 51
180.0
  0
DIMENSION
  5
1CB
100
AcDbEntity
  8
L1_120
  6
CONTINUOUS
 62
         4
100
AcDbDimension
  2
*D1
 10
1463.2322888244
 20
-208.6502077366
 30
-36.7906611544
 11
1461.2072888244
 21
-226.2986054356
 31
0.0
210
0.0
220
-0.1736481776669303
230
0.9848077530122081
  3
DIMSTYLE1
100
AcDbAlignedDimension
 13
1447.6508425579
 23
-208.6502077366
 33
-36.7906611544
 14
1447.6508425579
 24
-226.3767472908
 34
-39.9163283524
 50
90.0
100
AcDbRotatedDimension
  0
LINE
  5
1D7
100
AcDbEntity
  8
L1_120
  6
CONTINUOUS
 62
         7
100
AcDbLine
 10
1418.7028425579
 20
-202.3297926673
 30
3.8697496393
 11
1419.2028425579
 21
-202.8221965438
 31
3.7829255505
  0
LINE
  5
1D8
100
AcDbEntity
  8
L1_120
  6
CONTINUOUS
 62
         7
100
AcDbLine
 10
1403.2508425579
 20
-193.4763709678
 30
5.4308467565
 11
1403.2508425579
 21
-194.9535825973
 31
5.17037449
  0
LINE
  5
1D9
100
AcDbEntity
  8
L1_120
  6
CONTINUOUS
 62
         7
100
AcDbLine
 10
1439.2008425579
 20
-342.8587689295
 30
-0.8269994461
 11
1407.6508425579
 21
-342.8587689295
 31
-0.8269994461
  0
LINE
  5
1DA
100
AcDbEntity
  8
L1_120
  6
CONTINUOUS
 62
         7
100
AcDbLine
 10
1442.4008425579
 20
-333.4784750821
 30
0.8269994461
 11
1446.1508425579
 21
-333.4784750821
 31
0.8269994461
  0
ARC
  5
1DB
100
AcDbEntity
  8
L1_120
  6
CONTINUOUS
 62
         7
100
AcDbCircle
 10
1442.0008425579
 20
-326.3760807767
 30
58.7223649554
 40
0.4
210
0.0
220
-0.1736481776669303
230
0.9848077530122081
100
AcDbArc
 50
0.0
 51
90.0
  0
ARC
  5
1DC
100
AcDbEntity
  8
L1_120
  6
CONTINUOUS
 62
         7
100
AcDbCircle
 10
1442.0008425579
 20
-339.6860807767
 30
58.7223649554
 40
0.4
210
0.0
220
-0.1736481776669303
230
0.9848077530122081
100
AcDbArc
 50
270.0
 51
360.0
  0
ARC
  5
1DD
100
AcDbEntity
  8
L1_120
  6
CONTINUOUS
 62
         7
100
AcDbCircle
 10
1439.6008425579
 20
-339.6860807767
 30
58.7223649554
 40
0.4
210
0.0
220
-0.1736481776669303
230
0.9848077530122081
100
AcDbArc
 50
180.0
 51
270.0
  0
ARC
  5
1DE
100
AcDbEntity
  8
L1_120
  6
CONTINUOUS
 62
         7
100
AcDbCircle
 10
1439.6008425579
 20
-326.3760807767
 30
58.7223649554
 40
0.4
210
0.0
220
-0.1736481776669303
230
0.9848077530122081
100
AcDbArc
 50
90.0
 51
180.0
  0
LINE
  5
1DF
100
AcDbEntity
  8
L1_120
  6
CONTINUOUS
 62
         7
100
AcDbLine
 10
1439.2008425579
 20
-331.6147264095
 30
1.1556286224
 11
1439.2008425579
 21
-344.7225176021
 31
-1.1556286224
  0
LINE
  5
1E0
100
AcDbEntity
  8
L1_120
  6
CONTINUOUS
 62
         7
100
AcDbLine
 10
1439.6008425579
 20
-345.1164407033
 30
-1.2250878934
 11
1442.0008425579
 21
-345.1164407033
 31
-1.2250878934
  0
LINE
  5
1E1
100
AcDbEntity
  8
L1_120
  6
CONTINUOUS
 62
         7
100
AcDbLine
 10
1439.6008425579
 20
-331.2208033083
 30
1.2250878934
 11
1442.0008425579
 21
-331.2208033083
 31
1.2250878934
  0
LINE
  5
1E2
100
AcDbEntity
  8
L1_120
  6
CONTINUOUS
 62
         7
100
AcDbLine
 10
1442.4008425579
 20
-331.6147264095
 30
1.1556286224
 11
1442.4008425579
 21
-344.7225176021
 31
-1.1556286224
  0
LINE
  5
1E3
100
AcDbEntity
  8
L1_120
  6
CONTINUOUS
 62
         4
100
AcDbLine
 10
1442.4008425579
 20
-338.9072278205
 30
-0.1302361333
 11
1447.6508425579
 21
-338.9072278205
 31
-0.1302361333
  0
LINE
  5
1E4
100
AcDbEntity
  8
L1_120
  6
CONTINUOUS
 62
         4
100
AcDbLine
 10
1442.4008425579
 20
-337.430016191
 30
0.1302361333
 11
1447.6508425579
 21
-337.430016191
 31
0.1302361333
  0
LINE
  5
1E5
100
AcDbEntity
  8
L1_120
  6
CONTINUOUS
 62
         4
100
AcDbLine
 10
1407.6508425579
 20
-338.9072278205
 30
-0.1302361333
 11
1439.2008425579
 21
-338.9072278205
 31
-0.1302361333
  0
LINE
  5
1E6
100
AcDbEntity
  8
L1_120
  6
CONTINUOUS
 62
         4
100
AcDbLine
 10
1407.6508425579
 20
-337.430016191
 30
0.1302361333
 11
1439.2008425579
 21
-337.430016191
 31
0.1302361333
  0
ARC
  5
1E7
100
AcDbEntity
  8
L1_120
  6
CONTINUOUS
 62
         7
100
AcDbCircle
 10
1432.1508425579
 20
-312.7110807767
 30
58.7223649554
 40
10.0
210
0.0
220
-0.1736481776669303
230
0.9848077530122081
100
AcDbArc
 50
229.6408321236
 51
310.3591678764
  0
LINE
  5
1E8
100
AcDbEntity
  8
L1_120
  6
CENTER
 62
         1
100
AcDbLine
 10
1432.1508425579
 20
-332.0435532759
 30
1.0800148758
 11
1432.1508425579
 21
-321.9647502513
 31
2.8571797823
  0
ARC
  5
1E9
100
AcDbEntity
  8
L1_120
  6
CONTINUOUS
 62
         7
100
AcDbCircle
 10
1446.1508425579
 20
-339.2935807767
 30
58.7223649554
 40
1.5
210
0.0
220
-0.1736481776669303
230
0.9848077530122081
100
AcDbArc
 50
0.0
 51
45.022059707
  0
ARC
  5
1EA
100
AcDbEntity
  8
L1_120
  6
CONTINUOUS
 62
         7
100
AcDbCircle
 10
1446.1508425579
 20
-339.2935807767
 30
58.7223649554
 40
1.5
210
0.0
220
-0.1736481776669303
230
0.9848077530122081
100
AcDbArc
 50
74.9779402929
 51
90.0
  0
LINE
  5
1EB
100
AcDbEntity
  8
L1_120
  6
CONTINUOUS
 62
         7
100
AcDbLine
 10
1447.2110942815
 20
-343.2910321104
 30
-0.9032191077
 11
1446.5396289399
 21
-342.9092510037
 31
-0.8359007979
  0
ARC
  5
1EC
100
AcDbEntity
  8
L1_120
  6
CONTINUOUS
 62
         7
100
AcDbCircle
 10
1446.1508425579
 20
-326.7685807767
 30
58.7223649554
 40
1.5
210
0.0
220
-0.1736481776669303
230
0.9848077530122081
100
AcDbArc
 50
314.9779402929
 51
360.0
  0
LINE
  5
1ED
100
AcDbEntity
  8
L1_120
  6
CONTINUOUS
 62
         7
100
AcDbLine
 10
1447.2110942815
 20
-333.0462119011
 30
0.9032191077
 11
1446.5396289399
 21
-333.4279930078
 31
0.8359007979
  0
ARC
  5
1EE
100
AcDbEntity
  8
L1_120
  6
CONTINUOUS
 62
         7
100
AcDbCircle
 10
1446.1508425579
 20
-326.7685807767
 30
58.7223649554
 40
1.5
210
0.0
220
-0.1736481776669303
230
0.9848077530122081
100
AcDbArc
 50
270.0
 51
285.0220597071
  0
LINE
  5
1EF
100
AcDbEntity
  8
L1_120
  6
CONTINUOUS
 62
         7
100
AcDbLine
 10
1386.5508425579
 20
-360.2283156732
 30
-3.8897191797
 11
1385.3508425579
 21
-360.2283156732
 31
-3.8897191797
  0
ARC
  5
1F0
100
AcDbEntity
  8
L1_120
  6
CONTINUOUS
 62
         7
100
AcDbCircle
 10
1386.5508425579
 20
-356.2310807767
 30
58.7223649554
 40
0.8
210
0.0
220
-0.1736481776669303
230
0.9848077530122081
100
AcDbArc
 50
0.0
 51
90.0000000001
  0
ARC
  5
1F1
100
AcDbEntity
  8
L1_120
  6
CONTINUOUS
 62
         7
100
AcDbCircle
 10
1386.5508425579
 20
-309.8310807767
 30
58.7223649554
 40
0.8
210
0.0
220
-0.1736481776669303
230
0.9848077530122081
100
AcDbArc
 50
269.9999999999
 51
360.0
  0
LINE
  5
1F2
100
AcDbEntity
  8
L1_120
  6
CONTINUOUS
 62
         7
100
AcDbLine
 10
1386.5508425579
 20
-316.1089283383
 30
3.8897191797
 11
1385.3508425579
 21
-316.1089283383
 31
3.8897191797
  0
LINE
  5
1F3
100
AcDbEntity
  8
L1_120
  6
CONTINUOUS
 62
         7
100
AcDbLine
 10
1418.7028425579
 20
-316.2221812299
 30
3.8697496393
 11
1419.2028425579
 21
-316.7145851064
 31
3.7829255505
  0
LINE
  5
1F4
100
AcDbEntity
  8
L1_120
  6
CONTINUOUS
 62
         7
100
AcDbLine
 10
1419.2028425579
 20
-359.6226589051
 30
-3.7829255505
 11
1418.7028425579
 21
-360.1150627816
 31
-3.8697496393
  0
LINE
  5
1F5
100
AcDbEntity
  8
L1_120
  6
CONTINUOUS
 62
         7
100
AcDbLine
 10
1418.7028425579
 20
-316.2221812299
 30
3.8697496393
 11
1417.7028425579
 21
-316.2221812299
 31
3.8697496393
  0
LINE
  5
1F6
100
AcDbEntity
  8
L1_120
  6
CONTINUOUS
 62
         7
100
AcDbLine
 10
1418.7028425579
 20
-360.1150627816
 30
-3.8697496393
 11
1417.7028425579
 21
-360.1150627816
 31
-3.8697496393
  0
LINE
  5
1F7
100
AcDbEntity
  8
L1_120
  6
CONTINUOUS
 62
         7
100
AcDbLine
 10
1419.2028425579
 20
-351.660488222
 30
-2.378980034
 11
1419.2028425579
 21
-359.6226589051
 31
-3.7829255505
  0
LINE
  5
1F8
100
AcDbEntity
  8
L1_120
  6
CONTINUOUS
 62
         7
100
AcDbLine
 10
1419.2028425579
 20
-316.7145851064
 30
3.7829255505
 11
1419.2028425579
 21
-324.6767557895
 31
2.378980034
  0
LINE
  5
1F9
100
AcDbEntity
  8
L1_120
  6
CONTINUOUS
 62
         7
100
AcDbLine
 10
1398.7871129567
 20
-306.8763556536
 30
5.5176708454
 11
1402.2508425579
 21
-306.8763556536
 31
5.5176708454
  0
LINE
  5
1FA
100
AcDbEntity
  8
L1_120
  6
CONTINUOUS
 62
         7
100
AcDbLine
 10
1397.1258425579
 20
-309.710046146
 30
5.0180147566
 11
1398.7871129567
 21
-306.8763556536
 31
5.5176708454
  0
ARC
  5
1FB
100
AcDbEntity
  8
L1_120
  6
CONTINUOUS
 62
         7
100
AcDbCircle
 10
1396.1520422261
 20
-303.9060807766
 30
58.7223649554
 40
1.0
210
0.0
220
-0.1736481776669303
230
0.9848077530122081
100
AcDbArc
 50
270.0
 51
346.8556743105
  0
LINE
  5
1FC
100
AcDbEntity
  8
L1_120
  6
CONTINUOUS
 62
         7
100
AcDbLine
 10
1394.3496428896
 20
-310.4709039521
 30
4.8838549969
 11
1396.1520422261
 21
-310.4709039521
 31
4.8838549969
  0
ARC
  5
1FD
100
AcDbEntity
  8
L1_120
  6
CONTINUOUS
 62
         7
100
AcDbCircle
 10
1394.3496428896
 20
-303.9060807766
 30
58.7223649554
 40
1.0
210
0.0
220
-0.1736481776669303
230
0.9848077530122081
100
AcDbArc
 50
193.1443256895
 51
270.0
  0
LINE
  5
1FE
100
AcDbEntity
  8
L1_120
  6
CONTINUOUS
 62
         7
100
AcDbLine
 10
1393.3758425579
 20
-309.7100461462
 30
5.0180147566
 11
1391.7145721591
 21
-306.8763556538
 31
5.5176708454
  0
LINE
  5
1FF
100
AcDbEntity
  8
L1_120
  6
CONTINUOUS
 62
         7
100
AcDbLine
 10
1388.3508425579
 20
-306.8763556536
 30
5.5176708454
 11
1391.7145721591
 21
-306.8763556536
 31
5.5176708454
  0
LINE
  5
200
100
AcDbEntity
  8
L1_120
  6
CONTINUOUS
 62
         7
100
AcDbLine
 10
1387.3508425579
 20
-315.3210821359
 30
4.0286377219
 11
1387.3508425579
 21
-307.8611634066
 31
5.3440226677
  0
LINE
  5
201
100
AcDbEntity
  8
L1_120
  6
CONTINUOUS
 62
         7
100
AcDbLine
 10
1388.3508425579
 20
-369.4608883579
 30
-5.5176708454
 11
1391.7145721591
 21
-369.4608883579
 31
-5.5176708454
  0
LINE
  5
202
100
AcDbEntity
  8
L1_120
  6
CONTINUOUS
 62
         7
100
AcDbLine
 10
1387.3508425579
 20
-361.0161618757
 30
-4.0286377219
 11
1387.3508425579
 21
-368.4760806049
 31
-5.3440226677
  0
LINE
  5
203
100
AcDbEntity
  8
L1_120
  6
CONTINUOUS
 62
         7
100
AcDbLine
 10
1393.3758425579
 20
-366.6271978654
 30
-5.0180147566
 11
1391.7145721591
 21
-369.4608883577
 31
-5.5176708454
  0
ARC
  5
204
100
AcDbEntity
  8
L1_120
  6
CONTINUOUS
 62
         7
100
AcDbCircle
 10
1394.3496428896
 20
-362.1560807767
 30
58.7223649554
 40
1.0
210
0.0
220
-0.1736481776669303
230
0.9848077530122081
100
AcDbArc
 50
90.0
 51
166.8556743105
  0
LINE
  5
205
100
AcDbEntity
  8
L1_120
  6
CONTINUOUS
 62
         7
100
AcDbLine
 10
1394.3496428896
 20
-365.8663400592
 30
-4.8838549969
 11
1396.1520422261
 21
-365.8663400592
 31
-4.8838549969
  0
ARC
  5
206
100
AcDbEntity
  8
L1_120
  6
CONTINUOUS
 62
         7
100
AcDbCircle
 10
1396.1520422261
 20
-362.1560807769
 30
58.7223649554
 40
1.0
210
0.0
220
-0.1736481776669303
230
0.9848077530122081
100
AcDbArc
 50
13.1443256895
 51
90.0
  0
LINE
  5
207
100
AcDbEntity
  8
L1_120
  6
CONTINUOUS
 62
         7
100
AcDbLine
 10
1397.1258425579
 20
-366.6271978654
 30
-5.0180147566
 11
1398.7871129567
 21
-369.4608883577
 31
-5.5176708454
  0
LINE
  5
208
100
AcDbEntity
  8
L1_120
  6
CONTINUOUS
 62
         7
100
AcDbLine
 10
1398.7871129567
 20
-369.4608883579
 30
-5.5176708454
 11
1402.2508425579
 21
-369.4608883579
 31
-5.5176708454
  0
ARC
  5
209
100
AcDbEntity
  8
L1_120
  6
CONTINUOUS
 62
         7
100
AcDbCircle
 10
1403.7508425579
 20
-310.2460807767
 30
58.7223649554
 40
0.5
210
0.0
220
-0.1736481776669303
230
0.9848077530122081
100
AcDbArc
 50
180.0
 51
270.0
  0
ARC
  5
20A
100
AcDbEntity
  8
L1_120
  6
CONTINUOUS
 62
         7
100
AcDbCircle
 10
1403.7508425579
 20
-355.8160807767
 30
58.7223649554
 40
0.5
210
0.0
220
-0.1736481776669303
230
0.9848077530122081
100
AcDbArc
 50
90.0
 51
180.0
  0
LINE
  5
20B
100
AcDbEntity
  8
L1_120
  6
CONTINUOUS
 62
         7
100
AcDbLine
 10
1403.7508425579
 20
-360.1150627816
 30
-3.8697496393
 11
1418.4028425579
 21
-360.1150627816
 31
-3.8697496393
  0
LINE
  5
20C
100
AcDbEntity
  8
L1_120
  6
CONTINUOUS
 62
         7
100
AcDbLine
 10
1403.7508425579
 20
-316.2221812299
 30
3.8697496393
 11
1418.4028425579
 21
-316.2221812299
 31
3.8697496393
  0
LINE
  5
20D
100
AcDbEntity
  8
L1_120
  6
CONTINUOUS
 62
         7
100
AcDbLine
 10
1403.2508425579
 20
-307.8611634066
 30
5.3440226677
 11
1403.2508425579
 21
-315.7297773534
 31
3.9565737281
  0
LINE
  5
20E
100
AcDbEntity
  8
L1_120
  6
CONTINUOUS
 62
         7
100
AcDbLine
 10
1403.2508425579
 20
-360.6074666582
 30
-3.9565737281
 11
1403.2508425579
 21
-368.4760806049
 31
-5.3440226677
  0
LINE
  5
20F
100
AcDbEntity
  8
L1_120
  6
CONTINUOUS
 62
         7
100
AcDbLine
 10
1403.2508425579
 20
-367.4912728517
 30
-5.17037449
 11
1403.2508425579
 21
-368.9684844812
 31
-5.4308467565
  0
LINE
  5
210
100
AcDbEntity
  8
L1_120
  6
CONTINUOUS
 62
         7
100
AcDbLine
 10
1387.3508425579
 20
-367.4912728517
 30
-5.17037449
 11
1387.3508425579
 21
-368.9684844812
 31
-5.4308467565
  0
LINE
  5
211
100
AcDbEntity
  8
L1_120
  6
CONTINUOUS
 62
         7
100
AcDbLine
 10
1403.2508425579
 20
-307.3687595303
 30
5.4308467565
 11
1403.2508425579
 21
-308.8459711598
 31
5.17037449
  0
LINE
  5
212
100
AcDbEntity
  8
L1_120
  6
CONTINUOUS
 62
         7
100
AcDbLine
 10
1401.2508425579
 20
-369.4608883577
 30
-5.5176708454
 11
1402.7508425579
 21
-369.4608883577
 31
-5.5176708454
  0
LINE
  5
213
100
AcDbEntity
  8
L1_120
  6
CONTINUOUS
 62
         7
100
AcDbLine
 10
1387.8508425579
 20
-369.4608883577
 30
-5.5176708454
 11
1389.3508425579
 21
-369.4608883577
 31
-5.5176708454
  0
LINE
  5
214
100
AcDbEntity
  8
L1_120
  6
CONTINUOUS
 62
         7
100
AcDbLine
 10
1401.2508425579
 20
-306.8763556538
 30
5.5176708454
 11
1402.7508425579
 21
-306.8763556538
 31
5.5176708454
  0
LINE
  5
215
100
AcDbEntity
  8
L1_120
  6
CONTINUOUS
 62
         7
100
AcDbLine
 10
1387.3508425579
 20
-307.3687595303
 30
5.4308467565
 11
1387.3508425579
 21
-308.8459711598
 31
5.17037449
  0
LINE
  5
216
100
AcDbEntity
  8
L1_120
  6
CONTINUOUS
 62
         7
100
AcDbLine
 10
1387.8508425579
 20
-306.8763556538
 30
5.5176708454
 11
1389.3508425579
 21
-306.8763556538
 31
5.5176708454
  0
LINE
  5
217
100
AcDbEntity
  8
L1_120
  6
CONTINUOUS
 62
         7
100
AcDbLine
 10
1403.2508425579
 20
-368.9684844812
 30
-5.4308467565
 11
1402.7508425579
 21
-369.4608883577
 31
-5.5176708454
  0
LINE
  5
218
100
AcDbEntity
  8
L1_120
  6
CONTINUOUS
 62
         7
100
AcDbLine
 10
1387.3508425579
 20
-368.9684844812
 30
-5.4308467565
 11
1387.8508425579
 21
-369.4608883577
 31
-5.5176708454
  0
LINE
  5
219
100
AcDbEntity
  8
L1_120
  6
CONTINUOUS
 62
         7
100
AcDbLine
 10
1387.3508425579
 20
-307.3687595303
 30
5.4308467565
 11
1387.8508425579
 21
-306.8763556538
 31
5.5176708454
  0
LINE
  5
21A
100
AcDbEntity
  8
L1_120
  6
CONTINUOUS
 62
         7
100
AcDbLine
 10
1402.7508425579
 20
-306.8763556538
 30
5.5176708454
 11
1403.2508425579
 21
-307.3687595303
 31
5.4308467565
  0
DIMENSION
  5
21D
100
AcDbEntity
  8
L1_120
  6
CONTINUOUS
 62
         4
100
AcDbDimension
  2
*D2
 10
1407.6508425579
 20
-365.1774361762
 30
-64.3906347438
 11
1422.5744150148
 21
-368.7858867535
 31
0.0
210
0.0
220
-0.1736481776669303
230
0.9848077530122081
  3
DIMSTYLE1
100
AcDbAlignedDimension
 13
1407.6508425579
 23
-332.6617372667
 33
-58.6572397295
 14
1447.6508425579
 24
-335.893772522
 34
-59.2271347476
100
AcDbRotatedDimension
  0
LINE
  5
229
100
AcDbEntity
  8
L1_120
  6
CONTINUOUS
 62
         7
100
AcDbLine
 10
1407.6508425579
 20
-333.4784750821
 30
0.8269994461
 11
1407.6508425579
 21
-342.8587689295
 31
-0.8269994461
  0
LINE
  5
22A
100
AcDbEntity
  8
L1_120
  6
CONTINUOUS
 62
         7
100
AcDbLine
 10
1407.6508425579
 20
-333.4784750821
 30
0.8269994461
 11
1439.2008425579
 21
-333.4784750821
 31
0.8269994461
  0
LINE
  5
22B
100
AcDbEntity
  8
L1_120
  6
CONTINUOUS
 62
         7
100
AcDbLine
 10
1446.1508425579
 20
-342.8587689295
 30
-0.8269994461
 11
1442.4008425579
 21
-342.8587689295
 31
-0.8269994461
  0
LINE
  5
22C
100
AcDbEntity
  8
L1_120
  6
CONTINUOUS
 62
         7
100
AcDbLine
 10
1406.3590213306
 20
-331.2749677347
 30
1.2155372437
 11
1407.6508425579
 21
-333.4784750821
 31
0.8269994461
  0
LINE
  5
22D
100
AcDbEntity
  8
L1_120
  6
CONTINUOUS
 62
         7
100
AcDbLine
 10
1406.3590213306
 20
-345.0622762769
 30
-1.2155372437
 11
1407.6508425579
 21
-342.8587689295
 31
-0.8269994461
  0
LINE
  5
22E
100
AcDbEntity
  8
L1_120
  6
CONTINUOUS
 62
         7
100
AcDbLine
 10
1393.7008395551
 20
-317.9412555737
 30
3.5666304507
 11
1393.700834288
 21
-331.2749677347
 31
1.2155372437
  0
LINE
  5
22F
100
AcDbEntity
  8
L1_120
  6
CONTINUOUS
 62
         7
100
AcDbLine
 10
1397.0008394128
 20
-318.3014521555
 30
3.5031180749
 11
1397.000834288
 21
-331.2749677347
 31
1.2155372437
  0
LINE
  5
230
100
AcDbEntity
  8
L1_120
  6
CONTINUOUS
 62
         4
100
AcDbLine
 10
1395.3912661694
 20
-315.1395694139
 30
4.0606433121
 11
1396.8086898237
 21
-316.1169819772
 31
3.8882991059
  0
LINE
  5
231
100
AcDbEntity
  8
L1_120
  6
CONTINUOUS
 62
         7
100
AcDbLine
 10
1397.2263409713
 20
-316.4049816007
 30
3.8375170018
 11
1397.0602869792
 21
-318.2741524421
 31
3.507931751
  0
LINE
  5
232
100
AcDbEntity
  8
L1_120
  6
CONTINUOUS
 62
         7
100
AcDbLine
 10
1397.0008402234
 20
-316.2494830923
 30
3.8649355843
 11
1397.2263409713
 21
-316.4049816007
 31
3.8375170018
  0
LINE
  5
233
100
AcDbEntity
  8
L1_120
  6
CONTINUOUS
 62
         7
100
AcDbLine
 10
1397.0008408713
 20
-314.6091376665
 30
4.1541727406
 11
1397.0008402234
 21
-316.2494830923
 31
3.8649355843
  0
LINE
  5
234
100
AcDbEntity
  8
L1_120
  6
CONTINUOUS
 62
         7
100
AcDbLine
 10
1397.3508409499
 20
-314.4101349644
 30
4.1892622862
 11
1397.0008408713
 21
-314.6091376665
 31
4.1541727406
  0
LINE
  5
235
100
AcDbEntity
  8
L1_120
  6
CONTINUOUS
 62
         7
100
AcDbLine
 10
1397.0008408713
 20
-314.6091376665
 30
4.1541727406
 11
1394.6220436059
 21
-314.6091367552
 31
4.1541729013
  0
LINE
  5
236
100
AcDbEntity
  8
L1_120
  6
CONTINUOUS
 62
         4
100
AcDbLine
 10
1397.3508409499
 20
-314.4101349644
 30
4.1892622862
 11
1394.3334536136
 21
-314.4101338084
 31
4.18926249
  0
LINE
  5
237
100
AcDbEntity
  8
L1_120
  6
CONTINUOUS
 62
         7
100
AcDbLine
 10
1391.0370267572
 20
-316.5251505804
 30
3.8163279685
 11
1393.3600113244
 21
-313.2579860798
 31
4.3924172204
  0
LINE
  5
238
100
AcDbEntity
  8
L1_120
  6
CONTINUOUS
 62
         4
100
AcDbLine
 10
1393.7239646773
 20
-317.9572019599
 30
3.5638186725
 11
1395.1413883316
 21
-318.9346145232
 31
3.3914744663
  0
LINE
  5
239
100
AcDbEntity
  8
L1_120
  6
CONTINUOUS
 62
         4
100
AcDbLine
 10
1396.7567941038
 20
-318.4135234713
 30
3.4833568782
 11
1395.3335387313
 21
-319.0671156383
 31
3.3681109448
  0
LINE
  5
23A
100
AcDbEntity
  8
L1_120
  6
CONTINUOUS
 62
         4
100
AcDbLine
 10
1397.2263409713
 20
-316.4049816007
 30
3.8375170018
 11
1395.3335387313
 21
-319.0671156383
 31
3.3681109448
  0
LINE
  5
23B
100
AcDbEntity
  8
L1_120
  6
CONTINUOUS
 62
         7
100
AcDbLine
 10
1397.3508429582
 20
-309.326254624
 30
5.0856875569
 11
1397.3508409499
 21
-314.4101349644
 31
4.1892622862
  0
LINE
  5
23C
100
AcDbEntity
  8
L1_120
  6
CONTINUOUS
 62
         7
100
AcDbLine
 10
1393.3508428234
 20
-309.6674031725
 30
5.0255338634
 11
1393.3508412176
 21
-313.7325539628
 31
4.3087380984
  0
LINE
  5
23D
100
AcDbEntity
  8
L1_120
  6
CONTINUOUS
 62
         4
100
AcDbLine
 10
1389.6451483033
 20
-310.7564400974
 30
4.8335072705
 11
1393.3313325026
 21
-313.298321444
 31
4.3853050074
  0
LINE
  5
23E
100
AcDbEntity
  8
L1_120
  6
CONTINUOUS
 62
         7
100
AcDbLine
 10
1389.4443965506
 20
-311.0387876468
 30
4.7837217796
 11
1394.6220436059
 21
-314.6091367552
 31
4.1541729013
  0
LINE
  5
23F
100
AcDbEntity
  8
L1_120
  6
CONTINUOUS
 62
         7
100
AcDbLine
 10
1387.5515943106
 20
-313.7009216844
 30
4.3143157225
 11
1393.7008395551
 21
-317.9412555737
 31
3.5666304507
  0
LINE
  5
240
100
AcDbEntity
  8
L1_120
  6
CONTINUOUS
 62
         4
100
AcDbLine
 10
1387.3508425579
 20
-313.9832692338
 30
4.2645302316
 11
1391.0370267572
 21
-316.5251505804
 31
3.8163279685
  0
LINE
  5
241
100
AcDbEntity
  8
L1_120
  6
CONTINUOUS
 62
         7
100
AcDbLine
 10
1387.3508425579
 20
-313.9832692338
 30
4.2645302316
 11
1389.6738271251
 21
-310.7161047332
 31
4.8406194835
  0
LINE
  5
242
100
AcDbEntity
  8
L1_120
  6
CONTINUOUS
 62
         7
100
AcDbLine
 10
1387.3508425579
 20
-309.1142447011
 30
5.1230706265
 11
1389.6738271251
 21
-310.7161047332
 31
4.8406194835
  0
LINE
  5
243
100
AcDbEntity
  8
L1_120
  6
CENTER
 62
         1
100
AcDbLine
 10
1386.6402119025
 20
-311.0887832268
 30
4.77490621
 11
1397.5941001489
 21
-318.6422538893
 31
3.4430255342
  0
LINE
  5
244
100
AcDbEntity
  8
L1_120
  6
CENTER
 62
         1
100
AcDbLine
 10
1395.2508425579
 20
-298.0855116805
 30
7.0677338211
 11
1395.2508425579
 21
-336.2876675156
 31
0.3316630261
  0
LINE
  5
245
100
AcDbEntity
  8
L1_120
  6
CONTINUOUS
 62
         7
100
AcDbLine
 10
1406.3590213306
 20
-345.0622762769
 30
-1.2155372437
 11
1406.3590213306
 21
-331.2749677347
 31
1.2155372437
  0
LINE
  5
246
100
AcDbEntity
  8
L1_120
  6
CONTINUOUS
 62
         7
100
AcDbLine
 10
1439.2727776267
 20
-325.6615635425
 30
2.2053318564
 11
1420.2028425579
 21
-325.6615635425
 31
2.2053318564
  0
LINE
  5
247
100
AcDbEntity
  8
L1_120
  6
CONTINUOUS
 62
         7
100
AcDbLine
 10
1439.2727776267
 20
-350.675680469
 30
-2.2053318564
 11
1420.2028425579
 21
-350.675680469
 31
-2.2053318564
  0
ARC
  5
248
100
AcDbEntity
  8
L1_120
  6
CONTINUOUS
 62
         7
100
AcDbCircle
 10
1439.2727776267
 20
-343.7310807767
 30
58.7223649554
 40
2.0
210
0.0
220
-0.1736481776669303
230
0.9848077530122081
100
AcDbArc
 50
270.0
 51
295.0
  0
LINE
  5
249
100
AcDbEntity
  8
L1_120
  6
CONTINUOUS
 62
         7
100
AcDbLine
 10
1446.7847699505
 20
-347.4296125877
 30
-1.6329625077
 11
1440.1180141502
 21
-350.4911428336
 31
-2.1727928923
  0
ARC
  5
24A
100
AcDbEntity
  8
L1_120
  6
CONTINUOUS
 62
         7
100
AcDbCircle
 10
1446.1508425579
 20
-341.0754753855
 30
58.7223649554
 40
1.5
210
0.0
220
-0.1736481776669303
230
0.9848077530122081
100
AcDbArc
 50
295.0
 51
360.0
  0
LINE
  5
24B
100
AcDbEntity
  8
L1_120
  6
CONTINUOUS
 62
         7
100
AcDbLine
 10
1447.6508425579
 20
-346.0908041848
 30
-1.3968944642
 11
1447.6508425579
 21
-330.2464398267
 31
1.3968944642
  0
ARC
  5
24C
100
AcDbEntity
  8
L1_120
  6
CONTINUOUS
 62
         7
100
AcDbCircle
 10
1446.1508425579
 20
-324.9866861679
 30
58.7223649554
 40
1.5
210
0.0
220
-0.1736481776669303
230
0.9848077530122081
100
AcDbArc
 50
0.0
 51
65.0
  0
LINE
  5
24D
100
AcDbEntity
  8
L1_120
  6
CONTINUOUS
 62
         7
100
AcDbLine
 10
1446.7847699505
 20
-328.9076314238
 30
1.6329625077
 11
1440.1180141502
 21
-325.846101178
 31
2.1727928923
  0
ARC
  5
24E
100
AcDbEntity
  8
L1_120
  6
CONTINUOUS
 62
         7
100
AcDbCircle
 10
1439.2727776267
 20
-322.3310807767
 30
58.7223649554
 40
2.0
210
0.0
220
-0.1736481776669303
230
0.9848077530122081
100
AcDbArc
 50
65.0
 51
90.0
  0
ARC
  5
24F
100
AcDbEntity
  8
L1_120
  6
CONTINUOUS
 62
         7
100
AcDbCircle
 10
1420.2028425579
 20
-319.3310807767
 30
58.7223649554
 40
1.0
210
0.0
220
-0.1736481776669303
230
0.9848077530122081
100
AcDbArc
 50
180.0
 51
270.0
  0
ARC
  5
250
100
AcDbEntity
  8
L1_120
  6
CONTINUOUS
 62
         7
100
AcDbCircle
 10
1420.2028425579
 20
-346.7310807767
 30
58.7223649554
 40
1.0
210
0.0
220
-0.1736481776669303
230
0.9848077530122081
100
AcDbArc
 50
90.0
 51
180.0
  0
LINE
  5
251
100
AcDbEntity
  8
L1_120
  6
CONTINUOUS
 62
         7
100
AcDbLine
 10
1425.7648425579
 20
-350.675680469
 30
-2.2053318564
 11
1427.9008425579
 21
-348.5721311086
 31
-1.8344193489
  0
LINE
  5
252
100
AcDbEntity
  8
L1_120
  6
CONTINUOUS
 62
         7
100
AcDbLine
 10
1438.5368425579
 20
-350.675680469
 30
-2.2053318564
 11
1436.4008425579
 21
-348.5721311086
 31
-1.8344193489
  0
ARC
  5
253
100
AcDbEntity
  8
L1_120
  6
CONTINUOUS
 62
         7
100
AcDbCircle
 10
1439.2727776267
 20
-343.7310807767
 30
58.7223649554
 40
2.0
210
0.0
220
-0.1736481776669303
230
0.9848077530122081
100
AcDbArc
 50
270.0
 51
295.0
  0
LINE
  5
254
100
AcDbEntity
  8
L1_120
  6
CENTER
 62
         1
100
AcDbLine
 10
1432.1508425579
 20
-351.0634258901
 30
-2.2737018358
 11
1432.1508425579
 21
-340.9777375148
 31
-0.4953228562
  0
LINE
  5
255
100
AcDbEntity
  8
L1_120
  6
CONTINUOUS
 62
         4
100
AcDbLine
 10
1436.9008425579
 20
-342.8587689295
 30
-0.8269994461
 11
1436.9008425579
 21
-349.0645349851
 31
-1.9212434377
  0
LINE
  5
256
100
AcDbEntity
  8
L1_120
  6
CONTINUOUS
 62
         7
100
AcDbLine
 10
1436.4008425579
 20
-342.8587689295
 30
-0.8269994461
 11
1436.4008425579
 21
-348.5721311086
 31
-1.8344193489
  0
LINE
  5
257
100
AcDbEntity
  8
L1_120
  6
CONTINUOUS
 62
         7
100
AcDbLine
 10
1436.4008425579
 20
-348.5721311086
 30
-1.8344193489
 11
1427.9008425579
 21
-348.5721311086
 31
-1.8344193489
  0
LINE
  5
258
100
AcDbEntity
  8
L1_120
  6
CONTINUOUS
 62
         7
100
AcDbLine
 10
1427.9008425579
 20
-348.5721311086
 30
-1.8344193489
 11
1427.9008425579
 21
-342.8587689295
 31
-0.8269994461
  0
LINE
  5
259
100
AcDbEntity
  8
L1_120
  6
CONTINUOUS
 62
         4
100
AcDbLine
 10
1427.4008425579
 20
-349.0645349851
 30
-1.9212434377
 11
1427.4008425579
 21
-342.8587689295
 31
-0.8269994461
  0
LINE
  5
25A
100
AcDbEntity
  8
L1_120
  6
CONTINUOUS
 62
         7
100
AcDbLine
 10
1321.8036852703
 20
-331.1686220058
 30
0.0
 11
1406.3590213306
 21
-331.1686220058
 31
0.0
  0
LINE
  5
25B
100
AcDbEntity
  8
L1_120
  6
CONTINUOUS
 62
         7
100
AcDbLine
 10
1321.8036852703
 20
-345.1686220058
 30
0.0
 11
1406.3590213306
 21
-345.1686220058
 31
0.0
  0
LINE
  5
25C
100
AcDbEntity
  8
L1_120
  6
CENTER
 62
         1
100
AcDbLine
 10
1312.0684106267
 20
-338.1686220058
 30
0.0
 11
1447.6508425579
 21
-338.1686220058
 31
0.0
  0
DIMENSION
  5
25F
100
AcDbEntity
  8
L1_120
  6
CONTINUOUS
 62
         4
100
AcDbDimension
  2
*D3
 10
1384.1508425579
 20
-172.9508367884
 30
-30.4958988619
 11
1409.7568368112
 21
-173.5938822228
 31
0.0
210
0.0
220
-0.1736481776669303
230
0.9848077530122081
  3
DIMSTYLE1
100
AcDbAlignedDimension
 13
1384.1508425579
 23
-195.626125203
 33
-34.4941640047
 14
1447.6508425579
 24
-217.5134775137
 34
-38.3534947534
100
AcDbRotatedDimension
  0
DIMENSION
  5
26D
100
AcDbEntity
  8
L1_120
  6
CONTINUOUS
 62
         4
100
AcDbDimension
  2
*D4
 10
1315.9008425579
 20
-160.4654058111
 30
-28.2943805148
 11
1378.4406919215
 21
-160.9158433476
 31
0.0
210
0.0
220
-0.1736481776669303
230
0.9848077530122081
  3
DIMSTYLE1
100
AcDbAlignedDimension
 13
1315.9008425579
 23
-206.4499682606
 33
-36.4026995708
 14
1447.6508425579
 24
-217.5134775137
 34
-38.3534947534
100
AcDbRotatedDimension
  0
DIMENSION
  5
27B
100
AcDbEntity
  8
L1_120
  6
CONTINUOUS
 62
         4
100
AcDbDimension
  2
*D5
 10
1473.067714928
 20
-230.020535977
 30
-40.5588266098
 11
1469.935714928
 21
-229.6948893128
 31
0.0
210
0.0
220
-0.1736481776669303
230
0.9848077530122081
  3
DIMSTYLE1
100
AcDbAlignedDimension
 13
1439.2727776267
 23
-230.020535977
 33
-40.5588266098
 14
1439.2727776267
 24
-205.0064190505
 34
-36.148162897
 50
90.0
100
AcDbRotatedDimension
  0
INSERT
  5
2D0
100
AcDbEntity
  8
0
  6
CONTINUOUS
100
AcDbBlockReference
  2
*X6
 10
0.0
 20
0.0
 30
0.0
  0
LINE
  5
2D1
100
AcDbEntity
  8
L1_120
  6
CONTINUOUS
 62
         4
100
AcDbLine
 10
1495.1410519633
 20
-303.1465167822
 30
-53.4529100165
 11
1487.038421534
 21
-303.1465167822
 31
-53.4529100165
  0
LINE
  5
2D2
100
AcDbEntity
  8
L1_120
  6
CONTINUOUS
 62
         4
100
AcDbLine
 10
1495.8522462737
 20
-302.6212192761
 30
-53.3602858933
 11
1486.3272272236
 21
-302.6212192761
 31
-53.3602858933
  0
LINE
  5
2D3
100
AcDbEntity
  8
L1_120
  6
CONTINUOUS
 62
         4
100
AcDbLine
 10
1495.1410519633
 20
-303.1465167822
 30
-53.4529100165
 11
1495.8522462737
 21
-302.6212192761
 31
-53.3602858933
  0
LINE
  5
2D4
100
AcDbEntity
  8
L1_120
  6
CONTINUOUS
 62
         4
100
AcDbLine
 10
1487.038421534
 20
-303.1465167822
 30
-53.4529100165
 11
1486.3272272236
 21
-302.6212192761
 31
-53.3602858933
  0
LINE
  5
2D5
100
AcDbEntity
  8
L1_120
  6
CONTINUOUS
 62
         4
100
AcDbLine
 10
1486.3272272236
 20
-302.6212192761
 30
-53.3602858933
 11
1486.3272272236
 21
-302.08991837
 31
-53.2666032086
  0
LINE
  5
2D6
100
AcDbEntity
  8
L1_120
  6
CONTINUOUS
 62
         4
100
AcDbLine
 10
1487.038421534
 20
-301.5586174639
 30
-53.172920524
 11
1486.3272272236
 21
-301.0273165577
 31
-53.0792378394
  0
LINE
  5
2D7
100
AcDbEntity
  8
L1_120
  6
CONTINUOUS
 62
         4
100
AcDbLine
 10
1486.3272272236
 20
-301.0273165577
 30
-53.0792378394
 11
1487.038421534
 21
-300.4960156516
 31
-52.9855551548
  0
LINE
  5
2D8
100
AcDbEntity
  8
L1_120
  6
CONTINUOUS
 62
         4
100
AcDbLine
 10
1495.8522462737
 20
-301.5586174639
 30
-53.172920524
 11
1495.1410519633
 21
-301.0273165577
 31
-53.0792378394
  0
LINE
  5
2D9
100
AcDbEntity
  8
L1_120
  6
CONTINUOUS
 62
         4
100
AcDbLine
 10
1495.1410519633
 20
-301.0273165577
 30
-53.0792378394
 11
1495.8522462737
 21
-300.4960156516
 31
-52.9855551548
  0
LINE
  5
2DA
100
AcDbEntity
  8
L1_120
  6
CONTINUOUS
 62
         4
100
AcDbLine
 10
1495.8522462737
 20
-300.4960156516
 30
-52.9855551548
 11
1486.3272272236
 21
-301.0273165577
 31
-53.0792378394
  0
LINE
  5
2DB
100
AcDbEntity
  8
L1_120
  6
CONTINUOUS
 62
         4
100
AcDbLine
 10
1495.1410519633
 20
-301.0273165577
 30
-53.0792378394
 11
1487.038421534
 21
-301.5586174639
 31
-53.172920524
  0
LINE
  5
2DC
100
AcDbEntity
  8
L1_120
  6
CONTINUOUS
 62
         4
100
AcDbLine
 10
1487.038421534
 20
-301.5586174639
 30
-53.172920524
 11
1486.3272272236
 21
-302.08991837
 31
-53.2666032086
  0
LINE
  5
2DD
100
AcDbEntity
  8
L1_120
  6
CONTINUOUS
 62
         4
100
AcDbLine
 10
1495.8522462737
 20
-301.5586174639
 30
-53.172920524
 11
1495.1410519633
 21
-302.08991837
 31
-53.2666032086
  0
LINE
  5
2DE
100
AcDbEntity
  8
L1_120
  6
CONTINUOUS
 62
         4
100
AcDbLine
 10
1495.1410519633
 20
-302.08991837
 30
-53.2666032086
 11
1495.8522462737
 21
-302.6212192761
 31
-53.3602858933
  0
LINE
  5
2DF
100
AcDbEntity
  8
L1_120
  6
CONTINUOUS
 62
         4
100
AcDbLine
 10
1495.8522462737
 20
-301.5586174639
 30
-53.172920524
 11
1486.3272272236
 21
-302.08991837
 31
-53.2666032086
  0
LINE
  5
2E0
100
AcDbEntity
  8
L1_120
  6
CONTINUOUS
 62
         4
100
AcDbLine
 10
1495.1410519633
 20
-302.08991837
 30
-53.2666032086
 11
1487.577918613
 21
-302.6212192761
 31
-53.3602858933
  0
LINE
  5
2E1
100
AcDbEntity
  8
L1_120
  6
CONTINUOUS
 62
         4
100
AcDbLine
 10
1495.8522462737
 20
-302.6212192761
 30
-53.3602858933
 11
1487.577918613
 21
-302.6212192761
 31
-53.3602858933
  0
LINE
  5
2E2
100
AcDbEntity
  8
L1_120
  6
CONTINUOUS
 62
         4
100
AcDbLine
 10
1487.038421534
 20
-300.4960156516
 30
-52.9855551548
 11
1486.3272272236
 21
-299.9647147455
 31
-52.8918724701
  0
LINE
  5
2E3
100
AcDbEntity
  8
L1_120
  6
CONTINUOUS
 62
         4
100
AcDbLine
 10
1486.3272272236
 20
-299.9647147455
 30
-52.8918724701
 11
1487.038421534
 21
-299.4334138394
 31
-52.7981897855
  0
LINE
  5
2E4
100
AcDbEntity
  8
L1_120
  6
CONTINUOUS
 62
         4
100
AcDbLine
 10
1495.8522462737
 20
-300.4960156516
 30
-52.9855551548
 11
1495.1410519633
 21
-299.9647147455
 31
-52.8918724701
  0
LINE
  5
2E5
100
AcDbEntity
  8
L1_120
  6
CONTINUOUS
 62
         4
100
AcDbLine
 10
1495.1410519633
 20
-299.9647147455
 30
-52.8918724701
 11
1495.8522462737
 21
-299.4334138394
 31
-52.7981897855
  0
LINE
  5
2E6
100
AcDbEntity
  8
L1_120
  6
CONTINUOUS
 62
         4
100
AcDbLine
 10
1495.8522462737
 20
-299.4334138394
 30
-52.7981897855
 11
1486.3272272236
 21
-299.9647147455
 31
-52.8918724701
  0
LINE
  5
2E7
100
AcDbEntity
  8
L1_120
  6
CONTINUOUS
 62
         4
100
AcDbLine
 10
1495.1410519633
 20
-299.9647147455
 30
-52.8918724701
 11
1487.038421534
 21
-300.4960156516
 31
-52.9855551548
  0
LINE
  5
2E8
100
AcDbEntity
  8
L1_120
  6
CONTINUOUS
 62
         4
100
AcDbLine
 10
1487.038421534
 20
-301.5586174639
 30
-53.172920524
 11
1486.3272272236
 21
-302.08991837
 31
-53.2666032086
  0
LINE
  5
2E9
100
AcDbEntity
  8
L1_120
  6
CONTINUOUS
 62
         4
100
AcDbLine
 10
1495.8522462737
 20
-301.5586174639
 30
-53.172920524
 11
1495.1410519633
 21
-302.08991837
 31
-53.2666032086
  0
LINE
  5
2EA
100
AcDbEntity
  8
L1_120
  6
CONTINUOUS
 62
         4
100
AcDbLine
 10
1495.1410519633
 20
-302.08991837
 30
-53.2666032086
 11
1495.8522462737
 21
-302.6212192761
 31
-53.3602858933
  0
LINE
  5
2EB
100
AcDbEntity
  8
L1_120
  6
CONTINUOUS
 62
         4
100
AcDbLine
 10
1495.8522462737
 20
-301.5586174639
 30
-53.172920524
 11
1486.3272272236
 21
-302.08991837
 31
-53.2666032086
  0
LINE
  5
2EC
100
AcDbEntity
  8
L1_120
  6
CONTINUOUS
 62
         4
100
AcDbLine
 10
1495.1410519633
 20
-302.08991837
 30
-53.2666032086
 11
1487.577918613
 21
-302.6212192761
 31
-53.3602858933
  0
LINE
  5
2ED
100
AcDbEntity
  8
L1_120
  6
CONTINUOUS
 62
         4
100
AcDbLine
 10
1495.8522462737
 20
-302.6212192761
 30
-53.3602858933
 11
1487.577918613
 21
-302.6212192761
 31
-53.3602858933
  0
LINE
  5
2EE
100
AcDbEntity
  8
L1_120
  6
CONTINUOUS
 62
         4
100
AcDbLine
 10
1487.038421534
 20
-299.4334138394
 30
-52.7981897855
 11
1486.3272272236
 21
-298.9021129333
 31
-52.7045071009
  0
LINE
  5
2EF
100
AcDbEntity
  8
L1_120
  6
CONTINUOUS
 62
         4
100
AcDbLine
 10
1486.3272272236
 20
-298.9021129333
 30
-52.7045071009
 11
1487.038421534
 21
-298.3708120271
 31
-52.6108244163
  0
LINE
  5
2F0
100
AcDbEntity
  8
L1_120
  6
CONTINUOUS
 62
         4
100
AcDbLine
 10
1495.8522462737
 20
-299.4334138394
 30
-52.7981897855
 11
1495.1410519633
 21
-298.9021129333
 31
-52.7045071009
  0
LINE
  5
2F1
100
AcDbEntity
  8
L1_120
  6
CONTINUOUS
 62
         4
100
AcDbLine
 10
1495.1410519633
 20
-298.9021129333
 30
-52.7045071009
 11
1495.8522462737
 21
-298.3708120271
 31
-52.6108244163
  0
LINE
  5
2F2
100
AcDbEntity
  8
L1_120
  6
CONTINUOUS
 62
         4
100
AcDbLine
 10
1495.8522462737
 20
-298.3708120271
 30
-52.6108244163
 11
1486.3272272236
 21
-298.9021129333
 31
-52.7045071009
  0
LINE
  5
2F3
100
AcDbEntity
  8
L1_120
  6
CONTINUOUS
 62
         4
100
AcDbLine
 10
1495.1410519633
 20
-298.9021129333
 30
-52.7045071009
 11
1487.038421534
 21
-299.4334138394
 31
-52.7981897855
  0
LINE
  5
2F4
100
AcDbEntity
  8
L1_120
  6
CONTINUOUS
 62
         4
100
AcDbLine
 10
1487.038421534
 20
-301.5586174639
 30
-53.172920524
 11
1486.3272272236
 21
-302.08991837
 31
-53.2666032086
  0
LINE
  5
2F5
100
AcDbEntity
  8
L1_120
  6
CONTINUOUS
 62
         4
100
AcDbLine
 10
1495.8522462737
 20
-301.5586174639
 30
-53.172920524
 11
1495.1410519633
 21
-302.08991837
 31
-53.2666032086
  0
LINE
  5
2F6
100
AcDbEntity
  8
L1_120
  6
CONTINUOUS
 62
         4
100
AcDbLine
 10
1495.1410519633
 20
-302.08991837
 30
-53.2666032086
 11
1495.8522462737
 21
-302.6212192761
 31
-53.3602858933
  0
LINE
  5
2F7
100
AcDbEntity
  8
L1_120
  6
CONTINUOUS
 62
         4
100
AcDbLine
 10
1495.8522462737
 20
-301.5586174639
 30
-53.172920524
 11
1486.3272272236
 21
-302.08991837
 31
-53.2666032086
  0
LINE
  5
2F8
100
AcDbEntity
  8
L1_120
  6
CONTINUOUS
 62
         4
100
AcDbLine
 10
1495.1410519633
 20
-302.08991837
 30
-53.2666032086
 11
1487.577918613
 21
-302.6212192761
 31
-53.3602858933
  0
LINE
  5
2F9
100
AcDbEntity
  8
L1_120
  6
CONTINUOUS
 62
         4
100
AcDbLine
 10
1495.8522462737
 20
-302.6212192761
 30
-53.3602858933
 11
1487.577918613
 21
-302.6212192761
 31
-53.3602858933
  0
LINE
  5
2FA
100
AcDbEntity
  8
L1_120
  6
CONTINUOUS
 62
         4
100
AcDbLine
 10
1487.038421534
 20
-298.3708120271
 30
-52.6108244163
 11
1486.3272272236
 21
-297.839511121
 31
-52.5171417317
  0
LINE
  5
2FB
100
AcDbEntity
  8
L1_120
  6
CONTINUOUS
 62
         4
100
AcDbLine
 10
1486.3272272236
 20
-297.839511121
 30
-52.5171417317
 11
1487.038421534
 21
-297.3082102149
 31
-52.423459047
  0
LINE
  5
2FC
100
AcDbEntity
  8
L1_120
  6
CONTINUOUS
 62
         4
100
AcDbLine
 10
1495.8522462737
 20
-298.3708120271
 30
-52.6108244163
 11
1495.1410519633
 21
-297.839511121
 31
-52.5171417317
  0
LINE
  5
2FD
100
AcDbEntity
  8
L1_120
  6
CONTINUOUS
 62
         4
100
AcDbLine
 10
1495.1410519633
 20
-297.839511121
 30
-52.5171417317
 11
1495.8522462737
 21
-297.3082102149
 31
-52.423459047
  0
LINE
  5
2FE
100
AcDbEntity
  8
L1_120
  6
CONTINUOUS
 62
         4
100
AcDbLine
 10
1495.8522462737
 20
-297.3082102149
 30
-52.423459047
 11
1486.3272272236
 21
-297.839511121
 31
-52.5171417317
  0
LINE
  5
2FF
100
AcDbEntity
  8
L1_120
  6
CONTINUOUS
 62
         4
100
AcDbLine
 10
1495.1410519633
 20
-297.839511121
 30
-52.5171417317
 11
1487.038421534
 21
-298.3708120271
 31
-52.6108244163
  0
LINE
  5
300
100
AcDbEntity
  8
L1_120
  6
CONTINUOUS
 62
         4
100
AcDbLine
 10
1488.3973313638
 20
-295.2695556081
 30
-52.0639892355
 11
1493.7821421335
 21
-295.2695556081
 31
-52.0639892355
  0
LINE
  5
301
100
AcDbEntity
  8
L1_120
  6
CONTINUOUS
 62
         4
100
AcDbLine
 10
1486.3272272236
 20
-297.3082102149
 30
-52.423459047
 11
1495.8522462737
 21
-297.3082102149
 31
-52.423459047
  0
LINE
  5
302
100
AcDbEntity
  8
L1_120
  6
CONTINUOUS
 62
         4
100
AcDbLine
 10
1488.3973313638
 20
-295.2695556081
 30
-52.0639892355
 11
1486.3272272236
 21
-297.3082102149
 31
-52.423459047
  0
LINE
  5
303
100
AcDbEntity
  8
L1_120
  6
CONTINUOUS
 62
         4
100
AcDbLine
 10
1493.7821421335
 20
-295.2695556081
 30
-52.0639892355
 11
1495.8522462737
 21
-297.3082102149
 31
-52.423459047
  0
LINE
  5
304
100
AcDbEntity
  8
L1_120
  6
DASHED
 62
         2
100
AcDbLine
 10
1488.3327682293
 20
-298.4438533946
 30
-52.6237035801
 11
1493.846705268
 21
-298.4438533946
 31
-52.6237035801
  0
LINE
  5
305
100
AcDbEntity
  8
L1_120
  6
DASHED
 62
         2
100
AcDbLine
 10
1488.3327682293
 20
-303.1465167822
 30
-53.4529100165
 11
1488.3327682293
 21
-298.4438533946
 31
-52.6237035801
  0
LINE
  5
306
100
AcDbEntity
  8
L1_120
  6
DASHED
 62
         2
100
AcDbLine
 10
1493.846705268
 20
-303.1465167822
 30
-53.4529100165
 11
1493.846705268
 21
-298.4438533946
 31
-52.6237035801
  0
LINE
  5
307
100
AcDbEntity
  8
L1_120
  6
DASHED
 62
         2
100
AcDbLine
 10
1489.711252489
 20
-303.1465167822
 30
-53.4529100165
 11
1489.711252489
 21
-298.4438533946
 31
-52.6237035801
  0
LINE
  5
308
100
AcDbEntity
  8
L1_120
  6
DASHED
 62
         2
100
AcDbLine
 10
1492.4682210083
 20
-303.1465167822
 30
-53.4529100165
 11
1492.4682210083
 21
-298.4438533946
 31
-52.6237035801
  0
DIMENSION
  5
30B
100
AcDbEntity
  8
L1_120
  6
CONTINUOUS
 62
         4
100
AcDbDimension
  2
*D7
 10
1486.3272272236
 20
-289.0826431939
 30
-50.9730696496
 11
1478.4921395986
 21
-291.5172089333
 31
0.0
210
0.0
220
-0.1736481776669303
230
0.9848077530122081
  3
DIMSTYLE1
100
AcDbAlignedDimension
 13
1486.3272272236
 23
-297.3082102149
 33
-52.423459047
 14
1495.8522462737
 24
-297.3082102149
 34
-52.423459047
100
AcDbRotatedDimension
  0
DIMENSION
  5
319
100
AcDbEntity
  8
L1_120
  6
CONTINUOUS
 62
         4
100
AcDbDimension
  2
*D8
 10
1488.3184554565
 20
-312.9061382409
 30
-55.1737946012
 11
1496.0610858755
 21
-315.7082197922
 31
0.0
210
0.0
220
-0.1736481776669303
230
0.9848077530122081
  3
DIMSTYLE1
100
AcDbAlignedDimension
 13
1488.3184554565
 23
-303.1465167822
 33
-53.4529100165
 14
1493.8610180407
 24
-303.1465167822
 34
-53.4529100165
100
AcDbRotatedDimension
  0
LINE
  5
327
100
AcDbEntity
  8
L1_120
  6
CENTER
 62
         1
100
AcDbLine
 10
1491.0897367486
 20
-305.5619434524
 30
-53.8788149084
 11
1491.0897367486
 21
-294.0370450668
 31
-51.8466643731
  0
DIMENSION
  5
32A
100
AcDbEntity
  8
L1_120
  6
CONTINUOUS
 62
         4
100
AcDbDimension
  2
*D9
 10
1480.6538954644
 20
-295.2695556081
 30
-52.0639892355
 11
1478.6288954644
 21
-304.9160378958
 31
0.0
210
0.0
220
-0.1736481776669303
230
0.9848077530122081
  3
DIMSTYLE1
100
AcDbAlignedDimension
 13
1488.3973313638
 23
-295.2695556081
 33
-52.0639892355
 14
1487.038421534
 24
-303.1465167822
 34
-53.4529100165
 50
90.0
100
AcDbRotatedDimension
  0
CIRCLE
  5
336
100
AcDbEntity
  8
L1_120
  6
DASHED
 62
         2
100
AcDbCircle
 10
1517.4308425579
 20
-220.8689735113
 30
38.9451592314
 40
7.055
210
0.0
220
-0.1736481776669303
230
0.9848077530122081
  0
ARC
  5
337
100
AcDbEntity
  8
L1_120
  6
CONTINUOUS
 62
         7
100
AcDbCircle
 10
1517.4308425579
 20
-220.8689735113
 30
38.9451592314
 40
4.7625
210
0.0
220
-0.1736481776669303
230
0.9848077530122081
100
AcDbArc
 50
18.1213496624
 51
161.8786503376
  0
ARC
  5
338
100
AcDbEntity
  8
L1_120
  6
CONTINUOUS
 62
         7
100
AcDbCircle
 10
1522.1933425579
 20
-220.8689735113
 30
38.9451592314
 40
1.5
210
0.0
220
-0.1736481776669303
230
0.9848077530122081
100
AcDbArc
 50
260.9393251688
 51
459.0606748312
  0
ARC
  5
339
100
AcDbEntity
  8
L1_120
  6
CONTINUOUS
 62
         7
100
AcDbCircle
 10
1512.6683425579
 20
-220.8689735113
 30
38.9451592314
 40
1.5
210
0.0
220
-0.1736481776669303
230
0.9848077530122081
100
AcDbArc
 50
80.9393251688
 51
279.0606748312
  0
LINE
  5
33A
100
AcDbEntity
  8
L1_120
  6
DASHED
 62
         2
100
AcDbLine
 10
1521.6808425579
 20
-234.5027370204
 30
-1.803208499
 11
1522.8039536046
 21
-235.6087854868
 31
-1.9982346856
  0
LINE
  5
33B
100
AcDbEntity
  8
L1_120
  6
DASHED
 62
         2
100
AcDbLine
 10
1513.1808425579
 20
-234.5027370204
 30
-1.803208499
 11
1512.0577315111
 21
-235.6087854868
 31
-1.9982346856
  0
LINE
  5
33C
100
AcDbEntity
  8
L1_120
  6
CENTER
 62
         1
100
AcDbLine
 10
1517.4308425579
 20
-237.4277922941
 30
-2.3189746638
 11
1517.4308425579
 21
-211.556786563
 31
2.2427816647
  0
LINE
  5
33D
100
AcDbEntity
  8
L1_120
  6
CENTER
 62
         1
100
AcDbLine
 10
1531.421580482
 20
-224.2762334432
 30
0.0
 11
1503.36088094
 21
-224.2762334432
 31
0.0
  0
CIRCLE
  5
33E
100
AcDbEntity
  8
L1_120
  6
CONTINUOUS
 62
         7
100
AcDbCircle
 10
1517.4308425579
 20
-220.8689735113
 30
38.9451592314
 40
12.7
210
0.0
220
-0.1736481776669303
230
0.9848077530122081
  0
ARC
  5
33F
100
AcDbEntity
  8
L1_120
  6
DASHED
 62
         2
100
AcDbCircle
 10
1517.4308425579
 20
-200.5489735113
 30
38.9451592314
 40
10.0
210
0.0
220
-0.1736481776669303
230
0.9848077530122081
100
AcDbArc
 50
239.9041784303
 51
300.0958215697
  0
CIRCLE
  5
340
100
AcDbEntity
  8
L1_120
  6
CONTINUOUS
 62
         7
100
AcDbCircle
 10
1517.4308425579
 20
-220.8689735113
 30
38.9451592314
 40
9.0
210
0.0
220
-0.1736481776669303
230
0.9848077530122081
  0
ARC
  5
341
100
AcDbEntity
  8
L1_120
  6
CONTINUOUS
 62
         7
100
AcDbCircle
 10
1517.4308425579
 20
-220.8689735113
 30
38.9451592314
 40
4.7625
210
0.0
220
-0.1736481776669303
230
0.9848077530122081
100
AcDbArc
 50
198.1213496624
 51
341.8786503376
  0
LINE
  5
342
100
AcDbEntity
  8
L1_120
  6
DASHED
 62
         2
100
AcDbLine
 10
1521.6808425579
 20
-234.5027370204
 30
-1.803208499
 11
1513.1808425579
 21
-234.5027370204
 31
-1.803208499
  0
LINE
  5
343
100
AcDbEntity
  8
L1_120
  6
DASHED
 62
         2
100
AcDbLine
 10
1521.6808425579
 20
-226.3927468934
 30
-0.3731984263
 11
1521.6808425579
 21
-234.5027370204
 31
-1.803208499
  0
LINE
  5
344
100
AcDbEntity
  8
L1_120
  6
DASHED
 62
         2
100
AcDbLine
 10
1522.1808425579
 20
-224.6158225889
 30
-0.0598787287
 11
1522.1808425579
 21
-234.995140897
 31
-1.8900325878
  0
LINE
  5
345
100
AcDbEntity
  8
L1_120
  6
DASHED
 62
         2
100
AcDbLine
 10
1513.1808425579
 20
-234.5027370204
 30
-1.803208499
 11
1513.1808425579
 21
-226.3927468934
 31
-0.3731984263
  0
LINE
  5
346
100
AcDbEntity
  8
L1_120
  6
DASHED
 62
         2
100
AcDbLine
 10
1512.6808425579
 20
-234.995140897
 30
-1.8900325878
 11
1512.6808425579
 21
-224.6158225889
 31
-0.0598787287
  0
LINE
  5
347
100
AcDbEntity
  8
L1_120
  6
CONTINUOUS
 62
         7
100
AcDbLine
 10
1492.4308425579
 20
-219.1552331276
 30
0.9029705239
 11
1492.4308425579
 21
-229.3972337589
 31
-0.9029705239
  0
LINE
  5
348
100
AcDbEntity
  8
L1_120
  6
DASHED
 62
         2
100
AcDbLine
 10
1493.5997515957
 20
-209.5667943189
 30
2.5936709887
 11
1500.4638729092
 21
-213.1610649434
 31
1.9599041016
  0
LINE
  5
349
100
AcDbEntity
  8
L1_120
  6
DASHED
 62
         2
100
AcDbLine
 10
1500.5444698444
 20
-215.4339955767
 30
1.5591251057
 11
1500.4638729092
 21
-213.1610649434
 31
1.9599041016
  0
LINE
  5
34A
100
AcDbEntity
  8
L1_120
  6
DASHED
 62
         2
100
AcDbLine
 10
1498.585986658
 20
-216.6391994832
 30
1.3466151397
 11
1500.5444698444
 21
-215.4339955767
 31
1.5591251057
  0
LINE
  5
34B
100
AcDbEntity
  8
L1_120
  6
DASHED
 62
         2
100
AcDbLine
 10
1498.585986658
 20
-216.6391994832
 30
1.3466151397
 11
1500.4638729092
 21
-213.1610649434
 31
1.9599041016
  0
LINE
  5
34C
100
AcDbEntity
  8
L1_120
  6
DASHED
 62
         2
100
AcDbLine
 10
1491.7218653445
 20
-213.0449288587
 30
1.9803820268
 11
1498.585986658
 21
-216.6391994832
 31
1.3466151397
  0
LINE
  5
34D
100
AcDbEntity
  8
L1_120
  6
DASHED
 62
         2
100
AcDbLine
 10
1498.585986658
 20
-231.9132674032
 30
-1.3466151397
 11
1500.5444698444
 21
-233.1184713097
 31
-1.5591251057
  0
LINE
  5
34E
100
AcDbEntity
  8
L1_120
  6
DASHED
 62
         2
100
AcDbLine
 10
1500.5444698444
 20
-233.1184713097
 30
-1.5591251057
 11
1500.4638729092
 21
-235.391401943
 31
-1.9599041016
  0
LINE
  5
34F
100
AcDbEntity
  8
L1_120
  6
DASHED
 62
         2
100
AcDbLine
 10
1498.585986658
 20
-231.9132674032
 30
-1.3466151397
 11
1500.4638729092
 21
-235.391401943
 31
-1.9599041016
  0
LINE
  5
350
100
AcDbEntity
  8
L1_120
  6
DASHED
 62
         2
100
AcDbLine
 10
1493.5997515957
 20
-238.9856725676
 30
-2.5936709887
 11
1500.4638729092
 21
-235.391401943
 31
-1.9599041016
  0
LINE
  5
351
100
AcDbEntity
  8
L1_120
  6
DASHED
 62
         2
100
AcDbLine
 10
1491.7218653445
 20
-235.5075380278
 30
-1.9803820268
 11
1498.585986658
 21
-231.9132674032
 31
-1.3466151397
  0
LINE
  5
352
100
AcDbEntity
  8
L1_120
  6
CENTER
 62
         1
100
AcDbLine
 10
1484.0698934993
 20
-241.7450795971
 30
-3.0802288988
 11
1517.4044130876
 21
-224.2900727483
 31
-0.0024402429
  0
LINE
  5
353
100
AcDbEntity
  8
L1_120
  6
DASHED
 62
         2
100
AcDbLine
 10
1492.6308425579
 20
-229.2002722083
 30
-0.8682408883
 11
1496.8808425579
 21
-229.2002722083
 31
-0.8682408883
  0
LINE
  5
354
100
AcDbEntity
  8
L1_120
  6
DASHED
 62
         2
100
AcDbLine
 10
1492.6308425579
 20
-219.3521946782
 30
0.8682408883
 11
1496.8808425579
 21
-219.3521946782
 31
0.8682408883
  0
LINE
  5
355
100
AcDbEntity
  8
L1_120
  6
DASHED
 62
         2
100
AcDbLine
 10
1497.0808425579
 20
-219.5491562288
 30
0.8335112528
 11
1497.0808425579
 21
-229.0033106577
 31
-0.8335112528
  0
ARC
  5
356
100
AcDbEntity
  8
L1_120
  6
DASHED
 62
         2
100
AcDbCircle
 10
1496.8808425579
 20
-216.0689735113
 30
38.9451592314
 40
0.2
210
0.0
220
-0.1736481776669303
230
0.9848077530122081
100
AcDbArc
 50
0.0
 51
90.0
  0
ARC
  5
357
100
AcDbEntity
  8
L1_120
  6
DASHED
 62
         2
100
AcDbCircle
 10
1496.8808425579
 20
-225.6689735113
 30
38.9451592314
 40
0.2
210
0.0
220
-0.1736481776669303
230
0.9848077530122081
100
AcDbArc
 50
270.0
 51
360.0
  0
LINE
  5
358
100
AcDbEntity
  8
L1_120
  6
DASHED
 62
         2
100
AcDbLine
 10
1492.6308425579
 20
-219.3521946782
 30
0.8682408883
 11
1492.6308425579
 21
-229.2002722083
 31
-0.8682408883
  0
LINE
  5
359
100
AcDbEntity
  8
L1_120
  6
DASHED
 62
         2
100
AcDbLine
 10
1492.4308425579
 20
-219.1552331276
 30
0.9029705239
 11
1492.6308425579
 21
-219.3521946782
 31
0.8682408883
  0
LINE
  5
35A
100
AcDbEntity
  8
L1_120
  6
DASHED
 62
         2
100
AcDbLine
 10
1492.4308425579
 20
-229.3972337589
 30
-0.9029705239
 11
1492.6308425579
 21
-229.2002722083
 31
-0.8682408883
  0
LINE
  5
35B
100
AcDbEntity
  8
L1_120
  6
CENTER
 62
         1
100
AcDbLine
 10
1484.0698934993
 20
-206.8073872893
 30
3.0802288988
 11
1517.4044130876
 21
-224.2623941382
 31
0.0024402429
  0
CIRCLE
  5
35C
100
AcDbEntity
  8
L1_120
  6
CONTINUOUS
 62
         7
100
AcDbCircle
 10
1517.4308425579
 20
-220.8689735113
 30
38.9451592314
 40
22.225
210
0.0
220
-0.1736481776669303
230
0.9848077530122081
  0
ARC
  5
35D
100
AcDbEntity
  8
L1_120
  6
CONTINUOUS
 62
         7
100
AcDbCircle
 10
1517.4308425579
 20
-220.8689735113
 30
38.9451592314
 40
31.775
210
0.0
220
-0.1736481776669303
230
0.9848077530122081
100
AcDbArc
 50
195.411296411
 51
344.588703589
  0
ARC
  5
35E
100
AcDbEntity
  8
L1_120
  6
CONTINUOUS
 62
         7
100
AcDbCircle
 10
1517.4308425579
 20
-220.8689735113
 30
38.9451592314
 40
31.775
210
0.0
220
-0.1736481776669303
230
0.9848077530122081
100
AcDbArc
 50
15.411296411
 51
164.588703589
  0
LINE
  5
35F
100
AcDbEntity
  8
L1_120
  6
CENTER
 62
         1
100
AcDbLine
 10
1517.4308425579
 20
-190.0295438322
 30
6.0386153784
 11
1517.4308425579
 21
-258.5229230542
 31
-6.0386153784
  0
ARC
  5
360
100
AcDbEntity
  8
L1_120
  6
DASHED
 62
         2
100
AcDbCircle
 10
1517.4308425579
 20
-220.8689735113
 30
38.9451592314
 40
28.125
210
0.0
220
-0.1736481776669303
230
0.9848077530122081
100
AcDbArc
 50
16.6319205355
 51
163.3680794645
  0
ARC
  5
361
100
AcDbEntity
  8
L1_120
  6
DASHED
 62
         2
100
AcDbCircle
 10
1517.4308425579
 20
-220.8689735113
 30
38.9451592314
 40
28.125
210
0.0
220
-0.1736481776669303
230
0.9848077530122081
100
AcDbArc
 50
198.3406919436
 51
343.3680794645
  0
LINE
  5
362
100
AcDbEntity
  8
L1_120
  6
CONTINUOUS
 62
         7
100
AcDbLine
 10
1540.2308425579
 20
-216.840934908
 30
1.3110437414
 11
1540.2308425579
 21
-231.7115319785
 31
-1.3110437414
  0
LINE
  5
363
100
AcDbEntity
  8
L1_120
  6
CONTINUOUS
 62
         7
100
AcDbLine
 10
1540.2308425579
 20
-216.840934908
 30
1.3110437414
 11
1540.7308425579
 21
-216.3485310315
 31
1.3978678302
  0
LINE
  5
364
100
AcDbEntity
  8
L1_120
  6
CONTINUOUS
 62
         7
100
AcDbLine
 10
1540.7308425579
 20
-216.3485310315
 30
1.3978678302
 11
1547.6692245094
 21
-216.3485310315
 31
1.3978678302
  0
LINE
  5
365
100
AcDbEntity
  8
L1_120
  6
CONTINUOUS
 62
         7
100
AcDbLine
 10
1548.0633097906
 20
-215.9604327912
 30
1.4663000211
 11
1547.6692245094
 21
-216.3485310315
 31
1.3978678302
  0
LINE
  5
366
100
AcDbEntity
  8
L1_120
  6
CONTINUOUS
 62
         7
100
AcDbLine
 10
1540.7308425579
 20
-232.203935855
 30
-1.3978678302
 11
1547.6692245094
 21
-232.203935855
 31
-1.3978678302
  0
LINE
  5
367
100
AcDbEntity
  8
L1_120
  6
CONTINUOUS
 62
         7
100
AcDbLine
 10
1540.2308425579
 20
-231.7115319785
 30
-1.3110437414
 11
1540.7308425579
 21
-232.203935855
 31
-1.3978678302
  0
LINE
  5
368
100
AcDbEntity
  8
L1_120
  6
CONTINUOUS
 62
         7
100
AcDbLine
 10
1548.0633097906
 20
-232.5920340952
 30
-1.4663000211
 11
1547.6692245094
 21
-232.203935855
 31
-1.3978678302
  0
LINE
  5
369
100
AcDbEntity
  8
L1_120
  6
CONTINUOUS
 62
         7
100
AcDbLine
 10
1487.1924606063
 20
-216.3485310315
 30
1.3978678302
 11
1491.9308425579
 21
-216.3485310315
 31
1.3978678302
  0
LINE
  5
36A
100
AcDbEntity
  8
L1_120
  6
CONTINUOUS
 62
         7
100
AcDbLine
 10
1492.4308425579
 20
-216.840934908
 30
1.3110437414
 11
1492.4308425579
 21
-231.7115319785
 31
-1.3110437414
  0
LINE
  5
36B
100
AcDbEntity
  8
L1_120
  6
CONTINUOUS
 62
         7
100
AcDbLine
 10
1492.4308425579
 20
-216.840934908
 30
1.3110437414
 11
1491.9308425579
 21
-216.3485310315
 31
1.3978678302
  0
LINE
  5
36C
100
AcDbEntity
  8
L1_120
  6
CONTINUOUS
 62
         7
100
AcDbLine
 10
1486.7983753251
 20
-215.9604327912
 30
1.4663000211
 11
1487.1924606063
 21
-216.3485310315
 31
1.3978678302
  0
LINE
  5
36D
100
AcDbEntity
  8
L1_120
  6
CONTINUOUS
 62
         7
100
AcDbLine
 10
1492.4308425579
 20
-231.7115319785
 30
-1.3110437414
 11
1491.9308425579
 21
-232.203935855
 31
-1.3978678302
  0
LINE
  5
36E
100
AcDbEntity
  8
L1_120
  6
CONTINUOUS
 62
         7
100
AcDbLine
 10
1486.7983753251
 20
-232.5920340952
 30
-1.4663000211
 11
1487.1924606063
 21
-232.203935855
 31
-1.3978678302
  0
LINE
  5
36F
100
AcDbEntity
  8
L1_120
  6
CONTINUOUS
 62
         7
100
AcDbLine
 10
1487.1924606063
 20
-232.203935855
 30
-1.3978678302
 11
1491.9308425579
 21
-232.203935855
 31
-1.3978678302
  0
LINE
  5
370
100
AcDbEntity
  8
L1_120
  6
CENTER
 62
         1
100
AcDbLine
 10
1490.9384549766
 20
-224.2762334432
 30
0.0
 11
1544.9169119571
 21
-224.2762334432
 31
0.0
  0
LINE
  5
371
100
AcDbEntity
  8
L1_120
  6
CENTER
 62
         1
100
AcDbLine
 10
1531.421580482
 20
-224.2762334432
 30
0.0
 11
1503.36088094
 21
-224.2762334432
 31
0.0
  0
LINE
  5
372
100
AcDbEntity
  8
L1_120
  6
CENTER
 62
         1
100
AcDbLine
 10
1505.5370920737
 20
-192.0948719294
 30
5.6744423108
 11
1529.4717158171
 21
-256.8556705026
 31
-5.7446337699
  0
LINE
  5
373
100
AcDbEntity
  8
L1_120
  6
DASHED
 62
         2
100
AcDbLine
 10
1511.1517481279
 20
-201.5278844331
 30
4.0111476971
 11
1509.7152635259
 21
-197.6411348038
 31
4.696486524
  0
LINE
  5
374
100
AcDbEntity
  8
L1_120
  6
DASHED
 62
         2
100
AcDbLine
 10
1507.3929776447
 20
-202.8751807884
 30
3.7735829986
 11
1505.9564930428
 21
-198.9884311591
 31
4.4589218255
  0
LINE
  5
375
100
AcDbEntity
  8
L1_120
  6
DASHED
 62
         2
100
AcDbLine
 10
1510.8228557106
 20
-201.6457728642
 30
3.9903607859
 11
1515.9553267814
 21
-215.5328900699
 31
1.5416873383
  0
LINE
  5
376
100
AcDbEntity
  8
L1_120
  6
DASHED
 62
         2
100
AcDbLine
 10
1507.721870062
 20
-202.7572923573
 30
3.7943699097
 11
1512.8543411328
 21
-216.644409563
 31
1.3456964621
  0
LINE
  5
377
100
AcDbEntity
  8
L1_120
  6
DASHED
 62
         2
100
AcDbLine
 10
1511.1517481279
 20
-201.5278844331
 30
4.0111476971
 11
1507.3929776447
 21
-202.8751807884
 31
3.7735829986
  0
LINE
  5
378
100
AcDbEntity
  8
L1_120
  6
DASHED
 62
         2
100
AcDbLine
 10
1523.7099369879
 20
-247.0245824534
 30
-4.0111476971
 11
1525.1464215898
 21
-250.9113320826
 31
-4.696486524
  0
LINE
  5
379
100
AcDbEntity
  8
L1_120
  6
DASHED
 62
         2
100
AcDbLine
 10
1527.468707471
 20
-245.677286098
 30
-3.7735829986
 11
1523.7099369879
 21
-247.0245824534
 31
-4.0111476971
  0
LINE
  5
37A
100
AcDbEntity
  8
L1_120
  6
DASHED
 62
         2
100
AcDbLine
 10
1527.468707471
 20
-245.677286098
 30
-3.7735829986
 11
1528.905192073
 21
-249.5640357273
 31
-4.4589218255
  0
LINE
  5
37B
100
AcDbEntity
  8
L1_120
  6
DASHED
 62
         2
100
AcDbLine
 10
1522.0073439829
 20
-231.9080573234
 30
-1.3456964621
 11
1527.1398150537
 21
-245.7951745291
 31
-3.7943699097
  0
LINE
  5
37C
100
AcDbEntity
  8
L1_120
  6
DASHED
 62
         2
100
AcDbLine
 10
1518.9063583343
 20
-233.0195768166
 30
-1.5416873383
 11
1524.0388294051
 21
-246.9066940223
 31
-3.9903607859
  0
TEXT
  5
37E
100
AcDbEntity
  8
L1_120
  6
CONTINUOUS
 62
         2
100
AcDbText
 10
1493.0183637719
 20
-171.8823343647
 30
0.0
 40
4.5
  1
522032
 41
0.98
  7
BOX
100
AcDbText
  0
ENDSEC
  0
SECTION
  2
OBJECTS
  0
DICTIONARY
  5
19
100
AcDbDictionary
  3
ACAD_GROUP
350
1A
  3
ACAD_MLINESTYLE
350
1B
  0
DICTIONARY
  5
1A
102
{ACAD_REACTORS
330
19
102
}
100
AcDbDictionary
  0
DICTIONARY
  5
1B
102
{ACAD_REACTORS
330
19
102
}
100
AcDbDictionary
  3
STANDARD
350
1C
  0
MLINESTYLE
  5
1C
102
{ACAD_REACTORS
330
1B
102
}
100
AcDbMlineStyle
  2
STANDARD
 70
         0
  3

 62
         0
 51
90.0
 52
90.0
 71
         2
 49
0.5
 62
       256
  6
BYLAYER
 49
-0.5
 62
       256
  6
BYLAYER
  0
ENDSEC
  0
EOF
