  0
SECTION
  2
HEADER
  9
$ACADVER
  1
AC1014
  9
$ACADMAINTVER
 70
         0
  9
$DWGCODEPAGE
  3
BIG5
  9
$INSBASE
 10
0.0
 20
0.0
 30
0.0
  9
$EXTMIN
 10
1053.4504513475
 20
-408.4919111257
 30
0.0
  9
$EXTMAX
 10
1758.8748030125
 20
-64.1268038462
 30
0.0
  9
$LIMMIN
 10
0.0
 20
0.0
  9
$LIMMAX
 10
0.0
 20
0.0
  9
$ORTHOMODE
 70
         0
  9
$REGENMODE
 70
         1
  9
$FILLMODE
 70
         1
  9
$QTEXTMODE
 70
         0
  9
$MIRRTEXT
 70
         1
  9
$DRAGMODE
 70
         2
  9
$LTSCALE
 40
1.0
  9
$OSMODE
 70
         0
  9
$ATTMODE
 70
         1
  9
$TEXTSIZE
 40
1.7
  9
$TRACEWID
 40
0.05
  9
$TEXTSTYLE
  7
STANDARD
  9
$CLAYER
  8
0
  9
$CELTYPE
  6
CONTINUOUS
  9
$CECOLOR
 62
         1
  9
$CELTSCALE
 40
1.0
  9
$DELOBJ
 70
         1
  9
$DISPSILH
 70
         0
  9
$DIMSCALE
 40
1.0
  9
$DIMASZ
 40
0.18
  9
$DIMEXO
 40
0.0625
  9
$DIMDLI
 40
0.38
  9
$DIMRND
 40
0.0
  9
$DIMDLE
 40
0.0
  9
$DIMEXE
 40
0.25
  9
$DIMTP
 40
0.01
  9
$DIMTM
 40
-0.01
  9
$DIMTXT
 40
2.7
  9
$DIMCEN
 40
0.09
  9
$DIMTSZ
 40
0.0
  9
$DIMTOL
 70
         0
  9
$DIMLIM
 70
         0
  9
$DIMTIH
 70
         1
  9
$DIMTOH
 70
         1
  9
$DIMSE1
 70
         0
  9
$DIMSE2
 70
         0
  9
$DIMTAD
 70
         0
  9
$DIMZIN
 70
         0
  9
$DIMBLK
  1

  9
$DIMASO
 70
         1
  9
$DIMSHO
 70
         1
  9
$DIMPOST
  1

  9
$DIMAPOST
  1

  9
$DIMALT
 70
         0
  9
$DIMALTD
 70
         2
  9
$DIMALTF
 40
25.4
  9
$DIMLFAC
 40
1.0
  9
$DIMTOFL
 70
         0
  9
$DIMTVP
 40
0.0
  9
$DIMTIX
 70
         0
  9
$DIMSOXD
 70
         0
  9
$DIMSAH
 70
         0
  9
$DIMBLK1
  1

  9
$DIMBLK2
  1

  9
$DIMSTYLE
  2
STANDARD
  9
$DIMCLRD
 70
         0
  9
$DIMCLRE
 70
         0
  9
$DIMCLRT
 70
         1
  9
$DIMTFAC
 40
1.0
  9
$DIMGAP
 40
0.09
  9
$DIMJUST
 70
         0
  9
$DIMSD1
 70
         0
  9
$DIMSD2
 70
         0
  9
$DIMTOLJ
 70
         1
  9
$DIMTZIN
 70
         0
  9
$DIMALTZ
 70
         0
  9
$DIMALTTZ
 70
         0
  9
$DIMFIT
 70
         3
  9
$DIMUPT
 70
         0
  9
$DIMUNIT
 70
         2
  9
$DIMDEC
 70
         4
  9
$DIMTDEC
 70
         4
  9
$DIMALTU
 70
         2
  9
$DIMALTTD
 70
         2
  9
$DIMTXSTY
  7
STANDARD
  9
$DIMAUNIT
 70
         0
  9
$LUNITS
 70
         2
  9
$LUPREC
 70
        10
  9
$SKETCHINC
 40
0.1
  9
$FILLETRAD
 40
0.0
  9
$AUNITS
 70
         0
  9
$AUPREC
 70
         0
  9
$MENU
  1
acad
  9
$ELEVATION
 40
0.0
  9
$PELEVATION
 40
0.0
  9
$THICKNESS
 40
0.0
  9
$LIMCHECK
 70
         0
  9
$BLIPMODE
 70
         1
  9
$CHAMFERA
 40
0.0
  9
$CHAMFERB
 40
0.0
  9
$CHAMFERC
 40
0.0
  9
$CHAMFERD
 40
0.0
  9
$SKPOLY
 70
         0
  9
$TDCREATE
 40
0.000000000
  9
$TDUPDATE
 40
0.000000000
  9
$TDINDWG
 40
0.0000000000
  9
$TDUSRTIMER
 40
0.0000000000
  9
$USRTIMER
 70
         1
  9
$ANGBASE
 50
0.0
  9
$ANGDIR
 70
         0
  9
$PDMODE
 70
         2
  9
$PDSIZE
 40
0.0
  9
$PLINEWID
 40
0.0
  9
$COORDS
 70
         0
  9
$SPLFRAME
 70
         0
  9
$SPLINETYPE
 70
         6
  9
$SPLINESEGS
 70
         8
  9
$ATTDIA
 70
         0
  9
$ATTREQ
 70
         1
  9
$HANDLING
 70
         1
  9
$HANDSEED
  5
38E
  9
$SURFTAB1
 70
         6
  9
$SURFTAB2
 70
         6
  9
$SURFTYPE
 70
         6
  9
$SURFU
 70
         6
  9
$SURFV
 70
         6
  9
$UCSNAME
  2

  9
$UCSORG
 10
0.0
 20
0.0
 30
0.0
  9
$UCSXDIR
 10
1.0
 20
0.0
 30
0.0
  9
$UCSYDIR
 10
0.0
 20
1.0
 30
0.0
  9
$PUCSNAME
  2

  9
$PUCSORG
 10
0.0
 20
0.0
 30
0.0
  9
$PUCSXDIR
 10
1.0
 20
0.0
 30
0.0
  9
$PUCSYDIR
 10
0.0
 20
1.0
 30
0.0
  9
$USERI1
 70
         0
  9
$USERI2
 70
         0
  9
$USERI3
 70
         0
  9
$USERI4
 70
         0
  9
$USERI5
 70
         0
  9
$USERR1
 40
0.0
  9
$USERR2
 40
0.0
  9
$USERR3
 40
0.0
  9
$USERR4
 40
0.0
  9
$USERR5
 40
0.0
  9
$WORLDVIEW
 70
         1
  9
$SHADEDGE
 70
         3
  9
$SHADEDIF
 70
        70
  9
$TILEMODE
 70
         1
  9
$MAXACTVP
 70
        16
  9
$PINSBASE
 10
0.0
 20
0.0
 30
0.0
  9
$PLIMCHECK
 70
         0
  9
$PEXTMIN
 10
1.0000000000E+20
 20
1.0000000000E+20
 30
1.0000000000E+20
  9
$PEXTMAX
 10
-1.0000000000E+20
 20
-1.0000000000E+20
 30
-1.0000000000E+20
  9
$PLIMMIN
 10
0.0
 20
0.0
  9
$PLIMMAX
 10
12.0
 20
9.0
  9
$UNITMODE
 70
         0
  9
$VISRETAIN
 70
         0
  9
$PLINEGEN
 70
         1
  9
$PSLTSCALE
 70
         0
  9
$TREEDEPTH
 70
      3020
  9
$PICKSTYLE
 70
         1
  9
$CMLSTYLE
  2
STANDARD
  9
$CMLJUST
 70
         0
  9
$CMLSCALE
 40
1.0
  9
$PROXYGRAPHICS
 70
         0
  9
$MEASUREMENT
 70
         0
  0
ENDSEC
  0
SECTION
  2
CLASSES
  0
CLASS
  1
LWPOLYLINE
  2
AcDbPolyline
  3
"AutoCAD"
 90
        0
280
         0
281
         1
  0
CLASS
  1
IMAGE
  2
AcDbRasterImage
  3
ISM
 90
      127
280
         0
281
         1
  0
CLASS
  1
OLE2FRAME
  2
AcDbOle2Frame
  3
""
 90
        0
280
         0
281
         1
  0
CLASS
  1
HATCH
  2
AcDbHatch
  3
"ACAD_SEDONA"
 90
        0
280
         0
281
         1
  0
CLASS
  1
DICTIONARYVAR
  2
AcDbDictionaryVar
  3
"AutoCAD"
 90
        0
280
         0
281
         0
  0
CLASS
  1
RASTERVARIABLES
  2
AcDbRasterVariables
  3
ISM
 90
        0
280
         0
281
         0
  0
CLASS
  1
IMAGEDEF
  2
AcDbRasterImageDef
  3
ISM
 90
        0
280
         0
281
         0
  0
CLASS
  1
IMAGEDEF_REACTOR
  2
AcDbRasterImageDefReactor
  3
ISM
 90
        1
280
         0
281
         0
  0
CLASS
  1
IDBUFFER
  2
AcDbIdBuffer
  3
"Acad"
 90
        0
280
         0
281
         0
  0
CLASS
  1
SPATIAL_FILTER
  2
AcDbSpatialFilter
  3
"Acad"
 90
        0
280
         0
281
         0
  0
CLASS
  1
XRECORD
  2
AcDbXrecord
  3
"<Built In>"
 90
        0
280
         0
281
         0
  0
CLASS
  1
SORTENTSTABLE
  2
AcDbSortentsTable
  3
"AutoCAD"
 90
        0
280
         0
281
         0
  0
CLASS
  1
LAYER_INDEX
  2
AcDbLayerIndex
  3
"Acad"
 90
        0
280
         0
281
         0
  0
CLASS
  1
SPATIAL_INDEX
  2
AcDbSpatialIndex
  3
"Acad"
 90
        0
280
         0
281
         0
  0
CLASS
  1
OBJECT_PTR
  2
CAseDLPNTableRecord
  3
"ASE-LPNTableRecord"
 90
        1
280
         0
281
         0
  0
CLASS
  1
LAYOUT
  2
AcDbLayout
  3
"AutoCAD 2000"
 90
        1
280
         0
281
         0
  0
CLASS
  1
PLOTSETTINGS
  2
AcDbPlotSettings
  3
"AutoCAD 2000"
 90
        1
280
         0
281
         0
  0
CLASS
  1
ACDBDICTIONARYWDFLT
  2
AcDbDictionaryWithDefault
  3
"AutoCAD 2000"
 90
        1
280
         0
281
         0
  0
CLASS
  1
ACDBPLACEHOLDER
  2
AcDbPlaceHolder
  3
"AutoCAD 2000"
 90
        1
280
         0
281
         0
  0
CLASS
  1
VBA_PROJECT
  2
AcDbVbaProject
  3
"acadvba"
 90
        1
280
         0
281
         0
  0
CLASS
  1
WIPEOUT
  2
AcDbWipeout
  3
WipeOut|AutoCAD Express Tool|expresstools@autodesk.com
 90
      127
280
         0
281
         1
  0
CLASS
  1
WIPEOUTVARIABLES
  2
AcDbWipeoutVariables
  3
WipeOut|AutoCAD Express Tool|expresstools@autodesk.com
 90
        0
280
         0
281
         0
  0
CLASS
  1
RTEXT
  2
RText
  3
RText|AutoCAD Express Tool|expresstools@autodesk.com
 90
        0
280
         0
281
         1
  0
CLASS
  1
ARCALIGNEDTEXT
  2
AcDbArcAlignedText
  3
ATEXT|AutoCAD Express Tool|expresstools@autodesk.com
 90
        0
280
         0
281
         1
  0
ENDSEC
  0
SECTION
  2
TABLES
  0
TABLE
  2
VPORT
  5
7
100
AcDbSymbolTable
 70
         1
  0
VPORT
  5
15
100
AcDbSymbolTableRecord
100
AcDbViewportTableRecord
  2
*ACTIVE
 70
         0
 10
0.0
 20
0.0
 11
1.0
 21
1.0
 12
1406.16262718
 22
-236.309357486
 13
0.0
 23
0.0
 14
1.0
 24
1.0
 15
0.0
 25
0.0
 16
0.0
 26
0.0
 36
1.0
 17
0.0
 27
0.0
 37
0.0
 40
344.3651072795
 41
2.0484780158
 42
50.0
 43
0.0
 44
0.0
 50
0.0
 51
0.0
 71
         0
 72
       100
 73
         1
 74
         1
 75
         0
 76
         0
 77
         0
 78
         0
  0
ENDTAB
  0
TABLE
  2
LTYPE
  5
4
100
AcDbSymbolTable
 70
         6
  0
LTYPE
  5
11
100
AcDbSymbolTableRecord
100
AcDbLinetypeTableRecord
  2
BYBLOCK
 70
        64
  3

 72
        65
 73
         0
 40
0.0
  0
LTYPE
  5
12
100
AcDbSymbolTableRecord
100
AcDbLinetypeTableRecord
  2
BYLAYER
 70
        64
  3

 72
        65
 73
         0
 40
0.0
  0
LTYPE
  5
13
100
AcDbSymbolTableRecord
100
AcDbLinetypeTableRecord
  2
CONTINUOUS
 70
        64
  3
Solid line
 72
        65
 73
         0
 40
0.0
  0
LTYPE
  5
1D
100
AcDbSymbolTableRecord
100
AcDbLinetypeTableRecord
  2
DASHED
 70
        64
  3
_ _ _ _ _ _ _ _ _ _ _ _ _ _ _ _
 72
        65
 73
         2
 40
0.2
 49
0.1
 74
         0
 49
-0.1
 74
         0
  0
LTYPE
  5
1E
100
AcDbSymbolTableRecord
100
AcDbLinetypeTableRecord
  2
CENTER
 70
        64
  3
___ _ ___ _ ___ _ ___ _ ___ _ ___ _ ___ _ ___ _
 72
        65
 73
         4
 40
0.95
 49
0.625
 74
         0
 49
-0.125
 74
         0
 49
0.075
 74
         0
 49
-0.125
 74
         0
  0
LTYPE
  5
1F
100
AcDbSymbolTableRecord
100
AcDbLinetypeTableRecord
  2
PHANTOM
 70
        64
  3
______  __  __  ______  __  __  ______  __  __  
 72
        65
 73
         6
 40
1.025
 49
0.625
 74
         0
 49
-0.125
 74
         0
 49
0.075
 74
         0
 49
-0.125
 74
         0
 49
0.075
 74
         0
 49
-0.125
 74
         0
  0
ENDTAB
  0
TABLE
  2
LAYER
  5
2
100
AcDbSymbolTable
 70
         6
  0
LAYER
  5
14
100
AcDbSymbolTableRecord
100
AcDbLayerTableRecord
  2
0
 70
         0
 62
         7
  6
CONTINUOUS
  0
LAYER
  5
21
100
AcDbSymbolTableRecord
100
AcDbLayerTableRecord
  2
_____U
 70
         1
 62
         7
  6
CONTINUOUS
  0
LAYER
  5
22
100
AcDbSymbolTableRecord
100
AcDbLayerTableRecord
  2
_____T______
 70
         1
 62
         7
  6
CONTINUOUS
  0
LAYER
  5
23
100
AcDbSymbolTableRecord
100
AcDbLayerTableRecord
  2
______L_______
 70
         1
 62
         7
  6
CONTINUOUS
  0
LAYER
  5
24
100
AcDbSymbolTableRecord
100
AcDbLayerTableRecord
  2
L1_120
 70
         0
 62
         7
  6
CONTINUOUS
  0
LAYER
  5
1B6
100
AcDbSymbolTableRecord
100
AcDbLayerTableRecord
  2
DEFPOINTS
 70
         0
 62
        -7
  6
CONTINUOUS
  0
ENDTAB
  0
TABLE
  2
STYLE
  5
3
100
AcDbSymbolTable
 70
        11
  0
STYLE
  5
17
100
AcDbSymbolTableRecord
100
AcDbTextStyleTableRecord
  2
STANDARD
 70
         0
 40
0.0
 41
1.0
 50
0.0
 71
         0
 42
0.0
  3
txt
  4

  0
STYLE
  5
1C1
100
AcDbSymbolTableRecord
100
AcDbTextStyleTableRecord
  2
BOX
 70
         0
 40
1.0
 41
1.0
 50
0.0
 71
         0
 42
0.2
  3
txt.shx
  4

  0
STYLE
  5
1D3
100
AcDbSymbolTableRecord
100
AcDbTextStyleTableRecord
  2
BOX
 70
         0
 40
1.0
 41
1.0
 50
0.0
 71
         0
 42
0.2
  3
txt.shx
  4

  0
STYLE
  5
1F4
100
AcDbSymbolTableRecord
100
AcDbTextStyleTableRecord
  2
BOX
 70
         0
 40
1.0
 41
1.0
 50
0.0
 71
         0
 42
0.2
  3
txt.shx
  4

  0
STYLE
  5
25A
100
AcDbSymbolTableRecord
100
AcDbTextStyleTableRecord
  2
BOX
 70
         0
 40
1.0
 41
1.0
 50
0.0
 71
         0
 42
0.2
  3
txt.shx
  4

  0
STYLE
  5
268
100
AcDbSymbolTableRecord
100
AcDbTextStyleTableRecord
  2
BOX
 70
         0
 40
1.0
 41
1.0
 50
0.0
 71
         0
 42
0.2
  3
txt.shx
  4

  0
STYLE
  5
26B
100
AcDbSymbolTableRecord
100
AcDbTextStyleTableRecord
  2
BOX
 70
         0
 40
1.0
 41
1.0
 50
0.0
 71
         0
 42
0.2
  3
txt.shx
  4

  0
STYLE
  5
2DF
100
AcDbSymbolTableRecord
100
AcDbTextStyleTableRecord
  2
BOX
 70
         0
 40
1.0
 41
1.0
 50
0.0
 71
         0
 42
0.2
  3
txt.shx
  4

  0
STYLE
  5
2ED
100
AcDbSymbolTableRecord
100
AcDbTextStyleTableRecord
  2
BOX
 70
         0
 40
1.0
 41
1.0
 50
0.0
 71
         0
 42
0.2
  3
txt.shx
  4

  0
STYLE
  5
2FE
100
AcDbSymbolTableRecord
100
AcDbTextStyleTableRecord
  2
BOX
 70
         0
 40
1.0
 41
1.0
 50
0.0
 71
         0
 42
0.2
  3
txt.shx
  4

  0
STYLE
  5
30C
100
AcDbSymbolTableRecord
100
AcDbTextStyleTableRecord
  2
BOX
 70
         0
 40
1.0
 41
1.0
 50
0.0
 71
         0
 42
0.2
  3
txt.shx
  4

  0
ENDTAB
  0
TABLE
  2
VIEW
  5
5
100
AcDbSymbolTable
 70
         0
  0
ENDTAB
  0
TABLE
  2
UCS
  5
6
100
AcDbSymbolTable
 70
         1
  0
UCS
  5
20
100
AcDbSymbolTableRecord
100
AcDbUCSTableRecord
  2
CK_VIEW_1
 70
         0
 10
0.0
 20
0.0
 30
1.0
 11
1.0
 21
0.0
 31
0.0
 12
0.0
 22
1.0
 32
0.0
  0
ENDTAB
  0
TABLE
  2
APPID
  5
8
100
AcDbSymbolTable
 70
         1
  0
APPID
  5
16
100
AcDbSymbolTableRecord
100
AcDbRegAppTableRecord
  2
ACAD
 70
         0
  0
ENDTAB
  0
TABLE
  2
DIMSTYLE
  5
9
100
AcDbSymbolTable
 70
         2
  0
DIMSTYLE
105
18
100
AcDbSymbolTableRecord
100
AcDbDimStyleTableRecord
  2
STANDARD
 70
         0
  3

  4

  5

  6

  7

 40
1.0
 41
0.18
 42
0.0625
 43
0.38
 44
0.18
 45
0.0
 46
0.0
 47
0.0
 48
0.0
 71
         0
 72
         0
 73
         1
 74
         1
 75
         0
 76
         0
 77
         0
 78
         0
140
0.18
141
0.09
142
0.0
143
25.4
144
1.0
145
0.0
146
1.0
147
0.09
170
         0
171
         2
172
         0
173
         0
174
         0
175
         0
176
         0
177
         0
178
         0
270
         2
271
         4
272
         4
273
         2
274
         2
275
         0
280
         0
281
         0
282
         0
283
         1
284
         0
285
         0
286
         0
287
         0
288
         0
340
17
  0
DIMSTYLE
105
1B2
100
AcDbSymbolTableRecord
100
AcDbDimStyleTableRecord
  2
DIMSTYLE1
 70
         0
  3

  4

  5

  6

  7

 40
1.0
 41
2.7
 42
0.0625
 43
0.38
 44
2.7
 45
0.0
 46
0.0
 47
0.0
 48
0.0
 71
         0
 72
         0
 73
         1
 74
         1
 75
         0
 76
         0
 77
         0
 78
         0
140
2.7
141
0.09
142
0.0
143
25.4
144
1.0
145
0.0
146
1.0
147
0.09
170
         0
171
         2
172
         0
173
         0
174
         0
175
         0
176
         0
177
         0
178
         0
270
         2
271
         4
272
         4
273
         2
274
         2
275
         0
280
         0
281
         0
282
         0
283
         1
284
         0
285
         0
286
         0
287
         0
288
         0
340
17
  0
ENDTAB
  0
TABLE
  2
BLOCK_RECORD
  5
1
100
AcDbSymbolTable
 70
        10
  0
BLOCK_RECORD
  5
A
100
AcDbSymbolTableRecord
100
AcDbBlockTableRecord
  2
*MODEL_SPACE
  0
BLOCK_RECORD
  5
B
100
AcDbSymbolTableRecord
100
AcDbBlockTableRecord
  2
*PAPER_SPACE
  0
BLOCK_RECORD
  5
1B3
100
AcDbSymbolTableRecord
100
AcDbBlockTableRecord
  2
*D0
  0
BLOCK_RECORD
  5
1C8
100
AcDbSymbolTableRecord
100
AcDbBlockTableRecord
  2
*D1
  0
BLOCK_RECORD
  5
1E9
100
AcDbSymbolTableRecord
100
AcDbBlockTableRecord
  2
*D2
  0
BLOCK_RECORD
  5
24F
100
AcDbSymbolTableRecord
100
AcDbBlockTableRecord
  2
*D3
  0
BLOCK_RECORD
  5
25D
100
AcDbSymbolTableRecord
100
AcDbBlockTableRecord
  2
*D4
  0
BLOCK_RECORD
  5
26D
100
AcDbSymbolTableRecord
100
AcDbBlockTableRecord
  2
*X5
  0
BLOCK_RECORD
  5
2D4
100
AcDbSymbolTableRecord
100
AcDbBlockTableRecord
  2
*D6
  0
BLOCK_RECORD
  5
2E2
100
AcDbSymbolTableRecord
100
AcDbBlockTableRecord
  2
*D7
  0
BLOCK_RECORD
  5
2F1
100
AcDbSymbolTableRecord
100
AcDbBlockTableRecord
  2
*D8
  0
BLOCK_RECORD
  5
301
100
AcDbSymbolTableRecord
100
AcDbBlockTableRecord
  2
*D9
  0
ENDTAB
  0
ENDSEC
  0
SECTION
  2
BLOCKS
  0
BLOCK
  5
D
100
AcDbEntity
  8
0
100
AcDbBlockBegin
  2
*MODEL_SPACE
 70
         0
 10
0.0
 20
0.0
 30
0.0
  3
*MODEL_SPACE
  1

  0
ENDBLK
  5
E
100
AcDbEntity
  8
0
100
AcDbBlockEnd
  0
BLOCK
  5
F
100
AcDbEntity
 67
         1
  8
0
100
AcDbBlockBegin
  2
*PAPER_SPACE
 70
         0
 10
0.0
 20
0.0
 30
0.0
  3
*PAPER_SPACE
  1

  0
ENDBLK
  5
10
100
AcDbEntity
 67
         1
  8
0
100
AcDbBlockEnd
  0
BLOCK
  5
1B4
100
AcDbEntity
  8
0
100
AcDbBlockBegin
  2
*D0
 70
        65
 10
0.0
 20
0.0
 30
0.0
  3
*D0
  1

  0
POINT
  5
1B7
100
AcDbEntity
  8
DEFPOINTS
  6
CONTINUOUS
 62
         0
100
AcDbPoint
 10
1485.7508425579
 20
-202.1083187324
 30
-79.3946694502
  0
POINT
  5
1B8
100
AcDbEntity
  8
DEFPOINTS
  6
CONTINUOUS
 62
         0
100
AcDbPoint
 10
1485.7508425579
 20
-217.9526830905
 30
-82.1884583787
  0
POINT
  5
1B9
100
AcDbEntity
  8
DEFPOINTS
  6
CONTINUOUS
 62
         0
100
AcDbPoint
 10
1484.8847699505
 20
-219.2914914934
 30
-82.4245264221
  0
POINT
  5
1BA
100
AcDbEntity
  8
DEFPOINTS
  6
CONTINUOUS
 62
         0
100
AcDbPoint
 10
1478.2180141502
 20
-222.3530217393
 30
-82.9643568067
  0
LINE
  5
1BB
100
AcDbEntity
  8
L1_120
  6
CONTINUOUS
 62
         4
100
AcDbLine
 10
1476.9944986377
 20
-233.9521237387
 30
-43.0927447832
 11
1472.024154627
 21
-236.2698332145
 31
-43.0927447832
  0
LINE
  5
1BC
100
AcDbEntity
  8
L1_120
  6
CONTINUOUS
 62
         4
100
AcDbLine
 10
1485.7508425579
 20
-230.26336812
 30
-43.0927447832
 11
1485.7508425579
 21
-245.0146978747
 31
-43.0927447832
  0
ARC
  5
1BD
100
AcDbEntity
  8
L1_120
  6
CONTINUOUS
 62
         4
100
AcDbCircle
 10
1485.7508425579
 20
-229.8689735113
 30
-43.0927447832
 40
14.4707243634
100
AcDbArc
 50
205.0
 51
237.5
  0
SOLID
  5
1BE
100
AcDbEntity
  8
L1_120
  6
CONTINUOUS
 62
         4
100
AcDbTrace
 10
1472.6359123832
 20
-224.9164534753
 30
-83.416358985
 11
1474.349202937
 21
-227.0098732118
 31
-83.7854853665
 12
1473.6501199952
 22
-227.4127824127
 32
-83.8565291294
 13
1472.6359123832
 23
-224.9164534753
 33
-83.416358985
  0
ARC
  5
1BF
100
AcDbEntity
  8
L1_120
  6
CONTINUOUS
 62
         4
100
AcDbCircle
 10
1485.7508425579
 20
-229.8689735113
 30
-43.0927447832
 40
14.4707243634
100
AcDbArc
 50
237.5
 51
270.0
  0
SOLID
  5
1C0
100
AcDbEntity
  8
L1_120
  6
CONTINUOUS
 62
         4
100
AcDbTrace
 10
1485.7508425579
 20
-233.1446522334
 30
-84.8672124287
 11
1483.0248757247
 21
-233.2944266475
 31
-84.8936216989
 12
1483.1002234311
 22
-232.5001911168
 32
-84.7535765458
 13
1485.7508425579
 23
-233.1446522334
 33
-84.8672124287
  0
TEXT
  5
1C2
100
AcDbEntity
  8
L1_120
  6
CONTINUOUS
 62
         4
100
AcDbText
 10
1473.7395757133
 20
-244.3911000464
 30
-43.0927447832
 40
2.7
  1
65%%d
  7
BOX
100
AcDbText
  0
ENDBLK
  5
1C3
100
AcDbEntity
  8
0
  6
CONTINUOUS
100
AcDbBlockEnd
  0
BLOCK
  5
1C9
100
AcDbEntity
  8
0
100
AcDbBlockBegin
  2
*D1
 70
        65
 10
0.0
 20
0.0
 30
0.0
  3
*D1
  1

  0
POINT
  5
1CB
100
AcDbEntity
  8
DEFPOINTS
  6
CONTINUOUS
 62
         0
100
AcDbPoint
 10
1504.5397931968
 20
-208.6502077366
 30
-36.7906611544
  0
POINT
  5
1CC
100
AcDbEntity
  8
DEFPOINTS
  6
CONTINUOUS
 62
         0
100
AcDbPoint
 10
1485.7508425579
 20
-208.6502077366
 30
-36.7906611544
  0
POINT
  5
1CD
100
AcDbEntity
  8
DEFPOINTS
  6
CONTINUOUS
 62
         0
100
AcDbPoint
 10
1485.7508425579
 20
-226.3767472908
 30
-39.9163283524
  0
LINE
  5
1CE
100
AcDbEntity
  8
L1_120
  6
CONTINUOUS
 62
         4
100
AcDbLine
 10
1487.1008425579
 20
-208.6502077366
 30
-36.7906611544
 11
1505.2147931968
 21
-208.6502077366
 31
-36.7906611544
  0
LINE
  5
1CF
100
AcDbEntity
  8
L1_120
  6
CONTINUOUS
 62
         4
100
AcDbLine
 10
1487.1008425579
 20
-226.3767472908
 30
-39.9163283524
 11
1505.2147931968
 21
-226.3767472908
 31
-39.9163283524
  0
LINE
  5
1D0
100
AcDbEntity
  8
L1_120
  6
CONTINUOUS
 62
         4
100
AcDbLine
 10
1504.5397931968
 20
-208.6502077366
 30
-36.7906611544
 11
1504.5397931968
 21
-226.3767472908
 31
-39.9163283524
  0
SOLID
  5
1D1
100
AcDbEntity
  8
L1_120
  6
CONTINUOUS
 62
         4
100
AcDbTrace
 10
1504.5397931968
 20
-208.6502077366
 30
-36.7906611544
 11
1504.9447931968
 21
-211.3091886698
 31
-37.2595112341
 12
1504.1347931968
 22
-211.3091886698
 32
-37.2595112341
 13
1504.5397931968
 23
-208.6502077366
 33
-36.7906611544
  0
SOLID
  5
1D2
100
AcDbEntity
  8
L1_120
  6
CONTINUOUS
 62
         4
100
AcDbTrace
 10
1504.5397931968
 20
-226.3767472908
 30
-39.9163283524
 11
1504.1347931968
 21
-223.7177663577
 31
-39.4474782727
 12
1504.9447931968
 22
-223.7177663577
 32
-39.4474782727
 13
1504.5397931968
 23
-226.3767472908
 33
-39.9163283524
  0
TEXT
  5
1D4
100
AcDbEntity
  8
L1_120
  6
CONTINUOUS
 62
         4
100
AcDbText
 10
1502.5147931968
 20
-225.4322167134
 30
0.0
 40
2.7
  1
崷18
 50
90.0
  7
BOX
210
0.0
220
-0.1736481776669303
230
0.9848077530122081
100
AcDbText
  0
ENDBLK
  5
1D5
100
AcDbEntity
  8
0
  6
CONTINUOUS
100
AcDbBlockEnd
  0
BLOCK
  5
1EA
100
AcDbEntity
  8
0
100
AcDbBlockBegin
  2
*D2
 70
        65
 10
0.0
 20
0.0
 30
0.0
  3
*D2
  1

  0
POINT
  5
1EC
100
AcDbEntity
  8
DEFPOINTS
  6
CONTINUOUS
 62
         0
100
AcDbPoint
 10
1445.7508425579
 20
-364.5021705475
 30
-64.2715671943
  0
POINT
  5
1ED
100
AcDbEntity
  8
DEFPOINTS
  6
CONTINUOUS
 62
         0
100
AcDbPoint
 10
1445.7508425579
 20
-332.6617372667
 30
-58.6572397295
  0
POINT
  5
1EE
100
AcDbEntity
  8
DEFPOINTS
  6
CONTINUOUS
 62
         0
100
AcDbPoint
 10
1485.7508425579
 20
-335.893772522
 30
-59.2271347476
  0
LINE
  5
1EF
100
AcDbEntity
  8
L1_120
  6
CONTINUOUS
 62
         4
100
AcDbLine
 10
1445.7508425579
 20
-333.9912277333
 30
-58.8916647693
 11
1445.7508425579
 21
-365.1669157808
 31
-64.3887797142
  0
LINE
  5
1F0
100
AcDbEntity
  8
L1_120
  6
CONTINUOUS
 62
         4
100
AcDbLine
 10
1485.7508425579
 20
-337.2232629886
 30
-59.4615597874
 11
1485.7508425579
 21
-365.1669157808
 31
-64.3887797142
  0
LINE
  5
1F1
100
AcDbEntity
  8
L1_120
  6
CONTINUOUS
 62
         4
100
AcDbLine
 10
1445.7508425579
 20
-364.5021705475
 30
-64.2715671943
 11
1485.7508425579
 21
-364.5021705475
 31
-64.2715671943
  0
SOLID
  5
1F2
100
AcDbEntity
  8
L1_120
  6
CONTINUOUS
 62
         4
100
AcDbTrace
 10
1445.7508425579
 20
-364.5021705475
 30
-64.2715671943
 11
1448.4508425579
 21
-364.1033234075
 31
-64.2012396824
 12
1448.4508425579
 22
-364.9010176875
 32
-64.3418947063
 13
1445.7508425579
 23
-364.5021705475
 33
-64.2715671943
  0
SOLID
  5
1F3
100
AcDbEntity
  8
L1_120
  6
CONTINUOUS
 62
         4
100
AcDbTrace
 10
1485.7508425579
 20
-364.5021705475
 30
-64.2715671943
 11
1483.0508425579
 21
-364.9010176875
 31
-64.3418947063
 12
1483.0508425579
 22
-364.1033234075
 32
-64.2012396824
 13
1485.7508425579
 23
-364.5021705475
 33
-64.2715671943
  0
TEXT
  5
1F5
100
AcDbEntity
  8
L1_120
  6
CONTINUOUS
 62
         4
100
AcDbText
 10
1462.6845403924
 20
-368.100204064
 30
0.0
 40
2.7
  1
40
  7
BOX
210
0.0
220
-0.1736481776669303
230
0.9848077530122081
100
AcDbText
  0
ENDBLK
  5
1F6
100
AcDbEntity
  8
0
  6
CONTINUOUS
100
AcDbBlockEnd
  0
BLOCK
  5
250
100
AcDbEntity
  8
0
100
AcDbBlockBegin
  2
*D3
 70
        65
 10
0.0
 20
0.0
 30
0.0
  3
*D3
  1

  0
POINT
  5
252
100
AcDbEntity
  8
DEFPOINTS
  6
CONTINUOUS
 62
         0
100
AcDbPoint
 10
1384.1508425579
 20
-173.0291278669
 30
-30.5097036914
  0
POINT
  5
253
100
AcDbEntity
  8
DEFPOINTS
  6
CONTINUOUS
 62
         0
100
AcDbPoint
 10
1384.1508425579
 20
-195.626125203
 30
-34.4941640047
  0
POINT
  5
254
100
AcDbEntity
  8
DEFPOINTS
  6
CONTINUOUS
 62
         0
100
AcDbPoint
 10
1485.7508425579
 20
-217.5134775137
 30
-38.3534947534
  0
LINE
  5
255
100
AcDbEntity
  8
L1_120
  6
CONTINUOUS
 62
         4
100
AcDbLine
 10
1384.1508425579
 20
-194.2966347365
 30
-34.2597389649
 11
1384.1508425579
 21
-172.3643826336
 31
-30.3924911715
  0
LINE
  5
256
100
AcDbEntity
  8
L1_120
  6
CONTINUOUS
 62
         4
100
AcDbLine
 10
1485.7508425579
 20
-216.1839870472
 30
-38.1190697135
 11
1485.7508425579
 21
-172.3643826336
 31
-30.3924911715
  0
LINE
  5
257
100
AcDbEntity
  8
L1_120
  6
CONTINUOUS
 62
         4
100
AcDbLine
 10
1384.1508425579
 20
-173.0291278669
 30
-30.5097036914
 11
1485.7508425579
 21
-173.0291278669
 31
-30.5097036914
  0
SOLID
  5
258
100
AcDbEntity
  8
L1_120
  6
CONTINUOUS
 62
         4
100
AcDbTrace
 10
1384.1508425579
 20
-173.0291278669
 30
-30.5097036914
 11
1386.8508425579
 21
-172.6302807269
 31
-30.4393761794
 12
1386.8508425579
 22
-173.4279750068
 32
-30.5800312033
 13
1384.1508425579
 23
-173.0291278669
 33
-30.5097036914
  0
SOLID
  5
259
100
AcDbEntity
  8
L1_120
  6
CONTINUOUS
 62
         4
100
AcDbTrace
 10
1485.7508425579
 20
-173.0291278669
 30
-30.5097036914
 11
1483.0508425579
 21
-173.4279750068
 31
-30.5800312033
 12
1483.0508425579
 22
-172.6302807269
 32
-30.4393761794
 13
1485.7508425579
 23
-173.0291278669
 33
-30.5097036914
  0
TEXT
  5
25B
100
AcDbEntity
  8
L1_120
  6
CONTINUOUS
 62
         4
100
AcDbText
 10
1432.2383916747
 20
-173.6733810674
 30
0.0
 40
2.7
  1
101
  7
BOX
210
0.0
220
-0.1736481776669303
230
0.9848077530122081
100
AcDbText
  0
ENDBLK
  5
25C
100
AcDbEntity
  8
0
  6
CONTINUOUS
100
AcDbBlockEnd
  0
BLOCK
  5
25E
100
AcDbEntity
  8
0
100
AcDbBlockBegin
  2
*D4
 70
        65
 10
0.0
 20
0.0
 30
0.0
  3
*D4
  1

  0
POINT
  5
260
100
AcDbEntity
  8
DEFPOINTS
  6
CONTINUOUS
 62
         0
100
AcDbPoint
 10
1315.9008425579
 20
-158.4307841591
 30
-27.935621822
  0
POINT
  5
261
100
AcDbEntity
  8
DEFPOINTS
  6
CONTINUOUS
 62
         0
100
AcDbPoint
 10
1315.9008425579
 20
-206.4499682606
 30
-36.4026995708
  0
POINT
  5
262
100
AcDbEntity
  8
DEFPOINTS
  6
CONTINUOUS
 62
         0
100
AcDbPoint
 10
1485.7508425579
 20
-217.5134775137
 30
-38.3534947534
  0
LINE
  5
263
100
AcDbEntity
  8
L1_120
  6
CONTINUOUS
 62
         4
100
AcDbLine
 10
1315.9008425579
 20
-205.1204777941
 30
-36.1682745309
 11
1315.9008425579
 21
-157.7660389258
 31
-27.8184093021
  0
LINE
  5
264
100
AcDbEntity
  8
L1_120
  6
CONTINUOUS
 62
         4
100
AcDbLine
 10
1485.7508425579
 20
-216.1839870472
 30
-38.1190697135
 11
1485.7508425579
 21
-157.7660389258
 31
-27.8184093021
  0
LINE
  5
265
100
AcDbEntity
  8
L1_120
  6
CONTINUOUS
 62
         4
100
AcDbLine
 10
1315.9008425579
 20
-158.4307841591
 30
-27.935621822
 11
1485.7508425579
 21
-158.4307841591
 31
-27.935621822
  0
SOLID
  5
266
100
AcDbEntity
  8
L1_120
  6
CONTINUOUS
 62
         4
100
AcDbTrace
 10
1315.9008425579
 20
-158.4307841591
 30
-27.935621822
 11
1318.6008425579
 21
-158.0319370191
 31
-27.8652943101
 12
1318.6008425579
 22
-158.8296312991
 32
-28.005949334
 13
1315.9008425579
 23
-158.4307841591
 33
-27.935621822
  0
SOLID
  5
267
100
AcDbEntity
  8
L1_120
  6
CONTINUOUS
 62
         4
100
AcDbTrace
 10
1485.7508425579
 20
-158.4307841591
 30
-27.935621822
 11
1483.0508425579
 21
-158.8296312991
 31
-28.005949334
 12
1483.0508425579
 22
-158.0319370191
 32
-27.8652943101
 13
1485.7508425579
 23
-158.4307841591
 33
-27.935621822
  0
TEXT
  5
269
100
AcDbEntity
  8
L1_120
  6
CONTINUOUS
 62
         4
100
AcDbText
 10
1390.4236417732
 20
-158.8498343771
 30
0.0
 40
2.7
  1
169.85
  7
BOX
210
0.0
220
-0.1736481776669303
230
0.9848077530122081
100
AcDbText
  0
ENDBLK
  5
26A
100
AcDbEntity
  8
0
  6
CONTINUOUS
100
AcDbBlockEnd
  0
BLOCK
  5
26E
100
AcDbEntity
  8
0
100
AcDbBlockBegin
  2
*X5
 70
        65
 10
0.0
 20
0.0
 30
0.0
  3
*X5
  1

  0
LINE
  5
26F
100
AcDbEntity
  8
L1_120
  6
CONTINUOUS
 62
         4
100
AcDbLine
 10
1480.7818456781
 20
-339.1167397472
 30
-59.7954308273
 11
1485.7508425581
 21
-334.2232330951
 31
-58.9325735743
  0
LINE
  5
270
100
AcDbEntity
  8
L1_120
  6
CONTINUOUS
 62
         4
100
AcDbLine
 10
1475.8965644238
 20
-339.7496171602
 30
-59.9070241907
 11
1483.0937862894
 21
-332.6617372667
 31
-58.6572397295
  0
LINE
  5
271
100
AcDbEntity
  8
L1_120
  6
CONTINUOUS
 62
         4
100
AcDbLine
 10
1474.5008425581
 20
-336.9459494326
 30
-59.4126619254
 11
1477.3008425581
 21
-334.1884877242
 31
-58.9264470279
  0
LINE
  5
272
100
AcDbEntity
  8
L1_120
  6
CONTINUOUS
 62
         4
100
AcDbLine
 10
1474.5008425581
 20
-332.7677639907
 30
-58.6759351016
 11
1474.6085049152
 21
-332.6617372667
 31
-58.6572397295
  0
LINE
  5
273
100
AcDbEntity
  8
L1_120
  6
CONTINUOUS
 62
         4
100
AcDbLine
 10
1484.1335049152
 20
-323.2814434193
 30
-57.0032408372
 11
1485.7508425581
 21
-321.6886767693
 31
-56.7223931028
  0
LINE
  5
274
100
AcDbEntity
  8
L1_120
  6
CONTINUOUS
 62
         4
100
AcDbLine
 10
1462.4283642281
 20
-340.4786488062
 30
-60.0355721397
 11
1466.0008425581
 21
-336.9604444494
 31
-59.4152177879
  0
LINE
  5
275
100
AcDbEntity
  8
L1_120
  6
CONTINUOUS
 62
         4
100
AcDbLine
 10
1480.5008425581
 20
-322.6807320307
 30
-56.8973192118
 11
1484.6443364842
 21
-318.6001870878
 31
-56.1778090423
  0
LINE
  5
276
100
AcDbEntity
  8
L1_120
  6
CONTINUOUS
 62
         4
100
AcDbLine
 10
1458.185723541
 20
-340.4786488062
 30
-60.0355721397
 11
1466.0008425581
 21
-332.7822590075
 31
-58.6784909641
  0
LINE
  5
277
100
AcDbEntity
  8
L1_120
  6
CONTINUOUS
 62
         4
100
AcDbLine
 10
1475.648223541
 20
-323.2814434193
 30
-57.0032408372
 11
1477.3008425581
 21
-321.6539313984
 31
-56.7162665565
  0
LINE
  5
278
100
AcDbEntity
  8
L1_120
  6
CONTINUOUS
 62
         4
100
AcDbLine
 10
1477.940723541
 20
-321.0237716455
 30
-56.6051523899
 11
1481.7509186782
 21
-317.2714619339
 31
-55.9435189478
  0
LINE
  5
279
100
AcDbEntity
  8
L1_120
  6
CONTINUOUS
 62
         4
100
AcDbLine
 10
1453.9430828538
 20
-340.4786488062
 30
-60.0355721397
 11
1461.8805828538
 21
-332.6617372667
 31
-58.6572397295
  0
LINE
  5
27A
100
AcDbEntity
  8
L1_120
  6
CONTINUOUS
 62
         4
100
AcDbLine
 10
1471.4055828538
 20
-323.2814434193
 30
-57.0032408372
 11
1478.8575008722
 21
-315.94273678
 31
-55.7092288532
  0
LINE
  5
27B
100
AcDbEntity
  8
L1_120
  6
CONTINUOUS
 62
         4
100
AcDbLine
 10
1449.7004421667
 20
-340.4786488062
 30
-60.0355721397
 11
1457.6379421667
 21
-332.6617372667
 31
-58.6572397295
  0
LINE
  5
27C
100
AcDbEntity
  8
L1_120
  6
CONTINUOUS
 62
         4
100
AcDbLine
 10
1467.1629421667
 20
-323.2814434193
 30
-57.0032408372
 11
1473.1498858665
 21
-317.3854548469
 31
-55.9636189739
  0
LINE
  5
27D
100
AcDbEntity
  8
L1_120
  6
CONTINUOUS
 62
         4
100
AcDbLine
 10
1445.4578014796
 20
-340.4786488062
 30
-60.0355721397
 11
1453.3953014796
 21
-332.6617372667
 31
-58.6572397295
  0
LINE
  5
27E
100
AcDbEntity
  8
L1_120
  6
CONTINUOUS
 62
         4
100
AcDbLine
 10
1462.9203014796
 20
-323.2814434193
 30
-57.0032408372
 11
1468.6128624888
 21
-317.6753652029
 31
-56.0147379917
  0
LINE
  5
27F
100
AcDbEntity
  8
L1_120
  6
CONTINUOUS
 62
         4
100
AcDbLine
 10
1441.2151607925
 20
-340.4786488062
 30
-60.0355721397
 11
1449.1526607925
 21
-332.6617372667
 31
-58.6572397295
  0
LINE
  5
280
100
AcDbEntity
  8
L1_120
  6
CONTINUOUS
 62
         4
100
AcDbLine
 10
1458.6776607925
 20
-323.2814434193
 30
-57.0032408372
 11
1465.4583644667
 21
-316.60375387
 31
-55.8257840009
  0
LINE
  5
281
100
AcDbEntity
  8
L1_120
  6
CONTINUOUS
 62
         4
100
AcDbLine
 10
1436.9725201054
 20
-340.4786488062
 30
-60.0355721397
 11
1442.6725201054
 21
-334.8652446141
 31
-59.045777527
  0
LINE
  5
282
100
AcDbEntity
  8
L1_120
  6
CONTINUOUS
 62
         4
100
AcDbLine
 10
1454.4350201054
 20
-323.2814434193
 30
-57.0032408372
 11
1462.3725201054
 21
-315.4645318797
 31
-55.624908427
  0
LINE
  5
283
100
AcDbEntity
  8
L1_120
  6
CONTINUOUS
 62
         4
100
AcDbLine
 10
1432.7298794183
 20
-340.4786488062
 30
-60.0355721397
 11
1438.4298794183
 21
-334.8652446141
 31
-59.045777527
  0
LINE
  5
284
100
AcDbEntity
  8
L1_120
  6
CONTINUOUS
 62
         4
100
AcDbLine
 10
1450.1923794183
 20
-323.2814434193
 30
-57.0032408372
 11
1458.1298794183
 21
-315.4645318797
 31
-55.624908427
  0
LINE
  5
285
100
AcDbEntity
  8
L1_120
  6
CONTINUOUS
 62
         4
100
AcDbLine
 10
1428.4872387311
 20
-340.4786488062
 30
-60.0355721397
 11
1434.1872387311
 21
-334.8652446141
 31
-59.045777527
  0
LINE
  5
286
100
AcDbEntity
  8
L1_120
  6
CONTINUOUS
 62
         4
100
AcDbLine
 10
1445.9497387311
 20
-323.2814434193
 30
-57.0032408372
 11
1453.8872387311
 21
-315.4645318797
 31
-55.624908427
  0
LINE
  5
287
100
AcDbEntity
  8
L1_120
  6
CONTINUOUS
 62
         4
100
AcDbLine
 10
1414.659598044
 20
-349.9180311189
 30
-61.6999899226
 11
1419.2028425581
 21
-345.4438086976
 31
-60.9110637921
  0
LINE
  5
288
100
AcDbEntity
  8
L1_120
  6
CONTINUOUS
 62
         4
100
AcDbLine
 10
1424.244598044
 20
-340.4786488062
 30
-60.0355721397
 11
1429.944598044
 21
-334.8652446141
 31
-59.045777527
  0
LINE
  5
289
100
AcDbEntity
  8
L1_120
  6
CONTINUOUS
 62
         4
100
AcDbLine
 10
1443.944598044
 20
-321.0779360719
 30
-56.6147030397
 11
1449.644598044
 21
-315.4645318797
 31
-55.624908427
  0
LINE
  5
28A
100
AcDbEntity
  8
L1_120
  6
CONTINUOUS
 62
         4
100
AcDbLine
 10
1400.9269573569
 20
-359.263856695
 30
-63.3479111287
 11
1403.2508425581
 21
-356.9752765317
 31
-62.9443726984
  0
LINE
  5
28B
100
AcDbEntity
  8
L1_120
  6
CONTINUOUS
 62
         4
100
AcDbLine
 10
1410.4169573569
 20
-349.9180311189
 30
-61.6999899226
 11
1425.7019573569
 21
-334.8652446141
 31
-59.045777527
  0
LINE
  5
28C
100
AcDbEntity
  8
L1_120
  6
CONTINUOUS
 62
         4
100
AcDbLine
 10
1439.7019573569
 20
-321.0779360719
 30
-56.6147030397
 11
1445.4019573569
 21
-315.4645318797
 31
-55.624908427
  0
LINE
  5
28D
100
AcDbEntity
  8
L1_120
  6
CONTINUOUS
 62
         4
100
AcDbLine
 10
1398.0174360968
 20
-357.9509903475
 30
-63.1164173696
 11
1403.2508425581
 21
-352.7970910898
 31
-62.2076458746
  0
LINE
  5
28E
100
AcDbEntity
  8
L1_120
  6
CONTINUOUS
 62
         4
100
AcDbLine
 10
1406.1743166698
 20
-349.9180311189
 30
-61.6999899226
 11
1421.4593166698
 21
-334.8652446141
 31
-59.045777527
  0
LINE
  5
28F
100
AcDbEntity
  8
L1_120
  6
CONTINUOUS
 62
         4
100
AcDbLine
 10
1435.4593166698
 20
-321.0779360719
 30
-56.6147030397
 11
1441.1593166698
 21
-315.4645318797
 31
-55.624908427
  0
LINE
  5
290
100
AcDbEntity
  8
L1_120
  6
CONTINUOUS
 62
         4
100
AcDbLine
 10
1396.0916759827
 20
-355.6693083965
 30
-62.7140952802
 11
1417.2166759827
 21
-334.8652446141
 31
-59.045777527
  0
LINE
  5
291
100
AcDbEntity
  8
L1_120
  6
CONTINUOUS
 62
         4
100
AcDbLine
 10
1431.2166759827
 20
-321.0779360719
 30
-56.6147030397
 11
1436.9166759827
 21
-315.4645318797
 31
-55.624908427
  0
LINE
  5
292
100
AcDbEntity
  8
L1_120
  6
CONTINUOUS
 62
         4
100
AcDbLine
 10
1388.1990352955
 20
-359.263856695
 30
-63.3479111287
 11
1412.9740352955
 21
-334.8652446141
 31
-59.045777527
  0
LINE
  5
293
100
AcDbEntity
  8
L1_120
  6
CONTINUOUS
 62
         4
100
AcDbLine
 10
1426.9740352955
 20
-321.0779360719
 30
-56.6147030397
 11
1432.6740352955
 21
-315.4645318797
 31
-55.624908427
  0
LINE
  5
294
100
AcDbEntity
  8
L1_120
  6
CONTINUOUS
 62
         4
100
AcDbLine
 10
1387.3508425581
 20
-355.9209780369
 30
-62.7584714281
 11
1408.7313946084
 21
-334.8652446141
 31
-59.045777527
  0
LINE
  5
295
100
AcDbEntity
  8
L1_120
  6
CONTINUOUS
 62
         4
100
AcDbLine
 10
1422.7313946084
 20
-321.0779360719
 30
-56.6147030397
 11
1428.4313946084
 21
-315.4645318797
 31
-55.624908427
  0
LINE
  5
296
100
AcDbEntity
  8
L1_120
  6
CONTINUOUS
 62
         4
100
AcDbLine
 10
1387.3508425581
 20
-351.742792595
 30
-62.0217446042
 11
1404.4887539213
 21
-334.8652446141
 31
-59.045777527
  0
LINE
  5
297
100
AcDbEntity
  8
L1_120
  6
CONTINUOUS
 62
         4
100
AcDbLine
 10
1418.6130198159
 20
-320.9555580554
 30
-56.5931244935
 11
1424.1887539213
 21
-315.4645318797
 31
-55.624908427
  0
LINE
  5
298
100
AcDbEntity
  8
L1_120
  6
CONTINUOUS
 62
         4
100
AcDbLine
 10
1384.9103515118
 20
-349.9680216567
 30
-61.7088046032
 11
1400.2461132342
 21
-334.8652446141
 31
-59.045777527
  0
LINE
  5
299
100
AcDbEntity
  8
L1_120
  6
CONTINUOUS
 62
         4
100
AcDbLine
 10
1416.1176534611
 20
-319.2348287464
 30
-56.2897134898
 11
1420.4859647467
 21
-314.9328819248
 31
-55.5311641956
  0
LINE
  5
29A
100
AcDbEntity
  8
L1_120
  6
CONTINUOUS
 62
         4
100
AcDbLine
 10
1381.2076832757
 20
-349.4362526004
 30
-61.6150393711
 11
1396.0034725471
 21
-334.8652446141
 31
-59.045777527
  0
LINE
  5
29B
100
AcDbEntity
  8
L1_120
  6
CONTINUOUS
 62
         4
100
AcDbLine
 10
1410.0034725471
 20
-321.0779360719
 30
-56.6147030397
 11
1411.2528374641
 21
-319.8475518152
 31
-56.3977530986
  0
LINE
  5
29C
100
AcDbEntity
  8
L1_120
  6
CONTINUOUS
 62
         4
100
AcDbLine
 10
1413.6222871062
 20
-317.5140994373
 30
-55.9863024861
 11
1419.2028425581
 21
-312.0183251622
 31
-55.0172492016
  0
LINE
  5
29D
100
AcDbEntity
  8
L1_120
  6
CONTINUOUS
 62
         4
100
AcDbLine
 10
1377.5050150397
 20
-348.9044835442
 30
-61.521274139
 11
1391.7608318599
 21
-334.8652446141
 31
-59.045777527
  0
LINE
  5
29E
100
AcDbEntity
  8
L1_120
  6
CONTINUOUS
 62
         4
100
AcDbLine
 10
1405.7608318599
 20
-321.0779360719
 30
-56.6147030397
 11
1408.7574711093
 21
-318.1268225062
 31
-56.0943420949
  0
LINE
  5
29F
100
AcDbEntity
  8
L1_120
  6
CONTINUOUS
 62
         4
100
AcDbLine
 10
1411.1269207514
 20
-315.7933701283
 30
-55.6828914825
 11
1419.2028425581
 21
-307.8401397203
 31
-54.2805223778
  0
LINE
  5
2A0
100
AcDbEntity
  8
L1_120
  6
CONTINUOUS
 62
         4
100
AcDbLine
 10
1373.8023468037
 20
-348.3727144879
 30
-61.4275089069
 11
1387.5181911728
 21
-334.8652446141
 31
-59.045777527
  0
LINE
  5
2A1
100
AcDbEntity
  8
L1_120
  6
CONTINUOUS
 62
         4
100
AcDbLine
 10
1401.5181911728
 20
-321.0779360719
 30
-56.6147030397
 11
1406.2621047544
 21
-316.4060931971
 31
-55.7909310912
  0
LINE
  5
2A2
100
AcDbEntity
  8
L1_120
  6
CONTINUOUS
 62
         4
100
AcDbLine
 10
1408.6315543965
 20
-314.0726408192
 30
-55.3794804788
 11
1416.8031911728
 21
-306.0251495671
 31
-53.960490644
  0
LINE
  5
2A3
100
AcDbEntity
  8
L1_120
  6
CONTINUOUS
 62
         4
100
AcDbLine
 10
1370.0996785676
 20
-347.8409454317
 30
-61.3337436747
 11
1383.2755504857
 21
-334.8652446141
 31
-59.045777527
  0
LINE
  5
2A4
100
AcDbEntity
  8
L1_120
  6
CONTINUOUS
 62
         4
100
AcDbLine
 10
1397.2755504857
 20
-321.0779360719
 30
-56.6147030397
 11
1403.7667383996
 21
-314.6853638881
 31
-55.4875200875
  0
LINE
  5
2A5
100
AcDbEntity
  8
L1_120
  6
CONTINUOUS
 62
         4
100
AcDbLine
 10
1406.1361880417
 20
-312.3519115102
 30
-55.0760694751
 11
1412.5605504857
 21
-306.0251495671
 31
-53.960490644
  0
LINE
  5
2A6
100
AcDbEntity
  8
L1_120
  6
CONTINUOUS
 62
         4
100
AcDbLine
 10
1366.3970103316
 20
-347.3091763754
 30
-61.2399784426
 11
1379.0329097986
 21
-334.8652446141
 31
-59.045777527
  0
LINE
  5
2A7
100
AcDbEntity
  8
L1_120
  6
CONTINUOUS
 62
         4
100
AcDbLine
 10
1393.0329097986
 20
-321.0779360719
 30
-56.6147030397
 11
1401.2713720447
 21
-312.964634579
 31
-55.1841090838
  0
LINE
  5
2A8
100
AcDbEntity
  8
L1_120
  6
CONTINUOUS
 62
         4
100
AcDbLine
 10
1403.6408216868
 20
-310.6311822011
 30
-54.7726584714
 11
1408.3179097986
 21
-306.0251495671
 31
-53.960490644
  0
LINE
  5
2A9
100
AcDbEntity
  8
L1_120
  6
CONTINUOUS
 62
         4
100
AcDbLine
 10
1362.6943420956
 20
-346.7774073192
 30
-61.1462132105
 11
1374.7902691115
 21
-334.8652446141
 31
-59.045777527
  0
LINE
  5
2AA
100
AcDbEntity
  8
L1_120
  6
CONTINUOUS
 62
         4
100
AcDbLine
 10
1388.7902691115
 20
-321.0779360719
 30
-56.6147030397
 11
1398.7760056899
 21
-311.24390527
 31
-54.8806980802
  0
LINE
  5
2AB
100
AcDbEntity
  8
L1_120
  6
CONTINUOUS
 62
         4
100
AcDbLine
 10
1401.145455332
 20
-308.910452892
 30
-54.4692474677
 11
1404.0752691115
 21
-306.0251495671
 31
-53.960490644
  0
LINE
  5
2AC
100
AcDbEntity
  8
L1_120
  6
CONTINUOUS
 62
         4
100
AcDbLine
 10
1358.9916738596
 20
-346.2456382629
 30
-61.0524479784
 11
1370.5476284243
 21
-334.8652446141
 31
-59.045777527
  0
LINE
  5
2AD
100
AcDbEntity
  8
L1_120
  6
CONTINUOUS
 62
         4
100
AcDbLine
 10
1384.5476284243
 20
-321.0779360719
 30
-56.6147030397
 11
1396.280639335
 21
-309.5231759609
 31
-54.5772870765
  0
LINE
  5
2AE
100
AcDbEntity
  8
L1_120
  6
CONTINUOUS
 62
         4
100
AcDbLine
 10
1398.6500889771
 20
-307.189723583
 30
-54.1658364641
 11
1403.2508425581
 21
-302.6588657867
 31
-53.3669239888
  0
LINE
  5
2AF
100
AcDbEntity
  8
L1_120
  6
CONTINUOUS
 62
         4
100
AcDbLine
 10
1355.2890056235
 20
-345.7138692067
 30
-60.9586827463
 11
1366.3049877372
 21
-334.8652446141
 31
-59.045777527
  0
LINE
  5
2B0
100
AcDbEntity
  8
L1_120
  6
CONTINUOUS
 62
         4
100
AcDbLine
 10
1380.3049877372
 20
-321.0779360719
 30
-56.6147030397
 11
1393.7852729802
 21
-307.8024466519
 31
-54.2738760728
  0
LINE
  5
2B1
100
AcDbEntity
  8
L1_120
  6
CONTINUOUS
 62
         4
100
AcDbLine
 10
1396.1547226223
 20
-305.4689942739
 30
-53.8624254604
 11
1403.2508425581
 21
-298.4806803448
 31
-52.630197165
  0
LINE
  5
2B2
100
AcDbEntity
  8
L1_120
  6
CONTINUOUS
 62
         4
100
AcDbLine
 10
1351.5863373875
 20
-345.1821001505
 30
-60.8649175141
 11
1362.0623470501
 21
-334.8652446141
 31
-59.045777527
  0
LINE
  5
2B3
100
AcDbEntity
  8
L1_120
  6
CONTINUOUS
 62
         4
100
AcDbLine
 10
1376.0623470501
 20
-321.0779360719
 30
-56.6147030397
 11
1391.2899066253
 21
-306.0817173428
 31
-53.9704650691
  0
LINE
  5
2B4
100
AcDbEntity
  8
L1_120
  6
CONTINUOUS
 62
         4
100
AcDbLine
 10
1393.6593562674
 20
-303.7482649649
 30
-53.5590144567
 11
1400.8373470501
 21
-296.679323991
 31
-52.312569438
  0
LINE
  5
2B5
100
AcDbEntity
  8
L1_120
  6
CONTINUOUS
 62
         4
100
AcDbLine
 10
1347.8836691515
 20
-344.6503310942
 30
-60.771152282
 11
1357.819706363
 21
-334.8652446141
 31
-59.045777527
  0
LINE
  5
2B6
100
AcDbEntity
  8
L1_120
  6
CONTINUOUS
 62
         4
100
AcDbLine
 10
1371.819706363
 20
-321.0779360719
 30
-56.6147030397
 11
1388.7945402704
 21
-304.3609880338
 31
-53.6670540654
  0
LINE
  5
2B7
100
AcDbEntity
  8
L1_120
  6
CONTINUOUS
 62
         4
100
AcDbLine
 10
1391.1639899125
 20
-302.0275356558
 30
-53.255603453
 11
1393.4696743665
 21
-299.7568797296
 31
-52.8552255493
  0
LINE
  5
2B8
100
AcDbEntity
  8
L1_120
  6
CONTINUOUS
 62
         4
100
AcDbLine
 10
1344.1810009154
 20
-344.118562038
 30
-60.6773870499
 11
1353.5770656759
 21
-334.8652446141
 31
-59.045777527
  0
LINE
  5
2B9
100
AcDbEntity
  8
L1_120
  6
CONTINUOUS
 62
         4
100
AcDbLine
 10
1367.5770656759
 20
-321.0779360719
 30
-56.6147030397
 11
1382.571786696
 21
-306.311018557
 31
-54.0108970599
  0
LINE
  5
2BA
100
AcDbEntity
  8
L1_120
  6
CONTINUOUS
 62
         4
100
AcDbLine
 10
1388.9558295749
 20
-300.0239636343
 30
-52.9023196478
 11
1391.9479109811
 21
-297.0773386678
 31
-52.3827501642
  0
LINE
  5
2BB
100
AcDbEntity
  8
L1_120
  6
CONTINUOUS
 62
         4
100
AcDbLine
 10
1340.4783326794
 20
-343.5867929817
 30
-60.5836218178
 11
1349.3344249887
 21
-334.8652446141
 31
-59.045777527
  0
LINE
  5
2BC
100
AcDbEntity
  8
L1_120
  6
CONTINUOUS
 62
         4
100
AcDbLine
 10
1363.3344249887
 20
-321.0779360719
 30
-56.6147030397
 11
1377.6047927208
 21
-307.024367291
 31
-54.1366796884
  0
LINE
  5
2BD
100
AcDbEntity
  8
L1_120
  6
CONTINUOUS
 62
         4
100
AcDbLine
 10
1387.3508425581
 20
-297.42638185
 30
-52.4442958947
 11
1388.1094249887
 21
-296.679323991
 31
-52.312569438
  0
LINE
  5
2BE
100
AcDbEntity
  8
L1_120
  6
CONTINUOUS
 62
         4
100
AcDbLine
 10
1336.7756644434
 20
-343.0550239255
 30
-60.4898565856
 11
1345.0917843016
 21
-334.8652446141
 31
-59.045777527
  0
LINE
  5
2BF
100
AcDbEntity
  8
L1_120
  6
CONTINUOUS
 62
         4
100
AcDbLine
 10
1359.0917843016
 20
-321.0779360719
 30
-56.6147030397
 11
1372.6377987456
 21
-307.737716025
 31
-54.2624623168
  0
LINE
  5
2C0
100
AcDbEntity
  8
L1_120
  6
CONTINUOUS
 62
         4
100
AcDbLine
 10
1333.0729962073
 20
-342.5232548692
 30
-60.3960913535
 11
1340.8491436145
 21
-334.8652446141
 31
-59.045777527
  0
LINE
  5
2C1
100
AcDbEntity
  8
L1_120
  6
CONTINUOUS
 62
         4
100
AcDbLine
 10
1354.8491436145
 20
-321.0779360719
 30
-56.6147030397
 11
1367.6708047705
 21
-308.451064759
 31
-54.3882449453
  0
LINE
  5
2C2
100
AcDbEntity
  8
L1_120
  6
CONTINUOUS
 62
         4
100
AcDbLine
 10
1329.3703279713
 20
-341.991485813
 30
-60.3023261214
 11
1336.6065029274
 21
-334.8652446141
 31
-59.045777527
  0
LINE
  5
2C3
100
AcDbEntity
  8
L1_120
  6
CONTINUOUS
 62
         4
100
AcDbLine
 10
1350.6065029274
 20
-321.0779360719
 30
-56.6147030397
 11
1362.7038107953
 21
-309.164413493
 31
-54.5140275737
  0
LINE
  5
2C4
100
AcDbEntity
  8
L1_120
  6
CONTINUOUS
 62
         4
100
AcDbLine
 10
1325.6676597353
 20
-341.4597167567
 30
-60.2085608893
 11
1332.3638622403
 21
-334.8652446141
 31
-59.045777527
  0
LINE
  5
2C5
100
AcDbEntity
  8
L1_120
  6
CONTINUOUS
 62
         4
100
AcDbLine
 10
1346.3638622403
 20
-321.0779360719
 30
-56.6147030397
 11
1357.7368168202
 21
-309.877762227
 31
-54.6398102022
  0
LINE
  5
2C6
100
AcDbEntity
  8
L1_120
  6
CONTINUOUS
 62
         4
100
AcDbLine
 10
1321.9649914992
 20
-340.9279477005
 30
-60.1147956572
 11
1328.1212215532
 21
-334.8652446141
 31
-59.045777527
  0
LINE
  5
2C7
100
AcDbEntity
  8
L1_120
  6
CONTINUOUS
 62
         4
100
AcDbLine
 10
1342.1212215532
 20
-321.0779360719
 30
-56.6147030397
 11
1352.769822845
 21
-310.591110961
 31
-54.7655928306
  0
LINE
  5
2C8
100
AcDbEntity
  8
L1_120
  6
CONTINUOUS
 62
         4
100
AcDbLine
 10
1318.2623232632
 20
-340.3961786443
 30
-60.021030425
 11
1323.878580866
 21
-334.8652446141
 31
-59.045777527
  0
LINE
  5
2C9
100
AcDbEntity
  8
L1_120
  6
CONTINUOUS
 62
         4
100
AcDbLine
 10
1337.878580866
 20
-321.0779360719
 30
-56.6147030397
 11
1347.8028288698
 21
-311.304459695
 31
-54.8913754591
  0
LINE
  5
2CA
100
AcDbEntity
  8
L1_120
  6
CONTINUOUS
 62
         4
100
AcDbLine
 10
1315.9008425581
 20
-338.5435977093
 30
-59.6943704223
 11
1318.4859401789
 21
-335.99777353
 31
-59.2454729313
  0
LINE
  5
2CB
100
AcDbEntity
  8
L1_120
  6
CONTINUOUS
 62
         4
100
AcDbLine
 10
1333.6359401789
 20
-321.0779360719
 30
-56.6147030397
 11
1342.8358348947
 21
-312.0178084289
 31
-55.0171580875
  0
LINE
  5
2CC
100
AcDbEntity
  8
L1_120
  6
CONTINUOUS
 62
         4
100
AcDbLine
 10
1329.3932994918
 20
-321.0779360719
 30
-56.6147030397
 11
1337.8688409195
 21
-312.7311571629
 31
-55.142940716
  0
LINE
  5
2CD
100
AcDbEntity
  8
L1_120
  6
CONTINUOUS
 62
         4
100
AcDbLine
 10
1325.1506588047
 20
-321.0779360719
 30
-56.6147030397
 11
1332.9018469443
 21
-313.4445058969
 31
-55.2687233445
  0
LINE
  5
2CE
100
AcDbEntity
  8
L1_120
  6
CONTINUOUS
 62
         4
100
AcDbLine
 10
1321.3558516941
 20
-320.6369060937
 30
-56.5369375552
 11
1327.9348529692
 21
-314.1578546309
 31
-55.3945059729
  0
LINE
  5
2CF
100
AcDbEntity
  8
L1_120
  6
CONTINUOUS
 62
         4
100
AcDbLine
 10
1317.8153774304
 20
-319.9454071559
 30
-56.4150076353
 11
1322.967858994
 21
-314.8712033649
 31
-55.5202886014
  0
LINE
  5
2D0
100
AcDbEntity
  8
L1_120
  6
CONTINUOUS
 62
         4
100
AcDbLine
 10
1315.9008425581
 20
-317.6526704997
 30
-56.0107363032
 11
1318.0008650188
 21
-315.5845520989
 31
-55.6460712298
  0
ENDBLK
  5
2D1
100
AcDbEntity
  8
0
  6
CONTINUOUS
100
AcDbBlockEnd
  0
BLOCK
  5
2D5
100
AcDbEntity
  8
0
100
AcDbBlockBegin
  2
*D6
 70
        65
 10
0.0
 20
0.0
 30
0.0
  3
*D6
  1

  0
POINT
  5
2D7
100
AcDbEntity
  8
DEFPOINTS
  6
CONTINUOUS
 62
         0
100
AcDbPoint
 10
1514.7170014811
 20
-230.020535977
 30
-40.5588266098
  0
POINT
  5
2D8
100
AcDbEntity
  8
DEFPOINTS
  6
CONTINUOUS
 62
         0
100
AcDbPoint
 10
1477.3727776267
 20
-230.020535977
 30
-40.5588266098
  0
POINT
  5
2D9
100
AcDbEntity
  8
DEFPOINTS
  6
CONTINUOUS
 62
         0
100
AcDbPoint
 10
1477.3727776267
 20
-205.0064190505
 30
-36.148162897
  0
LINE
  5
2DA
100
AcDbEntity
  8
L1_120
  6
CONTINUOUS
 62
         4
100
AcDbLine
 10
1478.7227776267
 20
-230.020535977
 30
-40.5588266098
 11
1515.3920014811
 21
-230.020535977
 31
-40.5588266098
  0
LINE
  5
2DB
100
AcDbEntity
  8
L1_120
  6
CONTINUOUS
 62
         4
100
AcDbLine
 10
1478.7227776267
 20
-205.0064190505
 30
-36.148162897
 11
1515.3920014811
 21
-205.0064190505
 31
-36.148162897
  0
LINE
  5
2DC
100
AcDbEntity
  8
L1_120
  6
CONTINUOUS
 62
         4
100
AcDbLine
 10
1514.7170014811
 20
-230.020535977
 30
-40.5588266098
 11
1514.7170014811
 21
-205.0064190505
 31
-36.148162897
  0
SOLID
  5
2DD
100
AcDbEntity
  8
L1_120
  6
CONTINUOUS
 62
         4
100
AcDbTrace
 10
1514.7170014811
 20
-230.020535977
 30
-40.5588266098
 11
1514.3120014811
 21
-227.3615550439
 31
-40.0899765301
 12
1515.1220014811
 22
-227.3615550439
 32
-40.0899765301
 13
1514.7170014811
 23
-230.020535977
 33
-40.5588266098
  0
SOLID
  5
2DE
100
AcDbEntity
  8
L1_120
  6
CONTINUOUS
 62
         4
100
AcDbTrace
 10
1514.7170014811
 20
-205.0064190505
 30
-36.148162897
 11
1515.1220014811
 21
-207.6653999836
 31
-36.6170129767
 12
1514.3120014811
 22
-207.6653999836
 32
-36.6170129767
 13
1514.7170014811
 23
-205.0064190505
 33
-36.148162897
  0
TEXT
  5
2E0
100
AcDbEntity
  8
L1_120
  6
CONTINUOUS
 62
         4
100
AcDbText
 10
1511.5850014811
 20
-229.8626567261
 30
0.0
 40
2.7
  1
崷25.4
 50
90.0
  7
BOX
210
0.0
220
-0.1736481776669303
230
0.9848077530122081
100
AcDbText
  0
ENDBLK
  5
2E1
100
AcDbEntity
  8
0
  6
CONTINUOUS
100
AcDbBlockEnd
  0
BLOCK
  5
2E3
100
AcDbEntity
  8
0
100
AcDbBlockBegin
  2
*D7
 70
        65
 10
0.0
 20
0.0
 30
0.0
  3
*D7
  1

  0
POINT
  5
2E5
100
AcDbEntity
  8
DEFPOINTS
  6
CONTINUOUS
 62
         0
100
AcDbPoint
 10
1508.1711594446
 20
-298.2622661168
 30
-52.5916848436
  0
POINT
  5
2E6
100
AcDbEntity
  8
DEFPOINTS
  6
CONTINUOUS
 62
         0
100
AcDbPoint
 10
1515.914595344
 20
-298.2622661168
 30
-52.5916848436
  0
POINT
  5
2E7
100
AcDbEntity
  8
DEFPOINTS
  6
CONTINUOUS
 62
         0
100
AcDbPoint
 10
1514.5556855142
 20
-306.1392272909
 30
-53.9806056246
  0
LINE
  5
2E8
100
AcDbEntity
  8
L1_120
  6
CONTINUOUS
 62
         4
100
AcDbLine
 10
1514.564595344
 20
-298.2622661168
 30
-52.5916848436
 11
1507.4961594446
 21
-298.2622661168
 31
-52.5916848436
  0
LINE
  5
2E9
100
AcDbEntity
  8
L1_120
  6
CONTINUOUS
 62
         4
100
AcDbLine
 10
1513.2056855142
 20
-306.1392272909
 30
-53.9806056246
 11
1507.4961594446
 21
-306.1392272909
 31
-53.9806056246
  0
LINE
  5
2EA
100
AcDbEntity
  8
L1_120
  6
CONTINUOUS
 62
         4
100
AcDbLine
 10
1508.1711594446
 20
-298.2622661168
 30
-52.5916848436
 11
1508.1711594446
 21
-306.1392272909
 31
-53.9806056246
  0
SOLID
  5
2EB
100
AcDbEntity
  8
L1_120
  6
CONTINUOUS
 62
         4
100
AcDbTrace
 10
1508.1711594446
 20
-298.2622661168
 30
-52.5916848436
 11
1508.5761594446
 21
-300.9212470499
 31
-53.0605349233
 12
1507.7661594446
 22
-300.9212470499
 32
-53.0605349233
 13
1508.1711594446
 23
-298.2622661168
 33
-52.5916848436
  0
SOLID
  5
2EC
100
AcDbEntity
  8
L1_120
  6
CONTINUOUS
 62
         4
100
AcDbTrace
 10
1508.1711594446
 20
-306.1392272909
 30
-53.9806056246
 11
1507.7661594446
 21
-303.4802463577
 31
-53.5117555449
 12
1508.5761594446
 22
-303.4802463577
 32
-53.5117555449
 13
1508.1711594446
 23
-306.1392272909
 33
-53.9806056246
  0
TEXT
  5
2EE
100
AcDbEntity
  8
L1_120
  6
CONTINUOUS
 62
         4
100
AcDbText
 10
1506.1461594446
 20
-307.954915788
 30
0.0
 40
2.7
  1
8
 50
90.0
  7
BOX
210
0.0
220
-0.1736481776669303
230
0.9848077530122081
100
AcDbText
  0
ENDBLK
  5
2EF
100
AcDbEntity
  8
0
  6
CONTINUOUS
100
AcDbBlockEnd
  0
BLOCK
  5
2F2
100
AcDbEntity
  8
0
100
AcDbBlockBegin
  2
*D8
 70
        65
 10
0.0
 20
0.0
 30
0.0
  3
*D8
  1

  0
POINT
  5
2F4
100
AcDbEntity
  8
DEFPOINTS
  6
CONTINUOUS
 62
         0
100
AcDbPoint
 10
1515.8357194367
 20
-315.8988487496
 30
-55.7014902093
  0
POINT
  5
2F5
100
AcDbEntity
  8
DEFPOINTS
  6
CONTINUOUS
 62
         0
100
AcDbPoint
 10
1515.8357194367
 20
-306.1392272909
 30
-53.9806056246
  0
POINT
  5
2F6
100
AcDbEntity
  8
DEFPOINTS
  6
CONTINUOUS
 62
         0
100
AcDbPoint
 10
1521.3782820209
 20
-306.1392272909
 30
-53.9806056246
  0
LINE
  5
2F7
100
AcDbEntity
  8
L1_120
  6
CONTINUOUS
 62
         4
100
AcDbLine
 10
1515.8357194367
 20
-307.4687177574
 30
-54.2150306645
 11
1515.8357194367
 21
-316.5635939829
 31
-55.8187027292
  0
LINE
  5
2F8
100
AcDbEntity
  8
L1_120
  6
CONTINUOUS
 62
         4
100
AcDbLine
 10
1521.3782820209
 20
-307.4687177574
 30
-54.2150306645
 11
1521.3782820209
 21
-316.5635939829
 31
-55.8187027292
  0
LINE
  5
2F9
100
AcDbEntity
  8
L1_120
  6
CONTINUOUS
 62
         4
100
AcDbLine
 10
1515.8357194367
 20
-315.8988487496
 30
-55.7014902093
 11
1510.4357194367
 21
-315.8988487496
 31
-55.7014902093
  0
SOLID
  5
2FA
100
AcDbEntity
  8
L1_120
  6
CONTINUOUS
 62
         4
100
AcDbTrace
 10
1515.8357194367
 20
-315.8988487496
 30
-55.7014902093
 11
1513.1357194367
 21
-316.2976958896
 31
-55.7718177213
 12
1513.1357194367
 22
-315.5000016097
 32
-55.6311626973
 13
1515.8357194367
 23
-315.8988487496
 33
-55.7014902093
  0
LINE
  5
2FB
100
AcDbEntity
  8
L1_120
  6
CONTINUOUS
 62
         4
100
AcDbLine
 10
1521.3782820209
 20
-315.8988487496
 30
-55.7014902093
 11
1541.1283498556
 21
-315.8988487496
 31
-55.7014902093
  0
SOLID
  5
2FC
100
AcDbEntity
  8
L1_120
  6
CONTINUOUS
 62
         4
100
AcDbTrace
 10
1521.3782820209
 20
-315.8988487496
 30
-55.7014902093
 11
1524.0782820209
 21
-315.5000016097
 31
-55.6311626973
 12
1524.0782820209
 22
-316.2976958896
 32
-55.7718177213
 13
1521.3782820209
 23
-315.8988487496
 33
-55.7014902093
  0
LINE
  5
2FD
100
AcDbEntity
  8
L1_120
  6
CONTINUOUS
 62
         4
100
AcDbLine
 10
1515.8357194367
 20
-315.8988487496
 30
-55.7014902093
 11
1521.3782820209
 21
-315.8988487496
 31
-55.7014902093
  0
TEXT
  5
2FF
100
AcDbEntity
  8
L1_120
  6
CONTINUOUS
 62
         4
100
AcDbText
 10
1523.5783498556
 20
-318.7470976845
 30
0.0
 40
2.7
  1
4.8Hex
  7
BOX
210
0.0
220
-0.1736481776669303
230
0.9848077530122081
100
AcDbText
  0
ENDBLK
  5
300
100
AcDbEntity
  8
0
  6
CONTINUOUS
100
AcDbBlockEnd
  0
BLOCK
  5
302
100
AcDbEntity
  8
0
100
AcDbBlockBegin
  2
*D9
 70
        65
 10
0.0
 20
0.0
 30
0.0
  3
*D9
  1

  0
POINT
  5
304
100
AcDbEntity
  8
DEFPOINTS
  6
CONTINUOUS
 62
         0
100
AcDbPoint
 10
1513.8444912038
 20
-292.0753537026
 30
-51.5007652577
  0
POINT
  5
305
100
AcDbEntity
  8
DEFPOINTS
  6
CONTINUOUS
 62
         0
100
AcDbPoint
 10
1513.8444912038
 20
-300.3009207236
 30
-52.9511546552
  0
POINT
  5
306
100
AcDbEntity
  8
DEFPOINTS
  6
CONTINUOUS
 62
         0
100
AcDbPoint
 10
1523.3695102538
 20
-300.3009207236
 30
-52.9511546552
  0
LINE
  5
307
100
AcDbEntity
  8
L1_120
  6
CONTINUOUS
 62
         4
100
AcDbLine
 10
1513.8444912038
 20
-298.971430257
 30
-52.7167296153
 11
1513.8444912038
 21
-291.4106084693
 31
-51.3835527378
  0
LINE
  5
308
100
AcDbEntity
  8
L1_120
  6
CONTINUOUS
 62
         4
100
AcDbLine
 10
1523.3695102538
 20
-298.971430257
 30
-52.7167296153
 11
1523.3695102538
 21
-291.4106084693
 31
-51.3835527378
  0
LINE
  5
309
100
AcDbEntity
  8
L1_120
  6
CONTINUOUS
 62
         4
100
AcDbLine
 10
1513.8444912038
 20
-292.0753537026
 30
-51.5007652577
 11
1523.3695102538
 21
-292.0753537026
 31
-51.5007652577
  0
SOLID
  5
30A
100
AcDbEntity
  8
L1_120
  6
CONTINUOUS
 62
         4
100
AcDbTrace
 10
1513.8444912038
 20
-292.0753537026
 30
-51.5007652577
 11
1516.5444912038
 21
-291.6765065626
 31
-51.4304377458
 12
1516.5444912038
 22
-292.4742008425
 32
-51.5710927697
 13
1513.8444912038
 23
-292.0753537026
 33
-51.5007652577
  0
SOLID
  5
30B
100
AcDbEntity
  8
L1_120
  6
CONTINUOUS
 62
         4
100
AcDbTrace
 10
1523.3695102538
 20
-292.0753537026
 30
-51.5007652577
 11
1520.6695102538
 21
-292.4742008425
 31
-51.5710927697
 12
1520.6695102538
 22
-291.6765065626
 32
-51.4304377458
 13
1523.3695102538
 23
-292.0753537026
 33
-51.5007652577
  0
TEXT
  5
30D
100
AcDbEntity
  8
L1_120
  6
CONTINUOUS
 62
         4
100
AcDbText
 10
1506.0094035787
 20
-294.5560868255
 30
0.0
 40
2.7
  1
3/8"-24UNF
  7
BOX
210
0.0
220
-0.1736481776669303
230
0.9848077530122081
100
AcDbText
  0
ENDBLK
  5
30E
100
AcDbEntity
  8
0
  6
CONTINUOUS
100
AcDbBlockEnd
  0
ENDSEC
  0
SECTION
  2
ENTITIES
  0
LINE
  5
25
100
AcDbEntity
  8
L1_120
  6
CENTER
 62
         1
100
AcDbLine
 10
1384.1508425579
 20
-202.3888811325
 30
3.8593307486
 11
1384.1508425579
 21
-246.1635857539
 31
-3.8593307486
  0
LINE
  5
26
100
AcDbEntity
  8
L1_120
  6
CONTINUOUS
 62
         7
100
AcDbLine
 10
1387.3508425579
 20
-193.9687748443
 30
5.3440226677
 11
1387.3508425579
 21
-254.5836920422
 31
-5.3440226677
  0
LINE
  5
27
100
AcDbEntity
  8
L1_120
  6
CONTINUOUS
 62
         4
100
AcDbLine
 10
1402.7508425579
 20
-255.5684997952
 30
-5.5176708454
 11
1402.7508425579
 21
-232.9917820574
 31
-1.5367863724
  0
LINE
  5
28
100
AcDbEntity
  8
L1_120
  6
CONTINUOUS
 62
         4
100
AcDbLine
 10
1387.8508425579
 20
-255.5684997952
 30
-5.5176708454
 11
1387.8508425579
 21
-232.9917820574
 31
-1.5367863724
  0
LINE
  5
29
100
AcDbEntity
  8
L1_120
  6
CONTINUOUS
 62
         4
100
AcDbLine
 10
1402.7508425579
 20
-215.5606848291
 30
1.5367863724
 11
1402.7508425579
 21
-192.9839670913
 31
5.5176708454
  0
LINE
  5
2A
100
AcDbEntity
  8
L1_120
  6
CONTINUOUS
 62
         4
100
AcDbLine
 10
1387.8508425579
 20
-215.5606848291
 30
1.5367863724
 11
1387.8508425579
 21
-192.9839670913
 31
5.5176708454
  0
LINE
  5
2B
100
AcDbEntity
  8
L1_120
  6
CONTINUOUS
 62
         7
100
AcDbLine
 10
1387.3508425579
 20
-255.0760959187
 30
-5.4308467565
 11
1387.8508425579
 21
-255.5684997952
 31
-5.5176708454
  0
LINE
  5
2C
100
AcDbEntity
  8
L1_120
  6
CONTINUOUS
 62
         7
100
AcDbLine
 10
1403.2508425579
 20
-255.0760959187
 30
-5.4308467565
 11
1402.7508425579
 21
-255.5684997952
 31
-5.5176708454
  0
LINE
  5
2D
100
AcDbEntity
  8
L1_120
  6
CONTINUOUS
 62
         7
100
AcDbLine
 10
1387.8508425579
 20
-255.5684997952
 30
-5.5176708454
 11
1389.3508425579
 21
-255.5684997952
 31
-5.5176708454
  0
LINE
  5
2E
100
AcDbEntity
  8
L1_120
  6
CONTINUOUS
 62
         7
100
AcDbLine
 10
1401.2508425579
 20
-255.5684997952
 30
-5.5176708454
 11
1402.7508425579
 21
-255.5684997952
 31
-5.5176708454
  0
LINE
  5
2F
100
AcDbEntity
  8
L1_120
  6
CONTINUOUS
 62
         7
100
AcDbLine
 10
1387.3508425579
 20
-253.5988842892
 30
-5.17037449
 11
1387.3508425579
 21
-255.0760959187
 31
-5.4308467565
  0
LINE
  5
30
100
AcDbEntity
  8
L1_120
  6
CONTINUOUS
 62
         7
100
AcDbLine
 10
1403.2508425579
 20
-253.5988842892
 30
-5.17037449
 11
1403.2508425579
 21
-255.0760959187
 31
-5.4308467565
  0
LINE
  5
31
100
AcDbEntity
  8
L1_120
  6
CONTINUOUS
 62
         7
100
AcDbLine
 10
1402.7508425579
 20
-192.9839670913
 30
5.5176708454
 11
1403.2508425579
 21
-193.4763709678
 31
5.4308467565
  0
LINE
  5
32
100
AcDbEntity
  8
L1_120
  6
CONTINUOUS
 62
         7
100
AcDbLine
 10
1387.8508425579
 20
-192.9839670913
 30
5.5176708454
 11
1387.3508425579
 21
-193.4763709678
 31
5.4308467565
  0
LINE
  5
33
100
AcDbEntity
  8
L1_120
  6
CONTINUOUS
 62
         7
100
AcDbLine
 10
1403.2508425579
 20
-193.4763709678
 30
5.4308467565
 11
1403.2508425579
 21
-194.9535825973
 31
5.17037449
  0
LINE
  5
34
100
AcDbEntity
  8
L1_120
  6
CONTINUOUS
 62
         7
100
AcDbLine
 10
1401.2508425579
 20
-192.9839670913
 30
5.5176708454
 11
1402.7508425579
 21
-192.9839670913
 31
5.5176708454
  0
LINE
  5
35
100
AcDbEntity
  8
L1_120
  6
CONTINUOUS
 62
         7
100
AcDbLine
 10
1387.3508425579
 20
-193.4763709678
 30
5.4308467565
 11
1387.3508425579
 21
-194.9535825973
 31
5.17037449
  0
LINE
  5
36
100
AcDbEntity
  8
L1_120
  6
CONTINUOUS
 62
         7
100
AcDbLine
 10
1387.8508425579
 20
-192.9839670913
 30
5.5176708454
 11
1389.3508425579
 21
-192.9839670913
 31
5.5176708454
  0
LINE
  5
37
100
AcDbEntity
  8
L1_120
  6
CONTINUOUS
 62
         7
100
AcDbLine
 10
1403.2508425579
 20
-246.7150780956
 30
-3.9565737281
 11
1403.2508425579
 21
-254.5836920422
 31
-5.3440226677
  0
LINE
  5
38
100
AcDbEntity
  8
L1_120
  6
CONTINUOUS
 62
         7
100
AcDbLine
 10
1403.2508425579
 20
-193.9687748443
 30
5.3440226677
 11
1403.2508425579
 21
-201.8373887908
 31
3.9565737281
  0
LINE
  5
39
100
AcDbEntity
  8
L1_120
  6
CONTINUOUS
 62
         7
100
AcDbLine
 10
1391.7145721591
 20
-192.9839670913
 30
5.5176708454
 11
1391.7145721591
 21
-215.5606848291
 31
1.5367863724
  0
LINE
  5
3A
100
AcDbEntity
  8
L1_120
  6
CONTINUOUS
 62
         7
100
AcDbLine
 10
1393.3758425579
 20
-195.8176575836
 30
5.0180147566
 11
1393.3758425579
 21
-216.3485310315
 31
1.3978678302
  0
LINE
  5
3B
100
AcDbEntity
  8
L1_120
  6
CONTINUOUS
 62
         7
100
AcDbLine
 10
1397.1258425579
 20
-195.8176575836
 30
5.0180147566
 11
1397.1258425579
 21
-216.3485310315
 31
1.3978678302
  0
LINE
  5
3C
100
AcDbEntity
  8
L1_120
  6
CONTINUOUS
 62
         7
100
AcDbLine
 10
1398.7871129567
 20
-192.9839670913
 30
5.5176708454
 11
1398.7871129567
 21
-215.5606848291
 31
1.5367863724
  0
LINE
  5
3D
100
AcDbEntity
  8
L1_120
  6
CONTINUOUS
 62
         7
100
AcDbLine
 10
1402.4508425579
 20
-216.3485310315
 30
1.3978678302
 11
1388.1508425579
 21
-216.3485310315
 31
1.3978678302
  0
LINE
  5
3E
100
AcDbEntity
  8
L1_120
  6
CONTINUOUS
 62
         7
100
AcDbLine
 10
1402.4508425579
 20
-232.203935855
 30
-1.3978678302
 11
1388.1508425579
 21
-232.203935855
 31
-1.3978678302
  0
LINE
  5
3F
100
AcDbEntity
  8
L1_120
  6
CONTINUOUS
 62
         7
100
AcDbLine
 10
1391.7145721591
 20
-215.5606848291
 30
1.5367863724
 11
1393.3758425579
 21
-216.3485310315
 31
1.3978678302
  0
LINE
  5
40
100
AcDbEntity
  8
L1_120
  6
CONTINUOUS
 62
         7
100
AcDbLine
 10
1391.7145721591
 20
-232.9917820574
 30
-1.5367863724
 11
1393.3758425579
 21
-232.203935855
 31
-1.3978678302
  0
LINE
  5
41
100
AcDbEntity
  8
L1_120
  6
CONTINUOUS
 62
         7
100
AcDbLine
 10
1388.1508425579
 20
-216.3485310315
 30
1.3978678302
 11
1388.1508425579
 21
-232.203935855
 31
-1.3978678302
  0
LINE
  5
42
100
AcDbEntity
  8
L1_120
  6
CONTINUOUS
 62
         7
100
AcDbLine
 10
1391.7145721591
 20
-232.9917820574
 30
-1.5367863724
 11
1387.3508425579
 21
-232.9917820574
 31
-1.5367863724
  0
LINE
  5
43
100
AcDbEntity
  8
L1_120
  6
CONTINUOUS
 62
         7
100
AcDbLine
 10
1388.1508425579
 20
-232.203935855
 30
-1.3978678302
 11
1387.3508425579
 21
-232.9917820574
 31
-1.5367863724
  0
LINE
  5
44
100
AcDbEntity
  8
L1_120
  6
CONTINUOUS
 62
         7
100
AcDbLine
 10
1387.3508425579
 20
-215.5606848291
 30
1.5367863724
 11
1388.1508425579
 21
-216.3485310315
 31
1.3978678302
  0
LINE
  5
45
100
AcDbEntity
  8
L1_120
  6
CONTINUOUS
 62
         7
100
AcDbLine
 10
1391.7145721591
 20
-215.5606848291
 30
1.5367863724
 11
1387.3508425579
 21
-215.5606848291
 31
1.5367863724
  0
LINE
  5
46
100
AcDbEntity
  8
L1_120
  6
CONTINUOUS
 62
         7
100
AcDbLine
 10
1402.4508425579
 20
-216.3485310315
 30
1.3978678302
 11
1402.4508425579
 21
-232.203935855
 31
-1.3978678302
  0
LINE
  5
47
100
AcDbEntity
  8
L1_120
  6
CONTINUOUS
 62
         7
100
AcDbLine
 10
1403.2508425579
 20
-232.9917820574
 30
-1.5367863724
 11
1398.7871129567
 21
-232.9917820574
 31
-1.5367863724
  0
LINE
  5
48
100
AcDbEntity
  8
L1_120
  6
CONTINUOUS
 62
         7
100
AcDbLine
 10
1402.4508425579
 20
-232.203935855
 30
-1.3978678302
 11
1403.2508425579
 21
-232.9917820574
 31
-1.5367863724
  0
LINE
  5
49
100
AcDbEntity
  8
L1_120
  6
CONTINUOUS
 62
         7
100
AcDbLine
 10
1397.1258425579
 20
-232.203935855
 30
-1.3978678302
 11
1398.7871129567
 21
-232.9917820574
 31
-1.5367863724
  0
LINE
  5
4A
100
AcDbEntity
  8
L1_120
  6
CONTINUOUS
 62
         7
100
AcDbLine
 10
1403.2508425579
 20
-215.5606848291
 30
1.5367863724
 11
1402.4508425579
 21
-216.3485310315
 31
1.3978678302
  0
LINE
  5
4B
100
AcDbEntity
  8
L1_120
  6
CONTINUOUS
 62
         7
100
AcDbLine
 10
1397.1258425579
 20
-216.3485310315
 30
1.3978678302
 11
1398.7871129567
 21
-215.5606848291
 31
1.5367863724
  0
LINE
  5
4C
100
AcDbEntity
  8
L1_120
  6
CONTINUOUS
 62
         7
100
AcDbLine
 10
1403.2508425579
 20
-215.5606848291
 30
1.5367863724
 11
1398.7871129567
 21
-215.5606848291
 31
1.5367863724
  0
LINE
  5
4D
100
AcDbEntity
  8
L1_120
  6
CONTINUOUS
 62
         7
100
AcDbLine
 10
1391.7145721591
 20
-232.9917820574
 30
-1.5367863724
 11
1391.7145721591
 21
-255.5684997952
 31
-5.5176708454
  0
LINE
  5
4E
100
AcDbEntity
  8
L1_120
  6
CONTINUOUS
 62
         7
100
AcDbLine
 10
1393.3758425579
 20
-232.203935855
 30
-1.3978678302
 11
1393.3758425579
 21
-252.7348093028
 31
-5.0180147566
  0
LINE
  5
4F
100
AcDbEntity
  8
L1_120
  6
CONTINUOUS
 62
         7
100
AcDbLine
 10
1397.1258425579
 20
-232.203935855
 30
-1.3978678302
 11
1397.1258425579
 21
-252.7348093028
 31
-5.0180147566
  0
LINE
  5
50
100
AcDbEntity
  8
L1_120
  6
CONTINUOUS
 62
         7
100
AcDbLine
 10
1398.7871129567
 20
-232.9917820574
 30
-1.5367863724
 11
1398.7871129567
 21
-255.5684997952
 31
-5.5176708454
  0
LINE
  5
51
100
AcDbEntity
  8
L1_120
  6
CONTINUOUS
 62
         7
100
AcDbLine
 10
1393.3758425579
 20
-195.8176575836
 30
5.0180147566
 11
1391.7145721591
 21
-192.9839670913
 31
5.5176708454
  0
LINE
  5
52
100
AcDbEntity
  8
L1_120
  6
CENTER
 62
         1
100
AcDbLine
 10
1390.9398372993
 20
-192.1222603074
 30
5.6696130008
 11
1399.3486718677
 21
-192.1222603074
 31
5.6696130008
  0
LINE
  5
53
100
AcDbEntity
  8
L1_120
  6
CENTER
 62
         1
100
AcDbLine
 10
1390.9398372993
 20
-256.4302065791
 30
-5.6696130008
 11
1399.3486718677
 21
-256.4302065791
 31
-5.6696130008
  0
LINE
  5
54
100
AcDbEntity
  8
L1_120
  6
CONTINUOUS
 62
         7
100
AcDbLine
 10
1393.3758425579
 20
-252.7348093028
 30
-5.0180147566
 11
1391.7145721591
 21
-255.5684997952
 31
-5.5176708454
  0
LINE
  5
55
100
AcDbEntity
  8
L1_120
  6
CONTINUOUS
 62
         7
100
AcDbLine
 10
1387.3508425579
 20
-193.9687748443
 30
5.3440226677
 11
1387.3508425579
 21
-254.5836920422
 31
-5.3440226677
  0
LINE
  5
56
100
AcDbEntity
  8
L1_120
  6
CENTER
 62
         1
100
AcDbLine
 10
1384.1508425579
 20
-202.3888811325
 30
3.8593307486
 11
1384.1508425579
 21
-246.1635857539
 31
-3.8593307486
  0
LINE
  5
57
100
AcDbEntity
  8
L1_120
  6
CONTINUOUS
 62
         7
100
AcDbLine
 10
1388.3508425579
 20
-255.5684997952
 30
-5.5176708454
 11
1391.7145721591
 21
-255.5684997952
 31
-5.5176708454
  0
LINE
  5
58
100
AcDbEntity
  8
L1_120
  6
CONTINUOUS
 62
         7
100
AcDbLine
 10
1388.3508425579
 20
-192.9839670913
 30
5.5176708454
 11
1391.7145721591
 21
-192.9839670913
 31
5.5176708454
  0
LINE
  5
59
100
AcDbEntity
  8
L1_120
  6
CONTINUOUS
 62
         7
100
AcDbLine
 10
1403.2508425579
 20
-193.9687748443
 30
5.3440226677
 11
1403.2508425579
 21
-205.564886136
 31
3.2993153757
  0
LINE
  5
5A
100
AcDbEntity
  8
L1_120
  6
CONTINUOUS
 62
         7
100
AcDbLine
 10
1394.3496428896
 20
-251.9739514967
 30
-4.8838549969
 11
1396.1520422261
 21
-251.9739514967
 31
-4.8838549969
  0
ARC
  5
5B
100
AcDbEntity
  8
L1_120
  6
CONTINUOUS
 62
         7
100
AcDbCircle
 10
1394.3496428896
 20
-249.9939735113
 30
38.9451592314
 40
1.0
210
0.0
220
-0.1736481776669303
230
0.9848077530122081
100
AcDbArc
 50
90.0
 51
166.8556743105
  0
LINE
  5
5C
100
AcDbEntity
  8
L1_120
  6
CONTINUOUS
 62
         7
100
AcDbLine
 10
1397.1258425579
 20
-252.7348093028
 30
-5.0180147566
 11
1398.7871129567
 21
-255.5684997952
 31
-5.5176708454
  0
ARC
  5
5D
100
AcDbEntity
  8
L1_120
  6
CONTINUOUS
 62
         7
100
AcDbCircle
 10
1396.1520422261
 20
-249.9939735113
 30
38.9451592314
 40
1.0
210
0.0
220
-0.1736481776669303
230
0.9848077530122081
100
AcDbArc
 50
13.1443256895
 51
90.0
  0
LINE
  5
5E
100
AcDbEntity
  8
L1_120
  6
CONTINUOUS
 62
         7
100
AcDbLine
 10
1398.7871129567
 20
-255.5684997952
 30
-5.5176708454
 11
1402.2508425579
 21
-255.5684997952
 31
-5.5176708454
  0
LINE
  5
5F
100
AcDbEntity
  8
L1_120
  6
CONTINUOUS
 62
         7
100
AcDbLine
 10
1397.1258425579
 20
-195.8176575836
 30
5.0180147566
 11
1398.7871129567
 21
-192.9839670913
 31
5.5176708454
  0
LINE
  5
60
100
AcDbEntity
  8
L1_120
  6
CONTINUOUS
 62
         7
100
AcDbLine
 10
1398.7871129567
 20
-192.9839670913
 30
5.5176708454
 11
1402.2508425579
 21
-192.9839670913
 31
5.5176708454
  0
LINE
  5
61
100
AcDbEntity
  8
L1_120
  6
CONTINUOUS
 62
         7
100
AcDbLine
 10
1394.3496428896
 20
-196.5785153898
 30
4.8838549969
 11
1396.1520422261
 21
-196.5785153898
 31
4.8838549969
  0
ARC
  5
62
100
AcDbEntity
  8
L1_120
  6
CONTINUOUS
 62
         7
100
AcDbCircle
 10
1394.3496428896
 20
-191.7439735113
 30
38.9451592314
 40
1.0
210
0.0
220
-0.1736481776669303
230
0.9848077530122081
100
AcDbArc
 50
193.1443256895
 51
270.0
  0
ARC
  5
63
100
AcDbEntity
  8
L1_120
  6
CONTINUOUS
 62
         7
100
AcDbCircle
 10
1396.1520422261
 20
-191.7439735113
 30
38.9451592314
 40
1.0
210
0.0
220
-0.1736481776669303
230
0.9848077530122081
100
AcDbArc
 50
270.0
 51
346.8556743105
  0
LINE
  5
64
100
AcDbEntity
  8
L1_120
  6
CENTER
 62
         1
100
AcDbLine
 10
1395.2508425579
 20
-187.3407593659
 30
6.5127206251
 11
1395.2508425579
 21
-261.2041175582
 31
-6.51138231
  0
LINE
  5
65
100
AcDbEntity
  8
L1_120
  6
CENTER
 62
         1
100
AcDbLine
 10
1380.7983511394
 20
-224.2762334432
 30
0.0
 11
1403.2508425579
 21
-224.2762334432
 31
0.0
  0
LINE
  5
66
100
AcDbEntity
  8
L1_120
  6
CONTINUOUS
 62
         7
100
AcDbLine
 10
1385.3508425579
 20
-246.3359271107
 30
-3.8897191797
 11
1385.3508425579
 21
-202.2165397757
 31
3.8897191797
  0
CIRCLE
  5
67
100
AcDbEntity
  8
L1_120
  6
CONTINUOUS
 62
         7
100
AcDbCircle
 10
1395.2508425579
 20
-220.8689735113
 30
38.9451592314
 40
5.0
210
0.0
220
-0.1736481776669303
230
0.9848077530122081
  0
CIRCLE
  5
68
100
AcDbEntity
  8
L1_120
  6
CONTINUOUS
 62
         7
100
AcDbCircle
 10
1395.2508425579
 20
-207.6650858079
 30
38.9451592314
 40
1.875
210
0.0
220
-0.1736481776669303
230
0.9848077530122081
  0
CIRCLE
  5
69
100
AcDbEntity
  8
L1_120
  6
CONTINUOUS
 62
         7
100
AcDbCircle
 10
1395.2508425579
 20
-234.0728612146
 30
38.9451592314
 40
1.875
210
0.0
220
-0.1736481776669303
230
0.9848077530122081
  0
LINE
  5
6A
100
AcDbEntity
  8
L1_120
  6
CONTINUOUS
 62
         7
100
AcDbLine
 10
1386.5508425579
 20
-202.2165397757
 30
3.8897191797
 11
1385.3508425579
 21
-202.2165397757
 31
3.8897191797
  0
ARC
  5
6B
100
AcDbEntity
  8
L1_120
  6
CONTINUOUS
 62
         7
100
AcDbCircle
 10
1386.5508425579
 20
-197.6689735113
 30
38.9451592314
 40
0.8
210
0.0
220
-0.1736481776669303
230
0.9848077530122081
100
AcDbArc
 50
269.9999999999
 51
360.0
  0
ARC
  5
6C
100
AcDbEntity
  8
L1_120
  6
CONTINUOUS
 62
         7
100
AcDbCircle
 10
1386.5508425579
 20
-244.0689735113
 30
38.9451592314
 40
0.8
210
0.0
220
-0.1736481776669303
230
0.9848077530122081
100
AcDbArc
 50
0.0
 51
90.0000000001
  0
LINE
  5
6D
100
AcDbEntity
  8
L1_120
  6
CONTINUOUS
 62
         7
100
AcDbLine
 10
1386.5508425579
 20
-246.3359271107
 30
-3.8897191797
 11
1385.3508425579
 21
-246.3359271107
 31
-3.8897191797
  0
ARC
  5
6E
100
AcDbEntity
  8
L1_120
  6
CONTINUOUS
 62
         7
100
AcDbCircle
 10
1317.1008425579
 20
-321.7968990603
 30
58.7223649554
 40
1.2
210
0.0
220
-0.1736481776669303
230
0.9848077530122081
100
AcDbArc
 50
98.2971449698
 51
180.0
  0
LINE
  5
6F
100
AcDbEntity
  8
L1_120
  6
CONTINUOUS
 62
         7
100
AcDbLine
 10
1315.9008425579
 20
-327.1051127527
 30
1.9507951826
 11
1315.9008425579
 21
-349.2321312589
 31
-1.9507951826
  0
ARC
  5
70
100
AcDbEntity
  8
L1_120
  6
CONTINUOUS
 62
         7
100
AcDbCircle
 10
1317.1008425579
 20
-344.2652624932
 30
58.7223649554
 40
1.2
210
0.0
220
-0.1736481776669303
230
0.9848077530122081
100
AcDbArc
 50
180.0
 51
261.7028550302
  0
LINE
  5
71
100
AcDbEntity
  8
L1_120
  6
CONTINUOUS
 62
         7
100
AcDbLine
 10
1316.7776742862
 20
-350.3799882912
 30
-2.1531933474
 11
1385.3508425583
 21
-360.2283156733
 31
-3.8897191798
  0
LINE
  5
72
100
AcDbEntity
  8
L1_120
  6
CONTINUOUS
 62
         7
100
AcDbLine
 10
1316.7776742862
 20
-325.9572557203
 30
2.1531933474
 11
1385.3508425579
 21
-316.1089283383
 31
3.8897191797
  0
LINE
  5
73
100
AcDbEntity
  8
L1_120
  6
CENTER
 62
         1
100
AcDbLine
 10
1243.1257669317
 20
-200.8729097539
 30
0.0
 11
1237.487611207
 21
-198.8207888939
 31
0.0
  0
ARC
  5
74
100
AcDbEntity
  8
L1_120
  6
CONTINUOUS
 62
         7
100
AcDbCircle
 10
1241.2202828813
 20
-200.1793702776
 30
0.0
 40
2.9722262277
100
AcDbArc
 50
141.257725858
 51
160.0
  0
ARC
  5
75
100
AcDbEntity
  8
L1_120
  6
CONTINUOUS
 62
         7
100
AcDbCircle
 10
1240.8282055258
 20
-199.8647818452
 30
0.0
 40
2.4695428935
100
AcDbArc
 50
120.6773100903
 51
141.257725858
  0
POLYLINE
  5
77
100
AcDbEntity
  8
L1_120
  6
CONTINUOUS
 62
         7
100
AcDb3dPolyline
 66
         1
 10
0.0
 20
0.0
 30
0.0
 70
         8
  0
VERTEX
  5
79
100
AcDbEntity
  8
L1_120
  6
CONTINUOUS
 62
         7
100
AcDbVertex
100
AcDb3dPolylineVertex
 10
1239.5682389019
 20
-197.7408406479
 30
0.0
 70
        32
  0
VERTEX
  5
7B
100
AcDbEntity
  8
L1_120
  6
CONTINUOUS
 62
         7
100
AcDbVertex
100
AcDb3dPolylineVertex
 10
1239.5682389019
 20
-197.7408406479
 30
0.0
 70
        32
  0
SEQEND
  5
7D
100
AcDbEntity
  8
L1_120
  6
CONTINUOUS
 62
         7
  0
ARC
  5
7E
100
AcDbEntity
  8
L1_120
  6
CONTINUOUS
 62
         7
100
AcDbCircle
 10
1240.6284669948
 20
-199.5280801526
 30
0.0
 40
2.0780540551
100
AcDbArc
 50
96.8239621528
 51
120.6773100904
  0
POLYLINE
  5
80
100
AcDbEntity
  8
L1_120
  6
CONTINUOUS
 62
         7
100
AcDb3dPolyline
 66
         1
 10
0.0
 20
0.0
 30
0.0
 70
         8
  0
VERTEX
  5
82
100
AcDbEntity
  8
L1_120
  6
CONTINUOUS
 62
         7
100
AcDbVertex
100
AcDb3dPolylineVertex
 10
1240.3815542028
 20
-197.4647472349
 30
0.0
 70
        32
  0
VERTEX
  5
84
100
AcDbEntity
  8
L1_120
  6
CONTINUOUS
 62
         7
100
AcDbVertex
100
AcDb3dPolylineVertex
 10
1240.3815542028
 20
-197.4647472349
 30
0.0
 70
        32
  0
SEQEND
  5
86
100
AcDbEntity
  8
L1_120
  6
CONTINUOUS
 62
         7
  0
ARC
  5
87
100
AcDbEntity
  8
L1_120
  6
CONTINUOUS
 62
         7
100
AcDbCircle
 10
1240.5775566661
 20
-199.1026467183
 30
0.0
 40
1.6495853065
100
AcDbArc
 50
70.0000000001
 51
96.8239621529
  0
POLYLINE
  5
89
100
AcDbEntity
  8
L1_120
  6
CONTINUOUS
 62
         7
100
AcDb3dPolyline
 66
         1
 10
0.0
 20
0.0
 30
0.0
 70
         8
  0
VERTEX
  5
8B
100
AcDbEntity
  8
L1_120
  6
CONTINUOUS
 62
         7
100
AcDbVertex
100
AcDb3dPolylineVertex
 10
1241.141748069
 20
-197.5525435785
 30
0.0
 70
        32
  0
VERTEX
  5
8D
100
AcDbEntity
  8
L1_120
  6
CONTINUOUS
 62
         7
100
AcDbVertex
100
AcDb3dPolylineVertex
 10
1241.141748069
 20
-197.5525435785
 30
0.0
 70
        32
  0
SEQEND
  5
8F
100
AcDbEntity
  8
L1_120
  6
CONTINUOUS
 62
         7
  0
ARC
  5
90
100
AcDbEntity
  8
L1_120
  6
CONTINUOUS
 62
         7
100
AcDbCircle
 10
1240.5775566661
 20
-199.1026467183
 30
0.0
 40
1.6495853065
100
AcDbArc
 50
43.1760378472
 51
70.0
  0
POLYLINE
  5
92
100
AcDbEntity
  8
L1_120
  6
CONTINUOUS
 62
         7
100
AcDb3dPolyline
 66
         1
 10
0.0
 20
0.0
 30
0.0
 70
         8
  0
VERTEX
  5
94
100
AcDbEntity
  8
L1_120
  6
CONTINUOUS
 62
         7
100
AcDbVertex
100
AcDb3dPolylineVertex
 10
1241.7805247577
 20
-197.9739308755
 30
0.0
 70
        32
  0
VERTEX
  5
96
100
AcDbEntity
  8
L1_120
  6
CONTINUOUS
 62
         7
100
AcDbVertex
100
AcDb3dPolylineVertex
 10
1241.7805247577
 20
-197.9739308755
 30
0.0
 70
        32
  0
SEQEND
  5
98
100
AcDbEntity
  8
L1_120
  6
CONTINUOUS
 62
         7
  0
ARC
  5
99
100
AcDbEntity
  8
L1_120
  6
CONTINUOUS
 62
         7
100
AcDbCircle
 10
1240.2650937514
 20
-199.3958231081
 30
0.0
 40
2.0780540551
100
AcDbArc
 50
19.3226899096
 51
43.1760378472
  0
POLYLINE
  5
9B
100
AcDbEntity
  8
L1_120
  6
CONTINUOUS
 62
         7
100
AcDb3dPolyline
 66
         1
 10
0.0
 20
0.0
 30
0.0
 70
         8
  0
VERTEX
  5
9D
100
AcDbEntity
  8
L1_120
  6
CONTINUOUS
 62
         7
100
AcDbVertex
100
AcDb3dPolylineVertex
 10
1242.2260909995
 20
-198.7082196985
 30
0.0
 70
        32
  0
VERTEX
  5
9F
100
AcDbEntity
  8
L1_120
  6
CONTINUOUS
 62
         7
100
AcDbVertex
100
AcDb3dPolylineVertex
 10
1242.2260909995
 20
-198.7082196985
 30
0.0
 70
        32
  0
SEQEND
  5
A1
100
AcDbEntity
  8
L1_120
  6
CONTINUOUS
 62
         7
  0
ARC
  5
A2
100
AcDbEntity
  8
L1_120
  6
CONTINUOUS
 62
         7
100
AcDbCircle
 10
1239.8956574834
 20
-199.5253621157
 30
0.0
 40
2.4695428935
100
AcDbArc
 50
358.742274142
 51
379.3226899097
  0
POLYLINE
  5
A4
100
AcDbEntity
  8
L1_120
  6
CONTINUOUS
 62
         7
100
AcDb3dPolyline
 66
         1
 10
0.0
 20
0.0
 30
0.0
 70
         8
  0
VERTEX
  5
A6
100
AcDbEntity
  8
L1_120
  6
CONTINUOUS
 62
         7
100
AcDbVertex
100
AcDb3dPolylineVertex
 10
1242.3646054058
 20
-199.5795678275
 30
0.0
 70
        32
  0
VERTEX
  5
A8
100
AcDbEntity
  8
L1_120
  6
CONTINUOUS
 62
         7
100
AcDbVertex
100
AcDb3dPolylineVertex
 10
1242.3646054058
 20
-199.5795678275
 30
0.0
 70
        32
  0
SEQEND
  5
AA
100
AcDbEntity
  8
L1_120
  6
CONTINUOUS
 62
         7
  0
ARC
  5
AB
100
AcDbEntity
  8
L1_120
  6
CONTINUOUS
 62
         7
100
AcDbCircle
 10
1239.3930952575
 20
-199.5143283701
 30
0.0
 40
2.9722262277
100
AcDbArc
 50
339.9999999999
 51
358.742274142
  0
POLYLINE
  5
AD
100
AcDbEntity
  8
L1_120
  6
CONTINUOUS
 62
         7
100
AcDb3dPolyline
 66
         1
 10
0.0
 20
0.0
 30
0.0
 70
         8
  0
VERTEX
  5
AF
100
AcDbEntity
  8
L1_120
  6
CONTINUOUS
 62
         7
100
AcDbVertex
100
AcDb3dPolylineVertex
 10
1242.186074311
 20
-200.5308896105
 30
0.0
 70
        32
  0
VERTEX
  5
B1
100
AcDbEntity
  8
L1_120
  6
CONTINUOUS
 62
         7
100
AcDbVertex
100
AcDb3dPolylineVertex
 10
1242.186074311
 20
-200.5308896105
 30
0.0
 70
        32
  0
SEQEND
  5
B3
100
AcDbEntity
  8
L1_120
  6
CONTINUOUS
 62
         7
  0
ARC
  5
B4
100
AcDbEntity
  8
L1_120
  6
CONTINUOUS
 62
         7
100
AcDbCircle
 10
1239.3930952574
 20
-199.5143283701
 30
0.0
 40
2.9722262277
100
AcDbArc
 50
321.257725858
 51
340.0
  0
POLYLINE
  5
B6
100
AcDbEntity
  8
L1_120
  6
CONTINUOUS
 62
         7
100
AcDb3dPolyline
 66
         1
 10
0.0
 20
0.0
 30
0.0
 70
         8
  0
VERTEX
  5
B8
100
AcDbEntity
  8
L1_120
  6
CONTINUOUS
 62
         7
100
AcDbVertex
100
AcDb3dPolylineVertex
 10
1241.7113392092
 20
-201.3744019518
 30
0.0
 70
        32
  0
VERTEX
  5
BA
100
AcDbEntity
  8
L1_120
  6
CONTINUOUS
 62
         7
100
AcDbVertex
100
AcDb3dPolylineVertex
 10
1241.7113392092
 20
-201.3744019518
 30
0.0
 70
        32
  0
SEQEND
  5
BC
100
AcDbEntity
  8
L1_120
  6
CONTINUOUS
 62
         7
  0
ARC
  5
BD
100
AcDbEntity
  8
L1_120
  6
CONTINUOUS
 62
         7
100
AcDbCircle
 10
1239.7851726129
 20
-199.8289168026
 30
0.0
 40
2.4695428935
100
AcDbArc
 50
300.6773100903
 51
321.257725858
  0
POLYLINE
  5
BF
100
AcDbEntity
  8
L1_120
  6
CONTINUOUS
 62
         7
100
AcDb3dPolyline
 66
         1
 10
0.0
 20
0.0
 30
0.0
 70
         8
  0
VERTEX
  5
C1
100
AcDbEntity
  8
L1_120
  6
CONTINUOUS
 62
         7
100
AcDbVertex
100
AcDb3dPolylineVertex
 10
1241.0451392368
 20
-201.9528579999
 30
0.0
 70
        32
  0
VERTEX
  5
C3
100
AcDbEntity
  8
L1_120
  6
CONTINUOUS
 62
         7
100
AcDbVertex
100
AcDb3dPolylineVertex
 10
1241.0451392368
 20
-201.9528579999
 30
0.0
 70
        32
  0
SEQEND
  5
C5
100
AcDbEntity
  8
L1_120
  6
CONTINUOUS
 62
         7
  0
ARC
  5
C6
100
AcDbEntity
  8
L1_120
  6
CONTINUOUS
 62
         7
100
AcDbCircle
 10
1239.984911144
 20
-200.1656184952
 30
0.0
 40
2.0780540551
100
AcDbArc
 50
276.8239621528
 51
300.6773100904
  0
POLYLINE
  5
C8
100
AcDbEntity
  8
L1_120
  6
CONTINUOUS
 62
         7
100
AcDb3dPolyline
 66
         1
 10
0.0
 20
0.0
 30
0.0
 70
         8
  0
VERTEX
  5
CA
100
AcDbEntity
  8
L1_120
  6
CONTINUOUS
 62
         7
100
AcDbVertex
100
AcDb3dPolylineVertex
 10
1240.231823936
 20
-202.2289514128
 30
0.0
 70
        32
  0
VERTEX
  5
CC
100
AcDbEntity
  8
L1_120
  6
CONTINUOUS
 62
         7
100
AcDbVertex
100
AcDb3dPolylineVertex
 10
1240.231823936
 20
-202.2289514128
 30
0.0
 70
        32
  0
SEQEND
  5
CE
100
AcDbEntity
  8
L1_120
  6
CONTINUOUS
 62
         7
  0
ARC
  5
CF
100
AcDbEntity
  8
L1_120
  6
CONTINUOUS
 62
         7
100
AcDbCircle
 10
1240.0358214727
 20
-200.5910519294
 30
0.0
 40
1.6495853065
100
AcDbArc
 50
250.0
 51
276.8239621528
  0
POLYLINE
  5
D1
100
AcDbEntity
  8
L1_120
  6
CONTINUOUS
 62
         7
100
AcDb3dPolyline
 66
         1
 10
0.0
 20
0.0
 30
0.0
 70
         8
  0
VERTEX
  5
D3
100
AcDbEntity
  8
L1_120
  6
CONTINUOUS
 62
         7
100
AcDbVertex
100
AcDb3dPolylineVertex
 10
1239.4716300697
 20
-202.1411550693
 30
0.0
 70
        32
  0
VERTEX
  5
D5
100
AcDbEntity
  8
L1_120
  6
CONTINUOUS
 62
         7
100
AcDbVertex
100
AcDb3dPolylineVertex
 10
1239.4716300697
 20
-202.1411550693
 30
0.0
 70
        32
  0
SEQEND
  5
D7
100
AcDbEntity
  8
L1_120
  6
CONTINUOUS
 62
         7
  0
ARC
  5
D8
100
AcDbEntity
  8
L1_120
  6
CONTINUOUS
 62
         7
100
AcDbCircle
 10
1240.0358214727
 20
-200.5910519294
 30
0.0
 40
1.6495853065
100
AcDbArc
 50
223.1760378472
 51
249.9999999999
  0
POLYLINE
  5
DA
100
AcDbEntity
  8
L1_120
  6
CONTINUOUS
 62
         7
100
AcDb3dPolyline
 66
         1
 10
0.0
 20
0.0
 30
0.0
 70
         8
  0
VERTEX
  5
DC
100
AcDbEntity
  8
L1_120
  6
CONTINUOUS
 62
         7
100
AcDbVertex
100
AcDb3dPolylineVertex
 10
1238.832853381
 20
-201.7197677722
 30
0.0
 70
        32
  0
VERTEX
  5
DE
100
AcDbEntity
  8
L1_120
  6
CONTINUOUS
 62
         7
100
AcDbVertex
100
AcDb3dPolylineVertex
 10
1238.832853381
 20
-201.7197677722
 30
0.0
 70
        32
  0
SEQEND
  5
E0
100
AcDbEntity
  8
L1_120
  6
CONTINUOUS
 62
         7
  0
ARC
  5
E1
100
AcDbEntity
  8
L1_120
  6
CONTINUOUS
 62
         7
100
AcDbCircle
 10
1240.3482843874
 20
-200.2978755397
 30
0.0
 40
2.0780540551
100
AcDbArc
 50
199.3226899097
 51
223.1760378473
  0
POLYLINE
  5
E3
100
AcDbEntity
  8
L1_120
  6
CONTINUOUS
 62
         7
100
AcDb3dPolyline
 66
         1
 10
0.0
 20
0.0
 30
0.0
 70
         8
  0
VERTEX
  5
E5
100
AcDbEntity
  8
L1_120
  6
CONTINUOUS
 62
         7
100
AcDbVertex
100
AcDb3dPolylineVertex
 10
1238.3872871393
 20
-200.9854789493
 30
0.0
 70
        32
  0
VERTEX
  5
E7
100
AcDbEntity
  8
L1_120
  6
CONTINUOUS
 62
         7
100
AcDbVertex
100
AcDb3dPolylineVertex
 10
1238.3872871393
 20
-200.9854789493
 30
0.0
 70
        32
  0
SEQEND
  5
E9
100
AcDbEntity
  8
L1_120
  6
CONTINUOUS
 62
         7
  0
ARC
  5
EA
100
AcDbEntity
  8
L1_120
  6
CONTINUOUS
 62
         7
100
AcDbCircle
 10
1240.7177206553
 20
-200.1683365321
 30
0.0
 40
2.4695428935
100
AcDbArc
 50
178.7422741421
 51
199.3226899097
  0
POLYLINE
  5
EC
100
AcDbEntity
  8
L1_120
  6
CONTINUOUS
 62
         7
100
AcDb3dPolyline
 66
         1
 10
0.0
 20
0.0
 30
0.0
 70
         8
  0
VERTEX
  5
EE
100
AcDbEntity
  8
L1_120
  6
CONTINUOUS
 62
         7
100
AcDbVertex
100
AcDb3dPolylineVertex
 10
1238.2487727329
 20
-200.1141308202
 30
0.0
 70
        32
  0
VERTEX
  5
F0
100
AcDbEntity
  8
L1_120
  6
CONTINUOUS
 62
         7
100
AcDbVertex
100
AcDb3dPolylineVertex
 10
1238.2487727329
 20
-200.1141308202
 30
0.0
 70
        32
  0
SEQEND
  5
F2
100
AcDbEntity
  8
L1_120
  6
CONTINUOUS
 62
         7
  0
ARC
  5
F3
100
AcDbEntity
  8
L1_120
  6
CONTINUOUS
 62
         7
100
AcDbCircle
 10
1241.2202828813
 20
-200.1793702776
 30
0.0
 40
2.9722262277
100
AcDbArc
 50
160.0
 51
178.7422741421
  0
POLYLINE
  5
F5
100
AcDbEntity
  8
L1_120
  6
CONTINUOUS
 62
         7
100
AcDb3dPolyline
 66
         1
 10
0.0
 20
0.0
 30
0.0
 70
         8
  0
VERTEX
  5
F7
100
AcDbEntity
  8
L1_120
  6
CONTINUOUS
 62
         7
100
AcDbVertex
100
AcDb3dPolylineVertex
 10
1238.4273038278
 20
-199.1628090372
 30
0.0
 70
        32
  0
VERTEX
  5
F9
100
AcDbEntity
  8
L1_120
  6
CONTINUOUS
 62
         7
100
AcDbVertex
100
AcDb3dPolylineVertex
 10
1238.4273038278
 20
-199.1628090372
 30
0.0
 70
        32
  0
SEQEND
  5
FB
100
AcDbEntity
  8
L1_120
  6
CONTINUOUS
 62
         7
  0
ARC
  5
FC
100
AcDbEntity
  8
L1_120
  6
CONTINUOUS
 62
         7
100
AcDbCircle
 10
1221.7960060118
 20
-250.1392246305
 30
0.0
 40
2.0780540551
100
AcDbArc
 50
19.3226899096
 51
43.1760378472
  0
ARC
  5
FD
100
AcDbEntity
  8
L1_120
  6
CONTINUOUS
 62
         7
100
AcDbCircle
 10
1221.4265697438
 20
-250.2687636381
 30
0.0
 40
2.4695428935
100
AcDbArc
 50
358.742274142
 51
379.3226899097
  0
ARC
  5
FE
100
AcDbEntity
  8
L1_120
  6
CONTINUOUS
 62
         7
100
AcDbCircle
 10
1222.7511951417
 20
-250.9227718001
 30
0.0
 40
2.9722262277
100
AcDbArc
 50
160.0
 51
178.742274142
  0
ARC
  5
FF
100
AcDbEntity
  8
L1_120
  6
CONTINUOUS
 62
         7
100
AcDbCircle
 10
1222.2486329158
 20
-250.9117380545
 30
0.0
 40
2.4695428935
100
AcDbArc
 50
178.742274142
 51
199.3226899096
  0
ARC
  5
100
100
AcDbEntity
  8
L1_120
  6
CONTINUOUS
 62
         7
100
AcDbCircle
 10
1221.8791966478
 20
-251.0412770621
 30
0.0
 40
2.0780540551
100
AcDbArc
 50
199.3226899096
 51
223.1760378473
  0
POLYLINE
  5
102
100
AcDbEntity
  8
L1_120
  6
CONTINUOUS
 62
         7
100
AcDb3dPolyline
 66
         1
 10
0.0
 20
0.0
 30
0.0
 70
         8
  0
VERTEX
  5
104
100
AcDbEntity
  8
L1_120
  6
CONTINUOUS
 62
         7
100
AcDbVertex
100
AcDb3dPolylineVertex
 10
1220.3637656414
 20
-252.4631692947
 30
0.0
 70
        32
  0
VERTEX
  5
106
100
AcDbEntity
  8
L1_120
  6
CONTINUOUS
 62
         7
100
AcDbVertex
100
AcDb3dPolylineVertex
 10
1220.3637656414
 20
-252.4631692947
 30
0.0
 70
        32
  0
SEQEND
  5
108
100
AcDbEntity
  8
L1_120
  6
CONTINUOUS
 62
         7
  0
ARC
  5
109
100
AcDbEntity
  8
L1_120
  6
CONTINUOUS
 62
         7
100
AcDbCircle
 10
1221.5667337331
 20
-251.3344534519
 30
0.0
 40
1.6495853065
100
AcDbArc
 50
223.1760378472
 51
250.0
  0
POLYLINE
  5
10B
100
AcDbEntity
  8
L1_120
  6
CONTINUOUS
 62
         7
100
AcDb3dPolyline
 66
         1
 10
0.0
 20
0.0
 30
0.0
 70
         8
  0
VERTEX
  5
10D
100
AcDbEntity
  8
L1_120
  6
CONTINUOUS
 62
         7
100
AcDbVertex
100
AcDb3dPolylineVertex
 10
1221.0025423302
 20
-252.8845565917
 30
0.0
 70
        32
  0
VERTEX
  5
10F
100
AcDbEntity
  8
L1_120
  6
CONTINUOUS
 62
         7
100
AcDbVertex
100
AcDb3dPolylineVertex
 10
1221.0025423302
 20
-252.8845565917
 30
0.0
 70
        32
  0
SEQEND
  5
111
100
AcDbEntity
  8
L1_120
  6
CONTINUOUS
 62
         7
  0
ARC
  5
112
100
AcDbEntity
  8
L1_120
  6
CONTINUOUS
 62
         7
100
AcDbCircle
 10
1221.5667337331
 20
-251.3344534519
 30
0.0
 40
1.6495853065
100
AcDbArc
 50
250.0
 51
276.8239621528
  0
POLYLINE
  5
114
100
AcDbEntity
  8
L1_120
  6
CONTINUOUS
 62
         7
100
AcDb3dPolyline
 66
         1
 10
0.0
 20
0.0
 30
0.0
 70
         8
  0
VERTEX
  5
116
100
AcDbEntity
  8
L1_120
  6
CONTINUOUS
 62
         7
100
AcDbVertex
100
AcDb3dPolylineVertex
 10
1221.7627361964
 20
-252.9723529353
 30
0.0
 70
        32
  0
VERTEX
  5
118
100
AcDbEntity
  8
L1_120
  6
CONTINUOUS
 62
         7
100
AcDbVertex
100
AcDb3dPolylineVertex
 10
1221.7627361964
 20
-252.9723529353
 30
0.0
 70
        32
  0
SEQEND
  5
11A
100
AcDbEntity
  8
L1_120
  6
CONTINUOUS
 62
         7
  0
ARC
  5
11B
100
AcDbEntity
  8
L1_120
  6
CONTINUOUS
 62
         7
100
AcDbCircle
 10
1221.5158234044
 20
-250.9090200176
 30
0.0
 40
2.0780540551
100
AcDbArc
 50
276.8239621528
 51
300.6773100903
  0
POLYLINE
  5
11D
100
AcDbEntity
  8
L1_120
  6
CONTINUOUS
 62
         7
100
AcDb3dPolyline
 66
         1
 10
0.0
 20
0.0
 30
0.0
 70
         8
  0
VERTEX
  5
11F
100
AcDbEntity
  8
L1_120
  6
CONTINUOUS
 62
         7
100
AcDbVertex
100
AcDb3dPolylineVertex
 10
1222.5760514972
 20
-252.6962595223
 30
0.0
 70
        32
  0
VERTEX
  5
121
100
AcDbEntity
  8
L1_120
  6
CONTINUOUS
 62
         7
100
AcDbVertex
100
AcDb3dPolylineVertex
 10
1222.5760514972
 20
-252.6962595223
 30
0.0
 70
        32
  0
SEQEND
  5
123
100
AcDbEntity
  8
L1_120
  6
CONTINUOUS
 62
         7
  0
ARC
  5
124
100
AcDbEntity
  8
L1_120
  6
CONTINUOUS
 62
         7
100
AcDbCircle
 10
1221.3160848733
 20
-250.572318325
 30
0.0
 40
2.4695428935
100
AcDbArc
 50
300.6773100904
 51
321.2577258581
  0
POLYLINE
  5
126
100
AcDbEntity
  8
L1_120
  6
CONTINUOUS
 62
         7
100
AcDb3dPolyline
 66
         1
 10
0.0
 20
0.0
 30
0.0
 70
         8
  0
VERTEX
  5
128
100
AcDbEntity
  8
L1_120
  6
CONTINUOUS
 62
         7
100
AcDbVertex
100
AcDb3dPolylineVertex
 10
1223.2422514696
 20
-252.1178034742
 30
0.0
 70
        32
  0
VERTEX
  5
12A
100
AcDbEntity
  8
L1_120
  6
CONTINUOUS
 62
         7
100
AcDbVertex
100
AcDb3dPolylineVertex
 10
1223.2422514696
 20
-252.1178034742
 30
0.0
 70
        32
  0
SEQEND
  5
12C
100
AcDbEntity
  8
L1_120
  6
CONTINUOUS
 62
         7
  0
ARC
  5
12D
100
AcDbEntity
  8
L1_120
  6
CONTINUOUS
 62
         7
100
AcDbCircle
 10
1220.9240075179
 20
-250.2577298926
 30
0.0
 40
2.9722262277
100
AcDbArc
 50
321.257725858
 51
340.0
  0
POLYLINE
  5
12F
100
AcDbEntity
  8
L1_120
  6
CONTINUOUS
 62
         7
100
AcDb3dPolyline
 66
         1
 10
0.0
 20
0.0
 30
0.0
 70
         8
  0
VERTEX
  5
131
100
AcDbEntity
  8
L1_120
  6
CONTINUOUS
 62
         7
100
AcDbVertex
100
AcDb3dPolylineVertex
 10
1223.7169865714
 20
-251.274291133
 30
0.0
 70
        32
  0
VERTEX
  5
133
100
AcDbEntity
  8
L1_120
  6
CONTINUOUS
 62
         7
100
AcDbVertex
100
AcDb3dPolylineVertex
 10
1223.7169865714
 20
-251.274291133
 30
0.0
 70
        32
  0
SEQEND
  5
135
100
AcDbEntity
  8
L1_120
  6
CONTINUOUS
 62
         7
  0
ARC
  5
136
100
AcDbEntity
  8
L1_120
  6
CONTINUOUS
 62
         7
100
AcDbCircle
 10
1220.9240075179
 20
-250.2577298926
 30
0.0
 40
2.9722262277
100
AcDbArc
 50
339.9999999999
 51
358.742274142
  0
POLYLINE
  5
138
100
AcDbEntity
  8
L1_120
  6
CONTINUOUS
 62
         7
100
AcDb3dPolyline
 66
         1
 10
0.0
 20
0.0
 30
0.0
 70
         8
  0
VERTEX
  5
13A
100
AcDbEntity
  8
L1_120
  6
CONTINUOUS
 62
         7
100
AcDbVertex
100
AcDb3dPolylineVertex
 10
1223.8955176663
 20
-250.32296935
 30
0.0
 70
        32
  0
VERTEX
  5
13C
100
AcDbEntity
  8
L1_120
  6
CONTINUOUS
 62
         7
100
AcDbVertex
100
AcDb3dPolylineVertex
 10
1223.8955176663
 20
-250.32296935
 30
0.0
 70
        32
  0
SEQEND
  5
13E
100
AcDbEntity
  8
L1_120
  6
CONTINUOUS
 62
         7
  0
POLYLINE
  5
140
100
AcDbEntity
  8
L1_120
  6
CONTINUOUS
 62
         7
100
AcDb3dPolyline
 66
         1
 10
0.0
 20
0.0
 30
0.0
 70
         8
  0
VERTEX
  5
142
100
AcDbEntity
  8
L1_120
  6
CONTINUOUS
 62
         7
100
AcDbVertex
100
AcDb3dPolylineVertex
 10
1223.3114370182
 20
-248.717332398
 30
0.0
 70
        32
  0
VERTEX
  5
144
100
AcDbEntity
  8
L1_120
  6
CONTINUOUS
 62
         7
100
AcDbVertex
100
AcDb3dPolylineVertex
 10
1223.3114370182
 20
-248.717332398
 30
0.0
 70
        32
  0
SEQEND
  5
146
100
AcDbEntity
  8
L1_120
  6
CONTINUOUS
 62
         7
  0
ARC
  5
147
100
AcDbEntity
  8
L1_120
  6
CONTINUOUS
 62
         7
100
AcDbCircle
 10
1222.1084689265
 20
-249.8460482408
 30
0.0
 40
1.6495853065
100
AcDbArc
 50
43.1760378472
 51
70.0
  0
POLYLINE
  5
149
100
AcDbEntity
  8
L1_120
  6
CONTINUOUS
 62
         7
100
AcDb3dPolyline
 66
         1
 10
0.0
 20
0.0
 30
0.0
 70
         8
  0
VERTEX
  5
14B
100
AcDbEntity
  8
L1_120
  6
CONTINUOUS
 62
         7
100
AcDbVertex
100
AcDb3dPolylineVertex
 10
1222.6726603294
 20
-248.2959451009
 30
0.0
 70
        32
  0
VERTEX
  5
14D
100
AcDbEntity
  8
L1_120
  6
CONTINUOUS
 62
         7
100
AcDbVertex
100
AcDb3dPolylineVertex
 10
1222.6726603294
 20
-248.2959451009
 30
0.0
 70
        32
  0
SEQEND
  5
14F
100
AcDbEntity
  8
L1_120
  6
CONTINUOUS
 62
         7
  0
ARC
  5
150
100
AcDbEntity
  8
L1_120
  6
CONTINUOUS
 62
         7
100
AcDbCircle
 10
1222.1084689265
 20
-249.8460482408
 30
0.0
 40
1.6495853065
100
AcDbArc
 50
70.0
 51
96.8239621528
  0
ARC
  5
151
100
AcDbEntity
  8
L1_120
  6
CONTINUOUS
 62
         7
100
AcDbCircle
 10
1222.1593792552
 20
-250.271481675
 30
0.0
 40
2.0780540551
100
AcDbArc
 50
96.8239621528
 51
120.6773100904
  0
POLYLINE
  5
153
100
AcDbEntity
  8
L1_120
  6
CONTINUOUS
 62
         7
100
AcDb3dPolyline
 66
         1
 10
0.0
 20
0.0
 30
0.0
 70
         8
  0
VERTEX
  5
155
100
AcDbEntity
  8
L1_120
  6
CONTINUOUS
 62
         7
100
AcDbVertex
100
AcDb3dPolylineVertex
 10
1221.0991511624
 20
-248.4842421703
 30
0.0
 70
        32
  0
VERTEX
  5
157
100
AcDbEntity
  8
L1_120
  6
CONTINUOUS
 62
         7
100
AcDbVertex
100
AcDb3dPolylineVertex
 10
1221.0991511624
 20
-248.4842421703
 30
0.0
 70
        32
  0
SEQEND
  5
159
100
AcDbEntity
  8
L1_120
  6
CONTINUOUS
 62
         7
  0
ARC
  5
15A
100
AcDbEntity
  8
L1_120
  6
CONTINUOUS
 62
         7
100
AcDbCircle
 10
1222.3591177863
 20
-250.6081833676
 30
0.0
 40
2.4695428935
100
AcDbArc
 50
120.6773100904
 51
141.257725858
  0
POLYLINE
  5
15C
100
AcDbEntity
  8
L1_120
  6
CONTINUOUS
 62
         7
100
AcDb3dPolyline
 66
         1
 10
0.0
 20
0.0
 30
0.0
 70
         8
  0
VERTEX
  5
15E
100
AcDbEntity
  8
L1_120
  6
CONTINUOUS
 62
         7
100
AcDbVertex
100
AcDb3dPolylineVertex
 10
1220.43295119
 20
-249.0626982184
 30
0.0
 70
        32
  0
VERTEX
  5
160
100
AcDbEntity
  8
L1_120
  6
CONTINUOUS
 62
         7
100
AcDbVertex
100
AcDb3dPolylineVertex
 10
1220.43295119
 20
-249.0626982184
 30
0.0
 70
        32
  0
SEQEND
  5
162
100
AcDbEntity
  8
L1_120
  6
CONTINUOUS
 62
         7
  0
ARC
  5
163
100
AcDbEntity
  8
L1_120
  6
CONTINUOUS
 62
         7
100
AcDbCircle
 10
1222.7511951417
 20
-250.9227718001
 30
0.0
 40
2.9722262277
100
AcDbArc
 50
141.257725858
 51
160.0
  0
POLYLINE
  5
165
100
AcDbEntity
  8
L1_120
  6
CONTINUOUS
 62
         7
100
AcDb3dPolyline
 66
         1
 10
0.0
 20
0.0
 30
0.0
 70
         8
  0
VERTEX
  5
167
100
AcDbEntity
  8
L1_120
  6
CONTINUOUS
 62
         7
100
AcDbVertex
100
AcDb3dPolylineVertex
 10
1219.9582160882
 20
-249.9062105597
 30
0.0
 70
        32
  0
VERTEX
  5
169
100
AcDbEntity
  8
L1_120
  6
CONTINUOUS
 62
         7
100
AcDbVertex
100
AcDb3dPolylineVertex
 10
1219.9582160882
 20
-249.9062105597
 30
0.0
 70
        32
  0
SEQEND
  5
16B
100
AcDbEntity
  8
L1_120
  6
CONTINUOUS
 62
         7
  0
LINE
  5
16C
100
AcDbEntity
  8
L1_120
  6
CENTER
 62
         1
100
AcDbLine
 10
1224.6566791922
 20
-251.6163112763
 30
0.0
 11
1219.0185234674
 21
-249.5641904163
 31
0.0
  0
ARC
  5
16D
100
AcDbEntity
  8
L1_120
  6
CONTINUOUS
 62
         7
100
AcDbCircle
 10
1231.0721451996
 20
-225.2185500851
 30
0.0
 40
31.775
100
AcDbArc
 50
195.411296411
 51
344.588703589
  0
ARC
  5
16E
100
AcDbEntity
  8
L1_120
  6
CONTINUOUS
 62
         7
100
AcDbCircle
 10
1231.0721451996
 20
-225.2185500851
 30
0.0
 40
31.775
100
AcDbArc
 50
15.411296411
 51
164.588703589
  0
CIRCLE
  5
16F
100
AcDbEntity
  8
L1_120
  6
CONTINUOUS
 62
         7
100
AcDbCircle
 10
1231.0721451996
 20
-225.2185500851
 30
0.0
 40
12.7165768873
  0
CIRCLE
  5
170
100
AcDbEntity
  8
L1_120
  6
CONTINUOUS
 62
         7
100
AcDbCircle
 10
1231.0721451996
 20
-225.2185500851
 30
0.0
 40
7.0
  0
ARC
  5
171
100
AcDbEntity
  8
L1_120
  6
CONTINUOUS
 62
         5
100
AcDbCircle
 10
1231.0721451996
 20
-225.2185500851
 30
0.0
 40
8.0
100
AcDbArc
 50
352.9901372228
 51
621.2264515101
  0
CIRCLE
  5
172
100
AcDbEntity
  8
L1_120
  6
CONTINUOUS
 62
         7
100
AcDbCircle
 10
1231.0721451996
 20
-225.2185500851
 30
0.0
 40
9.5
  0
CIRCLE
  5
173
100
AcDbEntity
  8
L1_120
  6
CONTINUOUS
 62
         7
100
AcDbCircle
 10
1231.0721451996
 20
-225.2185500851
 30
0.0
 40
8.5
  0
CIRCLE
  5
174
100
AcDbEntity
  8
L1_120
  6
CONTINUOUS
 62
         7
100
AcDbCircle
 10
1231.0721451996
 20
-225.2185500851
 30
0.0
 40
22.225
  0
LINE
  5
175
100
AcDbEntity
  8
L1_120
  6
CONTINUOUS
 62
         7
100
AcDbLine
 10
1261.3105271512
 20
-217.1685500851
 30
0.0
 11
1256.5721451996
 21
-217.1685500851
 31
0.0
  0
LINE
  5
176
100
AcDbEntity
  8
L1_120
  6
CONTINUOUS
 62
         7
100
AcDbLine
 10
1261.7046124323
 20
-216.7744648039
 30
0.0
 11
1261.3105271512
 21
-217.1685500851
 31
0.0
  0
LINE
  5
177
100
AcDbEntity
  8
L1_120
  6
CONTINUOUS
 62
         7
100
AcDbLine
 10
1256.0721451996
 20
-217.6685500851
 30
0.0
 11
1256.5721451996
 21
-217.1685500851
 31
0.0
  0
LINE
  5
178
100
AcDbEntity
  8
L1_120
  6
CONTINUOUS
 62
         7
100
AcDbLine
 10
1261.7046124323
 20
-233.6626353663
 30
0.0
 11
1261.3105271512
 21
-233.2685500851
 31
0.0
  0
LINE
  5
179
100
AcDbEntity
  8
L1_120
  6
CONTINUOUS
 62
         7
100
AcDbLine
 10
1256.0721451996
 20
-232.7685500851
 30
0.0
 11
1256.5721451996
 21
-233.2685500851
 31
0.0
  0
LINE
  5
17A
100
AcDbEntity
  8
L1_120
  6
CONTINUOUS
 62
         7
100
AcDbLine
 10
1256.0721451996
 20
-232.7685500851
 30
0.0
 11
1256.0721451996
 21
-217.6685500851
 31
0.0
  0
LINE
  5
17B
100
AcDbEntity
  8
L1_120
  6
CONTINUOUS
 62
         7
100
AcDbLine
 10
1261.3105271512
 20
-233.2685500851
 30
0.0
 11
1256.5721451996
 21
-233.2685500851
 31
0.0
  0
LINE
  5
17C
100
AcDbEntity
  8
L1_120
  6
CONTINUOUS
 62
         7
100
AcDbLine
 10
1200.4396779669
 20
-216.7744648039
 30
0.0
 11
1200.833763248
 21
-217.1685500851
 31
0.0
  0
LINE
  5
17D
100
AcDbEntity
  8
L1_120
  6
CONTINUOUS
 62
         7
100
AcDbLine
 10
1208.2721451996
 20
-217.6685500851
 30
0.0
 11
1207.7721451996
 21
-217.1685500851
 31
0.0
  0
LINE
  5
17E
100
AcDbEntity
  8
L1_120
  6
CONTINUOUS
 62
         7
100
AcDbLine
 10
1207.7721451996
 20
-217.1685500851
 30
0.0
 11
1200.833763248
 21
-217.1685500851
 31
0.0
  0
LINE
  5
17F
100
AcDbEntity
  8
L1_120
  6
CONTINUOUS
 62
         7
100
AcDbLine
 10
1200.4396779669
 20
-233.6626353663
 30
0.0
 11
1200.833763248
 21
-233.2685500851
 31
0.0
  0
LINE
  5
180
100
AcDbEntity
  8
L1_120
  6
CONTINUOUS
 62
         7
100
AcDbLine
 10
1207.7721451996
 20
-233.2685500851
 30
0.0
 11
1200.833763248
 21
-233.2685500851
 31
0.0
  0
LINE
  5
181
100
AcDbEntity
  8
L1_120
  6
CONTINUOUS
 62
         7
100
AcDbLine
 10
1208.2721451996
 20
-232.7685500851
 30
0.0
 11
1207.7721451996
 21
-233.2685500851
 31
0.0
  0
LINE
  5
182
100
AcDbEntity
  8
L1_120
  6
CONTINUOUS
 62
         7
100
AcDbLine
 10
1208.2721451996
 20
-232.7685500851
 30
0.0
 11
1208.2721451996
 21
-217.6685500851
 31
0.0
  0
ARC
  5
183
100
AcDbEntity
  8
L1_120
  6
CONTINUOUS
 62
         7
100
AcDbCircle
 10
1316.9008425579
 20
-329.0186220058
 30
0.0
 40
1.0
100
AcDbArc
 50
180.0
 51
270.0
  0
LINE
  5
184
100
AcDbEntity
  8
L1_120
  6
CONTINUOUS
 62
         7
100
AcDbLine
 10
1316.9008425579
 20
-330.0186220058
 30
0.0
 11
1319.6708425579
 21
-330.0186220058
 31
0.0
  0
ARC
  5
185
100
AcDbEntity
  8
L1_120
  6
CONTINUOUS
 62
         7
100
AcDbCircle
 10
1320.0703781381
 20
-330.1186220058
 30
0.0
 40
0.2
100
AcDbArc
 50
90.0
 51
105.0
  0
LINE
  5
186
100
AcDbEntity
  8
L1_120
  6
CONTINUOUS
 62
         7
100
AcDbLine
 10
1320.0186143291
 20
-329.9254368405
 30
0.0
 11
1319.6708425579
 21
-330.0186220058
 31
0.0
  0
LINE
  5
187
100
AcDbEntity
  8
L1_120
  6
CONTINUOUS
 62
         7
100
AcDbLine
 10
1320.0703781381
 20
-329.9186220058
 30
0.0
 11
1320.4708425579
 21
-329.9186220058
 31
0.0
  0
LINE
  5
188
100
AcDbEntity
  8
L1_120
  6
CONTINUOUS
 62
         7
100
AcDbLine
 10
1320.6122639141
 20
-329.9772006495
 30
0.0
 11
1321.8036852703
 21
-331.1686220058
 31
0.0
  0
ARC
  5
189
100
AcDbEntity
  8
L1_120
  6
CONTINUOUS
 62
         7
100
AcDbCircle
 10
1320.4708425579
 20
-330.1186220058
 30
0.0
 40
0.2
100
AcDbArc
 50
45.0000000038
 51
90.0
  0
LINE
  5
18A
100
AcDbEntity
  8
L1_120
  6
CONTINUOUS
 62
         7
100
AcDbLine
 10
1320.6708425579
 20
-330.3750991651
 30
0.0
 11
1320.6708425579
 21
-345.8473753413
 31
0.0
  0
LINE
  5
18B
100
AcDbEntity
  8
L1_120
  6
CONTINUOUS
 62
         7
100
AcDbLine
 10
1319.6708425579
 20
-330.0186220058
 30
0.0
 11
1319.6708425579
 21
-346.3186220058
 31
0.0
  0
LINE
  5
18C
100
AcDbEntity
  8
L1_120
  6
CONTINUOUS
 62
         5
100
AcDbLine
 10
1320.8036852703
 20
-330.1686220058
 30
0.0
 11
1344.3508425579
 21
-330.1686220058
 31
0.0
  0
LINE
  5
18D
100
AcDbEntity
  8
L1_120
  6
CONTINUOUS
 62
         7
100
AcDbLine
 10
1321.8036852703
 20
-331.1686220058
 30
0.0
 11
1321.8036852703
 21
-345.1686220058
 31
0.0
  0
LINE
  5
18E
100
AcDbEntity
  8
L1_120
  6
CONTINUOUS
 62
         7
100
AcDbLine
 10
1320.6122639141
 20
-346.360043362
 30
0.0
 11
1321.8036852703
 21
-345.1686220058
 31
0.0
  0
ARC
  5
18F
100
AcDbEntity
  8
L1_120
  6
CONTINUOUS
 62
         7
100
AcDbCircle
 10
1320.4708425579
 20
-346.2186220058
 30
0.0
 40
0.2
100
AcDbArc
 50
270.0
 51
314.9999999962
  0
LINE
  5
190
100
AcDbEntity
  8
L1_120
  6
CONTINUOUS
 62
         7
100
AcDbLine
 10
1320.0703781381
 20
-346.4186220058
 30
0.0
 11
1320.4708425579
 21
-346.4186220058
 31
0.0
  0
LINE
  5
191
100
AcDbEntity
  8
L1_120
  6
CONTINUOUS
 62
         7
100
AcDbLine
 10
1320.0186143291
 20
-346.411807171
 30
0.0
 11
1319.6708425579
 21
-346.3186220058
 31
0.0
  0
LINE
  5
192
100
AcDbEntity
  8
L1_120
  6
CONTINUOUS
 62
         7
100
AcDbLine
 10
1316.9008425579
 20
-346.3186220058
 30
0.0
 11
1319.6708425579
 21
-346.3186220058
 31
0.0
  0
ARC
  5
193
100
AcDbEntity
  8
L1_120
  6
CONTINUOUS
 62
         7
100
AcDbCircle
 10
1316.9008425579
 20
-347.3186220058
 30
0.0
 40
1.0
100
AcDbArc
 50
90.0
 51
180.0
  0
LINE
  5
194
100
AcDbEntity
  8
L1_120
  6
CONTINUOUS
 62
         5
100
AcDbLine
 10
1320.8036852703
 20
-346.1686220058
 30
0.0
 11
1344.3508425579
 21
-346.1686220058
 31
0.0
  0
LINE
  5
195
100
AcDbEntity
  8
L1_120
  6
CONTINUOUS
 62
         7
100
AcDbLine
 10
1344.3508425579
 20
-330.1686220058
 30
0.0
 11
1344.3508425579
 21
-346.1686220058
 31
0.0
  0
ARC
  5
196
100
AcDbEntity
  8
L1_120
  6
CONTINUOUS
 62
         7
100
AcDbCircle
 10
1317.1008425579
 20
-235.5104151597
 30
0.0
 40
1.2
100
AcDbArc
 50
180.0
 51
261.7028550302
  0
ARC
  5
197
100
AcDbEntity
  8
L1_120
  6
CONTINUOUS
 62
         7
100
AcDbCircle
 10
1317.1008425579
 20
-213.0420517268
 30
0.0
 40
1.2
100
AcDbArc
 50
98.2971449698
 51
180.0
  0
LINE
  5
198
100
AcDbEntity
  8
L1_120
  6
CONTINUOUS
 62
         7
100
AcDbLine
 10
1315.9008425579
 20
-213.0420517268
 30
0.0
 11
1315.9008425579
 21
-235.5104151597
 31
0.0
  0
LINE
  5
199
100
AcDbEntity
  8
L1_120
  6
CONTINUOUS
 62
         4
100
AcDbLine
 10
1343.5016874219
 20
-247.395472328
 30
0.0
 11
1343.8974082645
 21
-247.395472328
 31
0.0
  0
LINE
  5
19A
100
AcDbEntity
  8
L1_120
  6
CONTINUOUS
 62
         7
100
AcDbLine
 10
1316.9276742862
 20
-236.6978547369
 30
0.0
 11
1385.3508425579
 21
-246.6762334432
 31
0.0
  0
LINE
  5
19B
100
AcDbEntity
  8
L1_120
  6
CONTINUOUS
 62
         7
100
AcDbLine
 10
1316.9276742862
 20
-211.8546121495
 30
0.0
 11
1385.3508425579
 21
-201.8762334432
 31
0.0
  0
LINE
  5
19C
100
AcDbEntity
  8
L1_120
  6
CENTER
 62
         1
100
AcDbLine
 10
1315.9008425579
 20
-224.2762334432
 30
0.0
 11
1419.1508425579
 21
-224.2762334432
 31
0.0
  0
LINE
  5
19D
100
AcDbEntity
  8
L1_120
  6
CONTINUOUS
 62
         7
100
AcDbLine
 10
1315.9008425579
 20
-213.0420517268
 30
0.0
 11
1315.9008425579
 21
-235.5104151597
 31
0.0
  0
LINE
  5
19E
100
AcDbEntity
  8
L1_120
  6
CENTER
 62
         1
100
AcDbLine
 10
1312.0684106267
 20
-338.1686220058
 30
0.0
 11
1447.6508425579
 21
-338.1686220058
 31
0.0
  0
LINE
  5
19F
100
AcDbEntity
  8
L1_120
  6
DASHED
 62
         2
100
AcDbLine
 10
1229.0721451996
 20
-179.6406455357
 30
0.0
 11
1231.0721451996
 21
-180.795346074
 31
0.0
  0
LINE
  5
1A0
100
AcDbEntity
  8
L1_120
  6
CENTER
 62
         1
100
AcDbLine
 10
1231.0721451996
 20
-193.4435500851
 30
0.0
 11
1231.0721451996
 21
-256.9935500851
 31
0.0
  0
LINE
  5
1A1
100
AcDbEntity
  8
L1_120
  6
CENTER
 62
         1
100
AcDbLine
 10
1193.76139216
 20
-225.0406455357
 30
0.0
 11
1269.969672421
 21
-225.0406455357
 31
0.0
  0
LINE
  5
1A2
100
AcDbEntity
  8
L1_120
  6
CONTINUOUS
 62
         7
100
AcDbLine
 10
1418.7028425579
 20
-246.2226742191
 30
-3.8697496393
 11
1418.7028425579
 21
-202.3297926673
 31
3.8697496393
  0
ARC
  5
1A3
100
AcDbEntity
  8
L1_120
  6
CONTINUOUS
 62
         7
100
AcDbCircle
 10
1403.7508425579
 20
-198.0839735113
 30
38.9451592314
 40
0.5
210
0.0
220
-0.1736481776669303
230
0.9848077530122081
100
AcDbArc
 50
180.0
 51
270.0
  0
LINE
  5
1A4
100
AcDbEntity
  8
L1_120
  6
CONTINUOUS
 62
         7
100
AcDbLine
 10
1403.7508425579
 20
-202.3297926673
 30
3.8697496393
 11
1418.4028425579
 21
-202.3297926673
 31
3.8697496393
  0
LINE
  5
1A5
100
AcDbEntity
  8
L1_120
  6
CONTINUOUS
 62
         7
100
AcDbLine
 10
1419.2028425579
 20
-202.8221965438
 30
3.7829255505
 11
1419.2028425579
 21
-245.7302703426
 31
-3.7829255505
  0
LINE
  5
1A6
100
AcDbEntity
  8
L1_120
  6
CONTINUOUS
 62
         7
100
AcDbLine
 10
1418.7028425579
 20
-202.3297926673
 30
3.8697496393
 11
1419.2028425579
 21
-202.8221965438
 31
3.7829255505
  0
LINE
  5
1A7
100
AcDbEntity
  8
L1_120
  6
CONTINUOUS
 62
         7
100
AcDbLine
 10
1418.7028425579
 20
-246.2226742191
 30
-3.8697496393
 11
1417.7028425579
 21
-246.2226742191
 31
-3.8697496393
  0
LINE
  5
1A8
100
AcDbEntity
  8
L1_120
  6
CONTINUOUS
 62
         7
100
AcDbLine
 10
1419.2028425579
 20
-245.7302703426
 30
-3.7829255505
 11
1418.7028425579
 21
-246.2226742191
 31
-3.8697496393
  0
LINE
  5
1A9
100
AcDbEntity
  8
L1_120
  6
CONTINUOUS
 62
         7
100
AcDbLine
 10
1418.7028425579
 20
-202.3297926673
 30
3.8697496393
 11
1417.7028425579
 21
-202.3297926673
 31
3.8697496393
  0
LINE
  5
1AA
100
AcDbEntity
  8
L1_120
  6
CONTINUOUS
 62
         4
100
AcDbLine
 10
1477.8056568546
 20
-236.7366041545
 30
-2.197099546
 11
1477.8056568546
 21
-211.8158627319
 31
2.197099546
  0
LINE
  5
1AB
100
AcDbEntity
  8
L1_120
  6
CONTINUOUS
 62
         7
100
AcDbLine
 10
1484.8847699505
 20
-215.0152428613
 30
1.6329625077
 11
1478.2180141502
 21
-211.9537126154
 31
2.1727928923
  0
LINE
  5
1AC
100
AcDbEntity
  8
L1_120
  6
CONTINUOUS
 62
         7
100
AcDbLine
 10
1484.8847699505
 20
-233.5372240252
 30
-1.6329625077
 11
1478.2180141502
 21
-236.598754271
 31
-2.1727928923
  0
LINE
  5
1AD
100
AcDbEntity
  8
L1_120
  6
CONTINUOUS
 62
         7
100
AcDbLine
 10
1485.7508425579
 20
-232.1984156222
 30
-1.3968944643
 11
1485.7508425579
 21
-216.3540512642
 31
1.3968944642
  0
ARC
  5
1AE
100
AcDbEntity
  8
L1_120
  6
CONTINUOUS
 62
         7
100
AcDbCircle
 10
1484.2508425579
 20
-212.8245789025
 30
38.9451592314
 40
1.5
210
0.0
220
-0.1736481776669303
230
0.9848077530122081
100
AcDbArc
 50
0.0
 51
65.0
  0
ARC
  5
1AF
100
AcDbEntity
  8
L1_120
  6
CONTINUOUS
 62
         7
100
AcDbCircle
 10
1484.2508425579
 20
-228.91336812
 30
38.9451592314
 40
1.5
210
0.0
220
-0.1736481776669303
230
0.9848077530122081
100
AcDbArc
 50
295.0
 51
360.0
  0
ARC
  5
1B0
100
AcDbEntity
  8
L1_120
  6
CONTINUOUS
 62
         7
100
AcDbCircle
 10
1477.3727776267
 20
-231.5689735113
 30
38.9451592314
 40
2.0
210
0.0
220
-0.1736481776669303
230
0.9848077530122081
100
AcDbArc
 50
270.0
 51
295.0
  0
ARC
  5
1B1
100
AcDbEntity
  8
L1_120
  6
CONTINUOUS
 62
         7
100
AcDbCircle
 10
1477.3727776267
 20
-210.1689735113
 30
38.9451592314
 40
2.0
210
0.0
220
-0.1736481776669303
230
0.9848077530122081
100
AcDbArc
 50
65.0
 51
90.0
  0
DIMENSION
  5
1B5
100
AcDbEntity
  8
L1_120
  6
CONTINUOUS
 62
         4
100
AcDbDimension
  2
*D0
 10
1484.8847699505
 20
-226.7744680957
 30
-39.9864572611
 11
1473.7395757133
 21
-244.3911000464
 31
-43.0927447832
 70
         2
  3
DIMSTYLE1
100
AcDb2LineAngularDimension
 13
1485.7508425579
 23
-209.5912953347
 33
-36.9566002891
 14
1485.7508425579
 24
-225.4356596928
 34
-39.7503892176
 15
1478.2180141502
 25
-229.8359983415
 35
-40.5262876457
 16
1472.6359123832
 26
-235.9845658879
 36
-39.7503892176
  0
LINE
  5
1C4
100
AcDbEntity
  8
L1_120
  6
CONTINUOUS
 62
         7
100
AcDbLine
 10
1477.3727776267
 20
-211.76917498
 30
2.2053318564
 11
1422.2028425579
 21
-211.76917498
 31
2.2053318564
  0
LINE
  5
1C5
100
AcDbEntity
  8
L1_120
  6
CONTINUOUS
 62
         7
100
AcDbLine
 10
1477.3727776267
 20
-236.7832919065
 30
-2.2053318564
 11
1422.2028425579
 21
-236.7832919065
 31
-2.2053318564
  0
ARC
  5
1C6
100
AcDbEntity
  8
L1_120
  6
CONTINUOUS
 62
         7
100
AcDbCircle
 10
1422.2028425579
 20
-236.5689735113
 30
38.9451592314
 40
3.0
210
0.0
220
-0.1736481776669303
230
0.9848077530122081
100
AcDbArc
 50
90.0
 51
180.0
  0
ARC
  5
1C7
100
AcDbEntity
  8
L1_120
  6
CONTINUOUS
 62
         7
100
AcDbCircle
 10
1422.2028425579
 20
-205.1689735113
 30
38.9451592314
 40
3.0
210
0.0
220
-0.1736481776669303
230
0.9848077530122081
100
AcDbArc
 50
180.0
 51
270.0
  0
DIMENSION
  5
1CA
100
AcDbEntity
  8
L1_120
  6
CONTINUOUS
 62
         4
100
AcDbDimension
  2
*D1
 10
1504.5397931968
 20
-208.6502077366
 30
-36.7906611544
 11
1502.5147931968
 21
-225.4322167134
 31
0.0
210
0.0
220
-0.1736481776669303
230
0.9848077530122081
  3
DIMSTYLE1
100
AcDbAlignedDimension
 13
1485.7508425579
 23
-208.6502077366
 33
-36.7906611544
 14
1485.7508425579
 24
-226.3767472908
 34
-39.9163283524
 50
90.0
100
AcDbRotatedDimension
  0
LINE
  5
1D6
100
AcDbEntity
  8
L1_120
  6
CONTINUOUS
 62
         7
100
AcDbLine
 10
1403.7508425579
 20
-246.2226742191
 30
-3.8697496393
 11
1418.4028425579
 21
-246.2226742191
 31
-3.8697496393
  0
LINE
  5
1D7
100
AcDbEntity
  8
L1_120
  6
CONTINUOUS
 62
         4
100
AcDbLine
 10
1402.7508425579
 20
-255.5684997952
 30
-5.5176708454
 11
1402.7508425579
 21
-232.9917820574
 31
-1.5367863724
  0
ARC
  5
1D8
100
AcDbEntity
  8
L1_120
  6
CONTINUOUS
 62
         7
100
AcDbCircle
 10
1403.7508425579
 20
-243.6539735113
 30
38.9451592314
 40
0.5
210
0.0
220
-0.1736481776669303
230
0.9848077530122081
100
AcDbArc
 50
90.0
 51
180.0
  0
LINE
  5
1D9
100
AcDbEntity
  8
L1_120
  6
CONTINUOUS
 62
         7
100
AcDbLine
 10
1403.2508425579
 20
-193.9687748443
 30
5.3440226677
 11
1403.2508425579
 21
-254.5836920422
 31
-5.3440226677
  0
LINE
  5
1DA
100
AcDbEntity
  8
L1_120
  6
CENTER
 62
         1
100
AcDbLine
 10
1485.7508425579
 20
-224.2762334432
 30
0.0
 11
1406.5090595095
 21
-224.2762334432
 31
0.0
  0
LINE
  5
1DB
100
AcDbEntity
  8
L1_120
  6
CONTINUOUS
 62
         7
100
AcDbLine
 10
1387.3508425579
 20
-313.9832692338
 30
4.2645302316
 11
1389.6738271251
 21
-310.7161047332
 31
4.8406194835
  0
LINE
  5
1DC
100
AcDbEntity
  8
L1_120
  6
CONTINUOUS
 62
         4
100
AcDbLine
 10
1387.3508425579
 20
-313.9832692338
 30
4.2645302316
 11
1391.4466027793
 21
-316.8075818411
 31
3.766527717
  0
LINE
  5
1DD
100
AcDbEntity
  8
L1_120
  6
CONTINUOUS
 62
         7
100
AcDbLine
 10
1391.4466027793
 20
-316.8075818411
 30
3.766527717
 11
1393.7409085247
 21
-313.5807527047
 31
4.3355047559
  0
LINE
  5
1DE
100
AcDbEntity
  8
L1_120
  6
CONTINUOUS
 62
         4
100
AcDbLine
 10
1389.6451483033
 20
-310.7564400974
 30
4.8335072705
 11
1393.7409085247
 21
-313.5807527047
 31
4.3355047559
  0
LINE
  5
1DF
100
AcDbEntity
  8
L1_120
  6
CONTINUOUS
 62
         7
100
AcDbLine
 10
1387.3508425579
 20
-309.1142447011
 30
5.1230706265
 11
1389.6738271251
 21
-310.7161047332
 31
4.8406194835
  0
LINE
  5
1E0
100
AcDbEntity
  8
L1_120
  6
CENTER
 62
         1
100
AcDbLine
 10
1386.6402119025
 20
-311.0887832268
 30
4.77490621
 11
1415.9138026927
 21
-331.2749677347
 31
1.2155372437
  0
LINE
  5
1E1
100
AcDbEntity
  8
L1_120
  6
CONTINUOUS
 62
         7
100
AcDbLine
 10
1387.5515943106
 20
-313.7009216844
 30
4.3143157225
 11
1413.0371154799
 21
-331.2749677347
 31
1.2155372437
  0
LINE
  5
1E2
100
AcDbEntity
  8
L1_120
  6
CONTINUOUS
 62
         7
100
AcDbLine
 10
1389.4443965506
 20
-311.0387876468
 30
4.7837217796
 11
1418.7904899055
 21
-331.2749677347
 31
1.2155372437
  0
LINE
  5
1E3
100
AcDbEntity
  8
L1_120
  6
CONTINUOUS
 62
         7
100
AcDbLine
 10
1444.4590213306
 20
-345.0622762769
 30
-1.2155372437
 11
1444.4590213306
 21
-331.2749677347
 31
1.2155372437
  0
LINE
  5
1E4
100
AcDbEntity
  8
L1_120
  6
CONTINUOUS
 62
         7
100
AcDbLine
 10
1444.4590213306
 20
-345.0622762769
 30
-1.2155372437
 11
1445.7508425579
 21
-342.8587689295
 31
-0.8269994461
  0
LINE
  5
1E5
100
AcDbEntity
  8
L1_120
  6
CONTINUOUS
 62
         7
100
AcDbLine
 10
1444.4590213306
 20
-331.2749677347
 30
1.2155372437
 11
1445.7508425579
 21
-333.4784750821
 31
0.8269994461
  0
LINE
  5
1E6
100
AcDbEntity
  8
L1_120
  6
CONTINUOUS
 62
         7
100
AcDbLine
 10
1484.2508425579
 20
-342.8587689295
 30
-0.8269994461
 11
1480.5008425579
 21
-342.8587689295
 31
-0.8269994461
  0
LINE
  5
1E7
100
AcDbEntity
  8
L1_120
  6
CONTINUOUS
 62
         7
100
AcDbLine
 10
1445.7508425579
 20
-333.4784750821
 30
0.8269994461
 11
1477.3008425579
 21
-333.4784750821
 31
0.8269994461
  0
LINE
  5
1E8
100
AcDbEntity
  8
L1_120
  6
CONTINUOUS
 62
         7
100
AcDbLine
 10
1445.7508425579
 20
-333.4784750821
 30
0.8269994461
 11
1445.7508425579
 21
-342.8587689295
 31
-0.8269994461
  0
DIMENSION
  5
1EB
100
AcDbEntity
  8
L1_120
  6
CONTINUOUS
 62
         4
100
AcDbDimension
  2
*D2
 10
1445.7508425579
 20
-364.5021705475
 30
-64.2715671943
 11
1462.6845403924
 21
-368.100204064
 31
0.0
210
0.0
220
-0.1736481776669303
230
0.9848077530122081
  3
DIMSTYLE1
100
AcDbAlignedDimension
 13
1445.7508425579
 23
-332.6617372667
 33
-58.6572397295
 14
1485.7508425579
 24
-335.893772522
 34
-59.2271347476
100
AcDbRotatedDimension
  0
LINE
  5
1F7
100
AcDbEntity
  8
L1_120
  6
CONTINUOUS
 62
         7
100
AcDbLine
 10
1402.7508425579
 20
-306.8763556538
 30
5.5176708454
 11
1403.2508425579
 21
-307.3687595303
 31
5.4308467565
  0
LINE
  5
1F8
100
AcDbEntity
  8
L1_120
  6
CONTINUOUS
 62
         7
100
AcDbLine
 10
1387.3508425579
 20
-307.3687595303
 30
5.4308467565
 11
1387.8508425579
 21
-306.8763556538
 31
5.5176708454
  0
LINE
  5
1F9
100
AcDbEntity
  8
L1_120
  6
CONTINUOUS
 62
         7
100
AcDbLine
 10
1387.3508425579
 20
-368.9684844812
 30
-5.4308467565
 11
1387.8508425579
 21
-369.4608883577
 31
-5.5176708454
  0
LINE
  5
1FA
100
AcDbEntity
  8
L1_120
  6
CONTINUOUS
 62
         7
100
AcDbLine
 10
1403.2508425579
 20
-368.9684844812
 30
-5.4308467565
 11
1402.7508425579
 21
-369.4608883577
 31
-5.5176708454
  0
LINE
  5
1FB
100
AcDbEntity
  8
L1_120
  6
CONTINUOUS
 62
         7
100
AcDbLine
 10
1387.8508425579
 20
-306.8763556538
 30
5.5176708454
 11
1389.3508425579
 21
-306.8763556538
 31
5.5176708454
  0
LINE
  5
1FC
100
AcDbEntity
  8
L1_120
  6
CONTINUOUS
 62
         7
100
AcDbLine
 10
1387.3508425579
 20
-307.3687595303
 30
5.4308467565
 11
1387.3508425579
 21
-308.8459711598
 31
5.17037449
  0
LINE
  5
1FD
100
AcDbEntity
  8
L1_120
  6
CONTINUOUS
 62
         7
100
AcDbLine
 10
1401.2508425579
 20
-306.8763556538
 30
5.5176708454
 11
1402.7508425579
 21
-306.8763556538
 31
5.5176708454
  0
LINE
  5
1FE
100
AcDbEntity
  8
L1_120
  6
CONTINUOUS
 62
         7
100
AcDbLine
 10
1387.8508425579
 20
-369.4608883577
 30
-5.5176708454
 11
1389.3508425579
 21
-369.4608883577
 31
-5.5176708454
  0
LINE
  5
1FF
100
AcDbEntity
  8
L1_120
  6
CONTINUOUS
 62
         7
100
AcDbLine
 10
1401.2508425579
 20
-369.4608883577
 30
-5.5176708454
 11
1402.7508425579
 21
-369.4608883577
 31
-5.5176708454
  0
LINE
  5
200
100
AcDbEntity
  8
L1_120
  6
CONTINUOUS
 62
         7
100
AcDbLine
 10
1403.2508425579
 20
-307.3687595303
 30
5.4308467565
 11
1403.2508425579
 21
-308.8459711598
 31
5.17037449
  0
LINE
  5
201
100
AcDbEntity
  8
L1_120
  6
CONTINUOUS
 62
         7
100
AcDbLine
 10
1387.3508425579
 20
-367.4912728517
 30
-5.17037449
 11
1387.3508425579
 21
-368.9684844812
 31
-5.4308467565
  0
LINE
  5
202
100
AcDbEntity
  8
L1_120
  6
CONTINUOUS
 62
         7
100
AcDbLine
 10
1403.2508425579
 20
-367.4912728517
 30
-5.17037449
 11
1403.2508425579
 21
-368.9684844812
 31
-5.4308467565
  0
LINE
  5
203
100
AcDbEntity
  8
L1_120
  6
CONTINUOUS
 62
         7
100
AcDbLine
 10
1403.2508425579
 20
-360.6074666582
 30
-3.9565737281
 11
1403.2508425579
 21
-368.4760806049
 31
-5.3440226677
  0
LINE
  5
204
100
AcDbEntity
  8
L1_120
  6
CONTINUOUS
 62
         7
100
AcDbLine
 10
1403.2508425579
 20
-307.8611634066
 30
5.3440226677
 11
1403.2508425579
 21
-315.7297773534
 31
3.9565737281
  0
LINE
  5
205
100
AcDbEntity
  8
L1_120
  6
CONTINUOUS
 62
         7
100
AcDbLine
 10
1403.7508425579
 20
-316.2221812299
 30
3.8697496393
 11
1418.4028425579
 21
-316.2221812299
 31
3.8697496393
  0
LINE
  5
206
100
AcDbEntity
  8
L1_120
  6
CONTINUOUS
 62
         7
100
AcDbLine
 10
1403.7508425579
 20
-360.1150627816
 30
-3.8697496393
 11
1418.4028425579
 21
-360.1150627816
 31
-3.8697496393
  0
ARC
  5
207
100
AcDbEntity
  8
L1_120
  6
CONTINUOUS
 62
         7
100
AcDbCircle
 10
1403.7508425579
 20
-355.8160807767
 30
58.7223649554
 40
0.5
210
0.0
220
-0.1736481776669303
230
0.9848077530122081
100
AcDbArc
 50
90.0
 51
180.0
  0
ARC
  5
208
100
AcDbEntity
  8
L1_120
  6
CONTINUOUS
 62
         7
100
AcDbCircle
 10
1403.7508425579
 20
-310.2460807767
 30
58.7223649554
 40
0.5
210
0.0
220
-0.1736481776669303
230
0.9848077530122081
100
AcDbArc
 50
180.0
 51
270.0
  0
LINE
  5
209
100
AcDbEntity
  8
L1_120
  6
CONTINUOUS
 62
         7
100
AcDbLine
 10
1398.7871129567
 20
-369.4608883579
 30
-5.5176708454
 11
1402.2508425579
 21
-369.4608883579
 31
-5.5176708454
  0
LINE
  5
20A
100
AcDbEntity
  8
L1_120
  6
CONTINUOUS
 62
         7
100
AcDbLine
 10
1397.1258425579
 20
-366.6271978654
 30
-5.0180147566
 11
1398.7871129567
 21
-369.4608883577
 31
-5.5176708454
  0
ARC
  5
20B
100
AcDbEntity
  8
L1_120
  6
CONTINUOUS
 62
         7
100
AcDbCircle
 10
1396.1520422261
 20
-362.1560807769
 30
58.7223649554
 40
1.0
210
0.0
220
-0.1736481776669303
230
0.9848077530122081
100
AcDbArc
 50
13.1443256895
 51
90.0
  0
LINE
  5
20C
100
AcDbEntity
  8
L1_120
  6
CONTINUOUS
 62
         7
100
AcDbLine
 10
1394.3496428896
 20
-365.8663400592
 30
-4.8838549969
 11
1396.1520422261
 21
-365.8663400592
 31
-4.8838549969
  0
ARC
  5
20D
100
AcDbEntity
  8
L1_120
  6
CONTINUOUS
 62
         7
100
AcDbCircle
 10
1394.3496428896
 20
-362.1560807767
 30
58.7223649554
 40
1.0
210
0.0
220
-0.1736481776669303
230
0.9848077530122081
100
AcDbArc
 50
90.0
 51
166.8556743105
  0
LINE
  5
20E
100
AcDbEntity
  8
L1_120
  6
CONTINUOUS
 62
         7
100
AcDbLine
 10
1393.3758425579
 20
-366.6271978654
 30
-5.0180147566
 11
1391.7145721591
 21
-369.4608883577
 31
-5.5176708454
  0
LINE
  5
20F
100
AcDbEntity
  8
L1_120
  6
CONTINUOUS
 62
         7
100
AcDbLine
 10
1387.3508425579
 20
-361.0161618757
 30
-4.0286377219
 11
1387.3508425579
 21
-368.4760806049
 31
-5.3440226677
  0
LINE
  5
210
100
AcDbEntity
  8
L1_120
  6
CONTINUOUS
 62
         7
100
AcDbLine
 10
1388.3508425579
 20
-369.4608883579
 30
-5.5176708454
 11
1391.7145721591
 21
-369.4608883579
 31
-5.5176708454
  0
LINE
  5
211
100
AcDbEntity
  8
L1_120
  6
CONTINUOUS
 62
         7
100
AcDbLine
 10
1387.3508425579
 20
-315.3210821359
 30
4.0286377219
 11
1387.3508425579
 21
-307.8611634066
 31
5.3440226677
  0
LINE
  5
212
100
AcDbEntity
  8
L1_120
  6
CONTINUOUS
 62
         7
100
AcDbLine
 10
1388.3508425579
 20
-306.8763556536
 30
5.5176708454
 11
1391.7145721591
 21
-306.8763556536
 31
5.5176708454
  0
LINE
  5
213
100
AcDbEntity
  8
L1_120
  6
CONTINUOUS
 62
         7
100
AcDbLine
 10
1393.3758425579
 20
-309.7100461462
 30
5.0180147566
 11
1391.7145721591
 21
-306.8763556538
 31
5.5176708454
  0
ARC
  5
214
100
AcDbEntity
  8
L1_120
  6
CONTINUOUS
 62
         7
100
AcDbCircle
 10
1394.3496428896
 20
-303.9060807766
 30
58.7223649554
 40
1.0
210
0.0
220
-0.1736481776669303
230
0.9848077530122081
100
AcDbArc
 50
193.1443256895
 51
270.0
  0
LINE
  5
215
100
AcDbEntity
  8
L1_120
  6
CONTINUOUS
 62
         7
100
AcDbLine
 10
1394.3496428896
 20
-310.4709039521
 30
4.8838549969
 11
1396.1520422261
 21
-310.4709039521
 31
4.8838549969
  0
ARC
  5
216
100
AcDbEntity
  8
L1_120
  6
CONTINUOUS
 62
         7
100
AcDbCircle
 10
1396.1520422261
 20
-303.9060807766
 30
58.7223649554
 40
1.0
210
0.0
220
-0.1736481776669303
230
0.9848077530122081
100
AcDbArc
 50
270.0
 51
346.8556743105
  0
LINE
  5
217
100
AcDbEntity
  8
L1_120
  6
CONTINUOUS
 62
         7
100
AcDbLine
 10
1397.1258425579
 20
-309.710046146
 30
5.0180147566
 11
1398.7871129567
 21
-306.8763556536
 31
5.5176708454
  0
LINE
  5
218
100
AcDbEntity
  8
L1_120
  6
CONTINUOUS
 62
         7
100
AcDbLine
 10
1398.7871129567
 20
-306.8763556536
 30
5.5176708454
 11
1402.2508425579
 21
-306.8763556536
 31
5.5176708454
  0
LINE
  5
219
100
AcDbEntity
  8
L1_120
  6
CONTINUOUS
 62
         7
100
AcDbLine
 10
1419.2028425579
 20
-316.7145851064
 30
3.7829255505
 11
1419.2028425579
 21
-322.7071402835
 31
2.7262763894
  0
LINE
  5
21A
100
AcDbEntity
  8
L1_120
  6
CONTINUOUS
 62
         7
100
AcDbLine
 10
1419.2028425579
 20
-353.6301037281
 30
-2.7262763894
 11
1419.2028425579
 21
-359.6226589051
 31
-3.7829255505
  0
LINE
  5
21B
100
AcDbEntity
  8
L1_120
  6
CONTINUOUS
 62
         7
100
AcDbLine
 10
1418.7028425579
 20
-360.1150627816
 30
-3.8697496393
 11
1417.7028425579
 21
-360.1150627816
 31
-3.8697496393
  0
LINE
  5
21C
100
AcDbEntity
  8
L1_120
  6
CONTINUOUS
 62
         7
100
AcDbLine
 10
1418.7028425579
 20
-316.2221812299
 30
3.8697496393
 11
1417.7028425579
 21
-316.2221812299
 31
3.8697496393
  0
LINE
  5
21D
100
AcDbEntity
  8
L1_120
  6
CONTINUOUS
 62
         7
100
AcDbLine
 10
1419.2028425579
 20
-359.6226589051
 30
-3.7829255505
 11
1418.7028425579
 21
-360.1150627816
 31
-3.8697496393
  0
LINE
  5
21E
100
AcDbEntity
  8
L1_120
  6
CONTINUOUS
 62
         7
100
AcDbLine
 10
1418.7028425579
 20
-316.2221812299
 30
3.8697496393
 11
1419.2028425579
 21
-316.7145851064
 31
3.7829255505
  0
LINE
  5
21F
100
AcDbEntity
  8
L1_120
  6
CONTINUOUS
 62
         7
100
AcDbLine
 10
1386.5508425579
 20
-316.1089283383
 30
3.8897191797
 11
1385.3508425579
 21
-316.1089283383
 31
3.8897191797
  0
ARC
  5
220
100
AcDbEntity
  8
L1_120
  6
CONTINUOUS
 62
         7
100
AcDbCircle
 10
1386.5508425579
 20
-309.8310807767
 30
58.7223649554
 40
0.8
210
0.0
220
-0.1736481776669303
230
0.9848077530122081
100
AcDbArc
 50
269.9999999999
 51
360.0
  0
ARC
  5
221
100
AcDbEntity
  8
L1_120
  6
CONTINUOUS
 62
         7
100
AcDbCircle
 10
1386.5508425579
 20
-356.2310807767
 30
58.7223649554
 40
0.8
210
0.0
220
-0.1736481776669303
230
0.9848077530122081
100
AcDbArc
 50
0.0
 51
90.0000000001
  0
LINE
  5
222
100
AcDbEntity
  8
L1_120
  6
CONTINUOUS
 62
         7
100
AcDbLine
 10
1386.5508425579
 20
-360.2283156732
 30
-3.8897191797
 11
1385.3508425579
 21
-360.2283156732
 31
-3.8897191797
  0
ARC
  5
223
100
AcDbEntity
  8
L1_120
  6
CONTINUOUS
 62
         7
100
AcDbCircle
 10
1484.2508425579
 20
-326.7685807767
 30
58.7223649554
 40
1.5
210
0.0
220
-0.1736481776669303
230
0.9848077530122081
100
AcDbArc
 50
270.0
 51
285.0220597071
  0
LINE
  5
224
100
AcDbEntity
  8
L1_120
  6
CONTINUOUS
 62
         7
100
AcDbLine
 10
1485.3110942815
 20
-333.0462119011
 30
0.9032191077
 11
1484.6396289399
 21
-333.4279930078
 31
0.8359007979
  0
ARC
  5
225
100
AcDbEntity
  8
L1_120
  6
CONTINUOUS
 62
         7
100
AcDbCircle
 10
1484.2508425579
 20
-326.7685807767
 30
58.7223649554
 40
1.5
210
0.0
220
-0.1736481776669303
230
0.9848077530122081
100
AcDbArc
 50
314.9779402929
 51
360.0
  0
LINE
  5
226
100
AcDbEntity
  8
L1_120
  6
CONTINUOUS
 62
         7
100
AcDbLine
 10
1485.3110942815
 20
-343.2910321104
 30
-0.9032191077
 11
1484.6396289399
 21
-342.9092510037
 31
-0.8359007979
  0
ARC
  5
227
100
AcDbEntity
  8
L1_120
  6
CONTINUOUS
 62
         7
100
AcDbCircle
 10
1484.2508425579
 20
-339.2935807767
 30
58.7223649554
 40
1.5
210
0.0
220
-0.1736481776669303
230
0.9848077530122081
100
AcDbArc
 50
74.9779402929
 51
90.0
  0
ARC
  5
228
100
AcDbEntity
  8
L1_120
  6
CONTINUOUS
 62
         7
100
AcDbCircle
 10
1484.2508425579
 20
-339.2935807767
 30
58.7223649554
 40
1.5
210
0.0
220
-0.1736481776669303
230
0.9848077530122081
100
AcDbArc
 50
0.0
 51
45.022059707
  0
LINE
  5
229
100
AcDbEntity
  8
L1_120
  6
CENTER
 62
         1
100
AcDbLine
 10
1470.2508425579
 20
-332.0435532759
 30
1.0800148758
 11
1470.2508425579
 21
-321.9647502513
 31
2.8571797823
  0
ARC
  5
22A
100
AcDbEntity
  8
L1_120
  6
CONTINUOUS
 62
         7
100
AcDbCircle
 10
1470.2508425579
 20
-312.7110807767
 30
58.7223649554
 40
10.0
210
0.0
220
-0.1736481776669303
230
0.9848077530122081
100
AcDbArc
 50
229.6408321236
 51
310.3591678764
  0
LINE
  5
22B
100
AcDbEntity
  8
L1_120
  6
CONTINUOUS
 62
         4
100
AcDbLine
 10
1445.7508425579
 20
-337.430016191
 30
0.1302361333
 11
1477.3008425579
 21
-337.430016191
 31
0.1302361333
  0
LINE
  5
22C
100
AcDbEntity
  8
L1_120
  6
CONTINUOUS
 62
         4
100
AcDbLine
 10
1445.7508425579
 20
-338.9072278205
 30
-0.1302361333
 11
1477.3008425579
 21
-338.9072278205
 31
-0.1302361333
  0
LINE
  5
22D
100
AcDbEntity
  8
L1_120
  6
CONTINUOUS
 62
         4
100
AcDbLine
 10
1480.5008425579
 20
-337.430016191
 30
0.1302361333
 11
1485.7508425579
 21
-337.430016191
 31
0.1302361333
  0
LINE
  5
22E
100
AcDbEntity
  8
L1_120
  6
CONTINUOUS
 62
         4
100
AcDbLine
 10
1480.5008425579
 20
-338.9072278205
 30
-0.1302361333
 11
1485.7508425579
 21
-338.9072278205
 31
-0.1302361333
  0
LINE
  5
22F
100
AcDbEntity
  8
L1_120
  6
CONTINUOUS
 62
         7
100
AcDbLine
 10
1480.5008425579
 20
-331.6147264095
 30
1.1556286224
 11
1480.5008425579
 21
-344.7225176021
 31
-1.1556286224
  0
LINE
  5
230
100
AcDbEntity
  8
L1_120
  6
CONTINUOUS
 62
         7
100
AcDbLine
 10
1477.7008425579
 20
-331.2208033083
 30
1.2250878934
 11
1480.1008425579
 21
-331.2208033083
 31
1.2250878934
  0
LINE
  5
231
100
AcDbEntity
  8
L1_120
  6
CONTINUOUS
 62
         7
100
AcDbLine
 10
1477.7008425579
 20
-345.1164407033
 30
-1.2250878934
 11
1480.1008425579
 21
-345.1164407033
 31
-1.2250878934
  0
LINE
  5
232
100
AcDbEntity
  8
L1_120
  6
CONTINUOUS
 62
         7
100
AcDbLine
 10
1477.3008425579
 20
-331.6147264095
 30
1.1556286224
 11
1477.3008425579
 21
-344.7225176021
 31
-1.1556286224
  0
ARC
  5
233
100
AcDbEntity
  8
L1_120
  6
CONTINUOUS
 62
         7
100
AcDbCircle
 10
1477.7008425579
 20
-326.3760807767
 30
58.7223649554
 40
0.4
210
0.0
220
-0.1736481776669303
230
0.9848077530122081
100
AcDbArc
 50
90.0
 51
180.0
  0
ARC
  5
234
100
AcDbEntity
  8
L1_120
  6
CONTINUOUS
 62
         7
100
AcDbCircle
 10
1477.7008425579
 20
-339.6860807767
 30
58.7223649554
 40
0.4
210
0.0
220
-0.1736481776669303
230
0.9848077530122081
100
AcDbArc
 50
180.0
 51
270.0
  0
ARC
  5
235
100
AcDbEntity
  8
L1_120
  6
CONTINUOUS
 62
         7
100
AcDbCircle
 10
1480.1008425579
 20
-339.6860807767
 30
58.7223649554
 40
0.4
210
0.0
220
-0.1736481776669303
230
0.9848077530122081
100
AcDbArc
 50
270.0
 51
360.0
  0
ARC
  5
236
100
AcDbEntity
  8
L1_120
  6
CONTINUOUS
 62
         7
100
AcDbCircle
 10
1480.1008425579
 20
-326.3760807767
 30
58.7223649554
 40
0.4
210
0.0
220
-0.1736481776669303
230
0.9848077530122081
100
AcDbArc
 50
0.0
 51
90.0
  0
LINE
  5
237
100
AcDbEntity
  8
L1_120
  6
CONTINUOUS
 62
         7
100
AcDbLine
 10
1480.5008425579
 20
-333.4784750821
 30
0.8269994461
 11
1484.2508425579
 21
-333.4784750821
 31
0.8269994461
  0
LINE
  5
238
100
AcDbEntity
  8
L1_120
  6
CONTINUOUS
 62
         7
100
AcDbLine
 10
1477.3008425579
 20
-342.8587689295
 30
-0.8269994461
 11
1445.7508425579
 21
-342.8587689295
 31
-0.8269994461
  0
LINE
  5
239
100
AcDbEntity
  8
L1_120
  6
CONTINUOUS
 62
         7
100
AcDbLine
 10
1477.3727776267
 20
-325.6615635425
 30
2.2053318564
 11
1422.2028425579
 21
-325.6615635425
 31
2.2053318564
  0
LINE
  5
23A
100
AcDbEntity
  8
L1_120
  6
CONTINUOUS
 62
         7
100
AcDbLine
 10
1477.3727776267
 20
-350.675680469
 30
-2.2053318564
 11
1422.2028425579
 21
-350.675680469
 31
-2.2053318564
  0
ARC
  5
23B
100
AcDbEntity
  8
L1_120
  6
CONTINUOUS
 62
         7
100
AcDbCircle
 10
1422.2028425579
 20
-317.3310807767
 30
58.7223649554
 40
3.0
210
0.0
220
-0.1736481776669303
230
0.9848077530122081
100
AcDbArc
 50
180.0
 51
270.0
  0
ARC
  5
23C
100
AcDbEntity
  8
L1_120
  6
CONTINUOUS
 62
         7
100
AcDbCircle
 10
1422.2028425579
 20
-348.7310807767
 30
58.7223649554
 40
3.0
210
0.0
220
-0.1736481776669303
230
0.9848077530122081
100
AcDbArc
 50
90.0
 51
180.0
  0
ARC
  5
23D
100
AcDbEntity
  8
L1_120
  6
CONTINUOUS
 62
         7
100
AcDbCircle
 10
1477.3727776267
 20
-322.3310807767
 30
58.7223649554
 40
2.0
210
0.0
220
-0.1736481776669303
230
0.9848077530122081
100
AcDbArc
 50
65.0
 51
90.0
  0
LINE
  5
23E
100
AcDbEntity
  8
L1_120
  6
CONTINUOUS
 62
         7
100
AcDbLine
 10
1484.8847699505
 20
-328.9076314238
 30
1.6329625077
 11
1478.2180141502
 21
-325.846101178
 31
2.1727928923
  0
ARC
  5
23F
100
AcDbEntity
  8
L1_120
  6
CONTINUOUS
 62
         7
100
AcDbCircle
 10
1484.2508425579
 20
-324.9866861679
 30
58.7223649554
 40
1.5
210
0.0
220
-0.1736481776669303
230
0.9848077530122081
100
AcDbArc
 50
0.0
 51
65.0
  0
ARC
  5
240
100
AcDbEntity
  8
L1_120
  6
CONTINUOUS
 62
         7
100
AcDbCircle
 10
1477.3727776267
 20
-343.7310807767
 30
58.7223649554
 40
2.0
210
0.0
220
-0.1736481776669303
230
0.9848077530122081
100
AcDbArc
 50
270.0
 51
295.0
  0
LINE
  5
241
100
AcDbEntity
  8
L1_120
  6
CONTINUOUS
 62
         7
100
AcDbLine
 10
1484.8847699505
 20
-347.4296125877
 30
-1.6329625077
 11
1478.2180141502
 21
-350.4911428336
 31
-2.1727928923
  0
LINE
  5
242
100
AcDbEntity
  8
L1_120
  6
CONTINUOUS
 62
         7
100
AcDbLine
 10
1485.7508425579
 20
-346.0908041848
 30
-1.3968944642
 11
1485.7508425579
 21
-330.2464398267
 31
1.3968944642
  0
ARC
  5
243
100
AcDbEntity
  8
L1_120
  6
CONTINUOUS
 62
         7
100
AcDbCircle
 10
1484.2508425579
 20
-341.0754753855
 30
58.7223649554
 40
1.5
210
0.0
220
-0.1736481776669303
230
0.9848077530122081
100
AcDbArc
 50
295.0
 51
360.0
  0
LINE
  5
244
100
AcDbEntity
  8
L1_120
  6
CONTINUOUS
 62
         7
100
AcDbLine
 10
1463.8648425579
 20
-350.675680469
 30
-2.2053318564
 11
1466.0008425579
 21
-348.5721311086
 31
-1.8344193489
  0
LINE
  5
245
100
AcDbEntity
  8
L1_120
  6
CONTINUOUS
 62
         7
100
AcDbLine
 10
1476.6368425579
 20
-350.675680469
 30
-2.2053318564
 11
1474.5008425579
 21
-348.5721311086
 31
-1.8344193489
  0
ARC
  5
246
100
AcDbEntity
  8
L1_120
  6
CONTINUOUS
 62
         7
100
AcDbCircle
 10
1477.3727776267
 20
-343.7310807767
 30
58.7223649554
 40
2.0
210
0.0
220
-0.1736481776669303
230
0.9848077530122081
100
AcDbArc
 50
270.0
 51
295.0
  0
LINE
  5
247
100
AcDbEntity
  8
L1_120
  6
CENTER
 62
         1
100
AcDbLine
 10
1470.2508425579
 20
-351.0634258901
 30
-2.2737018358
 11
1470.2508425579
 21
-340.9777375148
 31
-0.4953228562
  0
LINE
  5
248
100
AcDbEntity
  8
L1_120
  6
CONTINUOUS
 62
         4
100
AcDbLine
 10
1475.0008425579
 20
-342.8587689295
 30
-0.8269994461
 11
1475.0008425579
 21
-349.0645349851
 31
-1.9212434377
  0
LINE
  5
249
100
AcDbEntity
  8
L1_120
  6
CONTINUOUS
 62
         7
100
AcDbLine
 10
1474.5008425579
 20
-342.8587689295
 30
-0.8269994461
 11
1474.5008425579
 21
-348.5721311086
 31
-1.8344193489
  0
LINE
  5
24A
100
AcDbEntity
  8
L1_120
  6
CONTINUOUS
 62
         7
100
AcDbLine
 10
1474.5008425579
 20
-348.5721311086
 30
-1.8344193489
 11
1466.0008425579
 21
-348.5721311086
 31
-1.8344193489
  0
LINE
  5
24B
100
AcDbEntity
  8
L1_120
  6
CONTINUOUS
 62
         7
100
AcDbLine
 10
1466.0008425579
 20
-348.5721311086
 30
-1.8344193489
 11
1466.0008425579
 21
-342.8587689295
 31
-0.8269994461
  0
LINE
  5
24C
100
AcDbEntity
  8
L1_120
  6
CONTINUOUS
 62
         4
100
AcDbLine
 10
1465.5008425579
 20
-349.0645349851
 30
-1.9212434377
 11
1465.5008425579
 21
-342.8587689295
 31
-0.8269994461
  0
LINE
  5
24D
100
AcDbEntity
  8
L1_120
  6
CONTINUOUS
 62
         7
100
AcDbLine
 10
1321.8036852703
 20
-331.1686220058
 30
0.0
 11
1444.4590213306
 21
-331.1686220058
 31
0.0
  0
LINE
  5
24E
100
AcDbEntity
  8
L1_120
  6
CONTINUOUS
 62
         7
100
AcDbLine
 10
1321.8036852703
 20
-345.1686220058
 30
0.0
 11
1444.4590213306
 21
-345.1686220058
 31
0.0
  0
DIMENSION
  5
251
100
AcDbEntity
  8
L1_120
  6
CONTINUOUS
 62
         4
100
AcDbDimension
  2
*D3
 10
1384.1508425579
 20
-173.0291278669
 30
-30.5097036914
 11
1432.2383916747
 21
-173.6733810674
 31
0.0
210
0.0
220
-0.1736481776669303
230
0.9848077530122081
  3
DIMSTYLE1
100
AcDbAlignedDimension
 13
1384.1508425579
 23
-195.626125203
 33
-34.4941640047
 14
1485.7508425579
 24
-217.5134775137
 34
-38.3534947534
100
AcDbRotatedDimension
  0
DIMENSION
  5
25F
100
AcDbEntity
  8
L1_120
  6
CONTINUOUS
 62
         4
100
AcDbDimension
  2
*D4
 10
1315.9008425579
 20
-158.4307841591
 30
-27.935621822
 11
1390.4236417732
 21
-158.8498343771
 31
0.0
210
0.0
220
-0.1736481776669303
230
0.9848077530122081
  3
DIMSTYLE1
100
AcDbAlignedDimension
 13
1315.9008425579
 23
-206.4499682606
 33
-36.4026995708
 14
1485.7508425579
 24
-217.5134775137
 34
-38.3534947534
100
AcDbRotatedDimension
  0
TEXT
  5
26C
100
AcDbEntity
  8
L1_120
  6
CONTINUOUS
 62
         2
100
AcDbText
 10
1538.9943937433
 20
-163.7645423164
 30
0.0
 40
4.5
  1
522034
 41
0.98
  7
BOX
100
AcDbText
  0
INSERT
  5
2D3
100
AcDbEntity
  8
0
  6
CONTINUOUS
100
AcDbBlockReference
  2
*X5
 10
0.0
 20
0.0
 30
0.0
  0
DIMENSION
  5
2D6
100
AcDbEntity
  8
L1_120
  6
CONTINUOUS
 62
         4
100
AcDbDimension
  2
*D6
 10
1514.7170014811
 20
-230.020535977
 30
-40.5588266098
 11
1511.5850014811
 21
-229.8626567261
 31
0.0
210
0.0
220
-0.1736481776669303
230
0.9848077530122081
  3
DIMSTYLE1
100
AcDbAlignedDimension
 13
1477.3727776267
 23
-230.020535977
 33
-40.5588266098
 14
1477.3727776267
 24
-205.0064190505
 34
-36.148162897
 50
90.0
100
AcDbRotatedDimension
  0
DIMENSION
  5
2E4
100
AcDbEntity
  8
L1_120
  6
CONTINUOUS
 62
         4
100
AcDbDimension
  2
*D7
 10
1508.1711594446
 20
-298.2622661168
 30
-52.5916848436
 11
1506.1461594446
 21
-307.954915788
 31
0.0
210
0.0
220
-0.1736481776669303
230
0.9848077530122081
  3
DIMSTYLE1
100
AcDbAlignedDimension
 13
1515.914595344
 23
-298.2622661168
 33
-52.5916848436
 14
1514.5556855142
 24
-306.1392272909
 34
-53.9806056246
 50
90.0
100
AcDbRotatedDimension
  0
LINE
  5
2F0
100
AcDbEntity
  8
L1_120
  6
CENTER
 62
         1
100
AcDbLine
 10
1518.6070007288
 20
-308.5546539611
 30
-54.4065105165
 11
1518.6070007288
 21
-297.0297555755
 31
-52.3743599812
  0
DIMENSION
  5
2F3
100
AcDbEntity
  8
L1_120
  6
CONTINUOUS
 62
         4
100
AcDbDimension
  2
*D8
 10
1515.8357194367
 20
-315.8988487496
 30
-55.7014902093
 11
1523.5783498556
 21
-318.7470976845
 31
0.0
210
0.0
220
-0.1736481776669303
230
0.9848077530122081
  3
DIMSTYLE1
100
AcDbAlignedDimension
 13
1515.8357194367
 23
-306.1392272909
 33
-53.9806056246
 14
1521.3782820209
 24
-306.1392272909
 34
-53.9806056246
100
AcDbRotatedDimension
  0
DIMENSION
  5
303
100
AcDbEntity
  8
L1_120
  6
CONTINUOUS
 62
         4
100
AcDbDimension
  2
*D9
 10
1513.8444912038
 20
-292.0753537026
 30
-51.5007652577
 11
1506.0094035787
 21
-294.5560868255
 31
0.0
210
0.0
220
-0.1736481776669303
230
0.9848077530122081
  3
DIMSTYLE1
100
AcDbAlignedDimension
 13
1513.8444912038
 23
-300.3009207236
 33
-52.9511546552
 14
1523.3695102538
 24
-300.3009207236
 34
-52.9511546552
100
AcDbRotatedDimension
  0
LINE
  5
30F
100
AcDbEntity
  8
L1_120
  6
DASHED
 62
         2
100
AcDbLine
 10
1519.9854849885
 20
-306.1392272909
 30
-53.9806056246
 11
1519.9854849885
 21
-301.4365639033
 31
-53.1513991882
  0
LINE
  5
310
100
AcDbEntity
  8
L1_120
  6
DASHED
 62
         2
100
AcDbLine
 10
1517.2285164691
 20
-306.1392272909
 30
-53.9806056246
 11
1517.2285164691
 21
-301.4365639033
 31
-53.1513991882
  0
LINE
  5
311
100
AcDbEntity
  8
L1_120
  6
DASHED
 62
         2
100
AcDbLine
 10
1521.3639692482
 20
-306.1392272909
 30
-53.9806056246
 11
1521.3639692482
 21
-301.4365639033
 31
-53.1513991882
  0
LINE
  5
312
100
AcDbEntity
  8
L1_120
  6
DASHED
 62
         2
100
AcDbLine
 10
1515.8500322094
 20
-306.1392272909
 30
-53.9806056246
 11
1515.8500322094
 21
-301.4365639033
 31
-53.1513991882
  0
LINE
  5
313
100
AcDbEntity
  8
L1_120
  6
DASHED
 62
         2
100
AcDbLine
 10
1515.8500322094
 20
-301.4365639033
 30
-53.1513991882
 11
1521.3639692482
 21
-301.4365639033
 31
-53.1513991882
  0
LINE
  5
314
100
AcDbEntity
  8
L1_120
  6
CONTINUOUS
 62
         4
100
AcDbLine
 10
1521.2994061136
 20
-298.2622661168
 30
-52.5916848436
 11
1523.3695102538
 21
-300.3009207236
 31
-52.9511546552
  0
LINE
  5
315
100
AcDbEntity
  8
L1_120
  6
CONTINUOUS
 62
         4
100
AcDbLine
 10
1515.914595344
 20
-298.2622661168
 30
-52.5916848436
 11
1513.8444912038
 21
-300.3009207236
 31
-52.9511546552
  0
LINE
  5
316
100
AcDbEntity
  8
L1_120
  6
CONTINUOUS
 62
         4
100
AcDbLine
 10
1513.8444912038
 20
-300.3009207236
 30
-52.9511546552
 11
1523.3695102538
 21
-300.3009207236
 31
-52.9511546552
  0
LINE
  5
317
100
AcDbEntity
  8
L1_120
  6
CONTINUOUS
 62
         4
100
AcDbLine
 10
1515.914595344
 20
-298.2622661168
 30
-52.5916848436
 11
1521.2994061136
 21
-298.2622661168
 31
-52.5916848436
  0
LINE
  5
318
100
AcDbEntity
  8
L1_120
  6
CONTINUOUS
 62
         4
100
AcDbLine
 10
1522.6583159434
 20
-300.8322216297
 30
-53.0448373398
 11
1514.5556855142
 21
-301.3635225358
 31
-53.1385200244
  0
LINE
  5
319
100
AcDbEntity
  8
L1_120
  6
CONTINUOUS
 62
         4
100
AcDbLine
 10
1523.3695102538
 20
-300.3009207236
 30
-52.9511546552
 11
1513.8444912038
 21
-300.8322216297
 31
-53.0448373398
  0
LINE
  5
31A
100
AcDbEntity
  8
L1_120
  6
CONTINUOUS
 62
         4
100
AcDbLine
 10
1522.6583159434
 20
-300.8322216297
 30
-53.0448373398
 11
1523.3695102538
 21
-300.3009207236
 31
-52.9511546552
  0
LINE
  5
31B
100
AcDbEntity
  8
L1_120
  6
CONTINUOUS
 62
         4
100
AcDbLine
 10
1523.3695102538
 20
-301.3635225358
 30
-53.1385200244
 11
1522.6583159434
 21
-300.8322216297
 31
-53.0448373398
  0
LINE
  5
31C
100
AcDbEntity
  8
L1_120
  6
CONTINUOUS
 62
         4
100
AcDbLine
 10
1513.8444912038
 20
-300.8322216297
 30
-53.0448373398
 11
1514.5556855142
 21
-300.3009207236
 31
-52.9511546552
  0
LINE
  5
31D
100
AcDbEntity
  8
L1_120
  6
CONTINUOUS
 62
         4
100
AcDbLine
 10
1514.5556855142
 20
-301.3635225358
 30
-53.1385200244
 11
1513.8444912038
 21
-300.8322216297
 31
-53.0448373398
  0
LINE
  5
31E
100
AcDbEntity
  8
L1_120
  6
CONTINUOUS
 62
         4
100
AcDbLine
 10
1523.3695102538
 20
-305.6139297848
 30
-53.8879815014
 11
1515.0951825932
 21
-305.6139297848
 31
-53.8879815014
  0
LINE
  5
31F
100
AcDbEntity
  8
L1_120
  6
CONTINUOUS
 62
         4
100
AcDbLine
 10
1522.6583159434
 20
-305.0826288787
 30
-53.7942988168
 11
1515.0951825932
 21
-305.6139297848
 31
-53.8879815014
  0
LINE
  5
320
100
AcDbEntity
  8
L1_120
  6
CONTINUOUS
 62
         4
100
AcDbLine
 10
1523.3695102538
 20
-304.5513279726
 30
-53.7006161322
 11
1513.8444912038
 21
-305.0826288787
 31
-53.7942988168
  0
LINE
  5
321
100
AcDbEntity
  8
L1_120
  6
CONTINUOUS
 62
         4
100
AcDbLine
 10
1522.6583159434
 20
-305.0826288787
 30
-53.7942988168
 11
1523.3695102538
 21
-305.6139297848
 31
-53.8879815014
  0
LINE
  5
322
100
AcDbEntity
  8
L1_120
  6
CONTINUOUS
 62
         4
100
AcDbLine
 10
1523.3695102538
 20
-304.5513279726
 30
-53.7006161322
 11
1522.6583159434
 21
-305.0826288787
 31
-53.7942988168
  0
LINE
  5
323
100
AcDbEntity
  8
L1_120
  6
CONTINUOUS
 62
         4
100
AcDbLine
 10
1514.5556855142
 20
-304.5513279726
 30
-53.7006161322
 11
1513.8444912038
 21
-305.0826288787
 31
-53.7942988168
  0
LINE
  5
324
100
AcDbEntity
  8
L1_120
  6
CONTINUOUS
 62
         4
100
AcDbLine
 10
1522.6583159434
 20
-301.894823442
 30
-53.232202709
 11
1514.5556855142
 21
-302.4261243481
 31
-53.3258853937
  0
LINE
  5
325
100
AcDbEntity
  8
L1_120
  6
CONTINUOUS
 62
         4
100
AcDbLine
 10
1523.3695102538
 20
-301.3635225358
 30
-53.1385200244
 11
1513.8444912038
 21
-301.894823442
 31
-53.232202709
  0
LINE
  5
326
100
AcDbEntity
  8
L1_120
  6
CONTINUOUS
 62
         4
100
AcDbLine
 10
1522.6583159434
 20
-301.894823442
 30
-53.232202709
 11
1523.3695102538
 21
-301.3635225358
 31
-53.1385200244
  0
LINE
  5
327
100
AcDbEntity
  8
L1_120
  6
CONTINUOUS
 62
         4
100
AcDbLine
 10
1523.3695102538
 20
-302.4261243481
 30
-53.3258853937
 11
1522.6583159434
 21
-301.894823442
 31
-53.232202709
  0
LINE
  5
328
100
AcDbEntity
  8
L1_120
  6
CONTINUOUS
 62
         4
100
AcDbLine
 10
1513.8444912038
 20
-301.894823442
 30
-53.232202709
 11
1514.5556855142
 21
-301.3635225358
 31
-53.1385200244
  0
LINE
  5
329
100
AcDbEntity
  8
L1_120
  6
CONTINUOUS
 62
         4
100
AcDbLine
 10
1514.5556855142
 20
-302.4261243481
 30
-53.3258853937
 11
1513.8444912038
 21
-301.894823442
 31
-53.232202709
  0
LINE
  5
32A
100
AcDbEntity
  8
L1_120
  6
CONTINUOUS
 62
         4
100
AcDbLine
 10
1523.3695102538
 20
-305.6139297848
 30
-53.8879815014
 11
1515.0951825932
 21
-305.6139297848
 31
-53.8879815014
  0
LINE
  5
32B
100
AcDbEntity
  8
L1_120
  6
CONTINUOUS
 62
         4
100
AcDbLine
 10
1522.6583159434
 20
-305.0826288787
 30
-53.7942988168
 11
1515.0951825932
 21
-305.6139297848
 31
-53.8879815014
  0
LINE
  5
32C
100
AcDbEntity
  8
L1_120
  6
CONTINUOUS
 62
         4
100
AcDbLine
 10
1523.3695102538
 20
-304.5513279726
 30
-53.7006161322
 11
1513.8444912038
 21
-305.0826288787
 31
-53.7942988168
  0
LINE
  5
32D
100
AcDbEntity
  8
L1_120
  6
CONTINUOUS
 62
         4
100
AcDbLine
 10
1522.6583159434
 20
-305.0826288787
 30
-53.7942988168
 11
1523.3695102538
 21
-305.6139297848
 31
-53.8879815014
  0
LINE
  5
32E
100
AcDbEntity
  8
L1_120
  6
CONTINUOUS
 62
         4
100
AcDbLine
 10
1523.3695102538
 20
-304.5513279726
 30
-53.7006161322
 11
1522.6583159434
 21
-305.0826288787
 31
-53.7942988168
  0
LINE
  5
32F
100
AcDbEntity
  8
L1_120
  6
CONTINUOUS
 62
         4
100
AcDbLine
 10
1514.5556855142
 20
-304.5513279726
 30
-53.7006161322
 11
1513.8444912038
 21
-305.0826288787
 31
-53.7942988168
  0
LINE
  5
330
100
AcDbEntity
  8
L1_120
  6
CONTINUOUS
 62
         4
100
AcDbLine
 10
1522.6583159434
 20
-302.9574252542
 30
-53.4195680783
 11
1514.5556855142
 21
-303.4887261603
 31
-53.5132507629
  0
LINE
  5
331
100
AcDbEntity
  8
L1_120
  6
CONTINUOUS
 62
         4
100
AcDbLine
 10
1523.3695102538
 20
-302.4261243481
 30
-53.3258853937
 11
1513.8444912038
 21
-302.9574252542
 31
-53.4195680783
  0
LINE
  5
332
100
AcDbEntity
  8
L1_120
  6
CONTINUOUS
 62
         4
100
AcDbLine
 10
1522.6583159434
 20
-302.9574252542
 30
-53.4195680783
 11
1523.3695102538
 21
-302.4261243481
 31
-53.3258853937
  0
LINE
  5
333
100
AcDbEntity
  8
L1_120
  6
CONTINUOUS
 62
         4
100
AcDbLine
 10
1523.3695102538
 20
-303.4887261603
 30
-53.5132507629
 11
1522.6583159434
 21
-302.9574252542
 31
-53.4195680783
  0
LINE
  5
334
100
AcDbEntity
  8
L1_120
  6
CONTINUOUS
 62
         4
100
AcDbLine
 10
1513.8444912038
 20
-302.9574252542
 30
-53.4195680783
 11
1514.5556855142
 21
-302.4261243481
 31
-53.3258853937
  0
LINE
  5
335
100
AcDbEntity
  8
L1_120
  6
CONTINUOUS
 62
         4
100
AcDbLine
 10
1514.5556855142
 20
-303.4887261603
 30
-53.5132507629
 11
1513.8444912038
 21
-302.9574252542
 31
-53.4195680783
  0
LINE
  5
336
100
AcDbEntity
  8
L1_120
  6
CONTINUOUS
 62
         4
100
AcDbLine
 10
1523.3695102538
 20
-305.6139297848
 30
-53.8879815014
 11
1515.0951825932
 21
-305.6139297848
 31
-53.8879815014
  0
LINE
  5
337
100
AcDbEntity
  8
L1_120
  6
CONTINUOUS
 62
         4
100
AcDbLine
 10
1522.6583159434
 20
-305.0826288787
 30
-53.7942988168
 11
1515.0951825932
 21
-305.6139297848
 31
-53.8879815014
  0
LINE
  5
338
100
AcDbEntity
  8
L1_120
  6
CONTINUOUS
 62
         4
100
AcDbLine
 10
1523.3695102538
 20
-304.5513279726
 30
-53.7006161322
 11
1513.8444912038
 21
-305.0826288787
 31
-53.7942988168
  0
LINE
  5
339
100
AcDbEntity
  8
L1_120
  6
CONTINUOUS
 62
         4
100
AcDbLine
 10
1522.6583159434
 20
-305.0826288787
 30
-53.7942988168
 11
1523.3695102538
 21
-305.6139297848
 31
-53.8879815014
  0
LINE
  5
33A
100
AcDbEntity
  8
L1_120
  6
CONTINUOUS
 62
         4
100
AcDbLine
 10
1523.3695102538
 20
-304.5513279726
 30
-53.7006161322
 11
1522.6583159434
 21
-305.0826288787
 31
-53.7942988168
  0
LINE
  5
33B
100
AcDbEntity
  8
L1_120
  6
CONTINUOUS
 62
         4
100
AcDbLine
 10
1514.5556855142
 20
-304.5513279726
 30
-53.7006161322
 11
1513.8444912038
 21
-305.0826288787
 31
-53.7942988168
  0
LINE
  5
33C
100
AcDbEntity
  8
L1_120
  6
CONTINUOUS
 62
         4
100
AcDbLine
 10
1522.6583159434
 20
-304.0200270664
 30
-53.6069334475
 11
1514.5556855142
 21
-304.5513279726
 31
-53.7006161322
  0
LINE
  5
33D
100
AcDbEntity
  8
L1_120
  6
CONTINUOUS
 62
         4
100
AcDbLine
 10
1523.3695102538
 20
-303.4887261603
 30
-53.5132507629
 11
1513.8444912038
 21
-304.0200270664
 31
-53.6069334475
  0
LINE
  5
33E
100
AcDbEntity
  8
L1_120
  6
CONTINUOUS
 62
         4
100
AcDbLine
 10
1522.6583159434
 20
-304.0200270664
 30
-53.6069334475
 11
1523.3695102538
 21
-303.4887261603
 31
-53.5132507629
  0
LINE
  5
33F
100
AcDbEntity
  8
L1_120
  6
CONTINUOUS
 62
         4
100
AcDbLine
 10
1523.3695102538
 20
-304.5513279726
 30
-53.7006161322
 11
1522.6583159434
 21
-304.0200270664
 31
-53.6069334475
  0
LINE
  5
340
100
AcDbEntity
  8
L1_120
  6
CONTINUOUS
 62
         4
100
AcDbLine
 10
1513.8444912038
 20
-304.0200270664
 30
-53.6069334475
 11
1514.5556855142
 21
-303.4887261603
 31
-53.5132507629
  0
LINE
  5
341
100
AcDbEntity
  8
L1_120
  6
CONTINUOUS
 62
         4
100
AcDbLine
 10
1514.5556855142
 20
-304.5513279726
 30
-53.7006161322
 11
1513.8444912038
 21
-304.0200270664
 31
-53.6069334475
  0
LINE
  5
342
100
AcDbEntity
  8
L1_120
  6
CONTINUOUS
 62
         4
100
AcDbLine
 10
1513.8444912038
 20
-305.6139297848
 30
-53.8879815014
 11
1513.8444912038
 21
-305.0826288787
 31
-53.7942988168
  0
LINE
  5
343
100
AcDbEntity
  8
L1_120
  6
CONTINUOUS
 62
         4
100
AcDbLine
 10
1514.5556855142
 20
-306.1392272909
 30
-53.9806056246
 11
1513.8444912038
 21
-305.6139297848
 31
-53.8879815014
  0
LINE
  5
344
100
AcDbEntity
  8
L1_120
  6
CONTINUOUS
 62
         4
100
AcDbLine
 10
1522.6583159434
 20
-306.1392272909
 30
-53.9806056246
 11
1523.3695102538
 21
-305.6139297848
 31
-53.8879815014
  0
LINE
  5
345
100
AcDbEntity
  8
L1_120
  6
CONTINUOUS
 62
         4
100
AcDbLine
 10
1523.3695102538
 20
-305.6139297848
 30
-53.8879815014
 11
1513.8444912038
 21
-305.6139297848
 31
-53.8879815014
  0
LINE
  5
346
100
AcDbEntity
  8
L1_120
  6
CONTINUOUS
 62
         4
100
AcDbLine
 10
1522.6583159434
 20
-306.1392272909
 30
-53.9806056246
 11
1514.5556855142
 21
-306.1392272909
 31
-53.9806056246
  0
CIRCLE
  5
347
100
AcDbEntity
  8
L1_120
  6
DASHED
 62
         2
100
AcDbCircle
 10
1552.4308425579
 20
-220.8689735113
 30
38.9451592314
 40
7.055
210
0.0
220
-0.1736481776669303
230
0.9848077530122081
  0
LINE
  5
348
100
AcDbEntity
  8
L1_120
  6
DASHED
 62
         2
100
AcDbLine
 10
1553.9063583343
 20
-233.0195768166
 30
-1.5416873383
 11
1559.0388294051
 21
-246.9066940223
 31
-3.9903607859
  0
LINE
  5
349
100
AcDbEntity
  8
L1_120
  6
DASHED
 62
         2
100
AcDbLine
 10
1557.0073439829
 20
-231.9080573234
 30
-1.3456964621
 11
1562.1398150537
 21
-245.7951745291
 31
-3.7943699097
  0
LINE
  5
34A
100
AcDbEntity
  8
L1_120
  6
DASHED
 62
         2
100
AcDbLine
 10
1562.468707471
 20
-245.677286098
 30
-3.7735829986
 11
1563.905192073
 21
-249.5640357273
 31
-4.4589218255
  0
LINE
  5
34B
100
AcDbEntity
  8
L1_120
  6
DASHED
 62
         2
100
AcDbLine
 10
1562.468707471
 20
-245.677286098
 30
-3.7735829986
 11
1558.7099369879
 21
-247.0245824534
 31
-4.0111476971
  0
LINE
  5
34C
100
AcDbEntity
  8
L1_120
  6
DASHED
 62
         2
100
AcDbLine
 10
1558.7099369879
 20
-247.0245824534
 30
-4.0111476971
 11
1560.1464215898
 21
-250.9113320826
 31
-4.696486524
  0
LINE
  5
34D
100
AcDbEntity
  8
L1_120
  6
DASHED
 62
         2
100
AcDbLine
 10
1546.1517481279
 20
-201.5278844331
 30
4.0111476971
 11
1542.3929776447
 21
-202.8751807884
 31
3.7735829986
  0
LINE
  5
34E
100
AcDbEntity
  8
L1_120
  6
DASHED
 62
         2
100
AcDbLine
 10
1542.721870062
 20
-202.7572923573
 30
3.7943699097
 11
1547.8543411328
 21
-216.644409563
 31
1.3456964621
  0
LINE
  5
34F
100
AcDbEntity
  8
L1_120
  6
DASHED
 62
         2
100
AcDbLine
 10
1545.8228557106
 20
-201.6457728642
 30
3.9903607859
 11
1550.9553267814
 21
-215.5328900699
 31
1.5416873383
  0
LINE
  5
350
100
AcDbEntity
  8
L1_120
  6
DASHED
 62
         2
100
AcDbLine
 10
1542.3929776447
 20
-202.8751807884
 30
3.7735829986
 11
1540.9564930428
 21
-198.9884311591
 31
4.4589218255
  0
LINE
  5
351
100
AcDbEntity
  8
L1_120
  6
DASHED
 62
         2
100
AcDbLine
 10
1546.1517481279
 20
-201.5278844331
 30
4.0111476971
 11
1544.7152635259
 21
-197.6411348038
 31
4.696486524
  0
LINE
  5
352
100
AcDbEntity
  8
L1_120
  6
CENTER
 62
         1
100
AcDbLine
 10
1540.5370920737
 20
-192.0948719294
 30
5.6744423108
 11
1564.4717158171
 21
-256.8556705026
 31
-5.7446337699
  0
LINE
  5
353
100
AcDbEntity
  8
L1_120
  6
CENTER
 62
         1
100
AcDbLine
 10
1566.421580482
 20
-224.2762334432
 30
0.0
 11
1538.36088094
 21
-224.2762334432
 31
0.0
  0
LINE
  5
354
100
AcDbEntity
  8
L1_120
  6
CENTER
 62
         1
100
AcDbLine
 10
1525.9384549766
 20
-224.2762334432
 30
0.0
 11
1579.9169119571
 21
-224.2762334432
 31
0.0
  0
LINE
  5
355
100
AcDbEntity
  8
L1_120
  6
CONTINUOUS
 62
         7
100
AcDbLine
 10
1522.1924606063
 20
-232.203935855
 30
-1.3978678302
 11
1526.9308425579
 21
-232.203935855
 31
-1.3978678302
  0
LINE
  5
356
100
AcDbEntity
  8
L1_120
  6
CONTINUOUS
 62
         7
100
AcDbLine
 10
1521.7983753251
 20
-232.5920340952
 30
-1.4663000211
 11
1522.1924606063
 21
-232.203935855
 31
-1.3978678302
  0
LINE
  5
357
100
AcDbEntity
  8
L1_120
  6
CONTINUOUS
 62
         7
100
AcDbLine
 10
1527.4308425579
 20
-231.7115319785
 30
-1.3110437414
 11
1526.9308425579
 21
-232.203935855
 31
-1.3978678302
  0
LINE
  5
358
100
AcDbEntity
  8
L1_120
  6
CONTINUOUS
 62
         7
100
AcDbLine
 10
1521.7983753251
 20
-215.9604327912
 30
1.4663000211
 11
1522.1924606063
 21
-216.3485310315
 31
1.3978678302
  0
LINE
  5
359
100
AcDbEntity
  8
L1_120
  6
CONTINUOUS
 62
         7
100
AcDbLine
 10
1527.4308425579
 20
-216.840934908
 30
1.3110437414
 11
1526.9308425579
 21
-216.3485310315
 31
1.3978678302
  0
LINE
  5
35A
100
AcDbEntity
  8
L1_120
  6
CONTINUOUS
 62
         7
100
AcDbLine
 10
1527.4308425579
 20
-216.840934908
 30
1.3110437414
 11
1527.4308425579
 21
-231.7115319785
 31
-1.3110437414
  0
LINE
  5
35B
100
AcDbEntity
  8
L1_120
  6
CONTINUOUS
 62
         7
100
AcDbLine
 10
1522.1924606063
 20
-216.3485310315
 30
1.3978678302
 11
1526.9308425579
 21
-216.3485310315
 31
1.3978678302
  0
LINE
  5
35C
100
AcDbEntity
  8
L1_120
  6
CONTINUOUS
 62
         7
100
AcDbLine
 10
1583.0633097906
 20
-232.5920340952
 30
-1.4663000211
 11
1582.6692245094
 21
-232.203935855
 31
-1.3978678302
  0
LINE
  5
35D
100
AcDbEntity
  8
L1_120
  6
CONTINUOUS
 62
         7
100
AcDbLine
 10
1575.2308425579
 20
-231.7115319785
 30
-1.3110437414
 11
1575.7308425579
 21
-232.203935855
 31
-1.3978678302
  0
LINE
  5
35E
100
AcDbEntity
  8
L1_120
  6
CONTINUOUS
 62
         7
100
AcDbLine
 10
1575.7308425579
 20
-232.203935855
 30
-1.3978678302
 11
1582.6692245094
 21
-232.203935855
 31
-1.3978678302
  0
LINE
  5
35F
100
AcDbEntity
  8
L1_120
  6
CONTINUOUS
 62
         7
100
AcDbLine
 10
1583.0633097906
 20
-215.9604327912
 30
1.4663000211
 11
1582.6692245094
 21
-216.3485310315
 31
1.3978678302
  0
LINE
  5
360
100
AcDbEntity
  8
L1_120
  6
CONTINUOUS
 62
         7
100
AcDbLine
 10
1575.7308425579
 20
-216.3485310315
 30
1.3978678302
 11
1582.6692245094
 21
-216.3485310315
 31
1.3978678302
  0
LINE
  5
361
100
AcDbEntity
  8
L1_120
  6
CONTINUOUS
 62
         7
100
AcDbLine
 10
1575.2308425579
 20
-216.840934908
 30
1.3110437414
 11
1575.7308425579
 21
-216.3485310315
 31
1.3978678302
  0
LINE
  5
362
100
AcDbEntity
  8
L1_120
  6
CONTINUOUS
 62
         7
100
AcDbLine
 10
1575.2308425579
 20
-216.840934908
 30
1.3110437414
 11
1575.2308425579
 21
-231.7115319785
 31
-1.3110437414
  0
ARC
  5
363
100
AcDbEntity
  8
L1_120
  6
DASHED
 62
         2
100
AcDbCircle
 10
1552.4308425579
 20
-220.8689735113
 30
38.9451592314
 40
28.125
210
0.0
220
-0.1736481776669303
230
0.9848077530122081
100
AcDbArc
 50
198.3406919436
 51
343.3680794645
  0
ARC
  5
364
100
AcDbEntity
  8
L1_120
  6
DASHED
 62
         2
100
AcDbCircle
 10
1552.4308425579
 20
-220.8689735113
 30
38.9451592314
 40
28.125
210
0.0
220
-0.1736481776669303
230
0.9848077530122081
100
AcDbArc
 50
16.6319205355
 51
163.3680794645
  0
LINE
  5
365
100
AcDbEntity
  8
L1_120
  6
CENTER
 62
         1
100
AcDbLine
 10
1552.4308425579
 20
-190.0295438322
 30
6.0386153784
 11
1552.4308425579
 21
-258.5229230542
 31
-6.0386153784
  0
ARC
  5
366
100
AcDbEntity
  8
L1_120
  6
CONTINUOUS
 62
         7
100
AcDbCircle
 10
1552.4308425579
 20
-220.8689735113
 30
38.9451592314
 40
31.775
210
0.0
220
-0.1736481776669303
230
0.9848077530122081
100
AcDbArc
 50
15.411296411
 51
164.588703589
  0
ARC
  5
367
100
AcDbEntity
  8
L1_120
  6
CONTINUOUS
 62
         7
100
AcDbCircle
 10
1552.4308425579
 20
-220.8689735113
 30
38.9451592314
 40
31.775
210
0.0
220
-0.1736481776669303
230
0.9848077530122081
100
AcDbArc
 50
195.411296411
 51
344.588703589
  0
CIRCLE
  5
368
100
AcDbEntity
  8
L1_120
  6
CONTINUOUS
 62
         7
100
AcDbCircle
 10
1552.4308425579
 20
-220.8689735113
 30
38.9451592314
 40
22.225
210
0.0
220
-0.1736481776669303
230
0.9848077530122081
  0
LINE
  5
369
100
AcDbEntity
  8
L1_120
  6
CENTER
 62
         1
100
AcDbLine
 10
1519.0698934993
 20
-206.8073872893
 30
3.0802288988
 11
1552.4044130876
 21
-224.2623941382
 31
0.0024402429
  0
LINE
  5
36A
100
AcDbEntity
  8
L1_120
  6
DASHED
 62
         2
100
AcDbLine
 10
1527.4308425579
 20
-229.3972337589
 30
-0.9029705239
 11
1527.6308425579
 21
-229.2002722083
 31
-0.8682408883
  0
LINE
  5
36B
100
AcDbEntity
  8
L1_120
  6
DASHED
 62
         2
100
AcDbLine
 10
1527.4308425579
 20
-219.1552331276
 30
0.9029705239
 11
1527.6308425579
 21
-219.3521946782
 31
0.8682408883
  0
LINE
  5
36C
100
AcDbEntity
  8
L1_120
  6
DASHED
 62
         2
100
AcDbLine
 10
1527.6308425579
 20
-219.3521946782
 30
0.8682408883
 11
1527.6308425579
 21
-229.2002722083
 31
-0.8682408883
  0
ARC
  5
36D
100
AcDbEntity
  8
L1_120
  6
DASHED
 62
         2
100
AcDbCircle
 10
1531.8808425579
 20
-225.6689735113
 30
38.9451592314
 40
0.2
210
0.0
220
-0.1736481776669303
230
0.9848077530122081
100
AcDbArc
 50
270.0
 51
360.0
  0
ARC
  5
36E
100
AcDbEntity
  8
L1_120
  6
DASHED
 62
         2
100
AcDbCircle
 10
1531.8808425579
 20
-216.0689735113
 30
38.9451592314
 40
0.2
210
0.0
220
-0.1736481776669303
230
0.9848077530122081
100
AcDbArc
 50
0.0
 51
90.0
  0
LINE
  5
36F
100
AcDbEntity
  8
L1_120
  6
DASHED
 62
         2
100
AcDbLine
 10
1532.0808425579
 20
-219.5491562288
 30
0.8335112528
 11
1532.0808425579
 21
-229.0033106577
 31
-0.8335112528
  0
LINE
  5
370
100
AcDbEntity
  8
L1_120
  6
DASHED
 62
         2
100
AcDbLine
 10
1527.6308425579
 20
-219.3521946782
 30
0.8682408883
 11
1531.8808425579
 21
-219.3521946782
 31
0.8682408883
  0
LINE
  5
371
100
AcDbEntity
  8
L1_120
  6
DASHED
 62
         2
100
AcDbLine
 10
1527.6308425579
 20
-229.2002722083
 30
-0.8682408883
 11
1531.8808425579
 21
-229.2002722083
 31
-0.8682408883
  0
LINE
  5
372
100
AcDbEntity
  8
L1_120
  6
CENTER
 62
         1
100
AcDbLine
 10
1519.0698934993
 20
-241.7450795971
 30
-3.0802288988
 11
1552.4044130876
 21
-224.2900727483
 31
-0.0024402429
  0
LINE
  5
373
100
AcDbEntity
  8
L1_120
  6
DASHED
 62
         2
100
AcDbLine
 10
1526.7218653445
 20
-235.5075380278
 30
-1.9803820268
 11
1533.585986658
 21
-231.9132674032
 31
-1.3466151397
  0
LINE
  5
374
100
AcDbEntity
  8
L1_120
  6
DASHED
 62
         2
100
AcDbLine
 10
1528.5997515957
 20
-238.9856725676
 30
-2.5936709887
 11
1535.4638729092
 21
-235.391401943
 31
-1.9599041016
  0
LINE
  5
375
100
AcDbEntity
  8
L1_120
  6
DASHED
 62
         2
100
AcDbLine
 10
1533.585986658
 20
-231.9132674032
 30
-1.3466151397
 11
1535.4638729092
 21
-235.391401943
 31
-1.9599041016
  0
LINE
  5
376
100
AcDbEntity
  8
L1_120
  6
DASHED
 62
         2
100
AcDbLine
 10
1535.5444698444
 20
-233.1184713097
 30
-1.5591251057
 11
1535.4638729092
 21
-235.391401943
 31
-1.9599041016
  0
LINE
  5
377
100
AcDbEntity
  8
L1_120
  6
DASHED
 62
         2
100
AcDbLine
 10
1533.585986658
 20
-231.9132674032
 30
-1.3466151397
 11
1535.5444698444
 21
-233.1184713097
 31
-1.5591251057
  0
LINE
  5
378
100
AcDbEntity
  8
L1_120
  6
DASHED
 62
         2
100
AcDbLine
 10
1526.7218653445
 20
-213.0449288587
 30
1.9803820268
 11
1533.585986658
 21
-216.6391994832
 31
1.3466151397
  0
LINE
  5
379
100
AcDbEntity
  8
L1_120
  6
DASHED
 62
         2
100
AcDbLine
 10
1533.585986658
 20
-216.6391994832
 30
1.3466151397
 11
1535.4638729092
 21
-213.1610649434
 31
1.9599041016
  0
LINE
  5
37A
100
AcDbEntity
  8
L1_120
  6
DASHED
 62
         2
100
AcDbLine
 10
1533.585986658
 20
-216.6391994832
 30
1.3466151397
 11
1535.5444698444
 21
-215.4339955767
 31
1.5591251057
  0
LINE
  5
37B
100
AcDbEntity
  8
L1_120
  6
DASHED
 62
         2
100
AcDbLine
 10
1535.5444698444
 20
-215.4339955767
 30
1.5591251057
 11
1535.4638729092
 21
-213.1610649434
 31
1.9599041016
  0
LINE
  5
37C
100
AcDbEntity
  8
L1_120
  6
DASHED
 62
         2
100
AcDbLine
 10
1528.5997515957
 20
-209.5667943189
 30
2.5936709887
 11
1535.4638729092
 21
-213.1610649434
 31
1.9599041016
  0
LINE
  5
37D
100
AcDbEntity
  8
L1_120
  6
CONTINUOUS
 62
         7
100
AcDbLine
 10
1527.4308425579
 20
-219.1552331276
 30
0.9029705239
 11
1527.4308425579
 21
-229.3972337589
 31
-0.9029705239
  0
LINE
  5
37E
100
AcDbEntity
  8
L1_120
  6
DASHED
 62
         2
100
AcDbLine
 10
1547.6808425579
 20
-234.995140897
 30
-1.8900325878
 11
1547.6808425579
 21
-224.6158225889
 31
-0.0598787287
  0
LINE
  5
37F
100
AcDbEntity
  8
L1_120
  6
DASHED
 62
         2
100
AcDbLine
 10
1548.1808425579
 20
-234.5027370204
 30
-1.803208499
 11
1548.1808425579
 21
-226.3927468934
 31
-0.3731984263
  0
LINE
  5
380
100
AcDbEntity
  8
L1_120
  6
DASHED
 62
         2
100
AcDbLine
 10
1557.1808425579
 20
-224.6158225889
 30
-0.0598787287
 11
1557.1808425579
 21
-234.995140897
 31
-1.8900325878
  0
LINE
  5
381
100
AcDbEntity
  8
L1_120
  6
DASHED
 62
         2
100
AcDbLine
 10
1556.6808425579
 20
-226.3927468934
 30
-0.3731984263
 11
1556.6808425579
 21
-234.5027370204
 31
-1.803208499
  0
LINE
  5
382
100
AcDbEntity
  8
L1_120
  6
DASHED
 62
         2
100
AcDbLine
 10
1556.6808425579
 20
-234.5027370204
 30
-1.803208499
 11
1548.1808425579
 21
-234.5027370204
 31
-1.803208499
  0
ARC
  5
383
100
AcDbEntity
  8
L1_120
  6
CONTINUOUS
 62
         7
100
AcDbCircle
 10
1552.4308425579
 20
-220.8689735113
 30
38.9451592314
 40
4.7625
210
0.0
220
-0.1736481776669303
230
0.9848077530122081
100
AcDbArc
 50
198.1213496624
 51
341.8786503376
  0
CIRCLE
  5
384
100
AcDbEntity
  8
L1_120
  6
CONTINUOUS
 62
         7
100
AcDbCircle
 10
1552.4308425579
 20
-220.8689735113
 30
38.9451592314
 40
9.0
210
0.0
220
-0.1736481776669303
230
0.9848077530122081
  0
ARC
  5
385
100
AcDbEntity
  8
L1_120
  6
DASHED
 62
         2
100
AcDbCircle
 10
1552.4308425579
 20
-200.5489735113
 30
38.9451592314
 40
10.0
210
0.0
220
-0.1736481776669303
230
0.9848077530122081
100
AcDbArc
 50
239.9041784303
 51
300.0958215697
  0
CIRCLE
  5
386
100
AcDbEntity
  8
L1_120
  6
CONTINUOUS
 62
         7
100
AcDbCircle
 10
1552.4308425579
 20
-220.8689735113
 30
38.9451592314
 40
12.7
210
0.0
220
-0.1736481776669303
230
0.9848077530122081
  0
LINE
  5
387
100
AcDbEntity
  8
L1_120
  6
CENTER
 62
         1
100
AcDbLine
 10
1566.421580482
 20
-224.2762334432
 30
0.0
 11
1538.36088094
 21
-224.2762334432
 31
0.0
  0
LINE
  5
388
100
AcDbEntity
  8
L1_120
  6
CENTER
 62
         1
100
AcDbLine
 10
1552.4308425579
 20
-237.4277922941
 30
-2.3189746638
 11
1552.4308425579
 21
-211.556786563
 31
2.2427816647
  0
LINE
  5
389
100
AcDbEntity
  8
L1_120
  6
DASHED
 62
         2
100
AcDbLine
 10
1548.1808425579
 20
-234.5027370204
 30
-1.803208499
 11
1547.0577315111
 21
-235.6087854868
 31
-1.9982346856
  0
LINE
  5
38A
100
AcDbEntity
  8
L1_120
  6
DASHED
 62
         2
100
AcDbLine
 10
1556.6808425579
 20
-234.5027370204
 30
-1.803208499
 11
1557.8039536046
 21
-235.6087854868
 31
-1.9982346856
  0
ARC
  5
38B
100
AcDbEntity
  8
L1_120
  6
CONTINUOUS
 62
         7
100
AcDbCircle
 10
1547.6683425579
 20
-220.8689735113
 30
38.9451592314
 40
1.5
210
0.0
220
-0.1736481776669303
230
0.9848077530122081
100
AcDbArc
 50
80.9393251688
 51
279.0606748312
  0
ARC
  5
38C
100
AcDbEntity
  8
L1_120
  6
CONTINUOUS
 62
         7
100
AcDbCircle
 10
1557.1933425579
 20
-220.8689735113
 30
38.9451592314
 40
1.5
210
0.0
220
-0.1736481776669303
230
0.9848077530122081
100
AcDbArc
 50
260.9393251688
 51
459.0606748312
  0
ARC
  5
38D
100
AcDbEntity
  8
L1_120
  6
CONTINUOUS
 62
         7
100
AcDbCircle
 10
1552.4308425579
 20
-220.8689735113
 30
38.9451592314
 40
4.7625
210
0.0
220
-0.1736481776669303
230
0.9848077530122081
100
AcDbArc
 50
18.1213496624
 51
161.8786503376
  0
ENDSEC
  0
SECTION
  2
OBJECTS
  0
DICTIONARY
  5
19
100
AcDbDictionary
  3
ACAD_GROUP
350
1A
  3
ACAD_MLINESTYLE
350
1B
  0
DICTIONARY
  5
1A
102
{ACAD_REACTORS
330
19
102
}
100
AcDbDictionary
  0
DICTIONARY
  5
1B
102
{ACAD_REACTORS
330
19
102
}
100
AcDbDictionary
  3
STANDARD
350
1C
  0
MLINESTYLE
  5
1C
102
{ACAD_REACTORS
330
1B
102
}
100
AcDbMlineStyle
  2
STANDARD
 70
         0
  3

 62
         0
 51
90.0
 52
90.0
 71
         2
 49
0.5
 62
       256
  6
BYLAYER
 49
-0.5
 62
       256
  6
BYLAYER
  0
ENDSEC
  0
EOF
