  0
SECTION
  2
HEADER
  9
$ACADVER
  1
AC1014
  9
$ACADMAINTVER
 70
         0
  9
$DWGCODEPAGE
  3
BIG5
  9
$INSBASE
 10
0.0
 20
0.0
 30
0.0
  9
$EXTMIN
 10
1114.4506136161
 20
-385.6912576328
 30
0.0
  9
$EXTMAX
 10
1608.5166211018
 20
-144.0469256267
 30
0.0
  9
$LIMMIN
 10
0.0
 20
0.0
  9
$LIMMAX
 10
0.0
 20
0.0
  9
$ORTHOMODE
 70
         0
  9
$REGENMODE
 70
         1
  9
$FILLMODE
 70
         1
  9
$QTEXTMODE
 70
         0
  9
$MIRRTEXT
 70
         1
  9
$DRAGMODE
 70
         2
  9
$LTSCALE
 40
1.0
  9
$OSMODE
 70
         0
  9
$ATTMODE
 70
         1
  9
$TEXTSIZE
 40
1.7
  9
$TRACEWID
 40
0.05
  9
$TEXTSTYLE
  7
STANDARD
  9
$CLAYER
  8
0
  9
$CELTYPE
  6
CONTINUOUS
  9
$CECOLOR
 62
         1
  9
$CELTSCALE
 40
1.0
  9
$DELOBJ
 70
         1
  9
$DISPSILH
 70
         0
  9
$DIMSCALE
 40
1.0
  9
$DIMASZ
 40
0.18
  9
$DIMEXO
 40
0.0625
  9
$DIMDLI
 40
0.38
  9
$DIMRND
 40
0.0
  9
$DIMDLE
 40
0.0
  9
$DIMEXE
 40
0.25
  9
$DIMTP
 40
0.01
  9
$DIMTM
 40
-0.01
  9
$DIMTXT
 40
2.7
  9
$DIMCEN
 40
0.09
  9
$DIMTSZ
 40
0.0
  9
$DIMTOL
 70
         0
  9
$DIMLIM
 70
         0
  9
$DIMTIH
 70
         1
  9
$DIMTOH
 70
         1
  9
$DIMSE1
 70
         0
  9
$DIMSE2
 70
         0
  9
$DIMTAD
 70
         0
  9
$DIMZIN
 70
         0
  9
$DIMBLK
  1

  9
$DIMASO
 70
         1
  9
$DIMSHO
 70
         1
  9
$DIMPOST
  1

  9
$DIMAPOST
  1

  9
$DIMALT
 70
         0
  9
$DIMALTD
 70
         2
  9
$DIMALTF
 40
25.4
  9
$DIMLFAC
 40
1.0
  9
$DIMTOFL
 70
         0
  9
$DIMTVP
 40
0.0
  9
$DIMTIX
 70
         0
  9
$DIMSOXD
 70
         0
  9
$DIMSAH
 70
         0
  9
$DIMBLK1
  1

  9
$DIMBLK2
  1

  9
$DIMSTYLE
  2
STANDARD
  9
$DIMCLRD
 70
         0
  9
$DIMCLRE
 70
         0
  9
$DIMCLRT
 70
         1
  9
$DIMTFAC
 40
1.0
  9
$DIMGAP
 40
0.09
  9
$DIMJUST
 70
         0
  9
$DIMSD1
 70
         0
  9
$DIMSD2
 70
         0
  9
$DIMTOLJ
 70
         1
  9
$DIMTZIN
 70
         0
  9
$DIMALTZ
 70
         0
  9
$DIMALTTZ
 70
         0
  9
$DIMFIT
 70
         3
  9
$DIMUPT
 70
         0
  9
$DIMUNIT
 70
         2
  9
$DIMDEC
 70
         4
  9
$DIMTDEC
 70
         4
  9
$DIMALTU
 70
         2
  9
$DIMALTTD
 70
         2
  9
$DIMTXSTY
  7
STANDARD
  9
$DIMAUNIT
 70
         0
  9
$LUNITS
 70
         2
  9
$LUPREC
 70
        10
  9
$SKETCHINC
 40
0.1
  9
$FILLETRAD
 40
0.0
  9
$AUNITS
 70
         0
  9
$AUPREC
 70
         0
  9
$MENU
  1
acad
  9
$ELEVATION
 40
0.0
  9
$PELEVATION
 40
0.0
  9
$THICKNESS
 40
0.0
  9
$LIMCHECK
 70
         0
  9
$BLIPMODE
 70
         1
  9
$CHAMFERA
 40
0.0
  9
$CHAMFERB
 40
0.0
  9
$CHAMFERC
 40
0.0
  9
$CHAMFERD
 40
0.0
  9
$SKPOLY
 70
         0
  9
$TDCREATE
 40
0.000000000
  9
$TDUPDATE
 40
0.000000000
  9
$TDINDWG
 40
0.0000000000
  9
$TDUSRTIMER
 40
0.0000000000
  9
$USRTIMER
 70
         1
  9
$ANGBASE
 50
0.0
  9
$ANGDIR
 70
         0
  9
$PDMODE
 70
         2
  9
$PDSIZE
 40
0.0
  9
$PLINEWID
 40
0.0
  9
$COORDS
 70
         1
  9
$SPLFRAME
 70
         0
  9
$SPLINETYPE
 70
         6
  9
$SPLINESEGS
 70
         8
  9
$ATTDIA
 70
         0
  9
$ATTREQ
 70
         1
  9
$HANDLING
 70
         1
  9
$HANDSEED
  5
488
  9
$SURFTAB1
 70
         6
  9
$SURFTAB2
 70
         6
  9
$SURFTYPE
 70
         6
  9
$SURFU
 70
         6
  9
$SURFV
 70
         6
  9
$UCSNAME
  2

  9
$UCSORG
 10
0.0
 20
0.0
 30
0.0
  9
$UCSXDIR
 10
1.0
 20
0.0
 30
0.0
  9
$UCSYDIR
 10
0.0
 20
1.0
 30
0.0
  9
$PUCSNAME
  2

  9
$PUCSORG
 10
0.0
 20
0.0
 30
0.0
  9
$PUCSXDIR
 10
1.0
 20
0.0
 30
0.0
  9
$PUCSYDIR
 10
0.0
 20
1.0
 30
0.0
  9
$USERI1
 70
         0
  9
$USERI2
 70
         0
  9
$USERI3
 70
         0
  9
$USERI4
 70
         0
  9
$USERI5
 70
         0
  9
$USERR1
 40
0.0
  9
$USERR2
 40
0.0
  9
$USERR3
 40
0.0
  9
$USERR4
 40
0.0
  9
$USERR5
 40
0.0
  9
$WORLDVIEW
 70
         1
  9
$SHADEDGE
 70
         3
  9
$SHADEDIF
 70
        70
  9
$TILEMODE
 70
         1
  9
$MAXACTVP
 70
        16
  9
$PINSBASE
 10
0.0
 20
0.0
 30
0.0
  9
$PLIMCHECK
 70
         0
  9
$PEXTMIN
 10
1.0000000000E+20
 20
1.0000000000E+20
 30
1.0000000000E+20
  9
$PEXTMAX
 10
-1.0000000000E+20
 20
-1.0000000000E+20
 30
-1.0000000000E+20
  9
$PLIMMIN
 10
0.0
 20
0.0
  9
$PLIMMAX
 10
12.0
 20
9.0
  9
$UNITMODE
 70
         0
  9
$VISRETAIN
 70
         0
  9
$PLINEGEN
 70
         1
  9
$PSLTSCALE
 70
         0
  9
$TREEDEPTH
 70
      3020
  9
$PICKSTYLE
 70
         1
  9
$CMLSTYLE
  2
STANDARD
  9
$CMLJUST
 70
         0
  9
$CMLSCALE
 40
1.0
  9
$PROXYGRAPHICS
 70
         0
  9
$MEASUREMENT
 70
         0
  0
ENDSEC
  0
SECTION
  2
CLASSES
  0
CLASS
  1
LWPOLYLINE
  2
AcDbPolyline
  3
"AutoCAD"
 90
        0
280
         0
281
         1
  0
CLASS
  1
IMAGE
  2
AcDbRasterImage
  3
ISM
 90
      127
280
         0
281
         1
  0
CLASS
  1
OLE2FRAME
  2
AcDbOle2Frame
  3
""
 90
        0
280
         0
281
         1
  0
CLASS
  1
HATCH
  2
AcDbHatch
  3
"ACAD_SEDONA"
 90
        0
280
         0
281
         1
  0
CLASS
  1
DICTIONARYVAR
  2
AcDbDictionaryVar
  3
"AutoCAD"
 90
        0
280
         0
281
         0
  0
CLASS
  1
RASTERVARIABLES
  2
AcDbRasterVariables
  3
ISM
 90
        0
280
         0
281
         0
  0
CLASS
  1
IMAGEDEF
  2
AcDbRasterImageDef
  3
ISM
 90
        0
280
         0
281
         0
  0
CLASS
  1
IMAGEDEF_REACTOR
  2
AcDbRasterImageDefReactor
  3
ISM
 90
        1
280
         0
281
         0
  0
CLASS
  1
IDBUFFER
  2
AcDbIdBuffer
  3
"Acad"
 90
        0
280
         0
281
         0
  0
CLASS
  1
SPATIAL_FILTER
  2
AcDbSpatialFilter
  3
"Acad"
 90
        0
280
         0
281
         0
  0
CLASS
  1
XRECORD
  2
AcDbXrecord
  3
"<Built In>"
 90
        0
280
         0
281
         0
  0
CLASS
  1
SORTENTSTABLE
  2
AcDbSortentsTable
  3
"AutoCAD"
 90
        0
280
         0
281
         0
  0
CLASS
  1
LAYER_INDEX
  2
AcDbLayerIndex
  3
"Acad"
 90
        0
280
         0
281
         0
  0
CLASS
  1
SPATIAL_INDEX
  2
AcDbSpatialIndex
  3
"Acad"
 90
        0
280
         0
281
         0
  0
CLASS
  1
OBJECT_PTR
  2
CAseDLPNTableRecord
  3
"ASE-LPNTableRecord"
 90
        1
280
         0
281
         0
  0
CLASS
  1
LAYOUT
  2
AcDbLayout
  3
"AutoCAD 2000"
 90
        1
280
         0
281
         0
  0
CLASS
  1
PLOTSETTINGS
  2
AcDbPlotSettings
  3
"AutoCAD 2000"
 90
        1
280
         0
281
         0
  0
CLASS
  1
ACDBDICTIONARYWDFLT
  2
AcDbDictionaryWithDefault
  3
"AutoCAD 2000"
 90
        1
280
         0
281
         0
  0
CLASS
  1
ACDBPLACEHOLDER
  2
AcDbPlaceHolder
  3
"AutoCAD 2000"
 90
        1
280
         0
281
         0
  0
CLASS
  1
VBA_PROJECT
  2
AcDbVbaProject
  3
"acadvba"
 90
        1
280
         0
281
         0
  0
CLASS
  1
WIPEOUT
  2
AcDbWipeout
  3
WipeOut|AutoCAD Express Tool|expresstools@autodesk.com
 90
      127
280
         0
281
         1
  0
CLASS
  1
WIPEOUTVARIABLES
  2
AcDbWipeoutVariables
  3
WipeOut|AutoCAD Express Tool|expresstools@autodesk.com
 90
        0
280
         0
281
         0
  0
CLASS
  1
RTEXT
  2
RText
  3
RText|AutoCAD Express Tool|expresstools@autodesk.com
 90
        0
280
         0
281
         1
  0
CLASS
  1
ARCALIGNEDTEXT
  2
AcDbArcAlignedText
  3
ATEXT|AutoCAD Express Tool|expresstools@autodesk.com
 90
        0
280
         0
281
         1
  0
ENDSEC
  0
SECTION
  2
TABLES
  0
TABLE
  2
VPORT
  5
7
100
AcDbSymbolTable
 70
         1
  0
VPORT
  5
15
100
AcDbSymbolTableRecord
100
AcDbViewportTableRecord
  2
*ACTIVE
 70
         0
 10
0.0
 20
0.0
 11
1.0
 21
1.0
 12
1361.4836173589
 22
-264.8690916297
 13
0.0
 23
0.0
 14
1.0
 24
1.0
 15
0.0
 25
0.0
 16
0.0
 26
0.0
 36
1.0
 17
0.0
 27
0.0
 37
0.0
 40
241.6443320062
 41
2.0446000259
 42
50.0
 43
0.0
 44
0.0
 50
0.0
 51
0.0
 71
         0
 72
       100
 73
         1
 74
         1
 75
         0
 76
         0
 77
         0
 78
         0
  0
ENDTAB
  0
TABLE
  2
LTYPE
  5
4
100
AcDbSymbolTable
 70
         6
  0
LTYPE
  5
11
100
AcDbSymbolTableRecord
100
AcDbLinetypeTableRecord
  2
BYBLOCK
 70
        64
  3

 72
        65
 73
         0
 40
0.0
  0
LTYPE
  5
12
100
AcDbSymbolTableRecord
100
AcDbLinetypeTableRecord
  2
BYLAYER
 70
        64
  3

 72
        65
 73
         0
 40
0.0
  0
LTYPE
  5
13
100
AcDbSymbolTableRecord
100
AcDbLinetypeTableRecord
  2
CONTINUOUS
 70
        64
  3
Solid line
 72
        65
 73
         0
 40
0.0
  0
LTYPE
  5
1D
100
AcDbSymbolTableRecord
100
AcDbLinetypeTableRecord
  2
DASHED
 70
        64
  3
_ _ _ _ _ _ _ _ _ _ _ _ _ _ _ _
 72
        65
 73
         2
 40
0.2
 49
0.1
 74
         0
 49
-0.1
 74
         0
  0
LTYPE
  5
1E
100
AcDbSymbolTableRecord
100
AcDbLinetypeTableRecord
  2
CENTER
 70
        64
  3
___ _ ___ _ ___ _ ___ _ ___ _ ___ _ ___ _ ___ _
 72
        65
 73
         4
 40
0.95
 49
0.625
 74
         0
 49
-0.125
 74
         0
 49
0.075
 74
         0
 49
-0.125
 74
         0
  0
LTYPE
  5
1F
100
AcDbSymbolTableRecord
100
AcDbLinetypeTableRecord
  2
PHANTOM
 70
        64
  3
______  __  __  ______  __  __  ______  __  __  
 72
        65
 73
         6
 40
1.025
 49
0.625
 74
         0
 49
-0.125
 74
         0
 49
0.075
 74
         0
 49
-0.125
 74
         0
 49
0.075
 74
         0
 49
-0.125
 74
         0
  0
ENDTAB
  0
TABLE
  2
LAYER
  5
2
100
AcDbSymbolTable
 70
         6
  0
LAYER
  5
14
100
AcDbSymbolTableRecord
100
AcDbLayerTableRecord
  2
0
 70
         0
 62
         7
  6
CONTINUOUS
  0
LAYER
  5
21
100
AcDbSymbolTableRecord
100
AcDbLayerTableRecord
  2
_____U
 70
         1
 62
         7
  6
CONTINUOUS
  0
LAYER
  5
22
100
AcDbSymbolTableRecord
100
AcDbLayerTableRecord
  2
_____T______
 70
         1
 62
         7
  6
CONTINUOUS
  0
LAYER
  5
23
100
AcDbSymbolTableRecord
100
AcDbLayerTableRecord
  2
______L_______
 70
         1
 62
         7
  6
CONTINUOUS
  0
LAYER
  5
24
100
AcDbSymbolTableRecord
100
AcDbLayerTableRecord
  2
L1_120
 70
         0
 62
         7
  6
CONTINUOUS
  0
LAYER
  5
29
100
AcDbSymbolTableRecord
100
AcDbLayerTableRecord
  2
DEFPOINTS
 70
         0
 62
        -7
  6
CONTINUOUS
  0
ENDTAB
  0
TABLE
  2
STYLE
  5
3
100
AcDbSymbolTable
 70
        10
  0
STYLE
  5
17
100
AcDbSymbolTableRecord
100
AcDbTextStyleTableRecord
  2
STANDARD
 70
         0
 40
0.0
 41
1.0
 50
0.0
 71
         0
 42
0.0
  3
txt
  4

  0
STYLE
  5
32
100
AcDbSymbolTableRecord
100
AcDbTextStyleTableRecord
  2
BOX
 70
         0
 40
1.0
 41
1.0
 50
0.0
 71
         0
 42
0.2
  3
txt.shx
  4

  0
STYLE
  5
40
100
AcDbSymbolTableRecord
100
AcDbTextStyleTableRecord
  2
BOX
 70
         0
 40
1.0
 41
1.0
 50
0.0
 71
         0
 42
0.2
  3
txt.shx
  4

  0
STYLE
  5
50
100
AcDbSymbolTableRecord
100
AcDbTextStyleTableRecord
  2
BOX
 70
         0
 40
1.0
 41
1.0
 50
0.0
 71
         0
 42
0.2
  3
txt.shx
  4

  0
STYLE
  5
FC
100
AcDbSymbolTableRecord
100
AcDbTextStyleTableRecord
  2
BOX
 70
         0
 40
1.0
 41
1.0
 50
0.0
 71
         0
 42
0.2
  3
txt.shx
  4

  0
STYLE
  5
159
100
AcDbSymbolTableRecord
100
AcDbTextStyleTableRecord
  2
BOX
 70
         0
 40
1.0
 41
1.0
 50
0.0
 71
         0
 42
0.2
  3
txt.shx
  4

  0
STYLE
  5
167
100
AcDbSymbolTableRecord
100
AcDbTextStyleTableRecord
  2
BOX
 70
         0
 40
1.0
 41
1.0
 50
0.0
 71
         0
 42
0.2
  3
txt.shx
  4

  0
STYLE
  5
1BF
100
AcDbSymbolTableRecord
100
AcDbTextStyleTableRecord
  2
BOX
 70
         0
 40
1.0
 41
1.0
 50
0.0
 71
         0
 42
0.2
  3
txt.shx
  4

  0
STYLE
  5
1D7
100
AcDbSymbolTableRecord
100
AcDbTextStyleTableRecord
  2
BOX
 70
         0
 40
1.0
 41
1.0
 50
0.0
 71
         0
 42
0.2
  3
txt.shx
  4

  0
STYLE
  5
484
100
AcDbSymbolTableRecord
100
AcDbTextStyleTableRecord
  2
BOX
 70
         0
 40
1.0
 41
1.0
 50
0.0
 71
         0
 42
0.2
  3
txt.shx
  4

  0
ENDTAB
  0
TABLE
  2
VIEW
  5
5
100
AcDbSymbolTable
 70
         0
  0
ENDTAB
  0
TABLE
  2
UCS
  5
6
100
AcDbSymbolTable
 70
         1
  0
UCS
  5
20
100
AcDbSymbolTableRecord
100
AcDbUCSTableRecord
  2
CK_VIEW_1
 70
         0
 10
0.0
 20
0.0
 30
1.0
 11
1.0
 21
0.0
 31
0.0
 12
0.0
 22
1.0
 32
0.0
  0
ENDTAB
  0
TABLE
  2
APPID
  5
8
100
AcDbSymbolTable
 70
         1
  0
APPID
  5
16
100
AcDbSymbolTableRecord
100
AcDbRegAppTableRecord
  2
ACAD
 70
         0
  0
ENDTAB
  0
TABLE
  2
DIMSTYLE
  5
9
100
AcDbSymbolTable
 70
         2
  0
DIMSTYLE
105
18
100
AcDbSymbolTableRecord
100
AcDbDimStyleTableRecord
  2
STANDARD
 70
         0
  3

  4

  5

  6

  7

 40
1.0
 41
0.18
 42
0.0625
 43
0.38
 44
0.18
 45
0.0
 46
0.0
 47
0.0
 48
0.0
 71
         0
 72
         0
 73
         1
 74
         1
 75
         0
 76
         0
 77
         0
 78
         0
140
0.18
141
0.09
142
0.0
143
25.4
144
1.0
145
0.0
146
1.0
147
0.09
170
         0
171
         2
172
         0
173
         0
174
         0
175
         0
176
         0
177
         0
178
         0
270
         2
271
         4
272
         4
273
         2
274
         2
275
         0
280
         0
281
         0
282
         0
283
         1
284
         0
285
         0
286
         0
287
         0
288
         0
340
17
  0
DIMSTYLE
105
25
100
AcDbSymbolTableRecord
100
AcDbDimStyleTableRecord
  2
DIMSTYLE1
 70
         0
  3

  4

  5

  6

  7

 40
1.0
 41
2.7
 42
0.0625
 43
0.38
 44
2.7
 45
0.0
 46
0.0
 47
0.0
 48
0.0
 71
         0
 72
         0
 73
         1
 74
         1
 75
         0
 76
         0
 77
         0
 78
         0
140
2.7
141
0.09
142
0.0
143
25.4
144
1.0
145
0.0
146
1.0
147
0.09
170
         0
171
         2
172
         0
173
         0
174
         0
175
         0
176
         0
177
         0
178
         0
270
         2
271
         4
272
         4
273
         2
274
         2
275
         0
280
         0
281
         0
282
         0
283
         1
284
         0
285
         0
286
         0
287
         0
288
         0
340
17
  0
ENDTAB
  0
TABLE
  2
BLOCK_RECORD
  5
1
100
AcDbSymbolTable
 70
        10
  0
BLOCK_RECORD
  5
A
100
AcDbSymbolTableRecord
100
AcDbBlockTableRecord
  2
*MODEL_SPACE
  0
BLOCK_RECORD
  5
B
100
AcDbSymbolTableRecord
100
AcDbBlockTableRecord
  2
*PAPER_SPACE
  0
BLOCK_RECORD
  5
26
100
AcDbSymbolTableRecord
100
AcDbBlockTableRecord
  2
*D0
  0
BLOCK_RECORD
  5
35
100
AcDbSymbolTableRecord
100
AcDbBlockTableRecord
  2
*D1
  0
BLOCK_RECORD
  5
44
100
AcDbSymbolTableRecord
100
AcDbBlockTableRecord
  2
*D2
  0
BLOCK_RECORD
  5
8B
100
AcDbSymbolTableRecord
100
AcDbBlockTableRecord
  2
*X3
  0
BLOCK_RECORD
  5
F1
100
AcDbSymbolTableRecord
100
AcDbBlockTableRecord
  2
*D4
  0
BLOCK_RECORD
  5
131
100
AcDbSymbolTableRecord
100
AcDbBlockTableRecord
  2
*X5
  0
BLOCK_RECORD
  5
14E
100
AcDbSymbolTableRecord
100
AcDbBlockTableRecord
  2
*D6
  0
BLOCK_RECORD
  5
15C
100
AcDbSymbolTableRecord
100
AcDbBlockTableRecord
  2
*D7
  0
BLOCK_RECORD
  5
1B4
100
AcDbSymbolTableRecord
100
AcDbBlockTableRecord
  2
*D8
  0
BLOCK_RECORD
  5
1CC
100
AcDbSymbolTableRecord
100
AcDbBlockTableRecord
  2
*D9
  0
ENDTAB
  0
ENDSEC
  0
SECTION
  2
BLOCKS
  0
BLOCK
  5
D
100
AcDbEntity
  8
0
100
AcDbBlockBegin
  2
*MODEL_SPACE
 70
         0
 10
0.0
 20
0.0
 30
0.0
  3
*MODEL_SPACE
  1

  0
ENDBLK
  5
E
100
AcDbEntity
  8
0
100
AcDbBlockEnd
  0
BLOCK
  5
F
100
AcDbEntity
 67
         1
  8
0
100
AcDbBlockBegin
  2
*PAPER_SPACE
 70
         0
 10
0.0
 20
0.0
 30
0.0
  3
*PAPER_SPACE
  1

  0
ENDBLK
  5
10
100
AcDbEntity
 67
         1
  8
0
100
AcDbBlockEnd
  0
BLOCK
  5
27
100
AcDbEntity
  8
0
100
AcDbBlockBegin
  2
*D0
 70
        65
 10
0.0
 20
0.0
 30
0.0
  3
*D0
  1

  0
POINT
  5
2A
100
AcDbEntity
  8
DEFPOINTS
  6
CONTINUOUS
 62
         0
100
AcDbPoint
 10
1462.3650079666
 20
-309.7773307915
 30
-54.6221014304
  0
POINT
  5
2B
100
AcDbEntity
  8
DEFPOINTS
  6
CONTINUOUS
 62
         0
100
AcDbPoint
 10
1469.5994893559
 20
-309.7773307915
 30
-54.6221014304
  0
POINT
  5
2C
100
AcDbEntity
  8
DEFPOINTS
  6
CONTINUOUS
 62
         0
100
AcDbPoint
 10
1468.0839445248
 20
-319.7829975734
 30
-56.386370444
  0
LINE
  5
2D
100
AcDbEntity
  8
L1_120
  6
CONTINUOUS
 62
         4
100
AcDbLine
 10
1468.2494893559
 20
-309.7773307915
 30
-54.6221014304
 11
1461.6900079666
 21
-309.7773307915
 31
-54.6221014304
  0
LINE
  5
2E
100
AcDbEntity
  8
L1_120
  6
CONTINUOUS
 62
         4
100
AcDbLine
 10
1466.7339445248
 20
-319.7829975734
 30
-56.386370444
 11
1461.6900079666
 21
-319.7829975734
 31
-56.386370444
  0
LINE
  5
2F
100
AcDbEntity
  8
L1_120
  6
CONTINUOUS
 62
         4
100
AcDbLine
 10
1462.3650079666
 20
-309.7773307915
 30
-54.6221014304
 11
1462.3650079666
 21
-319.7829975734
 31
-56.386370444
  0
SOLID
  5
30
100
AcDbEntity
  8
L1_120
  6
CONTINUOUS
 62
         4
100
AcDbTrace
 10
1462.3650079666
 20
-309.7773307915
 30
-54.6221014304
 11
1462.7700079666
 21
-312.4363117246
 31
-55.0909515101
 12
1461.9600079666
 22
-312.4363117246
 32
-55.0909515101
 13
1462.3650079666
 23
-309.7773307915
 33
-54.6221014304
  0
SOLID
  5
31
100
AcDbEntity
  8
L1_120
  6
CONTINUOUS
 62
         4
100
AcDbTrace
 10
1462.3650079666
 20
-319.7829975734
 30
-56.386370444
 11
1461.9600079666
 21
-317.1240166403
 31
-55.9175203643
 12
1462.7700079666
 22
-317.1240166403
 32
-55.9175203643
 13
1462.3650079666
 23
-319.7829975734
 33
-56.386370444
  0
TEXT
  5
33
100
AcDbEntity
  8
L1_120
  6
CONTINUOUS
 62
         4
100
AcDbText
 10
1460.3400079666
 20
-323.004172678
 30
0.0
 40
2.7
  1
10
 50
90.0
  7
BOX
210
0.0
220
-0.1736481776669303
230
0.9848077530122081
100
AcDbText
  0
ENDBLK
  5
34
100
AcDbEntity
  8
0
  6
CONTINUOUS
100
AcDbBlockEnd
  0
BLOCK
  5
36
100
AcDbEntity
  8
0
100
AcDbBlockBegin
  2
*D1
 70
        65
 10
0.0
 20
0.0
 30
0.0
  3
*D1
  1

  0
POINT
  5
38
100
AcDbEntity
  8
DEFPOINTS
  6
CONTINUOUS
 62
         0
100
AcDbPoint
 10
1467.2372846315
 20
-303.356563176
 30
-53.4899468629
  0
POINT
  5
39
100
AcDbEntity
  8
DEFPOINTS
  6
CONTINUOUS
 62
         0
100
AcDbPoint
 10
1467.2372846315
 20
-312.1036483183
 30
-55.0322939761
  0
POINT
  5
3A
100
AcDbEntity
  8
DEFPOINTS
  6
CONTINUOUS
 62
         0
100
AcDbPoint
 10
1478.3625068819
 20
-312.1036483183
 30
-55.0322939761
  0
LINE
  5
3B
100
AcDbEntity
  8
L1_120
  6
CONTINUOUS
 62
         4
100
AcDbLine
 10
1467.2372846315
 20
-310.7741578517
 30
-54.7978689362
 11
1467.2372846315
 21
-302.6918179427
 31
-53.372734343
  0
LINE
  5
3C
100
AcDbEntity
  8
L1_120
  6
CONTINUOUS
 62
         4
100
AcDbLine
 10
1478.3625068819
 20
-310.7741578517
 30
-54.7978689362
 11
1478.3625068819
 21
-302.6918179427
 31
-53.372734343
  0
LINE
  5
3D
100
AcDbEntity
  8
L1_120
  6
CONTINUOUS
 62
         4
100
AcDbLine
 10
1467.2372846315
 20
-303.356563176
 30
-53.4899468629
 11
1478.3625068819
 21
-303.356563176
 31
-53.4899468629
  0
SOLID
  5
3E
100
AcDbEntity
  8
L1_120
  6
CONTINUOUS
 62
         4
100
AcDbTrace
 10
1467.2372846315
 20
-303.356563176
 30
-53.4899468629
 11
1469.9372846315
 21
-302.957716036
 31
-53.419619351
 12
1469.9372846315
 22
-303.755410316
 32
-53.5602743749
 13
1467.2372846315
 23
-303.356563176
 33
-53.4899468629
  0
SOLID
  5
3F
100
AcDbEntity
  8
L1_120
  6
CONTINUOUS
 62
         4
100
AcDbTrace
 10
1478.3625068819
 20
-303.356563176
 30
-53.4899468629
 11
1475.6625068819
 21
-303.755410316
 31
-53.5602743749
 12
1475.6625068819
 22
-302.957716036
 32
-53.419619351
 13
1478.3625068819
 23
-303.356563176
 33
-53.4899468629
  0
TEXT
  5
41
100
AcDbEntity
  8
L1_120
  6
CONTINUOUS
 62
         4
100
AcDbText
 10
1457.5585818323
 20
-306.0113271391
 30
0.0
 40
2.7
  1
7/16"-20UNF
  7
BOX
210
0.0
220
-0.1736481776669303
230
0.9848077530122081
100
AcDbText
  0
ENDBLK
  5
42
100
AcDbEntity
  8
0
  6
CONTINUOUS
100
AcDbBlockEnd
  0
BLOCK
  5
45
100
AcDbEntity
  8
0
100
AcDbBlockBegin
  2
*D2
 70
        65
 10
0.0
 20
0.0
 30
0.0
  3
*D2
  1

  0
POINT
  5
47
100
AcDbEntity
  8
DEFPOINTS
  6
CONTINUOUS
 62
         0
100
AcDbPoint
 10
1469.5667342492
 20
-326.1724282728
 30
-57.5129994677
  0
POINT
  5
48
100
AcDbEntity
  8
DEFPOINTS
  6
CONTINUOUS
 62
         0
100
AcDbPoint
 10
1469.5667342492
 20
-319.7829975734
 30
-56.386370444
  0
POINT
  5
49
100
AcDbEntity
  8
DEFPOINTS
  6
CONTINUOUS
 62
         0
100
AcDbPoint
 10
1476.0330572641
 20
-319.7829975734
 30
-56.386370444
  0
LINE
  5
4A
100
AcDbEntity
  8
L1_120
  6
CONTINUOUS
 62
         4
100
AcDbLine
 10
1469.5667342492
 20
-321.11248804
 30
-56.6207954839
 11
1469.5667342492
 21
-326.837173506
 31
-57.6302119876
  0
LINE
  5
4B
100
AcDbEntity
  8
L1_120
  6
CONTINUOUS
 62
         4
100
AcDbLine
 10
1476.0330572641
 20
-321.11248804
 30
-56.6207954839
 11
1476.0330572641
 21
-326.837173506
 31
-57.6302119876
  0
LINE
  5
4C
100
AcDbEntity
  8
L1_120
  6
CONTINUOUS
 62
         4
100
AcDbLine
 10
1469.5667342492
 20
-326.1724282728
 30
-57.5129994677
 11
1476.0330572641
 21
-326.1724282728
 31
-57.5129994677
  0
SOLID
  5
4D
100
AcDbEntity
  8
L1_120
  6
CONTINUOUS
 62
         4
100
AcDbTrace
 10
1469.5667342492
 20
-326.1724282728
 30
-57.5129994677
 11
1472.2667342492
 21
-325.7735811328
 31
-57.4426719557
 12
1472.2667342492
 22
-326.5712754127
 32
-57.5833269796
 13
1469.5667342492
 23
-326.1724282728
 33
-57.5129994677
  0
LINE
  5
4E
100
AcDbEntity
  8
L1_120
  6
CONTINUOUS
 62
         4
100
AcDbLine
 10
1476.0330572641
 20
-326.1724282728
 30
-57.5129994677
 11
1495.3042067644
 21
-326.1724282728
 31
-57.5129994677
  0
SOLID
  5
4F
100
AcDbEntity
  8
L1_120
  6
CONTINUOUS
 62
         4
100
AcDbTrace
 10
1476.0330572641
 20
-326.1724282728
 30
-57.5129994677
 11
1473.3330572641
 21
-326.5712754127
 31
-57.5833269796
 12
1473.3330572641
 22
-325.7735811328
 32
-57.4426719557
 13
1476.0330572641
 23
-326.1724282728
 33
-57.5129994677
  0
TEXT
  5
51
100
AcDbEntity
  8
L1_120
  6
CONTINUOUS
 62
         4
100
AcDbText
 10
1477.7542067644
 20
-329.1791637316
 30
0.0
 40
2.7
  1
5.6Hex
  7
BOX
210
0.0
220
-0.1736481776669303
230
0.9848077530122081
100
AcDbText
  0
ENDBLK
  5
52
100
AcDbEntity
  8
0
  6
CONTINUOUS
100
AcDbBlockEnd
  0
BLOCK
  5
8C
100
AcDbEntity
  8
0
100
AcDbBlockBegin
  2
*X3
 70
        65
 10
0.0
 20
0.0
 30
0.0
  3
*X3
  1

  0
LINE
  5
8D
100
AcDbEntity
  8
L1_120
  6
CONTINUOUS
 62
         4
100
AcDbLine
 10
1424.8244442357
 20
-342.0158977217
 30
-60.3066305996
 11
1428.6008425579
 21
-338.2968713756
 31
-59.6508659128
  0
LINE
  5
8E
100
AcDbEntity
  8
L1_120
  6
CONTINUOUS
 62
         4
100
AcDbLine
 10
1417.3427670065
 20
-345.2057260207
 30
-60.8690833925
 11
1428.0930949193
 21
-334.6187197447
 31
-59.0023085411
  0
LINE
  5
8F
100
AcDbEntity
  8
L1_120
  6
CONTINUOUS
 62
         4
100
AcDbLine
 10
1413.1001263194
 20
-345.2057260207
 30
-60.8690833925
 11
1421.9601263194
 21
-336.480329329
 31
-59.3305605384
  0
LINE
  5
90
100
AcDbEntity
  8
L1_120
  6
CONTINUOUS
 62
         4
100
AcDbLine
 10
1423.3508425579
 20
-335.1107411951
 30
-59.0890651979
 11
1424.2501263194
 21
-334.2251195746
 31
-58.9329062115
  0
LINE
  5
91
100
AcDbEntity
  8
L1_120
  6
CONTINUOUS
 62
         4
100
AcDbLine
 10
1411.2488425579
 20
-342.8506991801
 30
-60.4538286202
 11
1420.0074856322
 21
-334.2251195746
 31
-58.9329062115
  0
LINE
  5
92
100
AcDbEntity
  8
L1_120
  6
CONTINUOUS
 62
         4
100
AcDbLine
 10
1397.1148449451
 20
-352.5917841683
 30
-62.171444725
 11
1398.2488425579
 21
-351.4750145273
 31
-61.9745281061
  0
LINE
  5
93
100
AcDbEntity
  8
L1_120
  6
CONTINUOUS
 62
         4
100
AcDbLine
 10
1411.2488425579
 20
-338.6725137382
 30
-59.7171017964
 11
1415.7648449451
 21
-334.2251195746
 31
-58.9329062115
  0
LINE
  5
94
100
AcDbEntity
  8
L1_120
  6
CONTINUOUS
 62
         4
100
AcDbLine
 10
1392.872204258
 20
-352.5917841683
 30
-62.171444725
 11
1398.2488425579
 21
-347.2968290854
 31
-61.2378012823
  0
LINE
  5
95
100
AcDbEntity
  8
L1_120
  6
CONTINUOUS
 62
         4
100
AcDbLine
 10
1411.2488425579
 20
-334.4943282963
 30
-58.9803749726
 11
1411.522204258
 21
-334.2251195746
 31
-58.9329062115
  0
LINE
  5
96
100
AcDbEntity
  8
L1_120
  6
CONTINUOUS
 62
         4
100
AcDbLine
 10
1424.222204258
 20
-321.7180611113
 30
-56.7275743551
 11
1428.6008425579
 21
-317.405944166
 31
-55.9672317937
  0
LINE
  5
97
100
AcDbEntity
  8
L1_120
  6
CONTINUOUS
 62
         4
100
AcDbLine
 10
1388.6295635709
 20
-352.5917841683
 30
-62.171444725
 11
1401.2488425579
 21
-340.1642203845
 31
-59.9801299254
  0
LINE
  5
98
100
AcDbEntity
  8
L1_120
  6
CONTINUOUS
 62
         4
100
AcDbLine
 10
1419.9795635709
 20
-321.7180611113
 30
-56.7275743551
 11
1420.1508425579
 21
-321.549384237
 31
-56.6978320712
  0
LINE
  5
99
100
AcDbEntity
  8
L1_120
  6
CONTINUOUS
 62
         4
100
AcDbLine
 10
1422.2695635709
 20
-319.4628513569
 30
-56.3299200283
 11
1426.9154670685
 21
-314.8875295728
 31
-55.5231673523
  0
LINE
  5
9A
100
AcDbEntity
  8
L1_120
  6
CONTINUOUS
 62
         4
100
AcDbLine
 10
1386.9045044322
 20
-350.1124503405
 30
-61.734271277
 11
1401.2488425579
 21
-335.9860349425
 31
-59.2434031016
  0
LINE
  5
9B
100
AcDbEntity
  8
L1_120
  6
CONTINUOUS
 62
         4
100
AcDbLine
 10
1415.7369228838
 20
-321.7180611113
 30
-56.7275743551
 11
1424.0220492625
 21
-313.5588044189
 31
-55.2888772577
  0
LINE
  5
9C
100
AcDbEntity
  8
L1_120
  6
CONTINUOUS
 62
         4
100
AcDbLine
 10
1383.0760262426
 20
-349.7045799019
 30
-61.662352714
 11
1398.7942821966
 21
-334.2251195746
 31
-58.9329062115
  0
LINE
  5
9D
100
AcDbEntity
  8
L1_120
  6
CONTINUOUS
 62
         4
100
AcDbLine
 10
1411.4942821966
 20
-321.7180611113
 30
-56.7275743551
 11
1421.1286314565
 21
-312.230079265
 31
-55.0545871632
  0
LINE
  5
9E
100
AcDbEntity
  8
L1_120
  6
CONTINUOUS
 62
         4
100
AcDbLine
 10
1379.3733580066
 20
-349.1728108457
 30
-61.5685874819
 11
1394.5516415095
 21
-334.2251195746
 31
-58.9329062115
  0
LINE
  5
9F
100
AcDbEntity
  8
L1_120
  6
CONTINUOUS
 62
         4
100
AcDbLine
 10
1407.2516415095
 20
-321.7180611113
 30
-56.7275743551
 11
1418.2347467796
 21
-310.9018138892
 31
-54.8203781399
  0
LINE
  5
A0
100
AcDbEntity
  8
L1_120
  6
CONTINUOUS
 62
         4
100
AcDbLine
 10
1375.6706897706
 20
-348.6410417895
 30
-61.4748222498
 11
1390.3090008224
 21
-334.2251195746
 31
-58.9329062115
  0
LINE
  5
A1
100
AcDbEntity
  8
L1_120
  6
CONTINUOUS
 62
         4
100
AcDbLine
 10
1403.0090008224
 20
-321.7180611113
 30
-56.7275743551
 11
1414.1590008224
 21
-310.7374546653
 31
-54.7913971742
  0
LINE
  5
A2
100
AcDbEntity
  8
L1_120
  6
CONTINUOUS
 62
         4
100
AcDbLine
 10
1371.9680215345
 20
-348.1092727332
 30
-61.3810570177
 11
1386.0663601353
 21
-334.2251195746
 31
-58.9329062115
  0
LINE
  5
A3
100
AcDbEntity
  8
L1_120
  6
CONTINUOUS
 62
         4
100
AcDbLine
 10
1398.7663601353
 20
-321.7180611113
 30
-56.7275743551
 11
1409.9163601353
 21
-310.7374546653
 31
-54.7913971742
  0
LINE
  5
A4
100
AcDbEntity
  8
L1_120
  6
CONTINUOUS
 62
         4
100
AcDbLine
 10
1368.2653532985
 20
-347.577503677
 30
-61.2872917855
 11
1379.8237194482
 21
-336.1947350806
 31
-59.2802025668
  0
LINE
  5
A5
100
AcDbEntity
  8
L1_120
  6
CONTINUOUS
 62
         4
100
AcDbLine
 10
1394.5237194482
 20
-321.7180611113
 30
-56.7275743551
 11
1405.6737194482
 21
-310.7374546653
 31
-54.7913971742
  0
LINE
  5
A6
100
AcDbEntity
  8
L1_120
  6
CONTINUOUS
 62
         4
100
AcDbLine
 10
1364.5626850625
 20
-347.0457346207
 30
-61.1935265534
 11
1375.581078761
 21
-336.1947350806
 31
-59.2802025668
  0
LINE
  5
A7
100
AcDbEntity
  8
L1_120
  6
CONTINUOUS
 62
         4
100
AcDbLine
 10
1390.281078761
 20
-321.7180611113
 30
-56.7275743551
 11
1403.2508425579
 21
-308.9453371695
 31
-54.4753985071
  0
LINE
  5
A8
100
AcDbEntity
  8
L1_120
  6
CONTINUOUS
 62
         4
100
AcDbLine
 10
1360.8600168264
 20
-346.5139655645
 30
-61.0997613213
 11
1371.3384380739
 21
-336.1947350806
 31
-59.2802025668
  0
LINE
  5
A9
100
AcDbEntity
  8
L1_120
  6
CONTINUOUS
 62
         4
100
AcDbLine
 10
1386.0384380739
 20
-321.7180611113
 30
-56.7275743551
 11
1403.2508425579
 21
-304.7671517276
 31
-53.7386716832
  0
LINE
  5
AA
100
AcDbEntity
  8
L1_120
  6
CONTINUOUS
 62
         4
100
AcDbLine
 10
1357.1573485904
 20
-345.9821965082
 30
-61.0059960892
 11
1367.0957973868
 21
-336.1947350806
 31
-59.2802025668
  0
LINE
  5
AB
100
AcDbEntity
  8
L1_120
  6
CONTINUOUS
 62
         4
100
AcDbLine
 10
1383.6008425579
 20
-319.9404386323
 30
-56.4141315506
 11
1395.0444190557
 21
-308.670715775
 31
-54.4269753457
  0
LINE
  5
AC
100
AcDbEntity
  8
L1_120
  6
CONTINUOUS
 62
         4
100
AcDbLine
 10
1353.4546803544
 20
-345.450427452
 30
-60.9122308571
 11
1363.6008425579
 21
-335.4584082507
 31
-59.1503682801
  0
LINE
  5
AD
100
AcDbEntity
  8
L1_120
  6
CONTINUOUS
 62
         4
100
AcDbLine
 10
1379.5531566997
 20
-319.7484456053
 30
-56.3802779998
 11
1385.7816794134
 21
-313.614548147
 31
-55.298706381
  0
LINE
  5
AE
100
AcDbEntity
  8
L1_120
  6
CONTINUOUS
 62
         4
100
AcDbLine
 10
1395.4271576457
 20
-304.1156064024
 30
-53.6237866633
 11
1396.3909615495
 21
-303.1664448455
 31
-53.4564238717
  0
LINE
  5
AF
100
AcDbEntity
  8
L1_120
  6
CONTINUOUS
 62
         4
100
AcDbLine
 10
1396.4501629127
 20
-303.108142884
 30
-53.4461436629
 11
1402.8644996288
 21
-296.7912543556
 31
-52.3323057812
  0
LINE
  5
B0
100
AcDbEntity
  8
L1_120
  6
CONTINUOUS
 62
         4
100
AcDbLine
 10
1349.7520121183
 20
-344.9186583957
 30
-60.8184656249
 11
1359.9605160126
 21
-334.865244614
 31
-59.045777527
  0
LINE
  5
B1
100
AcDbEntity
  8
L1_120
  6
CONTINUOUS
 62
         4
100
AcDbLine
 10
1384.7976861142
 20
-310.405406935
 30
-54.7328482004
 11
1390.053686346
 21
-305.2292571569
 31
-53.8201533384
  0
LINE
  5
B2
100
AcDbEntity
  8
L1_120
  6
CONTINUOUS
 62
         4
100
AcDbLine
 10
1392.4231359881
 20
-302.895804779
 30
-53.4087027259
 11
1395.0855160128
 21
-300.2738722893
 31
-52.9463852864
  0
LINE
  5
B3
100
AcDbEntity
  8
L1_120
  6
CONTINUOUS
 62
         4
100
AcDbLine
 10
1346.0493438823
 20
-344.3868893395
 30
-60.7247003928
 11
1355.7178753254
 21
-334.865244614
 31
-59.045777527
  0
LINE
  5
B4
100
AcDbEntity
  8
L1_120
  6
CONTINUOUS
 62
         4
100
AcDbLine
 10
1374.1682145828
 20
-316.6952074677
 30
-55.8419097376
 11
1385.0781004321
 21
-305.9510672988
 31
-53.9474279413
  0
LINE
  5
B5
100
AcDbEntity
  8
L1_120
  6
CONTINUOUS
 62
         4
100
AcDbLine
 10
1387.5248861334
 20
-303.5414537702
 30
-53.5225480632
 11
1387.5583199912
 21
-303.5085278479
 31
-53.5167423347
  0
LINE
  5
B6
100
AcDbEntity
  8
L1_120
  6
CONTINUOUS
 62
         4
100
AcDbLine
 10
1389.9277696333
 20
-301.17507547
 30
-53.1052917223
 11
1392.7315016974
 21
-298.4139383959
 31
-52.6184287587
  0
LINE
  5
B7
100
AcDbEntity
  8
L1_120
  6
CONTINUOUS
 62
         4
100
AcDbLine
 10
1342.3466756463
 20
-343.8551202833
 30
-60.6309351607
 11
1351.4752346383
 21
-334.865244614
 31
-59.045777527
  0
LINE
  5
B8
100
AcDbEntity
  8
L1_120
  6
CONTINUOUS
 62
         4
100
AcDbLine
 10
1366.8252346383
 20
-319.7484456053
 30
-56.3802779998
 11
1380.1111064569
 21
-306.6644160328
 31
-54.0732105698
  0
LINE
  5
B9
100
AcDbEntity
  8
L1_120
  6
CONTINUOUS
 62
         4
100
AcDbLine
 10
1387.7196092957
 20
-299.1715034484
 30
-52.7520079171
 11
1390.2502346385
 21
-296.6793239908
 31
-52.3125694379
  0
LINE
  5
BA
100
AcDbEntity
  8
L1_120
  6
CONTINUOUS
 62
         4
100
AcDbLine
 10
1338.6440074102
 20
-343.323351227
 30
-60.5371699286
 11
1347.2325939512
 21
-334.865244614
 31
-59.045777527
  0
LINE
  5
BB
100
AcDbEntity
  8
L1_120
  6
CONTINUOUS
 62
         4
100
AcDbLine
 10
1361.2325939512
 20
-321.0779360719
 30
-56.6147030397
 11
1375.1441124818
 21
-307.3777647668
 31
-54.1989931982
  0
LINE
  5
BC
100
AcDbEntity
  8
L1_120
  6
CONTINUOUS
 62
         4
100
AcDbLine
 10
1334.9413391742
 20
-342.7915821708
 30
-60.4434046964
 11
1342.9899532641
 21
-334.865244614
 31
-59.045777527
  0
LINE
  5
BD
100
AcDbEntity
  8
L1_120
  6
CONTINUOUS
 62
         4
100
AcDbLine
 10
1356.9899532641
 20
-321.0779360719
 30
-56.6147030397
 11
1370.1771185066
 21
-308.0911135008
 31
-54.3247758267
  0
LINE
  5
BE
100
AcDbEntity
  8
L1_120
  6
CONTINUOUS
 62
         4
100
AcDbLine
 10
1331.2386709382
 20
-342.2598131145
 30
-60.3496394643
 11
1338.747312577
 21
-334.865244614
 31
-59.045777527
  0
LINE
  5
BF
100
AcDbEntity
  8
L1_120
  6
CONTINUOUS
 62
         4
100
AcDbLine
 10
1352.747312577
 20
-321.0779360719
 30
-56.6147030397
 11
1365.2101245315
 21
-308.8044622348
 31
-54.4505584552
  0
LINE
  5
C0
100
AcDbEntity
  8
L1_120
  6
CONTINUOUS
 62
         4
100
AcDbLine
 10
1327.5360027021
 20
-341.7280440583
 30
-60.2558742322
 11
1334.5046718899
 21
-334.865244614
 31
-59.045777527
  0
LINE
  5
C1
100
AcDbEntity
  8
L1_120
  6
CONTINUOUS
 62
         4
100
AcDbLine
 10
1348.5046718899
 20
-321.0779360719
 30
-56.6147030397
 11
1360.2431305563
 21
-309.5178109688
 31
-54.5763410836
  0
LINE
  5
C2
100
AcDbEntity
  8
L1_120
  6
CONTINUOUS
 62
         4
100
AcDbLine
 10
1323.8333344661
 20
-341.196275002
 30
-60.1621090001
 11
1330.2620312027
 21
-334.865244614
 31
-59.045777527
  0
LINE
  5
C3
100
AcDbEntity
  8
L1_120
  6
CONTINUOUS
 62
         4
100
AcDbLine
 10
1344.2620312027
 20
-321.0779360719
 30
-56.6147030397
 11
1355.2761365811
 21
-310.2311597027
 31
-54.7021237121
  0
LINE
  5
C4
100
AcDbEntity
  8
L1_120
  6
CONTINUOUS
 62
         4
100
AcDbLine
 10
1320.1306662301
 20
-340.6645059458
 30
-60.068343768
 11
1326.0193905156
 21
-334.865244614
 31
-59.045777527
  0
LINE
  5
C5
100
AcDbEntity
  8
L1_120
  6
CONTINUOUS
 62
         4
100
AcDbLine
 10
1340.0193905156
 20
-321.0779360719
 30
-56.6147030397
 11
1350.309142606
 21
-310.9445084367
 31
-54.8279063405
  0
LINE
  5
C6
100
AcDbEntity
  8
L1_120
  6
CONTINUOUS
 62
         4
100
AcDbLine
 10
1316.5024253867
 20
-340.0594402163
 30
-59.9616543547
 11
1320.5385644141
 21
-336.0846192098
 31
-59.2607861678
  0
LINE
  5
C7
100
AcDbEntity
  8
L1_120
  6
CONTINUOUS
 62
         4
100
AcDbLine
 10
1335.7767498285
 20
-321.0779360719
 30
-56.6147030397
 11
1345.3421486308
 21
-311.6578571707
 31
-54.953688969
  0
LINE
  5
C8
100
AcDbEntity
  8
L1_120
  6
CONTINUOUS
 62
         4
100
AcDbLine
 10
1331.5341091414
 20
-321.0779360719
 30
-56.6147030397
 11
1340.3751546556
 21
-312.3712059047
 31
-55.0794715974
  0
LINE
  5
C9
100
AcDbEntity
  8
L1_120
  6
CONTINUOUS
 62
         4
100
AcDbLine
 10
1327.2914684543
 20
-321.0779360719
 30
-56.6147030397
 11
1335.4081606805
 21
-313.0845546387
 31
-55.2052542259
  0
LINE
  5
CA
100
AcDbEntity
  8
L1_120
  6
CONTINUOUS
 62
         4
100
AcDbLine
 10
1323.0488277671
 20
-321.0779360719
 30
-56.6147030397
 11
1330.4411667053
 21
-313.7979033727
 31
-55.3310368544
  0
LINE
  5
CB
100
AcDbEntity
  8
L1_120
  6
CONTINUOUS
 62
         4
100
AcDbLine
 10
1320.055643573
 20
-319.8474616305
 30
-56.3977371966
 11
1325.4741727301
 21
-314.5112521067
 31
-55.4568194828
  0
LINE
  5
CC
100
AcDbEntity
  8
L1_120
  6
CONTINUOUS
 62
         4
100
AcDbLine
 10
1316.1063164285
 20
-319.5586041797
 30
-56.3468038344
 11
1320.507178755
 21
-315.2246008406
 31
-55.5826021113
  0
ENDBLK
  5
CD
100
AcDbEntity
  8
0
  6
CONTINUOUS
100
AcDbBlockEnd
  0
BLOCK
  5
F2
100
AcDbEntity
  8
0
100
AcDbBlockBegin
  2
*D4
 70
        65
 10
0.0
 20
0.0
 30
0.0
  3
*D4
  1

  0
POINT
  5
F4
100
AcDbEntity
  8
DEFPOINTS
  6
CONTINUOUS
 62
         0
100
AcDbPoint
 10
1363.6008425579
 20
-368.3500313875
 30
-64.9500488784
  0
POINT
  5
F5
100
AcDbEntity
  8
DEFPOINTS
  6
CONTINUOUS
 62
         0
100
AcDbPoint
 10
1363.6008425579
 20
-334.7175234511
 30
-59.0197303003
  0
POINT
  5
F6
100
AcDbEntity
  8
DEFPOINTS
  6
CONTINUOUS
 62
         0
100
AcDbPoint
 10
1428.6008425579
 20
-337.7402870589
 30
-59.5527250807
  0
LINE
  5
F7
100
AcDbEntity
  8
L1_120
  6
CONTINUOUS
 62
         4
100
AcDbLine
 10
1363.6008425579
 20
-336.0470139177
 30
-59.2541553402
 11
1363.6008425579
 21
-369.0147766208
 31
-65.0672613983
  0
LINE
  5
F8
100
AcDbEntity
  8
L1_120
  6
CONTINUOUS
 62
         4
100
AcDbLine
 10
1428.6008425579
 20
-339.0697775255
 30
-59.7871501206
 11
1428.6008425579
 21
-369.0147766208
 31
-65.0672613983
  0
LINE
  5
F9
100
AcDbEntity
  8
L1_120
  6
CONTINUOUS
 62
         4
100
AcDbLine
 10
1363.6008425579
 20
-368.3500313875
 30
-64.9500488784
 11
1428.6008425579
 21
-368.3500313875
 31
-64.9500488784
  0
SOLID
  5
FA
100
AcDbEntity
  8
L1_120
  6
CONTINUOUS
 62
         4
100
AcDbTrace
 10
1363.6008425579
 20
-368.3500313875
 30
-64.9500488784
 11
1366.3008425579
 21
-367.9511842475
 31
-64.8797213665
 12
1366.3008425579
 22
-368.7488785275
 32
-65.0203763904
 13
1363.6008425579
 23
-368.3500313875
 33
-64.9500488784
  0
SOLID
  5
FB
100
AcDbEntity
  8
L1_120
  6
CONTINUOUS
 62
         4
100
AcDbTrace
 10
1428.6008425579
 20
-368.3500313875
 30
-64.9500488784
 11
1425.9008425579
 21
-368.7488785275
 31
-65.0203763904
 12
1425.9008425579
 22
-367.9511842475
 32
-64.8797213665
 13
1428.6008425579
 23
-368.3500313875
 33
-64.9500488784
  0
TEXT
  5
FD
100
AcDbEntity
  8
L1_120
  6
CONTINUOUS
 62
         4
100
AcDbText
 10
1395.2469781231
 20
-372.0074243598
 30
0.0
 40
2.7
  1
65
  7
BOX
210
0.0
220
-0.1736481776669303
230
0.9848077530122081
100
AcDbText
  0
ENDBLK
  5
FE
100
AcDbEntity
  8
0
  6
CONTINUOUS
100
AcDbBlockEnd
  0
BLOCK
  5
132
100
AcDbEntity
  8
0
100
AcDbBlockBegin
  2
*X5
 70
        65
 10
0.0
 20
0.0
 30
0.0
  3
*X5
  1

  0
LINE
  5
133
100
AcDbEntity
  8
L1_120
  6
CONTINUOUS
 62
         4
100
AcDbLine
 10
1393.1174672046
 20
-303.3745946256
 30
-53.493126294
 11
1393.1826556122
 21
-303.3103965764
 31
-53.4818064458
  0
LINE
  5
134
100
AcDbEntity
  8
L1_120
  6
CONTINUOUS
 62
         4
100
AcDbLine
 10
1390.6221008497
 20
-301.6538653166
 30
-53.1897152903
 11
1390.8734061148
 21
-301.4063779432
 31
-53.146076589
  0
ENDBLK
  5
135
100
AcDbEntity
  8
0
  6
CONTINUOUS
100
AcDbBlockEnd
  0
BLOCK
  5
14F
100
AcDbEntity
  8
0
100
AcDbBlockBegin
  2
*D6
 70
        65
 10
0.0
 20
0.0
 30
0.0
  3
*D6
  1

  0
POINT
  5
151
100
AcDbEntity
  8
DEFPOINTS
  6
CONTINUOUS
 62
         0
100
AcDbPoint
 10
1384.1508425579
 20
-170.89890835
 30
-30.1340885157
  0
POINT
  5
152
100
AcDbEntity
  8
DEFPOINTS
  6
CONTINUOUS
 62
         0
100
AcDbPoint
 10
1384.1508425579
 20
-195.626125203
 30
-34.4941640047
  0
POINT
  5
153
100
AcDbEntity
  8
DEFPOINTS
  6
CONTINUOUS
 62
         0
100
AcDbPoint
 10
1428.6008425579
 20
-217.5134775137
 30
-38.3534947534
  0
LINE
  5
154
100
AcDbEntity
  8
L1_120
  6
CONTINUOUS
 62
         4
100
AcDbLine
 10
1384.1508425579
 20
-194.2966347365
 30
-34.2597389649
 11
1384.1508425579
 21
-170.2341631168
 31
-30.0168759958
  0
LINE
  5
155
100
AcDbEntity
  8
L1_120
  6
CONTINUOUS
 62
         4
100
AcDbLine
 10
1428.6008425579
 20
-216.1839870472
 30
-38.1190697135
 11
1428.6008425579
 21
-170.2341631168
 31
-30.0168759958
  0
LINE
  5
156
100
AcDbEntity
  8
L1_120
  6
CONTINUOUS
 62
         4
100
AcDbLine
 10
1384.1508425579
 20
-170.89890835
 30
-30.1340885157
 11
1428.6008425579
 21
-170.89890835
 31
-30.1340885157
  0
SOLID
  5
157
100
AcDbEntity
  8
L1_120
  6
CONTINUOUS
 62
         4
100
AcDbTrace
 10
1384.1508425579
 20
-170.89890835
 30
-30.1340885157
 11
1386.8508425579
 21
-170.5000612101
 31
-30.0637610038
 12
1386.8508425579
 22
-171.29775549
 32
-30.2044160277
 13
1384.1508425579
 23
-170.89890835
 33
-30.1340885157
  0
SOLID
  5
158
100
AcDbEntity
  8
L1_120
  6
CONTINUOUS
 62
         4
100
AcDbTrace
 10
1428.6008425579
 20
-170.89890835
 30
-30.1340885157
 11
1425.9008425579
 21
-171.29775549
 31
-30.2044160277
 12
1425.9008425579
 22
-170.5000612101
 32
-30.0637610038
 13
1428.6008425579
 23
-170.89890835
 33
-30.1340885157
  0
TEXT
  5
15A
100
AcDbEntity
  8
L1_120
  6
CONTINUOUS
 62
         4
100
AcDbText
 10
1399.221722771
 20
-171.5102994809
 30
0.0
 40
2.7
  1
44.45
  7
BOX
210
0.0
220
-0.1736481776669303
230
0.9848077530122081
100
AcDbText
  0
ENDBLK
  5
15B
100
AcDbEntity
  8
0
  6
CONTINUOUS
100
AcDbBlockEnd
  0
BLOCK
  5
15D
100
AcDbEntity
  8
0
100
AcDbBlockBegin
  2
*D7
 70
        65
 10
0.0
 20
0.0
 30
0.0
  3
*D7
  1

  0
POINT
  5
15F
100
AcDbEntity
  8
DEFPOINTS
  6
CONTINUOUS
 62
         0
100
AcDbPoint
 10
1315.9008425579
 20
-160.8190995994
 30
-28.3567462726
  0
POINT
  5
160
100
AcDbEntity
  8
DEFPOINTS
  6
CONTINUOUS
 62
         0
100
AcDbPoint
 10
1315.9008425579
 20
-206.4499682606
 30
-36.4026995708
  0
POINT
  5
161
100
AcDbEntity
  8
DEFPOINTS
  6
CONTINUOUS
 62
         0
100
AcDbPoint
 10
1428.6008425579
 20
-217.5134775137
 30
-38.3534947534
  0
LINE
  5
162
100
AcDbEntity
  8
L1_120
  6
CONTINUOUS
 62
         4
100
AcDbLine
 10
1315.9008425579
 20
-205.1204777941
 30
-36.1682745309
 11
1315.9008425579
 21
-160.1543543662
 31
-28.2395337527
  0
LINE
  5
163
100
AcDbEntity
  8
L1_120
  6
CONTINUOUS
 62
         4
100
AcDbLine
 10
1428.6008425579
 20
-216.1839870472
 30
-38.1190697135
 11
1428.6008425579
 21
-160.1543543662
 31
-28.2395337527
  0
LINE
  5
164
100
AcDbEntity
  8
L1_120
  6
CONTINUOUS
 62
         4
100
AcDbLine
 10
1315.9008425579
 20
-160.8190995994
 30
-28.3567462726
 11
1428.6008425579
 21
-160.8190995994
 31
-28.3567462726
  0
SOLID
  5
165
100
AcDbEntity
  8
L1_120
  6
CONTINUOUS
 62
         4
100
AcDbTrace
 10
1315.9008425579
 20
-160.8190995994
 30
-28.3567462726
 11
1318.6008425579
 21
-160.4202524595
 31
-28.2864187607
 12
1318.6008425579
 22
-161.2179467394
 32
-28.4270737846
 13
1315.9008425579
 23
-160.8190995994
 33
-28.3567462726
  0
SOLID
  5
166
100
AcDbEntity
  8
L1_120
  6
CONTINUOUS
 62
         4
100
AcDbTrace
 10
1428.6008425579
 20
-160.8190995994
 30
-28.3567462726
 11
1425.9008425579
 21
-161.2179467394
 31
-28.4270737846
 12
1425.9008425579
 22
-160.4202524595
 32
-28.2864187607
 13
1428.6008425579
 23
-160.8190995994
 33
-28.3567462726
  0
TEXT
  5
168
100
AcDbEntity
  8
L1_120
  6
CONTINUOUS
 62
         4
100
AcDbText
 10
1368.1628630389
 20
-161.2749934328
 30
0.0
 40
2.7
  1
112.7
  7
BOX
210
0.0
220
-0.1736481776669303
230
0.9848077530122081
100
AcDbText
  0
ENDBLK
  5
169
100
AcDbEntity
  8
0
  6
CONTINUOUS
100
AcDbBlockEnd
  0
BLOCK
  5
1B5
100
AcDbEntity
  8
0
100
AcDbBlockBegin
  2
*D8
 70
        65
 10
0.0
 20
0.0
 30
0.0
  3
*D8
  1

  0
POINT
  5
1B7
100
AcDbEntity
  8
DEFPOINTS
  6
CONTINUOUS
 62
         0
100
AcDbPoint
 10
1452.963197556
 20
-200.279341836
 30
-35.3146516442
  0
POINT
  5
1B8
100
AcDbEntity
  8
DEFPOINTS
  6
CONTINUOUS
 62
         0
100
AcDbPoint
 10
1417.43491863
 20
-200.279341836
 30
-35.3146516442
  0
POINT
  5
1B9
100
AcDbEntity
  8
DEFPOINTS
  6
CONTINUOUS
 62
         0
100
AcDbPoint
 10
1417.43491863
 20
-234.7476131914
 30
-41.3923378626
  0
LINE
  5
1BA
100
AcDbEntity
  8
L1_120
  6
CONTINUOUS
 62
         4
100
AcDbLine
 10
1418.78491863
 20
-200.279341836
 30
-35.3146516442
 11
1453.638197556
 21
-200.279341836
 31
-35.3146516442
  0
LINE
  5
1BB
100
AcDbEntity
  8
L1_120
  6
CONTINUOUS
 62
         4
100
AcDbLine
 10
1418.78491863
 20
-234.7476131914
 30
-41.3923378626
 11
1453.638197556
 21
-234.7476131914
 31
-41.3923378626
  0
LINE
  5
1BC
100
AcDbEntity
  8
L1_120
  6
CONTINUOUS
 62
         4
100
AcDbLine
 10
1452.963197556
 20
-200.279341836
 30
-35.3146516442
 11
1452.963197556
 21
-234.7476131914
 31
-41.3923378626
  0
SOLID
  5
1BD
100
AcDbEntity
  8
L1_120
  6
CONTINUOUS
 62
         4
100
AcDbTrace
 10
1452.963197556
 20
-200.279341836
 30
-35.3146516442
 11
1453.368197556
 21
-202.9383227692
 31
-35.7835017239
 12
1452.558197556
 22
-202.9383227692
 32
-35.7835017239
 13
1452.963197556
 23
-200.279341836
 33
-35.3146516442
  0
SOLID
  5
1BE
100
AcDbEntity
  8
L1_120
  6
CONTINUOUS
 62
         4
100
AcDbTrace
 10
1452.963197556
 20
-234.7476131914
 30
-41.3923378626
 11
1452.558197556
 21
-232.0886322583
 31
-40.9234877829
 12
1453.368197556
 22
-232.0886322583
 32
-40.9234877829
 13
1452.963197556
 23
-234.7476131914
 33
-41.3923378626
  0
TEXT
  5
1C0
100
AcDbEntity
  8
L1_120
  6
CONTINUOUS
 62
         4
100
AcDbText
 10
1449.831197556
 20
-230.5194301072
 30
0.0
 40
2.7
  1
崷35
 50
90.0
  7
BOX
210
0.0
220
-0.1736481776669303
230
0.9848077530122081
100
AcDbText
  0
ENDBLK
  5
1C1
100
AcDbEntity
  8
0
  6
CONTINUOUS
100
AcDbBlockEnd
  0
BLOCK
  5
1CD
100
AcDbEntity
  8
0
100
AcDbBlockBegin
  2
*D9
 70
        65
 10
0.0
 20
0.0
 30
0.0
  3
*D9
  1

  0
POINT
  5
1CF
100
AcDbEntity
  8
DEFPOINTS
  6
CONTINUOUS
 62
         0
100
AcDbPoint
 10
1442.8413072361
 20
-205.2033806011
 30
-36.1828925326
  0
POINT
  5
1D0
100
AcDbEntity
  8
DEFPOINTS
  6
CONTINUOUS
 62
         0
100
AcDbPoint
 10
1428.6008425579
 20
-205.2033806011
 30
-36.1828925326
  0
POINT
  5
1D1
100
AcDbEntity
  8
DEFPOINTS
  6
CONTINUOUS
 62
         0
100
AcDbPoint
 10
1428.6008425579
 20
-229.8235744264
 30
-40.5240969742
  0
LINE
  5
1D2
100
AcDbEntity
  8
L1_120
  6
CONTINUOUS
 62
         4
100
AcDbLine
 10
1429.9508425579
 20
-205.2033806011
 30
-36.1828925326
 11
1443.5163072361
 21
-205.2033806011
 31
-36.1828925326
  0
LINE
  5
1D3
100
AcDbEntity
  8
L1_120
  6
CONTINUOUS
 62
         4
100
AcDbLine
 10
1429.9508425579
 20
-229.8235744264
 30
-40.5240969742
 11
1443.5163072361
 21
-229.8235744264
 31
-40.5240969742
  0
LINE
  5
1D4
100
AcDbEntity
  8
L1_120
  6
CONTINUOUS
 62
         4
100
AcDbLine
 10
1442.8413072361
 20
-205.2033806011
 30
-36.1828925326
 11
1442.8413072361
 21
-229.8235744264
 31
-40.5240969742
  0
SOLID
  5
1D5
100
AcDbEntity
  8
L1_120
  6
CONTINUOUS
 62
         4
100
AcDbTrace
 10
1442.8413072361
 20
-205.2033806011
 30
-36.1828925326
 11
1443.2463072361
 21
-207.8623615342
 31
-36.6517426123
 12
1442.4363072361
 22
-207.8623615342
 32
-36.6517426123
 13
1442.8413072361
 23
-205.2033806011
 33
-36.1828925326
  0
SOLID
  5
1D6
100
AcDbEntity
  8
L1_120
  6
CONTINUOUS
 62
         4
100
AcDbTrace
 10
1442.8413072361
 20
-229.8235744264
 30
-40.5240969742
 11
1442.4363072361
 21
-227.1645934933
 31
-40.0552468945
 12
1443.2463072361
 22
-227.1645934933
 32
-40.0552468945
 13
1442.8413072361
 23
-229.8235744264
 33
-40.5240969742
  0
TEXT
  5
1D8
100
AcDbEntity
  8
L1_120
  6
CONTINUOUS
 62
         4
100
AcDbText
 10
1440.8163072361
 20
-227.1249172637
 30
0.0
 40
2.7
  1
崷25
 50
90.0
  7
BOX
210
0.0
220
-0.1736481776669303
230
0.9848077530122081
100
AcDbText
  0
ENDBLK
  5
1D9
100
AcDbEntity
  8
0
  6
CONTINUOUS
100
AcDbBlockEnd
  0
ENDSEC
  0
SECTION
  2
ENTITIES
  0
DIMENSION
  5
28
100
AcDbEntity
  8
L1_120
  6
CONTINUOUS
 62
         4
100
AcDbDimension
  2
*D0
 10
1462.3650079666
 20
-309.7773307915
 30
-54.6221014304
 11
1460.3400079666
 21
-323.004172678
 31
0.0
210
0.0
220
-0.1736481776669303
230
0.9848077530122081
  3
DIMSTYLE1
100
AcDbAlignedDimension
 13
1469.5994893559
 23
-309.7773307915
 33
-54.6221014304
 14
1468.0839445248
 24
-319.7829975734
 34
-56.386370444
 50
90.0
100
AcDbRotatedDimension
  0
DIMENSION
  5
37
100
AcDbEntity
  8
L1_120
  6
CONTINUOUS
 62
         4
100
AcDbDimension
  2
*D1
 10
1467.2372846315
 20
-303.356563176
 30
-53.4899468629
 11
1457.5585818323
 21
-306.0113271391
 31
0.0
210
0.0
220
-0.1736481776669303
230
0.9848077530122081
  3
DIMSTYLE1
100
AcDbAlignedDimension
 13
1467.2372846315
 23
-312.1036483183
 33
-55.0322939761
 14
1478.3625068819
 24
-312.1036483183
 34
-55.0322939761
100
AcDbRotatedDimension
  0
LINE
  5
43
100
AcDbEntity
  8
L1_120
  6
CENTER
 62
         1
100
AcDbLine
 10
1472.7998957567
 20
-322.5194892199
 30
-56.8688877538
 11
1472.7998957567
 21
-308.703910352
 31
-54.4328284453
  0
DIMENSION
  5
46
100
AcDbEntity
  8
L1_120
  6
CONTINUOUS
 62
         4
100
AcDbDimension
  2
*D2
 10
1469.5667342492
 20
-326.1724282728
 30
-57.5129994677
 11
1477.7542067644
 21
-329.1791637316
 31
0.0
210
0.0
220
-0.1736481776669303
230
0.9848077530122081
  3
DIMSTYLE1
100
AcDbAlignedDimension
 13
1469.5667342492
 23
-319.7829975734
 33
-56.386370444
 14
1476.0330572641
 24
-319.7829975734
 34
-56.386370444
100
AcDbRotatedDimension
  0
LINE
  5
53
100
AcDbEntity
  8
L1_120
  6
DASHED
 62
         2
100
AcDbLine
 10
1474.4056832719
 20
-319.7829975734
 30
-56.386370444
 11
1474.4056832719
 21
-314.3048950103
 31
-55.4204331591
  0
LINE
  5
54
100
AcDbEntity
  8
L1_120
  6
DASHED
 62
         2
100
AcDbLine
 10
1471.1941082414
 20
-319.7829975734
 30
-56.386370444
 11
1471.1941082414
 21
-314.3048950103
 31
-55.4204331591
  0
LINE
  5
55
100
AcDbEntity
  8
L1_120
  6
DASHED
 62
         2
100
AcDbLine
 10
1476.0114707872
 20
-319.7829975734
 30
-56.386370444
 11
1476.0114707872
 21
-314.3048950103
 31
-55.4204331591
  0
LINE
  5
56
100
AcDbEntity
  8
L1_120
  6
DASHED
 62
         2
100
AcDbLine
 10
1469.5883207261
 20
-319.7829975734
 30
-56.386370444
 11
1469.5883207261
 21
-314.3048950103
 31
-55.4204331591
  0
LINE
  5
57
100
AcDbEntity
  8
L1_120
  6
DASHED
 62
         2
100
AcDbLine
 10
1469.5883207261
 20
-314.3048950103
 30
-55.4204331591
 11
1476.0114707872
 21
-314.3048950103
 31
-55.4204331591
  0
LINE
  5
58
100
AcDbEntity
  8
L1_120
  6
CONTINUOUS
 62
         7
100
AcDbLine
 10
1476.0003021575
 20
-309.7773307915
 30
-54.6221014304
 11
1478.3625068819
 21
-312.1036483183
 31
-55.0322939761
  0
LINE
  5
59
100
AcDbEntity
  8
L1_120
  6
CONTINUOUS
 62
         7
100
AcDbLine
 10
1469.5994893559
 20
-309.7773307915
 30
-54.6221014304
 11
1467.2372846315
 21
-312.1036483183
 31
-55.0322939761
  0
LINE
  5
5A
100
AcDbEntity
  8
L1_120
  6
CONTINUOUS
 62
         7
100
AcDbLine
 10
1467.2372846315
 20
-312.1036483183
 30
-55.0322939761
 11
1478.3625068819
 21
-312.1036483183
 31
-55.0322939761
  0
LINE
  5
5B
100
AcDbEntity
  8
L1_120
  6
CONTINUOUS
 62
         7
100
AcDbLine
 10
1469.5994893559
 20
-309.7773307915
 30
-54.6221014304
 11
1476.0003021575
 21
-309.7773307915
 31
-54.6221014304
  0
LINE
  5
5C
100
AcDbEntity
  8
L1_120
  6
CONTINUOUS
 62
         7
100
AcDbLine
 10
1477.5158469886
 20
-312.8090478264
 30
-55.1566749415
 11
1468.0839445248
 21
-313.5144473345
 31
-55.281055907
  0
LINE
  5
5D
100
AcDbEntity
  8
L1_120
  6
CONTINUOUS
 62
         7
100
AcDbLine
 10
1478.3625068819
 20
-312.1036483183
 30
-55.0322939761
 11
1467.2372846315
 21
-312.8090478264
 31
-55.1566749415
  0
LINE
  5
5E
100
AcDbEntity
  8
L1_120
  6
CONTINUOUS
 62
         7
100
AcDbLine
 10
1477.5158469886
 20
-312.8090478264
 30
-55.1566749415
 11
1478.3625068819
 21
-312.1036483183
 31
-55.0322939761
  0
LINE
  5
5F
100
AcDbEntity
  8
L1_120
  6
CONTINUOUS
 62
         7
100
AcDbLine
 10
1478.3625068819
 20
-313.5144473345
 30
-55.281055907
 11
1477.5158469886
 21
-312.8090478264
 31
-55.1566749415
  0
LINE
  5
60
100
AcDbEntity
  8
L1_120
  6
CONTINUOUS
 62
         7
100
AcDbLine
 10
1467.2372846315
 20
-312.8090478264
 30
-55.1566749415
 11
1468.0839445248
 21
-312.1036483183
 31
-55.0322939761
  0
LINE
  5
61
100
AcDbEntity
  8
L1_120
  6
CONTINUOUS
 62
         7
100
AcDbLine
 10
1468.0839445248
 20
-313.5144473345
 30
-55.281055907
 11
1467.2372846315
 21
-312.8090478264
 31
-55.1566749415
  0
LINE
  5
62
100
AcDbEntity
  8
L1_120
  6
CONTINUOUS
 62
         7
100
AcDbLine
 10
1478.3625068819
 20
-319.1576433996
 30
-56.2761036307
 11
1468.8002259573
 21
-319.1576433996
 31
-56.2761036307
  0
LINE
  5
63
100
AcDbEntity
  8
L1_120
  6
CONTINUOUS
 62
         7
100
AcDbLine
 10
1477.5158469886
 20
-318.4522438914
 30
-56.1517226652
 11
1468.8002259573
 21
-319.1576433996
 31
-56.2761036307
  0
LINE
  5
64
100
AcDbEntity
  8
L1_120
  6
CONTINUOUS
 62
         7
100
AcDbLine
 10
1478.3625068819
 20
-317.7468443833
 30
-56.0273416998
 11
1467.2372846315
 21
-318.4522438914
 31
-56.1517226652
  0
LINE
  5
65
100
AcDbEntity
  8
L1_120
  6
CONTINUOUS
 62
         7
100
AcDbLine
 10
1477.5158469886
 20
-318.4522438914
 30
-56.1517226652
 11
1478.3625068819
 21
-319.1576433996
 31
-56.2761036307
  0
LINE
  5
66
100
AcDbEntity
  8
L1_120
  6
CONTINUOUS
 62
         7
100
AcDbLine
 10
1478.3625068819
 20
-317.7468443833
 30
-56.0273416998
 11
1477.5158469886
 21
-318.4522438914
 31
-56.1517226652
  0
LINE
  5
67
100
AcDbEntity
  8
L1_120
  6
CONTINUOUS
 62
         7
100
AcDbLine
 10
1468.0839445248
 20
-317.7468443833
 30
-56.0273416998
 11
1467.2372846315
 21
-318.4522438914
 31
-56.1517226652
  0
LINE
  5
68
100
AcDbEntity
  8
L1_120
  6
CONTINUOUS
 62
         7
100
AcDbLine
 10
1477.5158469886
 20
-314.2198468427
 30
-55.4054368724
 11
1468.0839445248
 21
-314.9252463508
 31
-55.5298178379
  0
LINE
  5
69
100
AcDbEntity
  8
L1_120
  6
CONTINUOUS
 62
         7
100
AcDbLine
 10
1478.3625068819
 20
-313.5144473345
 30
-55.281055907
 11
1467.2372846315
 21
-314.2198468427
 31
-55.4054368724
  0
LINE
  5
6A
100
AcDbEntity
  8
L1_120
  6
CONTINUOUS
 62
         7
100
AcDbLine
 10
1477.5158469886
 20
-314.2198468427
 30
-55.4054368724
 11
1478.3625068819
 21
-313.5144473345
 31
-55.281055907
  0
LINE
  5
6B
100
AcDbEntity
  8
L1_120
  6
CONTINUOUS
 62
         7
100
AcDbLine
 10
1478.3625068819
 20
-314.9252463508
 30
-55.5298178379
 11
1477.5158469886
 21
-314.2198468427
 31
-55.4054368724
  0
LINE
  5
6C
100
AcDbEntity
  8
L1_120
  6
CONTINUOUS
 62
         7
100
AcDbLine
 10
1467.2372846315
 20
-314.2198468427
 30
-55.4054368724
 11
1468.0839445248
 21
-313.5144473345
 31
-55.281055907
  0
LINE
  5
6D
100
AcDbEntity
  8
L1_120
  6
CONTINUOUS
 62
         7
100
AcDbLine
 10
1468.0839445248
 20
-314.9252463508
 30
-55.5298178379
 11
1467.2372846315
 21
-314.2198468427
 31
-55.4054368724
  0
LINE
  5
6E
100
AcDbEntity
  8
L1_120
  6
CONTINUOUS
 62
         4
100
AcDbLine
 10
1478.3625068819
 20
-319.1576433996
 30
-56.2761036307
 11
1468.8002259573
 21
-319.1576433996
 31
-56.2761036307
  0
LINE
  5
6F
100
AcDbEntity
  8
L1_120
  6
CONTINUOUS
 62
         4
100
AcDbLine
 10
1477.5158469886
 20
-318.4522438914
 30
-56.1517226652
 11
1468.8002259573
 21
-319.1576433996
 31
-56.2761036307
  0
LINE
  5
70
100
AcDbEntity
  8
L1_120
  6
CONTINUOUS
 62
         4
100
AcDbLine
 10
1478.3625068819
 20
-317.7468443833
 30
-56.0273416998
 11
1467.2372846315
 21
-318.4522438914
 31
-56.1517226652
  0
LINE
  5
71
100
AcDbEntity
  8
L1_120
  6
CONTINUOUS
 62
         4
100
AcDbLine
 10
1477.5158469886
 20
-318.4522438914
 30
-56.1517226652
 11
1478.3625068819
 21
-319.1576433996
 31
-56.2761036307
  0
LINE
  5
72
100
AcDbEntity
  8
L1_120
  6
CONTINUOUS
 62
         4
100
AcDbLine
 10
1478.3625068819
 20
-317.7468443833
 30
-56.0273416998
 11
1477.5158469886
 21
-318.4522438914
 31
-56.1517226652
  0
LINE
  5
73
100
AcDbEntity
  8
L1_120
  6
CONTINUOUS
 62
         4
100
AcDbLine
 10
1468.0839445248
 20
-317.7468443833
 30
-56.0273416998
 11
1467.2372846315
 21
-318.4522438914
 31
-56.1517226652
  0
LINE
  5
74
100
AcDbEntity
  8
L1_120
  6
CONTINUOUS
 62
         7
100
AcDbLine
 10
1477.5158469886
 20
-315.6306458589
 30
-55.6541988034
 11
1468.0839445248
 21
-316.3360453671
 31
-55.7785797688
  0
LINE
  5
75
100
AcDbEntity
  8
L1_120
  6
CONTINUOUS
 62
         7
100
AcDbLine
 10
1478.3625068819
 20
-314.9252463508
 30
-55.5298178379
 11
1467.2372846315
 21
-315.6306458589
 31
-55.6541988034
  0
LINE
  5
76
100
AcDbEntity
  8
L1_120
  6
CONTINUOUS
 62
         7
100
AcDbLine
 10
1477.5158469886
 20
-315.6306458589
 30
-55.6541988034
 11
1478.3625068819
 21
-314.9252463508
 31
-55.5298178379
  0
LINE
  5
77
100
AcDbEntity
  8
L1_120
  6
CONTINUOUS
 62
         7
100
AcDbLine
 10
1478.3625068819
 20
-316.3360453671
 30
-55.7785797688
 11
1477.5158469886
 21
-315.6306458589
 31
-55.6541988034
  0
LINE
  5
78
100
AcDbEntity
  8
L1_120
  6
CONTINUOUS
 62
         7
100
AcDbLine
 10
1467.2372846315
 20
-315.6306458589
 30
-55.6541988034
 11
1468.0839445248
 21
-314.9252463508
 31
-55.5298178379
  0
LINE
  5
79
100
AcDbEntity
  8
L1_120
  6
CONTINUOUS
 62
         7
100
AcDbLine
 10
1468.0839445248
 20
-316.3360453671
 30
-55.7785797688
 11
1467.2372846315
 21
-315.6306458589
 31
-55.6541988034
  0
LINE
  5
7A
100
AcDbEntity
  8
L1_120
  6
CONTINUOUS
 62
         4
100
AcDbLine
 10
1478.3625068819
 20
-319.1576433996
 30
-56.2761036307
 11
1468.8002259573
 21
-319.1576433996
 31
-56.2761036307
  0
LINE
  5
7B
100
AcDbEntity
  8
L1_120
  6
CONTINUOUS
 62
         4
100
AcDbLine
 10
1477.5158469886
 20
-318.4522438914
 30
-56.1517226652
 11
1468.8002259573
 21
-319.1576433996
 31
-56.2761036307
  0
LINE
  5
7C
100
AcDbEntity
  8
L1_120
  6
CONTINUOUS
 62
         4
100
AcDbLine
 10
1478.3625068819
 20
-317.7468443833
 30
-56.0273416998
 11
1467.2372846315
 21
-318.4522438914
 31
-56.1517226652
  0
LINE
  5
7D
100
AcDbEntity
  8
L1_120
  6
CONTINUOUS
 62
         4
100
AcDbLine
 10
1477.5158469886
 20
-318.4522438914
 30
-56.1517226652
 11
1478.3625068819
 21
-319.1576433996
 31
-56.2761036307
  0
LINE
  5
7E
100
AcDbEntity
  8
L1_120
  6
CONTINUOUS
 62
         4
100
AcDbLine
 10
1478.3625068819
 20
-317.7468443833
 30
-56.0273416998
 11
1477.5158469886
 21
-318.4522438914
 31
-56.1517226652
  0
LINE
  5
7F
100
AcDbEntity
  8
L1_120
  6
CONTINUOUS
 62
         4
100
AcDbLine
 10
1468.0839445248
 20
-317.7468443833
 30
-56.0273416998
 11
1467.2372846315
 21
-318.4522438914
 31
-56.1517226652
  0
LINE
  5
80
100
AcDbEntity
  8
L1_120
  6
CONTINUOUS
 62
         7
100
AcDbLine
 10
1477.5158469886
 20
-317.0414448752
 30
-55.9029607343
 11
1468.0839445248
 21
-317.7468443833
 31
-56.0273416998
  0
LINE
  5
81
100
AcDbEntity
  8
L1_120
  6
CONTINUOUS
 62
         7
100
AcDbLine
 10
1478.3625068819
 20
-316.3360453671
 30
-55.7785797688
 11
1467.2372846315
 21
-317.0414448752
 31
-55.9029607343
  0
LINE
  5
82
100
AcDbEntity
  8
L1_120
  6
CONTINUOUS
 62
         7
100
AcDbLine
 10
1477.5158469886
 20
-317.0414448752
 30
-55.9029607343
 11
1478.3625068819
 21
-316.3360453671
 31
-55.7785797688
  0
LINE
  5
83
100
AcDbEntity
  8
L1_120
  6
CONTINUOUS
 62
         7
100
AcDbLine
 10
1478.3625068819
 20
-317.7468443833
 30
-56.0273416998
 11
1477.5158469886
 21
-317.0414448752
 31
-55.9029607343
  0
LINE
  5
84
100
AcDbEntity
  8
L1_120
  6
CONTINUOUS
 62
         7
100
AcDbLine
 10
1467.2372846315
 20
-317.0414448752
 30
-55.9029607343
 11
1468.0839445248
 21
-316.3360453671
 31
-55.7785797688
  0
LINE
  5
85
100
AcDbEntity
  8
L1_120
  6
CONTINUOUS
 62
         7
100
AcDbLine
 10
1468.0839445248
 20
-317.7468443833
 30
-56.0273416998
 11
1467.2372846315
 21
-317.0414448752
 31
-55.9029607343
  0
LINE
  5
86
100
AcDbEntity
  8
L1_120
  6
CONTINUOUS
 62
         7
100
AcDbLine
 10
1467.2372846315
 20
-319.1576433996
 30
-56.2761036307
 11
1467.2372846315
 21
-318.4522438914
 31
-56.1517226652
  0
LINE
  5
87
100
AcDbEntity
  8
L1_120
  6
CONTINUOUS
 62
         7
100
AcDbLine
 10
1468.0839445248
 20
-319.7829975734
 30
-56.386370444
 11
1467.2372846315
 21
-319.1576433996
 31
-56.2761036307
  0
LINE
  5
88
100
AcDbEntity
  8
L1_120
  6
CONTINUOUS
 62
         7
100
AcDbLine
 10
1477.5158469886
 20
-319.7829975734
 30
-56.386370444
 11
1478.3625068819
 21
-319.1576433996
 31
-56.2761036307
  0
LINE
  5
89
100
AcDbEntity
  8
L1_120
  6
CONTINUOUS
 62
         7
100
AcDbLine
 10
1478.3625068819
 20
-319.1576433996
 30
-56.2761036307
 11
1467.2372846315
 21
-319.1576433996
 31
-56.2761036307
  0
LINE
  5
8A
100
AcDbEntity
  8
L1_120
  6
CONTINUOUS
 62
         7
100
AcDbLine
 10
1477.5158469886
 20
-319.7829975734
 30
-56.386370444
 11
1468.0839445248
 21
-319.7829975734
 31
-56.386370444
  0
INSERT
  5
CF
100
AcDbEntity
  8
0
  6
CONTINUOUS
100
AcDbBlockReference
  2
*X3
 10
0.0
 20
0.0
 30
0.0
  0
LINE
  5
D0
100
AcDbEntity
  8
L1_120
  6
CONTINUOUS
 62
         7
100
AcDbLine
 10
1387.3508425579
 20
-368.4760806049
 30
-5.3440226677
 11
1387.3508425579
 21
-361.0161618757
 31
-4.0286377219
  0
ARC
  5
D1
100
AcDbEntity
  8
L1_120
  6
CONTINUOUS
 62
         7
100
AcDbCircle
 10
1386.5508425579
 20
-356.2310807767
 30
58.7223649554
 40
0.8
210
0.0
220
-0.1736481776669303
230
0.9848077530122081
100
AcDbArc
 50
0.0
 51
90.0000000001
  0
LINE
  5
D2
100
AcDbEntity
  8
L1_120
  6
CONTINUOUS
 62
         7
100
AcDbLine
 10
1386.5508425579
 20
-360.2283156732
 30
-3.8897191797
 11
1385.3508425579
 21
-360.2283156732
 31
-3.8897191797
  0
LINE
  5
D3
100
AcDbEntity
  8
L1_120
  6
CONTINUOUS
 62
         7
100
AcDbLine
 10
1387.3508425579
 20
-368.9684844812
 30
-5.4308467565
 11
1387.8508425579
 21
-369.4608883577
 31
-5.5176708454
  0
LINE
  5
D4
100
AcDbEntity
  8
L1_120
  6
CONTINUOUS
 62
         7
100
AcDbLine
 10
1403.2508425579
 20
-368.9684844812
 30
-5.4308467565
 11
1402.7508425579
 21
-369.4608883577
 31
-5.5176708454
  0
LINE
  5
D5
100
AcDbEntity
  8
L1_120
  6
CONTINUOUS
 62
         7
100
AcDbLine
 10
1387.8508425579
 20
-369.4608883577
 30
-5.5176708454
 11
1389.3508425579
 21
-369.4608883577
 31
-5.5176708454
  0
LINE
  5
D6
100
AcDbEntity
  8
L1_120
  6
CONTINUOUS
 62
         7
100
AcDbLine
 10
1401.2508425579
 20
-369.4608883577
 30
-5.5176708454
 11
1402.7508425579
 21
-369.4608883577
 31
-5.5176708454
  0
LINE
  5
D7
100
AcDbEntity
  8
L1_120
  6
CONTINUOUS
 62
         7
100
AcDbLine
 10
1387.3508425579
 20
-367.4912728517
 30
-5.17037449
 11
1387.3508425579
 21
-368.9684844812
 31
-5.4308467565
  0
LINE
  5
D8
100
AcDbEntity
  8
L1_120
  6
CONTINUOUS
 62
         7
100
AcDbLine
 10
1403.2508425579
 20
-367.4912728517
 30
-5.17037449
 11
1403.2508425579
 21
-368.9684844812
 31
-5.4308467565
  0
LINE
  5
D9
100
AcDbEntity
  8
L1_120
  6
CONTINUOUS
 62
         7
100
AcDbLine
 10
1403.2508425579
 20
-356.3875654365
 30
-3.2124912868
 11
1403.2508425579
 21
-368.4760806049
 31
-5.3440226677
  0
LINE
  5
DA
100
AcDbEntity
  8
L1_120
  6
CONTINUOUS
 62
         7
100
AcDbLine
 10
1398.7871129567
 20
-369.4608883579
 30
-5.5176708454
 11
1402.2508425579
 21
-369.4608883579
 31
-5.5176708454
  0
LINE
  5
DB
100
AcDbEntity
  8
L1_120
  6
CONTINUOUS
 62
         7
100
AcDbLine
 10
1397.1258425579
 20
-366.6271978654
 30
-5.0180147566
 11
1398.7871129567
 21
-369.4608883577
 31
-5.5176708454
  0
ARC
  5
DC
100
AcDbEntity
  8
L1_120
  6
CONTINUOUS
 62
         7
100
AcDbCircle
 10
1396.1520422261
 20
-362.1560807769
 30
58.7223649554
 40
1.0
210
0.0
220
-0.1736481776669303
230
0.9848077530122081
100
AcDbArc
 50
13.1443256895
 51
90.0
  0
LINE
  5
DD
100
AcDbEntity
  8
L1_120
  6
CONTINUOUS
 62
         7
100
AcDbLine
 10
1394.3496428896
 20
-365.8663400592
 30
-4.8838549969
 11
1396.1520422261
 21
-365.8663400592
 31
-4.8838549969
  0
ARC
  5
DE
100
AcDbEntity
  8
L1_120
  6
CONTINUOUS
 62
         7
100
AcDbCircle
 10
1394.3496428896
 20
-362.1560807767
 30
58.7223649554
 40
1.0
210
0.0
220
-0.1736481776669303
230
0.9848077530122081
100
AcDbArc
 50
90.0
 51
166.8556743105
  0
LINE
  5
DF
100
AcDbEntity
  8
L1_120
  6
CONTINUOUS
 62
         7
100
AcDbLine
 10
1393.3758425579
 20
-366.6271978654
 30
-5.0180147566
 11
1391.7145721591
 21
-369.4608883577
 31
-5.5176708454
  0
LINE
  5
E0
100
AcDbEntity
  8
L1_120
  6
CONTINUOUS
 62
         7
100
AcDbLine
 10
1388.3508425579
 20
-369.4608883579
 30
-5.5176708454
 11
1391.7145721591
 21
-369.4608883579
 31
-5.5176708454
  0
LINE
  5
E1
100
AcDbEntity
  8
L1_120
  6
CONTINUOUS
 62
         7
100
AcDbLine
 10
1400.2488425579
 20
-355.4027576835
 30
-3.0388431092
 11
1401.2488425579
 21
-354.4179499305
 31
-2.8651949315
  0
LINE
  5
E2
100
AcDbEntity
  8
L1_120
  6
CONTINUOUS
 62
         7
100
AcDbLine
 10
1412.2488425579
 20
-355.4027576835
 30
-3.0388431092
 11
1411.2488425579
 21
-354.4179499305
 31
-2.8651949315
  0
LINE
  5
E3
100
AcDbEntity
  8
L1_120
  6
CENTER
 62
         1
100
AcDbLine
 10
1433.4554833089
 20
-338.1686220058
 30
0.0
 11
1382.422253798
 21
-338.1686220058
 31
0.0
  0
LINE
  5
E4
100
AcDbEntity
  8
L1_120
  6
CONTINUOUS
 62
         7
100
AcDbLine
 10
1411.2488425579
 20
-354.4179499305
 30
-2.8651949315
 11
1411.2488425579
 21
-344.4221512374
 31
-1.1026659282
  0
LINE
  5
E5
100
AcDbEntity
  8
L1_120
  6
CONTINUOUS
 62
         7
100
AcDbLine
 10
1401.2488425579
 20
-354.4179499305
 30
-2.8651949315
 11
1401.2488425579
 21
-344.4221512374
 31
-1.1026659282
  0
LINE
  5
E6
100
AcDbEntity
  8
L1_120
  6
CENTER
 62
         1
100
AcDbLine
 10
1406.2488425579
 20
-356.2245897582
 30
-3.1837542776
 11
1406.2488425579
 21
-342.3180726308
 31
-0.7316601003
  0
LINE
  5
E7
100
AcDbEntity
  8
L1_120
  6
CONTINUOUS
 62
         4
100
AcDbLine
 10
1400.6988425579
 20
-354.9595941946
 30
-2.9607014292
 11
1400.6988425579
 21
-344.4221512374
 31
-1.1026659282
  0
LINE
  5
E8
100
AcDbEntity
  8
L1_120
  6
CONTINUOUS
 62
         4
100
AcDbLine
 10
1411.7988425579
 20
-344.4221512374
 30
-1.1026659282
 11
1411.7988425579
 21
-354.9595941946
 31
-2.9607014292
  0
LINE
  5
E9
100
AcDbEntity
  8
L1_120
  6
CONTINUOUS
 62
         7
100
AcDbLine
 10
1427.1008425579
 20
-331.9150927741
 30
1.1026659282
 11
1423.3508425579
 21
-331.9150927741
 31
1.1026659282
  0
ARC
  5
EA
100
AcDbEntity
  8
L1_120
  6
CONTINUOUS
 62
         7
100
AcDbCircle
 10
1427.1008425579
 20
-325.1810807767
 30
58.7223649554
 40
1.5
210
0.0
220
-0.1736481776669303
230
0.9848077530122081
100
AcDbArc
 50
270.0
 51
285.022059707
  0
ARC
  5
EB
100
AcDbEntity
  8
L1_120
  6
CONTINUOUS
 62
         7
100
AcDbCircle
 10
1427.1008425579
 20
-325.1810807767
 30
58.7223649554
 40
1.5
210
0.0
220
-0.1736481776669303
230
0.9848077530122081
100
AcDbArc
 50
314.9779402929
 51
360.0
  0
LINE
  5
EC
100
AcDbEntity
  8
L1_120
  6
CONTINUOUS
 62
         7
100
AcDbLine
 10
1427.4896289399
 20
-331.8646106999
 30
1.1115672799
 11
1428.1610942815
 21
-331.4828295932
 31
1.1788855898
  0
ARC
  5
ED
100
AcDbEntity
  8
L1_120
  6
CONTINUOUS
 62
         7
100
AcDbCircle
 10
1427.1008425579
 20
-340.8810807767
 30
58.7223649554
 40
1.5
210
0.0
220
-0.1736481776669303
230
0.9848077530122081
100
AcDbArc
 50
74.977940293
 51
90.0
  0
ARC
  5
EE
100
AcDbEntity
  8
L1_120
  6
CONTINUOUS
 62
         7
100
AcDbCircle
 10
1427.1008425579
 20
-340.8810807767
 30
58.7223649554
 40
1.5
210
0.0
220
-0.1736481776669303
230
0.9848077530122081
100
AcDbArc
 50
0.0
 51
45.022059707
  0
LINE
  5
EF
100
AcDbEntity
  8
L1_120
  6
CONTINUOUS
 62
         7
100
AcDbLine
 10
1427.4896289399
 20
-344.4726333116
 30
-1.1115672799
 11
1428.1610942815
 21
-344.8544144184
 31
-1.1788855898
  0
LINE
  5
F0
100
AcDbEntity
  8
L1_120
  6
CONTINUOUS
 62
         7
100
AcDbLine
 10
1383.6008425579
 20
-344.4221512374
 30
-1.1026659282
 11
1420.1508425579
 21
-344.4221512374
 31
-1.1026659282
  0
DIMENSION
  5
F3
100
AcDbEntity
  8
L1_120
  6
CONTINUOUS
 62
         4
100
AcDbDimension
  2
*D4
 10
1363.6008425579
 20
-368.3500313875
 30
-64.9500488784
 11
1395.2469781231
 21
-372.0074243598
 31
0.0
210
0.0
220
-0.1736481776669303
230
0.9848077530122081
  3
DIMSTYLE1
100
AcDbAlignedDimension
 13
1363.6008425579
 23
-334.7175234511
 33
-59.0197303003
 14
1428.6008425579
 24
-337.7402870589
 34
-59.5527250807
100
AcDbRotatedDimension
  0
LINE
  5
FF
100
AcDbEntity
  8
L1_120
  6
CONTINUOUS
 62
         7
100
AcDbLine
 10
1411.2488425579
 20
-354.4179499305
 30
-2.8651949315
 11
1401.2488425579
 21
-354.4179499305
 31
-2.8651949315
  0
LINE
  5
100
100
AcDbEntity
  8
L1_120
  6
CONTINUOUS
 62
         4
100
AcDbLine
 10
1383.6008425579
 20
-337.430016191
 30
0.1302361333
 11
1420.1508425579
 21
-337.430016191
 31
0.1302361333
  0
LINE
  5
101
100
AcDbEntity
  8
L1_120
  6
CONTINUOUS
 62
         4
100
AcDbLine
 10
1383.6008425579
 20
-338.9072278205
 30
-0.1302361333
 11
1420.1508425579
 21
-338.9072278205
 31
-0.1302361333
  0
LINE
  5
102
100
AcDbEntity
  8
L1_120
  6
CONTINUOUS
 62
         4
100
AcDbLine
 10
1423.3508425579
 20
-337.430016191
 30
0.1302361333
 11
1428.6008425579
 21
-337.430016191
 31
0.1302361333
  0
LINE
  5
103
100
AcDbEntity
  8
L1_120
  6
CONTINUOUS
 62
         4
100
AcDbLine
 10
1423.3508425579
 20
-338.9072278205
 30
-0.1302361333
 11
1428.6008425579
 21
-338.9072278205
 31
-0.1302361333
  0
LINE
  5
104
100
AcDbEntity
  8
L1_120
  6
CONTINUOUS
 62
         7
100
AcDbLine
 10
1423.3508425579
 20
-330.053806121
 30
1.430860984
 11
1423.3508425579
 21
-346.2834378906
 31
-1.430860984
  0
LINE
  5
105
100
AcDbEntity
  8
L1_120
  6
CONTINUOUS
 62
         7
100
AcDbLine
 10
1420.1508425579
 20
-330.053806121
 30
1.430860984
 11
1420.1508425579
 21
-346.2834378906
 31
-1.430860984
  0
LINE
  5
106
100
AcDbEntity
  8
L1_120
  6
CONTINUOUS
 62
         7
100
AcDbLine
 10
1420.5508425579
 20
-329.6598830197
 30
1.500320255
 11
1422.9508425579
 21
-329.6598830197
 31
1.500320255
  0
LINE
  5
107
100
AcDbEntity
  8
L1_120
  6
CONTINUOUS
 62
         7
100
AcDbLine
 10
1420.5508425579
 20
-346.6773609918
 30
-1.500320255
 11
1422.9508425579
 21
-346.6773609918
 31
-1.500320255
  0
ARC
  5
108
100
AcDbEntity
  8
L1_120
  6
CONTINUOUS
 62
         7
100
AcDbCircle
 10
1420.5508425579
 20
-324.7910807767
 30
58.7223649554
 40
0.4
210
0.0
220
-0.1736481776669303
230
0.9848077530122081
100
AcDbArc
 50
90.0
 51
180.0
  0
ARC
  5
109
100
AcDbEntity
  8
L1_120
  6
CONTINUOUS
 62
         7
100
AcDbCircle
 10
1422.9508425579
 20
-324.7910807767
 30
58.7223649554
 40
0.4
210
0.0
220
-0.1736481776669303
230
0.9848077530122081
100
AcDbArc
 50
0.0
 51
90.0
  0
ARC
  5
10A
100
AcDbEntity
  8
L1_120
  6
CONTINUOUS
 62
         7
100
AcDbCircle
 10
1422.9508425579
 20
-341.2710807767
 30
58.7223649554
 40
0.4
210
0.0
220
-0.1736481776669303
230
0.9848077530122081
100
AcDbArc
 50
270.0
 51
360.0
  0
ARC
  5
10B
100
AcDbEntity
  8
L1_120
  6
CONTINUOUS
 62
         7
100
AcDbCircle
 10
1420.5508425579
 20
-341.2710807767
 30
58.7223649554
 40
0.4
210
0.0
220
-0.1736481776669303
230
0.9848077530122081
100
AcDbArc
 50
180.0
 51
270.0
  0
LINE
  5
10C
100
AcDbEntity
  8
L1_120
  6
CONTINUOUS
 62
         7
100
AcDbLine
 10
1420.1508425579
 20
-331.9150927741
 30
1.1026659282
 11
1383.6008425579
 21
-331.9150927741
 31
1.1026659282
  0
LINE
  5
10D
100
AcDbEntity
  8
L1_120
  6
CONTINUOUS
 62
         7
100
AcDbLine
 10
1423.3508425579
 20
-344.4221512374
 30
-1.1026659282
 11
1427.1008425579
 21
-344.4221512374
 31
-1.1026659282
  0
ARC
  5
10E
100
AcDbEntity
  8
L1_120
  6
CONTINUOUS
 62
         7
100
AcDbCircle
 10
1427.1008425579
 20
-344.5754753855
 30
58.7223649554
 40
1.5
210
0.0
220
-0.1736481776669303
230
0.9848077530122081
100
AcDbArc
 50
295.0
 51
360.0
  0
ARC
  5
10F
100
AcDbEntity
  8
L1_120
  6
CONTINUOUS
 62
         7
100
AcDbCircle
 10
1427.1008425579
 20
-321.4866861679
 30
58.7223649554
 40
1.5
210
0.0
220
-0.1736481776669303
230
0.9848077530122081
100
AcDbArc
 50
0.0
 51
65.0
  0
ARC
  5
110
100
AcDbEntity
  8
L1_120
  6
CONTINUOUS
 62
         7
100
AcDbCircle
 10
1417.43491863
 20
-348.5310807767
 30
58.7223649554
 40
2.0
210
0.0
220
-0.1736481776669303
230
0.9848077530122081
100
AcDbArc
 50
270.0
 51
295.0
  0
ARC
  5
111
100
AcDbEntity
  8
L1_120
  6
CONTINUOUS
 62
         7
100
AcDbCircle
 10
1417.43491863
 20
-317.5310807767
 30
58.7223649554
 40
2.0
210
0.0
220
-0.1736481776669303
230
0.9848077530122081
100
AcDbArc
 50
65.0
 51
90.0
  0
LINE
  5
112
100
AcDbEntity
  8
L1_120
  6
CONTINUOUS
 62
         7
100
AcDbLine
 10
1428.6008425579
 20
-349.5376313203
 30
-2.0046630861
 11
1428.6008425579
 21
-326.7996126912
 31
2.0046630861
  0
LINE
  5
113
100
AcDbEntity
  8
L1_120
  6
CONTINUOUS
 62
         7
100
AcDbLine
 10
1418.2801551535
 20
-355.218220048
 30
-3.0063041451
 11
1427.7347699505
 21
-350.8764397233
 31
-2.2407311295
  0
LINE
  5
114
100
AcDbEntity
  8
L1_120
  6
CONTINUOUS
 62
         7
100
AcDbLine
 10
1427.7347699505
 20
-325.4608042883
 30
2.2407311295
 11
1418.2801551535
 21
-321.1190239635
 31
3.0063041451
  0
LINE
  5
115
100
AcDbEntity
  8
L1_120
  6
CONTINUOUS
 62
         7
100
AcDbLine
 10
1417.43491863
 20
-320.9344863281
 30
3.0388431092
 11
1404.2508425579
 21
-320.9344863281
 31
3.0388431092
  0
LINE
  5
116
100
AcDbEntity
  8
L1_120
  6
CONTINUOUS
 62
         7
100
AcDbLine
 10
1417.43491863
 20
-355.4027576835
 30
-3.0388431092
 11
1398.2488425579
 21
-355.4027576835
 31
-3.0388431092
  0
LINE
  5
117
100
AcDbEntity
  8
L1_120
  6
CONTINUOUS
 62
         7
100
AcDbLine
 10
1363.6008425579
 20
-329.9454772681
 30
1.4499622835
 11
1363.6008425579
 21
-346.3917667434
 31
-1.4499622835
  0
LINE
  5
118
100
AcDbEntity
  8
L1_120
  6
CONTINUOUS
 62
         7
100
AcDbLine
 10
1383.6008425579
 20
-346.3917667434
 30
-1.4499622835
 11
1363.6008425579
 21
-346.3917667434
 31
-1.4499622835
  0
LINE
  5
119
100
AcDbEntity
  8
L1_120
  6
CONTINUOUS
 62
         7
100
AcDbLine
 10
1383.6008425579
 20
-329.9454772681
 30
1.4499622835
 11
1363.6008425579
 21
-329.9454772681
 31
1.4499622835
  0
LINE
  5
11A
100
AcDbEntity
  8
L1_120
  6
CONTINUOUS
 62
         7
100
AcDbLine
 10
1383.6008425579
 20
-329.9454772681
 30
1.4499622835
 11
1383.6008425579
 21
-346.3917667434
 31
-1.4499622835
  0
ARC
  5
11B
100
AcDbEntity
  8
L1_120
  6
CONTINUOUS
 62
         7
100
AcDbCircle
 10
1404.2508425579
 20
-351.5310807767
 30
58.7223649554
 40
1.0
210
0.0
220
-0.1736481776669303
230
0.9848077530122081
100
AcDbArc
 50
90.0
 51
180.0
  0
LINE
  5
11C
100
AcDbEntity
  8
L1_120
  6
CONTINUOUS
 62
         7
100
AcDbLine
 10
1386.5508425579
 20
-316.1089283383
 30
3.8897191797
 11
1385.3508425579
 21
-316.1089283383
 31
3.8897191797
  0
ARC
  5
11D
100
AcDbEntity
  8
L1_120
  6
CONTINUOUS
 62
         7
100
AcDbCircle
 10
1386.5508425579
 20
-309.8310807767
 30
58.7223649554
 40
0.8
210
0.0
220
-0.1736481776669303
230
0.9848077530122081
100
AcDbArc
 50
269.9999999999
 51
360.0
  0
LINE
  5
11E
100
AcDbEntity
  8
L1_120
  6
CONTINUOUS
 62
         7
100
AcDbLine
 10
1402.7508425579
 20
-306.8763556538
 30
5.5176708454
 11
1403.2508425579
 21
-307.3687595303
 31
5.4308467565
  0
LINE
  5
11F
100
AcDbEntity
  8
L1_120
  6
CONTINUOUS
 62
         7
100
AcDbLine
 10
1387.3508425579
 20
-307.3687595303
 30
5.4308467565
 11
1387.8508425579
 21
-306.8763556538
 31
5.5176708454
  0
LINE
  5
120
100
AcDbEntity
  8
L1_120
  6
CONTINUOUS
 62
         7
100
AcDbLine
 10
1387.8508425579
 20
-306.8763556538
 30
5.5176708454
 11
1389.3508425579
 21
-306.8763556538
 31
5.5176708454
  0
LINE
  5
121
100
AcDbEntity
  8
L1_120
  6
CONTINUOUS
 62
         7
100
AcDbLine
 10
1387.3508425579
 20
-307.3687595303
 30
5.4308467565
 11
1387.3508425579
 21
-308.8459711598
 31
5.17037449
  0
LINE
  5
122
100
AcDbEntity
  8
L1_120
  6
CONTINUOUS
 62
         7
100
AcDbLine
 10
1401.2508425579
 20
-306.8763556538
 30
5.5176708454
 11
1402.7508425579
 21
-306.8763556538
 31
5.5176708454
  0
LINE
  5
123
100
AcDbEntity
  8
L1_120
  6
CONTINUOUS
 62
         7
100
AcDbLine
 10
1403.2508425579
 20
-307.3687595303
 30
5.4308467565
 11
1403.2508425579
 21
-319.949678575
 31
3.2124912868
  0
LINE
  5
124
100
AcDbEntity
  8
L1_120
  6
CONTINUOUS
 62
         7
100
AcDbLine
 10
1387.3508425579
 20
-315.3210821359
 30
4.0286377219
 11
1387.3508425579
 21
-307.8611634066
 31
5.3440226677
  0
LINE
  5
125
100
AcDbEntity
  8
L1_120
  6
CONTINUOUS
 62
         7
100
AcDbLine
 10
1388.3508425579
 20
-306.8763556536
 30
5.5176708454
 11
1391.7145721591
 21
-306.8763556536
 31
5.5176708454
  0
LINE
  5
126
100
AcDbEntity
  8
L1_120
  6
CONTINUOUS
 62
         7
100
AcDbLine
 10
1393.3758425579
 20
-309.7100461462
 30
5.0180147566
 11
1391.7145721591
 21
-306.8763556538
 31
5.5176708454
  0
ARC
  5
127
100
AcDbEntity
  8
L1_120
  6
CONTINUOUS
 62
         7
100
AcDbCircle
 10
1394.3496428896
 20
-303.9060807766
 30
58.7223649554
 40
1.0
210
0.0
220
-0.1736481776669303
230
0.9848077530122081
100
AcDbArc
 50
193.1443256895
 51
270.0
  0
LINE
  5
128
100
AcDbEntity
  8
L1_120
  6
CONTINUOUS
 62
         7
100
AcDbLine
 10
1394.3496428896
 20
-310.4709039521
 30
4.8838549969
 11
1396.1520422261
 21
-310.4709039521
 31
4.8838549969
  0
ARC
  5
129
100
AcDbEntity
  8
L1_120
  6
CONTINUOUS
 62
         7
100
AcDbCircle
 10
1396.1520422261
 20
-303.9060807766
 30
58.7223649554
 40
1.0
210
0.0
220
-0.1736481776669303
230
0.9848077530122081
100
AcDbArc
 50
270.0
 51
346.8556743105
  0
LINE
  5
12A
100
AcDbEntity
  8
L1_120
  6
CONTINUOUS
 62
         7
100
AcDbLine
 10
1397.1258425579
 20
-309.710046146
 30
5.0180147566
 11
1398.7871129567
 21
-306.8763556536
 31
5.5176708454
  0
LINE
  5
12B
100
AcDbEntity
  8
L1_120
  6
CONTINUOUS
 62
         7
100
AcDbLine
 10
1398.7871129567
 20
-306.8763556536
 30
5.5176708454
 11
1402.2508425579
 21
-306.8763556536
 31
5.5176708454
  0
LINE
  5
12C
100
AcDbEntity
  8
L1_120
  6
CENTER
 62
         1
100
AcDbLine
 10
1386.6402119025
 20
-311.0887832268
 30
4.77490621
 11
1397.0008394398
 21
-318.2331592134
 31
3.5151599632
  0
LINE
  5
12D
100
AcDbEntity
  8
L1_120
  6
CONTINUOUS
 62
         4
100
AcDbLine
 10
1387.3508425579
 20
-313.9832692338
 30
4.2645302316
 11
1391.0370267572
 21
-316.5251505804
 31
3.8163279685
  0
LINE
  5
12E
100
AcDbEntity
  8
L1_120
  6
CONTINUOUS
 62
         7
100
AcDbLine
 10
1387.5515943106
 20
-313.7009216844
 30
4.3143157225
 11
1391.6661127722
 21
-316.5381694078
 31
3.814032398
  0
LINE
  5
12F
100
AcDbEntity
  8
L1_120
  6
CONTINUOUS
 62
         7
100
AcDbLine
 10
1387.3508425579
 20
-313.9832692338
 30
4.2645302316
 11
1389.6738271251
 21
-310.7161047332
 31
4.8406194835
  0
LINE
  5
130
100
AcDbEntity
  8
L1_120
  6
CONTINUOUS
 62
         7
100
AcDbLine
 10
1387.3508425579
 20
-309.1142447011
 30
5.1230706265
 11
1389.6738271251
 21
-310.7161047332
 31
4.8406194835
  0
INSERT
  5
137
100
AcDbEntity
  8
0
  6
CONTINUOUS
100
AcDbBlockReference
  2
*X5
 10
0.0
 20
0.0
 30
0.0
  0
LINE
  5
138
100
AcDbEntity
  8
L1_120
  6
CONTINUOUS
 62
         4
100
AcDbLine
 10
1391.6661127722
 20
-316.5381694078
 30
3.814032398
 11
1395.3335387313
 21
-319.0671156383
 31
3.3681109448
  0
LINE
  5
139
100
AcDbEntity
  8
L1_120
  6
CONTINUOUS
 62
         7
100
AcDbLine
 10
1391.0370267572
 20
-316.5251505804
 30
3.8163279685
 11
1393.3313325026
 21
-313.298321444
 31
4.3853050074
  0
LINE
  5
13A
100
AcDbEntity
  8
L1_120
  6
CONTINUOUS
 62
         7
100
AcDbLine
 10
1389.4443965506
 20
-311.0387876468
 30
4.7837217796
 11
1394.7624579717
 21
-314.705962263
 31
4.1370999518
  0
LINE
  5
13B
100
AcDbEntity
  8
L1_120
  6
CONTINUOUS
 62
         4
100
AcDbLine
 10
1389.6451483033
 20
-310.7564400974
 30
4.8335072705
 11
1393.3313325026
 21
-313.298321444
 31
4.3853050074
  0
LINE
  5
13C
100
AcDbEntity
  8
L1_120
  6
CONTINUOUS
 62
         4
100
AcDbLine
 10
1397.2263409713
 20
-316.4049816007
 30
3.8375170018
 11
1395.3335387313
 21
-319.0671156383
 31
3.3681109448
  0
LINE
  5
13D
100
AcDbEntity
  8
L1_120
  6
CONTINUOUS
 62
         4
100
AcDbLine
 10
1397.0602869792
 20
-318.2741524421
 30
3.507931751
 11
1395.3335387313
 21
-319.0671156383
 31
3.3681109448
  0
LINE
  5
13E
100
AcDbEntity
  8
L1_120
  6
CONTINUOUS
 62
         7
100
AcDbLine
 10
1397.2263409713
 20
-316.4049816007
 30
3.8375170018
 11
1397.0602869792
 21
-318.2741524421
 31
3.507931751
  0
LINE
  5
13F
100
AcDbEntity
  8
L1_120
  6
CONTINUOUS
 62
         4
100
AcDbLine
 10
1394.7624579717
 20
-314.705962263
 30
4.1370999518
 11
1397.2263409713
 21
-316.4049816007
 31
3.8375170018
  0
LINE
  5
140
100
AcDbEntity
  8
L1_120
  6
CONTINUOUS
 62
         7
100
AcDbLine
 10
1398.4507056739
 20
-316.7170274433
 30
3.7824949006
 11
1398.0972323276
 21
-316.5240706378
 31
3.8165183915
  0
LINE
  5
141
100
AcDbEntity
  8
L1_120
  6
CONTINUOUS
 62
         7
100
AcDbLine
 10
1396.3905533743
 20
-313.3404474299
 30
4.3778770595
 11
1396.3976066804
 21
-313.7383921267
 31
4.3077086726
  0
LINE
  5
142
100
AcDbEntity
  8
L1_120
  6
CONTINUOUS
 62
         7
100
AcDbLine
 10
1398.4507056739
 20
-316.7170274433
 30
3.7824949006
 11
1396.3905533743
 21
-313.3404474299
 31
4.3778770595
  0
LINE
  5
143
100
AcDbEntity
  8
L1_120
  6
CONTINUOUS
 62
         7
100
AcDbLine
 10
1398.0972323276
 20
-316.5240706378
 30
3.8165183915
 11
1396.3976066804
 21
-313.7383921267
 31
4.3077086726
  0
LINE
  5
144
100
AcDbEntity
  8
L1_120
  6
CONTINUOUS
 62
         7
100
AcDbLine
 10
1398.0972323276
 20
-316.5240706378
 30
3.8165183915
 11
1397.1668526442
 21
-317.074606251
 31
3.7194441091
  0
LINE
  5
145
100
AcDbEntity
  8
L1_120
  6
CONTINUOUS
 62
         7
100
AcDbLine
 10
1396.3976066804
 20
-313.7383921267
 30
4.3077086726
 11
1394.7624579717
 21
-314.705962263
 31
4.1370999518
  0
LINE
  5
146
100
AcDbEntity
  8
L1_120
  6
CENTER
 62
         1
100
AcDbLine
 10
1404.9651771593
 20
-310.5643856959
 30
4.8673716433
 11
1372.212030212
 21
-329.9454772681
 31
1.4499622835
  0
LINE
  5
147
100
AcDbEntity
  8
L1_120
  6
CONTINUOUS
 62
         7
100
AcDbLine
 10
1403.2581783196
 20
-313.872291097
 30
4.2840986714
 11
1398.4507056739
 21
-316.7170274433
 31
3.7824949006
  0
LINE
  5
148
100
AcDbEntity
  8
L1_120
  6
CONTINUOUS
 62
         7
100
AcDbLine
 10
1403.2508425579
 20
-309.2809934454
 30
5.0936683239
 11
1396.3905533743
 21
-313.3404474299
 31
4.3778770595
  0
LINE
  5
149
100
AcDbEntity
  8
L1_120
  6
CONTINUOUS
 62
         7
100
AcDbLine
 10
1394.6251354716
 20
-318.5786221354
 30
3.4542455292
 11
1375.4156768556
 21
-329.9454772681
 31
1.4499622835
  0
LINE
  5
14A
100
AcDbEntity
  8
L1_120
  6
CONTINUOUS
 62
         7
100
AcDbLine
 10
1391.6661127722
 20
-316.5381694078
 30
3.814032398
 11
1369.0083835684
 21
-329.9454772681
 31
1.4499622835
  0
ARC
  5
14B
100
AcDbEntity
  8
L1_120
  6
CONTINUOUS
 62
         7
100
AcDbCircle
 10
1404.2508425579
 20
-314.5310807767
 30
58.7223649554
 40
1.0
210
0.0
220
-0.1736481776669303
230
0.9848077530122081
100
AcDbArc
 50
180.0
 51
270.0
  0
LINE
  5
14C
100
AcDbEntity
  8
L1_120
  6
CONTINUOUS
 62
         7
100
AcDbLine
 10
1398.2488425579
 20
-362.7888158311
 30
-4.3412044417
 11
1398.2488425579
 21
-355.4027576835
 31
-3.0388431092
  0
LINE
  5
14D
100
AcDbEntity
  8
L1_120
  6
CONTINUOUS
 62
         7
100
AcDbLine
 10
1403.2508425579
 20
-362.7888158311
 30
-4.3412044417
 11
1387.3508425579
 21
-362.7888158311
 31
-4.3412044417
  0
DIMENSION
  5
150
100
AcDbEntity
  8
L1_120
  6
CONTINUOUS
 62
         4
100
AcDbDimension
  2
*D6
 10
1384.1508425579
 20
-170.89890835
 30
-30.1340885157
 11
1399.221722771
 21
-171.5102994809
 31
0.0
210
0.0
220
-0.1736481776669303
230
0.9848077530122081
  3
DIMSTYLE1
100
AcDbAlignedDimension
 13
1384.1508425579
 23
-195.626125203
 33
-34.4941640047
 14
1428.6008425579
 24
-217.5134775137
 34
-38.3534947534
100
AcDbRotatedDimension
  0
DIMENSION
  5
15E
100
AcDbEntity
  8
L1_120
  6
CONTINUOUS
 62
         4
100
AcDbDimension
  2
*D7
 10
1315.9008425579
 20
-160.8190995994
 30
-28.3567462726
 11
1368.1628630389
 21
-161.2749934328
 31
0.0
210
0.0
220
-0.1736481776669303
230
0.9848077530122081
  3
DIMSTYLE1
100
AcDbAlignedDimension
 13
1315.9008425579
 23
-206.4499682606
 33
-36.4026995708
 14
1428.6008425579
 24
-217.5134775137
 34
-38.3534947534
100
AcDbRotatedDimension
  0
LINE
  5
16A
100
AcDbEntity
  8
L1_120
  6
CONTINUOUS
 62
         7
100
AcDbLine
 10
1385.3508425579
 20
-202.2165397757
 30
3.8897191797
 11
1385.3508425579
 21
-246.3359271107
 31
-3.8897191797
  0
ARC
  5
16B
100
AcDbEntity
  8
L1_120
  6
CONTINUOUS
 62
         7
100
AcDbCircle
 10
1386.5508425579
 20
-244.0689735113
 30
38.9451592314
 40
0.8
210
0.0
220
-0.1736481776669303
230
0.9848077530122081
100
AcDbArc
 50
0.0
 51
90.0000000001
  0
LINE
  5
16C
100
AcDbEntity
  8
L1_120
  6
CONTINUOUS
 62
         7
100
AcDbLine
 10
1386.5508425579
 20
-246.3359271107
 30
-3.8897191797
 11
1385.3508425579
 21
-246.3359271107
 31
-3.8897191797
  0
LINE
  5
16D
100
AcDbEntity
  8
L1_120
  6
CONTINUOUS
 62
         7
100
AcDbLine
 10
1386.5508425579
 20
-202.2165397757
 30
3.8897191797
 11
1385.3508425579
 21
-202.2165397757
 31
3.8897191797
  0
ARC
  5
16E
100
AcDbEntity
  8
L1_120
  6
CONTINUOUS
 62
         7
100
AcDbCircle
 10
1386.5508425579
 20
-197.6689735113
 30
38.9451592314
 40
0.8
210
0.0
220
-0.1736481776669303
230
0.9848077530122081
100
AcDbArc
 50
269.9999999999
 51
360.0
  0
LINE
  5
16F
100
AcDbEntity
  8
L1_120
  6
CONTINUOUS
 62
         4
100
AcDbLine
 10
1402.7508425579
 20
-255.5684997952
 30
-5.5176708454
 11
1402.7508425579
 21
-232.9917820574
 31
-1.5367863724
  0
LINE
  5
170
100
AcDbEntity
  8
L1_120
  6
CONTINUOUS
 62
         4
100
AcDbLine
 10
1387.8508425579
 20
-255.5684997952
 30
-5.5176708454
 11
1387.8508425579
 21
-232.9917820574
 31
-1.5367863724
  0
LINE
  5
171
100
AcDbEntity
  8
L1_120
  6
CONTINUOUS
 62
         4
100
AcDbLine
 10
1402.7508425579
 20
-215.5606848291
 30
1.5367863724
 11
1402.7508425579
 21
-192.9839670913
 31
5.5176708454
  0
LINE
  5
172
100
AcDbEntity
  8
L1_120
  6
CONTINUOUS
 62
         4
100
AcDbLine
 10
1387.8508425579
 20
-215.5606848291
 30
1.5367863724
 11
1387.8508425579
 21
-192.9839670913
 31
5.5176708454
  0
LINE
  5
173
100
AcDbEntity
  8
L1_120
  6
CONTINUOUS
 62
         7
100
AcDbLine
 10
1387.3508425579
 20
-255.0760959187
 30
-5.4308467565
 11
1387.8508425579
 21
-255.5684997952
 31
-5.5176708454
  0
LINE
  5
174
100
AcDbEntity
  8
L1_120
  6
CONTINUOUS
 62
         7
100
AcDbLine
 10
1403.2508425579
 20
-255.0760959187
 30
-5.4308467565
 11
1402.7508425579
 21
-255.5684997952
 31
-5.5176708454
  0
LINE
  5
175
100
AcDbEntity
  8
L1_120
  6
CONTINUOUS
 62
         7
100
AcDbLine
 10
1387.8508425579
 20
-255.5684997952
 30
-5.5176708454
 11
1389.3508425579
 21
-255.5684997952
 31
-5.5176708454
  0
LINE
  5
176
100
AcDbEntity
  8
L1_120
  6
CONTINUOUS
 62
         7
100
AcDbLine
 10
1401.2508425579
 20
-255.5684997952
 30
-5.5176708454
 11
1402.7508425579
 21
-255.5684997952
 31
-5.5176708454
  0
LINE
  5
177
100
AcDbEntity
  8
L1_120
  6
CONTINUOUS
 62
         7
100
AcDbLine
 10
1387.3508425579
 20
-253.5988842892
 30
-5.17037449
 11
1387.3508425579
 21
-255.0760959187
 31
-5.4308467565
  0
LINE
  5
178
100
AcDbEntity
  8
L1_120
  6
CONTINUOUS
 62
         7
100
AcDbLine
 10
1403.2508425579
 20
-253.5988842892
 30
-5.17037449
 11
1403.2508425579
 21
-255.0760959187
 31
-5.4308467565
  0
LINE
  5
179
100
AcDbEntity
  8
L1_120
  6
CONTINUOUS
 62
         7
100
AcDbLine
 10
1402.7508425579
 20
-192.9839670913
 30
5.5176708454
 11
1403.2508425579
 21
-193.4763709678
 31
5.4308467565
  0
LINE
  5
17A
100
AcDbEntity
  8
L1_120
  6
CONTINUOUS
 62
         7
100
AcDbLine
 10
1387.8508425579
 20
-192.9839670913
 30
5.5176708454
 11
1387.3508425579
 21
-193.4763709678
 31
5.4308467565
  0
LINE
  5
17B
100
AcDbEntity
  8
L1_120
  6
CONTINUOUS
 62
         7
100
AcDbLine
 10
1403.2508425579
 20
-193.4763709678
 30
5.4308467565
 11
1403.2508425579
 21
-194.9535825973
 31
5.17037449
  0
LINE
  5
17C
100
AcDbEntity
  8
L1_120
  6
CONTINUOUS
 62
         7
100
AcDbLine
 10
1401.2508425579
 20
-192.9839670913
 30
5.5176708454
 11
1402.7508425579
 21
-192.9839670913
 31
5.5176708454
  0
LINE
  5
17D
100
AcDbEntity
  8
L1_120
  6
CONTINUOUS
 62
         7
100
AcDbLine
 10
1387.3508425579
 20
-193.4763709678
 30
5.4308467565
 11
1387.3508425579
 21
-194.9535825973
 31
5.17037449
  0
LINE
  5
17E
100
AcDbEntity
  8
L1_120
  6
CONTINUOUS
 62
         7
100
AcDbLine
 10
1387.8508425579
 20
-192.9839670913
 30
5.5176708454
 11
1389.3508425579
 21
-192.9839670913
 31
5.5176708454
  0
LINE
  5
17F
100
AcDbEntity
  8
L1_120
  6
CONTINUOUS
 62
         7
100
AcDbLine
 10
1403.2508425579
 20
-246.7150780956
 30
-3.9565737281
 11
1403.2508425579
 21
-254.5836920422
 31
-5.3440226677
  0
LINE
  5
180
100
AcDbEntity
  8
L1_120
  6
CONTINUOUS
 62
         7
100
AcDbLine
 10
1403.2508425579
 20
-193.9687748443
 30
5.3440226677
 11
1403.2508425579
 21
-201.8373887908
 31
3.9565737281
  0
LINE
  5
181
100
AcDbEntity
  8
L1_120
  6
CONTINUOUS
 62
         7
100
AcDbLine
 10
1391.7145721591
 20
-192.9839670913
 30
5.5176708454
 11
1391.7145721591
 21
-215.5606848291
 31
1.5367863724
  0
LINE
  5
182
100
AcDbEntity
  8
L1_120
  6
CONTINUOUS
 62
         7
100
AcDbLine
 10
1393.3758425579
 20
-195.8176575836
 30
5.0180147566
 11
1393.3758425579
 21
-216.3485310315
 31
1.3978678302
  0
LINE
  5
183
100
AcDbEntity
  8
L1_120
  6
CONTINUOUS
 62
         7
100
AcDbLine
 10
1397.1258425579
 20
-195.8176575836
 30
5.0180147566
 11
1397.1258425579
 21
-216.3485310315
 31
1.3978678302
  0
LINE
  5
184
100
AcDbEntity
  8
L1_120
  6
CONTINUOUS
 62
         7
100
AcDbLine
 10
1398.7871129567
 20
-192.9839670913
 30
5.5176708454
 11
1398.7871129567
 21
-215.5606848291
 31
1.5367863724
  0
LINE
  5
185
100
AcDbEntity
  8
L1_120
  6
CONTINUOUS
 62
         7
100
AcDbLine
 10
1402.4508425579
 20
-216.3485310315
 30
1.3978678302
 11
1388.1508425579
 21
-216.3485310315
 31
1.3978678302
  0
LINE
  5
186
100
AcDbEntity
  8
L1_120
  6
CONTINUOUS
 62
         7
100
AcDbLine
 10
1402.4508425579
 20
-232.203935855
 30
-1.3978678302
 11
1388.1508425579
 21
-232.203935855
 31
-1.3978678302
  0
LINE
  5
187
100
AcDbEntity
  8
L1_120
  6
CONTINUOUS
 62
         7
100
AcDbLine
 10
1391.7145721591
 20
-215.5606848291
 30
1.5367863724
 11
1393.3758425579
 21
-216.3485310315
 31
1.3978678302
  0
LINE
  5
188
100
AcDbEntity
  8
L1_120
  6
CONTINUOUS
 62
         7
100
AcDbLine
 10
1391.7145721591
 20
-232.9917820574
 30
-1.5367863724
 11
1393.3758425579
 21
-232.203935855
 31
-1.3978678302
  0
LINE
  5
189
100
AcDbEntity
  8
L1_120
  6
CONTINUOUS
 62
         7
100
AcDbLine
 10
1388.1508425579
 20
-216.3485310315
 30
1.3978678302
 11
1388.1508425579
 21
-232.203935855
 31
-1.3978678302
  0
LINE
  5
18A
100
AcDbEntity
  8
L1_120
  6
CONTINUOUS
 62
         7
100
AcDbLine
 10
1391.7145721591
 20
-232.9917820574
 30
-1.5367863724
 11
1387.3508425579
 21
-232.9917820574
 31
-1.5367863724
  0
LINE
  5
18B
100
AcDbEntity
  8
L1_120
  6
CONTINUOUS
 62
         7
100
AcDbLine
 10
1388.1508425579
 20
-232.203935855
 30
-1.3978678302
 11
1387.3508425579
 21
-232.9917820574
 31
-1.5367863724
  0
LINE
  5
18C
100
AcDbEntity
  8
L1_120
  6
CONTINUOUS
 62
         7
100
AcDbLine
 10
1387.3508425579
 20
-215.5606848291
 30
1.5367863724
 11
1388.1508425579
 21
-216.3485310315
 31
1.3978678302
  0
LINE
  5
18D
100
AcDbEntity
  8
L1_120
  6
CONTINUOUS
 62
         7
100
AcDbLine
 10
1391.7145721591
 20
-215.5606848291
 30
1.5367863724
 11
1387.3508425579
 21
-215.5606848291
 31
1.5367863724
  0
LINE
  5
18E
100
AcDbEntity
  8
L1_120
  6
CONTINUOUS
 62
         7
100
AcDbLine
 10
1402.4508425579
 20
-216.3485310315
 30
1.3978678302
 11
1402.4508425579
 21
-217.5407315477
 31
1.1876507128
  0
LINE
  5
18F
100
AcDbEntity
  8
L1_120
  6
CONTINUOUS
 62
         7
100
AcDbLine
 10
1403.2508425579
 20
-232.9917820574
 30
-1.5367863724
 11
1398.7871129567
 21
-232.9917820574
 31
-1.5367863724
  0
LINE
  5
190
100
AcDbEntity
  8
L1_120
  6
CONTINUOUS
 62
         7
100
AcDbLine
 10
1402.4508425579
 20
-232.203935855
 30
-1.3978678302
 11
1403.2508425579
 21
-232.9917820574
 31
-1.5367863724
  0
LINE
  5
191
100
AcDbEntity
  8
L1_120
  6
CONTINUOUS
 62
         7
100
AcDbLine
 10
1397.1258425579
 20
-232.203935855
 30
-1.3978678302
 11
1398.7871129567
 21
-232.9917820574
 31
-1.5367863724
  0
LINE
  5
192
100
AcDbEntity
  8
L1_120
  6
CONTINUOUS
 62
         7
100
AcDbLine
 10
1403.2508425579
 20
-215.5606848291
 30
1.5367863724
 11
1402.4508425579
 21
-216.3485310315
 31
1.3978678302
  0
LINE
  5
193
100
AcDbEntity
  8
L1_120
  6
CONTINUOUS
 62
         7
100
AcDbLine
 10
1397.1258425579
 20
-216.3485310315
 30
1.3978678302
 11
1398.7871129567
 21
-215.5606848291
 31
1.5367863724
  0
LINE
  5
194
100
AcDbEntity
  8
L1_120
  6
CONTINUOUS
 62
         7
100
AcDbLine
 10
1403.2508425579
 20
-215.5606848291
 30
1.5367863724
 11
1398.7871129567
 21
-215.5606848291
 31
1.5367863724
  0
LINE
  5
195
100
AcDbEntity
  8
L1_120
  6
CONTINUOUS
 62
         7
100
AcDbLine
 10
1391.7145721591
 20
-232.9917820574
 30
-1.5367863724
 11
1391.7145721591
 21
-255.5684997952
 31
-5.5176708454
  0
LINE
  5
196
100
AcDbEntity
  8
L1_120
  6
CONTINUOUS
 62
         7
100
AcDbLine
 10
1393.3758425579
 20
-232.203935855
 30
-1.3978678302
 11
1393.3758425579
 21
-252.7348093028
 31
-5.0180147566
  0
LINE
  5
197
100
AcDbEntity
  8
L1_120
  6
CONTINUOUS
 62
         7
100
AcDbLine
 10
1397.1258425579
 20
-232.203935855
 30
-1.3978678302
 11
1397.1258425579
 21
-252.7348093028
 31
-5.0180147566
  0
LINE
  5
198
100
AcDbEntity
  8
L1_120
  6
CONTINUOUS
 62
         7
100
AcDbLine
 10
1398.7871129567
 20
-232.9917820574
 30
-1.5367863724
 11
1398.7871129567
 21
-255.5684997952
 31
-5.5176708454
  0
LINE
  5
199
100
AcDbEntity
  8
L1_120
  6
CONTINUOUS
 62
         7
100
AcDbLine
 10
1393.3758425579
 20
-195.8176575836
 30
5.0180147566
 11
1391.7145721591
 21
-192.9839670913
 31
5.5176708454
  0
LINE
  5
19A
100
AcDbEntity
  8
L1_120
  6
CENTER
 62
         1
100
AcDbLine
 10
1390.9398372993
 20
-192.1222603074
 30
5.6696130008
 11
1399.3486718677
 21
-192.1222603074
 31
5.6696130008
  0
LINE
  5
19B
100
AcDbEntity
  8
L1_120
  6
CENTER
 62
         1
100
AcDbLine
 10
1390.9398372993
 20
-256.4302065791
 30
-5.6696130008
 11
1399.3486718677
 21
-256.4302065791
 31
-5.6696130008
  0
LINE
  5
19C
100
AcDbEntity
  8
L1_120
  6
CONTINUOUS
 62
         7
100
AcDbLine
 10
1393.3758425579
 20
-252.7348093028
 30
-5.0180147566
 11
1391.7145721591
 21
-255.5684997952
 31
-5.5176708454
  0
LINE
  5
19D
100
AcDbEntity
  8
L1_120
  6
CONTINUOUS
 62
         7
100
AcDbLine
 10
1387.3508425579
 20
-193.9687748443
 30
5.3440226677
 11
1387.3508425579
 21
-254.5836920422
 31
-5.3440226677
  0
LINE
  5
19E
100
AcDbEntity
  8
L1_120
  6
CENTER
 62
         1
100
AcDbLine
 10
1384.1508425579
 20
-202.3888811325
 30
3.8593307486
 11
1384.1508425579
 21
-246.1635857539
 31
-3.8593307486
  0
LINE
  5
19F
100
AcDbEntity
  8
L1_120
  6
CONTINUOUS
 62
         7
100
AcDbLine
 10
1388.3508425579
 20
-255.5684997952
 30
-5.5176708454
 11
1391.7145721591
 21
-255.5684997952
 31
-5.5176708454
  0
LINE
  5
1A0
100
AcDbEntity
  8
L1_120
  6
CONTINUOUS
 62
         7
100
AcDbLine
 10
1388.3508425579
 20
-192.9839670913
 30
5.5176708454
 11
1391.7145721591
 21
-192.9839670913
 31
5.5176708454
  0
LINE
  5
1A1
100
AcDbEntity
  8
L1_120
  6
CONTINUOUS
 62
         7
100
AcDbLine
 10
1403.2508425579
 20
-193.9687748443
 30
5.3440226677
 11
1403.2508425579
 21
-217.1217898138
 31
1.2615214438
  0
LINE
  5
1A2
100
AcDbEntity
  8
L1_120
  6
CONTINUOUS
 62
         7
100
AcDbLine
 10
1403.2508425579
 20
-193.9687748443
 30
5.3440226677
 11
1403.2508425579
 21
-205.564886136
 31
3.2993153757
  0
LINE
  5
1A3
100
AcDbEntity
  8
L1_120
  6
CONTINUOUS
 62
         7
100
AcDbLine
 10
1394.3496428896
 20
-251.9739514967
 30
-4.8838549969
 11
1396.1520422261
 21
-251.9739514967
 31
-4.8838549969
  0
ARC
  5
1A4
100
AcDbEntity
  8
L1_120
  6
CONTINUOUS
 62
         7
100
AcDbCircle
 10
1394.3496428896
 20
-249.9939735113
 30
38.9451592314
 40
1.0
210
0.0
220
-0.1736481776669303
230
0.9848077530122081
100
AcDbArc
 50
90.0
 51
166.8556743105
  0
LINE
  5
1A5
100
AcDbEntity
  8
L1_120
  6
CONTINUOUS
 62
         7
100
AcDbLine
 10
1397.1258425579
 20
-252.7348093028
 30
-5.0180147566
 11
1398.7871129567
 21
-255.5684997952
 31
-5.5176708454
  0
ARC
  5
1A6
100
AcDbEntity
  8
L1_120
  6
CONTINUOUS
 62
         7
100
AcDbCircle
 10
1396.1520422261
 20
-249.9939735113
 30
38.9451592314
 40
1.0
210
0.0
220
-0.1736481776669303
230
0.9848077530122081
100
AcDbArc
 50
13.1443256895
 51
90.0
  0
LINE
  5
1A7
100
AcDbEntity
  8
L1_120
  6
CONTINUOUS
 62
         7
100
AcDbLine
 10
1398.7871129567
 20
-255.5684997952
 30
-5.5176708454
 11
1402.2508425579
 21
-255.5684997952
 31
-5.5176708454
  0
LINE
  5
1A8
100
AcDbEntity
  8
L1_120
  6
CONTINUOUS
 62
         7
100
AcDbLine
 10
1397.1258425579
 20
-195.8176575836
 30
5.0180147566
 11
1398.7871129567
 21
-192.9839670913
 31
5.5176708454
  0
LINE
  5
1A9
100
AcDbEntity
  8
L1_120
  6
CONTINUOUS
 62
         7
100
AcDbLine
 10
1398.7871129567
 20
-192.9839670913
 30
5.5176708454
 11
1402.2508425579
 21
-192.9839670913
 31
5.5176708454
  0
LINE
  5
1AA
100
AcDbEntity
  8
L1_120
  6
CONTINUOUS
 62
         7
100
AcDbLine
 10
1394.3496428896
 20
-196.5785153898
 30
4.8838549969
 11
1396.1520422261
 21
-196.5785153898
 31
4.8838549969
  0
ARC
  5
1AB
100
AcDbEntity
  8
L1_120
  6
CONTINUOUS
 62
         7
100
AcDbCircle
 10
1394.3496428896
 20
-191.7439735113
 30
38.9451592314
 40
1.0
210
0.0
220
-0.1736481776669303
230
0.9848077530122081
100
AcDbArc
 50
193.1443256895
 51
270.0
  0
ARC
  5
1AC
100
AcDbEntity
  8
L1_120
  6
CONTINUOUS
 62
         7
100
AcDbCircle
 10
1396.1520422261
 20
-191.7439735113
 30
38.9451592314
 40
1.0
210
0.0
220
-0.1736481776669303
230
0.9848077530122081
100
AcDbArc
 50
270.0
 51
346.8556743105
  0
LINE
  5
1AD
100
AcDbEntity
  8
L1_120
  6
CENTER
 62
         1
100
AcDbLine
 10
1395.2508425579
 20
-187.3407593659
 30
6.5127206251
 11
1395.2508425579
 21
-261.2041175582
 31
-6.51138231
  0
LINE
  5
1AE
100
AcDbEntity
  8
L1_120
  6
CENTER
 62
         1
100
AcDbLine
 10
1380.7983511394
 20
-224.2762334432
 30
0.0
 11
1403.2508425579
 21
-224.2762334432
 31
0.0
  0
CIRCLE
  5
1AF
100
AcDbEntity
  8
L1_120
  6
CONTINUOUS
 62
         7
100
AcDbCircle
 10
1395.2508425579
 20
-207.6650858079
 30
38.9451592314
 40
1.875
210
0.0
220
-0.1736481776669303
230
0.9848077530122081
  0
CIRCLE
  5
1B0
100
AcDbEntity
  8
L1_120
  6
CONTINUOUS
 62
         7
100
AcDbCircle
 10
1395.2508425579
 20
-234.0728612146
 30
38.9451592314
 40
1.875
210
0.0
220
-0.1736481776669303
230
0.9848077530122081
  0
LINE
  5
1B1
100
AcDbEntity
  8
L1_120
  6
CENTER
 62
         1
100
AcDbLine
 10
1384.1508425579
 20
-202.3888811325
 30
3.8593307486
 11
1384.1508425579
 21
-246.1635857539
 31
-3.8593307486
  0
LINE
  5
1B2
100
AcDbEntity
  8
L1_120
  6
CONTINUOUS
 62
         7
100
AcDbLine
 10
1387.3508425579
 20
-193.9687748443
 30
5.3440226677
 11
1387.3508425579
 21
-254.5836920422
 31
-5.3440226677
  0
LINE
  5
1B3
100
AcDbEntity
  8
L1_120
  6
CENTER
 62
         1
100
AcDbLine
 10
1433.4554833089
 20
-224.2762334432
 30
0.0
 11
1399.472253798
 21
-224.2762334432
 31
0.0
  0
DIMENSION
  5
1B6
100
AcDbEntity
  8
L1_120
  6
CONTINUOUS
 62
         4
100
AcDbDimension
  2
*D8
 10
1452.963197556
 20
-200.279341836
 30
-35.3146516442
 11
1449.831197556
 21
-230.5194301072
 31
0.0
210
0.0
220
-0.1736481776669303
230
0.9848077530122081
  3
DIMSTYLE1
100
AcDbAlignedDimension
 13
1417.43491863
 23
-200.279341836
 33
-35.3146516442
 14
1417.43491863
 24
-234.7476131914
 34
-41.3923378626
 50
90.0
100
AcDbRotatedDimension
  0
LINE
  5
1C2
100
AcDbEntity
  8
L1_120
  6
CONTINUOUS
 62
         4
100
AcDbLine
 10
1417.8783079553
 20
-241.4613574744
 30
-3.0302010335
 11
1417.8783079553
 21
-207.091109412
 31
3.0302010335
  0
ARC
  5
1C3
100
AcDbEntity
  8
L1_120
  6
CONTINUOUS
 62
         7
100
AcDbCircle
 10
1427.1008425579
 20
-232.41336812
 30
38.9451592314
 40
1.5
210
0.0
220
-0.1736481776669303
230
0.9848077530122081
100
AcDbArc
 50
295.0
 51
360.0
  0
ARC
  5
1C4
100
AcDbEntity
  8
L1_120
  6
CONTINUOUS
 62
         7
100
AcDbCircle
 10
1427.1008425579
 20
-209.3245789025
 30
38.9451592314
 40
1.5
210
0.0
220
-0.1736481776669303
230
0.9848077530122081
100
AcDbArc
 50
0.0
 51
65.0
  0
ARC
  5
1C5
100
AcDbEntity
  8
L1_120
  6
CONTINUOUS
 62
         7
100
AcDbCircle
 10
1417.43491863
 20
-236.3689735113
 30
38.9451592314
 40
2.0
210
0.0
220
-0.1736481776669303
230
0.9848077530122081
100
AcDbArc
 50
270.0
 51
295.0
  0
ARC
  5
1C6
100
AcDbEntity
  8
L1_120
  6
CONTINUOUS
 62
         7
100
AcDbCircle
 10
1417.43491863
 20
-205.3689735113
 30
38.9451592314
 40
2.0
210
0.0
220
-0.1736481776669303
230
0.9848077530122081
100
AcDbArc
 50
65.0
 51
90.0
  0
LINE
  5
1C7
100
AcDbEntity
  8
L1_120
  6
CONTINUOUS
 62
         7
100
AcDbLine
 10
1428.6008425579
 20
-235.6452427578
 30
-2.0046630861
 11
1428.6008425579
 21
-212.9072241287
 31
2.0046630861
  0
LINE
  5
1C8
100
AcDbEntity
  8
L1_120
  6
CONTINUOUS
 62
         7
100
AcDbLine
 10
1418.2801551535
 20
-241.3258314855
 30
-3.0063041451
 11
1427.7347699505
 21
-236.9840511607
 31
-2.2407311295
  0
LINE
  5
1C9
100
AcDbEntity
  8
L1_120
  6
CONTINUOUS
 62
         7
100
AcDbLine
 10
1427.7347699505
 20
-211.5684157257
 30
2.2407311295
 11
1418.2801551535
 21
-207.226635401
 31
3.0063041451
  0
LINE
  5
1CA
100
AcDbEntity
  8
L1_120
  6
CONTINUOUS
 62
         7
100
AcDbLine
 10
1417.43491863
 20
-241.5103691209
 30
-3.0388431092
 11
1404.2508425579
 21
-241.5103691209
 31
-3.0388431092
  0
LINE
  5
1CB
100
AcDbEntity
  8
L1_120
  6
CONTINUOUS
 62
         7
100
AcDbLine
 10
1417.43491863
 20
-207.0420977655
 30
3.0388431092
 11
1404.2508425579
 21
-207.0420977655
 31
3.0388431092
  0
DIMENSION
  5
1CE
100
AcDbEntity
  8
L1_120
  6
CONTINUOUS
 62
         4
100
AcDbDimension
  2
*D9
 10
1442.8413072361
 20
-205.2033806011
 30
-36.1828925326
 11
1440.8163072361
 21
-227.1249172637
 31
0.0
210
0.0
220
-0.1736481776669303
230
0.9848077530122081
  3
DIMSTYLE1
100
AcDbAlignedDimension
 13
1428.6008425579
 23
-205.2033806011
 33
-36.1828925326
 14
1428.6008425579
 24
-229.8235744264
 34
-40.5240969742
 50
90.0
100
AcDbRotatedDimension
  0
ARC
  5
1DA
100
AcDbEntity
  8
L1_120
  6
CONTINUOUS
 62
         7
100
AcDbCircle
 10
1404.2508425579
 20
-202.3689735113
 30
38.9451592314
 40
1.0
210
0.0
220
-0.1736481776669303
230
0.9848077530122081
100
AcDbArc
 50
180.0
 51
270.0
  0
ARC
  5
1DB
100
AcDbEntity
  8
L1_120
  6
CONTINUOUS
 62
         7
100
AcDbCircle
 10
1404.2508425579
 20
-239.3689735113
 30
38.9451592314
 40
1.0
210
0.0
220
-0.1736481776669303
230
0.9848077530122081
100
AcDbArc
 50
90.0
 51
180.0
  0
ARC
  5
1DC
100
AcDbEntity
  8
L1_120
  6
CONTINUOUS
 62
         4
100
AcDbCircle
 10
1406.6008425579
 20
-220.8689735113
 30
38.9451592314
 40
5.55
210
0.0
220
-0.1736481776669303
230
0.9848077530122081
100
AcDbArc
 50
180.0
 51
450.0
  0
LINE
  5
1DD
100
AcDbEntity
  8
L1_120
  6
CENTER
 62
         1
100
AcDbLine
 10
1406.6008425579
 20
-230.6220404263
 30
-1.1189369855
 11
1406.6008425579
 21
-217.9316342393
 31
1.1187240214
  0
CIRCLE
  5
1DE
100
AcDbEntity
  8
L1_120
  6
CONTINUOUS
 62
         7
100
AcDbCircle
 10
1406.6008425579
 20
-220.8689735113
 30
38.9451592314
 40
5.0
210
0.0
220
-0.1736481776669303
230
0.9848077530122081
  0
ARC
  5
1DF
100
AcDbEntity
  8
L1_120
  6
CONTINUOUS
 62
         7
100
AcDbCircle
 10
1406.6008425579
 20
-220.8689735113
 30
38.9451592314
 40
8.0
210
0.0
220
-0.1736481776669303
230
0.9848077530122081
100
AcDbArc
 50
114.7556948913
 51
245.2443051087
  0
LINE
  5
1E0
100
AcDbEntity
  8
L1_120
  6
CONTINUOUS
 62
         7
100
AcDbLine
 10
1403.2508425579
 20
-231.4306770727
 30
-1.2615214438
 11
1403.2508425579
 21
-254.5836920422
 31
-5.3440226677
  0
LINE
  5
1E1
100
AcDbEntity
  8
L1_120
  6
CONTINUOUS
 62
         7
100
AcDbLine
 10
1402.4508425579
 20
-231.0117353387
 30
-1.1876507128
 11
1402.4508425579
 21
-232.203935855
 31
-1.3978678302
  0
LINE
  5
1E2
100
AcDbEntity
  8
L1_120
  6
DASHED
 62
         2
100
AcDbLine
 10
1520.0308425579
 20
-229.2002722083
 30
-0.8682408883
 11
1515.7808425579
 21
-229.2002722083
 31
-0.8682408883
  0
LINE
  5
1E3
100
AcDbEntity
  8
L1_120
  6
DASHED
 62
         2
100
AcDbLine
 10
1520.0308425579
 20
-219.3521946782
 30
0.8682408883
 11
1515.7808425579
 21
-219.3521946782
 31
0.8682408883
  0
LINE
  5
1E4
100
AcDbEntity
  8
L1_120
  6
DASHED
 62
         2
100
AcDbLine
 10
1520.0308425579
 20
-219.3521946782
 30
0.8682408883
 11
1520.0308425579
 21
-229.2002722083
 31
-0.8682408883
  0
LINE
  5
1E5
100
AcDbEntity
  8
L1_120
  6
DASHED
 62
         2
100
AcDbLine
 10
1520.2308425579
 20
-219.1552331276
 30
0.9029705239
 11
1520.0308425579
 21
-219.3521946782
 31
0.8682408883
  0
LINE
  5
1E6
100
AcDbEntity
  8
L1_120
  6
DASHED
 62
         2
100
AcDbLine
 10
1520.2308425579
 20
-229.3972337589
 30
-0.9029705239
 11
1520.0308425579
 21
-229.2002722083
 31
-0.8682408883
  0
LINE
  5
1E7
100
AcDbEntity
  8
L1_120
  6
CENTER
 62
         1
100
AcDbLine
 10
1465.6558425579
 20
-224.2762334432
 30
0.0
 11
1529.2058425579
 21
-224.2762334432
 31
0.0
  0
LINE
  5
1E8
100
AcDbEntity
  8
L1_120
  6
CONTINUOUS
 62
         7
100
AcDbLine
 10
1467.1924606063
 20
-232.203935855
 30
-1.3978678302
 11
1471.9308425579
 21
-232.203935855
 31
-1.3978678302
  0
LINE
  5
1E9
100
AcDbEntity
  8
L1_120
  6
CONTINUOUS
 62
         7
100
AcDbLine
 10
1466.7983753251
 20
-232.5920340952
 30
-1.4663000211
 11
1467.1924606063
 21
-232.203935855
 31
-1.3978678302
  0
LINE
  5
1EA
100
AcDbEntity
  8
L1_120
  6
CONTINUOUS
 62
         7
100
AcDbLine
 10
1472.4308425579
 20
-231.7115319785
 30
-1.3110437414
 11
1471.9308425579
 21
-232.203935855
 31
-1.3978678302
  0
LINE
  5
1EB
100
AcDbEntity
  8
L1_120
  6
CONTINUOUS
 62
         7
100
AcDbLine
 10
1466.7983753251
 20
-215.9604327912
 30
1.4663000211
 11
1467.1924606063
 21
-216.3485310315
 31
1.3978678302
  0
LINE
  5
1EC
100
AcDbEntity
  8
L1_120
  6
CONTINUOUS
 62
         7
100
AcDbLine
 10
1472.4308425579
 20
-216.840934908
 30
1.3110437414
 11
1471.9308425579
 21
-216.3485310315
 31
1.3978678302
  0
LINE
  5
1ED
100
AcDbEntity
  8
L1_120
  6
CONTINUOUS
 62
         7
100
AcDbLine
 10
1472.4308425579
 20
-216.840934908
 30
1.3110437414
 11
1472.4308425579
 21
-231.7115319785
 31
-1.3110437414
  0
LINE
  5
1EE
100
AcDbEntity
  8
L1_120
  6
CONTINUOUS
 62
         7
100
AcDbLine
 10
1467.1924606063
 20
-216.3485310315
 30
1.3978678302
 11
1471.9308425579
 21
-216.3485310315
 31
1.3978678302
  0
LINE
  5
1EF
100
AcDbEntity
  8
L1_120
  6
CONTINUOUS
 62
         7
100
AcDbLine
 10
1528.0633097906
 20
-232.5920340952
 30
-1.4663000211
 11
1527.6692245094
 21
-232.203935855
 31
-1.3978678302
  0
LINE
  5
1F0
100
AcDbEntity
  8
L1_120
  6
CONTINUOUS
 62
         7
100
AcDbLine
 10
1520.2308425579
 20
-231.7115319785
 30
-1.3110437414
 11
1520.7308425579
 21
-232.203935855
 31
-1.3978678302
  0
LINE
  5
1F1
100
AcDbEntity
  8
L1_120
  6
CONTINUOUS
 62
         7
100
AcDbLine
 10
1520.7308425579
 20
-232.203935855
 30
-1.3978678302
 11
1527.6692245094
 21
-232.203935855
 31
-1.3978678302
  0
LINE
  5
1F2
100
AcDbEntity
  8
L1_120
  6
CONTINUOUS
 62
         7
100
AcDbLine
 10
1528.0633097906
 20
-215.9604327912
 30
1.4663000211
 11
1527.6692245094
 21
-216.3485310315
 31
1.3978678302
  0
LINE
  5
1F3
100
AcDbEntity
  8
L1_120
  6
CONTINUOUS
 62
         7
100
AcDbLine
 10
1520.7308425579
 20
-216.3485310315
 30
1.3978678302
 11
1527.6692245094
 21
-216.3485310315
 31
1.3978678302
  0
LINE
  5
1F4
100
AcDbEntity
  8
L1_120
  6
CONTINUOUS
 62
         7
100
AcDbLine
 10
1520.2308425579
 20
-216.840934908
 30
1.3110437414
 11
1520.7308425579
 21
-216.3485310315
 31
1.3978678302
  0
LINE
  5
1F5
100
AcDbEntity
  8
L1_120
  6
CONTINUOUS
 62
         7
100
AcDbLine
 10
1520.2308425579
 20
-216.840934908
 30
1.3110437414
 11
1520.2308425579
 21
-231.7115319785
 31
-1.3110437414
  0
ARC
  5
1F6
100
AcDbEntity
  8
L1_120
  6
DASHED
 62
         2
100
AcDbCircle
 10
1497.4308425579
 20
-220.8689735113
 30
38.9451592314
 40
28.125
210
0.0
220
-0.1736481776669303
230
0.9848077530122081
100
AcDbArc
 50
196.6319205355
 51
343.3680794645
  0
ARC
  5
1F7
100
AcDbEntity
  8
L1_120
  6
DASHED
 62
         2
100
AcDbCircle
 10
1497.4308425579
 20
-220.8689735113
 30
38.9451592314
 40
28.125
210
0.0
220
-0.1736481776669303
230
0.9848077530122081
100
AcDbArc
 50
16.6319205355
 51
163.3680794645
  0
LINE
  5
1F8
100
AcDbEntity
  8
L1_120
  6
CENTER
 62
         1
100
AcDbLine
 10
1497.4308425579
 20
-190.0295438322
 30
6.0386153784
 11
1497.4308425579
 21
-258.5229230542
 31
-6.0386153784
  0
ARC
  5
1F9
100
AcDbEntity
  8
L1_120
  6
CONTINUOUS
 62
         7
100
AcDbCircle
 10
1497.4308425579
 20
-220.8689735113
 30
38.9451592314
 40
31.775
210
0.0
220
-0.1736481776669303
230
0.9848077530122081
100
AcDbArc
 50
15.411296411
 51
164.588703589
  0
ARC
  5
1FA
100
AcDbEntity
  8
L1_120
  6
CONTINUOUS
 62
         7
100
AcDbCircle
 10
1497.4308425579
 20
-220.8689735113
 30
38.9451592314
 40
31.775
210
0.0
220
-0.1736481776669303
230
0.9848077530122081
100
AcDbArc
 50
195.411296411
 51
344.588703589
  0
LINE
  5
1FB
100
AcDbEntity
  8
L1_120
  6
DASHED
 62
         2
100
AcDbLine
 10
1498.3826542785
 20
-231.6025713421
 30
-1.2918310414
 11
1504.0388294051
 21
-246.9066940223
 31
-3.9903607859
  0
LINE
  5
1FC
100
AcDbEntity
  8
L1_120
  6
DASHED
 62
         2
100
AcDbLine
 10
1501.4836399271
 20
-230.491051849
 30
-1.0958401651
 11
1507.1398150537
 21
-245.7951745291
 31
-3.7943699097
  0
LINE
  5
1FD
100
AcDbEntity
  8
L1_120
  6
DASHED
 62
         2
100
AcDbLine
 10
1507.468707471
 20
-245.677286098
 30
-3.7735829986
 11
1508.905192073
 21
-249.5640357273
 31
-4.4589218255
  0
LINE
  5
1FE
100
AcDbEntity
  8
L1_120
  6
DASHED
 62
         2
100
AcDbLine
 10
1507.468707471
 20
-245.677286098
 30
-3.7735829986
 11
1503.7099369879
 21
-247.0245824534
 31
-4.0111476971
  0
LINE
  5
1FF
100
AcDbEntity
  8
L1_120
  6
DASHED
 62
         2
100
AcDbLine
 10
1503.7099369879
 20
-247.0245824534
 30
-4.0111476971
 11
1505.1464215898
 21
-250.9113320826
 31
-4.696486524
  0
LINE
  5
200
100
AcDbEntity
  8
L1_120
  6
DASHED
 62
         2
100
AcDbLine
 10
1491.1517481279
 20
-201.5278844331
 30
4.0111476971
 11
1487.3929776447
 21
-202.8751807884
 31
3.7735829986
  0
LINE
  5
201
100
AcDbEntity
  8
L1_120
  6
DASHED
 62
         2
100
AcDbLine
 10
1487.721870062
 20
-202.7572923573
 30
3.7943699097
 11
1493.3780451887
 21
-218.0614150375
 31
1.0958401651
  0
LINE
  5
202
100
AcDbEntity
  8
L1_120
  6
DASHED
 62
         2
100
AcDbLine
 10
1490.8228557106
 20
-201.6457728642
 30
3.9903607859
 11
1496.4790308373
 21
-216.9498955443
 31
1.2918310414
  0
LINE
  5
203
100
AcDbEntity
  8
L1_120
  6
DASHED
 62
         2
100
AcDbLine
 10
1487.3929776447
 20
-202.8751807884
 30
3.7735829986
 11
1485.9564930428
 21
-198.9884311591
 31
4.4589218255
  0
LINE
  5
204
100
AcDbEntity
  8
L1_120
  6
DASHED
 62
         2
100
AcDbLine
 10
1491.1517481279
 20
-201.5278844331
 30
4.0111476971
 11
1489.7152635259
 21
-197.6411348038
 31
4.696486524
  0
LINE
  5
205
100
AcDbEntity
  8
L1_120
  6
CENTER
 62
         1
100
AcDbLine
 10
1485.5370920737
 20
-192.0948719294
 30
5.6744423108
 11
1509.4717158171
 21
-256.8556705026
 31
-5.7446337699
  0
POLYLINE
  5
207
100
AcDbEntity
  8
L1_120
  6
CONTINUOUS
 62
         7
100
AcDb3dPolyline
 66
         1
 10
0.0
 20
0.0
 30
0.0
 70
         8
  0
VERTEX
  5
209
100
AcDbEntity
  8
L1_120
  6
CONTINUOUS
 62
         7
100
AcDbVertex
100
AcDb3dPolylineVertex
 10
1508.5847883578
 20
-250.3838123429
 30
-4.603470561
 70
        32
  0
VERTEX
  5
20B
100
AcDbEntity
  8
L1_120
  6
CONTINUOUS
 62
         7
100
AcDbVertex
100
AcDb3dPolylineVertex
 10
1508.5847883578
 20
-250.3838123429
 30
-4.603470561
 70
        32
  0
SEQEND
  5
20D
100
AcDbEntity
  8
L1_120
  6
CONTINUOUS
 62
         7
  0
POLYLINE
  5
20F
100
AcDbEntity
  8
L1_120
  6
CONTINUOUS
 62
         7
100
AcDb3dPolyline
 66
         1
 10
0.0
 20
0.0
 30
0.0
 70
         8
  0
VERTEX
  5
211
100
AcDbEntity
  8
L1_120
  6
CONTINUOUS
 62
         7
100
AcDbVertex
100
AcDb3dPolylineVertex
 10
1508.139222116
 20
-251.1069456687
 30
-4.730978477
 70
        32
  0
VERTEX
  5
213
100
AcDbEntity
  8
L1_120
  6
CONTINUOUS
 62
         7
100
AcDbVertex
100
AcDb3dPolylineVertex
 10
1508.139222116
 20
-251.1069456687
 30
-4.730978477
 70
        32
  0
SEQEND
  5
215
100
AcDbEntity
  8
L1_120
  6
CONTINUOUS
 62
         7
  0
POLYLINE
  5
217
100
AcDbEntity
  8
L1_120
  6
CONTINUOUS
 62
         7
100
AcDb3dPolyline
 66
         1
 10
0.0
 20
0.0
 30
0.0
 70
         8
  0
VERTEX
  5
219
100
AcDbEntity
  8
L1_120
  6
CONTINUOUS
 62
         7
100
AcDbVertex
100
AcDb3dPolylineVertex
 10
1507.5004454273
 20
-251.5219311458
 30
-4.8041516132
 70
        32
  0
VERTEX
  5
21B
100
AcDbEntity
  8
L1_120
  6
CONTINUOUS
 62
         7
100
AcDbVertex
100
AcDb3dPolylineVertex
 10
1507.5004454273
 20
-251.5219311458
 30
-4.8041516132
 70
        32
  0
SEQEND
  5
21D
100
AcDbEntity
  8
L1_120
  6
CONTINUOUS
 62
         7
  0
POLYLINE
  5
21F
100
AcDbEntity
  8
L1_120
  6
CONTINUOUS
 62
         7
100
AcDb3dPolyline
 66
         1
 10
0.0
 20
0.0
 30
0.0
 70
         8
  0
VERTEX
  5
221
100
AcDbEntity
  8
L1_120
  6
CONTINUOUS
 62
         7
100
AcDbVertex
100
AcDb3dPolylineVertex
 10
1506.7402515611
 20
-251.6083936656
 30
-4.8193972883
 70
        32
  0
VERTEX
  5
223
100
AcDbEntity
  8
L1_120
  6
CONTINUOUS
 62
         7
100
AcDbVertex
100
AcDb3dPolylineVertex
 10
1506.7402515611
 20
-251.6083936656
 30
-4.8193972883
 70
        32
  0
SEQEND
  5
225
100
AcDbEntity
  8
L1_120
  6
CONTINUOUS
 62
         7
  0
POLYLINE
  5
227
100
AcDbEntity
  8
L1_120
  6
CONTINUOUS
 62
         7
100
AcDb3dPolyline
 66
         1
 10
0.0
 20
0.0
 30
0.0
 70
         8
  0
VERTEX
  5
229
100
AcDbEntity
  8
L1_120
  6
CONTINUOUS
 62
         7
100
AcDbVertex
100
AcDb3dPolylineVertex
 10
1505.9269362602
 20
-251.336494732
 30
-4.7714541702
 70
        32
  0
VERTEX
  5
22B
100
AcDbEntity
  8
L1_120
  6
CONTINUOUS
 62
         7
100
AcDbVertex
100
AcDb3dPolylineVertex
 10
1505.9269362602
 20
-251.336494732
 30
-4.7714541702
 70
        32
  0
SEQEND
  5
22D
100
AcDbEntity
  8
L1_120
  6
CONTINUOUS
 62
         7
  0
POLYLINE
  5
22F
100
AcDbEntity
  8
L1_120
  6
CONTINUOUS
 62
         7
100
AcDb3dPolyline
 66
         1
 10
0.0
 20
0.0
 30
0.0
 70
         8
  0
VERTEX
  5
231
100
AcDbEntity
  8
L1_120
  6
CONTINUOUS
 62
         7
100
AcDbVertex
100
AcDb3dPolylineVertex
 10
1505.2607362879
 20
-250.766826731
 30
-4.6710063316
 70
        32
  0
VERTEX
  5
233
100
AcDbEntity
  8
L1_120
  6
CONTINUOUS
 62
         7
100
AcDbVertex
100
AcDb3dPolylineVertex
 10
1505.2607362879
 20
-250.766826731
 30
-4.6710063316
 70
        32
  0
SEQEND
  5
235
100
AcDbEntity
  8
L1_120
  6
CONTINUOUS
 62
         7
  0
POLYLINE
  5
237
100
AcDbEntity
  8
L1_120
  6
CONTINUOUS
 62
         7
100
AcDb3dPolyline
 66
         1
 10
0.0
 20
0.0
 30
0.0
 70
         8
  0
VERTEX
  5
239
100
AcDbEntity
  8
L1_120
  6
CONTINUOUS
 62
         7
100
AcDbVertex
100
AcDb3dPolylineVertex
 10
1504.7860011861
 20
-249.9361292376
 30
-4.5245319507
 70
        32
  0
VERTEX
  5
23B
100
AcDbEntity
  8
L1_120
  6
CONTINUOUS
 62
         7
100
AcDbVertex
100
AcDb3dPolylineVertex
 10
1504.7860011861
 20
-249.9361292376
 30
-4.5245319507
 70
        32
  0
SEQEND
  5
23D
100
AcDbEntity
  8
L1_120
  6
CONTINUOUS
 62
         7
  0
POLYLINE
  5
23F
100
AcDbEntity
  8
L1_120
  6
CONTINUOUS
 62
         7
100
AcDb3dPolyline
 66
         1
 10
0.0
 20
0.0
 30
0.0
 70
         8
  0
VERTEX
  5
241
100
AcDbEntity
  8
L1_120
  6
CONTINUOUS
 62
         7
100
AcDbVertex
100
AcDb3dPolylineVertex
 10
1504.6074700912
 20
-248.9992601701
 30
-4.3593366567
 70
        32
  0
VERTEX
  5
243
100
AcDbEntity
  8
L1_120
  6
CONTINUOUS
 62
         7
100
AcDbVertex
100
AcDb3dPolylineVertex
 10
1504.6074700912
 20
-248.9992601701
 30
-4.3593366567
 70
        32
  0
SEQEND
  5
245
100
AcDbEntity
  8
L1_120
  6
CONTINUOUS
 62
         7
  0
POLYLINE
  5
247
100
AcDbEntity
  8
L1_120
  6
CONTINUOUS
 62
         7
100
AcDb3dPolyline
 66
         1
 10
0.0
 20
0.0
 30
0.0
 70
         8
  0
VERTEX
  5
249
100
AcDbEntity
  8
L1_120
  6
CONTINUOUS
 62
         7
100
AcDbVertex
100
AcDb3dPolylineVertex
 10
1504.7459844976
 20
-248.1411497771
 30
-4.208028642
 70
        32
  0
VERTEX
  5
24B
100
AcDbEntity
  8
L1_120
  6
CONTINUOUS
 62
         7
100
AcDbVertex
100
AcDb3dPolylineVertex
 10
1504.7459844976
 20
-248.1411497771
 30
-4.208028642
 70
        32
  0
SEQEND
  5
24D
100
AcDbEntity
  8
L1_120
  6
CONTINUOUS
 62
         7
  0
POLYLINE
  5
24F
100
AcDbEntity
  8
L1_120
  6
CONTINUOUS
 62
         7
100
AcDb3dPolyline
 66
         1
 10
0.0
 20
0.0
 30
0.0
 70
         8
  0
VERTEX
  5
251
100
AcDbEntity
  8
L1_120
  6
CONTINUOUS
 62
         7
100
AcDbVertex
100
AcDb3dPolylineVertex
 10
1505.1915507393
 20
-247.4180164513
 30
-4.080520726
 70
        32
  0
VERTEX
  5
253
100
AcDbEntity
  8
L1_120
  6
CONTINUOUS
 62
         7
100
AcDbVertex
100
AcDb3dPolylineVertex
 10
1505.1915507393
 20
-247.4180164513
 30
-4.080520726
 70
        32
  0
SEQEND
  5
255
100
AcDbEntity
  8
L1_120
  6
CONTINUOUS
 62
         7
  0
POLYLINE
  5
257
100
AcDbEntity
  8
L1_120
  6
CONTINUOUS
 62
         7
100
AcDb3dPolyline
 66
         1
 10
0.0
 20
0.0
 30
0.0
 70
         8
  0
VERTEX
  5
259
100
AcDbEntity
  8
L1_120
  6
CONTINUOUS
 62
         7
100
AcDbVertex
100
AcDb3dPolylineVertex
 10
1505.830327428
 20
-247.0030309741
 30
-4.0073475898
 70
        32
  0
VERTEX
  5
25B
100
AcDbEntity
  8
L1_120
  6
CONTINUOUS
 62
         7
100
AcDbVertex
100
AcDb3dPolylineVertex
 10
1505.830327428
 20
-247.0030309741
 30
-4.0073475898
 70
        32
  0
SEQEND
  5
25D
100
AcDbEntity
  8
L1_120
  6
CONTINUOUS
 62
         7
  0
POLYLINE
  5
25F
100
AcDbEntity
  8
L1_120
  6
CONTINUOUS
 62
         7
100
AcDb3dPolyline
 66
         1
 10
0.0
 20
0.0
 30
0.0
 70
         8
  0
VERTEX
  5
261
100
AcDbEntity
  8
L1_120
  6
CONTINUOUS
 62
         7
100
AcDbVertex
100
AcDb3dPolylineVertex
 10
1506.5905212943
 20
-246.9165684543
 30
-3.9921019147
 70
        32
  0
VERTEX
  5
263
100
AcDbEntity
  8
L1_120
  6
CONTINUOUS
 62
         7
100
AcDbVertex
100
AcDb3dPolylineVertex
 10
1506.5905212943
 20
-246.9165684543
 30
-3.9921019147
 70
        32
  0
SEQEND
  5
265
100
AcDbEntity
  8
L1_120
  6
CONTINUOUS
 62
         7
  0
POLYLINE
  5
267
100
AcDbEntity
  8
L1_120
  6
CONTINUOUS
 62
         7
100
AcDb3dPolyline
 66
         1
 10
0.0
 20
0.0
 30
0.0
 70
         8
  0
VERTEX
  5
269
100
AcDbEntity
  8
L1_120
  6
CONTINUOUS
 62
         7
100
AcDbVertex
100
AcDb3dPolylineVertex
 10
1507.4038365951
 20
-247.188467388
 30
-4.0400450328
 70
        32
  0
VERTEX
  5
26B
100
AcDbEntity
  8
L1_120
  6
CONTINUOUS
 62
         7
100
AcDbVertex
100
AcDb3dPolylineVertex
 10
1507.4038365951
 20
-247.188467388
 30
-4.0400450328
 70
        32
  0
SEQEND
  5
26D
100
AcDbEntity
  8
L1_120
  6
CONTINUOUS
 62
         7
  0
POLYLINE
  5
26F
100
AcDbEntity
  8
L1_120
  6
CONTINUOUS
 62
         7
100
AcDb3dPolyline
 66
         1
 10
0.0
 20
0.0
 30
0.0
 70
         8
  0
VERTEX
  5
271
100
AcDbEntity
  8
L1_120
  6
CONTINUOUS
 62
         7
100
AcDbVertex
100
AcDb3dPolylineVertex
 10
1508.0700365675
 20
-247.7581353889
 30
-4.1404928714
 70
        32
  0
VERTEX
  5
273
100
AcDbEntity
  8
L1_120
  6
CONTINUOUS
 62
         7
100
AcDbVertex
100
AcDb3dPolylineVertex
 10
1508.0700365675
 20
-247.7581353889
 30
-4.1404928714
 70
        32
  0
SEQEND
  5
275
100
AcDbEntity
  8
L1_120
  6
CONTINUOUS
 62
         7
  0
POLYLINE
  5
277
100
AcDbEntity
  8
L1_120
  6
CONTINUOUS
 62
         7
100
AcDb3dPolyline
 66
         1
 10
0.0
 20
0.0
 30
0.0
 70
         8
  0
VERTEX
  5
279
100
AcDbEntity
  8
L1_120
  6
CONTINUOUS
 62
         7
100
AcDbVertex
100
AcDb3dPolylineVertex
 10
1508.5447716692
 20
-248.5888328823
 30
-4.2869672523
 70
        32
  0
VERTEX
  5
27B
100
AcDbEntity
  8
L1_120
  6
CONTINUOUS
 62
         7
100
AcDbVertex
100
AcDb3dPolylineVertex
 10
1508.5447716692
 20
-248.5888328823
 30
-4.2869672523
 70
        32
  0
SEQEND
  5
27D
100
AcDbEntity
  8
L1_120
  6
CONTINUOUS
 62
         7
  0
ARC
  5
27E
100
AcDbEntity
  8
L1_120
  6
CONTINUOUS
 62
         7
100
AcDbCircle
 10
1505.7517926157
 20
-246.5731952262
 30
38.9451592314
 40
2.9722262277
210
0.0
220
-0.1736481776669303
230
0.9848077530122081
100
AcDbArc
 50
1.257725858
 51
20.0
  0
ARC
  5
27F
100
AcDbEntity
  8
L1_120
  6
CONTINUOUS
 62
         7
100
AcDbCircle
 10
1506.2543548417
 20
-246.5621614807
 30
38.9451592314
 40
2.4695428935
210
0.0
220
-0.1736481776669303
230
0.9848077530122081
100
AcDbArc
 50
340.6773100904
 51
361.257725858
  0
ARC
  5
280
100
AcDbEntity
  8
L1_120
  6
CONTINUOUS
 62
         7
100
AcDbCircle
 10
1506.6237911097
 20
-246.6917004883
 30
38.9451592314
 40
2.0780540551
210
0.0
220
-0.1736481776669303
230
0.9848077530122081
100
AcDbArc
 50
316.8239621527
 51
340.6773100903
  0
ARC
  5
281
100
AcDbEntity
  8
L1_120
  6
CONTINUOUS
 62
         7
100
AcDbCircle
 10
1506.9362540243
 20
-246.984876878
 30
38.9451592314
 40
1.6495853065
210
0.0
220
-0.1736481776669303
230
0.9848077530122081
100
AcDbArc
 50
290.0
 51
316.8239621528
  0
ARC
  5
282
100
AcDbEntity
  8
L1_120
  6
CONTINUOUS
 62
         7
100
AcDbCircle
 10
1506.9362540243
 20
-246.984876878
 30
38.9451592314
 40
1.6495853065
210
0.0
220
-0.1736481776669303
230
0.9848077530122081
100
AcDbArc
 50
263.1760378472
 51
290.0
  0
ARC
  5
283
100
AcDbEntity
  8
L1_120
  6
CONTINUOUS
 62
         7
100
AcDbCircle
 10
1506.987164353
 20
-246.5594434438
 30
38.9451592314
 40
2.0780540551
210
0.0
220
-0.1736481776669303
230
0.9848077530122081
100
AcDbArc
 50
239.3226899097
 51
263.1760378472
  0
ARC
  5
284
100
AcDbEntity
  8
L1_120
  6
CONTINUOUS
 62
         7
100
AcDbCircle
 10
1507.1869028841
 20
-246.2227417512
 30
38.9451592314
 40
2.4695428935
210
0.0
220
-0.1736481776669303
230
0.9848077530122081
100
AcDbArc
 50
218.7422741419
 51
239.3226899096
  0
ARC
  5
285
100
AcDbEntity
  8
L1_120
  6
CONTINUOUS
 62
         7
100
AcDbCircle
 10
1507.5789802396
 20
-245.9081533187
 30
38.9451592314
 40
2.9722262277
210
0.0
220
-0.1736481776669303
230
0.9848077530122081
100
AcDbArc
 50
200.0
 51
218.742274142
  0
ARC
  5
286
100
AcDbEntity
  8
L1_120
  6
CONTINUOUS
 62
         7
100
AcDbCircle
 10
1507.5789802396
 20
-245.9081533187
 30
38.9451592314
 40
2.9722262277
210
0.0
220
-0.1736481776669303
230
0.9848077530122081
100
AcDbArc
 50
181.257725858
 51
200.0000000001
  0
ARC
  5
287
100
AcDbEntity
  8
L1_120
  6
CONTINUOUS
 62
         7
100
AcDbCircle
 10
1507.0764180136
 20
-245.9191870643
 30
38.9451592314
 40
2.4695428935
210
0.0
220
-0.1736481776669303
230
0.9848077530122081
100
AcDbArc
 50
160.6773100904
 51
181.257725858
  0
ARC
  5
288
100
AcDbEntity
  8
L1_120
  6
CONTINUOUS
 62
         7
100
AcDbCircle
 10
1506.7069817457
 20
-245.7896480567
 30
38.9451592314
 40
2.0780540551
210
0.0
220
-0.1736481776669303
230
0.9848077530122081
100
AcDbArc
 50
136.8239621527
 51
160.6773100903
  0
ARC
  5
289
100
AcDbEntity
  8
L1_120
  6
CONTINUOUS
 62
         7
100
AcDbCircle
 10
1506.394518831
 20
-245.4964716669
 30
38.9451592314
 40
1.6495853065
210
0.0
220
-0.1736481776669303
230
0.9848077530122081
100
AcDbArc
 50
110.0
 51
136.8239621528
  0
ARC
  5
28A
100
AcDbEntity
  8
L1_120
  6
CONTINUOUS
 62
         7
100
AcDbCircle
 10
1506.394518831
 20
-245.4964716669
 30
38.9451592314
 40
1.6495853065
210
0.0
220
-0.1736481776669303
230
0.9848077530122081
100
AcDbArc
 50
83.1760378472
 51
110.0
  0
ARC
  5
28B
100
AcDbEntity
  8
L1_120
  6
CONTINUOUS
 62
         7
100
AcDbCircle
 10
1506.3436085023
 20
-245.9219051012
 30
38.9451592314
 40
2.0780540551
210
0.0
220
-0.1736481776669303
230
0.9848077530122081
100
AcDbArc
 50
59.3226899096
 51
83.1760378472
  0
ARC
  5
28C
100
AcDbEntity
  8
L1_120
  6
CONTINUOUS
 62
         7
100
AcDbCircle
 10
1506.1438699712
 20
-246.2586067938
 30
38.9451592314
 40
2.4695428935
210
0.0
220
-0.1736481776669303
230
0.9848077530122081
100
AcDbArc
 50
38.742274142
 51
59.3226899096
  0
ARC
  5
28D
100
AcDbEntity
  8
L1_120
  6
CONTINUOUS
 62
         7
100
AcDbCircle
 10
1505.7517926157
 20
-246.5731952262
 30
38.9451592314
 40
2.9722262277
210
0.0
220
-0.1736481776669303
230
0.9848077530122081
100
AcDbArc
 50
20.0
 51
38.742274142
  0
LINE
  5
28E
100
AcDbEntity
  8
L1_120
  6
CENTER
 62
         1
100
AcDbLine
 10
1503.8463085653
 20
-250.2729533265
 30
-4.5839231253
 11
1509.48446429
 21
-248.2520087935
 31
-4.2275760777
  0
POLYLINE
  5
290
100
AcDbEntity
  8
L1_120
  6
CONTINUOUS
 62
         7
100
AcDb3dPolyline
 66
         1
 10
0.0
 20
0.0
 30
0.0
 70
         8
  0
VERTEX
  5
292
100
AcDbEntity
  8
L1_120
  6
CONTINUOUS
 62
         7
100
AcDbVertex
100
AcDb3dPolylineVertex
 10
1488.9347488555
 20
-197.2159721544
 30
4.7714541702
 70
        32
  0
VERTEX
  5
294
100
AcDbEntity
  8
L1_120
  6
CONTINUOUS
 62
         7
100
AcDbVertex
100
AcDb3dPolylineVertex
 10
1488.9347488555
 20
-197.2159721544
 30
4.7714541702
 70
        32
  0
SEQEND
  5
296
100
AcDbEntity
  8
L1_120
  6
CONTINUOUS
 62
         7
  0
POLYLINE
  5
298
100
AcDbEntity
  8
L1_120
  6
CONTINUOUS
 62
         7
100
AcDb3dPolyline
 66
         1
 10
0.0
 20
0.0
 30
0.0
 70
         8
  0
VERTEX
  5
29A
100
AcDbEntity
  8
L1_120
  6
CONTINUOUS
 62
         7
100
AcDbVertex
100
AcDb3dPolylineVertex
 10
1488.1214335547
 20
-196.9440732208
 30
4.8193972883
 70
        32
  0
VERTEX
  5
29C
100
AcDbEntity
  8
L1_120
  6
CONTINUOUS
 62
         7
100
AcDbVertex
100
AcDb3dPolylineVertex
 10
1488.1214335547
 20
-196.9440732208
 30
4.8193972883
 70
        32
  0
SEQEND
  5
29E
100
AcDbEntity
  8
L1_120
  6
CONTINUOUS
 62
         7
  0
POLYLINE
  5
2A0
100
AcDbEntity
  8
L1_120
  6
CONTINUOUS
 62
         7
100
AcDb3dPolyline
 66
         1
 10
0.0
 20
0.0
 30
0.0
 70
         8
  0
VERTEX
  5
2A2
100
AcDbEntity
  8
L1_120
  6
CONTINUOUS
 62
         7
100
AcDbVertex
100
AcDb3dPolylineVertex
 10
1487.3612396884
 20
-197.0305357406
 30
4.8041516132
 70
        32
  0
VERTEX
  5
2A4
100
AcDbEntity
  8
L1_120
  6
CONTINUOUS
 62
         7
100
AcDbVertex
100
AcDb3dPolylineVertex
 10
1487.3612396884
 20
-197.0305357406
 30
4.8041516132
 70
        32
  0
SEQEND
  5
2A6
100
AcDbEntity
  8
L1_120
  6
CONTINUOUS
 62
         7
  0
POLYLINE
  5
2A8
100
AcDbEntity
  8
L1_120
  6
CONTINUOUS
 62
         7
100
AcDb3dPolyline
 66
         1
 10
0.0
 20
0.0
 30
0.0
 70
         8
  0
VERTEX
  5
2AA
100
AcDbEntity
  8
L1_120
  6
CONTINUOUS
 62
         7
100
AcDbVertex
100
AcDb3dPolylineVertex
 10
1486.7224629997
 20
-197.4455212178
 30
4.730978477
 70
        32
  0
VERTEX
  5
2AC
100
AcDbEntity
  8
L1_120
  6
CONTINUOUS
 62
         7
100
AcDbVertex
100
AcDb3dPolylineVertex
 10
1486.7224629997
 20
-197.4455212178
 30
4.730978477
 70
        32
  0
SEQEND
  5
2AE
100
AcDbEntity
  8
L1_120
  6
CONTINUOUS
 62
         7
  0
POLYLINE
  5
2B0
100
AcDbEntity
  8
L1_120
  6
CONTINUOUS
 62
         7
100
AcDb3dPolyline
 66
         1
 10
0.0
 20
0.0
 30
0.0
 70
         8
  0
VERTEX
  5
2B2
100
AcDbEntity
  8
L1_120
  6
CONTINUOUS
 62
         7
100
AcDbVertex
100
AcDb3dPolylineVertex
 10
1486.276896758
 20
-198.1686545436
 30
4.603470561
 70
        32
  0
VERTEX
  5
2B4
100
AcDbEntity
  8
L1_120
  6
CONTINUOUS
 62
         7
100
AcDbVertex
100
AcDb3dPolylineVertex
 10
1486.276896758
 20
-198.1686545436
 30
4.603470561
 70
        32
  0
SEQEND
  5
2B6
100
AcDbEntity
  8
L1_120
  6
CONTINUOUS
 62
         7
  0
POLYLINE
  5
2B8
100
AcDbEntity
  8
L1_120
  6
CONTINUOUS
 62
         7
100
AcDb3dPolyline
 66
         1
 10
0.0
 20
0.0
 30
0.0
 70
         8
  0
VERTEX
  5
2BA
100
AcDbEntity
  8
L1_120
  6
CONTINUOUS
 62
         7
100
AcDbVertex
100
AcDb3dPolylineVertex
 10
1486.1383823516
 20
-199.0267649366
 30
4.4521625463
 70
        32
  0
VERTEX
  5
2BC
100
AcDbEntity
  8
L1_120
  6
CONTINUOUS
 62
         7
100
AcDbVertex
100
AcDb3dPolylineVertex
 10
1486.1383823516
 20
-199.0267649366
 30
4.4521625463
 70
        32
  0
SEQEND
  5
2BE
100
AcDbEntity
  8
L1_120
  6
CONTINUOUS
 62
         7
  0
POLYLINE
  5
2C0
100
AcDbEntity
  8
L1_120
  6
CONTINUOUS
 62
         7
100
AcDb3dPolyline
 66
         1
 10
0.0
 20
0.0
 30
0.0
 70
         8
  0
VERTEX
  5
2C2
100
AcDbEntity
  8
L1_120
  6
CONTINUOUS
 62
         7
100
AcDbVertex
100
AcDb3dPolylineVertex
 10
1486.3169134465
 20
-199.9636340041
 30
4.2869672523
 70
        32
  0
VERTEX
  5
2C4
100
AcDbEntity
  8
L1_120
  6
CONTINUOUS
 62
         7
100
AcDbVertex
100
AcDb3dPolylineVertex
 10
1486.3169134465
 20
-199.9636340041
 30
4.2869672523
 70
        32
  0
SEQEND
  5
2C6
100
AcDbEntity
  8
L1_120
  6
CONTINUOUS
 62
         7
  0
POLYLINE
  5
2C8
100
AcDbEntity
  8
L1_120
  6
CONTINUOUS
 62
         7
100
AcDb3dPolyline
 66
         1
 10
0.0
 20
0.0
 30
0.0
 70
         8
  0
VERTEX
  5
2CA
100
AcDbEntity
  8
L1_120
  6
CONTINUOUS
 62
         7
100
AcDbVertex
100
AcDb3dPolylineVertex
 10
1486.7916485483
 20
-200.7943314975
 30
4.1404928714
 70
        32
  0
VERTEX
  5
2CC
100
AcDbEntity
  8
L1_120
  6
CONTINUOUS
 62
         7
100
AcDbVertex
100
AcDb3dPolylineVertex
 10
1486.7916485483
 20
-200.7943314975
 30
4.1404928714
 70
        32
  0
SEQEND
  5
2CE
100
AcDbEntity
  8
L1_120
  6
CONTINUOUS
 62
         7
  0
POLYLINE
  5
2D0
100
AcDbEntity
  8
L1_120
  6
CONTINUOUS
 62
         7
100
AcDb3dPolyline
 66
         1
 10
0.0
 20
0.0
 30
0.0
 70
         8
  0
VERTEX
  5
2D2
100
AcDbEntity
  8
L1_120
  6
CONTINUOUS
 62
         7
100
AcDbVertex
100
AcDb3dPolylineVertex
 10
1487.4578485206
 20
-201.3639994985
 30
4.0400450328
 70
        32
  0
VERTEX
  5
2D4
100
AcDbEntity
  8
L1_120
  6
CONTINUOUS
 62
         7
100
AcDbVertex
100
AcDb3dPolylineVertex
 10
1487.4578485206
 20
-201.3639994985
 30
4.0400450328
 70
        32
  0
SEQEND
  5
2D6
100
AcDbEntity
  8
L1_120
  6
CONTINUOUS
 62
         7
  0
POLYLINE
  5
2D8
100
AcDbEntity
  8
L1_120
  6
CONTINUOUS
 62
         7
100
AcDb3dPolyline
 66
         1
 10
0.0
 20
0.0
 30
0.0
 70
         8
  0
VERTEX
  5
2DA
100
AcDbEntity
  8
L1_120
  6
CONTINUOUS
 62
         7
100
AcDbVertex
100
AcDb3dPolylineVertex
 10
1488.2711638215
 20
-201.6358984321
 30
3.9921019147
 70
        32
  0
VERTEX
  5
2DC
100
AcDbEntity
  8
L1_120
  6
CONTINUOUS
 62
         7
100
AcDbVertex
100
AcDb3dPolylineVertex
 10
1488.2711638215
 20
-201.6358984321
 30
3.9921019147
 70
        32
  0
SEQEND
  5
2DE
100
AcDbEntity
  8
L1_120
  6
CONTINUOUS
 62
         7
  0
POLYLINE
  5
2E0
100
AcDbEntity
  8
L1_120
  6
CONTINUOUS
 62
         7
100
AcDb3dPolyline
 66
         1
 10
0.0
 20
0.0
 30
0.0
 70
         8
  0
VERTEX
  5
2E2
100
AcDbEntity
  8
L1_120
  6
CONTINUOUS
 62
         7
100
AcDbVertex
100
AcDb3dPolylineVertex
 10
1489.0313576877
 20
-201.5494359123
 30
4.0073475898
 70
        32
  0
VERTEX
  5
2E4
100
AcDbEntity
  8
L1_120
  6
CONTINUOUS
 62
         7
100
AcDbVertex
100
AcDb3dPolylineVertex
 10
1489.0313576877
 20
-201.5494359123
 30
4.0073475898
 70
        32
  0
SEQEND
  5
2E6
100
AcDbEntity
  8
L1_120
  6
CONTINUOUS
 62
         7
  0
POLYLINE
  5
2E8
100
AcDbEntity
  8
L1_120
  6
CONTINUOUS
 62
         7
100
AcDb3dPolyline
 66
         1
 10
0.0
 20
0.0
 30
0.0
 70
         8
  0
VERTEX
  5
2EA
100
AcDbEntity
  8
L1_120
  6
CONTINUOUS
 62
         7
100
AcDbVertex
100
AcDb3dPolylineVertex
 10
1489.6701343764
 20
-201.1344504352
 30
4.080520726
 70
        32
  0
VERTEX
  5
2EC
100
AcDbEntity
  8
L1_120
  6
CONTINUOUS
 62
         7
100
AcDbVertex
100
AcDb3dPolylineVertex
 10
1489.6701343764
 20
-201.1344504352
 30
4.080520726
 70
        32
  0
SEQEND
  5
2EE
100
AcDbEntity
  8
L1_120
  6
CONTINUOUS
 62
         7
  0
POLYLINE
  5
2F0
100
AcDbEntity
  8
L1_120
  6
CONTINUOUS
 62
         7
100
AcDb3dPolyline
 66
         1
 10
0.0
 20
0.0
 30
0.0
 70
         8
  0
VERTEX
  5
2F2
100
AcDbEntity
  8
L1_120
  6
CONTINUOUS
 62
         7
100
AcDbVertex
100
AcDb3dPolylineVertex
 10
1490.1157006182
 20
-200.4113171094
 30
4.208028642
 70
        32
  0
VERTEX
  5
2F4
100
AcDbEntity
  8
L1_120
  6
CONTINUOUS
 62
         7
100
AcDbVertex
100
AcDb3dPolylineVertex
 10
1490.1157006182
 20
-200.4113171094
 30
4.208028642
 70
        32
  0
SEQEND
  5
2F6
100
AcDbEntity
  8
L1_120
  6
CONTINUOUS
 62
         7
  0
POLYLINE
  5
2F8
100
AcDbEntity
  8
L1_120
  6
CONTINUOUS
 62
         7
100
AcDb3dPolyline
 66
         1
 10
0.0
 20
0.0
 30
0.0
 70
         8
  0
VERTEX
  5
2FA
100
AcDbEntity
  8
L1_120
  6
CONTINUOUS
 62
         7
100
AcDbVertex
100
AcDb3dPolylineVertex
 10
1490.2542150245
 20
-199.5532067163
 30
4.3593366567
 70
        32
  0
VERTEX
  5
2FC
100
AcDbEntity
  8
L1_120
  6
CONTINUOUS
 62
         7
100
AcDbVertex
100
AcDb3dPolylineVertex
 10
1490.2542150245
 20
-199.5532067163
 30
4.3593366567
 70
        32
  0
SEQEND
  5
2FE
100
AcDbEntity
  8
L1_120
  6
CONTINUOUS
 62
         7
  0
POLYLINE
  5
300
100
AcDbEntity
  8
L1_120
  6
CONTINUOUS
 62
         7
100
AcDb3dPolyline
 66
         1
 10
0.0
 20
0.0
 30
0.0
 70
         8
  0
VERTEX
  5
302
100
AcDbEntity
  8
L1_120
  6
CONTINUOUS
 62
         7
100
AcDbVertex
100
AcDb3dPolylineVertex
 10
1490.0756839296
 20
-198.6163376488
 30
4.5245319507
 70
        32
  0
VERTEX
  5
304
100
AcDbEntity
  8
L1_120
  6
CONTINUOUS
 62
         7
100
AcDbVertex
100
AcDb3dPolylineVertex
 10
1490.0756839296
 20
-198.6163376488
 30
4.5245319507
 70
        32
  0
SEQEND
  5
306
100
AcDbEntity
  8
L1_120
  6
CONTINUOUS
 62
         7
  0
ARC
  5
307
100
AcDbEntity
  8
L1_120
  6
CONTINUOUS
 62
         7
100
AcDbCircle
 10
1487.2827048761
 20
-195.8297937038
 30
38.9451592314
 40
2.9722262277
210
0.0
220
-0.1736481776669303
230
0.9848077530122081
100
AcDbArc
 50
20.0
 51
38.742274142
  0
ARC
  5
308
100
AcDbEntity
  8
L1_120
  6
CONTINUOUS
 62
         7
100
AcDbCircle
 10
1487.6747822316
 20
-195.5152052713
 30
38.9451592314
 40
2.4695428935
210
0.0
220
-0.1736481776669303
230
0.9848077530122081
100
AcDbArc
 50
38.742274142
 51
59.3226899097
  0
ARC
  5
309
100
AcDbEntity
  8
L1_120
  6
CONTINUOUS
 62
         7
100
AcDbCircle
 10
1487.8745207627
 20
-195.1785035787
 30
38.9451592314
 40
2.0780540551
210
0.0
220
-0.1736481776669303
230
0.9848077530122081
100
AcDbArc
 50
59.3226899096
 51
83.1760378472
  0
ARC
  5
30A
100
AcDbEntity
  8
L1_120
  6
CONTINUOUS
 62
         7
100
AcDbCircle
 10
1487.9254310914
 20
-194.7530701445
 30
38.9451592314
 40
1.6495853065
210
0.0
220
-0.1736481776669303
230
0.9848077530122081
100
AcDbArc
 50
83.1760378471
 51
109.9999999999
  0
ARC
  5
30B
100
AcDbEntity
  8
L1_120
  6
CONTINUOUS
 62
         7
100
AcDbCircle
 10
1487.9254310914
 20
-194.7530701445
 30
38.9451592314
 40
1.6495853065
210
0.0
220
-0.1736481776669303
230
0.9848077530122081
100
AcDbArc
 50
110.0
 51
136.8239621528
  0
ARC
  5
30C
100
AcDbEntity
  8
L1_120
  6
CONTINUOUS
 62
         7
100
AcDbCircle
 10
1488.2378940061
 20
-195.0462465342
 30
38.9451592314
 40
2.0780540551
210
0.0
220
-0.1736481776669303
230
0.9848077530122081
100
AcDbArc
 50
136.8239621528
 51
160.6773100904
  0
ARC
  5
30D
100
AcDbEntity
  8
L1_120
  6
CONTINUOUS
 62
         7
100
AcDbCircle
 10
1488.607330274
 20
-195.1757855419
 30
38.9451592314
 40
2.4695428935
210
0.0
220
-0.1736481776669303
230
0.9848077530122081
100
AcDbArc
 50
160.6773100903
 51
181.257725858
  0
ARC
  5
30E
100
AcDbEntity
  8
L1_120
  6
CONTINUOUS
 62
         7
100
AcDbCircle
 10
1489.1098925
 20
-195.1647517963
 30
38.9451592314
 40
2.9722262277
210
0.0
220
-0.1736481776669303
230
0.9848077530122081
100
AcDbArc
 50
181.257725858
 51
200.0000000001
  0
ARC
  5
30F
100
AcDbEntity
  8
L1_120
  6
CONTINUOUS
 62
         7
100
AcDbCircle
 10
1489.1098925
 20
-195.1647517963
 30
38.9451592314
 40
2.9722262277
210
0.0
220
-0.1736481776669303
230
0.9848077530122081
100
AcDbArc
 50
200.0
 51
218.742274142
  0
ARC
  5
310
100
AcDbEntity
  8
L1_120
  6
CONTINUOUS
 62
         7
100
AcDbCircle
 10
1488.7178151445
 20
-195.4793402288
 30
38.9451592314
 40
2.4695428935
210
0.0
220
-0.1736481776669303
230
0.9848077530122081
100
AcDbArc
 50
218.742274142
 51
239.3226899097
  0
ARC
  5
311
100
AcDbEntity
  8
L1_120
  6
CONTINUOUS
 62
         7
100
AcDbCircle
 10
1488.5180766135
 20
-195.8160419213
 30
38.9451592314
 40
2.0780540551
210
0.0
220
-0.1736481776669303
230
0.9848077530122081
100
AcDbArc
 50
239.3226899096
 51
263.1760378472
  0
ARC
  5
312
100
AcDbEntity
  8
L1_120
  6
CONTINUOUS
 62
         7
100
AcDbCircle
 10
1488.4671662848
 20
-196.2414753556
 30
38.9451592314
 40
1.6495853065
210
0.0
220
-0.1736481776669303
230
0.9848077530122081
100
AcDbArc
 50
263.1760378472
 51
290.0
  0
ARC
  5
313
100
AcDbEntity
  8
L1_120
  6
CONTINUOUS
 62
         7
100
AcDbCircle
 10
1488.4671662848
 20
-196.2414753556
 30
38.9451592314
 40
1.6495853065
210
0.0
220
-0.1736481776669303
230
0.9848077530122081
100
AcDbArc
 50
290.0000000001
 51
316.8239621528
  0
ARC
  5
314
100
AcDbEntity
  8
L1_120
  6
CONTINUOUS
 62
         7
100
AcDbCircle
 10
1488.1547033701
 20
-195.9482989658
 30
38.9451592314
 40
2.0780540551
210
0.0
220
-0.1736481776669303
230
0.9848077530122081
100
AcDbArc
 50
316.8239621527
 51
340.6773100903
  0
ARC
  5
315
100
AcDbEntity
  8
L1_120
  6
CONTINUOUS
 62
         7
100
AcDbCircle
 10
1487.7852671021
 20
-195.8187599582
 30
38.9451592314
 40
2.4695428935
210
0.0
220
-0.1736481776669303
230
0.9848077530122081
100
AcDbArc
 50
340.6773100903
 51
361.2577258579
  0
ARC
  5
316
100
AcDbEntity
  8
L1_120
  6
CONTINUOUS
 62
         7
100
AcDbCircle
 10
1487.2827048761
 20
-195.8297937038
 30
38.9451592314
 40
2.9722262277
210
0.0
220
-0.1736481776669303
230
0.9848077530122081
100
AcDbArc
 50
1.2577258579
 51
20.0
  0
LINE
  5
317
100
AcDbEntity
  8
L1_120
  6
CENTER
 62
         1
100
AcDbLine
 10
1485.3772208257
 20
-200.300458093
 30
4.2275760777
 11
1491.0153765504
 21
-198.27951356
 31
4.5839231253
  0
LINE
  5
318
100
AcDbEntity
  8
L1_120
  6
DASHED
 62
         2
100
AcDbLine
 10
1473.5997515957
 20
-209.5667943189
 30
2.5936709887
 11
1480.4638729092
 21
-213.1610649434
 31
1.9599041016
  0
LINE
  5
319
100
AcDbEntity
  8
L1_120
  6
DASHED
 62
         2
100
AcDbLine
 10
1480.5444698444
 20
-215.4339955767
 30
1.5591251057
 11
1480.4638729092
 21
-213.1610649434
 31
1.9599041016
  0
LINE
  5
31A
100
AcDbEntity
  8
L1_120
  6
DASHED
 62
         2
100
AcDbLine
 10
1478.585986658
 20
-216.6391994832
 30
1.3466151397
 11
1480.5444698444
 21
-215.4339955767
 31
1.5591251057
  0
LINE
  5
31B
100
AcDbEntity
  8
L1_120
  6
DASHED
 62
         2
100
AcDbLine
 10
1478.585986658
 20
-216.6391994832
 30
1.3466151397
 11
1480.4638729092
 21
-213.1610649434
 31
1.9599041016
  0
LINE
  5
31C
100
AcDbEntity
  8
L1_120
  6
DASHED
 62
         2
100
AcDbLine
 10
1471.7218653445
 20
-213.0449288587
 30
1.9803820268
 11
1478.585986658
 21
-216.6391994832
 31
1.3466151397
  0
LINE
  5
31D
100
AcDbEntity
  8
L1_120
  6
DASHED
 62
         2
100
AcDbLine
 10
1478.585986658
 20
-231.9132674032
 30
-1.3466151397
 11
1480.5444698444
 21
-233.1184713097
 31
-1.5591251057
  0
LINE
  5
31E
100
AcDbEntity
  8
L1_120
  6
DASHED
 62
         2
100
AcDbLine
 10
1480.5444698444
 20
-233.1184713097
 30
-1.5591251057
 11
1480.4638729092
 21
-235.391401943
 31
-1.9599041016
  0
LINE
  5
31F
100
AcDbEntity
  8
L1_120
  6
DASHED
 62
         2
100
AcDbLine
 10
1478.585986658
 20
-231.9132674032
 30
-1.3466151397
 11
1480.4638729092
 21
-235.391401943
 31
-1.9599041016
  0
LINE
  5
320
100
AcDbEntity
  8
L1_120
  6
DASHED
 62
         2
100
AcDbLine
 10
1473.5997515957
 20
-238.9856725676
 30
-2.5936709887
 11
1480.4638729092
 21
-235.391401943
 31
-1.9599041016
  0
LINE
  5
321
100
AcDbEntity
  8
L1_120
  6
DASHED
 62
         2
100
AcDbLine
 10
1471.7218653445
 20
-235.5075380278
 30
-1.9803820268
 11
1478.585986658
 21
-231.9132674032
 31
-1.3466151397
  0
LINE
  5
322
100
AcDbEntity
  8
L1_120
  6
CENTER
 62
         1
100
AcDbLine
 10
1464.0698934993
 20
-241.7450795971
 30
-3.0802288988
 11
1497.4044130876
 21
-224.2900727483
 31
-0.0024402429
  0
LINE
  5
323
100
AcDbEntity
  8
L1_120
  6
CENTER
 62
         1
100
AcDbLine
 10
1464.0698934993
 20
-206.8073872893
 30
3.0802288988
 11
1497.4044130876
 21
-224.2623941382
 31
0.0024402429
  0
CIRCLE
  5
324
100
AcDbEntity
  8
L1_120
  6
CONTINUOUS
 62
         7
100
AcDbCircle
 10
1497.4308425579
 20
-220.8689735113
 30
38.9451592314
 40
17.5
210
0.0
220
-0.1736481776669303
230
0.9848077530122081
  0
LINE
  5
325
100
AcDbEntity
  8
L1_120
  6
DASHED
 62
         2
100
AcDbLine
 10
1520.0308425579
 20
-229.2002722083
 30
-0.8682408883
 11
1515.7808425579
 21
-229.2002722083
 31
-0.8682408883
  0
LINE
  5
326
100
AcDbEntity
  8
L1_120
  6
DASHED
 62
         2
100
AcDbLine
 10
1520.0308425579
 20
-219.3521946782
 30
0.8682408883
 11
1515.7808425579
 21
-219.3521946782
 31
0.8682408883
  0
ARC
  5
327
100
AcDbEntity
  8
L1_120
  6
DASHED
 62
         2
100
AcDbCircle
 10
1515.7808425579
 20
-216.0689735113
 30
38.9451592314
 40
0.2
210
0.0
220
-0.1736481776669303
230
0.9848077530122081
100
AcDbArc
 50
90.0
 51
180.0
  0
ARC
  5
328
100
AcDbEntity
  8
L1_120
  6
DASHED
 62
         2
100
AcDbCircle
 10
1515.7808425579
 20
-225.6689735113
 30
38.9451592314
 40
0.2
210
0.0
220
-0.1736481776669303
230
0.9848077530122081
100
AcDbArc
 50
180.0
 51
270.0
  0
LINE
  5
329
100
AcDbEntity
  8
L1_120
  6
DASHED
 62
         2
100
AcDbLine
 10
1520.0308425579
 20
-219.3521946782
 30
0.8682408883
 11
1520.0308425579
 21
-229.2002722083
 31
-0.8682408883
  0
LINE
  5
32A
100
AcDbEntity
  8
L1_120
  6
DASHED
 62
         2
100
AcDbLine
 10
1520.2308425579
 20
-219.1552331276
 30
0.9029705239
 11
1520.0308425579
 21
-219.3521946782
 31
0.8682408883
  0
LINE
  5
32B
100
AcDbEntity
  8
L1_120
  6
DASHED
 62
         2
100
AcDbLine
 10
1520.2308425579
 20
-229.3972337589
 30
-0.9029705239
 11
1520.0308425579
 21
-229.2002722083
 31
-0.8682408883
  0
LINE
  5
32C
100
AcDbEntity
  8
L1_120
  6
CONTINUOUS
 62
         7
100
AcDbLine
 10
1520.2308425579
 20
-216.840934908
 30
1.3110437414
 11
1520.2308425579
 21
-231.7115319785
 31
-1.3110437414
  0
LINE
  5
32D
100
AcDbEntity
  8
L1_120
  6
CONTINUOUS
 62
         7
100
AcDbLine
 10
1520.2308425579
 20
-216.840934908
 30
1.3110437414
 11
1520.7308425579
 21
-216.3485310315
 31
1.3978678302
  0
LINE
  5
32E
100
AcDbEntity
  8
L1_120
  6
CONTINUOUS
 62
         7
100
AcDbLine
 10
1520.7308425579
 20
-216.3485310315
 30
1.3978678302
 11
1527.6692245094
 21
-216.3485310315
 31
1.3978678302
  0
LINE
  5
32F
100
AcDbEntity
  8
L1_120
  6
CONTINUOUS
 62
         7
100
AcDbLine
 10
1528.0633097906
 20
-215.9604327912
 30
1.4663000211
 11
1527.6692245094
 21
-216.3485310315
 31
1.3978678302
  0
LINE
  5
330
100
AcDbEntity
  8
L1_120
  6
CONTINUOUS
 62
         7
100
AcDbLine
 10
1520.7308425579
 20
-232.203935855
 30
-1.3978678302
 11
1527.6692245094
 21
-232.203935855
 31
-1.3978678302
  0
LINE
  5
331
100
AcDbEntity
  8
L1_120
  6
CONTINUOUS
 62
         7
100
AcDbLine
 10
1520.2308425579
 20
-231.7115319785
 30
-1.3110437414
 11
1520.7308425579
 21
-232.203935855
 31
-1.3978678302
  0
LINE
  5
332
100
AcDbEntity
  8
L1_120
  6
CONTINUOUS
 62
         7
100
AcDbLine
 10
1528.0633097906
 20
-232.5920340952
 30
-1.4663000211
 11
1527.6692245094
 21
-232.203935855
 31
-1.3978678302
  0
LINE
  5
333
100
AcDbEntity
  8
L1_120
  6
CONTINUOUS
 62
         7
100
AcDbLine
 10
1467.1924606063
 20
-216.3485310315
 30
1.3978678302
 11
1471.9308425579
 21
-216.3485310315
 31
1.3978678302
  0
LINE
  5
334
100
AcDbEntity
  8
L1_120
  6
CONTINUOUS
 62
         7
100
AcDbLine
 10
1472.4308425579
 20
-216.840934908
 30
1.3110437414
 11
1472.4308425579
 21
-231.7115319785
 31
-1.3110437414
  0
LINE
  5
335
100
AcDbEntity
  8
L1_120
  6
CONTINUOUS
 62
         7
100
AcDbLine
 10
1472.4308425579
 20
-216.840934908
 30
1.3110437414
 11
1471.9308425579
 21
-216.3485310315
 31
1.3978678302
  0
LINE
  5
336
100
AcDbEntity
  8
L1_120
  6
CONTINUOUS
 62
         7
100
AcDbLine
 10
1466.7983753251
 20
-215.9604327912
 30
1.4663000211
 11
1467.1924606063
 21
-216.3485310315
 31
1.3978678302
  0
LINE
  5
337
100
AcDbEntity
  8
L1_120
  6
CONTINUOUS
 62
         7
100
AcDbLine
 10
1472.4308425579
 20
-231.7115319785
 30
-1.3110437414
 11
1471.9308425579
 21
-232.203935855
 31
-1.3978678302
  0
LINE
  5
338
100
AcDbEntity
  8
L1_120
  6
CONTINUOUS
 62
         7
100
AcDbLine
 10
1466.7983753251
 20
-232.5920340952
 30
-1.4663000211
 11
1467.1924606063
 21
-232.203935855
 31
-1.3978678302
  0
LINE
  5
339
100
AcDbEntity
  8
L1_120
  6
CONTINUOUS
 62
         7
100
AcDbLine
 10
1467.1924606063
 20
-232.203935855
 30
-1.3978678302
 11
1471.9308425579
 21
-232.203935855
 31
-1.3978678302
  0
LINE
  5
33A
100
AcDbEntity
  8
L1_120
  6
CONTINUOUS
 62
         4
100
AcDbLine
 10
1481.6039271535
 20
-216.9224985568
 30
1.2966618695
 11
1472.4308425579
 21
-216.9224985568
 31
1.2966618695
  0
LINE
  5
33B
100
AcDbEntity
  8
L1_120
  6
CONTINUOUS
 62
         7
100
AcDbLine
 10
1481.3097383773
 20
-217.5708568729
 30
1.1823388052
 11
1472.4308425579
 21
-217.5708568729
 31
1.1823388052
  0
LINE
  5
33C
100
AcDbEntity
  8
L1_120
  6
CONTINUOUS
 62
         7
100
AcDbLine
 10
1481.3097383773
 20
-230.9816100135
 30
-1.1823388052
 11
1472.4308425579
 21
-230.9816100135
 31
-1.1823388052
  0
LINE
  5
33D
100
AcDbEntity
  8
L1_120
  6
CONTINUOUS
 62
         4
100
AcDbLine
 10
1481.5820970737
 20
-231.5842280596
 30
-1.2885966257
 11
1472.4308425579
 21
-231.5842280596
 31
-1.2885966257
  0
LINE
  5
33E
100
AcDbEntity
  8
L1_120
  6
DASHED
 62
         2
100
AcDbLine
 10
1515.5808425579
 20
-219.5491562288
 30
0.8335112528
 11
1515.5808425579
 21
-229.0033106577
 31
-0.8335112528
  0
ARC
  5
33F
100
AcDbEntity
  8
L1_120
  6
DASHED
 62
         2
100
AcDbCircle
 10
1515.7808425579
 20
-216.0689735113
 30
38.9451592314
 40
0.2
210
0.0
220
-0.1736481776669303
230
0.9848077530122081
100
AcDbArc
 50
90.0
 51
180.0
  0
ARC
  5
340
100
AcDbEntity
  8
L1_120
  6
DASHED
 62
         2
100
AcDbCircle
 10
1515.7808425579
 20
-225.6689735113
 30
38.9451592314
 40
0.2
210
0.0
220
-0.1736481776669303
230
0.9848077530122081
100
AcDbArc
 50
180.0
 51
270.0
  0
CIRCLE
  5
341
100
AcDbEntity
  8
L1_120
  6
CONTINUOUS
 62
         7
100
AcDbCircle
 10
1497.4308425579
 20
-220.8689735113
 30
38.9451592314
 40
12.5
210
0.0
220
-0.1736481776669303
230
0.9848077530122081
  0
LINE
  5
342
100
AcDbEntity
  8
L1_120
  6
DASHED
 62
         2
100
AcDbLine
 10
1481.4369043236
 20
-218.8056263752
 30
0.9646156269
 11
1494.35440387
 21
-218.8056263752
 31
0.9646156269
  0
LINE
  5
343
100
AcDbEntity
  8
L1_120
  6
DASHED
 62
         2
100
AcDbLine
 10
1481.9919043236
 20
-219.3521946782
 30
0.8682408883
 11
1493.5164460527
 21
-219.3521946782
 31
0.8682408883
  0
LINE
  5
344
100
AcDbEntity
  8
L1_120
  6
DASHED
 62
         2
100
AcDbLine
 10
1481.9919043236
 20
-229.2002722083
 30
-0.8682408883
 11
1493.5164460527
 21
-229.2002722083
 31
-0.8682408883
  0
LINE
  5
345
100
AcDbEntity
  8
L1_120
  6
DASHED
 62
         2
100
AcDbLine
 10
1481.4369043236
 20
-229.7468405112
 30
-0.9646156269
 11
1494.35440387
 21
-229.7468405112
 31
-0.9646156269
  0
LINE
  5
346
100
AcDbEntity
  8
L1_120
  6
DASHED
 62
         2
100
AcDbLine
 10
1481.9919043236
 20
-229.2002722083
 30
-0.8682408883
 11
1481.9919043236
 21
-219.3521946782
 31
0.8682408883
  0
LINE
  5
347
100
AcDbEntity
  8
L1_120
  6
DASHED
 62
         2
100
AcDbLine
 10
1480.9916523152
 20
-230.1853281411
 30
-1.0419328268
 11
1481.9919043236
 21
-229.2002722083
 31
-0.8682408883
  0
LINE
  5
348
100
AcDbEntity
  8
L1_120
  6
DASHED
 62
         2
100
AcDbLine
 10
1480.9916523152
 20
-218.3671387453
 30
1.0419328268
 11
1481.9919043236
 21
-219.3521946782
 31
0.8682408883
  0
CIRCLE
  5
349
100
AcDbEntity
  8
L1_120
  6
DASHED
 62
         2
100
AcDbCircle
 10
1497.4308425579
 20
-220.8689735113
 30
38.9451592314
 40
8.64
210
0.0
220
-0.1736481776669303
230
0.9848077530122081
  0
ARC
  5
34A
100
AcDbEntity
  8
L1_120
  6
CONTINUOUS
 62
         7
100
AcDbCircle
 10
1497.4308425579
 20
-220.8689735113
 30
38.9451592314
 40
6.35
210
0.0
220
-0.1736481776669303
230
0.9848077530122081
100
AcDbArc
 50
283.6635763633
 51
436.3364236367
  0
ARC
  5
34B
100
AcDbEntity
  8
L1_120
  6
CONTINUOUS
 62
         7
100
AcDbCircle
 10
1497.4308425579
 20
-220.8689735113
 30
38.9451592314
 40
6.35
210
0.0
220
-0.1736481776669303
230
0.9848077530122081
100
AcDbArc
 50
103.6635763633
 51
256.3364236367
  0
LINE
  5
34C
100
AcDbEntity
  8
L1_120
  6
CONTINUOUS
 62
         7
100
AcDbLine
 10
1495.9308425579
 20
-218.1996823118
 30
1.0714599141
 11
1495.9308425579
 21
-217.6287811104
 31
1.1721251993
  0
LINE
  5
34D
100
AcDbEntity
  8
L1_120
  6
CONTINUOUS
 62
         7
100
AcDbLine
 10
1498.9308425579
 20
-218.1996823118
 30
1.0714599141
 11
1498.9308425579
 21
-217.6287811104
 31
1.1721251993
  0
LINE
  5
34E
100
AcDbEntity
  8
L1_120
  6
CONTINUOUS
 62
         7
100
AcDbLine
 10
1495.9308425579
 20
-230.3527845746
 30
-1.0714599141
 11
1495.9308425579
 21
-230.9236857761
 31
-1.1721251993
  0
LINE
  5
34F
100
AcDbEntity
  8
L1_120
  6
CONTINUOUS
 62
         7
100
AcDbLine
 10
1498.9308425579
 20
-230.3527845746
 30
-1.0714599141
 11
1498.9308425579
 21
-230.9236857761
 31
-1.1721251993
  0
ARC
  5
350
100
AcDbEntity
  8
L1_120
  6
CONTINUOUS
 62
         7
100
AcDbCircle
 10
1497.4308425579
 20
-227.6189735113
 30
38.9451592314
 40
1.5
210
0.0
220
-0.1736481776669303
230
0.9848077530122081
100
AcDbArc
 50
180.0
 51
360.0
  0
ARC
  5
351
100
AcDbEntity
  8
L1_120
  6
CONTINUOUS
 62
         7
100
AcDbCircle
 10
1497.4308425579
 20
-214.1189735113
 30
38.9451592314
 40
1.5
210
0.0
220
-0.1736481776669303
230
0.9848077530122081
100
AcDbArc
 50
0.0
 51
180.0
  0
ARC
  5
352
100
AcDbEntity
  8
L1_120
  6
CONTINUOUS
 62
         7
100
AcDbCircle
 10
1317.1008425579
 20
-321.7968990603
 30
58.7223649554
 40
1.2
210
0.0
220
-0.1736481776669303
230
0.9848077530122081
100
AcDbArc
 50
98.2971449698
 51
180.0
  0
LINE
  5
353
100
AcDbEntity
  8
L1_120
  6
CONTINUOUS
 62
         7
100
AcDbLine
 10
1315.9008425579
 20
-327.1051127527
 30
1.9507951826
 11
1315.9008425579
 21
-349.2321312589
 31
-1.9507951826
  0
ARC
  5
354
100
AcDbEntity
  8
L1_120
  6
CONTINUOUS
 62
         7
100
AcDbCircle
 10
1317.1008425579
 20
-344.2652624932
 30
58.7223649554
 40
1.2
210
0.0
220
-0.1736481776669303
230
0.9848077530122081
100
AcDbArc
 50
180.0
 51
261.7028550302
  0
LINE
  5
355
100
AcDbEntity
  8
L1_120
  6
CONTINUOUS
 62
         7
100
AcDbLine
 10
1316.7776742862
 20
-350.3799882912
 30
-2.1531933474
 11
1385.3508425583
 21
-360.2283156733
 31
-3.8897191798
  0
LINE
  5
356
100
AcDbEntity
  8
L1_120
  6
CONTINUOUS
 62
         7
100
AcDbLine
 10
1316.7776742862
 20
-325.9572557203
 30
2.1531933474
 11
1385.3508425579
 21
-316.1089283383
 31
3.8897191797
  0
LINE
  5
357
100
AcDbEntity
  8
L1_120
  6
CENTER
 62
         1
100
AcDbLine
 10
1243.1257669317
 20
-200.8729097539
 30
0.0
 11
1237.487611207
 21
-198.8207888939
 31
0.0
  0
ARC
  5
358
100
AcDbEntity
  8
L1_120
  6
CONTINUOUS
 62
         7
100
AcDbCircle
 10
1241.2202828813
 20
-200.1793702776
 30
0.0
 40
2.9722262277
100
AcDbArc
 50
141.257725858
 51
160.0
  0
ARC
  5
359
100
AcDbEntity
  8
L1_120
  6
CONTINUOUS
 62
         7
100
AcDbCircle
 10
1240.8282055258
 20
-199.8647818452
 30
0.0
 40
2.4695428935
100
AcDbArc
 50
120.6773100903
 51
141.257725858
  0
POLYLINE
  5
35B
100
AcDbEntity
  8
L1_120
  6
CONTINUOUS
 62
         7
100
AcDb3dPolyline
 66
         1
 10
0.0
 20
0.0
 30
0.0
 70
         8
  0
VERTEX
  5
35D
100
AcDbEntity
  8
L1_120
  6
CONTINUOUS
 62
         7
100
AcDbVertex
100
AcDb3dPolylineVertex
 10
1239.5682389019
 20
-197.7408406479
 30
0.0
 70
        32
  0
VERTEX
  5
35F
100
AcDbEntity
  8
L1_120
  6
CONTINUOUS
 62
         7
100
AcDbVertex
100
AcDb3dPolylineVertex
 10
1239.5682389019
 20
-197.7408406479
 30
0.0
 70
        32
  0
SEQEND
  5
361
100
AcDbEntity
  8
L1_120
  6
CONTINUOUS
 62
         7
  0
ARC
  5
362
100
AcDbEntity
  8
L1_120
  6
CONTINUOUS
 62
         7
100
AcDbCircle
 10
1240.6284669948
 20
-199.5280801526
 30
0.0
 40
2.0780540551
100
AcDbArc
 50
96.8239621528
 51
120.6773100904
  0
POLYLINE
  5
364
100
AcDbEntity
  8
L1_120
  6
CONTINUOUS
 62
         7
100
AcDb3dPolyline
 66
         1
 10
0.0
 20
0.0
 30
0.0
 70
         8
  0
VERTEX
  5
366
100
AcDbEntity
  8
L1_120
  6
CONTINUOUS
 62
         7
100
AcDbVertex
100
AcDb3dPolylineVertex
 10
1240.3815542028
 20
-197.4647472349
 30
0.0
 70
        32
  0
VERTEX
  5
368
100
AcDbEntity
  8
L1_120
  6
CONTINUOUS
 62
         7
100
AcDbVertex
100
AcDb3dPolylineVertex
 10
1240.3815542028
 20
-197.4647472349
 30
0.0
 70
        32
  0
SEQEND
  5
36A
100
AcDbEntity
  8
L1_120
  6
CONTINUOUS
 62
         7
  0
ARC
  5
36B
100
AcDbEntity
  8
L1_120
  6
CONTINUOUS
 62
         7
100
AcDbCircle
 10
1240.5775566661
 20
-199.1026467183
 30
0.0
 40
1.6495853065
100
AcDbArc
 50
70.0000000001
 51
96.8239621529
  0
POLYLINE
  5
36D
100
AcDbEntity
  8
L1_120
  6
CONTINUOUS
 62
         7
100
AcDb3dPolyline
 66
         1
 10
0.0
 20
0.0
 30
0.0
 70
         8
  0
VERTEX
  5
36F
100
AcDbEntity
  8
L1_120
  6
CONTINUOUS
 62
         7
100
AcDbVertex
100
AcDb3dPolylineVertex
 10
1241.141748069
 20
-197.5525435785
 30
0.0
 70
        32
  0
VERTEX
  5
371
100
AcDbEntity
  8
L1_120
  6
CONTINUOUS
 62
         7
100
AcDbVertex
100
AcDb3dPolylineVertex
 10
1241.141748069
 20
-197.5525435785
 30
0.0
 70
        32
  0
SEQEND
  5
373
100
AcDbEntity
  8
L1_120
  6
CONTINUOUS
 62
         7
  0
ARC
  5
374
100
AcDbEntity
  8
L1_120
  6
CONTINUOUS
 62
         7
100
AcDbCircle
 10
1240.5775566661
 20
-199.1026467183
 30
0.0
 40
1.6495853065
100
AcDbArc
 50
43.1760378472
 51
70.0
  0
POLYLINE
  5
376
100
AcDbEntity
  8
L1_120
  6
CONTINUOUS
 62
         7
100
AcDb3dPolyline
 66
         1
 10
0.0
 20
0.0
 30
0.0
 70
         8
  0
VERTEX
  5
378
100
AcDbEntity
  8
L1_120
  6
CONTINUOUS
 62
         7
100
AcDbVertex
100
AcDb3dPolylineVertex
 10
1241.7805247577
 20
-197.9739308755
 30
0.0
 70
        32
  0
VERTEX
  5
37A
100
AcDbEntity
  8
L1_120
  6
CONTINUOUS
 62
         7
100
AcDbVertex
100
AcDb3dPolylineVertex
 10
1241.7805247577
 20
-197.9739308755
 30
0.0
 70
        32
  0
SEQEND
  5
37C
100
AcDbEntity
  8
L1_120
  6
CONTINUOUS
 62
         7
  0
ARC
  5
37D
100
AcDbEntity
  8
L1_120
  6
CONTINUOUS
 62
         7
100
AcDbCircle
 10
1240.2650937514
 20
-199.3958231081
 30
0.0
 40
2.0780540551
100
AcDbArc
 50
19.3226899096
 51
43.1760378472
  0
POLYLINE
  5
37F
100
AcDbEntity
  8
L1_120
  6
CONTINUOUS
 62
         7
100
AcDb3dPolyline
 66
         1
 10
0.0
 20
0.0
 30
0.0
 70
         8
  0
VERTEX
  5
381
100
AcDbEntity
  8
L1_120
  6
CONTINUOUS
 62
         7
100
AcDbVertex
100
AcDb3dPolylineVertex
 10
1242.2260909995
 20
-198.7082196985
 30
0.0
 70
        32
  0
VERTEX
  5
383
100
AcDbEntity
  8
L1_120
  6
CONTINUOUS
 62
         7
100
AcDbVertex
100
AcDb3dPolylineVertex
 10
1242.2260909995
 20
-198.7082196985
 30
0.0
 70
        32
  0
SEQEND
  5
385
100
AcDbEntity
  8
L1_120
  6
CONTINUOUS
 62
         7
  0
ARC
  5
386
100
AcDbEntity
  8
L1_120
  6
CONTINUOUS
 62
         7
100
AcDbCircle
 10
1239.8956574834
 20
-199.5253621157
 30
0.0
 40
2.4695428935
100
AcDbArc
 50
358.742274142
 51
379.3226899097
  0
POLYLINE
  5
388
100
AcDbEntity
  8
L1_120
  6
CONTINUOUS
 62
         7
100
AcDb3dPolyline
 66
         1
 10
0.0
 20
0.0
 30
0.0
 70
         8
  0
VERTEX
  5
38A
100
AcDbEntity
  8
L1_120
  6
CONTINUOUS
 62
         7
100
AcDbVertex
100
AcDb3dPolylineVertex
 10
1242.3646054058
 20
-199.5795678275
 30
0.0
 70
        32
  0
VERTEX
  5
38C
100
AcDbEntity
  8
L1_120
  6
CONTINUOUS
 62
         7
100
AcDbVertex
100
AcDb3dPolylineVertex
 10
1242.3646054058
 20
-199.5795678275
 30
0.0
 70
        32
  0
SEQEND
  5
38E
100
AcDbEntity
  8
L1_120
  6
CONTINUOUS
 62
         7
  0
ARC
  5
38F
100
AcDbEntity
  8
L1_120
  6
CONTINUOUS
 62
         7
100
AcDbCircle
 10
1239.3930952575
 20
-199.5143283701
 30
0.0
 40
2.9722262277
100
AcDbArc
 50
339.9999999999
 51
358.742274142
  0
POLYLINE
  5
391
100
AcDbEntity
  8
L1_120
  6
CONTINUOUS
 62
         7
100
AcDb3dPolyline
 66
         1
 10
0.0
 20
0.0
 30
0.0
 70
         8
  0
VERTEX
  5
393
100
AcDbEntity
  8
L1_120
  6
CONTINUOUS
 62
         7
100
AcDbVertex
100
AcDb3dPolylineVertex
 10
1242.186074311
 20
-200.5308896105
 30
0.0
 70
        32
  0
VERTEX
  5
395
100
AcDbEntity
  8
L1_120
  6
CONTINUOUS
 62
         7
100
AcDbVertex
100
AcDb3dPolylineVertex
 10
1242.186074311
 20
-200.5308896105
 30
0.0
 70
        32
  0
SEQEND
  5
397
100
AcDbEntity
  8
L1_120
  6
CONTINUOUS
 62
         7
  0
ARC
  5
398
100
AcDbEntity
  8
L1_120
  6
CONTINUOUS
 62
         7
100
AcDbCircle
 10
1239.3930952574
 20
-199.5143283701
 30
0.0
 40
2.9722262277
100
AcDbArc
 50
321.257725858
 51
340.0
  0
POLYLINE
  5
39A
100
AcDbEntity
  8
L1_120
  6
CONTINUOUS
 62
         7
100
AcDb3dPolyline
 66
         1
 10
0.0
 20
0.0
 30
0.0
 70
         8
  0
VERTEX
  5
39C
100
AcDbEntity
  8
L1_120
  6
CONTINUOUS
 62
         7
100
AcDbVertex
100
AcDb3dPolylineVertex
 10
1241.7113392092
 20
-201.3744019518
 30
0.0
 70
        32
  0
VERTEX
  5
39E
100
AcDbEntity
  8
L1_120
  6
CONTINUOUS
 62
         7
100
AcDbVertex
100
AcDb3dPolylineVertex
 10
1241.7113392092
 20
-201.3744019518
 30
0.0
 70
        32
  0
SEQEND
  5
3A0
100
AcDbEntity
  8
L1_120
  6
CONTINUOUS
 62
         7
  0
ARC
  5
3A1
100
AcDbEntity
  8
L1_120
  6
CONTINUOUS
 62
         7
100
AcDbCircle
 10
1239.7851726129
 20
-199.8289168026
 30
0.0
 40
2.4695428935
100
AcDbArc
 50
300.6773100903
 51
321.257725858
  0
POLYLINE
  5
3A3
100
AcDbEntity
  8
L1_120
  6
CONTINUOUS
 62
         7
100
AcDb3dPolyline
 66
         1
 10
0.0
 20
0.0
 30
0.0
 70
         8
  0
VERTEX
  5
3A5
100
AcDbEntity
  8
L1_120
  6
CONTINUOUS
 62
         7
100
AcDbVertex
100
AcDb3dPolylineVertex
 10
1241.0451392368
 20
-201.9528579999
 30
0.0
 70
        32
  0
VERTEX
  5
3A7
100
AcDbEntity
  8
L1_120
  6
CONTINUOUS
 62
         7
100
AcDbVertex
100
AcDb3dPolylineVertex
 10
1241.0451392368
 20
-201.9528579999
 30
0.0
 70
        32
  0
SEQEND
  5
3A9
100
AcDbEntity
  8
L1_120
  6
CONTINUOUS
 62
         7
  0
ARC
  5
3AA
100
AcDbEntity
  8
L1_120
  6
CONTINUOUS
 62
         7
100
AcDbCircle
 10
1239.984911144
 20
-200.1656184952
 30
0.0
 40
2.0780540551
100
AcDbArc
 50
276.8239621528
 51
300.6773100904
  0
POLYLINE
  5
3AC
100
AcDbEntity
  8
L1_120
  6
CONTINUOUS
 62
         7
100
AcDb3dPolyline
 66
         1
 10
0.0
 20
0.0
 30
0.0
 70
         8
  0
VERTEX
  5
3AE
100
AcDbEntity
  8
L1_120
  6
CONTINUOUS
 62
         7
100
AcDbVertex
100
AcDb3dPolylineVertex
 10
1240.231823936
 20
-202.2289514128
 30
0.0
 70
        32
  0
VERTEX
  5
3B0
100
AcDbEntity
  8
L1_120
  6
CONTINUOUS
 62
         7
100
AcDbVertex
100
AcDb3dPolylineVertex
 10
1240.231823936
 20
-202.2289514128
 30
0.0
 70
        32
  0
SEQEND
  5
3B2
100
AcDbEntity
  8
L1_120
  6
CONTINUOUS
 62
         7
  0
ARC
  5
3B3
100
AcDbEntity
  8
L1_120
  6
CONTINUOUS
 62
         7
100
AcDbCircle
 10
1240.0358214727
 20
-200.5910519294
 30
0.0
 40
1.6495853065
100
AcDbArc
 50
250.0
 51
276.8239621528
  0
POLYLINE
  5
3B5
100
AcDbEntity
  8
L1_120
  6
CONTINUOUS
 62
         7
100
AcDb3dPolyline
 66
         1
 10
0.0
 20
0.0
 30
0.0
 70
         8
  0
VERTEX
  5
3B7
100
AcDbEntity
  8
L1_120
  6
CONTINUOUS
 62
         7
100
AcDbVertex
100
AcDb3dPolylineVertex
 10
1239.4716300697
 20
-202.1411550693
 30
0.0
 70
        32
  0
VERTEX
  5
3B9
100
AcDbEntity
  8
L1_120
  6
CONTINUOUS
 62
         7
100
AcDbVertex
100
AcDb3dPolylineVertex
 10
1239.4716300697
 20
-202.1411550693
 30
0.0
 70
        32
  0
SEQEND
  5
3BB
100
AcDbEntity
  8
L1_120
  6
CONTINUOUS
 62
         7
  0
ARC
  5
3BC
100
AcDbEntity
  8
L1_120
  6
CONTINUOUS
 62
         7
100
AcDbCircle
 10
1240.0358214727
 20
-200.5910519294
 30
0.0
 40
1.6495853065
100
AcDbArc
 50
223.1760378472
 51
249.9999999999
  0
POLYLINE
  5
3BE
100
AcDbEntity
  8
L1_120
  6
CONTINUOUS
 62
         7
100
AcDb3dPolyline
 66
         1
 10
0.0
 20
0.0
 30
0.0
 70
         8
  0
VERTEX
  5
3C0
100
AcDbEntity
  8
L1_120
  6
CONTINUOUS
 62
         7
100
AcDbVertex
100
AcDb3dPolylineVertex
 10
1238.832853381
 20
-201.7197677722
 30
0.0
 70
        32
  0
VERTEX
  5
3C2
100
AcDbEntity
  8
L1_120
  6
CONTINUOUS
 62
         7
100
AcDbVertex
100
AcDb3dPolylineVertex
 10
1238.832853381
 20
-201.7197677722
 30
0.0
 70
        32
  0
SEQEND
  5
3C4
100
AcDbEntity
  8
L1_120
  6
CONTINUOUS
 62
         7
  0
ARC
  5
3C5
100
AcDbEntity
  8
L1_120
  6
CONTINUOUS
 62
         7
100
AcDbCircle
 10
1240.3482843874
 20
-200.2978755397
 30
0.0
 40
2.0780540551
100
AcDbArc
 50
199.3226899097
 51
223.1760378473
  0
POLYLINE
  5
3C7
100
AcDbEntity
  8
L1_120
  6
CONTINUOUS
 62
         7
100
AcDb3dPolyline
 66
         1
 10
0.0
 20
0.0
 30
0.0
 70
         8
  0
VERTEX
  5
3C9
100
AcDbEntity
  8
L1_120
  6
CONTINUOUS
 62
         7
100
AcDbVertex
100
AcDb3dPolylineVertex
 10
1238.3872871393
 20
-200.9854789493
 30
0.0
 70
        32
  0
VERTEX
  5
3CB
100
AcDbEntity
  8
L1_120
  6
CONTINUOUS
 62
         7
100
AcDbVertex
100
AcDb3dPolylineVertex
 10
1238.3872871393
 20
-200.9854789493
 30
0.0
 70
        32
  0
SEQEND
  5
3CD
100
AcDbEntity
  8
L1_120
  6
CONTINUOUS
 62
         7
  0
ARC
  5
3CE
100
AcDbEntity
  8
L1_120
  6
CONTINUOUS
 62
         7
100
AcDbCircle
 10
1240.7177206553
 20
-200.1683365321
 30
0.0
 40
2.4695428935
100
AcDbArc
 50
178.7422741421
 51
199.3226899097
  0
POLYLINE
  5
3D0
100
AcDbEntity
  8
L1_120
  6
CONTINUOUS
 62
         7
100
AcDb3dPolyline
 66
         1
 10
0.0
 20
0.0
 30
0.0
 70
         8
  0
VERTEX
  5
3D2
100
AcDbEntity
  8
L1_120
  6
CONTINUOUS
 62
         7
100
AcDbVertex
100
AcDb3dPolylineVertex
 10
1238.2487727329
 20
-200.1141308202
 30
0.0
 70
        32
  0
VERTEX
  5
3D4
100
AcDbEntity
  8
L1_120
  6
CONTINUOUS
 62
         7
100
AcDbVertex
100
AcDb3dPolylineVertex
 10
1238.2487727329
 20
-200.1141308202
 30
0.0
 70
        32
  0
SEQEND
  5
3D6
100
AcDbEntity
  8
L1_120
  6
CONTINUOUS
 62
         7
  0
ARC
  5
3D7
100
AcDbEntity
  8
L1_120
  6
CONTINUOUS
 62
         7
100
AcDbCircle
 10
1241.2202828813
 20
-200.1793702776
 30
0.0
 40
2.9722262277
100
AcDbArc
 50
160.0
 51
178.7422741421
  0
POLYLINE
  5
3D9
100
AcDbEntity
  8
L1_120
  6
CONTINUOUS
 62
         7
100
AcDb3dPolyline
 66
         1
 10
0.0
 20
0.0
 30
0.0
 70
         8
  0
VERTEX
  5
3DB
100
AcDbEntity
  8
L1_120
  6
CONTINUOUS
 62
         7
100
AcDbVertex
100
AcDb3dPolylineVertex
 10
1238.4273038278
 20
-199.1628090372
 30
0.0
 70
        32
  0
VERTEX
  5
3DD
100
AcDbEntity
  8
L1_120
  6
CONTINUOUS
 62
         7
100
AcDbVertex
100
AcDb3dPolylineVertex
 10
1238.4273038278
 20
-199.1628090372
 30
0.0
 70
        32
  0
SEQEND
  5
3DF
100
AcDbEntity
  8
L1_120
  6
CONTINUOUS
 62
         7
  0
ARC
  5
3E0
100
AcDbEntity
  8
L1_120
  6
CONTINUOUS
 62
         7
100
AcDbCircle
 10
1221.7960060118
 20
-250.1392246305
 30
0.0
 40
2.0780540551
100
AcDbArc
 50
19.3226899096
 51
43.1760378472
  0
ARC
  5
3E1
100
AcDbEntity
  8
L1_120
  6
CONTINUOUS
 62
         7
100
AcDbCircle
 10
1221.4265697438
 20
-250.2687636381
 30
0.0
 40
2.4695428935
100
AcDbArc
 50
358.742274142
 51
379.3226899097
  0
ARC
  5
3E2
100
AcDbEntity
  8
L1_120
  6
CONTINUOUS
 62
         7
100
AcDbCircle
 10
1222.7511951417
 20
-250.9227718001
 30
0.0
 40
2.9722262277
100
AcDbArc
 50
160.0
 51
178.742274142
  0
ARC
  5
3E3
100
AcDbEntity
  8
L1_120
  6
CONTINUOUS
 62
         7
100
AcDbCircle
 10
1222.2486329158
 20
-250.9117380545
 30
0.0
 40
2.4695428935
100
AcDbArc
 50
178.742274142
 51
199.3226899096
  0
ARC
  5
3E4
100
AcDbEntity
  8
L1_120
  6
CONTINUOUS
 62
         7
100
AcDbCircle
 10
1221.8791966478
 20
-251.0412770621
 30
0.0
 40
2.0780540551
100
AcDbArc
 50
199.3226899096
 51
223.1760378473
  0
POLYLINE
  5
3E6
100
AcDbEntity
  8
L1_120
  6
CONTINUOUS
 62
         7
100
AcDb3dPolyline
 66
         1
 10
0.0
 20
0.0
 30
0.0
 70
         8
  0
VERTEX
  5
3E8
100
AcDbEntity
  8
L1_120
  6
CONTINUOUS
 62
         7
100
AcDbVertex
100
AcDb3dPolylineVertex
 10
1220.3637656414
 20
-252.4631692947
 30
0.0
 70
        32
  0
VERTEX
  5
3EA
100
AcDbEntity
  8
L1_120
  6
CONTINUOUS
 62
         7
100
AcDbVertex
100
AcDb3dPolylineVertex
 10
1220.3637656414
 20
-252.4631692947
 30
0.0
 70
        32
  0
SEQEND
  5
3EC
100
AcDbEntity
  8
L1_120
  6
CONTINUOUS
 62
         7
  0
ARC
  5
3ED
100
AcDbEntity
  8
L1_120
  6
CONTINUOUS
 62
         7
100
AcDbCircle
 10
1221.5667337331
 20
-251.3344534519
 30
0.0
 40
1.6495853065
100
AcDbArc
 50
223.1760378472
 51
250.0
  0
POLYLINE
  5
3EF
100
AcDbEntity
  8
L1_120
  6
CONTINUOUS
 62
         7
100
AcDb3dPolyline
 66
         1
 10
0.0
 20
0.0
 30
0.0
 70
         8
  0
VERTEX
  5
3F1
100
AcDbEntity
  8
L1_120
  6
CONTINUOUS
 62
         7
100
AcDbVertex
100
AcDb3dPolylineVertex
 10
1221.0025423302
 20
-252.8845565917
 30
0.0
 70
        32
  0
VERTEX
  5
3F3
100
AcDbEntity
  8
L1_120
  6
CONTINUOUS
 62
         7
100
AcDbVertex
100
AcDb3dPolylineVertex
 10
1221.0025423302
 20
-252.8845565917
 30
0.0
 70
        32
  0
SEQEND
  5
3F5
100
AcDbEntity
  8
L1_120
  6
CONTINUOUS
 62
         7
  0
ARC
  5
3F6
100
AcDbEntity
  8
L1_120
  6
CONTINUOUS
 62
         7
100
AcDbCircle
 10
1221.5667337331
 20
-251.3344534519
 30
0.0
 40
1.6495853065
100
AcDbArc
 50
250.0
 51
276.8239621528
  0
POLYLINE
  5
3F8
100
AcDbEntity
  8
L1_120
  6
CONTINUOUS
 62
         7
100
AcDb3dPolyline
 66
         1
 10
0.0
 20
0.0
 30
0.0
 70
         8
  0
VERTEX
  5
3FA
100
AcDbEntity
  8
L1_120
  6
CONTINUOUS
 62
         7
100
AcDbVertex
100
AcDb3dPolylineVertex
 10
1221.7627361964
 20
-252.9723529353
 30
0.0
 70
        32
  0
VERTEX
  5
3FC
100
AcDbEntity
  8
L1_120
  6
CONTINUOUS
 62
         7
100
AcDbVertex
100
AcDb3dPolylineVertex
 10
1221.7627361964
 20
-252.9723529353
 30
0.0
 70
        32
  0
SEQEND
  5
3FE
100
AcDbEntity
  8
L1_120
  6
CONTINUOUS
 62
         7
  0
ARC
  5
3FF
100
AcDbEntity
  8
L1_120
  6
CONTINUOUS
 62
         7
100
AcDbCircle
 10
1221.5158234044
 20
-250.9090200176
 30
0.0
 40
2.0780540551
100
AcDbArc
 50
276.8239621528
 51
300.6773100903
  0
POLYLINE
  5
401
100
AcDbEntity
  8
L1_120
  6
CONTINUOUS
 62
         7
100
AcDb3dPolyline
 66
         1
 10
0.0
 20
0.0
 30
0.0
 70
         8
  0
VERTEX
  5
403
100
AcDbEntity
  8
L1_120
  6
CONTINUOUS
 62
         7
100
AcDbVertex
100
AcDb3dPolylineVertex
 10
1222.5760514972
 20
-252.6962595223
 30
0.0
 70
        32
  0
VERTEX
  5
405
100
AcDbEntity
  8
L1_120
  6
CONTINUOUS
 62
         7
100
AcDbVertex
100
AcDb3dPolylineVertex
 10
1222.5760514972
 20
-252.6962595223
 30
0.0
 70
        32
  0
SEQEND
  5
407
100
AcDbEntity
  8
L1_120
  6
CONTINUOUS
 62
         7
  0
ARC
  5
408
100
AcDbEntity
  8
L1_120
  6
CONTINUOUS
 62
         7
100
AcDbCircle
 10
1221.3160848733
 20
-250.572318325
 30
0.0
 40
2.4695428935
100
AcDbArc
 50
300.6773100904
 51
321.2577258581
  0
POLYLINE
  5
40A
100
AcDbEntity
  8
L1_120
  6
CONTINUOUS
 62
         7
100
AcDb3dPolyline
 66
         1
 10
0.0
 20
0.0
 30
0.0
 70
         8
  0
VERTEX
  5
40C
100
AcDbEntity
  8
L1_120
  6
CONTINUOUS
 62
         7
100
AcDbVertex
100
AcDb3dPolylineVertex
 10
1223.2422514696
 20
-252.1178034742
 30
0.0
 70
        32
  0
VERTEX
  5
40E
100
AcDbEntity
  8
L1_120
  6
CONTINUOUS
 62
         7
100
AcDbVertex
100
AcDb3dPolylineVertex
 10
1223.2422514696
 20
-252.1178034742
 30
0.0
 70
        32
  0
SEQEND
  5
410
100
AcDbEntity
  8
L1_120
  6
CONTINUOUS
 62
         7
  0
ARC
  5
411
100
AcDbEntity
  8
L1_120
  6
CONTINUOUS
 62
         7
100
AcDbCircle
 10
1220.9240075179
 20
-250.2577298926
 30
0.0
 40
2.9722262277
100
AcDbArc
 50
321.257725858
 51
340.0
  0
POLYLINE
  5
413
100
AcDbEntity
  8
L1_120
  6
CONTINUOUS
 62
         7
100
AcDb3dPolyline
 66
         1
 10
0.0
 20
0.0
 30
0.0
 70
         8
  0
VERTEX
  5
415
100
AcDbEntity
  8
L1_120
  6
CONTINUOUS
 62
         7
100
AcDbVertex
100
AcDb3dPolylineVertex
 10
1223.7169865714
 20
-251.274291133
 30
0.0
 70
        32
  0
VERTEX
  5
417
100
AcDbEntity
  8
L1_120
  6
CONTINUOUS
 62
         7
100
AcDbVertex
100
AcDb3dPolylineVertex
 10
1223.7169865714
 20
-251.274291133
 30
0.0
 70
        32
  0
SEQEND
  5
419
100
AcDbEntity
  8
L1_120
  6
CONTINUOUS
 62
         7
  0
ARC
  5
41A
100
AcDbEntity
  8
L1_120
  6
CONTINUOUS
 62
         7
100
AcDbCircle
 10
1220.9240075179
 20
-250.2577298926
 30
0.0
 40
2.9722262277
100
AcDbArc
 50
339.9999999999
 51
358.742274142
  0
POLYLINE
  5
41C
100
AcDbEntity
  8
L1_120
  6
CONTINUOUS
 62
         7
100
AcDb3dPolyline
 66
         1
 10
0.0
 20
0.0
 30
0.0
 70
         8
  0
VERTEX
  5
41E
100
AcDbEntity
  8
L1_120
  6
CONTINUOUS
 62
         7
100
AcDbVertex
100
AcDb3dPolylineVertex
 10
1223.8955176663
 20
-250.32296935
 30
0.0
 70
        32
  0
VERTEX
  5
420
100
AcDbEntity
  8
L1_120
  6
CONTINUOUS
 62
         7
100
AcDbVertex
100
AcDb3dPolylineVertex
 10
1223.8955176663
 20
-250.32296935
 30
0.0
 70
        32
  0
SEQEND
  5
422
100
AcDbEntity
  8
L1_120
  6
CONTINUOUS
 62
         7
  0
POLYLINE
  5
424
100
AcDbEntity
  8
L1_120
  6
CONTINUOUS
 62
         7
100
AcDb3dPolyline
 66
         1
 10
0.0
 20
0.0
 30
0.0
 70
         8
  0
VERTEX
  5
426
100
AcDbEntity
  8
L1_120
  6
CONTINUOUS
 62
         7
100
AcDbVertex
100
AcDb3dPolylineVertex
 10
1223.3114370182
 20
-248.717332398
 30
0.0
 70
        32
  0
VERTEX
  5
428
100
AcDbEntity
  8
L1_120
  6
CONTINUOUS
 62
         7
100
AcDbVertex
100
AcDb3dPolylineVertex
 10
1223.3114370182
 20
-248.717332398
 30
0.0
 70
        32
  0
SEQEND
  5
42A
100
AcDbEntity
  8
L1_120
  6
CONTINUOUS
 62
         7
  0
ARC
  5
42B
100
AcDbEntity
  8
L1_120
  6
CONTINUOUS
 62
         7
100
AcDbCircle
 10
1222.1084689265
 20
-249.8460482408
 30
0.0
 40
1.6495853065
100
AcDbArc
 50
43.1760378472
 51
70.0
  0
POLYLINE
  5
42D
100
AcDbEntity
  8
L1_120
  6
CONTINUOUS
 62
         7
100
AcDb3dPolyline
 66
         1
 10
0.0
 20
0.0
 30
0.0
 70
         8
  0
VERTEX
  5
42F
100
AcDbEntity
  8
L1_120
  6
CONTINUOUS
 62
         7
100
AcDbVertex
100
AcDb3dPolylineVertex
 10
1222.6726603294
 20
-248.2959451009
 30
0.0
 70
        32
  0
VERTEX
  5
431
100
AcDbEntity
  8
L1_120
  6
CONTINUOUS
 62
         7
100
AcDbVertex
100
AcDb3dPolylineVertex
 10
1222.6726603294
 20
-248.2959451009
 30
0.0
 70
        32
  0
SEQEND
  5
433
100
AcDbEntity
  8
L1_120
  6
CONTINUOUS
 62
         7
  0
ARC
  5
434
100
AcDbEntity
  8
L1_120
  6
CONTINUOUS
 62
         7
100
AcDbCircle
 10
1222.1084689265
 20
-249.8460482408
 30
0.0
 40
1.6495853065
100
AcDbArc
 50
70.0
 51
96.8239621528
  0
ARC
  5
435
100
AcDbEntity
  8
L1_120
  6
CONTINUOUS
 62
         7
100
AcDbCircle
 10
1222.1593792552
 20
-250.271481675
 30
0.0
 40
2.0780540551
100
AcDbArc
 50
96.8239621528
 51
120.6773100904
  0
POLYLINE
  5
437
100
AcDbEntity
  8
L1_120
  6
CONTINUOUS
 62
         7
100
AcDb3dPolyline
 66
         1
 10
0.0
 20
0.0
 30
0.0
 70
         8
  0
VERTEX
  5
439
100
AcDbEntity
  8
L1_120
  6
CONTINUOUS
 62
         7
100
AcDbVertex
100
AcDb3dPolylineVertex
 10
1221.0991511624
 20
-248.4842421703
 30
0.0
 70
        32
  0
VERTEX
  5
43B
100
AcDbEntity
  8
L1_120
  6
CONTINUOUS
 62
         7
100
AcDbVertex
100
AcDb3dPolylineVertex
 10
1221.0991511624
 20
-248.4842421703
 30
0.0
 70
        32
  0
SEQEND
  5
43D
100
AcDbEntity
  8
L1_120
  6
CONTINUOUS
 62
         7
  0
ARC
  5
43E
100
AcDbEntity
  8
L1_120
  6
CONTINUOUS
 62
         7
100
AcDbCircle
 10
1222.3591177863
 20
-250.6081833676
 30
0.0
 40
2.4695428935
100
AcDbArc
 50
120.6773100904
 51
141.257725858
  0
POLYLINE
  5
440
100
AcDbEntity
  8
L1_120
  6
CONTINUOUS
 62
         7
100
AcDb3dPolyline
 66
         1
 10
0.0
 20
0.0
 30
0.0
 70
         8
  0
VERTEX
  5
442
100
AcDbEntity
  8
L1_120
  6
CONTINUOUS
 62
         7
100
AcDbVertex
100
AcDb3dPolylineVertex
 10
1220.43295119
 20
-249.0626982184
 30
0.0
 70
        32
  0
VERTEX
  5
444
100
AcDbEntity
  8
L1_120
  6
CONTINUOUS
 62
         7
100
AcDbVertex
100
AcDb3dPolylineVertex
 10
1220.43295119
 20
-249.0626982184
 30
0.0
 70
        32
  0
SEQEND
  5
446
100
AcDbEntity
  8
L1_120
  6
CONTINUOUS
 62
         7
  0
ARC
  5
447
100
AcDbEntity
  8
L1_120
  6
CONTINUOUS
 62
         7
100
AcDbCircle
 10
1222.7511951417
 20
-250.9227718001
 30
0.0
 40
2.9722262277
100
AcDbArc
 50
141.257725858
 51
160.0
  0
POLYLINE
  5
449
100
AcDbEntity
  8
L1_120
  6
CONTINUOUS
 62
         7
100
AcDb3dPolyline
 66
         1
 10
0.0
 20
0.0
 30
0.0
 70
         8
  0
VERTEX
  5
44B
100
AcDbEntity
  8
L1_120
  6
CONTINUOUS
 62
         7
100
AcDbVertex
100
AcDb3dPolylineVertex
 10
1219.9582160882
 20
-249.9062105597
 30
0.0
 70
        32
  0
VERTEX
  5
44D
100
AcDbEntity
  8
L1_120
  6
CONTINUOUS
 62
         7
100
AcDbVertex
100
AcDb3dPolylineVertex
 10
1219.9582160882
 20
-249.9062105597
 30
0.0
 70
        32
  0
SEQEND
  5
44F
100
AcDbEntity
  8
L1_120
  6
CONTINUOUS
 62
         7
  0
LINE
  5
450
100
AcDbEntity
  8
L1_120
  6
CENTER
 62
         1
100
AcDbLine
 10
1224.6566791922
 20
-251.6163112763
 30
0.0
 11
1219.0185234674
 21
-249.5641904163
 31
0.0
  0
ARC
  5
451
100
AcDbEntity
  8
L1_120
  6
CONTINUOUS
 62
         7
100
AcDbCircle
 10
1231.0721451996
 20
-225.2185500851
 30
0.0
 40
31.775
100
AcDbArc
 50
195.411296411
 51
344.588703589
  0
ARC
  5
452
100
AcDbEntity
  8
L1_120
  6
CONTINUOUS
 62
         7
100
AcDbCircle
 10
1231.0721451996
 20
-225.2185500851
 30
0.0
 40
31.775
100
AcDbArc
 50
15.411296411
 51
164.588703589
  0
CIRCLE
  5
453
100
AcDbEntity
  8
L1_120
  6
CONTINUOUS
 62
         7
100
AcDbCircle
 10
1231.0721451996
 20
-225.2185500851
 30
0.0
 40
12.7165768873
  0
CIRCLE
  5
454
100
AcDbEntity
  8
L1_120
  6
CONTINUOUS
 62
         7
100
AcDbCircle
 10
1231.0721451996
 20
-225.2185500851
 30
0.0
 40
7.0
  0
ARC
  5
455
100
AcDbEntity
  8
L1_120
  6
CONTINUOUS
 62
         5
100
AcDbCircle
 10
1231.0721451996
 20
-225.2185500851
 30
0.0
 40
8.0
100
AcDbArc
 50
352.9901372228
 51
621.2264515101
  0
CIRCLE
  5
456
100
AcDbEntity
  8
L1_120
  6
CONTINUOUS
 62
         7
100
AcDbCircle
 10
1231.0721451996
 20
-225.2185500851
 30
0.0
 40
9.5
  0
CIRCLE
  5
457
100
AcDbEntity
  8
L1_120
  6
CONTINUOUS
 62
         7
100
AcDbCircle
 10
1231.0721451996
 20
-225.2185500851
 30
0.0
 40
8.5
  0
CIRCLE
  5
458
100
AcDbEntity
  8
L1_120
  6
CONTINUOUS
 62
         7
100
AcDbCircle
 10
1231.0721451996
 20
-225.2185500851
 30
0.0
 40
22.225
  0
LINE
  5
459
100
AcDbEntity
  8
L1_120
  6
CONTINUOUS
 62
         7
100
AcDbLine
 10
1261.3105271512
 20
-217.1685500851
 30
0.0
 11
1256.5721451996
 21
-217.1685500851
 31
0.0
  0
LINE
  5
45A
100
AcDbEntity
  8
L1_120
  6
CONTINUOUS
 62
         7
100
AcDbLine
 10
1261.7046124323
 20
-216.7744648039
 30
0.0
 11
1261.3105271512
 21
-217.1685500851
 31
0.0
  0
LINE
  5
45B
100
AcDbEntity
  8
L1_120
  6
CONTINUOUS
 62
         7
100
AcDbLine
 10
1256.0721451996
 20
-217.6685500851
 30
0.0
 11
1256.5721451996
 21
-217.1685500851
 31
0.0
  0
LINE
  5
45C
100
AcDbEntity
  8
L1_120
  6
CONTINUOUS
 62
         7
100
AcDbLine
 10
1261.7046124323
 20
-233.6626353663
 30
0.0
 11
1261.3105271512
 21
-233.2685500851
 31
0.0
  0
LINE
  5
45D
100
AcDbEntity
  8
L1_120
  6
CONTINUOUS
 62
         7
100
AcDbLine
 10
1256.0721451996
 20
-232.7685500851
 30
0.0
 11
1256.5721451996
 21
-233.2685500851
 31
0.0
  0
LINE
  5
45E
100
AcDbEntity
  8
L1_120
  6
CONTINUOUS
 62
         7
100
AcDbLine
 10
1256.0721451996
 20
-232.7685500851
 30
0.0
 11
1256.0721451996
 21
-217.6685500851
 31
0.0
  0
LINE
  5
45F
100
AcDbEntity
  8
L1_120
  6
CONTINUOUS
 62
         7
100
AcDbLine
 10
1261.3105271512
 20
-233.2685500851
 30
0.0
 11
1256.5721451996
 21
-233.2685500851
 31
0.0
  0
LINE
  5
460
100
AcDbEntity
  8
L1_120
  6
CONTINUOUS
 62
         7
100
AcDbLine
 10
1200.4396779669
 20
-216.7744648039
 30
0.0
 11
1200.833763248
 21
-217.1685500851
 31
0.0
  0
LINE
  5
461
100
AcDbEntity
  8
L1_120
  6
CONTINUOUS
 62
         7
100
AcDbLine
 10
1208.2721451996
 20
-217.6685500851
 30
0.0
 11
1207.7721451996
 21
-217.1685500851
 31
0.0
  0
LINE
  5
462
100
AcDbEntity
  8
L1_120
  6
CONTINUOUS
 62
         7
100
AcDbLine
 10
1207.7721451996
 20
-217.1685500851
 30
0.0
 11
1200.833763248
 21
-217.1685500851
 31
0.0
  0
LINE
  5
463
100
AcDbEntity
  8
L1_120
  6
CONTINUOUS
 62
         7
100
AcDbLine
 10
1200.4396779669
 20
-233.6626353663
 30
0.0
 11
1200.833763248
 21
-233.2685500851
 31
0.0
  0
LINE
  5
464
100
AcDbEntity
  8
L1_120
  6
CONTINUOUS
 62
         7
100
AcDbLine
 10
1207.7721451996
 20
-233.2685500851
 30
0.0
 11
1200.833763248
 21
-233.2685500851
 31
0.0
  0
LINE
  5
465
100
AcDbEntity
  8
L1_120
  6
CONTINUOUS
 62
         7
100
AcDbLine
 10
1208.2721451996
 20
-232.7685500851
 30
0.0
 11
1207.7721451996
 21
-233.2685500851
 31
0.0
  0
LINE
  5
466
100
AcDbEntity
  8
L1_120
  6
CONTINUOUS
 62
         7
100
AcDbLine
 10
1208.2721451996
 20
-232.7685500851
 30
0.0
 11
1208.2721451996
 21
-217.6685500851
 31
0.0
  0
ARC
  5
467
100
AcDbEntity
  8
L1_120
  6
CONTINUOUS
 62
         7
100
AcDbCircle
 10
1316.9008425579
 20
-329.0186220058
 30
0.0
 40
1.0
100
AcDbArc
 50
180.0
 51
270.0
  0
LINE
  5
468
100
AcDbEntity
  8
L1_120
  6
CONTINUOUS
 62
         7
100
AcDbLine
 10
1316.9008425579
 20
-330.0186220058
 30
0.0
 11
1319.6708425579
 21
-330.0186220058
 31
0.0
  0
ARC
  5
469
100
AcDbEntity
  8
L1_120
  6
CONTINUOUS
 62
         7
100
AcDbCircle
 10
1320.0703781381
 20
-330.1186220058
 30
0.0
 40
0.2
100
AcDbArc
 50
90.0
 51
105.0
  0
LINE
  5
46A
100
AcDbEntity
  8
L1_120
  6
CONTINUOUS
 62
         7
100
AcDbLine
 10
1320.0186143291
 20
-329.9254368405
 30
0.0
 11
1319.6708425579
 21
-330.0186220058
 31
0.0
  0
LINE
  5
46B
100
AcDbEntity
  8
L1_120
  6
CONTINUOUS
 62
         7
100
AcDbLine
 10
1320.0703781381
 20
-329.9186220058
 30
0.0
 11
1320.4708425579
 21
-329.9186220058
 31
0.0
  0
LINE
  5
46C
100
AcDbEntity
  8
L1_120
  6
CONTINUOUS
 62
         7
100
AcDbLine
 10
1320.6122639141
 20
-329.9772006495
 30
0.0
 11
1321.8036852703
 21
-331.1686220058
 31
0.0
  0
ARC
  5
46D
100
AcDbEntity
  8
L1_120
  6
CONTINUOUS
 62
         7
100
AcDbCircle
 10
1320.4708425579
 20
-330.1186220058
 30
0.0
 40
0.2
100
AcDbArc
 50
45.0000000038
 51
90.0
  0
LINE
  5
46E
100
AcDbEntity
  8
L1_120
  6
CONTINUOUS
 62
         7
100
AcDbLine
 10
1320.6708425579
 20
-330.3750991651
 30
0.0
 11
1320.6708425579
 21
-345.8473753413
 31
0.0
  0
LINE
  5
46F
100
AcDbEntity
  8
L1_120
  6
CONTINUOUS
 62
         7
100
AcDbLine
 10
1319.6708425579
 20
-330.0186220058
 30
0.0
 11
1319.6708425579
 21
-346.3186220058
 31
0.0
  0
LINE
  5
470
100
AcDbEntity
  8
L1_120
  6
CONTINUOUS
 62
         5
100
AcDbLine
 10
1320.8036852703
 20
-330.1686220058
 30
0.0
 11
1344.3508425579
 21
-330.1686220058
 31
0.0
  0
LINE
  5
471
100
AcDbEntity
  8
L1_120
  6
CONTINUOUS
 62
         7
100
AcDbLine
 10
1321.8036852703
 20
-331.1686220058
 30
0.0
 11
1363.6008425579
 21
-331.1686220058
 31
0.0
  0
LINE
  5
472
100
AcDbEntity
  8
L1_120
  6
CONTINUOUS
 62
         7
100
AcDbLine
 10
1321.8036852703
 20
-331.1686220058
 30
0.0
 11
1321.8036852703
 21
-345.1686220058
 31
0.0
  0
LINE
  5
473
100
AcDbEntity
  8
L1_120
  6
CONTINUOUS
 62
         7
100
AcDbLine
 10
1321.8036852703
 20
-345.1686220058
 30
0.0
 11
1363.6008425579
 21
-345.1686220058
 31
0.0
  0
LINE
  5
474
100
AcDbEntity
  8
L1_120
  6
CONTINUOUS
 62
         7
100
AcDbLine
 10
1320.6122639141
 20
-346.360043362
 30
0.0
 11
1321.8036852703
 21
-345.1686220058
 31
0.0
  0
ARC
  5
475
100
AcDbEntity
  8
L1_120
  6
CONTINUOUS
 62
         7
100
AcDbCircle
 10
1320.4708425579
 20
-346.2186220058
 30
0.0
 40
0.2
100
AcDbArc
 50
270.0
 51
314.9999999962
  0
LINE
  5
476
100
AcDbEntity
  8
L1_120
  6
CONTINUOUS
 62
         7
100
AcDbLine
 10
1320.0703781381
 20
-346.4186220058
 30
0.0
 11
1320.4708425579
 21
-346.4186220058
 31
0.0
  0
LINE
  5
477
100
AcDbEntity
  8
L1_120
  6
CONTINUOUS
 62
         7
100
AcDbLine
 10
1320.0186143291
 20
-346.411807171
 30
0.0
 11
1319.6708425579
 21
-346.3186220058
 31
0.0
  0
LINE
  5
478
100
AcDbEntity
  8
L1_120
  6
CONTINUOUS
 62
         7
100
AcDbLine
 10
1316.9008425579
 20
-346.3186220058
 30
0.0
 11
1319.6708425579
 21
-346.3186220058
 31
0.0
  0
ARC
  5
479
100
AcDbEntity
  8
L1_120
  6
CONTINUOUS
 62
         7
100
AcDbCircle
 10
1316.9008425579
 20
-347.3186220058
 30
0.0
 40
1.0
100
AcDbArc
 50
90.0
 51
180.0
  0
LINE
  5
47A
100
AcDbEntity
  8
L1_120
  6
CONTINUOUS
 62
         5
100
AcDbLine
 10
1320.8036852703
 20
-346.1686220058
 30
0.0
 11
1344.3508425579
 21
-346.1686220058
 31
0.0
  0
LINE
  5
47B
100
AcDbEntity
  8
L1_120
  6
CONTINUOUS
 62
         7
100
AcDbLine
 10
1344.3508425579
 20
-330.1686220058
 30
0.0
 11
1344.3508425579
 21
-346.1686220058
 31
0.0
  0
ARC
  5
47C
100
AcDbEntity
  8
L1_120
  6
CONTINUOUS
 62
         7
100
AcDbCircle
 10
1317.1008425579
 20
-235.5104151597
 30
0.0
 40
1.2
100
AcDbArc
 50
180.0
 51
261.7028550302
  0
ARC
  5
47D
100
AcDbEntity
  8
L1_120
  6
CONTINUOUS
 62
         7
100
AcDbCircle
 10
1317.1008425579
 20
-213.0420517268
 30
0.0
 40
1.2
100
AcDbArc
 50
98.2971449698
 51
180.0
  0
LINE
  5
47E
100
AcDbEntity
  8
L1_120
  6
CONTINUOUS
 62
         7
100
AcDbLine
 10
1315.9008425579
 20
-213.0420517268
 30
0.0
 11
1315.9008425579
 21
-235.5104151597
 31
0.0
  0
LINE
  5
47F
100
AcDbEntity
  8
L1_120
  6
CONTINUOUS
 62
         7
100
AcDbLine
 10
1316.9276742862
 20
-236.6978547369
 30
0.0
 11
1385.3508425579
 21
-246.6762334432
 31
0.0
  0
LINE
  5
480
100
AcDbEntity
  8
L1_120
  6
CONTINUOUS
 62
         7
100
AcDbLine
 10
1316.9276742862
 20
-211.8546121495
 30
0.0
 11
1385.3508425579
 21
-201.8762334432
 31
0.0
  0
LINE
  5
481
100
AcDbEntity
  8
L1_120
  6
CENTER
 62
         1
100
AcDbLine
 10
1315.9008425579
 20
-224.2762334432
 30
0.0
 11
1419.1508425579
 21
-224.2762334432
 31
0.0
  0
LINE
  5
482
100
AcDbEntity
  8
L1_120
  6
CONTINUOUS
 62
         7
100
AcDbLine
 10
1315.9008425579
 20
-213.0420517268
 30
0.0
 11
1315.9008425579
 21
-235.5104151597
 31
0.0
  0
LINE
  5
483
100
AcDbEntity
  8
L1_120
  6
CENTER
 62
         1
100
AcDbLine
 10
1312.0684106267
 20
-338.1686220058
 30
0.0
 11
1428.6008425579
 21
-338.1686220058
 31
0.0
  0
TEXT
  5
485
100
AcDbEntity
  8
L1_120
  6
CONTINUOUS
 62
         2
100
AcDbText
 10
1478.1743226855
 20
-161.9223582476
 30
0.0
 40
4.5
  1
522046
 41
0.98
  7
BOX
100
AcDbText
  0
LINE
  5
486
100
AcDbEntity
  8
L1_120
  6
CENTER
 62
         1
100
AcDbLine
 10
1231.0721451996
 20
-193.4435500851
 30
0.0
 11
1231.0721451996
 21
-256.9935500851
 31
0.0
  0
LINE
  5
487
100
AcDbEntity
  8
L1_120
  6
CENTER
 62
         1
100
AcDbLine
 10
1193.76139216
 20
-225.0406455357
 30
0.0
 11
1269.969672421
 21
-225.0406455357
 31
0.0
  0
ENDSEC
  0
SECTION
  2
OBJECTS
  0
DICTIONARY
  5
19
100
AcDbDictionary
  3
ACAD_GROUP
350
1A
  3
ACAD_MLINESTYLE
350
1B
  0
DICTIONARY
  5
1A
102
{ACAD_REACTORS
330
19
102
}
100
AcDbDictionary
  0
DICTIONARY
  5
1B
102
{ACAD_REACTORS
330
19
102
}
100
AcDbDictionary
  3
STANDARD
350
1C
  0
MLINESTYLE
  5
1C
102
{ACAD_REACTORS
330
1B
102
}
100
AcDbMlineStyle
  2
STANDARD
 70
         0
  3

 62
         0
 51
90.0
 52
90.0
 71
         2
 49
0.5
 62
       256
  6
BYLAYER
 49
-0.5
 62
       256
  6
BYLAYER
  0
ENDSEC
  0
EOF
