  0
SECTION
  2
HEADER
  9
$ACADVER
  1
AC1014
  9
$ACADMAINTVER
 70
         0
  9
$DWGCODEPAGE
  3
BIG5
  9
$INSBASE
 10
0.0
 20
0.0
 30
0.0
  9
$EXTMIN
 10
1100.4285043541
 20
-373.3537691478
 30
0.0
  9
$EXTMAX
 10
1603.5868494048
 20
-127.2624365304
 30
0.0
  9
$LIMMIN
 10
0.0
 20
0.0
  9
$LIMMAX
 10
0.0
 20
0.0
  9
$ORTHOMODE
 70
         0
  9
$REGENMODE
 70
         1
  9
$FILLMODE
 70
         1
  9
$QTEXTMODE
 70
         0
  9
$MIRRTEXT
 70
         1
  9
$DRAGMODE
 70
         2
  9
$LTSCALE
 40
1.0
  9
$OSMODE
 70
         0
  9
$ATTMODE
 70
         1
  9
$TEXTSIZE
 40
1.7
  9
$TRACEWID
 40
0.05
  9
$TEXTSTYLE
  7
STANDARD
  9
$CLAYER
  8
0
  9
$CELTYPE
  6
CONTINUOUS
  9
$CECOLOR
 62
         1
  9
$CELTSCALE
 40
1.0
  9
$DELOBJ
 70
         1
  9
$DISPSILH
 70
         0
  9
$DIMSCALE
 40
1.0
  9
$DIMASZ
 40
0.18
  9
$DIMEXO
 40
0.0625
  9
$DIMDLI
 40
0.38
  9
$DIMRND
 40
0.0
  9
$DIMDLE
 40
0.0
  9
$DIMEXE
 40
0.25
  9
$DIMTP
 40
0.01
  9
$DIMTM
 40
-0.01
  9
$DIMTXT
 40
2.7
  9
$DIMCEN
 40
0.09
  9
$DIMTSZ
 40
0.0
  9
$DIMTOL
 70
         0
  9
$DIMLIM
 70
         0
  9
$DIMTIH
 70
         1
  9
$DIMTOH
 70
         1
  9
$DIMSE1
 70
         0
  9
$DIMSE2
 70
         0
  9
$DIMTAD
 70
         0
  9
$DIMZIN
 70
         0
  9
$DIMBLK
  1

  9
$DIMASO
 70
         1
  9
$DIMSHO
 70
         1
  9
$DIMPOST
  1

  9
$DIMAPOST
  1

  9
$DIMALT
 70
         0
  9
$DIMALTD
 70
         2
  9
$DIMALTF
 40
25.4
  9
$DIMLFAC
 40
1.0
  9
$DIMTOFL
 70
         0
  9
$DIMTVP
 40
0.0
  9
$DIMTIX
 70
         0
  9
$DIMSOXD
 70
         0
  9
$DIMSAH
 70
         0
  9
$DIMBLK1
  1

  9
$DIMBLK2
  1

  9
$DIMSTYLE
  2
STANDARD
  9
$DIMCLRD
 70
         0
  9
$DIMCLRE
 70
         0
  9
$DIMCLRT
 70
         1
  9
$DIMTFAC
 40
1.0
  9
$DIMGAP
 40
0.09
  9
$DIMJUST
 70
         0
  9
$DIMSD1
 70
         0
  9
$DIMSD2
 70
         0
  9
$DIMTOLJ
 70
         1
  9
$DIMTZIN
 70
         0
  9
$DIMALTZ
 70
         0
  9
$DIMALTTZ
 70
         0
  9
$DIMFIT
 70
         3
  9
$DIMUPT
 70
         0
  9
$DIMUNIT
 70
         2
  9
$DIMDEC
 70
         4
  9
$DIMTDEC
 70
         4
  9
$DIMALTU
 70
         2
  9
$DIMALTTD
 70
         2
  9
$DIMTXSTY
  7
STANDARD
  9
$DIMAUNIT
 70
         0
  9
$LUNITS
 70
         2
  9
$LUPREC
 70
        10
  9
$SKETCHINC
 40
0.1
  9
$FILLETRAD
 40
0.0
  9
$AUNITS
 70
         0
  9
$AUPREC
 70
         0
  9
$MENU
  1
acad
  9
$ELEVATION
 40
0.0
  9
$PELEVATION
 40
0.0
  9
$THICKNESS
 40
0.0
  9
$LIMCHECK
 70
         0
  9
$BLIPMODE
 70
         1
  9
$CHAMFERA
 40
0.0
  9
$CHAMFERB
 40
0.0
  9
$CHAMFERC
 40
0.0
  9
$CHAMFERD
 40
0.0
  9
$SKPOLY
 70
         0
  9
$TDCREATE
 40
0.000000000
  9
$TDUPDATE
 40
0.000000000
  9
$TDINDWG
 40
0.0000000000
  9
$TDUSRTIMER
 40
0.0000000000
  9
$USRTIMER
 70
         1
  9
$ANGBASE
 50
0.0
  9
$ANGDIR
 70
         0
  9
$PDMODE
 70
         2
  9
$PDSIZE
 40
0.0
  9
$PLINEWID
 40
0.0
  9
$COORDS
 70
         0
  9
$SPLFRAME
 70
         0
  9
$SPLINETYPE
 70
         6
  9
$SPLINESEGS
 70
         8
  9
$ATTDIA
 70
         0
  9
$ATTREQ
 70
         1
  9
$HANDLING
 70
         1
  9
$HANDSEED
  5
38A
  9
$SURFTAB1
 70
         6
  9
$SURFTAB2
 70
         6
  9
$SURFTYPE
 70
         6
  9
$SURFU
 70
         6
  9
$SURFV
 70
         6
  9
$UCSNAME
  2

  9
$UCSORG
 10
0.0
 20
0.0
 30
0.0
  9
$UCSXDIR
 10
1.0
 20
0.0
 30
0.0
  9
$UCSYDIR
 10
0.0
 20
1.0
 30
0.0
  9
$PUCSNAME
  2

  9
$PUCSORG
 10
0.0
 20
0.0
 30
0.0
  9
$PUCSXDIR
 10
1.0
 20
0.0
 30
0.0
  9
$PUCSYDIR
 10
0.0
 20
1.0
 30
0.0
  9
$USERI1
 70
         0
  9
$USERI2
 70
         0
  9
$USERI3
 70
         0
  9
$USERI4
 70
         0
  9
$USERI5
 70
         0
  9
$USERR1
 40
0.0
  9
$USERR2
 40
0.0
  9
$USERR3
 40
0.0
  9
$USERR4
 40
0.0
  9
$USERR5
 40
0.0
  9
$WORLDVIEW
 70
         1
  9
$SHADEDGE
 70
         3
  9
$SHADEDIF
 70
        70
  9
$TILEMODE
 70
         1
  9
$MAXACTVP
 70
        16
  9
$PINSBASE
 10
0.0
 20
0.0
 30
0.0
  9
$PLIMCHECK
 70
         0
  9
$PEXTMIN
 10
1.0000000000E+20
 20
1.0000000000E+20
 30
1.0000000000E+20
  9
$PEXTMAX
 10
-1.0000000000E+20
 20
-1.0000000000E+20
 30
-1.0000000000E+20
  9
$PLIMMIN
 10
0.0
 20
0.0
  9
$PLIMMAX
 10
12.0
 20
9.0
  9
$UNITMODE
 70
         0
  9
$VISRETAIN
 70
         0
  9
$PLINEGEN
 70
         1
  9
$PSLTSCALE
 70
         0
  9
$TREEDEPTH
 70
      3020
  9
$PICKSTYLE
 70
         1
  9
$CMLSTYLE
  2
STANDARD
  9
$CMLJUST
 70
         0
  9
$CMLSCALE
 40
1.0
  9
$PROXYGRAPHICS
 70
         0
  9
$MEASUREMENT
 70
         0
  0
ENDSEC
  0
SECTION
  2
CLASSES
  0
CLASS
  1
LWPOLYLINE
  2
AcDbPolyline
  3
"AutoCAD"
 90
        0
280
         0
281
         1
  0
CLASS
  1
IMAGE
  2
AcDbRasterImage
  3
ISM
 90
      127
280
         0
281
         1
  0
CLASS
  1
OLE2FRAME
  2
AcDbOle2Frame
  3
""
 90
        0
280
         0
281
         1
  0
CLASS
  1
HATCH
  2
AcDbHatch
  3
"ACAD_SEDONA"
 90
        0
280
         0
281
         1
  0
CLASS
  1
DICTIONARYVAR
  2
AcDbDictionaryVar
  3
"AutoCAD"
 90
        0
280
         0
281
         0
  0
CLASS
  1
RASTERVARIABLES
  2
AcDbRasterVariables
  3
ISM
 90
        0
280
         0
281
         0
  0
CLASS
  1
IMAGEDEF
  2
AcDbRasterImageDef
  3
ISM
 90
        0
280
         0
281
         0
  0
CLASS
  1
IMAGEDEF_REACTOR
  2
AcDbRasterImageDefReactor
  3
ISM
 90
        1
280
         0
281
         0
  0
CLASS
  1
IDBUFFER
  2
AcDbIdBuffer
  3
"Acad"
 90
        0
280
         0
281
         0
  0
CLASS
  1
SPATIAL_FILTER
  2
AcDbSpatialFilter
  3
"Acad"
 90
        0
280
         0
281
         0
  0
CLASS
  1
XRECORD
  2
AcDbXrecord
  3
"<Built In>"
 90
        0
280
         0
281
         0
  0
CLASS
  1
SORTENTSTABLE
  2
AcDbSortentsTable
  3
"AutoCAD"
 90
        0
280
         0
281
         0
  0
CLASS
  1
LAYER_INDEX
  2
AcDbLayerIndex
  3
"Acad"
 90
        0
280
         0
281
         0
  0
CLASS
  1
SPATIAL_INDEX
  2
AcDbSpatialIndex
  3
"Acad"
 90
        0
280
         0
281
         0
  0
CLASS
  1
OBJECT_PTR
  2
CAseDLPNTableRecord
  3
"ASE-LPNTableRecord"
 90
        1
280
         0
281
         0
  0
CLASS
  1
LAYOUT
  2
AcDbLayout
  3
"AutoCAD 2000"
 90
        1
280
         0
281
         0
  0
CLASS
  1
PLOTSETTINGS
  2
AcDbPlotSettings
  3
"AutoCAD 2000"
 90
        1
280
         0
281
         0
  0
CLASS
  1
ACDBDICTIONARYWDFLT
  2
AcDbDictionaryWithDefault
  3
"AutoCAD 2000"
 90
        1
280
         0
281
         0
  0
CLASS
  1
ACDBPLACEHOLDER
  2
AcDbPlaceHolder
  3
"AutoCAD 2000"
 90
        1
280
         0
281
         0
  0
CLASS
  1
VBA_PROJECT
  2
AcDbVbaProject
  3
"acadvba"
 90
        1
280
         0
281
         0
  0
CLASS
  1
WIPEOUT
  2
AcDbWipeout
  3
WipeOut|AutoCAD Express Tool|expresstools@autodesk.com
 90
      127
280
         0
281
         1
  0
CLASS
  1
WIPEOUTVARIABLES
  2
AcDbWipeoutVariables
  3
WipeOut|AutoCAD Express Tool|expresstools@autodesk.com
 90
        0
280
         0
281
         0
  0
CLASS
  1
RTEXT
  2
RText
  3
RText|AutoCAD Express Tool|expresstools@autodesk.com
 90
        0
280
         0
281
         1
  0
CLASS
  1
ARCALIGNEDTEXT
  2
AcDbArcAlignedText
  3
ATEXT|AutoCAD Express Tool|expresstools@autodesk.com
 90
        0
280
         0
281
         1
  0
ENDSEC
  0
SECTION
  2
TABLES
  0
TABLE
  2
VPORT
  5
7
100
AcDbSymbolTable
 70
         1
  0
VPORT
  5
15
100
AcDbSymbolTableRecord
100
AcDbViewportTableRecord
  2
*ACTIVE
 70
         0
 10
0.0
 20
0.0
 11
1.0
 21
1.0
 12
1352.0076768794
 22
-250.3081028391
 13
0.0
 23
0.0
 14
1.0
 24
1.0
 15
0.0
 25
0.0
 16
0.0
 26
0.0
 36
1.0
 17
0.0
 27
0.0
 37
0.0
 40
246.0913326174
 41
2.0446000259
 42
50.0
 43
0.0
 44
0.0
 50
0.0
 51
0.0
 71
         0
 72
       100
 73
         1
 74
         1
 75
         0
 76
         0
 77
         0
 78
         0
  0
ENDTAB
  0
TABLE
  2
LTYPE
  5
4
100
AcDbSymbolTable
 70
         6
  0
LTYPE
  5
11
100
AcDbSymbolTableRecord
100
AcDbLinetypeTableRecord
  2
BYBLOCK
 70
        64
  3

 72
        65
 73
         0
 40
0.0
  0
LTYPE
  5
12
100
AcDbSymbolTableRecord
100
AcDbLinetypeTableRecord
  2
BYLAYER
 70
        64
  3

 72
        65
 73
         0
 40
0.0
  0
LTYPE
  5
13
100
AcDbSymbolTableRecord
100
AcDbLinetypeTableRecord
  2
CONTINUOUS
 70
        64
  3
Solid line
 72
        65
 73
         0
 40
0.0
  0
LTYPE
  5
1D
100
AcDbSymbolTableRecord
100
AcDbLinetypeTableRecord
  2
DASHED
 70
        64
  3
_ _ _ _ _ _ _ _ _ _ _ _ _ _ _ _
 72
        65
 73
         2
 40
0.2
 49
0.1
 74
         0
 49
-0.1
 74
         0
  0
LTYPE
  5
1E
100
AcDbSymbolTableRecord
100
AcDbLinetypeTableRecord
  2
CENTER
 70
        64
  3
___ _ ___ _ ___ _ ___ _ ___ _ ___ _ ___ _ ___ _
 72
        65
 73
         4
 40
0.95
 49
0.625
 74
         0
 49
-0.125
 74
         0
 49
0.075
 74
         0
 49
-0.125
 74
         0
  0
LTYPE
  5
1F
100
AcDbSymbolTableRecord
100
AcDbLinetypeTableRecord
  2
PHANTOM
 70
        64
  3
______  __  __  ______  __  __  ______  __  __  
 72
        65
 73
         6
 40
1.025
 49
0.625
 74
         0
 49
-0.125
 74
         0
 49
0.075
 74
         0
 49
-0.125
 74
         0
 49
0.075
 74
         0
 49
-0.125
 74
         0
  0
ENDTAB
  0
TABLE
  2
LAYER
  5
2
100
AcDbSymbolTable
 70
         6
  0
LAYER
  5
14
100
AcDbSymbolTableRecord
100
AcDbLayerTableRecord
  2
0
 70
         0
 62
         7
  6
CONTINUOUS
  0
LAYER
  5
21
100
AcDbSymbolTableRecord
100
AcDbLayerTableRecord
  2
_____U
 70
         1
 62
         7
  6
CONTINUOUS
  0
LAYER
  5
22
100
AcDbSymbolTableRecord
100
AcDbLayerTableRecord
  2
_____T______
 70
         1
 62
         7
  6
CONTINUOUS
  0
LAYER
  5
23
100
AcDbSymbolTableRecord
100
AcDbLayerTableRecord
  2
______L_______
 70
         1
 62
         7
  6
CONTINUOUS
  0
LAYER
  5
24
100
AcDbSymbolTableRecord
100
AcDbLayerTableRecord
  2
L1_120
 70
         0
 62
         7
  6
CONTINUOUS
  0
LAYER
  5
DF
100
AcDbSymbolTableRecord
100
AcDbLayerTableRecord
  2
DEFPOINTS
 70
         0
 62
        -7
  6
CONTINUOUS
  0
ENDTAB
  0
TABLE
  2
STYLE
  5
3
100
AcDbSymbolTable
 70
        11
  0
STYLE
  5
17
100
AcDbSymbolTableRecord
100
AcDbTextStyleTableRecord
  2
STANDARD
 70
         0
 40
0.0
 41
1.0
 50
0.0
 71
         0
 42
0.0
  3
txt
  4

  0
STYLE
  5
E8
100
AcDbSymbolTableRecord
100
AcDbTextStyleTableRecord
  2
BOX
 70
         0
 40
1.0
 41
1.0
 50
0.0
 71
         0
 42
0.2
  3
txt.shx
  4

  0
STYLE
  5
117
100
AcDbSymbolTableRecord
100
AcDbTextStyleTableRecord
  2
BOX
 70
         0
 40
1.0
 41
1.0
 50
0.0
 71
         0
 42
0.2
  3
txt.shx
  4

  0
STYLE
  5
125
100
AcDbSymbolTableRecord
100
AcDbTextStyleTableRecord
  2
BOX
 70
         0
 40
1.0
 41
1.0
 50
0.0
 71
         0
 42
0.2
  3
txt.shx
  4

  0
STYLE
  5
133
100
AcDbSymbolTableRecord
100
AcDbTextStyleTableRecord
  2
BOX
 70
         0
 40
1.0
 41
1.0
 50
0.0
 71
         0
 42
0.2
  3
txt.shx
  4

  0
STYLE
  5
141
100
AcDbSymbolTableRecord
100
AcDbTextStyleTableRecord
  2
BOX
 70
         0
 40
1.0
 41
1.0
 50
0.0
 71
         0
 42
0.2
  3
txt.shx
  4

  0
STYLE
  5
14F
100
AcDbSymbolTableRecord
100
AcDbTextStyleTableRecord
  2
BOX
 70
         0
 40
1.0
 41
1.0
 50
0.0
 71
         0
 42
0.2
  3
txt.shx
  4

  0
STYLE
  5
154
100
AcDbSymbolTableRecord
100
AcDbTextStyleTableRecord
  2
BOX
 70
         0
 40
1.0
 41
1.0
 50
0.0
 71
         0
 42
0.2
  3
txt.shx
  4

  0
STYLE
  5
36A
100
AcDbSymbolTableRecord
100
AcDbTextStyleTableRecord
  2
BOX
 70
         0
 40
1.0
 41
1.0
 50
0.0
 71
         0
 42
0.2
  3
txt.shx
  4

  0
STYLE
  5
379
100
AcDbSymbolTableRecord
100
AcDbTextStyleTableRecord
  2
BOX
 70
         0
 40
1.0
 41
1.0
 50
0.0
 71
         0
 42
0.2
  3
txt.shx
  4

  0
STYLE
  5
387
100
AcDbSymbolTableRecord
100
AcDbTextStyleTableRecord
  2
BOX
 70
         0
 40
1.0
 41
1.0
 50
0.0
 71
         0
 42
0.2
  3
txt.shx
  4

  0
ENDTAB
  0
TABLE
  2
VIEW
  5
5
100
AcDbSymbolTable
 70
         0
  0
ENDTAB
  0
TABLE
  2
UCS
  5
6
100
AcDbSymbolTable
 70
         1
  0
UCS
  5
20
100
AcDbSymbolTableRecord
100
AcDbUCSTableRecord
  2
CK_VIEW_1
 70
         0
 10
0.0
 20
0.0
 30
1.0
 11
1.0
 21
0.0
 31
0.0
 12
0.0
 22
1.0
 32
0.0
  0
ENDTAB
  0
TABLE
  2
APPID
  5
8
100
AcDbSymbolTable
 70
         1
  0
APPID
  5
16
100
AcDbSymbolTableRecord
100
AcDbRegAppTableRecord
  2
ACAD
 70
         0
  0
ENDTAB
  0
TABLE
  2
DIMSTYLE
  5
9
100
AcDbSymbolTable
 70
         2
  0
DIMSTYLE
105
18
100
AcDbSymbolTableRecord
100
AcDbDimStyleTableRecord
  2
STANDARD
 70
         0
  3

  4

  5

  6

  7

 40
1.0
 41
0.18
 42
0.0625
 43
0.38
 44
0.18
 45
0.0
 46
0.0
 47
0.0
 48
0.0
 71
         0
 72
         0
 73
         1
 74
         1
 75
         0
 76
         0
 77
         0
 78
         0
140
0.18
141
0.09
142
0.0
143
25.4
144
1.0
145
0.0
146
1.0
147
0.09
170
         0
171
         2
172
         0
173
         0
174
         0
175
         0
176
         0
177
         0
178
         0
270
         2
271
         4
272
         4
273
         2
274
         2
275
         0
280
         0
281
         0
282
         0
283
         1
284
         0
285
         0
286
         0
287
         0
288
         0
340
17
  0
DIMSTYLE
105
DB
100
AcDbSymbolTableRecord
100
AcDbDimStyleTableRecord
  2
DIMSTYLE1
 70
         0
  3

  4

  5

  6

  7

 40
1.0
 41
2.7
 42
0.0625
 43
0.38
 44
2.7
 45
0.0
 46
0.0
 47
0.0
 48
0.0
 71
         0
 72
         0
 73
         1
 74
         1
 75
         0
 76
         0
 77
         0
 78
         0
140
2.7
141
0.09
142
0.0
143
25.4
144
1.0
145
0.0
146
1.0
147
0.09
170
         0
171
         2
172
         0
173
         0
174
         0
175
         0
176
         0
177
         0
178
         0
270
         2
271
         4
272
         4
273
         2
274
         2
275
         0
280
         0
281
         0
282
         0
283
         1
284
         0
285
         0
286
         0
287
         0
288
         0
340
17
  0
ENDTAB
  0
TABLE
  2
BLOCK_RECORD
  5
1
100
AcDbSymbolTable
 70
        10
  0
BLOCK_RECORD
  5
A
100
AcDbSymbolTableRecord
100
AcDbBlockTableRecord
  2
*MODEL_SPACE
  0
BLOCK_RECORD
  5
B
100
AcDbSymbolTableRecord
100
AcDbBlockTableRecord
  2
*PAPER_SPACE
  0
BLOCK_RECORD
  5
26
100
AcDbSymbolTableRecord
100
AcDbBlockTableRecord
  2
*X0
  0
BLOCK_RECORD
  5
DC
100
AcDbSymbolTableRecord
100
AcDbBlockTableRecord
  2
*D1
  0
BLOCK_RECORD
  5
10A
100
AcDbSymbolTableRecord
100
AcDbBlockTableRecord
  2
*D2
  0
BLOCK_RECORD
  5
11A
100
AcDbSymbolTableRecord
100
AcDbBlockTableRecord
  2
*D3
  0
BLOCK_RECORD
  5
128
100
AcDbSymbolTableRecord
100
AcDbBlockTableRecord
  2
*D4
  0
BLOCK_RECORD
  5
136
100
AcDbSymbolTableRecord
100
AcDbBlockTableRecord
  2
*D5
  0
BLOCK_RECORD
  5
144
100
AcDbSymbolTableRecord
100
AcDbBlockTableRecord
  2
*D6
  0
BLOCK_RECORD
  5
35E
100
AcDbSymbolTableRecord
100
AcDbBlockTableRecord
  2
*D7
  0
BLOCK_RECORD
  5
36E
100
AcDbSymbolTableRecord
100
AcDbBlockTableRecord
  2
*D8
  0
BLOCK_RECORD
  5
37C
100
AcDbSymbolTableRecord
100
AcDbBlockTableRecord
  2
*D9
  0
ENDTAB
  0
ENDSEC
  0
SECTION
  2
BLOCKS
  0
BLOCK
  5
D
100
AcDbEntity
  8
0
100
AcDbBlockBegin
  2
*MODEL_SPACE
 70
         0
 10
0.0
 20
0.0
 30
0.0
  3
*MODEL_SPACE
  1

  0
ENDBLK
  5
E
100
AcDbEntity
  8
0
100
AcDbBlockEnd
  0
BLOCK
  5
F
100
AcDbEntity
 67
         1
  8
0
100
AcDbBlockBegin
  2
*PAPER_SPACE
 70
         0
 10
0.0
 20
0.0
 30
0.0
  3
*PAPER_SPACE
  1

  0
ENDBLK
  5
10
100
AcDbEntity
 67
         1
  8
0
100
AcDbBlockEnd
  0
BLOCK
  5
27
100
AcDbEntity
  8
0
100
AcDbBlockBegin
  2
*X0
 70
        65
 10
0.0
 20
0.0
 30
0.0
  3
*X0
  1

  0
LINE
  5
28
100
AcDbEntity
  8
L1_120
  6
CONTINUOUS
 62
         4
100
AcDbLine
 10
1401.9682011725
 20
-333.6592208954
 30
0.0
 11
1408.746168462
 21
-326.8812536059
 31
0.0
  0
LINE
  5
29
100
AcDbEntity
  8
L1_120
  6
CONTINUOUS
 62
         4
100
AcDbLine
 10
1397.7255530329
 20
-333.6592283479
 30
0.0
 11
1407.2505466434
 21
-324.1342347374
 31
0.0
  0
LINE
  5
2A
100
AcDbEntity
  8
L1_120
  6
CONTINUOUS
 62
         4
100
AcDbLine
 10
1393.4829123458
 20
-333.6592283479
 30
0.0
 11
1400.7179123458
 21
-326.4242283479
 31
0.0
  0
LINE
  5
2B
100
AcDbEntity
  8
L1_120
  6
CONTINUOUS
 62
         4
100
AcDbLine
 10
1391.394168462
 20
-331.5053315445
 30
0.0
 11
1398.7652716587
 21
-324.1342283479
 31
0.0
  0
LINE
  5
2C
100
AcDbEntity
  8
L1_120
  6
CONTINUOUS
 62
         4
100
AcDbLine
 10
1378.5876309716
 20
-340.0692283479
 30
0.0
 11
1380.298168462
 21
-338.3586908574
 31
0.0
  0
LINE
  5
2D
100
AcDbEntity
  8
L1_120
  6
CONTINUOUS
 62
         4
100
AcDbLine
 10
1391.394168462
 20
-327.2626908574
 30
0.0
 11
1394.5226309716
 21
-324.1342283479
 31
0.0
  0
LINE
  5
2E
100
AcDbEntity
  8
L1_120
  6
CONTINUOUS
 62
         4
100
AcDbLine
 10
1407.2226309716
 20
-311.4342283479
 30
0.0
 11
1408.746168462
 21
-309.9106908574
 31
0.0
  0
LINE
  5
2F
100
AcDbEntity
  8
L1_120
  6
CONTINUOUS
 62
         4
100
AcDbLine
 10
1374.3449902845
 20
-340.0692283479
 30
0.0
 11
1380.394168462
 21
-334.0200501703
 31
0.0
  0
LINE
  5
30
100
AcDbEntity
  8
L1_120
  6
CONTINUOUS
 62
         4
100
AcDbLine
 10
1403.496168462
 20
-310.9180501703
 30
0.0
 11
1407.6480793732
 21
-306.7661392591
 31
0.0
  0
LINE
  5
31
100
AcDbEntity
  8
L1_120
  6
CONTINUOUS
 62
         4
100
AcDbLine
 10
1360.6123495972
 20
-349.559228348
 30
0.0
 11
1364.346168462
 21
-345.8254094832
 31
0.0
  0
LINE
  5
32
100
AcDbEntity
  8
L1_120
  6
CONTINUOUS
 62
         4
100
AcDbLine
 10
1370.1023495974
 20
-340.0692283479
 30
0.0
 11
1381.394168462
 21
-328.7774094832
 31
0.0
  0
LINE
  5
33
100
AcDbEntity
  8
L1_120
  6
CONTINUOUS
 62
         4
100
AcDbLine
 10
1398.7373495973
 20
-311.4342283479
 30
0.0
 11
1400.296168462
 21
-309.8754094832
 31
0.0
  0
LINE
  5
34
100
AcDbEntity
  8
L1_120
  6
CONTINUOUS
 62
         4
100
AcDbLine
 10
1401.0273495973
 20
-309.1442283479
 30
0.0
 11
1405.5267590297
 21
-304.6448189155
 31
0.0
  0
LINE
  5
35
100
AcDbEntity
  8
L1_120
  6
CONTINUOUS
 62
         4
100
AcDbLine
 10
1358.5966904623
 20
-347.3322467958
 30
0.0
 11
1364.346168462
 21
-341.5827687961
 31
0.0
  0
LINE
  5
36
100
AcDbEntity
  8
L1_120
  6
CONTINUOUS
 62
         4
100
AcDbLine
 10
1365.8597089102
 20
-340.0692283479
 30
0.0
 11
1381.394168462
 21
-324.5347687961
 31
0.0
  0
LINE
  5
37
100
AcDbEntity
  8
L1_120
  6
CONTINUOUS
 62
         4
100
AcDbLine
 10
1394.4947089102
 20
-311.4342283479
 30
0.0
 11
1403.4054386861
 21
-302.523498572
 31
0.0
  0
LINE
  5
38
100
AcDbEntity
  8
L1_120
  6
CONTINUOUS
 62
         4
100
AcDbLine
 10
1352.1270682229
 20
-349.559228348
 30
0.0
 11
1353.7426609713
 21
-347.9436355996
 31
0.0
  0
LINE
  5
39
100
AcDbEntity
  8
L1_120
  6
CONTINUOUS
 62
         4
100
AcDbLine
 10
1355.7770682231
 20
-345.9092283479
 30
0.0
 11
1377.5520682231
 21
-324.1342283479
 31
0.0
  0
LINE
  5
3A
100
AcDbEntity
  8
L1_120
  6
CONTINUOUS
 62
         4
100
AcDbLine
 10
1390.2520682231
 20
-311.4342283479
 30
0.0
 11
1396.2571449704
 21
-305.4291516006
 31
0.0
  0
LINE
  5
3B
100
AcDbEntity
  8
L1_120
  6
CONTINUOUS
 62
         4
100
AcDbLine
 10
1348.446168462
 20
-348.9974874218
 30
0.0
 11
1373.309427536
 21
-324.1342283479
 31
0.0
  0
LINE
  5
3C
100
AcDbEntity
  8
L1_120
  6
CONTINUOUS
 62
         4
100
AcDbLine
 10
1386.009427536
 20
-311.4342283479
 30
0.0
 11
1391.1542447383
 21
-306.2894111455
 31
0.0
  0
LINE
  5
3D
100
AcDbEntity
  8
L1_120
  6
CONTINUOUS
 62
         4
100
AcDbLine
 10
1348.446168462
 20
-344.7548467347
 30
0.0
 11
1369.0667868489
 21
-324.1342283479
 31
0.0
  0
LINE
  5
3E
100
AcDbEntity
  8
L1_120
  6
CONTINUOUS
 62
         4
100
AcDbLine
 10
1381.7667868489
 20
-311.4342283479
 30
0.0
 11
1387.8260890602
 21
-305.3749261366
 31
0.0
  0
LINE
  5
3F
100
AcDbEntity
  8
L1_120
  6
CONTINUOUS
 62
         4
100
AcDbLine
 10
1348.351551491
 20
-340.6068230187
 30
0.0
 11
1364.8241461617
 21
-324.1342283479
 31
0.0
  0
LINE
  5
40
100
AcDbEntity
  8
L1_120
  6
CONTINUOUS
 62
         4
100
AcDbLine
 10
1377.5241461618
 20
-311.4342283479
 30
0.0
 11
1385.2958335884
 21
-303.6625409212
 31
0.0
  0
LINE
  5
41
100
AcDbEntity
  8
L1_120
  6
CONTINUOUS
 62
         4
100
AcDbLine
 10
1344.7751898548
 20
-339.9405439676
 30
0.0
 11
1360.0815054746
 21
-324.6342283479
 31
0.0
  0
LINE
  5
42
100
AcDbEntity
  8
L1_120
  6
CONTINUOUS
 62
         4
100
AcDbLine
 10
1373.2815054746
 20
-311.4342283479
 30
0.0
 11
1382.8414712934
 21
-301.8742625291
 31
0.0
  0
LINE
  5
43
100
AcDbEntity
  8
L1_120
  6
CONTINUOUS
 62
         4
100
AcDbLine
 10
1341.0725216188
 20
-339.4005715166
 30
0.0
 11
1355.8388647875
 21
-324.6342283479
 31
0.0
  0
LINE
  5
44
100
AcDbEntity
  8
L1_120
  6
CONTINUOUS
 62
         4
100
AcDbLine
 10
1369.0388647875
 20
-311.4342283479
 30
0.0
 11
1380.4950291013
 21
-299.9780640341
 31
0.0
  0
LINE
  5
45
100
AcDbEntity
  8
L1_120
  6
CONTINUOUS
 62
         4
100
AcDbLine
 10
1337.3698533828
 20
-338.8605990655
 30
0.0
 11
1351.5962241004
 21
-324.6342283479
 31
0.0
  0
LINE
  5
46
100
AcDbEntity
  8
L1_120
  6
CONTINUOUS
 62
         4
100
AcDbLine
 10
1364.7962241004
 20
-311.4342283479
 30
0.0
 11
1380.2646962812
 21
-295.965756167
 31
0.0
  0
LINE
  5
47
100
AcDbEntity
  8
L1_120
  6
CONTINUOUS
 62
         4
100
AcDbLine
 10
1333.6671851468
 20
-338.3206266144
 30
0.0
 11
1347.3535834133
 21
-324.6342283479
 31
0.0
  0
LINE
  5
48
100
AcDbEntity
  8
L1_120
  6
CONTINUOUS
 62
         4
100
AcDbLine
 10
1361.0535834133
 20
-310.9342283479
 30
0.0
 11
1376.4885834133
 21
-295.4992283479
 31
0.0
  0
LINE
  5
49
100
AcDbEntity
  8
L1_120
  6
CONTINUOUS
 62
         4
100
AcDbLine
 10
1329.9645169107
 20
-337.7806541633
 30
0.0
 11
1342.9609427262
 21
-324.7842283479
 31
0.0
  0
LINE
  5
4A
100
AcDbEntity
  8
L1_120
  6
CONTINUOUS
 62
         4
100
AcDbLine
 10
1358.0961606338
 20
-309.6490104402
 30
0.0
 11
1372.2459427262
 21
-295.4992283479
 31
0.0
  0
LINE
  5
4B
100
AcDbEntity
  8
L1_120
  6
CONTINUOUS
 62
         4
100
AcDbLine
 10
1326.2618486747
 20
-337.2406817122
 30
0.0
 11
1338.718302039
 21
-324.7842283479
 31
0.0
  0
LINE
  5
4C
100
AcDbEntity
  8
L1_120
  6
CONTINUOUS
 62
         4
100
AcDbLine
 10
1352.568302039
 20
-310.9342283479
 30
0.0
 11
1354.7961610005
 21
-308.7063693864
 31
0.0
  0
LINE
  5
4D
100
AcDbEntity
  8
L1_120
  6
CONTINUOUS
 62
         4
100
AcDbLine
 10
1358.0961622842
 20
-305.4063681027
 30
0.0
 11
1368.003302039
 21
-295.4992283479
 31
0.0
  0
LINE
  5
4E
100
AcDbEntity
  8
L1_120
  6
CONTINUOUS
 62
         4
100
AcDbLine
 10
1322.5591804387
 20
-336.7007092611
 30
0.0
 11
1334.4756613519
 21
-324.7842283479
 31
0.0
  0
LINE
  5
4F
100
AcDbEntity
  8
L1_120
  6
CONTINUOUS
 62
         4
100
AcDbLine
 10
1348.3256613519
 20
-310.9342283479
 30
0.0
 11
1354.796162651
 21
-304.4637270488
 31
0.0
  0
LINE
  5
50
100
AcDbEntity
  8
L1_120
  6
CONTINUOUS
 62
         4
100
AcDbLine
 10
1358.0961639347
 20
-301.1637257651
 30
0.0
 11
1364.346168462
 21
-294.9137212377
 31
0.0
  0
LINE
  5
51
100
AcDbEntity
  8
L1_120
  6
CONTINUOUS
 62
         4
100
AcDbLine
 10
1318.8565122026
 20
-336.16073681
 30
0.0
 11
1330.2330206648
 21
-324.7842283479
 31
0.0
  0
LINE
  5
52
100
AcDbEntity
  8
L1_120
  6
CONTINUOUS
 62
         4
100
AcDbLine
 10
1344.0830206648
 20
-310.9342283479
 30
0.0
 11
1354.7961643014
 21
-300.2210847112
 31
0.0
  0
LINE
  5
53
100
AcDbEntity
  8
L1_120
  6
CONTINUOUS
 62
         4
100
AcDbLine
 10
1358.2247609925
 20
-296.7924880202
 30
0.0
 11
1364.346168462
 21
-290.6710805506
 31
0.0
  0
LINE
  5
54
100
AcDbEntity
  8
L1_120
  6
CONTINUOUS
 62
         4
100
AcDbLine
 10
1315.1538439666
 20
-335.6207643589
 30
0.0
 11
1325.9903799777
 21
-324.7842283479
 31
0.0
  0
LINE
  5
55
100
AcDbEntity
  8
L1_120
  6
CONTINUOUS
 62
         4
100
AcDbLine
 10
1339.9903799777
 20
-310.7842283479
 30
0.0
 11
1354.0513273794
 21
-296.7232809461
 31
0.0
  0
LINE
  5
56
100
AcDbEntity
  8
L1_120
  6
CONTINUOUS
 62
         4
100
AcDbLine
 10
1358.4461673718
 20
-292.3284409537
 30
0.0
 11
1364.3057742199
 21
-286.4688341057
 31
0.0
  0
LINE
  5
57
100
AcDbEntity
  8
L1_120
  6
CONTINUOUS
 62
         4
100
AcDbLine
 10
1311.4511757306
 20
-335.0807919078
 30
0.0
 11
1321.7477392906
 21
-324.7842283479
 31
0.0
  0
LINE
  5
58
100
AcDbEntity
  8
L1_120
  6
CONTINUOUS
 62
         4
100
AcDbLine
 10
1335.7477392906
 20
-310.7842283479
 30
0.0
 11
1351.5559610246
 21
-294.9760066139
 31
0.0
  0
LINE
  5
59
100
AcDbEntity
  8
L1_120
  6
CONTINUOUS
 62
         4
100
AcDbLine
 10
1353.9254106667
 20
-292.6065569718
 30
0.0
 11
1354.4461674662
 21
-292.0858001722
 31
0.0
  0
LINE
  5
5A
100
AcDbEntity
  8
L1_120
  6
CONTINUOUS
 62
         4
100
AcDbLine
 10
1359.0077722075
 20
-287.5241954309
 30
0.0
 11
1360.5227392907
 21
-286.0092283477
 31
0.0
  0
LINE
  5
5B
100
AcDbEntity
  8
L1_120
  6
CONTINUOUS
 62
         4
100
AcDbLine
 10
1307.7485074945
 20
-334.5408194568
 30
0.0
 11
1317.5050986034
 21
-324.7842283479
 31
0.0
  0
LINE
  5
5C
100
AcDbEntity
  8
L1_120
  6
CONTINUOUS
 62
         4
100
AcDbLine
 10
1331.5050986034
 20
-310.7842283479
 30
0.0
 11
1346.9050986034
 21
-295.3842283479
 31
0.0
  0
LINE
  5
5D
100
AcDbEntity
  8
L1_120
  6
CONTINUOUS
 62
         4
100
AcDbLine
 10
1348.446168462
 20
-293.8431584893
 30
0.0
 11
1349.0605946697
 21
-293.2287322816
 31
0.0
  0
LINE
  5
5E
100
AcDbEntity
  8
L1_120
  6
CONTINUOUS
 62
         4
100
AcDbLine
 10
1351.4300443118
 20
-290.8592826395
 30
0.0
 11
1354.0800796172
 21
-288.2092473341
 31
0.0
  0
LINE
  5
5F
100
AcDbEntity
  8
L1_120
  6
CONTINUOUS
 62
         4
100
AcDbLine
 10
1304.0458392585
 20
-334.0008470057
 30
0.0
 11
1313.2624579163
 21
-324.7842283479
 31
0.0
  0
LINE
  5
60
100
AcDbEntity
  8
L1_120
  6
CONTINUOUS
 62
         4
100
AcDbLine
 10
1327.2624579163
 20
-310.7842283479
 30
0.0
 11
1342.0164585549
 21
-296.0302277093
 31
0.0
  0
LINE
  5
61
100
AcDbEntity
  8
L1_120
  6
CONTINUOUS
 62
         4
100
AcDbLine
 10
1349.2218839742
 20
-288.82480229
 30
0.0
 11
1352.0374579165
 21
-286.0092283477
 31
0.0
  0
LINE
  5
62
100
AcDbEntity
  8
L1_120
  6
CONTINUOUS
 62
         4
100
AcDbLine
 10
1300.3431710225
 20
-333.4608745546
 30
0.0
 11
1309.0198172292
 21
-324.7842283479
 31
0.0
  0
LINE
  5
63
100
AcDbEntity
  8
L1_120
  6
CONTINUOUS
 62
         4
100
AcDbLine
 10
1323.0198172292
 20
-310.7842283479
 30
0.0
 11
1337.0494645797
 21
-296.7545809974
 31
0.0
  0
LINE
  5
64
100
AcDbEntity
  8
L1_120
  6
CONTINUOUS
 62
         4
100
AcDbLine
 10
1296.6405027864
 20
-332.9209021035
 30
0.0
 11
1304.7771765421
 21
-324.7842283479
 31
0.0
  0
LINE
  5
65
100
AcDbEntity
  8
L1_120
  6
CONTINUOUS
 62
         4
100
AcDbLine
 10
1318.7771765421
 20
-310.7842283479
 30
0.0
 11
1332.0824706045
 21
-297.4789342854
 31
0.0
  0
LINE
  5
66
100
AcDbEntity
  8
L1_120
  6
CONTINUOUS
 62
         4
100
AcDbLine
 10
1292.9378345504
 20
-332.3809296524
 30
0.0
 11
1300.534535855
 21
-324.7842283479
 31
0.0
  0
LINE
  5
67
100
AcDbEntity
  8
L1_120
  6
CONTINUOUS
 62
         4
100
AcDbLine
 10
1314.534535855
 20
-310.7842283479
 30
0.0
 11
1327.1154766294
 21
-298.2032875734
 31
0.0
  0
LINE
  5
68
100
AcDbEntity
  8
L1_120
  6
CONTINUOUS
 62
         4
100
AcDbLine
 10
1289.2351663144
 20
-331.8409572013
 30
0.0
 11
1296.2918951678
 21
-324.7842283479
 31
0.0
  0
LINE
  5
69
100
AcDbEntity
  8
L1_120
  6
CONTINUOUS
 62
         4
100
AcDbLine
 10
1310.2918951678
 20
-310.7842283479
 30
0.0
 11
1322.1484826542
 21
-298.9276408615
 31
0.0
  0
LINE
  5
6A
100
AcDbEntity
  8
L1_120
  6
CONTINUOUS
 62
         4
100
AcDbLine
 10
1285.5324980783
 20
-331.3009847502
 30
0.0
 11
1292.0492544807
 21
-324.7842283479
 31
0.0
  0
LINE
  5
6B
100
AcDbEntity
  8
L1_120
  6
CONTINUOUS
 62
         4
100
AcDbLine
 10
1306.0492544807
 20
-310.7842283479
 30
0.0
 11
1317.181488679
 21
-299.6519941495
 31
0.0
  0
LINE
  5
6C
100
AcDbEntity
  8
L1_120
  6
CONTINUOUS
 62
         4
100
AcDbLine
 10
1281.8298298423
 20
-330.7610122991
 30
0.0
 11
1287.8066137936
 21
-324.7842283479
 31
0.0
  0
LINE
  5
6D
100
AcDbEntity
  8
L1_120
  6
CONTINUOUS
 62
         4
100
AcDbLine
 10
1301.8066137936
 20
-310.7842283479
 30
0.0
 11
1312.2144947039
 21
-300.3763474376
 31
0.0
  0
LINE
  5
6E
100
AcDbEntity
  8
L1_120
  6
CONTINUOUS
 62
         4
100
AcDbLine
 10
1278.1271616063
 20
-330.2210398481
 30
0.0
 11
1283.5639731065
 21
-324.7842283479
 31
0.0
  0
LINE
  5
6F
100
AcDbEntity
  8
L1_120
  6
CONTINUOUS
 62
         4
100
AcDbLine
 10
1297.5639731065
 20
-310.7842283479
 30
0.0
 11
1307.2475007287
 21
-301.1007007256
 31
0.0
  0
LINE
  5
70
100
AcDbEntity
  8
L1_120
  6
CONTINUOUS
 62
         4
100
AcDbLine
 10
1276.996168462
 20
-327.1093923052
 30
0.0
 11
1278.1713324194
 21
-325.9342283479
 31
0.0
  0
LINE
  5
71
100
AcDbEntity
  8
L1_120
  6
CONTINUOUS
 62
         4
100
AcDbLine
 10
1293.3213324194
 20
-310.7842283479
 30
0.0
 11
1302.2805067535
 21
-301.8250540137
 31
0.0
  0
LINE
  5
72
100
AcDbEntity
  8
L1_120
  6
CONTINUOUS
 62
         4
100
AcDbLine
 10
1289.0786917322
 20
-310.7842283479
 30
0.0
 11
1297.3135127784
 21
-302.5494073017
 31
0.0
  0
LINE
  5
73
100
AcDbEntity
  8
L1_120
  6
CONTINUOUS
 62
         4
100
AcDbLine
 10
1284.8360510451
 20
-310.7842283479
 30
0.0
 11
1292.3465188032
 21
-303.2737605898
 31
0.0
  0
LINE
  5
74
100
AcDbEntity
  8
L1_120
  6
CONTINUOUS
 62
         4
100
AcDbLine
 10
1281.7462107663
 20
-309.6314279396
 30
0.0
 11
1287.3795248281
 21
-303.9981138778
 31
0.0
  0
LINE
  5
75
100
AcDbEntity
  8
L1_120
  6
CONTINUOUS
 62
         4
100
AcDbLine
 10
1277.587905364
 20
-309.5470926547
 30
0.0
 11
1282.4125308529
 21
-304.7224671659
 31
0.0
  0
ENDBLK
  5
76
100
AcDbEntity
  8
0
  6
CONTINUOUS
100
AcDbBlockEnd
  0
BLOCK
  5
DD
100
AcDbEntity
  8
0
100
AcDbBlockBegin
  2
*D1
 70
        65
 10
0.0
 20
0.0
 30
0.0
  3
*D1
  1

  0
POINT
  5
E0
100
AcDbEntity
  8
DEFPOINTS
  6
CONTINUOUS
 62
         0
100
AcDbPoint
 10
1343.746168462
 20
-361.4927994833
 30
0.0
  0
POINT
  5
E1
100
AcDbEntity
  8
DEFPOINTS
  6
CONTINUOUS
 62
         0
100
AcDbPoint
 10
1343.746168462
 20
-324.6342283479
 30
0.0
  0
POINT
  5
E2
100
AcDbEntity
  8
DEFPOINTS
  6
CONTINUOUS
 62
         0
100
AcDbPoint
 10
1408.746168462
 20
-327.7036229566
 30
0.0
  0
LINE
  5
E3
100
AcDbEntity
  8
L1_120
  6
CONTINUOUS
 62
         4
100
AcDbLine
 10
1343.746168462
 20
-325.9842283479
 30
0.0
 11
1343.746168462
 21
-362.1677994833
 31
0.0
  0
LINE
  5
E4
100
AcDbEntity
  8
L1_120
  6
CONTINUOUS
 62
         4
100
AcDbLine
 10
1408.746168462
 20
-329.0536229566
 30
0.0
 11
1408.746168462
 21
-362.1677994833
 31
0.0
  0
LINE
  5
E5
100
AcDbEntity
  8
L1_120
  6
CONTINUOUS
 62
         4
100
AcDbLine
 10
1343.746168462
 20
-361.4927994833
 30
0.0
 11
1408.746168462
 21
-361.4927994833
 31
0.0
  0
SOLID
  5
E6
100
AcDbEntity
  8
L1_120
  6
CONTINUOUS
 62
         4
100
AcDbTrace
 10
1343.746168462
 20
-361.4927994833
 30
0.0
 11
1346.446168462
 21
-361.0877994833
 31
0.0
 12
1346.446168462
 22
-361.8977994833
 32
0.0
 13
1343.746168462
 23
-361.4927994833
 33
0.0
  0
SOLID
  5
E7
100
AcDbEntity
  8
L1_120
  6
CONTINUOUS
 62
         4
100
AcDbTrace
 10
1408.746168462
 20
-361.4927994833
 30
0.0
 11
1406.046168462
 21
-361.8977994833
 31
0.0
 12
1406.046168462
 22
-361.0877994833
 32
0.0
 13
1408.746168462
 23
-361.4927994833
 33
0.0
  0
TEXT
  5
E9
100
AcDbEntity
  8
L1_120
  6
CONTINUOUS
 62
         4
100
AcDbText
 10
1373.9345936387
 20
-359.4677994833
 30
0.0
 40
2.7
  1
65
  7
BOX
100
AcDbText
  0
ENDBLK
  5
EA
100
AcDbEntity
  8
0
  6
CONTINUOUS
100
AcDbBlockEnd
  0
BLOCK
  5
10B
100
AcDbEntity
  8
0
100
AcDbBlockBegin
  2
*D2
 70
        65
 10
0.0
 20
0.0
 30
0.0
  3
*D2
  1

  0
POINT
  5
10D
100
AcDbEntity
  8
DEFPOINTS
  6
CONTINUOUS
 62
         0
100
AcDbPoint
 10
1408.746168462
 20
-196.3240468172
 30
0.0
  0
POINT
  5
10E
100
AcDbEntity
  8
DEFPOINTS
  6
CONTINUOUS
 62
         0
100
AcDbPoint
 10
1408.746168462
 20
-214.9201953476
 30
0.0
  0
POINT
  5
10F
100
AcDbEntity
  8
DEFPOINTS
  6
CONTINUOUS
 62
         0
100
AcDbPoint
 10
1408.3068286338
 20
-215.9808555194
 30
0.0
  0
POINT
  5
110
100
AcDbEntity
  8
DEFPOINTS
  6
CONTINUOUS
 62
         0
100
AcDbPoint
 10
1403.3763495084
 20
-220.9113346448
 30
0.0
  0
LINE
  5
111
100
AcDbEntity
  8
L1_120
  6
CONTINUOUS
 62
         4
100
AcDbLine
 10
1402.4217553538
 20
-221.8659287994
 30
0.0
 11
1393.5497935357
 21
-230.7378906175
 31
0.0
  0
LINE
  5
112
100
AcDbEntity
  8
L1_120
  6
CONTINUOUS
 62
         4
100
AcDbLine
 10
1408.746168462
 20
-216.2701953476
 30
0.0
 11
1408.746168462
 21
-237.0324352109
 31
0.0
  0
ARC
  5
113
100
AcDbEntity
  8
L1_120
  6
CONTINUOUS
 62
         4
100
AcDbCircle
 10
1408.746168462
 20
-215.5415156912
 30
0.0
 40
20.8159195197
100
AcDbArc
 50
225.0
 51
247.5
  0
SOLID
  5
114
100
AcDbEntity
  8
L1_120
  6
CONTINUOUS
 62
         4
100
AcDbTrace
 10
1394.027090613
 20
-230.2605935402
 30
0.0
 11
1396.3231465926
 21
-231.7378044048
 31
0.0
 12
1395.7886861735
 22
-232.3464521359
 32
0.0
 13
1394.027090613
 23
-230.2605935402
 33
0.0
  0
ARC
  5
115
100
AcDbEntity
  8
L1_120
  6
CONTINUOUS
 62
         4
100
AcDbCircle
 10
1408.746168462
 20
-215.5415156912
 30
0.0
 40
20.8159195197
100
AcDbArc
 50
247.5
 51
270.0
  0
SOLID
  5
116
100
AcDbEntity
  8
L1_120
  6
CONTINUOUS
 62
         4
100
AcDbTrace
 10
1408.746168462
 20
-236.3574352109
 30
0.0
 11
1406.0256075379
 21
-236.5867238019
 31
0.0
 12
1406.0780658893
 22
-235.7784242774
 32
0.0
 13
1408.746168462
 23
-236.3574352109
 33
0.0
  0
TEXT
  5
118
100
AcDbEntity
  8
L1_120
  6
CONTINUOUS
 62
         4
100
AcDbText
 10
1398.5447632531
 20
-230.9188157105
 30
0.0
 40
2.7
  1
45%%d
 50
334.3016087296
  7
BOX
100
AcDbText
  0
ENDBLK
  5
119
100
AcDbEntity
  8
0
  6
CONTINUOUS
100
AcDbBlockEnd
  0
BLOCK
  5
11B
100
AcDbEntity
  8
0
100
AcDbBlockBegin
  2
*D3
 70
        65
 10
0.0
 20
0.0
 30
0.0
  3
*D3
  1

  0
POINT
  5
11D
100
AcDbEntity
  8
DEFPOINTS
  6
CONTINUOUS
 62
         0
100
AcDbPoint
 10
1426.2573854143
 20
-195.7021210824
 30
0.0
  0
POINT
  5
11E
100
AcDbEntity
  8
DEFPOINTS
  6
CONTINUOUS
 62
         0
100
AcDbPoint
 10
1408.746168462
 20
-195.7021210824
 30
0.0
  0
POINT
  5
11F
100
AcDbEntity
  8
DEFPOINTS
  6
CONTINUOUS
 62
         0
100
AcDbPoint
 10
1408.746168462
 20
-215.5421210824
 30
0.0
  0
LINE
  5
120
100
AcDbEntity
  8
L1_120
  6
CONTINUOUS
 62
         4
100
AcDbLine
 10
1410.096168462
 20
-195.7021210824
 30
0.0
 11
1426.9323854143
 21
-195.7021210824
 31
0.0
  0
LINE
  5
121
100
AcDbEntity
  8
L1_120
  6
CONTINUOUS
 62
         4
100
AcDbLine
 10
1410.096168462
 20
-215.5421210824
 30
0.0
 11
1426.9323854143
 21
-215.5421210824
 31
0.0
  0
LINE
  5
122
100
AcDbEntity
  8
L1_120
  6
CONTINUOUS
 62
         4
100
AcDbLine
 10
1426.2573854143
 20
-195.7021210824
 30
0.0
 11
1426.2573854143
 21
-215.5421210824
 31
0.0
  0
SOLID
  5
123
100
AcDbEntity
  8
L1_120
  6
CONTINUOUS
 62
         4
100
AcDbTrace
 10
1426.2573854143
 20
-195.7021210824
 30
0.0
 11
1426.6623854143
 21
-198.4021210824
 31
0.0
 12
1425.8523854143
 22
-198.4021210824
 32
0.0
 13
1426.2573854143
 23
-195.7021210824
 33
0.0
  0
SOLID
  5
124
100
AcDbEntity
  8
L1_120
  6
CONTINUOUS
 62
         4
100
AcDbTrace
 10
1426.2573854143
 20
-215.5421210824
 30
0.0
 11
1425.8523854143
 21
-212.8421210824
 31
0.0
 12
1426.6623854143
 22
-212.8421210824
 32
0.0
 13
1426.2573854143
 23
-215.5421210824
 33
0.0
  0
TEXT
  5
126
100
AcDbEntity
  8
L1_120
  6
CONTINUOUS
 62
         4
100
AcDbText
 10
1424.2323854143
 20
-215.4084650857
 30
0.0
 40
2.7
  1
崷19.84
 50
90.0
  7
BOX
100
AcDbText
  0
ENDBLK
  5
127
100
AcDbEntity
  8
0
  6
CONTINUOUS
100
AcDbBlockEnd
  0
BLOCK
  5
129
100
AcDbEntity
  8
0
100
AcDbBlockBegin
  2
*D4
 70
        65
 10
0.0
 20
0.0
 30
0.0
  3
*D4
  1

  0
POINT
  5
12B
100
AcDbEntity
  8
DEFPOINTS
  6
CONTINUOUS
 62
         0
100
AcDbPoint
 10
1436.2157615889
 20
-189.7471210824
 30
0.0
  0
POINT
  5
12C
100
AcDbEntity
  8
DEFPOINTS
  6
CONTINUOUS
 62
         0
100
AcDbPoint
 10
1405.9621359461
 20
-189.7471210824
 30
0.0
  0
POINT
  5
12D
100
AcDbEntity
  8
DEFPOINTS
  6
CONTINUOUS
 62
         0
100
AcDbPoint
 10
1405.9621359461
 20
-221.4971210824
 30
0.0
  0
LINE
  5
12E
100
AcDbEntity
  8
L1_120
  6
CONTINUOUS
 62
         4
100
AcDbLine
 10
1407.3121359461
 20
-189.7471210824
 30
0.0
 11
1436.8907615889
 21
-189.7471210824
 31
0.0
  0
LINE
  5
12F
100
AcDbEntity
  8
L1_120
  6
CONTINUOUS
 62
         4
100
AcDbLine
 10
1407.3121359461
 20
-221.4971210824
 30
0.0
 11
1436.8907615889
 21
-221.4971210824
 31
0.0
  0
LINE
  5
130
100
AcDbEntity
  8
L1_120
  6
CONTINUOUS
 62
         4
100
AcDbLine
 10
1436.2157615889
 20
-189.7471210824
 30
0.0
 11
1436.2157615889
 21
-221.4971210824
 31
0.0
  0
SOLID
  5
131
100
AcDbEntity
  8
L1_120
  6
CONTINUOUS
 62
         4
100
AcDbTrace
 10
1436.2157615889
 20
-189.7471210824
 30
0.0
 11
1436.6207615889
 21
-192.4471210824
 31
0.0
 12
1435.8107615889
 22
-192.4471210824
 32
0.0
 13
1436.2157615889
 23
-189.7471210824
 33
0.0
  0
SOLID
  5
132
100
AcDbEntity
  8
L1_120
  6
CONTINUOUS
 62
         4
100
AcDbTrace
 10
1436.2157615889
 20
-221.4971210824
 30
0.0
 11
1435.8107615889
 21
-218.7971210824
 31
0.0
 12
1436.6207615889
 22
-218.7971210824
 32
0.0
 13
1436.2157615889
 23
-221.4971210824
 33
0.0
  0
TEXT
  5
134
100
AcDbEntity
  8
L1_120
  6
CONTINUOUS
 62
         4
100
AcDbText
 10
1433.0837615889
 20
-215.8584650857
 30
0.0
 40
2.7
  1
崷31.75
 50
90.0
  7
BOX
100
AcDbText
  0
ENDBLK
  5
135
100
AcDbEntity
  8
0
  6
CONTINUOUS
100
AcDbBlockEnd
  0
BLOCK
  5
137
100
AcDbEntity
  8
0
100
AcDbBlockBegin
  2
*D5
 70
        65
 10
0.0
 20
0.0
 30
0.0
  3
*D5
  1

  0
POINT
  5
139
100
AcDbEntity
  8
DEFPOINTS
  6
CONTINUOUS
 62
         0
100
AcDbPoint
 10
1345.246168462
 20
-161.8310796155
 30
0.0
  0
POINT
  5
13A
100
AcDbEntity
  8
DEFPOINTS
  6
CONTINUOUS
 62
         0
100
AcDbPoint
 10
1345.246168462
 20
-183.3971210824
 30
0.0
  0
POINT
  5
13B
100
AcDbEntity
  8
DEFPOINTS
  6
CONTINUOUS
 62
         0
100
AcDbPoint
 10
1408.746168462
 20
-205.6221210824
 30
0.0
  0
LINE
  5
13C
100
AcDbEntity
  8
L1_120
  6
CONTINUOUS
 62
         4
100
AcDbLine
 10
1345.246168462
 20
-182.0471210824
 30
0.0
 11
1345.246168462
 21
-161.1560796155
 31
0.0
  0
LINE
  5
13D
100
AcDbEntity
  8
L1_120
  6
CONTINUOUS
 62
         4
100
AcDbLine
 10
1408.746168462
 20
-204.2721210824
 30
0.0
 11
1408.746168462
 21
-161.1560796155
 31
0.0
  0
LINE
  5
13E
100
AcDbEntity
  8
L1_120
  6
CONTINUOUS
 62
         4
100
AcDbLine
 10
1345.246168462
 20
-161.8310796155
 30
0.0
 11
1408.746168462
 21
-161.8310796155
 31
0.0
  0
SOLID
  5
13F
100
AcDbEntity
  8
L1_120
  6
CONTINUOUS
 62
         4
100
AcDbTrace
 10
1345.246168462
 20
-161.8310796155
 30
0.0
 11
1347.946168462
 21
-161.4260796155
 31
0.0
 12
1347.946168462
 22
-162.2360796155
 32
0.0
 13
1345.246168462
 23
-161.8310796155
 33
0.0
  0
SOLID
  5
140
100
AcDbEntity
  8
L1_120
  6
CONTINUOUS
 62
         4
100
AcDbTrace
 10
1408.746168462
 20
-161.8310796155
 30
0.0
 11
1406.046168462
 21
-162.2360796155
 31
0.0
 12
1406.046168462
 22
-161.4260796155
 32
0.0
 13
1408.746168462
 23
-161.8310796155
 33
0.0
  0
TEXT
  5
142
100
AcDbEntity
  8
L1_120
  6
CONTINUOUS
 62
         4
100
AcDbText
 10
1369.6193883221
 20
-159.8060796155
 30
0.0
 40
2.7
  1
63.5
  7
BOX
100
AcDbText
  0
ENDBLK
  5
143
100
AcDbEntity
  8
0
  6
CONTINUOUS
100
AcDbBlockEnd
  0
BLOCK
  5
145
100
AcDbEntity
  8
0
100
AcDbBlockBegin
  2
*D6
 70
        65
 10
0.0
 20
0.0
 30
0.0
  3
*D6
  1

  0
POINT
  5
147
100
AcDbEntity
  8
DEFPOINTS
  6
CONTINUOUS
 62
         0
100
AcDbPoint
 10
1276.996168462
 20
-151.799519951
 30
0.0
  0
POINT
  5
148
100
AcDbEntity
  8
DEFPOINTS
  6
CONTINUOUS
 62
         0
100
AcDbPoint
 10
1276.996168462
 20
-194.3879393659
 30
0.0
  0
POINT
  5
149
100
AcDbEntity
  8
DEFPOINTS
  6
CONTINUOUS
 62
         0
100
AcDbPoint
 10
1408.746168462
 20
-205.6221210824
 30
0.0
  0
LINE
  5
14A
100
AcDbEntity
  8
L1_120
  6
CONTINUOUS
 62
         4
100
AcDbLine
 10
1276.996168462
 20
-193.0379393659
 30
0.0
 11
1276.996168462
 21
-151.124519951
 31
0.0
  0
LINE
  5
14B
100
AcDbEntity
  8
L1_120
  6
CONTINUOUS
 62
         4
100
AcDbLine
 10
1408.746168462
 20
-204.2721210824
 30
0.0
 11
1408.746168462
 21
-151.124519951
 31
0.0
  0
LINE
  5
14C
100
AcDbEntity
  8
L1_120
  6
CONTINUOUS
 62
         4
100
AcDbLine
 10
1276.996168462
 20
-151.799519951
 30
0.0
 11
1408.746168462
 21
-151.799519951
 31
0.0
  0
SOLID
  5
14D
100
AcDbEntity
  8
L1_120
  6
CONTINUOUS
 62
         4
100
AcDbTrace
 10
1276.996168462
 20
-151.799519951
 30
0.0
 11
1279.696168462
 21
-151.394519951
 31
0.0
 12
1279.696168462
 22
-152.204519951
 32
0.0
 13
1276.996168462
 23
-151.799519951
 33
0.0
  0
SOLID
  5
14E
100
AcDbEntity
  8
L1_120
  6
CONTINUOUS
 62
         4
100
AcDbTrace
 10
1408.746168462
 20
-151.799519951
 30
0.0
 11
1406.046168462
 21
-152.204519951
 31
0.0
 12
1406.046168462
 22
-151.394519951
 32
0.0
 13
1408.746168462
 23
-151.799519951
 33
0.0
  0
TEXT
  5
150
100
AcDbEntity
  8
L1_120
  6
CONTINUOUS
 62
         4
100
AcDbText
 10
1334.4643423487
 20
-149.774519951
 30
0.0
 40
2.7
  1
131.75
  7
BOX
100
AcDbText
  0
ENDBLK
  5
151
100
AcDbEntity
  8
0
  6
CONTINUOUS
100
AcDbBlockEnd
  0
BLOCK
  5
35F
100
AcDbEntity
  8
0
100
AcDbBlockBegin
  2
*D7
 70
        65
 10
0.0
 20
0.0
 30
0.0
  3
*D7
  1

  0
POINT
  5
361
100
AcDbEntity
  8
DEFPOINTS
  6
CONTINUOUS
 62
         0
100
AcDbPoint
 10
1477.3823395447
 20
-300.3370768976
 30
0.0
  0
POINT
  5
362
100
AcDbEntity
  8
DEFPOINTS
  6
CONTINUOUS
 62
         0
100
AcDbPoint
 10
1477.3823395447
 20
-293.8490789307
 30
0.0
  0
POINT
  5
363
100
AcDbEntity
  8
DEFPOINTS
  6
CONTINUOUS
 62
         0
100
AcDbPoint
 10
1483.8486625596
 20
-293.8490789307
 30
0.0
  0
LINE
  5
364
100
AcDbEntity
  8
L1_120
  6
CONTINUOUS
 62
         4
100
AcDbLine
 10
1477.3823395447
 20
-295.1990789307
 30
0.0
 11
1477.3823395447
 21
-301.0120768976
 31
0.0
  0
LINE
  5
365
100
AcDbEntity
  8
L1_120
  6
CONTINUOUS
 62
         4
100
AcDbLine
 10
1483.8486625596
 20
-295.1990789307
 30
0.0
 11
1483.8486625596
 21
-301.0120768976
 31
0.0
  0
LINE
  5
366
100
AcDbEntity
  8
L1_120
  6
CONTINUOUS
 62
         4
100
AcDbLine
 10
1477.3823395447
 20
-300.3370768976
 30
0.0
 11
1483.8486625596
 21
-300.3370768976
 31
0.0
  0
SOLID
  5
367
100
AcDbEntity
  8
L1_120
  6
CONTINUOUS
 62
         4
100
AcDbTrace
 10
1477.3823395447
 20
-300.3370768976
 30
0.0
 11
1480.0823395447
 21
-299.9320768976
 31
0.0
 12
1480.0823395447
 22
-300.7420768976
 32
0.0
 13
1477.3823395447
 23
-300.3370768976
 33
0.0
  0
LINE
  5
368
100
AcDbEntity
  8
L1_120
  6
CONTINUOUS
 62
         4
100
AcDbLine
 10
1483.8486625596
 20
-300.3370768976
 30
0.0
 11
1503.1198120599
 21
-300.3370768976
 31
0.0
  0
SOLID
  5
369
100
AcDbEntity
  8
L1_120
  6
CONTINUOUS
 62
         4
100
AcDbTrace
 10
1483.8486625596
 20
-300.3370768976
 30
0.0
 11
1481.1486625596
 21
-300.7420768976
 31
0.0
 12
1481.1486625596
 22
-299.9320768976
 32
0.0
 13
1483.8486625596
 23
-300.3370768976
 33
0.0
  0
TEXT
  5
36B
100
AcDbEntity
  8
L1_120
  6
CONTINUOUS
 62
         4
100
AcDbText
 10
1485.5698120599
 20
-298.3120768976
 30
0.0
 40
2.7
  1
5.6Hex
  7
BOX
100
AcDbText
  0
ENDBLK
  5
36C
100
AcDbEntity
  8
0
  6
CONTINUOUS
100
AcDbBlockEnd
  0
BLOCK
  5
36F
100
AcDbEntity
  8
0
100
AcDbBlockBegin
  2
*D8
 70
        65
 10
0.0
 20
0.0
 30
0.0
  3
*D8
  1

  0
POINT
  5
371
100
AcDbEntity
  8
DEFPOINTS
  6
CONTINUOUS
 62
         0
100
AcDbPoint
 10
1475.0528899269
 20
-277.1692403052
 30
0.0
  0
POINT
  5
372
100
AcDbEntity
  8
DEFPOINTS
  6
CONTINUOUS
 62
         0
100
AcDbPoint
 10
1475.0528899269
 20
-286.0512633351
 30
0.0
  0
POINT
  5
373
100
AcDbEntity
  8
DEFPOINTS
  6
CONTINUOUS
 62
         0
100
AcDbPoint
 10
1486.1781121774
 20
-286.0512633351
 30
0.0
  0
LINE
  5
374
100
AcDbEntity
  8
L1_120
  6
CONTINUOUS
 62
         4
100
AcDbLine
 10
1475.0528899269
 20
-284.7012633351
 30
0.0
 11
1475.0528899269
 21
-276.4942403052
 31
0.0
  0
LINE
  5
375
100
AcDbEntity
  8
L1_120
  6
CONTINUOUS
 62
         4
100
AcDbLine
 10
1486.1781121774
 20
-284.7012633351
 30
0.0
 11
1486.1781121774
 21
-276.4942403052
 31
0.0
  0
LINE
  5
376
100
AcDbEntity
  8
L1_120
  6
CONTINUOUS
 62
         4
100
AcDbLine
 10
1475.0528899269
 20
-277.1692403052
 30
0.0
 11
1486.1781121774
 21
-277.1692403052
 31
0.0
  0
SOLID
  5
377
100
AcDbEntity
  8
L1_120
  6
CONTINUOUS
 62
         4
100
AcDbTrace
 10
1475.0528899269
 20
-277.1692403052
 30
0.0
 11
1477.7528899269
 21
-276.7642403052
 31
0.0
 12
1477.7528899269
 22
-277.5742403052
 32
0.0
 13
1475.0528899269
 23
-277.1692403052
 33
0.0
  0
SOLID
  5
378
100
AcDbEntity
  8
L1_120
  6
CONTINUOUS
 62
         4
100
AcDbTrace
 10
1486.1781121774
 20
-277.1692403052
 30
0.0
 11
1483.4781121774
 21
-277.5742403052
 31
0.0
 12
1483.4781121774
 22
-276.7642403052
 32
0.0
 13
1486.1781121774
 23
-277.1692403052
 33
0.0
  0
TEXT
  5
37A
100
AcDbEntity
  8
L1_120
  6
CONTINUOUS
 62
         4
100
AcDbText
 10
1465.3741871278
 20
-275.1442403052
 30
0.0
 40
2.7
  1
7/16"-20UNF
  7
BOX
100
AcDbText
  0
ENDBLK
  5
37B
100
AcDbEntity
  8
0
  6
CONTINUOUS
100
AcDbBlockEnd
  0
BLOCK
  5
37D
100
AcDbEntity
  8
0
100
AcDbBlockBegin
  2
*D9
 70
        65
 10
0.0
 20
0.0
 30
0.0
  3
*D9
  1

  0
POINT
  5
37F
100
AcDbEntity
  8
DEFPOINTS
  6
CONTINUOUS
 62
         0
100
AcDbPoint
 10
1470.1806132621
 20
-283.6890586107
 30
0.0
  0
POINT
  5
380
100
AcDbEntity
  8
DEFPOINTS
  6
CONTINUOUS
 62
         0
100
AcDbPoint
 10
1477.4150946513
 20
-283.6890586107
 30
0.0
  0
POINT
  5
381
100
AcDbEntity
  8
DEFPOINTS
  6
CONTINUOUS
 62
         0
100
AcDbPoint
 10
1475.8995498203
 20
-293.8490789307
 30
0.0
  0
LINE
  5
382
100
AcDbEntity
  8
L1_120
  6
CONTINUOUS
 62
         4
100
AcDbLine
 10
1476.0650946513
 20
-283.6890586107
 30
0.0
 11
1469.5056132621
 21
-283.6890586107
 31
0.0
  0
LINE
  5
383
100
AcDbEntity
  8
L1_120
  6
CONTINUOUS
 62
         4
100
AcDbLine
 10
1474.5495498203
 20
-293.8490789307
 30
0.0
 11
1469.5056132621
 21
-293.8490789307
 31
0.0
  0
LINE
  5
384
100
AcDbEntity
  8
L1_120
  6
CONTINUOUS
 62
         4
100
AcDbLine
 10
1470.1806132621
 20
-283.6890586107
 30
0.0
 11
1470.1806132621
 21
-293.8490789307
 31
0.0
  0
SOLID
  5
385
100
AcDbEntity
  8
L1_120
  6
CONTINUOUS
 62
         4
100
AcDbTrace
 10
1470.1806132621
 20
-283.6890586107
 30
0.0
 11
1470.5856132621
 21
-286.3890586107
 31
0.0
 12
1469.7756132621
 22
-286.3890586107
 32
0.0
 13
1470.1806132621
 23
-283.6890586107
 33
0.0
  0
SOLID
  5
386
100
AcDbEntity
  8
L1_120
  6
CONTINUOUS
 62
         4
100
AcDbTrace
 10
1470.1806132621
 20
-293.8490789307
 30
0.0
 11
1469.7756132621
 21
-291.1490789307
 31
0.0
 12
1470.5856132621
 22
-291.1490789307
 32
0.0
 13
1470.1806132621
 23
-293.8490789307
 33
0.0
  0
TEXT
  5
388
100
AcDbEntity
  8
L1_120
  6
CONTINUOUS
 62
         4
100
AcDbText
 10
1468.1556132621
 20
-292.137085844
 30
0.0
 40
2.7
  1
10
 50
90.0
  7
BOX
100
AcDbText
  0
ENDBLK
  5
389
100
AcDbEntity
  8
0
  6
CONTINUOUS
100
AcDbBlockEnd
  0
ENDSEC
  0
SECTION
  2
ENTITIES
  0
LINE
  5
25
100
AcDbEntity
  8
L1_120
  6
CENTER
 62
         1
100
AcDbLine
 10
1356.346168462
 20
-284.2653363418
 30
19.777205724
 11
1356.346168462
 21
-310.9342283479
 31
19.777205724
  0
INSERT
  5
78
100
AcDbEntity
  8
0
  6
CONTINUOUS
100
AcDbBlockReference
  2
*X0
 10
0.0
 20
0.0
 30
0.0
  0
ARC
  5
79
100
AcDbEntity
  8
L1_120
  6
CONTINUOUS
 62
         7
100
AcDbCircle
 10
1401.9627413373
 20
-331.6592283479
 30
19.777205724
 40
2.0
100
AcDbArc
 50
270.0
 51
315.0
  0
LINE
  5
7A
100
AcDbEntity
  8
L1_120
  6
CONTINUOUS
 62
         7
100
AcDbLine
 10
1403.3769548997
 20
-333.0734419102
 30
19.777205724
 11
1408.3068286338
 21
-328.1435681761
 31
19.777205724
  0
ARC
  5
7B
100
AcDbEntity
  8
L1_120
  6
CONTINUOUS
 62
         7
100
AcDbCircle
 10
1407.246168462
 20
-327.0829080043
 30
19.777205724
 40
1.5
100
AcDbArc
 50
315.0
 51
360.0
  0
ARC
  5
7C
100
AcDbEntity
  8
L1_120
  6
CONTINUOUS
 62
         7
100
AcDbCircle
 10
1407.246168462
 20
-308.4855486914
 30
19.777205724
 40
1.5
100
AcDbArc
 50
0.0
 51
45.0
  0
LINE
  5
7D
100
AcDbEntity
  8
L1_120
  6
CONTINUOUS
 62
         7
100
AcDbLine
 10
1403.3769548997
 20
-302.4950147855
 30
19.777205724
 11
1408.3068286338
 21
-307.4248885196
 31
19.777205724
  0
ARC
  5
7E
100
AcDbEntity
  8
L1_120
  6
CONTINUOUS
 62
         7
100
AcDbCircle
 10
1401.9627413373
 20
-303.9092283479
 30
19.777205724
 40
2.0
100
AcDbArc
 50
45.0
 51
90.0
  0
LINE
  5
7F
100
AcDbEntity
  8
L1_120
  6
CONTINUOUS
 62
         7
100
AcDbLine
 10
1408.746168462
 20
-327.0829080043
 30
19.777205724
 11
1408.746168462
 21
-308.4855486914
 31
19.777205724
  0
LINE
  5
80
100
AcDbEntity
  8
L1_120
  6
CONTINUOUS
 62
         7
100
AcDbLine
 10
1380.394168462
 20
-335.9063777651
 30
19.777205724
 11
1380.394168462
 21
-333.6592283479
 31
19.777205724
  0
ARC
  5
81
100
AcDbEntity
  8
L1_120
  6
CONTINUOUS
 62
         7
100
AcDbCircle
 10
1383.298168462
 20
-336.6592283479
 30
19.777205724
 40
3.0
100
AcDbArc
 50
90.0
 51
180.0
  0
ARC
  5
82
100
AcDbEntity
  8
L1_120
  6
CONTINUOUS
 62
         7
100
AcDbCircle
 10
1383.298168462
 20
-298.9092283479
 30
19.777205724
 40
3.0
100
AcDbArc
 50
180.0
 51
270.0
  0
LINE
  5
83
100
AcDbEntity
  8
L1_120
  6
CONTINUOUS
 62
         7
100
AcDbLine
 10
1348.446168462
 20
-348.559228348
 30
19.777205724
 11
1348.446168462
 21
-340.9842283479
 31
19.777205724
  0
ARC
  5
84
100
AcDbEntity
  8
L1_120
  6
CONTINUOUS
 62
         7
100
AcDbCircle
 10
1347.646168462
 20
-340.9842283479
 30
19.777205724
 40
0.8
100
AcDbArc
 50
0.0
 51
90.0000000001
  0
LINE
  5
85
100
AcDbEntity
  8
L1_120
  6
CONTINUOUS
 62
         7
100
AcDbLine
 10
1347.646168462
 20
-340.1842283479
 30
19.777205724
 11
1346.446168462
 21
-340.1842283479
 31
19.777205724
  0
LINE
  5
86
100
AcDbEntity
  8
L1_120
  6
CONTINUOUS
 62
         7
100
AcDbLine
 10
1348.446168462
 20
-294.5842283479
 30
19.777205724
 11
1348.446168462
 21
-287.0092283479
 31
19.777205724
  0
LINE
  5
87
100
AcDbEntity
  8
L1_120
  6
CONTINUOUS
 62
         7
100
AcDbLine
 10
1347.646168462
 20
-295.3842283479
 30
19.777205724
 11
1346.446168462
 21
-295.3842283479
 31
19.777205724
  0
ARC
  5
88
100
AcDbEntity
  8
L1_120
  6
CONTINUOUS
 62
         7
100
AcDbCircle
 10
1347.646168462
 20
-294.5842283479
 30
19.777205724
 40
0.8
100
AcDbArc
 50
269.9999999999
 51
360.0
  0
LINE
  5
89
100
AcDbEntity
  8
L1_120
  6
CENTER
 62
         1
100
AcDbLine
 10
1347.7355378067
 20
-290.2866394061
 30
19.777205724
 11
1358.689426053
 21
-297.9566345289
 31
19.777205724
  0
LINE
  5
8A
100
AcDbEntity
  8
L1_120
  6
CONTINUOUS
 62
         7
100
AcDbLine
 10
1348.446168462
 20
-288.2816404409
 30
19.777205724
 11
1350.7691530293
 21
-289.908211746
 31
19.777205724
  0
LINE
  5
8B
100
AcDbEntity
  8
L1_120
  6
CONTINUOUS
 62
         7
100
AcDbLine
 10
1348.446168462
 20
-293.2257775254
 30
19.777205724
 11
1350.7691530293
 21
-289.908211746
 31
19.777205724
  0
LINE
  5
8C
100
AcDbEntity
  8
L1_120
  6
CONTINUOUS
 62
         4
100
AcDbLine
 10
1348.446168462
 20
-293.2257775254
 30
19.777205724
 11
1352.1323526613
 21
-295.806871489
 31
19.777205724
  0
LINE
  5
8D
100
AcDbEntity
  8
L1_120
  6
CONTINUOUS
 62
         7
100
AcDbLine
 10
1348.6469202148
 20
-292.9390743099
 30
19.777205724
 11
1354.7961654592
 21
-297.2448221844
 31
19.777205724
  0
LINE
  5
8E
100
AcDbEntity
  8
L1_120
  6
CONTINUOUS
 62
         7
100
AcDbLine
 10
1350.5397224547
 20
-290.2358725637
 30
19.777205724
 11
1355.71736951
 21
-293.8613000621
 31
19.777205724
  0
LINE
  5
8F
100
AcDbEntity
  8
L1_120
  6
CONTINUOUS
 62
         4
100
AcDbLine
 10
1350.7404742074
 20
-289.9491693482
 30
19.777205724
 11
1354.4266584067
 21
-292.5302633118
 31
19.777205724
  0
LINE
  5
90
100
AcDbEntity
  8
L1_120
  6
CONTINUOUS
 62
         7
100
AcDbLine
 10
1354.4461687276
 20
-288.8433322734
 30
19.777205724
 11
1354.4461671218
 21
-292.9711945672
 31
19.777205724
  0
LINE
  5
91
100
AcDbEntity
  8
L1_120
  6
CONTINUOUS
 62
         7
100
AcDbLine
 10
1358.4461688623
 20
-288.4969209586
 30
19.777205724
 11
1358.4461668541
 21
-293.6592283479
 31
19.777205724
  0
LINE
  5
92
100
AcDbEntity
  8
L1_120
  6
CONTINUOUS
 62
         4
100
AcDbLine
 10
1358.3216668755
 20
-295.6848487091
 30
19.777205724
 11
1356.4288646355
 21
-298.3880504552
 31
19.777205724
  0
LINE
  5
93
100
AcDbEntity
  8
L1_120
  6
CONTINUOUS
 62
         4
100
AcDbLine
 10
1357.852120008
 20
-297.7243755755
 30
19.777205724
 11
1356.4288646355
 21
-298.3880504552
 31
19.777205724
  0
LINE
  5
94
100
AcDbEntity
  8
L1_120
  6
CONTINUOUS
 62
         4
100
AcDbLine
 10
1354.8192905815
 20
-297.2610145693
 30
19.777205724
 11
1356.2367142358
 21
-298.2535052969
 31
19.777205724
  0
LINE
  5
95
100
AcDbEntity
  8
L1_120
  6
CONTINUOUS
 62
         7
100
AcDbLine
 10
1352.1323526613
 20
-295.806871489
 30
19.777205724
 11
1354.4553372286
 21
-292.4893057096
 31
19.777205724
  0
LINE
  5
96
100
AcDbEntity
  8
L1_120
  6
CONTINUOUS
 62
         4
100
AcDbLine
 10
1358.4461668541
 20
-293.6592283479
 30
19.777205724
 11
1355.4287795178
 21
-293.659227174
 31
19.777205724
  0
LINE
  5
97
100
AcDbEntity
  8
L1_120
  6
CONTINUOUS
 62
         7
100
AcDbLine
 10
1358.0961667755
 20
-293.8613009875
 30
19.777205724
 11
1355.71736951
 21
-293.8613000621
 31
19.777205724
  0
LINE
  5
98
100
AcDbEntity
  8
L1_120
  6
CONTINUOUS
 62
         7
100
AcDbLine
 10
1358.4461668541
 20
-293.6592283479
 30
19.777205724
 11
1358.0961667755
 21
-293.8613009875
 31
19.777205724
  0
LINE
  5
99
100
AcDbEntity
  8
L1_120
  6
CONTINUOUS
 62
         7
100
AcDbLine
 10
1358.0961667755
 20
-293.8613009875
 30
19.777205724
 11
1358.0961661275
 21
-295.5269513855
 31
19.777205724
  0
LINE
  5
9A
100
AcDbEntity
  8
L1_120
  6
CONTINUOUS
 62
         7
100
AcDbLine
 10
1358.0961661275
 20
-295.5269513855
 30
19.777205724
 11
1358.3216668755
 21
-295.6848487091
 31
19.777205724
  0
LINE
  5
9B
100
AcDbEntity
  8
L1_120
  6
CONTINUOUS
 62
         7
100
AcDbLine
 10
1358.3216668755
 20
-295.6848487091
 30
19.777205724
 11
1358.1556128834
 21
-297.5828545235
 31
19.777205724
  0
LINE
  5
9C
100
AcDbEntity
  8
L1_120
  6
CONTINUOUS
 62
         4
100
AcDbLine
 10
1356.4865920735
 20
-294.3999154996
 30
19.777205724
 11
1357.9040157278
 21
-295.3924062271
 31
19.777205724
  0
LINE
  5
9D
100
AcDbEntity
  8
L1_120
  6
CONTINUOUS
 62
         7
100
AcDbLine
 10
1358.096165317
 20
-297.610575379
 30
19.777205724
 11
1358.0961601338
 21
-310.9342283479
 31
19.777205724
  0
LINE
  5
9E
100
AcDbEntity
  8
L1_120
  6
CONTINUOUS
 62
         7
100
AcDbLine
 10
1354.7961654592
 20
-297.2448221844
 30
19.777205724
 11
1354.7961601338
 21
-310.9342283479
 31
19.777205724
  0
LINE
  5
9F
100
AcDbEntity
  8
L1_120
  6
CONTINUOUS
 62
         7
100
AcDbLine
 10
1363.846168462
 20
-286.0092283479
 30
19.777205724
 11
1364.346168462
 21
-286.5092283479
 31
19.777205724
  0
LINE
  5
A0
100
AcDbEntity
  8
L1_120
  6
CONTINUOUS
 62
         7
100
AcDbLine
 10
1348.446168462
 20
-286.5092283479
 30
19.777205724
 11
1348.946168462
 21
-286.0092283479
 31
19.777205724
  0
LINE
  5
A1
100
AcDbEntity
  8
L1_120
  6
CONTINUOUS
 62
         7
100
AcDbLine
 10
1348.446168462
 20
-349.0592283479
 30
19.777205724
 11
1348.946168462
 21
-349.5592283479
 31
19.777205724
  0
LINE
  5
A2
100
AcDbEntity
  8
L1_120
  6
CONTINUOUS
 62
         7
100
AcDbLine
 10
1364.346168462
 20
-349.0592283479
 30
19.777205724
 11
1363.846168462
 21
-349.5592283479
 31
19.777205724
  0
LINE
  5
A3
100
AcDbEntity
  8
L1_120
  6
CONTINUOUS
 62
         7
100
AcDbLine
 10
1348.946168462
 20
-286.0092283479
 30
19.777205724
 11
1350.446168462
 21
-286.0092283479
 31
19.777205724
  0
LINE
  5
A4
100
AcDbEntity
  8
L1_120
  6
CONTINUOUS
 62
         7
100
AcDbLine
 10
1348.446168462
 20
-286.5092283479
 30
19.777205724
 11
1348.446168462
 21
-288.0092283479
 31
19.777205724
  0
LINE
  5
A5
100
AcDbEntity
  8
L1_120
  6
CONTINUOUS
 62
         7
100
AcDbLine
 10
1362.346168462
 20
-286.0092283479
 30
19.777205724
 11
1363.846168462
 21
-286.0092283479
 31
19.777205724
  0
LINE
  5
A6
100
AcDbEntity
  8
L1_120
  6
CONTINUOUS
 62
         7
100
AcDbLine
 10
1348.946168462
 20
-349.5592283479
 30
19.777205724
 11
1350.446168462
 21
-349.5592283479
 31
19.777205724
  0
LINE
  5
A7
100
AcDbEntity
  8
L1_120
  6
CONTINUOUS
 62
         7
100
AcDbLine
 10
1362.346168462
 20
-349.5592283479
 30
19.777205724
 11
1363.846168462
 21
-349.5592283479
 31
19.777205724
  0
LINE
  5
A8
100
AcDbEntity
  8
L1_120
  6
CONTINUOUS
 62
         7
100
AcDbLine
 10
1364.346168462
 20
-286.5092283479
 30
19.777205724
 11
1364.346168462
 21
-288.0092283479
 31
19.777205724
  0
LINE
  5
A9
100
AcDbEntity
  8
L1_120
  6
CONTINUOUS
 62
         7
100
AcDbLine
 10
1348.446168462
 20
-347.5592283479
 30
19.777205724
 11
1348.446168462
 21
-349.0592283479
 31
19.777205724
  0
LINE
  5
AA
100
AcDbEntity
  8
L1_120
  6
CONTINUOUS
 62
         7
100
AcDbLine
 10
1364.346168462
 20
-347.5592283479
 30
19.777205724
 11
1364.346168462
 21
-349.0592283479
 31
19.777205724
  0
LINE
  5
AB
100
AcDbEntity
  8
L1_120
  6
CONTINUOUS
 62
         7
100
AcDbLine
 10
1364.346168462
 20
-340.5692283479
 30
19.777205724
 11
1364.346168462
 21
-348.559228348
 31
19.777205724
  0
LINE
  5
AC
100
AcDbEntity
  8
L1_120
  6
CONTINUOUS
 62
         7
100
AcDbLine
 10
1364.346168462
 20
-287.0092283477
 30
19.777205724
 11
1364.346168462
 21
-294.9992283479
 31
19.777205724
  0
LINE
  5
AD
100
AcDbEntity
  8
L1_120
  6
CONTINUOUS
 62
         7
100
AcDbLine
 10
1364.846168462
 20
-295.4992283479
 30
19.777205724
 11
1379.498168462
 21
-295.4992283479
 31
19.777205724
  0
LINE
  5
AE
100
AcDbEntity
  8
L1_120
  6
CONTINUOUS
 62
         7
100
AcDbLine
 10
1364.846168462
 20
-340.0692283479
 30
19.777205724
 11
1379.498168462
 21
-340.0692283479
 31
19.777205724
  0
ARC
  5
AF
100
AcDbEntity
  8
L1_120
  6
CONTINUOUS
 62
         7
100
AcDbCircle
 10
1364.846168462
 20
-340.5692283479
 30
19.777205724
 40
0.5
100
AcDbArc
 50
90.0
 51
180.0
  0
ARC
  5
B0
100
AcDbEntity
  8
L1_120
  6
CONTINUOUS
 62
         7
100
AcDbCircle
 10
1364.846168462
 20
-294.9992283479
 30
19.777205724
 40
0.5
100
AcDbArc
 50
180.0
 51
270.0
  0
LINE
  5
B1
100
AcDbEntity
  8
L1_120
  6
CONTINUOUS
 62
         7
100
AcDbLine
 10
1359.8824388608
 20
-349.559228348
 30
19.777205724
 11
1363.346168462
 21
-349.559228348
 31
19.777205724
  0
LINE
  5
B2
100
AcDbEntity
  8
L1_120
  6
CONTINUOUS
 62
         7
100
AcDbLine
 10
1358.221168462
 20
-346.681823612
 30
19.777205724
 11
1359.8824388608
 21
-349.5592283479
 31
19.777205724
  0
ARC
  5
B3
100
AcDbEntity
  8
L1_120
  6
CONTINUOUS
 62
         7
100
AcDbCircle
 10
1357.2473681303
 20
-346.909228348
 30
19.777205724
 40
1.0
100
AcDbArc
 50
13.1443256895
 51
90.0
  0
LINE
  5
B4
100
AcDbEntity
  8
L1_120
  6
CONTINUOUS
 62
         7
100
AcDbLine
 10
1355.4449687938
 20
-345.9092283479
 30
19.777205724
 11
1357.2473681303
 21
-345.9092283479
 31
19.777205724
  0
ARC
  5
B5
100
AcDbEntity
  8
L1_120
  6
CONTINUOUS
 62
         7
100
AcDbCircle
 10
1355.4449687938
 20
-346.9092283479
 30
19.777205724
 40
1.0
100
AcDbArc
 50
90.0
 51
166.8556743105
  0
LINE
  5
B6
100
AcDbEntity
  8
L1_120
  6
CONTINUOUS
 62
         7
100
AcDbLine
 10
1354.471168462
 20
-346.681823612
 30
19.777205724
 11
1352.8098980632
 21
-349.5592283479
 31
19.777205724
  0
LINE
  5
B7
100
AcDbEntity
  8
L1_120
  6
CONTINUOUS
 62
         7
100
AcDbLine
 10
1349.446168462
 20
-349.559228348
 30
19.777205724
 11
1352.8098980632
 21
-349.559228348
 31
19.777205724
  0
LINE
  5
B8
100
AcDbEntity
  8
L1_120
  6
CONTINUOUS
 62
         7
100
AcDbLine
 10
1349.446168462
 20
-286.0092283477
 30
19.777205724
 11
1352.8098980632
 21
-286.0092283477
 31
19.777205724
  0
LINE
  5
B9
100
AcDbEntity
  8
L1_120
  6
CONTINUOUS
 62
         7
100
AcDbLine
 10
1354.471168462
 20
-288.8866330837
 30
19.777205724
 11
1352.8098980632
 21
-286.0092283479
 31
19.777205724
  0
ARC
  5
BA
100
AcDbEntity
  8
L1_120
  6
CONTINUOUS
 62
         7
100
AcDbCircle
 10
1355.4449687938
 20
-288.6592283477
 30
19.777205724
 40
1.0
100
AcDbArc
 50
193.1443256895
 51
270.0
  0
LINE
  5
BB
100
AcDbEntity
  8
L1_120
  6
CONTINUOUS
 62
         7
100
AcDbLine
 10
1355.4449687938
 20
-289.6592283477
 30
19.777205724
 11
1357.2473681303
 21
-289.6592283477
 31
19.777205724
  0
ARC
  5
BC
100
AcDbEntity
  8
L1_120
  6
CONTINUOUS
 62
         7
100
AcDbCircle
 10
1357.2473681303
 20
-288.6592283477
 30
19.777205724
 40
1.0
100
AcDbArc
 50
270.0
 51
346.8556743105
  0
LINE
  5
BD
100
AcDbEntity
  8
L1_120
  6
CONTINUOUS
 62
         7
100
AcDbLine
 10
1358.221168462
 20
-288.8866330835
 30
19.777205724
 11
1359.8824388608
 21
-286.0092283477
 31
19.777205724
  0
LINE
  5
BE
100
AcDbEntity
  8
L1_120
  6
CONTINUOUS
 62
         7
100
AcDbLine
 10
1359.8824388608
 20
-286.0092283477
 30
19.777205724
 11
1363.346168462
 21
-286.0092283477
 31
19.777205724
  0
LINE
  5
BF
100
AcDbEntity
  8
L1_120
  6
CONTINUOUS
 62
         7
100
AcDbLine
 10
1380.298168462
 20
-295.9992283479
 30
19.777205724
 11
1380.298168462
 21
-298.9092283479
 31
19.777205724
  0
LINE
  5
C0
100
AcDbEntity
  8
L1_120
  6
CONTINUOUS
 62
         7
100
AcDbLine
 10
1380.298168462
 20
-336.6592283479
 30
19.777205724
 11
1380.298168462
 21
-339.5692283479
 31
19.777205724
  0
LINE
  5
C1
100
AcDbEntity
  8
L1_120
  6
CONTINUOUS
 62
         7
100
AcDbLine
 10
1379.798168462
 20
-340.0692283479
 30
19.777205724
 11
1378.798168462
 21
-340.0692283479
 31
19.777205724
  0
LINE
  5
C2
100
AcDbEntity
  8
L1_120
  6
CONTINUOUS
 62
         7
100
AcDbLine
 10
1379.798168462
 20
-295.4992283479
 30
19.777205724
 11
1378.798168462
 21
-295.4992283479
 31
19.777205724
  0
LINE
  5
C3
100
AcDbEntity
  8
L1_120
  6
CONTINUOUS
 62
         7
100
AcDbLine
 10
1380.298168462
 20
-339.5692283479
 30
19.777205724
 11
1379.798168462
 21
-340.0692283479
 31
19.777205724
  0
LINE
  5
C4
100
AcDbEntity
  8
L1_120
  6
CONTINUOUS
 62
         7
100
AcDbLine
 10
1379.798168462
 20
-295.4992283479
 30
19.777205724
 11
1380.298168462
 21
-295.9992283479
 31
19.777205724
  0
LINE
  5
C5
100
AcDbEntity
  8
L1_120
  6
CONTINUOUS
 62
         7
100
AcDbLine
 10
1380.394168462
 20
-333.6592283479
 30
19.777205724
 11
1381.394168462
 21
-332.6592283479
 31
19.777205724
  0
LINE
  5
C6
100
AcDbEntity
  8
L1_120
  6
CONTINUOUS
 62
         7
100
AcDbLine
 10
1392.394168462
 20
-333.6592283479
 30
19.777205724
 11
1391.394168462
 21
-332.6592283479
 31
19.777205724
  0
LINE
  5
C7
100
AcDbEntity
  8
L1_120
  6
CENTER
 62
         1
100
AcDbLine
 10
1413.6008092131
 20
-317.7842283479
 30
19.777205724
 11
1362.5675797022
 21
-317.7842283479
 31
19.777205724
  0
LINE
  5
C8
100
AcDbEntity
  8
L1_120
  6
CONTINUOUS
 62
         7
100
AcDbLine
 10
1391.394168462
 20
-332.6592283479
 30
19.777205724
 11
1391.394168462
 21
-324.1342283479
 31
19.777205724
  0
LINE
  5
C9
100
AcDbEntity
  8
L1_120
  6
CONTINUOUS
 62
         7
100
AcDbLine
 10
1381.394168462
 20
-332.6592283479
 30
19.777205724
 11
1381.394168462
 21
-324.1342283479
 31
19.777205724
  0
LINE
  5
CA
100
AcDbEntity
  8
L1_120
  6
CENTER
 62
         1
100
AcDbLine
 10
1386.394168462
 20
-336.118738507
 30
19.777205724
 11
1386.394168462
 21
-321.9976909372
 31
19.777205724
  0
LINE
  5
CB
100
AcDbEntity
  8
L1_120
  6
CONTINUOUS
 62
         7
100
AcDbLine
 10
1401.9627413373
 20
-301.9092283479
 30
19.777205724
 11
1383.298168462
 21
-301.9092283479
 31
19.777205724
  0
LINE
  5
CC
100
AcDbEntity
  8
L1_120
  6
CONTINUOUS
 62
         7
100
AcDbLine
 10
1401.9627413373
 20
-333.6592283479
 30
19.777205724
 11
1383.298168462
 21
-333.6592283479
 31
19.777205724
  0
LINE
  5
CD
100
AcDbEntity
  8
L1_120
  6
CONTINUOUS
 62
         4
100
AcDbLine
 10
1380.844168462
 20
-333.2092283479
 30
19.777205724
 11
1380.844168462
 21
-324.1342283479
 31
19.777205724
  0
LINE
  5
CE
100
AcDbEntity
  8
L1_120
  6
CONTINUOUS
 62
         4
100
AcDbLine
 10
1391.944168462
 20
-324.1342283479
 30
19.777205724
 11
1391.944168462
 21
-333.2092283479
 31
19.777205724
  0
LINE
  5
CF
100
AcDbEntity
  8
L1_120
  6
CONTINUOUS
 62
         7
100
AcDbLine
 10
1363.746168462
 20
-310.9342283479
 30
19.777205724
 11
1363.746168462
 21
-324.6342283479
 31
19.777205724
  0
LINE
  5
D0
100
AcDbEntity
  8
L1_120
  6
CONTINUOUS
 62
         7
100
AcDbLine
 10
1407.246168462
 20
-311.4342283479
 30
19.777205724
 11
1403.496168462
 21
-311.4342283479
 31
19.777205724
  0
ARC
  5
D1
100
AcDbEntity
  8
L1_120
  6
CONTINUOUS
 62
         7
100
AcDbCircle
 10
1407.246168462
 20
-309.9342283479
 30
19.777205724
 40
1.5
100
AcDbArc
 50
270.0
 51
285.022059707
  0
ARC
  5
D2
100
AcDbEntity
  8
L1_120
  6
CONTINUOUS
 62
         7
100
AcDbCircle
 10
1407.246168462
 20
-309.9342283479
 30
19.777205724
 40
1.5
100
AcDbArc
 50
314.9779402929
 51
360.0
  0
LINE
  5
D3
100
AcDbEntity
  8
L1_120
  6
CONTINUOUS
 62
         7
100
AcDbLine
 10
1407.6349548441
 20
-311.3829675063
 30
19.777205724
 11
1408.3064201856
 21
-310.9952968106
 31
19.777205724
  0
ARC
  5
D4
100
AcDbEntity
  8
L1_120
  6
CONTINUOUS
 62
         7
100
AcDbCircle
 10
1407.246168462
 20
-325.6342283479
 30
19.777205724
 40
1.5
100
AcDbArc
 50
74.977940293
 51
90.0
  0
ARC
  5
D5
100
AcDbEntity
  8
L1_120
  6
CONTINUOUS
 62
         7
100
AcDbCircle
 10
1407.246168462
 20
-325.6342283479
 30
19.777205724
 40
1.5
100
AcDbArc
 50
0.0
 51
45.022059707
  0
LINE
  5
D6
100
AcDbEntity
  8
L1_120
  6
CONTINUOUS
 62
         7
100
AcDbLine
 10
1407.6349548441
 20
-324.1854891894
 30
19.777205724
 11
1408.3064201856
 21
-324.5731598851
 31
19.777205724
  0
LINE
  5
D7
100
AcDbEntity
  8
L1_120
  6
CONTINUOUS
 62
         7
100
AcDbLine
 10
1363.746168462
 20
-324.1342283479
 30
19.777205724
 11
1400.296168462
 21
-324.1342283479
 31
19.777205724
  0
LINE
  5
D8
100
AcDbEntity
  8
L1_120
  6
CONTINUOUS
 62
         7
100
AcDbLine
 10
1363.746168462
 20
-310.9342283479
 30
19.777205724
 11
1343.746168462
 21
-310.9342283479
 31
19.777205724
  0
LINE
  5
D9
100
AcDbEntity
  8
L1_120
  6
CONTINUOUS
 62
         7
100
AcDbLine
 10
1363.746168462
 20
-324.6342283479
 30
19.777205724
 11
1343.746168462
 21
-324.6342283479
 31
19.777205724
  0
LINE
  5
DA
100
AcDbEntity
  8
L1_120
  6
CONTINUOUS
 62
         7
100
AcDbLine
 10
1343.746168462
 20
-310.9342283479
 30
19.777205724
 11
1343.746168462
 21
-324.6342283479
 31
19.777205724
  0
DIMENSION
  5
DE
100
AcDbEntity
  8
L1_120
  6
CONTINUOUS
 62
         4
100
AcDbDimension
  2
*D1
 10
1343.746168462
 20
-361.4927994833
 30
0.0
 11
1373.9345936387
 21
-359.4677994833
 31
0.0
  3
DIMSTYLE1
100
AcDbAlignedDimension
 13
1343.746168462
 23
-324.6342283479
 33
0.0
 14
1408.746168462
 24
-327.7036229566
 34
0.0
100
AcDbRotatedDimension
  0
LINE
  5
EB
100
AcDbEntity
  8
L1_120
  6
CONTINUOUS
 62
         7
100
AcDbLine
 10
1391.394168462
 20
-332.6592283479
 30
19.777205724
 11
1381.394168462
 21
-332.6592283479
 31
19.777205724
  0
ARC
  5
EC
100
AcDbEntity
  8
L1_120
  6
CONTINUOUS
 62
         7
100
AcDbCircle
 10
1392.0999378517
 20
-296.3342283479
 30
19.777205724
 40
10.0
100
AcDbArc
 50
213.883081796
 51
326.116918204
  0
LINE
  5
ED
100
AcDbEntity
  8
L1_120
  6
CONTINUOUS
 62
         7
100
AcDbLine
 10
1343.6595659217
 20
-324.7842283479
 30
19.777205724
 11
1343.746168462
 21
-324.6342283479
 31
19.777205724
  0
LINE
  5
EE
100
AcDbEntity
  8
L1_120
  6
CONTINUOUS
 62
         7
100
AcDbLine
 10
1343.6595659216
 20
-310.7842283479
 30
19.777205724
 11
1343.746168462
 21
-310.9342283479
 31
19.777205724
  0
LINE
  5
EF
100
AcDbEntity
  8
L1_120
  6
CONTINUOUS
 62
         7
100
AcDbLine
 10
1343.6595659216
 20
-324.7842283479
 30
19.777205724
 11
1343.6595659216
 21
-310.7842283479
 31
19.777205724
  0
LINE
  5
F0
100
AcDbEntity
  8
L1_120
  6
CONTINUOUS
 62
         4
100
AcDbLine
 10
1363.746168462
 20
-317.0342283479
 30
19.777205724
 11
1400.296168462
 21
-317.0342283479
 31
19.777205724
  0
LINE
  5
F1
100
AcDbEntity
  8
L1_120
  6
CONTINUOUS
 62
         4
100
AcDbLine
 10
1363.746168462
 20
-318.5342283479
 30
19.777205724
 11
1400.296168462
 21
-318.5342283479
 31
19.777205724
  0
LINE
  5
F2
100
AcDbEntity
  8
L1_120
  6
CONTINUOUS
 62
         4
100
AcDbLine
 10
1403.496168462
 20
-317.0342283479
 30
19.777205724
 11
1408.746168462
 21
-317.0342283479
 31
19.777205724
  0
LINE
  5
F3
100
AcDbEntity
  8
L1_120
  6
CONTINUOUS
 62
         4
100
AcDbLine
 10
1403.496168462
 20
-318.5342283479
 30
19.777205724
 11
1408.746168462
 21
-318.5342283479
 31
19.777205724
  0
LINE
  5
F4
100
AcDbEntity
  8
L1_120
  6
CONTINUOUS
 62
         7
100
AcDbLine
 10
1403.496168462
 20
-309.5442283479
 30
19.777205724
 11
1403.496168462
 21
-326.0242283479
 31
19.777205724
  0
LINE
  5
F5
100
AcDbEntity
  8
L1_120
  6
CONTINUOUS
 62
         7
100
AcDbLine
 10
1400.296168462
 20
-309.5442283479
 30
19.777205724
 11
1400.296168462
 21
-326.0242283479
 31
19.777205724
  0
LINE
  5
F6
100
AcDbEntity
  8
L1_120
  6
CONTINUOUS
 62
         7
100
AcDbLine
 10
1400.696168462
 20
-309.1442283479
 30
19.777205724
 11
1403.096168462
 21
-309.1442283479
 31
19.777205724
  0
LINE
  5
F7
100
AcDbEntity
  8
L1_120
  6
CONTINUOUS
 62
         7
100
AcDbLine
 10
1400.696168462
 20
-326.4242283479
 30
19.777205724
 11
1403.096168462
 21
-326.4242283479
 31
19.777205724
  0
ARC
  5
F8
100
AcDbEntity
  8
L1_120
  6
CONTINUOUS
 62
         7
100
AcDbCircle
 10
1400.696168462
 20
-309.5442283479
 30
19.777205724
 40
0.4
100
AcDbArc
 50
90.0
 51
180.0
  0
ARC
  5
F9
100
AcDbEntity
  8
L1_120
  6
CONTINUOUS
 62
         7
100
AcDbCircle
 10
1403.096168462
 20
-309.5442283479
 30
19.777205724
 40
0.4
100
AcDbArc
 50
0.0
 51
90.0
  0
ARC
  5
FA
100
AcDbEntity
  8
L1_120
  6
CONTINUOUS
 62
         7
100
AcDbCircle
 10
1403.096168462
 20
-326.0242283479
 30
19.777205724
 40
0.4
100
AcDbArc
 50
270.0
 51
360.0
  0
ARC
  5
FB
100
AcDbEntity
  8
L1_120
  6
CONTINUOUS
 62
         7
100
AcDbCircle
 10
1400.696168462
 20
-326.0242283479
 30
19.777205724
 40
0.4
100
AcDbArc
 50
180.0
 51
270.0
  0
LINE
  5
FC
100
AcDbEntity
  8
L1_120
  6
CONTINUOUS
 62
         7
100
AcDbLine
 10
1400.296168462
 20
-311.4342283479
 30
19.777205724
 11
1363.746168462
 21
-311.4342283479
 31
19.777205724
  0
LINE
  5
FD
100
AcDbEntity
  8
L1_120
  6
CONTINUOUS
 62
         7
100
AcDbLine
 10
1403.496168462
 20
-324.1342283479
 30
19.777205724
 11
1407.246168462
 21
-324.1342283479
 31
19.777205724
  0
LINE
  5
FE
100
AcDbEntity
  8
L1_120
  6
CONTINUOUS
 62
         7
100
AcDbLine
 10
1403.3769548997
 20
-190.33290752
 30
0.0
 11
1408.3068286338
 21
-195.2627812542
 31
0.0
  0
LINE
  5
FF
100
AcDbEntity
  8
L1_120
  6
CONTINUOUS
 62
         7
100
AcDbLine
 10
1403.3769548997
 20
-220.9113346448
 30
0.0
 11
1408.3068286338
 21
-215.9814609106
 31
0.0
  0
ARC
  5
100
100
AcDbEntity
  8
L1_120
  6
CONTINUOUS
 62
         7
100
AcDbCircle
 10
1407.246168462
 20
-196.3234414259
 30
0.0
 40
1.5
100
AcDbArc
 50
0.0
 51
45.0
  0
ARC
  5
101
100
AcDbEntity
  8
L1_120
  6
CONTINUOUS
 62
         7
100
AcDbCircle
 10
1407.246168462
 20
-214.9208007388
 30
0.0
 40
1.5
100
AcDbArc
 50
315.0
 51
360.0
  0
ARC
  5
102
100
AcDbEntity
  8
L1_120
  6
CONTINUOUS
 62
         7
100
AcDbCircle
 10
1401.9627413373
 20
-191.7471210824
 30
0.0
 40
2.0
100
AcDbArc
 50
45.0
 51
90.0
  0
ARC
  5
103
100
AcDbEntity
  8
L1_120
  6
CONTINUOUS
 62
         7
100
AcDbCircle
 10
1401.9627413373
 20
-219.4971210824
 30
0.0
 40
2.0
100
AcDbArc
 50
270.0
 51
315.0
  0
LINE
  5
104
100
AcDbEntity
  8
L1_120
  6
CONTINUOUS
 62
         4
100
AcDbLine
 10
1402.7281081978
 20
-189.8993620156
 30
0.0
 11
1402.7281081978
 21
-221.3448801492
 31
0.0
  0
ARC
  5
105
100
AcDbEntity
  8
L1_120
  6
CONTINUOUS
 62
         7
100
AcDbCircle
 10
1383.298168462
 20
-224.4971210824
 30
0.0
 40
3.0
100
AcDbArc
 50
90.0
 51
180.0
  0
ARC
  5
106
100
AcDbEntity
  8
L1_120
  6
CONTINUOUS
 62
         7
100
AcDbCircle
 10
1383.298168462
 20
-186.7471210824
 30
0.0
 40
3.0
100
AcDbArc
 50
180.0
 51
270.0
  0
LINE
  5
107
100
AcDbEntity
  8
L1_120
  6
CONTINUOUS
 62
         7
100
AcDbLine
 10
1401.9627413373
 20
-189.7471210824
 30
0.0
 11
1383.298168462
 21
-189.7471210824
 31
0.0
  0
LINE
  5
108
100
AcDbEntity
  8
L1_120
  6
CONTINUOUS
 62
         7
100
AcDbLine
 10
1401.9627413373
 20
-221.4971210824
 30
0.0
 11
1383.298168462
 21
-221.4971210824
 31
0.0
  0
LINE
  5
109
100
AcDbEntity
  8
L1_120
  6
CONTINUOUS
 62
         7
100
AcDbLine
 10
1408.746168462
 20
-214.9208007388
 30
0.0
 11
1408.746168462
 21
-196.3234414259
 31
0.0
  0
DIMENSION
  5
10C
100
AcDbEntity
  8
L1_120
  6
CONTINUOUS
 62
         4
100
AcDbDimension
  2
*D2
 10
1408.3068286338
 20
-215.9808555194
 30
0.0
 11
1398.5447632531
 21
-230.9188157105
 31
0.0
 70
         2
  3
DIMSTYLE1
100
AcDb2LineAngularDimension
 13
1408.746168462
 23
-196.3240468172
 33
0.0
 14
1408.746168462
 24
-214.9201953476
 34
0.0
 15
1403.3763495084
 25
-220.9113346448
 35
0.0
 16
1394.027090613
 26
-230.2605935402
 36
0.0
  0
DIMENSION
  5
11C
100
AcDbEntity
  8
L1_120
  6
CONTINUOUS
 62
         4
100
AcDbDimension
  2
*D3
 10
1426.2573854143
 20
-195.7021210824
 30
0.0
 11
1424.2323854143
 21
-215.4084650857
 31
0.0
  3
DIMSTYLE1
100
AcDbAlignedDimension
 13
1408.746168462
 23
-195.7021210824
 33
0.0
 14
1408.746168462
 24
-215.5421210824
 34
0.0
 50
90.0
100
AcDbRotatedDimension
  0
DIMENSION
  5
12A
100
AcDbEntity
  8
L1_120
  6
CONTINUOUS
 62
         4
100
AcDbDimension
  2
*D4
 10
1436.2157615889
 20
-189.7471210824
 30
0.0
 11
1433.0837615889
 21
-215.8584650857
 31
0.0
  3
DIMSTYLE1
100
AcDbAlignedDimension
 13
1405.9621359461
 23
-189.7471210824
 33
0.0
 14
1405.9621359461
 24
-221.4971210824
 34
0.0
 50
90.0
100
AcDbRotatedDimension
  0
DIMENSION
  5
138
100
AcDbEntity
  8
L1_120
  6
CONTINUOUS
 62
         4
100
AcDbDimension
  2
*D5
 10
1345.246168462
 20
-161.8310796155
 30
0.0
 11
1369.6193883221
 21
-159.8060796155
 31
0.0
  3
DIMSTYLE1
100
AcDbAlignedDimension
 13
1345.246168462
 23
-183.3971210824
 33
0.0
 14
1408.746168462
 24
-205.6221210824
 34
0.0
100
AcDbRotatedDimension
  0
DIMENSION
  5
146
100
AcDbEntity
  8
L1_120
  6
CONTINUOUS
 62
         4
100
AcDbDimension
  2
*D6
 10
1276.996168462
 20
-151.799519951
 30
0.0
 11
1334.4643423487
 21
-149.774519951
 31
0.0
  3
DIMSTYLE1
100
AcDbAlignedDimension
 13
1276.996168462
 23
-194.3879393659
 33
0.0
 14
1408.746168462
 24
-205.6221210824
 34
0.0
100
AcDbRotatedDimension
  0
LINE
  5
152
100
AcDbEntity
  8
L1_120
  6
CENTER
 62
         1
100
AcDbLine
 10
1154.8567180641
 20
-206.3749200375
 30
0.1327387668
 11
1231.0649983252
 21
-206.3749200375
 31
0.1327387668
  0
LINE
  5
153
100
AcDbEntity
  8
L1_120
  6
CENTER
 62
         1
100
AcDbLine
 10
1192.1674711037
 20
-175.2578554651
 30
-5.3540392777
 11
1192.1674711037
 21
-237.8423881691
 31
5.681302413
  0
TEXT
  5
155
100
AcDbEntity
  8
L1_120
  6
CONTINUOUS
 62
         2
100
AcDbText
 10
1488.1507889585
 20
-142.9484061948
 30
0.0
 40
4.5
  1
522048
 41
0.98
  7
BOX
100
AcDbText
  0
LINE
  5
156
100
AcDbEntity
  8
L1_120
  6
CENTER
 62
         1
100
AcDbLine
 10
1273.1637365308
 20
-317.7842283479
 30
19.777205724
 11
1389.696168462
 21
-317.7842283479
 31
19.777205724
  0
LINE
  5
157
100
AcDbEntity
  8
L1_120
  6
CONTINUOUS
 62
         7
100
AcDbLine
 10
1276.996168462
 20
-194.5586118293
 30
-1.9507951826
 11
1276.996168462
 21
-216.6856303355
 31
1.9507951826
  0
LINE
  5
158
100
AcDbEntity
  8
L1_120
  6
CENTER
 62
         1
100
AcDbLine
 10
1276.996168462
 20
-205.6221210824
 30
0.0
 11
1380.246168462
 21
-205.6221210824
 31
0.0
  0
LINE
  5
159
100
AcDbEntity
  8
L1_120
  6
CONTINUOUS
 62
         7
100
AcDbLine
 10
1278.0230001903
 20
-193.3892121273
 30
-2.1569919013
 11
1346.446168462
 21
-183.5624274149
 31
-3.8897191797
  0
LINE
  5
15A
100
AcDbEntity
  8
L1_120
  6
CONTINUOUS
 62
         7
100
AcDbLine
 10
1278.0230001903
 20
-217.8550300374
 30
2.1569919013
 11
1346.446168462
 21
-227.6818147499
 31
3.8897191797
  0
LINE
  5
15B
100
AcDbEntity
  8
L1_120
  6
CONTINUOUS
 62
         7
100
AcDbLine
 10
1276.996168462
 20
-194.5586118293
 30
-1.9507951826
 11
1276.996168462
 21
-216.6856303355
 31
1.9507951826
  0
ARC
  5
15C
100
AcDbEntity
  8
L1_120
  6
CONTINUOUS
 62
         7
100
AcDbCircle
 10
-1278.196168462
 20
191.2640773163
 30
-35.705906614
 40
1.2
210
0.0
220
0.1736481776669304
230
0.9848077530122081
100
AcDbArc
 50
278.2971449698
 51
360.0
  0
ARC
  5
15D
100
AcDbEntity
  8
L1_120
  6
CONTINUOUS
 62
         7
100
AcDbCircle
 10
-1278.196168462
 20
213.7324407492
 30
-35.705906614
 40
1.2
210
0.0
220
0.1736481776669304
230
0.9848077530122081
100
AcDbArc
 50
0.0
 51
81.7028550302
  0
LINE
  5
15E
100
AcDbEntity
  8
L1_120
  6
CONTINUOUS
 62
         7
100
AcDbLine
 10
1305.446168462
 20
-309.9057663238
 30
18.3880203027
 11
1305.446168462
 21
-325.662690372
 31
21.1663911454
  0
LINE
  5
15F
100
AcDbEntity
  8
L1_120
  6
CONTINUOUS
 62
         5
100
AcDbLine
 10
1281.8990111745
 20
-325.662690372
 30
21.1663911454
 11
1305.446168462
 21
-325.662690372
 31
21.1663911454
  0
ARC
  5
160
100
AcDbEntity
  8
L1_120
  6
CONTINUOUS
 62
         7
100
AcDbCircle
 10
-1277.996168462
 20
325.5406475953
 30
-35.705906614
 40
1.0
210
0.0
220
0.1736481776669304
230
0.9848077530122081
100
AcDbArc
 50
270.0
 51
360.0
  0
LINE
  5
161
100
AcDbEntity
  8
L1_120
  6
CONTINUOUS
 62
         7
100
AcDbLine
 10
1277.996168462
 20
-325.8104115349
 30
21.192438372
 11
1280.766168462
 21
-325.8104115349
 31
21.192438372
  0
LINE
  5
162
100
AcDbEntity
  8
L1_120
  6
CONTINUOUS
 62
         7
100
AcDbLine
 10
1281.1139402333
 20
-325.9021810081
 30
21.2086198061
 11
1280.766168462
 21
-325.8104115349
 31
21.192438372
  0
LINE
  5
163
100
AcDbEntity
  8
L1_120
  6
CONTINUOUS
 62
         7
100
AcDbLine
 10
1281.1657040423
 20
-325.9088923102
 30
21.2098031898
 11
1281.566168462
 21
-325.9088923102
 31
21.2098031898
  0
ARC
  5
164
100
AcDbEntity
  8
L1_120
  6
CONTINUOUS
 62
         7
100
AcDbCircle
 10
-1281.566168462
 20
324.4406475953
 30
-35.705906614
 40
0.2
210
0.0
220
0.1736481776669304
230
0.9848077530122081
100
AcDbArc
 50
90.0
 51
134.9999999962
  0
LINE
  5
165
100
AcDbEntity
  8
L1_120
  6
CONTINUOUS
 62
         7
100
AcDbLine
 10
1281.7075898183
 20
-325.8512036077
 30
21.199631115
 11
1282.8990111745
 21
-324.6778826189
 31
20.9927429677
  0
LINE
  5
166
100
AcDbEntity
  8
L1_120
  6
CONTINUOUS
 62
         7
100
AcDbLine
 10
1282.8990111745
 20
-324.6778826189
 30
20.9927429677
 11
1343.6595659216
 21
-324.6778826189
 31
20.9927429677
  0
LINE
  5
167
100
AcDbEntity
  8
L1_120
  6
CONTINUOUS
 62
         7
100
AcDbLine
 10
1282.8990111745
 20
-310.8905740768
 30
18.5616684804
 11
1282.8990111745
 21
-324.6778826189
 31
20.9927429677
  0
LINE
  5
168
100
AcDbEntity
  8
L1_120
  6
CONTINUOUS
 62
         7
100
AcDbLine
 10
1282.8990111745
 20
-310.8905740768
 30
18.5616684804
 11
1343.6595659216
 21
-310.8905740768
 31
18.5616684804
  0
LINE
  5
169
100
AcDbEntity
  8
L1_120
  6
CONTINUOUS
 62
         5
100
AcDbLine
 10
1281.8990111745
 20
-309.9057663238
 30
18.3880203027
 11
1305.446168462
 21
-309.9057663238
 31
18.3880203027
  0
LINE
  5
16A
100
AcDbEntity
  8
L1_120
  6
CONTINUOUS
 62
         7
100
AcDbLine
 10
1280.766168462
 20
-309.7580451608
 30
18.361973076
 11
1280.766168462
 21
-325.8104115349
 31
21.192438372
  0
LINE
  5
16B
100
AcDbEntity
  8
L1_120
  6
CONTINUOUS
 62
         7
100
AcDbLine
 10
1281.766168462
 20
-310.1091066311
 30
18.4238746851
 11
1281.766168462
 21
-325.3463241661
 31
21.1106072475
  0
ARC
  5
16C
100
AcDbEntity
  8
L1_120
  6
CONTINUOUS
 62
         7
100
AcDbCircle
 10
-1281.566168462
 20
308.3406475953
 30
-35.705906614
 40
0.2
210
0.0
220
0.1736481776669304
230
0.9848077530122081
100
AcDbArc
 50
225.0000000038
 51
270.0
  0
LINE
  5
16D
100
AcDbEntity
  8
L1_120
  6
CONTINUOUS
 62
         7
100
AcDbLine
 10
1281.7075898183
 20
-309.717253088
 30
18.354780333
 11
1282.8990111745
 21
-310.8905740768
 31
18.5616684804
  0
LINE
  5
16E
100
AcDbEntity
  8
L1_120
  6
CONTINUOUS
 62
         7
100
AcDbLine
 10
1281.1657040423
 20
-309.6595643855
 30
18.3446082583
 11
1281.566168462
 21
-309.6595643855
 31
18.3446082583
  0
LINE
  5
16F
100
AcDbEntity
  8
L1_120
  6
CONTINUOUS
 62
         7
100
AcDbLine
 10
1281.1139402333
 20
-309.6662756876
 30
18.3457916419
 11
1280.766168462
 21
-309.7580451608
 31
18.361973076
  0
ARC
  5
170
100
AcDbEntity
  8
L1_120
  6
CONTINUOUS
 62
         7
100
AcDbCircle
 10
-1281.1657040423
 20
308.3406475953
 30
-35.705906614
 40
0.2
210
0.0
220
0.1736481776669304
230
0.9848077530122081
100
AcDbArc
 50
270.0
 51
285.0
  0
LINE
  5
171
100
AcDbEntity
  8
L1_120
  6
CONTINUOUS
 62
         7
100
AcDbLine
 10
1277.996168462
 20
-309.7580451608
 30
18.361973076
 11
1280.766168462
 21
-309.7580451608
 31
18.361973076
  0
ARC
  5
172
100
AcDbEntity
  8
L1_120
  6
CONTINUOUS
 62
         7
100
AcDbCircle
 10
-1277.996168462
 20
307.2406475953
 30
-35.705906614
 40
1.0
210
0.0
220
0.1736481776669304
230
0.9848077530122081
100
AcDbArc
 50
0.0
 51
90.0
  0
LINE
  5
173
100
AcDbEntity
  8
L1_120
  6
CONTINUOUS
 62
         7
100
AcDbLine
 10
1169.3674711038
 20
-213.9854203523
 30
1.474675309
 11
1169.3674711038
 21
-199.1148232818
 31
-1.1474121737
  0
LINE
  5
174
100
AcDbEntity
  8
L1_120
  6
CONTINUOUS
 62
         7
100
AcDbLine
 10
1169.3674711038
 20
-213.9854203523
 30
1.474675309
 11
1168.8674711038
 21
-214.4778242288
 31
1.5614993979
  0
LINE
  5
175
100
AcDbEntity
  8
L1_120
  6
CONTINUOUS
 62
         7
100
AcDbLine
 10
1168.8674711038
 20
-214.4778242288
 30
1.5614993979
 11
1161.9290891522
 21
-214.4778242288
 31
1.5614993979
  0
LINE
  5
176
100
AcDbEntity
  8
L1_120
  6
CONTINUOUS
 62
         7
100
AcDbLine
 10
1161.535003871
 20
-214.8659224691
 30
1.6299315888
 11
1161.9290891522
 21
-214.4778242288
 31
1.5614993979
  0
LINE
  5
177
100
AcDbEntity
  8
L1_120
  6
CONTINUOUS
 62
         7
100
AcDbLine
 10
1168.8674711038
 20
-198.6224194053
 30
-1.2342362626
 11
1161.9290891522
 21
-198.6224194053
 31
-1.2342362626
  0
LINE
  5
178
100
AcDbEntity
  8
L1_120
  6
CONTINUOUS
 62
         7
100
AcDbLine
 10
1169.3674711038
 20
-199.1148232818
 30
-1.1474121737
 11
1168.8674711038
 21
-198.6224194053
 31
-1.2342362626
  0
LINE
  5
179
100
AcDbEntity
  8
L1_120
  6
CONTINUOUS
 62
         7
100
AcDbLine
 10
1161.535003871
 20
-198.2343211651
 30
-1.3026684535
 11
1161.9290891522
 21
-198.6224194053
 31
-1.2342362626
  0
LINE
  5
17A
100
AcDbEntity
  8
L1_120
  6
CONTINUOUS
 62
         7
100
AcDbLine
 10
1222.4058530553
 20
-214.4778242288
 30
1.5614993979
 11
1217.6674711038
 21
-214.4778242288
 31
1.5614993979
  0
LINE
  5
17B
100
AcDbEntity
  8
L1_120
  6
CONTINUOUS
 62
         7
100
AcDbLine
 10
1217.1674711038
 20
-213.9854203523
 30
1.474675309
 11
1217.1674711038
 21
-199.1148232819
 31
-1.1474121737
  0
LINE
  5
17C
100
AcDbEntity
  8
L1_120
  6
CONTINUOUS
 62
         7
100
AcDbLine
 10
1217.1674711038
 20
-213.9854203523
 30
1.474675309
 11
1217.6674711038
 21
-214.4778242288
 31
1.5614993979
  0
LINE
  5
17D
100
AcDbEntity
  8
L1_120
  6
CONTINUOUS
 62
         7
100
AcDbLine
 10
1222.7999383365
 20
-214.8659224691
 30
1.6299315888
 11
1222.4058530553
 21
-214.4778242288
 31
1.5614993979
  0
LINE
  5
17E
100
AcDbEntity
  8
L1_120
  6
CONTINUOUS
 62
         7
100
AcDbLine
 10
1217.1674711038
 20
-199.1148232818
 30
-1.1474121737
 11
1217.6674711038
 21
-198.6224194053
 31
-1.2342362626
  0
LINE
  5
17F
100
AcDbEntity
  8
L1_120
  6
CONTINUOUS
 62
         7
100
AcDbLine
 10
1222.7999383365
 20
-198.2343211651
 30
-1.3026684535
 11
1222.4058530553
 21
-198.6224194053
 31
-1.2342362626
  0
LINE
  5
180
100
AcDbEntity
  8
L1_120
  6
CONTINUOUS
 62
         7
100
AcDbLine
 10
1222.4058530553
 20
-198.6224194053
 30
-1.2342362626
 11
1217.6674711038
 21
-198.6224194053
 31
-1.2342362626
  0
CIRCLE
  5
181
100
AcDbEntity
  8
L1_120
  6
CONTINUOUS
 62
         7
100
AcDbCircle
 10
-1192.1674711037
 20
203.4405756746
 30
-35.705906614
 40
22.225
210
0.0
220
0.1736481776669304
230
0.9848077530122081
  0
CIRCLE
  5
182
100
AcDbEntity
  8
L1_120
  6
CONTINUOUS
 62
         7
100
AcDbCircle
 10
-1192.1674711037
 20
203.4405756746
 30
-35.705906614
 40
8.5
210
0.0
220
0.1736481776669304
230
0.9848077530122081
  0
CIRCLE
  5
183
100
AcDbEntity
  8
L1_120
  6
CONTINUOUS
 62
         7
100
AcDbCircle
 10
-1192.1674711037
 20
203.4405756746
 30
-35.705906614
 40
9.5
210
0.0
220
0.1736481776669304
230
0.9848077530122081
  0
ARC
  5
184
100
AcDbEntity
  8
L1_120
  6
CONTINUOUS
 62
         5
100
AcDbCircle
 10
-1192.1674711037
 20
203.4405756746
 30
-35.705906614
 40
8.0
210
0.0
220
0.1736481776669304
230
0.9848077530122081
100
AcDbArc
 50
172.9901372228
 51
441.2264515101
  0
CIRCLE
  5
185
100
AcDbEntity
  8
L1_120
  6
CONTINUOUS
 62
         7
100
AcDbCircle
 10
-1192.1674711037
 20
203.4405756746
 30
-35.705906614
 40
7.0
210
0.0
220
0.1736481776669304
230
0.9848077530122081
  0
CIRCLE
  5
186
100
AcDbEntity
  8
L1_120
  6
CONTINUOUS
 62
         7
100
AcDbCircle
 10
-1192.1674711037
 20
203.4405756746
 30
-35.705906614
 40
12.7165768873
210
0.0
220
0.1736481776669304
230
0.9848077530122081
  0
ARC
  5
187
100
AcDbEntity
  8
L1_120
  6
CONTINUOUS
 62
         7
100
AcDbCircle
 10
-1192.1674711037
 20
203.4405756746
 30
-35.705906614
 40
31.775
210
0.0
220
0.1736481776669304
230
0.9848077530122081
100
AcDbArc
 50
195.411296411
 51
344.588703589
  0
ARC
  5
188
100
AcDbEntity
  8
L1_120
  6
CONTINUOUS
 62
         7
100
AcDbCircle
 10
-1192.1674711037
 20
203.4405756746
 30
-35.705906614
 40
31.775
210
0.0
220
0.1736481776669304
230
0.9848077530122081
100
AcDbArc
 50
15.411296411
 51
164.588703589
  0
LINE
  5
189
100
AcDbEntity
  8
L1_120
  6
CENTER
 62
         1
100
AcDbLine
 10
1185.7520050963
 20
-232.5468417003
 30
4.747554693
 11
1180.1138493716
 21
-230.5258971673
 31
4.3912076453
  0
POLYLINE
  5
18B
100
AcDbEntity
  8
L1_120
  6
CONTINUOUS
 62
         7
100
AcDb3dPolyline
 66
         1
 10
0.0
 20
0.0
 30
0.0
 70
         8
  0
VERTEX
  5
18D
100
AcDbEntity
  8
L1_120
  6
CONTINUOUS
 62
         7
100
AcDbVertex
100
AcDb3dPolylineVertex
 10
1181.0535419924
 20
-230.8627212562
 30
4.4505988199
 70
        32
  0
VERTEX
  5
18F
100
AcDbEntity
  8
L1_120
  6
CONTINUOUS
 62
         7
100
AcDbVertex
100
AcDb3dPolylineVertex
 10
1181.0535419924
 20
-230.8627212562
 30
4.4505988199
 70
        32
  0
SEQEND
  5
191
100
AcDbEntity
  8
L1_120
  6
CONTINUOUS
 62
         7
  0
ARC
  5
192
100
AcDbEntity
  8
L1_120
  6
CONTINUOUS
 62
         7
100
AcDbCircle
 10
-1183.8465210459
 20
229.1447973896
 30
-35.705906614
 40
2.9722262277
210
0.0
220
0.1736481776669304
230
0.9848077530122081
100
AcDbArc
 50
321.257725858
 51
340.0
  0
POLYLINE
  5
194
100
AcDbEntity
  8
L1_120
  6
CONTINUOUS
 62
         7
100
AcDb3dPolyline
 66
         1
 10
0.0
 20
0.0
 30
0.0
 70
         8
  0
VERTEX
  5
196
100
AcDbEntity
  8
L1_120
  6
CONTINUOUS
 62
         7
100
AcDbVertex
100
AcDb3dPolylineVertex
 10
1181.5282770941
 20
-230.0320237628
 30
4.304124439
 70
        32
  0
VERTEX
  5
198
100
AcDbEntity
  8
L1_120
  6
CONTINUOUS
 62
         7
100
AcDbVertex
100
AcDb3dPolylineVertex
 10
1181.5282770941
 20
-230.0320237628
 30
4.304124439
 70
        32
  0
SEQEND
  5
19A
100
AcDbEntity
  8
L1_120
  6
CONTINUOUS
 62
         7
  0
ARC
  5
19B
100
AcDbEntity
  8
L1_120
  6
CONTINUOUS
 62
         7
100
AcDbCircle
 10
-1183.4544436904
 20
228.8302089571
 30
-35.705906614
 40
2.4695428935
210
0.0
220
0.1736481776669304
230
0.9848077530122081
100
AcDbArc
 50
300.6773100904
 51
321.257725858
  0
POLYLINE
  5
19D
100
AcDbEntity
  8
L1_120
  6
CONTINUOUS
 62
         7
100
AcDb3dPolyline
 66
         1
 10
0.0
 20
0.0
 30
0.0
 70
         8
  0
VERTEX
  5
19F
100
AcDbEntity
  8
L1_120
  6
CONTINUOUS
 62
         7
100
AcDbVertex
100
AcDb3dPolylineVertex
 10
1182.1944770665
 20
-229.4623557618
 30
4.2036766004
 70
        32
  0
VERTEX
  5
1A1
100
AcDbEntity
  8
L1_120
  6
CONTINUOUS
 62
         7
100
AcDbVertex
100
AcDb3dPolylineVertex
 10
1182.1944770665
 20
-229.4623557618
 30
4.2036766004
 70
        32
  0
SEQEND
  5
1A3
100
AcDbEntity
  8
L1_120
  6
CONTINUOUS
 62
         7
  0
ARC
  5
1A4
100
AcDbEntity
  8
L1_120
  6
CONTINUOUS
 62
         7
100
AcDbCircle
 10
-1183.2547051593
 20
228.4935072645
 30
-35.705906614
 40
2.0780540551
210
0.0
220
0.1736481776669304
230
0.9848077530122081
100
AcDbArc
 50
276.8239621528
 51
300.6773100904
  0
ARC
  5
1A5
100
AcDbEntity
  8
L1_120
  6
CONTINUOUS
 62
         7
100
AcDbCircle
 10
-1183.2037948306
 20
228.0680738303
 30
-35.705906614
 40
1.6495853065
210
0.0
220
0.1736481776669304
230
0.9848077530122081
100
AcDbArc
 50
250.0
 51
276.8239621528
  0
POLYLINE
  5
1A7
100
AcDbEntity
  8
L1_120
  6
CONTINUOUS
 62
         7
100
AcDb3dPolyline
 66
         1
 10
0.0
 20
0.0
 30
0.0
 70
         8
  0
VERTEX
  5
1A9
100
AcDbEntity
  8
L1_120
  6
CONTINUOUS
 62
         7
100
AcDbVertex
100
AcDb3dPolylineVertex
 10
1183.7679862336
 20
-229.276919348
 30
4.1709791574
 70
        32
  0
VERTEX
  5
1AB
100
AcDbEntity
  8
L1_120
  6
CONTINUOUS
 62
         7
100
AcDbVertex
100
AcDb3dPolylineVertex
 10
1183.7679862336
 20
-229.276919348
 30
4.1709791574
 70
        32
  0
SEQEND
  5
1AD
100
AcDbEntity
  8
L1_120
  6
CONTINUOUS
 62
         7
  0
ARC
  5
1AE
100
AcDbEntity
  8
L1_120
  6
CONTINUOUS
 62
         7
100
AcDbCircle
 10
-1183.2037948306
 20
228.0680738303
 30
-35.705906614
 40
1.6495853065
210
0.0
220
0.1736481776669304
230
0.9848077530122081
100
AcDbArc
 50
223.1760378472
 51
250.0
  0
POLYLINE
  5
1B0
100
AcDbEntity
  8
L1_120
  6
CONTINUOUS
 62
         7
100
AcDb3dPolyline
 66
         1
 10
0.0
 20
0.0
 30
0.0
 70
         8
  0
VERTEX
  5
1B2
100
AcDbEntity
  8
L1_120
  6
CONTINUOUS
 62
         7
100
AcDbVertex
100
AcDb3dPolylineVertex
 10
1184.4067629223
 20
-229.6919048252
 30
4.2441522937
 70
        32
  0
VERTEX
  5
1B4
100
AcDbEntity
  8
L1_120
  6
CONTINUOUS
 62
         7
100
AcDbVertex
100
AcDb3dPolylineVertex
 10
1184.4067629223
 20
-229.6919048252
 30
4.2441522937
 70
        32
  0
SEQEND
  5
1B6
100
AcDbEntity
  8
L1_120
  6
CONTINUOUS
 62
         7
  0
POLYLINE
  5
1B8
100
AcDbEntity
  8
L1_120
  6
CONTINUOUS
 62
         7
100
AcDb3dPolyline
 66
         1
 10
0.0
 20
0.0
 30
0.0
 70
         8
  0
VERTEX
  5
1BA
100
AcDbEntity
  8
L1_120
  6
CONTINUOUS
 62
         7
100
AcDbVertex
100
AcDb3dPolylineVertex
 10
1184.9908435704
 20
-231.273148544
 30
4.5229682244
 70
        32
  0
VERTEX
  5
1BC
100
AcDbEntity
  8
L1_120
  6
CONTINUOUS
 62
         7
100
AcDbVertex
100
AcDb3dPolylineVertex
 10
1184.9908435704
 20
-231.273148544
 30
4.5229682244
 70
        32
  0
SEQEND
  5
1BE
100
AcDbEntity
  8
L1_120
  6
CONTINUOUS
 62
         7
  0
ARC
  5
1BF
100
AcDbEntity
  8
L1_120
  6
CONTINUOUS
 62
         7
100
AcDbCircle
 10
-1182.019333422
 20
228.4797554821
 30
-35.705906614
 40
2.9722262277
210
0.0
220
0.1736481776669304
230
0.9848077530122081
100
AcDbArc
 50
159.9999999999
 51
178.742274142
  0
POLYLINE
  5
1C1
100
AcDbEntity
  8
L1_120
  6
CONTINUOUS
 62
         7
100
AcDb3dPolyline
 66
         1
 10
0.0
 20
0.0
 30
0.0
 70
         8
  0
VERTEX
  5
1C3
100
AcDbEntity
  8
L1_120
  6
CONTINUOUS
 62
         7
100
AcDbVertex
100
AcDb3dPolylineVertex
 10
1184.8123124755
 20
-232.2100176115
 30
4.6881635184
 70
        32
  0
VERTEX
  5
1C5
100
AcDbEntity
  8
L1_120
  6
CONTINUOUS
 62
         7
100
AcDbVertex
100
AcDb3dPolylineVertex
 10
1184.8123124755
 20
-232.2100176115
 30
4.6881635184
 70
        32
  0
SEQEND
  5
1C7
100
AcDbEntity
  8
L1_120
  6
CONTINUOUS
 62
         7
  0
ARC
  5
1C8
100
AcDbEntity
  8
L1_120
  6
CONTINUOUS
 62
         7
100
AcDbCircle
 10
-1182.019333422
 20
228.4797554821
 30
-35.705906614
 40
2.9722262277
210
0.0
220
0.1736481776669304
230
0.9848077530122081
100
AcDbArc
 50
141.257725858
 51
160.0
  0
POLYLINE
  5
1CA
100
AcDbEntity
  8
L1_120
  6
CONTINUOUS
 62
         7
100
AcDb3dPolyline
 66
         1
 10
0.0
 20
0.0
 30
0.0
 70
         8
  0
VERTEX
  5
1CC
100
AcDbEntity
  8
L1_120
  6
CONTINUOUS
 62
         7
100
AcDbVertex
100
AcDb3dPolylineVertex
 10
1184.3375773738
 20
-233.0407151049
 30
4.8346378993
 70
        32
  0
VERTEX
  5
1CE
100
AcDbEntity
  8
L1_120
  6
CONTINUOUS
 62
         7
100
AcDbVertex
100
AcDb3dPolylineVertex
 10
1184.3375773738
 20
-233.0407151049
 30
4.8346378993
 70
        32
  0
SEQEND
  5
1D0
100
AcDbEntity
  8
L1_120
  6
CONTINUOUS
 62
         7
  0
ARC
  5
1D1
100
AcDbEntity
  8
L1_120
  6
CONTINUOUS
 62
         7
100
AcDbCircle
 10
-1182.4114107775
 20
228.7943439146
 30
-35.705906614
 40
2.4695428935
210
0.0
220
0.1736481776669304
230
0.9848077530122081
100
AcDbArc
 50
120.6773100904
 51
141.2577258581
  0
POLYLINE
  5
1D3
100
AcDbEntity
  8
L1_120
  6
CONTINUOUS
 62
         7
100
AcDb3dPolyline
 66
         1
 10
0.0
 20
0.0
 30
0.0
 70
         8
  0
VERTEX
  5
1D5
100
AcDbEntity
  8
L1_120
  6
CONTINUOUS
 62
         7
100
AcDbVertex
100
AcDb3dPolylineVertex
 10
1183.6713774014
 20
-233.6103831059
 30
4.9350857379
 70
        32
  0
VERTEX
  5
1D7
100
AcDbEntity
  8
L1_120
  6
CONTINUOUS
 62
         7
100
AcDbVertex
100
AcDb3dPolylineVertex
 10
1183.6713774014
 20
-233.6103831059
 30
4.9350857379
 70
        32
  0
SEQEND
  5
1D9
100
AcDbEntity
  8
L1_120
  6
CONTINUOUS
 62
         7
  0
ARC
  5
1DA
100
AcDbEntity
  8
L1_120
  6
CONTINUOUS
 62
         7
100
AcDbCircle
 10
-1182.6111493086
 20
229.1310456071
 30
-35.705906614
 40
2.0780540551
210
0.0
220
0.1736481776669304
230
0.9848077530122081
100
AcDbArc
 50
96.8239621528
 51
120.6773100903
  0
POLYLINE
  5
1DC
100
AcDbEntity
  8
L1_120
  6
CONTINUOUS
 62
         7
100
AcDb3dPolyline
 66
         1
 10
0.0
 20
0.0
 30
0.0
 70
         8
  0
VERTEX
  5
1DE
100
AcDbEntity
  8
L1_120
  6
CONTINUOUS
 62
         7
100
AcDbVertex
100
AcDb3dPolylineVertex
 10
1182.8580621005
 20
-233.8822820395
 30
4.9830288559
 70
        32
  0
VERTEX
  5
1E0
100
AcDbEntity
  8
L1_120
  6
CONTINUOUS
 62
         7
100
AcDbVertex
100
AcDb3dPolylineVertex
 10
1182.8580621005
 20
-233.8822820395
 30
4.9830288559
 70
        32
  0
SEQEND
  5
1E2
100
AcDbEntity
  8
L1_120
  6
CONTINUOUS
 62
         7
  0
ARC
  5
1E3
100
AcDbEntity
  8
L1_120
  6
CONTINUOUS
 62
         7
100
AcDbCircle
 10
-1182.6620596373
 20
229.5564790414
 30
-35.705906614
 40
1.6495853065
210
0.0
220
0.1736481776669304
230
0.9848077530122081
100
AcDbArc
 50
70.0
 51
96.8239621528
  0
POLYLINE
  5
1E5
100
AcDbEntity
  8
L1_120
  6
CONTINUOUS
 62
         7
100
AcDb3dPolyline
 66
         1
 10
0.0
 20
0.0
 30
0.0
 70
         8
  0
VERTEX
  5
1E7
100
AcDbEntity
  8
L1_120
  6
CONTINUOUS
 62
         7
100
AcDbVertex
100
AcDb3dPolylineVertex
 10
1182.0978682343
 20
-233.7958195197
 30
4.9677831808
 70
        32
  0
VERTEX
  5
1E9
100
AcDbEntity
  8
L1_120
  6
CONTINUOUS
 62
         7
100
AcDbVertex
100
AcDb3dPolylineVertex
 10
1182.0978682343
 20
-233.7958195197
 30
4.9677831808
 70
        32
  0
SEQEND
  5
1EB
100
AcDbEntity
  8
L1_120
  6
CONTINUOUS
 62
         7
  0
ARC
  5
1EC
100
AcDbEntity
  8
L1_120
  6
CONTINUOUS
 62
         7
100
AcDbCircle
 10
-1182.6620596373
 20
229.5564790414
 30
-35.705906614
 40
1.6495853065
210
0.0
220
0.1736481776669304
230
0.9848077530122081
100
AcDbArc
 50
43.1760378472
 51
70.0
  0
POLYLINE
  5
1EE
100
AcDbEntity
  8
L1_120
  6
CONTINUOUS
 62
         7
100
AcDb3dPolyline
 66
         1
 10
0.0
 20
0.0
 30
0.0
 70
         8
  0
VERTEX
  5
1F0
100
AcDbEntity
  8
L1_120
  6
CONTINUOUS
 62
         7
100
AcDbVertex
100
AcDb3dPolylineVertex
 10
1181.4590915456
 20
-233.3808340425
 30
4.8946100446
 70
        32
  0
VERTEX
  5
1F2
100
AcDbEntity
  8
L1_120
  6
CONTINUOUS
 62
         7
100
AcDbVertex
100
AcDb3dPolylineVertex
 10
1181.4590915456
 20
-233.3808340425
 30
4.8946100446
 70
        32
  0
SEQEND
  5
1F4
100
AcDbEntity
  8
L1_120
  6
CONTINUOUS
 62
         7
  0
ARC
  5
1F5
100
AcDbEntity
  8
L1_120
  6
CONTINUOUS
 62
         7
100
AcDbCircle
 10
-1182.9745225519
 20
229.2633026516
 30
-35.705906614
 40
2.0780540551
210
0.0
220
0.1736481776669304
230
0.9848077530122081
100
AcDbArc
 50
19.3226899097
 51
43.1760378473
  0
ARC
  5
1F6
100
AcDbEntity
  8
L1_120
  6
CONTINUOUS
 62
         7
100
AcDbCircle
 10
-1183.3439588199
 20
229.133763644
 30
-35.705906614
 40
2.4695428935
210
0.0
220
0.1736481776669304
230
0.9848077530122081
100
AcDbArc
 50
358.742274142
 51
379.3226899096
  0
ARC
  5
1F7
100
AcDbEntity
  8
L1_120
  6
CONTINUOUS
 62
         7
100
AcDbCircle
 10
-1183.8465210459
 20
229.1447973896
 30
-35.705906614
 40
2.9722262277
210
0.0
220
0.1736481776669304
230
0.9848077530122081
100
AcDbArc
 50
340.0
 51
358.742274142
  0
ARC
  5
1F8
100
AcDbEntity
  8
L1_120
  6
CONTINUOUS
 62
         7
100
AcDbCircle
 10
-1182.521895648
 20
228.4907892277
 30
-35.705906614
 40
2.4695428935
210
0.0
220
0.1736481776669304
230
0.9848077530122081
100
AcDbArc
 50
178.742274142
 51
199.3226899097
  0
ARC
  5
1F9
100
AcDbEntity
  8
L1_120
  6
CONTINUOUS
 62
         7
100
AcDbCircle
 10
-1182.891331916
 20
228.36125022
 30
-35.705906614
 40
2.0780540551
210
0.0
220
0.1736481776669304
230
0.9848077530122081
100
AcDbArc
 50
199.3226899096
 51
223.1760378472
  0
POLYLINE
  5
1FB
100
AcDbEntity
  8
L1_120
  6
CONTINUOUS
 62
         7
100
AcDb3dPolyline
 66
         1
 10
0.0
 20
0.0
 30
0.0
 70
         8
  0
VERTEX
  5
1FD
100
AcDbEntity
  8
L1_120
  6
CONTINUOUS
 62
         7
100
AcDbVertex
100
AcDb3dPolylineVertex
 10
1199.522629732
 20
-180.8902260227
 30
-4.3609003831
 70
        32
  0
VERTEX
  5
1FF
100
AcDbEntity
  8
L1_120
  6
CONTINUOUS
 62
         7
100
AcDbVertex
100
AcDb3dPolylineVertex
 10
1199.522629732
 20
-180.8902260227
 30
-4.3609003831
 70
        32
  0
SEQEND
  5
201
100
AcDbEntity
  8
L1_120
  6
CONTINUOUS
 62
         7
  0
ARC
  5
202
100
AcDbEntity
  8
L1_120
  6
CONTINUOUS
 62
         7
100
AcDbCircle
 10
-1202.3156087855
 20
178.4013958671
 30
-35.705906614
 40
2.9722262277
210
0.0
220
0.1736481776669304
230
0.9848077530122081
100
AcDbArc
 50
340.0
 51
358.7422741421
  0
POLYLINE
  5
204
100
AcDbEntity
  8
L1_120
  6
CONTINUOUS
 62
         7
100
AcDb3dPolyline
 66
         1
 10
0.0
 20
0.0
 30
0.0
 70
         8
  0
VERTEX
  5
206
100
AcDbEntity
  8
L1_120
  6
CONTINUOUS
 62
         7
100
AcDbVertex
100
AcDb3dPolylineVertex
 10
1199.3440986371
 20
-181.8270950902
 30
-4.1957050891
 70
        32
  0
VERTEX
  5
208
100
AcDbEntity
  8
L1_120
  6
CONTINUOUS
 62
         7
100
AcDbVertex
100
AcDb3dPolylineVertex
 10
1199.3440986371
 20
-181.8270950902
 30
-4.1957050891
 70
        32
  0
SEQEND
  5
20A
100
AcDbEntity
  8
L1_120
  6
CONTINUOUS
 62
         7
  0
ARC
  5
20B
100
AcDbEntity
  8
L1_120
  6
CONTINUOUS
 62
         7
100
AcDbCircle
 10
-1201.8130465595
 20
178.3903621216
 30
-35.705906614
 40
2.4695428935
210
0.0
220
0.1736481776669304
230
0.9848077530122081
100
AcDbArc
 50
358.7422741421
 51
379.3226899097
  0
POLYLINE
  5
20D
100
AcDbEntity
  8
L1_120
  6
CONTINUOUS
 62
         7
100
AcDb3dPolyline
 66
         1
 10
0.0
 20
0.0
 30
0.0
 70
         8
  0
VERTEX
  5
20F
100
AcDbEntity
  8
L1_120
  6
CONTINUOUS
 62
         7
100
AcDbVertex
100
AcDb3dPolylineVertex
 10
1199.4826130434
 20
-182.6852054832
 30
-4.0443970744
 70
        32
  0
VERTEX
  5
211
100
AcDbEntity
  8
L1_120
  6
CONTINUOUS
 62
         7
100
AcDbVertex
100
AcDb3dPolylineVertex
 10
1199.4826130434
 20
-182.6852054832
 30
-4.0443970744
 70
        32
  0
SEQEND
  5
213
100
AcDbEntity
  8
L1_120
  6
CONTINUOUS
 62
         7
  0
ARC
  5
214
100
AcDbEntity
  8
L1_120
  6
CONTINUOUS
 62
         7
100
AcDbCircle
 10
-1201.4436102915
 20
178.5199011292
 30
-35.705906614
 40
2.0780540551
210
0.0
220
0.1736481776669304
230
0.9848077530122081
100
AcDbArc
 50
19.3226899097
 51
43.1760378473
  0
POLYLINE
  5
216
100
AcDbEntity
  8
L1_120
  6
CONTINUOUS
 62
         7
100
AcDb3dPolyline
 66
         1
 10
0.0
 20
0.0
 30
0.0
 70
         8
  0
VERTEX
  5
218
100
AcDbEntity
  8
L1_120
  6
CONTINUOUS
 62
         7
100
AcDbVertex
100
AcDb3dPolylineVertex
 10
1199.9281792852
 20
-183.408338809
 30
-3.9168891584
 70
        32
  0
VERTEX
  5
21A
100
AcDbEntity
  8
L1_120
  6
CONTINUOUS
 62
         7
100
AcDbVertex
100
AcDb3dPolylineVertex
 10
1199.9281792852
 20
-183.408338809
 30
-3.9168891584
 70
        32
  0
SEQEND
  5
21C
100
AcDbEntity
  8
L1_120
  6
CONTINUOUS
 62
         7
  0
ARC
  5
21D
100
AcDbEntity
  8
L1_120
  6
CONTINUOUS
 62
         7
100
AcDbCircle
 10
-1201.1311473769
 20
178.8130775189
 30
-35.705906614
 40
1.6495853065
210
0.0
220
0.1736481776669304
230
0.9848077530122081
100
AcDbArc
 50
43.1760378472
 51
69.9999999999
  0
POLYLINE
  5
21F
100
AcDbEntity
  8
L1_120
  6
CONTINUOUS
 62
         7
100
AcDb3dPolyline
 66
         1
 10
0.0
 20
0.0
 30
0.0
 70
         8
  0
VERTEX
  5
221
100
AcDbEntity
  8
L1_120
  6
CONTINUOUS
 62
         7
100
AcDbVertex
100
AcDb3dPolylineVertex
 10
1200.5669559739
 20
-183.8233242862
 30
-3.8437160221
 70
        32
  0
VERTEX
  5
223
100
AcDbEntity
  8
L1_120
  6
CONTINUOUS
 62
         7
100
AcDbVertex
100
AcDb3dPolylineVertex
 10
1200.5669559739
 20
-183.8233242862
 30
-3.8437160221
 70
        32
  0
SEQEND
  5
225
100
AcDbEntity
  8
L1_120
  6
CONTINUOUS
 62
         7
  0
ARC
  5
226
100
AcDbEntity
  8
L1_120
  6
CONTINUOUS
 62
         7
100
AcDbCircle
 10
-1201.1311473769
 20
178.8130775189
 30
-35.705906614
 40
1.6495853065
210
0.0
220
0.1736481776669304
230
0.9848077530122081
100
AcDbArc
 50
70.0
 51
96.8239621528
  0
POLYLINE
  5
228
100
AcDbEntity
  8
L1_120
  6
CONTINUOUS
 62
         7
100
AcDb3dPolyline
 66
         1
 10
0.0
 20
0.0
 30
0.0
 70
         8
  0
VERTEX
  5
22A
100
AcDbEntity
  8
L1_120
  6
CONTINUOUS
 62
         7
100
AcDbVertex
100
AcDb3dPolylineVertex
 10
1201.3271498401
 20
-183.909786806
 30
-3.8284703471
 70
        32
  0
VERTEX
  5
22C
100
AcDbEntity
  8
L1_120
  6
CONTINUOUS
 62
         7
100
AcDbVertex
100
AcDb3dPolylineVertex
 10
1201.3271498401
 20
-183.909786806
 30
-3.8284703471
 70
        32
  0
SEQEND
  5
22E
100
AcDbEntity
  8
L1_120
  6
CONTINUOUS
 62
         7
  0
ARC
  5
22F
100
AcDbEntity
  8
L1_120
  6
CONTINUOUS
 62
         7
100
AcDbCircle
 10
-1201.0802370482
 20
178.3876440847
 30
-35.705906614
 40
2.0780540551
210
0.0
220
0.1736481776669304
230
0.9848077530122081
100
AcDbArc
 50
96.8239621528
 51
120.6773100904
  0
POLYLINE
  5
231
100
AcDbEntity
  8
L1_120
  6
CONTINUOUS
 62
         7
100
AcDb3dPolyline
 66
         1
 10
0.0
 20
0.0
 30
0.0
 70
         8
  0
VERTEX
  5
233
100
AcDbEntity
  8
L1_120
  6
CONTINUOUS
 62
         7
100
AcDbVertex
100
AcDb3dPolylineVertex
 10
1202.140465141
 20
-183.6378878724
 30
-3.8764134651
 70
        32
  0
VERTEX
  5
235
100
AcDbEntity
  8
L1_120
  6
CONTINUOUS
 62
         7
100
AcDbVertex
100
AcDb3dPolylineVertex
 10
1202.140465141
 20
-183.6378878724
 30
-3.8764134651
 70
        32
  0
SEQEND
  5
237
100
AcDbEntity
  8
L1_120
  6
CONTINUOUS
 62
         7
  0
ARC
  5
238
100
AcDbEntity
  8
L1_120
  6
CONTINUOUS
 62
         7
100
AcDbCircle
 10
-1200.8804985171
 20
178.0509423921
 30
-35.705906614
 40
2.4695428935
210
0.0
220
0.1736481776669304
230
0.9848077530122081
100
AcDbArc
 50
120.6773100903
 51
141.257725858
  0
POLYLINE
  5
23A
100
AcDbEntity
  8
L1_120
  6
CONTINUOUS
 62
         7
100
AcDb3dPolyline
 66
         1
 10
0.0
 20
0.0
 30
0.0
 70
         8
  0
VERTEX
  5
23C
100
AcDbEntity
  8
L1_120
  6
CONTINUOUS
 62
         7
100
AcDbVertex
100
AcDb3dPolylineVertex
 10
1202.8066651133
 20
-183.0682198714
 30
-3.9768613037
 70
        32
  0
VERTEX
  5
23E
100
AcDbEntity
  8
L1_120
  6
CONTINUOUS
 62
         7
100
AcDbVertex
100
AcDb3dPolylineVertex
 10
1202.8066651133
 20
-183.0682198714
 30
-3.9768613037
 70
        32
  0
SEQEND
  5
240
100
AcDbEntity
  8
L1_120
  6
CONTINUOUS
 62
         7
  0
ARC
  5
241
100
AcDbEntity
  8
L1_120
  6
CONTINUOUS
 62
         7
100
AcDbCircle
 10
-1200.4884211616
 20
177.7363539596
 30
-35.705906614
 40
2.9722262277
210
0.0
220
0.1736481776669304
230
0.9848077530122081
100
AcDbArc
 50
141.257725858
 51
160.0
  0
POLYLINE
  5
243
100
AcDbEntity
  8
L1_120
  6
CONTINUOUS
 62
         7
100
AcDb3dPolyline
 66
         1
 10
0.0
 20
0.0
 30
0.0
 70
         8
  0
VERTEX
  5
245
100
AcDbEntity
  8
L1_120
  6
CONTINUOUS
 62
         7
100
AcDbVertex
100
AcDb3dPolylineVertex
 10
1203.2814002151
 20
-182.237522378
 30
-4.1233356846
 70
        32
  0
VERTEX
  5
247
100
AcDbEntity
  8
L1_120
  6
CONTINUOUS
 62
         7
100
AcDbVertex
100
AcDb3dPolylineVertex
 10
1203.2814002151
 20
-182.237522378
 30
-4.1233356846
 70
        32
  0
SEQEND
  5
249
100
AcDbEntity
  8
L1_120
  6
CONTINUOUS
 62
         7
  0
ARC
  5
24A
100
AcDbEntity
  8
L1_120
  6
CONTINUOUS
 62
         7
100
AcDbCircle
 10
-1200.4884211616
 20
177.7363539596
 30
-35.705906614
 40
2.9722262277
210
0.0
220
0.1736481776669304
230
0.9848077530122081
100
AcDbArc
 50
159.9999999999
 51
178.742274142
  0
POLYLINE
  5
24C
100
AcDbEntity
  8
L1_120
  6
CONTINUOUS
 62
         7
100
AcDb3dPolyline
 66
         1
 10
0.0
 20
0.0
 30
0.0
 70
         8
  0
VERTEX
  5
24E
100
AcDbEntity
  8
L1_120
  6
CONTINUOUS
 62
         7
100
AcDbVertex
100
AcDb3dPolylineVertex
 10
1203.45993131
 20
-181.3006533105
 30
-4.2885309786
 70
        32
  0
VERTEX
  5
250
100
AcDbEntity
  8
L1_120
  6
CONTINUOUS
 62
         7
100
AcDbVertex
100
AcDb3dPolylineVertex
 10
1203.45993131
 20
-181.3006533105
 30
-4.2885309786
 70
        32
  0
SEQEND
  5
252
100
AcDbEntity
  8
L1_120
  6
CONTINUOUS
 62
         7
  0
ARC
  5
253
100
AcDbEntity
  8
L1_120
  6
CONTINUOUS
 62
         7
100
AcDbCircle
 10
-1200.9909833876
 20
177.7473877052
 30
-35.705906614
 40
2.4695428935
210
0.0
220
0.1736481776669304
230
0.9848077530122081
100
AcDbArc
 50
178.742274142
 51
199.3226899097
  0
POLYLINE
  5
255
100
AcDbEntity
  8
L1_120
  6
CONTINUOUS
 62
         7
100
AcDb3dPolyline
 66
         1
 10
0.0
 20
0.0
 30
0.0
 70
         8
  0
VERTEX
  5
257
100
AcDbEntity
  8
L1_120
  6
CONTINUOUS
 62
         7
100
AcDbVertex
100
AcDb3dPolylineVertex
 10
1203.3214169036
 20
-180.4425429174
 30
-4.4398389933
 70
        32
  0
VERTEX
  5
259
100
AcDbEntity
  8
L1_120
  6
CONTINUOUS
 62
         7
100
AcDbVertex
100
AcDb3dPolylineVertex
 10
1203.3214169036
 20
-180.4425429174
 30
-4.4398389933
 70
        32
  0
SEQEND
  5
25B
100
AcDbEntity
  8
L1_120
  6
CONTINUOUS
 62
         7
  0
ARC
  5
25C
100
AcDbEntity
  8
L1_120
  6
CONTINUOUS
 62
         7
100
AcDbCircle
 10
-1201.3604196555
 20
177.6178486976
 30
-35.705906614
 40
2.0780540551
210
0.0
220
0.1736481776669304
230
0.9848077530122081
100
AcDbArc
 50
199.3226899096
 51
223.1760378472
  0
POLYLINE
  5
25E
100
AcDbEntity
  8
L1_120
  6
CONTINUOUS
 62
         7
100
AcDb3dPolyline
 66
         1
 10
0.0
 20
0.0
 30
0.0
 70
         8
  0
VERTEX
  5
260
100
AcDbEntity
  8
L1_120
  6
CONTINUOUS
 62
         7
100
AcDbVertex
100
AcDb3dPolylineVertex
 10
1202.8758506619
 20
-179.7194095916
 30
-4.5673469093
 70
        32
  0
VERTEX
  5
262
100
AcDbEntity
  8
L1_120
  6
CONTINUOUS
 62
         7
100
AcDbVertex
100
AcDb3dPolylineVertex
 10
1202.8758506619
 20
-179.7194095916
 30
-4.5673469093
 70
        32
  0
SEQEND
  5
264
100
AcDbEntity
  8
L1_120
  6
CONTINUOUS
 62
         7
  0
ARC
  5
265
100
AcDbEntity
  8
L1_120
  6
CONTINUOUS
 62
         7
100
AcDbCircle
 10
-1201.6728825702
 20
177.3246723079
 30
-35.705906614
 40
1.6495853065
210
0.0
220
0.1736481776669304
230
0.9848077530122081
100
AcDbArc
 50
223.1760378472
 51
250.0
  0
POLYLINE
  5
267
100
AcDbEntity
  8
L1_120
  6
CONTINUOUS
 62
         7
100
AcDb3dPolyline
 66
         1
 10
0.0
 20
0.0
 30
0.0
 70
         8
  0
VERTEX
  5
269
100
AcDbEntity
  8
L1_120
  6
CONTINUOUS
 62
         7
100
AcDbVertex
100
AcDb3dPolylineVertex
 10
1202.2370739732
 20
-179.3044241145
 30
-4.6405200456
 70
        32
  0
VERTEX
  5
26B
100
AcDbEntity
  8
L1_120
  6
CONTINUOUS
 62
         7
100
AcDbVertex
100
AcDb3dPolylineVertex
 10
1202.2370739732
 20
-179.3044241145
 30
-4.6405200456
 70
        32
  0
SEQEND
  5
26D
100
AcDbEntity
  8
L1_120
  6
CONTINUOUS
 62
         7
  0
ARC
  5
26E
100
AcDbEntity
  8
L1_120
  6
CONTINUOUS
 62
         7
100
AcDbCircle
 10
-1201.6728825702
 20
177.3246723079
 30
-35.705906614
 40
1.6495853065
210
0.0
220
0.1736481776669304
230
0.9848077530122081
100
AcDbArc
 50
250.0000000001
 51
276.8239621529
  0
POLYLINE
  5
270
100
AcDbEntity
  8
L1_120
  6
CONTINUOUS
 62
         7
100
AcDb3dPolyline
 66
         1
 10
0.0
 20
0.0
 30
0.0
 70
         8
  0
VERTEX
  5
272
100
AcDbEntity
  8
L1_120
  6
CONTINUOUS
 62
         7
100
AcDbVertex
100
AcDb3dPolylineVertex
 10
1201.4768801069
 20
-179.2179615947
 30
-4.6557657206
 70
        32
  0
VERTEX
  5
274
100
AcDbEntity
  8
L1_120
  6
CONTINUOUS
 62
         7
100
AcDbVertex
100
AcDb3dPolylineVertex
 10
1201.4768801069
 20
-179.2179615947
 30
-4.6557657206
 70
        32
  0
SEQEND
  5
276
100
AcDbEntity
  8
L1_120
  6
CONTINUOUS
 62
         7
  0
ARC
  5
277
100
AcDbEntity
  8
L1_120
  6
CONTINUOUS
 62
         7
100
AcDbCircle
 10
-1201.7237928989
 20
177.7501057421
 30
-35.705906614
 40
2.0780540551
210
0.0
220
0.1736481776669304
230
0.9848077530122081
100
AcDbArc
 50
276.8239621528
 51
300.6773100904
  0
POLYLINE
  5
279
100
AcDbEntity
  8
L1_120
  6
CONTINUOUS
 62
         7
100
AcDb3dPolyline
 66
         1
 10
0.0
 20
0.0
 30
0.0
 70
         8
  0
VERTEX
  5
27B
100
AcDbEntity
  8
L1_120
  6
CONTINUOUS
 62
         7
100
AcDbVertex
100
AcDb3dPolylineVertex
 10
1200.6635648061
 20
-179.4898605283
 30
-4.6078226026
 70
        32
  0
VERTEX
  5
27D
100
AcDbEntity
  8
L1_120
  6
CONTINUOUS
 62
         7
100
AcDbVertex
100
AcDb3dPolylineVertex
 10
1200.6635648061
 20
-179.4898605283
 30
-4.6078226026
 70
        32
  0
SEQEND
  5
27F
100
AcDbEntity
  8
L1_120
  6
CONTINUOUS
 62
         7
  0
ARC
  5
280
100
AcDbEntity
  8
L1_120
  6
CONTINUOUS
 62
         7
100
AcDbCircle
 10
-1201.92353143
 20
178.0868074347
 30
-35.705906614
 40
2.4695428935
210
0.0
220
0.1736481776669304
230
0.9848077530122081
100
AcDbArc
 50
300.6773100903
 51
321.257725858
  0
ARC
  5
281
100
AcDbEntity
  8
L1_120
  6
CONTINUOUS
 62
         7
100
AcDbCircle
 10
-1202.3156087855
 20
178.4013958672
 30
-35.705906614
 40
2.9722262277
210
0.0
220
0.1736481776669304
230
0.9848077530122081
100
AcDbArc
 50
321.257725858
 51
340.0
  0
LINE
  5
282
100
AcDbEntity
  8
L1_120
  6
CENTER
 62
         1
100
AcDbLine
 10
1204.2210928359
 20
-182.5743464668
 30
-4.06394451
 11
1198.5829371112
 21
-180.5534019338
 31
-4.4202915577
  0
LINE
  5
283
100
AcDbEntity
  8
L1_120
  6
CONTINUOUS
 62
         7
100
AcDbLine
 10
1277.8730001903
 20
-305.3844820541
 30
19.777205724
 11
1346.446168462
 21
-295.3842283479
 31
19.777205724
  0
LINE
  5
284
100
AcDbEntity
  8
L1_120
  6
CONTINUOUS
 62
         7
100
AcDbLine
 10
1277.8730001903
 20
-330.1839746416
 30
19.777205724
 11
1346.4461684625
 21
-340.1842283479
 31
19.777205724
  0
ARC
  5
285
100
AcDbEntity
  8
L1_120
  6
CONTINUOUS
 62
         7
100
AcDbCircle
 10
1278.196168462
 20
-329.0184100643
 30
19.777205724
 40
1.2
100
AcDbArc
 50
180.0
 51
261.7028550302
  0
LINE
  5
286
100
AcDbEntity
  8
L1_120
  6
CONTINUOUS
 62
         7
100
AcDbLine
 10
1276.996168462
 20
-306.5500466314
 30
19.777205724
 11
1276.996168462
 21
-329.0184100643
 31
19.777205724
  0
ARC
  5
287
100
AcDbEntity
  8
L1_120
  6
CONTINUOUS
 62
         7
100
AcDbCircle
 10
1278.196168462
 20
-306.5500466314
 30
19.777205724
 40
1.2
100
AcDbArc
 50
98.2971449698
 51
180.0
  0
ARC
  5
288
100
AcDbEntity
  8
L1_120
  6
CONTINUOUS
 62
         7
100
AcDbCircle
 10
1347.646168462
 20
-182.4221210824
 30
0.0
 40
0.8
100
AcDbArc
 50
269.9999999999
 51
360.0
  0
LINE
  5
289
100
AcDbEntity
  8
L1_120
  6
CONTINUOUS
 62
         7
100
AcDbLine
 10
1347.646168462
 20
-183.2221210824
 30
0.0
 11
1346.446168462
 21
-183.2221210824
 31
0.0
  0
LINE
  5
28A
100
AcDbEntity
  8
L1_120
  6
CONTINUOUS
 62
         7
100
AcDbLine
 10
1346.446168462
 20
-228.0221210824
 30
0.0
 11
1346.446168462
 21
-183.2221210824
 31
0.0
  0
LINE
  5
28B
100
AcDbEntity
  8
L1_120
  6
CONTINUOUS
 62
         7
100
AcDbLine
 10
1347.646168462
 20
-228.0221210824
 30
0.0
 11
1346.446168462
 21
-228.0221210824
 31
0.0
  0
ARC
  5
28C
100
AcDbEntity
  8
L1_120
  6
CONTINUOUS
 62
         7
100
AcDbCircle
 10
1347.646168462
 20
-228.8221210824
 30
0.0
 40
0.8
100
AcDbArc
 50
0.0
 51
90.0000000001
  0
LINE
  5
28D
100
AcDbEntity
  8
L1_120
  6
CONTINUOUS
 62
         7
100
AcDbLine
 10
1379.798168462
 20
-227.9071210824
 30
0.0
 11
1379.798168462
 21
-183.3371210824
 31
0.0
  0
LINE
  5
28E
100
AcDbEntity
  8
L1_120
  6
CONTINUOUS
 62
         4
100
AcDbLine
 10
1363.846168462
 20
-237.3971210824
 30
0.0
 11
1363.846168462
 21
-214.4721210824
 31
0.0
  0
LINE
  5
28F
100
AcDbEntity
  8
L1_120
  6
CONTINUOUS
 62
         4
100
AcDbLine
 10
1348.946168462
 20
-237.3971210824
 30
0.0
 11
1348.946168462
 21
-214.4721210824
 31
0.0
  0
LINE
  5
290
100
AcDbEntity
  8
L1_120
  6
CONTINUOUS
 62
         4
100
AcDbLine
 10
1363.846168462
 20
-196.7721210824
 30
0.0
 11
1363.846168462
 21
-173.8471210824
 31
0.0
  0
LINE
  5
291
100
AcDbEntity
  8
L1_120
  6
CONTINUOUS
 62
         4
100
AcDbLine
 10
1348.946168462
 20
-196.7721210824
 30
0.0
 11
1348.946168462
 21
-173.8471210824
 31
0.0
  0
LINE
  5
292
100
AcDbEntity
  8
L1_120
  6
CONTINUOUS
 62
         7
100
AcDbLine
 10
1348.446168462
 20
-236.8971210824
 30
0.0
 11
1348.946168462
 21
-237.3971210824
 31
0.0
  0
LINE
  5
293
100
AcDbEntity
  8
L1_120
  6
CONTINUOUS
 62
         7
100
AcDbLine
 10
1364.346168462
 20
-236.8971210824
 30
0.0
 11
1363.846168462
 21
-237.3971210824
 31
0.0
  0
LINE
  5
294
100
AcDbEntity
  8
L1_120
  6
CONTINUOUS
 62
         7
100
AcDbLine
 10
1348.946168462
 20
-237.3971210824
 30
0.0
 11
1350.446168462
 21
-237.3971210824
 31
0.0
  0
LINE
  5
295
100
AcDbEntity
  8
L1_120
  6
CONTINUOUS
 62
         7
100
AcDbLine
 10
1362.346168462
 20
-237.3971210824
 30
0.0
 11
1363.846168462
 21
-237.3971210824
 31
0.0
  0
LINE
  5
296
100
AcDbEntity
  8
L1_120
  6
CONTINUOUS
 62
         7
100
AcDbLine
 10
1348.446168462
 20
-235.3971210824
 30
0.0
 11
1348.446168462
 21
-236.8971210824
 31
0.0
  0
LINE
  5
297
100
AcDbEntity
  8
L1_120
  6
CONTINUOUS
 62
         7
100
AcDbLine
 10
1364.346168462
 20
-235.3971210824
 30
0.0
 11
1364.346168462
 21
-236.8971210824
 31
0.0
  0
LINE
  5
298
100
AcDbEntity
  8
L1_120
  6
CONTINUOUS
 62
         7
100
AcDbLine
 10
1363.846168462
 20
-173.8471210824
 30
0.0
 11
1364.346168462
 21
-174.3471210824
 31
0.0
  0
LINE
  5
299
100
AcDbEntity
  8
L1_120
  6
CONTINUOUS
 62
         7
100
AcDbLine
 10
1348.946168462
 20
-173.8471210824
 30
0.0
 11
1348.446168462
 21
-174.3471210824
 31
0.0
  0
LINE
  5
29A
100
AcDbEntity
  8
L1_120
  6
CONTINUOUS
 62
         7
100
AcDbLine
 10
1364.346168462
 20
-174.3471210824
 30
0.0
 11
1364.346168462
 21
-175.8471210824
 31
0.0
  0
LINE
  5
29B
100
AcDbEntity
  8
L1_120
  6
CONTINUOUS
 62
         7
100
AcDbLine
 10
1362.346168462
 20
-173.8471210824
 30
0.0
 11
1363.846168462
 21
-173.8471210824
 31
0.0
  0
LINE
  5
29C
100
AcDbEntity
  8
L1_120
  6
CONTINUOUS
 62
         7
100
AcDbLine
 10
1348.446168462
 20
-174.3471210824
 30
0.0
 11
1348.446168462
 21
-175.8471210824
 31
0.0
  0
LINE
  5
29D
100
AcDbEntity
  8
L1_120
  6
CONTINUOUS
 62
         7
100
AcDbLine
 10
1348.946168462
 20
-173.8471210824
 30
0.0
 11
1350.446168462
 21
-173.8471210824
 31
0.0
  0
ARC
  5
29E
100
AcDbEntity
  8
L1_120
  6
CONTINUOUS
 62
         7
100
AcDbCircle
 10
1364.846168462
 20
-182.8371210824
 30
0.0
 40
0.5
100
AcDbArc
 50
180.0
 51
270.0
  0
ARC
  5
29F
100
AcDbEntity
  8
L1_120
  6
CONTINUOUS
 62
         7
100
AcDbCircle
 10
1364.846168462
 20
-228.4071210824
 30
0.0
 40
0.5
100
AcDbArc
 50
90.0
 51
180.0
  0
LINE
  5
2A0
100
AcDbEntity
  8
L1_120
  6
CONTINUOUS
 62
         7
100
AcDbLine
 10
1364.846168462
 20
-227.9071210824
 30
0.0
 11
1379.498168462
 21
-227.9071210824
 31
0.0
  0
LINE
  5
2A1
100
AcDbEntity
  8
L1_120
  6
CONTINUOUS
 62
         7
100
AcDbLine
 10
1364.846168462
 20
-183.3371210824
 30
0.0
 11
1379.498168462
 21
-183.3371210824
 31
0.0
  0
LINE
  5
2A2
100
AcDbEntity
  8
L1_120
  6
CONTINUOUS
 62
         7
100
AcDbLine
 10
1364.346168462
 20
-228.4071210824
 30
0.0
 11
1364.346168462
 21
-236.3971210824
 31
0.0
  0
LINE
  5
2A3
100
AcDbEntity
  8
L1_120
  6
CONTINUOUS
 62
         7
100
AcDbLine
 10
1364.346168462
 20
-174.8471210824
 30
0.0
 11
1364.346168462
 21
-182.8371210824
 31
0.0
  0
LINE
  5
2A4
100
AcDbEntity
  8
L1_120
  6
CENTER
 62
         1
100
AcDbLine
 10
1492.0337808808
 20
-205.6221210824
 30
0.0
 11
1546.0122378613
 21
-205.6221210824
 31
0.0
  0
LINE
  5
2A5
100
AcDbEntity
  8
L1_120
  6
CONTINUOUS
 62
         7
100
AcDbLine
 10
1488.2877865105
 20
-213.6721210824
 30
0.0
 11
1493.026168462
 21
-213.6721210824
 31
0.0
  0
LINE
  5
2A6
100
AcDbEntity
  8
L1_120
  6
CONTINUOUS
 62
         7
100
AcDbLine
 10
1487.8937012293
 20
-214.0662063635
 30
0.0
 11
1488.2877865105
 21
-213.6721210824
 31
0.0
  0
LINE
  5
2A7
100
AcDbEntity
  8
L1_120
  6
CONTINUOUS
 62
         7
100
AcDbLine
 10
1493.526168462
 20
-213.1721210824
 30
0.0
 11
1493.026168462
 21
-213.6721210824
 31
0.0
  0
LINE
  5
2A8
100
AcDbEntity
  8
L1_120
  6
CONTINUOUS
 62
         7
100
AcDbLine
 10
1487.8937012293
 20
-197.1780358012
 30
0.0
 11
1488.2877865105
 21
-197.5721210824
 31
0.0
  0
LINE
  5
2A9
100
AcDbEntity
  8
L1_120
  6
CONTINUOUS
 62
         7
100
AcDbLine
 10
1493.526168462
 20
-198.0721210824
 30
0.0
 11
1493.026168462
 21
-197.5721210824
 31
0.0
  0
LINE
  5
2AA
100
AcDbEntity
  8
L1_120
  6
CONTINUOUS
 62
         7
100
AcDbLine
 10
1493.526168462
 20
-198.0721210824
 30
0.0
 11
1493.526168462
 21
-213.1721210824
 31
0.0
  0
LINE
  5
2AB
100
AcDbEntity
  8
L1_120
  6
CONTINUOUS
 62
         7
100
AcDbLine
 10
1488.2877865105
 20
-197.5721210824
 30
0.0
 11
1493.026168462
 21
-197.5721210824
 31
0.0
  0
LINE
  5
2AC
100
AcDbEntity
  8
L1_120
  6
CONTINUOUS
 62
         7
100
AcDbLine
 10
1549.1586356948
 20
-214.0662063635
 30
0.0
 11
1548.7645504136
 21
-213.6721210824
 31
0.0
  0
LINE
  5
2AD
100
AcDbEntity
  8
L1_120
  6
CONTINUOUS
 62
         7
100
AcDbLine
 10
1541.326168462
 20
-213.1721210824
 30
0.0
 11
1541.826168462
 21
-213.6721210824
 31
0.0
  0
LINE
  5
2AE
100
AcDbEntity
  8
L1_120
  6
CONTINUOUS
 62
         7
100
AcDbLine
 10
1541.826168462
 20
-213.6721210824
 30
0.0
 11
1548.7645504136
 21
-213.6721210824
 31
0.0
  0
LINE
  5
2AF
100
AcDbEntity
  8
L1_120
  6
CONTINUOUS
 62
         7
100
AcDbLine
 10
1549.1586356948
 20
-197.1780358012
 30
0.0
 11
1548.7645504136
 21
-197.5721210824
 31
0.0
  0
LINE
  5
2B0
100
AcDbEntity
  8
L1_120
  6
CONTINUOUS
 62
         7
100
AcDbLine
 10
1541.826168462
 20
-197.5721210824
 30
0.0
 11
1548.7645504136
 21
-197.5721210824
 31
0.0
  0
LINE
  5
2B1
100
AcDbEntity
  8
L1_120
  6
CONTINUOUS
 62
         7
100
AcDbLine
 10
1541.326168462
 20
-198.0721210824
 30
0.0
 11
1541.826168462
 21
-197.5721210824
 31
0.0
  0
LINE
  5
2B2
100
AcDbEntity
  8
L1_120
  6
CONTINUOUS
 62
         7
100
AcDbLine
 10
1541.326168462
 20
-198.0721210824
 30
0.0
 11
1541.326168462
 21
-213.1721210824
 31
0.0
  0
ARC
  5
2B3
100
AcDbEntity
  8
L1_120
  6
DASHED
 62
         2
100
AcDbCircle
 10
1518.526168462
 20
-205.6221210824
 30
0.0
 40
28.125
100
AcDbArc
 50
198.3406919436
 51
343.3680794645
  0
ARC
  5
2B4
100
AcDbEntity
  8
L1_120
  6
DASHED
 62
         2
100
AcDbCircle
 10
1518.526168462
 20
-205.6221210824
 30
0.0
 40
28.125
100
AcDbArc
 50
16.6319205355
 51
163.3680794645
  0
LINE
  5
2B5
100
AcDbEntity
  8
L1_120
  6
CENTER
 62
         1
100
AcDbLine
 10
1518.526168462
 20
-170.8471210824
 30
0.0
 11
1518.526168462
 21
-240.3971210824
 31
0.0
  0
ARC
  5
2B6
100
AcDbEntity
  8
L1_120
  6
CONTINUOUS
 62
         7
100
AcDbCircle
 10
1518.526168462
 20
-205.6221210824
 30
0.0
 40
31.775
100
AcDbArc
 50
15.411296411
 51
164.588703589
  0
ARC
  5
2B7
100
AcDbEntity
  8
L1_120
  6
CONTINUOUS
 62
         7
100
AcDbCircle
 10
1518.526168462
 20
-205.6221210824
 30
0.0
 40
31.775
100
AcDbArc
 50
195.411296411
 51
344.588703589
  0
LINE
  5
2B8
100
AcDbEntity
  8
L1_120
  6
CONTINUOUS
 62
         7
100
AcDbLine
 10
1352.8098980632
 20
-173.8471210824
 30
0.0
 11
1352.8098980632
 21
-196.7721210824
 31
0.0
  0
LINE
  5
2B9
100
AcDbEntity
  8
L1_120
  6
CONTINUOUS
 62
         7
100
AcDbLine
 10
1354.471168462
 20
-176.7245258182
 30
0.0
 11
1354.471168462
 21
-197.5721210824
 31
0.0
  0
LINE
  5
2BA
100
AcDbEntity
  8
L1_120
  6
CONTINUOUS
 62
         7
100
AcDbLine
 10
1358.221168462
 20
-176.7245258182
 30
0.0
 11
1358.221168462
 21
-197.5721210824
 31
0.0
  0
LINE
  5
2BB
100
AcDbEntity
  8
L1_120
  6
CONTINUOUS
 62
         7
100
AcDbLine
 10
1359.8824388608
 20
-173.8471210824
 30
0.0
 11
1359.8824388608
 21
-196.7721210824
 31
0.0
  0
LINE
  5
2BC
100
AcDbEntity
  8
L1_120
  6
CONTINUOUS
 62
         7
100
AcDbLine
 10
1363.546168462
 20
-197.5721210824
 30
0.0
 11
1349.246168462
 21
-197.5721210824
 31
0.0
  0
LINE
  5
2BD
100
AcDbEntity
  8
L1_120
  6
CONTINUOUS
 62
         7
100
AcDbLine
 10
1363.546168462
 20
-213.6721210824
 30
0.0
 11
1349.246168462
 21
-213.6721210824
 31
0.0
  0
LINE
  5
2BE
100
AcDbEntity
  8
L1_120
  6
CONTINUOUS
 62
         7
100
AcDbLine
 10
1352.8098980632
 20
-196.7721210824
 30
0.0
 11
1354.471168462
 21
-197.5721210824
 31
0.0
  0
LINE
  5
2BF
100
AcDbEntity
  8
L1_120
  6
CONTINUOUS
 62
         7
100
AcDbLine
 10
1352.8098980632
 20
-214.4721210824
 30
0.0
 11
1354.471168462
 21
-213.6721210824
 31
0.0
  0
LINE
  5
2C0
100
AcDbEntity
  8
L1_120
  6
CONTINUOUS
 62
         7
100
AcDbLine
 10
1349.246168462
 20
-197.5721210824
 30
0.0
 11
1349.246168462
 21
-213.6721210824
 31
0.0
  0
LINE
  5
2C1
100
AcDbEntity
  8
L1_120
  6
CONTINUOUS
 62
         7
100
AcDbLine
 10
1352.8098980632
 20
-214.4721210824
 30
0.0
 11
1348.446168462
 21
-214.4721210824
 31
0.0
  0
LINE
  5
2C2
100
AcDbEntity
  8
L1_120
  6
CONTINUOUS
 62
         7
100
AcDbLine
 10
1349.246168462
 20
-213.6721210824
 30
0.0
 11
1348.446168462
 21
-214.4721210824
 31
0.0
  0
LINE
  5
2C3
100
AcDbEntity
  8
L1_120
  6
CONTINUOUS
 62
         7
100
AcDbLine
 10
1348.446168462
 20
-196.7721210824
 30
0.0
 11
1349.246168462
 21
-197.5721210824
 31
0.0
  0
LINE
  5
2C4
100
AcDbEntity
  8
L1_120
  6
CONTINUOUS
 62
         7
100
AcDbLine
 10
1352.8098980632
 20
-196.7721210824
 30
0.0
 11
1348.446168462
 21
-196.7721210824
 31
0.0
  0
LINE
  5
2C5
100
AcDbEntity
  8
L1_120
  6
CONTINUOUS
 62
         7
100
AcDbLine
 10
1363.546168462
 20
-197.5721210824
 30
0.0
 11
1363.546168462
 21
-213.6721210824
 31
0.0
  0
LINE
  5
2C6
100
AcDbEntity
  8
L1_120
  6
CONTINUOUS
 62
         7
100
AcDbLine
 10
1364.346168462
 20
-214.4721210824
 30
0.0
 11
1359.8824388608
 21
-214.4721210824
 31
0.0
  0
LINE
  5
2C7
100
AcDbEntity
  8
L1_120
  6
CONTINUOUS
 62
         7
100
AcDbLine
 10
1363.546168462
 20
-213.6721210824
 30
0.0
 11
1364.346168462
 21
-214.4721210824
 31
0.0
  0
LINE
  5
2C8
100
AcDbEntity
  8
L1_120
  6
CONTINUOUS
 62
         7
100
AcDbLine
 10
1358.221168462
 20
-213.6721210824
 30
0.0
 11
1359.8824388608
 21
-214.4721210824
 31
0.0
  0
LINE
  5
2C9
100
AcDbEntity
  8
L1_120
  6
CONTINUOUS
 62
         7
100
AcDbLine
 10
1364.346168462
 20
-196.7721210824
 30
0.0
 11
1363.546168462
 21
-197.5721210824
 31
0.0
  0
LINE
  5
2CA
100
AcDbEntity
  8
L1_120
  6
CONTINUOUS
 62
         7
100
AcDbLine
 10
1358.221168462
 20
-197.5721210824
 30
0.0
 11
1359.8824388608
 21
-196.7721210824
 31
0.0
  0
LINE
  5
2CB
100
AcDbEntity
  8
L1_120
  6
CONTINUOUS
 62
         7
100
AcDbLine
 10
1364.346168462
 20
-196.7721210824
 30
0.0
 11
1359.8824388608
 21
-196.7721210824
 31
0.0
  0
LINE
  5
2CC
100
AcDbEntity
  8
L1_120
  6
CONTINUOUS
 62
         7
100
AcDbLine
 10
1352.8098980632
 20
-214.4721210824
 30
0.0
 11
1352.8098980632
 21
-237.3971210824
 31
0.0
  0
LINE
  5
2CD
100
AcDbEntity
  8
L1_120
  6
CONTINUOUS
 62
         7
100
AcDbLine
 10
1354.471168462
 20
-213.6721210824
 30
0.0
 11
1354.471168462
 21
-234.5197163466
 31
0.0
  0
LINE
  5
2CE
100
AcDbEntity
  8
L1_120
  6
CONTINUOUS
 62
         7
100
AcDbLine
 10
1358.221168462
 20
-213.6721210824
 30
0.0
 11
1358.221168462
 21
-234.5197163466
 31
0.0
  0
LINE
  5
2CF
100
AcDbEntity
  8
L1_120
  6
CONTINUOUS
 62
         7
100
AcDbLine
 10
1359.8824388608
 20
-214.4721210824
 30
0.0
 11
1359.8824388608
 21
-237.3971210824
 31
0.0
  0
CIRCLE
  5
2D0
100
AcDbEntity
  8
L1_120
  6
CONTINUOUS
 62
         7
100
AcDbCircle
 10
1518.526168462
 20
-205.6221210824
 30
0.0
 40
22.225
  0
LINE
  5
2D1
100
AcDbEntity
  8
L1_120
  6
CONTINUOUS
 62
         7
100
AcDbLine
 10
1354.471168462
 20
-176.7245258182
 30
0.0
 11
1352.8098980632
 21
-173.8471210824
 31
0.0
  0
LINE
  5
2D2
100
AcDbEntity
  8
L1_120
  6
CENTER
 62
         1
100
AcDbLine
 10
1352.0351632034
 20
-238.2721210824
 30
0.0
 11
1360.4439977719
 21
-238.2721210824
 31
0.0
  0
LINE
  5
2D3
100
AcDbEntity
  8
L1_120
  6
CONTINUOUS
 62
         7
100
AcDbLine
 10
1354.471168462
 20
-234.5197163466
 30
0.0
 11
1352.8098980632
 21
-237.3971210824
 31
0.0
  0
LINE
  5
2D4
100
AcDbEntity
  8
L1_120
  6
CONTINUOUS
 62
         7
100
AcDbLine
 10
1348.446168462
 20
-174.8471210824
 30
0.0
 11
1348.446168462
 21
-236.3971210824
 31
0.0
  0
LINE
  5
2D5
100
AcDbEntity
  8
L1_120
  6
CENTER
 62
         1
100
AcDbLine
 10
1345.246168462
 20
-183.3971210824
 30
0.0
 11
1345.246168462
 21
-227.8471210824
 31
0.0
  0
LINE
  5
2D6
100
AcDbEntity
  8
L1_120
  6
CONTINUOUS
 62
         7
100
AcDbLine
 10
1349.446168462
 20
-237.3971210824
 30
0.0
 11
1352.8098980632
 21
-237.3971210824
 31
0.0
  0
LINE
  5
2D7
100
AcDbEntity
  8
L1_120
  6
CONTINUOUS
 62
         7
100
AcDbLine
 10
1349.446168462
 20
-173.8471210824
 30
0.0
 11
1352.8098980632
 21
-173.8471210824
 31
0.0
  0
LINE
  5
2D8
100
AcDbEntity
  8
L1_120
  6
CONTINUOUS
 62
         7
100
AcDbLine
 10
1364.346168462
 20
-174.8471210824
 30
0.0
 11
1364.346168462
 21
-236.3971210824
 31
0.0
  0
LINE
  5
2D9
100
AcDbEntity
  8
L1_120
  6
CONTINUOUS
 62
         7
100
AcDbLine
 10
1364.346168462
 20
-174.8471210824
 30
0.0
 11
1364.346168462
 21
-186.6221210824
 31
0.0
  0
LINE
  5
2DA
100
AcDbEntity
  8
L1_120
  6
CONTINUOUS
 62
         7
100
AcDbLine
 10
1355.4449687938
 20
-233.7471210824
 30
0.0
 11
1357.2473681303
 21
-233.7471210824
 31
0.0
  0
ARC
  5
2DB
100
AcDbEntity
  8
L1_120
  6
CONTINUOUS
 62
         7
100
AcDbCircle
 10
1355.4449687938
 20
-234.7471210824
 30
0.0
 40
1.0
100
AcDbArc
 50
90.0
 51
166.8556743105
  0
LINE
  5
2DC
100
AcDbEntity
  8
L1_120
  6
CONTINUOUS
 62
         7
100
AcDbLine
 10
1358.221168462
 20
-234.5197163466
 30
0.0
 11
1359.8824388608
 21
-237.3971210824
 31
0.0
  0
ARC
  5
2DD
100
AcDbEntity
  8
L1_120
  6
CONTINUOUS
 62
         7
100
AcDbCircle
 10
1357.2473681303
 20
-234.7471210824
 30
0.0
 40
1.0
100
AcDbArc
 50
13.1443256895
 51
90.0
  0
LINE
  5
2DE
100
AcDbEntity
  8
L1_120
  6
CONTINUOUS
 62
         7
100
AcDbLine
 10
1359.8824388608
 20
-237.3971210824
 30
0.0
 11
1363.346168462
 21
-237.3971210824
 31
0.0
  0
LINE
  5
2DF
100
AcDbEntity
  8
L1_120
  6
CONTINUOUS
 62
         7
100
AcDbLine
 10
1358.221168462
 20
-176.7245258182
 30
0.0
 11
1359.8824388608
 21
-173.8471210824
 31
0.0
  0
LINE
  5
2E0
100
AcDbEntity
  8
L1_120
  6
CONTINUOUS
 62
         7
100
AcDbLine
 10
1359.8824388608
 20
-173.8471210824
 30
0.0
 11
1363.346168462
 21
-173.8471210824
 31
0.0
  0
LINE
  5
2E1
100
AcDbEntity
  8
L1_120
  6
CONTINUOUS
 62
         7
100
AcDbLine
 10
1355.4449687938
 20
-177.4971210824
 30
0.0
 11
1357.2473681303
 21
-177.4971210824
 31
0.0
  0
ARC
  5
2E2
100
AcDbEntity
  8
L1_120
  6
CONTINUOUS
 62
         7
100
AcDbCircle
 10
1355.4449687938
 20
-176.4971210824
 30
0.0
 40
1.0
100
AcDbArc
 50
193.1443256895
 51
270.0
  0
ARC
  5
2E3
100
AcDbEntity
  8
L1_120
  6
CONTINUOUS
 62
         7
100
AcDbCircle
 10
1357.2473681303
 20
-176.4971210824
 30
0.0
 40
1.0
100
AcDbArc
 50
270.0
 51
346.8556743105
  0
LINE
  5
2E4
100
AcDbEntity
  8
L1_120
  6
CENTER
 62
         1
100
AcDbLine
 10
1341.8936770436
 20
-205.6221210824
 30
0.0
 11
1364.346168462
 21
-205.6221210824
 31
0.0
  0
LINE
  5
2E5
100
AcDbEntity
  8
L1_120
  6
CONTINUOUS
 62
         7
100
AcDbLine
 10
1380.298168462
 20
-183.8371210824
 30
0.0
 11
1380.298168462
 21
-227.4071210824
 31
0.0
  0
LINE
  5
2E6
100
AcDbEntity
  8
L1_120
  6
CONTINUOUS
 62
         7
100
AcDbLine
 10
1379.798168462
 20
-183.3371210824
 30
0.0
 11
1380.298168462
 21
-183.8371210824
 31
0.0
  0
LINE
  5
2E7
100
AcDbEntity
  8
L1_120
  6
CONTINUOUS
 62
         7
100
AcDbLine
 10
1379.798168462
 20
-227.9071210824
 30
0.0
 11
1378.798168462
 21
-227.9071210824
 31
0.0
  0
LINE
  5
2E8
100
AcDbEntity
  8
L1_120
  6
CONTINUOUS
 62
         7
100
AcDbLine
 10
1380.298168462
 20
-227.4071210824
 30
0.0
 11
1379.798168462
 21
-227.9071210824
 31
0.0
  0
LINE
  5
2E9
100
AcDbEntity
  8
L1_120
  6
CONTINUOUS
 62
         7
100
AcDbLine
 10
1379.798168462
 20
-183.3371210824
 30
0.0
 11
1378.798168462
 21
-183.3371210824
 31
0.0
  0
LINE
  5
2EA
100
AcDbEntity
  8
L1_120
  6
CENTER
 62
         1
100
AcDbLine
 10
1485.1652194035
 20
-187.8837898188
 30
0.0
 11
1518.4997389918
 21
-205.6080682838
 31
0.0
  0
LINE
  5
2EB
100
AcDbEntity
  8
L1_120
  6
DASHED
 62
         2
100
AcDbLine
 10
1493.526168462
 20
-210.8221210824
 30
0.0
 11
1493.726168462
 21
-210.6221210824
 31
0.0
  0
LINE
  5
2EC
100
AcDbEntity
  8
L1_120
  6
DASHED
 62
         2
100
AcDbLine
 10
1493.526168462
 20
-200.4221210824
 30
0.0
 11
1493.726168462
 21
-200.6221210824
 31
0.0
  0
LINE
  5
2ED
100
AcDbEntity
  8
L1_120
  6
DASHED
 62
         2
100
AcDbLine
 10
1493.726168462
 20
-200.6221210824
 30
0.0
 11
1493.726168462
 21
-210.6221210824
 31
0.0
  0
ARC
  5
2EE
100
AcDbEntity
  8
L1_120
  6
DASHED
 62
         2
100
AcDbCircle
 10
1497.976168462
 20
-210.4221210824
 30
0.0
 40
0.2
100
AcDbArc
 50
270.0
 51
360.0
  0
ARC
  5
2EF
100
AcDbEntity
  8
L1_120
  6
DASHED
 62
         2
100
AcDbCircle
 10
1497.976168462
 20
-200.8221210824
 30
0.0
 40
0.2
100
AcDbArc
 50
0.0
 51
90.0
  0
LINE
  5
2F0
100
AcDbEntity
  8
L1_120
  6
DASHED
 62
         2
100
AcDbLine
 10
1498.176168462
 20
-200.8221210824
 30
0.0
 11
1498.176168462
 21
-210.4221210824
 31
0.0
  0
LINE
  5
2F1
100
AcDbEntity
  8
L1_120
  6
DASHED
 62
         2
100
AcDbLine
 10
1493.726168462
 20
-200.6221210824
 30
0.0
 11
1497.976168462
 21
-200.6221210824
 31
0.0
  0
LINE
  5
2F2
100
AcDbEntity
  8
L1_120
  6
DASHED
 62
         2
100
AcDbLine
 10
1493.726168462
 20
-210.6221210824
 30
0.0
 11
1497.976168462
 21
-210.6221210824
 31
0.0
  0
LINE
  5
2F3
100
AcDbEntity
  8
L1_120
  6
CENTER
 62
         1
100
AcDbLine
 10
1485.1652194035
 20
-223.360452346
 30
0.0
 11
1518.4997389918
 21
-205.636173881
 31
0.0
  0
LINE
  5
2F4
100
AcDbEntity
  8
L1_120
  6
DASHED
 62
         2
100
AcDbLine
 10
1492.8171912487
 20
-217.0266866437
 30
0.0
 11
1499.6813125622
 21
-213.3769686012
 31
0.0
  0
LINE
  5
2F5
100
AcDbEntity
  8
L1_120
  6
DASHED
 62
         2
100
AcDbLine
 10
1494.6950774998
 20
-220.5584770152
 30
0.0
 11
1501.5591988133
 21
-216.9087589727
 31
0.0
  0
LINE
  5
2F6
100
AcDbEntity
  8
L1_120
  6
DASHED
 62
         2
100
AcDbLine
 10
1499.6813125622
 20
-213.3769686012
 30
0.0
 11
1501.5591988133
 21
-216.9087589727
 31
0.0
  0
LINE
  5
2F7
100
AcDbEntity
  8
L1_120
  6
DASHED
 62
         2
100
AcDbLine
 10
1501.6397957486
 20
-214.6007647207
 30
0.0
 11
1501.5591988133
 21
-216.9087589727
 31
0.0
  0
LINE
  5
2F8
100
AcDbEntity
  8
L1_120
  6
DASHED
 62
         2
100
AcDbLine
 10
1499.6813125622
 20
-213.3769686012
 30
0.0
 11
1501.6397957486
 21
-214.6007647207
 31
0.0
  0
LINE
  5
2F9
100
AcDbEntity
  8
L1_120
  6
DASHED
 62
         2
100
AcDbLine
 10
1492.8171912487
 20
-194.217555521
 30
0.0
 11
1499.6813125622
 21
-197.8672735635
 31
0.0
  0
LINE
  5
2FA
100
AcDbEntity
  8
L1_120
  6
DASHED
 62
         2
100
AcDbLine
 10
1499.6813125622
 20
-197.8672735635
 30
0.0
 11
1501.5591988133
 21
-194.3354831921
 31
0.0
  0
LINE
  5
2FB
100
AcDbEntity
  8
L1_120
  6
DASHED
 62
         2
100
AcDbLine
 10
1499.6813125622
 20
-197.8672735635
 30
0.0
 11
1501.6397957486
 21
-196.6434774441
 31
0.0
  0
LINE
  5
2FC
100
AcDbEntity
  8
L1_120
  6
DASHED
 62
         2
100
AcDbLine
 10
1501.6397957486
 20
-196.6434774441
 30
0.0
 11
1501.5591988133
 21
-194.3354831921
 31
0.0
  0
LINE
  5
2FD
100
AcDbEntity
  8
L1_120
  6
DASHED
 62
         2
100
AcDbLine
 10
1494.6950774998
 20
-190.6857651496
 30
0.0
 11
1501.5591988133
 21
-194.3354831921
 31
0.0
  0
LINE
  5
2FE
100
AcDbEntity
  8
L1_120
  6
CONTINUOUS
 62
         7
100
AcDbLine
 10
1493.526168462
 20
-200.4221210824
 30
0.0
 11
1493.526168462
 21
-210.8221210824
 31
0.0
  0
CIRCLE
  5
2FF
100
AcDbEntity
  8
L1_120
  6
CONTINUOUS
 62
         7
100
AcDbCircle
 10
1356.346168462
 20
-205.6221210824
 30
0.0
 40
5.0
  0
CIRCLE
  5
300
100
AcDbEntity
  8
L1_120
  6
CONTINUOUS
 62
         7
100
AcDbCircle
 10
1356.346168462
 20
-192.418233379
 30
0.0
 40
1.875
  0
CIRCLE
  5
301
100
AcDbEntity
  8
L1_120
  6
CONTINUOUS
 62
         7
100
AcDbCircle
 10
1356.346168462
 20
-218.8260087857
 30
0.0
 40
1.875
  0
LINE
  5
302
100
AcDbEntity
  8
L1_120
  6
CENTER
 62
         1
100
AcDbLine
 10
1506.6324179779
 20
-172.9443101945
 30
0.0
 11
1530.5670417213
 21
-238.7041484727
 31
0.0
  0
LINE
  5
303
100
AcDbEntity
  8
L1_120
  6
DASHED
 62
         2
100
AcDbLine
 10
1512.247074032
 20
-182.522842121
 30
0.0
 11
1510.8105894301
 21
-178.5761331137
 31
0.0
  0
LINE
  5
304
100
AcDbEntity
  8
L1_120
  6
DASHED
 62
         2
100
AcDbLine
 10
1508.4883035489
 20
-183.8909226943
 30
0.0
 11
1507.0518189469
 21
-179.944213687
 31
0.0
  0
LINE
  5
305
100
AcDbEntity
  8
L1_120
  6
DASHED
 62
         2
100
AcDbLine
 10
1511.9181816148
 20
-182.6425491712
 30
0.0
 11
1517.9794334805
 21
-199.295701806
 31
0.0
  0
LINE
  5
306
100
AcDbEntity
  8
L1_120
  6
DASHED
 62
         2
100
AcDbLine
 10
1508.8171959662
 20
-183.7712156441
 30
0.0
 11
1514.878447832
 21
-200.424368279
 31
0.0
  0
LINE
  5
307
100
AcDbEntity
  8
L1_120
  6
DASHED
 62
         2
100
AcDbLine
 10
1512.247074032
 20
-182.522842121
 30
0.0
 11
1508.4883035489
 21
-183.8909226943
 31
0.0
  0
LINE
  5
308
100
AcDbEntity
  8
L1_120
  6
DASHED
 62
         2
100
AcDbLine
 10
1524.805262892
 20
-228.7214000438
 30
0.0
 11
1526.241747494
 21
-232.668109051
 31
0.0
  0
LINE
  5
309
100
AcDbEntity
  8
L1_120
  6
DASHED
 62
         2
100
AcDbLine
 10
1528.5640333752
 20
-227.3533194704
 30
0.0
 11
1524.805262892
 21
-228.7214000438
 31
0.0
  0
LINE
  5
30A
100
AcDbEntity
  8
L1_120
  6
DASHED
 62
         2
100
AcDbLine
 10
1528.5640333752
 20
-227.3533194704
 30
0.0
 11
1530.0005179771
 21
-231.3000284777
 31
0.0
  0
LINE
  5
30B
100
AcDbEntity
  8
L1_120
  6
DASHED
 62
         2
100
AcDbLine
 10
1522.1738890921
 20
-210.8198738857
 30
0.0
 11
1528.2351409579
 21
-227.4730265206
 31
0.0
  0
LINE
  5
30C
100
AcDbEntity
  8
L1_120
  6
DASHED
 62
         2
100
AcDbLine
 10
1519.0729034435
 20
-211.9485403587
 30
0.0
 11
1525.1341553093
 21
-228.6016929936
 31
0.0
  0
LINE
  5
30D
100
AcDbEntity
  8
L1_120
  6
CENTER
 62
         1
100
AcDbLine
 10
1345.246168462
 20
-183.3971210824
 30
0.0
 11
1345.246168462
 21
-227.8471210824
 31
0.0
  0
LINE
  5
30E
100
AcDbEntity
  8
L1_120
  6
CONTINUOUS
 62
         7
100
AcDbLine
 10
1348.446168462
 20
-174.8471210824
 30
0.0
 11
1348.446168462
 21
-236.3971210824
 31
0.0
  0
ARC
  5
30F
100
AcDbEntity
  8
L1_120
  6
DASHED
 62
         2
100
AcDbCircle
 10
1518.526168462
 20
-182.5471210824
 30
0.0
 40
10.0
100
AcDbArc
 50
224.9782055522
 51
315.0217944478
  0
CIRCLE
  5
310
100
AcDbEntity
  8
L1_120
  6
CONTINUOUS
 62
         7
100
AcDbCircle
 10
1518.526168462
 20
-205.6221210824
 30
0.0
 40
17.5
  0
CIRCLE
  5
311
100
AcDbEntity
  8
L1_120
  6
CONTINUOUS
 62
         7
100
AcDbCircle
 10
1518.526168462
 20
-205.6221210824
 30
0.0
 40
12.5
  0
LINE
  5
312
100
AcDbEntity
  8
L1_120
  6
DASHED
 62
         2
100
AcDbLine
 10
1512.971168462
 20
-221.6160593167
 30
0.0
 11
1512.971168462
 21
-208.6985597702
 31
0.0
  0
LINE
  5
313
100
AcDbEntity
  8
L1_120
  6
DASHED
 62
         2
100
AcDbLine
 10
1513.526168462
 20
-221.0610593167
 30
0.0
 11
1513.526168462
 21
-209.5365175876
 31
0.0
  0
LINE
  5
314
100
AcDbEntity
  8
L1_120
  6
DASHED
 62
         2
100
AcDbLine
 10
1523.526168462
 20
-221.0610593167
 30
0.0
 11
1523.526168462
 21
-209.5365175876
 31
0.0
  0
LINE
  5
315
100
AcDbEntity
  8
L1_120
  6
DASHED
 62
         2
100
AcDbLine
 10
1524.081168462
 20
-221.6160593167
 30
0.0
 11
1524.081168462
 21
-208.6985597702
 31
0.0
  0
LINE
  5
316
100
AcDbEntity
  8
L1_120
  6
DASHED
 62
         2
100
AcDbLine
 10
1523.526168462
 20
-221.0610593167
 30
0.0
 11
1513.526168462
 21
-221.0610593167
 31
0.0
  0
LINE
  5
317
100
AcDbEntity
  8
L1_120
  6
DASHED
 62
         2
100
AcDbLine
 10
1524.5264204704
 20
-222.0613113251
 30
0.0
 11
1523.526168462
 21
-221.0610593167
 31
0.0
  0
LINE
  5
318
100
AcDbEntity
  8
L1_120
  6
DASHED
 62
         2
100
AcDbLine
 10
1512.5259164536
 20
-222.0613113251
 30
0.0
 11
1513.526168462
 21
-221.0610593167
 31
0.0
  0
LINE
  5
319
100
AcDbEntity
  8
L1_120
  6
CENTER
 62
         1
100
AcDbLine
 10
1413.3753517453
 20
-205.6221210824
 30
0.0
 11
1364.346168462
 21
-205.6221210824
 31
0.0
  0
LINE
  5
31A
100
AcDbEntity
  8
L1_120
  6
CENTER
 62
         1
100
AcDbLine
 10
1538.2001451338
 20
-205.6221210824
 30
0.0
 11
1499.0626852233
 21
-205.6221210824
 31
0.0
  0
LINE
  5
31B
100
AcDbEntity
  8
L1_120
  6
CENTER
 62
         1
100
AcDbLine
 10
1518.526168462
 20
-224.7657292364
 30
0.0
 11
1518.526168462
 21
-186.2369211379
 31
0.0
  0
CIRCLE
  5
31C
100
AcDbEntity
  8
L1_120
  6
DASHED
 62
         2
100
AcDbCircle
 10
1518.526168462
 20
-205.6221210824
 30
0.0
 40
8.64
  0
ARC
  5
31D
100
AcDbEntity
  8
L1_120
  6
CONTINUOUS
 62
         7
100
AcDbCircle
 10
1518.526168462
 20
-205.6221210824
 30
0.0
 40
6.35
100
AcDbArc
 50
13.6635763633
 51
166.3364236367
  0
ARC
  5
31E
100
AcDbEntity
  8
L1_120
  6
CONTINUOUS
 62
         7
100
AcDbCircle
 10
1518.526168462
 20
-205.6221210824
 30
0.0
 40
6.35
100
AcDbArc
 50
193.6635763633
 51
346.3364236367
  0
LINE
  5
31F
100
AcDbEntity
  8
L1_120
  6
CONTINUOUS
 62
         7
100
AcDbLine
 10
1512.3558767347
 20
-207.1221210824
 30
0.0
 11
1511.776168462
 21
-207.1221210824
 31
0.0
  0
LINE
  5
320
100
AcDbEntity
  8
L1_120
  6
CONTINUOUS
 62
         7
100
AcDbLine
 10
1512.3558767347
 20
-204.1221210824
 30
0.0
 11
1511.776168462
 21
-204.1221210824
 31
0.0
  0
LINE
  5
321
100
AcDbEntity
  8
L1_120
  6
CONTINUOUS
 62
         7
100
AcDbLine
 10
1524.6964601893
 20
-207.1221210824
 30
0.0
 11
1525.276168462
 21
-207.1221210824
 31
0.0
  0
LINE
  5
322
100
AcDbEntity
  8
L1_120
  6
CONTINUOUS
 62
         7
100
AcDbLine
 10
1524.6964601893
 20
-204.1221210824
 30
0.0
 11
1525.276168462
 21
-204.1221210824
 31
0.0
  0
ARC
  5
323
100
AcDbEntity
  8
L1_120
  6
CONTINUOUS
 62
         7
100
AcDbCircle
 10
1525.276168462
 20
-205.6221210824
 30
0.0
 40
1.5
100
AcDbArc
 50
270.0
 51
450.0
  0
ARC
  5
324
100
AcDbEntity
  8
L1_120
  6
CONTINUOUS
 62
         7
100
AcDbCircle
 10
1511.776168462
 20
-205.6221210824
 30
0.0
 40
1.5
100
AcDbArc
 50
90.0
 51
270.0
  0
LINE
  5
325
100
AcDbEntity
  8
L1_120
  6
CENTER
 62
         1
100
AcDbLine
 10
1356.396168462
 20
-239.4167626285
 30
0.0
 11
1356.396168462
 21
-171.2995881581
 31
0.0
  0
LINE
  5
326
100
AcDbEntity
  8
L1_120
  6
CONTINUOUS
 62
         7
100
AcDbLine
 10
1485.3314522841
 20
-293.8490789307
 30
-38.9451592314
 11
1475.8995498203
 21
-293.8490789307
 31
-38.9451592314
  0
LINE
  5
327
100
AcDbEntity
  8
L1_120
  6
CONTINUOUS
 62
         7
100
AcDbLine
 10
1486.1781121774
 20
-293.2140776607
 30
-38.9451592314
 11
1475.0528899269
 21
-293.2140776607
 31
-38.9451592314
  0
LINE
  5
328
100
AcDbEntity
  8
L1_120
  6
CONTINUOUS
 62
         7
100
AcDbLine
 10
1485.3314522841
 20
-293.8490789307
 30
-38.9451592314
 11
1486.1781121774
 21
-293.2140776607
 31
-38.9451592314
  0
LINE
  5
329
100
AcDbEntity
  8
L1_120
  6
CONTINUOUS
 62
         7
100
AcDbLine
 10
1475.8995498203
 20
-293.8490789307
 30
-38.9451592314
 11
1475.0528899269
 21
-293.2140776607
 31
-38.9451592314
  0
LINE
  5
32A
100
AcDbEntity
  8
L1_120
  6
CONTINUOUS
 62
         7
100
AcDbLine
 10
1475.0528899269
 20
-293.2140776607
 30
-38.9451592314
 11
1475.0528899269
 21
-292.4977962281
 31
-38.9451592314
  0
LINE
  5
32B
100
AcDbEntity
  8
L1_120
  6
CONTINUOUS
 62
         7
100
AcDbLine
 10
1475.8995498203
 20
-291.7815147956
 30
-38.9451592314
 11
1475.0528899269
 21
-291.065233363
 31
-38.9451592314
  0
LINE
  5
32C
100
AcDbEntity
  8
L1_120
  6
CONTINUOUS
 62
         7
100
AcDbLine
 10
1475.0528899269
 20
-291.065233363
 30
-38.9451592314
 11
1475.8995498203
 21
-290.3489519305
 31
-38.9451592314
  0
LINE
  5
32D
100
AcDbEntity
  8
L1_120
  6
CONTINUOUS
 62
         7
100
AcDbLine
 10
1486.1781121774
 20
-291.7815147956
 30
-38.9451592314
 11
1485.3314522841
 21
-291.065233363
 31
-38.9451592314
  0
LINE
  5
32E
100
AcDbEntity
  8
L1_120
  6
CONTINUOUS
 62
         7
100
AcDbLine
 10
1485.3314522841
 20
-291.065233363
 30
-38.9451592314
 11
1486.1781121774
 21
-290.3489519305
 31
-38.9451592314
  0
LINE
  5
32F
100
AcDbEntity
  8
L1_120
  6
CONTINUOUS
 62
         7
100
AcDbLine
 10
1486.1781121774
 20
-290.3489519305
 30
-38.9451592314
 11
1475.0528899269
 21
-291.065233363
 31
-38.9451592314
  0
LINE
  5
330
100
AcDbEntity
  8
L1_120
  6
CONTINUOUS
 62
         7
100
AcDbLine
 10
1485.3314522841
 20
-291.065233363
 30
-38.9451592314
 11
1475.8995498203
 21
-291.7815147956
 31
-38.9451592314
  0
LINE
  5
331
100
AcDbEntity
  8
L1_120
  6
CONTINUOUS
 62
         4
100
AcDbLine
 10
1475.8995498203
 20
-291.7815147956
 30
-38.9451592314
 11
1475.0528899269
 21
-292.4977962281
 31
-38.9451592314
  0
LINE
  5
332
100
AcDbEntity
  8
L1_120
  6
CONTINUOUS
 62
         4
100
AcDbLine
 10
1486.1781121774
 20
-291.7815147956
 30
-38.9451592314
 11
1485.3314522841
 21
-292.4977962281
 31
-38.9451592314
  0
LINE
  5
333
100
AcDbEntity
  8
L1_120
  6
CONTINUOUS
 62
         4
100
AcDbLine
 10
1485.3314522841
 20
-292.4977962281
 30
-38.9451592314
 11
1486.1781121774
 21
-293.2140776607
 31
-38.9451592314
  0
LINE
  5
334
100
AcDbEntity
  8
L1_120
  6
CONTINUOUS
 62
         4
100
AcDbLine
 10
1486.1781121774
 20
-291.7815147956
 30
-38.9451592314
 11
1475.0528899269
 21
-292.4977962281
 31
-38.9451592314
  0
LINE
  5
335
100
AcDbEntity
  8
L1_120
  6
CONTINUOUS
 62
         4
100
AcDbLine
 10
1485.3314522841
 20
-292.4977962281
 30
-38.9451592314
 11
1476.6158312528
 21
-293.2140776607
 31
-38.9451592314
  0
LINE
  5
336
100
AcDbEntity
  8
L1_120
  6
CONTINUOUS
 62
         4
100
AcDbLine
 10
1486.1781121774
 20
-293.2140776607
 30
-38.9451592314
 11
1476.6158312528
 21
-293.2140776607
 31
-38.9451592314
  0
LINE
  5
337
100
AcDbEntity
  8
L1_120
  6
CONTINUOUS
 62
         7
100
AcDbLine
 10
1475.8995498203
 20
-290.3489519305
 30
-38.9451592314
 11
1475.0528899269
 21
-289.6326704979
 31
-38.9451592314
  0
LINE
  5
338
100
AcDbEntity
  8
L1_120
  6
CONTINUOUS
 62
         7
100
AcDbLine
 10
1475.0528899269
 20
-289.6326704979
 30
-38.9451592314
 11
1475.8995498203
 21
-288.9163890653
 31
-38.9451592314
  0
LINE
  5
339
100
AcDbEntity
  8
L1_120
  6
CONTINUOUS
 62
         7
100
AcDbLine
 10
1486.1781121774
 20
-290.3489519305
 30
-38.9451592314
 11
1485.3314522841
 21
-289.6326704979
 31
-38.9451592314
  0
LINE
  5
33A
100
AcDbEntity
  8
L1_120
  6
CONTINUOUS
 62
         7
100
AcDbLine
 10
1485.3314522841
 20
-289.6326704979
 30
-38.9451592314
 11
1486.1781121774
 21
-288.9163890653
 31
-38.9451592314
  0
LINE
  5
33B
100
AcDbEntity
  8
L1_120
  6
CONTINUOUS
 62
         7
100
AcDbLine
 10
1486.1781121774
 20
-288.9163890653
 30
-38.9451592314
 11
1475.0528899269
 21
-289.6326704979
 31
-38.9451592314
  0
LINE
  5
33C
100
AcDbEntity
  8
L1_120
  6
CONTINUOUS
 62
         7
100
AcDbLine
 10
1485.3314522841
 20
-289.6326704979
 30
-38.9451592314
 11
1475.8995498203
 21
-290.3489519305
 31
-38.9451592314
  0
LINE
  5
33D
100
AcDbEntity
  8
L1_120
  6
CONTINUOUS
 62
         4
100
AcDbLine
 10
1475.8995498203
 20
-291.7815147956
 30
-38.9451592314
 11
1475.0528899269
 21
-292.4977962281
 31
-38.9451592314
  0
LINE
  5
33E
100
AcDbEntity
  8
L1_120
  6
CONTINUOUS
 62
         4
100
AcDbLine
 10
1486.1781121774
 20
-291.7815147956
 30
-38.9451592314
 11
1485.3314522841
 21
-292.4977962281
 31
-38.9451592314
  0
LINE
  5
33F
100
AcDbEntity
  8
L1_120
  6
CONTINUOUS
 62
         4
100
AcDbLine
 10
1485.3314522841
 20
-292.4977962281
 30
-38.9451592314
 11
1486.1781121774
 21
-293.2140776607
 31
-38.9451592314
  0
LINE
  5
340
100
AcDbEntity
  8
L1_120
  6
CONTINUOUS
 62
         4
100
AcDbLine
 10
1486.1781121774
 20
-291.7815147956
 30
-38.9451592314
 11
1475.0528899269
 21
-292.4977962281
 31
-38.9451592314
  0
LINE
  5
341
100
AcDbEntity
  8
L1_120
  6
CONTINUOUS
 62
         4
100
AcDbLine
 10
1485.3314522841
 20
-292.4977962281
 30
-38.9451592314
 11
1476.6158312528
 21
-293.2140776607
 31
-38.9451592314
  0
LINE
  5
342
100
AcDbEntity
  8
L1_120
  6
CONTINUOUS
 62
         4
100
AcDbLine
 10
1486.1781121774
 20
-293.2140776607
 30
-38.9451592314
 11
1476.6158312528
 21
-293.2140776607
 31
-38.9451592314
  0
LINE
  5
343
100
AcDbEntity
  8
L1_120
  6
CONTINUOUS
 62
         7
100
AcDbLine
 10
1475.8995498203
 20
-288.9163890653
 30
-38.9451592314
 11
1475.0528899269
 21
-288.2001076328
 31
-38.9451592314
  0
LINE
  5
344
100
AcDbEntity
  8
L1_120
  6
CONTINUOUS
 62
         7
100
AcDbLine
 10
1475.0528899269
 20
-288.2001076328
 30
-38.9451592314
 11
1475.8995498203
 21
-287.4838262002
 31
-38.9451592314
  0
LINE
  5
345
100
AcDbEntity
  8
L1_120
  6
CONTINUOUS
 62
         7
100
AcDbLine
 10
1486.1781121774
 20
-288.9163890653
 30
-38.9451592314
 11
1485.3314522841
 21
-288.2001076328
 31
-38.9451592314
  0
LINE
  5
346
100
AcDbEntity
  8
L1_120
  6
CONTINUOUS
 62
         7
100
AcDbLine
 10
1485.3314522841
 20
-288.2001076328
 30
-38.9451592314
 11
1486.1781121774
 21
-287.4838262002
 31
-38.9451592314
  0
LINE
  5
347
100
AcDbEntity
  8
L1_120
  6
CONTINUOUS
 62
         7
100
AcDbLine
 10
1486.1781121774
 20
-287.4838262002
 30
-38.9451592314
 11
1475.0528899269
 21
-288.2001076328
 31
-38.9451592314
  0
LINE
  5
348
100
AcDbEntity
  8
L1_120
  6
CONTINUOUS
 62
         7
100
AcDbLine
 10
1485.3314522841
 20
-288.2001076328
 30
-38.9451592314
 11
1475.8995498203
 21
-288.9163890653
 31
-38.9451592314
  0
LINE
  5
349
100
AcDbEntity
  8
L1_120
  6
CONTINUOUS
 62
         7
100
AcDbLine
 10
1475.8995498203
 20
-291.7815147956
 30
-38.9451592314
 11
1475.0528899269
 21
-292.4977962281
 31
-38.9451592314
  0
LINE
  5
34A
100
AcDbEntity
  8
L1_120
  6
CONTINUOUS
 62
         7
100
AcDbLine
 10
1486.1781121774
 20
-291.7815147956
 30
-38.9451592314
 11
1485.3314522841
 21
-292.4977962281
 31
-38.9451592314
  0
LINE
  5
34B
100
AcDbEntity
  8
L1_120
  6
CONTINUOUS
 62
         7
100
AcDbLine
 10
1485.3314522841
 20
-292.4977962281
 30
-38.9451592314
 11
1486.1781121774
 21
-293.2140776607
 31
-38.9451592314
  0
LINE
  5
34C
100
AcDbEntity
  8
L1_120
  6
CONTINUOUS
 62
         7
100
AcDbLine
 10
1486.1781121774
 20
-291.7815147956
 30
-38.9451592314
 11
1475.0528899269
 21
-292.4977962281
 31
-38.9451592314
  0
LINE
  5
34D
100
AcDbEntity
  8
L1_120
  6
CONTINUOUS
 62
         7
100
AcDbLine
 10
1485.3314522841
 20
-292.4977962281
 30
-38.9451592314
 11
1476.6158312528
 21
-293.2140776607
 31
-38.9451592314
  0
LINE
  5
34E
100
AcDbEntity
  8
L1_120
  6
CONTINUOUS
 62
         7
100
AcDbLine
 10
1486.1781121774
 20
-293.2140776607
 30
-38.9451592314
 11
1476.6158312528
 21
-293.2140776607
 31
-38.9451592314
  0
LINE
  5
34F
100
AcDbEntity
  8
L1_120
  6
CONTINUOUS
 62
         7
100
AcDbLine
 10
1475.8995498203
 20
-287.4838262002
 30
-38.9451592314
 11
1475.0528899269
 21
-286.7675447676
 31
-38.9451592314
  0
LINE
  5
350
100
AcDbEntity
  8
L1_120
  6
CONTINUOUS
 62
         7
100
AcDbLine
 10
1475.0528899269
 20
-286.7675447676
 30
-38.9451592314
 11
1475.8995498203
 21
-286.0512633351
 31
-38.9451592314
  0
LINE
  5
351
100
AcDbEntity
  8
L1_120
  6
CONTINUOUS
 62
         7
100
AcDbLine
 10
1486.1781121774
 20
-287.4838262002
 30
-38.9451592314
 11
1485.3314522841
 21
-286.7675447676
 31
-38.9451592314
  0
LINE
  5
352
100
AcDbEntity
  8
L1_120
  6
CONTINUOUS
 62
         7
100
AcDbLine
 10
1485.3314522841
 20
-286.7675447676
 30
-38.9451592314
 11
1486.1781121774
 21
-286.0512633351
 31
-38.9451592314
  0
LINE
  5
353
100
AcDbEntity
  8
L1_120
  6
CONTINUOUS
 62
         7
100
AcDbLine
 10
1486.1781121774
 20
-286.0512633351
 30
-38.9451592314
 11
1475.0528899269
 21
-286.7675447676
 31
-38.9451592314
  0
LINE
  5
354
100
AcDbEntity
  8
L1_120
  6
CONTINUOUS
 62
         7
100
AcDbLine
 10
1485.3314522841
 20
-286.7675447676
 30
-38.9451592314
 11
1475.8995498203
 21
-287.4838262002
 31
-38.9451592314
  0
LINE
  5
355
100
AcDbEntity
  8
L1_120
  6
CONTINUOUS
 62
         7
100
AcDbLine
 10
1477.4150946513
 20
-283.6890586107
 30
-38.9451592314
 11
1483.815907453
 21
-283.6890586107
 31
-38.9451592314
  0
LINE
  5
356
100
AcDbEntity
  8
L1_120
  6
CONTINUOUS
 62
         7
100
AcDbLine
 10
1475.0528899269
 20
-286.0512633351
 30
-38.9451592314
 11
1486.1781121774
 21
-286.0512633351
 31
-38.9451592314
  0
LINE
  5
357
100
AcDbEntity
  8
L1_120
  6
CONTINUOUS
 62
         7
100
AcDbLine
 10
1477.4150946513
 20
-283.6890586107
 30
-38.9451592314
 11
1475.0528899269
 21
-286.0512633351
 31
-38.9451592314
  0
LINE
  5
358
100
AcDbEntity
  8
L1_120
  6
CONTINUOUS
 62
         7
100
AcDbLine
 10
1483.815907453
 20
-283.6890586107
 30
-38.9451592314
 11
1486.1781121774
 21
-286.0512633351
 31
-38.9451592314
  0
LINE
  5
359
100
AcDbEntity
  8
L1_120
  6
DASHED
 62
         2
100
AcDbLine
 10
1477.4039260216
 20
-288.2864678055
 30
-38.9451592314
 11
1483.8270760827
 21
-288.2864678055
 31
-38.9451592314
  0
LINE
  5
35A
100
AcDbEntity
  8
L1_120
  6
DASHED
 62
         2
100
AcDbLine
 10
1477.4039260216
 20
-293.8490789307
 30
-38.9451592314
 11
1477.4039260216
 21
-288.2864678055
 31
-38.9451592314
  0
LINE
  5
35B
100
AcDbEntity
  8
L1_120
  6
DASHED
 62
         2
100
AcDbLine
 10
1483.8270760827
 20
-293.8490789307
 30
-38.9451592314
 11
1483.8270760827
 21
-288.2864678055
 31
-38.9451592314
  0
LINE
  5
35C
100
AcDbEntity
  8
L1_120
  6
DASHED
 62
         2
100
AcDbLine
 10
1479.0097135369
 20
-293.8490789307
 30
-38.9451592314
 11
1479.0097135369
 21
-288.2864678055
 31
-38.9451592314
  0
LINE
  5
35D
100
AcDbEntity
  8
L1_120
  6
DASHED
 62
         2
100
AcDbLine
 10
1482.2212885674
 20
-293.8490789307
 30
-38.9451592314
 11
1482.2212885674
 21
-288.2864678055
 31
-38.9451592314
  0
DIMENSION
  5
360
100
AcDbEntity
  8
L1_120
  6
CONTINUOUS
 62
         4
100
AcDbDimension
  2
*D7
 10
1477.3823395447
 20
-300.3370768976
 30
0.0
 11
1485.5698120599
 21
-298.3120768976
 31
0.0
  3
DIMSTYLE1
100
AcDbAlignedDimension
 13
1477.3823395447
 23
-293.8490789307
 33
0.0
 14
1483.8486625596
 24
-293.8490789307
 34
0.0
100
AcDbRotatedDimension
  0
LINE
  5
36D
100
AcDbEntity
  8
L1_120
  6
CENTER
 62
         1
100
AcDbLine
 10
1480.6155010522
 20
-296.6277853717
 30
-38.9451592314
 11
1480.6155010522
 21
-282.5990789307
 31
-38.9451592314
  0
DIMENSION
  5
370
100
AcDbEntity
  8
L1_120
  6
CONTINUOUS
 62
         4
100
AcDbDimension
  2
*D8
 10
1475.0528899269
 20
-277.1692403052
 30
0.0
 11
1465.3741871278
 21
-275.1442403052
 31
0.0
  3
DIMSTYLE1
100
AcDbAlignedDimension
 13
1475.0528899269
 23
-286.0512633351
 33
0.0
 14
1486.1781121774
 24
-286.0512633351
 34
0.0
100
AcDbRotatedDimension
  0
DIMENSION
  5
37E
100
AcDbEntity
  8
L1_120
  6
CONTINUOUS
 62
         4
100
AcDbDimension
  2
*D9
 10
1470.1806132621
 20
-283.6890586107
 30
0.0
 11
1468.1556132621
 21
-292.137085844
 31
0.0
  3
DIMSTYLE1
100
AcDbAlignedDimension
 13
1477.4150946513
 23
-283.6890586107
 33
0.0
 14
1475.8995498203
 24
-293.8490789307
 34
0.0
 50
90.0
100
AcDbRotatedDimension
  0
ENDSEC
  0
SECTION
  2
OBJECTS
  0
DICTIONARY
  5
19
100
AcDbDictionary
  3
ACAD_GROUP
350
1A
  3
ACAD_MLINESTYLE
350
1B
  0
DICTIONARY
  5
1A
102
{ACAD_REACTORS
330
19
102
}
100
AcDbDictionary
  0
DICTIONARY
  5
1B
102
{ACAD_REACTORS
330
19
102
}
100
AcDbDictionary
  3
STANDARD
350
1C
  0
MLINESTYLE
  5
1C
102
{ACAD_REACTORS
330
1B
102
}
100
AcDbMlineStyle
  2
STANDARD
 70
         0
  3

 62
         0
 51
90.0
 52
90.0
 71
         2
 49
0.5
 62
       256
  6
BYLAYER
 49
-0.5
 62
       256
  6
BYLAYER
  0
ENDSEC
  0
EOF
