  0
SECTION
  2
HEADER
  9
$ACADVER
  1
AC1014
  9
$ACADMAINTVER
 70
         0
  9
$DWGCODEPAGE
  3
BIG5
  9
$INSBASE
 10
0.0
 20
0.0
 30
0.0
  9
$EXTMIN
 10
1136.4367987223
 20
-413.2425542815
 30
0.0
  9
$EXTMAX
 10
1719.4321306769
 20
-128.643292067
 30
0.0
  9
$LIMMIN
 10
0.0
 20
0.0
  9
$LIMMAX
 10
0.0
 20
0.0
  9
$ORTHOMODE
 70
         0
  9
$REGENMODE
 70
         1
  9
$FILLMODE
 70
         1
  9
$QTEXTMODE
 70
         0
  9
$MIRRTEXT
 70
         1
  9
$DRAGMODE
 70
         2
  9
$LTSCALE
 40
1.0
  9
$OSMODE
 70
         0
  9
$ATTMODE
 70
         1
  9
$TEXTSIZE
 40
1.7
  9
$TRACEWID
 40
0.05
  9
$TEXTSTYLE
  7
STANDARD
  9
$CLAYER
  8
0
  9
$CELTYPE
  6
CONTINUOUS
  9
$CECOLOR
 62
         1
  9
$CELTSCALE
 40
1.0
  9
$DELOBJ
 70
         1
  9
$DISPSILH
 70
         0
  9
$DIMSCALE
 40
1.0
  9
$DIMASZ
 40
0.18
  9
$DIMEXO
 40
0.0625
  9
$DIMDLI
 40
0.38
  9
$DIMRND
 40
0.0
  9
$DIMDLE
 40
0.0
  9
$DIMEXE
 40
0.25
  9
$DIMTP
 40
0.01
  9
$DIMTM
 40
-0.01
  9
$DIMTXT
 40
2.7
  9
$DIMCEN
 40
0.09
  9
$DIMTSZ
 40
0.0
  9
$DIMTOL
 70
         0
  9
$DIMLIM
 70
         0
  9
$DIMTIH
 70
         1
  9
$DIMTOH
 70
         1
  9
$DIMSE1
 70
         0
  9
$DIMSE2
 70
         0
  9
$DIMTAD
 70
         0
  9
$DIMZIN
 70
         0
  9
$DIMBLK
  1

  9
$DIMASO
 70
         1
  9
$DIMSHO
 70
         1
  9
$DIMPOST
  1

  9
$DIMAPOST
  1

  9
$DIMALT
 70
         0
  9
$DIMALTD
 70
         2
  9
$DIMALTF
 40
25.4
  9
$DIMLFAC
 40
1.0
  9
$DIMTOFL
 70
         0
  9
$DIMTVP
 40
0.0
  9
$DIMTIX
 70
         0
  9
$DIMSOXD
 70
         0
  9
$DIMSAH
 70
         0
  9
$DIMBLK1
  1

  9
$DIMBLK2
  1

  9
$DIMSTYLE
  2
STANDARD
  9
$DIMCLRD
 70
         0
  9
$DIMCLRE
 70
         0
  9
$DIMCLRT
 70
         1
  9
$DIMTFAC
 40
1.0
  9
$DIMGAP
 40
0.09
  9
$DIMJUST
 70
         0
  9
$DIMSD1
 70
         0
  9
$DIMSD2
 70
         0
  9
$DIMTOLJ
 70
         1
  9
$DIMTZIN
 70
         0
  9
$DIMALTZ
 70
         0
  9
$DIMALTTZ
 70
         0
  9
$DIMFIT
 70
         3
  9
$DIMUPT
 70
         0
  9
$DIMUNIT
 70
         2
  9
$DIMDEC
 70
         4
  9
$DIMTDEC
 70
         4
  9
$DIMALTU
 70
         2
  9
$DIMALTTD
 70
         2
  9
$DIMTXSTY
  7
STANDARD
  9
$DIMAUNIT
 70
         0
  9
$LUNITS
 70
         2
  9
$LUPREC
 70
        10
  9
$SKETCHINC
 40
0.1
  9
$FILLETRAD
 40
0.0
  9
$AUNITS
 70
         0
  9
$AUPREC
 70
         0
  9
$MENU
  1
acad
  9
$ELEVATION
 40
0.0
  9
$PELEVATION
 40
0.0
  9
$THICKNESS
 40
0.0
  9
$LIMCHECK
 70
         0
  9
$BLIPMODE
 70
         1
  9
$CHAMFERA
 40
0.0
  9
$CHAMFERB
 40
0.0
  9
$CHAMFERC
 40
0.0
  9
$CHAMFERD
 40
0.0
  9
$SKPOLY
 70
         0
  9
$TDCREATE
 40
0.000000000
  9
$TDUPDATE
 40
0.000000000
  9
$TDINDWG
 40
0.0000000000
  9
$TDUSRTIMER
 40
0.0000000000
  9
$USRTIMER
 70
         1
  9
$ANGBASE
 50
0.0
  9
$ANGDIR
 70
         0
  9
$PDMODE
 70
         2
  9
$PDSIZE
 40
0.0
  9
$PLINEWID
 40
0.0
  9
$COORDS
 70
         0
  9
$SPLFRAME
 70
         0
  9
$SPLINETYPE
 70
         6
  9
$SPLINESEGS
 70
         8
  9
$ATTDIA
 70
         0
  9
$ATTREQ
 70
         1
  9
$HANDLING
 70
         1
  9
$HANDSEED
  5
3B9
  9
$SURFTAB1
 70
         6
  9
$SURFTAB2
 70
         6
  9
$SURFTYPE
 70
         6
  9
$SURFU
 70
         6
  9
$SURFV
 70
         6
  9
$UCSNAME
  2

  9
$UCSORG
 10
0.0
 20
0.0
 30
0.0
  9
$UCSXDIR
 10
1.0
 20
0.0
 30
0.0
  9
$UCSYDIR
 10
0.0
 20
1.0
 30
0.0
  9
$PUCSNAME
  2

  9
$PUCSORG
 10
0.0
 20
0.0
 30
0.0
  9
$PUCSXDIR
 10
1.0
 20
0.0
 30
0.0
  9
$PUCSYDIR
 10
0.0
 20
1.0
 30
0.0
  9
$USERI1
 70
         0
  9
$USERI2
 70
         0
  9
$USERI3
 70
         0
  9
$USERI4
 70
         0
  9
$USERI5
 70
         0
  9
$USERR1
 40
0.0
  9
$USERR2
 40
0.0
  9
$USERR3
 40
0.0
  9
$USERR4
 40
0.0
  9
$USERR5
 40
0.0
  9
$WORLDVIEW
 70
         1
  9
$SHADEDGE
 70
         3
  9
$SHADEDIF
 70
        70
  9
$TILEMODE
 70
         1
  9
$MAXACTVP
 70
        16
  9
$PINSBASE
 10
0.0
 20
0.0
 30
0.0
  9
$PLIMCHECK
 70
         0
  9
$PEXTMIN
 10
1.0000000000E+20
 20
1.0000000000E+20
 30
1.0000000000E+20
  9
$PEXTMAX
 10
-1.0000000000E+20
 20
-1.0000000000E+20
 30
-1.0000000000E+20
  9
$PLIMMIN
 10
0.0
 20
0.0
  9
$PLIMMAX
 10
12.0
 20
9.0
  9
$UNITMODE
 70
         0
  9
$VISRETAIN
 70
         0
  9
$PLINEGEN
 70
         1
  9
$PSLTSCALE
 70
         0
  9
$TREEDEPTH
 70
      3020
  9
$PICKSTYLE
 70
         1
  9
$CMLSTYLE
  2
STANDARD
  9
$CMLJUST
 70
         0
  9
$CMLSCALE
 40
1.0
  9
$PROXYGRAPHICS
 70
         0
  9
$MEASUREMENT
 70
         0
  0
ENDSEC
  0
SECTION
  2
CLASSES
  0
CLASS
  1
LWPOLYLINE
  2
AcDbPolyline
  3
"AutoCAD"
 90
        0
280
         0
281
         1
  0
CLASS
  1
IMAGE
  2
AcDbRasterImage
  3
ISM
 90
      127
280
         0
281
         1
  0
CLASS
  1
OLE2FRAME
  2
AcDbOle2Frame
  3
""
 90
        0
280
         0
281
         1
  0
CLASS
  1
HATCH
  2
AcDbHatch
  3
"ACAD_SEDONA"
 90
        0
280
         0
281
         1
  0
CLASS
  1
DICTIONARYVAR
  2
AcDbDictionaryVar
  3
"AutoCAD"
 90
        0
280
         0
281
         0
  0
CLASS
  1
RASTERVARIABLES
  2
AcDbRasterVariables
  3
ISM
 90
        0
280
         0
281
         0
  0
CLASS
  1
IMAGEDEF
  2
AcDbRasterImageDef
  3
ISM
 90
        0
280
         0
281
         0
  0
CLASS
  1
IMAGEDEF_REACTOR
  2
AcDbRasterImageDefReactor
  3
ISM
 90
        1
280
         0
281
         0
  0
CLASS
  1
IDBUFFER
  2
AcDbIdBuffer
  3
"Acad"
 90
        0
280
         0
281
         0
  0
CLASS
  1
SPATIAL_FILTER
  2
AcDbSpatialFilter
  3
"Acad"
 90
        0
280
         0
281
         0
  0
CLASS
  1
XRECORD
  2
AcDbXrecord
  3
"<Built In>"
 90
        0
280
         0
281
         0
  0
CLASS
  1
SORTENTSTABLE
  2
AcDbSortentsTable
  3
"AutoCAD"
 90
        0
280
         0
281
         0
  0
CLASS
  1
LAYER_INDEX
  2
AcDbLayerIndex
  3
"Acad"
 90
        0
280
         0
281
         0
  0
CLASS
  1
SPATIAL_INDEX
  2
AcDbSpatialIndex
  3
"Acad"
 90
        0
280
         0
281
         0
  0
CLASS
  1
OBJECT_PTR
  2
CAseDLPNTableRecord
  3
"ASE-LPNTableRecord"
 90
        1
280
         0
281
         0
  0
CLASS
  1
LAYOUT
  2
AcDbLayout
  3
"AutoCAD 2000"
 90
        1
280
         0
281
         0
  0
CLASS
  1
PLOTSETTINGS
  2
AcDbPlotSettings
  3
"AutoCAD 2000"
 90
        1
280
         0
281
         0
  0
CLASS
  1
ACDBDICTIONARYWDFLT
  2
AcDbDictionaryWithDefault
  3
"AutoCAD 2000"
 90
        1
280
         0
281
         0
  0
CLASS
  1
ACDBPLACEHOLDER
  2
AcDbPlaceHolder
  3
"AutoCAD 2000"
 90
        1
280
         0
281
         0
  0
CLASS
  1
VBA_PROJECT
  2
AcDbVbaProject
  3
"acadvba"
 90
        1
280
         0
281
         0
  0
CLASS
  1
WIPEOUT
  2
AcDbWipeout
  3
WipeOut|AutoCAD Express Tool|expresstools@autodesk.com
 90
      127
280
         0
281
         1
  0
CLASS
  1
WIPEOUTVARIABLES
  2
AcDbWipeoutVariables
  3
WipeOut|AutoCAD Express Tool|expresstools@autodesk.com
 90
        0
280
         0
281
         0
  0
CLASS
  1
RTEXT
  2
RText
  3
RText|AutoCAD Express Tool|expresstools@autodesk.com
 90
        0
280
         0
281
         1
  0
CLASS
  1
ARCALIGNEDTEXT
  2
AcDbArcAlignedText
  3
ATEXT|AutoCAD Express Tool|expresstools@autodesk.com
 90
        0
280
         0
281
         1
  0
ENDSEC
  0
SECTION
  2
TABLES
  0
TABLE
  2
VPORT
  5
7
100
AcDbSymbolTable
 70
         1
  0
VPORT
  5
15
100
AcDbSymbolTableRecord
100
AcDbViewportTableRecord
  2
*ACTIVE
 70
         0
 10
0.0
 20
0.0
 11
1.0
 21
1.0
 12
1427.9344646996
 22
-270.9429231742
 13
0.0
 23
0.0
 14
1.0
 24
1.0
 15
0.0
 25
0.0
 16
0.0
 26
0.0
 36
1.0
 17
0.0
 27
0.0
 37
0.0
 40
284.5992622145
 41
2.0484780158
 42
50.0
 43
0.0
 44
0.0
 50
0.0
 51
0.0
 71
         0
 72
       100
 73
         1
 74
         1
 75
         0
 76
         0
 77
         0
 78
         0
  0
ENDTAB
  0
TABLE
  2
LTYPE
  5
4
100
AcDbSymbolTable
 70
         6
  0
LTYPE
  5
11
100
AcDbSymbolTableRecord
100
AcDbLinetypeTableRecord
  2
BYBLOCK
 70
        64
  3

 72
        65
 73
         0
 40
0.0
  0
LTYPE
  5
12
100
AcDbSymbolTableRecord
100
AcDbLinetypeTableRecord
  2
BYLAYER
 70
        64
  3

 72
        65
 73
         0
 40
0.0
  0
LTYPE
  5
13
100
AcDbSymbolTableRecord
100
AcDbLinetypeTableRecord
  2
CONTINUOUS
 70
        64
  3
Solid line
 72
        65
 73
         0
 40
0.0
  0
LTYPE
  5
1D
100
AcDbSymbolTableRecord
100
AcDbLinetypeTableRecord
  2
DASHED
 70
        64
  3
_ _ _ _ _ _ _ _ _ _ _ _ _ _ _ _
 72
        65
 73
         2
 40
0.2
 49
0.1
 74
         0
 49
-0.1
 74
         0
  0
LTYPE
  5
1E
100
AcDbSymbolTableRecord
100
AcDbLinetypeTableRecord
  2
CENTER
 70
        64
  3
___ _ ___ _ ___ _ ___ _ ___ _ ___ _ ___ _ ___ _
 72
        65
 73
         4
 40
0.95
 49
0.625
 74
         0
 49
-0.125
 74
         0
 49
0.075
 74
         0
 49
-0.125
 74
         0
  0
LTYPE
  5
1F
100
AcDbSymbolTableRecord
100
AcDbLinetypeTableRecord
  2
PHANTOM
 70
        64
  3
______  __  __  ______  __  __  ______  __  __  
 72
        65
 73
         6
 40
1.025
 49
0.625
 74
         0
 49
-0.125
 74
         0
 49
0.075
 74
         0
 49
-0.125
 74
         0
 49
0.075
 74
         0
 49
-0.125
 74
         0
  0
ENDTAB
  0
TABLE
  2
LAYER
  5
2
100
AcDbSymbolTable
 70
         6
  0
LAYER
  5
14
100
AcDbSymbolTableRecord
100
AcDbLayerTableRecord
  2
0
 70
         0
 62
         7
  6
CONTINUOUS
  0
LAYER
  5
21
100
AcDbSymbolTableRecord
100
AcDbLayerTableRecord
  2
_____U
 70
         1
 62
         7
  6
CONTINUOUS
  0
LAYER
  5
22
100
AcDbSymbolTableRecord
100
AcDbLayerTableRecord
  2
_____T______
 70
         1
 62
         7
  6
CONTINUOUS
  0
LAYER
  5
23
100
AcDbSymbolTableRecord
100
AcDbLayerTableRecord
  2
______L_______
 70
         1
 62
         7
  6
CONTINUOUS
  0
LAYER
  5
24
100
AcDbSymbolTableRecord
100
AcDbLayerTableRecord
  2
L1_120
 70
         0
 62
         7
  6
CONTINUOUS
  0
LAYER
  5
15D
100
AcDbSymbolTableRecord
100
AcDbLayerTableRecord
  2
DEFPOINTS
 70
         0
 62
        -7
  6
CONTINUOUS
  0
ENDTAB
  0
TABLE
  2
STYLE
  5
3
100
AcDbSymbolTable
 70
        11
  0
STYLE
  5
17
100
AcDbSymbolTableRecord
100
AcDbTextStyleTableRecord
  2
STANDARD
 70
         0
 40
0.0
 41
1.0
 50
0.0
 71
         0
 42
0.0
  3
txt
  4

  0
STYLE
  5
166
100
AcDbSymbolTableRecord
100
AcDbTextStyleTableRecord
  2
BOX
 70
         0
 40
1.0
 41
1.0
 50
0.0
 71
         0
 42
0.2
  3
txt.shx
  4

  0
STYLE
  5
183
100
AcDbSymbolTableRecord
100
AcDbTextStyleTableRecord
  2
BOX
 70
         0
 40
1.0
 41
1.0
 50
0.0
 71
         0
 42
0.2
  3
txt.shx
  4

  0
STYLE
  5
1E6
100
AcDbSymbolTableRecord
100
AcDbTextStyleTableRecord
  2
BOX
 70
         0
 40
1.0
 41
1.0
 50
0.0
 71
         0
 42
0.2
  3
txt.shx
  4

  0
STYLE
  5
1F4
100
AcDbSymbolTableRecord
100
AcDbTextStyleTableRecord
  2
BOX
 70
         0
 40
1.0
 41
1.0
 50
0.0
 71
         0
 42
0.2
  3
txt.shx
  4

  0
STYLE
  5
202
100
AcDbSymbolTableRecord
100
AcDbTextStyleTableRecord
  2
BOX
 70
         0
 40
1.0
 41
1.0
 50
0.0
 71
         0
 42
0.2
  3
txt.shx
  4

  0
STYLE
  5
205
100
AcDbSymbolTableRecord
100
AcDbTextStyleTableRecord
  2
BOX
 70
         0
 40
1.0
 41
1.0
 50
0.0
 71
         0
 42
0.2
  3
txt.shx
  4

  0
STYLE
  5
285
100
AcDbSymbolTableRecord
100
AcDbTextStyleTableRecord
  2
BOX
 70
         0
 40
1.0
 41
1.0
 50
0.0
 71
         0
 42
0.2
  3
txt.shx
  4

  0
STYLE
  5
334
100
AcDbSymbolTableRecord
100
AcDbTextStyleTableRecord
  2
BOX
 70
         0
 40
1.0
 41
1.0
 50
0.0
 71
         0
 42
0.2
  3
txt.shx
  4

  0
STYLE
  5
343
100
AcDbSymbolTableRecord
100
AcDbTextStyleTableRecord
  2
BOX
 70
         0
 40
1.0
 41
1.0
 50
0.0
 71
         0
 42
0.2
  3
txt.shx
  4

  0
STYLE
  5
352
100
AcDbSymbolTableRecord
100
AcDbTextStyleTableRecord
  2
BOX
 70
         0
 40
1.0
 41
1.0
 50
0.0
 71
         0
 42
0.2
  3
txt.shx
  4

  0
ENDTAB
  0
TABLE
  2
VIEW
  5
5
100
AcDbSymbolTable
 70
         0
  0
ENDTAB
  0
TABLE
  2
UCS
  5
6
100
AcDbSymbolTable
 70
         1
  0
UCS
  5
20
100
AcDbSymbolTableRecord
100
AcDbUCSTableRecord
  2
CK_VIEW_1
 70
         0
 10
0.0
 20
0.0
 30
1.0
 11
1.0
 21
0.0
 31
0.0
 12
0.0
 22
1.0
 32
0.0
  0
ENDTAB
  0
TABLE
  2
APPID
  5
8
100
AcDbSymbolTable
 70
         1
  0
APPID
  5
16
100
AcDbSymbolTableRecord
100
AcDbRegAppTableRecord
  2
ACAD
 70
         0
  0
ENDTAB
  0
TABLE
  2
DIMSTYLE
  5
9
100
AcDbSymbolTable
 70
         2
  0
DIMSTYLE
105
18
100
AcDbSymbolTableRecord
100
AcDbDimStyleTableRecord
  2
STANDARD
 70
         0
  3

  4

  5

  6

  7

 40
1.0
 41
0.18
 42
0.0625
 43
0.38
 44
0.18
 45
0.0
 46
0.0
 47
0.0
 48
0.0
 71
         0
 72
         0
 73
         1
 74
         1
 75
         0
 76
         0
 77
         0
 78
         0
140
0.18
141
0.09
142
0.0
143
25.4
144
1.0
145
0.0
146
1.0
147
0.09
170
         0
171
         2
172
         0
173
         0
174
         0
175
         0
176
         0
177
         0
178
         0
270
         2
271
         4
272
         4
273
         2
274
         2
275
         0
280
         0
281
         0
282
         0
283
         1
284
         0
285
         0
286
         0
287
         0
288
         0
340
17
  0
DIMSTYLE
105
159
100
AcDbSymbolTableRecord
100
AcDbDimStyleTableRecord
  2
DIMSTYLE1
 70
         0
  3

  4

  5

  6

  7

 40
1.0
 41
2.7
 42
0.0625
 43
0.38
 44
2.7
 45
0.0
 46
0.0
 47
0.0
 48
0.0
 71
         0
 72
         0
 73
         1
 74
         1
 75
         0
 76
         0
 77
         0
 78
         0
140
2.7
141
0.09
142
0.0
143
25.4
144
1.0
145
0.0
146
1.0
147
0.09
170
         0
171
         2
172
         0
173
         0
174
         0
175
         0
176
         0
177
         0
178
         0
270
         2
271
         4
272
         4
273
         2
274
         2
275
         0
280
         0
281
         0
282
         0
283
         1
284
         0
285
         0
286
         0
287
         0
288
         0
340
17
  0
ENDTAB
  0
TABLE
  2
BLOCK_RECORD
  5
1
100
AcDbSymbolTable
 70
        10
  0
BLOCK_RECORD
  5
A
100
AcDbSymbolTableRecord
100
AcDbBlockTableRecord
  2
*MODEL_SPACE
  0
BLOCK_RECORD
  5
B
100
AcDbSymbolTableRecord
100
AcDbBlockTableRecord
  2
*PAPER_SPACE
  0
BLOCK_RECORD
  5
15A
100
AcDbSymbolTableRecord
100
AcDbBlockTableRecord
  2
*D0
  0
BLOCK_RECORD
  5
176
100
AcDbSymbolTableRecord
100
AcDbBlockTableRecord
  2
*D1
  0
BLOCK_RECORD
  5
1DB
100
AcDbSymbolTableRecord
100
AcDbBlockTableRecord
  2
*D2
  0
BLOCK_RECORD
  5
1E9
100
AcDbSymbolTableRecord
100
AcDbBlockTableRecord
  2
*D3
  0
BLOCK_RECORD
  5
1F7
100
AcDbSymbolTableRecord
100
AcDbBlockTableRecord
  2
*D4
  0
BLOCK_RECORD
  5
27A
100
AcDbSymbolTableRecord
100
AcDbBlockTableRecord
  2
*D5
  0
BLOCK_RECORD
  5
329
100
AcDbSymbolTableRecord
100
AcDbBlockTableRecord
  2
*D6
  0
BLOCK_RECORD
  5
337
100
AcDbSymbolTableRecord
100
AcDbBlockTableRecord
  2
*D7
  0
BLOCK_RECORD
  5
347
100
AcDbSymbolTableRecord
100
AcDbBlockTableRecord
  2
*D8
  0
BLOCK_RECORD
  5
355
100
AcDbSymbolTableRecord
100
AcDbBlockTableRecord
  2
*X9
  0
ENDTAB
  0
ENDSEC
  0
SECTION
  2
BLOCKS
  0
BLOCK
  5
D
100
AcDbEntity
  8
0
100
AcDbBlockBegin
  2
*MODEL_SPACE
 70
         0
 10
0.0
 20
0.0
 30
0.0
  3
*MODEL_SPACE
  1

  0
ENDBLK
  5
E
100
AcDbEntity
  8
0
100
AcDbBlockEnd
  0
BLOCK
  5
F
100
AcDbEntity
 67
         1
  8
0
100
AcDbBlockBegin
  2
*PAPER_SPACE
 70
         0
 10
0.0
 20
0.0
 30
0.0
  3
*PAPER_SPACE
  1

  0
ENDBLK
  5
10
100
AcDbEntity
 67
         1
  8
0
100
AcDbBlockEnd
  0
BLOCK
  5
15B
100
AcDbEntity
  8
0
100
AcDbBlockBegin
  2
*D0
 70
        65
 10
0.0
 20
0.0
 30
0.0
  3
*D0
  1

  0
POINT
  5
15E
100
AcDbEntity
  8
DEFPOINTS
  6
CONTINUOUS
 62
         0
100
AcDbPoint
 10
1500.8797989759
 20
-194.8628991945
 30
-34.3595866671
  0
POINT
  5
15F
100
AcDbEntity
  8
DEFPOINTS
  6
CONTINUOUS
 62
         0
100
AcDbPoint
 10
1485.7508425579
 20
-194.8628991945
 30
-34.3595866671
  0
POINT
  5
160
100
AcDbEntity
  8
DEFPOINTS
  6
CONTINUOUS
 62
         0
100
AcDbPoint
 10
1485.7508425579
 20
-240.164055833
 30
-42.3474028397
  0
LINE
  5
161
100
AcDbEntity
  8
L1_120
  6
CONTINUOUS
 62
         4
100
AcDbLine
 10
1487.1008425579
 20
-194.8628991945
 30
-34.3595866671
 11
1501.5547989759
 21
-194.8628991945
 31
-34.3595866671
  0
LINE
  5
162
100
AcDbEntity
  8
L1_120
  6
CONTINUOUS
 62
         4
100
AcDbLine
 10
1487.1008425579
 20
-240.164055833
 30
-42.3474028397
 11
1501.5547989759
 21
-240.164055833
 31
-42.3474028397
  0
LINE
  5
163
100
AcDbEntity
  8
L1_120
  6
CONTINUOUS
 62
         4
100
AcDbLine
 10
1500.8797989759
 20
-194.8628991945
 30
-34.3595866671
 11
1500.8797989759
 21
-240.164055833
 31
-42.3474028397
  0
SOLID
  5
164
100
AcDbEntity
  8
L1_120
  6
CONTINUOUS
 62
         4
100
AcDbTrace
 10
1500.8797989759
 20
-194.8628991945
 30
-34.3595866671
 11
1501.2847989759
 21
-197.5218801276
 31
-34.8284367468
 12
1500.4747989759
 22
-197.5218801276
 32
-34.8284367468
 13
1500.8797989759
 23
-194.8628991945
 33
-34.3595866671
  0
SOLID
  5
165
100
AcDbEntity
  8
L1_120
  6
CONTINUOUS
 62
         4
100
AcDbTrace
 10
1500.8797989759
 20
-240.164055833
 30
-42.3474028397
 11
1500.4747989759
 21
-237.5050748999
 31
-41.87855276
 12
1501.2847989759
 22
-237.5050748999
 32
-41.87855276
 13
1500.8797989759
 23
-240.164055833
 33
-42.3474028397
  0
TEXT
  5
167
100
AcDbEntity
  8
L1_120
  6
CONTINUOUS
 62
         4
100
AcDbText
 10
1498.8547989759
 20
-227.9675786908
 30
0.0
 40
2.7
  1
崷46
 50
90.0
  7
BOX
210
0.0
220
-0.1736481776669303
230
0.9848077530122081
100
AcDbText
  0
ENDBLK
  5
168
100
AcDbEntity
  8
0
  6
CONTINUOUS
100
AcDbBlockEnd
  0
BLOCK
  5
177
100
AcDbEntity
  8
0
100
AcDbBlockBegin
  2
*D1
 70
        65
 10
0.0
 20
0.0
 30
0.0
  3
*D1
  1

  0
POINT
  5
179
100
AcDbEntity
  8
DEFPOINTS
  6
CONTINUOUS
 62
         0
100
AcDbPoint
 10
1485.7508425579
 20
-187.6240312722
 30
-80.1839683824
  0
POINT
  5
17A
100
AcDbEntity
  8
DEFPOINTS
  6
CONTINUOUS
 62
         0
100
AcDbPoint
 10
1485.7508425579
 20
-231.2935050003
 30
-87.884074834
  0
POINT
  5
17B
100
AcDbEntity
  8
DEFPOINTS
  6
CONTINUOUS
 62
         0
100
AcDbPoint
 10
1485.1650561202
 20
-232.6862334809
 30
-88.1296504419
  0
POINT
  5
17C
100
AcDbEntity
  8
DEFPOINTS
  6
CONTINUOUS
 62
         0
100
AcDbPoint
 10
1479.3366289955
 20
-238.4261137012
 30
-89.1417461908
  0
LINE
  5
17D
100
AcDbEntity
  8
L1_120
  6
CONTINUOUS
 62
         4
100
AcDbLine
 10
1478.3820348409
 20
-251.2377812282
 30
-46.3852226133
 11
1471.4018243642
 21
-258.2179917049
 31
-46.3852226133
  0
LINE
  5
17E
100
AcDbEntity
  8
L1_120
  6
CONTINUOUS
 62
         4
100
AcDbLine
 10
1485.7508425579
 20
-244.3905463865
 30
-46.3852226133
 11
1485.7508425579
 21
-264.1615496475
 31
-46.3852226133
  0
ARC
  5
17F
100
AcDbEntity
  8
L1_120
  6
CONTINUOUS
 62
         4
100
AcDbCircle
 10
1485.7508425579
 20
-243.8689735113
 30
-46.3852226133
 40
19.6175761362
100
AcDbArc
 50
225.0
 51
247.5
  0
SOLID
  5
180
100
AcDbEntity
  8
L1_120
  6
CONTINUOUS
 62
         4
100
AcDbTrace
 10
1471.8791214415
 20
-245.7703249586
 30
-90.4367287875
 11
1474.1809985645
 21
-247.2161443971
 31
-90.6916657637
 12
1473.6489481677
 22
-247.8176212249
 32
-90.7977223567
 13
1471.8791214415
 23
-245.7703249586
 33
-90.4367287875
  0
ARC
  5
181
100
AcDbEntity
  8
L1_120
  6
CONTINUOUS
 62
         4
100
AcDbCircle
 10
1485.7508425579
 20
-243.8689735113
 30
-46.3852226133
 40
19.6175761362
100
AcDbArc
 50
247.5
 51
270.0
  0
SOLID
  5
182
100
AcDbEntity
  8
L1_120
  6
CONTINUOUS
 62
         4
100
AcDbTrace
 10
1485.7508425579
 20
-251.4288875298
 30
-91.4344860408
 11
1483.0293965614
 21
-251.6441005591
 31
-91.4724339045
 12
1483.0850495283
 22
-250.8482913451
 32
-91.3321112686
 13
1485.7508425579
 23
-251.4288875298
 33
-91.4344860408
  0
TEXT
  5
184
100
AcDbEntity
  8
L1_120
  6
CONTINUOUS
 62
         4
100
AcDbText
 10
1472.2885120911
 20
-263.0636697058
 30
-46.3852226133
 40
2.7
  1
45%%d
  7
BOX
100
AcDbText
  0
ENDBLK
  5
185
100
AcDbEntity
  8
0
  6
CONTINUOUS
100
AcDbBlockEnd
  0
BLOCK
  5
1DC
100
AcDbEntity
  8
0
100
AcDbBlockBegin
  2
*D2
 70
        65
 10
0.0
 20
0.0
 30
0.0
  3
*D2
  1

  0
POINT
  5
1DE
100
AcDbEntity
  8
DEFPOINTS
  6
CONTINUOUS
 62
         0
100
AcDbPoint
 10
1509.9673333541
 20
-187.9692449234
 30
-33.1440494234
  0
POINT
  5
1DF
100
AcDbEntity
  8
DEFPOINTS
  6
CONTINUOUS
 62
         0
100
AcDbPoint
 10
1477.9224154331
 20
-187.9692449234
 30
-33.1440494234
  0
POINT
  5
1E0
100
AcDbEntity
  8
DEFPOINTS
  6
CONTINUOUS
 62
         0
100
AcDbPoint
 10
1477.9224154331
 20
-247.0577101041
 30
-43.5629400834
  0
LINE
  5
1E1
100
AcDbEntity
  8
L1_120
  6
CONTINUOUS
 62
         4
100
AcDbLine
 10
1479.2724154331
 20
-187.9692449234
 30
-33.1440494234
 11
1510.6423333541
 21
-187.9692449234
 31
-33.1440494234
  0
LINE
  5
1E2
100
AcDbEntity
  8
L1_120
  6
CONTINUOUS
 62
         4
100
AcDbLine
 10
1479.2724154331
 20
-247.0577101041
 30
-43.5629400834
 11
1510.6423333541
 21
-247.0577101041
 31
-43.5629400834
  0
LINE
  5
1E3
100
AcDbEntity
  8
L1_120
  6
CONTINUOUS
 62
         4
100
AcDbLine
 10
1509.9673333541
 20
-187.9692449234
 30
-33.1440494234
 11
1509.9673333541
 21
-247.0577101041
 31
-43.5629400834
  0
SOLID
  5
1E4
100
AcDbEntity
  8
L1_120
  6
CONTINUOUS
 62
         4
100
AcDbTrace
 10
1509.9673333541
 20
-187.9692449234
 30
-33.1440494234
 11
1510.3723333541
 21
-190.6282258565
 31
-33.6128995031
 12
1509.5623333541
 22
-190.6282258565
 32
-33.6128995031
 13
1509.9673333541
 23
-187.9692449234
 33
-33.1440494234
  0
SOLID
  5
1E5
100
AcDbEntity
  8
L1_120
  6
CONTINUOUS
 62
         4
100
AcDbTrace
 10
1509.9673333541
 20
-247.0577101041
 30
-43.5629400834
 11
1509.5623333541
 21
-244.398729171
 31
-43.0940900037
 12
1510.3723333541
 22
-244.398729171
 32
-43.0940900037
 13
1509.9673333541
 23
-247.0577101041
 33
-43.5629400834
  0
TEXT
  5
1E7
100
AcDbEntity
  8
L1_120
  6
CONTINUOUS
 62
         4
100
AcDbText
 10
1506.8353333541
 20
-230.5152258306
 30
0.0
 40
2.7
  1
崷60
 50
90.0
  7
BOX
210
0.0
220
-0.1736481776669303
230
0.9848077530122081
100
AcDbText
  0
ENDBLK
  5
1E8
100
AcDbEntity
  8
0
  6
CONTINUOUS
100
AcDbBlockEnd
  0
BLOCK
  5
1EA
100
AcDbEntity
  8
0
100
AcDbBlockBegin
  2
*D3
 70
        65
 10
0.0
 20
0.0
 30
0.0
  3
*D3
  1

  0
POINT
  5
1EC
100
AcDbEntity
  8
DEFPOINTS
  6
CONTINUOUS
 62
         0
100
AcDbPoint
 10
1384.1508425579
 20
-174.542910507
 30
-30.7766244138
  0
POINT
  5
1ED
100
AcDbEntity
  8
DEFPOINTS
  6
CONTINUOUS
 62
         0
100
AcDbPoint
 10
1384.1508425579
 20
-195.626125203
 30
-34.4941640047
  0
POINT
  5
1EE
100
AcDbEntity
  8
DEFPOINTS
  6
CONTINUOUS
 62
         0
100
AcDbPoint
 10
1485.7508425579
 20
-217.5134775137
 30
-38.3534947534
  0
LINE
  5
1EF
100
AcDbEntity
  8
L1_120
  6
CONTINUOUS
 62
         4
100
AcDbLine
 10
1384.1508425579
 20
-194.2966347365
 30
-34.2597389649
 11
1384.1508425579
 21
-173.8781652738
 31
-30.6594118938
  0
LINE
  5
1F0
100
AcDbEntity
  8
L1_120
  6
CONTINUOUS
 62
         4
100
AcDbLine
 10
1485.7508425579
 20
-216.1839870472
 30
-38.1190697135
 11
1485.7508425579
 21
-173.8781652738
 31
-30.6594118938
  0
LINE
  5
1F1
100
AcDbEntity
  8
L1_120
  6
CONTINUOUS
 62
         4
100
AcDbLine
 10
1384.1508425579
 20
-174.542910507
 30
-30.7766244138
 11
1485.7508425579
 21
-174.542910507
 31
-30.7766244138
  0
SOLID
  5
1F2
100
AcDbEntity
  8
L1_120
  6
CONTINUOUS
 62
         4
100
AcDbTrace
 10
1384.1508425579
 20
-174.542910507
 30
-30.7766244138
 11
1386.8508425579
 21
-174.1440633671
 31
-30.7062969018
 12
1386.8508425579
 22
-174.941757647
 32
-30.8469519257
 13
1384.1508425579
 23
-174.542910507
 33
-30.7766244138
  0
SOLID
  5
1F3
100
AcDbEntity
  8
L1_120
  6
CONTINUOUS
 62
         4
100
AcDbTrace
 10
1485.7508425579
 20
-174.542910507
 30
-30.7766244138
 11
1483.0508425579
 21
-174.941757647
 31
-30.8469519257
 12
1483.0508425579
 22
-174.1440633671
 32
-30.7062969018
 13
1485.7508425579
 23
-174.542910507
 33
-30.7766244138
  0
TEXT
  5
1F5
100
AcDbEntity
  8
L1_120
  6
CONTINUOUS
 62
         4
100
AcDbText
 10
1436.5958181104
 20
-175.2105162448
 30
0.0
 40
2.7
  1
101
  7
BOX
210
0.0
220
-0.1736481776669303
230
0.9848077530122081
100
AcDbText
  0
ENDBLK
  5
1F6
100
AcDbEntity
  8
0
  6
CONTINUOUS
100
AcDbBlockEnd
  0
BLOCK
  5
1F8
100
AcDbEntity
  8
0
100
AcDbBlockBegin
  2
*D4
 70
        65
 10
0.0
 20
0.0
 30
0.0
  3
*D4
  1

  0
POINT
  5
1FA
100
AcDbEntity
  8
DEFPOINTS
  6
CONTINUOUS
 62
         0
100
AcDbPoint
 10
1315.9008425579
 20
-162.3817764383
 30
-28.6322883614
  0
POINT
  5
1FB
100
AcDbEntity
  8
DEFPOINTS
  6
CONTINUOUS
 62
         0
100
AcDbPoint
 10
1315.9008425579
 20
-206.4499682606
 30
-36.4026995708
  0
POINT
  5
1FC
100
AcDbEntity
  8
DEFPOINTS
  6
CONTINUOUS
 62
         0
100
AcDbPoint
 10
1485.7508425579
 20
-217.5134775137
 30
-38.3534947534
  0
LINE
  5
1FD
100
AcDbEntity
  8
L1_120
  6
CONTINUOUS
 62
         4
100
AcDbLine
 10
1315.9008425579
 20
-205.1204777941
 30
-36.1682745309
 11
1315.9008425579
 21
-161.717031205
 31
-28.5150758415
  0
LINE
  5
1FE
100
AcDbEntity
  8
L1_120
  6
CONTINUOUS
 62
         4
100
AcDbLine
 10
1485.7508425579
 20
-216.1839870472
 30
-38.1190697135
 11
1485.7508425579
 21
-161.717031205
 31
-28.5150758415
  0
LINE
  5
1FF
100
AcDbEntity
  8
L1_120
  6
CONTINUOUS
 62
         4
100
AcDbLine
 10
1315.9008425579
 20
-162.3817764383
 30
-28.6322883614
 11
1485.7508425579
 21
-162.3817764383
 31
-28.6322883614
  0
SOLID
  5
200
100
AcDbEntity
  8
L1_120
  6
CONTINUOUS
 62
         4
100
AcDbTrace
 10
1315.9008425579
 20
-162.3817764383
 30
-28.6322883614
 11
1318.6008425579
 21
-161.9829292983
 31
-28.5619608495
 12
1318.6008425579
 22
-162.7806235782
 32
-28.7026158734
 13
1315.9008425579
 23
-162.3817764383
 33
-28.6322883614
  0
SOLID
  5
201
100
AcDbEntity
  8
L1_120
  6
CONTINUOUS
 62
         4
100
AcDbTrace
 10
1485.7508425579
 20
-162.3817764383
 30
-28.6322883614
 11
1483.0508425579
 21
-162.7806235782
 31
-28.7026158734
 12
1483.0508425579
 22
-161.9829292983
 32
-28.5619608495
 13
1485.7508425579
 23
-162.3817764383
 33
-28.6322883614
  0
TEXT
  5
203
100
AcDbEntity
  8
L1_120
  6
CONTINUOUS
 62
         4
100
AcDbText
 10
1389.0782562526
 20
-162.8617770807
 30
0.0
 40
2.7
  1
169.85
  7
BOX
210
0.0
220
-0.1736481776669303
230
0.9848077530122081
100
AcDbText
  0
ENDBLK
  5
204
100
AcDbEntity
  8
0
  6
CONTINUOUS
100
AcDbBlockEnd
  0
BLOCK
  5
27B
100
AcDbEntity
  8
0
100
AcDbBlockBegin
  2
*D5
 70
        65
 10
0.0
 20
0.0
 30
0.0
  3
*D5
  1

  0
POINT
  5
27D
100
AcDbEntity
  8
DEFPOINTS
  6
CONTINUOUS
 62
         0
100
AcDbPoint
 10
1485.7508425579
 20
-373.3339967456
 30
-65.828856442
  0
POINT
  5
27E
100
AcDbEntity
  8
DEFPOINTS
  6
CONTINUOUS
 62
         0
100
AcDbPoint
 10
1485.7508425579
 20
-349.806327207
 30
-61.6802935091
  0
POINT
  5
27F
100
AcDbEntity
  8
DEFPOINTS
  6
CONTINUOUS
 62
         0
100
AcDbPoint
 10
1395.7508425579
 20
-340.9710526827
 30
-60.1223962285
  0
LINE
  5
280
100
AcDbEntity
  8
L1_120
  6
CONTINUOUS
 62
         4
100
AcDbLine
 10
1485.7508425579
 20
-351.1358176736
 30
-61.914718549
 11
1485.7508425579
 21
-373.9987419789
 31
-65.9460689619
  0
LINE
  5
281
100
AcDbEntity
  8
L1_120
  6
CONTINUOUS
 62
         4
100
AcDbLine
 10
1395.7508425579
 20
-342.3005431493
 30
-60.3568212684
 11
1395.7508425579
 21
-373.9987419789
 31
-65.9460689619
  0
LINE
  5
282
100
AcDbEntity
  8
L1_120
  6
CONTINUOUS
 62
         4
100
AcDbLine
 10
1485.7508425579
 20
-373.3339967456
 30
-65.828856442
 11
1395.7508425579
 21
-373.3339967456
 31
-65.828856442
  0
SOLID
  5
283
100
AcDbEntity
  8
L1_120
  6
CONTINUOUS
 62
         4
100
AcDbTrace
 10
1485.7508425579
 20
-373.3339967456
 30
-65.828856442
 11
1483.0508425579
 21
-373.7328438856
 31
-65.8991839539
 12
1483.0508425579
 22
-372.9351496056
 32
-65.75852893
 13
1485.7508425579
 23
-373.3339967456
 33
-65.828856442
  0
SOLID
  5
284
100
AcDbEntity
  8
L1_120
  6
CONTINUOUS
 62
         4
100
AcDbTrace
 10
1395.7508425579
 20
-373.3339967456
 30
-65.828856442
 11
1398.4508425579
 21
-372.9351496056
 31
-65.75852893
 12
1398.4508425579
 22
-373.7328438856
 32
-65.8991839539
 13
1395.7508425579
 23
-373.3339967456
 33
-65.828856442
  0
TEXT
  5
286
100
AcDbEntity
  8
L1_120
  6
CONTINUOUS
 62
         4
100
AcDbText
 10
1439.3957823655
 20
-377.0682754172
 30
0.0
 40
2.7
  1
90
  7
BOX
210
0.0
220
-0.1736481776669303
230
0.9848077530122081
100
AcDbText
  0
ENDBLK
  5
287
100
AcDbEntity
  8
0
  6
CONTINUOUS
100
AcDbBlockEnd
  0
BLOCK
  5
32A
100
AcDbEntity
  8
0
100
AcDbBlockBegin
  2
*D6
 70
        65
 10
0.0
 20
0.0
 30
0.0
  3
*D6
  1

  0
POINT
  5
32C
100
AcDbEntity
  8
DEFPOINTS
  6
CONTINUOUS
 62
         0
100
AcDbPoint
 10
1513.275048443
 20
-298.2620084661
 30
-52.5916394129
  0
POINT
  5
32D
100
AcDbEntity
  8
DEFPOINTS
  6
CONTINUOUS
 62
         0
100
AcDbPoint
 10
1529.826411201
 20
-298.2620084661
 30
-52.5916394129
  0
POINT
  5
32E
100
AcDbEntity
  8
DEFPOINTS
  6
CONTINUOUS
 62
         0
100
AcDbPoint
 10
1527.0831950465
 20
-315.9720386701
 30
-55.714395567
  0
LINE
  5
32F
100
AcDbEntity
  8
L1_120
  6
CONTINUOUS
 62
         4
100
AcDbLine
 10
1528.476411201
 20
-298.2620084661
 30
-52.5916394129
 11
1512.600048443
 21
-298.2620084661
 31
-52.5916394129
  0
LINE
  5
330
100
AcDbEntity
  8
L1_120
  6
CONTINUOUS
 62
         4
100
AcDbLine
 10
1525.7331950465
 20
-315.9720386701
 30
-55.714395567
 11
1512.600048443
 21
-315.9720386701
 31
-55.714395567
  0
LINE
  5
331
100
AcDbEntity
  8
L1_120
  6
CONTINUOUS
 62
         4
100
AcDbLine
 10
1513.275048443
 20
-298.2620084661
 30
-52.5916394129
 11
1513.275048443
 21
-315.9720386701
 31
-55.714395567
  0
SOLID
  5
332
100
AcDbEntity
  8
L1_120
  6
CONTINUOUS
 62
         4
100
AcDbTrace
 10
1513.275048443
 20
-298.2620084661
 30
-52.5916394129
 11
1513.680048443
 21
-300.9209893992
 31
-53.0604894926
 12
1512.870048443
 22
-300.9209893992
 32
-53.0604894926
 13
1513.275048443
 23
-298.2620084661
 33
-52.5916394129
  0
SOLID
  5
333
100
AcDbEntity
  8
L1_120
  6
CONTINUOUS
 62
         4
100
AcDbTrace
 10
1513.275048443
 20
-315.9720386701
 30
-55.714395567
 11
1512.870048443
 21
-313.313057737
 31
-55.2455454873
 12
1513.680048443
 22
-313.313057737
 32
-55.2455454873
 13
1513.275048443
 23
-315.9720386701
 33
-55.714395567
  0
TEXT
  5
335
100
AcDbEntity
  8
L1_120
  6
CONTINUOUS
 62
         4
100
AcDbText
 10
1511.250048443
 20
-314.06405069
 30
0.0
 40
2.7
  1
18
 50
90.0
  7
BOX
210
0.0
220
-0.1736481776669303
230
0.9848077530122081
100
AcDbText
  0
ENDBLK
  5
336
100
AcDbEntity
  8
0
  6
CONTINUOUS
100
AcDbBlockEnd
  0
BLOCK
  5
338
100
AcDbEntity
  8
0
100
AcDbBlockBegin
  2
*D7
 70
        65
 10
0.0
 20
0.0
 30
0.0
  3
*D7
  1

  0
POINT
  5
33A
100
AcDbEntity
  8
DEFPOINTS
  6
CONTINUOUS
 62
         0
100
AcDbPoint
 10
1529.9988600468
 20
-326.9069060836
 30
-57.6425077225
  0
POINT
  5
33B
100
AcDbEntity
  8
DEFPOINTS
  6
CONTINUOUS
 62
         0
100
AcDbPoint
 10
1529.9988600468
 20
-315.9720386701
 30
-55.714395567
  0
POINT
  5
33C
100
AcDbEntity
  8
DEFPOINTS
  6
CONTINUOUS
 62
         0
100
AcDbPoint
 10
1541.0839852152
 20
-315.9720386701
 30
-55.714395567
  0
LINE
  5
33D
100
AcDbEntity
  8
L1_120
  6
CONTINUOUS
 62
         4
100
AcDbLine
 10
1529.9988600468
 20
-317.3015291367
 30
-55.9488206069
 11
1529.9988600468
 21
-327.5716513168
 31
-57.7597202424
  0
LINE
  5
33E
100
AcDbEntity
  8
L1_120
  6
CONTINUOUS
 62
         4
100
AcDbLine
 10
1541.0839852152
 20
-317.3015291367
 30
-55.9488206069
 11
1541.0839852152
 21
-327.5716513168
 31
-57.7597202424
  0
LINE
  5
33F
100
AcDbEntity
  8
L1_120
  6
CONTINUOUS
 62
         4
100
AcDbLine
 10
1529.9988600468
 20
-326.9069060836
 30
-57.6425077225
 11
1541.0839852152
 21
-326.9069060836
 31
-57.6425077225
  0
SOLID
  5
340
100
AcDbEntity
  8
L1_120
  6
CONTINUOUS
 62
         4
100
AcDbTrace
 10
1529.9988600468
 20
-326.9069060836
 30
-57.6425077225
 11
1532.6988600468
 21
-326.5080589436
 31
-57.5721802105
 12
1532.6988600468
 22
-327.3057532235
 32
-57.7128352344
 13
1529.9988600468
 23
-326.9069060836
 33
-57.6425077225
  0
LINE
  5
341
100
AcDbEntity
  8
L1_120
  6
CONTINUOUS
 62
         4
100
AcDbLine
 10
1541.0839852152
 20
-326.9069060836
 30
-57.6425077225
 11
1561.9540538986
 21
-326.9069060836
 31
-57.6425077225
  0
SOLID
  5
342
100
AcDbEntity
  8
L1_120
  6
CONTINUOUS
 62
         4
100
AcDbTrace
 10
1541.0839852152
 20
-326.9069060836
 30
-57.6425077225
 11
1538.3839852152
 21
-327.3057532235
 31
-57.7128352344
 12
1538.3839852152
 22
-326.5080589436
 32
-57.5721802105
 13
1541.0839852152
 23
-326.9069060836
 33
-57.6425077225
  0
TEXT
  5
344
100
AcDbEntity
  8
L1_120
  6
CONTINUOUS
 62
         4
100
AcDbText
 10
1544.4040538986
 20
-329.9249720465
 30
0.0
 40
2.7
  1
9.6Hex
  7
BOX
210
0.0
220
-0.1736481776669303
230
0.9848077530122081
100
AcDbText
  0
ENDBLK
  5
345
100
AcDbEntity
  8
0
  6
CONTINUOUS
100
AcDbBlockEnd
  0
BLOCK
  5
348
100
AcDbEntity
  8
0
100
AcDbBlockBegin
  2
*D8
 70
        65
 10
0.0
 20
0.0
 30
0.0
  3
*D8
  1

  0
POINT
  5
34A
100
AcDbEntity
  8
DEFPOINTS
  6
CONTINUOUS
 62
         0
100
AcDbPoint
 10
1545.066441681
 20
-289.7536650711
 30
-51.0913889112
  0
POINT
  5
34B
100
AcDbEntity
  8
DEFPOINTS
  6
CONTINUOUS
 62
         0
100
AcDbPoint
 10
1545.066441681
 20
-302.0141335093
 30
-53.253240293
  0
POINT
  5
34C
100
AcDbEntity
  8
DEFPOINTS
  6
CONTINUOUS
 62
         0
100
AcDbPoint
 10
1526.0164035809
 20
-302.0141335093
 30
-53.253240293
  0
LINE
  5
34D
100
AcDbEntity
  8
L1_120
  6
CONTINUOUS
 62
         4
100
AcDbLine
 10
1545.066441681
 20
-300.6846430428
 30
-53.0188152531
 11
1545.066441681
 21
-289.0889198378
 31
-50.9741763913
  0
LINE
  5
34E
100
AcDbEntity
  8
L1_120
  6
CONTINUOUS
 62
         4
100
AcDbLine
 10
1526.0164035809
 20
-300.6846430428
 30
-53.0188152531
 11
1526.0164035809
 21
-289.0889198378
 31
-50.9741763913
  0
LINE
  5
34F
100
AcDbEntity
  8
L1_120
  6
CONTINUOUS
 62
         4
100
AcDbLine
 10
1545.066441681
 20
-289.7536650711
 30
-51.0913889112
 11
1526.0164035809
 21
-289.7536650711
 31
-51.0913889112
  0
SOLID
  5
350
100
AcDbEntity
  8
L1_120
  6
CONTINUOUS
 62
         4
100
AcDbTrace
 10
1545.066441681
 20
-289.7536650711
 30
-51.0913889112
 11
1542.366441681
 21
-290.1525122111
 31
-51.1617164232
 12
1542.366441681
 22
-289.3548179311
 32
-51.0210613992
 13
1545.066441681
 23
-289.7536650711
 33
-51.0913889112
  0
SOLID
  5
351
100
AcDbEntity
  8
L1_120
  6
CONTINUOUS
 62
         4
100
AcDbTrace
 10
1526.0164035809
 20
-289.7536650711
 30
-51.0913889112
 11
1528.7164035809
 21
-289.3548179311
 31
-51.0210613992
 12
1528.7164035809
 22
-290.1525122111
 32
-51.1617164232
 13
1526.0164035809
 23
-289.7536650711
 33
-51.0913889112
  0
TEXT
  5
353
100
AcDbEntity
  8
L1_120
  6
CONTINUOUS
 62
         4
100
AcDbText
 10
1521.7808688396
 20
-292.1985824046
 30
0.0
 40
2.7
  1
3/4"-16UNF
  7
BOX
210
0.0
220
-0.1736481776669303
230
0.9848077530122081
100
AcDbText
  0
ENDBLK
  5
354
100
AcDbEntity
  8
0
  6
CONTINUOUS
100
AcDbBlockEnd
  0
BLOCK
  5
356
100
AcDbEntity
  8
0
100
AcDbBlockBegin
  2
*X9
 70
        65
 10
0.0
 20
0.0
 30
0.0
  3
*X9
  1

  0
LINE
  5
357
100
AcDbEntity
  8
L1_120
  6
CONTINUOUS
 62
         4
100
AcDbLine
 10
1475.352534447
 20
-357.5158229332
 30
-63.0396856133
 11
1485.7508425579
 21
-347.2754884874
 31
-61.234038359
  0
LINE
  5
358
100
AcDbEntity
  8
L1_120
  6
CONTINUOUS
 62
         4
100
AcDbLine
 10
1472.0383681589
 20
-356.6014541466
 30
-62.8784577259
 11
1485.7508425579
 21
-343.0973030455
 31
-60.4973115352
  0
LINE
  5
359
100
AcDbEntity
  8
L1_120
  6
CONTINUOUS
 62
         4
100
AcDbLine
 10
1470.0508425579
 20
-354.3805993258
 30
-62.4868611008
 11
1484.1308247076
 21
-340.5145237425
 31
-60.0418978589
  0
LINE
  5
35A
100
AcDbEntity
  8
L1_120
  6
CONTINUOUS
 62
         4
100
AcDbLine
 10
1470.0508425579
 20
-350.2024138839
 30
-61.750134277
 11
1476.7546123855
 21
-343.6004893833
 31
-60.5860368629
  0
LINE
  5
35B
100
AcDbEntity
  8
L1_120
  6
CONTINUOUS
 62
         4
100
AcDbLine
 10
1470.0508425579
 20
-346.024228442
 30
-61.0134074532
 11
1475.6819716984
 21
-340.4786488062
 31
-60.0355721397
  0
LINE
  5
35C
100
AcDbEntity
  8
L1_120
  6
CONTINUOUS
 62
         4
100
AcDbLine
 10
1470.0508425579
 20
-341.8460430001
 30
-60.2766806293
 11
1471.4393310112
 21
-340.4786488062
 31
-60.0355721397
  0
LINE
  5
35D
100
AcDbEntity
  8
L1_120
  6
CONTINUOUS
 62
         4
100
AcDbLine
 10
1446.8104460975
 20
-356.3769947334
 30
-62.8388794753
 11
1452.4508425579
 21
-350.8222885692
 31
-61.8594349086
  0
LINE
  5
35E
100
AcDbEntity
  8
L1_120
  6
CONTINUOUS
 62
         4
100
AcDbLine
 10
1445.0508425579
 20
-353.9316804996
 30
-62.4077045996
 11
1452.4508425579
 21
-346.6441031273
 31
-61.1227080848
  0
LINE
  5
35F
100
AcDbEntity
  8
L1_120
  6
CONTINUOUS
 62
         4
100
AcDbLine
 10
1484.1520676192
 20
-315.424490907
 30
-55.6178481231
 11
1485.7101838886
 21
-313.8900459248
 31
-55.3472840724
  0
LINE
  5
360
100
AcDbEntity
  8
L1_120
  6
CONTINUOUS
 62
         4
100
AcDbLine
 10
1445.0508425579
 20
-349.7534950577
 30
-61.6709777758
 11
1452.4508425579
 21
-342.4659176854
 31
-60.385981261
  0
LINE
  5
361
100
AcDbEntity
  8
L1_120
  6
CONTINUOUS
 62
         4
100
AcDbLine
 10
1480.5008425579
 20
-314.8420602134
 30
-55.5151498775
 11
1485.7508425579
 21
-309.6718195101
 31
-54.6034969447
  0
LINE
  5
362
100
AcDbEntity
  8
L1_120
  6
CONTINUOUS
 62
         4
100
AcDbLine
 10
1445.0508425579
 20
-345.5753096158
 30
-60.9342509519
 11
1450.2261275756
 21
-340.4786488062
 31
-60.0355721397
  0
LINE
  5
363
100
AcDbEntity
  8
L1_120
  6
CONTINUOUS
 62
         4
100
AcDbLine
 10
1475.6261275756
 20
-315.4645318797
 30
-55.624908427
 11
1476.0008425579
 21
-315.09550966
 31
-55.5598398532
  0
LINE
  5
364
100
AcDbEntity
  8
L1_120
  6
CONTINUOUS
 62
         4
100
AcDbLine
 10
1478.7961275756
 20
-312.3426913027
 30
-55.0744437038
 11
1485.6678524041
 21
-305.575363415
 31
-53.8811812099
  0
LINE
  5
365
100
AcDbEntity
  8
L1_120
  6
CONTINUOUS
 62
         4
100
AcDbLine
 10
1445.0508425579
 20
-341.3971241738
 30
-60.1975241281
 11
1445.9834868885
 21
-340.4786488062
 31
-60.0355721397
  0
LINE
  5
366
100
AcDbEntity
  8
L1_120
  6
CONTINUOUS
 62
         4
100
AcDbLine
 10
1471.3834868885
 20
-315.4645318797
 30
-55.624908427
 11
1483.7171647233
 21
-303.3182303249
 31
-53.483187747
  0
LINE
  5
367
100
AcDbEntity
  8
L1_120
  6
CONTINUOUS
 62
         4
100
AcDbLine
 10
1424.4408462016
 20
-357.5158229332
 30
-63.0396856133
 11
1427.4508425579
 21
-354.5515551849
 31
-62.5170052313
  0
LINE
  5
368
100
AcDbEntity
  8
L1_120
  6
CONTINUOUS
 62
         4
100
AcDbLine
 10
1467.1408462014
 20
-315.4645318797
 30
-55.624908427
 11
1481.5958443797
 21
-301.2291376039
 31
-53.1148243351
  0
LINE
  5
369
100
AcDbEntity
  8
L1_120
  6
CONTINUOUS
 62
         4
100
AcDbLine
 10
1420.3767743823
 20
-357.3399669277
 30
-63.0086774548
 11
1427.4508425579
 21
-350.373369743
 31
-61.7802784074
  0
LINE
  5
36A
100
AcDbEntity
  8
L1_120
  6
CONTINUOUS
 62
         4
100
AcDbLine
 10
1462.8982055143
 20
-315.4645318797
 30
-55.624908427
 11
1477.4482055145
 21
-301.1355790732
 31
-53.0983274419
  0
LINE
  5
36B
100
AcDbEntity
  8
L1_120
  6
CONTINUOUS
 62
         4
100
AcDbLine
 10
1419.2028425579
 20
-354.3178786479
 30
-62.475801753
 11
1427.4508425579
 21
-346.1951843011
 31
-61.0435515836
  0
LINE
  5
36C
100
AcDbEntity
  8
L1_120
  6
CONTINUOUS
 62
         4
100
AcDbLine
 10
1458.6555648272
 20
-315.4645318797
 30
-55.624908427
 11
1473.2055648273
 21
-301.1355790732
 31
-53.0983274419
  0
LINE
  5
36D
100
AcDbEntity
  8
L1_120
  6
CONTINUOUS
 62
         4
100
AcDbLine
 10
1419.1505468469
 20
-350.1911944276
 30
-61.7481559841
 11
1427.4508425579
 21
-342.0169988592
 31
-60.3068247598
  0
LINE
  5
36E
100
AcDbEntity
  8
L1_120
  6
CONTINUOUS
 62
         4
100
AcDbLine
 10
1454.41292414
 20
-315.4645318797
 30
-55.624908427
 11
1468.9629241402
 21
-301.1355790732
 31
-53.0983274419
  0
LINE
  5
36F
100
AcDbEntity
  8
L1_120
  6
CONTINUOUS
 62
         4
100
AcDbLine
 10
1415.1852834531
 20
-349.9180311187
 30
-61.6999899226
 11
1424.7702834529
 21
-340.4786488062
 31
-60.0355721397
  0
LINE
  5
370
100
AcDbEntity
  8
L1_120
  6
CONTINUOUS
 62
         4
100
AcDbLine
 10
1450.1702834529
 20
-315.4645318797
 30
-55.624908427
 11
1464.7202834531
 21
-301.1355790732
 31
-53.0983274419
  0
LINE
  5
371
100
AcDbEntity
  8
L1_120
  6
CONTINUOUS
 62
         4
100
AcDbLine
 10
1401.4526427658
 20
-359.2638566949
 30
-63.3479111287
 11
1403.2508425579
 21
-357.4929755982
 31
-63.0356570117
  0
LINE
  5
372
100
AcDbEntity
  8
L1_120
  6
CONTINUOUS
 62
         4
100
AcDbLine
 10
1410.942642766
 20
-349.9180311187
 30
-61.6999899226
 11
1420.5276427658
 21
-340.4786488062
 31
-60.0355721397
  0
LINE
  5
373
100
AcDbEntity
  8
L1_120
  6
CONTINUOUS
 62
         4
100
AcDbLine
 10
1445.9276427658
 20
-315.4645318797
 30
-55.624908427
 11
1460.477642766
 21
-301.1355790732
 31
-53.0983274419
  0
LINE
  5
374
100
AcDbEntity
  8
L1_120
  6
CONTINUOUS
 62
         4
100
AcDbLine
 10
1398.2098503107
 20
-358.2791984042
 30
-63.1742893053
 11
1403.2508425579
 21
-353.3147901563
 31
-62.2989301879
  0
LINE
  5
375
100
AcDbEntity
  8
L1_120
  6
CONTINUOUS
 62
         4
100
AcDbLine
 10
1406.7000020789
 20
-349.9180311187
 30
-61.6999899226
 11
1413.7850020787
 21
-342.9406681887
 31
-60.4696925839
  0
LINE
  5
376
100
AcDbEntity
  8
L1_120
  6
CONTINUOUS
 62
         4
100
AcDbLine
 10
1415.7508425579
 20
-341.0046932437
 30
-60.1283279671
 11
1416.2850020787
 21
-340.4786488062
 31
-60.0355721397
  0
LINE
  5
377
100
AcDbEntity
  8
L1_120
  6
CONTINUOUS
 62
         4
100
AcDbLine
 10
1441.6850020787
 20
-315.4645318797
 30
-55.624908427
 11
1456.2350020789
 21
-301.1355790732
 31
-53.0983274419
  0
LINE
  5
378
100
AcDbEntity
  8
L1_120
  6
CONTINUOUS
 62
         4
100
AcDbLine
 10
1396.5393231506
 20
-355.7461610611
 30
-62.7276464785
 11
1409.5423613916
 21
-342.9406681887
 31
-60.4696925839
  0
LINE
  5
379
100
AcDbEntity
  8
L1_120
  6
CONTINUOUS
 62
         4
100
AcDbLine
 10
1437.4423613916
 20
-315.4645318797
 30
-55.624908427
 11
1451.9923613917
 21
-301.1355790732
 31
-53.0983274419
  0
LINE
  5
37A
100
AcDbEntity
  8
L1_120
  6
CONTINUOUS
 62
         4
100
AcDbLine
 10
1388.7247207045
 20
-359.2638566949
 30
-63.3479111287
 11
1405.2997207045
 21
-342.9406681887
 31
-60.4696925839
  0
LINE
  5
37B
100
AcDbEntity
  8
L1_120
  6
CONTINUOUS
 62
         4
100
AcDbLine
 10
1433.1997207045
 20
-315.4645318797
 30
-55.624908427
 11
1447.7497207046
 21
-301.1355790732
 31
-53.0983274419
  0
LINE
  5
37C
100
AcDbEntity
  8
L1_120
  6
CONTINUOUS
 62
         4
100
AcDbLine
 10
1387.3508425579
 20
-356.4386771035
 30
-62.8497557414
 11
1401.0570800173
 21
-342.9406681887
 31
-60.4696925839
  0
LINE
  5
37D
100
AcDbEntity
  8
L1_120
  6
CONTINUOUS
 62
         4
100
AcDbLine
 10
1428.9570800173
 20
-315.4645318797
 30
-55.624908427
 11
1443.5070800175
 21
-301.1355790732
 31
-53.0983274419
  0
LINE
  5
37E
100
AcDbEntity
  8
L1_120
  6
CONTINUOUS
 62
         4
100
AcDbLine
 10
1387.3508425579
 20
-352.2604916615
 30
-62.1130289176
 11
1396.8144393302
 21
-342.9406681887
 31
-60.4696925839
  0
LINE
  5
37F
100
AcDbEntity
  8
L1_120
  6
CONTINUOUS
 62
         4
100
AcDbLine
 10
1424.7144393302
 20
-315.4645318797
 30
-55.624908427
 11
1439.2644393304
 21
-301.1355790732
 31
-53.0983274419
  0
LINE
  5
380
100
AcDbEntity
  8
L1_120
  6
CONTINUOUS
 62
         4
100
AcDbLine
 10
1385.3717986431
 20
-350.0312840104
 30
-61.7199594631
 11
1395.3192825329
 21
-340.2349247528
 31
-59.9925970132
  0
LINE
  5
381
100
AcDbEntity
  8
L1_120
  6
CONTINUOUS
 62
         4
100
AcDbLine
 10
1420.4717986431
 20
-315.4645318797
 30
-55.624908427
 11
1435.0217986433
 21
-301.1355790732
 31
-53.0983274419
  0
LINE
  5
382
100
AcDbEntity
  8
L1_120
  6
CONTINUOUS
 62
         4
100
AcDbLine
 10
1381.6664632689
 20
-349.5021415725
 30
-61.6266573746
 11
1393.7663682623
 21
-337.5860613243
 31
-59.5255309226
  0
LINE
  5
383
100
AcDbEntity
  8
L1_120
  6
CONTINUOUS
 62
         4
100
AcDbLine
 10
1416.229157956
 20
-315.4645318797
 30
-55.624908427
 11
1430.7791579562
 21
-301.1355790732
 31
-53.0983274419
  0
LINE
  5
384
100
AcDbEntity
  8
L1_120
  6
CONTINUOUS
 62
         4
100
AcDbLine
 10
1377.9637950329
 20
-348.9703725162
 30
-61.5328921425
 11
1392.2134539917
 21
-334.9371978959
 31
-59.0584648319
  0
LINE
  5
385
100
AcDbEntity
  8
L1_120
  6
CONTINUOUS
 62
         4
100
AcDbLine
 10
1414.4865172689
 20
-313.0025124972
 30
-55.1907879828
 11
1426.536517269
 21
-301.1355790732
 31
-53.0983274419
  0
LINE
  5
386
100
AcDbEntity
  8
L1_120
  6
CONTINUOUS
 62
         4
100
AcDbLine
 10
1374.2611267969
 20
-348.43860346
 30
-61.4391269104
 11
1388.0438765817
 21
-334.865244614
 31
-59.045777527
  0
LINE
  5
387
100
AcDbEntity
  8
L1_120
  6
CONTINUOUS
 62
         4
100
AcDbLine
 10
1410.2438765817
 20
-313.0025124972
 30
-55.1907879828
 11
1417.3288765819
 21
-306.0251495669
 31
-53.960490644
  0
LINE
  5
388
100
AcDbEntity
  8
L1_120
  6
CONTINUOUS
 62
         4
100
AcDbLine
 10
1419.2028425579
 20
-304.1796533449
 30
-53.6350798673
 11
1422.2938765819
 21
-301.1355790732
 31
-53.0983274419
  0
LINE
  5
389
100
AcDbEntity
  8
L1_120
  6
CONTINUOUS
 62
         4
100
AcDbLine
 10
1370.5584585609
 20
-347.9068344038
 30
-61.3453616783
 11
1383.8012358946
 21
-334.865244614
 31
-59.045777527
  0
LINE
  5
38A
100
AcDbEntity
  8
L1_120
  6
CONTINUOUS
 62
         4
100
AcDbLine
 10
1406.4453770065
 20
-312.5651188867
 30
-55.1136636881
 11
1413.0862358948
 21
-306.0251495669
 31
-53.960490644
  0
LINE
  5
38B
100
AcDbEntity
  8
L1_120
  6
CONTINUOUS
 62
         4
100
AcDbLine
 10
1366.8557903248
 20
-347.3750653475
 30
-61.2515964461
 11
1379.5585952075
 21
-334.865244614
 31
-59.045777527
  0
LINE
  5
38C
100
AcDbEntity
  8
L1_120
  6
CONTINUOUS
 62
         4
100
AcDbLine
 10
1403.9500106517
 20
-310.8443895777
 30
-54.8102526844
 11
1408.8435952077
 21
-306.0251495669
 31
-53.960490644
  0
LINE
  5
38D
100
AcDbEntity
  8
L1_120
  6
CONTINUOUS
 62
         4
100
AcDbLine
 10
1363.1531220888
 20
-346.8432962913
 30
-61.157831214
 11
1375.3159545204
 21
-334.865244614
 31
-59.045777527
  0
LINE
  5
38E
100
AcDbEntity
  8
L1_120
  6
CONTINUOUS
 62
         4
100
AcDbLine
 10
1389.3159545204
 20
-321.0779360719
 30
-56.6147030397
 11
1395.7508425579
 21
-314.7408084428
 31
-55.4972964585
  0
LINE
  5
38F
100
AcDbEntity
  8
L1_120
  6
CONTINUOUS
 62
         4
100
AcDbLine
 10
1397.5159545204
 20
-313.0025124972
 30
-55.1907879828
 11
1399.0851946547
 21
-311.4571126465
 31
-54.9182922931
  0
LINE
  5
390
100
AcDbEntity
  8
L1_120
  6
CONTINUOUS
 62
         4
100
AcDbLine
 10
1401.4546442968
 20
-309.1236602686
 30
-54.5068416807
 11
1404.6009545206
 21
-306.0251495669
 31
-53.960490644
  0
LINE
  5
391
100
AcDbEntity
  8
L1_120
  6
CONTINUOUS
 62
         4
100
AcDbLine
 10
1359.4504538528
 20
-346.311527235
 30
-61.0640659819
 11
1371.0733138333
 21
-334.865244614
 31
-59.045777527
  0
LINE
  5
392
100
AcDbEntity
  8
L1_120
  6
CONTINUOUS
 62
         4
100
AcDbLine
 10
1385.0733138333
 20
-321.0779360719
 30
-56.6147030397
 11
1396.5898282999
 21
-309.7363833375
 31
-54.6148812895
  0
LINE
  5
393
100
AcDbEntity
  8
L1_120
  6
CONTINUOUS
 62
         4
100
AcDbLine
 10
1398.959277942
 20
-307.4029309596
 30
-54.203430677
 11
1403.2508425579
 21
-303.1765648533
 31
-53.4582083021
  0
LINE
  5
394
100
AcDbEntity
  8
L1_120
  6
CONTINUOUS
 62
         4
100
AcDbLine
 10
1355.7477856167
 20
-345.7797581788
 30
-60.9703007498
 11
1366.8306731461
 21
-334.865244614
 31
-59.045777527
  0
LINE
  5
395
100
AcDbEntity
  8
L1_120
  6
CONTINUOUS
 62
         4
100
AcDbLine
 10
1380.8306731461
 20
-321.0779360719
 30
-56.6147030397
 11
1394.094461945
 21
-308.0156540284
 31
-54.3114702858
  0
LINE
  5
396
100
AcDbEntity
  8
L1_120
  6
CONTINUOUS
 62
         4
100
AcDbLine
 10
1396.4639115871
 20
-305.6822016505
 30
-53.9000196734
 11
1403.2508425579
 21
-298.9983794114
 31
-52.7214814783
  0
LINE
  5
397
100
AcDbEntity
  8
L1_120
  6
CONTINUOUS
 62
         4
100
AcDbLine
 10
1352.0451173807
 20
-345.2479891225
 30
-60.8765355176
 11
1362.588032459
 21
-334.865244614
 31
-59.045777527
  0
LINE
  5
398
100
AcDbEntity
  8
L1_120
  6
CONTINUOUS
 62
         4
100
AcDbLine
 10
1376.588032459
 20
-321.0779360719
 30
-56.6147030397
 11
1391.5990955901
 21
-306.2949247194
 31
-54.0080592821
  0
LINE
  5
399
100
AcDbEntity
  8
L1_120
  6
CONTINUOUS
 62
         4
100
AcDbLine
 10
1393.9685452322
 20
-303.9614723415
 30
-53.5966086697
 11
1401.363032459
 21
-296.679323991
 31
-52.312569438
  0
LINE
  5
39A
100
AcDbEntity
  8
L1_120
  6
CONTINUOUS
 62
         4
100
AcDbLine
 10
1348.3424491447
 20
-344.7162200663
 30
-60.7827702855
 11
1358.3453917719
 21
-334.865244614
 31
-59.045777527
  0
LINE
  5
39B
100
AcDbEntity
  8
L1_120
  6
CONTINUOUS
 62
         4
100
AcDbLine
 10
1372.3453917719
 20
-321.0779360719
 30
-56.6147030397
 11
1389.1037292353
 21
-304.5741954103
 31
-53.7046482784
  0
LINE
  5
39C
100
AcDbEntity
  8
L1_120
  6
CONTINUOUS
 62
         4
100
AcDbLine
 10
1391.4731788774
 20
-302.2407430324
 30
-53.293197666
 11
1393.7054927203
 21
-300.0423430527
 31
-52.9055604352
  0
LINE
  5
39D
100
AcDbEntity
  8
L1_120
  6
CONTINUOUS
 62
         4
100
AcDbLine
 10
1344.6397809086
 20
-344.18445101
 30
-60.6890050534
 11
1354.1027510848
 21
-334.865244614
 31
-59.045777527
  0
LINE
  5
39E
100
AcDbEntity
  8
L1_120
  6
CONTINUOUS
 62
         4
100
AcDbLine
 10
1368.1027510848
 20
-321.0779360719
 30
-56.6147030397
 11
1383.1872232723
 21
-306.2226309115
 31
-53.9953119332
  0
LINE
  5
39F
100
AcDbEntity
  8
L1_120
  6
CONTINUOUS
 62
         4
100
AcDbLine
 10
1389.2650185398
 20
-300.2371710109
 30
-52.9399138608
 11
1392.140325195
 21
-297.4055467245
 31
-52.4406220999
  0
LINE
  5
3A0
100
AcDbEntity
  8
L1_120
  6
CONTINUOUS
 62
         4
100
AcDbLine
 10
1340.9371126726
 20
-343.6526819538
 30
-60.5952398213
 11
1349.8601103977
 21
-334.865244614
 31
-59.045777527
  0
LINE
  5
3A1
100
AcDbEntity
  8
L1_120
  6
CONTINUOUS
 62
         4
100
AcDbLine
 10
1363.8601103977
 20
-321.0779360719
 30
-56.6147030397
 11
1378.2202292971
 21
-306.9359796455
 31
-54.1210945617
  0
LINE
  5
3A2
100
AcDbEntity
  8
L1_120
  6
CONTINUOUS
 62
         4
100
AcDbLine
 10
1387.3508425579
 20
-297.9440809166
 30
-52.535580208
 11
1388.6351103977
 21
-296.679323991
 31
-52.312569438
  0
LINE
  5
3A3
100
AcDbEntity
  8
L1_120
  6
CONTINUOUS
 62
         4
100
AcDbLine
 10
1337.2344444366
 20
-343.1209128976
 30
-60.5014745892
 11
1345.6174697105
 21
-334.865244614
 31
-59.045777527
  0
LINE
  5
3A4
100
AcDbEntity
  8
L1_120
  6
CONTINUOUS
 62
         4
100
AcDbLine
 10
1359.6174697105
 20
-321.0779360719
 30
-56.6147030397
 11
1373.253235322
 21
-307.6493283795
 31
-54.2468771901
  0
LINE
  5
3A5
100
AcDbEntity
  8
L1_120
  6
CONTINUOUS
 62
         4
100
AcDbLine
 10
1333.5317762005
 20
-342.5891438413
 30
-60.407709357
 11
1341.3748290234
 21
-334.865244614
 31
-59.045777527
  0
LINE
  5
3A6
100
AcDbEntity
  8
L1_120
  6
CONTINUOUS
 62
         4
100
AcDbLine
 10
1355.3748290234
 20
-321.0779360719
 30
-56.6147030397
 11
1368.2862413468
 21
-308.3626771135
 31
-54.3726598186
  0
LINE
  5
3A7
100
AcDbEntity
  8
L1_120
  6
CONTINUOUS
 62
         4
100
AcDbLine
 10
1329.8291079645
 20
-342.0573747851
 30
-60.3139441249
 11
1337.1321883363
 21
-334.865244614
 31
-59.045777527
  0
LINE
  5
3A8
100
AcDbEntity
  8
L1_120
  6
CONTINUOUS
 62
         4
100
AcDbLine
 10
1351.1321883363
 20
-321.0779360719
 30
-56.6147030397
 11
1363.3192473717
 21
-309.0760258475
 31
-54.4984424471
  0
LINE
  5
3A9
100
AcDbEntity
  8
L1_120
  6
CONTINUOUS
 62
         4
100
AcDbLine
 10
1326.1264397285
 20
-341.5256057288
 30
-60.2201788928
 11
1332.8895476492
 21
-334.865244614
 31
-59.045777527
  0
LINE
  5
3AA
100
AcDbEntity
  8
L1_120
  6
CONTINUOUS
 62
         4
100
AcDbLine
 10
1346.8895476492
 20
-321.0779360719
 30
-56.6147030397
 11
1358.3522533965
 21
-309.7893745814
 31
-54.6242250755
  0
LINE
  5
3AB
100
AcDbEntity
  8
L1_120
  6
CONTINUOUS
 62
         4
100
AcDbLine
 10
1322.4237714924
 20
-340.9938366726
 30
-60.1264136607
 11
1328.6469069621
 21
-334.865244614
 31
-59.045777527
  0
LINE
  5
3AC
100
AcDbEntity
  8
L1_120
  6
CONTINUOUS
 62
         4
100
AcDbLine
 10
1342.6469069621
 20
-321.0779360719
 30
-56.6147030397
 11
1353.3852594213
 21
-310.5027233154
 31
-54.750007704
  0
LINE
  5
3AD
100
AcDbEntity
  8
L1_120
  6
CONTINUOUS
 62
         4
100
AcDbLine
 10
1318.7211032564
 20
-340.4620676163
 30
-60.0326484285
 11
1324.4042662749
 21
-334.865244614
 31
-59.045777527
  0
LINE
  5
3AE
100
AcDbEntity
  8
L1_120
  6
CONTINUOUS
 62
         4
100
AcDbLine
 10
1338.4042662749
 20
-321.0779360719
 30
-56.6147030397
 11
1348.4182654462
 21
-311.2160720494
 31
-54.8757903324
  0
LINE
  5
3AF
100
AcDbEntity
  8
L1_120
  6
CONTINUOUS
 62
         4
100
AcDbLine
 10
1315.9011310772
 20
-339.0610126398
 30
-59.7856046347
 11
1319.0116255878
 21
-335.99777353
 31
-59.2454729313
  0
LINE
  5
3B0
100
AcDbEntity
  8
L1_120
  6
CONTINUOUS
 62
         4
100
AcDbLine
 10
1334.1616255878
 20
-321.0779360719
 30
-56.6147030397
 11
1343.451271471
 21
-311.9294207834
 31
-55.0015729609
  0
LINE
  5
3B1
100
AcDbEntity
  8
L1_120
  6
CONTINUOUS
 62
         4
100
AcDbLine
 10
1329.9189849007
 20
-321.0779360719
 30
-56.6147030397
 11
1338.4842774958
 21
-312.6427695174
 31
-55.1273555893
  0
LINE
  5
3B2
100
AcDbEntity
  8
L1_120
  6
CONTINUOUS
 62
         4
100
AcDbLine
 10
1325.6763442136
 20
-321.0779360719
 30
-56.6147030397
 11
1333.5172835207
 21
-313.3561182514
 31
-55.2531382178
  0
LINE
  5
3B3
100
AcDbEntity
  8
L1_120
  6
CONTINUOUS
 62
         4
100
AcDbLine
 10
1321.6186943984
 20
-320.895755627
 30
-56.5825797119
 11
1328.5502895455
 21
-314.0694669854
 31
-55.3789208462
  0
LINE
  5
3B4
100
AcDbEntity
  8
L1_120
  6
CONTINUOUS
 62
         4
100
AcDbLine
 10
1318.3410628393
 20
-319.9454071559
 30
-56.4150076353
 11
1323.5832955703
 21
-314.7828157193
 31
-55.5047034747
  0
LINE
  5
3B5
100
AcDbEntity
  8
L1_120
  6
CONTINUOUS
 62
         4
100
AcDbLine
 10
1315.9008425579
 20
-318.1703695663
 30
-56.1020206165
 11
1318.6163015952
 21
-315.4961644533
 31
-55.6304861032
  0
ENDBLK
  5
3B6
100
AcDbEntity
  8
0
  6
CONTINUOUS
100
AcDbBlockEnd
  0
ENDSEC
  0
SECTION
  2
ENTITIES
  0
LINE
  5
25
100
AcDbEntity
  8
L1_120
  6
CENTER
 62
         1
100
AcDbLine
 10
1193.76139216
 20
-225.0406455357
 30
0.0
 11
1269.969672421
 21
-225.0406455357
 31
0.0
  0
LINE
  5
26
100
AcDbEntity
  8
L1_120
  6
CENTER
 62
         1
100
AcDbLine
 10
1231.0721451996
 20
-193.4435500851
 30
0.0
 11
1231.0721451996
 21
-256.9935500851
 31
0.0
  0
LINE
  5
27
100
AcDbEntity
  8
L1_120
  6
DASHED
 62
         2
100
AcDbLine
 10
1229.0721451996
 20
-179.6406455357
 30
0.0
 11
1231.0721451996
 21
-180.795346074
 31
0.0
  0
LINE
  5
28
100
AcDbEntity
  8
L1_120
  6
CENTER
 62
         1
100
AcDbLine
 10
1312.0684106267
 20
-338.1686220058
 30
0.0
 11
1434.9508425579
 21
-338.1686220058
 31
0.0
  0
LINE
  5
29
100
AcDbEntity
  8
L1_120
  6
CONTINUOUS
 62
         7
100
AcDbLine
 10
1315.9008425579
 20
-213.0420517268
 30
0.0
 11
1315.9008425579
 21
-235.5104151597
 31
0.0
  0
LINE
  5
2A
100
AcDbEntity
  8
L1_120
  6
CONTINUOUS
 62
         7
100
AcDbLine
 10
1316.9276742862
 20
-211.8546121495
 30
0.0
 11
1385.3508425579
 21
-201.8762334432
 31
0.0
  0
LINE
  5
2B
100
AcDbEntity
  8
L1_120
  6
CONTINUOUS
 62
         7
100
AcDbLine
 10
1316.9276742862
 20
-236.6978547369
 30
0.0
 11
1385.3508425579
 21
-246.6762334432
 31
0.0
  0
LINE
  5
2C
100
AcDbEntity
  8
L1_120
  6
CONTINUOUS
 62
         4
100
AcDbLine
 10
1343.5016874219
 20
-247.395472328
 30
0.0
 11
1343.8974082645
 21
-247.395472328
 31
0.0
  0
LINE
  5
2D
100
AcDbEntity
  8
L1_120
  6
CONTINUOUS
 62
         7
100
AcDbLine
 10
1315.9008425579
 20
-213.0420517268
 30
0.0
 11
1315.9008425579
 21
-235.5104151597
 31
0.0
  0
ARC
  5
2E
100
AcDbEntity
  8
L1_120
  6
CONTINUOUS
 62
         7
100
AcDbCircle
 10
1317.1008425579
 20
-213.0420517268
 30
0.0
 40
1.2
100
AcDbArc
 50
98.2971449698
 51
180.0
  0
ARC
  5
2F
100
AcDbEntity
  8
L1_120
  6
CONTINUOUS
 62
         7
100
AcDbCircle
 10
1317.1008425579
 20
-235.5104151597
 30
0.0
 40
1.2
100
AcDbArc
 50
180.0
 51
261.7028550302
  0
LINE
  5
30
100
AcDbEntity
  8
L1_120
  6
CONTINUOUS
 62
         7
100
AcDbLine
 10
1344.3508425579
 20
-330.1686220058
 30
0.0
 11
1344.3508425579
 21
-346.1686220058
 31
0.0
  0
LINE
  5
31
100
AcDbEntity
  8
L1_120
  6
CONTINUOUS
 62
         5
100
AcDbLine
 10
1320.8036852703
 20
-346.1686220058
 30
0.0
 11
1344.3508425579
 21
-346.1686220058
 31
0.0
  0
ARC
  5
32
100
AcDbEntity
  8
L1_120
  6
CONTINUOUS
 62
         7
100
AcDbCircle
 10
1316.9008425579
 20
-347.3186220058
 30
0.0
 40
1.0
100
AcDbArc
 50
90.0
 51
180.0
  0
LINE
  5
33
100
AcDbEntity
  8
L1_120
  6
CONTINUOUS
 62
         7
100
AcDbLine
 10
1316.9008425579
 20
-346.3186220058
 30
0.0
 11
1319.6708425579
 21
-346.3186220058
 31
0.0
  0
LINE
  5
34
100
AcDbEntity
  8
L1_120
  6
CONTINUOUS
 62
         7
100
AcDbLine
 10
1320.0186143291
 20
-346.411807171
 30
0.0
 11
1319.6708425579
 21
-346.3186220058
 31
0.0
  0
LINE
  5
35
100
AcDbEntity
  8
L1_120
  6
CONTINUOUS
 62
         7
100
AcDbLine
 10
1320.0703781381
 20
-346.4186220058
 30
0.0
 11
1320.4708425579
 21
-346.4186220058
 31
0.0
  0
ARC
  5
36
100
AcDbEntity
  8
L1_120
  6
CONTINUOUS
 62
         7
100
AcDbCircle
 10
1320.4708425579
 20
-346.2186220058
 30
0.0
 40
0.2
100
AcDbArc
 50
270.0
 51
314.9999999962
  0
LINE
  5
37
100
AcDbEntity
  8
L1_120
  6
CONTINUOUS
 62
         7
100
AcDbLine
 10
1320.6122639141
 20
-346.360043362
 30
0.0
 11
1321.8036852703
 21
-345.1686220058
 31
0.0
  0
LINE
  5
38
100
AcDbEntity
  8
L1_120
  6
CONTINUOUS
 62
         7
100
AcDbLine
 10
1321.8036852703
 20
-331.1686220058
 30
0.0
 11
1321.8036852703
 21
-345.1686220058
 31
0.0
  0
LINE
  5
39
100
AcDbEntity
  8
L1_120
  6
CONTINUOUS
 62
         5
100
AcDbLine
 10
1320.8036852703
 20
-330.1686220058
 30
0.0
 11
1344.3508425579
 21
-330.1686220058
 31
0.0
  0
LINE
  5
3A
100
AcDbEntity
  8
L1_120
  6
CONTINUOUS
 62
         7
100
AcDbLine
 10
1319.6708425579
 20
-330.0186220058
 30
0.0
 11
1319.6708425579
 21
-346.3186220058
 31
0.0
  0
LINE
  5
3B
100
AcDbEntity
  8
L1_120
  6
CONTINUOUS
 62
         7
100
AcDbLine
 10
1320.6708425579
 20
-330.3750991651
 30
0.0
 11
1320.6708425579
 21
-345.8473753413
 31
0.0
  0
ARC
  5
3C
100
AcDbEntity
  8
L1_120
  6
CONTINUOUS
 62
         7
100
AcDbCircle
 10
1320.4708425579
 20
-330.1186220058
 30
0.0
 40
0.2
100
AcDbArc
 50
45.0000000038
 51
90.0
  0
LINE
  5
3D
100
AcDbEntity
  8
L1_120
  6
CONTINUOUS
 62
         7
100
AcDbLine
 10
1320.6122639141
 20
-329.9772006495
 30
0.0
 11
1321.8036852703
 21
-331.1686220058
 31
0.0
  0
LINE
  5
3E
100
AcDbEntity
  8
L1_120
  6
CONTINUOUS
 62
         7
100
AcDbLine
 10
1320.0703781381
 20
-329.9186220058
 30
0.0
 11
1320.4708425579
 21
-329.9186220058
 31
0.0
  0
LINE
  5
3F
100
AcDbEntity
  8
L1_120
  6
CONTINUOUS
 62
         7
100
AcDbLine
 10
1320.0186143291
 20
-329.9254368405
 30
0.0
 11
1319.6708425579
 21
-330.0186220058
 31
0.0
  0
ARC
  5
40
100
AcDbEntity
  8
L1_120
  6
CONTINUOUS
 62
         7
100
AcDbCircle
 10
1320.0703781381
 20
-330.1186220058
 30
0.0
 40
0.2
100
AcDbArc
 50
90.0
 51
105.0
  0
LINE
  5
41
100
AcDbEntity
  8
L1_120
  6
CONTINUOUS
 62
         7
100
AcDbLine
 10
1316.9008425579
 20
-330.0186220058
 30
0.0
 11
1319.6708425579
 21
-330.0186220058
 31
0.0
  0
ARC
  5
42
100
AcDbEntity
  8
L1_120
  6
CONTINUOUS
 62
         7
100
AcDbCircle
 10
1316.9008425579
 20
-329.0186220058
 30
0.0
 40
1.0
100
AcDbArc
 50
180.0
 51
270.0
  0
LINE
  5
43
100
AcDbEntity
  8
L1_120
  6
CONTINUOUS
 62
         7
100
AcDbLine
 10
1208.2721451996
 20
-232.7685500851
 30
0.0
 11
1208.2721451996
 21
-217.6685500851
 31
0.0
  0
LINE
  5
44
100
AcDbEntity
  8
L1_120
  6
CONTINUOUS
 62
         7
100
AcDbLine
 10
1208.2721451996
 20
-232.7685500851
 30
0.0
 11
1207.7721451996
 21
-233.2685500851
 31
0.0
  0
LINE
  5
45
100
AcDbEntity
  8
L1_120
  6
CONTINUOUS
 62
         7
100
AcDbLine
 10
1207.7721451996
 20
-233.2685500851
 30
0.0
 11
1200.833763248
 21
-233.2685500851
 31
0.0
  0
LINE
  5
46
100
AcDbEntity
  8
L1_120
  6
CONTINUOUS
 62
         7
100
AcDbLine
 10
1200.4396779669
 20
-233.6626353663
 30
0.0
 11
1200.833763248
 21
-233.2685500851
 31
0.0
  0
LINE
  5
47
100
AcDbEntity
  8
L1_120
  6
CONTINUOUS
 62
         7
100
AcDbLine
 10
1207.7721451996
 20
-217.1685500851
 30
0.0
 11
1200.833763248
 21
-217.1685500851
 31
0.0
  0
LINE
  5
48
100
AcDbEntity
  8
L1_120
  6
CONTINUOUS
 62
         7
100
AcDbLine
 10
1208.2721451996
 20
-217.6685500851
 30
0.0
 11
1207.7721451996
 21
-217.1685500851
 31
0.0
  0
LINE
  5
49
100
AcDbEntity
  8
L1_120
  6
CONTINUOUS
 62
         7
100
AcDbLine
 10
1200.4396779669
 20
-216.7744648039
 30
0.0
 11
1200.833763248
 21
-217.1685500851
 31
0.0
  0
LINE
  5
4A
100
AcDbEntity
  8
L1_120
  6
CONTINUOUS
 62
         7
100
AcDbLine
 10
1261.3105271512
 20
-233.2685500851
 30
0.0
 11
1256.5721451996
 21
-233.2685500851
 31
0.0
  0
LINE
  5
4B
100
AcDbEntity
  8
L1_120
  6
CONTINUOUS
 62
         7
100
AcDbLine
 10
1256.0721451996
 20
-232.7685500851
 30
0.0
 11
1256.0721451996
 21
-217.6685500851
 31
0.0
  0
LINE
  5
4C
100
AcDbEntity
  8
L1_120
  6
CONTINUOUS
 62
         7
100
AcDbLine
 10
1256.0721451996
 20
-232.7685500851
 30
0.0
 11
1256.5721451996
 21
-233.2685500851
 31
0.0
  0
LINE
  5
4D
100
AcDbEntity
  8
L1_120
  6
CONTINUOUS
 62
         7
100
AcDbLine
 10
1261.7046124323
 20
-233.6626353663
 30
0.0
 11
1261.3105271512
 21
-233.2685500851
 31
0.0
  0
LINE
  5
4E
100
AcDbEntity
  8
L1_120
  6
CONTINUOUS
 62
         7
100
AcDbLine
 10
1256.0721451996
 20
-217.6685500851
 30
0.0
 11
1256.5721451996
 21
-217.1685500851
 31
0.0
  0
LINE
  5
4F
100
AcDbEntity
  8
L1_120
  6
CONTINUOUS
 62
         7
100
AcDbLine
 10
1261.7046124323
 20
-216.7744648039
 30
0.0
 11
1261.3105271512
 21
-217.1685500851
 31
0.0
  0
LINE
  5
50
100
AcDbEntity
  8
L1_120
  6
CONTINUOUS
 62
         7
100
AcDbLine
 10
1261.3105271512
 20
-217.1685500851
 30
0.0
 11
1256.5721451996
 21
-217.1685500851
 31
0.0
  0
CIRCLE
  5
51
100
AcDbEntity
  8
L1_120
  6
CONTINUOUS
 62
         7
100
AcDbCircle
 10
1231.0721451996
 20
-225.2185500851
 30
0.0
 40
22.225
  0
CIRCLE
  5
52
100
AcDbEntity
  8
L1_120
  6
CONTINUOUS
 62
         7
100
AcDbCircle
 10
1231.0721451996
 20
-225.2185500851
 30
0.0
 40
8.5
  0
CIRCLE
  5
53
100
AcDbEntity
  8
L1_120
  6
CONTINUOUS
 62
         7
100
AcDbCircle
 10
1231.0721451996
 20
-225.2185500851
 30
0.0
 40
9.5
  0
ARC
  5
54
100
AcDbEntity
  8
L1_120
  6
CONTINUOUS
 62
         5
100
AcDbCircle
 10
1231.0721451996
 20
-225.2185500851
 30
0.0
 40
8.0
100
AcDbArc
 50
352.9901372228
 51
621.2264515101
  0
CIRCLE
  5
55
100
AcDbEntity
  8
L1_120
  6
CONTINUOUS
 62
         7
100
AcDbCircle
 10
1231.0721451996
 20
-225.2185500851
 30
0.0
 40
7.0
  0
CIRCLE
  5
56
100
AcDbEntity
  8
L1_120
  6
CONTINUOUS
 62
         7
100
AcDbCircle
 10
1231.0721451996
 20
-225.2185500851
 30
0.0
 40
12.7165768873
  0
ARC
  5
57
100
AcDbEntity
  8
L1_120
  6
CONTINUOUS
 62
         7
100
AcDbCircle
 10
1231.0721451996
 20
-225.2185500851
 30
0.0
 40
31.775
100
AcDbArc
 50
15.411296411
 51
164.588703589
  0
ARC
  5
58
100
AcDbEntity
  8
L1_120
  6
CONTINUOUS
 62
         7
100
AcDbCircle
 10
1231.0721451996
 20
-225.2185500851
 30
0.0
 40
31.775
100
AcDbArc
 50
195.411296411
 51
344.588703589
  0
LINE
  5
59
100
AcDbEntity
  8
L1_120
  6
CENTER
 62
         1
100
AcDbLine
 10
1224.6566791922
 20
-251.6163112763
 30
0.0
 11
1219.0185234674
 21
-249.5641904163
 31
0.0
  0
POLYLINE
  5
5B
100
AcDbEntity
  8
L1_120
  6
CONTINUOUS
 62
         7
100
AcDb3dPolyline
 66
         1
 10
0.0
 20
0.0
 30
0.0
 70
         8
  0
VERTEX
  5
5D
100
AcDbEntity
  8
L1_120
  6
CONTINUOUS
 62
         7
100
AcDbVertex
100
AcDb3dPolylineVertex
 10
1219.9582160882
 20
-249.9062105597
 30
0.0
 70
        32
  0
VERTEX
  5
5F
100
AcDbEntity
  8
L1_120
  6
CONTINUOUS
 62
         7
100
AcDbVertex
100
AcDb3dPolylineVertex
 10
1219.9582160882
 20
-249.9062105597
 30
0.0
 70
        32
  0
SEQEND
  5
61
100
AcDbEntity
  8
L1_120
  6
CONTINUOUS
 62
         7
  0
ARC
  5
62
100
AcDbEntity
  8
L1_120
  6
CONTINUOUS
 62
         7
100
AcDbCircle
 10
1222.7511951417
 20
-250.9227718001
 30
0.0
 40
2.9722262277
100
AcDbArc
 50
141.257725858
 51
160.0
  0
POLYLINE
  5
64
100
AcDbEntity
  8
L1_120
  6
CONTINUOUS
 62
         7
100
AcDb3dPolyline
 66
         1
 10
0.0
 20
0.0
 30
0.0
 70
         8
  0
VERTEX
  5
66
100
AcDbEntity
  8
L1_120
  6
CONTINUOUS
 62
         7
100
AcDbVertex
100
AcDb3dPolylineVertex
 10
1220.43295119
 20
-249.0626982184
 30
0.0
 70
        32
  0
VERTEX
  5
68
100
AcDbEntity
  8
L1_120
  6
CONTINUOUS
 62
         7
100
AcDbVertex
100
AcDb3dPolylineVertex
 10
1220.43295119
 20
-249.0626982184
 30
0.0
 70
        32
  0
SEQEND
  5
6A
100
AcDbEntity
  8
L1_120
  6
CONTINUOUS
 62
         7
  0
ARC
  5
6B
100
AcDbEntity
  8
L1_120
  6
CONTINUOUS
 62
         7
100
AcDbCircle
 10
1222.3591177863
 20
-250.6081833676
 30
0.0
 40
2.4695428935
100
AcDbArc
 50
120.6773100904
 51
141.257725858
  0
POLYLINE
  5
6D
100
AcDbEntity
  8
L1_120
  6
CONTINUOUS
 62
         7
100
AcDb3dPolyline
 66
         1
 10
0.0
 20
0.0
 30
0.0
 70
         8
  0
VERTEX
  5
6F
100
AcDbEntity
  8
L1_120
  6
CONTINUOUS
 62
         7
100
AcDbVertex
100
AcDb3dPolylineVertex
 10
1221.0991511624
 20
-248.4842421703
 30
0.0
 70
        32
  0
VERTEX
  5
71
100
AcDbEntity
  8
L1_120
  6
CONTINUOUS
 62
         7
100
AcDbVertex
100
AcDb3dPolylineVertex
 10
1221.0991511624
 20
-248.4842421703
 30
0.0
 70
        32
  0
SEQEND
  5
73
100
AcDbEntity
  8
L1_120
  6
CONTINUOUS
 62
         7
  0
ARC
  5
74
100
AcDbEntity
  8
L1_120
  6
CONTINUOUS
 62
         7
100
AcDbCircle
 10
1222.1593792552
 20
-250.271481675
 30
0.0
 40
2.0780540551
100
AcDbArc
 50
96.8239621528
 51
120.6773100904
  0
ARC
  5
75
100
AcDbEntity
  8
L1_120
  6
CONTINUOUS
 62
         7
100
AcDbCircle
 10
1222.1084689265
 20
-249.8460482408
 30
0.0
 40
1.6495853065
100
AcDbArc
 50
70.0
 51
96.8239621528
  0
POLYLINE
  5
77
100
AcDbEntity
  8
L1_120
  6
CONTINUOUS
 62
         7
100
AcDb3dPolyline
 66
         1
 10
0.0
 20
0.0
 30
0.0
 70
         8
  0
VERTEX
  5
79
100
AcDbEntity
  8
L1_120
  6
CONTINUOUS
 62
         7
100
AcDbVertex
100
AcDb3dPolylineVertex
 10
1222.6726603294
 20
-248.2959451009
 30
0.0
 70
        32
  0
VERTEX
  5
7B
100
AcDbEntity
  8
L1_120
  6
CONTINUOUS
 62
         7
100
AcDbVertex
100
AcDb3dPolylineVertex
 10
1222.6726603294
 20
-248.2959451009
 30
0.0
 70
        32
  0
SEQEND
  5
7D
100
AcDbEntity
  8
L1_120
  6
CONTINUOUS
 62
         7
  0
ARC
  5
7E
100
AcDbEntity
  8
L1_120
  6
CONTINUOUS
 62
         7
100
AcDbCircle
 10
1222.1084689265
 20
-249.8460482408
 30
0.0
 40
1.6495853065
100
AcDbArc
 50
43.1760378472
 51
70.0
  0
POLYLINE
  5
80
100
AcDbEntity
  8
L1_120
  6
CONTINUOUS
 62
         7
100
AcDb3dPolyline
 66
         1
 10
0.0
 20
0.0
 30
0.0
 70
         8
  0
VERTEX
  5
82
100
AcDbEntity
  8
L1_120
  6
CONTINUOUS
 62
         7
100
AcDbVertex
100
AcDb3dPolylineVertex
 10
1223.3114370182
 20
-248.717332398
 30
0.0
 70
        32
  0
VERTEX
  5
84
100
AcDbEntity
  8
L1_120
  6
CONTINUOUS
 62
         7
100
AcDbVertex
100
AcDb3dPolylineVertex
 10
1223.3114370182
 20
-248.717332398
 30
0.0
 70
        32
  0
SEQEND
  5
86
100
AcDbEntity
  8
L1_120
  6
CONTINUOUS
 62
         7
  0
POLYLINE
  5
88
100
AcDbEntity
  8
L1_120
  6
CONTINUOUS
 62
         7
100
AcDb3dPolyline
 66
         1
 10
0.0
 20
0.0
 30
0.0
 70
         8
  0
VERTEX
  5
8A
100
AcDbEntity
  8
L1_120
  6
CONTINUOUS
 62
         7
100
AcDbVertex
100
AcDb3dPolylineVertex
 10
1223.8955176663
 20
-250.32296935
 30
0.0
 70
        32
  0
VERTEX
  5
8C
100
AcDbEntity
  8
L1_120
  6
CONTINUOUS
 62
         7
100
AcDbVertex
100
AcDb3dPolylineVertex
 10
1223.8955176663
 20
-250.32296935
 30
0.0
 70
        32
  0
SEQEND
  5
8E
100
AcDbEntity
  8
L1_120
  6
CONTINUOUS
 62
         7
  0
ARC
  5
8F
100
AcDbEntity
  8
L1_120
  6
CONTINUOUS
 62
         7
100
AcDbCircle
 10
1220.9240075179
 20
-250.2577298926
 30
0.0
 40
2.9722262277
100
AcDbArc
 50
339.9999999999
 51
358.742274142
  0
POLYLINE
  5
91
100
AcDbEntity
  8
L1_120
  6
CONTINUOUS
 62
         7
100
AcDb3dPolyline
 66
         1
 10
0.0
 20
0.0
 30
0.0
 70
         8
  0
VERTEX
  5
93
100
AcDbEntity
  8
L1_120
  6
CONTINUOUS
 62
         7
100
AcDbVertex
100
AcDb3dPolylineVertex
 10
1223.7169865714
 20
-251.274291133
 30
0.0
 70
        32
  0
VERTEX
  5
95
100
AcDbEntity
  8
L1_120
  6
CONTINUOUS
 62
         7
100
AcDbVertex
100
AcDb3dPolylineVertex
 10
1223.7169865714
 20
-251.274291133
 30
0.0
 70
        32
  0
SEQEND
  5
97
100
AcDbEntity
  8
L1_120
  6
CONTINUOUS
 62
         7
  0
ARC
  5
98
100
AcDbEntity
  8
L1_120
  6
CONTINUOUS
 62
         7
100
AcDbCircle
 10
1220.9240075179
 20
-250.2577298926
 30
0.0
 40
2.9722262277
100
AcDbArc
 50
321.257725858
 51
340.0
  0
POLYLINE
  5
9A
100
AcDbEntity
  8
L1_120
  6
CONTINUOUS
 62
         7
100
AcDb3dPolyline
 66
         1
 10
0.0
 20
0.0
 30
0.0
 70
         8
  0
VERTEX
  5
9C
100
AcDbEntity
  8
L1_120
  6
CONTINUOUS
 62
         7
100
AcDbVertex
100
AcDb3dPolylineVertex
 10
1223.2422514696
 20
-252.1178034742
 30
0.0
 70
        32
  0
VERTEX
  5
9E
100
AcDbEntity
  8
L1_120
  6
CONTINUOUS
 62
         7
100
AcDbVertex
100
AcDb3dPolylineVertex
 10
1223.2422514696
 20
-252.1178034742
 30
0.0
 70
        32
  0
SEQEND
  5
A0
100
AcDbEntity
  8
L1_120
  6
CONTINUOUS
 62
         7
  0
ARC
  5
A1
100
AcDbEntity
  8
L1_120
  6
CONTINUOUS
 62
         7
100
AcDbCircle
 10
1221.3160848733
 20
-250.572318325
 30
0.0
 40
2.4695428935
100
AcDbArc
 50
300.6773100904
 51
321.2577258581
  0
POLYLINE
  5
A3
100
AcDbEntity
  8
L1_120
  6
CONTINUOUS
 62
         7
100
AcDb3dPolyline
 66
         1
 10
0.0
 20
0.0
 30
0.0
 70
         8
  0
VERTEX
  5
A5
100
AcDbEntity
  8
L1_120
  6
CONTINUOUS
 62
         7
100
AcDbVertex
100
AcDb3dPolylineVertex
 10
1222.5760514972
 20
-252.6962595223
 30
0.0
 70
        32
  0
VERTEX
  5
A7
100
AcDbEntity
  8
L1_120
  6
CONTINUOUS
 62
         7
100
AcDbVertex
100
AcDb3dPolylineVertex
 10
1222.5760514972
 20
-252.6962595223
 30
0.0
 70
        32
  0
SEQEND
  5
A9
100
AcDbEntity
  8
L1_120
  6
CONTINUOUS
 62
         7
  0
ARC
  5
AA
100
AcDbEntity
  8
L1_120
  6
CONTINUOUS
 62
         7
100
AcDbCircle
 10
1221.5158234044
 20
-250.9090200176
 30
0.0
 40
2.0780540551
100
AcDbArc
 50
276.8239621528
 51
300.6773100903
  0
POLYLINE
  5
AC
100
AcDbEntity
  8
L1_120
  6
CONTINUOUS
 62
         7
100
AcDb3dPolyline
 66
         1
 10
0.0
 20
0.0
 30
0.0
 70
         8
  0
VERTEX
  5
AE
100
AcDbEntity
  8
L1_120
  6
CONTINUOUS
 62
         7
100
AcDbVertex
100
AcDb3dPolylineVertex
 10
1221.7627361964
 20
-252.9723529353
 30
0.0
 70
        32
  0
VERTEX
  5
B0
100
AcDbEntity
  8
L1_120
  6
CONTINUOUS
 62
         7
100
AcDbVertex
100
AcDb3dPolylineVertex
 10
1221.7627361964
 20
-252.9723529353
 30
0.0
 70
        32
  0
SEQEND
  5
B2
100
AcDbEntity
  8
L1_120
  6
CONTINUOUS
 62
         7
  0
ARC
  5
B3
100
AcDbEntity
  8
L1_120
  6
CONTINUOUS
 62
         7
100
AcDbCircle
 10
1221.5667337331
 20
-251.3344534519
 30
0.0
 40
1.6495853065
100
AcDbArc
 50
250.0
 51
276.8239621528
  0
POLYLINE
  5
B5
100
AcDbEntity
  8
L1_120
  6
CONTINUOUS
 62
         7
100
AcDb3dPolyline
 66
         1
 10
0.0
 20
0.0
 30
0.0
 70
         8
  0
VERTEX
  5
B7
100
AcDbEntity
  8
L1_120
  6
CONTINUOUS
 62
         7
100
AcDbVertex
100
AcDb3dPolylineVertex
 10
1221.0025423302
 20
-252.8845565917
 30
0.0
 70
        32
  0
VERTEX
  5
B9
100
AcDbEntity
  8
L1_120
  6
CONTINUOUS
 62
         7
100
AcDbVertex
100
AcDb3dPolylineVertex
 10
1221.0025423302
 20
-252.8845565917
 30
0.0
 70
        32
  0
SEQEND
  5
BB
100
AcDbEntity
  8
L1_120
  6
CONTINUOUS
 62
         7
  0
ARC
  5
BC
100
AcDbEntity
  8
L1_120
  6
CONTINUOUS
 62
         7
100
AcDbCircle
 10
1221.5667337331
 20
-251.3344534519
 30
0.0
 40
1.6495853065
100
AcDbArc
 50
223.1760378472
 51
250.0
  0
POLYLINE
  5
BE
100
AcDbEntity
  8
L1_120
  6
CONTINUOUS
 62
         7
100
AcDb3dPolyline
 66
         1
 10
0.0
 20
0.0
 30
0.0
 70
         8
  0
VERTEX
  5
C0
100
AcDbEntity
  8
L1_120
  6
CONTINUOUS
 62
         7
100
AcDbVertex
100
AcDb3dPolylineVertex
 10
1220.3637656414
 20
-252.4631692947
 30
0.0
 70
        32
  0
VERTEX
  5
C2
100
AcDbEntity
  8
L1_120
  6
CONTINUOUS
 62
         7
100
AcDbVertex
100
AcDb3dPolylineVertex
 10
1220.3637656414
 20
-252.4631692947
 30
0.0
 70
        32
  0
SEQEND
  5
C4
100
AcDbEntity
  8
L1_120
  6
CONTINUOUS
 62
         7
  0
ARC
  5
C5
100
AcDbEntity
  8
L1_120
  6
CONTINUOUS
 62
         7
100
AcDbCircle
 10
1221.8791966478
 20
-251.0412770621
 30
0.0
 40
2.0780540551
100
AcDbArc
 50
199.3226899096
 51
223.1760378473
  0
ARC
  5
C6
100
AcDbEntity
  8
L1_120
  6
CONTINUOUS
 62
         7
100
AcDbCircle
 10
1222.2486329158
 20
-250.9117380545
 30
0.0
 40
2.4695428935
100
AcDbArc
 50
178.742274142
 51
199.3226899096
  0
ARC
  5
C7
100
AcDbEntity
  8
L1_120
  6
CONTINUOUS
 62
         7
100
AcDbCircle
 10
1222.7511951417
 20
-250.9227718001
 30
0.0
 40
2.9722262277
100
AcDbArc
 50
160.0
 51
178.742274142
  0
ARC
  5
C8
100
AcDbEntity
  8
L1_120
  6
CONTINUOUS
 62
         7
100
AcDbCircle
 10
1221.4265697438
 20
-250.2687636381
 30
0.0
 40
2.4695428935
100
AcDbArc
 50
358.742274142
 51
379.3226899097
  0
ARC
  5
C9
100
AcDbEntity
  8
L1_120
  6
CONTINUOUS
 62
         7
100
AcDbCircle
 10
1221.7960060118
 20
-250.1392246305
 30
0.0
 40
2.0780540551
100
AcDbArc
 50
19.3226899096
 51
43.1760378472
  0
POLYLINE
  5
CB
100
AcDbEntity
  8
L1_120
  6
CONTINUOUS
 62
         7
100
AcDb3dPolyline
 66
         1
 10
0.0
 20
0.0
 30
0.0
 70
         8
  0
VERTEX
  5
CD
100
AcDbEntity
  8
L1_120
  6
CONTINUOUS
 62
         7
100
AcDbVertex
100
AcDb3dPolylineVertex
 10
1238.4273038278
 20
-199.1628090372
 30
0.0
 70
        32
  0
VERTEX
  5
CF
100
AcDbEntity
  8
L1_120
  6
CONTINUOUS
 62
         7
100
AcDbVertex
100
AcDb3dPolylineVertex
 10
1238.4273038278
 20
-199.1628090372
 30
0.0
 70
        32
  0
SEQEND
  5
D1
100
AcDbEntity
  8
L1_120
  6
CONTINUOUS
 62
         7
  0
ARC
  5
D2
100
AcDbEntity
  8
L1_120
  6
CONTINUOUS
 62
         7
100
AcDbCircle
 10
1241.2202828813
 20
-200.1793702776
 30
0.0
 40
2.9722262277
100
AcDbArc
 50
160.0
 51
178.7422741421
  0
POLYLINE
  5
D4
100
AcDbEntity
  8
L1_120
  6
CONTINUOUS
 62
         7
100
AcDb3dPolyline
 66
         1
 10
0.0
 20
0.0
 30
0.0
 70
         8
  0
VERTEX
  5
D6
100
AcDbEntity
  8
L1_120
  6
CONTINUOUS
 62
         7
100
AcDbVertex
100
AcDb3dPolylineVertex
 10
1238.2487727329
 20
-200.1141308202
 30
0.0
 70
        32
  0
VERTEX
  5
D8
100
AcDbEntity
  8
L1_120
  6
CONTINUOUS
 62
         7
100
AcDbVertex
100
AcDb3dPolylineVertex
 10
1238.2487727329
 20
-200.1141308202
 30
0.0
 70
        32
  0
SEQEND
  5
DA
100
AcDbEntity
  8
L1_120
  6
CONTINUOUS
 62
         7
  0
ARC
  5
DB
100
AcDbEntity
  8
L1_120
  6
CONTINUOUS
 62
         7
100
AcDbCircle
 10
1240.7177206553
 20
-200.1683365321
 30
0.0
 40
2.4695428935
100
AcDbArc
 50
178.7422741421
 51
199.3226899097
  0
POLYLINE
  5
DD
100
AcDbEntity
  8
L1_120
  6
CONTINUOUS
 62
         7
100
AcDb3dPolyline
 66
         1
 10
0.0
 20
0.0
 30
0.0
 70
         8
  0
VERTEX
  5
DF
100
AcDbEntity
  8
L1_120
  6
CONTINUOUS
 62
         7
100
AcDbVertex
100
AcDb3dPolylineVertex
 10
1238.3872871393
 20
-200.9854789493
 30
0.0
 70
        32
  0
VERTEX
  5
E1
100
AcDbEntity
  8
L1_120
  6
CONTINUOUS
 62
         7
100
AcDbVertex
100
AcDb3dPolylineVertex
 10
1238.3872871393
 20
-200.9854789493
 30
0.0
 70
        32
  0
SEQEND
  5
E3
100
AcDbEntity
  8
L1_120
  6
CONTINUOUS
 62
         7
  0
ARC
  5
E4
100
AcDbEntity
  8
L1_120
  6
CONTINUOUS
 62
         7
100
AcDbCircle
 10
1240.3482843874
 20
-200.2978755397
 30
0.0
 40
2.0780540551
100
AcDbArc
 50
199.3226899097
 51
223.1760378473
  0
POLYLINE
  5
E6
100
AcDbEntity
  8
L1_120
  6
CONTINUOUS
 62
         7
100
AcDb3dPolyline
 66
         1
 10
0.0
 20
0.0
 30
0.0
 70
         8
  0
VERTEX
  5
E8
100
AcDbEntity
  8
L1_120
  6
CONTINUOUS
 62
         7
100
AcDbVertex
100
AcDb3dPolylineVertex
 10
1238.832853381
 20
-201.7197677722
 30
0.0
 70
        32
  0
VERTEX
  5
EA
100
AcDbEntity
  8
L1_120
  6
CONTINUOUS
 62
         7
100
AcDbVertex
100
AcDb3dPolylineVertex
 10
1238.832853381
 20
-201.7197677722
 30
0.0
 70
        32
  0
SEQEND
  5
EC
100
AcDbEntity
  8
L1_120
  6
CONTINUOUS
 62
         7
  0
ARC
  5
ED
100
AcDbEntity
  8
L1_120
  6
CONTINUOUS
 62
         7
100
AcDbCircle
 10
1240.0358214727
 20
-200.5910519294
 30
0.0
 40
1.6495853065
100
AcDbArc
 50
223.1760378472
 51
249.9999999999
  0
POLYLINE
  5
EF
100
AcDbEntity
  8
L1_120
  6
CONTINUOUS
 62
         7
100
AcDb3dPolyline
 66
         1
 10
0.0
 20
0.0
 30
0.0
 70
         8
  0
VERTEX
  5
F1
100
AcDbEntity
  8
L1_120
  6
CONTINUOUS
 62
         7
100
AcDbVertex
100
AcDb3dPolylineVertex
 10
1239.4716300697
 20
-202.1411550693
 30
0.0
 70
        32
  0
VERTEX
  5
F3
100
AcDbEntity
  8
L1_120
  6
CONTINUOUS
 62
         7
100
AcDbVertex
100
AcDb3dPolylineVertex
 10
1239.4716300697
 20
-202.1411550693
 30
0.0
 70
        32
  0
SEQEND
  5
F5
100
AcDbEntity
  8
L1_120
  6
CONTINUOUS
 62
         7
  0
ARC
  5
F6
100
AcDbEntity
  8
L1_120
  6
CONTINUOUS
 62
         7
100
AcDbCircle
 10
1240.0358214727
 20
-200.5910519294
 30
0.0
 40
1.6495853065
100
AcDbArc
 50
250.0
 51
276.8239621528
  0
POLYLINE
  5
F8
100
AcDbEntity
  8
L1_120
  6
CONTINUOUS
 62
         7
100
AcDb3dPolyline
 66
         1
 10
0.0
 20
0.0
 30
0.0
 70
         8
  0
VERTEX
  5
FA
100
AcDbEntity
  8
L1_120
  6
CONTINUOUS
 62
         7
100
AcDbVertex
100
AcDb3dPolylineVertex
 10
1240.231823936
 20
-202.2289514128
 30
0.0
 70
        32
  0
VERTEX
  5
FC
100
AcDbEntity
  8
L1_120
  6
CONTINUOUS
 62
         7
100
AcDbVertex
100
AcDb3dPolylineVertex
 10
1240.231823936
 20
-202.2289514128
 30
0.0
 70
        32
  0
SEQEND
  5
FE
100
AcDbEntity
  8
L1_120
  6
CONTINUOUS
 62
         7
  0
ARC
  5
FF
100
AcDbEntity
  8
L1_120
  6
CONTINUOUS
 62
         7
100
AcDbCircle
 10
1239.984911144
 20
-200.1656184952
 30
0.0
 40
2.0780540551
100
AcDbArc
 50
276.8239621528
 51
300.6773100904
  0
POLYLINE
  5
101
100
AcDbEntity
  8
L1_120
  6
CONTINUOUS
 62
         7
100
AcDb3dPolyline
 66
         1
 10
0.0
 20
0.0
 30
0.0
 70
         8
  0
VERTEX
  5
103
100
AcDbEntity
  8
L1_120
  6
CONTINUOUS
 62
         7
100
AcDbVertex
100
AcDb3dPolylineVertex
 10
1241.0451392368
 20
-201.9528579999
 30
0.0
 70
        32
  0
VERTEX
  5
105
100
AcDbEntity
  8
L1_120
  6
CONTINUOUS
 62
         7
100
AcDbVertex
100
AcDb3dPolylineVertex
 10
1241.0451392368
 20
-201.9528579999
 30
0.0
 70
        32
  0
SEQEND
  5
107
100
AcDbEntity
  8
L1_120
  6
CONTINUOUS
 62
         7
  0
ARC
  5
108
100
AcDbEntity
  8
L1_120
  6
CONTINUOUS
 62
         7
100
AcDbCircle
 10
1239.7851726129
 20
-199.8289168026
 30
0.0
 40
2.4695428935
100
AcDbArc
 50
300.6773100903
 51
321.257725858
  0
POLYLINE
  5
10A
100
AcDbEntity
  8
L1_120
  6
CONTINUOUS
 62
         7
100
AcDb3dPolyline
 66
         1
 10
0.0
 20
0.0
 30
0.0
 70
         8
  0
VERTEX
  5
10C
100
AcDbEntity
  8
L1_120
  6
CONTINUOUS
 62
         7
100
AcDbVertex
100
AcDb3dPolylineVertex
 10
1241.7113392092
 20
-201.3744019518
 30
0.0
 70
        32
  0
VERTEX
  5
10E
100
AcDbEntity
  8
L1_120
  6
CONTINUOUS
 62
         7
100
AcDbVertex
100
AcDb3dPolylineVertex
 10
1241.7113392092
 20
-201.3744019518
 30
0.0
 70
        32
  0
SEQEND
  5
110
100
AcDbEntity
  8
L1_120
  6
CONTINUOUS
 62
         7
  0
ARC
  5
111
100
AcDbEntity
  8
L1_120
  6
CONTINUOUS
 62
         7
100
AcDbCircle
 10
1239.3930952574
 20
-199.5143283701
 30
0.0
 40
2.9722262277
100
AcDbArc
 50
321.257725858
 51
340.0
  0
POLYLINE
  5
113
100
AcDbEntity
  8
L1_120
  6
CONTINUOUS
 62
         7
100
AcDb3dPolyline
 66
         1
 10
0.0
 20
0.0
 30
0.0
 70
         8
  0
VERTEX
  5
115
100
AcDbEntity
  8
L1_120
  6
CONTINUOUS
 62
         7
100
AcDbVertex
100
AcDb3dPolylineVertex
 10
1242.186074311
 20
-200.5308896105
 30
0.0
 70
        32
  0
VERTEX
  5
117
100
AcDbEntity
  8
L1_120
  6
CONTINUOUS
 62
         7
100
AcDbVertex
100
AcDb3dPolylineVertex
 10
1242.186074311
 20
-200.5308896105
 30
0.0
 70
        32
  0
SEQEND
  5
119
100
AcDbEntity
  8
L1_120
  6
CONTINUOUS
 62
         7
  0
ARC
  5
11A
100
AcDbEntity
  8
L1_120
  6
CONTINUOUS
 62
         7
100
AcDbCircle
 10
1239.3930952575
 20
-199.5143283701
 30
0.0
 40
2.9722262277
100
AcDbArc
 50
339.9999999999
 51
358.742274142
  0
POLYLINE
  5
11C
100
AcDbEntity
  8
L1_120
  6
CONTINUOUS
 62
         7
100
AcDb3dPolyline
 66
         1
 10
0.0
 20
0.0
 30
0.0
 70
         8
  0
VERTEX
  5
11E
100
AcDbEntity
  8
L1_120
  6
CONTINUOUS
 62
         7
100
AcDbVertex
100
AcDb3dPolylineVertex
 10
1242.3646054058
 20
-199.5795678275
 30
0.0
 70
        32
  0
VERTEX
  5
120
100
AcDbEntity
  8
L1_120
  6
CONTINUOUS
 62
         7
100
AcDbVertex
100
AcDb3dPolylineVertex
 10
1242.3646054058
 20
-199.5795678275
 30
0.0
 70
        32
  0
SEQEND
  5
122
100
AcDbEntity
  8
L1_120
  6
CONTINUOUS
 62
         7
  0
ARC
  5
123
100
AcDbEntity
  8
L1_120
  6
CONTINUOUS
 62
         7
100
AcDbCircle
 10
1239.8956574834
 20
-199.5253621157
 30
0.0
 40
2.4695428935
100
AcDbArc
 50
358.742274142
 51
379.3226899097
  0
POLYLINE
  5
125
100
AcDbEntity
  8
L1_120
  6
CONTINUOUS
 62
         7
100
AcDb3dPolyline
 66
         1
 10
0.0
 20
0.0
 30
0.0
 70
         8
  0
VERTEX
  5
127
100
AcDbEntity
  8
L1_120
  6
CONTINUOUS
 62
         7
100
AcDbVertex
100
AcDb3dPolylineVertex
 10
1242.2260909995
 20
-198.7082196985
 30
0.0
 70
        32
  0
VERTEX
  5
129
100
AcDbEntity
  8
L1_120
  6
CONTINUOUS
 62
         7
100
AcDbVertex
100
AcDb3dPolylineVertex
 10
1242.2260909995
 20
-198.7082196985
 30
0.0
 70
        32
  0
SEQEND
  5
12B
100
AcDbEntity
  8
L1_120
  6
CONTINUOUS
 62
         7
  0
ARC
  5
12C
100
AcDbEntity
  8
L1_120
  6
CONTINUOUS
 62
         7
100
AcDbCircle
 10
1240.2650937514
 20
-199.3958231081
 30
0.0
 40
2.0780540551
100
AcDbArc
 50
19.3226899096
 51
43.1760378472
  0
POLYLINE
  5
12E
100
AcDbEntity
  8
L1_120
  6
CONTINUOUS
 62
         7
100
AcDb3dPolyline
 66
         1
 10
0.0
 20
0.0
 30
0.0
 70
         8
  0
VERTEX
  5
130
100
AcDbEntity
  8
L1_120
  6
CONTINUOUS
 62
         7
100
AcDbVertex
100
AcDb3dPolylineVertex
 10
1241.7805247577
 20
-197.9739308755
 30
0.0
 70
        32
  0
VERTEX
  5
132
100
AcDbEntity
  8
L1_120
  6
CONTINUOUS
 62
         7
100
AcDbVertex
100
AcDb3dPolylineVertex
 10
1241.7805247577
 20
-197.9739308755
 30
0.0
 70
        32
  0
SEQEND
  5
134
100
AcDbEntity
  8
L1_120
  6
CONTINUOUS
 62
         7
  0
ARC
  5
135
100
AcDbEntity
  8
L1_120
  6
CONTINUOUS
 62
         7
100
AcDbCircle
 10
1240.5775566661
 20
-199.1026467183
 30
0.0
 40
1.6495853065
100
AcDbArc
 50
43.1760378472
 51
70.0
  0
POLYLINE
  5
137
100
AcDbEntity
  8
L1_120
  6
CONTINUOUS
 62
         7
100
AcDb3dPolyline
 66
         1
 10
0.0
 20
0.0
 30
0.0
 70
         8
  0
VERTEX
  5
139
100
AcDbEntity
  8
L1_120
  6
CONTINUOUS
 62
         7
100
AcDbVertex
100
AcDb3dPolylineVertex
 10
1241.141748069
 20
-197.5525435785
 30
0.0
 70
        32
  0
VERTEX
  5
13B
100
AcDbEntity
  8
L1_120
  6
CONTINUOUS
 62
         7
100
AcDbVertex
100
AcDb3dPolylineVertex
 10
1241.141748069
 20
-197.5525435785
 30
0.0
 70
        32
  0
SEQEND
  5
13D
100
AcDbEntity
  8
L1_120
  6
CONTINUOUS
 62
         7
  0
ARC
  5
13E
100
AcDbEntity
  8
L1_120
  6
CONTINUOUS
 62
         7
100
AcDbCircle
 10
1240.5775566661
 20
-199.1026467183
 30
0.0
 40
1.6495853065
100
AcDbArc
 50
70.0000000001
 51
96.8239621529
  0
POLYLINE
  5
140
100
AcDbEntity
  8
L1_120
  6
CONTINUOUS
 62
         7
100
AcDb3dPolyline
 66
         1
 10
0.0
 20
0.0
 30
0.0
 70
         8
  0
VERTEX
  5
142
100
AcDbEntity
  8
L1_120
  6
CONTINUOUS
 62
         7
100
AcDbVertex
100
AcDb3dPolylineVertex
 10
1240.3815542028
 20
-197.4647472349
 30
0.0
 70
        32
  0
VERTEX
  5
144
100
AcDbEntity
  8
L1_120
  6
CONTINUOUS
 62
         7
100
AcDbVertex
100
AcDb3dPolylineVertex
 10
1240.3815542028
 20
-197.4647472349
 30
0.0
 70
        32
  0
SEQEND
  5
146
100
AcDbEntity
  8
L1_120
  6
CONTINUOUS
 62
         7
  0
ARC
  5
147
100
AcDbEntity
  8
L1_120
  6
CONTINUOUS
 62
         7
100
AcDbCircle
 10
1240.6284669948
 20
-199.5280801526
 30
0.0
 40
2.0780540551
100
AcDbArc
 50
96.8239621528
 51
120.6773100904
  0
POLYLINE
  5
149
100
AcDbEntity
  8
L1_120
  6
CONTINUOUS
 62
         7
100
AcDb3dPolyline
 66
         1
 10
0.0
 20
0.0
 30
0.0
 70
         8
  0
VERTEX
  5
14B
100
AcDbEntity
  8
L1_120
  6
CONTINUOUS
 62
         7
100
AcDbVertex
100
AcDb3dPolylineVertex
 10
1239.5682389019
 20
-197.7408406479
 30
0.0
 70
        32
  0
VERTEX
  5
14D
100
AcDbEntity
  8
L1_120
  6
CONTINUOUS
 62
         7
100
AcDbVertex
100
AcDb3dPolylineVertex
 10
1239.5682389019
 20
-197.7408406479
 30
0.0
 70
        32
  0
SEQEND
  5
14F
100
AcDbEntity
  8
L1_120
  6
CONTINUOUS
 62
         7
  0
ARC
  5
150
100
AcDbEntity
  8
L1_120
  6
CONTINUOUS
 62
         7
100
AcDbCircle
 10
1240.8282055258
 20
-199.8647818452
 30
0.0
 40
2.4695428935
100
AcDbArc
 50
120.6773100903
 51
141.257725858
  0
ARC
  5
151
100
AcDbEntity
  8
L1_120
  6
CONTINUOUS
 62
         7
100
AcDbCircle
 10
1241.2202828813
 20
-200.1793702776
 30
0.0
 40
2.9722262277
100
AcDbArc
 50
141.257725858
 51
160.0
  0
LINE
  5
152
100
AcDbEntity
  8
L1_120
  6
CENTER
 62
         1
100
AcDbLine
 10
1243.1257669317
 20
-200.8729097539
 30
0.0
 11
1237.487611207
 21
-198.8207888939
 31
0.0
  0
LINE
  5
153
100
AcDbEntity
  8
L1_120
  6
CONTINUOUS
 62
         7
100
AcDbLine
 10
1316.7776742862
 20
-325.9572557203
 30
2.1531933474
 11
1385.3508425579
 21
-316.1089283383
 31
3.8897191797
  0
LINE
  5
154
100
AcDbEntity
  8
L1_120
  6
CONTINUOUS
 62
         7
100
AcDbLine
 10
1316.7776742862
 20
-350.3799882912
 30
-2.1531933474
 11
1385.3508425583
 21
-360.2283156733
 31
-3.8897191798
  0
ARC
  5
155
100
AcDbEntity
  8
L1_120
  6
CONTINUOUS
 62
         7
100
AcDbCircle
 10
1317.1008425579
 20
-344.2652624932
 30
58.7223649554
 40
1.2
210
0.0
220
-0.1736481776669303
230
0.9848077530122081
100
AcDbArc
 50
180.0
 51
261.7028550302
  0
LINE
  5
156
100
AcDbEntity
  8
L1_120
  6
CONTINUOUS
 62
         7
100
AcDbLine
 10
1315.9008425579
 20
-327.1051127527
 30
1.9507951826
 11
1315.9008425579
 21
-349.2321312589
 31
-1.9507951826
  0
ARC
  5
157
100
AcDbEntity
  8
L1_120
  6
CONTINUOUS
 62
         7
100
AcDbCircle
 10
1317.1008425579
 20
-321.7968990603
 30
58.7223649554
 40
1.2
210
0.0
220
-0.1736481776669303
230
0.9848077530122081
100
AcDbArc
 50
98.2971449698
 51
180.0
  0
LINE
  5
158
100
AcDbEntity
  8
L1_120
  6
CENTER
 62
         1
100
AcDbLine
 10
1315.9008425579
 20
-224.2762334432
 30
0.0
 11
1434.9508425579
 21
-224.2762334432
 31
0.0
  0
DIMENSION
  5
15C
100
AcDbEntity
  8
L1_120
  6
CONTINUOUS
 62
         4
100
AcDbDimension
  2
*D0
 10
1500.8797989759
 20
-194.8628991945
 30
-34.3595866671
 11
1498.8547989759
 21
-227.9675786908
 31
0.0
210
0.0
220
-0.1736481776669303
230
0.9848077530122081
  3
DIMSTYLE1
100
AcDbAlignedDimension
 13
1485.7508425579
 23
-194.8628991945
 33
-34.3595866671
 14
1485.7508425579
 24
-240.164055833
 34
-42.3474028397
 50
90.0
100
AcDbRotatedDimension
  0
LINE
  5
169
100
AcDbEntity
  8
L1_120
  6
CONTINUOUS
 62
         7
100
AcDbLine
 10
1477.9224154331
 20
-253.8204660336
 30
-5.20944533
 11
1421.2028425579
 21
-253.8204660336
 31
-5.20944533
  0
ARC
  5
16A
100
AcDbEntity
  8
L1_120
  6
CONTINUOUS
 62
         7
100
AcDbCircle
 10
1421.2028425579
 20
-248.8689735113
 30
38.9451592314
 40
2.0
210
0.0
220
-0.1736481776669303
230
0.9848077530122081
100
AcDbArc
 50
180.0
 51
270.0
  0
LINE
  5
16B
100
AcDbEntity
  8
L1_120
  6
CONTINUOUS
 62
         7
100
AcDbLine
 10
1419.2028425579
 20
-251.8508505276
 30
-4.8621489747
 11
1419.2028425579
 21
-197.4402221736
 31
4.7319128414
  0
ARC
  5
16C
100
AcDbEntity
  8
L1_120
  6
CENTER
 62
         1
100
AcDbCircle
 10
1421.2028425579
 20
-192.8689735113
 30
38.9451592314
 40
2.0
210
0.0
220
-0.1736481776669303
230
0.9848077530122081
100
AcDbArc
 50
90.0
 51
180.0
  0
LINE
  5
16D
100
AcDbEntity
  8
L1_120
  6
CONTINUOUS
 62
         7
100
AcDbLine
 10
1481.5008425579
 20
-197.4402221736
 30
4.7319128414
 11
1419.2028425579
 21
-197.4402221736
 31
4.7319128414
  0
LINE
  5
16E
100
AcDbEntity
  8
L1_120
  6
CENTER
 62
         1
100
AcDbLine
 10
1424.1508425579
 20
-194.7320008529
 30
5.20944533
 11
1421.2028425579
 21
-194.7320008529
 31
5.20944533
  0
ARC
  5
16F
100
AcDbEntity
  8
L1_120
  6
CONTINUOUS
 62
         7
100
AcDbCircle
 10
1418.7028425579
 20
-243.6539735113
 30
38.9451592314
 40
0.5
210
0.0
220
-0.1736481776669303
230
0.9848077530122081
100
AcDbArc
 50
0.0
 51
90.0
  0
ARC
  5
170
100
AcDbEntity
  8
L1_120
  6
CONTINUOUS
 62
         7
100
AcDbCircle
 10
1418.7028425579
 20
-198.0839735113
 30
38.9451592314
 40
0.5
210
0.0
220
-0.1736481776669303
230
0.9848077530122081
100
AcDbArc
 50
270.0
 51
360.0
  0
LINE
  5
171
100
AcDbEntity
  8
L1_120
  6
CENTER
 62
         1
100
AcDbLine
 10
1419.2028425579
 20
-197.4402221736
 30
4.7319128414
 11
1419.2028425579
 21
-196.7016163589
 31
4.8621489747
  0
LINE
  5
172
100
AcDbEntity
  8
L1_120
  6
CENTER
 62
         1
100
AcDbLine
 10
1481.5008425579
 20
-197.4402221736
 30
4.7319128414
 11
1479.3366289955
 21
-195.3088878782
 31
5.1077245826
  0
LINE
  5
173
100
AcDbEntity
  8
L1_120
  6
CENTER
 62
         1
100
AcDbLine
 10
1478.7508425579
 20
-194.9089122669
 30
5.1782510745
 11
1478.7508425579
 21
-197.4402221736
 31
4.7319128414
  0
ARC
  5
174
100
AcDbEntity
  8
L1_120
  6
CENTER
 62
         1
100
AcDbCircle
 10
1477.9224154331
 20
-192.8689735113
 30
38.9451592314
 40
2.0
210
0.0
220
-0.1736481776669303
230
0.9848077530122081
100
AcDbArc
 50
45.0
 51
90.0
  0
LINE
  5
175
100
AcDbEntity
  8
L1_120
  6
CONTINUOUS
 62
         4
100
AcDbLine
 10
1485.7508425579
 20
-202.3888811325
 30
3.8593307486
 11
1485.7508425579
 21
-246.1635857539
 31
-3.8593307486
  0
DIMENSION
  5
178
100
AcDbEntity
  8
L1_120
  6
CONTINUOUS
 62
         4
100
AcDbDimension
  2
*D1
 10
1485.1650561202
 20
-240.7409428584
 30
-42.4491235871
 11
1472.2885120911
 21
-263.0636697058
 31
-46.3852226133
 70
         2
  3
DIMSTYLE1
100
AcDb2LineAngularDimension
 13
1485.7508425579
 23
-195.6787406497
 33
-34.5034415276
 14
1485.7508425579
 24
-239.3482143778
 34
-42.2035479792
 15
1479.3366289955
 25
-246.4808230787
 35
-43.461219336
 16
1471.8791214415
 26
-257.7406946276
 36
-42.2035479792
  0
LINE
  5
186
100
AcDbEntity
  8
L1_120
  6
CONTINUOUS
 62
         7
100
AcDbLine
 10
1485.1650561202
 20
-201.0487680986
 30
4.0956288337
 11
1481.5008425579
 21
-197.4402221736
 31
4.7319128414
  0
LINE
  5
187
100
AcDbEntity
  8
L1_120
  6
CONTINUOUS
 62
         7
100
AcDbLine
 10
1485.1650561202
 20
-247.5036987879
 30
-4.0956288337
 11
1479.3366289955
 21
-253.2435790082
 31
-5.1077245826
  0
LINE
  5
188
100
AcDbEntity
  8
L1_120
  6
CONTINUOUS
 62
         7
100
AcDbLine
 10
1485.7508425579
 20
-202.4414965792
 30
3.8500532258
 11
1485.7508425579
 21
-246.1109703072
 31
-3.8500532258
  0
ARC
  5
189
100
AcDbEntity
  8
L1_120
  6
CONTINUOUS
 62
         7
100
AcDbCircle
 10
1483.7508425579
 20
-198.697400636
 30
38.9451592314
 40
2.0
210
0.0
220
-0.1736481776669303
230
0.9848077530122081
100
AcDbArc
 50
0.0
 51
45.0
  0
ARC
  5
18A
100
AcDbEntity
  8
L1_120
  6
CONTINUOUS
 62
         7
100
AcDbCircle
 10
1483.7508425579
 20
-243.0405463865
 30
38.9451592314
 40
2.0
210
0.0
220
-0.1736481776669303
230
0.9848077530122081
100
AcDbArc
 50
315.0
 51
360.0
  0
ARC
  5
18B
100
AcDbEntity
  8
L1_120
  6
CONTINUOUS
 62
         7
100
AcDbCircle
 10
1477.9224154331
 20
-248.8689735113
 30
38.9451592314
 40
2.0
210
0.0
220
-0.1736481776669303
230
0.9848077530122081
100
AcDbArc
 50
270.0
 51
315.0
  0
LINE
  5
18C
100
AcDbEntity
  8
L1_120
  6
CONTINUOUS
 62
         4
100
AcDbLine
 10
1478.7508425579
 20
-197.4402221736
 30
4.7319128414
 11
1478.7508425579
 21
-253.8204660336
 31
-5.20944533
  0
LINE
  5
18D
100
AcDbEntity
  8
L1_120
  6
CONTINUOUS
 62
         7
100
AcDbLine
 10
1385.3508425579
 20
-246.3359271107
 30
-3.8897191797
 11
1385.3508425579
 21
-202.2165397757
 31
3.8897191797
  0
ARC
  5
18E
100
AcDbEntity
  8
L1_120
  6
CONTINUOUS
 62
         7
100
AcDbCircle
 10
1386.5508425579
 20
-244.0689735113
 30
38.9451592314
 40
0.8
210
0.0
220
-0.1736481776669303
230
0.9848077530122081
100
AcDbArc
 50
0.0
 51
90.0000000001
  0
LINE
  5
18F
100
AcDbEntity
  8
L1_120
  6
CONTINUOUS
 62
         7
100
AcDbLine
 10
1386.5508425579
 20
-246.3359271107
 30
-3.8897191797
 11
1385.3508425579
 21
-246.3359271107
 31
-3.8897191797
  0
LINE
  5
190
100
AcDbEntity
  8
L1_120
  6
CONTINUOUS
 62
         7
100
AcDbLine
 10
1386.5508425579
 20
-202.2165397757
 30
3.8897191797
 11
1385.3508425579
 21
-202.2165397757
 31
3.8897191797
  0
ARC
  5
191
100
AcDbEntity
  8
L1_120
  6
CONTINUOUS
 62
         7
100
AcDbCircle
 10
1386.5508425579
 20
-197.6689735113
 30
38.9451592314
 40
0.8
210
0.0
220
-0.1736481776669303
230
0.9848077530122081
100
AcDbArc
 50
269.9999999999
 51
360.0
  0
LINE
  5
192
100
AcDbEntity
  8
L1_120
  6
CONTINUOUS
 62
         4
100
AcDbLine
 10
1402.7508425579
 20
-255.5684997952
 30
-5.5176708454
 11
1402.7508425579
 21
-232.9917820574
 31
-1.5367863724
  0
LINE
  5
193
100
AcDbEntity
  8
L1_120
  6
CONTINUOUS
 62
         4
100
AcDbLine
 10
1387.8508425579
 20
-255.5684997952
 30
-5.5176708454
 11
1387.8508425579
 21
-232.9917820574
 31
-1.5367863724
  0
LINE
  5
194
100
AcDbEntity
  8
L1_120
  6
CONTINUOUS
 62
         4
100
AcDbLine
 10
1402.7508425579
 20
-215.5606848291
 30
1.5367863724
 11
1402.7508425579
 21
-192.9839670913
 31
5.5176708454
  0
LINE
  5
195
100
AcDbEntity
  8
L1_120
  6
CONTINUOUS
 62
         4
100
AcDbLine
 10
1387.8508425579
 20
-215.5606848291
 30
1.5367863724
 11
1387.8508425579
 21
-192.9839670913
 31
5.5176708454
  0
LINE
  5
196
100
AcDbEntity
  8
L1_120
  6
CONTINUOUS
 62
         7
100
AcDbLine
 10
1387.3508425579
 20
-255.0760959187
 30
-5.4308467565
 11
1387.8508425579
 21
-255.5684997952
 31
-5.5176708454
  0
LINE
  5
197
100
AcDbEntity
  8
L1_120
  6
CONTINUOUS
 62
         7
100
AcDbLine
 10
1403.2508425579
 20
-255.0760959187
 30
-5.4308467565
 11
1402.7508425579
 21
-255.5684997952
 31
-5.5176708454
  0
LINE
  5
198
100
AcDbEntity
  8
L1_120
  6
CONTINUOUS
 62
         7
100
AcDbLine
 10
1387.8508425579
 20
-255.5684997952
 30
-5.5176708454
 11
1389.3508425579
 21
-255.5684997952
 31
-5.5176708454
  0
LINE
  5
199
100
AcDbEntity
  8
L1_120
  6
CONTINUOUS
 62
         7
100
AcDbLine
 10
1401.2508425579
 20
-255.5684997952
 30
-5.5176708454
 11
1402.7508425579
 21
-255.5684997952
 31
-5.5176708454
  0
LINE
  5
19A
100
AcDbEntity
  8
L1_120
  6
CONTINUOUS
 62
         7
100
AcDbLine
 10
1387.3508425579
 20
-253.5988842892
 30
-5.17037449
 11
1387.3508425579
 21
-255.0760959187
 31
-5.4308467565
  0
LINE
  5
19B
100
AcDbEntity
  8
L1_120
  6
CONTINUOUS
 62
         7
100
AcDbLine
 10
1403.2508425579
 20
-253.5988842892
 30
-5.17037449
 11
1403.2508425579
 21
-255.0760959187
 31
-5.4308467565
  0
LINE
  5
19C
100
AcDbEntity
  8
L1_120
  6
CONTINUOUS
 62
         7
100
AcDbLine
 10
1402.7508425579
 20
-192.9839670913
 30
5.5176708454
 11
1403.2508425579
 21
-193.4763709678
 31
5.4308467565
  0
LINE
  5
19D
100
AcDbEntity
  8
L1_120
  6
CONTINUOUS
 62
         7
100
AcDbLine
 10
1387.8508425579
 20
-192.9839670913
 30
5.5176708454
 11
1387.3508425579
 21
-193.4763709678
 31
5.4308467565
  0
LINE
  5
19E
100
AcDbEntity
  8
L1_120
  6
CONTINUOUS
 62
         7
100
AcDbLine
 10
1403.2508425579
 20
-193.4763709678
 30
5.4308467565
 11
1403.2508425579
 21
-194.9535825973
 31
5.17037449
  0
LINE
  5
19F
100
AcDbEntity
  8
L1_120
  6
CONTINUOUS
 62
         7
100
AcDbLine
 10
1401.2508425579
 20
-192.9839670913
 30
5.5176708454
 11
1402.7508425579
 21
-192.9839670913
 31
5.5176708454
  0
LINE
  5
1A0
100
AcDbEntity
  8
L1_120
  6
CONTINUOUS
 62
         7
100
AcDbLine
 10
1387.3508425579
 20
-193.4763709678
 30
5.4308467565
 11
1387.3508425579
 21
-194.9535825973
 31
5.17037449
  0
LINE
  5
1A1
100
AcDbEntity
  8
L1_120
  6
CONTINUOUS
 62
         7
100
AcDbLine
 10
1387.8508425579
 20
-192.9839670913
 30
5.5176708454
 11
1389.3508425579
 21
-192.9839670913
 31
5.5176708454
  0
ARC
  5
1A2
100
AcDbEntity
  8
L1_120
  6
CONTINUOUS
 62
         7
100
AcDbCircle
 10
1403.7508425579
 20
-198.0839735113
 30
38.9451592314
 40
0.5
210
0.0
220
-0.1736481776669303
230
0.9848077530122081
100
AcDbArc
 50
180.0
 51
270.0
  0
ARC
  5
1A3
100
AcDbEntity
  8
L1_120
  6
CONTINUOUS
 62
         7
100
AcDbCircle
 10
1403.7508425579
 20
-243.6539735113
 30
38.9451592314
 40
0.5
210
0.0
220
-0.1736481776669303
230
0.9848077530122081
100
AcDbArc
 50
90.0
 51
180.0
  0
LINE
  5
1A4
100
AcDbEntity
  8
L1_120
  6
CONTINUOUS
 62
         7
100
AcDbLine
 10
1403.7508425579
 20
-246.2226742191
 30
-3.8697496393
 11
1418.7028425579
 21
-246.2226742191
 31
-3.8697496393
  0
LINE
  5
1A5
100
AcDbEntity
  8
L1_120
  6
CONTINUOUS
 62
         7
100
AcDbLine
 10
1403.7508425579
 20
-202.3297926673
 30
3.8697496393
 11
1418.7028425579
 21
-202.3297926673
 31
3.8697496393
  0
LINE
  5
1A6
100
AcDbEntity
  8
L1_120
  6
CONTINUOUS
 62
         7
100
AcDbLine
 10
1403.2508425579
 20
-246.7150780956
 30
-3.9565737281
 11
1403.2508425579
 21
-254.5836920422
 31
-5.3440226677
  0
LINE
  5
1A7
100
AcDbEntity
  8
L1_120
  6
CONTINUOUS
 62
         7
100
AcDbLine
 10
1403.2508425579
 20
-193.9687748443
 30
5.3440226677
 11
1403.2508425579
 21
-201.8373887908
 31
3.9565737281
  0
LINE
  5
1A8
100
AcDbEntity
  8
L1_120
  6
CONTINUOUS
 62
         7
100
AcDbLine
 10
1391.7145721591
 20
-192.9839670913
 30
5.5176708454
 11
1391.7145721591
 21
-215.5606848291
 31
1.5367863724
  0
LINE
  5
1A9
100
AcDbEntity
  8
L1_120
  6
CONTINUOUS
 62
         7
100
AcDbLine
 10
1393.3758425579
 20
-195.8176575836
 30
5.0180147566
 11
1393.3758425579
 21
-216.3485310315
 31
1.3978678302
  0
LINE
  5
1AA
100
AcDbEntity
  8
L1_120
  6
CONTINUOUS
 62
         7
100
AcDbLine
 10
1397.1258425579
 20
-195.8176575836
 30
5.0180147566
 11
1397.1258425579
 21
-216.3485310315
 31
1.3978678302
  0
LINE
  5
1AB
100
AcDbEntity
  8
L1_120
  6
CONTINUOUS
 62
         7
100
AcDbLine
 10
1398.7871129567
 20
-192.9839670913
 30
5.5176708454
 11
1398.7871129567
 21
-215.5606848291
 31
1.5367863724
  0
LINE
  5
1AC
100
AcDbEntity
  8
L1_120
  6
CONTINUOUS
 62
         7
100
AcDbLine
 10
1402.4508425579
 20
-216.3485310315
 30
1.3978678302
 11
1388.1508425579
 21
-216.3485310315
 31
1.3978678302
  0
LINE
  5
1AD
100
AcDbEntity
  8
L1_120
  6
CONTINUOUS
 62
         7
100
AcDbLine
 10
1402.4508425579
 20
-232.203935855
 30
-1.3978678302
 11
1388.1508425579
 21
-232.203935855
 31
-1.3978678302
  0
LINE
  5
1AE
100
AcDbEntity
  8
L1_120
  6
CONTINUOUS
 62
         7
100
AcDbLine
 10
1391.7145721591
 20
-215.5606848291
 30
1.5367863724
 11
1393.3758425579
 21
-216.3485310315
 31
1.3978678302
  0
LINE
  5
1AF
100
AcDbEntity
  8
L1_120
  6
CONTINUOUS
 62
         7
100
AcDbLine
 10
1391.7145721591
 20
-232.9917820574
 30
-1.5367863724
 11
1393.3758425579
 21
-232.203935855
 31
-1.3978678302
  0
LINE
  5
1B0
100
AcDbEntity
  8
L1_120
  6
CONTINUOUS
 62
         7
100
AcDbLine
 10
1388.1508425579
 20
-216.3485310315
 30
1.3978678302
 11
1388.1508425579
 21
-232.203935855
 31
-1.3978678302
  0
LINE
  5
1B1
100
AcDbEntity
  8
L1_120
  6
CONTINUOUS
 62
         7
100
AcDbLine
 10
1391.7145721591
 20
-232.9917820574
 30
-1.5367863724
 11
1387.3508425579
 21
-232.9917820574
 31
-1.5367863724
  0
LINE
  5
1B2
100
AcDbEntity
  8
L1_120
  6
CONTINUOUS
 62
         7
100
AcDbLine
 10
1388.1508425579
 20
-232.203935855
 30
-1.3978678302
 11
1387.3508425579
 21
-232.9917820574
 31
-1.5367863724
  0
LINE
  5
1B3
100
AcDbEntity
  8
L1_120
  6
CONTINUOUS
 62
         7
100
AcDbLine
 10
1387.3508425579
 20
-215.5606848291
 30
1.5367863724
 11
1388.1508425579
 21
-216.3485310315
 31
1.3978678302
  0
LINE
  5
1B4
100
AcDbEntity
  8
L1_120
  6
CONTINUOUS
 62
         7
100
AcDbLine
 10
1391.7145721591
 20
-215.5606848291
 30
1.5367863724
 11
1387.3508425579
 21
-215.5606848291
 31
1.5367863724
  0
LINE
  5
1B5
100
AcDbEntity
  8
L1_120
  6
CONTINUOUS
 62
         7
100
AcDbLine
 10
1402.4508425579
 20
-216.3485310315
 30
1.3978678302
 11
1402.4508425579
 21
-232.203935855
 31
-1.3978678302
  0
LINE
  5
1B6
100
AcDbEntity
  8
L1_120
  6
CONTINUOUS
 62
         7
100
AcDbLine
 10
1403.2508425579
 20
-232.9917820574
 30
-1.5367863724
 11
1398.7871129567
 21
-232.9917820574
 31
-1.5367863724
  0
LINE
  5
1B7
100
AcDbEntity
  8
L1_120
  6
CONTINUOUS
 62
         7
100
AcDbLine
 10
1402.4508425579
 20
-232.203935855
 30
-1.3978678302
 11
1403.2508425579
 21
-232.9917820574
 31
-1.5367863724
  0
LINE
  5
1B8
100
AcDbEntity
  8
L1_120
  6
CONTINUOUS
 62
         7
100
AcDbLine
 10
1397.1258425579
 20
-232.203935855
 30
-1.3978678302
 11
1398.7871129567
 21
-232.9917820574
 31
-1.5367863724
  0
LINE
  5
1B9
100
AcDbEntity
  8
L1_120
  6
CONTINUOUS
 62
         7
100
AcDbLine
 10
1403.2508425579
 20
-215.5606848291
 30
1.5367863724
 11
1402.4508425579
 21
-216.3485310315
 31
1.3978678302
  0
LINE
  5
1BA
100
AcDbEntity
  8
L1_120
  6
CONTINUOUS
 62
         7
100
AcDbLine
 10
1397.1258425579
 20
-216.3485310315
 30
1.3978678302
 11
1398.7871129567
 21
-215.5606848291
 31
1.5367863724
  0
LINE
  5
1BB
100
AcDbEntity
  8
L1_120
  6
CONTINUOUS
 62
         7
100
AcDbLine
 10
1403.2508425579
 20
-215.5606848291
 30
1.5367863724
 11
1398.7871129567
 21
-215.5606848291
 31
1.5367863724
  0
LINE
  5
1BC
100
AcDbEntity
  8
L1_120
  6
CONTINUOUS
 62
         7
100
AcDbLine
 10
1391.7145721591
 20
-232.9917820574
 30
-1.5367863724
 11
1391.7145721591
 21
-255.5684997952
 31
-5.5176708454
  0
LINE
  5
1BD
100
AcDbEntity
  8
L1_120
  6
CONTINUOUS
 62
         7
100
AcDbLine
 10
1393.3758425579
 20
-232.203935855
 30
-1.3978678302
 11
1393.3758425579
 21
-252.7348093028
 31
-5.0180147566
  0
LINE
  5
1BE
100
AcDbEntity
  8
L1_120
  6
CONTINUOUS
 62
         7
100
AcDbLine
 10
1397.1258425579
 20
-232.203935855
 30
-1.3978678302
 11
1397.1258425579
 21
-252.7348093028
 31
-5.0180147566
  0
LINE
  5
1BF
100
AcDbEntity
  8
L1_120
  6
CONTINUOUS
 62
         7
100
AcDbLine
 10
1398.7871129567
 20
-232.9917820574
 30
-1.5367863724
 11
1398.7871129567
 21
-255.5684997952
 31
-5.5176708454
  0
LINE
  5
1C0
100
AcDbEntity
  8
L1_120
  6
CONTINUOUS
 62
         7
100
AcDbLine
 10
1393.3758425579
 20
-195.8176575836
 30
5.0180147566
 11
1391.7145721591
 21
-192.9839670913
 31
5.5176708454
  0
LINE
  5
1C1
100
AcDbEntity
  8
L1_120
  6
CENTER
 62
         1
100
AcDbLine
 10
1390.9398372993
 20
-192.1222603074
 30
5.6696130008
 11
1399.3486718677
 21
-192.1222603074
 31
5.6696130008
  0
LINE
  5
1C2
100
AcDbEntity
  8
L1_120
  6
CENTER
 62
         1
100
AcDbLine
 10
1390.9398372993
 20
-256.4302065791
 30
-5.6696130008
 11
1399.3486718677
 21
-256.4302065791
 31
-5.6696130008
  0
LINE
  5
1C3
100
AcDbEntity
  8
L1_120
  6
CONTINUOUS
 62
         7
100
AcDbLine
 10
1393.3758425579
 20
-252.7348093028
 30
-5.0180147566
 11
1391.7145721591
 21
-255.5684997952
 31
-5.5176708454
  0
LINE
  5
1C4
100
AcDbEntity
  8
L1_120
  6
CONTINUOUS
 62
         7
100
AcDbLine
 10
1387.3508425579
 20
-193.9687748443
 30
5.3440226677
 11
1387.3508425579
 21
-254.5836920422
 31
-5.3440226677
  0
LINE
  5
1C5
100
AcDbEntity
  8
L1_120
  6
CENTER
 62
         1
100
AcDbLine
 10
1384.1508425579
 20
-202.3888811325
 30
3.8593307486
 11
1384.1508425579
 21
-246.1635857539
 31
-3.8593307486
  0
LINE
  5
1C6
100
AcDbEntity
  8
L1_120
  6
CONTINUOUS
 62
         7
100
AcDbLine
 10
1388.3508425579
 20
-255.5684997952
 30
-5.5176708454
 11
1391.7145721591
 21
-255.5684997952
 31
-5.5176708454
  0
LINE
  5
1C7
100
AcDbEntity
  8
L1_120
  6
CONTINUOUS
 62
         7
100
AcDbLine
 10
1388.3508425579
 20
-192.9839670913
 30
5.5176708454
 11
1391.7145721591
 21
-192.9839670913
 31
5.5176708454
  0
LINE
  5
1C8
100
AcDbEntity
  8
L1_120
  6
CONTINUOUS
 62
         7
100
AcDbLine
 10
1403.2508425579
 20
-193.9687748443
 30
5.3440226677
 11
1403.2508425579
 21
-254.5836920422
 31
-5.3440226677
  0
LINE
  5
1C9
100
AcDbEntity
  8
L1_120
  6
CONTINUOUS
 62
         7
100
AcDbLine
 10
1403.2508425579
 20
-193.9687748443
 30
5.3440226677
 11
1403.2508425579
 21
-205.564886136
 31
3.2993153757
  0
LINE
  5
1CA
100
AcDbEntity
  8
L1_120
  6
CONTINUOUS
 62
         7
100
AcDbLine
 10
1394.3496428896
 20
-251.9739514967
 30
-4.8838549969
 11
1396.1520422261
 21
-251.9739514967
 31
-4.8838549969
  0
ARC
  5
1CB
100
AcDbEntity
  8
L1_120
  6
CONTINUOUS
 62
         7
100
AcDbCircle
 10
1394.3496428896
 20
-249.9939735113
 30
38.9451592314
 40
1.0
210
0.0
220
-0.1736481776669303
230
0.9848077530122081
100
AcDbArc
 50
90.0
 51
166.8556743105
  0
LINE
  5
1CC
100
AcDbEntity
  8
L1_120
  6
CONTINUOUS
 62
         7
100
AcDbLine
 10
1397.1258425579
 20
-252.7348093028
 30
-5.0180147566
 11
1398.7871129567
 21
-255.5684997952
 31
-5.5176708454
  0
ARC
  5
1CD
100
AcDbEntity
  8
L1_120
  6
CONTINUOUS
 62
         7
100
AcDbCircle
 10
1396.1520422261
 20
-249.9939735113
 30
38.9451592314
 40
1.0
210
0.0
220
-0.1736481776669303
230
0.9848077530122081
100
AcDbArc
 50
13.1443256895
 51
90.0
  0
LINE
  5
1CE
100
AcDbEntity
  8
L1_120
  6
CONTINUOUS
 62
         7
100
AcDbLine
 10
1398.7871129567
 20
-255.5684997952
 30
-5.5176708454
 11
1402.2508425579
 21
-255.5684997952
 31
-5.5176708454
  0
LINE
  5
1CF
100
AcDbEntity
  8
L1_120
  6
CONTINUOUS
 62
         7
100
AcDbLine
 10
1397.1258425579
 20
-195.8176575836
 30
5.0180147566
 11
1398.7871129567
 21
-192.9839670913
 31
5.5176708454
  0
LINE
  5
1D0
100
AcDbEntity
  8
L1_120
  6
CONTINUOUS
 62
         7
100
AcDbLine
 10
1398.7871129567
 20
-192.9839670913
 30
5.5176708454
 11
1402.2508425579
 21
-192.9839670913
 31
5.5176708454
  0
LINE
  5
1D1
100
AcDbEntity
  8
L1_120
  6
CONTINUOUS
 62
         7
100
AcDbLine
 10
1394.3496428896
 20
-196.5785153898
 30
4.8838549969
 11
1396.1520422261
 21
-196.5785153898
 31
4.8838549969
  0
ARC
  5
1D2
100
AcDbEntity
  8
L1_120
  6
CONTINUOUS
 62
         7
100
AcDbCircle
 10
1394.3496428896
 20
-191.7439735113
 30
38.9451592314
 40
1.0
210
0.0
220
-0.1736481776669303
230
0.9848077530122081
100
AcDbArc
 50
193.1443256895
 51
270.0
  0
ARC
  5
1D3
100
AcDbEntity
  8
L1_120
  6
CONTINUOUS
 62
         7
100
AcDbCircle
 10
1396.1520422261
 20
-191.7439735113
 30
38.9451592314
 40
1.0
210
0.0
220
-0.1736481776669303
230
0.9848077530122081
100
AcDbArc
 50
270.0
 51
346.8556743105
  0
LINE
  5
1D4
100
AcDbEntity
  8
L1_120
  6
CENTER
 62
         1
100
AcDbLine
 10
1380.7983511394
 20
-224.2762334432
 30
0.0
 11
1403.2508425579
 21
-224.2762334432
 31
0.0
  0
CIRCLE
  5
1D5
100
AcDbEntity
  8
L1_120
  6
CONTINUOUS
 62
         7
100
AcDbCircle
 10
1395.2508425579
 20
-220.8689735113
 30
38.9451592314
 40
5.0
210
0.0
220
-0.1736481776669303
230
0.9848077530122081
  0
LINE
  5
1D6
100
AcDbEntity
  8
L1_120
  6
CENTER
 62
         1
100
AcDbLine
 10
1488.3649936016
 20
-224.2762334432
 30
0.0
 11
1378.8029439886
 21
-224.2762334432
 31
0.0
  0
LINE
  5
1D7
100
AcDbEntity
  8
L1_120
  6
CONTINUOUS
 62
         7
100
AcDbLine
 10
1387.3508425579
 20
-193.9687748443
 30
5.3440226677
 11
1387.3508425579
 21
-254.5836920422
 31
-5.3440226677
  0
LINE
  5
1D8
100
AcDbEntity
  8
L1_120
  6
CENTER
 62
         1
100
AcDbLine
 10
1384.1508425579
 20
-202.3888811325
 30
3.8593307486
 11
1384.1508425579
 21
-246.1635857539
 31
-3.8593307486
  0
LINE
  5
1D9
100
AcDbEntity
  8
L1_120
  6
CENTER
 62
         1
100
AcDbLine
 10
1477.9224154331
 20
-194.7320008529
 30
5.20944533
 11
1423.3508425579
 21
-194.7320008529
 31
5.20944533
  0
LINE
  5
1DA
100
AcDbEntity
  8
L1_120
  6
CENTER
 62
         1
100
AcDbLine
 10
1395.2508425579
 20
-187.3407593659
 30
6.5127206251
 11
1395.2508425579
 21
-261.2041175582
 31
-6.51138231
  0
DIMENSION
  5
1DD
100
AcDbEntity
  8
L1_120
  6
CONTINUOUS
 62
         4
100
AcDbDimension
  2
*D2
 10
1509.9673333541
 20
-187.9692449234
 30
-33.1440494234
 11
1506.8353333541
 21
-230.5152258306
 31
0.0
210
0.0
220
-0.1736481776669303
230
0.9848077530122081
  3
DIMSTYLE1
100
AcDbAlignedDimension
 13
1477.9224154331
 23
-187.9692449234
 33
-33.1440494234
 14
1477.9224154331
 24
-247.0577101041
 34
-43.5629400834
 50
90.0
100
AcDbRotatedDimension
  0
DIMENSION
  5
1EB
100
AcDbEntity
  8
L1_120
  6
CONTINUOUS
 62
         4
100
AcDbDimension
  2
*D3
 10
1384.1508425579
 20
-174.542910507
 30
-30.7766244138
 11
1436.5958181104
 21
-175.2105162448
 31
0.0
210
0.0
220
-0.1736481776669303
230
0.9848077530122081
  3
DIMSTYLE1
100
AcDbAlignedDimension
 13
1384.1508425579
 23
-195.626125203
 33
-34.4941640047
 14
1485.7508425579
 24
-217.5134775137
 34
-38.3534947534
100
AcDbRotatedDimension
  0
DIMENSION
  5
1F9
100
AcDbEntity
  8
L1_120
  6
CONTINUOUS
 62
         4
100
AcDbDimension
  2
*D4
 10
1315.9008425579
 20
-162.3817764383
 30
-28.6322883614
 11
1389.0782562526
 21
-162.8617770807
 31
0.0
210
0.0
220
-0.1736481776669303
230
0.9848077530122081
  3
DIMSTYLE1
100
AcDbAlignedDimension
 13
1315.9008425579
 23
-206.4499682606
 33
-36.4026995708
 14
1485.7508425579
 24
-217.5134775137
 34
-38.3534947534
100
AcDbRotatedDimension
  0
TEXT
  5
206
100
AcDbEntity
  8
L1_120
  6
CONTINUOUS
 62
         2
100
AcDbText
 10
1538.6124821458
 20
-163.5420292479
 30
0.0
 40
4.5
  1
522082
 41
0.98
  7
BOX
100
AcDbText
  0
LINE
  5
207
100
AcDbEntity
  8
L1_120
  6
CONTINUOUS
 62
         7
100
AcDbLine
 10
1472.9668425579
 20
-367.712854596
 30
-5.20944533
 11
1470.0508425579
 21
-364.8411551882
 31
-4.7030872439
  0
LINE
  5
208
100
AcDbEntity
  8
L1_120
  6
CONTINUOUS
 62
         7
100
AcDbLine
 10
1449.5348425579
 20
-367.712854596
 30
-5.20944533
 11
1452.4508425579
 21
-364.8411551882
 31
-4.7030872439
  0
LINE
  5
209
100
AcDbEntity
  8
L1_120
  6
CONTINUOUS
 62
         7
100
AcDbLine
 10
1447.9668425579
 20
-367.712854596
 30
-5.20944533
 11
1445.0508425579
 21
-364.8411551882
 31
-4.7030872439
  0
LINE
  5
20A
100
AcDbEntity
  8
L1_120
  6
CONTINUOUS
 62
         7
100
AcDbLine
 10
1424.5348425579
 20
-367.712854596
 30
-5.20944533
 11
1427.4508425579
 21
-364.8411551882
 31
-4.7030872439
  0
LINE
  5
20B
100
AcDbEntity
  8
L1_120
  6
CONTINUOUS
 62
         7
100
AcDbLine
 10
1445.0508425579
 20
-364.8411551882
 30
-4.7030872439
 11
1427.4508425579
 21
-364.8411551882
 31
-4.7030872439
  0
LINE
  5
20C
100
AcDbEntity
  8
L1_120
  6
CONTINUOUS
 62
         4
100
AcDbLine
 10
1470.8008425579
 20
-365.5797610029
 30
-4.8333233772
 11
1470.8008425579
 21
-350.6756804688
 31
-2.2053318563
  0
LINE
  5
20D
100
AcDbEntity
  8
L1_120
  6
CONTINUOUS
 62
         7
100
AcDbLine
 10
1470.0508425579
 20
-364.8411551882
 30
-4.7030872439
 11
1470.0508425579
 21
-350.6756804688
 31
-2.2053318563
  0
LINE
  5
20E
100
AcDbEntity
  8
L1_120
  6
CONTINUOUS
 62
         4
100
AcDbLine
 10
1451.7008425579
 20
-365.5797610029
 30
-4.8333233772
 11
1451.7008425579
 21
-350.6756804688
 31
-2.2053318563
  0
LINE
  5
20F
100
AcDbEntity
  8
L1_120
  6
CONTINUOUS
 62
         7
100
AcDbLine
 10
1452.4508425579
 20
-364.8411551882
 30
-4.7030872439
 11
1452.4508425579
 21
-350.6756804688
 31
-2.2053318563
  0
LINE
  5
210
100
AcDbEntity
  8
L1_120
  6
CONTINUOUS
 62
         7
100
AcDbLine
 10
1470.0508425579
 20
-364.8411551882
 30
-4.7030872439
 11
1452.4508425579
 21
-364.8411551882
 31
-4.7030872439
  0
LINE
  5
211
100
AcDbEntity
  8
L1_120
  6
CONTINUOUS
 62
         7
100
AcDbLine
 10
1427.4508425579
 20
-364.8411551882
 30
-4.7030872439
 11
1427.4508425579
 21
-350.6756804688
 31
-2.2053318563
  0
LINE
  5
212
100
AcDbEntity
  8
L1_120
  6
CONTINUOUS
 62
         7
100
AcDbLine
 10
1445.0508425579
 20
-364.8411551882
 30
-4.7030872439
 11
1445.0508425579
 21
-350.6756804688
 31
-2.2053318563
  0
LINE
  5
213
100
AcDbEntity
  8
L1_120
  6
CONTINUOUS
 62
         4
100
AcDbLine
 10
1445.8008425579
 20
-365.5797610029
 30
-4.8333233772
 11
1445.8008425579
 21
-350.6756804688
 31
-2.2053318563
  0
LINE
  5
214
100
AcDbEntity
  8
L1_120
  6
CONTINUOUS
 62
         4
100
AcDbLine
 10
1426.7008425579
 20
-365.5797610029
 30
-4.8333233772
 11
1426.7008425579
 21
-350.6756804688
 31
-2.2053318563
  0
LINE
  5
215
100
AcDbEntity
  8
L1_120
  6
CENTER
 62
         1
100
AcDbLine
 10
1461.2508425579
 20
-347.3592223412
 30
-1.620550808
 11
1461.2508425579
 21
-372.5391166061
 31
-6.0604455383
  0
LINE
  5
216
100
AcDbEntity
  8
L1_120
  6
CENTER
 62
         1
100
AcDbLine
 10
1436.2508425579
 20
-347.3592223412
 30
-1.620550808
 11
1436.2508425579
 21
-372.5391166061
 31
-6.0604455383
  0
LINE
  5
217
100
AcDbEntity
  8
L1_120
  6
CONTINUOUS
 62
         7
100
AcDbLine
 10
1419.2028425579
 20
-315.7297773532
 30
3.9565737282
 11
1419.2028425579
 21
-311.332610736
 31
4.7319128415
  0
ARC
  5
218
100
AcDbEntity
  8
L1_120
  6
CONTINUOUS
 62
         7
100
AcDbCircle
 10
1418.7028425579
 20
-355.8160807766
 30
58.7223649554
 40
0.5
210
0.0
220
-0.1736481776669303
230
0.9848077530122081
100
AcDbArc
 50
0.0
 51
90.0
  0
ARC
  5
219
100
AcDbEntity
  8
L1_120
  6
CONTINUOUS
 62
         7
100
AcDbCircle
 10
1418.7028425579
 20
-310.2460807766
 30
58.7223649554
 40
0.5
210
0.0
220
-0.1736481776669303
230
0.9848077530122081
100
AcDbArc
 50
270.0
 51
360.0
  0
ARC
  5
21A
100
AcDbEntity
  8
L1_120
  6
CONTINUOUS
 62
         7
100
AcDbCircle
 10
1477.9224154331
 20
-361.0310807766
 30
58.7223649554
 40
2.0
210
0.0
220
-0.1736481776669303
230
0.9848077530122081
100
AcDbArc
 50
270.0
 51
315.0
  0
LINE
  5
21B
100
AcDbEntity
  8
L1_120
  6
CONTINUOUS
 62
         7
100
AcDbLine
 10
1485.1650561202
 20
-361.3960873503
 30
-4.0956288337
 11
1479.3366289955
 21
-367.1359675706
 31
-5.1077245826
  0
ARC
  5
21C
100
AcDbEntity
  8
L1_120
  6
CONTINUOUS
 62
         7
100
AcDbCircle
 10
1483.7508425579
 20
-355.2026536518
 30
58.7223649554
 40
2.0
210
0.0
220
-0.1736481776669303
230
0.9848077530122081
100
AcDbArc
 50
315.0
 51
360.0
  0
LINE
  5
21D
100
AcDbEntity
  8
L1_120
  6
CONTINUOUS
 62
         7
100
AcDbLine
 10
1485.7508425579
 20
-316.2812696949
 30
3.8593307487
 11
1485.7508425579
 21
-360.0559743163
 31
-3.8593307486
  0
ARC
  5
21E
100
AcDbEntity
  8
L1_120
  6
CONTINUOUS
 62
         7
100
AcDbCircle
 10
1483.7508425579
 20
-310.8595079013
 30
58.7223649554
 40
2.0
210
0.0
220
-0.1736481776669303
230
0.9848077530122081
100
AcDbArc
 50
0.0
 51
45.0
  0
LINE
  5
21F
100
AcDbEntity
  8
L1_120
  6
CONTINUOUS
 62
         7
100
AcDbLine
 10
1485.1650561202
 20
-314.9411566609
 30
4.0956288338
 11
1481.5008425579
 21
-311.332610736
 31
4.7319128415
  0
ARC
  5
220
100
AcDbEntity
  8
L1_120
  6
CENTER
 62
         1
100
AcDbCircle
 10
1477.9224154331
 20
-305.0310807766
 30
58.7223649554
 40
2.0
210
0.0
220
-0.1736481776669303
230
0.9848077530122081
100
AcDbArc
 50
45.0
 51
90.0
  0
LINE
  5
221
100
AcDbEntity
  8
L1_120
  6
CENTER
 62
         1
100
AcDbLine
 10
1481.5008425579
 20
-311.332610736
 30
4.7319128415
 11
1479.3366289955
 21
-309.2012764406
 31
5.1077245826
  0
LINE
  5
222
100
AcDbEntity
  8
L1_120
  6
CENTER
 62
         1
100
AcDbLine
 10
1477.9224154331
 20
-308.6243894152
 30
5.20944533
 11
1421.2028425579
 21
-308.6243894152
 31
5.20944533
  0
ARC
  5
223
100
AcDbEntity
  8
L1_120
  6
CENTER
 62
         1
100
AcDbCircle
 10
1421.2028425579
 20
-305.0310807766
 30
58.7223649554
 40
2.0
210
0.0
220
-0.1736481776669303
230
0.9848077530122081
100
AcDbArc
 50
90.0
 51
180.0
  0
LINE
  5
224
100
AcDbEntity
  8
L1_120
  6
CONTINUOUS
 62
         7
100
AcDbLine
 10
1481.5008425579
 20
-311.332610736
 30
4.7319128415
 11
1419.2028425579
 21
-311.332610736
 31
4.7319128415
  0
ARC
  5
225
100
AcDbEntity
  8
L1_120
  6
CONTINUOUS
 62
         7
100
AcDbCircle
 10
1421.2028425579
 20
-361.0310807766
 30
58.7223649554
 40
2.0
210
0.0
220
-0.1736481776669303
230
0.9848077530122081
100
AcDbArc
 50
180.0
 51
270.0
  0
LINE
  5
226
100
AcDbEntity
  8
L1_120
  6
CONTINUOUS
 62
         7
100
AcDbLine
 10
1477.9224154331
 20
-367.712854596
 30
-5.20944533
 11
1421.2028425579
 21
-367.712854596
 31
-5.20944533
  0
LINE
  5
227
100
AcDbEntity
  8
L1_120
  6
CONTINUOUS
 62
         7
100
AcDbLine
 10
1419.2028425579
 20
-365.7432390899
 30
-4.8621489746
 11
1419.2028425579
 21
-360.607466658
 31
-3.9565737281
  0
LINE
  5
228
100
AcDbEntity
  8
L1_120
  6
CONTINUOUS
 62
         7
100
AcDbLine
 10
1403.7508425579
 20
-360.1150627815
 30
-3.8697496393
 11
1418.7028425579
 21
-360.1150627815
 31
-3.8697496393
  0
LINE
  5
229
100
AcDbEntity
  8
L1_120
  6
CONTINUOUS
 62
         7
100
AcDbLine
 10
1403.7508425579
 20
-316.2221812297
 30
3.8697496393
 11
1418.7028425579
 21
-316.2221812297
 31
3.8697496393
  0
LINE
  5
22A
100
AcDbEntity
  8
L1_120
  6
CONTINUOUS
 62
         7
100
AcDbLine
 10
1395.7508425579
 20
-353.1376998516
 30
-2.6394523005
 11
1415.7508425579
 21
-353.1376998516
 31
-2.6394523005
  0
LINE
  5
22B
100
AcDbEntity
  8
L1_120
  6
CONTINUOUS
 62
         7
100
AcDbLine
 10
1395.7508425579
 20
-323.19954416
 30
2.6394523005
 11
1415.7508425579
 21
-323.19954416
 31
2.6394523005
  0
LINE
  5
22C
100
AcDbEntity
  8
L1_120
  6
CONTINUOUS
 62
         7
100
AcDbLine
 10
1387.3508425579
 20
-361.0161618757
 30
-4.0286377219
 11
1387.3508425579
 21
-368.4760806049
 31
-5.3440226677
  0
ARC
  5
22D
100
AcDbEntity
  8
L1_120
  6
CONTINUOUS
 62
         7
100
AcDbCircle
 10
1386.5508425579
 20
-356.2310807767
 30
58.7223649554
 40
0.8
210
0.0
220
-0.1736481776669303
230
0.9848077530122081
100
AcDbArc
 50
0.0
 51
90.0000000001
  0
LINE
  5
22E
100
AcDbEntity
  8
L1_120
  6
CONTINUOUS
 62
         7
100
AcDbLine
 10
1386.5508425579
 20
-360.2283156732
 30
-3.8897191797
 11
1385.3508425579
 21
-360.2283156732
 31
-3.8897191797
  0
LINE
  5
22F
100
AcDbEntity
  8
L1_120
  6
CONTINUOUS
 62
         7
100
AcDbLine
 10
1387.3508425579
 20
-315.3210821359
 30
4.0286377219
 11
1387.3508425579
 21
-307.8611634066
 31
5.3440226677
  0
LINE
  5
230
100
AcDbEntity
  8
L1_120
  6
CONTINUOUS
 62
         7
100
AcDbLine
 10
1386.5508425579
 20
-316.1089283383
 30
3.8897191797
 11
1385.3508425579
 21
-316.1089283383
 31
3.8897191797
  0
ARC
  5
231
100
AcDbEntity
  8
L1_120
  6
CONTINUOUS
 62
         7
100
AcDbCircle
 10
1386.5508425579
 20
-309.8310807767
 30
58.7223649554
 40
0.8
210
0.0
220
-0.1736481776669303
230
0.9848077530122081
100
AcDbArc
 50
269.9999999999
 51
360.0
  0
LINE
  5
232
100
AcDbEntity
  8
L1_120
  6
CONTINUOUS
 62
         7
100
AcDbLine
 10
1392.1712708889
 20
-345.0622762769
 30
-1.2155372437
 11
1392.1712708889
 21
-331.2749677347
 31
1.2155372437
  0
LINE
  5
233
100
AcDbEntity
  8
L1_120
  6
CONTINUOUS
 62
         7
100
AcDbLine
 10
1395.7508425579
 20
-325.169159666
 30
2.2921559452
 11
1392.1712708889
 21
-331.2749677347
 31
1.2155372437
  0
LINE
  5
234
100
AcDbEntity
  8
L1_120
  6
CONTINUOUS
 62
         7
100
AcDbLine
 10
1392.1712708889
 20
-345.0622762769
 30
-1.2155372437
 11
1395.7508425579
 21
-351.1680843455
 31
-2.2921559452
  0
LINE
  5
235
100
AcDbEntity
  8
L1_120
  6
CONTINUOUS
 62
         7
100
AcDbLine
 10
1402.7508425579
 20
-306.8763556538
 30
5.5176708454
 11
1403.2508425579
 21
-307.3687595303
 31
5.4308467565
  0
LINE
  5
236
100
AcDbEntity
  8
L1_120
  6
CONTINUOUS
 62
         7
100
AcDbLine
 10
1387.3508425579
 20
-307.3687595303
 30
5.4308467565
 11
1387.8508425579
 21
-306.8763556538
 31
5.5176708454
  0
LINE
  5
237
100
AcDbEntity
  8
L1_120
  6
CONTINUOUS
 62
         7
100
AcDbLine
 10
1387.3508425579
 20
-368.9684844812
 30
-5.4308467565
 11
1387.8508425579
 21
-369.4608883577
 31
-5.5176708454
  0
LINE
  5
238
100
AcDbEntity
  8
L1_120
  6
CONTINUOUS
 62
         7
100
AcDbLine
 10
1403.2508425579
 20
-368.9684844812
 30
-5.4308467565
 11
1402.7508425579
 21
-369.4608883577
 31
-5.5176708454
  0
LINE
  5
239
100
AcDbEntity
  8
L1_120
  6
CONTINUOUS
 62
         7
100
AcDbLine
 10
1387.8508425579
 20
-306.8763556538
 30
5.5176708454
 11
1389.3508425579
 21
-306.8763556538
 31
5.5176708454
  0
LINE
  5
23A
100
AcDbEntity
  8
L1_120
  6
CONTINUOUS
 62
         7
100
AcDbLine
 10
1387.3508425579
 20
-307.3687595303
 30
5.4308467565
 11
1387.3508425579
 21
-308.8459711598
 31
5.17037449
  0
LINE
  5
23B
100
AcDbEntity
  8
L1_120
  6
CONTINUOUS
 62
         7
100
AcDbLine
 10
1401.2508425579
 20
-306.8763556538
 30
5.5176708454
 11
1402.7508425579
 21
-306.8763556538
 31
5.5176708454
  0
LINE
  5
23C
100
AcDbEntity
  8
L1_120
  6
CONTINUOUS
 62
         7
100
AcDbLine
 10
1387.8508425579
 20
-369.4608883577
 30
-5.5176708454
 11
1389.3508425579
 21
-369.4608883577
 31
-5.5176708454
  0
LINE
  5
23D
100
AcDbEntity
  8
L1_120
  6
CONTINUOUS
 62
         7
100
AcDbLine
 10
1401.2508425579
 20
-369.4608883577
 30
-5.5176708454
 11
1402.7508425579
 21
-369.4608883577
 31
-5.5176708454
  0
LINE
  5
23E
100
AcDbEntity
  8
L1_120
  6
CONTINUOUS
 62
         7
100
AcDbLine
 10
1403.2508425579
 20
-307.3687595303
 30
5.4308467565
 11
1403.2508425579
 21
-308.8459711598
 31
5.17037449
  0
LINE
  5
23F
100
AcDbEntity
  8
L1_120
  6
CONTINUOUS
 62
         7
100
AcDbLine
 10
1387.3508425579
 20
-367.4912728517
 30
-5.17037449
 11
1387.3508425579
 21
-368.9684844812
 31
-5.4308467565
  0
LINE
  5
240
100
AcDbEntity
  8
L1_120
  6
CONTINUOUS
 62
         7
100
AcDbLine
 10
1403.2508425579
 20
-367.4912728517
 30
-5.17037449
 11
1403.2508425579
 21
-368.9684844812
 31
-5.4308467565
  0
LINE
  5
241
100
AcDbEntity
  8
L1_120
  6
CONTINUOUS
 62
         7
100
AcDbLine
 10
1403.2508425579
 20
-360.6074666582
 30
-3.9565737281
 11
1403.2508425579
 21
-368.4760806049
 31
-5.3440226677
  0
LINE
  5
242
100
AcDbEntity
  8
L1_120
  6
CONTINUOUS
 62
         7
100
AcDbLine
 10
1403.2508425579
 20
-307.8611634066
 30
5.3440226677
 11
1403.2508425579
 21
-315.7297773534
 31
3.9565737281
  0
ARC
  5
243
100
AcDbEntity
  8
L1_120
  6
CONTINUOUS
 62
         7
100
AcDbCircle
 10
1403.7508425579
 20
-355.8160807767
 30
58.7223649554
 40
0.5
210
0.0
220
-0.1736481776669303
230
0.9848077530122081
100
AcDbArc
 50
90.0
 51
180.0
  0
ARC
  5
244
100
AcDbEntity
  8
L1_120
  6
CONTINUOUS
 62
         7
100
AcDbCircle
 10
1403.7508425579
 20
-310.2460807767
 30
58.7223649554
 40
0.5
210
0.0
220
-0.1736481776669303
230
0.9848077530122081
100
AcDbArc
 50
180.0
 51
270.0
  0
LINE
  5
245
100
AcDbEntity
  8
L1_120
  6
CONTINUOUS
 62
         7
100
AcDbLine
 10
1398.7871129567
 20
-369.4608883579
 30
-5.5176708454
 11
1402.2508425579
 21
-369.4608883579
 31
-5.5176708454
  0
LINE
  5
246
100
AcDbEntity
  8
L1_120
  6
CONTINUOUS
 62
         7
100
AcDbLine
 10
1397.1258425579
 20
-366.6271978654
 30
-5.0180147566
 11
1398.7871129567
 21
-369.4608883577
 31
-5.5176708454
  0
ARC
  5
247
100
AcDbEntity
  8
L1_120
  6
CONTINUOUS
 62
         7
100
AcDbCircle
 10
1396.1520422261
 20
-362.1560807769
 30
58.7223649554
 40
1.0
210
0.0
220
-0.1736481776669303
230
0.9848077530122081
100
AcDbArc
 50
13.1443256895
 51
90.0
  0
LINE
  5
248
100
AcDbEntity
  8
L1_120
  6
CONTINUOUS
 62
         7
100
AcDbLine
 10
1394.3496428896
 20
-365.8663400592
 30
-4.8838549969
 11
1396.1520422261
 21
-365.8663400592
 31
-4.8838549969
  0
ARC
  5
249
100
AcDbEntity
  8
L1_120
  6
CONTINUOUS
 62
         7
100
AcDbCircle
 10
1394.3496428896
 20
-362.1560807767
 30
58.7223649554
 40
1.0
210
0.0
220
-0.1736481776669303
230
0.9848077530122081
100
AcDbArc
 50
90.0
 51
166.8556743105
  0
LINE
  5
24A
100
AcDbEntity
  8
L1_120
  6
CONTINUOUS
 62
         7
100
AcDbLine
 10
1393.3758425579
 20
-366.6271978654
 30
-5.0180147566
 11
1391.7145721591
 21
-369.4608883577
 31
-5.5176708454
  0
LINE
  5
24B
100
AcDbEntity
  8
L1_120
  6
CONTINUOUS
 62
         7
100
AcDbLine
 10
1388.3508425579
 20
-369.4608883579
 30
-5.5176708454
 11
1391.7145721591
 21
-369.4608883579
 31
-5.5176708454
  0
LINE
  5
24C
100
AcDbEntity
  8
L1_120
  6
CONTINUOUS
 62
         7
100
AcDbLine
 10
1388.3508425579
 20
-306.8763556536
 30
5.5176708454
 11
1391.7145721591
 21
-306.8763556536
 31
5.5176708454
  0
LINE
  5
24D
100
AcDbEntity
  8
L1_120
  6
CONTINUOUS
 62
         7
100
AcDbLine
 10
1393.3758425579
 20
-309.7100461462
 30
5.0180147566
 11
1391.7145721591
 21
-306.8763556538
 31
5.5176708454
  0
ARC
  5
24E
100
AcDbEntity
  8
L1_120
  6
CONTINUOUS
 62
         7
100
AcDbCircle
 10
1394.3496428896
 20
-303.9060807766
 30
58.7223649554
 40
1.0
210
0.0
220
-0.1736481776669303
230
0.9848077530122081
100
AcDbArc
 50
193.1443256895
 51
270.0
  0
LINE
  5
24F
100
AcDbEntity
  8
L1_120
  6
CONTINUOUS
 62
         7
100
AcDbLine
 10
1394.3496428896
 20
-310.4709039521
 30
4.8838549969
 11
1396.1520422261
 21
-310.4709039521
 31
4.8838549969
  0
ARC
  5
250
100
AcDbEntity
  8
L1_120
  6
CONTINUOUS
 62
         7
100
AcDbCircle
 10
1396.1520422261
 20
-303.9060807766
 30
58.7223649554
 40
1.0
210
0.0
220
-0.1736481776669303
230
0.9848077530122081
100
AcDbArc
 50
270.0
 51
346.8556743105
  0
LINE
  5
251
100
AcDbEntity
  8
L1_120
  6
CONTINUOUS
 62
         7
100
AcDbLine
 10
1397.1258425579
 20
-309.710046146
 30
5.0180147566
 11
1398.7871129567
 21
-306.8763556536
 31
5.5176708454
  0
LINE
  5
252
100
AcDbEntity
  8
L1_120
  6
CONTINUOUS
 62
         7
100
AcDbLine
 10
1398.7871129567
 20
-306.8763556536
 30
5.5176708454
 11
1402.2508425579
 21
-306.8763556536
 31
5.5176708454
  0
LINE
  5
253
100
AcDbEntity
  8
L1_120
  6
CONTINUOUS
 62
         7
100
AcDbLine
 10
1483.7508425579
 20
-350.675680469
 30
-2.2053318564
 11
1480.5008425579
 21
-350.675680469
 31
-2.2053318564
  0
ARC
  5
254
100
AcDbEntity
  8
L1_120
  6
CONTINUOUS
 62
         7
100
AcDbCircle
 10
1483.7508425579
 20
-347.7310807767
 30
58.7223649554
 40
2.0
210
0.0
220
-0.1736481776669303
230
0.9848077530122081
100
AcDbArc
 50
0.0
 51
45.022059707
  0
ARC
  5
255
100
AcDbEntity
  8
L1_120
  6
CONTINUOUS
 62
         7
100
AcDbCircle
 10
1483.7508425579
 20
-347.7310807767
 30
58.7223649554
 40
2.0
210
0.0
220
-0.1736481776669303
230
0.9848077530122081
100
AcDbArc
 50
74.9779402929
 51
90.0
  0
LINE
  5
256
100
AcDbEntity
  8
L1_120
  6
CONTINUOUS
 62
         7
100
AcDbLine
 10
1485.1645115227
 20
-351.252031377
 30
-2.3069580718
 11
1484.2692244006
 21
-350.7429899013
 31
-2.2172003253
  0
ARC
  5
257
100
AcDbEntity
  8
L1_120
  6
CONTINUOUS
 62
         7
100
AcDbCircle
 10
1483.7508425579
 20
-318.3310807767
 30
58.7223649554
 40
2.0
210
0.0
220
-0.1736481776669303
230
0.9848077530122081
100
AcDbArc
 50
314.9779402929
 51
360.0
  0
ARC
  5
258
100
AcDbEntity
  8
L1_120
  6
CONTINUOUS
 62
         7
100
AcDbCircle
 10
1483.7508425579
 20
-318.3310807767
 30
58.7223649554
 40
2.0
210
0.0
220
-0.1736481776669303
230
0.9848077530122081
100
AcDbArc
 50
270.0
 51
285.0220597071
  0
LINE
  5
259
100
AcDbEntity
  8
L1_120
  6
CONTINUOUS
 62
         7
100
AcDbLine
 10
1485.1645115227
 20
-325.0852126346
 30
2.3069580718
 11
1484.2692244006
 21
-325.5942541102
 31
2.2172003253
  0
LINE
  5
25A
100
AcDbEntity
  8
L1_120
  6
CONTINUOUS
 62
         7
100
AcDbLine
 10
1415.7508425579
 20
-325.6615635425
 30
2.2053318564
 11
1476.0008425579
 21
-325.6615635425
 31
2.2053318564
  0
LINE
  5
25B
100
AcDbEntity
  8
L1_120
  6
CONTINUOUS
 62
         7
100
AcDbLine
 10
1395.7508425579
 20
-353.1376998516
 30
-2.6394523005
 11
1395.7508425579
 21
-323.19954416
 31
2.6394523005
  0
LINE
  5
25C
100
AcDbEntity
  8
L1_120
  6
CONTINUOUS
 62
         7
100
AcDbLine
 10
1415.7508425579
 20
-323.19954416
 30
2.6394523005
 11
1415.7508425579
 21
-353.1376998516
 31
-2.6394523005
  0
LINE
  5
25D
100
AcDbEntity
  8
L1_120
  6
CENTER
 62
         1
100
AcDbLine
 10
1489.057684861
 20
-338.1686220058
 30
0.0
 11
1417.6232389029
 21
-338.1686220058
 31
0.0
  0
LINE
  5
25E
100
AcDbEntity
  8
L1_120
  6
CONTINUOUS
 62
         4
100
AcDbLine
 10
1415.7508425579
 20
-331.2749677347
 30
1.2155372437
 11
1476.0008425579
 21
-331.2749677347
 31
1.2155372437
  0
LINE
  5
25F
100
AcDbEntity
  8
L1_120
  6
CONTINUOUS
 62
         4
100
AcDbLine
 10
1415.7508425579
 20
-329.3053522287
 30
1.562833599
 11
1476.0008425579
 21
-329.3053522287
 31
1.562833599
  0
LINE
  5
260
100
AcDbEntity
  8
L1_120
  6
CONTINUOUS
 62
         4
100
AcDbLine
 10
1415.7508425579
 20
-345.0622762769
 30
-1.2155372437
 11
1476.0008425579
 21
-345.0622762769
 31
-1.2155372437
  0
LINE
  5
261
100
AcDbEntity
  8
L1_120
  6
CONTINUOUS
 62
         4
100
AcDbLine
 10
1415.7508425579
 20
-347.0318917829
 30
-1.562833599
 11
1476.0008425579
 21
-347.0318917829
 31
-1.562833599
  0
LINE
  5
262
100
AcDbEntity
  8
L1_120
  6
CONTINUOUS
 62
         4
100
AcDbLine
 10
1480.5008425579
 20
-347.0318917829
 30
-1.562833599
 11
1485.7508425579
 21
-347.0318917829
 31
-1.562833599
  0
LINE
  5
263
100
AcDbEntity
  8
L1_120
  6
CONTINUOUS
 62
         4
100
AcDbLine
 10
1480.5008425579
 20
-345.0622762769
 30
-1.2155372437
 11
1485.7508425579
 21
-345.0622762769
 31
-1.2155372437
  0
LINE
  5
264
100
AcDbEntity
  8
L1_120
  6
CONTINUOUS
 62
         4
100
AcDbLine
 10
1480.5008425579
 20
-329.3053522287
 30
1.562833599
 11
1485.7508425579
 21
-329.3053522287
 31
1.562833599
  0
LINE
  5
265
100
AcDbEntity
  8
L1_120
  6
CONTINUOUS
 62
         4
100
AcDbLine
 10
1480.5008425579
 20
-331.2749677347
 30
1.2155372437
 11
1485.7508425579
 21
-331.2749677347
 31
1.2155372437
  0
ARC
  5
266
100
AcDbEntity
  8
L1_120
  6
CONTINUOUS
 62
         7
100
AcDbCircle
 10
1480.1008425579
 20
-348.5010807767
 30
58.7223649554
 40
0.4
210
0.0
220
-0.1736481776669303
230
0.9848077530122081
100
AcDbArc
 50
270.0
 51
360.0
  0
ARC
  5
267
100
AcDbEntity
  8
L1_120
  6
CONTINUOUS
 62
         7
100
AcDbCircle
 10
1476.4008425579
 20
-348.5010807767
 30
58.7223649554
 40
0.4
210
0.0
220
-0.1736481776669303
230
0.9848077530122081
100
AcDbArc
 50
180.0
 51
270.0
  0
ARC
  5
268
100
AcDbEntity
  8
L1_120
  6
CONTINUOUS
 62
         7
100
AcDbCircle
 10
1480.1008425579
 20
-317.5610807767
 30
58.7223649554
 40
0.4
210
0.0
220
-0.1736481776669303
230
0.9848077530122081
100
AcDbArc
 50
0.0
 51
90.0
  0
ARC
  5
269
100
AcDbEntity
  8
L1_120
  6
CONTINUOUS
 62
         7
100
AcDbCircle
 10
1476.4008425579
 20
-317.5610807767
 30
58.7223649554
 40
0.4
210
0.0
220
-0.1736481776669303
230
0.9848077530122081
100
AcDbArc
 50
90.0
 51
180.0
  0
LINE
  5
26A
100
AcDbEntity
  8
L1_120
  6
CONTINUOUS
 62
         7
100
AcDbLine
 10
1476.4008425579
 20
-353.7975210461
 30
-2.7557965796
 11
1480.1008425579
 21
-353.7975210461
 31
-2.7557965796
  0
LINE
  5
26B
100
AcDbEntity
  8
L1_120
  6
CONTINUOUS
 62
         7
100
AcDbLine
 10
1476.4008425579
 20
-322.5397229655
 30
2.7557965796
 11
1480.1008425579
 21
-322.5397229655
 31
2.7557965796
  0
LINE
  5
26C
100
AcDbEntity
  8
L1_120
  6
CONTINUOUS
 62
         7
100
AcDbLine
 10
1476.0008425579
 20
-322.9336460667
 30
2.6863373085
 11
1476.0008425579
 21
-353.4035979449
 31
-2.6863373085
  0
LINE
  5
26D
100
AcDbEntity
  8
L1_120
  6
CONTINUOUS
 62
         7
100
AcDbLine
 10
1480.5008425579
 20
-322.9336460667
 30
2.6863373085
 11
1480.5008425579
 21
-353.4035979449
 31
-2.6863373085
  0
LINE
  5
26E
100
AcDbEntity
  8
L1_120
  6
CONTINUOUS
 62
         7
100
AcDbLine
 10
1480.5008425579
 20
-325.6615635425
 30
2.2053318564
 11
1483.7508425579
 21
-325.6615635425
 31
2.2053318564
  0
LINE
  5
26F
100
AcDbEntity
  8
L1_120
  6
CONTINUOUS
 62
         7
100
AcDbLine
 10
1476.0008425579
 20
-350.675680469
 30
-2.2053318564
 11
1415.7508425579
 21
-350.675680469
 31
-2.2053318564
  0
LINE
  5
270
100
AcDbEntity
  8
L1_120
  6
CONTINUOUS
 62
         7
100
AcDbLine
 10
1387.3508425579
 20
-313.9832692338
 30
4.2645302316
 11
1389.6738271251
 21
-310.7161047332
 31
4.8406194835
  0
LINE
  5
271
100
AcDbEntity
  8
L1_120
  6
CONTINUOUS
 62
         4
100
AcDbLine
 10
1387.3508425579
 20
-313.9832692338
 30
4.2645302316
 11
1391.4466027793
 21
-316.8075818411
 31
3.766527717
  0
LINE
  5
272
100
AcDbEntity
  8
L1_120
  6
CONTINUOUS
 62
         7
100
AcDbLine
 10
1391.4466027793
 20
-316.8075818411
 30
3.766527717
 11
1393.7409085247
 21
-313.5807527047
 31
4.3355047559
  0
LINE
  5
273
100
AcDbEntity
  8
L1_120
  6
CONTINUOUS
 62
         4
100
AcDbLine
 10
1389.6451483033
 20
-310.7564400974
 30
4.8335072705
 11
1393.7409085247
 21
-313.5807527047
 31
4.3355047559
  0
LINE
  5
274
100
AcDbEntity
  8
L1_120
  6
CONTINUOUS
 62
         7
100
AcDbLine
 10
1387.3508425579
 20
-309.1142447011
 30
5.1230706265
 11
1389.6738271251
 21
-310.7161047332
 31
4.8406194835
  0
LINE
  5
275
100
AcDbEntity
  8
L1_120
  6
CENTER
 62
         1
100
AcDbLine
 10
1386.6402119025
 20
-311.0887832268
 30
4.77490621
 11
1407.0592850509
 21
-325.169159666
 31
2.2921559452
  0
LINE
  5
276
100
AcDbEntity
  8
L1_120
  6
CONTINUOUS
 62
         7
100
AcDbLine
 10
1387.5515943106
 20
-313.7009216844
 30
4.3143157225
 11
1401.3263018247
 21
-323.19954416
 31
2.6394523005
  0
LINE
  5
277
100
AcDbEntity
  8
L1_120
  6
CONTINUOUS
 62
         7
100
AcDbLine
 10
1389.4443965506
 20
-311.0387876468
 30
4.7837217796
 11
1407.0796762502
 21
-323.19954416
 31
2.6394523005
  0
LINE
  5
278
100
AcDbEntity
  8
L1_120
  6
CONTINUOUS
 62
         7
100
AcDbLine
 10
1321.8036852703
 20
-331.1686220058
 30
0.0
 11
1392.1712708889
 21
-331.1686220058
 31
0.0
  0
LINE
  5
279
100
AcDbEntity
  8
L1_120
  6
CONTINUOUS
 62
         7
100
AcDbLine
 10
1321.8036852703
 20
-345.1686220058
 30
0.0
 11
1392.1712708889
 21
-345.1686220058
 31
0.0
  0
DIMENSION
  5
27C
100
AcDbEntity
  8
L1_120
  6
CONTINUOUS
 62
         4
100
AcDbDimension
  2
*D5
 10
1485.7508425579
 20
-373.3339967456
 30
-65.828856442
 11
1439.3957823655
 21
-377.0682754172
 31
0.0
210
0.0
220
-0.1736481776669303
230
0.9848077530122081
  3
DIMSTYLE1
100
AcDbAlignedDimension
 13
1485.7508425579
 23
-349.806327207
 33
-61.6802935091
 14
1395.7508425579
 24
-340.9710526827
 34
-60.1223962285
100
AcDbRotatedDimension
  0
ARC
  5
288
100
AcDbEntity
  8
L1_120
  6
CONTINUOUS
 62
         7
100
AcDbCircle
 10
1567.8828425579
 20
-220.8689735113
 30
38.9451592314
 40
25.4
210
0.0
220
-0.1736481776669303
230
0.9848077530122081
100
AcDbArc
 50
110.4450096082
 51
429.5549903917
  0
LINE
  5
289
100
AcDbEntity
  8
L1_120
  6
DASHED
 62
         2
100
AcDbLine
 10
1542.8828425579
 20
-219.8544575989
 30
0.779678384
 11
1542.8828425579
 21
-228.6980092875
 31
-0.779678384
  0
LINE
  5
28A
100
AcDbEntity
  8
L1_120
  6
CONTINUOUS
 62
         7
100
AcDbLine
 10
1542.8828425579
 20
-228.6980092875
 30
-0.779678384
 11
1542.8828425579
 21
-231.7115319785
 31
-1.3110437414
  0
LINE
  5
28B
100
AcDbEntity
  8
L1_120
  6
CENTER
 62
         1
100
AcDbLine
 10
1541.3904549766
 20
-224.2762334432
 30
0.0
 11
1595.3689119571
 21
-224.2762334432
 31
0.0
  0
LINE
  5
28C
100
AcDbEntity
  8
L1_120
  6
CONTINUOUS
 62
         7
100
AcDbLine
 10
1538.9830588217
 20
-232.203935855
 30
-1.3978678302
 11
1542.3828425579
 21
-232.203935855
 31
-1.3978678302
  0
LINE
  5
28D
100
AcDbEntity
  8
L1_120
  6
CONTINUOUS
 62
         7
100
AcDbLine
 10
1537.2503753251
 20
-232.5920340952
 30
-1.4663000211
 11
1537.6444606063
 21
-232.203935855
 31
-1.3978678302
  0
LINE
  5
28E
100
AcDbEntity
  8
L1_120
  6
CONTINUOUS
 62
         7
100
AcDbLine
 10
1542.8828425579
 20
-231.7115319785
 30
-1.3110437414
 11
1542.3828425579
 21
-232.203935855
 31
-1.3978678302
  0
LINE
  5
28F
100
AcDbEntity
  8
L1_120
  6
CONTINUOUS
 62
         7
100
AcDbLine
 10
1537.2503753251
 20
-215.9604327912
 30
1.4663000211
 11
1537.6444606063
 21
-216.3485310315
 31
1.3978678302
  0
LINE
  5
290
100
AcDbEntity
  8
L1_120
  6
CONTINUOUS
 62
         7
100
AcDbLine
 10
1542.8828425579
 20
-216.840934908
 30
1.3110437414
 11
1542.3828425579
 21
-216.3485310315
 31
1.3978678302
  0
LINE
  5
291
100
AcDbEntity
  8
L1_120
  6
CONTINUOUS
 62
         7
100
AcDbLine
 10
1542.8828425579
 20
-216.840934908
 30
1.3110437414
 11
1542.8828425579
 21
-219.8544575989
 31
0.779678384
  0
LINE
  5
292
100
AcDbEntity
  8
L1_120
  6
CONTINUOUS
 62
         7
100
AcDbLine
 10
1538.9830588217
 20
-216.3485310315
 30
1.3978678302
 11
1542.3828425579
 21
-216.3485310315
 31
1.3978678302
  0
LINE
  5
293
100
AcDbEntity
  8
L1_120
  6
CONTINUOUS
 62
         7
100
AcDbLine
 10
1598.5153097906
 20
-232.5920340952
 30
-1.4663000211
 11
1598.1212245094
 21
-232.203935855
 31
-1.3978678302
  0
LINE
  5
294
100
AcDbEntity
  8
L1_120
  6
DASHED
 62
         2
100
AcDbLine
 10
1590.6828425579
 20
-231.7115319785
 30
-1.3110437414
 11
1591.1828425579
 21
-232.203935855
 31
-1.3978678302
  0
LINE
  5
295
100
AcDbEntity
  8
L1_120
  6
DASHED
 62
         2
100
AcDbLine
 10
1591.1828425579
 20
-232.203935855
 30
-1.3978678302
 11
1591.6828425579
 21
-232.203935855
 31
-1.3978678302
  0
LINE
  5
296
100
AcDbEntity
  8
L1_120
  6
CONTINUOUS
 62
         7
100
AcDbLine
 10
1598.5153097906
 20
-215.9604327912
 30
1.4663000211
 11
1598.1212245094
 21
-216.3485310315
 31
1.3978678302
  0
LINE
  5
297
100
AcDbEntity
  8
L1_120
  6
DASHED
 62
         2
100
AcDbLine
 10
1591.1828425579
 20
-216.3485310315
 30
1.3978678302
 11
1591.6828425579
 21
-216.3485310315
 31
1.3978678302
  0
LINE
  5
298
100
AcDbEntity
  8
L1_120
  6
DASHED
 62
         2
100
AcDbLine
 10
1590.6828425579
 20
-216.840934908
 30
1.3110437414
 11
1591.1828425579
 21
-216.3485310315
 31
1.3978678302
  0
LINE
  5
299
100
AcDbEntity
  8
L1_120
  6
DASHED
 62
         2
100
AcDbLine
 10
1590.6828425579
 20
-216.840934908
 30
1.3110437414
 11
1590.6828425579
 21
-231.7115319785
 31
-1.3110437414
  0
ARC
  5
29A
100
AcDbEntity
  8
L1_120
  6
DASHED
 62
         2
100
AcDbCircle
 10
1567.8828425579
 20
-220.8689735113
 30
38.9451592314
 40
28.125
210
0.0
220
-0.1736481776669303
230
0.9848077530122081
100
AcDbArc
 50
198.3406919436
 51
343.3680794645
  0
ARC
  5
29B
100
AcDbEntity
  8
L1_120
  6
DASHED
 62
         2
100
AcDbCircle
 10
1567.8828425579
 20
-220.8689735113
 30
38.9451592314
 40
28.125
210
0.0
220
-0.1736481776669303
230
0.9848077530122081
100
AcDbArc
 50
16.6319205355
 51
163.3680794645
  0
LINE
  5
29C
100
AcDbEntity
  8
L1_120
  6
CENTER
 62
         1
100
AcDbLine
 10
1567.8828425579
 20
-190.0295438322
 30
6.0386153784
 11
1567.8828425579
 21
-258.5229230542
 31
-6.0386153784
  0
ARC
  5
29D
100
AcDbEntity
  8
L1_120
  6
CONTINUOUS
 62
         7
100
AcDbCircle
 10
1567.8828425579
 20
-220.8689735113
 30
38.9451592314
 40
31.775
210
0.0
220
-0.1736481776669303
230
0.9848077530122081
100
AcDbArc
 50
15.411296411
 51
164.588703589
  0
ARC
  5
29E
100
AcDbEntity
  8
L1_120
  6
CONTINUOUS
 62
         7
100
AcDbCircle
 10
1567.8828425579
 20
-220.8689735113
 30
38.9451592314
 40
31.775
210
0.0
220
-0.1736481776669303
230
0.9848077530122081
100
AcDbArc
 50
195.411296411
 51
344.588703589
  0
CIRCLE
  5
29F
100
AcDbEntity
  8
L1_120
  6
DASHED
 62
         2
100
AcDbCircle
 10
1567.8828425579
 20
-220.8689735113
 30
38.9451592314
 40
22.225
210
0.0
220
-0.1736481776669303
230
0.9848077530122081
  0
LINE
  5
2A0
100
AcDbEntity
  8
L1_120
  6
DASHED
 62
         2
100
AcDbLine
 10
1542.8828425579
 20
-229.3972337589
 30
-0.9029705239
 11
1543.0828425579
 21
-229.2002722083
 31
-0.8682408883
  0
LINE
  5
2A1
100
AcDbEntity
  8
L1_120
  6
DASHED
 62
         2
100
AcDbLine
 10
1542.8828425579
 20
-219.1552331276
 30
0.9029705239
 11
1543.0828425579
 21
-219.3521946782
 31
0.8682408883
  0
LINE
  5
2A2
100
AcDbEntity
  8
L1_120
  6
DASHED
 62
         2
100
AcDbLine
 10
1543.0828425579
 20
-219.3521946782
 30
0.8682408883
 11
1543.0828425579
 21
-229.2002722083
 31
-0.8682408883
  0
ARC
  5
2A3
100
AcDbEntity
  8
L1_120
  6
DASHED
 62
         2
100
AcDbCircle
 10
1547.3328425579
 20
-225.6689735113
 30
38.9451592314
 40
0.2
210
0.0
220
-0.1736481776669303
230
0.9848077530122081
100
AcDbArc
 50
270.0
 51
360.0
  0
ARC
  5
2A4
100
AcDbEntity
  8
L1_120
  6
DASHED
 62
         2
100
AcDbCircle
 10
1547.3328425579
 20
-216.0689735113
 30
38.9451592314
 40
0.2
210
0.0
220
-0.1736481776669303
230
0.9848077530122081
100
AcDbArc
 50
0.0
 51
90.0
  0
LINE
  5
2A5
100
AcDbEntity
  8
L1_120
  6
DASHED
 62
         2
100
AcDbLine
 10
1547.5328425579
 20
-219.5491562288
 30
0.8335112528
 11
1547.5328425579
 21
-229.0033106577
 31
-0.8335112528
  0
LINE
  5
2A6
100
AcDbEntity
  8
L1_120
  6
DASHED
 62
         2
100
AcDbLine
 10
1543.0828425579
 20
-219.3521946782
 30
0.8682408883
 11
1547.3328425579
 21
-219.3521946782
 31
0.8682408883
  0
LINE
  5
2A7
100
AcDbEntity
  8
L1_120
  6
DASHED
 62
         2
100
AcDbLine
 10
1543.0828425579
 20
-229.2002722083
 30
-0.8682408883
 11
1547.3328425579
 21
-229.2002722083
 31
-0.8682408883
  0
LINE
  5
2A8
100
AcDbEntity
  8
L1_120
  6
DASHED
 62
         2
100
AcDbLine
 10
1570.6391900932
 20
-236.485170779
 30
-2.1527650581
 11
1574.4908294051
 21
-246.9066940223
 31
-3.9903607859
  0
LINE
  5
2A9
100
AcDbEntity
  8
L1_120
  6
DASHED
 62
         2
100
AcDbLine
 10
1573.7401757417
 20
-235.3736512859
 30
-1.9567741819
 11
1577.5918150537
 21
-245.7951745291
 31
-3.7943699097
  0
LINE
  5
2AA
100
AcDbEntity
  8
L1_120
  6
DASHED
 62
         2
100
AcDbLine
 10
1577.920707471
 20
-245.677286098
 30
-3.7735829986
 11
1579.357192073
 21
-249.5640357273
 31
-4.4589218255
  0
LINE
  5
2AB
100
AcDbEntity
  8
L1_120
  6
DASHED
 62
         2
100
AcDbLine
 10
1577.920707471
 20
-245.677286098
 30
-3.7735829986
 11
1574.1619369879
 21
-247.0245824534
 31
-4.0111476971
  0
LINE
  5
2AC
100
AcDbEntity
  8
L1_120
  6
DASHED
 62
         2
100
AcDbLine
 10
1574.1619369879
 20
-247.0245824534
 30
-4.0111476971
 11
1575.5984215898
 21
-250.9113320826
 31
-4.696486524
  0
LINE
  5
2AD
100
AcDbEntity
  8
L1_120
  6
DASHED
 62
         2
100
AcDbLine
 10
1561.6037481279
 20
-201.5278844331
 30
4.0111476971
 11
1557.8449776447
 21
-202.8751807884
 31
3.7735829986
  0
LINE
  5
2AE
100
AcDbEntity
  8
L1_120
  6
DASHED
 62
         2
100
AcDbLine
 10
1558.173870062
 20
-202.7572923573
 30
3.7943699097
 11
1562.025509374
 21
-213.1788156006
 31
1.9567741819
  0
LINE
  5
2AF
100
AcDbEntity
  8
L1_120
  6
DASHED
 62
         2
100
AcDbLine
 10
1561.2748557106
 20
-201.6457728642
 30
3.9903607859
 11
1565.1264950226
 21
-212.0672961074
 31
2.1527650581
  0
LINE
  5
2B0
100
AcDbEntity
  8
L1_120
  6
DASHED
 62
         2
100
AcDbLine
 10
1557.8449776447
 20
-202.8751807884
 30
3.7735829986
 11
1556.4084930428
 21
-198.9884311591
 31
4.4589218255
  0
LINE
  5
2B1
100
AcDbEntity
  8
L1_120
  6
DASHED
 62
         2
100
AcDbLine
 10
1561.6037481279
 20
-201.5278844331
 30
4.0111476971
 11
1560.1672635259
 21
-197.6411348038
 31
4.696486524
  0
LINE
  5
2B2
100
AcDbEntity
  8
L1_120
  6
CENTER
 62
         1
100
AcDbLine
 10
1555.9890920737
 20
-192.0948719294
 30
5.6744423108
 11
1579.9237158171
 21
-256.8556705026
 31
-5.7446337699
  0
LINE
  5
2B3
100
AcDbEntity
  8
L1_120
  6
CENTER
 62
         1
100
AcDbLine
 10
1567.8828425579
 20
-257.0018227865
 30
-5.7704043608
 11
1567.8828425579
 21
-192.447832784
 31
5.612205789
  0
LINE
  5
2B4
100
AcDbEntity
  8
L1_120
  6
CENTER
 62
         1
100
AcDbLine
 10
1601.2233831308
 20
-224.2762334432
 30
0.0
 11
1533.3638614975
 21
-224.2762334432
 31
0.0
  0
LINE
  5
2B5
100
AcDbEntity
  8
L1_120
  6
DASHED
 62
         2
100
AcDbLine
 10
1559.0828425579
 20
-246.4190107354
 30
-3.9043690644
 11
1559.0828425579
 21
-233.2940831385
 31
-1.5900902092
  0
LINE
  5
2B6
100
AcDbEntity
  8
L1_120
  6
DASHED
 62
         2
100
AcDbLine
 10
1576.6828425579
 20
-246.4190107352
 30
-3.9043690644
 11
1576.6828425579
 21
-233.2940831385
 31
-1.5900902092
  0
LINE
  5
2B7
100
AcDbEntity
  8
L1_120
  6
DASHED
 62
         2
100
AcDbLine
 10
1577.4328425579
 20
-247.15761655
 30
-4.0346051976
 11
1577.4328425579
 21
-232.5208743256
 31
-1.4537526338
  0
LINE
  5
2B8
100
AcDbEntity
  8
L1_120
  6
DASHED
 62
         2
100
AcDbLine
 10
1558.3328425579
 20
-247.1576165501
 30
-4.0346051977
 11
1558.3328425579
 21
-232.5208743256
 31
-1.4537526338
  0
LINE
  5
2B9
100
AcDbEntity
  8
L1_120
  6
DASHED
 62
         2
100
AcDbLine
 10
1576.682842558
 20
-246.4190107353
 30
-3.9043690644
 11
1559.082842558
 21
-246.4190107353
 31
-3.9043690644
  0
LINE
  5
2BA
100
AcDbEntity
  8
L1_120
  6
CONTINUOUS
 62
         7
100
AcDbLine
 10
1576.755271763
 20
-200.8378089215
 30
4.1328266285
 11
1559.0104133527
 21
-200.8378089215
 31
4.1328266285
  0
LINE
  5
2BB
100
AcDbEntity
  8
L1_120
  6
DASHED
 62
         2
100
AcDbLine
 10
1559.082842558
 20
-246.4190107353
 30
-3.9043690644
 11
1558.1188656268
 21
-247.3683426908
 31
-4.0717619018
  0
LINE
  5
2BC
100
AcDbEntity
  8
L1_120
  6
DASHED
 62
         2
100
AcDbLine
 10
1576.682842558
 20
-246.4190107353
 30
-3.9043690644
 11
1577.6468194891
 21
-247.3683426908
 31
-4.0717619018
  0
LINE
  5
2BD
100
AcDbEntity
  8
L1_120
  6
CONTINUOUS
 62
         7
100
AcDbLine
 10
1537.6444606063
 20
-216.3485310315
 30
1.3978678302
 11
1538.9830588217
 21
-216.3485310315
 31
1.3978678302
  0
LINE
  5
2BE
100
AcDbEntity
  8
L1_120
  6
CONTINUOUS
 62
         7
100
AcDbLine
 10
1537.6444606063
 20
-232.203935855
 30
-1.3978678302
 11
1538.9830588217
 21
-232.203935855
 31
-1.3978678302
  0
LINE
  5
2BF
100
AcDbEntity
  8
L1_120
  6
CONTINUOUS
 62
         7
100
AcDbLine
 10
1591.6828425579
 20
-216.3485310315
 30
1.3978678302
 11
1598.1212245094
 21
-216.3485310315
 31
1.3978678302
  0
LINE
  5
2C0
100
AcDbEntity
  8
L1_120
  6
CONTINUOUS
 62
         7
100
AcDbLine
 10
1591.6828425579
 20
-232.203935855
 30
-1.3978678302
 11
1598.1212245094
 21
-232.203935855
 31
-1.3978678302
  0
ARC
  5
2C1
100
AcDbEntity
  8
L1_120
  6
CONTINUOUS
 62
         7
100
AcDbCircle
 10
1576.8630986789
 20
-229.8492296323
 30
38.9451592314
 40
2.0
210
0.0
220
-0.1736481776669303
230
0.9848077530122081
100
AcDbArc
 50
220.4838463727
 51
409.5161536273
  0
ARC
  5
2C2
100
AcDbEntity
  8
L1_120
  6
CONTINUOUS
 62
         7
100
AcDbCircle
 10
1576.8630986789
 20
-211.8887173902
 30
38.9451592314
 40
2.0
210
0.0
220
-0.1736481776669303
230
0.9848077530122081
100
AcDbArc
 50
310.4838463727
 51
499.5161536273
  0
ARC
  5
2C3
100
AcDbEntity
  8
L1_120
  6
CONTINUOUS
 62
         7
100
AcDbCircle
 10
1558.9025864368
 20
-211.8887173902
 30
38.9451592314
 40
2.0
210
0.0
220
-0.1736481776669303
230
0.9848077530122081
100
AcDbArc
 50
40.4838463727
 51
229.5161536273
  0
ARC
  5
2C4
100
AcDbEntity
  8
L1_120
  6
CONTINUOUS
 62
         7
100
AcDbCircle
 10
1558.9025864368
 20
-229.8492296323
 30
38.9451592314
 40
2.0
210
0.0
220
-0.1736481776669303
230
0.9848077530122081
100
AcDbArc
 50
130.4838463727
 51
319.5161536273
  0
ARC
  5
2C5
100
AcDbEntity
  8
L1_120
  6
CONTINUOUS
 62
         7
100
AcDbCircle
 10
1567.8828425579
 20
-220.8689735113
 30
38.9451592314
 40
12.7
210
0.0
220
-0.1736481776669303
230
0.9848077530122081
100
AcDbArc
 50
144.0323072546
 51
215.9676927454
  0
ARC
  5
2C6
100
AcDbEntity
  8
L1_120
  6
CONTINUOUS
 62
         7
100
AcDbCircle
 10
1567.8828425579
 20
-220.8689735113
 30
38.9451592314
 40
12.7
210
0.0
220
-0.1736481776669303
230
0.9848077530122081
100
AcDbArc
 50
234.0323072546
 51
305.9676927454
  0
ARC
  5
2C7
100
AcDbEntity
  8
L1_120
  6
CONTINUOUS
 62
         7
100
AcDbCircle
 10
1567.8828425579
 20
-220.8689735113
 30
38.9451592314
 40
12.7
210
0.0
220
-0.1736481776669303
230
0.9848077530122081
100
AcDbArc
 50
324.0323072546
 51
395.9676927454
  0
ARC
  5
2C8
100
AcDbEntity
  8
L1_120
  6
CONTINUOUS
 62
         7
100
AcDbCircle
 10
1567.8828425579
 20
-220.8689735113
 30
38.9451592314
 40
12.7
210
0.0
220
-0.1736481776669303
230
0.9848077530122081
100
AcDbArc
 50
54.0323072546
 51
125.9676927454
  0
LINE
  5
2C9
100
AcDbEntity
  8
L1_120
  6
CENTER
 62
         1
100
AcDbLine
 10
1591.4581648854
 20
-201.0590732353
 30
4.0938117601
 11
1543.4742369705
 21
-248.3140174659
 31
-4.2385098796
  0
LINE
  5
2CA
100
AcDbEntity
  8
L1_120
  6
CENTER
 62
         1
100
AcDbLine
 10
1591.3803079994
 20
-247.4167195862
 30
-4.0802920537
 11
1545.029572088
 21
-201.7701555028
 31
3.9684287708
  0
CIRCLE
  5
2CB
100
AcDbEntity
  8
L1_120
  6
CONTINUOUS
 62
         7
100
AcDbCircle
 10
1567.8828425579
 20
-220.8689735113
 30
38.9451592314
 40
18.4
210
0.0
220
-0.1736481776669303
230
0.9848077530122081
  0
CIRCLE
  5
2CC
100
AcDbEntity
  8
L1_120
  6
DASHED
 62
         2
100
AcDbCircle
 10
1567.8828425579
 20
-220.8689735113
 30
38.9451592314
 40
15.87
210
0.0
220
-0.1736481776669303
230
0.9848077530122081
  0
LINE
  5
2CD
100
AcDbEntity
  8
L1_120
  6
CONTINUOUS
 62
         7
100
AcDbLine
 10
1543.9996502154
 20
-315.9720386701
 30
-55.714395567
 11
1527.0831950465
 21
-315.9720386701
 31
-55.714395567
  0
LINE
  5
2CE
100
AcDbEntity
  8
L1_120
  6
CONTINUOUS
 62
         7
100
AcDbLine
 10
1545.066441681
 20
-315.1840924111
 30
-55.5754593822
 11
1526.0164035809
 21
-315.1840924111
 31
-55.5754593822
  0
LINE
  5
2CF
100
AcDbEntity
  8
L1_120
  6
CONTINUOUS
 62
         7
100
AcDbLine
 10
1543.9996502154
 20
-315.9720386701
 30
-55.714395567
 11
1545.066441681
 21
-315.1840924111
 31
-55.5754593822
  0
LINE
  5
2D0
100
AcDbEntity
  8
L1_120
  6
CONTINUOUS
 62
         7
100
AcDbLine
 10
1527.0831950465
 20
-315.9720386701
 30
-55.714395567
 11
1526.0164035809
 21
-315.1840924111
 31
-55.5754593822
  0
LINE
  5
2D1
100
AcDbEntity
  8
L1_120
  6
CONTINUOUS
 62
         7
100
AcDbLine
 10
1526.0164035809
 20
-315.1840924111
 30
-55.5754593822
 11
1526.0164035809
 21
-314.3609699797
 31
-55.4303206891
  0
LINE
  5
2D2
100
AcDbEntity
  8
L1_120
  6
CONTINUOUS
 62
         7
100
AcDbLine
 10
1527.0831950465
 20
-313.5378475483
 30
-55.285181996
 11
1526.0164035809
 21
-312.714725117
 31
-55.140043303
  0
LINE
  5
2D3
100
AcDbEntity
  8
L1_120
  6
CONTINUOUS
 62
         7
100
AcDbLine
 10
1526.0164035809
 20
-312.714725117
 30
-55.140043303
 11
1527.0831950465
 21
-311.8916026856
 31
-54.9949046099
  0
LINE
  5
2D4
100
AcDbEntity
  8
L1_120
  6
CONTINUOUS
 62
         7
100
AcDbLine
 10
1545.066441681
 20
-313.5378475483
 30
-55.285181996
 11
1543.9996502154
 21
-312.714725117
 31
-55.140043303
  0
LINE
  5
2D5
100
AcDbEntity
  8
L1_120
  6
CONTINUOUS
 62
         7
100
AcDbLine
 10
1543.9996502154
 20
-312.714725117
 30
-55.140043303
 11
1545.066441681
 21
-311.8916026856
 31
-54.9949046099
  0
LINE
  5
2D6
100
AcDbEntity
  8
L1_120
  6
CONTINUOUS
 62
         7
100
AcDbLine
 10
1545.066441681
 20
-311.8916026856
 30
-54.9949046099
 11
1526.0164035809
 21
-312.714725117
 31
-55.140043303
  0
LINE
  5
2D7
100
AcDbEntity
  8
L1_120
  6
CONTINUOUS
 62
         7
100
AcDbLine
 10
1543.9996502154
 20
-312.714725117
 30
-55.140043303
 11
1527.0831950465
 21
-313.5378475483
 31
-55.285181996
  0
LINE
  5
2D8
100
AcDbEntity
  8
L1_120
  6
CONTINUOUS
 62
         7
100
AcDbLine
 10
1527.0831950465
 20
-313.5378475483
 30
-55.285181996
 11
1526.0164035809
 21
-314.3609699797
 31
-55.4303206891
  0
LINE
  5
2D9
100
AcDbEntity
  8
L1_120
  6
CONTINUOUS
 62
         7
100
AcDbLine
 10
1545.066441681
 20
-313.5378475483
 30
-55.285181996
 11
1543.9996502154
 21
-314.3609699797
 31
-55.4303206891
  0
LINE
  5
2DA
100
AcDbEntity
  8
L1_120
  6
CONTINUOUS
 62
         7
100
AcDbLine
 10
1543.9996502154
 20
-314.3609699797
 30
-55.4303206891
 11
1545.066441681
 21
-315.1840924111
 31
-55.5754593822
  0
LINE
  5
2DB
100
AcDbEntity
  8
L1_120
  6
CONTINUOUS
 62
         7
100
AcDbLine
 10
1545.066441681
 20
-313.5378475483
 30
-55.285181996
 11
1526.0164035809
 21
-314.3609699797
 31
-55.4303206891
  0
LINE
  5
2DC
100
AcDbEntity
  8
L1_120
  6
CONTINUOUS
 62
         7
100
AcDbLine
 10
1543.9996502154
 20
-314.3609699797
 30
-55.4303206891
 11
1527.9190154682
 21
-315.1840924111
 31
-55.5754593822
  0
LINE
  5
2DD
100
AcDbEntity
  8
L1_120
  6
CONTINUOUS
 62
         7
100
AcDbLine
 10
1545.066441681
 20
-315.1840924111
 30
-55.5754593822
 11
1527.9190154682
 21
-315.1840924111
 31
-55.5754593822
  0
LINE
  5
2DE
100
AcDbEntity
  8
L1_120
  6
CONTINUOUS
 62
         7
100
AcDbLine
 10
1527.0831950465
 20
-311.8916026856
 30
-54.9949046099
 11
1526.0164035809
 21
-311.0684802543
 31
-54.8497659168
  0
LINE
  5
2DF
100
AcDbEntity
  8
L1_120
  6
CONTINUOUS
 62
         7
100
AcDbLine
 10
1526.0164035809
 20
-311.0684802543
 30
-54.8497659168
 11
1527.0831950465
 21
-310.2453578229
 31
-54.7046272237
  0
LINE
  5
2E0
100
AcDbEntity
  8
L1_120
  6
CONTINUOUS
 62
         7
100
AcDbLine
 10
1545.066441681
 20
-311.8916026856
 30
-54.9949046099
 11
1543.9996502154
 21
-311.0684802543
 31
-54.8497659168
  0
LINE
  5
2E1
100
AcDbEntity
  8
L1_120
  6
CONTINUOUS
 62
         7
100
AcDbLine
 10
1543.9996502154
 20
-311.0684802543
 30
-54.8497659168
 11
1545.066441681
 21
-310.2453578229
 31
-54.7046272237
  0
LINE
  5
2E2
100
AcDbEntity
  8
L1_120
  6
CONTINUOUS
 62
         7
100
AcDbLine
 10
1545.066441681
 20
-310.2453578229
 30
-54.7046272237
 11
1526.0164035809
 21
-311.0684802543
 31
-54.8497659168
  0
LINE
  5
2E3
100
AcDbEntity
  8
L1_120
  6
CONTINUOUS
 62
         7
100
AcDbLine
 10
1543.9996502154
 20
-311.0684802543
 30
-54.8497659168
 11
1527.0831950465
 21
-311.8916026856
 31
-54.9949046099
  0
LINE
  5
2E4
100
AcDbEntity
  8
L1_120
  6
CONTINUOUS
 62
         7
100
AcDbLine
 10
1527.0831950465
 20
-313.5378475483
 30
-55.285181996
 11
1526.0164035809
 21
-314.3609699797
 31
-55.4303206891
  0
LINE
  5
2E5
100
AcDbEntity
  8
L1_120
  6
CONTINUOUS
 62
         7
100
AcDbLine
 10
1545.066441681
 20
-313.5378475483
 30
-55.285181996
 11
1543.9996502154
 21
-314.3609699797
 31
-55.4303206891
  0
LINE
  5
2E6
100
AcDbEntity
  8
L1_120
  6
CONTINUOUS
 62
         7
100
AcDbLine
 10
1543.9996502154
 20
-314.3609699797
 30
-55.4303206891
 11
1545.066441681
 21
-315.1840924111
 31
-55.5754593822
  0
LINE
  5
2E7
100
AcDbEntity
  8
L1_120
  6
CONTINUOUS
 62
         7
100
AcDbLine
 10
1545.066441681
 20
-313.5378475483
 30
-55.285181996
 11
1526.0164035809
 21
-314.3609699797
 31
-55.4303206891
  0
LINE
  5
2E8
100
AcDbEntity
  8
L1_120
  6
CONTINUOUS
 62
         7
100
AcDbLine
 10
1543.9996502154
 20
-314.3609699797
 30
-55.4303206891
 11
1527.9190154682
 21
-315.1840924111
 31
-55.5754593822
  0
LINE
  5
2E9
100
AcDbEntity
  8
L1_120
  6
CONTINUOUS
 62
         7
100
AcDbLine
 10
1545.066441681
 20
-315.1840924111
 30
-55.5754593822
 11
1527.9190154682
 21
-315.1840924111
 31
-55.5754593822
  0
LINE
  5
2EA
100
AcDbEntity
  8
L1_120
  6
CONTINUOUS
 62
         7
100
AcDbLine
 10
1527.0831950465
 20
-310.2453578229
 30
-54.7046272237
 11
1526.0164035809
 21
-309.4222353915
 31
-54.5594885307
  0
LINE
  5
2EB
100
AcDbEntity
  8
L1_120
  6
CONTINUOUS
 62
         7
100
AcDbLine
 10
1526.0164035809
 20
-309.4222353915
 30
-54.5594885307
 11
1527.0831950465
 21
-308.5991129602
 31
-54.4143498376
  0
LINE
  5
2EC
100
AcDbEntity
  8
L1_120
  6
CONTINUOUS
 62
         7
100
AcDbLine
 10
1545.066441681
 20
-310.2453578229
 30
-54.7046272237
 11
1543.9996502154
 21
-309.4222353915
 31
-54.5594885307
  0
LINE
  5
2ED
100
AcDbEntity
  8
L1_120
  6
CONTINUOUS
 62
         7
100
AcDbLine
 10
1543.9996502154
 20
-309.4222353915
 30
-54.5594885307
 11
1545.066441681
 21
-308.5991129602
 31
-54.4143498376
  0
LINE
  5
2EE
100
AcDbEntity
  8
L1_120
  6
CONTINUOUS
 62
         7
100
AcDbLine
 10
1545.066441681
 20
-308.5991129602
 30
-54.4143498376
 11
1526.0164035809
 21
-309.4222353915
 31
-54.5594885307
  0
LINE
  5
2EF
100
AcDbEntity
  8
L1_120
  6
CONTINUOUS
 62
         7
100
AcDbLine
 10
1543.9996502154
 20
-309.4222353915
 30
-54.5594885307
 11
1527.0831950465
 21
-310.2453578229
 31
-54.7046272237
  0
LINE
  5
2F0
100
AcDbEntity
  8
L1_120
  6
CONTINUOUS
 62
         7
100
AcDbLine
 10
1527.0831950465
 20
-313.5378475483
 30
-55.285181996
 11
1526.0164035809
 21
-314.3609699797
 31
-55.4303206891
  0
LINE
  5
2F1
100
AcDbEntity
  8
L1_120
  6
CONTINUOUS
 62
         7
100
AcDbLine
 10
1545.066441681
 20
-313.5378475483
 30
-55.285181996
 11
1543.9996502154
 21
-314.3609699797
 31
-55.4303206891
  0
LINE
  5
2F2
100
AcDbEntity
  8
L1_120
  6
CONTINUOUS
 62
         7
100
AcDbLine
 10
1543.9996502154
 20
-314.3609699797
 30
-55.4303206891
 11
1545.066441681
 21
-315.1840924111
 31
-55.5754593822
  0
LINE
  5
2F3
100
AcDbEntity
  8
L1_120
  6
CONTINUOUS
 62
         7
100
AcDbLine
 10
1545.066441681
 20
-313.5378475483
 30
-55.285181996
 11
1526.0164035809
 21
-314.3609699797
 31
-55.4303206891
  0
LINE
  5
2F4
100
AcDbEntity
  8
L1_120
  6
CONTINUOUS
 62
         7
100
AcDbLine
 10
1543.9996502154
 20
-314.3609699797
 30
-55.4303206891
 11
1527.9190154682
 21
-315.1840924111
 31
-55.5754593822
  0
LINE
  5
2F5
100
AcDbEntity
  8
L1_120
  6
CONTINUOUS
 62
         7
100
AcDbLine
 10
1545.066441681
 20
-315.1840924111
 30
-55.5754593822
 11
1527.9190154682
 21
-315.1840924111
 31
-55.5754593822
  0
LINE
  5
2F6
100
AcDbEntity
  8
L1_120
  6
CONTINUOUS
 62
         7
100
AcDbLine
 10
1527.0831950465
 20
-308.5991129602
 30
-54.4143498376
 11
1526.0164035809
 21
-307.7759905288
 31
-54.2692111445
  0
LINE
  5
2F7
100
AcDbEntity
  8
L1_120
  6
CONTINUOUS
 62
         7
100
AcDbLine
 10
1526.0164035809
 20
-307.7759905288
 30
-54.2692111445
 11
1527.0831950465
 21
-306.9528680975
 31
-54.1240724514
  0
LINE
  5
2F8
100
AcDbEntity
  8
L1_120
  6
CONTINUOUS
 62
         7
100
AcDbLine
 10
1545.066441681
 20
-308.5991129602
 30
-54.4143498376
 11
1543.9996502154
 21
-307.7759905288
 31
-54.2692111445
  0
LINE
  5
2F9
100
AcDbEntity
  8
L1_120
  6
CONTINUOUS
 62
         7
100
AcDbLine
 10
1543.9996502154
 20
-307.7759905288
 30
-54.2692111445
 11
1545.066441681
 21
-306.9528680975
 31
-54.1240724514
  0
LINE
  5
2FA
100
AcDbEntity
  8
L1_120
  6
CONTINUOUS
 62
         7
100
AcDbLine
 10
1545.066441681
 20
-306.9528680975
 30
-54.1240724514
 11
1526.0164035809
 21
-307.7759905288
 31
-54.2692111445
  0
LINE
  5
2FB
100
AcDbEntity
  8
L1_120
  6
CONTINUOUS
 62
         7
100
AcDbLine
 10
1543.9996502154
 20
-307.7759905288
 30
-54.2692111445
 11
1527.0831950465
 21
-308.5991129602
 31
-54.4143498376
  0
LINE
  5
2FC
100
AcDbEntity
  8
L1_120
  6
CONTINUOUS
 62
         7
100
AcDbLine
 10
1527.0831950465
 20
-313.5378475483
 30
-55.285181996
 11
1526.0164035809
 21
-314.3609699797
 31
-55.4303206891
  0
LINE
  5
2FD
100
AcDbEntity
  8
L1_120
  6
CONTINUOUS
 62
         7
100
AcDbLine
 10
1545.066441681
 20
-313.5378475483
 30
-55.285181996
 11
1543.9996502154
 21
-314.3609699797
 31
-55.4303206891
  0
LINE
  5
2FE
100
AcDbEntity
  8
L1_120
  6
CONTINUOUS
 62
         7
100
AcDbLine
 10
1543.9996502154
 20
-314.3609699797
 30
-55.4303206891
 11
1545.066441681
 21
-315.1840924111
 31
-55.5754593822
  0
LINE
  5
2FF
100
AcDbEntity
  8
L1_120
  6
CONTINUOUS
 62
         7
100
AcDbLine
 10
1545.066441681
 20
-313.5378475483
 30
-55.285181996
 11
1526.0164035809
 21
-314.3609699797
 31
-55.4303206891
  0
LINE
  5
300
100
AcDbEntity
  8
L1_120
  6
CONTINUOUS
 62
         7
100
AcDbLine
 10
1543.9996502154
 20
-314.3609699797
 30
-55.4303206891
 11
1527.9190154682
 21
-315.1840924111
 31
-55.5754593822
  0
LINE
  5
301
100
AcDbEntity
  8
L1_120
  6
CONTINUOUS
 62
         7
100
AcDbLine
 10
1545.066441681
 20
-315.1840924111
 30
-55.5754593822
 11
1527.9190154682
 21
-315.1840924111
 31
-55.5754593822
  0
LINE
  5
302
100
AcDbEntity
  8
L1_120
  6
CONTINUOUS
 62
         7
100
AcDbLine
 10
1527.0831950465
 20
-306.9528680975
 30
-54.1240724514
 11
1526.0164035809
 21
-306.1297456661
 31
-53.9789337584
  0
LINE
  5
303
100
AcDbEntity
  8
L1_120
  6
CONTINUOUS
 62
         7
100
AcDbLine
 10
1526.0164035809
 20
-306.1297456661
 30
-53.9789337584
 11
1527.0831950465
 21
-305.3066232348
 31
-53.8337950653
  0
LINE
  5
304
100
AcDbEntity
  8
L1_120
  6
CONTINUOUS
 62
         7
100
AcDbLine
 10
1545.066441681
 20
-306.9528680975
 30
-54.1240724514
 11
1543.9996502154
 21
-306.1297456661
 31
-53.9789337584
  0
LINE
  5
305
100
AcDbEntity
  8
L1_120
  6
CONTINUOUS
 62
         7
100
AcDbLine
 10
1543.9996502154
 20
-306.1297456661
 30
-53.9789337584
 11
1545.066441681
 21
-305.3066232348
 31
-53.8337950653
  0
LINE
  5
306
100
AcDbEntity
  8
L1_120
  6
CONTINUOUS
 62
         7
100
AcDbLine
 10
1545.066441681
 20
-305.3066232348
 30
-53.8337950653
 11
1526.0164035809
 21
-306.1297456661
 31
-53.9789337584
  0
LINE
  5
307
100
AcDbEntity
  8
L1_120
  6
CONTINUOUS
 62
         7
100
AcDbLine
 10
1543.9996502154
 20
-306.1297456661
 30
-53.9789337584
 11
1527.0831950465
 21
-306.9528680975
 31
-54.1240724514
  0
LINE
  5
308
100
AcDbEntity
  8
L1_120
  6
CONTINUOUS
 62
         7
100
AcDbLine
 10
1527.0831950465
 20
-313.5378475483
 30
-55.285181996
 11
1526.0164035809
 21
-314.3609699797
 31
-55.4303206891
  0
LINE
  5
309
100
AcDbEntity
  8
L1_120
  6
CONTINUOUS
 62
         7
100
AcDbLine
 10
1545.066441681
 20
-313.5378475483
 30
-55.285181996
 11
1543.9996502154
 21
-314.3609699797
 31
-55.4303206891
  0
LINE
  5
30A
100
AcDbEntity
  8
L1_120
  6
CONTINUOUS
 62
         7
100
AcDbLine
 10
1543.9996502154
 20
-314.3609699797
 30
-55.4303206891
 11
1545.066441681
 21
-315.1840924111
 31
-55.5754593822
  0
LINE
  5
30B
100
AcDbEntity
  8
L1_120
  6
CONTINUOUS
 62
         7
100
AcDbLine
 10
1545.066441681
 20
-313.5378475483
 30
-55.285181996
 11
1526.0164035809
 21
-314.3609699797
 31
-55.4303206891
  0
LINE
  5
30C
100
AcDbEntity
  8
L1_120
  6
CONTINUOUS
 62
         7
100
AcDbLine
 10
1543.9996502154
 20
-314.3609699797
 30
-55.4303206891
 11
1527.9190154682
 21
-315.1840924111
 31
-55.5754593822
  0
LINE
  5
30D
100
AcDbEntity
  8
L1_120
  6
CONTINUOUS
 62
         7
100
AcDbLine
 10
1545.066441681
 20
-315.1840924111
 30
-55.5754593822
 11
1527.9190154682
 21
-315.1840924111
 31
-55.5754593822
  0
LINE
  5
30E
100
AcDbEntity
  8
L1_120
  6
CONTINUOUS
 62
         7
100
AcDbLine
 10
1527.0831950465
 20
-305.3066232348
 30
-53.8337950653
 11
1526.0164035809
 21
-304.4835008034
 31
-53.6886563722
  0
LINE
  5
30F
100
AcDbEntity
  8
L1_120
  6
CONTINUOUS
 62
         7
100
AcDbLine
 10
1526.0164035809
 20
-304.4835008034
 30
-53.6886563722
 11
1527.0831950465
 21
-303.660378372
 31
-53.5435176791
  0
LINE
  5
310
100
AcDbEntity
  8
L1_120
  6
CONTINUOUS
 62
         7
100
AcDbLine
 10
1545.066441681
 20
-305.3066232348
 30
-53.8337950653
 11
1543.9996502154
 21
-304.4835008034
 31
-53.6886563722
  0
LINE
  5
311
100
AcDbEntity
  8
L1_120
  6
CONTINUOUS
 62
         7
100
AcDbLine
 10
1543.9996502154
 20
-304.4835008034
 30
-53.6886563722
 11
1545.066441681
 21
-303.660378372
 31
-53.5435176791
  0
LINE
  5
312
100
AcDbEntity
  8
L1_120
  6
CONTINUOUS
 62
         7
100
AcDbLine
 10
1545.066441681
 20
-303.660378372
 30
-53.5435176791
 11
1526.0164035809
 21
-304.4835008034
 31
-53.6886563722
  0
LINE
  5
313
100
AcDbEntity
  8
L1_120
  6
CONTINUOUS
 62
         7
100
AcDbLine
 10
1543.9996502154
 20
-304.4835008034
 30
-53.6886563722
 11
1527.0831950465
 21
-305.3066232348
 31
-53.8337950653
  0
LINE
  5
314
100
AcDbEntity
  8
L1_120
  6
CONTINUOUS
 62
         7
100
AcDbLine
 10
1527.0831950465
 20
-313.5378475483
 30
-55.285181996
 11
1526.0164035809
 21
-314.3609699797
 31
-55.4303206891
  0
LINE
  5
315
100
AcDbEntity
  8
L1_120
  6
CONTINUOUS
 62
         7
100
AcDbLine
 10
1545.066441681
 20
-313.5378475483
 30
-55.285181996
 11
1543.9996502154
 21
-314.3609699797
 31
-55.4303206891
  0
LINE
  5
316
100
AcDbEntity
  8
L1_120
  6
CONTINUOUS
 62
         7
100
AcDbLine
 10
1543.9996502154
 20
-314.3609699797
 30
-55.4303206891
 11
1545.066441681
 21
-315.1840924111
 31
-55.5754593822
  0
LINE
  5
317
100
AcDbEntity
  8
L1_120
  6
CONTINUOUS
 62
         7
100
AcDbLine
 10
1545.066441681
 20
-313.5378475483
 30
-55.285181996
 11
1526.0164035809
 21
-314.3609699797
 31
-55.4303206891
  0
LINE
  5
318
100
AcDbEntity
  8
L1_120
  6
CONTINUOUS
 62
         7
100
AcDbLine
 10
1543.9996502154
 20
-314.3609699797
 30
-55.4303206891
 11
1527.9190154682
 21
-315.1840924111
 31
-55.5754593822
  0
LINE
  5
319
100
AcDbEntity
  8
L1_120
  6
CONTINUOUS
 62
         7
100
AcDbLine
 10
1545.066441681
 20
-315.1840924111
 30
-55.5754593822
 11
1527.9190154682
 21
-315.1840924111
 31
-55.5754593822
  0
LINE
  5
31A
100
AcDbEntity
  8
L1_120
  6
CONTINUOUS
 62
         7
100
AcDbLine
 10
1527.0831950465
 20
-303.660378372
 30
-53.5435176791
 11
1526.0164035809
 21
-302.8372559407
 31
-53.3983789861
  0
LINE
  5
31B
100
AcDbEntity
  8
L1_120
  6
CONTINUOUS
 62
         7
100
AcDbLine
 10
1526.0164035809
 20
-302.8372559407
 30
-53.3983789861
 11
1527.0831950465
 21
-302.0141335093
 31
-53.253240293
  0
LINE
  5
31C
100
AcDbEntity
  8
L1_120
  6
CONTINUOUS
 62
         7
100
AcDbLine
 10
1545.066441681
 20
-303.660378372
 30
-53.5435176791
 11
1543.9996502154
 21
-302.8372559407
 31
-53.3983789861
  0
LINE
  5
31D
100
AcDbEntity
  8
L1_120
  6
CONTINUOUS
 62
         7
100
AcDbLine
 10
1543.9996502154
 20
-302.8372559407
 30
-53.3983789861
 11
1545.066441681
 21
-302.0141335093
 31
-53.253240293
  0
LINE
  5
31E
100
AcDbEntity
  8
L1_120
  6
CONTINUOUS
 62
         7
100
AcDbLine
 10
1545.066441681
 20
-302.0141335093
 30
-53.253240293
 11
1526.0164035809
 21
-302.8372559407
 31
-53.3983789861
  0
LINE
  5
31F
100
AcDbEntity
  8
L1_120
  6
CONTINUOUS
 62
         7
100
AcDbLine
 10
1543.9996502154
 20
-302.8372559407
 30
-53.3983789861
 11
1527.0831950465
 21
-303.660378372
 31
-53.5435176791
  0
LINE
  5
320
100
AcDbEntity
  8
L1_120
  6
CONTINUOUS
 62
         7
100
AcDbLine
 10
1529.826411201
 20
-298.2620084661
 30
-52.5916394129
 11
1541.256434061
 21
-298.2620084661
 31
-52.5916394129
  0
LINE
  5
321
100
AcDbEntity
  8
L1_120
  6
CONTINUOUS
 62
         7
100
AcDbLine
 10
1526.0164035809
 20
-302.0141335093
 30
-53.253240293
 11
1545.066441681
 21
-302.0141335093
 31
-53.253240293
  0
LINE
  5
322
100
AcDbEntity
  8
L1_120
  6
CONTINUOUS
 62
         7
100
AcDbLine
 10
1529.826411201
 20
-298.2620084661
 30
-52.5916394129
 11
1526.0164035809
 21
-302.0141335093
 31
-53.253240293
  0
LINE
  5
323
100
AcDbEntity
  8
L1_120
  6
CONTINUOUS
 62
         7
100
AcDbLine
 10
1541.256434061
 20
-298.2620084661
 30
-52.5916394129
 11
1545.066441681
 21
-302.0141335093
 31
-53.253240293
  0
LINE
  5
324
100
AcDbEntity
  8
L1_120
  6
DASHED
 62
         2
100
AcDbLine
 10
1530.0421503184
 20
-306.5917260621
 30
-54.0603933667
 11
1541.0406949436
 21
-306.5917260621
 31
-54.0603933667
  0
LINE
  5
325
100
AcDbEntity
  8
L1_120
  6
DASHED
 62
         2
100
AcDbLine
 10
1530.0421503184
 20
-315.9720386701
 30
-55.714395567
 11
1530.0421503184
 21
-306.5917260621
 31
-54.0603933667
  0
LINE
  5
326
100
AcDbEntity
  8
L1_120
  6
DASHED
 62
         2
100
AcDbLine
 10
1541.0406949436
 20
-315.9720386701
 30
-55.714395567
 11
1541.0406949436
 21
-306.5917260621
 31
-54.0603933667
  0
LINE
  5
327
100
AcDbEntity
  8
L1_120
  6
DASHED
 62
         2
100
AcDbLine
 10
1532.7917864747
 20
-315.9720386701
 30
-55.714395567
 11
1532.7917864747
 21
-306.5917260621
 31
-54.0603933667
  0
LINE
  5
328
100
AcDbEntity
  8
L1_120
  6
DASHED
 62
         2
100
AcDbLine
 10
1538.2910587873
 20
-315.9720386701
 30
-55.714395567
 11
1538.2910587873
 21
-306.5917260621
 31
-54.0603933667
  0
DIMENSION
  5
32B
100
AcDbEntity
  8
L1_120
  6
CONTINUOUS
 62
         4
100
AcDbDimension
  2
*D6
 10
1513.275048443
 20
-298.2620084661
 30
-52.5916394129
 11
1511.250048443
 21
-314.06405069
 31
0.0
210
0.0
220
-0.1736481776669303
230
0.9848077530122081
  3
DIMSTYLE1
100
AcDbAlignedDimension
 13
1529.826411201
 23
-298.2620084661
 33
-52.5916394129
 14
1527.0831950465
 24
-315.9720386701
 34
-55.714395567
 50
90.0
100
AcDbRotatedDimension
  0
DIMENSION
  5
339
100
AcDbEntity
  8
L1_120
  6
CONTINUOUS
 62
         4
100
AcDbDimension
  2
*D7
 10
1529.9988600468
 20
-326.9069060836
 30
-57.6425077225
 11
1544.4040538986
 21
-329.9249720465
 31
0.0
210
0.0
220
-0.1736481776669303
230
0.9848077530122081
  3
DIMSTYLE1
100
AcDbAlignedDimension
 13
1529.9988600468
 23
-315.9720386701
 33
-55.714395567
 14
1541.0839852152
 24
-315.9720386701
 34
-55.714395567
100
AcDbRotatedDimension
  0
LINE
  5
346
100
AcDbEntity
  8
L1_120
  6
CENTER
 62
         1
100
AcDbLine
 10
1535.541422631
 20
-318.0563328352
 30
-56.081912864
 11
1535.541422631
 21
-294.2282312806
 31
-51.8803756609
  0
DIMENSION
  5
349
100
AcDbEntity
  8
L1_120
  6
CONTINUOUS
 62
         4
100
AcDbDimension
  2
*D8
 10
1545.066441681
 20
-289.7536650711
 30
-51.0913889112
 11
1521.7808688396
 21
-292.1985824046
 31
0.0
210
0.0
220
-0.1736481776669303
230
0.9848077530122081
  3
DIMSTYLE1
100
AcDbAlignedDimension
 13
1545.066441681
 23
-302.0141335093
 33
-53.253240293
 14
1526.0164035809
 24
-302.0141335093
 34
-53.253240293
100
AcDbRotatedDimension
  0
INSERT
  5
3B8
100
AcDbEntity
  8
0
  6
CONTINUOUS
100
AcDbBlockReference
  2
*X9
 10
0.0
 20
0.0
 30
0.0
  0
ENDSEC
  0
SECTION
  2
OBJECTS
  0
DICTIONARY
  5
19
100
AcDbDictionary
  3
ACAD_GROUP
350
1A
  3
ACAD_MLINESTYLE
350
1B
  0
DICTIONARY
  5
1A
102
{ACAD_REACTORS
330
19
102
}
100
AcDbDictionary
  0
DICTIONARY
  5
1B
102
{ACAD_REACTORS
330
19
102
}
100
AcDbDictionary
  3
STANDARD
350
1C
  0
MLINESTYLE
  5
1C
102
{ACAD_REACTORS
330
1B
102
}
100
AcDbMlineStyle
  2
STANDARD
 70
         0
  3

 62
         0
 51
90.0
 52
90.0
 71
         2
 49
0.5
 62
       256
  6
BYLAYER
 49
-0.5
 62
       256
  6
BYLAYER
  0
ENDSEC
  0
EOF
