  0
SECTION
  2
HEADER
  9
$ACADVER
  1
AC1014
  9
$ACADMAINTVER
 70
         0
  9
$DWGCODEPAGE
  3
BIG5
  9
$INSBASE
 10
0.0
 20
0.0
 30
0.0
  9
$EXTMIN
 10
1107.6109243138
 20
-73.7660204245
 30
0.0
  9
$EXTMAX
 10
1730.5957564387
 20
240.3236086679
 30
0.0
  9
$LIMMIN
 10
0.0
 20
0.0
  9
$LIMMAX
 10
0.0
 20
0.0
  9
$ORTHOMODE
 70
         0
  9
$REGENMODE
 70
         1
  9
$FILLMODE
 70
         1
  9
$QTEXTMODE
 70
         0
  9
$MIRRTEXT
 70
         1
  9
$DRAGMODE
 70
         2
  9
$LTSCALE
 40
1.0
  9
$OSMODE
 70
         0
  9
$ATTMODE
 70
         1
  9
$TEXTSIZE
 40
2.7
  9
$TRACEWID
 40
0.05
  9
$TEXTSTYLE
  7
STANDARD
  9
$CLAYER
  8
0
  9
$CELTYPE
  6
CONTINUOUS
  9
$CECOLOR
 62
         3
  9
$CELTSCALE
 40
1.0
  9
$DELOBJ
 70
         1
  9
$DISPSILH
 70
         0
  9
$DIMSCALE
 40
1.0
  9
$DIMASZ
 40
0.18
  9
$DIMEXO
 40
0.0625
  9
$DIMDLI
 40
0.38
  9
$DIMRND
 40
0.0
  9
$DIMDLE
 40
0.0
  9
$DIMEXE
 40
0.25
  9
$DIMTP
 40
0.01
  9
$DIMTM
 40
-0.01
  9
$DIMTXT
 40
2.8
  9
$DIMCEN
 40
0.09
  9
$DIMTSZ
 40
0.0
  9
$DIMTOL
 70
         0
  9
$DIMLIM
 70
         0
  9
$DIMTIH
 70
         1
  9
$DIMTOH
 70
         1
  9
$DIMSE1
 70
         0
  9
$DIMSE2
 70
         0
  9
$DIMTAD
 70
         0
  9
$DIMZIN
 70
         0
  9
$DIMBLK
  1

  9
$DIMASO
 70
         1
  9
$DIMSHO
 70
         1
  9
$DIMPOST
  1

  9
$DIMAPOST
  1

  9
$DIMALT
 70
         0
  9
$DIMALTD
 70
         2
  9
$DIMALTF
 40
25.4
  9
$DIMLFAC
 40
1.0
  9
$DIMTOFL
 70
         0
  9
$DIMTVP
 40
0.0
  9
$DIMTIX
 70
         0
  9
$DIMSOXD
 70
         0
  9
$DIMSAH
 70
         0
  9
$DIMBLK1
  1

  9
$DIMBLK2
  1

  9
$DIMSTYLE
  2
STANDARD
  9
$DIMCLRD
 70
         0
  9
$DIMCLRE
 70
         0
  9
$DIMCLRT
 70
         3
  9
$DIMTFAC
 40
1.0
  9
$DIMGAP
 40
0.09
  9
$DIMJUST
 70
         0
  9
$DIMSD1
 70
         0
  9
$DIMSD2
 70
         0
  9
$DIMTOLJ
 70
         1
  9
$DIMTZIN
 70
         0
  9
$DIMALTZ
 70
         0
  9
$DIMALTTZ
 70
         0
  9
$DIMFIT
 70
         3
  9
$DIMUPT
 70
         0
  9
$DIMUNIT
 70
         2
  9
$DIMDEC
 70
         4
  9
$DIMTDEC
 70
         4
  9
$DIMALTU
 70
         2
  9
$DIMALTTD
 70
         2
  9
$DIMTXSTY
  7
STANDARD
  9
$DIMAUNIT
 70
         0
  9
$LUNITS
 70
         2
  9
$LUPREC
 70
        10
  9
$SKETCHINC
 40
0.1
  9
$FILLETRAD
 40
0.0
  9
$AUNITS
 70
         0
  9
$AUPREC
 70
         0
  9
$MENU
  1
acad
  9
$ELEVATION
 40
0.0
  9
$PELEVATION
 40
0.0
  9
$THICKNESS
 40
0.0
  9
$LIMCHECK
 70
         0
  9
$BLIPMODE
 70
         1
  9
$CHAMFERA
 40
0.0
  9
$CHAMFERB
 40
0.0
  9
$CHAMFERC
 40
0.0
  9
$CHAMFERD
 40
0.0
  9
$SKPOLY
 70
         0
  9
$TDCREATE
 40
0.000000000
  9
$TDUPDATE
 40
0.000000000
  9
$TDINDWG
 40
0.0000000000
  9
$TDUSRTIMER
 40
0.0000000000
  9
$USRTIMER
 70
         1
  9
$ANGBASE
 50
0.0
  9
$ANGDIR
 70
         0
  9
$PDMODE
 70
         2
  9
$PDSIZE
 40
0.0
  9
$PLINEWID
 40
0.0
  9
$COORDS
 70
         1
  9
$SPLFRAME
 70
         0
  9
$SPLINETYPE
 70
         6
  9
$SPLINESEGS
 70
         8
  9
$ATTDIA
 70
         0
  9
$ATTREQ
 70
         1
  9
$HANDLING
 70
         1
  9
$HANDSEED
  5
454
  9
$SURFTAB1
 70
         6
  9
$SURFTAB2
 70
         6
  9
$SURFTYPE
 70
         6
  9
$SURFU
 70
         6
  9
$SURFV
 70
         6
  9
$UCSNAME
  2

  9
$UCSORG
 10
0.0
 20
0.0
 30
0.0
  9
$UCSXDIR
 10
1.0
 20
0.0
 30
0.0
  9
$UCSYDIR
 10
0.0
 20
1.0
 30
0.0
  9
$PUCSNAME
  2

  9
$PUCSORG
 10
0.0
 20
0.0
 30
0.0
  9
$PUCSXDIR
 10
1.0
 20
0.0
 30
0.0
  9
$PUCSYDIR
 10
0.0
 20
1.0
 30
0.0
  9
$USERI1
 70
         0
  9
$USERI2
 70
         0
  9
$USERI3
 70
         0
  9
$USERI4
 70
         0
  9
$USERI5
 70
         0
  9
$USERR1
 40
0.0
  9
$USERR2
 40
0.0
  9
$USERR3
 40
0.0
  9
$USERR4
 40
0.0
  9
$USERR5
 40
0.0
  9
$WORLDVIEW
 70
         1
  9
$SHADEDGE
 70
         3
  9
$SHADEDIF
 70
        70
  9
$TILEMODE
 70
         1
  9
$MAXACTVP
 70
        16
  9
$PINSBASE
 10
0.0
 20
0.0
 30
0.0
  9
$PLIMCHECK
 70
         0
  9
$PEXTMIN
 10
1.0000000000E+20
 20
1.0000000000E+20
 30
1.0000000000E+20
  9
$PEXTMAX
 10
-1.0000000000E+20
 20
-1.0000000000E+20
 30
-1.0000000000E+20
  9
$PLIMMIN
 10
0.0
 20
0.0
  9
$PLIMMAX
 10
12.0
 20
9.0
  9
$UNITMODE
 70
         0
  9
$VISRETAIN
 70
         0
  9
$PLINEGEN
 70
         1
  9
$PSLTSCALE
 70
         0
  9
$TREEDEPTH
 70
      3020
  9
$PICKSTYLE
 70
         1
  9
$CMLSTYLE
  2
STANDARD
  9
$CMLJUST
 70
         0
  9
$CMLSCALE
 40
1.0
  9
$PROXYGRAPHICS
 70
         0
  9
$MEASUREMENT
 70
         0
  0
ENDSEC
  0
SECTION
  2
CLASSES
  0
CLASS
  1
LWPOLYLINE
  2
AcDbPolyline
  3
"AutoCAD"
 90
        0
280
         0
281
         1
  0
CLASS
  1
IMAGE
  2
AcDbRasterImage
  3
ISM
 90
      127
280
         0
281
         1
  0
CLASS
  1
OLE2FRAME
  2
AcDbOle2Frame
  3
""
 90
        0
280
         0
281
         1
  0
CLASS
  1
HATCH
  2
AcDbHatch
  3
"ACAD_SEDONA"
 90
        0
280
         0
281
         1
  0
CLASS
  1
DICTIONARYVAR
  2
AcDbDictionaryVar
  3
"AutoCAD"
 90
        0
280
         0
281
         0
  0
CLASS
  1
RASTERVARIABLES
  2
AcDbRasterVariables
  3
ISM
 90
        0
280
         0
281
         0
  0
CLASS
  1
IMAGEDEF
  2
AcDbRasterImageDef
  3
ISM
 90
        0
280
         0
281
         0
  0
CLASS
  1
IMAGEDEF_REACTOR
  2
AcDbRasterImageDefReactor
  3
ISM
 90
        1
280
         0
281
         0
  0
CLASS
  1
IDBUFFER
  2
AcDbIdBuffer
  3
"Acad"
 90
        0
280
         0
281
         0
  0
CLASS
  1
SPATIAL_FILTER
  2
AcDbSpatialFilter
  3
"Acad"
 90
        0
280
         0
281
         0
  0
CLASS
  1
XRECORD
  2
AcDbXrecord
  3
"<Built In>"
 90
        0
280
         0
281
         0
  0
CLASS
  1
SORTENTSTABLE
  2
AcDbSortentsTable
  3
"AutoCAD"
 90
        0
280
         0
281
         0
  0
CLASS
  1
LAYER_INDEX
  2
AcDbLayerIndex
  3
"Acad"
 90
        0
280
         0
281
         0
  0
CLASS
  1
SPATIAL_INDEX
  2
AcDbSpatialIndex
  3
"Acad"
 90
        0
280
         0
281
         0
  0
CLASS
  1
OBJECT_PTR
  2
CAseDLPNTableRecord
  3
"ASE-LPNTableRecord"
 90
        1
280
         0
281
         0
  0
CLASS
  1
LAYOUT
  2
AcDbLayout
  3
"AutoCAD 2000"
 90
        1
280
         0
281
         0
  0
CLASS
  1
PLOTSETTINGS
  2
AcDbPlotSettings
  3
"AutoCAD 2000"
 90
        1
280
         0
281
         0
  0
CLASS
  1
ACDBDICTIONARYWDFLT
  2
AcDbDictionaryWithDefault
  3
"AutoCAD 2000"
 90
        1
280
         0
281
         0
  0
CLASS
  1
ACDBPLACEHOLDER
  2
AcDbPlaceHolder
  3
"AutoCAD 2000"
 90
        1
280
         0
281
         0
  0
CLASS
  1
VBA_PROJECT
  2
AcDbVbaProject
  3
"acadvba"
 90
        1
280
         0
281
         0
  0
CLASS
  1
WIPEOUT
  2
AcDbWipeout
  3
WipeOut|AutoCAD Express Tool|expresstools@autodesk.com
 90
      127
280
         0
281
         1
  0
CLASS
  1
WIPEOUTVARIABLES
  2
AcDbWipeoutVariables
  3
WipeOut|AutoCAD Express Tool|expresstools@autodesk.com
 90
        0
280
         0
281
         0
  0
CLASS
  1
RTEXT
  2
RText
  3
RText|AutoCAD Express Tool|expresstools@autodesk.com
 90
        0
280
         0
281
         1
  0
CLASS
  1
ARCALIGNEDTEXT
  2
AcDbArcAlignedText
  3
ATEXT|AutoCAD Express Tool|expresstools@autodesk.com
 90
        0
280
         0
281
         1
  0
ENDSEC
  0
SECTION
  2
TABLES
  0
TABLE
  2
VPORT
  5
7
100
AcDbSymbolTable
 70
         1
  0
VPORT
  5
15
100
AcDbSymbolTableRecord
100
AcDbViewportTableRecord
  2
*ACTIVE
 70
         0
 10
0.0
 20
0.0
 11
1.0
 21
1.0
 12
1419.1033403763
 22
83.2787941217
 13
0.0
 23
0.0
 14
1.0
 24
1.0
 15
0.0
 25
0.0
 16
0.0
 26
0.0
 36
1.0
 17
0.0
 27
0.0
 37
0.0
 40
314.0896290925
 41
1.9834619625
 42
50.0
 43
0.0
 44
0.0
 50
0.0
 51
0.0
 71
         0
 72
       100
 73
         1
 74
         1
 75
         0
 76
         0
 77
         0
 78
         0
  0
ENDTAB
  0
TABLE
  2
LTYPE
  5
4
100
AcDbSymbolTable
 70
         6
  0
LTYPE
  5
11
100
AcDbSymbolTableRecord
100
AcDbLinetypeTableRecord
  2
BYBLOCK
 70
        64
  3

 72
        65
 73
         0
 40
0.0
  0
LTYPE
  5
12
100
AcDbSymbolTableRecord
100
AcDbLinetypeTableRecord
  2
BYLAYER
 70
        64
  3

 72
        65
 73
         0
 40
0.0
  0
LTYPE
  5
13
100
AcDbSymbolTableRecord
100
AcDbLinetypeTableRecord
  2
CONTINUOUS
 70
        64
  3
Solid line
 72
        65
 73
         0
 40
0.0
  0
LTYPE
  5
1D
100
AcDbSymbolTableRecord
100
AcDbLinetypeTableRecord
  2
DASHED
 70
        64
  3
_ _ _ _ _ _ _ _ _ _ _ _ _ _ _ _
 72
        65
 73
         2
 40
0.2
 49
0.1
 74
         0
 49
-0.1
 74
         0
  0
LTYPE
  5
1E
100
AcDbSymbolTableRecord
100
AcDbLinetypeTableRecord
  2
CENTER
 70
        64
  3
___ _ ___ _ ___ _ ___ _ ___ _ ___ _ ___ _ ___ _
 72
        65
 73
         4
 40
0.95
 49
0.625
 74
         0
 49
-0.125
 74
         0
 49
0.075
 74
         0
 49
-0.125
 74
         0
  0
LTYPE
  5
1F
100
AcDbSymbolTableRecord
100
AcDbLinetypeTableRecord
  2
PHANTOM
 70
        64
  3
______  __  __  ______  __  __  ______  __  __  
 72
        65
 73
         6
 40
1.025
 49
0.625
 74
         0
 49
-0.125
 74
         0
 49
0.075
 74
         0
 49
-0.125
 74
         0
 49
0.075
 74
         0
 49
-0.125
 74
         0
  0
ENDTAB
  0
TABLE
  2
LAYER
  5
2
100
AcDbSymbolTable
 70
         7
  0
LAYER
  5
14
100
AcDbSymbolTableRecord
100
AcDbLayerTableRecord
  2
0
 70
         0
 62
         7
  6
CONTINUOUS
  0
LAYER
  5
21
100
AcDbSymbolTableRecord
100
AcDbLayerTableRecord
  2
_____U
 70
         1
 62
         7
  6
CONTINUOUS
  0
LAYER
  5
22
100
AcDbSymbolTableRecord
100
AcDbLayerTableRecord
  2
_____T______
 70
         1
 62
         7
  6
CONTINUOUS
  0
LAYER
  5
23
100
AcDbSymbolTableRecord
100
AcDbLayerTableRecord
  2
_Y__________
 70
         0
 62
         7
  6
CONTINUOUS
  0
LAYER
  5
24
100
AcDbSymbolTableRecord
100
AcDbLayerTableRecord
  2
_X______
 70
         0
 62
         7
  6
CONTINUOUS
  0
LAYER
  5
25
100
AcDbSymbolTableRecord
100
AcDbLayerTableRecord
  2
L1_35
 70
         0
 62
         7
  6
CONTINUOUS
  0
LAYER
  5
377
100
AcDbSymbolTableRecord
100
AcDbLayerTableRecord
  2
DEFPOINTS
 70
         0
 62
        -7
  6
CONTINUOUS
  0
ENDTAB
  0
TABLE
  2
STYLE
  5
3
100
AcDbSymbolTable
 70
        10
  0
STYLE
  5
17
100
AcDbSymbolTableRecord
100
AcDbTextStyleTableRecord
  2
STANDARD
 70
         0
 40
0.0
 41
1.0
 50
0.0
 71
         0
 42
0.0
  3
txt
  4

  0
STYLE
  5
380
100
AcDbSymbolTableRecord
100
AcDbTextStyleTableRecord
  2
BOX
 70
         0
 40
1.0
 41
1.0
 50
0.0
 71
         0
 42
0.2
  3
txt.shx
  4

  0
STYLE
  5
3A1
100
AcDbSymbolTableRecord
100
AcDbTextStyleTableRecord
  2
BOX
 70
         0
 40
1.0
 41
1.0
 50
0.0
 71
         0
 42
0.2
  3
txt.shx
  4

  0
STYLE
  5
3AF
100
AcDbSymbolTableRecord
100
AcDbTextStyleTableRecord
  2
BOX
 70
         0
 40
1.0
 41
1.0
 50
0.0
 71
         0
 42
0.2
  3
txt.shx
  4

  0
STYLE
  5
406
100
AcDbSymbolTableRecord
100
AcDbTextStyleTableRecord
  2
BOX
 70
         0
 40
1.0
 41
1.0
 50
0.0
 71
         0
 42
0.2
  3
txt.shx
  4

  0
STYLE
  5
416
100
AcDbSymbolTableRecord
100
AcDbTextStyleTableRecord
  2
BOX
 70
         0
 40
1.0
 41
1.0
 50
0.0
 71
         0
 42
0.2
  3
txt.shx
  4

  0
STYLE
  5
425
100
AcDbSymbolTableRecord
100
AcDbTextStyleTableRecord
  2
BOX
 70
         0
 40
1.0
 41
1.0
 50
0.0
 71
         0
 42
0.2
  3
txt.shx
  4

  0
STYLE
  5
433
100
AcDbSymbolTableRecord
100
AcDbTextStyleTableRecord
  2
BOX
 70
         0
 40
1.0
 41
1.0
 50
0.0
 71
         0
 42
0.2
  3
txt.shx
  4

  0
STYLE
  5
44E
100
AcDbSymbolTableRecord
100
AcDbTextStyleTableRecord
  2
BOX
 70
         0
 40
1.0
 41
1.0
 50
0.0
 71
         0
 42
0.2
  3
txt.shx
  4

  0
STYLE
  5
452
100
AcDbSymbolTableRecord
100
AcDbTextStyleTableRecord
  2
BOX
 70
         0
 40
1.0
 41
1.0
 50
0.0
 71
         0
 42
0.2
  3
txt.shx
  4

  0
ENDTAB
  0
TABLE
  2
VIEW
  5
5
100
AcDbSymbolTable
 70
         0
  0
ENDTAB
  0
TABLE
  2
UCS
  5
6
100
AcDbSymbolTable
 70
         1
  0
UCS
  5
20
100
AcDbSymbolTableRecord
100
AcDbUCSTableRecord
  2
CK_VIEW_1
 70
         0
 10
0.0
 20
0.0
 30
1.0
 11
1.0
 21
0.0
 31
0.0
 12
0.0
 22
1.0
 32
0.0
  0
ENDTAB
  0
TABLE
  2
APPID
  5
8
100
AcDbSymbolTable
 70
         1
  0
APPID
  5
16
100
AcDbSymbolTableRecord
100
AcDbRegAppTableRecord
  2
ACAD
 70
         0
  0
ENDTAB
  0
TABLE
  2
DIMSTYLE
  5
9
100
AcDbSymbolTable
 70
         2
  0
DIMSTYLE
105
18
100
AcDbSymbolTableRecord
100
AcDbDimStyleTableRecord
  2
STANDARD
 70
         0
  3

  4

  5

  6

  7

 40
1.0
 41
0.18
 42
0.0625
 43
0.38
 44
0.18
 45
0.0
 46
0.0
 47
0.0
 48
0.0
 71
         0
 72
         0
 73
         1
 74
         1
 75
         0
 76
         0
 77
         0
 78
         0
140
0.18
141
0.09
142
0.0
143
25.4
144
1.0
145
0.0
146
1.0
147
0.09
170
         0
171
         2
172
         0
173
         0
174
         0
175
         0
176
         0
177
         0
178
         0
270
         2
271
         4
272
         4
273
         2
274
         2
275
         0
280
         0
281
         0
282
         0
283
         1
284
         0
285
         0
286
         0
287
         0
288
         0
340
17
  0
DIMSTYLE
105
373
100
AcDbSymbolTableRecord
100
AcDbDimStyleTableRecord
  2
DIMSTYLE1
 70
         0
  3

  4

  5

  6

  7

 40
1.0
 41
2.7
 42
0.0625
 43
0.38
 44
2.7
 45
0.0
 46
0.0
 47
0.0
 48
0.0
 71
         0
 72
         0
 73
         1
 74
         1
 75
         0
 76
         0
 77
         0
 78
         0
140
2.7
141
0.09
142
0.0
143
25.4
144
1.0
145
0.0
146
1.0
147
0.09
170
         0
171
         2
172
         0
173
         0
174
         0
175
         0
176
         0
177
         0
178
         0
270
         2
271
         4
272
         4
273
         2
274
         2
275
         0
280
         0
281
         0
282
         0
283
         1
284
         0
285
         0
286
         0
287
         0
288
         0
340
17
  0
ENDTAB
  0
TABLE
  2
BLOCK_RECORD
  5
1
100
AcDbSymbolTable
 70
         9
  0
BLOCK_RECORD
  5
A
100
AcDbSymbolTableRecord
100
AcDbBlockTableRecord
  2
*MODEL_SPACE
  0
BLOCK_RECORD
  5
B
100
AcDbSymbolTableRecord
100
AcDbBlockTableRecord
  2
*PAPER_SPACE
  0
BLOCK_RECORD
  5
26
100
AcDbSymbolTableRecord
100
AcDbBlockTableRecord
  2
*X0
  0
BLOCK_RECORD
  5
374
100
AcDbSymbolTableRecord
100
AcDbBlockTableRecord
  2
*D1
  0
BLOCK_RECORD
  5
396
100
AcDbSymbolTableRecord
100
AcDbBlockTableRecord
  2
*D2
  0
BLOCK_RECORD
  5
3A4
100
AcDbSymbolTableRecord
100
AcDbBlockTableRecord
  2
*D3
  0
BLOCK_RECORD
  5
3FB
100
AcDbSymbolTableRecord
100
AcDbBlockTableRecord
  2
*D4
  0
BLOCK_RECORD
  5
409
100
AcDbSymbolTableRecord
100
AcDbBlockTableRecord
  2
*D5
  0
BLOCK_RECORD
  5
41A
100
AcDbSymbolTableRecord
100
AcDbBlockTableRecord
  2
*D6
  0
BLOCK_RECORD
  5
428
100
AcDbSymbolTableRecord
100
AcDbBlockTableRecord
  2
*D7
  0
BLOCK_RECORD
  5
443
100
AcDbSymbolTableRecord
100
AcDbBlockTableRecord
  2
*D8
  0
ENDTAB
  0
ENDSEC
  0
SECTION
  2
BLOCKS
  0
BLOCK
  5
D
100
AcDbEntity
  8
0
100
AcDbBlockBegin
  2
*MODEL_SPACE
 70
         0
 10
0.0
 20
0.0
 30
0.0
  3
*MODEL_SPACE
  1

  0
ENDBLK
  5
E
100
AcDbEntity
  8
0
100
AcDbBlockEnd
  0
BLOCK
  5
F
100
AcDbEntity
 67
         1
  8
0
100
AcDbBlockBegin
  2
*PAPER_SPACE
 70
         0
 10
0.0
 20
0.0
 30
0.0
  3
*PAPER_SPACE
  1

  0
ENDBLK
  5
10
100
AcDbEntity
 67
         1
  8
0
100
AcDbBlockEnd
  0
BLOCK
  5
27
100
AcDbEntity
  8
0
100
AcDbBlockBegin
  2
*X0
 70
        65
 10
0.0
 20
0.0
 30
0.0
  3
*X0
  1

  0
LINE
  5
28
100
AcDbEntity
  8
_X______
  6
CONTINUOUS
 62
         4
100
AcDbLine
 10
1413.3798384623
 20
-37.9433347407
 30
0.0
 11
1414.5033403763
 21
-36.8198328267
 31
0.0
  0
LINE
  5
29
100
AcDbEntity
  8
_X______
  6
CONTINUOUS
 62
         4
100
AcDbLine
 10
1428.1298413711
 20
-23.1933318318
 30
0.0
 11
1434.6599538188
 21
-16.6632193841
 31
0.0
  0
LINE
  5
2A
100
AcDbEntity
  8
_X______
  6
CONTINUOUS
 62
         4
100
AcDbLine
 10
1409.1371977751
 20
-37.9433347407
 30
0.0
 11
1414.5033403763
 21
-32.5771921396
 31
0.0
  0
LINE
  5
2B
100
AcDbEntity
  8
_X______
  6
CONTINUOUS
 62
         4
100
AcDbLine
 10
1424.0847690757
 20
-22.9957634401
 30
0.0
 11
1430.9621977751
 21
-16.1183347407
 31
0.0
  0
LINE
  5
2C
100
AcDbEntity
  8
_X______
  6
CONTINUOUS
 62
         4
100
AcDbLine
 10
1404.894557088
 20
-37.9433347407
 30
0.0
 11
1414.5033403763
 21
-28.3345514524
 31
0.0
  0
LINE
  5
2D
100
AcDbEntity
  8
_X______
  6
CONTINUOUS
 62
         4
100
AcDbLine
 10
1423.2533403763
 20
-19.5845514524
 30
0.0
 11
1426.719557088
 21
-16.1183347407
 31
0.0
  0
LINE
  5
2E
100
AcDbEntity
  8
_X______
  6
CONTINUOUS
 62
         4
100
AcDbLine
 10
1433.069557088
 20
-9.7683347407
 30
0.0
 11
1435.0033403763
 21
-7.8345514524
 31
0.0
  0
LINE
  5
2F
100
AcDbEntity
  8
_X______
  6
CONTINUOUS
 62
         4
100
AcDbLine
 10
1403.1332790881
 20
-35.4619720535
 30
0.0
 11
1414.5033403763
 21
-24.0919107653
 31
0.0
  0
LINE
  5
30
100
AcDbEntity
  8
_X______
  6
CONTINUOUS
 62
         4
100
AcDbLine
 10
1415.4019164009
 20
-23.1933347407
 30
0.0
 11
1417.7533403763
 21
-20.8419107653
 31
0.0
  0
LINE
  5
31
100
AcDbEntity
  8
_X______
  6
CONTINUOUS
 62
         4
100
AcDbLine
 10
1428.8269164009
 20
-9.7683347407
 30
0.0
 11
1433.5702005003
 21
-5.0250506413
 31
0.0
  0
LINE
  5
32
100
AcDbEntity
  8
_X______
  6
CONTINUOUS
 62
         4
100
AcDbLine
 10
1399.2885203072
 20
-35.0640901473
 30
0.0
 11
1417.7533403763
 21
-16.5992700782
 31
0.0
  0
LINE
  5
33
100
AcDbEntity
  8
_X______
  6
CONTINUOUS
 62
         4
100
AcDbLine
 10
1424.5842757138
 20
-9.7683347407
 30
0.0
 11
1430.6767826943
 21
-3.6758277601
 31
0.0
  0
LINE
  5
34
100
AcDbEntity
  8
_X______
  6
CONTINUOUS
 62
         4
100
AcDbLine
 10
1395.5858520712
 20
-34.5241176962
 30
0.0
 11
1413.9916350267
 21
-16.1183347407
 31
0.0
  0
LINE
  5
35
100
AcDbEntity
  8
_X______
  6
CONTINUOUS
 62
         4
100
AcDbLine
 10
1420.3416350267
 20
-9.7683347407
 30
0.0
 11
1427.3692270409
 21
-2.7407427264
 31
0.0
  0
LINE
  5
36
100
AcDbEntity
  8
_X______
  6
CONTINUOUS
 62
         4
100
AcDbLine
 10
1391.8831838351
 20
-33.9841452451
 30
0.0
 11
1409.7489943395
 21
-16.1183347407
 31
0.0
  0
LINE
  5
37
100
AcDbEntity
  8
_X______
  6
CONTINUOUS
 62
         4
100
AcDbLine
 10
1416.0989943395
 20
-9.7683347407
 30
0.0
 11
1423.1265863538
 21
-2.7407427264
 31
0.0
  0
LINE
  5
38
100
AcDbEntity
  8
_X______
  6
CONTINUOUS
 62
         4
100
AcDbLine
 10
1388.1805155991
 20
-33.444172794
 30
0.0
 11
1401.6813536524
 21
-19.9433347407
 31
0.0
  0
LINE
  5
39
100
AcDbEntity
  8
_X______
  6
CONTINUOUS
 62
         4
100
AcDbLine
 10
1404.3162114626
 20
-17.3084769305
 30
0.0
 11
1405.5063536524
 21
-16.1183347407
 31
0.0
  0
LINE
  5
3A
100
AcDbEntity
  8
_X______
  6
CONTINUOUS
 62
         4
100
AcDbLine
 10
1411.8563536524
 20
-9.7683347407
 30
0.0
 11
1419.6874620921
 21
-1.937226301
 31
0.0
  0
LINE
  5
3B
100
AcDbEntity
  8
_X______
  6
CONTINUOUS
 62
         4
100
AcDbLine
 10
1384.4778473631
 20
-32.9042003429
 30
0.0
 11
1397.4387129653
 21
-19.9433347407
 31
0.0
  0
LINE
  5
3C
100
AcDbEntity
  8
_X______
  6
CONTINUOUS
 62
         4
100
AcDbLine
 10
1407.6137129653
 20
-9.7683347407
 30
0.0
 11
1419.1033403763
 21
1.7212926703
 31
0.0
  0
LINE
  5
3D
100
AcDbEntity
  8
_X______
  6
CONTINUOUS
 62
         4
100
AcDbLine
 10
1380.775179127
 20
-32.3642278918
 30
0.0
 11
1393.1960722782
 21
-19.9433347407
 31
0.0
  0
LINE
  5
3E
100
AcDbEntity
  8
_X______
  6
CONTINUOUS
 62
         4
100
AcDbLine
 10
1404.4058887866
 20
-8.7335182323
 30
0.0
 11
1419.1033403763
 21
5.9639333574
 31
0.0
  0
LINE
  5
3F
100
AcDbEntity
  8
_X______
  6
CONTINUOUS
 62
         4
100
AcDbLine
 10
1377.072510891
 20
-31.8242554407
 30
0.0
 11
1388.9534315911
 21
-19.9433347407
 31
0.0
  0
LINE
  5
40
100
AcDbEntity
  8
_X______
  6
CONTINUOUS
 62
         4
100
AcDbLine
 10
1412.4116957341
 20
3.5149294024
 30
0.0
 11
1413.6348981389
 21
4.7381318072
 31
0.0
  0
LINE
  5
41
100
AcDbEntity
  8
_X______
  6
CONTINUOUS
 62
         4
100
AcDbLine
 10
1416.004347781
 20
7.1075814493
 30
0.0
 11
1419.1033403763
 21
10.2065740445
 31
0.0
  0
LINE
  5
42
100
AcDbEntity
  8
_X______
  6
CONTINUOUS
 62
         4
100
AcDbLine
 10
1373.369842655
 20
-31.2842829897
 30
0.0
 11
1384.7107909039
 21
-19.9433347407
 31
0.0
  0
LINE
  5
43
100
AcDbEntity
  8
_X______
  6
CONTINUOUS
 62
         4
100
AcDbLine
 10
1398.7107909039
 20
-5.9433347407
 30
0.0
 11
1407.7638144118
 21
3.1096887671
 31
0.0
  0
LINE
  5
44
100
AcDbEntity
  8
_X______
  6
CONTINUOUS
 62
         4
100
AcDbLine
 10
1369.6671744189
 20
-30.7443105386
 30
0.0
 11
1380.4681502168
 21
-19.9433347407
 31
0.0
  0
LINE
  5
45
100
AcDbEntity
  8
_X______
  6
CONTINUOUS
 62
         4
100
AcDbLine
 10
1394.4681502168
 20
-5.9433347407
 30
0.0
 11
1408.7518676857
 21
8.3403827282
 31
0.0
  0
LINE
  5
46
100
AcDbEntity
  8
_X______
  6
CONTINUOUS
 62
         4
100
AcDbLine
 10
1410.9059128149
 20
10.4944278574
 30
0.0
 11
1418.8768881762
 21
18.4654032187
 31
0.0
  0
LINE
  5
47
100
AcDbEntity
  8
_X______
  6
CONTINUOUS
 62
         4
100
AcDbLine
 10
1365.9645061829
 20
-30.2043380875
 30
0.0
 11
1376.2255095297
 21
-19.9433347407
 31
0.0
  0
LINE
  5
48
100
AcDbEntity
  8
_X______
  6
CONTINUOUS
 62
         4
100
AcDbLine
 10
1390.2255095297
 20
-5.9433347407
 30
0.0
 11
1406.2565013308
 21
10.0876570604
 31
0.0
  0
LINE
  5
49
100
AcDbEntity
  8
_X______
  6
CONTINUOUS
 62
         4
100
AcDbLine
 10
1408.41054646
 20
12.2417021896
 30
0.0
 11
1411.3505095299
 21
15.1816652595
 31
0.0
  0
LINE
  5
4A
100
AcDbEntity
  8
_X______
  6
CONTINUOUS
 62
         4
100
AcDbLine
 10
1414.1466139077
 20
17.9777696373
 30
0.0
 11
1415.0005095299
 21
18.8316652595
 31
0.0
  0
LINE
  5
4B
100
AcDbEntity
  8
_X______
  6
CONTINUOUS
 62
         4
100
AcDbLine
 10
1362.2618379469
 20
-29.6643656364
 30
0.0
 11
1371.9828688426
 21
-19.9433347407
 31
0.0
  0
LINE
  5
4C
100
AcDbEntity
  8
_X______
  6
CONTINUOUS
 62
         4
100
AcDbLine
 10
1385.9828688426
 20
-5.9433347407
 30
0.0
 11
1401.3449300136
 21
9.4187264303
 31
0.0
  0
LINE
  5
4D
100
AcDbEntity
  8
_X______
  6
CONTINUOUS
 62
         4
100
AcDbLine
 10
1403.2033403763
 20
11.277136793
 30
0.0
 11
1403.761134976
 21
11.8349313927
 31
0.0
  0
LINE
  5
4E
100
AcDbEntity
  8
_X______
  6
CONTINUOUS
 62
         4
100
AcDbLine
 10
1405.9151801051
 20
13.9889765219
 30
0.0
 11
1408.7349834205
 21
16.8087798372
 31
0.0
  0
LINE
  5
4F
100
AcDbEntity
  8
_X______
  6
CONTINUOUS
 62
         4
100
AcDbLine
 10
1358.5591697108
 20
-29.1243931853
 30
0.0
 11
1367.7402281555
 21
-19.9433347407
 31
0.0
  0
LINE
  5
50
100
AcDbEntity
  8
_X______
  6
CONTINUOUS
 62
         4
100
AcDbLine
 10
1381.7402281555
 20
-5.9433347407
 30
0.0
 11
1396.446526069
 21
8.7629631729
 31
0.0
  0
LINE
  5
51
100
AcDbEntity
  8
_X______
  6
CONTINUOUS
 62
         4
100
AcDbLine
 10
1403.814722024
 20
16.1311591278
 30
0.0
 11
1406.5152281556
 21
18.8316652595
 31
0.0
  0
LINE
  5
52
100
AcDbEntity
  8
_X______
  6
CONTINUOUS
 62
         4
100
AcDbLine
 10
1354.8565014748
 20
-28.5844207342
 30
0.0
 11
1363.4975874683
 21
-19.9433347407
 31
0.0
  0
LINE
  5
53
100
AcDbEntity
  8
_X______
  6
CONTINUOUS
 62
         4
100
AcDbLine
 10
1377.4975874683
 20
-5.9433347407
 30
0.0
 11
1391.4795320938
 21
8.0386098848
 31
0.0
  0
LINE
  5
54
100
AcDbEntity
  8
_X______
  6
CONTINUOUS
 62
         4
100
AcDbLine
 10
1351.1538332388
 20
-28.0444482831
 30
0.0
 11
1359.2549467812
 21
-19.9433347407
 31
0.0
  0
LINE
  5
55
100
AcDbEntity
  8
_X______
  6
CONTINUOUS
 62
         4
100
AcDbLine
 10
1373.2549467812
 20
-5.9433347407
 30
0.0
 11
1386.5125381187
 21
7.3142565968
 31
0.0
  0
LINE
  5
56
100
AcDbEntity
  8
_X______
  6
CONTINUOUS
 62
         4
100
AcDbLine
 10
1347.4511650027
 20
-27.504475832
 30
0.0
 11
1355.0123060941
 21
-19.9433347407
 31
0.0
  0
LINE
  5
57
100
AcDbEntity
  8
_X______
  6
CONTINUOUS
 62
         4
100
AcDbLine
 10
1369.0123060941
 20
-5.9433347407
 30
0.0
 11
1381.5455441435
 21
6.5899033087
 31
0.0
  0
LINE
  5
58
100
AcDbEntity
  8
_X______
  6
CONTINUOUS
 62
         4
100
AcDbLine
 10
1343.7484967667
 20
-26.964503381
 30
0.0
 11
1350.769665407
 21
-19.9433347407
 31
0.0
  0
LINE
  5
59
100
AcDbEntity
  8
_X______
  6
CONTINUOUS
 62
         4
100
AcDbLine
 10
1364.769665407
 20
-5.9433347407
 30
0.0
 11
1376.5785501683
 21
5.8655500207
 31
0.0
  0
LINE
  5
5A
100
AcDbEntity
  8
_X______
  6
CONTINUOUS
 62
         4
100
AcDbLine
 10
1340.0458285307
 20
-26.4245309299
 30
0.0
 11
1346.5270247199
 21
-19.9433347407
 31
0.0
  0
LINE
  5
5B
100
AcDbEntity
  8
_X______
  6
CONTINUOUS
 62
         4
100
AcDbLine
 10
1360.5270247199
 20
-5.9433347407
 30
0.0
 11
1371.6115561932
 21
5.1411967326
 31
0.0
  0
LINE
  5
5C
100
AcDbEntity
  8
_X______
  6
CONTINUOUS
 62
         4
100
AcDbLine
 10
1336.3431602947
 20
-25.8845584788
 30
0.0
 11
1342.2843840328
 21
-19.9433347407
 31
0.0
  0
LINE
  5
5D
100
AcDbEntity
  8
_X______
  6
CONTINUOUS
 62
         4
100
AcDbLine
 10
1356.2843840328
 20
-5.9433347407
 30
0.0
 11
1366.644562218
 21
4.4168434446
 31
0.0
  0
LINE
  5
5E
100
AcDbEntity
  8
_X______
  6
CONTINUOUS
 62
         4
100
AcDbLine
 10
1332.6472549084
 20
-25.3378231779
 30
0.0
 11
1338.0417433456
 21
-19.9433347407
 31
0.0
  0
LINE
  5
5F
100
AcDbEntity
  8
_X______
  6
CONTINUOUS
 62
         4
100
AcDbLine
 10
1352.0417433456
 20
-5.9433347407
 30
0.0
 11
1361.6775682428
 21
3.6924901565
 31
0.0
  0
LINE
  5
60
100
AcDbEntity
  8
_X______
  6
CONTINUOUS
 62
         4
100
AcDbLine
 10
1331.7594469531
 20
-21.9829904461
 30
0.0
 11
1332.6429960817
 21
-21.0994413175
 31
0.0
  0
LINE
  5
61
100
AcDbEntity
  8
_X______
  6
CONTINUOUS
 62
         4
100
AcDbLine
 10
1347.7991026585
 20
-5.9433347407
 30
0.0
 11
1356.7105742677
 21
2.9681368685
 31
0.0
  0
LINE
  5
62
100
AcDbEntity
  8
_X______
  6
CONTINUOUS
 62
         4
100
AcDbLine
 10
1343.5564619714
 20
-5.9433347407
 30
0.0
 11
1351.7435802925
 21
2.2437835804
 31
0.0
  0
LINE
  5
63
100
AcDbEntity
  8
_X______
  6
CONTINUOUS
 62
         4
100
AcDbLine
 10
1339.3138212843
 20
-5.9433347407
 30
0.0
 11
1346.7765863174
 21
1.5194302924
 31
0.0
  0
LINE
  5
64
100
AcDbEntity
  8
_X______
  6
CONTINUOUS
 62
         4
100
AcDbLine
 10
1336.3211805972
 20
-4.6933347407
 30
0.0
 11
1341.8095923422
 21
0.7950770044
 31
0.0
  0
LINE
  5
65
100
AcDbEntity
  8
_X______
  6
CONTINUOUS
 62
         4
100
AcDbLine
 10
1332.1678561278
 20
-4.6040185229
 30
0.0
 11
1336.842598367
 21
0.0707237163
 31
0.0
  0
ENDBLK
  5
66
100
AcDbEntity
  8
0
  6
CONTINUOUS
100
AcDbBlockEnd
  0
BLOCK
  5
375
100
AcDbEntity
  8
0
100
AcDbBlockBegin
  2
*D1
 70
        65
 10
0.0
 20
0.0
 30
0.0
  3
*D1
  1

  0
POINT
  5
378
100
AcDbEntity
  8
DEFPOINTS
  6
CONTINUOUS
 62
         0
100
AcDbPoint
 10
1457.5581825844
 20
160.4346417294
 30
0.0
  0
POINT
  5
379
100
AcDbEntity
  8
DEFPOINTS
  6
CONTINUOUS
 62
         0
100
AcDbPoint
 10
1428.1264302894
 20
160.4346417294
 30
0.0
  0
POINT
  5
37A
100
AcDbEntity
  8
DEFPOINTS
  6
CONTINUOUS
 62
         0
100
AcDbPoint
 10
1428.1264302894
 20
139.9346417294
 30
0.0
  0
LINE
  5
37B
100
AcDbEntity
  8
L1_35
  6
CONTINUOUS
 62
         4
100
AcDbLine
 10
1429.4764302894
 20
160.4346417294
 30
0.0
 11
1458.2331825844
 21
160.4346417294
 31
0.0
  0
LINE
  5
37C
100
AcDbEntity
  8
L1_35
  6
CONTINUOUS
 62
         4
100
AcDbLine
 10
1429.4764302894
 20
139.9346417294
 30
0.0
 11
1458.2331825844
 21
139.9346417294
 31
0.0
  0
LINE
  5
37D
100
AcDbEntity
  8
L1_35
  6
CONTINUOUS
 62
         4
100
AcDbLine
 10
1457.5581825844
 20
160.4346417294
 30
0.0
 11
1457.5581825844
 21
139.9346417294
 31
0.0
  0
SOLID
  5
37E
100
AcDbEntity
  8
L1_35
  6
CONTINUOUS
 62
         4
100
AcDbTrace
 10
1457.5581825844
 20
160.4346417294
 30
0.0
 11
1457.9631825844
 21
157.7346417294
 31
0.0
 12
1457.1531825844
 22
157.7346417294
 32
0.0
 13
1457.5581825844
 23
160.4346417294
 33
0.0
  0
SOLID
  5
37F
100
AcDbEntity
  8
L1_35
  6
CONTINUOUS
 62
         4
100
AcDbTrace
 10
1457.5581825844
 20
139.9346417294
 30
0.0
 11
1457.1531825844
 21
142.6346417294
 31
0.0
 12
1457.9631825844
 22
142.6346417294
 32
0.0
 13
1457.5581825844
 23
139.9346417294
 33
0.0
  0
TEXT
  5
381
100
AcDbEntity
  8
L1_35
  6
CONTINUOUS
 62
         4
100
AcDbText
 10
1454.4261825844
 20
142.6170327683
 30
0.0
 40
2.7
  1
崷20.5
 50
90.0
  7
BOX
100
AcDbText
  0
ENDBLK
  5
382
100
AcDbEntity
  8
0
  6
CONTINUOUS
100
AcDbBlockEnd
  0
BLOCK
  5
397
100
AcDbEntity
  8
0
100
AcDbBlockBegin
  2
*D2
 70
        65
 10
0.0
 20
0.0
 30
0.0
  3
*D2
  1

  0
POINT
  5
399
100
AcDbEntity
  8
DEFPOINTS
  6
CONTINUOUS
 62
         0
100
AcDbPoint
 10
1400.0033403763
 20
211.7327406057
 30
0.0
  0
POINT
  5
39A
100
AcDbEntity
  8
DEFPOINTS
  6
CONTINUOUS
 62
         0
100
AcDbPoint
 10
1400.0033403763
 20
172.4096417294
 30
0.0
  0
POINT
  5
39B
100
AcDbEntity
  8
DEFPOINTS
  6
CONTINUOUS
 62
         0
100
AcDbPoint
 10
1435.0033403763
 20
150.1846417294
 30
0.0
  0
LINE
  5
39C
100
AcDbEntity
  8
L1_35
  6
CONTINUOUS
 62
         4
100
AcDbLine
 10
1400.0033403763
 20
173.7596417294
 30
0.0
 11
1400.0033403763
 21
212.4077406057
 31
0.0
  0
LINE
  5
39D
100
AcDbEntity
  8
L1_35
  6
CONTINUOUS
 62
         4
100
AcDbLine
 10
1435.0033403763
 20
151.5346417294
 30
0.0
 11
1435.0033403763
 21
212.4077406057
 31
0.0
  0
LINE
  5
39E
100
AcDbEntity
  8
L1_35
  6
CONTINUOUS
 62
         4
100
AcDbLine
 10
1400.0033403763
 20
211.7327406057
 30
0.0
 11
1435.0033403763
 21
211.7327406057
 31
0.0
  0
SOLID
  5
39F
100
AcDbEntity
  8
L1_35
  6
CONTINUOUS
 62
         4
100
AcDbTrace
 10
1400.0033403763
 20
211.7327406057
 30
0.0
 11
1402.7033403763
 21
212.1377406057
 31
0.0
 12
1402.7033403763
 22
211.3277406057
 32
0.0
 13
1400.0033403763
 23
211.7327406057
 33
0.0
  0
SOLID
  5
3A0
100
AcDbEntity
  8
L1_35
  6
CONTINUOUS
 62
         4
100
AcDbTrace
 10
1435.0033403763
 20
211.7327406057
 30
0.0
 11
1432.3033403763
 21
211.3277406057
 31
0.0
 12
1432.3033403763
 22
212.1377406057
 32
0.0
 13
1435.0033403763
 23
211.7327406057
 33
0.0
  0
TEXT
  5
3A2
100
AcDbEntity
  8
L1_35
  6
CONTINUOUS
 62
         4
100
AcDbText
 10
1415.2166425519
 20
213.7577406057
 30
0.0
 40
2.7
  1
35
  7
BOX
100
AcDbText
  0
ENDBLK
  5
3A3
100
AcDbEntity
  8
0
  6
CONTINUOUS
100
AcDbBlockEnd
  0
BLOCK
  5
3A5
100
AcDbEntity
  8
0
100
AcDbBlockBegin
  2
*D3
 70
        65
 10
0.0
 20
0.0
 30
0.0
  3
*D3
  1

  0
POINT
  5
3A7
100
AcDbEntity
  8
DEFPOINTS
  6
CONTINUOUS
 62
         0
100
AcDbPoint
 10
1331.7533403763
 20
221.3218073455
 30
0.0
  0
POINT
  5
3A8
100
AcDbEntity
  8
DEFPOINTS
  6
CONTINUOUS
 62
         0
100
AcDbPoint
 10
1331.7533403763
 20
161.4188234458
 30
0.0
  0
POINT
  5
3A9
100
AcDbEntity
  8
DEFPOINTS
  6
CONTINUOUS
 62
         0
100
AcDbPoint
 10
1435.0033403763
 20
150.1846417294
 30
0.0
  0
LINE
  5
3AA
100
AcDbEntity
  8
L1_35
  6
CONTINUOUS
 62
         4
100
AcDbLine
 10
1331.7533403763
 20
162.7688234458
 30
0.0
 11
1331.7533403763
 21
221.9968073455
 31
0.0
  0
LINE
  5
3AB
100
AcDbEntity
  8
L1_35
  6
CONTINUOUS
 62
         4
100
AcDbLine
 10
1435.0033403763
 20
151.5346417294
 30
0.0
 11
1435.0033403763
 21
221.9968073455
 31
0.0
  0
LINE
  5
3AC
100
AcDbEntity
  8
L1_35
  6
CONTINUOUS
 62
         4
100
AcDbLine
 10
1331.7533403763
 20
221.3218073455
 30
0.0
 11
1435.0033403763
 21
221.3218073455
 31
0.0
  0
SOLID
  5
3AD
100
AcDbEntity
  8
L1_35
  6
CONTINUOUS
 62
         4
100
AcDbTrace
 10
1331.7533403763
 20
221.3218073455
 30
0.0
 11
1334.4533403763
 21
221.7268073455
 31
0.0
 12
1334.4533403763
 22
220.9168073455
 32
0.0
 13
1331.7533403763
 23
221.3218073455
 33
0.0
  0
SOLID
  5
3AE
100
AcDbEntity
  8
L1_35
  6
CONTINUOUS
 62
         4
100
AcDbTrace
 10
1435.0033403763
 20
221.3218073455
 30
0.0
 11
1432.3033403763
 21
220.9168073455
 31
0.0
 12
1432.3033403763
 22
221.7268073455
 32
0.0
 13
1435.0033403763
 23
221.3218073455
 33
0.0
  0
TEXT
  5
3B0
100
AcDbEntity
  8
L1_35
  6
CONTINUOUS
 62
         4
100
AcDbText
 10
1375.9919941276
 20
223.3468073455
 30
0.0
 40
2.7
  1
103.25
  7
BOX
100
AcDbText
  0
ENDBLK
  5
3B1
100
AcDbEntity
  8
0
  6
CONTINUOUS
100
AcDbBlockEnd
  0
BLOCK
  5
3FC
100
AcDbEntity
  8
0
100
AcDbBlockBegin
  2
*D4
 70
        65
 10
0.0
 20
0.0
 30
0.0
  3
*D4
  1

  0
POINT
  5
3FE
100
AcDbEntity
  8
DEFPOINTS
  6
CONTINUOUS
 62
         0
100
AcDbPoint
 10
1584.8309640607
 20
2.4837932173
 30
0.0
  0
POINT
  5
3FF
100
AcDbEntity
  8
DEFPOINTS
  6
CONTINUOUS
 62
         0
100
AcDbPoint
 10
1584.8309640607
 20
-3.9140818385
 30
0.0
  0
POINT
  5
400
100
AcDbEntity
  8
DEFPOINTS
  6
CONTINUOUS
 62
         0
100
AcDbPoint
 10
1591.1809767607
 20
-3.9140818385
 30
0.0
  0
LINE
  5
401
100
AcDbEntity
  8
L1_35
  6
CONTINUOUS
 62
         4
100
AcDbLine
 10
1584.8309640607
 20
-2.5640818385
 30
0.0
 11
1584.8309640607
 21
3.1587932173
 31
0.0
  0
LINE
  5
402
100
AcDbEntity
  8
L1_35
  6
CONTINUOUS
 62
         4
100
AcDbLine
 10
1591.1809767607
 20
-2.5640818385
 30
0.0
 11
1591.1809767607
 21
3.1587932173
 31
0.0
  0
LINE
  5
403
100
AcDbEntity
  8
L1_35
  6
CONTINUOUS
 62
         4
100
AcDbLine
 10
1584.8309640607
 20
2.4837932173
 30
0.0
 11
1591.1809767607
 21
2.4837932173
 31
0.0
  0
SOLID
  5
404
100
AcDbEntity
  8
L1_35
  6
CONTINUOUS
 62
         4
100
AcDbTrace
 10
1584.8309640607
 20
2.4837932173
 30
0.0
 11
1587.5309640607
 21
2.8887932173
 31
0.0
 12
1587.5309640607
 22
2.0787932173
 32
0.0
 13
1584.8309640607
 23
2.4837932173
 33
0.0
  0
SOLID
  5
405
100
AcDbEntity
  8
L1_35
  6
CONTINUOUS
 62
         4
100
AcDbTrace
 10
1591.1809767607
 20
2.4837932173
 30
0.0
 11
1588.4809767607
 21
2.0787932173
 31
0.0
 12
1588.4809767607
 22
2.8887932173
 32
0.0
 13
1591.1809767607
 23
2.4837932173
 33
0.0
  0
TEXT
  5
407
100
AcDbEntity
  8
L1_35
  6
CONTINUOUS
 62
         4
100
AcDbText
 10
1576.208337861
 20
4.5087932173
 30
0.0
 40
2.7
  1
1/4"-28UNF
  7
BOX
100
AcDbText
  0
ENDBLK
  5
408
100
AcDbEntity
  8
0
  6
CONTINUOUS
100
AcDbBlockEnd
  0
BLOCK
  5
40A
100
AcDbEntity
  8
0
100
AcDbBlockBegin
  2
*D5
 70
        65
 10
0.0
 20
0.0
 30
0.0
  3
*D5
  1

  0
POINT
  5
40C
100
AcDbEntity
  8
DEFPOINTS
  6
CONTINUOUS
 62
         0
100
AcDbPoint
 10
1586.1584495493
 20
-19.4024828789
 30
0.0
  0
POINT
  5
40D
100
AcDbEntity
  8
DEFPOINTS
  6
CONTINUOUS
 62
         0
100
AcDbPoint
 10
1586.1584495493
 20
-10.4164948434
 30
0.0
  0
POINT
  5
40E
100
AcDbEntity
  8
DEFPOINTS
  6
CONTINUOUS
 62
         0
100
AcDbPoint
 10
1589.8534912721
 20
-10.4164948434
 30
0.0
  0
LINE
  5
40F
100
AcDbEntity
  8
L1_35
  6
CONTINUOUS
 62
         4
100
AcDbLine
 10
1586.1584495493
 20
-11.7664948434
 30
0.0
 11
1586.1584495493
 21
-20.0774828789
 31
0.0
  0
LINE
  5
410
100
AcDbEntity
  8
L1_35
  6
CONTINUOUS
 62
         4
100
AcDbLine
 10
1589.8534912721
 20
-11.7664948434
 30
0.0
 11
1589.8534912721
 21
-20.0774828789
 31
0.0
  0
LINE
  5
411
100
AcDbEntity
  8
L1_35
  6
CONTINUOUS
 62
         4
100
AcDbLine
 10
1586.1584495493
 20
-19.4024828789
 30
0.0
 11
1580.7584495493
 21
-19.4024828789
 31
0.0
  0
SOLID
  5
412
100
AcDbEntity
  8
L1_35
  6
CONTINUOUS
 62
         4
100
AcDbTrace
 10
1586.1584495493
 20
-19.4024828789
 30
0.0
 11
1583.4584495493
 21
-19.8074828789
 31
0.0
 12
1583.4584495493
 22
-18.9974828789
 32
0.0
 13
1586.1584495493
 23
-19.4024828789
 33
0.0
  0
LINE
  5
413
100
AcDbEntity
  8
L1_35
  6
CONTINUOUS
 62
         4
100
AcDbLine
 10
1589.8534912721
 20
-19.4024828789
 30
0.0
 11
1613.5076721234
 21
-19.4024828789
 31
0.0
  0
SOLID
  5
414
100
AcDbEntity
  8
L1_35
  6
CONTINUOUS
 62
         4
100
AcDbTrace
 10
1589.8534912721
 20
-19.4024828789
 30
0.0
 11
1592.5534912721
 21
-18.9974828789
 31
0.0
 12
1592.5534912721
 22
-19.8074828789
 32
0.0
 13
1589.8534912721
 23
-19.4024828789
 33
0.0
  0
LINE
  5
415
100
AcDbEntity
  8
L1_35
  6
CONTINUOUS
 62
         4
100
AcDbLine
 10
1586.1584495493
 20
-19.4024828789
 30
0.0
 11
1589.8534912721
 21
-19.4024828789
 31
0.0
  0
TEXT
  5
417
100
AcDbEntity
  8
L1_35
  6
CONTINUOUS
 62
         4
100
AcDbText
 10
1593.2576721234
 20
-17.3774828789
 30
0.0
 40
2.7
  1
1/8"Hex
  7
BOX
100
AcDbText
  0
ENDBLK
  5
418
100
AcDbEntity
  8
0
  6
CONTINUOUS
100
AcDbBlockEnd
  0
BLOCK
  5
41B
100
AcDbEntity
  8
0
100
AcDbBlockBegin
  2
*D6
 70
        65
 10
0.0
 20
0.0
 30
0.0
  3
*D6
  1

  0
POINT
  5
41D
100
AcDbEntity
  8
DEFPOINTS
  6
CONTINUOUS
 62
         0
100
AcDbPoint
 10
1577.3969268656
 20
-2.4154788413
 30
0.0
  0
POINT
  5
41E
100
AcDbEntity
  8
DEFPOINTS
  6
CONTINUOUS
 62
         0
100
AcDbPoint
 10
1586.3295670579
 20
-2.4154788413
 30
0.0
  0
POINT
  5
41F
100
AcDbEntity
  8
DEFPOINTS
  6
CONTINUOUS
 62
         0
100
AcDbPoint
 10
1585.4405591839
 20
-10.4164948434
 30
0.0
  0
LINE
  5
420
100
AcDbEntity
  8
L1_35
  6
CONTINUOUS
 62
         4
100
AcDbLine
 10
1584.9795670579
 20
-2.4154788413
 30
0.0
 11
1576.7219268656
 21
-2.4154788413
 31
0.0
  0
LINE
  5
421
100
AcDbEntity
  8
L1_35
  6
CONTINUOUS
 62
         4
100
AcDbLine
 10
1584.0905591839
 20
-10.4164948434
 30
0.0
 11
1576.7219268656
 21
-10.4164948434
 31
0.0
  0
LINE
  5
422
100
AcDbEntity
  8
L1_35
  6
CONTINUOUS
 62
         4
100
AcDbLine
 10
1577.3969268656
 20
-2.4154788413
 30
0.0
 11
1577.3969268656
 21
-10.4164948434
 31
0.0
  0
SOLID
  5
423
100
AcDbEntity
  8
L1_35
  6
CONTINUOUS
 62
         4
100
AcDbTrace
 10
1577.3969268656
 20
-2.4154788413
 30
0.0
 11
1577.8019268656
 21
-5.1154788413
 31
0.0
 12
1576.9919268656
 22
-5.1154788413
 32
0.0
 13
1577.3969268656
 23
-2.4154788413
 33
0.0
  0
SOLID
  5
424
100
AcDbEntity
  8
L1_35
  6
CONTINUOUS
 62
         4
100
AcDbTrace
 10
1577.3969268656
 20
-10.4164948434
 30
0.0
 11
1576.9919268656
 21
-7.7164948434
 31
0.0
 12
1577.8019268656
 22
-7.7164948434
 32
0.0
 13
1577.3969268656
 23
-10.4164948434
 33
0.0
  0
TEXT
  5
426
100
AcDbEntity
  8
L1_35
  6
CONTINUOUS
 62
         4
100
AcDbText
 10
1575.3719268656
 20
-10.5844598348
 30
0.0
 40
2.7
  1
6.6
 50
90.0
  7
BOX
100
AcDbText
  0
ENDBLK
  5
427
100
AcDbEntity
  8
0
  6
CONTINUOUS
100
AcDbBlockEnd
  0
BLOCK
  5
429
100
AcDbEntity
  8
0
100
AcDbBlockBegin
  2
*D7
 70
        65
 10
0.0
 20
0.0
 30
0.0
  3
*D7
  1

  0
POINT
  5
42B
100
AcDbEntity
  8
DEFPOINTS
  6
CONTINUOUS
 62
         0
100
AcDbPoint
 10
1435.0033403763
 20
-58.8142191022
 30
0.0
  0
POINT
  5
42C
100
AcDbEntity
  8
DEFPOINTS
  6
CONTINUOUS
 62
         0
100
AcDbPoint
 10
1435.0033403763
 20
-19.2377293495
 30
0.0
  0
POINT
  5
42D
100
AcDbEntity
  8
DEFPOINTS
  6
CONTINUOUS
 62
         0
100
AcDbPoint
 10
1405.0033403763
 20
-16.1183347407
 30
0.0
  0
LINE
  5
42E
100
AcDbEntity
  8
L1_35
  6
CONTINUOUS
 62
         4
100
AcDbLine
 10
1435.0033403763
 20
-20.5877293495
 30
0.0
 11
1435.0033403763
 21
-59.4892191022
 31
0.0
  0
LINE
  5
42F
100
AcDbEntity
  8
L1_35
  6
CONTINUOUS
 62
         4
100
AcDbLine
 10
1405.0033403763
 20
-17.4683347407
 30
0.0
 11
1405.0033403763
 21
-59.4892191022
 31
0.0
  0
LINE
  5
430
100
AcDbEntity
  8
L1_35
  6
CONTINUOUS
 62
         4
100
AcDbLine
 10
1435.0033403763
 20
-58.8142191022
 30
0.0
 11
1405.0033403763
 21
-58.8142191022
 31
0.0
  0
SOLID
  5
431
100
AcDbEntity
  8
L1_35
  6
CONTINUOUS
 62
         4
100
AcDbTrace
 10
1435.0033403763
 20
-58.8142191022
 30
0.0
 11
1432.3033403763
 21
-59.2192191022
 31
0.0
 12
1432.3033403763
 22
-58.4092191022
 32
0.0
 13
1435.0033403763
 23
-58.8142191022
 33
0.0
  0
SOLID
  5
432
100
AcDbEntity
  8
L1_35
  6
CONTINUOUS
 62
         4
100
AcDbTrace
 10
1405.0033403763
 20
-58.8142191022
 30
0.0
 11
1407.7033403763
 21
-58.4092191022
 31
0.0
 12
1407.7033403763
 22
-59.2192191022
 32
0.0
 13
1405.0033403763
 23
-58.8142191022
 33
0.0
  0
TEXT
  5
434
100
AcDbEntity
  8
L1_35
  6
CONTINUOUS
 62
         4
100
AcDbText
 10
1416.5688926076
 20
-56.7892191022
 30
0.0
 40
2.7
  1
30
  7
BOX
100
AcDbText
  0
ENDBLK
  5
435
100
AcDbEntity
  8
0
  6
CONTINUOUS
100
AcDbBlockEnd
  0
BLOCK
  5
444
100
AcDbEntity
  8
0
100
AcDbBlockBegin
  2
*D8
 70
        65
 10
0.0
 20
0.0
 30
0.0
  3
*D8
  1

  0
POINT
  5
446
100
AcDbEntity
  8
DEFPOINTS
  6
CONTINUOUS
 62
         0
100
AcDbPoint
 10
1447.1650177554
 20
157.4346417294
 30
0.0
  0
POINT
  5
447
100
AcDbEntity
  8
DEFPOINTS
  6
CONTINUOUS
 62
         0
100
AcDbPoint
 10
1435.0033403763
 20
157.4346417294
 30
0.0
  0
POINT
  5
448
100
AcDbEntity
  8
DEFPOINTS
  6
CONTINUOUS
 62
         0
100
AcDbPoint
 10
1435.0033403763
 20
142.9346417294
 30
0.0
  0
LINE
  5
449
100
AcDbEntity
  8
L1_35
  6
CONTINUOUS
 62
         4
100
AcDbLine
 10
1436.3533403763
 20
157.4346417294
 30
0.0
 11
1447.8400177554
 21
157.4346417294
 31
0.0
  0
LINE
  5
44A
100
AcDbEntity
  8
L1_35
  6
CONTINUOUS
 62
         4
100
AcDbLine
 10
1436.3533403763
 20
142.9346417294
 30
0.0
 11
1447.8400177554
 21
142.9346417294
 31
0.0
  0
LINE
  5
44B
100
AcDbEntity
  8
L1_35
  6
CONTINUOUS
 62
         4
100
AcDbLine
 10
1447.1650177554
 20
157.4346417294
 30
0.0
 11
1447.1650177554
 21
142.9346417294
 31
0.0
  0
SOLID
  5
44C
100
AcDbEntity
  8
L1_35
  6
CONTINUOUS
 62
         4
100
AcDbTrace
 10
1447.1650177554
 20
157.4346417294
 30
0.0
 11
1447.5700177554
 21
154.7346417294
 31
0.0
 12
1446.7600177554
 22
154.7346417294
 32
0.0
 13
1447.1650177554
 23
157.4346417294
 33
0.0
  0
SOLID
  5
44D
100
AcDbEntity
  8
L1_35
  6
CONTINUOUS
 62
         4
100
AcDbTrace
 10
1447.1650177554
 20
142.9346417294
 30
0.0
 11
1446.7600177554
 21
145.6346417294
 31
0.0
 12
1447.5700177554
 22
145.6346417294
 32
0.0
 13
1447.1650177554
 23
142.9346417294
 33
0.0
  0
TEXT
  5
44F
100
AcDbEntity
  8
L1_35
  6
CONTINUOUS
 62
         4
100
AcDbText
 10
1445.1400177554
 20
139.8257296056
 30
0.0
 40
2.7
  1
崷14.5
 50
90.0
  7
BOX
100
AcDbText
  0
ENDBLK
  5
450
100
AcDbEntity
  8
0
  6
CONTINUOUS
100
AcDbBlockEnd
  0
ENDSEC
  0
SECTION
  2
ENTITIES
  0
INSERT
  5
68
100
AcDbEntity
  8
0
  6
CONTINUOUS
100
AcDbBlockReference
  2
*X0
 10
0.0
 20
0.0
 30
0.0
  0
LINE
  5
69
100
AcDbEntity
  8
L1_35
  6
CONTINUOUS
 62
         7
100
AcDbLine
 10
1614.4684382214
 20
144.9539629971
 30
0.0
 11
1598.2833403762
 21
144.9539629971
 31
0.0
  0
LINE
  5
6A
100
AcDbEntity
  8
L1_35
  6
CONTINUOUS
 62
         7
100
AcDbLine
 10
1614.5872205519
 20
144.7587777429
 30
0.0
 11
1598.2833403762
 21
144.7587777429
 31
0.0
  0
LINE
  5
6B
100
AcDbEntity
  8
L1_35
  6
CONTINUOUS
 62
         7
100
AcDbLine
 10
1614.4684382214
 20
155.4153204616
 30
0.0
 11
1598.2833403762
 21
155.4153204616
 31
0.0
  0
LINE
  5
6C
100
AcDbEntity
  8
L1_35
  6
CONTINUOUS
 62
         7
100
AcDbLine
 10
1614.5872205519
 20
155.6105057159
 30
0.0
 11
1598.2833403762
 21
155.6105057159
 31
0.0
  0
ARC
  5
6D
100
AcDbEntity
  8
L1_35
  6
CONTINUOUS
 62
         7
100
AcDbCircle
 10
1422.1033403763
 20
-26.1933347407
 30
0.0
 40
3.0
100
AcDbArc
 50
90.0
 51
180.0
  0
LINE
  5
6E
100
AcDbEntity
  8
L1_35
  6
CONTINUOUS
 62
         7
100
AcDbLine
 10
1414.5033403763
 20
-23.1933347407
 30
0.0
 11
1414.5033403763
 21
-37.9433347407
 31
0.0
  0
LINE
  5
6F
100
AcDbEntity
  8
L1_35
  6
CONTINUOUS
 62
         7
100
AcDbLine
 10
1403.2033403763
 20
-37.9433347407
 30
0.0
 11
1419.1033403763
 21
-37.9433347407
 31
0.0
  0
ARC
  5
70
100
AcDbEntity
  8
L1_35
  6
CONTINUOUS
 62
         7
100
AcDbCircle
 10
1422.1033403763
 20
136.9346417294
 30
0.0
 40
3.0
100
AcDbArc
 50
90.0
 51
180.0
  0
ARC
  5
71
100
AcDbEntity
  8
L1_35
  6
CONTINUOUS
 62
         7
100
AcDbCircle
 10
1422.1033403763
 20
163.4346417294
 30
0.0
 40
3.0
100
AcDbArc
 50
180.0
 51
270.0
  0
LINE
  5
72
100
AcDbEntity
  8
L1_35
  6
CONTINUOUS
 62
         7
100
AcDbLine
 10
1402.7949755966
 20
-5.9433347407
 30
0.0
 11
1402.7949755966
 21
-19.9433347407
 31
0.0
  0
LINE
  5
73
100
AcDbEntity
  8
_Y__________
  6
CONTINUOUS
 62
         7
100
AcDbLine
 10
1419.1033403763
 20
144.7587777429
 30
0.0
 11
1419.1033403763
 21
119.4096417294
 31
0.0
  0
LINE
  5
74
100
AcDbEntity
  8
_Y__________
  6
CONTINUOUS
 62
         7
100
AcDbLine
 10
1418.3033403763
 20
144.9539629971
 30
0.0
 11
1418.3033403763
 21
142.1346417294
 31
0.0
  0
LINE
  5
75
100
AcDbEntity
  8
L1_35
  6
DASHED
 62
         2
100
AcDbLine
 10
1645.5833403763
 20
155.1846417294
 30
0.0
 11
1646.0833403763
 21
155.6846417294
 31
0.0
  0
LINE
  5
76
100
AcDbEntity
  8
L1_35
  6
DASHED
 62
         2
100
AcDbLine
 10
1645.5833403763
 20
145.1846417294
 30
0.0
 11
1646.0833403763
 21
144.6846417294
 31
0.0
  0
LINE
  5
77
100
AcDbEntity
  8
L1_35
  6
DASHED
 62
         2
100
AcDbLine
 10
1645.5833403763
 20
145.1846417294
 30
0.0
 11
1645.5833403763
 21
155.1846417294
 31
0.0
  0
LINE
  5
78
100
AcDbEntity
  8
L1_35
  6
DASHED
 62
         2
100
AcDbLine
 10
1645.5833403763
 20
155.1846417294
 30
0.0
 11
1639.4093403763
 21
155.1846417294
 31
0.0
  0
LINE
  5
79
100
AcDbEntity
  8
L1_35
  6
DASHED
 62
         2
100
AcDbLine
 10
1636.5225890303
 20
150.1846417294
 30
0.0
 11
1639.4093403763
 21
155.1846417294
 31
0.0
  0
LINE
  5
7A
100
AcDbEntity
  8
L1_35
  6
DASHED
 62
         2
100
AcDbLine
 10
1639.4093403763
 20
145.1846417294
 30
0.0
 11
1636.5225890303
 21
150.1846417294
 31
0.0
  0
LINE
  5
7B
100
AcDbEntity
  8
L1_35
  6
DASHED
 62
         2
100
AcDbLine
 10
1639.4093403763
 20
145.1846417294
 30
0.0
 11
1639.4093403763
 21
155.1846417294
 31
0.0
  0
LINE
  5
7C
100
AcDbEntity
  8
L1_35
  6
DASHED
 62
         2
100
AcDbLine
 10
1645.5833403763
 20
145.1846417294
 30
0.0
 11
1639.4093403763
 21
145.1846417294
 31
0.0
  0
LINE
  5
7D
100
AcDbEntity
  8
L1_35
  6
CONTINUOUS
 62
         7
100
AcDbLine
 10
1646.0833403763
 20
144.6846417294
 30
0.0
 11
1646.0833403763
 21
155.6846417294
 31
0.0
  0
CIRCLE
  5
7E
100
AcDbEntity
  8
L1_35
  6
CONTINUOUS
 62
         7
100
AcDbCircle
 10
1420.0033403763
 20
150.1846417294
 30
0.0
 40
3.63
  0
ARC
  5
7F
100
AcDbEntity
  8
L1_35
  6
CONTINUOUS
 62
         4
100
AcDbCircle
 10
1420.0033403763
 20
150.1846417294
 30
0.0
 40
2.75
100
AcDbArc
 50
270.0
 51
540.0
  0
ARC
  5
80
100
AcDbEntity
  8
L1_35
  6
CONTINUOUS
 62
         7
100
AcDbCircle
 10
1420.0033403763
 20
150.1846417294
 30
0.0
 40
5.5
100
AcDbArc
 50
99.41802722
 51
260.58197278
  0
LINE
  5
81
100
AcDbEntity
  8
_X______
  6
CENTER
 62
         1
100
AcDbLine
 10
1411.1033403763
 20
18.9531464901
 30
0.0
 11
1411.1033403763
 21
-7.3551607062
 31
0.0
  0
LINE
  5
82
100
AcDbEntity
  8
_X______
  6
CONTINUOUS
 62
         7
100
AcDbLine
 10
1419.1033403763
 20
17.168112913
 30
0.0
 11
1413.1229876318
 21
10.0410060449
 31
0.0
  0
LINE
  5
83
100
AcDbEntity
  8
_X______
  6
CONTINUOUS
 62
         7
100
AcDbLine
 10
1419.1033403763
 20
10.9452176056
 30
0.0
 11
1416.1871654043
 21
7.4698556061
 31
0.0
  0
LINE
  5
84
100
AcDbEntity
  8
_X______
  6
CENTER
 62
         1
100
AcDbLine
 10
1420.3889155956
 20
15.5887541456
 30
0.0
 11
1401.46498952
 21
-6.963902741
 31
0.0
  0
LINE
  5
85
100
AcDbEntity
  8
_X______
  6
CONTINUOUS
 62
         7
100
AcDbLine
 10
1416.1871654043
 20
7.4698556061
 30
0.0
 11
1415.7891600894
 21
7.5400346816
 31
0.0
  0
LINE
  5
86
100
AcDbEntity
  8
_X______
  6
CONTINUOUS
 62
         7
100
AcDbLine
 10
1413.1229876318
 20
10.0410060449
 30
0.0
 11
1413.2612134271
 21
9.6612337936
 31
0.0
  0
LINE
  5
87
100
AcDbEntity
  8
_X______
  6
CONTINUOUS
 62
         7
100
AcDbLine
 10
1416.1871654043
 20
7.4698556061
 30
0.0
 11
1413.1229876318
 21
10.0410060449
 31
0.0
  0
LINE
  5
88
100
AcDbEntity
  8
_X______
  6
CONTINUOUS
 62
         7
100
AcDbLine
 10
1415.7891600894
 20
7.5400346816
 30
0.0
 11
1413.2612134271
 21
9.6612337936
 31
0.0
  0
LINE
  5
89
100
AcDbEntity
  8
_X______
  6
CONTINUOUS
 62
         7
100
AcDbLine
 10
1412.1204989
 20
10.2543528191
 30
0.0
 11
1409.8261931546
 21
6.977744642
 31
0.0
  0
LINE
  5
8A
100
AcDbEntity
  8
_X______
  6
CONTINUOUS
 62
         7
100
AcDbLine
 10
1416.7937018108
 20
6.5548698073
 30
0.0
 11
1414.9008995708
 21
3.8516680612
 31
0.0
  0
LINE
  5
8B
100
AcDbEntity
  8
_X______
  6
CONTINUOUS
 62
         7
100
AcDbLine
 10
1414.9008995708
 20
3.8516680612
 30
0.0
 11
1416.6276478187
 21
4.6568639929
 31
0.0
  0
LINE
  5
8C
100
AcDbEntity
  8
_X______
  6
CONTINUOUS
 62
         7
100
AcDbLine
 10
1416.7937018108
 20
6.5548698073
 30
0.0
 11
1416.6276478187
 21
4.6568639929
 31
0.0
  0
LINE
  5
8D
100
AcDbEntity
  8
_X______
  6
CONTINUOUS
 62
         7
100
AcDbLine
 10
1410.0269449073
 20
7.2644478575
 30
0.0
 11
1410.7973968833
 21
6.724971576
 31
0.0
  0
LINE
  5
8E
100
AcDbEntity
  8
_X______
  6
CONTINUOUS
 62
         7
100
AcDbLine
 10
1413.510924421
 20
4.824939139
 30
0.0
 11
1414.9008995708
 21
3.8516680612
 31
0.0
  0
LINE
  5
8F
100
AcDbEntity
  8
_X______
  6
CONTINUOUS
 62
         7
100
AcDbLine
 10
1411.9197471473
 20
9.9676496036
 30
0.0
 11
1412.9266986313
 21
9.2625745839
 31
0.0
  0
LINE
  5
90
100
AcDbEntity
  8
_X______
  6
CONTINUOUS
 62
         7
100
AcDbLine
 10
1415.6402261689
 20
7.3625421469
 30
0.0
 11
1416.7937018108
 21
6.5548698073
 31
0.0
  0
LINE
  5
91
100
AcDbEntity
  8
_X______
  6
CONTINUOUS
 62
         7
100
AcDbLine
 10
1413.2612134271
 20
9.6612337936
 30
0.0
 11
1400.1674257253
 21
-5.9433347407
 31
0.0
  0
LINE
  5
92
100
AcDbEntity
  8
_X______
  6
CONTINUOUS
 62
         7
100
AcDbLine
 10
1415.7891600894
 20
7.5400346816
 30
0.0
 11
1403.4798697809
 21
-7.1296062658
 31
0.0
  0
LINE
  5
93
100
AcDbEntity
  8
_X______
  6
CENTER
 62
         1
100
AcDbLine
 10
1401.5650362877
 20
15.203818132
 30
0.0
 11
1416.2374742548
 21
4.9300664636
 31
0.0
  0
LINE
  5
94
100
AcDbEntity
  8
_X______
  6
CONTINUOUS
 62
         7
100
AcDbLine
 10
1403.5188074162
 20
12.0046109767
 30
0.0
 11
1410.1129813728
 21
7.3873206641
 31
0.0
  0
LINE
  5
95
100
AcDbEntity
  8
_X______
  6
CONTINUOUS
 62
         4
100
AcDbLine
 10
1405.5263249435
 20
14.8716431317
 30
0.0
 11
1412.1204989
 21
10.2543528191
 31
0.0
  0
LINE
  5
96
100
AcDbEntity
  8
_X______
  6
CONTINUOUS
 62
         4
100
AcDbLine
 10
1403.2320191981
 20
11.5950349546
 30
0.0
 11
1409.8261931546
 21
6.977744642
 31
0.0
  0
LINE
  5
97
100
AcDbEntity
  8
_X______
  6
CONTINUOUS
 62
         7
100
AcDbLine
 10
1405.2395367253
 20
14.4620671096
 30
0.0
 11
1411.8337106818
 21
9.844776797
 31
0.0
  0
LINE
  5
98
100
AcDbEntity
  8
_X______
  6
CONTINUOUS
 62
         7
100
AcDbLine
 10
1405.5550037653
 20
14.9126007339
 30
0.0
 11
1403.2033403763
 21
11.5540773524
 31
0.0
  0
LINE
  5
99
100
AcDbEntity
  8
_X______
  6
CONTINUOUS
 62
         7
100
AcDbLine
 10
1403.2033403763
 20
16.5592531663
 30
0.0
 11
1405.5550037653
 21
14.9126007339
 31
0.0
  0
LINE
  5
9A
100
AcDbEntity
  8
_X______
  6
CENTER
 62
         1
100
AcDbLine
 10
1611.2297186441
 20
174.5302820606
 30
0.0
 11
1616.8678743688
 21
176.5824029206
 31
0.0
  0
ARC
  5
9B
100
AcDbEntity
  8
_X______
  6
CONTINUOUS
 62
         7
100
AcDbCircle
 10
1613.1352026945
 20
175.2238215369
 30
0.0
 40
2.9722262277
100
AcDbArc
 50
1.2577258579
 51
20.0
  0
ARC
  5
9C
100
AcDbEntity
  8
_X______
  6
CONTINUOUS
 62
         7
100
AcDbCircle
 10
1613.6377649205
 20
175.2348552824
 30
0.0
 40
2.4695428935
100
AcDbArc
 50
340.6773100903
 51
361.2577258579
  0
ARC
  5
9D
100
AcDbEntity
  8
_X______
  6
CONTINUOUS
 62
         7
100
AcDbCircle
 10
1614.0072011885
 20
175.1053162748
 30
0.0
 40
2.0780540551
100
AcDbArc
 50
316.8239621527
 51
340.6773100903
  0
ARC
  5
9E
100
AcDbEntity
  8
_X______
  6
CONTINUOUS
 62
         7
100
AcDbCircle
 10
1614.3196641031
 20
174.8121398851
 30
0.0
 40
1.6495853065
100
AcDbArc
 50
290.0000000001
 51
316.8239621528
  0
ARC
  5
9F
100
AcDbEntity
  8
_X______
  6
CONTINUOUS
 62
         7
100
AcDbCircle
 10
1614.3196641031
 20
174.8121398851
 30
0.0
 40
1.6495853065
100
AcDbArc
 50
263.1760378472
 51
290.0
  0
ARC
  5
A0
100
AcDbEntity
  8
_X______
  6
CONTINUOUS
 62
         7
100
AcDbCircle
 10
1614.3705744318
 20
175.2375733193
 30
0.0
 40
2.0780540551
100
AcDbArc
 50
239.3226899096
 51
263.1760378472
  0
ARC
  5
A1
100
AcDbEntity
  8
_X______
  6
CONTINUOUS
 62
         7
100
AcDbCircle
 10
1614.5703129629
 20
175.5742750119
 30
0.0
 40
2.4695428935
100
AcDbArc
 50
218.742274142
 51
239.3226899097
  0
ARC
  5
A2
100
AcDbEntity
  8
_X______
  6
CONTINUOUS
 62
         7
100
AcDbCircle
 10
1614.9623903184
 20
175.8888634444
 30
0.0
 40
2.9722262277
100
AcDbArc
 50
200.0
 51
218.742274142
  0
ARC
  5
A3
100
AcDbEntity
  8
_X______
  6
CONTINUOUS
 62
         7
100
AcDbCircle
 10
1614.9623903184
 20
175.8888634444
 30
0.0
 40
2.9722262277
100
AcDbArc
 50
181.257725858
 51
200.0000000001
  0
ARC
  5
A4
100
AcDbEntity
  8
_X______
  6
CONTINUOUS
 62
         7
100
AcDbCircle
 10
1614.4598280924
 20
175.8778296988
 30
0.0
 40
2.4695428935
100
AcDbArc
 50
160.6773100903
 51
181.257725858
  0
ARC
  5
A5
100
AcDbEntity
  8
_X______
  6
CONTINUOUS
 62
         7
100
AcDbCircle
 10
1614.0903918245
 20
176.0073687064
 30
0.0
 40
2.0780540551
100
AcDbArc
 50
136.8239621528
 51
160.6773100904
  0
ARC
  5
A6
100
AcDbEntity
  8
_X______
  6
CONTINUOUS
 62
         7
100
AcDbCircle
 10
1613.7779289098
 20
176.3005450962
 30
0.0
 40
1.6495853065
100
AcDbArc
 50
110.0
 51
136.8239621528
  0
ARC
  5
A7
100
AcDbEntity
  8
_X______
  6
CONTINUOUS
 62
         7
100
AcDbCircle
 10
1613.7779289098
 20
176.3005450962
 30
0.0
 40
1.6495853065
100
AcDbArc
 50
83.1760378471
 51
109.9999999999
  0
ARC
  5
A8
100
AcDbEntity
  8
_X______
  6
CONTINUOUS
 62
         7
100
AcDbCircle
 10
1613.7270185811
 20
175.8751116619
 30
0.0
 40
2.0780540551
100
AcDbArc
 50
59.3226899096
 51
83.1760378472
  0
ARC
  5
A9
100
AcDbEntity
  8
_X______
  6
CONTINUOUS
 62
         7
100
AcDbCircle
 10
1613.52728005
 20
175.5384099693
 30
0.0
 40
2.4695428935
100
AcDbArc
 50
38.742274142
 51
59.3226899097
  0
ARC
  5
AA
100
AcDbEntity
  8
_X______
  6
CONTINUOUS
 62
         7
100
AcDbCircle
 10
1613.1352026945
 20
175.2238215369
 30
0.0
 40
2.9722262277
100
AcDbArc
 50
20.0
 51
38.742274142
  0
POLYLINE
  5
AC
100
AcDbEntity
  8
_X______
  6
CONTINUOUS
 62
         7
100
AcDb3dPolyline
 66
         1
 10
0.0
 20
0.0
 30
0.0
 70
         8
  0
VERTEX
  5
AE
100
AcDbEntity
  8
_X______
  6
CONTINUOUS
 62
         7
100
AcDbVertex
100
AcDb3dPolylineVertex
 10
1615.928181748
 20
176.2403827773
 30
0.0
 70
        32
  0
VERTEX
  5
B0
100
AcDbEntity
  8
_X______
  6
CONTINUOUS
 62
         7
100
AcDbVertex
100
AcDb3dPolylineVertex
 10
1615.928181748
 20
176.2403827773
 30
0.0
 70
        32
  0
SEQEND
  5
B2
100
AcDbEntity
  8
_X______
  6
CONTINUOUS
 62
         7
  0
POLYLINE
  5
B4
100
AcDbEntity
  8
_X______
  6
CONTINUOUS
 62
         7
100
AcDb3dPolyline
 66
         1
 10
0.0
 20
0.0
 30
0.0
 70
         8
  0
VERTEX
  5
B6
100
AcDbEntity
  8
_X______
  6
CONTINUOUS
 62
         7
100
AcDbVertex
100
AcDb3dPolylineVertex
 10
1616.1067128429
 20
175.2890609943
 30
0.0
 70
        32
  0
VERTEX
  5
B8
100
AcDbEntity
  8
_X______
  6
CONTINUOUS
 62
         7
100
AcDbVertex
100
AcDb3dPolylineVertex
 10
1616.1067128429
 20
175.2890609943
 30
0.0
 70
        32
  0
SEQEND
  5
BA
100
AcDbEntity
  8
_X______
  6
CONTINUOUS
 62
         7
  0
POLYLINE
  5
BC
100
AcDbEntity
  8
_X______
  6
CONTINUOUS
 62
         7
100
AcDb3dPolyline
 66
         1
 10
0.0
 20
0.0
 30
0.0
 70
         8
  0
VERTEX
  5
BE
100
AcDbEntity
  8
_X______
  6
CONTINUOUS
 62
         7
100
AcDbVertex
100
AcDb3dPolylineVertex
 10
1615.9681984366
 20
174.4177128652
 30
0.0
 70
        32
  0
VERTEX
  5
C0
100
AcDbEntity
  8
_X______
  6
CONTINUOUS
 62
         7
100
AcDbVertex
100
AcDb3dPolylineVertex
 10
1615.9681984366
 20
174.4177128652
 30
0.0
 70
        32
  0
SEQEND
  5
C2
100
AcDbEntity
  8
_X______
  6
CONTINUOUS
 62
         7
  0
POLYLINE
  5
C4
100
AcDbEntity
  8
_X______
  6
CONTINUOUS
 62
         7
100
AcDb3dPolyline
 66
         1
 10
0.0
 20
0.0
 30
0.0
 70
         8
  0
VERTEX
  5
C6
100
AcDbEntity
  8
_X______
  6
CONTINUOUS
 62
         7
100
AcDbVertex
100
AcDb3dPolylineVertex
 10
1615.5226321948
 20
173.6834240423
 30
0.0
 70
        32
  0
VERTEX
  5
C8
100
AcDbEntity
  8
_X______
  6
CONTINUOUS
 62
         7
100
AcDbVertex
100
AcDb3dPolylineVertex
 10
1615.5226321948
 20
173.6834240423
 30
0.0
 70
        32
  0
SEQEND
  5
CA
100
AcDbEntity
  8
_X______
  6
CONTINUOUS
 62
         7
  0
POLYLINE
  5
CC
100
AcDbEntity
  8
_X______
  6
CONTINUOUS
 62
         7
100
AcDb3dPolyline
 66
         1
 10
0.0
 20
0.0
 30
0.0
 70
         8
  0
VERTEX
  5
CE
100
AcDbEntity
  8
_X______
  6
CONTINUOUS
 62
         7
100
AcDbVertex
100
AcDb3dPolylineVertex
 10
1614.8838555061
 20
173.2620367452
 30
0.0
 70
        32
  0
VERTEX
  5
D0
100
AcDbEntity
  8
_X______
  6
CONTINUOUS
 62
         7
100
AcDbVertex
100
AcDb3dPolylineVertex
 10
1614.8838555061
 20
173.2620367452
 30
0.0
 70
        32
  0
SEQEND
  5
D2
100
AcDbEntity
  8
_X______
  6
CONTINUOUS
 62
         7
  0
POLYLINE
  5
D4
100
AcDbEntity
  8
_X______
  6
CONTINUOUS
 62
         7
100
AcDb3dPolyline
 66
         1
 10
0.0
 20
0.0
 30
0.0
 70
         8
  0
VERTEX
  5
D6
100
AcDbEntity
  8
_X______
  6
CONTINUOUS
 62
         7
100
AcDbVertex
100
AcDb3dPolylineVertex
 10
1614.1236616399
 20
173.1742404016
 30
0.0
 70
        32
  0
VERTEX
  5
D8
100
AcDbEntity
  8
_X______
  6
CONTINUOUS
 62
         7
100
AcDbVertex
100
AcDb3dPolylineVertex
 10
1614.1236616399
 20
173.1742404016
 30
0.0
 70
        32
  0
SEQEND
  5
DA
100
AcDbEntity
  8
_X______
  6
CONTINUOUS
 62
         7
  0
POLYLINE
  5
DC
100
AcDbEntity
  8
_X______
  6
CONTINUOUS
 62
         7
100
AcDb3dPolyline
 66
         1
 10
0.0
 20
0.0
 30
0.0
 70
         8
  0
VERTEX
  5
DE
100
AcDbEntity
  8
_X______
  6
CONTINUOUS
 62
         7
100
AcDbVertex
100
AcDb3dPolylineVertex
 10
1613.310346339
 20
173.4503338146
 30
0.0
 70
        32
  0
VERTEX
  5
E0
100
AcDbEntity
  8
_X______
  6
CONTINUOUS
 62
         7
100
AcDbVertex
100
AcDb3dPolylineVertex
 10
1613.310346339
 20
173.4503338146
 30
0.0
 70
        32
  0
SEQEND
  5
E2
100
AcDbEntity
  8
_X______
  6
CONTINUOUS
 62
         7
  0
POLYLINE
  5
E4
100
AcDbEntity
  8
_X______
  6
CONTINUOUS
 62
         7
100
AcDb3dPolyline
 66
         1
 10
0.0
 20
0.0
 30
0.0
 70
         8
  0
VERTEX
  5
E6
100
AcDbEntity
  8
_X______
  6
CONTINUOUS
 62
         7
100
AcDbVertex
100
AcDb3dPolylineVertex
 10
1612.6441463667
 20
174.0287898627
 30
0.0
 70
        32
  0
VERTEX
  5
E8
100
AcDbEntity
  8
_X______
  6
CONTINUOUS
 62
         7
100
AcDbVertex
100
AcDb3dPolylineVertex
 10
1612.6441463667
 20
174.0287898627
 30
0.0
 70
        32
  0
SEQEND
  5
EA
100
AcDbEntity
  8
_X______
  6
CONTINUOUS
 62
         7
  0
POLYLINE
  5
EC
100
AcDbEntity
  8
_X______
  6
CONTINUOUS
 62
         7
100
AcDb3dPolyline
 66
         1
 10
0.0
 20
0.0
 30
0.0
 70
         8
  0
VERTEX
  5
EE
100
AcDbEntity
  8
_X______
  6
CONTINUOUS
 62
         7
100
AcDbVertex
100
AcDb3dPolylineVertex
 10
1612.1694112649
 20
174.872302204
 30
0.0
 70
        32
  0
VERTEX
  5
F0
100
AcDbEntity
  8
_X______
  6
CONTINUOUS
 62
         7
100
AcDbVertex
100
AcDb3dPolylineVertex
 10
1612.1694112649
 20
174.872302204
 30
0.0
 70
        32
  0
SEQEND
  5
F2
100
AcDbEntity
  8
_X______
  6
CONTINUOUS
 62
         7
  0
POLYLINE
  5
F4
100
AcDbEntity
  8
_X______
  6
CONTINUOUS
 62
         7
100
AcDb3dPolyline
 66
         1
 10
0.0
 20
0.0
 30
0.0
 70
         8
  0
VERTEX
  5
F6
100
AcDbEntity
  8
_X______
  6
CONTINUOUS
 62
         7
100
AcDbVertex
100
AcDb3dPolylineVertex
 10
1611.99088017
 20
175.823623987
 30
0.0
 70
        32
  0
VERTEX
  5
F8
100
AcDbEntity
  8
_X______
  6
CONTINUOUS
 62
         7
100
AcDbVertex
100
AcDb3dPolylineVertex
 10
1611.99088017
 20
175.823623987
 30
0.0
 70
        32
  0
SEQEND
  5
FA
100
AcDbEntity
  8
_X______
  6
CONTINUOUS
 62
         7
  0
POLYLINE
  5
FC
100
AcDbEntity
  8
_X______
  6
CONTINUOUS
 62
         7
100
AcDb3dPolyline
 66
         1
 10
0.0
 20
0.0
 30
0.0
 70
         8
  0
VERTEX
  5
FE
100
AcDbEntity
  8
_X______
  6
CONTINUOUS
 62
         7
100
AcDbVertex
100
AcDb3dPolylineVertex
 10
1612.1293945764
 20
176.694972116
 30
0.0
 70
        32
  0
VERTEX
  5
100
100
AcDbEntity
  8
_X______
  6
CONTINUOUS
 62
         7
100
AcDbVertex
100
AcDb3dPolylineVertex
 10
1612.1293945764
 20
176.694972116
 30
0.0
 70
        32
  0
SEQEND
  5
102
100
AcDbEntity
  8
_X______
  6
CONTINUOUS
 62
         7
  0
POLYLINE
  5
104
100
AcDbEntity
  8
_X______
  6
CONTINUOUS
 62
         7
100
AcDb3dPolyline
 66
         1
 10
0.0
 20
0.0
 30
0.0
 70
         8
  0
VERTEX
  5
106
100
AcDbEntity
  8
_X______
  6
CONTINUOUS
 62
         7
100
AcDbVertex
100
AcDb3dPolylineVertex
 10
1612.5749608181
 20
177.4292609389
 30
0.0
 70
        32
  0
VERTEX
  5
108
100
AcDbEntity
  8
_X______
  6
CONTINUOUS
 62
         7
100
AcDbVertex
100
AcDb3dPolylineVertex
 10
1612.5749608181
 20
177.4292609389
 30
0.0
 70
        32
  0
SEQEND
  5
10A
100
AcDbEntity
  8
_X______
  6
CONTINUOUS
 62
         7
  0
POLYLINE
  5
10C
100
AcDbEntity
  8
_X______
  6
CONTINUOUS
 62
         7
100
AcDb3dPolyline
 66
         1
 10
0.0
 20
0.0
 30
0.0
 70
         8
  0
VERTEX
  5
10E
100
AcDbEntity
  8
_X______
  6
CONTINUOUS
 62
         7
100
AcDbVertex
100
AcDb3dPolylineVertex
 10
1613.2137375068
 20
177.850648236
 30
0.0
 70
        32
  0
VERTEX
  5
110
100
AcDbEntity
  8
_X______
  6
CONTINUOUS
 62
         7
100
AcDbVertex
100
AcDb3dPolylineVertex
 10
1613.2137375068
 20
177.850648236
 30
0.0
 70
        32
  0
SEQEND
  5
112
100
AcDbEntity
  8
_X______
  6
CONTINUOUS
 62
         7
  0
POLYLINE
  5
114
100
AcDbEntity
  8
_X______
  6
CONTINUOUS
 62
         7
100
AcDb3dPolyline
 66
         1
 10
0.0
 20
0.0
 30
0.0
 70
         8
  0
VERTEX
  5
116
100
AcDbEntity
  8
_X______
  6
CONTINUOUS
 62
         7
100
AcDbVertex
100
AcDb3dPolylineVertex
 10
1613.973931373
 20
177.9384445796
 30
0.0
 70
        32
  0
VERTEX
  5
118
100
AcDbEntity
  8
_X______
  6
CONTINUOUS
 62
         7
100
AcDbVertex
100
AcDb3dPolylineVertex
 10
1613.973931373
 20
177.9384445796
 30
0.0
 70
        32
  0
SEQEND
  5
11A
100
AcDbEntity
  8
_X______
  6
CONTINUOUS
 62
         7
  0
POLYLINE
  5
11C
100
AcDbEntity
  8
_X______
  6
CONTINUOUS
 62
         7
100
AcDb3dPolyline
 66
         1
 10
0.0
 20
0.0
 30
0.0
 70
         8
  0
VERTEX
  5
11E
100
AcDbEntity
  8
_X______
  6
CONTINUOUS
 62
         7
100
AcDbVertex
100
AcDb3dPolylineVertex
 10
1614.7872466739
 20
177.6623511666
 30
0.0
 70
        32
  0
VERTEX
  5
120
100
AcDbEntity
  8
_X______
  6
CONTINUOUS
 62
         7
100
AcDbVertex
100
AcDb3dPolylineVertex
 10
1614.7872466739
 20
177.6623511666
 30
0.0
 70
        32
  0
SEQEND
  5
122
100
AcDbEntity
  8
_X______
  6
CONTINUOUS
 62
         7
  0
LINE
  5
123
100
AcDbEntity
  8
_X______
  6
CENTER
 62
         1
100
AcDbLine
 10
1629.6988063837
 20
123.7868805382
 30
0.0
 11
1635.3369621084
 21
125.8390013981
 31
0.0
  0
ARC
  5
124
100
AcDbEntity
  8
_X______
  6
CONTINUOUS
 62
         7
100
AcDbCircle
 10
1631.6042904341
 20
124.4804200144
 30
0.0
 40
2.9722262277
100
AcDbArc
 50
20.0
 51
38.742274142
  0
ARC
  5
125
100
AcDbEntity
  8
_X______
  6
CONTINUOUS
 62
         7
100
AcDbCircle
 10
1631.9963677896
 20
124.7950084469
 30
0.0
 40
2.4695428935
100
AcDbArc
 50
38.742274142
 51
59.3226899096
  0
ARC
  5
126
100
AcDbEntity
  8
_X______
  6
CONTINUOUS
 62
         7
100
AcDbCircle
 10
1632.1961063207
 20
125.1317101395
 30
0.0
 40
2.0780540551
100
AcDbArc
 50
59.3226899096
 51
83.1760378472
  0
ARC
  5
127
100
AcDbEntity
  8
_X______
  6
CONTINUOUS
 62
         7
100
AcDbCircle
 10
1632.2470166494
 20
125.5571435737
 30
0.0
 40
1.6495853065
100
AcDbArc
 50
83.1760378472
 51
110.0
  0
ARC
  5
128
100
AcDbEntity
  8
_X______
  6
CONTINUOUS
 62
         7
100
AcDbCircle
 10
1632.2470166494
 20
125.5571435737
 30
0.0
 40
1.6495853065
100
AcDbArc
 50
110.0
 51
136.8239621528
  0
ARC
  5
129
100
AcDbEntity
  8
_X______
  6
CONTINUOUS
 62
         7
100
AcDbCircle
 10
1632.559479564
 20
125.263967184
 30
0.0
 40
2.0780540551
100
AcDbArc
 50
136.8239621527
 51
160.6773100903
  0
ARC
  5
12A
100
AcDbEntity
  8
_X______
  6
CONTINUOUS
 62
         7
100
AcDbCircle
 10
1632.928915832
 20
125.1344281764
 30
0.0
 40
2.4695428935
100
AcDbArc
 50
160.6773100904
 51
181.257725858
  0
ARC
  5
12B
100
AcDbEntity
  8
_X______
  6
CONTINUOUS
 62
         7
100
AcDbCircle
 10
1633.431478058
 20
125.1454619219
 30
0.0
 40
2.9722262277
100
AcDbArc
 50
181.257725858
 51
200.0000000001
  0
ARC
  5
12C
100
AcDbEntity
  8
_X______
  6
CONTINUOUS
 62
         7
100
AcDbCircle
 10
1633.431478058
 20
125.1454619219
 30
0.0
 40
2.9722262277
100
AcDbArc
 50
200.0
 51
218.742274142
  0
ARC
  5
12D
100
AcDbEntity
  8
_X______
  6
CONTINUOUS
 62
         7
100
AcDbCircle
 10
1633.0394007025
 20
124.8308734894
 30
0.0
 40
2.4695428935
100
AcDbArc
 50
218.7422741419
 51
239.3226899096
  0
ARC
  5
12E
100
AcDbEntity
  8
_X______
  6
CONTINUOUS
 62
         7
100
AcDbCircle
 10
1632.8396621714
 20
124.4941717969
 30
0.0
 40
2.0780540551
100
AcDbArc
 50
239.3226899097
 51
263.1760378472
  0
ARC
  5
12F
100
AcDbEntity
  8
_X______
  6
CONTINUOUS
 62
         7
100
AcDbCircle
 10
1632.7887518427
 20
124.0687383626
 30
0.0
 40
1.6495853065
100
AcDbArc
 50
263.1760378472
 51
290.0
  0
ARC
  5
130
100
AcDbEntity
  8
_X______
  6
CONTINUOUS
 62
         7
100
AcDbCircle
 10
1632.7887518427
 20
124.0687383626
 30
0.0
 40
1.6495853065
100
AcDbArc
 50
290.0
 51
316.8239621528
  0
ARC
  5
131
100
AcDbEntity
  8
_X______
  6
CONTINUOUS
 62
         7
100
AcDbCircle
 10
1632.476288928
 20
124.3619147524
 30
0.0
 40
2.0780540551
100
AcDbArc
 50
316.8239621527
 51
340.6773100903
  0
ARC
  5
132
100
AcDbEntity
  8
_X______
  6
CONTINUOUS
 62
         7
100
AcDbCircle
 10
1632.1068526601
 20
124.49145376
 30
0.0
 40
2.4695428935
100
AcDbArc
 50
340.6773100904
 51
361.257725858
  0
ARC
  5
133
100
AcDbEntity
  8
_X______
  6
CONTINUOUS
 62
         7
100
AcDbCircle
 10
1631.6042904341
 20
124.4804200144
 30
0.0
 40
2.9722262277
100
AcDbArc
 50
1.257725858
 51
20.0
  0
POLYLINE
  5
135
100
AcDbEntity
  8
_X______
  6
CONTINUOUS
 62
         7
100
AcDb3dPolyline
 66
         1
 10
0.0
 20
0.0
 30
0.0
 70
         8
  0
VERTEX
  5
137
100
AcDbEntity
  8
_X______
  6
CONTINUOUS
 62
         7
100
AcDbVertex
100
AcDb3dPolylineVertex
 10
1634.3972694876
 20
125.4969812548
 30
0.0
 70
        32
  0
VERTEX
  5
139
100
AcDbEntity
  8
_X______
  6
CONTINUOUS
 62
         7
100
AcDbVertex
100
AcDb3dPolylineVertex
 10
1634.3972694876
 20
125.4969812548
 30
0.0
 70
        32
  0
SEQEND
  5
13B
100
AcDbEntity
  8
_X______
  6
CONTINUOUS
 62
         7
  0
POLYLINE
  5
13D
100
AcDbEntity
  8
_X______
  6
CONTINUOUS
 62
         7
100
AcDb3dPolyline
 66
         1
 10
0.0
 20
0.0
 30
0.0
 70
         8
  0
VERTEX
  5
13F
100
AcDbEntity
  8
_X______
  6
CONTINUOUS
 62
         7
100
AcDbVertex
100
AcDb3dPolylineVertex
 10
1633.9225343858
 20
126.340493596
 30
0.0
 70
        32
  0
VERTEX
  5
141
100
AcDbEntity
  8
_X______
  6
CONTINUOUS
 62
         7
100
AcDbVertex
100
AcDb3dPolylineVertex
 10
1633.9225343858
 20
126.340493596
 30
0.0
 70
        32
  0
SEQEND
  5
143
100
AcDbEntity
  8
_X______
  6
CONTINUOUS
 62
         7
  0
POLYLINE
  5
145
100
AcDbEntity
  8
_X______
  6
CONTINUOUS
 62
         7
100
AcDb3dPolyline
 66
         1
 10
0.0
 20
0.0
 30
0.0
 70
         8
  0
VERTEX
  5
147
100
AcDbEntity
  8
_X______
  6
CONTINUOUS
 62
         7
100
AcDbVertex
100
AcDb3dPolylineVertex
 10
1633.2563344135
 20
126.9189496442
 30
0.0
 70
        32
  0
VERTEX
  5
149
100
AcDbEntity
  8
_X______
  6
CONTINUOUS
 62
         7
100
AcDbVertex
100
AcDb3dPolylineVertex
 10
1633.2563344135
 20
126.9189496442
 30
0.0
 70
        32
  0
SEQEND
  5
14B
100
AcDbEntity
  8
_X______
  6
CONTINUOUS
 62
         7
  0
POLYLINE
  5
14D
100
AcDbEntity
  8
_X______
  6
CONTINUOUS
 62
         7
100
AcDb3dPolyline
 66
         1
 10
0.0
 20
0.0
 30
0.0
 70
         8
  0
VERTEX
  5
14F
100
AcDbEntity
  8
_X______
  6
CONTINUOUS
 62
         7
100
AcDbVertex
100
AcDb3dPolylineVertex
 10
1632.4430191126
 20
127.1950430571
 30
0.0
 70
        32
  0
VERTEX
  5
151
100
AcDbEntity
  8
_X______
  6
CONTINUOUS
 62
         7
100
AcDbVertex
100
AcDb3dPolylineVertex
 10
1632.4430191126
 20
127.1950430571
 30
0.0
 70
        32
  0
SEQEND
  5
153
100
AcDbEntity
  8
_X______
  6
CONTINUOUS
 62
         7
  0
POLYLINE
  5
155
100
AcDbEntity
  8
_X______
  6
CONTINUOUS
 62
         7
100
AcDb3dPolyline
 66
         1
 10
0.0
 20
0.0
 30
0.0
 70
         8
  0
VERTEX
  5
157
100
AcDbEntity
  8
_X______
  6
CONTINUOUS
 62
         7
100
AcDbVertex
100
AcDb3dPolylineVertex
 10
1631.6828252464
 20
127.1072467136
 30
0.0
 70
        32
  0
VERTEX
  5
159
100
AcDbEntity
  8
_X______
  6
CONTINUOUS
 62
         7
100
AcDbVertex
100
AcDb3dPolylineVertex
 10
1631.6828252464
 20
127.1072467136
 30
0.0
 70
        32
  0
SEQEND
  5
15B
100
AcDbEntity
  8
_X______
  6
CONTINUOUS
 62
         7
  0
POLYLINE
  5
15D
100
AcDbEntity
  8
_X______
  6
CONTINUOUS
 62
         7
100
AcDb3dPolyline
 66
         1
 10
0.0
 20
0.0
 30
0.0
 70
         8
  0
VERTEX
  5
15F
100
AcDbEntity
  8
_X______
  6
CONTINUOUS
 62
         7
100
AcDbVertex
100
AcDb3dPolylineVertex
 10
1631.0440485577
 20
126.6858594165
 30
0.0
 70
        32
  0
VERTEX
  5
161
100
AcDbEntity
  8
_X______
  6
CONTINUOUS
 62
         7
100
AcDbVertex
100
AcDb3dPolylineVertex
 10
1631.0440485577
 20
126.6858594165
 30
0.0
 70
        32
  0
SEQEND
  5
163
100
AcDbEntity
  8
_X______
  6
CONTINUOUS
 62
         7
  0
POLYLINE
  5
165
100
AcDbEntity
  8
_X______
  6
CONTINUOUS
 62
         7
100
AcDb3dPolyline
 66
         1
 10
0.0
 20
0.0
 30
0.0
 70
         8
  0
VERTEX
  5
167
100
AcDbEntity
  8
_X______
  6
CONTINUOUS
 62
         7
100
AcDbVertex
100
AcDb3dPolylineVertex
 10
1630.5984823159
 20
125.9515705936
 30
0.0
 70
        32
  0
VERTEX
  5
169
100
AcDbEntity
  8
_X______
  6
CONTINUOUS
 62
         7
100
AcDbVertex
100
AcDb3dPolylineVertex
 10
1630.5984823159
 20
125.9515705936
 30
0.0
 70
        32
  0
SEQEND
  5
16B
100
AcDbEntity
  8
_X______
  6
CONTINUOUS
 62
         7
  0
POLYLINE
  5
16D
100
AcDbEntity
  8
_X______
  6
CONTINUOUS
 62
         7
100
AcDb3dPolyline
 66
         1
 10
0.0
 20
0.0
 30
0.0
 70
         8
  0
VERTEX
  5
16F
100
AcDbEntity
  8
_X______
  6
CONTINUOUS
 62
         7
100
AcDbVertex
100
AcDb3dPolylineVertex
 10
1630.4599679096
 20
125.0802224645
 30
0.0
 70
        32
  0
VERTEX
  5
171
100
AcDbEntity
  8
_X______
  6
CONTINUOUS
 62
         7
100
AcDbVertex
100
AcDb3dPolylineVertex
 10
1630.4599679096
 20
125.0802224645
 30
0.0
 70
        32
  0
SEQEND
  5
173
100
AcDbEntity
  8
_X______
  6
CONTINUOUS
 62
         7
  0
POLYLINE
  5
175
100
AcDbEntity
  8
_X______
  6
CONTINUOUS
 62
         7
100
AcDb3dPolyline
 66
         1
 10
0.0
 20
0.0
 30
0.0
 70
         8
  0
VERTEX
  5
177
100
AcDbEntity
  8
_X______
  6
CONTINUOUS
 62
         7
100
AcDbVertex
100
AcDb3dPolylineVertex
 10
1630.6384990045
 20
124.1289006815
 30
0.0
 70
        32
  0
VERTEX
  5
179
100
AcDbEntity
  8
_X______
  6
CONTINUOUS
 62
         7
100
AcDbVertex
100
AcDb3dPolylineVertex
 10
1630.6384990045
 20
124.1289006815
 30
0.0
 70
        32
  0
SEQEND
  5
17B
100
AcDbEntity
  8
_X______
  6
CONTINUOUS
 62
         7
  0
POLYLINE
  5
17D
100
AcDbEntity
  8
_X______
  6
CONTINUOUS
 62
         7
100
AcDb3dPolyline
 66
         1
 10
0.0
 20
0.0
 30
0.0
 70
         8
  0
VERTEX
  5
17F
100
AcDbEntity
  8
_X______
  6
CONTINUOUS
 62
         7
100
AcDbVertex
100
AcDb3dPolylineVertex
 10
1631.1132341062
 20
123.2853883403
 30
0.0
 70
        32
  0
VERTEX
  5
181
100
AcDbEntity
  8
_X______
  6
CONTINUOUS
 62
         7
100
AcDbVertex
100
AcDb3dPolylineVertex
 10
1631.1132341062
 20
123.2853883403
 30
0.0
 70
        32
  0
SEQEND
  5
183
100
AcDbEntity
  8
_X______
  6
CONTINUOUS
 62
         7
  0
POLYLINE
  5
185
100
AcDbEntity
  8
_X______
  6
CONTINUOUS
 62
         7
100
AcDb3dPolyline
 66
         1
 10
0.0
 20
0.0
 30
0.0
 70
         8
  0
VERTEX
  5
187
100
AcDbEntity
  8
_X______
  6
CONTINUOUS
 62
         7
100
AcDbVertex
100
AcDb3dPolylineVertex
 10
1631.7794340786
 20
122.7069322922
 30
0.0
 70
        32
  0
VERTEX
  5
189
100
AcDbEntity
  8
_X______
  6
CONTINUOUS
 62
         7
100
AcDbVertex
100
AcDb3dPolylineVertex
 10
1631.7794340786
 20
122.7069322922
 30
0.0
 70
        32
  0
SEQEND
  5
18B
100
AcDbEntity
  8
_X______
  6
CONTINUOUS
 62
         7
  0
POLYLINE
  5
18D
100
AcDbEntity
  8
_X______
  6
CONTINUOUS
 62
         7
100
AcDb3dPolyline
 66
         1
 10
0.0
 20
0.0
 30
0.0
 70
         8
  0
VERTEX
  5
18F
100
AcDbEntity
  8
_X______
  6
CONTINUOUS
 62
         7
100
AcDbVertex
100
AcDb3dPolylineVertex
 10
1632.5927493795
 20
122.4308388792
 30
0.0
 70
        32
  0
VERTEX
  5
191
100
AcDbEntity
  8
_X______
  6
CONTINUOUS
 62
         7
100
AcDbVertex
100
AcDb3dPolylineVertex
 10
1632.5927493795
 20
122.4308388792
 30
0.0
 70
        32
  0
SEQEND
  5
193
100
AcDbEntity
  8
_X______
  6
CONTINUOUS
 62
         7
  0
POLYLINE
  5
195
100
AcDbEntity
  8
_X______
  6
CONTINUOUS
 62
         7
100
AcDb3dPolyline
 66
         1
 10
0.0
 20
0.0
 30
0.0
 70
         8
  0
VERTEX
  5
197
100
AcDbEntity
  8
_X______
  6
CONTINUOUS
 62
         7
100
AcDbVertex
100
AcDb3dPolylineVertex
 10
1633.3529432457
 20
122.5186352228
 30
0.0
 70
        32
  0
VERTEX
  5
199
100
AcDbEntity
  8
_X______
  6
CONTINUOUS
 62
         7
100
AcDbVertex
100
AcDb3dPolylineVertex
 10
1633.3529432457
 20
122.5186352228
 30
0.0
 70
        32
  0
SEQEND
  5
19B
100
AcDbEntity
  8
_X______
  6
CONTINUOUS
 62
         7
  0
POLYLINE
  5
19D
100
AcDbEntity
  8
_X______
  6
CONTINUOUS
 62
         7
100
AcDb3dPolyline
 66
         1
 10
0.0
 20
0.0
 30
0.0
 70
         8
  0
VERTEX
  5
19F
100
AcDbEntity
  8
_X______
  6
CONTINUOUS
 62
         7
100
AcDbVertex
100
AcDb3dPolylineVertex
 10
1633.9917199344
 20
122.9400225198
 30
0.0
 70
        32
  0
VERTEX
  5
1A1
100
AcDbEntity
  8
_X______
  6
CONTINUOUS
 62
         7
100
AcDbVertex
100
AcDb3dPolylineVertex
 10
1633.9917199344
 20
122.9400225198
 30
0.0
 70
        32
  0
SEQEND
  5
1A3
100
AcDbEntity
  8
_X______
  6
CONTINUOUS
 62
         7
  0
POLYLINE
  5
1A5
100
AcDbEntity
  8
_X______
  6
CONTINUOUS
 62
         7
100
AcDb3dPolyline
 66
         1
 10
0.0
 20
0.0
 30
0.0
 70
         8
  0
VERTEX
  5
1A7
100
AcDbEntity
  8
_X______
  6
CONTINUOUS
 62
         7
100
AcDbVertex
100
AcDb3dPolylineVertex
 10
1634.4372861761
 20
123.6743113428
 30
0.0
 70
        32
  0
VERTEX
  5
1A9
100
AcDbEntity
  8
_X______
  6
CONTINUOUS
 62
         7
100
AcDbVertex
100
AcDb3dPolylineVertex
 10
1634.4372861761
 20
123.6743113428
 30
0.0
 70
        32
  0
SEQEND
  5
1AB
100
AcDbEntity
  8
_X______
  6
CONTINUOUS
 62
         7
  0
LINE
  5
1AC
100
AcDbEntity
  8
_X______
  6
CENTER
 62
         1
100
AcDbLine
 10
1227.1031401709
 20
183.6483666388
 30
0.0
 11
1202.8730445027
 21
117.0767259189
 31
0.0
  0
LINE
  5
1AD
100
AcDbEntity
  8
_X______
  6
CENTER
 62
         1
100
AcDbLine
 10
1611.3895898921
 20
182.8624526172
 30
0.0
 11
1635.3242136355
 21
117.102614339
 31
0.0
  0
LINE
  5
1AE
100
AcDbEntity
  8
_X______
  6
DASHED
 62
         2
100
AcDbLine
 10
1617.0042459463
 20
173.2839206908
 30
0.0
 11
1615.5677613443
 21
177.2306296981
 31
0.0
  0
LINE
  5
1AF
100
AcDbEntity
  8
_X______
  6
DASHED
 62
         2
100
AcDbLine
 10
1613.2454754631
 20
171.9158401175
 30
0.0
 11
1611.8089908611
 21
175.8625491248
 31
0.0
  0
LINE
  5
1B0
100
AcDbEntity
  8
_X______
  6
DASHED
 62
         2
100
AcDbLine
 10
1616.675353529
 20
173.1642136406
 30
0.0
 11
1622.3315286556
 21
157.6240001996
 31
0.0
  0
LINE
  5
1B1
100
AcDbEntity
  8
_X______
  6
DASHED
 62
         2
100
AcDbLine
 10
1613.5743678804
 20
172.0355471676
 30
0.0
 11
1619.2305430071
 21
156.4953337266
 31
0.0
  0
LINE
  5
1B2
100
AcDbEntity
  8
_X______
  6
DASHED
 62
         2
100
AcDbLine
 10
1617.0042459463
 20
173.2839206908
 30
0.0
 11
1613.2454754631
 21
171.9158401175
 31
0.0
  0
LINE
  5
1B3
100
AcDbEntity
  8
_X______
  6
DASHED
 62
         2
100
AcDbLine
 10
1629.5624348063
 20
127.085362768
 30
0.0
 11
1630.9989194082
 21
123.1386537607
 31
0.0
  0
LINE
  5
1B4
100
AcDbEntity
  8
_X______
  6
DASHED
 62
         2
100
AcDbLine
 10
1633.3212052894
 20
128.4534433413
 30
0.0
 11
1629.5624348063
 21
127.085362768
 31
0.0
  0
LINE
  5
1B5
100
AcDbEntity
  8
_X______
  6
DASHED
 62
         2
100
AcDbLine
 10
1633.3212052894
 20
128.4534433413
 30
0.0
 11
1634.7576898914
 21
124.506734334
 31
0.0
  0
LINE
  5
1B6
100
AcDbEntity
  8
_X______
  6
DASHED
 62
         2
100
AcDbLine
 10
1627.3361377455
 20
143.8739497321
 30
0.0
 11
1632.9923128721
 21
128.3337362912
 31
0.0
  0
LINE
  5
1B7
100
AcDbEntity
  8
_X______
  6
DASHED
 62
         2
100
AcDbLine
 10
1624.2351520969
 20
142.7452832592
 30
0.0
 11
1629.8913272235
 21
127.2050698182
 31
0.0
  0
LINE
  5
1B8
100
AcDbEntity
  8
_X______
  6
CENTER
 62
         1
100
AcDbLine
 10
1226.9769621084
 20
174.5302820606
 30
0.0
 11
1221.3388063837
 21
176.5824029206
 31
0.0
  0
ARC
  5
1B9
100
AcDbEntity
  8
_X______
  6
CONTINUOUS
 62
         7
100
AcDbCircle
 10
1225.071478058
 20
175.2238215369
 30
0.0
 40
2.9722262277
100
AcDbArc
 50
141.257725858
 51
160.0
  0
ARC
  5
1BA
100
AcDbEntity
  8
_X______
  6
CONTINUOUS
 62
         7
100
AcDbCircle
 10
1224.6794007025
 20
175.5384099693
 30
0.0
 40
2.4695428935
100
AcDbArc
 50
120.6773100903
 51
141.257725858
  0
POLYLINE
  5
1BC
100
AcDbEntity
  8
_X______
  6
CONTINUOUS
 62
         7
100
AcDb3dPolyline
 66
         1
 10
0.0
 20
0.0
 30
0.0
 70
         8
  0
VERTEX
  5
1BE
100
AcDbEntity
  8
_X______
  6
CONTINUOUS
 62
         7
100
AcDbVertex
100
AcDb3dPolylineVertex
 10
1223.4194340786
 20
177.6623511666
 30
0.0
 70
        32
  0
VERTEX
  5
1C0
100
AcDbEntity
  8
_X______
  6
CONTINUOUS
 62
         7
100
AcDbVertex
100
AcDb3dPolylineVertex
 10
1223.4194340786
 20
177.6623511666
 30
0.0
 70
        32
  0
SEQEND
  5
1C2
100
AcDbEntity
  8
_X______
  6
CONTINUOUS
 62
         7
  0
ARC
  5
1C3
100
AcDbEntity
  8
_X______
  6
CONTINUOUS
 62
         7
100
AcDbCircle
 10
1224.4796621714
 20
175.8751116619
 30
0.0
 40
2.0780540551
100
AcDbArc
 50
96.8239621528
 51
120.6773100904
  0
POLYLINE
  5
1C5
100
AcDbEntity
  8
_X______
  6
CONTINUOUS
 62
         7
100
AcDb3dPolyline
 66
         1
 10
0.0
 20
0.0
 30
0.0
 70
         8
  0
VERTEX
  5
1C7
100
AcDbEntity
  8
_X______
  6
CONTINUOUS
 62
         7
100
AcDbVertex
100
AcDb3dPolylineVertex
 10
1224.2327493795
 20
177.9384445796
 30
0.0
 70
        32
  0
VERTEX
  5
1C9
100
AcDbEntity
  8
_X______
  6
CONTINUOUS
 62
         7
100
AcDbVertex
100
AcDb3dPolylineVertex
 10
1224.2327493795
 20
177.9384445796
 30
0.0
 70
        32
  0
SEQEND
  5
1CB
100
AcDbEntity
  8
_X______
  6
CONTINUOUS
 62
         7
  0
ARC
  5
1CC
100
AcDbEntity
  8
_X______
  6
CONTINUOUS
 62
         7
100
AcDbCircle
 10
1224.4287518427
 20
176.3005450962
 30
0.0
 40
1.6495853065
100
AcDbArc
 50
70.0000000001
 51
96.8239621529
  0
POLYLINE
  5
1CE
100
AcDbEntity
  8
_X______
  6
CONTINUOUS
 62
         7
100
AcDb3dPolyline
 66
         1
 10
0.0
 20
0.0
 30
0.0
 70
         8
  0
VERTEX
  5
1D0
100
AcDbEntity
  8
_X______
  6
CONTINUOUS
 62
         7
100
AcDbVertex
100
AcDb3dPolylineVertex
 10
1224.9929432457
 20
177.850648236
 30
0.0
 70
        32
  0
VERTEX
  5
1D2
100
AcDbEntity
  8
_X______
  6
CONTINUOUS
 62
         7
100
AcDbVertex
100
AcDb3dPolylineVertex
 10
1224.9929432457
 20
177.850648236
 30
0.0
 70
        32
  0
SEQEND
  5
1D4
100
AcDbEntity
  8
_X______
  6
CONTINUOUS
 62
         7
  0
ARC
  5
1D5
100
AcDbEntity
  8
_X______
  6
CONTINUOUS
 62
         7
100
AcDbCircle
 10
1224.4287518427
 20
176.3005450962
 30
0.0
 40
1.6495853065
100
AcDbArc
 50
43.1760378472
 51
70.0
  0
POLYLINE
  5
1D7
100
AcDbEntity
  8
_X______
  6
CONTINUOUS
 62
         7
100
AcDb3dPolyline
 66
         1
 10
0.0
 20
0.0
 30
0.0
 70
         8
  0
VERTEX
  5
1D9
100
AcDbEntity
  8
_X______
  6
CONTINUOUS
 62
         7
100
AcDbVertex
100
AcDb3dPolylineVertex
 10
1225.6317199344
 20
177.429260939
 30
0.0
 70
        32
  0
VERTEX
  5
1DB
100
AcDbEntity
  8
_X______
  6
CONTINUOUS
 62
         7
100
AcDbVertex
100
AcDb3dPolylineVertex
 10
1225.6317199344
 20
177.429260939
 30
0.0
 70
        32
  0
SEQEND
  5
1DD
100
AcDbEntity
  8
_X______
  6
CONTINUOUS
 62
         7
  0
ARC
  5
1DE
100
AcDbEntity
  8
_X______
  6
CONTINUOUS
 62
         7
100
AcDbCircle
 10
1224.1162889281
 20
176.0073687064
 30
0.0
 40
2.0780540551
100
AcDbArc
 50
19.3226899096
 51
43.1760378472
  0
POLYLINE
  5
1E0
100
AcDbEntity
  8
_X______
  6
CONTINUOUS
 62
         7
100
AcDb3dPolyline
 66
         1
 10
0.0
 20
0.0
 30
0.0
 70
         8
  0
VERTEX
  5
1E2
100
AcDbEntity
  8
_X______
  6
CONTINUOUS
 62
         7
100
AcDbVertex
100
AcDb3dPolylineVertex
 10
1226.0772861762
 20
176.694972116
 30
0.0
 70
        32
  0
VERTEX
  5
1E4
100
AcDbEntity
  8
_X______
  6
CONTINUOUS
 62
         7
100
AcDbVertex
100
AcDb3dPolylineVertex
 10
1226.0772861762
 20
176.694972116
 30
0.0
 70
        32
  0
SEQEND
  5
1E6
100
AcDbEntity
  8
_X______
  6
CONTINUOUS
 62
         7
  0
ARC
  5
1E7
100
AcDbEntity
  8
_X______
  6
CONTINUOUS
 62
         7
100
AcDbCircle
 10
1223.7468526601
 20
175.8778296988
 30
0.0
 40
2.4695428935
100
AcDbArc
 50
358.742274142
 51
379.3226899097
  0
POLYLINE
  5
1E9
100
AcDbEntity
  8
_X______
  6
CONTINUOUS
 62
         7
100
AcDb3dPolyline
 66
         1
 10
0.0
 20
0.0
 30
0.0
 70
         8
  0
VERTEX
  5
1EB
100
AcDbEntity
  8
_X______
  6
CONTINUOUS
 62
         7
100
AcDbVertex
100
AcDb3dPolylineVertex
 10
1226.2158005825
 20
175.823623987
 30
0.0
 70
        32
  0
VERTEX
  5
1ED
100
AcDbEntity
  8
_X______
  6
CONTINUOUS
 62
         7
100
AcDbVertex
100
AcDb3dPolylineVertex
 10
1226.2158005825
 20
175.823623987
 30
0.0
 70
        32
  0
SEQEND
  5
1EF
100
AcDbEntity
  8
_X______
  6
CONTINUOUS
 62
         7
  0
ARC
  5
1F0
100
AcDbEntity
  8
_X______
  6
CONTINUOUS
 62
         7
100
AcDbCircle
 10
1223.2442904341
 20
175.8888634444
 30
0.0
 40
2.9722262277
100
AcDbArc
 50
339.9999999999
 51
358.742274142
  0
POLYLINE
  5
1F2
100
AcDbEntity
  8
_X______
  6
CONTINUOUS
 62
         7
100
AcDb3dPolyline
 66
         1
 10
0.0
 20
0.0
 30
0.0
 70
         8
  0
VERTEX
  5
1F4
100
AcDbEntity
  8
_X______
  6
CONTINUOUS
 62
         7
100
AcDbVertex
100
AcDb3dPolylineVertex
 10
1226.0372694876
 20
174.872302204
 30
0.0
 70
        32
  0
VERTEX
  5
1F6
100
AcDbEntity
  8
_X______
  6
CONTINUOUS
 62
         7
100
AcDbVertex
100
AcDb3dPolylineVertex
 10
1226.0372694876
 20
174.872302204
 30
0.0
 70
        32
  0
SEQEND
  5
1F8
100
AcDbEntity
  8
_X______
  6
CONTINUOUS
 62
         7
  0
ARC
  5
1F9
100
AcDbEntity
  8
_X______
  6
CONTINUOUS
 62
         7
100
AcDbCircle
 10
1223.2442904341
 20
175.8888634444
 30
0.0
 40
2.9722262277
100
AcDbArc
 50
321.257725858
 51
340.0
  0
POLYLINE
  5
1FB
100
AcDbEntity
  8
_X______
  6
CONTINUOUS
 62
         7
100
AcDb3dPolyline
 66
         1
 10
0.0
 20
0.0
 30
0.0
 70
         8
  0
VERTEX
  5
1FD
100
AcDbEntity
  8
_X______
  6
CONTINUOUS
 62
         7
100
AcDbVertex
100
AcDb3dPolylineVertex
 10
1225.5625343858
 20
174.0287898627
 30
0.0
 70
        32
  0
VERTEX
  5
1FF
100
AcDbEntity
  8
_X______
  6
CONTINUOUS
 62
         7
100
AcDbVertex
100
AcDb3dPolylineVertex
 10
1225.5625343858
 20
174.0287898627
 30
0.0
 70
        32
  0
SEQEND
  5
201
100
AcDbEntity
  8
_X______
  6
CONTINUOUS
 62
         7
  0
ARC
  5
202
100
AcDbEntity
  8
_X______
  6
CONTINUOUS
 62
         7
100
AcDbCircle
 10
1223.6363677896
 20
175.5742750119
 30
0.0
 40
2.4695428935
100
AcDbArc
 50
300.6773100903
 51
321.257725858
  0
POLYLINE
  5
204
100
AcDbEntity
  8
_X______
  6
CONTINUOUS
 62
         7
100
AcDb3dPolyline
 66
         1
 10
0.0
 20
0.0
 30
0.0
 70
         8
  0
VERTEX
  5
206
100
AcDbEntity
  8
_X______
  6
CONTINUOUS
 62
         7
100
AcDbVertex
100
AcDb3dPolylineVertex
 10
1224.8963344135
 20
173.4503338146
 30
0.0
 70
        32
  0
VERTEX
  5
208
100
AcDbEntity
  8
_X______
  6
CONTINUOUS
 62
         7
100
AcDbVertex
100
AcDb3dPolylineVertex
 10
1224.8963344135
 20
173.4503338146
 30
0.0
 70
        32
  0
SEQEND
  5
20A
100
AcDbEntity
  8
_X______
  6
CONTINUOUS
 62
         7
  0
ARC
  5
20B
100
AcDbEntity
  8
_X______
  6
CONTINUOUS
 62
         7
100
AcDbCircle
 10
1223.8361063207
 20
175.2375733193
 30
0.0
 40
2.0780540551
100
AcDbArc
 50
276.8239621528
 51
300.6773100904
  0
POLYLINE
  5
20D
100
AcDbEntity
  8
_X______
  6
CONTINUOUS
 62
         7
100
AcDb3dPolyline
 66
         1
 10
0.0
 20
0.0
 30
0.0
 70
         8
  0
VERTEX
  5
20F
100
AcDbEntity
  8
_X______
  6
CONTINUOUS
 62
         7
100
AcDbVertex
100
AcDb3dPolylineVertex
 10
1224.0830191126
 20
173.1742404017
 30
0.0
 70
        32
  0
VERTEX
  5
211
100
AcDbEntity
  8
_X______
  6
CONTINUOUS
 62
         7
100
AcDbVertex
100
AcDb3dPolylineVertex
 10
1224.0830191126
 20
173.1742404017
 30
0.0
 70
        32
  0
SEQEND
  5
213
100
AcDbEntity
  8
_X______
  6
CONTINUOUS
 62
         7
  0
ARC
  5
214
100
AcDbEntity
  8
_X______
  6
CONTINUOUS
 62
         7
100
AcDbCircle
 10
1223.8870166494
 20
174.8121398851
 30
0.0
 40
1.6495853065
100
AcDbArc
 50
250.0
 51
276.8239621528
  0
POLYLINE
  5
216
100
AcDbEntity
  8
_X______
  6
CONTINUOUS
 62
         7
100
AcDb3dPolyline
 66
         1
 10
0.0
 20
0.0
 30
0.0
 70
         8
  0
VERTEX
  5
218
100
AcDbEntity
  8
_X______
  6
CONTINUOUS
 62
         7
100
AcDbVertex
100
AcDb3dPolylineVertex
 10
1223.3228252464
 20
173.2620367452
 30
0.0
 70
        32
  0
VERTEX
  5
21A
100
AcDbEntity
  8
_X______
  6
CONTINUOUS
 62
         7
100
AcDbVertex
100
AcDb3dPolylineVertex
 10
1223.3228252464
 20
173.2620367452
 30
0.0
 70
        32
  0
SEQEND
  5
21C
100
AcDbEntity
  8
_X______
  6
CONTINUOUS
 62
         7
  0
ARC
  5
21D
100
AcDbEntity
  8
_X______
  6
CONTINUOUS
 62
         7
100
AcDbCircle
 10
1223.8870166494
 20
174.8121398851
 30
0.0
 40
1.6495853065
100
AcDbArc
 50
223.1760378472
 51
249.9999999999
  0
POLYLINE
  5
21F
100
AcDbEntity
  8
_X______
  6
CONTINUOUS
 62
         7
100
AcDb3dPolyline
 66
         1
 10
0.0
 20
0.0
 30
0.0
 70
         8
  0
VERTEX
  5
221
100
AcDbEntity
  8
_X______
  6
CONTINUOUS
 62
         7
100
AcDbVertex
100
AcDb3dPolylineVertex
 10
1222.6840485577
 20
173.6834240423
 30
0.0
 70
        32
  0
VERTEX
  5
223
100
AcDbEntity
  8
_X______
  6
CONTINUOUS
 62
         7
100
AcDbVertex
100
AcDb3dPolylineVertex
 10
1222.6840485577
 20
173.6834240423
 30
0.0
 70
        32
  0
SEQEND
  5
225
100
AcDbEntity
  8
_X______
  6
CONTINUOUS
 62
         7
  0
ARC
  5
226
100
AcDbEntity
  8
_X______
  6
CONTINUOUS
 62
         7
100
AcDbCircle
 10
1224.199479564
 20
175.1053162748
 30
0.0
 40
2.0780540551
100
AcDbArc
 50
199.3226899097
 51
223.1760378473
  0
POLYLINE
  5
228
100
AcDbEntity
  8
_X______
  6
CONTINUOUS
 62
         7
100
AcDb3dPolyline
 66
         1
 10
0.0
 20
0.0
 30
0.0
 70
         8
  0
VERTEX
  5
22A
100
AcDbEntity
  8
_X______
  6
CONTINUOUS
 62
         7
100
AcDbVertex
100
AcDb3dPolylineVertex
 10
1222.2384823159
 20
174.4177128652
 30
0.0
 70
        32
  0
VERTEX
  5
22C
100
AcDbEntity
  8
_X______
  6
CONTINUOUS
 62
         7
100
AcDbVertex
100
AcDb3dPolylineVertex
 10
1222.2384823159
 20
174.4177128652
 30
0.0
 70
        32
  0
SEQEND
  5
22E
100
AcDbEntity
  8
_X______
  6
CONTINUOUS
 62
         7
  0
ARC
  5
22F
100
AcDbEntity
  8
_X______
  6
CONTINUOUS
 62
         7
100
AcDbCircle
 10
1224.568915832
 20
175.2348552824
 30
0.0
 40
2.4695428935
100
AcDbArc
 50
178.7422741421
 51
199.3226899097
  0
POLYLINE
  5
231
100
AcDbEntity
  8
_X______
  6
CONTINUOUS
 62
         7
100
AcDb3dPolyline
 66
         1
 10
0.0
 20
0.0
 30
0.0
 70
         8
  0
VERTEX
  5
233
100
AcDbEntity
  8
_X______
  6
CONTINUOUS
 62
         7
100
AcDbVertex
100
AcDb3dPolylineVertex
 10
1222.0999679096
 20
175.2890609943
 30
0.0
 70
        32
  0
VERTEX
  5
235
100
AcDbEntity
  8
_X______
  6
CONTINUOUS
 62
         7
100
AcDbVertex
100
AcDb3dPolylineVertex
 10
1222.0999679096
 20
175.2890609943
 30
0.0
 70
        32
  0
SEQEND
  5
237
100
AcDbEntity
  8
_X______
  6
CONTINUOUS
 62
         7
  0
ARC
  5
238
100
AcDbEntity
  8
_X______
  6
CONTINUOUS
 62
         7
100
AcDbCircle
 10
1225.071478058
 20
175.2238215369
 30
0.0
 40
2.9722262277
100
AcDbArc
 50
160.0
 51
178.7422741421
  0
POLYLINE
  5
23A
100
AcDbEntity
  8
_X______
  6
CONTINUOUS
 62
         7
100
AcDb3dPolyline
 66
         1
 10
0.0
 20
0.0
 30
0.0
 70
         8
  0
VERTEX
  5
23C
100
AcDbEntity
  8
_X______
  6
CONTINUOUS
 62
         7
100
AcDbVertex
100
AcDb3dPolylineVertex
 10
1222.2784990045
 20
176.2403827773
 30
0.0
 70
        32
  0
VERTEX
  5
23E
100
AcDbEntity
  8
_X______
  6
CONTINUOUS
 62
         7
100
AcDbVertex
100
AcDb3dPolylineVertex
 10
1222.2784990045
 20
176.2403827773
 30
0.0
 70
        32
  0
SEQEND
  5
240
100
AcDbEntity
  8
_X______
  6
CONTINUOUS
 62
         7
  0
ARC
  5
241
100
AcDbEntity
  8
_X______
  6
CONTINUOUS
 62
         7
100
AcDbCircle
 10
1205.6472011885
 20
125.263967184
 30
0.0
 40
2.0780540551
100
AcDbArc
 50
19.3226899096
 51
43.1760378472
  0
ARC
  5
242
100
AcDbEntity
  8
_X______
  6
CONTINUOUS
 62
         7
100
AcDbCircle
 10
1205.2777649205
 20
125.1344281764
 30
0.0
 40
2.4695428935
100
AcDbArc
 50
358.742274142
 51
379.3226899097
  0
ARC
  5
243
100
AcDbEntity
  8
_X______
  6
CONTINUOUS
 62
         7
100
AcDbCircle
 10
1206.6023903184
 20
124.4804200144
 30
0.0
 40
2.9722262277
100
AcDbArc
 50
160.0
 51
178.742274142
  0
ARC
  5
244
100
AcDbEntity
  8
_X______
  6
CONTINUOUS
 62
         7
100
AcDbCircle
 10
1206.0998280924
 20
124.49145376
 30
0.0
 40
2.4695428935
100
AcDbArc
 50
178.742274142
 51
199.3226899096
  0
ARC
  5
245
100
AcDbEntity
  8
_X______
  6
CONTINUOUS
 62
         7
100
AcDbCircle
 10
1205.7303918245
 20
124.3619147524
 30
0.0
 40
2.0780540551
100
AcDbArc
 50
199.3226899096
 51
223.1760378473
  0
POLYLINE
  5
247
100
AcDbEntity
  8
_X______
  6
CONTINUOUS
 62
         7
100
AcDb3dPolyline
 66
         1
 10
0.0
 20
0.0
 30
0.0
 70
         8
  0
VERTEX
  5
249
100
AcDbEntity
  8
_X______
  6
CONTINUOUS
 62
         7
100
AcDbVertex
100
AcDb3dPolylineVertex
 10
1204.2149608181
 20
122.9400225198
 30
0.0
 70
        32
  0
VERTEX
  5
24B
100
AcDbEntity
  8
_X______
  6
CONTINUOUS
 62
         7
100
AcDbVertex
100
AcDb3dPolylineVertex
 10
1204.2149608181
 20
122.9400225198
 30
0.0
 70
        32
  0
SEQEND
  5
24D
100
AcDbEntity
  8
_X______
  6
CONTINUOUS
 62
         7
  0
ARC
  5
24E
100
AcDbEntity
  8
_X______
  6
CONTINUOUS
 62
         7
100
AcDbCircle
 10
1205.4179289098
 20
124.0687383626
 30
0.0
 40
1.6495853065
100
AcDbArc
 50
223.1760378472
 51
250.0
  0
POLYLINE
  5
250
100
AcDbEntity
  8
_X______
  6
CONTINUOUS
 62
         7
100
AcDb3dPolyline
 66
         1
 10
0.0
 20
0.0
 30
0.0
 70
         8
  0
VERTEX
  5
252
100
AcDbEntity
  8
_X______
  6
CONTINUOUS
 62
         7
100
AcDbVertex
100
AcDb3dPolylineVertex
 10
1204.8537375068
 20
122.5186352228
 30
0.0
 70
        32
  0
VERTEX
  5
254
100
AcDbEntity
  8
_X______
  6
CONTINUOUS
 62
         7
100
AcDbVertex
100
AcDb3dPolylineVertex
 10
1204.8537375068
 20
122.5186352228
 30
0.0
 70
        32
  0
SEQEND
  5
256
100
AcDbEntity
  8
_X______
  6
CONTINUOUS
 62
         7
  0
ARC
  5
257
100
AcDbEntity
  8
_X______
  6
CONTINUOUS
 62
         7
100
AcDbCircle
 10
1205.4179289098
 20
124.0687383626
 30
0.0
 40
1.6495853065
100
AcDbArc
 50
250.0
 51
276.8239621528
  0
POLYLINE
  5
259
100
AcDbEntity
  8
_X______
  6
CONTINUOUS
 62
         7
100
AcDb3dPolyline
 66
         1
 10
0.0
 20
0.0
 30
0.0
 70
         8
  0
VERTEX
  5
25B
100
AcDbEntity
  8
_X______
  6
CONTINUOUS
 62
         7
100
AcDbVertex
100
AcDb3dPolylineVertex
 10
1205.6139313731
 20
122.4308388792
 30
0.0
 70
        32
  0
VERTEX
  5
25D
100
AcDbEntity
  8
_X______
  6
CONTINUOUS
 62
         7
100
AcDbVertex
100
AcDb3dPolylineVertex
 10
1205.6139313731
 20
122.4308388792
 30
0.0
 70
        32
  0
SEQEND
  5
25F
100
AcDbEntity
  8
_X______
  6
CONTINUOUS
 62
         7
  0
ARC
  5
260
100
AcDbEntity
  8
_X______
  6
CONTINUOUS
 62
         7
100
AcDbCircle
 10
1205.3670185811
 20
124.4941717969
 30
0.0
 40
2.0780540551
100
AcDbArc
 50
276.8239621528
 51
300.6773100903
  0
POLYLINE
  5
262
100
AcDbEntity
  8
_X______
  6
CONTINUOUS
 62
         7
100
AcDb3dPolyline
 66
         1
 10
0.0
 20
0.0
 30
0.0
 70
         8
  0
VERTEX
  5
264
100
AcDbEntity
  8
_X______
  6
CONTINUOUS
 62
         7
100
AcDbVertex
100
AcDb3dPolylineVertex
 10
1206.4272466739
 20
122.7069322922
 30
0.0
 70
        32
  0
VERTEX
  5
266
100
AcDbEntity
  8
_X______
  6
CONTINUOUS
 62
         7
100
AcDbVertex
100
AcDb3dPolylineVertex
 10
1206.4272466739
 20
122.7069322922
 30
0.0
 70
        32
  0
SEQEND
  5
268
100
AcDbEntity
  8
_X______
  6
CONTINUOUS
 62
         7
  0
ARC
  5
269
100
AcDbEntity
  8
_X______
  6
CONTINUOUS
 62
         7
100
AcDbCircle
 10
1205.16728005
 20
124.8308734895
 30
0.0
 40
2.4695428935
100
AcDbArc
 50
300.6773100904
 51
321.2577258581
  0
POLYLINE
  5
26B
100
AcDbEntity
  8
_X______
  6
CONTINUOUS
 62
         7
100
AcDb3dPolyline
 66
         1
 10
0.0
 20
0.0
 30
0.0
 70
         8
  0
VERTEX
  5
26D
100
AcDbEntity
  8
_X______
  6
CONTINUOUS
 62
         7
100
AcDbVertex
100
AcDb3dPolylineVertex
 10
1207.0934466463
 20
123.2853883403
 30
0.0
 70
        32
  0
VERTEX
  5
26F
100
AcDbEntity
  8
_X______
  6
CONTINUOUS
 62
         7
100
AcDbVertex
100
AcDb3dPolylineVertex
 10
1207.0934466463
 20
123.2853883403
 30
0.0
 70
        32
  0
SEQEND
  5
271
100
AcDbEntity
  8
_X______
  6
CONTINUOUS
 62
         7
  0
ARC
  5
272
100
AcDbEntity
  8
_X______
  6
CONTINUOUS
 62
         7
100
AcDbCircle
 10
1204.7752026945
 20
125.1454619219
 30
0.0
 40
2.9722262277
100
AcDbArc
 50
321.257725858
 51
340.0
  0
POLYLINE
  5
274
100
AcDbEntity
  8
_X______
  6
CONTINUOUS
 62
         7
100
AcDb3dPolyline
 66
         1
 10
0.0
 20
0.0
 30
0.0
 70
         8
  0
VERTEX
  5
276
100
AcDbEntity
  8
_X______
  6
CONTINUOUS
 62
         7
100
AcDbVertex
100
AcDb3dPolylineVertex
 10
1207.568181748
 20
124.1289006815
 30
0.0
 70
        32
  0
VERTEX
  5
278
100
AcDbEntity
  8
_X______
  6
CONTINUOUS
 62
         7
100
AcDbVertex
100
AcDb3dPolylineVertex
 10
1207.568181748
 20
124.1289006815
 30
0.0
 70
        32
  0
SEQEND
  5
27A
100
AcDbEntity
  8
_X______
  6
CONTINUOUS
 62
         7
  0
ARC
  5
27B
100
AcDbEntity
  8
_X______
  6
CONTINUOUS
 62
         7
100
AcDbCircle
 10
1204.7752026945
 20
125.1454619219
 30
0.0
 40
2.9722262277
100
AcDbArc
 50
339.9999999999
 51
358.742274142
  0
POLYLINE
  5
27D
100
AcDbEntity
  8
_X______
  6
CONTINUOUS
 62
         7
100
AcDb3dPolyline
 66
         1
 10
0.0
 20
0.0
 30
0.0
 70
         8
  0
VERTEX
  5
27F
100
AcDbEntity
  8
_X______
  6
CONTINUOUS
 62
         7
100
AcDbVertex
100
AcDb3dPolylineVertex
 10
1207.7467128429
 20
125.0802224645
 30
0.0
 70
        32
  0
VERTEX
  5
281
100
AcDbEntity
  8
_X______
  6
CONTINUOUS
 62
         7
100
AcDbVertex
100
AcDb3dPolylineVertex
 10
1207.7467128429
 20
125.0802224645
 30
0.0
 70
        32
  0
SEQEND
  5
283
100
AcDbEntity
  8
_X______
  6
CONTINUOUS
 62
         7
  0
POLYLINE
  5
285
100
AcDbEntity
  8
_X______
  6
CONTINUOUS
 62
         7
100
AcDb3dPolyline
 66
         1
 10
0.0
 20
0.0
 30
0.0
 70
         8
  0
VERTEX
  5
287
100
AcDbEntity
  8
_X______
  6
CONTINUOUS
 62
         7
100
AcDbVertex
100
AcDb3dPolylineVertex
 10
1207.1626321948
 20
126.6858594165
 30
0.0
 70
        32
  0
VERTEX
  5
289
100
AcDbEntity
  8
_X______
  6
CONTINUOUS
 62
         7
100
AcDbVertex
100
AcDb3dPolylineVertex
 10
1207.1626321948
 20
126.6858594165
 30
0.0
 70
        32
  0
SEQEND
  5
28B
100
AcDbEntity
  8
_X______
  6
CONTINUOUS
 62
         7
  0
ARC
  5
28C
100
AcDbEntity
  8
_X______
  6
CONTINUOUS
 62
         7
100
AcDbCircle
 10
1205.9596641031
 20
125.5571435737
 30
0.0
 40
1.6495853065
100
AcDbArc
 50
43.1760378472
 51
70.0
  0
POLYLINE
  5
28E
100
AcDbEntity
  8
_X______
  6
CONTINUOUS
 62
         7
100
AcDb3dPolyline
 66
         1
 10
0.0
 20
0.0
 30
0.0
 70
         8
  0
VERTEX
  5
290
100
AcDbEntity
  8
_X______
  6
CONTINUOUS
 62
         7
100
AcDbVertex
100
AcDb3dPolylineVertex
 10
1206.5238555061
 20
127.1072467136
 30
0.0
 70
        32
  0
VERTEX
  5
292
100
AcDbEntity
  8
_X______
  6
CONTINUOUS
 62
         7
100
AcDbVertex
100
AcDb3dPolylineVertex
 10
1206.5238555061
 20
127.1072467136
 30
0.0
 70
        32
  0
SEQEND
  5
294
100
AcDbEntity
  8
_X______
  6
CONTINUOUS
 62
         7
  0
ARC
  5
295
100
AcDbEntity
  8
_X______
  6
CONTINUOUS
 62
         7
100
AcDbCircle
 10
1205.9596641031
 20
125.5571435737
 30
0.0
 40
1.6495853065
100
AcDbArc
 50
70.0
 51
96.8239621528
  0
ARC
  5
296
100
AcDbEntity
  8
_X______
  6
CONTINUOUS
 62
         7
100
AcDbCircle
 10
1206.0105744318
 20
125.1317101395
 30
0.0
 40
2.0780540551
100
AcDbArc
 50
96.8239621528
 51
120.6773100904
  0
POLYLINE
  5
298
100
AcDbEntity
  8
_X______
  6
CONTINUOUS
 62
         7
100
AcDb3dPolyline
 66
         1
 10
0.0
 20
0.0
 30
0.0
 70
         8
  0
VERTEX
  5
29A
100
AcDbEntity
  8
_X______
  6
CONTINUOUS
 62
         7
100
AcDbVertex
100
AcDb3dPolylineVertex
 10
1204.950346339
 20
126.9189496442
 30
0.0
 70
        32
  0
VERTEX
  5
29C
100
AcDbEntity
  8
_X______
  6
CONTINUOUS
 62
         7
100
AcDbVertex
100
AcDb3dPolylineVertex
 10
1204.950346339
 20
126.9189496442
 30
0.0
 70
        32
  0
SEQEND
  5
29E
100
AcDbEntity
  8
_X______
  6
CONTINUOUS
 62
         7
  0
ARC
  5
29F
100
AcDbEntity
  8
_X______
  6
CONTINUOUS
 62
         7
100
AcDbCircle
 10
1206.2103129629
 20
124.7950084469
 30
0.0
 40
2.4695428935
100
AcDbArc
 50
120.6773100904
 51
141.257725858
  0
POLYLINE
  5
2A1
100
AcDbEntity
  8
_X______
  6
CONTINUOUS
 62
         7
100
AcDb3dPolyline
 66
         1
 10
0.0
 20
0.0
 30
0.0
 70
         8
  0
VERTEX
  5
2A3
100
AcDbEntity
  8
_X______
  6
CONTINUOUS
 62
         7
100
AcDbVertex
100
AcDb3dPolylineVertex
 10
1204.2841463667
 20
126.340493596
 30
0.0
 70
        32
  0
VERTEX
  5
2A5
100
AcDbEntity
  8
_X______
  6
CONTINUOUS
 62
         7
100
AcDbVertex
100
AcDb3dPolylineVertex
 10
1204.2841463667
 20
126.340493596
 30
0.0
 70
        32
  0
SEQEND
  5
2A7
100
AcDbEntity
  8
_X______
  6
CONTINUOUS
 62
         7
  0
ARC
  5
2A8
100
AcDbEntity
  8
_X______
  6
CONTINUOUS
 62
         7
100
AcDbCircle
 10
1206.6023903184
 20
124.4804200144
 30
0.0
 40
2.9722262277
100
AcDbArc
 50
141.257725858
 51
160.0
  0
POLYLINE
  5
2AA
100
AcDbEntity
  8
_X______
  6
CONTINUOUS
 62
         7
100
AcDb3dPolyline
 66
         1
 10
0.0
 20
0.0
 30
0.0
 70
         8
  0
VERTEX
  5
2AC
100
AcDbEntity
  8
_X______
  6
CONTINUOUS
 62
         7
100
AcDbVertex
100
AcDb3dPolylineVertex
 10
1203.8094112649
 20
125.4969812548
 30
0.0
 70
        32
  0
VERTEX
  5
2AE
100
AcDbEntity
  8
_X______
  6
CONTINUOUS
 62
         7
100
AcDbVertex
100
AcDb3dPolylineVertex
 10
1203.8094112649
 20
125.4969812548
 30
0.0
 70
        32
  0
SEQEND
  5
2B0
100
AcDbEntity
  8
_X______
  6
CONTINUOUS
 62
         7
  0
LINE
  5
2B1
100
AcDbEntity
  8
_X______
  6
CENTER
 62
         1
100
AcDbLine
 10
1208.5078743688
 20
123.7868805382
 30
0.0
 11
1202.8697186441
 21
125.8390013981
 31
0.0
  0
ARC
  5
2B2
100
AcDbEntity
  8
_Y__________
  6
CONTINUOUS
 62
         7
100
AcDbCircle
 10
1332.7533403763
 20
-3.7933347407
 30
0.0
 40
1.0
100
AcDbArc
 50
180.0
 51
270.0
  0
LINE
  5
2B3
100
AcDbEntity
  8
_Y__________
  6
CONTINUOUS
 62
         7
100
AcDbLine
 10
1332.7533403763
 20
-4.7933347407
 30
0.0
 11
1335.5233403763
 21
-4.7933347407
 31
0.0
  0
ARC
  5
2B4
100
AcDbEntity
  8
_Y__________
  6
CONTINUOUS
 62
         7
100
AcDbCircle
 10
1335.9228759565
 20
-4.8933347407
 30
0.0
 40
0.2
100
AcDbArc
 50
90.0
 51
105.0
  0
LINE
  5
2B5
100
AcDbEntity
  8
_Y__________
  6
CONTINUOUS
 62
         7
100
AcDbLine
 10
1335.8711121475
 20
-4.7001495754
 30
0.0
 11
1335.5233403763
 21
-4.7933347407
 31
0.0
  0
LINE
  5
2B6
100
AcDbEntity
  8
_Y__________
  6
CONTINUOUS
 62
         7
100
AcDbLine
 10
1335.9228759565
 20
-4.6933347407
 30
0.0
 11
1336.3233403763
 21
-4.6933347407
 31
0.0
  0
LINE
  5
2B7
100
AcDbEntity
  8
_Y__________
  6
CONTINUOUS
 62
         7
100
AcDbLine
 10
1336.4647617325
 20
-4.7519133844
 30
0.0
 11
1337.6561830887
 21
-5.9433347407
 31
0.0
  0
ARC
  5
2B8
100
AcDbEntity
  8
_Y__________
  6
CONTINUOUS
 62
         7
100
AcDbCircle
 10
1336.3233403763
 20
-4.8933347407
 30
0.0
 40
0.2
100
AcDbArc
 50
45.0000000038
 51
90.0
  0
LINE
  5
2B9
100
AcDbEntity
  8
_Y__________
  6
CONTINUOUS
 62
         7
100
AcDbLine
 10
1336.5233403763
 20
-5.1498119
 30
0.0
 11
1336.5233403763
 21
-20.6220880762
 31
0.0
  0
LINE
  5
2BA
100
AcDbEntity
  8
_Y__________
  6
CONTINUOUS
 62
         7
100
AcDbLine
 10
1335.5233403763
 20
-4.7933347407
 30
0.0
 11
1335.5233403763
 21
-21.0933347407
 31
0.0
  0
LINE
  5
2BB
100
AcDbEntity
  8
_Y__________
  6
CONTINUOUS
 62
         5
100
AcDbLine
 10
1336.6561830887
 20
-4.9433347407
 30
0.0
 11
1360.2033403763
 21
-4.9433347407
 31
0.0
  0
LINE
  5
2BC
100
AcDbEntity
  8
_Y__________
  6
CONTINUOUS
 62
         7
100
AcDbLine
 10
1337.6561830887
 20
-5.9433347407
 30
0.0
 11
1402.7949755966
 21
-5.9433347407
 31
0.0
  0
LINE
  5
2BD
100
AcDbEntity
  8
_Y__________
  6
CONTINUOUS
 62
         7
100
AcDbLine
 10
1337.6561830887
 20
-5.9433347407
 30
0.0
 11
1337.6561830887
 21
-19.9433347407
 31
0.0
  0
LINE
  5
2BE
100
AcDbEntity
  8
_Y__________
  6
CONTINUOUS
 62
         7
100
AcDbLine
 10
1337.6561830887
 20
-19.9433347407
 30
0.0
 11
1402.7949755966
 21
-19.9433347407
 31
0.0
  0
LINE
  5
2BF
100
AcDbEntity
  8
_Y__________
  6
CONTINUOUS
 62
         7
100
AcDbLine
 10
1336.4647617325
 20
-21.1347560969
 30
0.0
 11
1337.6561830887
 21
-19.9433347407
 31
0.0
  0
ARC
  5
2C0
100
AcDbEntity
  8
_Y__________
  6
CONTINUOUS
 62
         7
100
AcDbCircle
 10
1336.3233403763
 20
-20.9933347407
 30
0.0
 40
0.2
100
AcDbArc
 50
270.0
 51
314.9999999962
  0
LINE
  5
2C1
100
AcDbEntity
  8
_Y__________
  6
CONTINUOUS
 62
         7
100
AcDbLine
 10
1335.9228759565
 20
-21.1933347407
 30
0.0
 11
1336.3233403763
 21
-21.1933347407
 31
0.0
  0
LINE
  5
2C2
100
AcDbEntity
  8
_Y__________
  6
CONTINUOUS
 62
         7
100
AcDbLine
 10
1335.8711121475
 20
-21.1865199059
 30
0.0
 11
1335.5233403763
 21
-21.0933347407
 31
0.0
  0
LINE
  5
2C3
100
AcDbEntity
  8
_Y__________
  6
CONTINUOUS
 62
         7
100
AcDbLine
 10
1332.7533403763
 20
-21.0933347407
 30
0.0
 11
1335.5233403763
 21
-21.0933347407
 31
0.0
  0
ARC
  5
2C4
100
AcDbEntity
  8
_Y__________
  6
CONTINUOUS
 62
         7
100
AcDbCircle
 10
1332.7533403763
 20
-22.0933347407
 30
0.0
 40
1.0
100
AcDbArc
 50
90.0
 51
180.0
  0
LINE
  5
2C5
100
AcDbEntity
  8
_Y__________
  6
CONTINUOUS
 62
         5
100
AcDbLine
 10
1336.6561830887
 20
-20.9433347407
 30
0.0
 11
1360.2033403763
 21
-20.9433347407
 31
0.0
  0
LINE
  5
2C6
100
AcDbEntity
  8
_Y__________
  6
CONTINUOUS
 62
         7
100
AcDbLine
 10
1360.2033403763
 20
-4.9433347407
 30
0.0
 11
1360.2033403763
 21
-20.9433347407
 31
0.0
  0
ARC
  5
2C7
100
AcDbEntity
  8
_Y__________
  6
CONTINUOUS
 62
         7
100
AcDbCircle
 10
1332.9533403763
 20
-24.1775164571
 30
0.0
 40
1.2
100
AcDbArc
 50
180.0
 51
261.7028550302
  0
ARC
  5
2C8
100
AcDbEntity
  8
_Y__________
  6
CONTINUOUS
 62
         7
100
AcDbCircle
 10
1332.9533403763
 20
-1.7091530242
 30
0.0
 40
1.2
100
AcDbArc
 50
98.2971449698
 51
180.0
  0
LINE
  5
2C9
100
AcDbEntity
  8
_Y__________
  6
CONTINUOUS
 62
         7
100
AcDbLine
 10
1331.7533403763
 20
-1.7091530242
 30
0.0
 11
1331.7533403763
 21
-24.1775164571
 31
0.0
  0
ARC
  5
2CA
100
AcDbEntity
  8
_Y__________
  6
CONTINUOUS
 62
         7
100
AcDbCircle
 10
1332.9533403763
 20
138.9504600129
 30
0.0
 40
1.2
100
AcDbArc
 50
180.0
 51
261.7028550302
  0
ARC
  5
2CB
100
AcDbEntity
  8
_Y__________
  6
CONTINUOUS
 62
         7
100
AcDbCircle
 10
1332.9533403763
 20
161.4188234458
 30
0.0
 40
1.2
100
AcDbArc
 50
98.2971449698
 51
180.0
  0
LINE
  5
2CC
100
AcDbEntity
  8
_Y__________
  6
CONTINUOUS
 62
         7
100
AcDbLine
 10
1331.7533403763
 20
161.4188234458
 30
0.0
 11
1331.7533403763
 21
138.9504600129
 31
0.0
  0
LINE
  5
2CD
100
AcDbEntity
  8
_Y__________
  6
CONTINUOUS
 62
         7
100
AcDbLine
 10
1414.639610775
 20
141.3346417294
 30
0.0
 11
1414.639610775
 21
118.4096417294
 31
0.0
  0
LINE
  5
2CE
100
AcDbEntity
  8
_Y__________
  6
CONTINUOUS
 62
         7
100
AcDbLine
 10
1412.9783403763
 20
142.1346417294
 30
0.0
 11
1412.9783403763
 21
121.2870464652
 31
0.0
  0
LINE
  5
2CF
100
AcDbEntity
  8
_Y__________
  6
CONTINUOUS
 62
         7
100
AcDbLine
 10
1409.2283403763
 20
142.1346417294
 30
0.0
 11
1409.2283403763
 21
121.2870464652
 31
0.0
  0
LINE
  5
2D0
100
AcDbEntity
  8
_Y__________
  6
CONTINUOUS
 62
         7
100
AcDbLine
 10
1407.5670699775
 20
141.3346417294
 30
0.0
 11
1407.5670699775
 21
118.4096417294
 31
0.0
  0
LINE
  5
2D1
100
AcDbEntity
  8
_Y__________
  6
CONTINUOUS
 62
         7
100
AcDbLine
 10
1419.1033403763
 20
159.0346417294
 30
0.0
 11
1414.639610775
 21
159.0346417294
 31
0.0
  0
LINE
  5
2D2
100
AcDbEntity
  8
_Y__________
  6
CONTINUOUS
 62
         7
100
AcDbLine
 10
1412.9783403763
 20
158.2346417294
 30
0.0
 11
1414.639610775
 21
159.0346417294
 31
0.0
  0
LINE
  5
2D3
100
AcDbEntity
  8
_Y__________
  6
CONTINUOUS
 62
         7
100
AcDbLine
 10
1419.1033403763
 20
159.0346417294
 30
0.0
 11
1418.3033403763
 21
158.2346417294
 31
0.0
  0
LINE
  5
2D4
100
AcDbEntity
  8
_Y__________
  6
CONTINUOUS
 62
         7
100
AcDbLine
 10
1412.9783403763
 20
142.1346417294
 30
0.0
 11
1414.639610775
 21
141.3346417294
 31
0.0
  0
LINE
  5
2D5
100
AcDbEntity
  8
_Y__________
  6
CONTINUOUS
 62
         7
100
AcDbLine
 10
1418.3033403763
 20
142.1346417294
 30
0.0
 11
1419.1033403763
 21
141.3346417294
 31
0.0
  0
LINE
  5
2D6
100
AcDbEntity
  8
_Y__________
  6
CONTINUOUS
 62
         7
100
AcDbLine
 10
1419.1033403763
 20
141.3346417294
 30
0.0
 11
1414.639610775
 21
141.3346417294
 31
0.0
  0
LINE
  5
2D7
100
AcDbEntity
  8
_Y__________
  6
CONTINUOUS
 62
         7
100
AcDbLine
 10
1418.3033403763
 20
158.2346417294
 30
0.0
 11
1418.3033403763
 21
155.4153204616
 31
0.0
  0
LINE
  5
2D8
100
AcDbEntity
  8
_Y__________
  6
CONTINUOUS
 62
         7
100
AcDbLine
 10
1407.5670699775
 20
159.0346417294
 30
0.0
 11
1403.2033403763
 21
159.0346417294
 31
0.0
  0
LINE
  5
2D9
100
AcDbEntity
  8
_Y__________
  6
CONTINUOUS
 62
         7
100
AcDbLine
 10
1403.2033403763
 20
159.0346417294
 30
0.0
 11
1404.0033403763
 21
158.2346417294
 31
0.0
  0
LINE
  5
2DA
100
AcDbEntity
  8
_Y__________
  6
CONTINUOUS
 62
         7
100
AcDbLine
 10
1404.0033403763
 20
142.1346417294
 30
0.0
 11
1403.2033403763
 21
141.3346417294
 31
0.0
  0
LINE
  5
2DB
100
AcDbEntity
  8
_Y__________
  6
CONTINUOUS
 62
         7
100
AcDbLine
 10
1407.5670699775
 20
141.3346417294
 30
0.0
 11
1403.2033403763
 21
141.3346417294
 31
0.0
  0
LINE
  5
2DC
100
AcDbEntity
  8
_Y__________
  6
CONTINUOUS
 62
         7
100
AcDbLine
 10
1404.0033403763
 20
158.2346417294
 30
0.0
 11
1404.0033403763
 21
142.1346417294
 31
0.0
  0
LINE
  5
2DD
100
AcDbEntity
  8
_Y__________
  6
CONTINUOUS
 62
         7
100
AcDbLine
 10
1407.5670699775
 20
141.3346417294
 30
0.0
 11
1409.2283403763
 21
142.1346417294
 31
0.0
  0
LINE
  5
2DE
100
AcDbEntity
  8
_Y__________
  6
CONTINUOUS
 62
         7
100
AcDbLine
 10
1407.5670699775
 20
159.0346417294
 30
0.0
 11
1409.2283403763
 21
158.2346417294
 31
0.0
  0
LINE
  5
2DF
100
AcDbEntity
  8
_Y__________
  6
CONTINUOUS
 62
         7
100
AcDbLine
 10
1418.3033403763
 20
142.1346417294
 30
0.0
 11
1404.0033403763
 21
142.1346417294
 31
0.0
  0
LINE
  5
2E0
100
AcDbEntity
  8
_Y__________
  6
CONTINUOUS
 62
         7
100
AcDbLine
 10
1418.3033403763
 20
158.2346417294
 30
0.0
 11
1404.0033403763
 21
158.2346417294
 31
0.0
  0
LINE
  5
2E1
100
AcDbEntity
  8
_Y__________
  6
CONTINUOUS
 62
         7
100
AcDbLine
 10
1414.639610775
 20
181.9596417294
 30
0.0
 11
1414.639610775
 21
159.0346417294
 31
0.0
  0
LINE
  5
2E2
100
AcDbEntity
  8
_Y__________
  6
CONTINUOUS
 62
         7
100
AcDbLine
 10
1412.9783403763
 20
179.0822369936
 30
0.0
 11
1412.9783403763
 21
158.2346417294
 31
0.0
  0
LINE
  5
2E3
100
AcDbEntity
  8
_Y__________
  6
CONTINUOUS
 62
         7
100
AcDbLine
 10
1409.2283403763
 20
179.0822369936
 30
0.0
 11
1409.2283403763
 21
158.2346417294
 31
0.0
  0
LINE
  5
2E4
100
AcDbEntity
  8
_Y__________
  6
CONTINUOUS
 62
         7
100
AcDbLine
 10
1407.5670699775
 20
181.9596417294
 30
0.0
 11
1407.5670699775
 21
159.0346417294
 31
0.0
  0
ARC
  5
2E5
100
AcDbEntity
  8
_Y__________
  6
CONTINUOUS
 62
         7
100
AcDbCircle
 10
1623.2833403763
 20
150.1846417294
 30
0.0
 40
31.775
100
AcDbArc
 50
195.411296411
 51
344.588703589
  0
ARC
  5
2E6
100
AcDbEntity
  8
_Y__________
  6
CONTINUOUS
 62
         7
100
AcDbCircle
 10
1623.2833403763
 20
150.1846417294
 30
0.0
 40
31.775
100
AcDbArc
 50
15.411296411
 51
164.588703589
  0
LINE
  5
2E7
100
AcDbEntity
  8
_Y__________
  6
CENTER
 62
         1
100
AcDbLine
 10
1623.2833403763
 20
184.9596417294
 30
0.0
 11
1623.2833403763
 21
115.4096417294
 31
0.0
  0
ARC
  5
2E8
100
AcDbEntity
  8
_Y__________
  6
DASHED
 62
         2
100
AcDbCircle
 10
1623.2833403763
 20
150.1846417294
 30
0.0
 40
28.125
100
AcDbArc
 50
16.6319205355
 51
163.3680794645
  0
ARC
  5
2E9
100
AcDbEntity
  8
_Y__________
  6
DASHED
 62
         2
100
AcDbCircle
 10
1623.2833403763
 20
150.1846417294
 30
0.0
 40
28.125
100
AcDbArc
 50
196.6319205355
 51
343.3680794645
  0
LINE
  5
2EA
100
AcDbEntity
  8
_Y__________
  6
CONTINUOUS
 62
         7
100
AcDbLine
 10
1646.0833403763
 20
157.7346417294
 30
0.0
 11
1646.0833403763
 21
142.6346417294
 31
0.0
  0
LINE
  5
2EB
100
AcDbEntity
  8
_Y__________
  6
CONTINUOUS
 62
         7
100
AcDbLine
 10
1646.0833403763
 20
157.7346417294
 30
0.0
 11
1646.5833403763
 21
158.2346417294
 31
0.0
  0
LINE
  5
2EC
100
AcDbEntity
  8
_Y__________
  6
CONTINUOUS
 62
         7
100
AcDbLine
 10
1646.5833403763
 20
158.2346417294
 30
0.0
 11
1653.5217223278
 21
158.2346417294
 31
0.0
  0
LINE
  5
2ED
100
AcDbEntity
  8
_Y__________
  6
CONTINUOUS
 62
         7
100
AcDbLine
 10
1653.915807609
 20
158.6287270106
 30
0.0
 11
1653.5217223278
 21
158.2346417294
 31
0.0
  0
LINE
  5
2EE
100
AcDbEntity
  8
_Y__________
  6
CONTINUOUS
 62
         7
100
AcDbLine
 10
1646.5833403763
 20
142.1346417294
 30
0.0
 11
1653.5217223278
 21
142.1346417294
 31
0.0
  0
LINE
  5
2EF
100
AcDbEntity
  8
_Y__________
  6
CONTINUOUS
 62
         7
100
AcDbLine
 10
1646.0833403763
 20
142.6346417294
 30
0.0
 11
1646.5833403763
 21
142.1346417294
 31
0.0
  0
LINE
  5
2F0
100
AcDbEntity
  8
_Y__________
  6
CONTINUOUS
 62
         7
100
AcDbLine
 10
1653.915807609
 20
141.7405564482
 30
0.0
 11
1653.5217223278
 21
142.1346417294
 31
0.0
  0
LINE
  5
2F1
100
AcDbEntity
  8
_Y__________
  6
CONTINUOUS
 62
         7
100
AcDbLine
 10
1593.0449584247
 20
158.2346417294
 30
0.0
 11
1597.7833403762
 21
158.2346417294
 31
0.0
  0
LINE
  5
2F2
100
AcDbEntity
  8
_Y__________
  6
CONTINUOUS
 62
         7
100
AcDbLine
 10
1598.2833403762
 20
157.7346417294
 30
0.0
 11
1598.2833403762
 21
142.6346417294
 31
0.0
  0
LINE
  5
2F3
100
AcDbEntity
  8
_Y__________
  6
CONTINUOUS
 62
         7
100
AcDbLine
 10
1598.2833403762
 20
157.7346417294
 30
0.0
 11
1597.7833403762
 21
158.2346417294
 31
0.0
  0
LINE
  5
2F4
100
AcDbEntity
  8
_Y__________
  6
CONTINUOUS
 62
         7
100
AcDbLine
 10
1592.6508731435
 20
158.6287270106
 30
0.0
 11
1593.0449584247
 21
158.2346417294
 31
0.0
  0
LINE
  5
2F5
100
AcDbEntity
  8
_Y__________
  6
CONTINUOUS
 62
         7
100
AcDbLine
 10
1598.2833403762
 20
142.6346417294
 30
0.0
 11
1597.7833403762
 21
142.1346417294
 31
0.0
  0
LINE
  5
2F6
100
AcDbEntity
  8
_Y__________
  6
CONTINUOUS
 62
         7
100
AcDbLine
 10
1592.6508731435
 20
141.7405564482
 30
0.0
 11
1593.0449584247
 21
142.1346417294
 31
0.0
  0
LINE
  5
2F7
100
AcDbEntity
  8
_Y__________
  6
CONTINUOUS
 62
         7
100
AcDbLine
 10
1593.0449584247
 20
142.1346417294
 30
0.0
 11
1597.7833403762
 21
142.1346417294
 31
0.0
  0
LINE
  5
2F8
100
AcDbEntity
  8
_Y__________
  6
CENTER
 62
         1
100
AcDbLine
 10
1591.5083403763
 20
150.1846417294
 30
0.0
 11
1655.0583403763
 21
150.1846417294
 31
0.0
  0
LINE
  5
2F9
100
AcDbEntity
  8
_Y__________
  6
CENTER
 62
         1
100
AcDbLine
 10
1183.1483403763
 20
150.1846417294
 30
0.0
 11
1246.6983403763
 21
150.1846417294
 31
0.0
  0
ARC
  5
2FA
100
AcDbEntity
  8
_Y__________
  6
CONTINUOUS
 62
         7
100
AcDbCircle
 10
1214.9233403763
 20
150.1846417294
 30
0.0
 40
31.775
100
AcDbArc
 50
195.411296411
 51
344.588703589
  0
ARC
  5
2FB
100
AcDbEntity
  8
_Y__________
  6
CONTINUOUS
 62
         7
100
AcDbCircle
 10
1214.9233403763
 20
150.1846417294
 30
0.0
 40
31.775
100
AcDbArc
 50
15.411296411
 51
164.588703589
  0
LINE
  5
2FC
100
AcDbEntity
  8
_Y__________
  6
CENTER
 62
         1
100
AcDbLine
 10
1214.9233403763
 20
114.5732894966
 30
0.0
 11
1214.9233403763
 21
185.4173498279
 31
0.0
  0
CIRCLE
  5
2FD
100
AcDbEntity
  8
_Y__________
  6
CONTINUOUS
 62
         7
100
AcDbCircle
 10
1214.9233403763
 20
150.1846417294
 30
0.0
 40
12.7165768873
  0
CIRCLE
  5
2FE
100
AcDbEntity
  8
_Y__________
  6
CONTINUOUS
 62
         7
100
AcDbCircle
 10
1214.9233403763
 20
150.1846417294
 30
0.0
 40
7.0
  0
ARC
  5
2FF
100
AcDbEntity
  8
_Y__________
  6
CONTINUOUS
 62
         5
100
AcDbCircle
 10
1214.9233403763
 20
150.1846417294
 30
0.0
 40
8.0
100
AcDbArc
 50
352.9901372228
 51
621.2264515101
  0
CIRCLE
  5
300
100
AcDbEntity
  8
_Y__________
  6
CONTINUOUS
 62
         7
100
AcDbCircle
 10
1214.9233403763
 20
150.1846417294
 30
0.0
 40
9.5
  0
CIRCLE
  5
301
100
AcDbEntity
  8
_Y__________
  6
CONTINUOUS
 62
         7
100
AcDbCircle
 10
1214.9233403763
 20
150.1846417294
 30
0.0
 40
8.5
  0
CIRCLE
  5
302
100
AcDbEntity
  8
_Y__________
  6
CONTINUOUS
 62
         7
100
AcDbCircle
 10
1214.9233403763
 20
150.1846417294
 30
0.0
 40
22.225
  0
LINE
  5
303
100
AcDbEntity
  8
_Y__________
  6
CONTINUOUS
 62
         7
100
AcDbLine
 10
1245.1617223278
 20
158.2346417294
 30
0.0
 11
1240.4233403763
 21
158.2346417294
 31
0.0
  0
LINE
  5
304
100
AcDbEntity
  8
_Y__________
  6
CONTINUOUS
 62
         7
100
AcDbLine
 10
1245.555807609
 20
158.6287270106
 30
0.0
 11
1245.1617223278
 21
158.2346417294
 31
0.0
  0
LINE
  5
305
100
AcDbEntity
  8
_Y__________
  6
CONTINUOUS
 62
         7
100
AcDbLine
 10
1239.9233403763
 20
157.7346417294
 30
0.0
 11
1240.4233403763
 21
158.2346417294
 31
0.0
  0
LINE
  5
306
100
AcDbEntity
  8
_Y__________
  6
CONTINUOUS
 62
         7
100
AcDbLine
 10
1245.555807609
 20
141.7405564482
 30
0.0
 11
1245.1617223278
 21
142.1346417294
 31
0.0
  0
LINE
  5
307
100
AcDbEntity
  8
_Y__________
  6
CONTINUOUS
 62
         7
100
AcDbLine
 10
1239.9233403763
 20
142.6346417294
 30
0.0
 11
1240.4233403763
 21
142.1346417294
 31
0.0
  0
LINE
  5
308
100
AcDbEntity
  8
_Y__________
  6
CONTINUOUS
 62
         7
100
AcDbLine
 10
1239.9233403763
 20
142.6346417294
 30
0.0
 11
1239.9233403763
 21
157.7346417294
 31
0.0
  0
LINE
  5
309
100
AcDbEntity
  8
_Y__________
  6
CONTINUOUS
 62
         7
100
AcDbLine
 10
1245.1617223278
 20
142.1346417294
 30
0.0
 11
1240.4233403763
 21
142.1346417294
 31
0.0
  0
LINE
  5
30A
100
AcDbEntity
  8
_Y__________
  6
CONTINUOUS
 62
         7
100
AcDbLine
 10
1184.2908731435
 20
158.6287270106
 30
0.0
 11
1184.6849584247
 21
158.2346417294
 31
0.0
  0
LINE
  5
30B
100
AcDbEntity
  8
_Y__________
  6
CONTINUOUS
 62
         7
100
AcDbLine
 10
1192.1233403763
 20
157.7346417294
 30
0.0
 11
1191.6233403763
 21
158.2346417294
 31
0.0
  0
LINE
  5
30C
100
AcDbEntity
  8
_Y__________
  6
CONTINUOUS
 62
         7
100
AcDbLine
 10
1191.6233403763
 20
158.2346417294
 30
0.0
 11
1184.6849584247
 21
158.2346417294
 31
0.0
  0
LINE
  5
30D
100
AcDbEntity
  8
_Y__________
  6
CONTINUOUS
 62
         7
100
AcDbLine
 10
1184.2908731435
 20
141.7405564482
 30
0.0
 11
1184.6849584247
 21
142.1346417294
 31
0.0
  0
LINE
  5
30E
100
AcDbEntity
  8
_Y__________
  6
CONTINUOUS
 62
         7
100
AcDbLine
 10
1191.6233403763
 20
142.1346417294
 30
0.0
 11
1184.6849584247
 21
142.1346417294
 31
0.0
  0
LINE
  5
30F
100
AcDbEntity
  8
_Y__________
  6
CONTINUOUS
 62
         7
100
AcDbLine
 10
1192.1233403763
 20
142.6346417294
 30
0.0
 11
1191.6233403763
 21
142.1346417294
 31
0.0
  0
LINE
  5
310
100
AcDbEntity
  8
_Y__________
  6
CONTINUOUS
 62
         7
100
AcDbLine
 10
1192.1233403763
 20
142.6346417294
 30
0.0
 11
1192.1233403763
 21
157.7346417294
 31
0.0
  0
LINE
  5
311
100
AcDbEntity
  8
_Y__________
  6
CONTINUOUS
 62
         7
100
AcDbLine
 10
1414.639610775
 20
-44.7183347409
 30
0.0
 11
1418.1033403763
 21
-44.7183347409
 31
0.0
  0
LINE
  5
312
100
AcDbEntity
  8
_Y__________
  6
CONTINUOUS
 62
         7
100
AcDbLine
 10
1412.9783403763
 20
-41.8409300049
 30
0.0
 11
1414.639610775
 21
-44.7183347407
 31
0.0
  0
ARC
  5
313
100
AcDbEntity
  8
_Y__________
  6
CONTINUOUS
 62
         7
100
AcDbCircle
 10
1412.0045400445
 20
-42.0683347409
 30
0.0
 40
1.0
100
AcDbArc
 50
13.1443256895
 51
90.0
  0
LINE
  5
314
100
AcDbEntity
  8
_Y__________
  6
CONTINUOUS
 62
         7
100
AcDbLine
 10
1410.202140708
 20
-41.0683347407
 30
0.0
 11
1412.0045400445
 21
-41.0683347407
 31
0.0
  0
ARC
  5
315
100
AcDbEntity
  8
_Y__________
  6
CONTINUOUS
 62
         7
100
AcDbCircle
 10
1410.202140708
 20
-42.0683347407
 30
0.0
 40
1.0
100
AcDbArc
 50
90.0
 51
166.8556743105
  0
LINE
  5
316
100
AcDbEntity
  8
_Y__________
  6
CONTINUOUS
 62
         7
100
AcDbLine
 10
1409.2283403763
 20
-41.8409300049
 30
0.0
 11
1407.5670699775
 21
-44.7183347407
 31
0.0
  0
LINE
  5
317
100
AcDbEntity
  8
_Y__________
  6
CONTINUOUS
 62
         7
100
AcDbLine
 10
1403.2033403763
 20
-35.7433347409
 30
0.0
 11
1403.2033403763
 21
-43.7183347409
 31
0.0
  0
LINE
  5
318
100
AcDbEntity
  8
_Y__________
  6
CONTINUOUS
 62
         7
100
AcDbLine
 10
1404.2033403763
 20
-44.7183347409
 30
0.0
 11
1407.5670699775
 21
-44.7183347409
 31
0.0
  0
ARC
  5
319
100
AcDbEntity
  8
_Y__________
  6
CONTINUOUS
 62
         7
100
AcDbCircle
 10
1402.6033403763
 20
-35.7433347407
 30
0.0
 40
0.6
100
AcDbArc
 50
0.0
 51
90.0
  0
LINE
  5
31A
100
AcDbEntity
  8
_Y__________
  6
CONTINUOUS
 62
         7
100
AcDbLine
 10
1401.9497505378
 20
-35.1433347407
 30
0.0
 11
1402.6033403763
 21
-35.1433347407
 31
0.0
  0
LINE
  5
31B
100
AcDbEntity
  8
_Y__________
  6
CONTINUOUS
 62
         7
100
AcDbLine
 10
1401.2033403763
 20
-35.3433347409
 30
0.0
 11
1401.9497505378
 21
-35.1433347409
 31
0.0
  0
LINE
  5
31C
100
AcDbEntity
  8
_Y__________
  6
CENTER
 62
         1
100
AcDbLine
 10
1328.5556074009
 20
-12.9433347407
 30
0.0
 11
1419.1033403763
 21
-12.9433347407
 31
0.0
  0
LINE
  5
31D
100
AcDbEntity
  8
_Y__________
  6
CONTINUOUS
 62
         7
100
AcDbLine
 10
1332.6301721046
 20
-25.3430810344
 30
0.0
 11
1401.2033403767
 21
-35.3433347407
 31
0.0
  0
LINE
  5
31E
100
AcDbEntity
  8
_Y__________
  6
CONTINUOUS
 62
         7
100
AcDbLine
 10
1401.2033403763
 20
9.4566652593
 30
0.0
 11
1401.9497505378
 21
9.2566652593
 31
0.0
  0
LINE
  5
31F
100
AcDbEntity
  8
_Y__________
  6
CONTINUOUS
 62
         7
100
AcDbLine
 10
1332.6301721046
 20
-0.543588447
 30
0.0
 11
1401.2033403763
 21
9.4566652593
 31
0.0
  0
LINE
  5
320
100
AcDbEntity
  8
_Y__________
  6
CONTINUOUS
 62
         7
100
AcDbLine
 10
1401.9497505378
 20
9.2566652593
 30
0.0
 11
1402.6033403763
 21
9.2566652593
 31
0.0
  0
ARC
  5
321
100
AcDbEntity
  8
_Y__________
  6
CONTINUOUS
 62
         7
100
AcDbCircle
 10
1402.6033403763
 20
9.8566652593
 30
0.0
 40
0.6
100
AcDbArc
 50
270.0
 51
360.0
  0
LINE
  5
322
100
AcDbEntity
  8
_Y__________
  6
CONTINUOUS
 62
         7
100
AcDbLine
 10
1403.2033403763
 20
9.8566652593
 30
0.0
 11
1403.2033403763
 21
17.8316652595
 31
0.0
  0
LINE
  5
323
100
AcDbEntity
  8
_Y__________
  6
CONTINUOUS
 62
         7
100
AcDbLine
 10
1404.2033403763
 20
18.8316652595
 30
0.0
 11
1407.5670699775
 21
18.8316652595
 31
0.0
  0
LINE
  5
324
100
AcDbEntity
  8
_Y__________
  6
CONTINUOUS
 62
         7
100
AcDbLine
 10
1409.2283403763
 20
15.9542605235
 30
0.0
 11
1407.5670699775
 21
18.8316652593
 31
0.0
  0
ARC
  5
325
100
AcDbEntity
  8
_Y__________
  6
CONTINUOUS
 62
         7
100
AcDbCircle
 10
1410.202140708
 20
16.1816652595
 30
0.0
 40
1.0
100
AcDbArc
 50
193.1443256895
 51
270.0
  0
LINE
  5
326
100
AcDbEntity
  8
_Y__________
  6
CONTINUOUS
 62
         7
100
AcDbLine
 10
1410.202140708
 20
15.1816652595
 30
0.0
 11
1412.0045400445
 21
15.1816652595
 31
0.0
  0
ARC
  5
327
100
AcDbEntity
  8
_Y__________
  6
CONTINUOUS
 62
         7
100
AcDbCircle
 10
1412.0045400445
 20
16.1816652595
 30
0.0
 40
1.0
100
AcDbArc
 50
270.0
 51
346.8556743105
  0
LINE
  5
328
100
AcDbEntity
  8
_Y__________
  6
CONTINUOUS
 62
         7
100
AcDbLine
 10
1412.9783403763
 20
15.9542605237
 30
0.0
 11
1414.639610775
 21
18.8316652595
 31
0.0
  0
LINE
  5
329
100
AcDbEntity
  8
_Y__________
  6
CONTINUOUS
 62
         7
100
AcDbLine
 10
1414.639610775
 20
18.8316652595
 30
0.0
 11
1418.1033403763
 21
18.8316652595
 31
0.0
  0
LINE
  5
32A
100
AcDbEntity
  8
_Y__________
  6
CONTINUOUS
 62
         7
100
AcDbLine
 10
1409.2283403763
 20
179.0822369936
 30
0.0
 11
1407.5670699775
 21
181.9596417294
 31
0.0
  0
LINE
  5
32B
100
AcDbEntity
  8
_Y__________
  6
CONTINUOUS
 62
         7
100
AcDbLine
 10
1409.2283403763
 20
121.2870464652
 30
0.0
 11
1407.5670699775
 21
118.4096417294
 31
0.0
  0
LINE
  5
32C
100
AcDbEntity
  8
_Y__________
  6
CONTINUOUS
 62
         7
100
AcDbLine
 10
1403.2033403763
 20
180.9596417294
 30
0.0
 11
1403.2033403763
 21
119.4096417294
 31
0.0
  0
LINE
  5
32D
100
AcDbEntity
  8
_Y__________
  6
CENTER
 62
         1
100
AcDbLine
 10
1400.0033403763
 20
172.4096417294
 30
0.0
 11
1400.0033403763
 21
127.9596417294
 31
0.0
  0
LINE
  5
32E
100
AcDbEntity
  8
_Y__________
  6
CONTINUOUS
 62
         7
100
AcDbLine
 10
1404.2033403763
 20
118.4096417294
 30
0.0
 11
1407.5670699775
 21
118.4096417294
 31
0.0
  0
LINE
  5
32F
100
AcDbEntity
  8
_Y__________
  6
CONTINUOUS
 62
         7
100
AcDbLine
 10
1404.2033403763
 20
181.9596417294
 30
0.0
 11
1407.5670699775
 21
181.9596417294
 31
0.0
  0
LINE
  5
330
100
AcDbEntity
  8
_Y__________
  6
CONTINUOUS
 62
         7
100
AcDbLine
 10
1419.1033403763
 20
180.9596417294
 30
0.0
 11
1419.1033403763
 21
155.6105057159
 31
0.0
  0
LINE
  5
331
100
AcDbEntity
  8
_Y__________
  6
CONTINUOUS
 62
         7
100
AcDbLine
 10
1419.1033403763
 20
180.9596417294
 30
0.0
 11
1419.1033403763
 21
169.1846417294
 31
0.0
  0
LINE
  5
332
100
AcDbEntity
  8
_Y__________
  6
CONTINUOUS
 62
         7
100
AcDbLine
 10
1410.202140708
 20
122.0596417294
 30
0.0
 11
1412.0045400445
 21
122.0596417294
 31
0.0
  0
ARC
  5
333
100
AcDbEntity
  8
_Y__________
  6
CONTINUOUS
 62
         7
100
AcDbCircle
 10
1410.202140708
 20
121.0596417294
 30
0.0
 40
1.0
100
AcDbArc
 50
90.0
 51
166.8556743105
  0
LINE
  5
334
100
AcDbEntity
  8
_Y__________
  6
CONTINUOUS
 62
         7
100
AcDbLine
 10
1412.9783403763
 20
121.2870464652
 30
0.0
 11
1414.639610775
 21
118.4096417294
 31
0.0
  0
ARC
  5
335
100
AcDbEntity
  8
_Y__________
  6
CONTINUOUS
 62
         7
100
AcDbCircle
 10
1412.0045400445
 20
121.0596417294
 30
0.0
 40
1.0
100
AcDbArc
 50
13.1443256895
 51
90.0
  0
LINE
  5
336
100
AcDbEntity
  8
_Y__________
  6
CONTINUOUS
 62
         7
100
AcDbLine
 10
1414.639610775
 20
118.4096417294
 30
0.0
 11
1418.1033403763
 21
118.4096417294
 31
0.0
  0
LINE
  5
337
100
AcDbEntity
  8
_Y__________
  6
CONTINUOUS
 62
         7
100
AcDbLine
 10
1412.9783403763
 20
179.0822369936
 30
0.0
 11
1414.639610775
 21
181.9596417294
 31
0.0
  0
LINE
  5
338
100
AcDbEntity
  8
_Y__________
  6
CONTINUOUS
 62
         7
100
AcDbLine
 10
1414.639610775
 20
181.9596417294
 30
0.0
 11
1418.1033403763
 21
181.9596417294
 31
0.0
  0
LINE
  5
339
100
AcDbEntity
  8
_Y__________
  6
CONTINUOUS
 62
         7
100
AcDbLine
 10
1410.202140708
 20
178.3096417294
 30
0.0
 11
1412.0045400445
 21
178.3096417294
 31
0.0
  0
ARC
  5
33A
100
AcDbEntity
  8
_Y__________
  6
CONTINUOUS
 62
         7
100
AcDbCircle
 10
1410.202140708
 20
179.3096417294
 30
0.0
 40
1.0
100
AcDbArc
 50
193.1443256895
 51
270.0
  0
ARC
  5
33B
100
AcDbEntity
  8
_Y__________
  6
CONTINUOUS
 62
         7
100
AcDbCircle
 10
1412.0045400445
 20
179.3096417294
 30
0.0
 40
1.0
100
AcDbArc
 50
270.0
 51
346.8556743105
  0
LINE
  5
33C
100
AcDbEntity
  8
_Y__________
  6
CENTER
 62
         1
100
AcDbLine
 10
1411.1033403763
 20
187.6899050302
 30
0.0
 11
1411.1033403763
 21
112.6870854784
 31
0.0
  0
LINE
  5
33D
100
AcDbEntity
  8
_Y__________
  6
CONTINUOUS
 62
         7
100
AcDbLine
 10
1332.7801721046
 20
137.7630204357
 30
0.0
 11
1401.2033403763
 21
127.7846417294
 31
0.0
  0
LINE
  5
33E
100
AcDbEntity
  8
_Y__________
  6
CENTER
 62
         1
100
AcDbLine
 10
1329.3598386453
 20
150.1846417294
 30
0.0
 11
1380.8960196583
 21
150.1846417294
 31
0.0
  0
LINE
  5
33F
100
AcDbEntity
  8
_Y__________
  6
CONTINUOUS
 62
         7
100
AcDbLine
 10
1332.7801721046
 20
162.6062630231
 30
0.0
 11
1401.2033403763
 21
172.5846417294
 31
0.0
  0
LINE
  5
340
100
AcDbEntity
  8
_Y__________
  6
CENTER
 62
         1
100
AcDbLine
 10
1395.9168233573
 20
150.1846417294
 30
0.0
 11
1436.4152286194
 21
150.1846417294
 31
0.0
  0
LINE
  5
341
100
AcDbEntity
  8
_Y__________
  6
CONTINUOUS
 62
         7
100
AcDbLine
 10
1401.9497505378
 20
127.9846417294
 30
0.0
 11
1402.6033403763
 21
127.9846417294
 31
0.0
  0
LINE
  5
342
100
AcDbEntity
  8
_Y__________
  6
CONTINUOUS
 62
         7
100
AcDbLine
 10
1401.2033403763
 20
127.7846417294
 30
0.0
 11
1401.9497505378
 21
127.9846417294
 31
0.0
  0
ARC
  5
343
100
AcDbEntity
  8
_Y__________
  6
CONTINUOUS
 62
         7
100
AcDbCircle
 10
1402.6033403763
 20
127.3846417294
 30
0.0
 40
0.6
100
AcDbArc
 50
0.0
 51
90.0
  0
LINE
  5
344
100
AcDbEntity
  8
_Y__________
  6
CONTINUOUS
 62
         7
100
AcDbLine
 10
1401.9497505378
 20
127.9846417294
 30
0.0
 11
1401.9497505378
 21
172.3846417294
 31
0.0
  0
LINE
  5
345
100
AcDbEntity
  8
_Y__________
  6
CONTINUOUS
 62
         7
100
AcDbLine
 10
1401.2033403763
 20
127.7846417294
 30
0.0
 11
1401.2033403763
 21
172.5846417294
 31
0.0
  0
LINE
  5
346
100
AcDbEntity
  8
_Y__________
  6
CONTINUOUS
 62
         7
100
AcDbLine
 10
1401.9497505378
 20
172.3846417294
 30
0.0
 11
1402.6033403763
 21
172.3846417294
 31
0.0
  0
LINE
  5
347
100
AcDbEntity
  8
_Y__________
  6
CONTINUOUS
 62
         7
100
AcDbLine
 10
1401.2033403763
 20
172.5846417294
 30
0.0
 11
1401.9497505378
 21
172.3846417294
 31
0.0
  0
ARC
  5
348
100
AcDbEntity
  8
_Y__________
  6
CONTINUOUS
 62
         7
100
AcDbCircle
 10
1402.6033403763
 20
172.9846417294
 30
0.0
 40
0.6
100
AcDbArc
 50
270.0
 51
360.0
  0
ARC
  5
349
100
AcDbEntity
  8
_Y__________
  6
CONTINUOUS
 62
         7
100
AcDbCircle
 10
1404.2033403763
 20
17.8316652593
 30
0.0
 40
1.0
100
AcDbArc
 50
90.0
 51
180.0
  0
LINE
  5
34A
100
AcDbEntity
  8
_Y__________
  6
CONTINUOUS
 62
         7
100
AcDbLine
 10
1404.2033403763
 20
18.8316652593
 30
0.0
 11
1405.2033403763
 21
18.8316652593
 31
0.0
  0
LINE
  5
34B
100
AcDbEntity
  8
_Y__________
  6
CONTINUOUS
 62
         7
100
AcDbLine
 10
1403.2033403763
 20
17.8316652593
 30
0.0
 11
1403.2033403763
 21
16.8316652593
 31
0.0
  0
LINE
  5
34C
100
AcDbEntity
  8
_Y__________
  6
CONTINUOUS
 62
         7
100
AcDbLine
 10
1417.1033403763
 20
18.8316652593
 30
0.0
 11
1418.1033403763
 21
18.8316652593
 31
0.0
  0
ARC
  5
34D
100
AcDbEntity
  8
_Y__________
  6
CONTINUOUS
 62
         7
100
AcDbCircle
 10
1418.1033403763
 20
17.8316652593
 30
0.0
 40
1.0
100
AcDbArc
 50
0.0
 51
90.0
  0
ARC
  5
34E
100
AcDbEntity
  8
_Y__________
  6
CONTINUOUS
 62
         7
100
AcDbCircle
 10
1404.2033403763
 20
-43.7183347407
 30
0.0
 40
1.0
100
AcDbArc
 50
180.0
 51
270.0
  0
LINE
  5
34F
100
AcDbEntity
  8
_Y__________
  6
CONTINUOUS
 62
         7
100
AcDbLine
 10
1404.2033403763
 20
-44.7183347407
 30
0.0
 11
1405.2033403763
 21
-44.7183347407
 31
0.0
  0
LINE
  5
350
100
AcDbEntity
  8
_Y__________
  6
CONTINUOUS
 62
         7
100
AcDbLine
 10
1417.1033403763
 20
-44.7183347407
 30
0.0
 11
1418.1033403763
 21
-44.7183347407
 31
0.0
  0
ARC
  5
351
100
AcDbEntity
  8
_Y__________
  6
CONTINUOUS
 62
         7
100
AcDbCircle
 10
1418.1033403763
 20
-43.7183347407
 30
0.0
 40
1.0
100
AcDbArc
 50
270.0
 51
360.0
  0
LINE
  5
352
100
AcDbEntity
  8
_Y__________
  6
CONTINUOUS
 62
         7
100
AcDbLine
 10
1419.1033403763
 20
17.8316652593
 30
0.0
 11
1419.1033403763
 21
-0.1585942096
 31
0.0
  0
LINE
  5
353
100
AcDbEntity
  8
_Y__________
  6
CONTINUOUS
 62
         7
100
AcDbLine
 10
1403.2033403763
 20
-42.7183347407
 30
0.0
 11
1403.2033403763
 21
-43.7183347407
 31
0.0
  0
LINE
  5
354
100
AcDbEntity
  8
_Y__________
  6
CONTINUOUS
 62
         7
100
AcDbLine
 10
1419.1033403763
 20
-26.1933347407
 30
0.0
 11
1419.1033403763
 21
-43.7183347407
 31
0.0
  0
LINE
  5
355
100
AcDbEntity
  8
_Y__________
  6
CONTINUOUS
 62
         7
100
AcDbLine
 10
1419.1033403763
 20
120.4096417294
 30
0.0
 11
1419.1033403763
 21
119.4096417294
 31
0.0
  0
LINE
  5
356
100
AcDbEntity
  8
_Y__________
  6
CONTINUOUS
 62
         7
100
AcDbLine
 10
1403.2033403763
 20
120.4096417294
 30
0.0
 11
1403.2033403763
 21
119.4096417294
 31
0.0
  0
LINE
  5
357
100
AcDbEntity
  8
_Y__________
  6
CONTINUOUS
 62
         7
100
AcDbLine
 10
1419.1033403763
 20
180.9596417294
 30
0.0
 11
1419.1033403763
 21
179.9596417294
 31
0.0
  0
ARC
  5
358
100
AcDbEntity
  8
_Y__________
  6
CONTINUOUS
 62
         7
100
AcDbCircle
 10
1418.1033403763
 20
119.4096417294
 30
0.0
 40
1.0
100
AcDbArc
 50
270.0
 51
360.0
  0
LINE
  5
359
100
AcDbEntity
  8
_Y__________
  6
CONTINUOUS
 62
         7
100
AcDbLine
 10
1417.1033403763
 20
118.4096417294
 30
0.0
 11
1418.1033403763
 21
118.4096417294
 31
0.0
  0
LINE
  5
35A
100
AcDbEntity
  8
_Y__________
  6
CONTINUOUS
 62
         7
100
AcDbLine
 10
1404.2033403763
 20
118.4096417294
 30
0.0
 11
1405.2033403763
 21
118.4096417294
 31
0.0
  0
ARC
  5
35B
100
AcDbEntity
  8
_Y__________
  6
CONTINUOUS
 62
         7
100
AcDbCircle
 10
1404.2033403763
 20
119.4096417294
 30
0.0
 40
1.0
100
AcDbArc
 50
180.0
 51
270.0
  0
ARC
  5
35C
100
AcDbEntity
  8
_Y__________
  6
CONTINUOUS
 62
         7
100
AcDbCircle
 10
1418.1033403763
 20
180.9596417294
 30
0.0
 40
1.0
100
AcDbArc
 50
0.0
 51
90.0
  0
LINE
  5
35D
100
AcDbEntity
  8
_Y__________
  6
CONTINUOUS
 62
         7
100
AcDbLine
 10
1417.1033403763
 20
181.9596417294
 30
0.0
 11
1418.1033403763
 21
181.9596417294
 31
0.0
  0
LINE
  5
35E
100
AcDbEntity
  8
_Y__________
  6
CONTINUOUS
 62
         7
100
AcDbLine
 10
1403.2033403763
 20
180.9596417294
 30
0.0
 11
1403.2033403763
 21
179.9596417294
 31
0.0
  0
LINE
  5
35F
100
AcDbEntity
  8
_Y__________
  6
CONTINUOUS
 62
         7
100
AcDbLine
 10
1404.2033403763
 20
181.9596417294
 30
0.0
 11
1405.2033403763
 21
181.9596417294
 31
0.0
  0
ARC
  5
360
100
AcDbEntity
  8
_Y__________
  6
CONTINUOUS
 62
         7
100
AcDbCircle
 10
1404.2033403763
 20
180.9596417294
 30
0.0
 40
1.0
100
AcDbArc
 50
90.0
 51
180.0
  0
LINE
  5
361
100
AcDbEntity
  8
L1_35
  6
CONTINUOUS
 62
         7
100
AcDbLine
 10
1416.7243403763
 20
-23.1933347407
 30
0.0
 11
1417.7533403763
 21
-22.1643347407
 31
0.0
  0
LINE
  5
362
100
AcDbEntity
  8
L1_35
  6
CONTINUOUS
 62
         7
100
AcDbLine
 10
1424.2823403763
 20
-23.1933347407
 30
0.0
 11
1423.2533403763
 21
-22.1643347407
 31
0.0
  0
LINE
  5
363
100
AcDbEntity
  8
L1_35
  6
CENTER
 62
         1
100
AcDbLine
 10
1441.0574492861
 20
-12.9433347407
 30
0.0
 11
1389.2268402431
 21
-12.9433347407
 31
0.0
  0
LINE
  5
364
100
AcDbEntity
  8
L1_35
  6
CONTINUOUS
 62
         4
100
AcDbLine
 10
1417.3033403763
 20
-22.6143347407
 30
0.0
 11
1417.3033403763
 21
-16.1183347407
 31
0.0
  0
LINE
  5
365
100
AcDbEntity
  8
L1_35
  6
CONTINUOUS
 62
         7
100
AcDbLine
 10
1417.7533403763
 20
-22.1643347407
 30
0.0
 11
1417.7533403763
 21
-16.1183347407
 31
0.0
  0
LINE
  5
366
100
AcDbEntity
  8
L1_35
  6
CONTINUOUS
 62
         4
100
AcDbLine
 10
1423.7033403763
 20
-22.6143347407
 30
0.0
 11
1423.7033403763
 21
-16.1183347407
 31
0.0
  0
LINE
  5
367
100
AcDbEntity
  8
L1_35
  6
CONTINUOUS
 62
         7
100
AcDbLine
 10
1423.2533403763
 20
-16.1183347407
 30
0.0
 11
1423.2533403763
 21
-22.1643347407
 31
0.0
  0
LINE
  5
368
100
AcDbEntity
  8
L1_35
  6
CONTINUOUS
 62
         7
100
AcDbLine
 10
1423.2533403763
 20
-22.1643347407
 30
0.0
 11
1417.7533403763
 21
-22.1643347407
 31
0.0
  0
LINE
  5
369
100
AcDbEntity
  8
L1_35
  6
CENTER
 62
         1
100
AcDbLine
 10
1420.5033403763
 20
-15.0961318674
 30
0.0
 11
1420.5033403763
 21
-26.4085767386
 31
0.0
  0
ARC
  5
36A
100
AcDbEntity
  8
L1_35
  6
CONTINUOUS
 62
         7
100
AcDbCircle
 10
1428.1264302894
 20
-21.1933347407
 30
0.0
 40
2.0
100
AcDbArc
 50
270.0
 51
295.0
  0
LINE
  5
36B
100
AcDbEntity
  8
L1_35
  6
CONTINUOUS
 62
         7
100
AcDbLine
 10
1414.5033403763
 20
-23.1933347407
 30
0.0
 11
1428.1264302894
 21
-23.1933347407
 31
0.0
  0
LINE
  5
36C
100
AcDbEntity
  8
L1_35
  6
CONTINUOUS
 62
         7
100
AcDbLine
 10
1434.1372677689
 20
-20.59719103
 30
0.0
 11
1428.9716668129
 21
-23.0059503147
 31
0.0
  0
ARC
  5
36D
100
AcDbEntity
  8
L1_35
  6
CONTINUOUS
 62
         7
100
AcDbCircle
 10
1428.1264302894
 20
-4.6933347407
 30
0.0
 40
2.0
100
AcDbArc
 50
65.0
 51
90.0
  0
LINE
  5
36E
100
AcDbEntity
  8
L1_35
  6
CONTINUOUS
 62
         7
100
AcDbLine
 10
1434.1372677689
 20
-5.2894784513
 30
0.0
 11
1428.9716668129
 21
-2.8807191666
 31
0.0
  0
LINE
  5
36F
100
AcDbEntity
  8
L1_35
  6
CONTINUOUS
 62
         7
100
AcDbLine
 10
1420.4986315427
 20
-2.6933347407
 30
0.0
 11
1428.1264302894
 21
-2.6933347407
 31
0.0
  0
ARC
  5
370
100
AcDbEntity
  8
L1_35
  6
CONTINUOUS
 62
         7
100
AcDbCircle
 10
1433.5033403763
 20
-19.2377293495
 30
0.0
 40
1.5
100
AcDbArc
 50
295.0
 51
360.0
  0
LINE
  5
371
100
AcDbEntity
  8
L1_35
  6
CONTINUOUS
 62
         7
100
AcDbLine
 10
1435.0033403763
 20
-6.6489401319
 30
0.0
 11
1435.0033403763
 21
-19.2377293495
 31
0.0
  0
ARC
  5
372
100
AcDbEntity
  8
L1_35
  6
CONTINUOUS
 62
         7
100
AcDbCircle
 10
1433.5033403763
 20
-6.6489401319
 30
0.0
 40
1.5
100
AcDbArc
 50
0.0
 51
65.0
  0
DIMENSION
  5
376
100
AcDbEntity
  8
L1_35
  6
CONTINUOUS
 62
         4
100
AcDbDimension
  2
*D1
 10
1457.5581825844
 20
160.4346417294
 30
0.0
 11
1454.4261825844
 21
142.6170327683
 31
0.0
  3
DIMSTYLE1
100
AcDbAlignedDimension
 13
1428.1264302894
 23
160.4346417294
 33
0.0
 14
1428.1264302894
 24
139.9346417294
 34
0.0
 50
90.0
100
AcDbRotatedDimension
  0
LINE
  5
383
100
AcDbEntity
  8
L1_35
  6
CONTINUOUS
 62
         4
100
AcDbLine
 10
1428.5698196147
 20
139.9844094596
 30
0.0
 11
1428.5698196147
 21
160.3848739992
 31
0.0
  0
ARC
  5
384
100
AcDbEntity
  8
L1_35
  6
CONTINUOUS
 62
         7
100
AcDbCircle
 10
1428.1264302894
 20
141.9346417294
 30
0.0
 40
2.0
100
AcDbArc
 50
270.0
 51
295.0
  0
ARC
  5
385
100
AcDbEntity
  8
L1_35
  6
CONTINUOUS
 62
         7
100
AcDbCircle
 10
1428.1264302894
 20
158.4346417294
 30
0.0
 40
2.0
100
AcDbArc
 50
65.0
 51
90.0
  0
ARC
  5
386
100
AcDbEntity
  8
L1_35
  6
CONTINUOUS
 62
         7
100
AcDbCircle
 10
1433.5033403763
 20
143.8902471206
 30
0.0
 40
1.5
100
AcDbArc
 50
295.0
 51
360.0
  0
ARC
  5
387
100
AcDbEntity
  8
L1_35
  6
CONTINUOUS
 62
         7
100
AcDbCircle
 10
1433.5033403763
 20
156.4790363382
 30
0.0
 40
1.5
100
AcDbArc
 50
0.0
 51
65.0
  0
LINE
  5
388
100
AcDbEntity
  8
L1_35
  6
CONTINUOUS
 62
         7
100
AcDbLine
 10
1435.0033403763
 20
156.4790363382
 30
0.0
 11
1435.0033403763
 21
143.8902471206
 31
0.0
  0
LINE
  5
389
100
AcDbEntity
  8
L1_35
  6
CONTINUOUS
 62
         7
100
AcDbLine
 10
1434.1372677689
 20
142.53078544
 30
0.0
 11
1428.9716668129
 21
140.1220261553
 31
0.0
  0
LINE
  5
38A
100
AcDbEntity
  8
L1_35
  6
CONTINUOUS
 62
         7
100
AcDbLine
 10
1434.1372677689
 20
157.8384980187
 30
0.0
 11
1428.9716668129
 21
160.2472573035
 31
0.0
  0
LINE
  5
38B
100
AcDbEntity
  8
L1_35
  6
CONTINUOUS
 62
         7
100
AcDbLine
 10
1422.1033403763
 20
139.9346417294
 30
0.0
 11
1428.1264302894
 21
139.9346417294
 31
0.0
  0
LINE
  5
38C
100
AcDbEntity
  8
L1_35
  6
CONTINUOUS
 62
         7
100
AcDbLine
 10
1422.1033403763
 20
160.4346417294
 30
0.0
 11
1428.1264302894
 21
160.4346417294
 31
0.0
  0
LINE
  5
38D
100
AcDbEntity
  8
L1_35
  6
DASHED
 62
         2
100
AcDbLine
 10
1614.0626558466
 20
147.4346417294
 30
0.0
 11
1614.0626558466
 21
152.9346417294
 31
0.0
  0
LINE
  5
38E
100
AcDbEntity
  8
L1_35
  6
DASHED
 62
         2
100
AcDbLine
 10
1621.696480269
 20
147.4346417294
 30
0.0
 11
1614.0626558466
 21
147.4346417294
 31
0.0
  0
LINE
  5
38F
100
AcDbEntity
  8
L1_35
  6
DASHED
 62
         2
100
AcDbLine
 10
1613.6126558465
 20
146.9846417294
 30
0.0
 11
1623.3853708279
 21
146.9846417294
 31
0.0
  0
LINE
  5
390
100
AcDbEntity
  8
L1_35
  6
DASHED
 62
         2
100
AcDbLine
 10
1614.0626558466
 20
152.9346417294
 30
0.0
 11
1621.696480269
 21
152.9346417294
 31
0.0
  0
LINE
  5
391
100
AcDbEntity
  8
L1_35
  6
DASHED
 62
         2
100
AcDbLine
 10
1613.6126558466
 20
153.3846417294
 30
0.0
 11
1623.3853708279
 21
153.3846417294
 31
0.0
  0
CIRCLE
  5
392
100
AcDbEntity
  8
L1_35
  6
CONTINUOUS
 62
         7
100
AcDbCircle
 10
1623.2833403763
 20
150.1846417294
 30
0.0
 40
3.175
  0
CIRCLE
  5
393
100
AcDbEntity
  8
L1_35
  6
CONTINUOUS
 62
         7
100
AcDbCircle
 10
1623.2833403763
 20
150.1846417294
 30
0.0
 40
7.25
  0
CIRCLE
  5
394
100
AcDbEntity
  8
L1_35
  6
CONTINUOUS
 62
         7
100
AcDbCircle
 10
1623.2833403763
 20
150.1846417294
 30
0.0
 40
10.25
  0
ARC
  5
395
100
AcDbEntity
  8
L1_35
  6
DASHED
 62
         2
100
AcDbCircle
 10
1642.6833403763
 20
150.1846417294
 30
0.0
 40
10.0
100
AcDbArc
 50
163.1273655092
 51
196.8726344908
  0
DIMENSION
  5
398
100
AcDbEntity
  8
L1_35
  6
CONTINUOUS
 62
         4
100
AcDbDimension
  2
*D2
 10
1400.0033403763
 20
211.7327406057
 30
0.0
 11
1415.2166425519
 21
213.7577406057
 31
0.0
  3
DIMSTYLE1
100
AcDbAlignedDimension
 13
1400.0033403763
 23
172.4096417294
 33
0.0
 14
1435.0033403763
 24
150.1846417294
 34
0.0
100
AcDbRotatedDimension
  0
DIMENSION
  5
3A6
100
AcDbEntity
  8
L1_35
  6
CONTINUOUS
 62
         4
100
AcDbDimension
  2
*D3
 10
1331.7533403763
 20
221.3218073455
 30
0.0
 11
1375.9919941276
 21
223.3468073455
 31
0.0
  3
DIMSTYLE1
100
AcDbAlignedDimension
 13
1331.7533403763
 23
161.4188234458
 33
0.0
 14
1435.0033403763
 24
150.1846417294
 34
0.0
100
AcDbRotatedDimension
  0
LINE
  5
3B2
100
AcDbEntity
  8
L1_35
  6
CONTINUOUS
 62
         7
100
AcDbLine
 10
1403.2033403763
 20
180.9596417294
 30
0.0
 11
1403.2033403763
 21
119.4096417294
 31
0.0
  0
LINE
  5
3B3
100
AcDbEntity
  8
L1_35
  6
CENTER
 62
         1
100
AcDbLine
 10
1400.0033403763
 20
172.4096417294
 30
0.0
 11
1400.0033403763
 21
127.9596417294
 31
0.0
  0
LINE
  5
3B4
100
AcDbEntity
  8
L1_35
  6
CONTINUOUS
 62
         7
100
AcDbLine
 10
1331.7533403763
 20
161.4188234458
 30
0.0
 11
1331.7533403763
 21
138.9504600129
 31
0.0
  0
LINE
  5
3B5
100
AcDbEntity
  8
L1_35
  6
CENTER
 62
         1
100
AcDbLine
 10
1623.2833403763
 20
135.7361948048
 30
0.0
 11
1623.2833403763
 21
164.5633629191
 31
0.0
  0
LINE
  5
3B6
100
AcDbEntity
  8
L1_35
  6
CENTER
 62
         1
100
AcDbLine
 10
1638.1607779236
 20
150.1846417294
 30
0.0
 11
1608.5009995041
 21
150.1846417294
 31
0.0
  0
LINE
  5
3B7
100
AcDbEntity
  8
L1_35
  6
CONTINUOUS
 62
         4
100
AcDbLine
 10
1590.5713816375
 20
-10.4164948434
 30
0.0
 11
1585.4405591839
 21
-10.4164948434
 31
0.0
  0
LINE
  5
3B8
100
AcDbEntity
  8
L1_35
  6
CONTINUOUS
 62
         4
100
AcDbLine
 10
1591.1809767607
 20
-9.959293929
 30
0.0
 11
1584.8309640607
 21
-9.959293929
 31
0.0
  0
LINE
  5
3B9
100
AcDbEntity
  8
L1_35
  6
CONTINUOUS
 62
         4
100
AcDbLine
 10
1590.5713816375
 20
-10.4164948434
 30
0.0
 11
1591.1809767607
 21
-9.959293929
 31
0.0
  0
LINE
  5
3BA
100
AcDbEntity
  8
L1_35
  6
CONTINUOUS
 62
         4
100
AcDbLine
 10
1585.4405591839
 20
-10.4164948434
 30
0.0
 11
1584.8309640607
 21
-9.959293929
 31
0.0
  0
LINE
  5
3BB
100
AcDbEntity
  8
L1_35
  6
CONTINUOUS
 62
         4
100
AcDbLine
 10
1584.8309640607
 20
-9.959293929
 30
0.0
 11
1584.8309640607
 21
-9.4555262548
 31
0.0
  0
LINE
  5
3BC
100
AcDbEntity
  8
L1_35
  6
CONTINUOUS
 62
         4
100
AcDbLine
 10
1585.4405591839
 20
-8.9517585806
 30
0.0
 11
1584.8309640607
 21
-8.4479909064
 31
0.0
  0
LINE
  5
3BD
100
AcDbEntity
  8
L1_35
  6
CONTINUOUS
 62
         4
100
AcDbLine
 10
1584.8309640607
 20
-8.4479909064
 30
0.0
 11
1585.4405591839
 21
-7.9442232322
 31
0.0
  0
LINE
  5
3BE
100
AcDbEntity
  8
L1_35
  6
CONTINUOUS
 62
         4
100
AcDbLine
 10
1591.1809767607
 20
-8.9517585806
 30
0.0
 11
1590.5713816375
 21
-8.4479909064
 31
0.0
  0
LINE
  5
3BF
100
AcDbEntity
  8
L1_35
  6
CONTINUOUS
 62
         4
100
AcDbLine
 10
1590.5713816375
 20
-8.4479909064
 30
0.0
 11
1591.1809767607
 21
-7.9442232322
 31
0.0
  0
LINE
  5
3C0
100
AcDbEntity
  8
L1_35
  6
CONTINUOUS
 62
         4
100
AcDbLine
 10
1591.1809767607
 20
-7.9442232322
 30
0.0
 11
1584.8309640607
 21
-8.4479909064
 31
0.0
  0
LINE
  5
3C1
100
AcDbEntity
  8
L1_35
  6
CONTINUOUS
 62
         4
100
AcDbLine
 10
1590.5713816375
 20
-8.4479909064
 30
0.0
 11
1585.4405591839
 21
-8.9517585806
 31
0.0
  0
LINE
  5
3C2
100
AcDbEntity
  8
L1_35
  6
CONTINUOUS
 62
         4
100
AcDbLine
 10
1585.4405591839
 20
-8.9517585806
 30
0.0
 11
1584.8309640607
 21
-9.4555262548
 31
0.0
  0
LINE
  5
3C3
100
AcDbEntity
  8
L1_35
  6
CONTINUOUS
 62
         4
100
AcDbLine
 10
1591.1809767607
 20
-8.9517585806
 30
0.0
 11
1590.5713816375
 21
-9.4555262548
 31
0.0
  0
LINE
  5
3C4
100
AcDbEntity
  8
L1_35
  6
CONTINUOUS
 62
         4
100
AcDbLine
 10
1590.5713816375
 20
-9.4555262548
 30
0.0
 11
1591.1809767607
 21
-9.959293929
 31
0.0
  0
LINE
  5
3C5
100
AcDbEntity
  8
L1_35
  6
CONTINUOUS
 62
         4
100
AcDbLine
 10
1591.1809767607
 20
-8.9517585806
 30
0.0
 11
1584.8309640607
 21
-9.4555262548
 31
0.0
  0
LINE
  5
3C6
100
AcDbEntity
  8
L1_35
  6
CONTINUOUS
 62
         4
100
AcDbLine
 10
1590.5713816375
 20
-9.4555262548
 30
0.0
 11
1585.9443268581
 21
-9.959293929
 31
0.0
  0
LINE
  5
3C7
100
AcDbEntity
  8
L1_35
  6
CONTINUOUS
 62
         4
100
AcDbLine
 10
1591.1809767607
 20
-9.959293929
 30
0.0
 11
1585.9443268581
 21
-9.959293929
 31
0.0
  0
LINE
  5
3C8
100
AcDbEntity
  8
L1_35
  6
CONTINUOUS
 62
         4
100
AcDbLine
 10
1585.4405591839
 20
-7.9442232322
 30
0.0
 11
1584.8309640607
 21
-7.440455558
 31
0.0
  0
LINE
  5
3C9
100
AcDbEntity
  8
L1_35
  6
CONTINUOUS
 62
         4
100
AcDbLine
 10
1584.8309640607
 20
-7.440455558
 30
0.0
 11
1585.4405591839
 21
-6.9366878838
 31
0.0
  0
LINE
  5
3CA
100
AcDbEntity
  8
L1_35
  6
CONTINUOUS
 62
         4
100
AcDbLine
 10
1591.1809767607
 20
-7.9442232322
 30
0.0
 11
1590.5713816375
 21
-7.440455558
 31
0.0
  0
LINE
  5
3CB
100
AcDbEntity
  8
L1_35
  6
CONTINUOUS
 62
         4
100
AcDbLine
 10
1590.5713816375
 20
-7.440455558
 30
0.0
 11
1591.1809767607
 21
-6.9366878838
 31
0.0
  0
LINE
  5
3CC
100
AcDbEntity
  8
L1_35
  6
CONTINUOUS
 62
         4
100
AcDbLine
 10
1591.1809767607
 20
-6.9366878838
 30
0.0
 11
1584.8309640607
 21
-7.440455558
 31
0.0
  0
LINE
  5
3CD
100
AcDbEntity
  8
L1_35
  6
CONTINUOUS
 62
         4
100
AcDbLine
 10
1590.5713816375
 20
-7.440455558
 30
0.0
 11
1585.4405591839
 21
-7.9442232322
 31
0.0
  0
LINE
  5
3CE
100
AcDbEntity
  8
L1_35
  6
CONTINUOUS
 62
         4
100
AcDbLine
 10
1585.4405591839
 20
-8.9517585806
 30
0.0
 11
1584.8309640607
 21
-9.4555262548
 31
0.0
  0
LINE
  5
3CF
100
AcDbEntity
  8
L1_35
  6
CONTINUOUS
 62
         4
100
AcDbLine
 10
1591.1809767607
 20
-8.9517585806
 30
0.0
 11
1590.5713816375
 21
-9.4555262548
 31
0.0
  0
LINE
  5
3D0
100
AcDbEntity
  8
L1_35
  6
CONTINUOUS
 62
         4
100
AcDbLine
 10
1590.5713816375
 20
-9.4555262548
 30
0.0
 11
1591.1809767607
 21
-9.959293929
 31
0.0
  0
LINE
  5
3D1
100
AcDbEntity
  8
L1_35
  6
CONTINUOUS
 62
         4
100
AcDbLine
 10
1591.1809767607
 20
-8.9517585806
 30
0.0
 11
1584.8309640607
 21
-9.4555262548
 31
0.0
  0
LINE
  5
3D2
100
AcDbEntity
  8
L1_35
  6
CONTINUOUS
 62
         4
100
AcDbLine
 10
1590.5713816375
 20
-9.4555262548
 30
0.0
 11
1585.9443268581
 21
-9.959293929
 31
0.0
  0
LINE
  5
3D3
100
AcDbEntity
  8
L1_35
  6
CONTINUOUS
 62
         4
100
AcDbLine
 10
1591.1809767607
 20
-9.959293929
 30
0.0
 11
1585.9443268581
 21
-9.959293929
 31
0.0
  0
LINE
  5
3D4
100
AcDbEntity
  8
L1_35
  6
CONTINUOUS
 62
         4
100
AcDbLine
 10
1585.4405591839
 20
-6.9366878838
 30
0.0
 11
1584.8309640607
 21
-6.4329202096
 31
0.0
  0
LINE
  5
3D5
100
AcDbEntity
  8
L1_35
  6
CONTINUOUS
 62
         4
100
AcDbLine
 10
1584.8309640607
 20
-6.4329202096
 30
0.0
 11
1585.4405591839
 21
-5.9291525354
 31
0.0
  0
LINE
  5
3D6
100
AcDbEntity
  8
L1_35
  6
CONTINUOUS
 62
         4
100
AcDbLine
 10
1591.1809767607
 20
-6.9366878838
 30
0.0
 11
1590.5713816375
 21
-6.4329202096
 31
0.0
  0
LINE
  5
3D7
100
AcDbEntity
  8
L1_35
  6
CONTINUOUS
 62
         4
100
AcDbLine
 10
1590.5713816375
 20
-6.4329202096
 30
0.0
 11
1591.1809767607
 21
-5.9291525354
 31
0.0
  0
LINE
  5
3D8
100
AcDbEntity
  8
L1_35
  6
CONTINUOUS
 62
         4
100
AcDbLine
 10
1591.1809767607
 20
-5.9291525354
 30
0.0
 11
1584.8309640607
 21
-6.4329202096
 31
0.0
  0
LINE
  5
3D9
100
AcDbEntity
  8
L1_35
  6
CONTINUOUS
 62
         4
100
AcDbLine
 10
1590.5713816375
 20
-6.4329202096
 30
0.0
 11
1585.4405591839
 21
-6.9366878838
 31
0.0
  0
LINE
  5
3DA
100
AcDbEntity
  8
L1_35
  6
CONTINUOUS
 62
         4
100
AcDbLine
 10
1585.4405591839
 20
-8.9517585806
 30
0.0
 11
1584.8309640607
 21
-9.4555262548
 31
0.0
  0
LINE
  5
3DB
100
AcDbEntity
  8
L1_35
  6
CONTINUOUS
 62
         4
100
AcDbLine
 10
1591.1809767607
 20
-8.9517585806
 30
0.0
 11
1590.5713816375
 21
-9.4555262548
 31
0.0
  0
LINE
  5
3DC
100
AcDbEntity
  8
L1_35
  6
CONTINUOUS
 62
         4
100
AcDbLine
 10
1590.5713816375
 20
-9.4555262548
 30
0.0
 11
1591.1809767607
 21
-9.959293929
 31
0.0
  0
LINE
  5
3DD
100
AcDbEntity
  8
L1_35
  6
CONTINUOUS
 62
         4
100
AcDbLine
 10
1591.1809767607
 20
-8.9517585806
 30
0.0
 11
1584.8309640607
 21
-9.4555262548
 31
0.0
  0
LINE
  5
3DE
100
AcDbEntity
  8
L1_35
  6
CONTINUOUS
 62
         4
100
AcDbLine
 10
1590.5713816375
 20
-9.4555262548
 30
0.0
 11
1585.9443268581
 21
-9.959293929
 31
0.0
  0
LINE
  5
3DF
100
AcDbEntity
  8
L1_35
  6
CONTINUOUS
 62
         4
100
AcDbLine
 10
1591.1809767607
 20
-9.959293929
 30
0.0
 11
1585.9443268581
 21
-9.959293929
 31
0.0
  0
LINE
  5
3E0
100
AcDbEntity
  8
L1_35
  6
CONTINUOUS
 62
         4
100
AcDbLine
 10
1585.4405591839
 20
-5.9291525354
 30
0.0
 11
1584.8309640607
 21
-5.4253848612
 31
0.0
  0
LINE
  5
3E1
100
AcDbEntity
  8
L1_35
  6
CONTINUOUS
 62
         4
100
AcDbLine
 10
1584.8309640607
 20
-5.4253848612
 30
0.0
 11
1585.4405591839
 21
-4.921617187
 31
0.0
  0
LINE
  5
3E2
100
AcDbEntity
  8
L1_35
  6
CONTINUOUS
 62
         4
100
AcDbLine
 10
1591.1809767607
 20
-5.9291525354
 30
0.0
 11
1590.5713816375
 21
-5.4253848612
 31
0.0
  0
LINE
  5
3E3
100
AcDbEntity
  8
L1_35
  6
CONTINUOUS
 62
         4
100
AcDbLine
 10
1590.5713816375
 20
-5.4253848612
 30
0.0
 11
1591.1809767607
 21
-4.921617187
 31
0.0
  0
LINE
  5
3E4
100
AcDbEntity
  8
L1_35
  6
CONTINUOUS
 62
         4
100
AcDbLine
 10
1591.1809767607
 20
-4.921617187
 30
0.0
 11
1584.8309640607
 21
-5.4253848612
 31
0.0
  0
LINE
  5
3E5
100
AcDbEntity
  8
L1_35
  6
CONTINUOUS
 62
         4
100
AcDbLine
 10
1590.5713816375
 20
-5.4253848612
 30
0.0
 11
1585.4405591839
 21
-5.9291525354
 31
0.0
  0
LINE
  5
3E6
100
AcDbEntity
  8
L1_35
  6
CONTINUOUS
 62
         4
100
AcDbLine
 10
1585.4405591839
 20
-8.9517585806
 30
0.0
 11
1584.8309640607
 21
-9.4555262548
 31
0.0
  0
LINE
  5
3E7
100
AcDbEntity
  8
L1_35
  6
CONTINUOUS
 62
         4
100
AcDbLine
 10
1591.1809767607
 20
-8.9517585806
 30
0.0
 11
1590.5713816375
 21
-9.4555262548
 31
0.0
  0
LINE
  5
3E8
100
AcDbEntity
  8
L1_35
  6
CONTINUOUS
 62
         4
100
AcDbLine
 10
1590.5713816375
 20
-9.4555262548
 30
0.0
 11
1591.1809767607
 21
-9.959293929
 31
0.0
  0
LINE
  5
3E9
100
AcDbEntity
  8
L1_35
  6
CONTINUOUS
 62
         4
100
AcDbLine
 10
1591.1809767607
 20
-8.9517585806
 30
0.0
 11
1584.8309640607
 21
-9.4555262548
 31
0.0
  0
LINE
  5
3EA
100
AcDbEntity
  8
L1_35
  6
CONTINUOUS
 62
         4
100
AcDbLine
 10
1590.5713816375
 20
-9.4555262548
 30
0.0
 11
1585.9443268581
 21
-9.959293929
 31
0.0
  0
LINE
  5
3EB
100
AcDbEntity
  8
L1_35
  6
CONTINUOUS
 62
         4
100
AcDbLine
 10
1591.1809767607
 20
-9.959293929
 30
0.0
 11
1585.9443268581
 21
-9.959293929
 31
0.0
  0
LINE
  5
3EC
100
AcDbEntity
  8
L1_35
  6
CONTINUOUS
 62
         4
100
AcDbLine
 10
1585.4405591839
 20
-4.921617187
 30
0.0
 11
1584.8309640607
 21
-4.4178495128
 31
0.0
  0
LINE
  5
3ED
100
AcDbEntity
  8
L1_35
  6
CONTINUOUS
 62
         4
100
AcDbLine
 10
1584.8309640607
 20
-4.4178495128
 30
0.0
 11
1585.4405591839
 21
-3.9140818385
 31
0.0
  0
LINE
  5
3EE
100
AcDbEntity
  8
L1_35
  6
CONTINUOUS
 62
         4
100
AcDbLine
 10
1591.1809767607
 20
-4.921617187
 30
0.0
 11
1590.5713816375
 21
-4.4178495128
 31
0.0
  0
LINE
  5
3EF
100
AcDbEntity
  8
L1_35
  6
CONTINUOUS
 62
         4
100
AcDbLine
 10
1590.5713816375
 20
-4.4178495128
 30
0.0
 11
1591.1809767607
 21
-3.9140818385
 31
0.0
  0
LINE
  5
3F0
100
AcDbEntity
  8
L1_35
  6
CONTINUOUS
 62
         4
100
AcDbLine
 10
1591.1809767607
 20
-3.9140818385
 30
0.0
 11
1584.8309640607
 21
-4.4178495128
 31
0.0
  0
LINE
  5
3F1
100
AcDbEntity
  8
L1_35
  6
CONTINUOUS
 62
         4
100
AcDbLine
 10
1590.5713816375
 20
-4.4178495128
 30
0.0
 11
1585.4405591839
 21
-4.921617187
 31
0.0
  0
LINE
  5
3F2
100
AcDbEntity
  8
L1_35
  6
CONTINUOUS
 62
         4
100
AcDbLine
 10
1586.3295670579
 20
-2.4154788413
 30
0.0
 11
1589.6823737635
 21
-2.4154788413
 31
0.0
  0
LINE
  5
3F3
100
AcDbEntity
  8
L1_35
  6
CONTINUOUS
 62
         4
100
AcDbLine
 10
1584.8309640607
 20
-3.9140818385
 30
0.0
 11
1591.1809767607
 21
-3.9140818385
 31
0.0
  0
LINE
  5
3F4
100
AcDbEntity
  8
L1_35
  6
CONTINUOUS
 62
         4
100
AcDbLine
 10
1586.3295670579
 20
-2.4154788413
 30
0.0
 11
1584.8309640607
 21
-3.9140818385
 31
0.0
  0
LINE
  5
3F5
100
AcDbEntity
  8
L1_35
  6
CONTINUOUS
 62
         4
100
AcDbLine
 10
1589.6823737635
 20
-2.4154788413
 30
0.0
 11
1591.1809767607
 21
-3.9140818385
 31
0.0
  0
LINE
  5
3F6
100
AcDbEntity
  8
L1_35
  6
DASHED
 62
         2
100
AcDbLine
 10
1586.1728796398
 20
-7.2414884934
 30
0.0
 11
1589.8390611815
 21
-7.2414884934
 31
0.0
  0
LINE
  5
3F7
100
AcDbEntity
  8
L1_35
  6
DASHED
 62
         2
100
AcDbLine
 10
1586.1728796398
 20
-10.4164948434
 30
0.0
 11
1586.1728796398
 21
-7.2414884934
 31
0.0
  0
LINE
  5
3F8
100
AcDbEntity
  8
L1_35
  6
DASHED
 62
         2
100
AcDbLine
 10
1589.8390611815
 20
-10.4164948434
 30
0.0
 11
1589.8390611815
 21
-7.2414884934
 31
0.0
  0
LINE
  5
3F9
100
AcDbEntity
  8
L1_35
  6
DASHED
 62
         2
100
AcDbLine
 10
1587.0894250253
 20
-10.4164948434
 30
0.0
 11
1587.0894250253
 21
-7.2414884934
 31
0.0
  0
LINE
  5
3FA
100
AcDbEntity
  8
L1_35
  6
DASHED
 62
         2
100
AcDbLine
 10
1588.9225157961
 20
-10.4164948434
 30
0.0
 11
1588.9225157961
 21
-7.2414884934
 31
0.0
  0
DIMENSION
  5
3FD
100
AcDbEntity
  8
L1_35
  6
CONTINUOUS
 62
         4
100
AcDbDimension
  2
*D4
 10
1584.8309640607
 20
2.4837932173
 30
0.0
 11
1576.208337861
 21
4.5087932173
 31
0.0
  3
DIMSTYLE1
100
AcDbAlignedDimension
 13
1584.8309640607
 23
-3.9140818385
 33
0.0
 14
1591.1809767607
 24
-3.9140818385
 34
0.0
100
AcDbRotatedDimension
  0
DIMENSION
  5
40B
100
AcDbEntity
  8
L1_35
  6
CONTINUOUS
 62
         4
100
AcDbDimension
  2
*D5
 10
1586.1584495493
 20
-19.4024828789
 30
0.0
 11
1593.2576721234
 21
-17.3774828789
 31
0.0
  3
DIMSTYLE1
100
AcDbAlignedDimension
 13
1586.1584495493
 23
-10.4164948434
 33
0.0
 14
1589.8534912721
 24
-10.4164948434
 34
0.0
100
AcDbRotatedDimension
  0
LINE
  5
419
100
AcDbEntity
  8
L1_35
  6
CENTER
 62
         1
100
AcDbLine
 10
1588.0059704107
 20
-12.8691833634
 30
0.0
 11
1588.0059704107
 21
-1.1664948434
 31
0.0
  0
DIMENSION
  5
41C
100
AcDbEntity
  8
L1_35
  6
CONTINUOUS
 62
         4
100
AcDbDimension
  2
*D6
 10
1577.3969268656
 20
-2.4154788413
 30
0.0
 11
1575.3719268656
 21
-10.5844598348
 31
0.0
  3
DIMSTYLE1
100
AcDbAlignedDimension
 13
1586.3295670579
 23
-2.4154788413
 33
0.0
 14
1585.4405591839
 24
-10.4164948434
 34
0.0
 50
90.0
100
AcDbRotatedDimension
  0
DIMENSION
  5
42A
100
AcDbEntity
  8
L1_35
  6
CONTINUOUS
 62
         4
100
AcDbDimension
  2
*D7
 10
1435.0033403763
 20
-58.8142191022
 30
0.0
 11
1416.5688926076
 21
-56.7892191022
 31
0.0
  3
DIMSTYLE1
100
AcDbAlignedDimension
 13
1435.0033403763
 23
-19.2377293495
 33
0.0
 14
1405.0033403763
 24
-16.1183347407
 34
0.0
100
AcDbRotatedDimension
  0
LINE
  5
436
100
AcDbEntity
  8
L1_35
  6
CONTINUOUS
 62
         7
100
AcDbLine
 10
1405.0033403763
 20
-16.1183347407
 30
0.0
 11
1405.0033403763
 21
-9.7683347407
 31
0.0
  0
ARC
  5
437
100
AcDbEntity
  8
L1_35
  6
CONTINUOUS
 62
         7
100
AcDbCircle
 10
1433.5033403763
 20
-17.6183347407
 30
0.0
 40
1.5
100
AcDbArc
 50
0.0
 51
45.0220597071
  0
ARC
  5
438
100
AcDbEntity
  8
L1_35
  6
CONTINUOUS
 62
         7
100
AcDbCircle
 10
1433.5033403763
 20
-17.6183347407
 30
0.0
 40
1.5
100
AcDbArc
 50
74.9779402929
 51
90.0
  0
LINE
  5
439
100
AcDbEntity
  8
L1_35
  6
CONTINUOUS
 62
         7
100
AcDbLine
 10
1434.5635920999
 20
-16.557266278
 30
0.0
 11
1433.8921267583
 21
-16.1695955823
 31
0.0
  0
LINE
  5
43A
100
AcDbEntity
  8
L1_35
  6
CONTINUOUS
 62
         7
100
AcDbLine
 10
1433.5033403763
 20
-16.1183347407
 30
0.0
 11
1405.0033403763
 21
-16.1183347407
 31
0.0
  0
ARC
  5
43B
100
AcDbEntity
  8
L1_35
  6
CONTINUOUS
 62
         7
100
AcDbCircle
 10
1433.5033403763
 20
-8.2683347407
 30
0.0
 40
1.5
100
AcDbArc
 50
314.9779402929
 51
360.0
  0
ARC
  5
43C
100
AcDbEntity
  8
L1_35
  6
CONTINUOUS
 62
         7
100
AcDbCircle
 10
1433.5033403763
 20
-8.2683347407
 30
0.0
 40
1.5
100
AcDbArc
 50
270.0
 51
285.0220597071
  0
LINE
  5
43D
100
AcDbEntity
  8
L1_35
  6
CONTINUOUS
 62
         7
100
AcDbLine
 10
1434.5635920999
 20
-9.3294032034
 30
0.0
 11
1433.8921267583
 21
-9.7170738991
 31
0.0
  0
LINE
  5
43E
100
AcDbEntity
  8
L1_35
  6
CONTINUOUS
 62
         7
100
AcDbLine
 10
1433.5033403763
 20
-9.7683347407
 30
0.0
 11
1405.0033403763
 21
-9.7683347407
 31
0.0
  0
LINE
  5
43F
100
AcDbEntity
  8
L1_35
  6
CONTINUOUS
 62
         7
100
AcDbLine
 10
1402.7949755966
 20
-5.9433347407
 30
0.0
 11
1405.0033403763
 21
-9.7683347407
 31
0.0
  0
LINE
  5
440
100
AcDbEntity
  8
L1_35
  6
CONTINUOUS
 62
         7
100
AcDbLine
 10
1402.7949755966
 20
-19.9433347407
 30
0.0
 11
1405.0033403763
 21
-16.1183347407
 31
0.0
  0
LINE
  5
441
100
AcDbEntity
  8
L1_35
  6
DASHED
 62
         2
100
AcDbLine
 10
1614.0626558466
 20
152.9346417294
 30
0.0
 11
1613.5623362
 21
153.434961376
 31
0.0
  0
LINE
  5
442
100
AcDbEntity
  8
L1_35
  6
DASHED
 62
         2
100
AcDbLine
 10
1614.0626558466
 20
147.4346417294
 30
0.0
 11
1613.5623362
 21
146.9343220828
 31
0.0
  0
DIMENSION
  5
445
100
AcDbEntity
  8
L1_35
  6
CONTINUOUS
 62
         4
100
AcDbDimension
  2
*D8
 10
1447.1650177554
 20
157.4346417294
 30
0.0
 11
1445.1400177554
 21
139.8257296056
 31
0.0
  3
DIMSTYLE1
100
AcDbAlignedDimension
 13
1435.0033403763
 23
157.4346417294
 33
0.0
 14
1435.0033403763
 24
142.9346417294
 34
0.0
 50
90.0
100
AcDbRotatedDimension
  0
ARC
  5
451
100
AcDbEntity
  8
L1_35
  6
CONTINUOUS
 62
         7
100
AcDbCircle
 10
1422.1033403763
 20
-0.1585942096
 30
0.0
 40
3.0
100
AcDbArc
 50
180.0
 51
237.6626704112
  0
TEXT
  5
453
100
AcDbEntity
  8
_X______
  6
CONTINUOUS
 62
         2
100
AcDbText
 10
1607.8551181589
 20
224.3704784082
 30
0.0
 40
4.5
  1
531000
 41
0.98
  7
BOX
100
AcDbText
  0
ENDSEC
  0
SECTION
  2
OBJECTS
  0
DICTIONARY
  5
19
100
AcDbDictionary
  3
ACAD_GROUP
350
1A
  3
ACAD_MLINESTYLE
350
1B
  0
DICTIONARY
  5
1A
102
{ACAD_REACTORS
330
19
102
}
100
AcDbDictionary
  0
DICTIONARY
  5
1B
102
{ACAD_REACTORS
330
19
102
}
100
AcDbDictionary
  3
STANDARD
350
1C
  0
MLINESTYLE
  5
1C
102
{ACAD_REACTORS
330
1B
102
}
100
AcDbMlineStyle
  2
STANDARD
 70
         0
  3

 62
         0
 51
90.0
 52
90.0
 71
         2
 49
0.5
 62
       256
  6
BYLAYER
 49
-0.5
 62
       256
  6
BYLAYER
  0
ENDSEC
  0
EOF
