  0
SECTION
  2
HEADER
  9
$ACADVER
  1
AC1014
  9
$ACADMAINTVER
 70
         0
  9
$DWGCODEPAGE
  3
BIG5
  9
$INSBASE
 10
0.0
 20
0.0
 30
0.0
  9
$EXTMIN
 10
1104.4337500642
 20
-73.4505472053
 30
0.0
  9
$EXTMAX
 10
1732.6303979211
 20
243.2667177231
 30
0.0
  9
$LIMMIN
 10
0.0
 20
0.0
  9
$LIMMAX
 10
0.0
 20
0.0
  9
$ORTHOMODE
 70
         0
  9
$REGENMODE
 70
         1
  9
$FILLMODE
 70
         1
  9
$QTEXTMODE
 70
         0
  9
$MIRRTEXT
 70
         1
  9
$DRAGMODE
 70
         2
  9
$LTSCALE
 40
1.0
  9
$OSMODE
 70
         0
  9
$ATTMODE
 70
         1
  9
$TEXTSIZE
 40
2.7
  9
$TRACEWID
 40
0.05
  9
$TEXTSTYLE
  7
STANDARD
  9
$CLAYER
  8
0
  9
$CELTYPE
  6
CONTINUOUS
  9
$CECOLOR
 62
        16
  9
$CELTSCALE
 40
1.0
  9
$DELOBJ
 70
         1
  9
$DISPSILH
 70
         0
  9
$DIMSCALE
 40
1.0
  9
$DIMASZ
 40
0.18
  9
$DIMEXO
 40
0.0625
  9
$DIMDLI
 40
0.38
  9
$DIMRND
 40
0.0
  9
$DIMDLE
 40
0.0
  9
$DIMEXE
 40
0.25
  9
$DIMTP
 40
0.01
  9
$DIMTM
 40
-0.01
  9
$DIMTXT
 40
2.7
  9
$DIMCEN
 40
0.09
  9
$DIMTSZ
 40
0.0
  9
$DIMTOL
 70
         0
  9
$DIMLIM
 70
         0
  9
$DIMTIH
 70
         1
  9
$DIMTOH
 70
         1
  9
$DIMSE1
 70
         0
  9
$DIMSE2
 70
         0
  9
$DIMTAD
 70
         0
  9
$DIMZIN
 70
         0
  9
$DIMBLK
  1

  9
$DIMASO
 70
         1
  9
$DIMSHO
 70
         1
  9
$DIMPOST
  1

  9
$DIMAPOST
  1

  9
$DIMALT
 70
         0
  9
$DIMALTD
 70
         2
  9
$DIMALTF
 40
25.4
  9
$DIMLFAC
 40
1.0
  9
$DIMTOFL
 70
         0
  9
$DIMTVP
 40
0.0
  9
$DIMTIX
 70
         0
  9
$DIMSOXD
 70
         0
  9
$DIMSAH
 70
         0
  9
$DIMBLK1
  1

  9
$DIMBLK2
  1

  9
$DIMSTYLE
  2
STANDARD
  9
$DIMCLRD
 70
         0
  9
$DIMCLRE
 70
         0
  9
$DIMCLRT
 70
        16
  9
$DIMTFAC
 40
1.0
  9
$DIMGAP
 40
0.09
  9
$DIMJUST
 70
         0
  9
$DIMSD1
 70
         0
  9
$DIMSD2
 70
         0
  9
$DIMTOLJ
 70
         1
  9
$DIMTZIN
 70
         0
  9
$DIMALTZ
 70
         0
  9
$DIMALTTZ
 70
         0
  9
$DIMFIT
 70
         3
  9
$DIMUPT
 70
         0
  9
$DIMUNIT
 70
         2
  9
$DIMDEC
 70
         4
  9
$DIMTDEC
 70
         4
  9
$DIMALTU
 70
         2
  9
$DIMALTTD
 70
         2
  9
$DIMTXSTY
  7
STANDARD
  9
$DIMAUNIT
 70
         0
  9
$LUNITS
 70
         2
  9
$LUPREC
 70
        10
  9
$SKETCHINC
 40
0.1
  9
$FILLETRAD
 40
0.0
  9
$AUNITS
 70
         0
  9
$AUPREC
 70
         0
  9
$MENU
  1
acad
  9
$ELEVATION
 40
0.0
  9
$PELEVATION
 40
0.0
  9
$THICKNESS
 40
0.0
  9
$LIMCHECK
 70
         0
  9
$BLIPMODE
 70
         1
  9
$CHAMFERA
 40
0.0
  9
$CHAMFERB
 40
0.0
  9
$CHAMFERC
 40
0.0
  9
$CHAMFERD
 40
0.0
  9
$SKPOLY
 70
         0
  9
$TDCREATE
 40
0.000000000
  9
$TDUPDATE
 40
0.000000000
  9
$TDINDWG
 40
0.0000000000
  9
$TDUSRTIMER
 40
0.0000000000
  9
$USRTIMER
 70
         1
  9
$ANGBASE
 50
0.0
  9
$ANGDIR
 70
         0
  9
$PDMODE
 70
         2
  9
$PDSIZE
 40
0.0
  9
$PLINEWID
 40
0.0
  9
$COORDS
 70
         1
  9
$SPLFRAME
 70
         0
  9
$SPLINETYPE
 70
         6
  9
$SPLINESEGS
 70
         8
  9
$ATTDIA
 70
         0
  9
$ATTREQ
 70
         1
  9
$HANDLING
 70
         1
  9
$HANDSEED
  5
469
  9
$SURFTAB1
 70
         6
  9
$SURFTAB2
 70
         6
  9
$SURFTYPE
 70
         6
  9
$SURFU
 70
         6
  9
$SURFV
 70
         6
  9
$UCSNAME
  2

  9
$UCSORG
 10
0.0
 20
0.0
 30
0.0
  9
$UCSXDIR
 10
1.0
 20
0.0
 30
0.0
  9
$UCSYDIR
 10
0.0
 20
1.0
 30
0.0
  9
$PUCSNAME
  2

  9
$PUCSORG
 10
0.0
 20
0.0
 30
0.0
  9
$PUCSXDIR
 10
1.0
 20
0.0
 30
0.0
  9
$PUCSYDIR
 10
0.0
 20
1.0
 30
0.0
  9
$USERI1
 70
         0
  9
$USERI2
 70
         0
  9
$USERI3
 70
         0
  9
$USERI4
 70
         0
  9
$USERI5
 70
         0
  9
$USERR1
 40
0.0
  9
$USERR2
 40
0.0
  9
$USERR3
 40
0.0
  9
$USERR4
 40
0.0
  9
$USERR5
 40
0.0
  9
$WORLDVIEW
 70
         1
  9
$SHADEDGE
 70
         3
  9
$SHADEDIF
 70
        70
  9
$TILEMODE
 70
         1
  9
$MAXACTVP
 70
        16
  9
$PINSBASE
 10
0.0
 20
0.0
 30
0.0
  9
$PLIMCHECK
 70
         0
  9
$PEXTMIN
 10
1.0000000000E+20
 20
1.0000000000E+20
 30
1.0000000000E+20
  9
$PEXTMAX
 10
-1.0000000000E+20
 20
-1.0000000000E+20
 30
-1.0000000000E+20
  9
$PLIMMIN
 10
0.0
 20
0.0
  9
$PLIMMAX
 10
12.0
 20
9.0
  9
$UNITMODE
 70
         0
  9
$VISRETAIN
 70
         0
  9
$PLINEGEN
 70
         1
  9
$PSLTSCALE
 70
         0
  9
$TREEDEPTH
 70
      3020
  9
$PICKSTYLE
 70
         1
  9
$CMLSTYLE
  2
STANDARD
  9
$CMLJUST
 70
         0
  9
$CMLSCALE
 40
1.0
  9
$PROXYGRAPHICS
 70
         0
  9
$MEASUREMENT
 70
         0
  0
ENDSEC
  0
SECTION
  2
CLASSES
  0
CLASS
  1
LWPOLYLINE
  2
AcDbPolyline
  3
"AutoCAD"
 90
        0
280
         0
281
         1
  0
CLASS
  1
IMAGE
  2
AcDbRasterImage
  3
ISM
 90
      127
280
         0
281
         1
  0
CLASS
  1
OLE2FRAME
  2
AcDbOle2Frame
  3
""
 90
        0
280
         0
281
         1
  0
CLASS
  1
HATCH
  2
AcDbHatch
  3
"ACAD_SEDONA"
 90
        0
280
         0
281
         1
  0
CLASS
  1
DICTIONARYVAR
  2
AcDbDictionaryVar
  3
"AutoCAD"
 90
        0
280
         0
281
         0
  0
CLASS
  1
RASTERVARIABLES
  2
AcDbRasterVariables
  3
ISM
 90
        0
280
         0
281
         0
  0
CLASS
  1
IMAGEDEF
  2
AcDbRasterImageDef
  3
ISM
 90
        0
280
         0
281
         0
  0
CLASS
  1
IMAGEDEF_REACTOR
  2
AcDbRasterImageDefReactor
  3
ISM
 90
        1
280
         0
281
         0
  0
CLASS
  1
IDBUFFER
  2
AcDbIdBuffer
  3
"Acad"
 90
        0
280
         0
281
         0
  0
CLASS
  1
SPATIAL_FILTER
  2
AcDbSpatialFilter
  3
"Acad"
 90
        0
280
         0
281
         0
  0
CLASS
  1
XRECORD
  2
AcDbXrecord
  3
"<Built In>"
 90
        0
280
         0
281
         0
  0
CLASS
  1
SORTENTSTABLE
  2
AcDbSortentsTable
  3
"AutoCAD"
 90
        0
280
         0
281
         0
  0
CLASS
  1
LAYER_INDEX
  2
AcDbLayerIndex
  3
"Acad"
 90
        0
280
         0
281
         0
  0
CLASS
  1
SPATIAL_INDEX
  2
AcDbSpatialIndex
  3
"Acad"
 90
        0
280
         0
281
         0
  0
CLASS
  1
OBJECT_PTR
  2
CAseDLPNTableRecord
  3
"ASE-LPNTableRecord"
 90
        1
280
         0
281
         0
  0
CLASS
  1
LAYOUT
  2
AcDbLayout
  3
"AutoCAD 2000"
 90
        1
280
         0
281
         0
  0
CLASS
  1
PLOTSETTINGS
  2
AcDbPlotSettings
  3
"AutoCAD 2000"
 90
        1
280
         0
281
         0
  0
CLASS
  1
ACDBDICTIONARYWDFLT
  2
AcDbDictionaryWithDefault
  3
"AutoCAD 2000"
 90
        1
280
         0
281
         0
  0
CLASS
  1
ACDBPLACEHOLDER
  2
AcDbPlaceHolder
  3
"AutoCAD 2000"
 90
        1
280
         0
281
         0
  0
CLASS
  1
VBA_PROJECT
  2
AcDbVbaProject
  3
"acadvba"
 90
        1
280
         0
281
         0
  0
CLASS
  1
WIPEOUT
  2
AcDbWipeout
  3
WipeOut|AutoCAD Express Tool|expresstools@autodesk.com
 90
      127
280
         0
281
         1
  0
CLASS
  1
WIPEOUTVARIABLES
  2
AcDbWipeoutVariables
  3
WipeOut|AutoCAD Express Tool|expresstools@autodesk.com
 90
        0
280
         0
281
         0
  0
CLASS
  1
RTEXT
  2
RText
  3
RText|AutoCAD Express Tool|expresstools@autodesk.com
 90
        0
280
         0
281
         1
  0
CLASS
  1
ARCALIGNEDTEXT
  2
AcDbArcAlignedText
  3
ATEXT|AutoCAD Express Tool|expresstools@autodesk.com
 90
        0
280
         0
281
         1
  0
ENDSEC
  0
SECTION
  2
TABLES
  0
TABLE
  2
VPORT
  5
7
100
AcDbSymbolTable
 70
         1
  0
VPORT
  5
15
100
AcDbSymbolTableRecord
100
AcDbViewportTableRecord
  2
*ACTIVE
 70
         0
 10
0.0
 20
0.0
 11
1.0
 21
1.0
 12
1418.5320739926
 22
84.9080852589
 13
0.0
 23
0.0
 14
1.0
 24
1.0
 15
0.0
 25
0.0
 16
0.0
 26
0.0
 36
1.0
 17
0.0
 27
0.0
 37
0.0
 40
316.7172649284
 41
1.9834619625
 42
50.0
 43
0.0
 44
0.0
 50
0.0
 51
0.0
 71
         0
 72
       100
 73
         1
 74
         1
 75
         0
 76
         0
 77
         0
 78
         0
  0
ENDTAB
  0
TABLE
  2
LTYPE
  5
4
100
AcDbSymbolTable
 70
         6
  0
LTYPE
  5
11
100
AcDbSymbolTableRecord
100
AcDbLinetypeTableRecord
  2
BYBLOCK
 70
        64
  3

 72
        65
 73
         0
 40
0.0
  0
LTYPE
  5
12
100
AcDbSymbolTableRecord
100
AcDbLinetypeTableRecord
  2
BYLAYER
 70
        64
  3

 72
        65
 73
         0
 40
0.0
  0
LTYPE
  5
13
100
AcDbSymbolTableRecord
100
AcDbLinetypeTableRecord
  2
CONTINUOUS
 70
        64
  3
Solid line
 72
        65
 73
         0
 40
0.0
  0
LTYPE
  5
1D
100
AcDbSymbolTableRecord
100
AcDbLinetypeTableRecord
  2
DASHED
 70
        64
  3
_ _ _ _ _ _ _ _ _ _ _ _ _ _ _ _
 72
        65
 73
         2
 40
0.2
 49
0.1
 74
         0
 49
-0.1
 74
         0
  0
LTYPE
  5
1E
100
AcDbSymbolTableRecord
100
AcDbLinetypeTableRecord
  2
CENTER
 70
        64
  3
___ _ ___ _ ___ _ ___ _ ___ _ ___ _ ___ _ ___ _
 72
        65
 73
         4
 40
0.95
 49
0.625
 74
         0
 49
-0.125
 74
         0
 49
0.075
 74
         0
 49
-0.125
 74
         0
  0
LTYPE
  5
1F
100
AcDbSymbolTableRecord
100
AcDbLinetypeTableRecord
  2
PHANTOM
 70
        64
  3
______  __  __  ______  __  __  ______  __  __  
 72
        65
 73
         6
 40
1.025
 49
0.625
 74
         0
 49
-0.125
 74
         0
 49
0.075
 74
         0
 49
-0.125
 74
         0
 49
0.075
 74
         0
 49
-0.125
 74
         0
  0
ENDTAB
  0
TABLE
  2
LAYER
  5
2
100
AcDbSymbolTable
 70
        11
  0
LAYER
  5
14
100
AcDbSymbolTableRecord
100
AcDbLayerTableRecord
  2
0
 70
         0
 62
         7
  6
CONTINUOUS
  0
LAYER
  5
21
100
AcDbSymbolTableRecord
100
AcDbLayerTableRecord
  2
_____U
 70
         1
 62
         7
  6
CONTINUOUS
  0
LAYER
  5
22
100
AcDbSymbolTableRecord
100
AcDbLayerTableRecord
  2
_____T______
 70
         1
 62
         7
  6
CONTINUOUS
  0
LAYER
  5
23
100
AcDbSymbolTableRecord
100
AcDbLayerTableRecord
  2
______L_______
 70
         1
 62
         7
  6
CONTINUOUS
  0
LAYER
  5
24
100
AcDbSymbolTableRecord
100
AcDbLayerTableRecord
  2
ERTGDAOZ____
 70
         1
 62
         7
  6
CONTINUOUS
  0
LAYER
  5
25
100
AcDbSymbolTableRecord
100
AcDbLayerTableRecord
  2
_____M_____M____
 70
         1
 62
         7
  6
CONTINUOUS
  0
LAYER
  5
26
100
AcDbSymbolTableRecord
100
AcDbLayerTableRecord
  2
___L_W______
 70
         1
 62
         7
  6
CONTINUOUS
  0
LAYER
  5
27
100
AcDbSymbolTableRecord
100
AcDbLayerTableRecord
  2
_Y__________
 70
         0
 62
         7
  6
CONTINUOUS
  0
LAYER
  5
28
100
AcDbSymbolTableRecord
100
AcDbLayerTableRecord
  2
_X______
 70
         0
 62
         7
  6
CONTINUOUS
  0
LAYER
  5
29
100
AcDbSymbolTableRecord
100
AcDbLayerTableRecord
  2
L1_35
 70
         0
 62
         7
  6
CONTINUOUS
  0
LAYER
  5
2E
100
AcDbSymbolTableRecord
100
AcDbLayerTableRecord
  2
DEFPOINTS
 70
         0
 62
        -7
  6
CONTINUOUS
  0
ENDTAB
  0
TABLE
  2
STYLE
  5
3
100
AcDbSymbolTable
 70
        12
  0
STYLE
  5
17
100
AcDbSymbolTableRecord
100
AcDbTextStyleTableRecord
  2
STANDARD
 70
         0
 40
0.0
 41
1.0
 50
0.0
 71
         0
 42
0.0
  3
txt
  4

  0
STYLE
  5
37
100
AcDbSymbolTableRecord
100
AcDbTextStyleTableRecord
  2
BOX
 70
         0
 40
1.0
 41
1.0
 50
0.0
 71
         0
 42
0.2
  3
txt.shx
  4

  0
STYLE
  5
39
100
AcDbSymbolTableRecord
100
AcDbTextStyleTableRecord
  2
BOX
 70
         0
 40
1.0
 41
1.0
 50
0.0
 71
         0
 42
0.2
  3
txt.shx
  4

  0
STYLE
  5
3B
100
AcDbSymbolTableRecord
100
AcDbTextStyleTableRecord
  2
BOX
 70
         0
 40
1.0
 41
1.0
 50
0.0
 71
         0
 42
0.2
  3
txt.shx
  4

  0
STYLE
  5
49
100
AcDbSymbolTableRecord
100
AcDbTextStyleTableRecord
  2
BOX
 70
         0
 40
1.0
 41
1.0
 50
0.0
 71
         0
 42
0.2
  3
txt.shx
  4

  0
STYLE
  5
3FD
100
AcDbSymbolTableRecord
100
AcDbTextStyleTableRecord
  2
BOX
 70
         0
 40
1.0
 41
1.0
 50
0.0
 71
         0
 42
0.2
  3
txt.shx
  4

  0
STYLE
  5
40B
100
AcDbSymbolTableRecord
100
AcDbTextStyleTableRecord
  2
BOX
 70
         0
 40
1.0
 41
1.0
 50
0.0
 71
         0
 42
0.2
  3
txt.shx
  4

  0
STYLE
  5
41B
100
AcDbSymbolTableRecord
100
AcDbTextStyleTableRecord
  2
BOX
 70
         0
 40
1.0
 41
1.0
 50
0.0
 71
         0
 42
0.2
  3
txt.shx
  4

  0
STYLE
  5
42E
100
AcDbSymbolTableRecord
100
AcDbTextStyleTableRecord
  2
BOX
 70
         0
 40
1.0
 41
1.0
 50
0.0
 71
         0
 42
0.2
  3
txt.shx
  4

  0
STYLE
  5
43C
100
AcDbSymbolTableRecord
100
AcDbTextStyleTableRecord
  2
BOX
 70
         0
 40
1.0
 41
1.0
 50
0.0
 71
         0
 42
0.2
  3
txt.shx
  4

  0
STYLE
  5
44D
100
AcDbSymbolTableRecord
100
AcDbTextStyleTableRecord
  2
BOX
 70
         0
 40
1.0
 41
1.0
 50
0.0
 71
         0
 42
0.2
  3
txt.shx
  4

  0
STYLE
  5
467
100
AcDbSymbolTableRecord
100
AcDbTextStyleTableRecord
  2
BOX
 70
         0
 40
1.0
 41
1.0
 50
0.0
 71
         0
 42
0.2
  3
txt.shx
  4

  0
ENDTAB
  0
TABLE
  2
VIEW
  5
5
100
AcDbSymbolTable
 70
         0
  0
ENDTAB
  0
TABLE
  2
UCS
  5
6
100
AcDbSymbolTable
 70
         1
  0
UCS
  5
20
100
AcDbSymbolTableRecord
100
AcDbUCSTableRecord
  2
CK_VIEW_1
 70
         0
 10
0.0
 20
0.0
 30
1.0
 11
1.0
 21
0.0
 31
0.0
 12
0.0
 22
1.0
 32
0.0
  0
ENDTAB
  0
TABLE
  2
APPID
  5
8
100
AcDbSymbolTable
 70
         1
  0
APPID
  5
16
100
AcDbSymbolTableRecord
100
AcDbRegAppTableRecord
  2
ACAD
 70
         0
  0
ENDTAB
  0
TABLE
  2
DIMSTYLE
  5
9
100
AcDbSymbolTable
 70
         2
  0
DIMSTYLE
105
18
100
AcDbSymbolTableRecord
100
AcDbDimStyleTableRecord
  2
STANDARD
 70
         0
  3

  4

  5

  6

  7

 40
1.0
 41
0.18
 42
0.0625
 43
0.38
 44
0.18
 45
0.0
 46
0.0
 47
0.0
 48
0.0
 71
         0
 72
         0
 73
         1
 74
         1
 75
         0
 76
         0
 77
         0
 78
         0
140
0.18
141
0.09
142
0.0
143
25.4
144
1.0
145
0.0
146
1.0
147
0.09
170
         0
171
         2
172
         0
173
         0
174
         0
175
         0
176
         0
177
         0
178
         0
270
         2
271
         4
272
         4
273
         2
274
         2
275
         0
280
         0
281
         0
282
         0
283
         1
284
         0
285
         0
286
         0
287
         0
288
         0
340
17
  0
DIMSTYLE
105
2A
100
AcDbSymbolTableRecord
100
AcDbDimStyleTableRecord
  2
DIMSTYLE1
 70
         0
  3

  4

  5

  6

  7

 40
1.0
 41
2.7
 42
0.0625
 43
0.38
 44
2.7
 45
0.0
 46
0.0
 47
0.0
 48
0.0
 71
         0
 72
         0
 73
         1
 74
         1
 75
         0
 76
         0
 77
         0
 78
         0
140
2.7
141
0.09
142
0.0
143
25.4
144
1.0
145
0.0
146
1.0
147
0.09
170
         0
171
         2
172
         0
173
         0
174
         0
175
         0
176
         0
177
         0
178
         0
270
         2
271
         4
272
         4
273
         2
274
         2
275
         0
280
         0
281
         0
282
         0
283
         1
284
         0
285
         0
286
         0
287
         0
288
         0
340
17
  0
ENDTAB
  0
TABLE
  2
BLOCK_RECORD
  5
1
100
AcDbSymbolTable
 70
         9
  0
BLOCK_RECORD
  5
A
100
AcDbSymbolTableRecord
100
AcDbBlockTableRecord
  2
*MODEL_SPACE
  0
BLOCK_RECORD
  5
B
100
AcDbSymbolTableRecord
100
AcDbBlockTableRecord
  2
*PAPER_SPACE
  0
BLOCK_RECORD
  5
2B
100
AcDbSymbolTableRecord
100
AcDbBlockTableRecord
  2
*D0
  0
BLOCK_RECORD
  5
3E
100
AcDbSymbolTableRecord
100
AcDbBlockTableRecord
  2
*D1
  0
BLOCK_RECORD
  5
2A2
100
AcDbSymbolTableRecord
100
AcDbBlockTableRecord
  2
*X2
  0
BLOCK_RECORD
  5
3F1
100
AcDbSymbolTableRecord
100
AcDbBlockTableRecord
  2
*D3
  0
BLOCK_RECORD
  5
400
100
AcDbSymbolTableRecord
100
AcDbBlockTableRecord
  2
*D4
  0
BLOCK_RECORD
  5
40E
100
AcDbSymbolTableRecord
100
AcDbBlockTableRecord
  2
*D5
  0
BLOCK_RECORD
  5
423
100
AcDbSymbolTableRecord
100
AcDbBlockTableRecord
  2
*D6
  0
BLOCK_RECORD
  5
431
100
AcDbSymbolTableRecord
100
AcDbBlockTableRecord
  2
*D7
  0
BLOCK_RECORD
  5
442
100
AcDbSymbolTableRecord
100
AcDbBlockTableRecord
  2
*D8
  0
ENDTAB
  0
ENDSEC
  0
SECTION
  2
BLOCKS
  0
BLOCK
  5
D
100
AcDbEntity
  8
0
100
AcDbBlockBegin
  2
*MODEL_SPACE
 70
         0
 10
0.0
 20
0.0
 30
0.0
  3
*MODEL_SPACE
  1

  0
ENDBLK
  5
E
100
AcDbEntity
  8
0
100
AcDbBlockEnd
  0
BLOCK
  5
F
100
AcDbEntity
 67
         1
  8
0
100
AcDbBlockBegin
  2
*PAPER_SPACE
 70
         0
 10
0.0
 20
0.0
 30
0.0
  3
*PAPER_SPACE
  1

  0
ENDBLK
  5
10
100
AcDbEntity
 67
         1
  8
0
100
AcDbBlockEnd
  0
BLOCK
  5
2C
100
AcDbEntity
  8
0
100
AcDbBlockBegin
  2
*D0
 70
        65
 10
0.0
 20
0.0
 30
0.0
  3
*D0
  1

  0
POINT
  5
2F
100
AcDbEntity
  8
DEFPOINTS
  6
CONTINUOUS
 62
         0
100
AcDbPoint
 10
1462.5304745941
 20
162.8846417294
 30
0.0
  0
POINT
  5
30
100
AcDbEntity
  8
DEFPOINTS
  6
CONTINUOUS
 62
         0
100
AcDbPoint
 10
1426.6252754451
 20
162.8846417294
 30
0.0
  0
POINT
  5
31
100
AcDbEntity
  8
DEFPOINTS
  6
CONTINUOUS
 62
         0
100
AcDbPoint
 10
1426.6252754451
 20
137.4846417294
 30
0.0
  0
LINE
  5
32
100
AcDbEntity
  8
L1_35
  6
CONTINUOUS
 62
         4
100
AcDbLine
 10
1427.9752754451
 20
162.8846417294
 30
0.0
 11
1463.2054745941
 21
162.8846417294
 31
0.0
  0
LINE
  5
33
100
AcDbEntity
  8
L1_35
  6
CONTINUOUS
 62
         4
100
AcDbLine
 10
1427.9752754451
 20
137.4846417294
 30
0.0
 11
1463.2054745941
 21
137.4846417294
 31
0.0
  0
LINE
  5
34
100
AcDbEntity
  8
L1_35
  6
CONTINUOUS
 62
         4
100
AcDbLine
 10
1462.5304745941
 20
162.8846417294
 30
0.0
 11
1462.5304745941
 21
137.4846417294
 31
0.0
  0
SOLID
  5
35
100
AcDbEntity
  8
L1_35
  6
CONTINUOUS
 62
         4
100
AcDbTrace
 10
1462.5304745941
 20
162.8846417294
 30
0.0
 11
1462.9354745941
 21
160.1846417294
 31
0.0
 12
1462.1254745941
 22
160.1846417294
 32
0.0
 13
1462.5304745941
 23
162.8846417294
 33
0.0
  0
SOLID
  5
36
100
AcDbEntity
  8
L1_35
  6
CONTINUOUS
 62
         4
100
AcDbTrace
 10
1462.5304745941
 20
137.4846417294
 30
0.0
 11
1462.1254745941
 21
140.1846417294
 31
0.0
 12
1462.9354745941
 22
140.1846417294
 32
0.0
 13
1462.5304745941
 23
137.4846417294
 33
0.0
  0
TEXT
  5
38
100
AcDbEntity
  8
L1_35
  6
CONTINUOUS
 62
         4
100
AcDbText
 10
1459.3984745941
 20
137.6458827141
 30
0.0
 40
2.7
  1
崷25.4
 50
90.0
  7
BOX
100
AcDbText
  0
TEXT
  5
3A
100
AcDbEntity
  8
L1_35
  6
CONTINUOUS
 62
         4
100
AcDbText
 10
1460.8834745941
 20
155.1958827141
 30
0.0
 40
1.89
  1
 0
 50
90.0
  7
BOX
100
AcDbText
  0
TEXT
  5
3C
100
AcDbEntity
  8
L1_35
  6
CONTINUOUS
 62
         4
100
AcDbText
 10
1458.8881745941
 20
155.1958827141
 30
0.0
 40
1.89
  1
-0.2
 50
90.0
  7
BOX
100
AcDbText
  0
ENDBLK
  5
3D
100
AcDbEntity
  8
0
  6
CONTINUOUS
100
AcDbBlockEnd
  0
BLOCK
  5
3F
100
AcDbEntity
  8
0
100
AcDbBlockBegin
  2
*D1
 70
        65
 10
0.0
 20
0.0
 30
0.0
  3
*D1
  1

  0
POINT
  5
41
100
AcDbEntity
  8
DEFPOINTS
  6
CONTINUOUS
 62
         0
100
AcDbPoint
 10
1453.2601679246
 20
159.1846417294
 30
0.0
  0
POINT
  5
42
100
AcDbEntity
  8
DEFPOINTS
  6
CONTINUOUS
 62
         0
100
AcDbPoint
 10
1435.0033403763
 20
159.1846417294
 30
0.0
  0
POINT
  5
43
100
AcDbEntity
  8
DEFPOINTS
  6
CONTINUOUS
 62
         0
100
AcDbPoint
 10
1435.0033403763
 20
141.1846417294
 30
0.0
  0
LINE
  5
44
100
AcDbEntity
  8
L1_35
  6
CONTINUOUS
 62
         4
100
AcDbLine
 10
1436.3533403763
 20
159.1846417294
 30
0.0
 11
1453.9351679246
 21
159.1846417294
 31
0.0
  0
LINE
  5
45
100
AcDbEntity
  8
L1_35
  6
CONTINUOUS
 62
         4
100
AcDbLine
 10
1436.3533403763
 20
141.1846417294
 30
0.0
 11
1453.9351679246
 21
141.1846417294
 31
0.0
  0
LINE
  5
46
100
AcDbEntity
  8
L1_35
  6
CONTINUOUS
 62
         4
100
AcDbLine
 10
1453.2601679246
 20
159.1846417294
 30
0.0
 11
1453.2601679246
 21
141.1846417294
 31
0.0
  0
SOLID
  5
47
100
AcDbEntity
  8
L1_35
  6
CONTINUOUS
 62
         4
100
AcDbTrace
 10
1453.2601679246
 20
159.1846417294
 30
0.0
 11
1453.6651679246
 21
156.4846417294
 31
0.0
 12
1452.8551679246
 22
156.4846417294
 32
0.0
 13
1453.2601679246
 23
159.1846417294
 33
0.0
  0
SOLID
  5
48
100
AcDbEntity
  8
L1_35
  6
CONTINUOUS
 62
         4
100
AcDbTrace
 10
1453.2601679246
 20
141.1846417294
 30
0.0
 11
1452.8551679246
 21
143.8846417294
 31
0.0
 12
1453.6651679246
 22
143.8846417294
 32
0.0
 13
1453.2601679246
 23
141.1846417294
 33
0.0
  0
TEXT
  5
4A
100
AcDbEntity
  8
L1_35
  6
CONTINUOUS
 62
         4
100
AcDbText
 10
1451.2351679246
 20
145.6061855413
 30
0.0
 40
2.7
  1
崷18
 50
90.0
  7
BOX
100
AcDbText
  0
ENDBLK
  5
4B
100
AcDbEntity
  8
0
  6
CONTINUOUS
100
AcDbBlockEnd
  0
BLOCK
  5
2A3
100
AcDbEntity
  8
0
100
AcDbBlockBegin
  2
*X2
 70
        65
 10
0.0
 20
0.0
 30
0.0
  3
*X2
  1

  0
LINE
  5
2A4
100
AcDbEntity
  8
L1_35
  6
CONTINUOUS
 62
         4
100
AcDbLine
 10
1427.0540388329
 20
-25.5968346658
 30
0.0
 11
1434.8658620942
 21
-17.7850114045
 31
0.0
  0
LINE
  5
2A5
100
AcDbEntity
  8
L1_35
  6
CONTINUOUS
 62
         4
100
AcDbLine
 10
1410.4648980708
 20
-37.9433347407
 30
0.0
 11
1412.7533403763
 21
-35.6548924353
 31
0.0
  0
LINE
  5
2A6
100
AcDbEntity
  8
L1_35
  6
CONTINUOUS
 62
         4
100
AcDbLine
 10
1422.7648980708
 20
-25.6433347407
 30
0.0
 11
1431.4958980708
 21
-16.9123347407
 31
0.0
  0
LINE
  5
2A7
100
AcDbEntity
  8
L1_35
  6
CONTINUOUS
 62
         4
100
AcDbLine
 10
1406.2222573837
 20
-37.9433347407
 30
0.0
 11
1412.7533403763
 21
-31.4122517481
 31
0.0
  0
LINE
  5
2A8
100
AcDbEntity
  8
L1_35
  6
CONTINUOUS
 62
         4
100
AcDbLine
 10
1420.9533403762
 20
-23.2122517482
 30
0.0
 11
1427.2532573837
 21
-16.9123347407
 31
0.0
  0
LINE
  5
2A9
100
AcDbEntity
  8
L1_35
  6
CONTINUOUS
 62
         4
100
AcDbLine
 10
1403.2033403763
 20
-36.719611061
 30
0.0
 11
1412.7533403763
 21
-27.169611061
 31
0.0
  0
LINE
  5
2AA
100
AcDbEntity
  8
L1_35
  6
CONTINUOUS
 62
         4
100
AcDbLine
 10
1420.9533403762
 20
-18.969611061
 30
0.0
 11
1423.0106166966
 21
-16.9123347407
 31
0.0
  0
LINE
  5
2AB
100
AcDbEntity
  8
L1_35
  6
CONTINUOUS
 62
         4
100
AcDbLine
 10
1430.9486166966
 20
-8.9743347407
 30
0.0
 11
1435.0033403763
 21
-4.919611061
 31
0.0
  0
LINE
  5
2AC
100
AcDbEntity
  8
L1_35
  6
CONTINUOUS
 62
         4
100
AcDbLine
 10
1400.4472405653
 20
-35.2330701849
 30
0.0
 11
1414.0533403763
 21
-21.6269703739
 31
0.0
  0
LINE
  5
2AD
100
AcDbEntity
  8
L1_35
  6
CONTINUOUS
 62
         4
100
AcDbLine
 10
1426.7059760095
 20
-8.9743347407
 30
0.0
 11
1432.775728491
 21
-2.9045822592
 31
0.0
  0
LINE
  5
2AE
100
AcDbEntity
  8
L1_35
  6
CONTINUOUS
 62
         4
100
AcDbLine
 10
1396.7445723292
 20
-34.6930977338
 30
0.0
 11
1414.0533403763
 21
-17.3843296868
 31
0.0
  0
LINE
  5
2AF
100
AcDbEntity
  8
L1_35
  6
CONTINUOUS
 62
         4
100
AcDbLine
 10
1422.4633353224
 20
-8.9743347407
 30
0.0
 11
1429.882310685
 21
-1.555359378
 31
0.0
  0
LINE
  5
2B0
100
AcDbEntity
  8
L1_35
  6
CONTINUOUS
 62
         4
100
AcDbLine
 10
1393.0419040932
 20
-34.1531252827
 30
0.0
 11
1410.2826946352
 21
-16.9123347407
 31
0.0
  0
LINE
  5
2B1
100
AcDbEntity
  8
L1_35
  6
CONTINUOUS
 62
         4
100
AcDbLine
 10
1418.2206946352
 20
-8.9743347407
 30
0.0
 11
1426.9285647822
 21
-0.2664645937
 31
0.0
  0
LINE
  5
2B2
100
AcDbEntity
  8
L1_35
  6
CONTINUOUS
 62
         4
100
AcDbLine
 10
1389.3392358572
 20
-33.6131528316
 30
0.0
 11
1403.0090539481
 21
-19.9433347407
 31
0.0
  0
LINE
  5
2B3
100
AcDbEntity
  8
L1_35
  6
CONTINUOUS
 62
         4
100
AcDbLine
 10
1403.5871633006
 20
-19.3652253882
 30
0.0
 11
1406.0400539481
 21
-16.9123347407
 31
0.0
  0
LINE
  5
2B4
100
AcDbEntity
  8
L1_35
  6
CONTINUOUS
 62
         4
100
AcDbLine
 10
1413.9780539481
 20
-8.9743347407
 30
0.0
 11
1422.7090539481
 21
-0.2433347407
 31
0.0
  0
LINE
  5
2B5
100
AcDbEntity
  8
L1_35
  6
CONTINUOUS
 62
         4
100
AcDbLine
 10
1385.6365676211
 20
-33.0731803806
 30
0.0
 11
1398.766413261
 21
-19.9433347407
 31
0.0
  0
LINE
  5
2B6
100
AcDbEntity
  8
L1_35
  6
CONTINUOUS
 62
         4
100
AcDbLine
 10
1409.735413261
 20
-8.9743347407
 30
0.0
 11
1419.6875973994
 21
0.9778493977
 31
0.0
  0
LINE
  5
2B7
100
AcDbEntity
  8
L1_35
  6
CONTINUOUS
 62
         4
100
AcDbLine
 10
1381.9338993851
 20
-32.5332079295
 30
0.0
 11
1394.5237725739
 21
-19.9433347407
 31
0.0
  0
LINE
  5
2B8
100
AcDbEntity
  8
L1_35
  6
CONTINUOUS
 62
         4
100
AcDbLine
 10
1405.4927725739
 20
-8.9743347407
 30
0.0
 11
1419.1033403763
 21
4.6362330617
 31
0.0
  0
LINE
  5
2B9
100
AcDbEntity
  8
L1_35
  6
CONTINUOUS
 62
         4
100
AcDbLine
 10
1378.2312311491
 20
-31.9932354784
 30
0.0
 11
1390.2811318868
 21
-19.9433347407
 31
0.0
  0
LINE
  5
2BA
100
AcDbEntity
  8
L1_35
  6
CONTINUOUS
 62
         4
100
AcDbLine
 10
1405.4877039708
 20
-4.7367626566
 30
0.0
 11
1414.415802979
 21
4.1913363515
 31
0.0
  0
LINE
  5
2BB
100
AcDbEntity
  8
L1_35
  6
CONTINUOUS
 62
         4
100
AcDbLine
 10
1416.7852526211
 20
6.5607859936
 30
0.0
 11
1419.1033403763
 21
8.8788737488
 31
0.0
  0
LINE
  5
2BC
100
AcDbEntity
  8
L1_35
  6
CONTINUOUS
 62
         4
100
AcDbLine
 10
1374.528562913
 20
-31.4532630273
 30
0.0
 11
1386.0384911997
 21
-19.9433347407
 31
0.0
  0
LINE
  5
2BD
100
AcDbEntity
  8
L1_35
  6
CONTINUOUS
 62
         4
100
AcDbLine
 10
1400.0384911997
 20
-5.9433347407
 30
0.0
 11
1400.8398226484
 21
-5.1420032919
 31
0.0
  0
LINE
  5
2BE
100
AcDbEntity
  8
L1_35
  6
CONTINUOUS
 62
         4
100
AcDbLine
 10
1370.825894677
 20
-30.9132905762
 30
0.0
 11
1381.7958505125
 21
-19.9433347407
 31
0.0
  0
LINE
  5
2BF
100
AcDbEntity
  8
L1_35
  6
CONTINUOUS
 62
         4
100
AcDbLine
 10
1395.7958505125
 20
-5.9433347407
 30
0.0
 11
1409.5327725257
 21
7.7935872725
 31
0.0
  0
LINE
  5
2C0
100
AcDbEntity
  8
L1_35
  6
CONTINUOUS
 62
         4
100
AcDbLine
 10
1411.6868176549
 20
9.9476324017
 30
0.0
 11
1419.1033403763
 21
17.364155123
 31
0.0
  0
LINE
  5
2C1
100
AcDbEntity
  8
L1_35
  6
CONTINUOUS
 62
         4
100
AcDbLine
 10
1367.123226441
 20
-30.3733181251
 30
0.0
 11
1377.5532098254
 21
-19.9433347407
 31
0.0
  0
LINE
  5
2C2
100
AcDbEntity
  8
L1_35
  6
CONTINUOUS
 62
         4
100
AcDbLine
 10
1391.5532098254
 20
-5.9433347407
 30
0.0
 11
1407.0374061709
 21
9.5408616048
 31
0.0
  0
LINE
  5
2C3
100
AcDbEntity
  8
L1_35
  6
CONTINUOUS
 62
         4
100
AcDbLine
 10
1409.1914513001
 20
11.694906734
 30
0.0
 11
1416.3282098256
 21
18.8316652595
 31
0.0
  0
LINE
  5
2C4
100
AcDbEntity
  8
L1_35
  6
CONTINUOUS
 62
         4
100
AcDbLine
 10
1363.4205582049
 20
-29.833345674
 30
0.0
 11
1373.3105691383
 21
-19.9433347407
 31
0.0
  0
LINE
  5
2C5
100
AcDbEntity
  8
L1_35
  6
CONTINUOUS
 62
         4
100
AcDbLine
 10
1387.3105691383
 20
-5.9433347407
 30
0.0
 11
1402.5105691383
 21
9.2566652593
 31
0.0
  0
LINE
  5
2C6
100
AcDbEntity
  8
L1_35
  6
CONTINUOUS
 62
         4
100
AcDbLine
 10
1403.2033403763
 20
9.9494364973
 30
0.0
 11
1404.542039816
 21
11.2881359371
 31
0.0
  0
LINE
  5
2C7
100
AcDbEntity
  8
L1_35
  6
CONTINUOUS
 62
         4
100
AcDbLine
 10
1406.6960849452
 20
13.4421810662
 30
0.0
 11
1409.2209554573
 21
15.9670515783
 31
0.0
  0
LINE
  5
2C8
100
AcDbEntity
  8
L1_35
  6
CONTINUOUS
 62
         4
100
AcDbLine
 10
1359.7178899689
 20
-29.2933732229
 30
0.0
 11
1369.0679284512
 21
-19.9433347407
 31
0.0
  0
LINE
  5
2C9
100
AcDbEntity
  8
L1_35
  6
CONTINUOUS
 62
         4
100
AcDbLine
 10
1383.0679284512
 20
-5.9433347407
 30
0.0
 11
1398.000906903
 21
8.9896437111
 31
0.0
  0
LINE
  5
2CA
100
AcDbEntity
  8
L1_35
  6
CONTINUOUS
 62
         4
100
AcDbLine
 10
1404.595626864
 20
15.5843636722
 30
0.0
 11
1407.6680411867
 21
18.6567779948
 31
0.0
  0
LINE
  5
2CB
100
AcDbEntity
  8
L1_35
  6
CONTINUOUS
 62
         4
100
AcDbLine
 10
1356.0152217329
 20
-28.7534007718
 30
0.0
 11
1364.8252877641
 21
-19.9433347407
 31
0.0
  0
LINE
  5
2CC
100
AcDbEntity
  8
L1_35
  6
CONTINUOUS
 62
         4
100
AcDbLine
 10
1378.8252877641
 20
-5.9433347407
 30
0.0
 11
1393.0339129278
 21
8.2652904231
 31
0.0
  0
LINE
  5
2CD
100
AcDbEntity
  8
L1_35
  6
CONTINUOUS
 62
         4
100
AcDbLine
 10
1352.3125534969
 20
-28.2134283208
 30
0.0
 11
1360.5826470769
 21
-19.9433347407
 31
0.0
  0
LINE
  5
2CE
100
AcDbEntity
  8
L1_35
  6
CONTINUOUS
 62
         4
100
AcDbLine
 10
1374.5826470769
 20
-5.9433347407
 30
0.0
 11
1388.0669189527
 21
7.5409371351
 31
0.0
  0
LINE
  5
2CF
100
AcDbEntity
  8
L1_35
  6
CONTINUOUS
 62
         4
100
AcDbLine
 10
1348.6098852608
 20
-27.6734558697
 30
0.0
 11
1356.3400063898
 21
-19.9433347407
 31
0.0
  0
LINE
  5
2D0
100
AcDbEntity
  8
L1_35
  6
CONTINUOUS
 62
         4
100
AcDbLine
 10
1370.3400063898
 20
-5.9433347407
 30
0.0
 11
1383.0999249775
 21
6.816583847
 31
0.0
  0
LINE
  5
2D1
100
AcDbEntity
  8
L1_35
  6
CONTINUOUS
 62
         4
100
AcDbLine
 10
1344.9072170248
 20
-27.1334834186
 30
0.0
 11
1352.0973657027
 21
-19.9433347407
 31
0.0
  0
LINE
  5
2D2
100
AcDbEntity
  8
L1_35
  6
CONTINUOUS
 62
         4
100
AcDbLine
 10
1366.0973657027
 20
-5.9433347407
 30
0.0
 11
1378.1329310023
 21
6.092230559
 31
0.0
  0
LINE
  5
2D3
100
AcDbEntity
  8
L1_35
  6
CONTINUOUS
 62
         4
100
AcDbLine
 10
1341.2045487888
 20
-26.5935109675
 30
0.0
 11
1347.8547250156
 21
-19.9433347407
 31
0.0
  0
LINE
  5
2D4
100
AcDbEntity
  8
L1_35
  6
CONTINUOUS
 62
         4
100
AcDbLine
 10
1361.8547250156
 20
-5.9433347407
 30
0.0
 11
1373.1659370272
 21
5.3678772709
 31
0.0
  0
LINE
  5
2D5
100
AcDbEntity
  8
L1_35
  6
CONTINUOUS
 62
         4
100
AcDbLine
 10
1337.5018805527
 20
-26.0535385164
 30
0.0
 11
1343.6120843285
 21
-19.9433347407
 31
0.0
  0
LINE
  5
2D6
100
AcDbEntity
  8
L1_35
  6
CONTINUOUS
 62
         4
100
AcDbLine
 10
1357.6120843285
 20
-5.9433347407
 30
0.0
 11
1368.198943052
 21
4.6435239829
 31
0.0
  0
LINE
  5
2D7
100
AcDbEntity
  8
L1_35
  6
CONTINUOUS
 62
         4
100
AcDbLine
 10
1333.7992123167
 20
-25.5135660653
 30
0.0
 11
1339.3694436413
 21
-19.9433347407
 31
0.0
  0
LINE
  5
2D8
100
AcDbEntity
  8
L1_35
  6
CONTINUOUS
 62
         4
100
AcDbLine
 10
1353.3694436413
 20
-5.9433347407
 30
0.0
 11
1363.2319490768
 21
3.9191706948
 31
0.0
  0
LINE
  5
2D9
100
AcDbEntity
  8
L1_35
  6
CONTINUOUS
 62
         4
100
AcDbLine
 10
1331.7533403763
 20
-23.3167973186
 30
0.0
 11
1333.9768029542
 21
-21.0933347407
 31
0.0
  0
LINE
  5
2DA
100
AcDbEntity
  8
L1_35
  6
CONTINUOUS
 62
         4
100
AcDbLine
 10
1349.1268029542
 20
-5.9433347407
 30
0.0
 11
1358.2649551017
 21
3.1948174068
 31
0.0
  0
LINE
  5
2DB
100
AcDbEntity
  8
L1_35
  6
CONTINUOUS
 62
         4
100
AcDbLine
 10
1344.8841622671
 20
-5.9433347407
 30
0.0
 11
1353.2979611265
 21
2.4704641187
 31
0.0
  0
LINE
  5
2DC
100
AcDbEntity
  8
L1_35
  6
CONTINUOUS
 62
         4
100
AcDbLine
 10
1340.64152158
 20
-5.9433347407
 30
0.0
 11
1348.3309671514
 21
1.7461108307
 31
0.0
  0
LINE
  5
2DD
100
AcDbEntity
  8
L1_35
  6
CONTINUOUS
 62
         4
100
AcDbLine
 10
1337.0275319908
 20
-5.3146836427
 30
0.0
 11
1343.3639731762
 21
1.0217575427
 31
0.0
  0
LINE
  5
2DE
100
AcDbEntity
  8
L1_35
  6
CONTINUOUS
 62
         4
100
AcDbLine
 10
1333.3062402057
 20
-4.7933347407
 30
0.0
 11
1338.396979201
 21
0.2974042546
 31
0.0
  0
LINE
  5
2DF
100
AcDbEntity
  8
L1_35
  6
CONTINUOUS
 62
         4
100
AcDbLine
 10
1331.7533403763
 20
-2.103593883
 30
0.0
 11
1333.4299852259
 21
-0.4269490334
 31
0.0
  0
ENDBLK
  5
2E0
100
AcDbEntity
  8
0
  6
CONTINUOUS
100
AcDbBlockEnd
  0
BLOCK
  5
3F2
100
AcDbEntity
  8
0
100
AcDbBlockBegin
  2
*D3
 70
        65
 10
0.0
 20
0.0
 30
0.0
  3
*D3
  1

  0
POINT
  5
3F4
100
AcDbEntity
  8
DEFPOINTS
  6
CONTINUOUS
 62
         0
100
AcDbPoint
 10
1478.1105429096
 20
81.2401781559
 30
0.0
  0
POINT
  5
3F5
100
AcDbEntity
  8
DEFPOINTS
  6
CONTINUOUS
 62
         0
100
AcDbPoint
 10
1478.1105429096
 20
73.4748887398
 30
0.0
  0
POINT
  5
3F6
100
AcDbEntity
  8
DEFPOINTS
  6
CONTINUOUS
 62
         0
100
AcDbPoint
 10
1484.4605429096
 20
73.4748887398
 30
0.0
  0
LINE
  5
3F7
100
AcDbEntity
  8
L1_35
  6
CONTINUOUS
 62
         4
100
AcDbLine
 10
1478.1105429096
 20
74.8248887398
 30
0.0
 11
1478.1105429096
 21
81.9151781559
 31
0.0
  0
LINE
  5
3F8
100
AcDbEntity
  8
L1_35
  6
CONTINUOUS
 62
         4
100
AcDbLine
 10
1484.4605429096
 20
74.8248887398
 30
0.0
 11
1484.4605429096
 21
81.9151781559
 31
0.0
  0
LINE
  5
3F9
100
AcDbEntity
  8
L1_35
  6
CONTINUOUS
 62
         4
100
AcDbLine
 10
1478.1105429096
 20
81.2401781559
 30
0.0
 11
1484.4605429096
 21
81.2401781559
 31
0.0
  0
SOLID
  5
3FA
100
AcDbEntity
  8
L1_35
  6
CONTINUOUS
 62
         4
100
AcDbTrace
 10
1478.1105429096
 20
81.2401781559
 30
0.0
 11
1480.8105429096
 21
81.6451781559
 31
0.0
 12
1480.8105429096
 22
80.8351781559
 32
0.0
 13
1478.1105429096
 23
81.2401781559
 33
0.0
  0
LINE
  5
3FB
100
AcDbEntity
  8
L1_35
  6
CONTINUOUS
 62
         4
100
AcDbLine
 10
1484.4605429096
 20
81.2401781559
 30
0.0
 11
1475.4497689765
 21
81.2401781559
 31
0.0
  0
SOLID
  5
3FC
100
AcDbEntity
  8
L1_35
  6
CONTINUOUS
 62
         4
100
AcDbTrace
 10
1484.4605429096
 20
81.2401781559
 30
0.0
 11
1481.7605429096
 21
80.8351781559
 31
0.0
 12
1481.7605429096
 22
81.6451781559
 32
0.0
 13
1484.4605429096
 23
81.2401781559
 33
0.0
  0
TEXT
  5
3FE
100
AcDbEntity
  8
L1_35
  6
CONTINUOUS
 62
         4
100
AcDbText
 10
1476.7997689765
 20
83.2651781559
 30
0.0
 40
2.7
  1
5/16"-24UNF
  7
BOX
100
AcDbText
  0
ENDBLK
  5
3FF
100
AcDbEntity
  8
0
  6
CONTINUOUS
100
AcDbBlockEnd
  0
BLOCK
  5
401
100
AcDbEntity
  8
0
100
AcDbBlockBegin
  2
*D4
 70
        65
 10
0.0
 20
0.0
 30
0.0
  3
*D4
  1

  0
POINT
  5
403
100
AcDbEntity
  8
DEFPOINTS
  6
CONTINUOUS
 62
         0
100
AcDbPoint
 10
1468.942628502
 20
66.3998887398
 30
0.0
  0
POINT
  5
404
100
AcDbEntity
  8
DEFPOINTS
  6
CONTINUOUS
 62
         0
100
AcDbPoint
 10
1479.0355429096
 20
66.3998887398
 30
0.0
  0
POINT
  5
405
100
AcDbEntity
  8
DEFPOINTS
  6
CONTINUOUS
 62
         0
100
AcDbPoint
 10
1479.0355429096
 20
74.3998887398
 30
0.0
  0
LINE
  5
406
100
AcDbEntity
  8
L1_35
  6
CONTINUOUS
 62
         4
100
AcDbLine
 10
1477.6855429096
 20
66.3998887398
 30
0.0
 11
1468.267628502
 21
66.3998887398
 31
0.0
  0
LINE
  5
407
100
AcDbEntity
  8
L1_35
  6
CONTINUOUS
 62
         4
100
AcDbLine
 10
1477.6855429096
 20
74.3998887398
 30
0.0
 11
1468.267628502
 21
74.3998887398
 31
0.0
  0
LINE
  5
408
100
AcDbEntity
  8
L1_35
  6
CONTINUOUS
 62
         4
100
AcDbLine
 10
1468.942628502
 20
66.3998887398
 30
0.0
 11
1468.942628502
 21
74.3998887398
 31
0.0
  0
SOLID
  5
409
100
AcDbEntity
  8
L1_35
  6
CONTINUOUS
 62
         4
100
AcDbTrace
 10
1468.942628502
 20
66.3998887398
 30
0.0
 11
1468.537628502
 21
69.0998887398
 31
0.0
 12
1469.347628502
 22
69.0998887398
 32
0.0
 13
1468.942628502
 23
66.3998887398
 33
0.0
  0
SOLID
  5
40A
100
AcDbEntity
  8
L1_35
  6
CONTINUOUS
 62
         4
100
AcDbTrace
 10
1468.942628502
 20
74.3998887398
 30
0.0
 11
1469.347628502
 21
71.6998887398
 31
0.0
 12
1468.537628502
 22
71.6998887398
 32
0.0
 13
1468.942628502
 23
74.3998887398
 33
0.0
  0
TEXT
  5
40C
100
AcDbEntity
  8
L1_35
  6
CONTINUOUS
 62
         4
100
AcDbText
 10
1466.917628502
 20
66.118555852
 30
0.0
 40
2.7
  1
6.6
 50
90.0
  7
BOX
100
AcDbText
  0
ENDBLK
  5
40D
100
AcDbEntity
  8
0
  6
CONTINUOUS
100
AcDbBlockEnd
  0
BLOCK
  5
40F
100
AcDbEntity
  8
0
100
AcDbBlockBegin
  2
*D5
 70
        65
 10
0.0
 20
0.0
 30
0.0
  3
*D5
  1

  0
POINT
  5
411
100
AcDbEntity
  8
DEFPOINTS
  6
CONTINUOUS
 62
         0
100
AcDbPoint
 10
1479.4380220482
 20
57.4139007043
 30
0.0
  0
POINT
  5
412
100
AcDbEntity
  8
DEFPOINTS
  6
CONTINUOUS
 62
         0
100
AcDbPoint
 10
1479.4380220482
 20
66.3998887398
 30
0.0
  0
POINT
  5
413
100
AcDbEntity
  8
DEFPOINTS
  6
CONTINUOUS
 62
         0
100
AcDbPoint
 10
1483.133063771
 20
66.3998887398
 30
0.0
  0
LINE
  5
414
100
AcDbEntity
  8
L1_35
  6
CONTINUOUS
 62
         4
100
AcDbLine
 10
1479.4380220482
 20
65.0498887398
 30
0.0
 11
1479.4380220482
 21
56.7389007043
 31
0.0
  0
LINE
  5
415
100
AcDbEntity
  8
L1_35
  6
CONTINUOUS
 62
         4
100
AcDbLine
 10
1483.133063771
 20
65.0498887398
 30
0.0
 11
1483.133063771
 21
56.7389007043
 31
0.0
  0
LINE
  5
416
100
AcDbEntity
  8
L1_35
  6
CONTINUOUS
 62
         4
100
AcDbLine
 10
1479.4380220482
 20
57.4139007043
 30
0.0
 11
1474.0380220482
 21
57.4139007043
 31
0.0
  0
SOLID
  5
417
100
AcDbEntity
  8
L1_35
  6
CONTINUOUS
 62
         4
100
AcDbTrace
 10
1479.4380220482
 20
57.4139007043
 30
0.0
 11
1476.7380220482
 21
57.0089007043
 31
0.0
 12
1476.7380220482
 22
57.8189007043
 32
0.0
 13
1479.4380220482
 23
57.4139007043
 33
0.0
  0
LINE
  5
418
100
AcDbEntity
  8
L1_35
  6
CONTINUOUS
 62
         4
100
AcDbLine
 10
1483.133063771
 20
57.4139007043
 30
0.0
 11
1504.0872446223
 21
57.4139007043
 31
0.0
  0
SOLID
  5
419
100
AcDbEntity
  8
L1_35
  6
CONTINUOUS
 62
         4
100
AcDbTrace
 10
1483.133063771
 20
57.4139007043
 30
0.0
 11
1485.833063771
 21
57.8189007043
 31
0.0
 12
1485.833063771
 22
57.0089007043
 32
0.0
 13
1483.133063771
 23
57.4139007043
 33
0.0
  0
LINE
  5
41A
100
AcDbEntity
  8
L1_35
  6
CONTINUOUS
 62
         4
100
AcDbLine
 10
1479.4380220482
 20
57.4139007043
 30
0.0
 11
1483.133063771
 21
57.4139007043
 31
0.0
  0
TEXT
  5
41C
100
AcDbEntity
  8
L1_35
  6
CONTINUOUS
 62
         4
100
AcDbText
 10
1486.5372446223
 20
59.4389007043
 30
0.0
 40
2.7
  1
3.2Hex
  7
BOX
100
AcDbText
  0
ENDBLK
  5
41D
100
AcDbEntity
  8
0
  6
CONTINUOUS
100
AcDbBlockEnd
  0
BLOCK
  5
424
100
AcDbEntity
  8
0
100
AcDbBlockBegin
  2
*D6
 70
        65
 10
0.0
 20
0.0
 30
0.0
  3
*D6
  1

  0
POINT
  5
426
100
AcDbEntity
  8
DEFPOINTS
  6
CONTINUOUS
 62
         0
100
AcDbPoint
 10
1331.7533403763
 20
221.7771072915
 30
0.0
  0
POINT
  5
427
100
AcDbEntity
  8
DEFPOINTS
  6
CONTINUOUS
 62
         0
100
AcDbPoint
 10
1331.7533403763
 20
161.4188234458
 30
0.0
  0
POINT
  5
428
100
AcDbEntity
  8
DEFPOINTS
  6
CONTINUOUS
 62
         0
100
AcDbPoint
 10
1435.0033403763
 20
150.1846417294
 30
0.0
  0
LINE
  5
429
100
AcDbEntity
  8
L1_35
  6
CONTINUOUS
 62
         4
100
AcDbLine
 10
1331.7533403763
 20
162.7688234458
 30
0.0
 11
1331.7533403763
 21
222.4521072915
 31
0.0
  0
LINE
  5
42A
100
AcDbEntity
  8
L1_35
  6
CONTINUOUS
 62
         4
100
AcDbLine
 10
1435.0033403763
 20
151.5346417294
 30
0.0
 11
1435.0033403763
 21
222.4521072915
 31
0.0
  0
LINE
  5
42B
100
AcDbEntity
  8
L1_35
  6
CONTINUOUS
 62
         4
100
AcDbLine
 10
1331.7533403763
 20
221.7771072915
 30
0.0
 11
1435.0033403763
 21
221.7771072915
 31
0.0
  0
SOLID
  5
42C
100
AcDbEntity
  8
L1_35
  6
CONTINUOUS
 62
         4
100
AcDbTrace
 10
1331.7533403763
 20
221.7771072915
 30
0.0
 11
1334.4533403763
 21
222.1821072915
 31
0.0
 12
1334.4533403763
 22
221.3721072915
 32
0.0
 13
1331.7533403763
 23
221.7771072915
 33
0.0
  0
SOLID
  5
42D
100
AcDbEntity
  8
L1_35
  6
CONTINUOUS
 62
         4
100
AcDbTrace
 10
1435.0033403763
 20
221.7771072915
 30
0.0
 11
1432.3033403763
 21
221.3721072915
 31
0.0
 12
1432.3033403763
 22
222.1821072915
 32
0.0
 13
1435.0033403763
 23
221.7771072915
 33
0.0
  0
TEXT
  5
42F
100
AcDbEntity
  8
L1_35
  6
CONTINUOUS
 62
         4
100
AcDbText
 10
1378.998336827
 20
223.8021072915
 30
0.0
 40
2.7
  1
103.25
  7
BOX
100
AcDbText
  0
ENDBLK
  5
430
100
AcDbEntity
  8
0
  6
CONTINUOUS
100
AcDbBlockEnd
  0
BLOCK
  5
432
100
AcDbEntity
  8
0
100
AcDbBlockBegin
  2
*D7
 70
        65
 10
0.0
 20
0.0
 30
0.0
  3
*D7
  1

  0
POINT
  5
434
100
AcDbEntity
  8
DEFPOINTS
  6
CONTINUOUS
 62
         0
100
AcDbPoint
 10
1400.0033403763
 20
214.1642290074
 30
0.0
  0
POINT
  5
435
100
AcDbEntity
  8
DEFPOINTS
  6
CONTINUOUS
 62
         0
100
AcDbPoint
 10
1400.0033403763
 20
172.4096417294
 30
0.0
  0
POINT
  5
436
100
AcDbEntity
  8
DEFPOINTS
  6
CONTINUOUS
 62
         0
100
AcDbPoint
 10
1435.0033403763
 20
150.1846417294
 30
0.0
  0
LINE
  5
437
100
AcDbEntity
  8
L1_35
  6
CONTINUOUS
 62
         4
100
AcDbLine
 10
1400.0033403763
 20
173.7596417294
 30
0.0
 11
1400.0033403763
 21
214.8392290074
 31
0.0
  0
LINE
  5
438
100
AcDbEntity
  8
L1_35
  6
CONTINUOUS
 62
         4
100
AcDbLine
 10
1435.0033403763
 20
151.5346417294
 30
0.0
 11
1435.0033403763
 21
214.8392290074
 31
0.0
  0
LINE
  5
439
100
AcDbEntity
  8
L1_35
  6
CONTINUOUS
 62
         4
100
AcDbLine
 10
1400.0033403763
 20
214.1642290074
 30
0.0
 11
1435.0033403763
 21
214.1642290074
 31
0.0
  0
SOLID
  5
43A
100
AcDbEntity
  8
L1_35
  6
CONTINUOUS
 62
         4
100
AcDbTrace
 10
1400.0033403763
 20
214.1642290074
 30
0.0
 11
1402.7033403763
 21
214.5692290074
 31
0.0
 12
1402.7033403763
 22
213.7592290074
 32
0.0
 13
1400.0033403763
 23
214.1642290074
 33
0.0
  0
SOLID
  5
43B
100
AcDbEntity
  8
L1_35
  6
CONTINUOUS
 62
         4
100
AcDbTrace
 10
1435.0033403763
 20
214.1642290074
 30
0.0
 11
1432.3033403763
 21
213.7592290074
 31
0.0
 12
1432.3033403763
 22
214.5692290074
 32
0.0
 13
1435.0033403763
 23
214.1642290074
 33
0.0
  0
TEXT
  5
43D
100
AcDbEntity
  8
L1_35
  6
CONTINUOUS
 62
         4
100
AcDbText
 10
1414.0039745984
 20
216.1892290074
 30
0.0
 40
2.7
  1
35
  7
BOX
100
AcDbText
  0
ENDBLK
  5
43E
100
AcDbEntity
  8
0
  6
CONTINUOUS
100
AcDbBlockEnd
  0
BLOCK
  5
443
100
AcDbEntity
  8
0
100
AcDbBlockBegin
  2
*D8
 70
        65
 10
0.0
 20
0.0
 30
0.0
  3
*D8
  1

  0
POINT
  5
445
100
AcDbEntity
  8
DEFPOINTS
  6
CONTINUOUS
 62
         0
100
AcDbPoint
 10
1435.0033403763
 20
-58.3793078904
 30
0.0
  0
POINT
  5
446
100
AcDbEntity
  8
DEFPOINTS
  6
CONTINUOUS
 62
         0
100
AcDbPoint
 10
1435.0033403763
 20
-20.9877293495
 30
0.0
  0
POINT
  5
447
100
AcDbEntity
  8
DEFPOINTS
  6
CONTINUOUS
 62
         0
100
AcDbPoint
 10
1405.0033403763
 20
-16.9123347407
 30
0.0
  0
LINE
  5
448
100
AcDbEntity
  8
L1_35
  6
CONTINUOUS
 62
         4
100
AcDbLine
 10
1435.0033403763
 20
-22.3377293495
 30
0.0
 11
1435.0033403763
 21
-59.0543078904
 31
0.0
  0
LINE
  5
449
100
AcDbEntity
  8
L1_35
  6
CONTINUOUS
 62
         4
100
AcDbLine
 10
1405.0033403763
 20
-18.2623347407
 30
0.0
 11
1405.0033403763
 21
-59.0543078904
 31
0.0
  0
LINE
  5
44A
100
AcDbEntity
  8
L1_35
  6
CONTINUOUS
 62
         4
100
AcDbLine
 10
1435.0033403763
 20
-58.3793078904
 30
0.0
 11
1405.0033403763
 21
-58.3793078904
 31
0.0
  0
SOLID
  5
44B
100
AcDbEntity
  8
L1_35
  6
CONTINUOUS
 62
         4
100
AcDbTrace
 10
1435.0033403763
 20
-58.3793078904
 30
0.0
 11
1432.3033403763
 21
-58.7843078904
 31
0.0
 12
1432.3033403763
 22
-57.9743078904
 32
0.0
 13
1435.0033403763
 23
-58.3793078904
 33
0.0
  0
SOLID
  5
44C
100
AcDbEntity
  8
L1_35
  6
CONTINUOUS
 62
         4
100
AcDbTrace
 10
1405.0033403763
 20
-58.3793078904
 30
0.0
 11
1407.7033403763
 21
-57.9743078904
 31
0.0
 12
1407.7033403763
 22
-58.7843078904
 32
0.0
 13
1405.0033403763
 23
-58.3793078904
 33
0.0
  0
TEXT
  5
44E
100
AcDbEntity
  8
L1_35
  6
CONTINUOUS
 62
         4
100
AcDbText
 10
1413.8218457885
 20
-56.3543078904
 30
0.0
 40
2.7
  1
30
  7
BOX
100
AcDbText
  0
ENDBLK
  5
44F
100
AcDbEntity
  8
0
  6
CONTINUOUS
100
AcDbBlockEnd
  0
ENDSEC
  0
SECTION
  2
ENTITIES
  0
DIMENSION
  5
2D
100
AcDbEntity
  8
L1_35
  6
CONTINUOUS
 62
         4
100
AcDbDimension
  2
*D0
 10
1462.5304745941
 20
162.8846417294
 30
0.0
 11
1459.3984745941
 21
137.6458827141
 31
0.0
  3
DIMSTYLE1
100
AcDbAlignedDimension
 13
1426.6252754451
 23
162.8846417294
 33
0.0
 14
1426.6252754451
 24
137.4846417294
 34
0.0
 50
90.0
100
AcDbRotatedDimension
  0
DIMENSION
  5
40
100
AcDbEntity
  8
L1_35
  6
CONTINUOUS
 62
         4
100
AcDbDimension
  2
*D1
 10
1453.2601679246
 20
159.1846417294
 30
0.0
 11
1451.2351679246
 21
145.6061855413
 31
0.0
  3
DIMSTYLE1
100
AcDbAlignedDimension
 13
1435.0033403763
 23
159.1846417294
 33
0.0
 14
1435.0033403763
 24
141.1846417294
 34
0.0
 50
90.0
100
AcDbRotatedDimension
  0
LINE
  5
4C
100
AcDbEntity
  8
L1_35
  6
DASHED
 62
         2
100
AcDbLine
 10
1645.5833403763
 20
155.1846417294
 30
0.0
 11
1646.0833403763
 21
155.6846417294
 31
0.0
  0
LINE
  5
4D
100
AcDbEntity
  8
L1_35
  6
DASHED
 62
         2
100
AcDbLine
 10
1645.5833403763
 20
145.1846417294
 30
0.0
 11
1646.0833403763
 21
144.6846417294
 31
0.0
  0
LINE
  5
4E
100
AcDbEntity
  8
L1_35
  6
DASHED
 62
         2
100
AcDbLine
 10
1645.5833403763
 20
145.1846417294
 30
0.0
 11
1645.5833403763
 21
155.1846417294
 31
0.0
  0
LINE
  5
4F
100
AcDbEntity
  8
L1_35
  6
DASHED
 62
         2
100
AcDbLine
 10
1645.5833403763
 20
155.1846417294
 30
0.0
 11
1639.4093403763
 21
155.1846417294
 31
0.0
  0
LINE
  5
50
100
AcDbEntity
  8
L1_35
  6
DASHED
 62
         2
100
AcDbLine
 10
1636.5225890303
 20
150.1846417294
 30
0.0
 11
1639.4093403763
 21
155.1846417294
 31
0.0
  0
LINE
  5
51
100
AcDbEntity
  8
L1_35
  6
DASHED
 62
         2
100
AcDbLine
 10
1639.4093403763
 20
145.1846417294
 30
0.0
 11
1636.5225890303
 21
150.1846417294
 31
0.0
  0
LINE
  5
52
100
AcDbEntity
  8
L1_35
  6
DASHED
 62
         2
100
AcDbLine
 10
1639.4093403763
 20
145.1846417294
 30
0.0
 11
1639.4093403763
 21
155.1846417294
 31
0.0
  0
LINE
  5
53
100
AcDbEntity
  8
L1_35
  6
CONTINUOUS
 62
         7
100
AcDbLine
 10
1646.0833403763
 20
144.6846417294
 30
0.0
 11
1646.0833403763
 21
155.6846417294
 31
0.0
  0
LINE
  5
54
100
AcDbEntity
  8
L1_35
  6
DASHED
 62
         2
100
AcDbLine
 10
1645.5833403763
 20
145.1846417294
 30
0.0
 11
1639.4093403763
 21
145.1846417294
 31
0.0
  0
LINE
  5
55
100
AcDbEntity
  8
L1_35
  6
CONTINUOUS
 62
         7
100
AcDbLine
 10
1611.6090095603
 20
145.1846417294
 30
0.0
 11
1598.2833403762
 21
145.1846417294
 31
0.0
  0
LINE
  5
56
100
AcDbEntity
  8
L1_35
  6
CONTINUOUS
 62
         7
100
AcDbLine
 10
1611.8360699592
 20
144.6846417294
 30
0.0
 11
1598.2833403762
 21
144.6846417294
 31
0.0
  0
LINE
  5
57
100
AcDbEntity
  8
L1_35
  6
CONTINUOUS
 62
         7
100
AcDbLine
 10
1611.6090095603
 20
155.1846417294
 30
0.0
 11
1598.2833403762
 21
155.1846417294
 31
0.0
  0
LINE
  5
58
100
AcDbEntity
  8
L1_35
  6
CONTINUOUS
 62
         7
100
AcDbLine
 10
1611.8360699592
 20
155.6846417294
 30
0.0
 11
1598.2833403762
 21
155.6846417294
 31
0.0
  0
CIRCLE
  5
59
100
AcDbEntity
  8
L1_35
  6
CONTINUOUS
 62
         7
100
AcDbCircle
 10
1623.2833403763
 20
150.1846417294
 30
0.0
 40
12.7
  0
CIRCLE
  5
5A
100
AcDbEntity
  8
L1_35
  6
CONTINUOUS
 62
         7
100
AcDbCircle
 10
1623.2833403763
 20
150.1846417294
 30
0.0
 40
9.0
  0
CIRCLE
  5
5B
100
AcDbEntity
  8
L1_35
  6
CONTINUOUS
 62
         7
100
AcDbCircle
 10
1623.2833403763
 20
150.1846417294
 30
0.0
 40
3.969
  0
LINE
  5
5C
100
AcDbEntity
  8
L1_35
  6
DASHED
 62
         2
100
AcDbLine
 10
1612.1156667303
 20
153.6346417294
 30
0.0
 11
1621.3210812191
 21
153.6346417294
 31
0.0
  0
LINE
  5
5D
100
AcDbEntity
  8
L1_35
  6
DASHED
 62
         2
100
AcDbLine
 10
1611.6156667303
 20
154.1346417294
 30
0.0
 11
1622.8954473498
 21
154.1346417294
 31
0.0
  0
LINE
  5
5E
100
AcDbEntity
  8
L1_35
  6
DASHED
 62
         2
100
AcDbLine
 10
1612.1156667303
 20
146.7346417294
 30
0.0
 11
1621.3210812191
 21
146.7346417294
 31
0.0
  0
LINE
  5
5F
100
AcDbEntity
  8
L1_35
  6
DASHED
 62
         2
100
AcDbLine
 10
1611.6156667303
 20
146.2346417294
 30
0.0
 11
1622.8954473498
 21
146.2346417294
 31
0.0
  0
LINE
  5
60
100
AcDbEntity
  8
L1_35
  6
DASHED
 62
         2
100
AcDbLine
 10
1612.1156667303
 20
146.7346417294
 30
0.0
 11
1612.1156667303
 21
153.6346417294
 31
0.0
  0
LINE
  5
61
100
AcDbEntity
  8
L1_35
  6
DASHED
 62
         2
100
AcDbLine
 10
1611.3155962056
 20
145.9345712047
 30
0.0
 11
1612.1156667303
 21
146.7346417294
 31
0.0
  0
LINE
  5
62
100
AcDbEntity
  8
L1_35
  6
DASHED
 62
         2
100
AcDbLine
 10
1612.1156667303
 20
153.6346417294
 30
0.0
 11
1611.3155962056
 21
154.4347122541
 31
0.0
  0
CIRCLE
  5
63
100
AcDbEntity
  8
L1_35
  6
CONTINUOUS
 62
         7
100
AcDbCircle
 10
1623.2833403763
 20
150.1846417294
 30
0.0
 40
3.969
  0
LINE
  5
64
100
AcDbEntity
  8
L1_35
  6
CONTINUOUS
 62
         7
100
AcDbLine
 10
1419.1033403763
 20
-28.6433347407
 30
0.0
 11
1419.1033403763
 21
-43.7183347409
 31
0.0
  0
ARC
  5
65
100
AcDbEntity
  8
L1_35
  6
CONTINUOUS
 62
         7
100
AcDbCircle
 10
1422.1033403763
 20
-28.6433347407
 30
0.0
 40
3.0
100
AcDbArc
 50
90.0
 51
180.0
  0
ARC
  5
66
100
AcDbEntity
  8
L1_35
  6
CONTINUOUS
 62
         7
100
AcDbCircle
 10
1426.6252754451
 20
-23.6433347407
 30
0.0
 40
2.0
100
AcDbArc
 50
270.0
 51
295.0
  0
LINE
  5
67
100
AcDbEntity
  8
L1_35
  6
CONTINUOUS
 62
         7
100
AcDbLine
 10
1426.6252754451
 20
-25.6433347407
 30
0.0
 11
1412.7533403763
 21
-25.6433347407
 31
0.0
  0
LINE
  5
68
100
AcDbEntity
  8
L1_35
  6
CONTINUOUS
 62
         7
100
AcDbLine
 10
1427.4705119686
 20
-25.4559503147
 30
0.0
 11
1434.1372677689
 21
-22.34719103
 31
0.0
  0
ARC
  5
69
100
AcDbEntity
  8
L1_35
  6
CONTINUOUS
 62
         7
100
AcDbCircle
 10
1433.5033403763
 20
-20.9877293495
 30
0.0
 40
1.5
100
AcDbArc
 50
295.0
 51
360.0
  0
LINE
  5
6A
100
AcDbEntity
  8
L1_35
  6
CONTINUOUS
 62
         7
100
AcDbLine
 10
1435.0033403763
 20
-20.9877293495
 30
0.0
 11
1435.0033403763
 21
-4.8989401319
 31
0.0
  0
ARC
  5
6B
100
AcDbEntity
  8
L1_35
  6
CONTINUOUS
 62
         7
100
AcDbCircle
 10
1433.5033403763
 20
-4.8989401319
 30
0.0
 40
1.5
100
AcDbArc
 50
0.0
 51
65.0
  0
ARC
  5
6C
100
AcDbEntity
  8
L1_35
  6
CONTINUOUS
 62
         7
100
AcDbCircle
 10
1426.6252754451
 20
-2.2433347407
 30
0.0
 40
2.0
100
AcDbArc
 50
65.0
 51
90.0
  0
LINE
  5
6D
100
AcDbEntity
  8
L1_35
  6
CONTINUOUS
 62
         7
100
AcDbLine
 10
1427.4705119686
 20
-0.4307191666
 30
0.0
 11
1434.1372677689
 21
-3.5394784513
 31
0.0
  0
LINE
  5
6E
100
AcDbEntity
  8
L1_35
  6
CONTINUOUS
 62
         7
100
AcDbLine
 10
1426.6252754451
 20
-0.2433347407
 30
0.0
 11
1422.1033403763
 21
-0.2433347407
 31
0.0
  0
LINE
  5
6F
100
AcDbEntity
  8
L1_35
  6
CONTINUOUS
 62
         7
100
AcDbLine
 10
1419.1033403763
 20
17.8316652595
 30
0.0
 11
1419.1033403763
 21
2.7566652593
 31
0.0
  0
ARC
  5
70
100
AcDbEntity
  8
L1_35
  6
CONTINUOUS
 62
         7
100
AcDbCircle
 10
1422.1033403763
 20
2.7566652593
 30
0.0
 40
3.0
100
AcDbArc
 50
180.0
 51
270.0
  0
LINE
  5
71
100
AcDbEntity
  8
_X______
  6
CENTER
 62
         1
100
AcDbLine
 10
1411.1033403763
 20
18.9531464901
 30
0.0
 11
1411.1033403763
 21
-7.3551607062
 31
0.0
  0
LINE
  5
72
100
AcDbEntity
  8
_X______
  6
CONTINUOUS
 62
         7
100
AcDbLine
 10
1419.1033403763
 20
17.168112913
 30
0.0
 11
1413.1229876318
 21
10.0410060449
 31
0.0
  0
LINE
  5
73
100
AcDbEntity
  8
_X______
  6
CONTINUOUS
 62
         7
100
AcDbLine
 10
1419.1033403763
 20
10.9452176056
 30
0.0
 11
1416.1871654043
 21
7.4698556061
 31
0.0
  0
LINE
  5
74
100
AcDbEntity
  8
_X______
  6
CENTER
 62
         1
100
AcDbLine
 10
1420.3889155956
 20
15.5887541456
 30
0.0
 11
1401.46498952
 21
-6.963902741
 31
0.0
  0
LINE
  5
75
100
AcDbEntity
  8
_X______
  6
CONTINUOUS
 62
         7
100
AcDbLine
 10
1416.1871654043
 20
7.4698556061
 30
0.0
 11
1415.7891600894
 21
7.5400346816
 31
0.0
  0
LINE
  5
76
100
AcDbEntity
  8
_X______
  6
CONTINUOUS
 62
         7
100
AcDbLine
 10
1413.1229876318
 20
10.0410060449
 30
0.0
 11
1413.2612134271
 21
9.6612337936
 31
0.0
  0
LINE
  5
77
100
AcDbEntity
  8
_X______
  6
CONTINUOUS
 62
         7
100
AcDbLine
 10
1416.1871654043
 20
7.4698556061
 30
0.0
 11
1413.1229876318
 21
10.0410060449
 31
0.0
  0
LINE
  5
78
100
AcDbEntity
  8
_X______
  6
CONTINUOUS
 62
         7
100
AcDbLine
 10
1415.7891600894
 20
7.5400346816
 30
0.0
 11
1413.2612134271
 21
9.6612337936
 31
0.0
  0
LINE
  5
79
100
AcDbEntity
  8
_X______
  6
CONTINUOUS
 62
         7
100
AcDbLine
 10
1412.1204989
 20
10.2543528191
 30
0.0
 11
1409.8261931546
 21
6.977744642
 31
0.0
  0
LINE
  5
7A
100
AcDbEntity
  8
_X______
  6
CONTINUOUS
 62
         7
100
AcDbLine
 10
1416.7937018108
 20
6.5548698073
 30
0.0
 11
1414.9008995708
 21
3.8516680612
 31
0.0
  0
LINE
  5
7B
100
AcDbEntity
  8
_X______
  6
CONTINUOUS
 62
         7
100
AcDbLine
 10
1414.9008995708
 20
3.8516680612
 30
0.0
 11
1416.6276478187
 21
4.6568639929
 31
0.0
  0
LINE
  5
7C
100
AcDbEntity
  8
_X______
  6
CONTINUOUS
 62
         7
100
AcDbLine
 10
1416.7937018108
 20
6.5548698073
 30
0.0
 11
1416.6276478187
 21
4.6568639929
 31
0.0
  0
LINE
  5
7D
100
AcDbEntity
  8
_X______
  6
CONTINUOUS
 62
         7
100
AcDbLine
 10
1410.0269449073
 20
7.2644478575
 30
0.0
 11
1410.7973968833
 21
6.724971576
 31
0.0
  0
LINE
  5
7E
100
AcDbEntity
  8
_X______
  6
CONTINUOUS
 62
         7
100
AcDbLine
 10
1413.510924421
 20
4.824939139
 30
0.0
 11
1414.9008995708
 21
3.8516680612
 31
0.0
  0
LINE
  5
7F
100
AcDbEntity
  8
_X______
  6
CONTINUOUS
 62
         7
100
AcDbLine
 10
1411.9197471473
 20
9.9676496036
 30
0.0
 11
1412.9266986313
 21
9.2625745839
 31
0.0
  0
LINE
  5
80
100
AcDbEntity
  8
_X______
  6
CONTINUOUS
 62
         7
100
AcDbLine
 10
1415.6402261689
 20
7.3625421469
 30
0.0
 11
1416.7937018108
 21
6.5548698073
 31
0.0
  0
LINE
  5
81
100
AcDbEntity
  8
_X______
  6
CONTINUOUS
 62
         7
100
AcDbLine
 10
1413.2612134271
 20
9.6612337936
 30
0.0
 11
1400.1674257253
 21
-5.9433347407
 31
0.0
  0
LINE
  5
82
100
AcDbEntity
  8
_X______
  6
CONTINUOUS
 62
         7
100
AcDbLine
 10
1415.7891600894
 20
7.5400346816
 30
0.0
 11
1404.4752697801
 21
-5.9433347407
 31
0.0
  0
LINE
  5
83
100
AcDbEntity
  8
_X______
  6
CENTER
 62
         1
100
AcDbLine
 10
1401.5650362877
 20
15.203818132
 30
0.0
 11
1416.2374742548
 21
4.9300664636
 31
0.0
  0
LINE
  5
84
100
AcDbEntity
  8
_X______
  6
CONTINUOUS
 62
         7
100
AcDbLine
 10
1403.5188074162
 20
12.0046109767
 30
0.0
 11
1410.1129813728
 21
7.3873206641
 31
0.0
  0
LINE
  5
85
100
AcDbEntity
  8
_X______
  6
CONTINUOUS
 62
         4
100
AcDbLine
 10
1405.5263249435
 20
14.8716431317
 30
0.0
 11
1412.1204989
 21
10.2543528191
 31
0.0
  0
LINE
  5
86
100
AcDbEntity
  8
_X______
  6
CONTINUOUS
 62
         4
100
AcDbLine
 10
1403.2320191981
 20
11.5950349546
 30
0.0
 11
1409.8261931546
 21
6.977744642
 31
0.0
  0
LINE
  5
87
100
AcDbEntity
  8
_X______
  6
CONTINUOUS
 62
         7
100
AcDbLine
 10
1405.2395367253
 20
14.4620671096
 30
0.0
 11
1411.8337106818
 21
9.844776797
 31
0.0
  0
LINE
  5
88
100
AcDbEntity
  8
_X______
  6
CONTINUOUS
 62
         7
100
AcDbLine
 10
1405.5550037653
 20
14.9126007339
 30
0.0
 11
1403.2033403763
 21
11.5540773524
 31
0.0
  0
LINE
  5
89
100
AcDbEntity
  8
_X______
  6
CONTINUOUS
 62
         7
100
AcDbLine
 10
1403.2033403763
 20
16.5592531663
 30
0.0
 11
1405.5550037653
 21
14.9126007339
 31
0.0
  0
LINE
  5
8A
100
AcDbEntity
  8
_X______
  6
CENTER
 62
         1
100
AcDbLine
 10
1611.2297186441
 20
174.5302820606
 30
0.0
 11
1616.8678743688
 21
176.5824029206
 31
0.0
  0
ARC
  5
8B
100
AcDbEntity
  8
_X______
  6
CONTINUOUS
 62
         7
100
AcDbCircle
 10
1613.1352026945
 20
175.2238215369
 30
0.0
 40
2.9722262277
100
AcDbArc
 50
1.2577258579
 51
20.0
  0
ARC
  5
8C
100
AcDbEntity
  8
_X______
  6
CONTINUOUS
 62
         7
100
AcDbCircle
 10
1613.6377649205
 20
175.2348552824
 30
0.0
 40
2.4695428935
100
AcDbArc
 50
340.6773100903
 51
361.2577258579
  0
ARC
  5
8D
100
AcDbEntity
  8
_X______
  6
CONTINUOUS
 62
         7
100
AcDbCircle
 10
1614.0072011885
 20
175.1053162748
 30
0.0
 40
2.0780540551
100
AcDbArc
 50
316.8239621527
 51
340.6773100903
  0
ARC
  5
8E
100
AcDbEntity
  8
_X______
  6
CONTINUOUS
 62
         7
100
AcDbCircle
 10
1614.3196641031
 20
174.8121398851
 30
0.0
 40
1.6495853065
100
AcDbArc
 50
290.0000000001
 51
316.8239621528
  0
ARC
  5
8F
100
AcDbEntity
  8
_X______
  6
CONTINUOUS
 62
         7
100
AcDbCircle
 10
1614.3196641031
 20
174.8121398851
 30
0.0
 40
1.6495853065
100
AcDbArc
 50
263.1760378472
 51
290.0
  0
ARC
  5
90
100
AcDbEntity
  8
_X______
  6
CONTINUOUS
 62
         7
100
AcDbCircle
 10
1614.3705744318
 20
175.2375733193
 30
0.0
 40
2.0780540551
100
AcDbArc
 50
239.3226899096
 51
263.1760378472
  0
ARC
  5
91
100
AcDbEntity
  8
_X______
  6
CONTINUOUS
 62
         7
100
AcDbCircle
 10
1614.5703129629
 20
175.5742750119
 30
0.0
 40
2.4695428935
100
AcDbArc
 50
218.742274142
 51
239.3226899097
  0
ARC
  5
92
100
AcDbEntity
  8
_X______
  6
CONTINUOUS
 62
         7
100
AcDbCircle
 10
1614.9623903184
 20
175.8888634444
 30
0.0
 40
2.9722262277
100
AcDbArc
 50
200.0
 51
218.742274142
  0
ARC
  5
93
100
AcDbEntity
  8
_X______
  6
CONTINUOUS
 62
         7
100
AcDbCircle
 10
1614.9623903184
 20
175.8888634444
 30
0.0
 40
2.9722262277
100
AcDbArc
 50
181.257725858
 51
200.0000000001
  0
ARC
  5
94
100
AcDbEntity
  8
_X______
  6
CONTINUOUS
 62
         7
100
AcDbCircle
 10
1614.4598280924
 20
175.8778296988
 30
0.0
 40
2.4695428935
100
AcDbArc
 50
160.6773100903
 51
181.257725858
  0
ARC
  5
95
100
AcDbEntity
  8
_X______
  6
CONTINUOUS
 62
         7
100
AcDbCircle
 10
1614.0903918245
 20
176.0073687064
 30
0.0
 40
2.0780540551
100
AcDbArc
 50
136.8239621528
 51
160.6773100904
  0
ARC
  5
96
100
AcDbEntity
  8
_X______
  6
CONTINUOUS
 62
         7
100
AcDbCircle
 10
1613.7779289098
 20
176.3005450962
 30
0.0
 40
1.6495853065
100
AcDbArc
 50
110.0
 51
136.8239621528
  0
ARC
  5
97
100
AcDbEntity
  8
_X______
  6
CONTINUOUS
 62
         7
100
AcDbCircle
 10
1613.7779289098
 20
176.3005450962
 30
0.0
 40
1.6495853065
100
AcDbArc
 50
83.1760378471
 51
109.9999999999
  0
ARC
  5
98
100
AcDbEntity
  8
_X______
  6
CONTINUOUS
 62
         7
100
AcDbCircle
 10
1613.7270185811
 20
175.8751116619
 30
0.0
 40
2.0780540551
100
AcDbArc
 50
59.3226899096
 51
83.1760378472
  0
ARC
  5
99
100
AcDbEntity
  8
_X______
  6
CONTINUOUS
 62
         7
100
AcDbCircle
 10
1613.52728005
 20
175.5384099693
 30
0.0
 40
2.4695428935
100
AcDbArc
 50
38.742274142
 51
59.3226899097
  0
ARC
  5
9A
100
AcDbEntity
  8
_X______
  6
CONTINUOUS
 62
         7
100
AcDbCircle
 10
1613.1352026945
 20
175.2238215369
 30
0.0
 40
2.9722262277
100
AcDbArc
 50
20.0
 51
38.742274142
  0
POLYLINE
  5
9C
100
AcDbEntity
  8
_X______
  6
CONTINUOUS
 62
         7
100
AcDb3dPolyline
 66
         1
 10
0.0
 20
0.0
 30
0.0
 70
         8
  0
VERTEX
  5
9E
100
AcDbEntity
  8
_X______
  6
CONTINUOUS
 62
         7
100
AcDbVertex
100
AcDb3dPolylineVertex
 10
1615.928181748
 20
176.2403827773
 30
0.0
 70
        32
  0
VERTEX
  5
A0
100
AcDbEntity
  8
_X______
  6
CONTINUOUS
 62
         7
100
AcDbVertex
100
AcDb3dPolylineVertex
 10
1615.928181748
 20
176.2403827773
 30
0.0
 70
        32
  0
SEQEND
  5
A2
100
AcDbEntity
  8
_X______
  6
CONTINUOUS
 62
         7
  0
POLYLINE
  5
A4
100
AcDbEntity
  8
_X______
  6
CONTINUOUS
 62
         7
100
AcDb3dPolyline
 66
         1
 10
0.0
 20
0.0
 30
0.0
 70
         8
  0
VERTEX
  5
A6
100
AcDbEntity
  8
_X______
  6
CONTINUOUS
 62
         7
100
AcDbVertex
100
AcDb3dPolylineVertex
 10
1616.1067128429
 20
175.2890609943
 30
0.0
 70
        32
  0
VERTEX
  5
A8
100
AcDbEntity
  8
_X______
  6
CONTINUOUS
 62
         7
100
AcDbVertex
100
AcDb3dPolylineVertex
 10
1616.1067128429
 20
175.2890609943
 30
0.0
 70
        32
  0
SEQEND
  5
AA
100
AcDbEntity
  8
_X______
  6
CONTINUOUS
 62
         7
  0
POLYLINE
  5
AC
100
AcDbEntity
  8
_X______
  6
CONTINUOUS
 62
         7
100
AcDb3dPolyline
 66
         1
 10
0.0
 20
0.0
 30
0.0
 70
         8
  0
VERTEX
  5
AE
100
AcDbEntity
  8
_X______
  6
CONTINUOUS
 62
         7
100
AcDbVertex
100
AcDb3dPolylineVertex
 10
1615.9681984366
 20
174.4177128652
 30
0.0
 70
        32
  0
VERTEX
  5
B0
100
AcDbEntity
  8
_X______
  6
CONTINUOUS
 62
         7
100
AcDbVertex
100
AcDb3dPolylineVertex
 10
1615.9681984366
 20
174.4177128652
 30
0.0
 70
        32
  0
SEQEND
  5
B2
100
AcDbEntity
  8
_X______
  6
CONTINUOUS
 62
         7
  0
POLYLINE
  5
B4
100
AcDbEntity
  8
_X______
  6
CONTINUOUS
 62
         7
100
AcDb3dPolyline
 66
         1
 10
0.0
 20
0.0
 30
0.0
 70
         8
  0
VERTEX
  5
B6
100
AcDbEntity
  8
_X______
  6
CONTINUOUS
 62
         7
100
AcDbVertex
100
AcDb3dPolylineVertex
 10
1615.5226321948
 20
173.6834240423
 30
0.0
 70
        32
  0
VERTEX
  5
B8
100
AcDbEntity
  8
_X______
  6
CONTINUOUS
 62
         7
100
AcDbVertex
100
AcDb3dPolylineVertex
 10
1615.5226321948
 20
173.6834240423
 30
0.0
 70
        32
  0
SEQEND
  5
BA
100
AcDbEntity
  8
_X______
  6
CONTINUOUS
 62
         7
  0
POLYLINE
  5
BC
100
AcDbEntity
  8
_X______
  6
CONTINUOUS
 62
         7
100
AcDb3dPolyline
 66
         1
 10
0.0
 20
0.0
 30
0.0
 70
         8
  0
VERTEX
  5
BE
100
AcDbEntity
  8
_X______
  6
CONTINUOUS
 62
         7
100
AcDbVertex
100
AcDb3dPolylineVertex
 10
1614.8838555061
 20
173.2620367452
 30
0.0
 70
        32
  0
VERTEX
  5
C0
100
AcDbEntity
  8
_X______
  6
CONTINUOUS
 62
         7
100
AcDbVertex
100
AcDb3dPolylineVertex
 10
1614.8838555061
 20
173.2620367452
 30
0.0
 70
        32
  0
SEQEND
  5
C2
100
AcDbEntity
  8
_X______
  6
CONTINUOUS
 62
         7
  0
POLYLINE
  5
C4
100
AcDbEntity
  8
_X______
  6
CONTINUOUS
 62
         7
100
AcDb3dPolyline
 66
         1
 10
0.0
 20
0.0
 30
0.0
 70
         8
  0
VERTEX
  5
C6
100
AcDbEntity
  8
_X______
  6
CONTINUOUS
 62
         7
100
AcDbVertex
100
AcDb3dPolylineVertex
 10
1614.1236616399
 20
173.1742404016
 30
0.0
 70
        32
  0
VERTEX
  5
C8
100
AcDbEntity
  8
_X______
  6
CONTINUOUS
 62
         7
100
AcDbVertex
100
AcDb3dPolylineVertex
 10
1614.1236616399
 20
173.1742404016
 30
0.0
 70
        32
  0
SEQEND
  5
CA
100
AcDbEntity
  8
_X______
  6
CONTINUOUS
 62
         7
  0
POLYLINE
  5
CC
100
AcDbEntity
  8
_X______
  6
CONTINUOUS
 62
         7
100
AcDb3dPolyline
 66
         1
 10
0.0
 20
0.0
 30
0.0
 70
         8
  0
VERTEX
  5
CE
100
AcDbEntity
  8
_X______
  6
CONTINUOUS
 62
         7
100
AcDbVertex
100
AcDb3dPolylineVertex
 10
1613.310346339
 20
173.4503338146
 30
0.0
 70
        32
  0
VERTEX
  5
D0
100
AcDbEntity
  8
_X______
  6
CONTINUOUS
 62
         7
100
AcDbVertex
100
AcDb3dPolylineVertex
 10
1613.310346339
 20
173.4503338146
 30
0.0
 70
        32
  0
SEQEND
  5
D2
100
AcDbEntity
  8
_X______
  6
CONTINUOUS
 62
         7
  0
POLYLINE
  5
D4
100
AcDbEntity
  8
_X______
  6
CONTINUOUS
 62
         7
100
AcDb3dPolyline
 66
         1
 10
0.0
 20
0.0
 30
0.0
 70
         8
  0
VERTEX
  5
D6
100
AcDbEntity
  8
_X______
  6
CONTINUOUS
 62
         7
100
AcDbVertex
100
AcDb3dPolylineVertex
 10
1612.6441463667
 20
174.0287898627
 30
0.0
 70
        32
  0
VERTEX
  5
D8
100
AcDbEntity
  8
_X______
  6
CONTINUOUS
 62
         7
100
AcDbVertex
100
AcDb3dPolylineVertex
 10
1612.6441463667
 20
174.0287898627
 30
0.0
 70
        32
  0
SEQEND
  5
DA
100
AcDbEntity
  8
_X______
  6
CONTINUOUS
 62
         7
  0
POLYLINE
  5
DC
100
AcDbEntity
  8
_X______
  6
CONTINUOUS
 62
         7
100
AcDb3dPolyline
 66
         1
 10
0.0
 20
0.0
 30
0.0
 70
         8
  0
VERTEX
  5
DE
100
AcDbEntity
  8
_X______
  6
CONTINUOUS
 62
         7
100
AcDbVertex
100
AcDb3dPolylineVertex
 10
1612.1694112649
 20
174.872302204
 30
0.0
 70
        32
  0
VERTEX
  5
E0
100
AcDbEntity
  8
_X______
  6
CONTINUOUS
 62
         7
100
AcDbVertex
100
AcDb3dPolylineVertex
 10
1612.1694112649
 20
174.872302204
 30
0.0
 70
        32
  0
SEQEND
  5
E2
100
AcDbEntity
  8
_X______
  6
CONTINUOUS
 62
         7
  0
POLYLINE
  5
E4
100
AcDbEntity
  8
_X______
  6
CONTINUOUS
 62
         7
100
AcDb3dPolyline
 66
         1
 10
0.0
 20
0.0
 30
0.0
 70
         8
  0
VERTEX
  5
E6
100
AcDbEntity
  8
_X______
  6
CONTINUOUS
 62
         7
100
AcDbVertex
100
AcDb3dPolylineVertex
 10
1611.99088017
 20
175.823623987
 30
0.0
 70
        32
  0
VERTEX
  5
E8
100
AcDbEntity
  8
_X______
  6
CONTINUOUS
 62
         7
100
AcDbVertex
100
AcDb3dPolylineVertex
 10
1611.99088017
 20
175.823623987
 30
0.0
 70
        32
  0
SEQEND
  5
EA
100
AcDbEntity
  8
_X______
  6
CONTINUOUS
 62
         7
  0
POLYLINE
  5
EC
100
AcDbEntity
  8
_X______
  6
CONTINUOUS
 62
         7
100
AcDb3dPolyline
 66
         1
 10
0.0
 20
0.0
 30
0.0
 70
         8
  0
VERTEX
  5
EE
100
AcDbEntity
  8
_X______
  6
CONTINUOUS
 62
         7
100
AcDbVertex
100
AcDb3dPolylineVertex
 10
1612.1293945764
 20
176.694972116
 30
0.0
 70
        32
  0
VERTEX
  5
F0
100
AcDbEntity
  8
_X______
  6
CONTINUOUS
 62
         7
100
AcDbVertex
100
AcDb3dPolylineVertex
 10
1612.1293945764
 20
176.694972116
 30
0.0
 70
        32
  0
SEQEND
  5
F2
100
AcDbEntity
  8
_X______
  6
CONTINUOUS
 62
         7
  0
POLYLINE
  5
F4
100
AcDbEntity
  8
_X______
  6
CONTINUOUS
 62
         7
100
AcDb3dPolyline
 66
         1
 10
0.0
 20
0.0
 30
0.0
 70
         8
  0
VERTEX
  5
F6
100
AcDbEntity
  8
_X______
  6
CONTINUOUS
 62
         7
100
AcDbVertex
100
AcDb3dPolylineVertex
 10
1612.5749608181
 20
177.4292609389
 30
0.0
 70
        32
  0
VERTEX
  5
F8
100
AcDbEntity
  8
_X______
  6
CONTINUOUS
 62
         7
100
AcDbVertex
100
AcDb3dPolylineVertex
 10
1612.5749608181
 20
177.4292609389
 30
0.0
 70
        32
  0
SEQEND
  5
FA
100
AcDbEntity
  8
_X______
  6
CONTINUOUS
 62
         7
  0
POLYLINE
  5
FC
100
AcDbEntity
  8
_X______
  6
CONTINUOUS
 62
         7
100
AcDb3dPolyline
 66
         1
 10
0.0
 20
0.0
 30
0.0
 70
         8
  0
VERTEX
  5
FE
100
AcDbEntity
  8
_X______
  6
CONTINUOUS
 62
         7
100
AcDbVertex
100
AcDb3dPolylineVertex
 10
1613.2137375068
 20
177.850648236
 30
0.0
 70
        32
  0
VERTEX
  5
100
100
AcDbEntity
  8
_X______
  6
CONTINUOUS
 62
         7
100
AcDbVertex
100
AcDb3dPolylineVertex
 10
1613.2137375068
 20
177.850648236
 30
0.0
 70
        32
  0
SEQEND
  5
102
100
AcDbEntity
  8
_X______
  6
CONTINUOUS
 62
         7
  0
POLYLINE
  5
104
100
AcDbEntity
  8
_X______
  6
CONTINUOUS
 62
         7
100
AcDb3dPolyline
 66
         1
 10
0.0
 20
0.0
 30
0.0
 70
         8
  0
VERTEX
  5
106
100
AcDbEntity
  8
_X______
  6
CONTINUOUS
 62
         7
100
AcDbVertex
100
AcDb3dPolylineVertex
 10
1613.973931373
 20
177.9384445796
 30
0.0
 70
        32
  0
VERTEX
  5
108
100
AcDbEntity
  8
_X______
  6
CONTINUOUS
 62
         7
100
AcDbVertex
100
AcDb3dPolylineVertex
 10
1613.973931373
 20
177.9384445796
 30
0.0
 70
        32
  0
SEQEND
  5
10A
100
AcDbEntity
  8
_X______
  6
CONTINUOUS
 62
         7
  0
POLYLINE
  5
10C
100
AcDbEntity
  8
_X______
  6
CONTINUOUS
 62
         7
100
AcDb3dPolyline
 66
         1
 10
0.0
 20
0.0
 30
0.0
 70
         8
  0
VERTEX
  5
10E
100
AcDbEntity
  8
_X______
  6
CONTINUOUS
 62
         7
100
AcDbVertex
100
AcDb3dPolylineVertex
 10
1614.7872466739
 20
177.6623511666
 30
0.0
 70
        32
  0
VERTEX
  5
110
100
AcDbEntity
  8
_X______
  6
CONTINUOUS
 62
         7
100
AcDbVertex
100
AcDb3dPolylineVertex
 10
1614.7872466739
 20
177.6623511666
 30
0.0
 70
        32
  0
SEQEND
  5
112
100
AcDbEntity
  8
_X______
  6
CONTINUOUS
 62
         7
  0
LINE
  5
113
100
AcDbEntity
  8
_X______
  6
CENTER
 62
         1
100
AcDbLine
 10
1629.6988063837
 20
123.7868805382
 30
0.0
 11
1635.3369621084
 21
125.8390013981
 31
0.0
  0
ARC
  5
114
100
AcDbEntity
  8
_X______
  6
CONTINUOUS
 62
         7
100
AcDbCircle
 10
1631.6042904341
 20
124.4804200144
 30
0.0
 40
2.9722262277
100
AcDbArc
 50
20.0
 51
38.742274142
  0
ARC
  5
115
100
AcDbEntity
  8
_X______
  6
CONTINUOUS
 62
         7
100
AcDbCircle
 10
1631.9963677896
 20
124.7950084469
 30
0.0
 40
2.4695428935
100
AcDbArc
 50
38.742274142
 51
59.3226899096
  0
ARC
  5
116
100
AcDbEntity
  8
_X______
  6
CONTINUOUS
 62
         7
100
AcDbCircle
 10
1632.1961063207
 20
125.1317101395
 30
0.0
 40
2.0780540551
100
AcDbArc
 50
59.3226899096
 51
83.1760378472
  0
ARC
  5
117
100
AcDbEntity
  8
_X______
  6
CONTINUOUS
 62
         7
100
AcDbCircle
 10
1632.2470166494
 20
125.5571435737
 30
0.0
 40
1.6495853065
100
AcDbArc
 50
83.1760378472
 51
110.0
  0
ARC
  5
118
100
AcDbEntity
  8
_X______
  6
CONTINUOUS
 62
         7
100
AcDbCircle
 10
1632.2470166494
 20
125.5571435737
 30
0.0
 40
1.6495853065
100
AcDbArc
 50
110.0
 51
136.8239621528
  0
ARC
  5
119
100
AcDbEntity
  8
_X______
  6
CONTINUOUS
 62
         7
100
AcDbCircle
 10
1632.559479564
 20
125.263967184
 30
0.0
 40
2.0780540551
100
AcDbArc
 50
136.8239621527
 51
160.6773100903
  0
ARC
  5
11A
100
AcDbEntity
  8
_X______
  6
CONTINUOUS
 62
         7
100
AcDbCircle
 10
1632.928915832
 20
125.1344281764
 30
0.0
 40
2.4695428935
100
AcDbArc
 50
160.6773100904
 51
181.257725858
  0
ARC
  5
11B
100
AcDbEntity
  8
_X______
  6
CONTINUOUS
 62
         7
100
AcDbCircle
 10
1633.431478058
 20
125.1454619219
 30
0.0
 40
2.9722262277
100
AcDbArc
 50
181.257725858
 51
200.0000000001
  0
ARC
  5
11C
100
AcDbEntity
  8
_X______
  6
CONTINUOUS
 62
         7
100
AcDbCircle
 10
1633.431478058
 20
125.1454619219
 30
0.0
 40
2.9722262277
100
AcDbArc
 50
200.0
 51
218.742274142
  0
ARC
  5
11D
100
AcDbEntity
  8
_X______
  6
CONTINUOUS
 62
         7
100
AcDbCircle
 10
1633.0394007025
 20
124.8308734894
 30
0.0
 40
2.4695428935
100
AcDbArc
 50
218.7422741419
 51
239.3226899096
  0
ARC
  5
11E
100
AcDbEntity
  8
_X______
  6
CONTINUOUS
 62
         7
100
AcDbCircle
 10
1632.8396621714
 20
124.4941717969
 30
0.0
 40
2.0780540551
100
AcDbArc
 50
239.3226899097
 51
263.1760378472
  0
ARC
  5
11F
100
AcDbEntity
  8
_X______
  6
CONTINUOUS
 62
         7
100
AcDbCircle
 10
1632.7887518427
 20
124.0687383626
 30
0.0
 40
1.6495853065
100
AcDbArc
 50
263.1760378472
 51
290.0
  0
ARC
  5
120
100
AcDbEntity
  8
_X______
  6
CONTINUOUS
 62
         7
100
AcDbCircle
 10
1632.7887518427
 20
124.0687383626
 30
0.0
 40
1.6495853065
100
AcDbArc
 50
290.0
 51
316.8239621528
  0
ARC
  5
121
100
AcDbEntity
  8
_X______
  6
CONTINUOUS
 62
         7
100
AcDbCircle
 10
1632.476288928
 20
124.3619147524
 30
0.0
 40
2.0780540551
100
AcDbArc
 50
316.8239621527
 51
340.6773100903
  0
ARC
  5
122
100
AcDbEntity
  8
_X______
  6
CONTINUOUS
 62
         7
100
AcDbCircle
 10
1632.1068526601
 20
124.49145376
 30
0.0
 40
2.4695428935
100
AcDbArc
 50
340.6773100904
 51
361.257725858
  0
ARC
  5
123
100
AcDbEntity
  8
_X______
  6
CONTINUOUS
 62
         7
100
AcDbCircle
 10
1631.6042904341
 20
124.4804200144
 30
0.0
 40
2.9722262277
100
AcDbArc
 50
1.257725858
 51
20.0
  0
POLYLINE
  5
125
100
AcDbEntity
  8
_X______
  6
CONTINUOUS
 62
         7
100
AcDb3dPolyline
 66
         1
 10
0.0
 20
0.0
 30
0.0
 70
         8
  0
VERTEX
  5
127
100
AcDbEntity
  8
_X______
  6
CONTINUOUS
 62
         7
100
AcDbVertex
100
AcDb3dPolylineVertex
 10
1634.3972694876
 20
125.4969812548
 30
0.0
 70
        32
  0
VERTEX
  5
129
100
AcDbEntity
  8
_X______
  6
CONTINUOUS
 62
         7
100
AcDbVertex
100
AcDb3dPolylineVertex
 10
1634.3972694876
 20
125.4969812548
 30
0.0
 70
        32
  0
SEQEND
  5
12B
100
AcDbEntity
  8
_X______
  6
CONTINUOUS
 62
         7
  0
POLYLINE
  5
12D
100
AcDbEntity
  8
_X______
  6
CONTINUOUS
 62
         7
100
AcDb3dPolyline
 66
         1
 10
0.0
 20
0.0
 30
0.0
 70
         8
  0
VERTEX
  5
12F
100
AcDbEntity
  8
_X______
  6
CONTINUOUS
 62
         7
100
AcDbVertex
100
AcDb3dPolylineVertex
 10
1633.9225343858
 20
126.340493596
 30
0.0
 70
        32
  0
VERTEX
  5
131
100
AcDbEntity
  8
_X______
  6
CONTINUOUS
 62
         7
100
AcDbVertex
100
AcDb3dPolylineVertex
 10
1633.9225343858
 20
126.340493596
 30
0.0
 70
        32
  0
SEQEND
  5
133
100
AcDbEntity
  8
_X______
  6
CONTINUOUS
 62
         7
  0
POLYLINE
  5
135
100
AcDbEntity
  8
_X______
  6
CONTINUOUS
 62
         7
100
AcDb3dPolyline
 66
         1
 10
0.0
 20
0.0
 30
0.0
 70
         8
  0
VERTEX
  5
137
100
AcDbEntity
  8
_X______
  6
CONTINUOUS
 62
         7
100
AcDbVertex
100
AcDb3dPolylineVertex
 10
1633.2563344135
 20
126.9189496442
 30
0.0
 70
        32
  0
VERTEX
  5
139
100
AcDbEntity
  8
_X______
  6
CONTINUOUS
 62
         7
100
AcDbVertex
100
AcDb3dPolylineVertex
 10
1633.2563344135
 20
126.9189496442
 30
0.0
 70
        32
  0
SEQEND
  5
13B
100
AcDbEntity
  8
_X______
  6
CONTINUOUS
 62
         7
  0
POLYLINE
  5
13D
100
AcDbEntity
  8
_X______
  6
CONTINUOUS
 62
         7
100
AcDb3dPolyline
 66
         1
 10
0.0
 20
0.0
 30
0.0
 70
         8
  0
VERTEX
  5
13F
100
AcDbEntity
  8
_X______
  6
CONTINUOUS
 62
         7
100
AcDbVertex
100
AcDb3dPolylineVertex
 10
1632.4430191126
 20
127.1950430571
 30
0.0
 70
        32
  0
VERTEX
  5
141
100
AcDbEntity
  8
_X______
  6
CONTINUOUS
 62
         7
100
AcDbVertex
100
AcDb3dPolylineVertex
 10
1632.4430191126
 20
127.1950430571
 30
0.0
 70
        32
  0
SEQEND
  5
143
100
AcDbEntity
  8
_X______
  6
CONTINUOUS
 62
         7
  0
POLYLINE
  5
145
100
AcDbEntity
  8
_X______
  6
CONTINUOUS
 62
         7
100
AcDb3dPolyline
 66
         1
 10
0.0
 20
0.0
 30
0.0
 70
         8
  0
VERTEX
  5
147
100
AcDbEntity
  8
_X______
  6
CONTINUOUS
 62
         7
100
AcDbVertex
100
AcDb3dPolylineVertex
 10
1631.6828252464
 20
127.1072467136
 30
0.0
 70
        32
  0
VERTEX
  5
149
100
AcDbEntity
  8
_X______
  6
CONTINUOUS
 62
         7
100
AcDbVertex
100
AcDb3dPolylineVertex
 10
1631.6828252464
 20
127.1072467136
 30
0.0
 70
        32
  0
SEQEND
  5
14B
100
AcDbEntity
  8
_X______
  6
CONTINUOUS
 62
         7
  0
POLYLINE
  5
14D
100
AcDbEntity
  8
_X______
  6
CONTINUOUS
 62
         7
100
AcDb3dPolyline
 66
         1
 10
0.0
 20
0.0
 30
0.0
 70
         8
  0
VERTEX
  5
14F
100
AcDbEntity
  8
_X______
  6
CONTINUOUS
 62
         7
100
AcDbVertex
100
AcDb3dPolylineVertex
 10
1631.0440485577
 20
126.6858594165
 30
0.0
 70
        32
  0
VERTEX
  5
151
100
AcDbEntity
  8
_X______
  6
CONTINUOUS
 62
         7
100
AcDbVertex
100
AcDb3dPolylineVertex
 10
1631.0440485577
 20
126.6858594165
 30
0.0
 70
        32
  0
SEQEND
  5
153
100
AcDbEntity
  8
_X______
  6
CONTINUOUS
 62
         7
  0
POLYLINE
  5
155
100
AcDbEntity
  8
_X______
  6
CONTINUOUS
 62
         7
100
AcDb3dPolyline
 66
         1
 10
0.0
 20
0.0
 30
0.0
 70
         8
  0
VERTEX
  5
157
100
AcDbEntity
  8
_X______
  6
CONTINUOUS
 62
         7
100
AcDbVertex
100
AcDb3dPolylineVertex
 10
1630.5984823159
 20
125.9515705936
 30
0.0
 70
        32
  0
VERTEX
  5
159
100
AcDbEntity
  8
_X______
  6
CONTINUOUS
 62
         7
100
AcDbVertex
100
AcDb3dPolylineVertex
 10
1630.5984823159
 20
125.9515705936
 30
0.0
 70
        32
  0
SEQEND
  5
15B
100
AcDbEntity
  8
_X______
  6
CONTINUOUS
 62
         7
  0
POLYLINE
  5
15D
100
AcDbEntity
  8
_X______
  6
CONTINUOUS
 62
         7
100
AcDb3dPolyline
 66
         1
 10
0.0
 20
0.0
 30
0.0
 70
         8
  0
VERTEX
  5
15F
100
AcDbEntity
  8
_X______
  6
CONTINUOUS
 62
         7
100
AcDbVertex
100
AcDb3dPolylineVertex
 10
1630.4599679096
 20
125.0802224645
 30
0.0
 70
        32
  0
VERTEX
  5
161
100
AcDbEntity
  8
_X______
  6
CONTINUOUS
 62
         7
100
AcDbVertex
100
AcDb3dPolylineVertex
 10
1630.4599679096
 20
125.0802224645
 30
0.0
 70
        32
  0
SEQEND
  5
163
100
AcDbEntity
  8
_X______
  6
CONTINUOUS
 62
         7
  0
POLYLINE
  5
165
100
AcDbEntity
  8
_X______
  6
CONTINUOUS
 62
         7
100
AcDb3dPolyline
 66
         1
 10
0.0
 20
0.0
 30
0.0
 70
         8
  0
VERTEX
  5
167
100
AcDbEntity
  8
_X______
  6
CONTINUOUS
 62
         7
100
AcDbVertex
100
AcDb3dPolylineVertex
 10
1630.6384990045
 20
124.1289006815
 30
0.0
 70
        32
  0
VERTEX
  5
169
100
AcDbEntity
  8
_X______
  6
CONTINUOUS
 62
         7
100
AcDbVertex
100
AcDb3dPolylineVertex
 10
1630.6384990045
 20
124.1289006815
 30
0.0
 70
        32
  0
SEQEND
  5
16B
100
AcDbEntity
  8
_X______
  6
CONTINUOUS
 62
         7
  0
POLYLINE
  5
16D
100
AcDbEntity
  8
_X______
  6
CONTINUOUS
 62
         7
100
AcDb3dPolyline
 66
         1
 10
0.0
 20
0.0
 30
0.0
 70
         8
  0
VERTEX
  5
16F
100
AcDbEntity
  8
_X______
  6
CONTINUOUS
 62
         7
100
AcDbVertex
100
AcDb3dPolylineVertex
 10
1631.1132341062
 20
123.2853883403
 30
0.0
 70
        32
  0
VERTEX
  5
171
100
AcDbEntity
  8
_X______
  6
CONTINUOUS
 62
         7
100
AcDbVertex
100
AcDb3dPolylineVertex
 10
1631.1132341062
 20
123.2853883403
 30
0.0
 70
        32
  0
SEQEND
  5
173
100
AcDbEntity
  8
_X______
  6
CONTINUOUS
 62
         7
  0
POLYLINE
  5
175
100
AcDbEntity
  8
_X______
  6
CONTINUOUS
 62
         7
100
AcDb3dPolyline
 66
         1
 10
0.0
 20
0.0
 30
0.0
 70
         8
  0
VERTEX
  5
177
100
AcDbEntity
  8
_X______
  6
CONTINUOUS
 62
         7
100
AcDbVertex
100
AcDb3dPolylineVertex
 10
1631.7794340786
 20
122.7069322922
 30
0.0
 70
        32
  0
VERTEX
  5
179
100
AcDbEntity
  8
_X______
  6
CONTINUOUS
 62
         7
100
AcDbVertex
100
AcDb3dPolylineVertex
 10
1631.7794340786
 20
122.7069322922
 30
0.0
 70
        32
  0
SEQEND
  5
17B
100
AcDbEntity
  8
_X______
  6
CONTINUOUS
 62
         7
  0
POLYLINE
  5
17D
100
AcDbEntity
  8
_X______
  6
CONTINUOUS
 62
         7
100
AcDb3dPolyline
 66
         1
 10
0.0
 20
0.0
 30
0.0
 70
         8
  0
VERTEX
  5
17F
100
AcDbEntity
  8
_X______
  6
CONTINUOUS
 62
         7
100
AcDbVertex
100
AcDb3dPolylineVertex
 10
1632.5927493795
 20
122.4308388792
 30
0.0
 70
        32
  0
VERTEX
  5
181
100
AcDbEntity
  8
_X______
  6
CONTINUOUS
 62
         7
100
AcDbVertex
100
AcDb3dPolylineVertex
 10
1632.5927493795
 20
122.4308388792
 30
0.0
 70
        32
  0
SEQEND
  5
183
100
AcDbEntity
  8
_X______
  6
CONTINUOUS
 62
         7
  0
POLYLINE
  5
185
100
AcDbEntity
  8
_X______
  6
CONTINUOUS
 62
         7
100
AcDb3dPolyline
 66
         1
 10
0.0
 20
0.0
 30
0.0
 70
         8
  0
VERTEX
  5
187
100
AcDbEntity
  8
_X______
  6
CONTINUOUS
 62
         7
100
AcDbVertex
100
AcDb3dPolylineVertex
 10
1633.3529432457
 20
122.5186352228
 30
0.0
 70
        32
  0
VERTEX
  5
189
100
AcDbEntity
  8
_X______
  6
CONTINUOUS
 62
         7
100
AcDbVertex
100
AcDb3dPolylineVertex
 10
1633.3529432457
 20
122.5186352228
 30
0.0
 70
        32
  0
SEQEND
  5
18B
100
AcDbEntity
  8
_X______
  6
CONTINUOUS
 62
         7
  0
POLYLINE
  5
18D
100
AcDbEntity
  8
_X______
  6
CONTINUOUS
 62
         7
100
AcDb3dPolyline
 66
         1
 10
0.0
 20
0.0
 30
0.0
 70
         8
  0
VERTEX
  5
18F
100
AcDbEntity
  8
_X______
  6
CONTINUOUS
 62
         7
100
AcDbVertex
100
AcDb3dPolylineVertex
 10
1633.9917199344
 20
122.9400225198
 30
0.0
 70
        32
  0
VERTEX
  5
191
100
AcDbEntity
  8
_X______
  6
CONTINUOUS
 62
         7
100
AcDbVertex
100
AcDb3dPolylineVertex
 10
1633.9917199344
 20
122.9400225198
 30
0.0
 70
        32
  0
SEQEND
  5
193
100
AcDbEntity
  8
_X______
  6
CONTINUOUS
 62
         7
  0
POLYLINE
  5
195
100
AcDbEntity
  8
_X______
  6
CONTINUOUS
 62
         7
100
AcDb3dPolyline
 66
         1
 10
0.0
 20
0.0
 30
0.0
 70
         8
  0
VERTEX
  5
197
100
AcDbEntity
  8
_X______
  6
CONTINUOUS
 62
         7
100
AcDbVertex
100
AcDb3dPolylineVertex
 10
1634.4372861761
 20
123.6743113428
 30
0.0
 70
        32
  0
VERTEX
  5
199
100
AcDbEntity
  8
_X______
  6
CONTINUOUS
 62
         7
100
AcDbVertex
100
AcDb3dPolylineVertex
 10
1634.4372861761
 20
123.6743113428
 30
0.0
 70
        32
  0
SEQEND
  5
19B
100
AcDbEntity
  8
_X______
  6
CONTINUOUS
 62
         7
  0
LINE
  5
19C
100
AcDbEntity
  8
_X______
  6
CENTER
 62
         1
100
AcDbLine
 10
1227.1031401709
 20
183.6483666388
 30
0.0
 11
1202.8730445027
 21
117.0767259189
 31
0.0
  0
LINE
  5
19D
100
AcDbEntity
  8
_X______
  6
CENTER
 62
         1
100
AcDbLine
 10
1611.3895898921
 20
182.8624526172
 30
0.0
 11
1635.3242136355
 21
117.102614339
 31
0.0
  0
LINE
  5
19E
100
AcDbEntity
  8
_X______
  6
DASHED
 62
         2
100
AcDbLine
 10
1617.0042459463
 20
173.2839206908
 30
0.0
 11
1615.5677613443
 21
177.2306296981
 31
0.0
  0
LINE
  5
19F
100
AcDbEntity
  8
_X______
  6
DASHED
 62
         2
100
AcDbLine
 10
1613.2454754631
 20
171.9158401175
 30
0.0
 11
1611.8089908611
 21
175.8625491248
 31
0.0
  0
LINE
  5
1A0
100
AcDbEntity
  8
_X______
  6
DASHED
 62
         2
100
AcDbLine
 10
1616.675353529
 20
173.1642136406
 30
0.0
 11
1622.3315286556
 21
157.6240001996
 31
0.0
  0
LINE
  5
1A1
100
AcDbEntity
  8
_X______
  6
DASHED
 62
         2
100
AcDbLine
 10
1613.5743678804
 20
172.0355471676
 30
0.0
 11
1619.2305430071
 21
156.4953337266
 31
0.0
  0
LINE
  5
1A2
100
AcDbEntity
  8
_X______
  6
DASHED
 62
         2
100
AcDbLine
 10
1617.0042459463
 20
173.2839206908
 30
0.0
 11
1613.2454754631
 21
171.9158401175
 31
0.0
  0
LINE
  5
1A3
100
AcDbEntity
  8
_X______
  6
DASHED
 62
         2
100
AcDbLine
 10
1629.5624348063
 20
127.085362768
 30
0.0
 11
1630.9989194082
 21
123.1386537607
 31
0.0
  0
LINE
  5
1A4
100
AcDbEntity
  8
_X______
  6
DASHED
 62
         2
100
AcDbLine
 10
1633.3212052894
 20
128.4534433413
 30
0.0
 11
1629.5624348063
 21
127.085362768
 31
0.0
  0
LINE
  5
1A5
100
AcDbEntity
  8
_X______
  6
DASHED
 62
         2
100
AcDbLine
 10
1633.3212052894
 20
128.4534433413
 30
0.0
 11
1634.7576898914
 21
124.506734334
 31
0.0
  0
LINE
  5
1A6
100
AcDbEntity
  8
_X______
  6
DASHED
 62
         2
100
AcDbLine
 10
1627.3361377455
 20
143.8739497321
 30
0.0
 11
1632.9923128721
 21
128.3337362912
 31
0.0
  0
LINE
  5
1A7
100
AcDbEntity
  8
_X______
  6
DASHED
 62
         2
100
AcDbLine
 10
1624.2351520969
 20
142.7452832592
 30
0.0
 11
1629.8913272235
 21
127.2050698182
 31
0.0
  0
LINE
  5
1A8
100
AcDbEntity
  8
_X______
  6
CENTER
 62
         1
100
AcDbLine
 10
1226.9769621084
 20
174.5302820606
 30
0.0
 11
1221.3388063837
 21
176.5824029206
 31
0.0
  0
ARC
  5
1A9
100
AcDbEntity
  8
_X______
  6
CONTINUOUS
 62
         7
100
AcDbCircle
 10
1225.071478058
 20
175.2238215369
 30
0.0
 40
2.9722262277
100
AcDbArc
 50
141.257725858
 51
160.0
  0
ARC
  5
1AA
100
AcDbEntity
  8
_X______
  6
CONTINUOUS
 62
         7
100
AcDbCircle
 10
1224.6794007025
 20
175.5384099693
 30
0.0
 40
2.4695428935
100
AcDbArc
 50
120.6773100903
 51
141.257725858
  0
POLYLINE
  5
1AC
100
AcDbEntity
  8
_X______
  6
CONTINUOUS
 62
         7
100
AcDb3dPolyline
 66
         1
 10
0.0
 20
0.0
 30
0.0
 70
         8
  0
VERTEX
  5
1AE
100
AcDbEntity
  8
_X______
  6
CONTINUOUS
 62
         7
100
AcDbVertex
100
AcDb3dPolylineVertex
 10
1223.4194340786
 20
177.6623511666
 30
0.0
 70
        32
  0
VERTEX
  5
1B0
100
AcDbEntity
  8
_X______
  6
CONTINUOUS
 62
         7
100
AcDbVertex
100
AcDb3dPolylineVertex
 10
1223.4194340786
 20
177.6623511666
 30
0.0
 70
        32
  0
SEQEND
  5
1B2
100
AcDbEntity
  8
_X______
  6
CONTINUOUS
 62
         7
  0
ARC
  5
1B3
100
AcDbEntity
  8
_X______
  6
CONTINUOUS
 62
         7
100
AcDbCircle
 10
1224.4796621714
 20
175.8751116619
 30
0.0
 40
2.0780540551
100
AcDbArc
 50
96.8239621528
 51
120.6773100904
  0
POLYLINE
  5
1B5
100
AcDbEntity
  8
_X______
  6
CONTINUOUS
 62
         7
100
AcDb3dPolyline
 66
         1
 10
0.0
 20
0.0
 30
0.0
 70
         8
  0
VERTEX
  5
1B7
100
AcDbEntity
  8
_X______
  6
CONTINUOUS
 62
         7
100
AcDbVertex
100
AcDb3dPolylineVertex
 10
1224.2327493795
 20
177.9384445796
 30
0.0
 70
        32
  0
VERTEX
  5
1B9
100
AcDbEntity
  8
_X______
  6
CONTINUOUS
 62
         7
100
AcDbVertex
100
AcDb3dPolylineVertex
 10
1224.2327493795
 20
177.9384445796
 30
0.0
 70
        32
  0
SEQEND
  5
1BB
100
AcDbEntity
  8
_X______
  6
CONTINUOUS
 62
         7
  0
ARC
  5
1BC
100
AcDbEntity
  8
_X______
  6
CONTINUOUS
 62
         7
100
AcDbCircle
 10
1224.4287518427
 20
176.3005450962
 30
0.0
 40
1.6495853065
100
AcDbArc
 50
70.0000000001
 51
96.8239621529
  0
POLYLINE
  5
1BE
100
AcDbEntity
  8
_X______
  6
CONTINUOUS
 62
         7
100
AcDb3dPolyline
 66
         1
 10
0.0
 20
0.0
 30
0.0
 70
         8
  0
VERTEX
  5
1C0
100
AcDbEntity
  8
_X______
  6
CONTINUOUS
 62
         7
100
AcDbVertex
100
AcDb3dPolylineVertex
 10
1224.9929432457
 20
177.850648236
 30
0.0
 70
        32
  0
VERTEX
  5
1C2
100
AcDbEntity
  8
_X______
  6
CONTINUOUS
 62
         7
100
AcDbVertex
100
AcDb3dPolylineVertex
 10
1224.9929432457
 20
177.850648236
 30
0.0
 70
        32
  0
SEQEND
  5
1C4
100
AcDbEntity
  8
_X______
  6
CONTINUOUS
 62
         7
  0
ARC
  5
1C5
100
AcDbEntity
  8
_X______
  6
CONTINUOUS
 62
         7
100
AcDbCircle
 10
1224.4287518427
 20
176.3005450962
 30
0.0
 40
1.6495853065
100
AcDbArc
 50
43.1760378472
 51
70.0
  0
POLYLINE
  5
1C7
100
AcDbEntity
  8
_X______
  6
CONTINUOUS
 62
         7
100
AcDb3dPolyline
 66
         1
 10
0.0
 20
0.0
 30
0.0
 70
         8
  0
VERTEX
  5
1C9
100
AcDbEntity
  8
_X______
  6
CONTINUOUS
 62
         7
100
AcDbVertex
100
AcDb3dPolylineVertex
 10
1225.6317199344
 20
177.429260939
 30
0.0
 70
        32
  0
VERTEX
  5
1CB
100
AcDbEntity
  8
_X______
  6
CONTINUOUS
 62
         7
100
AcDbVertex
100
AcDb3dPolylineVertex
 10
1225.6317199344
 20
177.429260939
 30
0.0
 70
        32
  0
SEQEND
  5
1CD
100
AcDbEntity
  8
_X______
  6
CONTINUOUS
 62
         7
  0
ARC
  5
1CE
100
AcDbEntity
  8
_X______
  6
CONTINUOUS
 62
         7
100
AcDbCircle
 10
1224.1162889281
 20
176.0073687064
 30
0.0
 40
2.0780540551
100
AcDbArc
 50
19.3226899096
 51
43.1760378472
  0
POLYLINE
  5
1D0
100
AcDbEntity
  8
_X______
  6
CONTINUOUS
 62
         7
100
AcDb3dPolyline
 66
         1
 10
0.0
 20
0.0
 30
0.0
 70
         8
  0
VERTEX
  5
1D2
100
AcDbEntity
  8
_X______
  6
CONTINUOUS
 62
         7
100
AcDbVertex
100
AcDb3dPolylineVertex
 10
1226.0772861762
 20
176.694972116
 30
0.0
 70
        32
  0
VERTEX
  5
1D4
100
AcDbEntity
  8
_X______
  6
CONTINUOUS
 62
         7
100
AcDbVertex
100
AcDb3dPolylineVertex
 10
1226.0772861762
 20
176.694972116
 30
0.0
 70
        32
  0
SEQEND
  5
1D6
100
AcDbEntity
  8
_X______
  6
CONTINUOUS
 62
         7
  0
ARC
  5
1D7
100
AcDbEntity
  8
_X______
  6
CONTINUOUS
 62
         7
100
AcDbCircle
 10
1223.7468526601
 20
175.8778296988
 30
0.0
 40
2.4695428935
100
AcDbArc
 50
358.742274142
 51
379.3226899097
  0
POLYLINE
  5
1D9
100
AcDbEntity
  8
_X______
  6
CONTINUOUS
 62
         7
100
AcDb3dPolyline
 66
         1
 10
0.0
 20
0.0
 30
0.0
 70
         8
  0
VERTEX
  5
1DB
100
AcDbEntity
  8
_X______
  6
CONTINUOUS
 62
         7
100
AcDbVertex
100
AcDb3dPolylineVertex
 10
1226.2158005825
 20
175.823623987
 30
0.0
 70
        32
  0
VERTEX
  5
1DD
100
AcDbEntity
  8
_X______
  6
CONTINUOUS
 62
         7
100
AcDbVertex
100
AcDb3dPolylineVertex
 10
1226.2158005825
 20
175.823623987
 30
0.0
 70
        32
  0
SEQEND
  5
1DF
100
AcDbEntity
  8
_X______
  6
CONTINUOUS
 62
         7
  0
ARC
  5
1E0
100
AcDbEntity
  8
_X______
  6
CONTINUOUS
 62
         7
100
AcDbCircle
 10
1223.2442904341
 20
175.8888634444
 30
0.0
 40
2.9722262277
100
AcDbArc
 50
339.9999999999
 51
358.742274142
  0
POLYLINE
  5
1E2
100
AcDbEntity
  8
_X______
  6
CONTINUOUS
 62
         7
100
AcDb3dPolyline
 66
         1
 10
0.0
 20
0.0
 30
0.0
 70
         8
  0
VERTEX
  5
1E4
100
AcDbEntity
  8
_X______
  6
CONTINUOUS
 62
         7
100
AcDbVertex
100
AcDb3dPolylineVertex
 10
1226.0372694876
 20
174.872302204
 30
0.0
 70
        32
  0
VERTEX
  5
1E6
100
AcDbEntity
  8
_X______
  6
CONTINUOUS
 62
         7
100
AcDbVertex
100
AcDb3dPolylineVertex
 10
1226.0372694876
 20
174.872302204
 30
0.0
 70
        32
  0
SEQEND
  5
1E8
100
AcDbEntity
  8
_X______
  6
CONTINUOUS
 62
         7
  0
ARC
  5
1E9
100
AcDbEntity
  8
_X______
  6
CONTINUOUS
 62
         7
100
AcDbCircle
 10
1223.2442904341
 20
175.8888634444
 30
0.0
 40
2.9722262277
100
AcDbArc
 50
321.257725858
 51
340.0
  0
POLYLINE
  5
1EB
100
AcDbEntity
  8
_X______
  6
CONTINUOUS
 62
         7
100
AcDb3dPolyline
 66
         1
 10
0.0
 20
0.0
 30
0.0
 70
         8
  0
VERTEX
  5
1ED
100
AcDbEntity
  8
_X______
  6
CONTINUOUS
 62
         7
100
AcDbVertex
100
AcDb3dPolylineVertex
 10
1225.5625343858
 20
174.0287898627
 30
0.0
 70
        32
  0
VERTEX
  5
1EF
100
AcDbEntity
  8
_X______
  6
CONTINUOUS
 62
         7
100
AcDbVertex
100
AcDb3dPolylineVertex
 10
1225.5625343858
 20
174.0287898627
 30
0.0
 70
        32
  0
SEQEND
  5
1F1
100
AcDbEntity
  8
_X______
  6
CONTINUOUS
 62
         7
  0
ARC
  5
1F2
100
AcDbEntity
  8
_X______
  6
CONTINUOUS
 62
         7
100
AcDbCircle
 10
1223.6363677896
 20
175.5742750119
 30
0.0
 40
2.4695428935
100
AcDbArc
 50
300.6773100903
 51
321.257725858
  0
POLYLINE
  5
1F4
100
AcDbEntity
  8
_X______
  6
CONTINUOUS
 62
         7
100
AcDb3dPolyline
 66
         1
 10
0.0
 20
0.0
 30
0.0
 70
         8
  0
VERTEX
  5
1F6
100
AcDbEntity
  8
_X______
  6
CONTINUOUS
 62
         7
100
AcDbVertex
100
AcDb3dPolylineVertex
 10
1224.8963344135
 20
173.4503338146
 30
0.0
 70
        32
  0
VERTEX
  5
1F8
100
AcDbEntity
  8
_X______
  6
CONTINUOUS
 62
         7
100
AcDbVertex
100
AcDb3dPolylineVertex
 10
1224.8963344135
 20
173.4503338146
 30
0.0
 70
        32
  0
SEQEND
  5
1FA
100
AcDbEntity
  8
_X______
  6
CONTINUOUS
 62
         7
  0
ARC
  5
1FB
100
AcDbEntity
  8
_X______
  6
CONTINUOUS
 62
         7
100
AcDbCircle
 10
1223.8361063207
 20
175.2375733193
 30
0.0
 40
2.0780540551
100
AcDbArc
 50
276.8239621528
 51
300.6773100904
  0
POLYLINE
  5
1FD
100
AcDbEntity
  8
_X______
  6
CONTINUOUS
 62
         7
100
AcDb3dPolyline
 66
         1
 10
0.0
 20
0.0
 30
0.0
 70
         8
  0
VERTEX
  5
1FF
100
AcDbEntity
  8
_X______
  6
CONTINUOUS
 62
         7
100
AcDbVertex
100
AcDb3dPolylineVertex
 10
1224.0830191126
 20
173.1742404017
 30
0.0
 70
        32
  0
VERTEX
  5
201
100
AcDbEntity
  8
_X______
  6
CONTINUOUS
 62
         7
100
AcDbVertex
100
AcDb3dPolylineVertex
 10
1224.0830191126
 20
173.1742404017
 30
0.0
 70
        32
  0
SEQEND
  5
203
100
AcDbEntity
  8
_X______
  6
CONTINUOUS
 62
         7
  0
ARC
  5
204
100
AcDbEntity
  8
_X______
  6
CONTINUOUS
 62
         7
100
AcDbCircle
 10
1223.8870166494
 20
174.8121398851
 30
0.0
 40
1.6495853065
100
AcDbArc
 50
250.0
 51
276.8239621528
  0
POLYLINE
  5
206
100
AcDbEntity
  8
_X______
  6
CONTINUOUS
 62
         7
100
AcDb3dPolyline
 66
         1
 10
0.0
 20
0.0
 30
0.0
 70
         8
  0
VERTEX
  5
208
100
AcDbEntity
  8
_X______
  6
CONTINUOUS
 62
         7
100
AcDbVertex
100
AcDb3dPolylineVertex
 10
1223.3228252464
 20
173.2620367452
 30
0.0
 70
        32
  0
VERTEX
  5
20A
100
AcDbEntity
  8
_X______
  6
CONTINUOUS
 62
         7
100
AcDbVertex
100
AcDb3dPolylineVertex
 10
1223.3228252464
 20
173.2620367452
 30
0.0
 70
        32
  0
SEQEND
  5
20C
100
AcDbEntity
  8
_X______
  6
CONTINUOUS
 62
         7
  0
ARC
  5
20D
100
AcDbEntity
  8
_X______
  6
CONTINUOUS
 62
         7
100
AcDbCircle
 10
1223.8870166494
 20
174.8121398851
 30
0.0
 40
1.6495853065
100
AcDbArc
 50
223.1760378472
 51
249.9999999999
  0
POLYLINE
  5
20F
100
AcDbEntity
  8
_X______
  6
CONTINUOUS
 62
         7
100
AcDb3dPolyline
 66
         1
 10
0.0
 20
0.0
 30
0.0
 70
         8
  0
VERTEX
  5
211
100
AcDbEntity
  8
_X______
  6
CONTINUOUS
 62
         7
100
AcDbVertex
100
AcDb3dPolylineVertex
 10
1222.6840485577
 20
173.6834240423
 30
0.0
 70
        32
  0
VERTEX
  5
213
100
AcDbEntity
  8
_X______
  6
CONTINUOUS
 62
         7
100
AcDbVertex
100
AcDb3dPolylineVertex
 10
1222.6840485577
 20
173.6834240423
 30
0.0
 70
        32
  0
SEQEND
  5
215
100
AcDbEntity
  8
_X______
  6
CONTINUOUS
 62
         7
  0
ARC
  5
216
100
AcDbEntity
  8
_X______
  6
CONTINUOUS
 62
         7
100
AcDbCircle
 10
1224.199479564
 20
175.1053162748
 30
0.0
 40
2.0780540551
100
AcDbArc
 50
199.3226899097
 51
223.1760378473
  0
POLYLINE
  5
218
100
AcDbEntity
  8
_X______
  6
CONTINUOUS
 62
         7
100
AcDb3dPolyline
 66
         1
 10
0.0
 20
0.0
 30
0.0
 70
         8
  0
VERTEX
  5
21A
100
AcDbEntity
  8
_X______
  6
CONTINUOUS
 62
         7
100
AcDbVertex
100
AcDb3dPolylineVertex
 10
1222.2384823159
 20
174.4177128652
 30
0.0
 70
        32
  0
VERTEX
  5
21C
100
AcDbEntity
  8
_X______
  6
CONTINUOUS
 62
         7
100
AcDbVertex
100
AcDb3dPolylineVertex
 10
1222.2384823159
 20
174.4177128652
 30
0.0
 70
        32
  0
SEQEND
  5
21E
100
AcDbEntity
  8
_X______
  6
CONTINUOUS
 62
         7
  0
ARC
  5
21F
100
AcDbEntity
  8
_X______
  6
CONTINUOUS
 62
         7
100
AcDbCircle
 10
1224.568915832
 20
175.2348552824
 30
0.0
 40
2.4695428935
100
AcDbArc
 50
178.7422741421
 51
199.3226899097
  0
POLYLINE
  5
221
100
AcDbEntity
  8
_X______
  6
CONTINUOUS
 62
         7
100
AcDb3dPolyline
 66
         1
 10
0.0
 20
0.0
 30
0.0
 70
         8
  0
VERTEX
  5
223
100
AcDbEntity
  8
_X______
  6
CONTINUOUS
 62
         7
100
AcDbVertex
100
AcDb3dPolylineVertex
 10
1222.0999679096
 20
175.2890609943
 30
0.0
 70
        32
  0
VERTEX
  5
225
100
AcDbEntity
  8
_X______
  6
CONTINUOUS
 62
         7
100
AcDbVertex
100
AcDb3dPolylineVertex
 10
1222.0999679096
 20
175.2890609943
 30
0.0
 70
        32
  0
SEQEND
  5
227
100
AcDbEntity
  8
_X______
  6
CONTINUOUS
 62
         7
  0
ARC
  5
228
100
AcDbEntity
  8
_X______
  6
CONTINUOUS
 62
         7
100
AcDbCircle
 10
1225.071478058
 20
175.2238215369
 30
0.0
 40
2.9722262277
100
AcDbArc
 50
160.0
 51
178.7422741421
  0
POLYLINE
  5
22A
100
AcDbEntity
  8
_X______
  6
CONTINUOUS
 62
         7
100
AcDb3dPolyline
 66
         1
 10
0.0
 20
0.0
 30
0.0
 70
         8
  0
VERTEX
  5
22C
100
AcDbEntity
  8
_X______
  6
CONTINUOUS
 62
         7
100
AcDbVertex
100
AcDb3dPolylineVertex
 10
1222.2784990045
 20
176.2403827773
 30
0.0
 70
        32
  0
VERTEX
  5
22E
100
AcDbEntity
  8
_X______
  6
CONTINUOUS
 62
         7
100
AcDbVertex
100
AcDb3dPolylineVertex
 10
1222.2784990045
 20
176.2403827773
 30
0.0
 70
        32
  0
SEQEND
  5
230
100
AcDbEntity
  8
_X______
  6
CONTINUOUS
 62
         7
  0
ARC
  5
231
100
AcDbEntity
  8
_X______
  6
CONTINUOUS
 62
         7
100
AcDbCircle
 10
1205.6472011885
 20
125.263967184
 30
0.0
 40
2.0780540551
100
AcDbArc
 50
19.3226899096
 51
43.1760378472
  0
ARC
  5
232
100
AcDbEntity
  8
_X______
  6
CONTINUOUS
 62
         7
100
AcDbCircle
 10
1205.2777649205
 20
125.1344281764
 30
0.0
 40
2.4695428935
100
AcDbArc
 50
358.742274142
 51
379.3226899097
  0
ARC
  5
233
100
AcDbEntity
  8
_X______
  6
CONTINUOUS
 62
         7
100
AcDbCircle
 10
1206.6023903184
 20
124.4804200144
 30
0.0
 40
2.9722262277
100
AcDbArc
 50
160.0
 51
178.742274142
  0
ARC
  5
234
100
AcDbEntity
  8
_X______
  6
CONTINUOUS
 62
         7
100
AcDbCircle
 10
1206.0998280924
 20
124.49145376
 30
0.0
 40
2.4695428935
100
AcDbArc
 50
178.742274142
 51
199.3226899096
  0
ARC
  5
235
100
AcDbEntity
  8
_X______
  6
CONTINUOUS
 62
         7
100
AcDbCircle
 10
1205.7303918245
 20
124.3619147524
 30
0.0
 40
2.0780540551
100
AcDbArc
 50
199.3226899096
 51
223.1760378473
  0
POLYLINE
  5
237
100
AcDbEntity
  8
_X______
  6
CONTINUOUS
 62
         7
100
AcDb3dPolyline
 66
         1
 10
0.0
 20
0.0
 30
0.0
 70
         8
  0
VERTEX
  5
239
100
AcDbEntity
  8
_X______
  6
CONTINUOUS
 62
         7
100
AcDbVertex
100
AcDb3dPolylineVertex
 10
1204.2149608181
 20
122.9400225198
 30
0.0
 70
        32
  0
VERTEX
  5
23B
100
AcDbEntity
  8
_X______
  6
CONTINUOUS
 62
         7
100
AcDbVertex
100
AcDb3dPolylineVertex
 10
1204.2149608181
 20
122.9400225198
 30
0.0
 70
        32
  0
SEQEND
  5
23D
100
AcDbEntity
  8
_X______
  6
CONTINUOUS
 62
         7
  0
ARC
  5
23E
100
AcDbEntity
  8
_X______
  6
CONTINUOUS
 62
         7
100
AcDbCircle
 10
1205.4179289098
 20
124.0687383626
 30
0.0
 40
1.6495853065
100
AcDbArc
 50
223.1760378472
 51
250.0
  0
POLYLINE
  5
240
100
AcDbEntity
  8
_X______
  6
CONTINUOUS
 62
         7
100
AcDb3dPolyline
 66
         1
 10
0.0
 20
0.0
 30
0.0
 70
         8
  0
VERTEX
  5
242
100
AcDbEntity
  8
_X______
  6
CONTINUOUS
 62
         7
100
AcDbVertex
100
AcDb3dPolylineVertex
 10
1204.8537375068
 20
122.5186352228
 30
0.0
 70
        32
  0
VERTEX
  5
244
100
AcDbEntity
  8
_X______
  6
CONTINUOUS
 62
         7
100
AcDbVertex
100
AcDb3dPolylineVertex
 10
1204.8537375068
 20
122.5186352228
 30
0.0
 70
        32
  0
SEQEND
  5
246
100
AcDbEntity
  8
_X______
  6
CONTINUOUS
 62
         7
  0
ARC
  5
247
100
AcDbEntity
  8
_X______
  6
CONTINUOUS
 62
         7
100
AcDbCircle
 10
1205.4179289098
 20
124.0687383626
 30
0.0
 40
1.6495853065
100
AcDbArc
 50
250.0
 51
276.8239621528
  0
POLYLINE
  5
249
100
AcDbEntity
  8
_X______
  6
CONTINUOUS
 62
         7
100
AcDb3dPolyline
 66
         1
 10
0.0
 20
0.0
 30
0.0
 70
         8
  0
VERTEX
  5
24B
100
AcDbEntity
  8
_X______
  6
CONTINUOUS
 62
         7
100
AcDbVertex
100
AcDb3dPolylineVertex
 10
1205.6139313731
 20
122.4308388792
 30
0.0
 70
        32
  0
VERTEX
  5
24D
100
AcDbEntity
  8
_X______
  6
CONTINUOUS
 62
         7
100
AcDbVertex
100
AcDb3dPolylineVertex
 10
1205.6139313731
 20
122.4308388792
 30
0.0
 70
        32
  0
SEQEND
  5
24F
100
AcDbEntity
  8
_X______
  6
CONTINUOUS
 62
         7
  0
ARC
  5
250
100
AcDbEntity
  8
_X______
  6
CONTINUOUS
 62
         7
100
AcDbCircle
 10
1205.3670185811
 20
124.4941717969
 30
0.0
 40
2.0780540551
100
AcDbArc
 50
276.8239621528
 51
300.6773100903
  0
POLYLINE
  5
252
100
AcDbEntity
  8
_X______
  6
CONTINUOUS
 62
         7
100
AcDb3dPolyline
 66
         1
 10
0.0
 20
0.0
 30
0.0
 70
         8
  0
VERTEX
  5
254
100
AcDbEntity
  8
_X______
  6
CONTINUOUS
 62
         7
100
AcDbVertex
100
AcDb3dPolylineVertex
 10
1206.4272466739
 20
122.7069322922
 30
0.0
 70
        32
  0
VERTEX
  5
256
100
AcDbEntity
  8
_X______
  6
CONTINUOUS
 62
         7
100
AcDbVertex
100
AcDb3dPolylineVertex
 10
1206.4272466739
 20
122.7069322922
 30
0.0
 70
        32
  0
SEQEND
  5
258
100
AcDbEntity
  8
_X______
  6
CONTINUOUS
 62
         7
  0
ARC
  5
259
100
AcDbEntity
  8
_X______
  6
CONTINUOUS
 62
         7
100
AcDbCircle
 10
1205.16728005
 20
124.8308734895
 30
0.0
 40
2.4695428935
100
AcDbArc
 50
300.6773100904
 51
321.2577258581
  0
POLYLINE
  5
25B
100
AcDbEntity
  8
_X______
  6
CONTINUOUS
 62
         7
100
AcDb3dPolyline
 66
         1
 10
0.0
 20
0.0
 30
0.0
 70
         8
  0
VERTEX
  5
25D
100
AcDbEntity
  8
_X______
  6
CONTINUOUS
 62
         7
100
AcDbVertex
100
AcDb3dPolylineVertex
 10
1207.0934466463
 20
123.2853883403
 30
0.0
 70
        32
  0
VERTEX
  5
25F
100
AcDbEntity
  8
_X______
  6
CONTINUOUS
 62
         7
100
AcDbVertex
100
AcDb3dPolylineVertex
 10
1207.0934466463
 20
123.2853883403
 30
0.0
 70
        32
  0
SEQEND
  5
261
100
AcDbEntity
  8
_X______
  6
CONTINUOUS
 62
         7
  0
ARC
  5
262
100
AcDbEntity
  8
_X______
  6
CONTINUOUS
 62
         7
100
AcDbCircle
 10
1204.7752026945
 20
125.1454619219
 30
0.0
 40
2.9722262277
100
AcDbArc
 50
321.257725858
 51
340.0
  0
POLYLINE
  5
264
100
AcDbEntity
  8
_X______
  6
CONTINUOUS
 62
         7
100
AcDb3dPolyline
 66
         1
 10
0.0
 20
0.0
 30
0.0
 70
         8
  0
VERTEX
  5
266
100
AcDbEntity
  8
_X______
  6
CONTINUOUS
 62
         7
100
AcDbVertex
100
AcDb3dPolylineVertex
 10
1207.568181748
 20
124.1289006815
 30
0.0
 70
        32
  0
VERTEX
  5
268
100
AcDbEntity
  8
_X______
  6
CONTINUOUS
 62
         7
100
AcDbVertex
100
AcDb3dPolylineVertex
 10
1207.568181748
 20
124.1289006815
 30
0.0
 70
        32
  0
SEQEND
  5
26A
100
AcDbEntity
  8
_X______
  6
CONTINUOUS
 62
         7
  0
ARC
  5
26B
100
AcDbEntity
  8
_X______
  6
CONTINUOUS
 62
         7
100
AcDbCircle
 10
1204.7752026945
 20
125.1454619219
 30
0.0
 40
2.9722262277
100
AcDbArc
 50
339.9999999999
 51
358.742274142
  0
POLYLINE
  5
26D
100
AcDbEntity
  8
_X______
  6
CONTINUOUS
 62
         7
100
AcDb3dPolyline
 66
         1
 10
0.0
 20
0.0
 30
0.0
 70
         8
  0
VERTEX
  5
26F
100
AcDbEntity
  8
_X______
  6
CONTINUOUS
 62
         7
100
AcDbVertex
100
AcDb3dPolylineVertex
 10
1207.7467128429
 20
125.0802224645
 30
0.0
 70
        32
  0
VERTEX
  5
271
100
AcDbEntity
  8
_X______
  6
CONTINUOUS
 62
         7
100
AcDbVertex
100
AcDb3dPolylineVertex
 10
1207.7467128429
 20
125.0802224645
 30
0.0
 70
        32
  0
SEQEND
  5
273
100
AcDbEntity
  8
_X______
  6
CONTINUOUS
 62
         7
  0
POLYLINE
  5
275
100
AcDbEntity
  8
_X______
  6
CONTINUOUS
 62
         7
100
AcDb3dPolyline
 66
         1
 10
0.0
 20
0.0
 30
0.0
 70
         8
  0
VERTEX
  5
277
100
AcDbEntity
  8
_X______
  6
CONTINUOUS
 62
         7
100
AcDbVertex
100
AcDb3dPolylineVertex
 10
1207.1626321948
 20
126.6858594165
 30
0.0
 70
        32
  0
VERTEX
  5
279
100
AcDbEntity
  8
_X______
  6
CONTINUOUS
 62
         7
100
AcDbVertex
100
AcDb3dPolylineVertex
 10
1207.1626321948
 20
126.6858594165
 30
0.0
 70
        32
  0
SEQEND
  5
27B
100
AcDbEntity
  8
_X______
  6
CONTINUOUS
 62
         7
  0
ARC
  5
27C
100
AcDbEntity
  8
_X______
  6
CONTINUOUS
 62
         7
100
AcDbCircle
 10
1205.9596641031
 20
125.5571435737
 30
0.0
 40
1.6495853065
100
AcDbArc
 50
43.1760378472
 51
70.0
  0
POLYLINE
  5
27E
100
AcDbEntity
  8
_X______
  6
CONTINUOUS
 62
         7
100
AcDb3dPolyline
 66
         1
 10
0.0
 20
0.0
 30
0.0
 70
         8
  0
VERTEX
  5
280
100
AcDbEntity
  8
_X______
  6
CONTINUOUS
 62
         7
100
AcDbVertex
100
AcDb3dPolylineVertex
 10
1206.5238555061
 20
127.1072467136
 30
0.0
 70
        32
  0
VERTEX
  5
282
100
AcDbEntity
  8
_X______
  6
CONTINUOUS
 62
         7
100
AcDbVertex
100
AcDb3dPolylineVertex
 10
1206.5238555061
 20
127.1072467136
 30
0.0
 70
        32
  0
SEQEND
  5
284
100
AcDbEntity
  8
_X______
  6
CONTINUOUS
 62
         7
  0
ARC
  5
285
100
AcDbEntity
  8
_X______
  6
CONTINUOUS
 62
         7
100
AcDbCircle
 10
1205.9596641031
 20
125.5571435737
 30
0.0
 40
1.6495853065
100
AcDbArc
 50
70.0
 51
96.8239621528
  0
ARC
  5
286
100
AcDbEntity
  8
_X______
  6
CONTINUOUS
 62
         7
100
AcDbCircle
 10
1206.0105744318
 20
125.1317101395
 30
0.0
 40
2.0780540551
100
AcDbArc
 50
96.8239621528
 51
120.6773100904
  0
POLYLINE
  5
288
100
AcDbEntity
  8
_X______
  6
CONTINUOUS
 62
         7
100
AcDb3dPolyline
 66
         1
 10
0.0
 20
0.0
 30
0.0
 70
         8
  0
VERTEX
  5
28A
100
AcDbEntity
  8
_X______
  6
CONTINUOUS
 62
         7
100
AcDbVertex
100
AcDb3dPolylineVertex
 10
1204.950346339
 20
126.9189496442
 30
0.0
 70
        32
  0
VERTEX
  5
28C
100
AcDbEntity
  8
_X______
  6
CONTINUOUS
 62
         7
100
AcDbVertex
100
AcDb3dPolylineVertex
 10
1204.950346339
 20
126.9189496442
 30
0.0
 70
        32
  0
SEQEND
  5
28E
100
AcDbEntity
  8
_X______
  6
CONTINUOUS
 62
         7
  0
ARC
  5
28F
100
AcDbEntity
  8
_X______
  6
CONTINUOUS
 62
         7
100
AcDbCircle
 10
1206.2103129629
 20
124.7950084469
 30
0.0
 40
2.4695428935
100
AcDbArc
 50
120.6773100904
 51
141.257725858
  0
POLYLINE
  5
291
100
AcDbEntity
  8
_X______
  6
CONTINUOUS
 62
         7
100
AcDb3dPolyline
 66
         1
 10
0.0
 20
0.0
 30
0.0
 70
         8
  0
VERTEX
  5
293
100
AcDbEntity
  8
_X______
  6
CONTINUOUS
 62
         7
100
AcDbVertex
100
AcDb3dPolylineVertex
 10
1204.2841463667
 20
126.340493596
 30
0.0
 70
        32
  0
VERTEX
  5
295
100
AcDbEntity
  8
_X______
  6
CONTINUOUS
 62
         7
100
AcDbVertex
100
AcDb3dPolylineVertex
 10
1204.2841463667
 20
126.340493596
 30
0.0
 70
        32
  0
SEQEND
  5
297
100
AcDbEntity
  8
_X______
  6
CONTINUOUS
 62
         7
  0
ARC
  5
298
100
AcDbEntity
  8
_X______
  6
CONTINUOUS
 62
         7
100
AcDbCircle
 10
1206.6023903184
 20
124.4804200144
 30
0.0
 40
2.9722262277
100
AcDbArc
 50
141.257725858
 51
160.0
  0
POLYLINE
  5
29A
100
AcDbEntity
  8
_X______
  6
CONTINUOUS
 62
         7
100
AcDb3dPolyline
 66
         1
 10
0.0
 20
0.0
 30
0.0
 70
         8
  0
VERTEX
  5
29C
100
AcDbEntity
  8
_X______
  6
CONTINUOUS
 62
         7
100
AcDbVertex
100
AcDb3dPolylineVertex
 10
1203.8094112649
 20
125.4969812548
 30
0.0
 70
        32
  0
VERTEX
  5
29E
100
AcDbEntity
  8
_X______
  6
CONTINUOUS
 62
         7
100
AcDbVertex
100
AcDb3dPolylineVertex
 10
1203.8094112649
 20
125.4969812548
 30
0.0
 70
        32
  0
SEQEND
  5
2A0
100
AcDbEntity
  8
_X______
  6
CONTINUOUS
 62
         7
  0
LINE
  5
2A1
100
AcDbEntity
  8
_X______
  6
CENTER
 62
         1
100
AcDbLine
 10
1208.5078743688
 20
123.7868805382
 30
0.0
 11
1202.8697186441
 21
125.8390013981
 31
0.0
  0
INSERT
  5
2E2
100
AcDbEntity
  8
0
  6
CONTINUOUS
100
AcDbBlockReference
  2
*X2
 10
0.0
 20
0.0
 30
0.0
  0
LINE
  5
2E3
100
AcDbEntity
  8
L1_35
  6
CONTINUOUS
 62
         7
100
AcDbLine
 10
1403.2033403763
 20
-37.9433347407
 30
0.0
 11
1419.1033403763
 21
-37.9433347407
 31
0.0
  0
LINE
  5
2E4
100
AcDbEntity
  8
L1_35
  6
CONTINUOUS
 62
         7
100
AcDbLine
 10
1412.7533403763
 20
-37.9433347407
 30
0.0
 11
1412.7533403763
 21
-25.4113347407
 31
0.0
  0
LINE
  5
2E5
100
AcDbEntity
  8
L1_35
  6
CENTER
 62
         1
100
AcDbLine
 10
1417.5033403763
 20
-27.3374156724
 30
0.0
 11
1417.5033403763
 21
-16.1181779021
 31
0.0
  0
LINE
  5
2E6
100
AcDbEntity
  8
L1_35
  6
CONTINUOUS
 62
         7
100
AcDbLine
 10
1420.9533403763
 20
-24.1113347407
 30
0.0
 11
1420.9533403763
 21
-16.9123347407
 31
0.0
  0
LINE
  5
2E7
100
AcDbEntity
  8
L1_35
  6
CONTINUOUS
 62
         7
100
AcDbLine
 10
1414.0533403763
 20
-24.1113347407
 30
0.0
 11
1414.0533403763
 21
-16.9123347407
 31
0.0
  0
LINE
  5
2E8
100
AcDbEntity
  8
L1_35
  6
CONTINUOUS
 62
         4
100
AcDbLine
 10
1413.5533403763
 20
-24.6113347407
 30
0.0
 11
1413.5533403763
 21
-16.9123347407
 31
0.0
  0
LINE
  5
2E9
100
AcDbEntity
  8
L1_35
  6
CONTINUOUS
 62
         4
100
AcDbLine
 10
1421.4533403763
 20
-24.6113347407
 30
0.0
 11
1421.4533403763
 21
-16.9123347407
 31
0.0
  0
LINE
  5
2EA
100
AcDbEntity
  8
L1_35
  6
CONTINUOUS
 62
         7
100
AcDbLine
 10
1420.9533403763
 20
-24.1113347407
 30
0.0
 11
1414.0533403763
 21
-24.1113347407
 31
0.0
  0
LINE
  5
2EB
100
AcDbEntity
  8
L1_35
  6
CONTINUOUS
 62
         7
100
AcDbLine
 10
1422.4853403763
 20
-25.6433347407
 30
0.0
 11
1420.9533403763
 21
-24.1113347407
 31
0.0
  0
LINE
  5
2EC
100
AcDbEntity
  8
L1_35
  6
CONTINUOUS
 62
         7
100
AcDbLine
 10
1414.0533403763
 20
-24.1113347407
 30
0.0
 11
1412.7533403763
 21
-25.4113347407
 31
0.0
  0
LINE
  5
2ED
100
AcDbEntity
  8
L1_35
  6
CONTINUOUS
 62
         7
100
AcDbLine
 10
1435.0033403763
 20
158.2290363382
 30
0.0
 11
1435.0033403763
 21
142.1402471206
 31
0.0
  0
LINE
  5
2EE
100
AcDbEntity
  8
L1_35
  6
CONTINUOUS
 62
         4
100
AcDbLine
 10
1427.0686647704
 20
137.4846417294
 30
0.0
 11
1427.0686647704
 21
162.8348739992
 31
0.0
  0
LINE
  5
2EF
100
AcDbEntity
  8
L1_35
  6
CONTINUOUS
 62
         7
100
AcDbLine
 10
1427.4705119686
 20
137.6720261553
 30
0.0
 11
1434.1372677689
 21
140.78078544
 31
0.0
  0
ARC
  5
2F0
100
AcDbEntity
  8
L1_35
  6
CONTINUOUS
 62
         7
100
AcDbCircle
 10
1433.5033403763
 20
142.1402471206
 30
0.0
 40
1.5
100
AcDbArc
 50
295.0
 51
360.0
  0
ARC
  5
2F1
100
AcDbEntity
  8
L1_35
  6
CONTINUOUS
 62
         7
100
AcDbCircle
 10
1422.1033403763
 20
134.4846417294
 30
0.0
 40
3.0
100
AcDbArc
 50
90.0
 51
180.0
  0
LINE
  5
2F2
100
AcDbEntity
  8
L1_35
  6
CONTINUOUS
 62
         7
100
AcDbLine
 10
1426.6252754451
 20
137.4846417294
 30
0.0
 11
1422.1033403763
 21
137.4846417294
 31
0.0
  0
ARC
  5
2F3
100
AcDbEntity
  8
L1_35
  6
CONTINUOUS
 62
         7
100
AcDbCircle
 10
1426.6252754451
 20
139.4846417294
 30
0.0
 40
2.0
100
AcDbArc
 50
270.0
 51
295.0
  0
LINE
  5
2F4
100
AcDbEntity
  8
L1_35
  6
CONTINUOUS
 62
         7
100
AcDbLine
 10
1427.4705119686
 20
162.6972573035
 30
0.0
 11
1434.1372677689
 21
159.5884980187
 31
0.0
  0
ARC
  5
2F5
100
AcDbEntity
  8
L1_35
  6
CONTINUOUS
 62
         7
100
AcDbCircle
 10
1433.5033403763
 20
158.2290363382
 30
0.0
 40
1.5
100
AcDbArc
 50
0.0
 51
65.0
  0
ARC
  5
2F6
100
AcDbEntity
  8
L1_35
  6
CONTINUOUS
 62
         7
100
AcDbCircle
 10
1422.1033403763
 20
165.8846417294
 30
0.0
 40
3.0
100
AcDbArc
 50
180.0
 51
270.0
  0
LINE
  5
2F7
100
AcDbEntity
  8
L1_35
  6
CONTINUOUS
 62
         7
100
AcDbLine
 10
1426.6252754451
 20
162.8846417294
 30
0.0
 11
1422.1033403763
 21
162.8846417294
 31
0.0
  0
ARC
  5
2F8
100
AcDbEntity
  8
L1_35
  6
CONTINUOUS
 62
         7
100
AcDbCircle
 10
1426.6252754451
 20
160.8846417294
 30
0.0
 40
2.0
100
AcDbArc
 50
65.0
 51
90.0
  0
ARC
  5
2F9
100
AcDbEntity
  8
_Y__________
  6
CONTINUOUS
 62
         7
100
AcDbCircle
 10
1332.7533403763
 20
-3.7933347407
 30
0.0
 40
1.0
100
AcDbArc
 50
180.0
 51
270.0
  0
LINE
  5
2FA
100
AcDbEntity
  8
_Y__________
  6
CONTINUOUS
 62
         7
100
AcDbLine
 10
1332.7533403763
 20
-4.7933347407
 30
0.0
 11
1335.5233403763
 21
-4.7933347407
 31
0.0
  0
ARC
  5
2FB
100
AcDbEntity
  8
_Y__________
  6
CONTINUOUS
 62
         7
100
AcDbCircle
 10
1335.9228759565
 20
-4.8933347407
 30
0.0
 40
0.2
100
AcDbArc
 50
90.0
 51
105.0
  0
LINE
  5
2FC
100
AcDbEntity
  8
_Y__________
  6
CONTINUOUS
 62
         7
100
AcDbLine
 10
1335.8711121475
 20
-4.7001495754
 30
0.0
 11
1335.5233403763
 21
-4.7933347407
 31
0.0
  0
LINE
  5
2FD
100
AcDbEntity
  8
_Y__________
  6
CONTINUOUS
 62
         7
100
AcDbLine
 10
1335.9228759565
 20
-4.6933347407
 30
0.0
 11
1336.3233403763
 21
-4.6933347407
 31
0.0
  0
LINE
  5
2FE
100
AcDbEntity
  8
_Y__________
  6
CONTINUOUS
 62
         7
100
AcDbLine
 10
1336.4647617325
 20
-4.7519133844
 30
0.0
 11
1337.6561830887
 21
-5.9433347407
 31
0.0
  0
ARC
  5
2FF
100
AcDbEntity
  8
_Y__________
  6
CONTINUOUS
 62
         7
100
AcDbCircle
 10
1336.3233403763
 20
-4.8933347407
 30
0.0
 40
0.2
100
AcDbArc
 50
45.0000000038
 51
90.0
  0
LINE
  5
300
100
AcDbEntity
  8
_Y__________
  6
CONTINUOUS
 62
         7
100
AcDbLine
 10
1336.5233403763
 20
-5.1498119
 30
0.0
 11
1336.5233403763
 21
-20.6220880762
 31
0.0
  0
LINE
  5
301
100
AcDbEntity
  8
_Y__________
  6
CONTINUOUS
 62
         7
100
AcDbLine
 10
1335.5233403763
 20
-4.7933347407
 30
0.0
 11
1335.5233403763
 21
-21.0933347407
 31
0.0
  0
LINE
  5
302
100
AcDbEntity
  8
_Y__________
  6
CONTINUOUS
 62
         5
100
AcDbLine
 10
1336.6561830887
 20
-4.9433347407
 30
0.0
 11
1360.2033403763
 21
-4.9433347407
 31
0.0
  0
LINE
  5
303
100
AcDbEntity
  8
_Y__________
  6
CONTINUOUS
 62
         7
100
AcDbLine
 10
1337.6561830887
 20
-5.9433347407
 30
0.0
 11
1360.2033403763
 21
-5.9433347407
 31
0.0
  0
LINE
  5
304
100
AcDbEntity
  8
_Y__________
  6
CONTINUOUS
 62
         7
100
AcDbLine
 10
1337.6561830887
 20
-5.9433347407
 30
0.0
 11
1337.6561830887
 21
-19.9433347407
 31
0.0
  0
LINE
  5
305
100
AcDbEntity
  8
_Y__________
  6
CONTINUOUS
 62
         7
100
AcDbLine
 10
1337.6561830887
 20
-19.9433347407
 30
0.0
 11
1360.2033403763
 21
-19.9433347407
 31
0.0
  0
LINE
  5
306
100
AcDbEntity
  8
_Y__________
  6
CONTINUOUS
 62
         7
100
AcDbLine
 10
1336.4647617325
 20
-21.1347560969
 30
0.0
 11
1337.6561830887
 21
-19.9433347407
 31
0.0
  0
ARC
  5
307
100
AcDbEntity
  8
_Y__________
  6
CONTINUOUS
 62
         7
100
AcDbCircle
 10
1336.3233403763
 20
-20.9933347407
 30
0.0
 40
0.2
100
AcDbArc
 50
270.0
 51
314.9999999962
  0
LINE
  5
308
100
AcDbEntity
  8
_Y__________
  6
CONTINUOUS
 62
         7
100
AcDbLine
 10
1335.9228759565
 20
-21.1933347407
 30
0.0
 11
1336.3233403763
 21
-21.1933347407
 31
0.0
  0
LINE
  5
309
100
AcDbEntity
  8
_Y__________
  6
CONTINUOUS
 62
         7
100
AcDbLine
 10
1335.8711121475
 20
-21.1865199059
 30
0.0
 11
1335.5233403763
 21
-21.0933347407
 31
0.0
  0
LINE
  5
30A
100
AcDbEntity
  8
_Y__________
  6
CONTINUOUS
 62
         7
100
AcDbLine
 10
1332.7533403763
 20
-21.0933347407
 30
0.0
 11
1335.5233403763
 21
-21.0933347407
 31
0.0
  0
ARC
  5
30B
100
AcDbEntity
  8
_Y__________
  6
CONTINUOUS
 62
         7
100
AcDbCircle
 10
1332.7533403763
 20
-22.0933347407
 30
0.0
 40
1.0
100
AcDbArc
 50
90.0
 51
180.0
  0
LINE
  5
30C
100
AcDbEntity
  8
_Y__________
  6
CONTINUOUS
 62
         5
100
AcDbLine
 10
1336.6561830887
 20
-20.9433347407
 30
0.0
 11
1360.2033403763
 21
-20.9433347407
 31
0.0
  0
LINE
  5
30D
100
AcDbEntity
  8
_Y__________
  6
CONTINUOUS
 62
         7
100
AcDbLine
 10
1360.2033403763
 20
-4.9433347407
 30
0.0
 11
1360.2033403763
 21
-20.9433347407
 31
0.0
  0
ARC
  5
30E
100
AcDbEntity
  8
_Y__________
  6
CONTINUOUS
 62
         7
100
AcDbCircle
 10
1332.9533403763
 20
-24.1775164571
 30
0.0
 40
1.2
100
AcDbArc
 50
180.0
 51
261.7028550302
  0
ARC
  5
30F
100
AcDbEntity
  8
_Y__________
  6
CONTINUOUS
 62
         7
100
AcDbCircle
 10
1332.9533403763
 20
-1.7091530242
 30
0.0
 40
1.2
100
AcDbArc
 50
98.2971449698
 51
180.0
  0
LINE
  5
310
100
AcDbEntity
  8
_Y__________
  6
CONTINUOUS
 62
         7
100
AcDbLine
 10
1331.7533403763
 20
-1.7091530242
 30
0.0
 11
1331.7533403763
 21
-24.1775164571
 31
0.0
  0
ARC
  5
311
100
AcDbEntity
  8
_Y__________
  6
CONTINUOUS
 62
         7
100
AcDbCircle
 10
1332.9533403763
 20
138.9504600129
 30
0.0
 40
1.2
100
AcDbArc
 50
180.0
 51
261.7028550302
  0
ARC
  5
312
100
AcDbEntity
  8
_Y__________
  6
CONTINUOUS
 62
         7
100
AcDbCircle
 10
1332.9533403763
 20
161.4188234458
 30
0.0
 40
1.2
100
AcDbArc
 50
98.2971449698
 51
180.0
  0
LINE
  5
313
100
AcDbEntity
  8
_Y__________
  6
CONTINUOUS
 62
         7
100
AcDbLine
 10
1331.7533403763
 20
161.4188234458
 30
0.0
 11
1331.7533403763
 21
138.9504600129
 31
0.0
  0
LINE
  5
314
100
AcDbEntity
  8
_Y__________
  6
CONTINUOUS
 62
         7
100
AcDbLine
 10
1192.1233403763
 20
142.6346417294
 30
0.0
 11
1192.1233403763
 21
157.7346417294
 31
0.0
  0
LINE
  5
315
100
AcDbEntity
  8
_Y__________
  6
CONTINUOUS
 62
         7
100
AcDbLine
 10
1192.1233403763
 20
142.6346417294
 30
0.0
 11
1191.6233403763
 21
142.1346417294
 31
0.0
  0
LINE
  5
316
100
AcDbEntity
  8
_Y__________
  6
CONTINUOUS
 62
         7
100
AcDbLine
 10
1191.6233403763
 20
142.1346417294
 30
0.0
 11
1184.6849584247
 21
142.1346417294
 31
0.0
  0
LINE
  5
317
100
AcDbEntity
  8
_Y__________
  6
CONTINUOUS
 62
         7
100
AcDbLine
 10
1184.2908731435
 20
141.7405564482
 30
0.0
 11
1184.6849584247
 21
142.1346417294
 31
0.0
  0
LINE
  5
318
100
AcDbEntity
  8
_Y__________
  6
CONTINUOUS
 62
         7
100
AcDbLine
 10
1191.6233403763
 20
158.2346417294
 30
0.0
 11
1184.6849584247
 21
158.2346417294
 31
0.0
  0
LINE
  5
319
100
AcDbEntity
  8
_Y__________
  6
CONTINUOUS
 62
         7
100
AcDbLine
 10
1192.1233403763
 20
157.7346417294
 30
0.0
 11
1191.6233403763
 21
158.2346417294
 31
0.0
  0
LINE
  5
31A
100
AcDbEntity
  8
_Y__________
  6
CONTINUOUS
 62
         7
100
AcDbLine
 10
1184.2908731435
 20
158.6287270106
 30
0.0
 11
1184.6849584247
 21
158.2346417294
 31
0.0
  0
LINE
  5
31B
100
AcDbEntity
  8
_Y__________
  6
CONTINUOUS
 62
         7
100
AcDbLine
 10
1245.1617223278
 20
142.1346417294
 30
0.0
 11
1240.4233403763
 21
142.1346417294
 31
0.0
  0
LINE
  5
31C
100
AcDbEntity
  8
_Y__________
  6
CONTINUOUS
 62
         7
100
AcDbLine
 10
1239.9233403763
 20
142.6346417294
 30
0.0
 11
1239.9233403763
 21
157.7346417294
 31
0.0
  0
LINE
  5
31D
100
AcDbEntity
  8
_Y__________
  6
CONTINUOUS
 62
         7
100
AcDbLine
 10
1239.9233403763
 20
142.6346417294
 30
0.0
 11
1240.4233403763
 21
142.1346417294
 31
0.0
  0
LINE
  5
31E
100
AcDbEntity
  8
_Y__________
  6
CONTINUOUS
 62
         7
100
AcDbLine
 10
1245.555807609
 20
141.7405564482
 30
0.0
 11
1245.1617223278
 21
142.1346417294
 31
0.0
  0
LINE
  5
31F
100
AcDbEntity
  8
_Y__________
  6
CONTINUOUS
 62
         7
100
AcDbLine
 10
1239.9233403763
 20
157.7346417294
 30
0.0
 11
1240.4233403763
 21
158.2346417294
 31
0.0
  0
LINE
  5
320
100
AcDbEntity
  8
_Y__________
  6
CONTINUOUS
 62
         7
100
AcDbLine
 10
1245.555807609
 20
158.6287270106
 30
0.0
 11
1245.1617223278
 21
158.2346417294
 31
0.0
  0
LINE
  5
321
100
AcDbEntity
  8
_Y__________
  6
CONTINUOUS
 62
         7
100
AcDbLine
 10
1245.1617223278
 20
158.2346417294
 30
0.0
 11
1240.4233403763
 21
158.2346417294
 31
0.0
  0
CIRCLE
  5
322
100
AcDbEntity
  8
_Y__________
  6
CONTINUOUS
 62
         7
100
AcDbCircle
 10
1214.9233403763
 20
150.1846417294
 30
0.0
 40
22.225
  0
CIRCLE
  5
323
100
AcDbEntity
  8
_Y__________
  6
CONTINUOUS
 62
         7
100
AcDbCircle
 10
1214.9233403763
 20
150.1846417294
 30
0.0
 40
8.5
  0
CIRCLE
  5
324
100
AcDbEntity
  8
_Y__________
  6
CONTINUOUS
 62
         7
100
AcDbCircle
 10
1214.9233403763
 20
150.1846417294
 30
0.0
 40
9.5
  0
ARC
  5
325
100
AcDbEntity
  8
_Y__________
  6
CONTINUOUS
 62
         5
100
AcDbCircle
 10
1214.9233403763
 20
150.1846417294
 30
0.0
 40
8.0
100
AcDbArc
 50
352.9901372228
 51
621.2264515101
  0
CIRCLE
  5
326
100
AcDbEntity
  8
_Y__________
  6
CONTINUOUS
 62
         7
100
AcDbCircle
 10
1214.9233403763
 20
150.1846417294
 30
0.0
 40
7.0
  0
CIRCLE
  5
327
100
AcDbEntity
  8
_Y__________
  6
CONTINUOUS
 62
         7
100
AcDbCircle
 10
1214.9233403763
 20
150.1846417294
 30
0.0
 40
12.7165768873
  0
LINE
  5
328
100
AcDbEntity
  8
_Y__________
  6
CENTER
 62
         1
100
AcDbLine
 10
1214.9233403763
 20
114.5732894966
 30
0.0
 11
1214.9233403763
 21
185.4173498279
 31
0.0
  0
ARC
  5
329
100
AcDbEntity
  8
_Y__________
  6
CONTINUOUS
 62
         7
100
AcDbCircle
 10
1214.9233403763
 20
150.1846417294
 30
0.0
 40
31.775
100
AcDbArc
 50
15.411296411
 51
164.588703589
  0
ARC
  5
32A
100
AcDbEntity
  8
_Y__________
  6
CONTINUOUS
 62
         7
100
AcDbCircle
 10
1214.9233403763
 20
150.1846417294
 30
0.0
 40
31.775
100
AcDbArc
 50
195.411296411
 51
344.588703589
  0
LINE
  5
32B
100
AcDbEntity
  8
_Y__________
  6
CENTER
 62
         1
100
AcDbLine
 10
1183.1483403763
 20
150.1846417294
 30
0.0
 11
1246.6983403763
 21
150.1846417294
 31
0.0
  0
LINE
  5
32C
100
AcDbEntity
  8
_Y__________
  6
CENTER
 62
         1
100
AcDbLine
 10
1589.36411614
 20
150.1846417294
 30
0.0
 11
1650.7694097755
 21
150.1846417294
 31
0.0
  0
LINE
  5
32D
100
AcDbEntity
  8
_Y__________
  6
CONTINUOUS
 62
         7
100
AcDbLine
 10
1593.0449584247
 20
142.1346417294
 30
0.0
 11
1597.7833403762
 21
142.1346417294
 31
0.0
  0
LINE
  5
32E
100
AcDbEntity
  8
_Y__________
  6
CONTINUOUS
 62
         7
100
AcDbLine
 10
1592.6508731435
 20
141.7405564482
 30
0.0
 11
1593.0449584247
 21
142.1346417294
 31
0.0
  0
LINE
  5
32F
100
AcDbEntity
  8
_Y__________
  6
CONTINUOUS
 62
         7
100
AcDbLine
 10
1598.2833403762
 20
142.6346417294
 30
0.0
 11
1597.7833403762
 21
142.1346417294
 31
0.0
  0
LINE
  5
330
100
AcDbEntity
  8
_Y__________
  6
CONTINUOUS
 62
         7
100
AcDbLine
 10
1592.6508731435
 20
158.6287270106
 30
0.0
 11
1593.0449584247
 21
158.2346417294
 31
0.0
  0
LINE
  5
331
100
AcDbEntity
  8
_Y__________
  6
CONTINUOUS
 62
         7
100
AcDbLine
 10
1598.2833403762
 20
157.7346417294
 30
0.0
 11
1597.7833403762
 21
158.2346417294
 31
0.0
  0
LINE
  5
332
100
AcDbEntity
  8
_Y__________
  6
CONTINUOUS
 62
         7
100
AcDbLine
 10
1598.2833403762
 20
157.7346417294
 30
0.0
 11
1598.2833403762
 21
142.6346417294
 31
0.0
  0
LINE
  5
333
100
AcDbEntity
  8
_Y__________
  6
CONTINUOUS
 62
         7
100
AcDbLine
 10
1593.0449584247
 20
158.2346417294
 30
0.0
 11
1597.7833403762
 21
158.2346417294
 31
0.0
  0
LINE
  5
334
100
AcDbEntity
  8
_Y__________
  6
CONTINUOUS
 62
         7
100
AcDbLine
 10
1653.915807609
 20
141.7405564482
 30
0.0
 11
1653.5217223278
 21
142.1346417294
 31
0.0
  0
LINE
  5
335
100
AcDbEntity
  8
_Y__________
  6
CONTINUOUS
 62
         7
100
AcDbLine
 10
1646.0833403763
 20
142.6346417294
 30
0.0
 11
1646.5833403763
 21
142.1346417294
 31
0.0
  0
LINE
  5
336
100
AcDbEntity
  8
_Y__________
  6
CONTINUOUS
 62
         7
100
AcDbLine
 10
1646.5833403763
 20
142.1346417294
 30
0.0
 11
1653.5217223278
 21
142.1346417294
 31
0.0
  0
LINE
  5
337
100
AcDbEntity
  8
_Y__________
  6
CONTINUOUS
 62
         7
100
AcDbLine
 10
1653.915807609
 20
158.6287270106
 30
0.0
 11
1653.5217223278
 21
158.2346417294
 31
0.0
  0
LINE
  5
338
100
AcDbEntity
  8
_Y__________
  6
CONTINUOUS
 62
         7
100
AcDbLine
 10
1646.5833403763
 20
158.2346417294
 30
0.0
 11
1653.5217223278
 21
158.2346417294
 31
0.0
  0
LINE
  5
339
100
AcDbEntity
  8
_Y__________
  6
CONTINUOUS
 62
         7
100
AcDbLine
 10
1646.0833403763
 20
157.7346417294
 30
0.0
 11
1646.5833403763
 21
158.2346417294
 31
0.0
  0
LINE
  5
33A
100
AcDbEntity
  8
_Y__________
  6
CONTINUOUS
 62
         7
100
AcDbLine
 10
1646.0833403763
 20
157.7346417294
 30
0.0
 11
1646.0833403763
 21
142.6346417294
 31
0.0
  0
ARC
  5
33B
100
AcDbEntity
  8
_Y__________
  6
DASHED
 62
         2
100
AcDbCircle
 10
1623.2833403763
 20
150.1846417294
 30
0.0
 40
28.125
100
AcDbArc
 50
198.3406919436
 51
343.3680794645
  0
ARC
  5
33C
100
AcDbEntity
  8
_Y__________
  6
DASHED
 62
         2
100
AcDbCircle
 10
1623.2833403763
 20
150.1846417294
 30
0.0
 40
28.125
100
AcDbArc
 50
16.6319205355
 51
163.3680794645
  0
LINE
  5
33D
100
AcDbEntity
  8
_Y__________
  6
CENTER
 62
         1
100
AcDbLine
 10
1623.2833403763
 20
184.9596417294
 30
0.0
 11
1623.2833403763
 21
115.4096417294
 31
0.0
  0
ARC
  5
33E
100
AcDbEntity
  8
_Y__________
  6
CONTINUOUS
 62
         7
100
AcDbCircle
 10
1623.2833403763
 20
150.1846417294
 30
0.0
 40
31.775
100
AcDbArc
 50
15.411296411
 51
164.588703589
  0
ARC
  5
33F
100
AcDbEntity
  8
_Y__________
  6
CONTINUOUS
 62
         7
100
AcDbCircle
 10
1623.2833403763
 20
150.1846417294
 30
0.0
 40
31.775
100
AcDbArc
 50
195.411296411
 51
344.588703589
  0
LINE
  5
340
100
AcDbEntity
  8
_Y__________
  6
CONTINUOUS
 62
         7
100
AcDbLine
 10
1407.5670699775
 20
181.9596417294
 30
0.0
 11
1407.5670699775
 21
159.0346417294
 31
0.0
  0
LINE
  5
341
100
AcDbEntity
  8
_Y__________
  6
CONTINUOUS
 62
         7
100
AcDbLine
 10
1409.2283403763
 20
179.0822369936
 30
0.0
 11
1409.2283403763
 21
158.2346417294
 31
0.0
  0
LINE
  5
342
100
AcDbEntity
  8
_Y__________
  6
CONTINUOUS
 62
         7
100
AcDbLine
 10
1412.9783403763
 20
179.0822369936
 30
0.0
 11
1412.9783403763
 21
158.2346417294
 31
0.0
  0
LINE
  5
343
100
AcDbEntity
  8
_Y__________
  6
CONTINUOUS
 62
         7
100
AcDbLine
 10
1414.639610775
 20
181.9596417294
 30
0.0
 11
1414.639610775
 21
159.0346417294
 31
0.0
  0
LINE
  5
344
100
AcDbEntity
  8
_Y__________
  6
CONTINUOUS
 62
         7
100
AcDbLine
 10
1418.3033403763
 20
158.2346417294
 30
0.0
 11
1404.0033403763
 21
158.2346417294
 31
0.0
  0
LINE
  5
345
100
AcDbEntity
  8
_Y__________
  6
CONTINUOUS
 62
         7
100
AcDbLine
 10
1418.3033403763
 20
142.1346417294
 30
0.0
 11
1404.0033403763
 21
142.1346417294
 31
0.0
  0
LINE
  5
346
100
AcDbEntity
  8
_Y__________
  6
CONTINUOUS
 62
         7
100
AcDbLine
 10
1407.5670699775
 20
159.0346417294
 30
0.0
 11
1409.2283403763
 21
158.2346417294
 31
0.0
  0
LINE
  5
347
100
AcDbEntity
  8
_Y__________
  6
CONTINUOUS
 62
         7
100
AcDbLine
 10
1407.5670699775
 20
141.3346417294
 30
0.0
 11
1409.2283403763
 21
142.1346417294
 31
0.0
  0
LINE
  5
348
100
AcDbEntity
  8
_Y__________
  6
CONTINUOUS
 62
         7
100
AcDbLine
 10
1404.0033403763
 20
158.2346417294
 30
0.0
 11
1404.0033403763
 21
142.1346417294
 31
0.0
  0
LINE
  5
349
100
AcDbEntity
  8
_Y__________
  6
CONTINUOUS
 62
         7
100
AcDbLine
 10
1407.5670699775
 20
141.3346417294
 30
0.0
 11
1403.2033403763
 21
141.3346417294
 31
0.0
  0
LINE
  5
34A
100
AcDbEntity
  8
_Y__________
  6
CONTINUOUS
 62
         7
100
AcDbLine
 10
1404.0033403763
 20
142.1346417294
 30
0.0
 11
1403.2033403763
 21
141.3346417294
 31
0.0
  0
LINE
  5
34B
100
AcDbEntity
  8
_Y__________
  6
CONTINUOUS
 62
         7
100
AcDbLine
 10
1403.2033403763
 20
159.0346417294
 30
0.0
 11
1404.0033403763
 21
158.2346417294
 31
0.0
  0
LINE
  5
34C
100
AcDbEntity
  8
_Y__________
  6
CONTINUOUS
 62
         7
100
AcDbLine
 10
1407.5670699775
 20
159.0346417294
 30
0.0
 11
1403.2033403763
 21
159.0346417294
 31
0.0
  0
LINE
  5
34D
100
AcDbEntity
  8
_Y__________
  6
CONTINUOUS
 62
         7
100
AcDbLine
 10
1418.3033403763
 20
158.2346417294
 30
0.0
 11
1418.3033403763
 21
155.1846417294
 31
0.0
  0
LINE
  5
34E
100
AcDbEntity
  8
_Y__________
  6
CONTINUOUS
 62
         7
100
AcDbLine
 10
1419.1033403763
 20
141.3346417294
 30
0.0
 11
1414.639610775
 21
141.3346417294
 31
0.0
  0
LINE
  5
34F
100
AcDbEntity
  8
_Y__________
  6
CONTINUOUS
 62
         7
100
AcDbLine
 10
1418.3033403763
 20
142.1346417294
 30
0.0
 11
1419.1033403763
 21
141.3346417294
 31
0.0
  0
LINE
  5
350
100
AcDbEntity
  8
_Y__________
  6
CONTINUOUS
 62
         7
100
AcDbLine
 10
1412.9783403763
 20
142.1346417294
 30
0.0
 11
1414.639610775
 21
141.3346417294
 31
0.0
  0
LINE
  5
351
100
AcDbEntity
  8
_Y__________
  6
CONTINUOUS
 62
         7
100
AcDbLine
 10
1419.1033403763
 20
159.0346417294
 30
0.0
 11
1418.3033403763
 21
158.2346417294
 31
0.0
  0
LINE
  5
352
100
AcDbEntity
  8
_Y__________
  6
CONTINUOUS
 62
         7
100
AcDbLine
 10
1412.9783403763
 20
158.2346417294
 30
0.0
 11
1414.639610775
 21
159.0346417294
 31
0.0
  0
LINE
  5
353
100
AcDbEntity
  8
_Y__________
  6
CONTINUOUS
 62
         7
100
AcDbLine
 10
1419.1033403763
 20
159.0346417294
 30
0.0
 11
1414.639610775
 21
159.0346417294
 31
0.0
  0
LINE
  5
354
100
AcDbEntity
  8
_Y__________
  6
CONTINUOUS
 62
         7
100
AcDbLine
 10
1407.5670699775
 20
141.3346417294
 30
0.0
 11
1407.5670699775
 21
118.4096417294
 31
0.0
  0
LINE
  5
355
100
AcDbEntity
  8
_Y__________
  6
CONTINUOUS
 62
         7
100
AcDbLine
 10
1409.2283403763
 20
142.1346417294
 30
0.0
 11
1409.2283403763
 21
121.2870464652
 31
0.0
  0
LINE
  5
356
100
AcDbEntity
  8
_Y__________
  6
CONTINUOUS
 62
         7
100
AcDbLine
 10
1412.9783403763
 20
142.1346417294
 30
0.0
 11
1412.9783403763
 21
121.2870464652
 31
0.0
  0
LINE
  5
357
100
AcDbEntity
  8
_Y__________
  6
CONTINUOUS
 62
         7
100
AcDbLine
 10
1414.639610775
 20
141.3346417294
 30
0.0
 11
1414.639610775
 21
118.4096417294
 31
0.0
  0
LINE
  5
358
100
AcDbEntity
  8
_Y__________
  6
CONTINUOUS
 62
         7
100
AcDbLine
 10
1414.639610775
 20
-44.7183347409
 30
0.0
 11
1418.1033403763
 21
-44.7183347409
 31
0.0
  0
LINE
  5
359
100
AcDbEntity
  8
_Y__________
  6
CONTINUOUS
 62
         7
100
AcDbLine
 10
1412.9783403763
 20
-41.8409300049
 30
0.0
 11
1414.639610775
 21
-44.7183347407
 31
0.0
  0
ARC
  5
35A
100
AcDbEntity
  8
_Y__________
  6
CONTINUOUS
 62
         7
100
AcDbCircle
 10
1412.0045400445
 20
-42.0683347409
 30
0.0
 40
1.0
100
AcDbArc
 50
13.1443256895
 51
90.0
  0
LINE
  5
35B
100
AcDbEntity
  8
_Y__________
  6
CONTINUOUS
 62
         7
100
AcDbLine
 10
1410.202140708
 20
-41.0683347407
 30
0.0
 11
1412.0045400445
 21
-41.0683347407
 31
0.0
  0
ARC
  5
35C
100
AcDbEntity
  8
_Y__________
  6
CONTINUOUS
 62
         7
100
AcDbCircle
 10
1410.202140708
 20
-42.0683347407
 30
0.0
 40
1.0
100
AcDbArc
 50
90.0
 51
166.8556743105
  0
LINE
  5
35D
100
AcDbEntity
  8
_Y__________
  6
CONTINUOUS
 62
         7
100
AcDbLine
 10
1409.2283403763
 20
-41.8409300049
 30
0.0
 11
1407.5670699775
 21
-44.7183347407
 31
0.0
  0
LINE
  5
35E
100
AcDbEntity
  8
_Y__________
  6
CONTINUOUS
 62
         7
100
AcDbLine
 10
1403.2033403763
 20
-35.7433347409
 30
0.0
 11
1403.2033403763
 21
-43.7183347409
 31
0.0
  0
LINE
  5
35F
100
AcDbEntity
  8
_Y__________
  6
CONTINUOUS
 62
         7
100
AcDbLine
 10
1404.2033403763
 20
-44.7183347409
 30
0.0
 11
1407.5670699775
 21
-44.7183347409
 31
0.0
  0
ARC
  5
360
100
AcDbEntity
  8
_Y__________
  6
CONTINUOUS
 62
         7
100
AcDbCircle
 10
1402.6033403763
 20
-35.7433347407
 30
0.0
 40
0.6
100
AcDbArc
 50
0.0
 51
90.0
  0
LINE
  5
361
100
AcDbEntity
  8
_Y__________
  6
CONTINUOUS
 62
         7
100
AcDbLine
 10
1401.9497505378
 20
-35.1433347407
 30
0.0
 11
1402.6033403763
 21
-35.1433347407
 31
0.0
  0
LINE
  5
362
100
AcDbEntity
  8
_Y__________
  6
CONTINUOUS
 62
         7
100
AcDbLine
 10
1401.2033403763
 20
-35.3433347409
 30
0.0
 11
1401.9497505378
 21
-35.1433347409
 31
0.0
  0
LINE
  5
363
100
AcDbEntity
  8
_Y__________
  6
CENTER
 62
         1
100
AcDbLine
 10
1328.5556074009
 20
-12.9433347407
 30
0.0
 11
1419.1033403763
 21
-12.9433347407
 31
0.0
  0
LINE
  5
364
100
AcDbEntity
  8
_Y__________
  6
CONTINUOUS
 62
         7
100
AcDbLine
 10
1332.6301721046
 20
-25.3430810344
 30
0.0
 11
1401.2033403767
 21
-35.3433347407
 31
0.0
  0
LINE
  5
365
100
AcDbEntity
  8
_Y__________
  6
CONTINUOUS
 62
         7
100
AcDbLine
 10
1401.2033403763
 20
9.4566652593
 30
0.0
 11
1401.9497505378
 21
9.2566652593
 31
0.0
  0
LINE
  5
366
100
AcDbEntity
  8
_Y__________
  6
CONTINUOUS
 62
         7
100
AcDbLine
 10
1332.6301721046
 20
-0.543588447
 30
0.0
 11
1401.2033403763
 21
9.4566652593
 31
0.0
  0
LINE
  5
367
100
AcDbEntity
  8
_Y__________
  6
CONTINUOUS
 62
         7
100
AcDbLine
 10
1401.9497505378
 20
9.2566652593
 30
0.0
 11
1402.6033403763
 21
9.2566652593
 31
0.0
  0
ARC
  5
368
100
AcDbEntity
  8
_Y__________
  6
CONTINUOUS
 62
         7
100
AcDbCircle
 10
1402.6033403763
 20
9.8566652593
 30
0.0
 40
0.6
100
AcDbArc
 50
270.0
 51
360.0
  0
LINE
  5
369
100
AcDbEntity
  8
_Y__________
  6
CONTINUOUS
 62
         7
100
AcDbLine
 10
1403.2033403763
 20
9.8566652593
 30
0.0
 11
1403.2033403763
 21
17.8316652595
 31
0.0
  0
LINE
  5
36A
100
AcDbEntity
  8
_Y__________
  6
CONTINUOUS
 62
         7
100
AcDbLine
 10
1404.2033403763
 20
18.8316652595
 30
0.0
 11
1407.5670699775
 21
18.8316652595
 31
0.0
  0
LINE
  5
36B
100
AcDbEntity
  8
_Y__________
  6
CONTINUOUS
 62
         7
100
AcDbLine
 10
1409.2283403763
 20
15.9542605235
 30
0.0
 11
1407.5670699775
 21
18.8316652593
 31
0.0
  0
ARC
  5
36C
100
AcDbEntity
  8
_Y__________
  6
CONTINUOUS
 62
         7
100
AcDbCircle
 10
1410.202140708
 20
16.1816652595
 30
0.0
 40
1.0
100
AcDbArc
 50
193.1443256895
 51
270.0
  0
LINE
  5
36D
100
AcDbEntity
  8
_Y__________
  6
CONTINUOUS
 62
         7
100
AcDbLine
 10
1410.202140708
 20
15.1816652595
 30
0.0
 11
1412.0045400445
 21
15.1816652595
 31
0.0
  0
ARC
  5
36E
100
AcDbEntity
  8
_Y__________
  6
CONTINUOUS
 62
         7
100
AcDbCircle
 10
1412.0045400445
 20
16.1816652595
 30
0.0
 40
1.0
100
AcDbArc
 50
270.0
 51
346.8556743105
  0
LINE
  5
36F
100
AcDbEntity
  8
_Y__________
  6
CONTINUOUS
 62
         7
100
AcDbLine
 10
1412.9783403763
 20
15.9542605237
 30
0.0
 11
1414.639610775
 21
18.8316652595
 31
0.0
  0
LINE
  5
370
100
AcDbEntity
  8
_Y__________
  6
CONTINUOUS
 62
         7
100
AcDbLine
 10
1414.639610775
 20
18.8316652595
 30
0.0
 11
1418.1033403763
 21
18.8316652595
 31
0.0
  0
LINE
  5
371
100
AcDbEntity
  8
_Y__________
  6
CONTINUOUS
 62
         7
100
AcDbLine
 10
1409.2283403763
 20
179.0822369936
 30
0.0
 11
1407.5670699775
 21
181.9596417294
 31
0.0
  0
LINE
  5
372
100
AcDbEntity
  8
_Y__________
  6
CONTINUOUS
 62
         7
100
AcDbLine
 10
1409.2283403763
 20
121.2870464652
 30
0.0
 11
1407.5670699775
 21
118.4096417294
 31
0.0
  0
LINE
  5
373
100
AcDbEntity
  8
_Y__________
  6
CONTINUOUS
 62
         7
100
AcDbLine
 10
1403.2033403763
 20
180.9596417294
 30
0.0
 11
1403.2033403763
 21
119.4096417294
 31
0.0
  0
LINE
  5
374
100
AcDbEntity
  8
_Y__________
  6
CENTER
 62
         1
100
AcDbLine
 10
1400.0033403763
 20
172.4096417294
 30
0.0
 11
1400.0033403763
 21
127.9596417294
 31
0.0
  0
LINE
  5
375
100
AcDbEntity
  8
_Y__________
  6
CONTINUOUS
 62
         7
100
AcDbLine
 10
1404.2033403763
 20
118.4096417294
 30
0.0
 11
1407.5670699775
 21
118.4096417294
 31
0.0
  0
LINE
  5
376
100
AcDbEntity
  8
_Y__________
  6
CONTINUOUS
 62
         7
100
AcDbLine
 10
1404.2033403763
 20
181.9596417294
 30
0.0
 11
1407.5670699775
 21
181.9596417294
 31
0.0
  0
LINE
  5
377
100
AcDbEntity
  8
_Y__________
  6
CONTINUOUS
 62
         7
100
AcDbLine
 10
1419.1033403763
 20
180.9596417294
 30
0.0
 11
1419.1033403763
 21
155.6846417294
 31
0.0
  0
LINE
  5
378
100
AcDbEntity
  8
_Y__________
  6
CONTINUOUS
 62
         7
100
AcDbLine
 10
1419.1033403763
 20
180.9596417294
 30
0.0
 11
1419.1033403763
 21
169.1846417294
 31
0.0
  0
LINE
  5
379
100
AcDbEntity
  8
_Y__________
  6
CONTINUOUS
 62
         7
100
AcDbLine
 10
1410.202140708
 20
122.0596417294
 30
0.0
 11
1412.0045400445
 21
122.0596417294
 31
0.0
  0
ARC
  5
37A
100
AcDbEntity
  8
_Y__________
  6
CONTINUOUS
 62
         7
100
AcDbCircle
 10
1410.202140708
 20
121.0596417294
 30
0.0
 40
1.0
100
AcDbArc
 50
90.0
 51
166.8556743105
  0
LINE
  5
37B
100
AcDbEntity
  8
_Y__________
  6
CONTINUOUS
 62
         7
100
AcDbLine
 10
1412.9783403763
 20
121.2870464652
 30
0.0
 11
1414.639610775
 21
118.4096417294
 31
0.0
  0
ARC
  5
37C
100
AcDbEntity
  8
_Y__________
  6
CONTINUOUS
 62
         7
100
AcDbCircle
 10
1412.0045400445
 20
121.0596417294
 30
0.0
 40
1.0
100
AcDbArc
 50
13.1443256895
 51
90.0
  0
LINE
  5
37D
100
AcDbEntity
  8
_Y__________
  6
CONTINUOUS
 62
         7
100
AcDbLine
 10
1414.639610775
 20
118.4096417294
 30
0.0
 11
1418.1033403763
 21
118.4096417294
 31
0.0
  0
LINE
  5
37E
100
AcDbEntity
  8
_Y__________
  6
CONTINUOUS
 62
         7
100
AcDbLine
 10
1412.9783403763
 20
179.0822369936
 30
0.0
 11
1414.639610775
 21
181.9596417294
 31
0.0
  0
LINE
  5
37F
100
AcDbEntity
  8
_Y__________
  6
CONTINUOUS
 62
         7
100
AcDbLine
 10
1414.639610775
 20
181.9596417294
 30
0.0
 11
1418.1033403763
 21
181.9596417294
 31
0.0
  0
LINE
  5
380
100
AcDbEntity
  8
_Y__________
  6
CONTINUOUS
 62
         7
100
AcDbLine
 10
1410.202140708
 20
178.3096417294
 30
0.0
 11
1412.0045400445
 21
178.3096417294
 31
0.0
  0
ARC
  5
381
100
AcDbEntity
  8
_Y__________
  6
CONTINUOUS
 62
         7
100
AcDbCircle
 10
1410.202140708
 20
179.3096417294
 30
0.0
 40
1.0
100
AcDbArc
 50
193.1443256895
 51
270.0
  0
ARC
  5
382
100
AcDbEntity
  8
_Y__________
  6
CONTINUOUS
 62
         7
100
AcDbCircle
 10
1412.0045400445
 20
179.3096417294
 30
0.0
 40
1.0
100
AcDbArc
 50
270.0
 51
346.8556743105
  0
LINE
  5
383
100
AcDbEntity
  8
_Y__________
  6
CENTER
 62
         1
100
AcDbLine
 10
1411.1033403763
 20
187.6899050302
 30
0.0
 11
1411.1033403763
 21
112.6870854784
 31
0.0
  0
LINE
  5
384
100
AcDbEntity
  8
_Y__________
  6
CONTINUOUS
 62
         7
100
AcDbLine
 10
1332.7801721046
 20
137.7630204357
 30
0.0
 11
1401.2033403763
 21
127.7846417294
 31
0.0
  0
LINE
  5
385
100
AcDbEntity
  8
_Y__________
  6
CENTER
 62
         1
100
AcDbLine
 10
1329.3598386453
 20
150.1846417294
 30
0.0
 11
1378.4659535144
 21
150.1846417294
 31
0.0
  0
LINE
  5
386
100
AcDbEntity
  8
_Y__________
  6
CONTINUOUS
 62
         7
100
AcDbLine
 10
1332.7801721046
 20
162.6062630231
 30
0.0
 11
1401.2033403763
 21
172.5846417294
 31
0.0
  0
LINE
  5
387
100
AcDbEntity
  8
_Y__________
  6
CENTER
 62
         1
100
AcDbLine
 10
1396.6508489578
 20
150.1846417294
 30
0.0
 11
1419.1033403763
 21
150.1846417294
 31
0.0
  0
LINE
  5
388
100
AcDbEntity
  8
_Y__________
  6
CONTINUOUS
 62
         7
100
AcDbLine
 10
1401.9497505378
 20
127.9846417294
 30
0.0
 11
1402.6033403763
 21
127.9846417294
 31
0.0
  0
LINE
  5
389
100
AcDbEntity
  8
_Y__________
  6
CONTINUOUS
 62
         7
100
AcDbLine
 10
1401.2033403763
 20
127.7846417294
 30
0.0
 11
1401.9497505378
 21
127.9846417294
 31
0.0
  0
ARC
  5
38A
100
AcDbEntity
  8
_Y__________
  6
CONTINUOUS
 62
         7
100
AcDbCircle
 10
1402.6033403763
 20
127.3846417294
 30
0.0
 40
0.6
100
AcDbArc
 50
0.0
 51
90.0
  0
LINE
  5
38B
100
AcDbEntity
  8
_Y__________
  6
CONTINUOUS
 62
         7
100
AcDbLine
 10
1401.9497505378
 20
127.9846417294
 30
0.0
 11
1401.9497505378
 21
172.3846417294
 31
0.0
  0
LINE
  5
38C
100
AcDbEntity
  8
_Y__________
  6
CONTINUOUS
 62
         7
100
AcDbLine
 10
1401.2033403763
 20
127.7846417294
 30
0.0
 11
1401.2033403763
 21
172.5846417294
 31
0.0
  0
LINE
  5
38D
100
AcDbEntity
  8
_Y__________
  6
CONTINUOUS
 62
         7
100
AcDbLine
 10
1401.9497505378
 20
172.3846417294
 30
0.0
 11
1402.6033403763
 21
172.3846417294
 31
0.0
  0
LINE
  5
38E
100
AcDbEntity
  8
_Y__________
  6
CONTINUOUS
 62
         7
100
AcDbLine
 10
1401.2033403763
 20
172.5846417294
 30
0.0
 11
1401.9497505378
 21
172.3846417294
 31
0.0
  0
ARC
  5
38F
100
AcDbEntity
  8
_Y__________
  6
CONTINUOUS
 62
         7
100
AcDbCircle
 10
1402.6033403763
 20
172.9846417294
 30
0.0
 40
0.6
100
AcDbArc
 50
270.0
 51
360.0
  0
LINE
  5
390
100
AcDbEntity
  8
_Y__________
  6
CONTINUOUS
 62
         7
100
AcDbLine
 10
1419.1033403763
 20
-35.7283347407
 30
0.0
 11
1419.1033403763
 21
-43.7183347409
 31
0.0
  0
LINE
  5
391
100
AcDbEntity
  8
_Y__________
  6
CONTINUOUS
 62
         7
100
AcDbLine
 10
1419.1033403763
 20
17.8316652595
 30
0.0
 11
1419.1033403763
 21
9.8416652593
 31
0.0
  0
ARC
  5
392
100
AcDbEntity
  8
_Y__________
  6
CONTINUOUS
 62
         7
100
AcDbCircle
 10
1404.2033403763
 20
17.8316652593
 30
0.0
 40
1.0
100
AcDbArc
 50
90.0
 51
180.0
  0
LINE
  5
393
100
AcDbEntity
  8
_Y__________
  6
CONTINUOUS
 62
         7
100
AcDbLine
 10
1404.2033403763
 20
18.8316652593
 30
0.0
 11
1405.2033403763
 21
18.8316652593
 31
0.0
  0
LINE
  5
394
100
AcDbEntity
  8
_Y__________
  6
CONTINUOUS
 62
         7
100
AcDbLine
 10
1403.2033403763
 20
17.8316652593
 30
0.0
 11
1403.2033403763
 21
16.8316652593
 31
0.0
  0
LINE
  5
395
100
AcDbEntity
  8
_Y__________
  6
CONTINUOUS
 62
         7
100
AcDbLine
 10
1417.1033403763
 20
18.8316652593
 30
0.0
 11
1418.1033403763
 21
18.8316652593
 31
0.0
  0
ARC
  5
396
100
AcDbEntity
  8
_Y__________
  6
CONTINUOUS
 62
         7
100
AcDbCircle
 10
1418.1033403763
 20
17.8316652593
 30
0.0
 40
1.0
100
AcDbArc
 50
0.0
 51
90.0
  0
ARC
  5
397
100
AcDbEntity
  8
_Y__________
  6
CONTINUOUS
 62
         7
100
AcDbCircle
 10
1404.2033403763
 20
-43.7183347407
 30
0.0
 40
1.0
100
AcDbArc
 50
180.0
 51
270.0
  0
LINE
  5
398
100
AcDbEntity
  8
_Y__________
  6
CONTINUOUS
 62
         7
100
AcDbLine
 10
1404.2033403763
 20
-44.7183347407
 30
0.0
 11
1405.2033403763
 21
-44.7183347407
 31
0.0
  0
LINE
  5
399
100
AcDbEntity
  8
_Y__________
  6
CONTINUOUS
 62
         7
100
AcDbLine
 10
1417.1033403763
 20
-44.7183347407
 30
0.0
 11
1418.1033403763
 21
-44.7183347407
 31
0.0
  0
ARC
  5
39A
100
AcDbEntity
  8
_Y__________
  6
CONTINUOUS
 62
         7
100
AcDbCircle
 10
1418.1033403763
 20
-43.7183347407
 30
0.0
 40
1.0
100
AcDbArc
 50
270.0
 51
360.0
  0
LINE
  5
39B
100
AcDbEntity
  8
_Y__________
  6
CONTINUOUS
 62
         7
100
AcDbLine
 10
1419.1033403763
 20
17.8316652593
 30
0.0
 11
1419.1033403763
 21
16.8316652593
 31
0.0
  0
LINE
  5
39C
100
AcDbEntity
  8
_Y__________
  6
CONTINUOUS
 62
         7
100
AcDbLine
 10
1403.2033403763
 20
-42.7183347407
 30
0.0
 11
1403.2033403763
 21
-43.7183347407
 31
0.0
  0
LINE
  5
39D
100
AcDbEntity
  8
_Y__________
  6
CONTINUOUS
 62
         7
100
AcDbLine
 10
1419.1033403763
 20
-42.7183347407
 30
0.0
 11
1419.1033403763
 21
-43.7183347407
 31
0.0
  0
LINE
  5
39E
100
AcDbEntity
  8
_Y__________
  6
CONTINUOUS
 62
         7
100
AcDbLine
 10
1419.1033403763
 20
127.3996417294
 30
0.0
 11
1419.1033403763
 21
119.4096417294
 31
0.0
  0
LINE
  5
39F
100
AcDbEntity
  8
_Y__________
  6
CONTINUOUS
 62
         7
100
AcDbLine
 10
1403.2033403763
 20
120.4096417294
 30
0.0
 11
1403.2033403763
 21
119.4096417294
 31
0.0
  0
LINE
  5
3A0
100
AcDbEntity
  8
_Y__________
  6
CONTINUOUS
 62
         7
100
AcDbLine
 10
1419.1033403763
 20
180.9596417294
 30
0.0
 11
1419.1033403763
 21
172.9696417294
 31
0.0
  0
ARC
  5
3A1
100
AcDbEntity
  8
_Y__________
  6
CONTINUOUS
 62
         7
100
AcDbCircle
 10
1418.1033403763
 20
119.4096417294
 30
0.0
 40
1.0
100
AcDbArc
 50
270.0
 51
360.0
  0
LINE
  5
3A2
100
AcDbEntity
  8
_Y__________
  6
CONTINUOUS
 62
         7
100
AcDbLine
 10
1417.1033403763
 20
118.4096417294
 30
0.0
 11
1418.1033403763
 21
118.4096417294
 31
0.0
  0
LINE
  5
3A3
100
AcDbEntity
  8
_Y__________
  6
CONTINUOUS
 62
         7
100
AcDbLine
 10
1404.2033403763
 20
118.4096417294
 30
0.0
 11
1405.2033403763
 21
118.4096417294
 31
0.0
  0
ARC
  5
3A4
100
AcDbEntity
  8
_Y__________
  6
CONTINUOUS
 62
         7
100
AcDbCircle
 10
1404.2033403763
 20
119.4096417294
 30
0.0
 40
1.0
100
AcDbArc
 50
180.0
 51
270.0
  0
ARC
  5
3A5
100
AcDbEntity
  8
_Y__________
  6
CONTINUOUS
 62
         7
100
AcDbCircle
 10
1418.1033403763
 20
180.9596417294
 30
0.0
 40
1.0
100
AcDbArc
 50
0.0
 51
90.0
  0
LINE
  5
3A6
100
AcDbEntity
  8
_Y__________
  6
CONTINUOUS
 62
         7
100
AcDbLine
 10
1417.1033403763
 20
181.9596417294
 30
0.0
 11
1418.1033403763
 21
181.9596417294
 31
0.0
  0
LINE
  5
3A7
100
AcDbEntity
  8
_Y__________
  6
CONTINUOUS
 62
         7
100
AcDbLine
 10
1403.2033403763
 20
180.9596417294
 30
0.0
 11
1403.2033403763
 21
179.9596417294
 31
0.0
  0
LINE
  5
3A8
100
AcDbEntity
  8
_Y__________
  6
CONTINUOUS
 62
         7
100
AcDbLine
 10
1404.2033403763
 20
181.9596417294
 30
0.0
 11
1405.2033403763
 21
181.9596417294
 31
0.0
  0
ARC
  5
3A9
100
AcDbEntity
  8
_Y__________
  6
CONTINUOUS
 62
         7
100
AcDbCircle
 10
1404.2033403763
 20
180.9596417294
 30
0.0
 40
1.0
100
AcDbArc
 50
90.0
 51
180.0
  0
LINE
  5
3AA
100
AcDbEntity
  8
_Y__________
  6
CONTINUOUS
 62
         7
100
AcDbLine
 10
1419.1033403763
 20
120.4096417294
 30
0.0
 11
1419.1033403763
 21
119.4096417294
 31
0.0
  0
LINE
  5
3AB
100
AcDbEntity
  8
_Y__________
  6
CONTINUOUS
 62
         7
100
AcDbLine
 10
1419.1033403763
 20
180.9596417294
 30
0.0
 11
1419.1033403763
 21
179.9596417294
 31
0.0
  0
LINE
  5
3AC
100
AcDbEntity
  8
L1_35
  6
CENTER
 62
         1
100
AcDbLine
 10
1436.2988189494
 20
-12.9433347407
 30
0.0
 11
1419.1033403763
 21
-12.9433347407
 31
0.0
  0
LINE
  5
3AD
100
AcDbEntity
  8
L1_35
  6
CONTINUOUS
 62
         4
100
AcDbLine
 10
1483.8509541364
 20
66.3988727378
 30
0.0
 11
1478.7201316828
 21
66.3988727378
 31
0.0
  0
LINE
  5
3AE
100
AcDbEntity
  8
L1_35
  6
CONTINUOUS
 62
         4
100
AcDbLine
 10
1484.4605492596
 20
66.8560736522
 30
0.0
 11
1478.1105365596
 21
66.8560736522
 31
0.0
  0
LINE
  5
3AF
100
AcDbEntity
  8
L1_35
  6
CONTINUOUS
 62
         4
100
AcDbLine
 10
1483.8509541364
 20
66.3988727378
 30
0.0
 11
1484.4605492596
 21
66.8560736522
 31
0.0
  0
LINE
  5
3B0
100
AcDbEntity
  8
L1_35
  6
CONTINUOUS
 62
         4
100
AcDbLine
 10
1478.7201316828
 20
66.3988727378
 30
0.0
 11
1478.1105365596
 21
66.8560736522
 31
0.0
  0
LINE
  5
3B1
100
AcDbEntity
  8
L1_35
  6
CONTINUOUS
 62
         4
100
AcDbLine
 10
1478.1105365596
 20
66.8560736522
 30
0.0
 11
1478.1105365596
 21
67.3598413264
 31
0.0
  0
LINE
  5
3B2
100
AcDbEntity
  8
L1_35
  6
CONTINUOUS
 62
         4
100
AcDbLine
 10
1478.7201316828
 20
67.8636090006
 30
0.0
 11
1478.1105365596
 21
68.3673766748
 31
0.0
  0
LINE
  5
3B3
100
AcDbEntity
  8
L1_35
  6
CONTINUOUS
 62
         4
100
AcDbLine
 10
1478.1105365596
 20
68.3673766748
 30
0.0
 11
1478.7201316828
 21
68.871144349
 31
0.0
  0
LINE
  5
3B4
100
AcDbEntity
  8
L1_35
  6
CONTINUOUS
 62
         4
100
AcDbLine
 10
1484.4605492596
 20
67.8636090006
 30
0.0
 11
1483.8509541364
 21
68.3673766748
 31
0.0
  0
LINE
  5
3B5
100
AcDbEntity
  8
L1_35
  6
CONTINUOUS
 62
         4
100
AcDbLine
 10
1483.8509541364
 20
68.3673766748
 30
0.0
 11
1484.4605492596
 21
68.871144349
 31
0.0
  0
LINE
  5
3B6
100
AcDbEntity
  8
L1_35
  6
CONTINUOUS
 62
         4
100
AcDbLine
 10
1484.4605492596
 20
68.871144349
 30
0.0
 11
1478.1105365596
 21
68.3673766748
 31
0.0
  0
LINE
  5
3B7
100
AcDbEntity
  8
L1_35
  6
CONTINUOUS
 62
         4
100
AcDbLine
 10
1483.8509541364
 20
68.3673766748
 30
0.0
 11
1478.7201316828
 21
67.8636090006
 31
0.0
  0
LINE
  5
3B8
100
AcDbEntity
  8
L1_35
  6
CONTINUOUS
 62
         4
100
AcDbLine
 10
1478.7201316828
 20
67.8636090006
 30
0.0
 11
1478.1105365596
 21
67.3598413264
 31
0.0
  0
LINE
  5
3B9
100
AcDbEntity
  8
L1_35
  6
CONTINUOUS
 62
         4
100
AcDbLine
 10
1484.4605492596
 20
67.8636090006
 30
0.0
 11
1483.8509541364
 21
67.3598413264
 31
0.0
  0
LINE
  5
3BA
100
AcDbEntity
  8
L1_35
  6
CONTINUOUS
 62
         4
100
AcDbLine
 10
1483.8509541364
 20
67.3598413264
 30
0.0
 11
1484.4605492596
 21
66.8560736522
 31
0.0
  0
LINE
  5
3BB
100
AcDbEntity
  8
L1_35
  6
CONTINUOUS
 62
         4
100
AcDbLine
 10
1484.4605492596
 20
67.8636090006
 30
0.0
 11
1478.1105365596
 21
67.3598413264
 31
0.0
  0
LINE
  5
3BC
100
AcDbEntity
  8
L1_35
  6
CONTINUOUS
 62
         4
100
AcDbLine
 10
1483.8509541364
 20
67.3598413264
 30
0.0
 11
1479.223899357
 21
66.8560736522
 31
0.0
  0
LINE
  5
3BD
100
AcDbEntity
  8
L1_35
  6
CONTINUOUS
 62
         4
100
AcDbLine
 10
1484.4605492596
 20
66.8560736522
 30
0.0
 11
1479.223899357
 21
66.8560736522
 31
0.0
  0
LINE
  5
3BE
100
AcDbEntity
  8
L1_35
  6
CONTINUOUS
 62
         4
100
AcDbLine
 10
1478.7201316828
 20
68.871144349
 30
0.0
 11
1478.1105365596
 21
69.3749120232
 31
0.0
  0
LINE
  5
3BF
100
AcDbEntity
  8
L1_35
  6
CONTINUOUS
 62
         4
100
AcDbLine
 10
1478.1105365596
 20
69.3749120232
 30
0.0
 11
1478.7201316828
 21
69.8786796974
 31
0.0
  0
LINE
  5
3C0
100
AcDbEntity
  8
L1_35
  6
CONTINUOUS
 62
         4
100
AcDbLine
 10
1484.4605492596
 20
68.871144349
 30
0.0
 11
1483.8509541364
 21
69.3749120232
 31
0.0
  0
LINE
  5
3C1
100
AcDbEntity
  8
L1_35
  6
CONTINUOUS
 62
         4
100
AcDbLine
 10
1483.8509541364
 20
69.3749120232
 30
0.0
 11
1484.4605492596
 21
69.8786796974
 31
0.0
  0
LINE
  5
3C2
100
AcDbEntity
  8
L1_35
  6
CONTINUOUS
 62
         4
100
AcDbLine
 10
1484.4605492596
 20
69.8786796974
 30
0.0
 11
1478.1105365596
 21
69.3749120232
 31
0.0
  0
LINE
  5
3C3
100
AcDbEntity
  8
L1_35
  6
CONTINUOUS
 62
         4
100
AcDbLine
 10
1483.8509541364
 20
69.3749120232
 30
0.0
 11
1478.7201316828
 21
68.871144349
 31
0.0
  0
LINE
  5
3C4
100
AcDbEntity
  8
L1_35
  6
CONTINUOUS
 62
         4
100
AcDbLine
 10
1478.7201316828
 20
67.8636090006
 30
0.0
 11
1478.1105365596
 21
67.3598413264
 31
0.0
  0
LINE
  5
3C5
100
AcDbEntity
  8
L1_35
  6
CONTINUOUS
 62
         4
100
AcDbLine
 10
1484.4605492596
 20
67.8636090006
 30
0.0
 11
1483.8509541364
 21
67.3598413264
 31
0.0
  0
LINE
  5
3C6
100
AcDbEntity
  8
L1_35
  6
CONTINUOUS
 62
         4
100
AcDbLine
 10
1483.8509541364
 20
67.3598413264
 30
0.0
 11
1484.4605492596
 21
66.8560736522
 31
0.0
  0
LINE
  5
3C7
100
AcDbEntity
  8
L1_35
  6
CONTINUOUS
 62
         4
100
AcDbLine
 10
1484.4605492596
 20
67.8636090006
 30
0.0
 11
1478.1105365596
 21
67.3598413264
 31
0.0
  0
LINE
  5
3C8
100
AcDbEntity
  8
L1_35
  6
CONTINUOUS
 62
         4
100
AcDbLine
 10
1483.8509541364
 20
67.3598413264
 30
0.0
 11
1479.223899357
 21
66.8560736522
 31
0.0
  0
LINE
  5
3C9
100
AcDbEntity
  8
L1_35
  6
CONTINUOUS
 62
         4
100
AcDbLine
 10
1484.4605492596
 20
66.8560736522
 30
0.0
 11
1479.223899357
 21
66.8560736522
 31
0.0
  0
LINE
  5
3CA
100
AcDbEntity
  8
L1_35
  6
CONTINUOUS
 62
         4
100
AcDbLine
 10
1478.7201316828
 20
69.8786796974
 30
0.0
 11
1478.1105365596
 21
70.3824473716
 31
0.0
  0
LINE
  5
3CB
100
AcDbEntity
  8
L1_35
  6
CONTINUOUS
 62
         4
100
AcDbLine
 10
1478.1105365596
 20
70.3824473716
 30
0.0
 11
1478.7201316828
 21
70.8862150458
 31
0.0
  0
LINE
  5
3CC
100
AcDbEntity
  8
L1_35
  6
CONTINUOUS
 62
         4
100
AcDbLine
 10
1484.4605492596
 20
69.8786796974
 30
0.0
 11
1483.8509541364
 21
70.3824473716
 31
0.0
  0
LINE
  5
3CD
100
AcDbEntity
  8
L1_35
  6
CONTINUOUS
 62
         4
100
AcDbLine
 10
1483.8509541364
 20
70.3824473716
 30
0.0
 11
1484.4605492596
 21
70.8862150458
 31
0.0
  0
LINE
  5
3CE
100
AcDbEntity
  8
L1_35
  6
CONTINUOUS
 62
         4
100
AcDbLine
 10
1484.4605492596
 20
70.8862150458
 30
0.0
 11
1478.1105365596
 21
70.3824473716
 31
0.0
  0
LINE
  5
3CF
100
AcDbEntity
  8
L1_35
  6
CONTINUOUS
 62
         4
100
AcDbLine
 10
1483.8509541364
 20
70.3824473716
 30
0.0
 11
1478.7201316828
 21
69.8786796974
 31
0.0
  0
LINE
  5
3D0
100
AcDbEntity
  8
L1_35
  6
CONTINUOUS
 62
         4
100
AcDbLine
 10
1478.7201316828
 20
67.8636090006
 30
0.0
 11
1478.1105365596
 21
67.3598413264
 31
0.0
  0
LINE
  5
3D1
100
AcDbEntity
  8
L1_35
  6
CONTINUOUS
 62
         4
100
AcDbLine
 10
1484.4605492596
 20
67.8636090006
 30
0.0
 11
1483.8509541364
 21
67.3598413264
 31
0.0
  0
LINE
  5
3D2
100
AcDbEntity
  8
L1_35
  6
CONTINUOUS
 62
         4
100
AcDbLine
 10
1483.8509541364
 20
67.3598413264
 30
0.0
 11
1484.4605492596
 21
66.8560736522
 31
0.0
  0
LINE
  5
3D3
100
AcDbEntity
  8
L1_35
  6
CONTINUOUS
 62
         4
100
AcDbLine
 10
1484.4605492596
 20
67.8636090006
 30
0.0
 11
1478.1105365596
 21
67.3598413264
 31
0.0
  0
LINE
  5
3D4
100
AcDbEntity
  8
L1_35
  6
CONTINUOUS
 62
         4
100
AcDbLine
 10
1483.8509541364
 20
67.3598413264
 30
0.0
 11
1479.223899357
 21
66.8560736522
 31
0.0
  0
LINE
  5
3D5
100
AcDbEntity
  8
L1_35
  6
CONTINUOUS
 62
         4
100
AcDbLine
 10
1484.4605492596
 20
66.8560736522
 30
0.0
 11
1479.223899357
 21
66.8560736522
 31
0.0
  0
LINE
  5
3D6
100
AcDbEntity
  8
L1_35
  6
CONTINUOUS
 62
         4
100
AcDbLine
 10
1478.7201316828
 20
70.8862150458
 30
0.0
 11
1478.1105365596
 21
71.38998272
 31
0.0
  0
LINE
  5
3D7
100
AcDbEntity
  8
L1_35
  6
CONTINUOUS
 62
         4
100
AcDbLine
 10
1478.1105365596
 20
71.38998272
 30
0.0
 11
1478.7201316828
 21
71.8937503942
 31
0.0
  0
LINE
  5
3D8
100
AcDbEntity
  8
L1_35
  6
CONTINUOUS
 62
         4
100
AcDbLine
 10
1484.4605492596
 20
70.8862150458
 30
0.0
 11
1483.8509541364
 21
71.38998272
 31
0.0
  0
LINE
  5
3D9
100
AcDbEntity
  8
L1_35
  6
CONTINUOUS
 62
         4
100
AcDbLine
 10
1483.8509541364
 20
71.38998272
 30
0.0
 11
1484.4605492596
 21
71.8937503942
 31
0.0
  0
LINE
  5
3DA
100
AcDbEntity
  8
L1_35
  6
CONTINUOUS
 62
         4
100
AcDbLine
 10
1484.4605492596
 20
71.8937503942
 30
0.0
 11
1478.1105365596
 21
71.38998272
 31
0.0
  0
LINE
  5
3DB
100
AcDbEntity
  8
L1_35
  6
CONTINUOUS
 62
         4
100
AcDbLine
 10
1483.8509541364
 20
71.38998272
 30
0.0
 11
1478.7201316828
 21
70.8862150458
 31
0.0
  0
LINE
  5
3DC
100
AcDbEntity
  8
L1_35
  6
CONTINUOUS
 62
         4
100
AcDbLine
 10
1478.7201316828
 20
67.8636090006
 30
0.0
 11
1478.1105365596
 21
67.3598413264
 31
0.0
  0
LINE
  5
3DD
100
AcDbEntity
  8
L1_35
  6
CONTINUOUS
 62
         4
100
AcDbLine
 10
1484.4605492596
 20
67.8636090006
 30
0.0
 11
1483.8509541364
 21
67.3598413264
 31
0.0
  0
LINE
  5
3DE
100
AcDbEntity
  8
L1_35
  6
CONTINUOUS
 62
         4
100
AcDbLine
 10
1483.8509541364
 20
67.3598413264
 30
0.0
 11
1484.4605492596
 21
66.8560736522
 31
0.0
  0
LINE
  5
3DF
100
AcDbEntity
  8
L1_35
  6
CONTINUOUS
 62
         4
100
AcDbLine
 10
1484.4605492596
 20
67.8636090006
 30
0.0
 11
1478.1105365596
 21
67.3598413264
 31
0.0
  0
LINE
  5
3E0
100
AcDbEntity
  8
L1_35
  6
CONTINUOUS
 62
         4
100
AcDbLine
 10
1483.8509541364
 20
67.3598413264
 30
0.0
 11
1479.223899357
 21
66.8560736522
 31
0.0
  0
LINE
  5
3E1
100
AcDbEntity
  8
L1_35
  6
CONTINUOUS
 62
         4
100
AcDbLine
 10
1484.4605492596
 20
66.8560736522
 30
0.0
 11
1479.223899357
 21
66.8560736522
 31
0.0
  0
LINE
  5
3E2
100
AcDbEntity
  8
L1_35
  6
CONTINUOUS
 62
         4
100
AcDbLine
 10
1478.7201316828
 20
71.8937503942
 30
0.0
 11
1478.1105365596
 21
72.3975180684
 31
0.0
  0
LINE
  5
3E3
100
AcDbEntity
  8
L1_35
  6
CONTINUOUS
 62
         4
100
AcDbLine
 10
1478.1105365596
 20
72.3975180684
 30
0.0
 11
1478.7201316828
 21
72.9012857426
 31
0.0
  0
LINE
  5
3E4
100
AcDbEntity
  8
L1_35
  6
CONTINUOUS
 62
         4
100
AcDbLine
 10
1484.4605492596
 20
71.8937503942
 30
0.0
 11
1483.8509541364
 21
72.3975180684
 31
0.0
  0
LINE
  5
3E5
100
AcDbEntity
  8
L1_35
  6
CONTINUOUS
 62
         4
100
AcDbLine
 10
1483.8509541364
 20
72.3975180684
 30
0.0
 11
1484.4605492596
 21
72.9012857426
 31
0.0
  0
LINE
  5
3E6
100
AcDbEntity
  8
L1_35
  6
CONTINUOUS
 62
         4
100
AcDbLine
 10
1484.4605492596
 20
72.9012857426
 30
0.0
 11
1478.1105365596
 21
72.3975180684
 31
0.0
  0
LINE
  5
3E7
100
AcDbEntity
  8
L1_35
  6
CONTINUOUS
 62
         4
100
AcDbLine
 10
1483.8509541364
 20
72.3975180684
 30
0.0
 11
1478.7201316828
 21
71.8937503942
 31
0.0
  0
LINE
  5
3E8
100
AcDbEntity
  8
L1_35
  6
CONTINUOUS
 62
         4
100
AcDbLine
 10
1479.6091395568
 20
74.3998887398
 30
0.0
 11
1482.9619462624
 21
74.3998887398
 31
0.0
  0
LINE
  5
3E9
100
AcDbEntity
  8
L1_35
  6
CONTINUOUS
 62
         4
100
AcDbLine
 10
1478.1105365596
 20
72.9012857426
 30
0.0
 11
1484.4605492596
 21
72.9012857426
 31
0.0
  0
LINE
  5
3EA
100
AcDbEntity
  8
L1_35
  6
CONTINUOUS
 62
         4
100
AcDbLine
 10
1479.6091395568
 20
74.3998887398
 30
0.0
 11
1478.1105365596
 21
72.9012857426
 31
0.0
  0
LINE
  5
3EB
100
AcDbEntity
  8
L1_35
  6
CONTINUOUS
 62
         4
100
AcDbLine
 10
1482.9619462624
 20
74.3998887398
 30
0.0
 11
1484.4605492596
 21
72.9012857426
 31
0.0
  0
LINE
  5
3EC
100
AcDbEntity
  8
L1_35
  6
DASHED
 62
         2
100
AcDbLine
 10
1479.4524521388
 20
69.5738790878
 30
0.0
 11
1483.1186336805
 21
69.5738790878
 31
0.0
  0
LINE
  5
3ED
100
AcDbEntity
  8
L1_35
  6
DASHED
 62
         2
100
AcDbLine
 10
1479.4524521388
 20
66.3988727378
 30
0.0
 11
1479.4524521388
 21
69.5738790878
 31
0.0
  0
LINE
  5
3EE
100
AcDbEntity
  8
L1_35
  6
DASHED
 62
         2
100
AcDbLine
 10
1483.1186336805
 20
66.3988727378
 30
0.0
 11
1483.1186336805
 21
69.5738790878
 31
0.0
  0
LINE
  5
3EF
100
AcDbEntity
  8
L1_35
  6
DASHED
 62
         2
100
AcDbLine
 10
1480.3689975242
 20
66.3988727378
 30
0.0
 11
1480.3689975242
 21
69.5738790878
 31
0.0
  0
LINE
  5
3F0
100
AcDbEntity
  8
L1_35
  6
DASHED
 62
         2
100
AcDbLine
 10
1482.2020882951
 20
66.3988727378
 30
0.0
 11
1482.2020882951
 21
69.5738790878
 31
0.0
  0
DIMENSION
  5
3F3
100
AcDbEntity
  8
L1_35
  6
CONTINUOUS
 62
         4
100
AcDbDimension
  2
*D3
 10
1478.1105429096
 20
81.2401781559
 30
0.0
 11
1476.7997689765
 21
83.2651781559
 31
0.0
  3
DIMSTYLE1
100
AcDbAlignedDimension
 13
1478.1105429096
 23
73.4748887398
 33
0.0
 14
1484.4605429096
 24
73.4748887398
 34
0.0
100
AcDbRotatedDimension
  0
DIMENSION
  5
402
100
AcDbEntity
  8
L1_35
  6
CONTINUOUS
 62
         4
100
AcDbDimension
  2
*D4
 10
1468.942628502
 20
66.3998887398
 30
0.0
 11
1466.917628502
 21
66.118555852
 31
0.0
  3
DIMSTYLE1
100
AcDbAlignedDimension
 13
1479.0355429096
 23
66.3998887398
 33
0.0
 14
1479.0355429096
 24
74.3998887398
 34
0.0
 50
90.0
100
AcDbRotatedDimension
  0
DIMENSION
  5
410
100
AcDbEntity
  8
L1_35
  6
CONTINUOUS
 62
         4
100
AcDbDimension
  2
*D5
 10
1479.4380220482
 20
57.4139007043
 30
0.0
 11
1486.5372446223
 21
59.4389007043
 31
0.0
  3
DIMSTYLE1
100
AcDbAlignedDimension
 13
1479.4380220482
 23
66.3998887398
 33
0.0
 14
1483.133063771
 24
66.3998887398
 34
0.0
100
AcDbRotatedDimension
  0
LINE
  5
41E
100
AcDbEntity
  8
L1_35
  6
CENTER
 62
         1
100
AcDbLine
 10
1481.2855429096
 20
63.9472002199
 30
0.0
 11
1481.2855429096
 21
75.6498887398
 31
0.0
  0
LINE
  5
41F
100
AcDbEntity
  8
L1_35
  6
CENTER
 62
         1
100
AcDbLine
 10
1436.2988189494
 20
150.1846417294
 30
0.0
 11
1419.1033403763
 21
150.1846417294
 31
0.0
  0
LINE
  5
420
100
AcDbEntity
  8
L1_35
  6
CONTINUOUS
 62
         7
100
AcDbLine
 10
1331.7533403763
 20
161.4188234458
 30
0.0
 11
1331.7533403763
 21
138.9504600129
 31
0.0
  0
LINE
  5
421
100
AcDbEntity
  8
L1_35
  6
CENTER
 62
         1
100
AcDbLine
 10
1400.0033403763
 20
172.4096417294
 30
0.0
 11
1400.0033403763
 21
127.9596417294
 31
0.0
  0
LINE
  5
422
100
AcDbEntity
  8
L1_35
  6
CONTINUOUS
 62
         7
100
AcDbLine
 10
1403.2033403763
 20
180.9596417294
 30
0.0
 11
1403.2033403763
 21
119.4096417294
 31
0.0
  0
DIMENSION
  5
425
100
AcDbEntity
  8
L1_35
  6
CONTINUOUS
 62
         4
100
AcDbDimension
  2
*D6
 10
1331.7533403763
 20
221.7771072915
 30
0.0
 11
1378.998336827
 21
223.8021072915
 31
0.0
  3
DIMSTYLE1
100
AcDbAlignedDimension
 13
1331.7533403763
 23
161.4188234458
 33
0.0
 14
1435.0033403763
 24
150.1846417294
 34
0.0
100
AcDbRotatedDimension
  0
DIMENSION
  5
433
100
AcDbEntity
  8
L1_35
  6
CONTINUOUS
 62
         4
100
AcDbDimension
  2
*D7
 10
1400.0033403763
 20
214.1642290074
 30
0.0
 11
1414.0039745984
 21
216.1892290074
 31
0.0
  3
DIMSTYLE1
100
AcDbAlignedDimension
 13
1400.0033403763
 23
172.4096417294
 33
0.0
 14
1435.0033403763
 24
150.1846417294
 34
0.0
100
AcDbRotatedDimension
  0
LINE
  5
43F
100
AcDbEntity
  8
L1_35
  6
CONTINUOUS
 62
         7
100
AcDbLine
 10
1405.0033403763
 20
-16.9123347407
 30
0.0
 11
1405.0033403763
 21
-8.9743347407
 31
0.0
  0
LINE
  5
440
100
AcDbEntity
  8
L1_35
  6
CONTINUOUS
 62
         7
100
AcDbLine
 10
1433.5033403763
 20
-8.9743347407
 30
0.0
 11
1405.0033403763
 21
-8.9743347407
 31
0.0
  0
LINE
  5
441
100
AcDbEntity
  8
L1_35
  6
CONTINUOUS
 62
         7
100
AcDbLine
 10
1433.5033403763
 20
-16.9123347407
 30
0.0
 11
1405.0033403763
 21
-16.9123347407
 31
0.0
  0
DIMENSION
  5
444
100
AcDbEntity
  8
L1_35
  6
CONTINUOUS
 62
         4
100
AcDbDimension
  2
*D8
 10
1435.0033403763
 20
-58.3793078904
 30
0.0
 11
1413.8218457885
 21
-56.3543078904
 31
0.0
  3
DIMSTYLE1
100
AcDbAlignedDimension
 13
1435.0033403763
 23
-20.9877293495
 33
0.0
 14
1405.0033403763
 24
-16.9123347407
 34
0.0
100
AcDbRotatedDimension
  0
ARC
  5
450
100
AcDbEntity
  8
L1_35
  6
CONTINUOUS
 62
         7
100
AcDbCircle
 10
1433.5033403763
 20
-7.4743347407
 30
0.0
 40
1.5
100
AcDbArc
 50
270.0
 51
285.022059707
  0
LINE
  5
451
100
AcDbEntity
  8
L1_35
  6
CONTINUOUS
 62
         4
100
AcDbLine
 10
1433.5033403763
 20
-8.9743347407
 30
0.0
 11
1433.5033403763
 21
-16.9123347407
 31
0.0
  0
LINE
  5
452
100
AcDbEntity
  8
L1_35
  6
CONTINUOUS
 62
         7
100
AcDbLine
 10
1434.5635920999
 20
-8.5354032034
 30
0.0
 11
1433.8921267583
 21
-8.9230738991
 31
0.0
  0
ARC
  5
453
100
AcDbEntity
  8
L1_35
  6
CONTINUOUS
 62
         7
100
AcDbCircle
 10
1433.5033403763
 20
-7.4743347407
 30
0.0
 40
1.5
100
AcDbArc
 50
314.977940293
 51
360.0
  0
LINE
  5
454
100
AcDbEntity
  8
L1_35
  6
CONTINUOUS
 62
         7
100
AcDbLine
 10
1434.5635920999
 20
-17.351266278
 30
0.0
 11
1433.8921267583
 21
-16.9635955823
 31
0.0
  0
ARC
  5
455
100
AcDbEntity
  8
L1_35
  6
CONTINUOUS
 62
         7
100
AcDbCircle
 10
1433.5033403763
 20
-18.4123347407
 30
0.0
 40
1.5
100
AcDbArc
 50
0.0
 51
45.022059707
  0
ARC
  5
456
100
AcDbEntity
  8
L1_35
  6
CONTINUOUS
 62
         7
100
AcDbCircle
 10
1433.5033403763
 20
-18.4123347407
 30
0.0
 40
1.5
100
AcDbArc
 50
74.977940293
 51
90.0
  0
LINE
  5
457
100
AcDbEntity
  8
L1_35
  6
CONTINUOUS
 62
         7
100
AcDbLine
 10
1403.2533917103
 20
-5.9433347407
 30
0.0
 11
1405.0033403763
 21
-8.9743347407
 31
0.0
  0
LINE
  5
458
100
AcDbEntity
  8
L1_35
  6
CONTINUOUS
 62
         7
100
AcDbLine
 10
1403.2533917103
 20
-19.9433347407
 30
0.0
 11
1405.0033403763
 21
-16.9123347407
 31
0.0
  0
LINE
  5
459
100
AcDbEntity
  8
L1_35
  6
CENTER
 62
         1
100
AcDbLine
 10
1417.5033403763
 20
144.1245170782
 30
0.0
 11
1417.5033403763
 21
156.0778745666
 31
0.0
  0
CIRCLE
  5
45A
100
AcDbEntity
  8
L1_35
  6
CONTINUOUS
 62
         7
100
AcDbCircle
 10
1417.5033403763
 20
150.1846417294
 30
0.0
 40
3.45
  0
CIRCLE
  5
45B
100
AcDbEntity
  8
L1_35
  6
CONTINUOUS
 62
         7
100
AcDbCircle
 10
1417.5033403763
 20
150.1846417294
 30
0.0
 40
4.55
  0
ARC
  5
45C
100
AcDbEntity
  8
L1_35
  6
CONTINUOUS
 62
         4
100
AcDbCircle
 10
1417.5033403763
 20
150.1846417294
 30
0.0
 40
3.95
100
AcDbArc
 50
180.0
 51
450.0
  0
ARC
  5
45D
100
AcDbEntity
  8
_Y__________
  6
CONTINUOUS
 62
         7
100
AcDbCircle
 10
1417.5033403763
 20
150.1846417294
 30
0.0
 40
5.0
100
AcDbArc
 50
90.0
 51
270.0
  0
LINE
  5
45E
100
AcDbEntity
  8
_Y__________
  6
CONTINUOUS
 62
         7
100
AcDbLine
 10
1418.6033403763
 20
155.1846417294
 30
0.0
 11
1417.5033403763
 21
155.1846417294
 31
0.0
  0
LINE
  5
45F
100
AcDbEntity
  8
_Y__________
  6
CONTINUOUS
 62
         7
100
AcDbLine
 10
1418.6033403763
 20
145.1846417294
 30
0.0
 11
1417.5033403763
 21
145.1846417294
 31
0.0
  0
LINE
  5
460
100
AcDbEntity
  8
_Y__________
  6
CONTINUOUS
 62
         7
100
AcDbLine
 10
1419.1033403763
 20
144.6846417294
 30
0.0
 11
1419.1033403763
 21
119.4096417294
 31
0.0
  0
LINE
  5
461
100
AcDbEntity
  8
_Y__________
  6
CONTINUOUS
 62
         7
100
AcDbLine
 10
1418.3033403763
 20
145.1846417294
 30
0.0
 11
1418.3033403763
 21
142.1346417294
 31
0.0
  0
LINE
  5
462
100
AcDbEntity
  8
_Y__________
  6
CONTINUOUS
 62
         7
100
AcDbLine
 10
1418.6033403763
 20
155.1846417294
 30
0.0
 11
1419.1033403763
 21
155.6846417294
 31
0.0
  0
LINE
  5
463
100
AcDbEntity
  8
_Y__________
  6
CONTINUOUS
 62
         7
100
AcDbLine
 10
1418.6033403763
 20
145.1846417294
 30
0.0
 11
1419.1033403763
 21
144.6846417294
 31
0.0
  0
LINE
  5
464
100
AcDbEntity
  8
L1_35
  6
CONTINUOUS
 62
         7
100
AcDbLine
 10
1403.2533917103
 20
-5.9433347407
 30
0.0
 11
1360.2033403763
 21
-5.9433347407
 31
0.0
  0
LINE
  5
465
100
AcDbEntity
  8
L1_35
  6
CONTINUOUS
 62
         7
100
AcDbLine
 10
1403.2533917103
 20
-19.9433347407
 30
0.0
 11
1360.2033403763
 21
-19.9433347407
 31
0.0
  0
LINE
  5
466
100
AcDbEntity
  8
L1_35
  6
CONTINUOUS
 62
         7
100
AcDbLine
 10
1403.2533917103
 20
-5.9433347407
 30
0.0
 11
1403.2533917103
 21
-19.9433347407
 31
0.0
  0
TEXT
  5
468
100
AcDbEntity
  8
L1_35
  6
CONTINUOUS
 62
         2
100
AcDbText
 10
1607.8551181589
 20
224.3704784082
 30
0.0
 40
4.5
  1
531006
 41
0.98
  7
BOX
100
AcDbText
  0
ENDSEC
  0
SECTION
  2
OBJECTS
  0
DICTIONARY
  5
19
100
AcDbDictionary
  3
ACAD_GROUP
350
1A
  3
ACAD_MLINESTYLE
350
1B
  0
DICTIONARY
  5
1A
102
{ACAD_REACTORS
330
19
102
}
100
AcDbDictionary
  0
DICTIONARY
  5
1B
102
{ACAD_REACTORS
330
19
102
}
100
AcDbDictionary
  3
STANDARD
350
1C
  0
MLINESTYLE
  5
1C
102
{ACAD_REACTORS
330
1B
102
}
100
AcDbMlineStyle
  2
STANDARD
 70
         0
  3

 62
         0
 51
90.0
 52
90.0
 71
         2
 49
0.5
 62
       256
  6
BYLAYER
 49
-0.5
 62
       256
  6
BYLAYER
  0
ENDSEC
  0
EOF
