  0
SECTION
  2
HEADER
  9
$ACADVER
  1
AC1014
  9
$ACADMAINTVER
 70
         0
  9
$DWGCODEPAGE
  3
BIG5
  9
$INSBASE
 10
0.0
 20
0.0
 30
0.0
  9
$EXTMIN
 10
-11986.2567628575
 20
12906.6651326608
 30
0.0
  9
$EXTMAX
 10
-11377.2420238177
 20
13213.7114741333
 30
0.0
  9
$LIMMIN
 10
0.0
 20
0.0
  9
$LIMMAX
 10
0.0
 20
0.0
  9
$ORTHOMODE
 70
         0
  9
$REGENMODE
 70
         1
  9
$FILLMODE
 70
         1
  9
$QTEXTMODE
 70
         0
  9
$MIRRTEXT
 70
         1
  9
$DRAGMODE
 70
         2
  9
$LTSCALE
 40
1.0
  9
$OSMODE
 70
         0
  9
$ATTMODE
 70
         1
  9
$TEXTSIZE
 40
1.5
  9
$TRACEWID
 40
0.05
  9
$TEXTSTYLE
  7
STANDARD
  9
$CLAYER
  8
0
  9
$CELTYPE
  6
CONTINUOUS
  9
$CECOLOR
 62
         4
  9
$CELTSCALE
 40
1.0
  9
$DELOBJ
 70
         1
  9
$DISPSILH
 70
         0
  9
$DIMSCALE
 40
1.0
  9
$DIMASZ
 40
0.18
  9
$DIMEXO
 40
0.0625
  9
$DIMDLI
 40
0.38
  9
$DIMRND
 40
0.0
  9
$DIMDLE
 40
0.0
  9
$DIMEXE
 40
0.25
  9
$DIMTP
 40
0.01
  9
$DIMTM
 40
-0.01
  9
$DIMTXT
 40
2.7
  9
$DIMCEN
 40
0.09
  9
$DIMTSZ
 40
0.0
  9
$DIMTOL
 70
         0
  9
$DIMLIM
 70
         0
  9
$DIMTIH
 70
         1
  9
$DIMTOH
 70
         1
  9
$DIMSE1
 70
         0
  9
$DIMSE2
 70
         0
  9
$DIMTAD
 70
         0
  9
$DIMZIN
 70
         0
  9
$DIMBLK
  1

  9
$DIMASO
 70
         1
  9
$DIMSHO
 70
         1
  9
$DIMPOST
  1

  9
$DIMAPOST
  1

  9
$DIMALT
 70
         0
  9
$DIMALTD
 70
         2
  9
$DIMALTF
 40
25.4
  9
$DIMLFAC
 40
1.0
  9
$DIMTOFL
 70
         0
  9
$DIMTVP
 40
0.0
  9
$DIMTIX
 70
         0
  9
$DIMSOXD
 70
         0
  9
$DIMSAH
 70
         0
  9
$DIMBLK1
  1

  9
$DIMBLK2
  1

  9
$DIMSTYLE
  2
STANDARD
  9
$DIMCLRD
 70
         0
  9
$DIMCLRE
 70
         0
  9
$DIMCLRT
 70
         4
  9
$DIMTFAC
 40
0.7
  9
$DIMGAP
 40
0.09
  9
$DIMJUST
 70
         0
  9
$DIMSD1
 70
         0
  9
$DIMSD2
 70
         0
  9
$DIMTOLJ
 70
         1
  9
$DIMTZIN
 70
         0
  9
$DIMALTZ
 70
         0
  9
$DIMALTTZ
 70
         0
  9
$DIMFIT
 70
         3
  9
$DIMUPT
 70
         0
  9
$DIMUNIT
 70
         2
  9
$DIMDEC
 70
         4
  9
$DIMTDEC
 70
         4
  9
$DIMALTU
 70
         2
  9
$DIMALTTD
 70
         2
  9
$DIMTXSTY
  7
STANDARD
  9
$DIMAUNIT
 70
         0
  9
$LUNITS
 70
         2
  9
$LUPREC
 70
        10
  9
$SKETCHINC
 40
0.1
  9
$FILLETRAD
 40
0.0
  9
$AUNITS
 70
         0
  9
$AUPREC
 70
         0
  9
$MENU
  1
acad
  9
$ELEVATION
 40
0.0
  9
$PELEVATION
 40
0.0
  9
$THICKNESS
 40
0.0
  9
$LIMCHECK
 70
         0
  9
$BLIPMODE
 70
         1
  9
$CHAMFERA
 40
0.0
  9
$CHAMFERB
 40
0.0
  9
$CHAMFERC
 40
0.0
  9
$CHAMFERD
 40
0.0
  9
$SKPOLY
 70
         0
  9
$TDCREATE
 40
0.000000000
  9
$TDUPDATE
 40
0.000000000
  9
$TDINDWG
 40
0.0000000000
  9
$TDUSRTIMER
 40
0.0000000000
  9
$USRTIMER
 70
         1
  9
$ANGBASE
 50
0.0
  9
$ANGDIR
 70
         0
  9
$PDMODE
 70
         2
  9
$PDSIZE
 40
0.0
  9
$PLINEWID
 40
0.0
  9
$COORDS
 70
         1
  9
$SPLFRAME
 70
         0
  9
$SPLINETYPE
 70
         6
  9
$SPLINESEGS
 70
         8
  9
$ATTDIA
 70
         0
  9
$ATTREQ
 70
         1
  9
$HANDLING
 70
         1
  9
$HANDSEED
  5
3AC
  9
$SURFTAB1
 70
         6
  9
$SURFTAB2
 70
         6
  9
$SURFTYPE
 70
         6
  9
$SURFU
 70
         6
  9
$SURFV
 70
         6
  9
$UCSNAME
  2

  9
$UCSORG
 10
0.0
 20
0.0
 30
0.0
  9
$UCSXDIR
 10
1.0
 20
0.0
 30
0.0
  9
$UCSYDIR
 10
0.0
 20
1.0
 30
0.0
  9
$PUCSNAME
  2

  9
$PUCSORG
 10
0.0
 20
0.0
 30
0.0
  9
$PUCSXDIR
 10
1.0
 20
0.0
 30
0.0
  9
$PUCSYDIR
 10
0.0
 20
1.0
 30
0.0
  9
$USERI1
 70
         0
  9
$USERI2
 70
         0
  9
$USERI3
 70
         0
  9
$USERI4
 70
         0
  9
$USERI5
 70
         0
  9
$USERR1
 40
0.0
  9
$USERR2
 40
0.0
  9
$USERR3
 40
0.0
  9
$USERR4
 40
0.0
  9
$USERR5
 40
0.0
  9
$WORLDVIEW
 70
         1
  9
$SHADEDGE
 70
         3
  9
$SHADEDIF
 70
        70
  9
$TILEMODE
 70
         1
  9
$MAXACTVP
 70
        16
  9
$PINSBASE
 10
0.0
 20
0.0
 30
0.0
  9
$PLIMCHECK
 70
         0
  9
$PEXTMIN
 10
1.0000000000E+20
 20
1.0000000000E+20
 30
1.0000000000E+20
  9
$PEXTMAX
 10
-1.0000000000E+20
 20
-1.0000000000E+20
 30
-1.0000000000E+20
  9
$PLIMMIN
 10
0.0
 20
0.0
  9
$PLIMMAX
 10
12.0
 20
9.0
  9
$UNITMODE
 70
         0
  9
$VISRETAIN
 70
         0
  9
$PLINEGEN
 70
         1
  9
$PSLTSCALE
 70
         0
  9
$TREEDEPTH
 70
      3020
  9
$PICKSTYLE
 70
         1
  9
$CMLSTYLE
  2
STANDARD
  9
$CMLJUST
 70
         0
  9
$CMLSCALE
 40
1.0
  9
$PROXYGRAPHICS
 70
         0
  9
$MEASUREMENT
 70
         0
  0
ENDSEC
  0
SECTION
  2
CLASSES
  0
CLASS
  1
LWPOLYLINE
  2
AcDbPolyline
  3
"AutoCAD"
 90
        0
280
         0
281
         1
  0
CLASS
  1
IMAGE
  2
AcDbRasterImage
  3
ISM
 90
      127
280
         0
281
         1
  0
CLASS
  1
OLE2FRAME
  2
AcDbOle2Frame
  3
""
 90
        0
280
         0
281
         1
  0
CLASS
  1
HATCH
  2
AcDbHatch
  3
"ACAD_SEDONA"
 90
        0
280
         0
281
         1
  0
CLASS
  1
DICTIONARYVAR
  2
AcDbDictionaryVar
  3
"AutoCAD"
 90
        0
280
         0
281
         0
  0
CLASS
  1
RASTERVARIABLES
  2
AcDbRasterVariables
  3
ISM
 90
        0
280
         0
281
         0
  0
CLASS
  1
IMAGEDEF
  2
AcDbRasterImageDef
  3
ISM
 90
        0
280
         0
281
         0
  0
CLASS
  1
IMAGEDEF_REACTOR
  2
AcDbRasterImageDefReactor
  3
ISM
 90
        1
280
         0
281
         0
  0
CLASS
  1
IDBUFFER
  2
AcDbIdBuffer
  3
"Acad"
 90
        0
280
         0
281
         0
  0
CLASS
  1
SPATIAL_FILTER
  2
AcDbSpatialFilter
  3
"Acad"
 90
        0
280
         0
281
         0
  0
CLASS
  1
XRECORD
  2
AcDbXrecord
  3
"<Built In>"
 90
        0
280
         0
281
         0
  0
CLASS
  1
SORTENTSTABLE
  2
AcDbSortentsTable
  3
"AutoCAD"
 90
        0
280
         0
281
         0
  0
CLASS
  1
LAYER_INDEX
  2
AcDbLayerIndex
  3
"Acad"
 90
        0
280
         0
281
         0
  0
CLASS
  1
SPATIAL_INDEX
  2
AcDbSpatialIndex
  3
"Acad"
 90
        0
280
         0
281
         0
  0
CLASS
  1
OBJECT_PTR
  2
CAseDLPNTableRecord
  3
"ASE-LPNTableRecord"
 90
        1
280
         0
281
         0
  0
CLASS
  1
LAYOUT
  2
AcDbLayout
  3
"AutoCAD 2000"
 90
        1
280
         0
281
         0
  0
CLASS
  1
PLOTSETTINGS
  2
AcDbPlotSettings
  3
"AutoCAD 2000"
 90
        1
280
         0
281
         0
  0
CLASS
  1
ACDBDICTIONARYWDFLT
  2
AcDbDictionaryWithDefault
  3
"AutoCAD 2000"
 90
        1
280
         0
281
         0
  0
CLASS
  1
ACDBPLACEHOLDER
  2
AcDbPlaceHolder
  3
"AutoCAD 2000"
 90
        1
280
         0
281
         0
  0
CLASS
  1
VBA_PROJECT
  2
AcDbVbaProject
  3
"acadvba"
 90
        1
280
         0
281
         0
  0
CLASS
  1
WIPEOUT
  2
AcDbWipeout
  3
WipeOut|AutoCAD Express Tool|expresstools@autodesk.com
 90
      127
280
         0
281
         1
  0
CLASS
  1
WIPEOUTVARIABLES
  2
AcDbWipeoutVariables
  3
WipeOut|AutoCAD Express Tool|expresstools@autodesk.com
 90
        0
280
         0
281
         0
  0
CLASS
  1
RTEXT
  2
RText
  3
RText|AutoCAD Express Tool|expresstools@autodesk.com
 90
        0
280
         0
281
         1
  0
CLASS
  1
ARCALIGNEDTEXT
  2
AcDbArcAlignedText
  3
ATEXT|AutoCAD Express Tool|expresstools@autodesk.com
 90
        0
280
         0
281
         1
  0
ENDSEC
  0
SECTION
  2
TABLES
  0
TABLE
  2
VPORT
  5
7
100
AcDbSymbolTable
 70
         1
  0
VPORT
  5
15
100
AcDbSymbolTableRecord
100
AcDbViewportTableRecord
  2
*ACTIVE
 70
         0
 10
0.0
 20
0.0
 11
1.0
 21
1.0
 12
-11681.7493933376
 22
13060.1883033971
 13
0.0
 23
0.0
 14
1.0
 24
1.0
 15
0.0
 25
0.0
 16
0.0
 26
0.0
 36
1.0
 17
0.0
 27
0.0
 37
0.0
 40
307.0463414725
 41
1.9834619625
 42
50.0
 43
0.0
 44
0.0
 50
0.0
 51
0.0
 71
         0
 72
       100
 73
         1
 74
         1
 75
         0
 76
         0
 77
         0
 78
         0
  0
ENDTAB
  0
TABLE
  2
LTYPE
  5
4
100
AcDbSymbolTable
 70
         6
  0
LTYPE
  5
11
100
AcDbSymbolTableRecord
100
AcDbLinetypeTableRecord
  2
BYBLOCK
 70
        64
  3

 72
        65
 73
         0
 40
0.0
  0
LTYPE
  5
12
100
AcDbSymbolTableRecord
100
AcDbLinetypeTableRecord
  2
BYLAYER
 70
        64
  3

 72
        65
 73
         0
 40
0.0
  0
LTYPE
  5
13
100
AcDbSymbolTableRecord
100
AcDbLinetypeTableRecord
  2
CONTINUOUS
 70
        64
  3
Solid line
 72
        65
 73
         0
 40
0.0
  0
LTYPE
  5
1D
100
AcDbSymbolTableRecord
100
AcDbLinetypeTableRecord
  2
DASHED
 70
        64
  3
_ _ _ _ _ _ _ _ _ _ _ _ _ _ _ _
 72
        65
 73
         2
 40
0.2
 49
0.1
 74
         0
 49
-0.1
 74
         0
  0
LTYPE
  5
1E
100
AcDbSymbolTableRecord
100
AcDbLinetypeTableRecord
  2
CENTER
 70
        64
  3
___ _ ___ _ ___ _ ___ _ ___ _ ___ _ ___ _ ___ _
 72
        65
 73
         4
 40
0.95
 49
0.625
 74
         0
 49
-0.125
 74
         0
 49
0.075
 74
         0
 49
-0.125
 74
         0
  0
LTYPE
  5
1F
100
AcDbSymbolTableRecord
100
AcDbLinetypeTableRecord
  2
PHANTOM
 70
        64
  3
______  __  __  ______  __  __  ______  __  __  
 72
        65
 73
         6
 40
1.025
 49
0.625
 74
         0
 49
-0.125
 74
         0
 49
0.075
 74
         0
 49
-0.125
 74
         0
 49
0.075
 74
         0
 49
-0.125
 74
         0
  0
ENDTAB
  0
TABLE
  2
LAYER
  5
2
100
AcDbSymbolTable
 70
         9
  0
LAYER
  5
14
100
AcDbSymbolTableRecord
100
AcDbLayerTableRecord
  2
0
 70
         0
 62
         7
  6
CONTINUOUS
  0
LAYER
  5
21
100
AcDbSymbolTableRecord
100
AcDbLayerTableRecord
  2
_____U
 70
         1
 62
         7
  6
CONTINUOUS
  0
LAYER
  5
22
100
AcDbSymbolTableRecord
100
AcDbLayerTableRecord
  2
ERP__________T_____
 70
         1
 62
         7
  6
CONTINUOUS
  0
LAYER
  5
23
100
AcDbSymbolTableRecord
100
AcDbLayerTableRecord
  2
ERP______L_______
 70
         1
 62
         7
  6
CONTINUOUS
  0
LAYER
  5
24
100
AcDbSymbolTableRecord
100
AcDbLayerTableRecord
  2
ERP____
 70
         0
 62
         7
  6
CONTINUOUS
  0
LAYER
  5
25
100
AcDbSymbolTableRecord
100
AcDbLayerTableRecord
  2
_Y__________
 70
         0
 62
         7
  6
CONTINUOUS
  0
LAYER
  5
26
100
AcDbSymbolTableRecord
100
AcDbLayerTableRecord
  2
_X______
 70
         0
 62
         7
  6
CONTINUOUS
  0
LAYER
  5
27
100
AcDbSymbolTableRecord
100
AcDbLayerTableRecord
  2
L1_80
 70
         0
 62
         7
  6
CONTINUOUS
  0
LAYER
  5
2DC
100
AcDbSymbolTableRecord
100
AcDbLayerTableRecord
  2
DEFPOINTS
 70
         0
 62
        -7
  6
CONTINUOUS
  0
ENDTAB
  0
TABLE
  2
STYLE
  5
3
100
AcDbSymbolTable
 70
        10
  0
STYLE
  5
17
100
AcDbSymbolTableRecord
100
AcDbTextStyleTableRecord
  2
STANDARD
 70
         0
 40
0.0
 41
1.0
 50
0.0
 71
         0
 42
0.0
  3
txt
  4

  0
STYLE
  5
2E5
100
AcDbSymbolTableRecord
100
AcDbTextStyleTableRecord
  2
BOX
 70
         0
 40
1.0
 41
1.0
 50
0.0
 71
         0
 42
0.2
  3
txt.shx
  4

  0
STYLE
  5
2F6
100
AcDbSymbolTableRecord
100
AcDbTextStyleTableRecord
  2
BOX
 70
         0
 40
1.0
 41
1.0
 50
0.0
 71
         0
 42
0.2
  3
txt.shx
  4

  0
STYLE
  5
304
100
AcDbSymbolTableRecord
100
AcDbTextStyleTableRecord
  2
BOX
 70
         0
 40
1.0
 41
1.0
 50
0.0
 71
         0
 42
0.2
  3
txt.shx
  4

  0
STYLE
  5
315
100
AcDbSymbolTableRecord
100
AcDbTextStyleTableRecord
  2
BOX
 70
         0
 40
1.0
 41
1.0
 50
0.0
 71
         0
 42
0.2
  3
txt.shx
  4

  0
STYLE
  5
32C
100
AcDbSymbolTableRecord
100
AcDbTextStyleTableRecord
  2
BOX
 70
         0
 40
1.0
 41
1.0
 50
0.0
 71
         0
 42
0.2
  3
txt.shx
  4

  0
STYLE
  5
34B
100
AcDbSymbolTableRecord
100
AcDbTextStyleTableRecord
  2
BOX
 70
         0
 40
1.0
 41
1.0
 50
0.0
 71
         0
 42
0.2
  3
txt.shx
  4

  0
STYLE
  5
35B
100
AcDbSymbolTableRecord
100
AcDbTextStyleTableRecord
  2
BOX
 70
         0
 40
1.0
 41
1.0
 50
0.0
 71
         0
 42
0.2
  3
txt.shx
  4

  0
STYLE
  5
396
100
AcDbSymbolTableRecord
100
AcDbTextStyleTableRecord
  2
BOX
 70
         0
 40
1.0
 41
1.0
 50
0.0
 71
         0
 42
0.2
  3
txt.shx
  4

  0
STYLE
  5
3AA
100
AcDbSymbolTableRecord
100
AcDbTextStyleTableRecord
  2
BOX
 70
         0
 40
1.0
 41
1.0
 50
0.0
 71
         0
 42
0.2
  3
txt.shx
  4

  0
ENDTAB
  0
TABLE
  2
VIEW
  5
5
100
AcDbSymbolTable
 70
         0
  0
ENDTAB
  0
TABLE
  2
UCS
  5
6
100
AcDbSymbolTable
 70
         1
  0
UCS
  5
20
100
AcDbSymbolTableRecord
100
AcDbUCSTableRecord
  2
CK_VIEW_1
 70
         0
 10
0.0
 20
0.0
 30
1.0
 11
1.0
 21
0.0
 31
0.0
 12
0.0
 22
1.0
 32
0.0
  0
ENDTAB
  0
TABLE
  2
APPID
  5
8
100
AcDbSymbolTable
 70
         1
  0
APPID
  5
16
100
AcDbSymbolTableRecord
100
AcDbRegAppTableRecord
  2
ACAD
 70
         0
  0
ENDTAB
  0
TABLE
  2
DIMSTYLE
  5
9
100
AcDbSymbolTable
 70
         2
  0
DIMSTYLE
105
18
100
AcDbSymbolTableRecord
100
AcDbDimStyleTableRecord
  2
STANDARD
 70
         0
  3

  4

  5

  6

  7

 40
1.0
 41
0.18
 42
0.0625
 43
0.38
 44
0.18
 45
0.0
 46
0.0
 47
0.0
 48
0.0
 71
         0
 72
         0
 73
         1
 74
         1
 75
         0
 76
         0
 77
         0
 78
         0
140
0.18
141
0.09
142
0.0
143
25.4
144
1.0
145
0.0
146
1.0
147
0.09
170
         0
171
         2
172
         0
173
         0
174
         0
175
         0
176
         0
177
         0
178
         0
270
         2
271
         4
272
         4
273
         2
274
         2
275
         0
280
         0
281
         0
282
         0
283
         1
284
         0
285
         0
286
         0
287
         0
288
         0
340
17
  0
DIMSTYLE
105
2D8
100
AcDbSymbolTableRecord
100
AcDbDimStyleTableRecord
  2
DIMSTYLE1
 70
         0
  3

  4

  5

  6

  7

 40
1.0
 41
2.7
 42
0.0625
 43
0.38
 44
2.7
 45
0.0
 46
0.0
 47
0.0
 48
0.0
 71
         0
 72
         0
 73
         1
 74
         1
 75
         0
 76
         0
 77
         0
 78
         0
140
2.7
141
0.09
142
0.0
143
25.4
144
1.0
145
0.0
146
1.0
147
0.09
170
         0
171
         2
172
         0
173
         0
174
         0
175
         0
176
         0
177
         0
178
         0
270
         2
271
         4
272
         4
273
         2
274
         2
275
         0
280
         0
281
         0
282
         0
283
         1
284
         0
285
         0
286
         0
287
         0
288
         0
340
17
  0
ENDTAB
  0
TABLE
  2
BLOCK_RECORD
  5
1
100
AcDbSymbolTable
 70
         9
  0
BLOCK_RECORD
  5
A
100
AcDbSymbolTableRecord
100
AcDbBlockTableRecord
  2
*MODEL_SPACE
  0
BLOCK_RECORD
  5
B
100
AcDbSymbolTableRecord
100
AcDbBlockTableRecord
  2
*PAPER_SPACE
  0
BLOCK_RECORD
  5
28
100
AcDbSymbolTableRecord
100
AcDbBlockTableRecord
  2
*X0
  0
BLOCK_RECORD
  5
2D9
100
AcDbSymbolTableRecord
100
AcDbBlockTableRecord
  2
*D1
  0
BLOCK_RECORD
  5
2EB
100
AcDbSymbolTableRecord
100
AcDbBlockTableRecord
  2
*D2
  0
BLOCK_RECORD
  5
2F9
100
AcDbSymbolTableRecord
100
AcDbBlockTableRecord
  2
*D3
  0
BLOCK_RECORD
  5
30A
100
AcDbSymbolTableRecord
100
AcDbBlockTableRecord
  2
*D4
  0
BLOCK_RECORD
  5
321
100
AcDbSymbolTableRecord
100
AcDbBlockTableRecord
  2
*D5
  0
BLOCK_RECORD
  5
340
100
AcDbSymbolTableRecord
100
AcDbBlockTableRecord
  2
*D6
  0
BLOCK_RECORD
  5
34E
100
AcDbSymbolTableRecord
100
AcDbBlockTableRecord
  2
*D7
  0
BLOCK_RECORD
  5
38A
100
AcDbSymbolTableRecord
100
AcDbBlockTableRecord
  2
*D8
  0
ENDTAB
  0
ENDSEC
  0
SECTION
  2
BLOCKS
  0
BLOCK
  5
D
100
AcDbEntity
  8
0
100
AcDbBlockBegin
  2
*MODEL_SPACE
 70
         0
 10
0.0
 20
0.0
 30
0.0
  3
*MODEL_SPACE
  1

  0
ENDBLK
  5
E
100
AcDbEntity
  8
0
100
AcDbBlockEnd
  0
BLOCK
  5
F
100
AcDbEntity
 67
         1
  8
0
100
AcDbBlockBegin
  2
*PAPER_SPACE
 70
         0
 10
0.0
 20
0.0
 30
0.0
  3
*PAPER_SPACE
  1

  0
ENDBLK
  5
10
100
AcDbEntity
 67
         1
  8
0
100
AcDbBlockEnd
  0
BLOCK
  5
29
100
AcDbEntity
  8
0
100
AcDbBlockBegin
  2
*X0
 70
        65
 10
0.0
 20
0.0
 30
0.0
  3
*X0
  1

  0
LINE
  5
2A
100
AcDbEntity
  8
L1_80
  6
CONTINUOUS
 62
         4
100
AcDbLine
 10
-11536.2381897139
 20
12944.7861206258
 30
0.0
 11
-11529.178126954
 21
12951.8461833858
 31
0.0
  0
LINE
  5
2B
100
AcDbEntity
  8
L1_80
  6
CONTINUOUS
 62
         4
100
AcDbLine
 10
-11537.604126954
 20
12947.6628240729
 30
0.0
 11
-11531.749830401
 21
12953.5171206258
 31
0.0
  0
LINE
  5
2C
100
AcDbEntity
  8
L1_80
  6
CONTINUOUS
 62
         4
100
AcDbLine
 10
-11544.7234710882
 20
12944.7861206258
 30
0.0
 11
-11543.104126954
 21
12946.40546476
 31
0.0
  0
LINE
  5
2D
100
AcDbEntity
  8
L1_80
  6
CONTINUOUS
 62
         4
100
AcDbLine
 10
-11537.604126954
 20
12951.90546476
 30
0.0
 11
-11535.9924710882
 21
12953.5171206258
 31
0.0
  0
LINE
  5
2E
100
AcDbEntity
  8
L1_80
  6
CONTINUOUS
 62
         4
100
AcDbLine
 10
-11548.9661117753
 20
12944.7861206258
 30
0.0
 11
-11543.104126954
 21
12950.6481054472
 31
0.0
  0
LINE
  5
2F
100
AcDbEntity
  8
L1_80
  6
CONTINUOUS
 62
         4
100
AcDbLine
 10
-11532.2971117753
 20
12961.4551206258
 30
0.0
 11
-11529.178126954
 21
12964.5741054472
 31
0.0
  0
LINE
  5
30
100
AcDbEntity
  8
L1_80
  6
CONTINUOUS
 62
         4
100
AcDbLine
 10
-11553.2087524624
 20
12944.7861206258
 30
0.0
 11
-11544.4777524624
 21
12953.5171206258
 31
0.0
  0
LINE
  5
31
100
AcDbEntity
  8
L1_80
  6
CONTINUOUS
 62
         4
100
AcDbLine
 10
-11536.5397524624
 20
12961.4551206258
 30
0.0
 11
-11530.3434397082
 21
12967.6514333801
 31
0.0
  0
LINE
  5
32
100
AcDbEntity
  8
L1_80
  6
CONTINUOUS
 62
         4
100
AcDbLine
 10
-11557.4513931495
 20
12944.7861206258
 30
0.0
 11
-11548.7203931495
 21
12953.5171206258
 31
0.0
  0
LINE
  5
33
100
AcDbEntity
  8
L1_80
  6
CONTINUOUS
 62
         4
100
AcDbLine
 10
-11540.7823931495
 20
12961.4551206258
 30
0.0
 11
-11532.4753100134
 21
12969.7622037619
 31
0.0
  0
LINE
  5
34
100
AcDbEntity
  8
L1_80
  6
CONTINUOUS
 62
         4
100
AcDbLine
 10
-11561.6940338366
 20
12944.7861206258
 30
0.0
 11
-11552.9630338366
 21
12953.5171206258
 31
0.0
  0
LINE
  5
35
100
AcDbEntity
  8
L1_80
  6
CONTINUOUS
 62
         4
100
AcDbLine
 10
-11545.0250338366
 20
12961.4551206258
 30
0.0
 11
-11536.2940338366
 21
12970.1861206258
 31
0.0
  0
LINE
  5
36
100
AcDbEntity
  8
L1_80
  6
CONTINUOUS
 62
         4
100
AcDbLine
 10
-11565.9366745238
 20
12944.7861206258
 30
0.0
 11
-11557.2056745238
 21
12953.5171206258
 31
0.0
  0
LINE
  5
37
100
AcDbEntity
  8
L1_80
  6
CONTINUOUS
 62
         4
100
AcDbLine
 10
-11549.2676745238
 20
12961.4551206258
 30
0.0
 11
-11542.2684552944
 21
12968.4543398552
 31
0.0
  0
LINE
  5
38
100
AcDbEntity
  8
L1_80
  6
CONTINUOUS
 62
         4
100
AcDbLine
 10
-11570.1793152109
 20
12944.7861206258
 30
0.0
 11
-11562.4793152109
 21
12952.4861206258
 31
0.0
  0
LINE
  5
39
100
AcDbEntity
  8
L1_80
  6
CONTINUOUS
 62
         4
100
AcDbLine
 10
-11553.5103152109
 20
12961.4551206258
 30
0.0
 11
-11547.7811187028
 21
12967.1843171339
 31
0.0
  0
LINE
  5
3A
100
AcDbEntity
  8
L1_80
  6
CONTINUOUS
 62
         4
100
AcDbLine
 10
-11574.421955898
 20
12944.7861206258
 30
0.0
 11
-11566.721955898
 21
12952.4861206258
 31
0.0
  0
LINE
  5
3B
100
AcDbEntity
  8
L1_80
  6
CONTINUOUS
 62
         4
100
AcDbLine
 10
-11557.752955898
 20
12961.4551206258
 30
0.0
 11
-11551.1982837349
 21
12968.0097927889
 31
0.0
  0
LINE
  5
3C
100
AcDbEntity
  8
L1_80
  6
CONTINUOUS
 62
         4
100
AcDbLine
 10
-11578.6645965851
 20
12944.7861206258
 30
0.0
 11
-11570.9645965851
 21
12952.4861206258
 31
0.0
  0
LINE
  5
3D
100
AcDbEntity
  8
L1_80
  6
CONTINUOUS
 62
         4
100
AcDbLine
 10
-11560.9645965851
 20
12962.4861206258
 30
0.0
 11
-11553.7883016779
 21
12969.6624155331
 31
0.0
  0
LINE
  5
3E
100
AcDbEntity
  8
L1_80
  6
CONTINUOUS
 62
         4
100
AcDbLine
 10
-11582.9072372722
 20
12944.7861206258
 30
0.0
 11
-11575.2072372722
 21
12952.4861206258
 31
0.0
  0
LINE
  5
3F
100
AcDbEntity
  8
L1_80
  6
CONTINUOUS
 62
         4
100
AcDbLine
 10
-11565.2072372722
 20
12962.4861206258
 30
0.0
 11
-11557.5072372722
 21
12970.1861206258
 31
0.0
  0
LINE
  5
40
100
AcDbEntity
  8
L1_80
  6
CONTINUOUS
 62
         4
100
AcDbLine
 10
-11587.1498779594
 20
12944.7861206258
 30
0.0
 11
-11579.4498779593
 21
12952.4861206258
 31
0.0
  0
LINE
  5
41
100
AcDbEntity
  8
L1_80
  6
CONTINUOUS
 62
         4
100
AcDbLine
 10
-11569.4498779594
 20
12962.4861206258
 30
0.0
 11
-11561.7498779593
 21
12970.1861206258
 31
0.0
  0
LINE
  5
42
100
AcDbEntity
  8
L1_80
  6
CONTINUOUS
 62
         4
100
AcDbLine
 10
-11591.3925186465
 20
12944.7861206258
 30
0.0
 11
-11583.6925186465
 21
12952.4861206258
 31
0.0
  0
LINE
  5
43
100
AcDbEntity
  8
L1_80
  6
CONTINUOUS
 62
         4
100
AcDbLine
 10
-11573.6925186465
 20
12962.4861206258
 30
0.0
 11
-11565.9925186465
 21
12970.1861206258
 31
0.0
  0
LINE
  5
44
100
AcDbEntity
  8
L1_80
  6
CONTINUOUS
 62
         4
100
AcDbLine
 10
-11595.6351593336
 20
12944.7861206258
 30
0.0
 11
-11587.9351593336
 21
12952.4861206258
 31
0.0
  0
LINE
  5
45
100
AcDbEntity
  8
L1_80
  6
CONTINUOUS
 62
         4
100
AcDbLine
 10
-11577.9351593336
 20
12962.4861206258
 30
0.0
 11
-11570.2351593336
 21
12970.1861206258
 31
0.0
  0
LINE
  5
46
100
AcDbEntity
  8
L1_80
  6
CONTINUOUS
 62
         4
100
AcDbLine
 10
-11599.8778000207
 20
12944.7861206258
 30
0.0
 11
-11592.1778000207
 21
12952.4861206258
 31
0.0
  0
LINE
  5
47
100
AcDbEntity
  8
L1_80
  6
CONTINUOUS
 62
         4
100
AcDbLine
 10
-11582.1778000207
 20
12962.4861206258
 30
0.0
 11
-11574.4778000207
 21
12970.1861206258
 31
0.0
  0
LINE
  5
48
100
AcDbEntity
  8
L1_80
  6
CONTINUOUS
 62
         4
100
AcDbLine
 10
-11604.1204407078
 20
12944.7861206258
 30
0.0
 11
-11596.4204407078
 21
12952.4861206258
 31
0.0
  0
LINE
  5
49
100
AcDbEntity
  8
L1_80
  6
CONTINUOUS
 62
         4
100
AcDbLine
 10
-11586.4204407078
 20
12962.4861206258
 30
0.0
 11
-11578.7204407078
 21
12970.1861206258
 31
0.0
  0
LINE
  5
4A
100
AcDbEntity
  8
L1_80
  6
CONTINUOUS
 62
         4
100
AcDbLine
 10
-11608.5281680536
 20
12944.6210339672
 30
0.0
 11
-11600.6630813949
 21
12952.4861206258
 31
0.0
  0
LINE
  5
4B
100
AcDbEntity
  8
L1_80
  6
CONTINUOUS
 62
         4
100
AcDbLine
 10
-11590.6630813949
 20
12962.4861206258
 30
0.0
 11
-11582.9630813949
 21
12970.1861206258
 31
0.0
  0
LINE
  5
4C
100
AcDbEntity
  8
L1_80
  6
CONTINUOUS
 62
         4
100
AcDbLine
 10
-11613.0054533187
 20
12944.3863893892
 30
0.0
 11
-11604.9057220821
 21
12952.4861206258
 31
0.0
  0
LINE
  5
4D
100
AcDbEntity
  8
L1_80
  6
CONTINUOUS
 62
         4
100
AcDbLine
 10
-11594.9057220821
 20
12962.4861206258
 30
0.0
 11
-11587.2057220821
 21
12970.1861206258
 31
0.0
  0
LINE
  5
4E
100
AcDbEntity
  8
L1_80
  6
CONTINUOUS
 62
         4
100
AcDbLine
 10
-11617.4827385838
 20
12944.1517448112
 30
0.0
 11
-11609.1483627692
 21
12952.4861206258
 31
0.0
  0
LINE
  5
4F
100
AcDbEntity
  8
L1_80
  6
CONTINUOUS
 62
         4
100
AcDbLine
 10
-11599.1483627692
 20
12962.4861206258
 30
0.0
 11
-11591.4483627692
 21
12970.1861206258
 31
0.0
  0
LINE
  5
50
100
AcDbEntity
  8
L1_80
  6
CONTINUOUS
 62
         4
100
AcDbLine
 10
-11621.9600238489
 20
12943.9171002333
 30
0.0
 11
-11613.3910034563
 21
12952.4861206258
 31
0.0
  0
LINE
  5
51
100
AcDbEntity
  8
L1_80
  6
CONTINUOUS
 62
         4
100
AcDbLine
 10
-11603.3910034563
 20
12962.4861206258
 30
0.0
 11
-11595.6910034563
 21
12970.1861206258
 31
0.0
  0
LINE
  5
52
100
AcDbEntity
  8
L1_80
  6
CONTINUOUS
 62
         4
100
AcDbLine
 10
-11626.4373091139
 20
12943.6824556553
 30
0.0
 11
-11617.6336441434
 21
12952.4861206258
 31
0.0
  0
LINE
  5
53
100
AcDbEntity
  8
L1_80
  6
CONTINUOUS
 62
         4
100
AcDbLine
 10
-11607.6336441434
 20
12962.4861206258
 30
0.0
 11
-11599.9336441434
 21
12970.1861206258
 31
0.0
  0
LINE
  5
54
100
AcDbEntity
  8
L1_80
  6
CONTINUOUS
 62
         4
100
AcDbLine
 10
-11630.914594379
 20
12943.4478110774
 30
0.0
 11
-11621.8762848305
 21
12952.4861206258
 31
0.0
  0
LINE
  5
55
100
AcDbEntity
  8
L1_80
  6
CONTINUOUS
 62
         4
100
AcDbLine
 10
-11611.8762848305
 20
12962.4861206258
 30
0.0
 11
-11604.1762848305
 21
12970.1861206258
 31
0.0
  0
LINE
  5
56
100
AcDbEntity
  8
L1_80
  6
CONTINUOUS
 62
         4
100
AcDbLine
 10
-11635.3918796441
 20
12943.2131664994
 30
0.0
 11
-11626.1189255177
 21
12952.4861206258
 31
0.0
  0
LINE
  5
57
100
AcDbEntity
  8
L1_80
  6
CONTINUOUS
 62
         4
100
AcDbLine
 10
-11616.1189255177
 20
12962.4861206258
 30
0.0
 11
-11608.2674998981
 21
12970.3375462454
 31
0.0
  0
LINE
  5
58
100
AcDbEntity
  8
L1_80
  6
CONTINUOUS
 62
         4
100
AcDbLine
 10
-11639.8691649092
 20
12942.9785219214
 30
0.0
 11
-11630.3615662048
 21
12952.4861206258
 31
0.0
  0
LINE
  5
59
100
AcDbEntity
  8
L1_80
  6
CONTINUOUS
 62
         4
100
AcDbLine
 10
-11620.3615662048
 20
12962.4861206258
 30
0.0
 11
-11612.2988656583
 21
12970.5488211723
 31
0.0
  0
LINE
  5
5A
100
AcDbEntity
  8
L1_80
  6
CONTINUOUS
 62
         4
100
AcDbLine
 10
-11644.3464501743
 20
12942.7438773435
 30
0.0
 11
-11634.6042068919
 21
12952.4861206258
 31
0.0
  0
LINE
  5
5B
100
AcDbEntity
  8
L1_80
  6
CONTINUOUS
 62
         4
100
AcDbLine
 10
-11624.6042068919
 20
12962.4861206258
 30
0.0
 11
-11616.3302314184
 21
12970.7600960993
 31
0.0
  0
LINE
  5
5C
100
AcDbEntity
  8
L1_80
  6
CONTINUOUS
 62
         4
100
AcDbLine
 10
-11648.8237354393
 20
12942.5092327655
 30
0.0
 11
-11638.846847579
 21
12952.4861206258
 31
0.0
  0
LINE
  5
5D
100
AcDbEntity
  8
L1_80
  6
CONTINUOUS
 62
         4
100
AcDbLine
 10
-11628.846847579
 20
12962.4861206258
 30
0.0
 11
-11620.3615971786
 21
12970.9713710263
 31
0.0
  0
LINE
  5
5E
100
AcDbEntity
  8
L1_80
  6
CONTINUOUS
 62
         4
100
AcDbLine
 10
-11653.3010207044
 20
12942.2745881876
 30
0.0
 11
-11643.0894882661
 21
12952.4861206258
 31
0.0
  0
LINE
  5
5F
100
AcDbEntity
  8
L1_80
  6
CONTINUOUS
 62
         4
100
AcDbLine
 10
-11633.0894882661
 20
12962.4861206258
 30
0.0
 11
-11624.3929629387
 21
12971.1826459532
 31
0.0
  0
LINE
  5
60
100
AcDbEntity
  8
L1_80
  6
CONTINUOUS
 62
         4
100
AcDbLine
 10
-11657.7783059695
 20
12942.0399436096
 30
0.0
 11
-11647.3321289533
 21
12952.4861206258
 31
0.0
  0
LINE
  5
61
100
AcDbEntity
  8
L1_80
  6
CONTINUOUS
 62
         4
100
AcDbLine
 10
-11637.3321289533
 20
12962.4861206258
 30
0.0
 11
-11628.4243286989
 21
12971.3939208802
 31
0.0
  0
LINE
  5
62
100
AcDbEntity
  8
L1_80
  6
CONTINUOUS
 62
         4
100
AcDbLine
 10
-11662.2555912346
 20
12941.8052990316
 30
0.0
 11
-11651.5747696404
 21
12952.4861206258
 31
0.0
  0
LINE
  5
63
100
AcDbEntity
  8
L1_80
  6
CONTINUOUS
 62
         4
100
AcDbLine
 10
-11641.5747696404
 20
12962.4861206258
 30
0.0
 11
-11632.455694459
 21
12971.6051958072
 31
0.0
  0
LINE
  5
64
100
AcDbEntity
  8
L1_80
  6
CONTINUOUS
 62
         4
100
AcDbLine
 10
-11666.7328764997
 20
12941.5706544537
 30
0.0
 11
-11655.8174103275
 21
12952.4861206258
 31
0.0
  0
LINE
  5
65
100
AcDbEntity
  8
L1_80
  6
CONTINUOUS
 62
         4
100
AcDbLine
 10
-11645.8174103275
 20
12962.4861206258
 30
0.0
 11
-11636.4870602192
 21
12971.8164707341
 31
0.0
  0
LINE
  5
66
100
AcDbEntity
  8
L1_80
  6
CONTINUOUS
 62
         4
100
AcDbLine
 10
-11671.2101617647
 20
12941.3360098757
 30
0.0
 11
-11660.0600510146
 21
12952.4861206258
 31
0.0
  0
LINE
  5
67
100
AcDbEntity
  8
L1_80
  6
CONTINUOUS
 62
         4
100
AcDbLine
 10
-11650.0600510146
 20
12962.4861206258
 30
0.0
 11
-11640.5184259794
 21
12972.0277456611
 31
0.0
  0
LINE
  5
68
100
AcDbEntity
  8
L1_80
  6
CONTINUOUS
 62
         4
100
AcDbLine
 10
-11675.6874470298
 20
12941.1013652978
 30
0.0
 11
-11664.3026917017
 21
12952.4861206258
 31
0.0
  0
LINE
  5
69
100
AcDbEntity
  8
L1_80
  6
CONTINUOUS
 62
         4
100
AcDbLine
 10
-11654.3026917017
 20
12962.4861206258
 30
0.0
 11
-11644.5497917395
 21
12972.2390205881
 31
0.0
  0
LINE
  5
6A
100
AcDbEntity
  8
L1_80
  6
CONTINUOUS
 62
         4
100
AcDbLine
 10
-11680.1647322949
 20
12940.8667207198
 30
0.0
 11
-11668.5453323889
 21
12952.4861206258
 31
0.0
  0
LINE
  5
6B
100
AcDbEntity
  8
L1_80
  6
CONTINUOUS
 62
         4
100
AcDbLine
 10
-11658.5453323889
 20
12962.4861206258
 30
0.0
 11
-11648.5811574997
 21
12972.450295515
 31
0.0
  0
LINE
  5
6C
100
AcDbEntity
  8
L1_80
  6
CONTINUOUS
 62
         4
100
AcDbLine
 10
-11684.64201756
 20
12940.6320761418
 30
0.0
 11
-11674.787973076
 21
12950.4861206258
 31
0.0
  0
LINE
  5
6D
100
AcDbEntity
  8
L1_80
  6
CONTINUOUS
 62
         4
100
AcDbLine
 10
-11662.787973076
 20
12962.4861206258
 30
0.0
 11
-11652.6125232598
 21
12972.661570442
 31
0.0
  0
LINE
  5
6E
100
AcDbEntity
  8
L1_80
  6
CONTINUOUS
 62
         4
100
AcDbLine
 10
-11689.119302825
 20
12940.3974315639
 30
0.0
 11
-11679.0306137631
 21
12950.4861206258
 31
0.0
  0
LINE
  5
6F
100
AcDbEntity
  8
L1_80
  6
CONTINUOUS
 62
         4
100
AcDbLine
 10
-11667.0306137631
 20
12962.4861206258
 30
0.0
 11
-11656.64388902
 21
12972.872845369
 31
0.0
  0
LINE
  5
70
100
AcDbEntity
  8
L1_80
  6
CONTINUOUS
 62
         4
100
AcDbLine
 10
-11693.5965880901
 20
12940.1627869859
 30
0.0
 11
-11683.2732544502
 21
12950.4861206258
 31
0.0
  0
LINE
  5
71
100
AcDbEntity
  8
L1_80
  6
CONTINUOUS
 62
         4
100
AcDbLine
 10
-11670.3857990372
 20
12963.3735760389
 30
0.0
 11
-11660.6752547801
 21
12973.0841202959
 31
0.0
  0
LINE
  5
72
100
AcDbEntity
  8
L1_80
  6
CONTINUOUS
 62
         4
100
AcDbLine
 10
-11698.0738733552
 20
12939.928142408
 30
0.0
 11
-11687.5158951373
 21
12950.4861206258
 31
0.0
  0
LINE
  5
73
100
AcDbEntity
  8
L1_80
  6
CONTINUOUS
 62
         4
100
AcDbLine
 10
-11673.5158951373
 20
12964.4861206258
 30
0.0
 11
-11664.7066205403
 21
12973.2953952229
 31
0.0
  0
LINE
  5
74
100
AcDbEntity
  8
L1_80
  6
CONTINUOUS
 62
         4
100
AcDbLine
 10
-11702.5511586203
 20
12939.69349783
 30
0.0
 11
-11691.7585358245
 21
12950.4861206258
 31
0.0
  0
LINE
  5
75
100
AcDbEntity
  8
L1_80
  6
CONTINUOUS
 62
         4
100
AcDbLine
 10
-11677.7585358245
 20
12964.4861206258
 30
0.0
 11
-11668.7379863004
 21
12973.5066701499
 31
0.0
  0
LINE
  5
76
100
AcDbEntity
  8
L1_80
  6
CONTINUOUS
 62
         4
100
AcDbLine
 10
-11707.0284438854
 20
12939.458853252
 30
0.0
 11
-11696.0011765116
 21
12950.4861206258
 31
0.0
  0
LINE
  5
77
100
AcDbEntity
  8
L1_80
  6
CONTINUOUS
 62
         4
100
AcDbLine
 10
-11682.0011765116
 20
12964.4861206258
 30
0.0
 11
-11672.7693520606
 21
12973.7179450768
 31
0.0
  0
LINE
  5
78
100
AcDbEntity
  8
L1_80
  6
CONTINUOUS
 62
         4
100
AcDbLine
 10
-11711.5057291504
 20
12939.2242086741
 30
0.0
 11
-11700.2438171987
 21
12950.4861206258
 31
0.0
  0
LINE
  5
79
100
AcDbEntity
  8
L1_80
  6
CONTINUOUS
 62
         4
100
AcDbLine
 10
-11686.2438171987
 20
12964.4861206258
 30
0.0
 11
-11676.8007178207
 21
12973.9292200038
 31
0.0
  0
LINE
  5
7A
100
AcDbEntity
  8
L1_80
  6
CONTINUOUS
 62
         4
100
AcDbLine
 10
-11715.9830144155
 20
12938.9895640961
 30
0.0
 11
-11704.4864578858
 21
12950.4861206258
 31
0.0
  0
LINE
  5
7B
100
AcDbEntity
  8
L1_80
  6
CONTINUOUS
 62
         4
100
AcDbLine
 10
-11690.4864578858
 20
12964.4861206258
 30
0.0
 11
-11680.8320835809
 21
12974.1404949308
 31
0.0
  0
LINE
  5
7C
100
AcDbEntity
  8
L1_80
  6
CONTINUOUS
 62
         4
100
AcDbLine
 10
-11724.0140985729
 20
12935.2011206258
 30
0.0
 11
-11722.726126954
 21
12936.4890922448
 31
0.0
  0
LINE
  5
7D
100
AcDbEntity
  8
L1_80
  6
CONTINUOUS
 62
         4
100
AcDbLine
 10
-11720.4602996806
 20
12938.7549195182
 30
0.0
 11
-11708.7290985729
 21
12950.4861206258
 31
0.0
  0
LINE
  5
7E
100
AcDbEntity
  8
L1_80
  6
CONTINUOUS
 62
         4
100
AcDbLine
 10
-11694.7290985729
 20
12964.4861206258
 30
0.0
 11
-11684.863449341
 21
12974.3517698577
 31
0.0
  0
LINE
  5
7F
100
AcDbEntity
  8
L1_80
  6
CONTINUOUS
 62
         4
100
AcDbLine
 10
-11728.25673926
 20
12935.2011206258
 30
0.0
 11
-11712.97173926
 21
12950.4861206258
 31
0.0
  0
LINE
  5
80
100
AcDbEntity
  8
L1_80
  6
CONTINUOUS
 62
         4
100
AcDbLine
 10
-11698.9717392601
 20
12964.4861206258
 30
0.0
 11
-11688.8948151012
 21
12974.5630447847
 31
0.0
  0
LINE
  5
81
100
AcDbEntity
  8
L1_80
  6
CONTINUOUS
 62
         4
100
AcDbLine
 10
-11741.9893799472
 20
12925.7111206258
 30
0.0
 11
-11738.678126954
 21
12929.0223736191
 31
0.0
  0
LINE
  5
82
100
AcDbEntity
  8
L1_80
  6
CONTINUOUS
 62
         4
100
AcDbLine
 10
-11732.4993799472
 20
12935.2011206258
 30
0.0
 11
-11717.2143799472
 21
12950.4861206258
 31
0.0
  0
LINE
  5
83
100
AcDbEntity
  8
L1_80
  6
CONTINUOUS
 62
         4
100
AcDbLine
 10
-11703.2143799472
 20
12964.4861206258
 30
0.0
 11
-11692.9261808613
 21
12974.7743197117
 31
0.0
  0
LINE
  5
84
100
AcDbEntity
  8
L1_80
  6
CONTINUOUS
 62
         4
100
AcDbLine
 10
-11744.27293511
 20
12927.6702061501
 30
0.0
 11
-11738.678126954
 21
12933.2650143062
 31
0.0
  0
LINE
  5
85
100
AcDbEntity
  8
L1_80
  6
CONTINUOUS
 62
         4
100
AcDbLine
 10
-11736.7420206343
 20
12935.2011206258
 30
0.0
 11
-11721.4570206343
 21
12950.4861206258
 31
0.0
  0
LINE
  5
86
100
AcDbEntity
  8
L1_80
  6
CONTINUOUS
 62
         4
100
AcDbLine
 10
-11707.4570206343
 20
12964.4861206258
 30
0.0
 11
-11696.9575466215
 21
12974.9855946386
 31
0.0
  0
LINE
  5
87
100
AcDbEntity
  8
L1_80
  6
CONTINUOUS
 62
         4
100
AcDbLine
 10
-11750.4746613214
 20
12925.7111206258
 30
0.0
 11
-11749.8588701599
 21
12926.3269117874
 31
0.0
  0
LINE
  5
88
100
AcDbEntity
  8
L1_80
  6
CONTINUOUS
 62
         4
100
AcDbLine
 10
-11746.8246613214
 20
12929.3611206258
 30
0.0
 11
-11725.6996613214
 21
12950.4861206258
 31
0.0
  0
LINE
  5
89
100
AcDbEntity
  8
L1_80
  6
CONTINUOUS
 62
         4
100
AcDbLine
 10
-11711.6996613214
 20
12964.4861206258
 30
0.0
 11
-11700.9889123816
 21
12975.1968695656
 31
0.0
  0
LINE
  5
8A
100
AcDbEntity
  8
L1_80
  6
CONTINUOUS
 62
         4
100
AcDbLine
 10
-11754.3977144812
 20
12926.0307081531
 30
0.0
 11
-11729.9423020085
 21
12950.4861206258
 31
0.0
  0
LINE
  5
8B
100
AcDbEntity
  8
L1_80
  6
CONTINUOUS
 62
         4
100
AcDbLine
 10
-11715.9423020085
 20
12964.4861206258
 30
0.0
 11
-11705.0202781418
 21
12975.4081444926
 31
0.0
  0
LINE
  5
8C
100
AcDbEntity
  8
L1_80
  6
CONTINUOUS
 62
         4
100
AcDbLine
 10
-11754.578126954
 20
12930.0929363675
 30
0.0
 11
-11734.1849426956
 21
12950.4861206258
 31
0.0
  0
LINE
  5
8D
100
AcDbEntity
  8
L1_80
  6
CONTINUOUS
 62
         4
100
AcDbLine
 10
-11720.1849426956
 20
12964.4861206258
 30
0.0
 11
-11709.0516439019
 21
12975.6194194195
 31
0.0
  0
LINE
  5
8E
100
AcDbEntity
  8
L1_80
  6
CONTINUOUS
 62
         4
100
AcDbLine
 10
-11754.5795691103
 20
12934.3341348983
 30
0.0
 11
-11738.4275833828
 21
12950.4861206258
 31
0.0
  0
LINE
  5
8F
100
AcDbEntity
  8
L1_80
  6
CONTINUOUS
 62
         4
100
AcDbLine
 10
-11723.8966833829
 20
12965.0170206257
 30
0.0
 11
-11713.0830096621
 21
12975.8306943465
 31
0.0
  0
LINE
  5
90
100
AcDbEntity
  8
L1_80
  6
CONTINUOUS
 62
         4
100
AcDbLine
 10
-11757.8803208006
 20
12935.2760238951
 30
0.0
 11
-11742.6702240699
 21
12950.4861206258
 31
0.0
  0
LINE
  5
91
100
AcDbEntity
  8
L1_80
  6
CONTINUOUS
 62
         4
100
AcDbLine
 10
-11726.3920497378
 20
12966.764294958
 30
0.0
 11
-11717.1143754222
 21
12976.0419692735
 31
0.0
  0
LINE
  5
92
100
AcDbEntity
  8
L1_80
  6
CONTINUOUS
 62
         4
100
AcDbLine
 10
-11761.5829890366
 20
12935.8159963462
 30
0.0
 11
-11746.912864757
 21
12950.4861206258
 31
0.0
  0
LINE
  5
93
100
AcDbEntity
  8
L1_80
  6
CONTINUOUS
 62
         4
100
AcDbLine
 10
-11732.912864757
 20
12964.4861206258
 30
0.0
 11
-11731.2568657347
 21
12966.1421196481
 31
0.0
  0
LINE
  5
94
100
AcDbEntity
  8
L1_80
  6
CONTINUOUS
 62
         4
100
AcDbLine
 10
-11728.8874160926
 20
12968.5115692902
 30
0.0
 11
-11721.1248413235
 21
12976.2741440594
 31
0.0
  0
LINE
  5
95
100
AcDbEntity
  8
L1_80
  6
CONTINUOUS
 62
         4
100
AcDbLine
 10
-11765.2856572726
 20
12936.3559687973
 30
0.0
 11
-11751.1555054441
 21
12950.4861206258
 31
0.0
  0
LINE
  5
96
100
AcDbEntity
  8
L1_80
  6
CONTINUOUS
 62
         4
100
AcDbLine
 10
-11737.1555054441
 20
12964.4861206258
 30
0.0
 11
-11733.7522320896
 21
12967.8893939804
 31
0.0
  0
LINE
  5
97
100
AcDbEntity
  8
L1_80
  6
CONTINUOUS
 62
         4
100
AcDbLine
 10
-11731.3827824475
 20
12970.2588436225
 30
0.0
 11
-11722.726126954
 21
12978.915499116
 31
0.0
  0
LINE
  5
98
100
AcDbEntity
  8
L1_80
  6
CONTINUOUS
 62
         4
100
AcDbLine
 10
-11768.9883255087
 20
12936.8959412484
 30
0.0
 11
-11755.3981461312
 21
12950.4861206258
 31
0.0
  0
LINE
  5
99
100
AcDbEntity
  8
L1_80
  6
CONTINUOUS
 62
         4
100
AcDbLine
 10
-11741.3981461312
 20
12964.4861206258
 30
0.0
 11
-11736.2475984444
 21
12969.6366683126
 31
0.0
  0
LINE
  5
9A
100
AcDbEntity
  8
L1_80
  6
CONTINUOUS
 62
         4
100
AcDbLine
 10
-11733.8781488023
 20
12972.0061179547
 30
0.0
 11
-11726.1131461312
 21
12979.7711206258
 31
0.0
  0
LINE
  5
9B
100
AcDbEntity
  8
L1_80
  6
CONTINUOUS
 62
         4
100
AcDbLine
 10
-11772.6909937447
 20
12937.4359136995
 30
0.0
 11
-11759.6407868184
 21
12950.4861206258
 31
0.0
  0
LINE
  5
9C
100
AcDbEntity
  8
L1_80
  6
CONTINUOUS
 62
         4
100
AcDbLine
 10
-11745.6407868184
 20
12964.4861206258
 30
0.0
 11
-11738.7429647993
 21
12971.3839426449
 31
0.0
  0
LINE
  5
9D
100
AcDbEntity
  8
L1_80
  6
CONTINUOUS
 62
         4
100
AcDbLine
 10
-11736.3735151572
 20
12973.753392287
 30
0.0
 11
-11730.3557868184
 21
12979.7711206258
 31
0.0
  0
LINE
  5
9E
100
AcDbEntity
  8
L1_80
  6
CONTINUOUS
 62
         4
100
AcDbLine
 10
-11776.3936619807
 20
12937.9758861506
 30
0.0
 11
-11763.8834275055
 21
12950.4861206258
 31
0.0
  0
LINE
  5
9F
100
AcDbEntity
  8
L1_80
  6
CONTINUOUS
 62
         4
100
AcDbLine
 10
-11749.8834275055
 20
12964.4861206258
 30
0.0
 11
-11741.2383311541
 21
12973.1312169772
 31
0.0
  0
LINE
  5
A0
100
AcDbEntity
  8
L1_80
  6
CONTINUOUS
 62
         4
100
AcDbLine
 10
-11738.868881512
 20
12975.5006666193
 30
0.0
 11
-11734.5984275055
 21
12979.7711206258
 31
0.0
  0
LINE
  5
A1
100
AcDbEntity
  8
L1_80
  6
CONTINUOUS
 62
         4
100
AcDbLine
 10
-11780.0963302168
 20
12938.5158586017
 30
0.0
 11
-11768.1260681926
 21
12950.4861206258
 31
0.0
  0
LINE
  5
A2
100
AcDbEntity
  8
L1_80
  6
CONTINUOUS
 62
         4
100
AcDbLine
 10
-11754.1260681926
 20
12964.4861206258
 30
0.0
 11
-11743.733697509
 21
12974.8784913094
 31
0.0
  0
LINE
  5
A3
100
AcDbEntity
  8
L1_80
  6
CONTINUOUS
 62
         4
100
AcDbLine
 10
-11741.3642478669
 20
12977.2479409515
 30
0.0
 11
-11738.6036361441
 21
12980.0085526744
 31
0.0
  0
LINE
  5
A4
100
AcDbEntity
  8
L1_80
  6
CONTINUOUS
 62
         4
100
AcDbLine
 10
-11783.7989984528
 20
12939.0558310528
 30
0.0
 11
-11772.3687088797
 21
12950.4861206258
 31
0.0
  0
LINE
  5
A5
100
AcDbEntity
  8
L1_80
  6
CONTINUOUS
 62
         4
100
AcDbLine
 10
-11758.3687088797
 20
12964.4861206258
 30
0.0
 11
-11746.2290638639
 21
12976.6257656417
 31
0.0
  0
LINE
  5
A6
100
AcDbEntity
  8
L1_80
  6
CONTINUOUS
 62
         4
100
AcDbLine
 10
-11743.8596142217
 20
12978.9952152838
 30
0.0
 11
-11738.678126954
 21
12984.1767025516
 31
0.0
  0
LINE
  5
A7
100
AcDbEntity
  8
L1_80
  6
CONTINUOUS
 62
         4
100
AcDbLine
 10
-11787.5016666888
 20
12939.5958035038
 30
0.0
 11
-11776.6113495668
 21
12950.4861206258
 31
0.0
  0
LINE
  5
A8
100
AcDbEntity
  8
L1_80
  6
CONTINUOUS
 62
         4
100
AcDbLine
 10
-11762.6113495668
 20
12964.4861206258
 30
0.0
 11
-11748.7244302187
 21
12978.373039974
 31
0.0
  0
LINE
  5
A9
100
AcDbEntity
  8
L1_80
  6
CONTINUOUS
 62
         4
100
AcDbLine
 10
-11746.3549805766
 20
12980.7424896161
 30
0.0
 11
-11738.678126954
 21
12988.4193432387
 31
0.0
  0
LINE
  5
AA
100
AcDbEntity
  8
L1_80
  6
CONTINUOUS
 62
         4
100
AcDbLine
 10
-11791.2043349249
 20
12940.1357759549
 30
0.0
 11
-11780.853990254
 21
12950.4861206258
 31
0.0
  0
LINE
  5
AB
100
AcDbEntity
  8
L1_80
  6
CONTINUOUS
 62
         4
100
AcDbLine
 10
-11766.853990254
 20
12964.4861206258
 30
0.0
 11
-11751.2197965736
 21
12980.1203143062
 31
0.0
  0
LINE
  5
AC
100
AcDbEntity
  8
L1_80
  6
CONTINUOUS
 62
         4
100
AcDbLine
 10
-11748.8503469315
 20
12982.4897639483
 30
0.0
 11
-11745.7277818887
 21
12985.6123289911
 31
0.0
  0
LINE
  5
AD
100
AcDbEntity
  8
L1_80
  6
CONTINUOUS
 62
         4
100
AcDbLine
 10
-11744.5937589237
 20
12986.7463519561
 30
0.0
 11
-11742.078990254
 21
12989.2611206258
 31
0.0
  0
LINE
  5
AE
100
AcDbEntity
  8
L1_80
  6
CONTINUOUS
 62
         4
100
AcDbLine
 10
-11794.9070031609
 20
12940.675748406
 30
0.0
 11
-11785.0966309411
 21
12950.4861206258
 31
0.0
  0
LINE
  5
AF
100
AcDbEntity
  8
L1_80
  6
CONTINUOUS
 62
         4
100
AcDbLine
 10
-11771.0966309411
 20
12964.4861206258
 30
0.0
 11
-11755.6966309411
 21
12979.8861206258
 31
0.0
  0
LINE
  5
B0
100
AcDbEntity
  8
L1_80
  6
CONTINUOUS
 62
         4
100
AcDbLine
 10
-11754.578126954
 20
12981.004624613
 30
0.0
 11
-11753.7151629284
 21
12981.8675886385
 31
0.0
  0
LINE
  5
B1
100
AcDbEntity
  8
L1_80
  6
CONTINUOUS
 62
         4
100
AcDbLine
 10
-11751.3457132863
 20
12984.2370382806
 30
0.0
 11
-11748.7895459551
 21
12986.7932056118
 31
0.0
  0
LINE
  5
B2
100
AcDbEntity
  8
L1_80
  6
CONTINUOUS
 62
         4
100
AcDbLine
 10
-11798.6096713969
 20
12941.2157208571
 30
0.0
 11
-11789.3392716282
 21
12950.4861206258
 31
0.0
  0
LINE
  5
B3
100
AcDbEntity
  8
L1_80
  6
CONTINUOUS
 62
         4
100
AcDbLine
 10
-11775.3392716282
 20
12964.4861206258
 30
0.0
 11
-11760.513125597
 21
12979.3122666571
 31
0.0
  0
LINE
  5
B4
100
AcDbEntity
  8
L1_80
  6
CONTINUOUS
 62
         4
100
AcDbLine
 10
-11753.5538736239
 20
12986.2715186301
 30
0.0
 11
-11750.5642716282
 21
12989.2611206258
 31
0.0
  0
LINE
  5
B5
100
AcDbEntity
  8
L1_80
  6
CONTINUOUS
 62
         4
100
AcDbLine
 10
-11802.312339633
 20
12941.7556933082
 30
0.0
 11
-11793.5819123153
 21
12950.4861206258
 31
0.0
  0
LINE
  5
B6
100
AcDbEntity
  8
L1_80
  6
CONTINUOUS
 62
         4
100
AcDbLine
 10
-11779.5819123153
 20
12964.4861206258
 30
0.0
 11
-11765.4801195721
 21
12978.587913369
 31
0.0
  0
LINE
  5
B7
100
AcDbEntity
  8
L1_80
  6
CONTINUOUS
 62
         4
100
AcDbLine
 10
-11806.015007869
 20
12942.2956657593
 30
0.0
 11
-11797.8245530024
 21
12950.4861206258
 31
0.0
  0
LINE
  5
B8
100
AcDbEntity
  8
L1_80
  6
CONTINUOUS
 62
         4
100
AcDbLine
 10
-11783.8245530024
 20
12964.4861206258
 30
0.0
 11
-11770.4471135473
 21
12977.863560081
 31
0.0
  0
LINE
  5
B9
100
AcDbEntity
  8
L1_80
  6
CONTINUOUS
 62
         4
100
AcDbLine
 10
-11809.717676105
 20
12942.8356382104
 30
0.0
 11
-11802.0671936896
 21
12950.4861206258
 31
0.0
  0
LINE
  5
BA
100
AcDbEntity
  8
L1_80
  6
CONTINUOUS
 62
         4
100
AcDbLine
 10
-11788.0671936896
 20
12964.4861206258
 30
0.0
 11
-11775.4141075225
 21
12977.1392067929
 31
0.0
  0
LINE
  5
BB
100
AcDbEntity
  8
L1_80
  6
CONTINUOUS
 62
         4
100
AcDbLine
 10
-11813.4203443411
 20
12943.3756106615
 30
0.0
 11
-11806.3098343767
 21
12950.4861206258
 31
0.0
  0
LINE
  5
BC
100
AcDbEntity
  8
L1_80
  6
CONTINUOUS
 62
         4
100
AcDbLine
 10
-11792.3098343767
 20
12964.4861206258
 30
0.0
 11
-11780.3811014976
 21
12976.4148535049
 31
0.0
  0
LINE
  5
BD
100
AcDbEntity
  8
L1_80
  6
CONTINUOUS
 62
         4
100
AcDbLine
 10
-11817.1230125771
 20
12943.9155831125
 30
0.0
 11
-11810.5524750638
 21
12950.4861206258
 31
0.0
  0
LINE
  5
BE
100
AcDbEntity
  8
L1_80
  6
CONTINUOUS
 62
         4
100
AcDbLine
 10
-11796.5524750638
 20
12964.4861206258
 30
0.0
 11
-11785.3480954728
 21
12975.6905002168
 31
0.0
  0
LINE
  5
BF
100
AcDbEntity
  8
L1_80
  6
CONTINUOUS
 62
         4
100
AcDbLine
 10
-11820.8256808131
 20
12944.4555555636
 30
0.0
 11
-11814.7951157509
 21
12950.4861206258
 31
0.0
  0
LINE
  5
C0
100
AcDbEntity
  8
L1_80
  6
CONTINUOUS
 62
         4
100
AcDbLine
 10
-11800.7951157509
 20
12964.4861206258
 30
0.0
 11
-11790.315089448
 21
12974.9661469288
 31
0.0
  0
LINE
  5
C1
100
AcDbEntity
  8
L1_80
  6
CONTINUOUS
 62
         4
100
AcDbLine
 10
-11824.5283490491
 20
12944.9955280147
 30
0.0
 11
-11819.037756438
 21
12950.4861206258
 31
0.0
  0
LINE
  5
C2
100
AcDbEntity
  8
L1_80
  6
CONTINUOUS
 62
         4
100
AcDbLine
 10
-11805.037756438
 20
12964.4861206258
 30
0.0
 11
-11795.2820834231
 21
12974.2417936408
 31
0.0
  0
LINE
  5
C3
100
AcDbEntity
  8
L1_80
  6
CONTINUOUS
 62
         4
100
AcDbLine
 10
-11826.028126954
 20
12947.738390797
 30
0.0
 11
-11824.4303971251
 21
12949.3361206258
 31
0.0
  0
LINE
  5
C4
100
AcDbEntity
  8
L1_80
  6
CONTINUOUS
 62
         4
100
AcDbLine
 10
-11809.2803971252
 20
12964.4861206258
 30
0.0
 11
-11800.2490773983
 21
12973.5174403527
 31
0.0
  0
LINE
  5
C5
100
AcDbEntity
  8
L1_80
  6
CONTINUOUS
 62
         4
100
AcDbLine
 10
-11813.5230378123
 20
12964.4861206258
 30
0.0
 11
-11805.2160713734
 21
12972.7930870647
 31
0.0
  0
LINE
  5
C6
100
AcDbEntity
  8
L1_80
  6
CONTINUOUS
 62
         4
100
AcDbLine
 10
-11817.7656784994
 20
12964.4861206258
 30
0.0
 11
-11810.1830653486
 21
12972.0687337766
 31
0.0
  0
LINE
  5
C7
100
AcDbEntity
  8
L1_80
  6
CONTINUOUS
 62
         4
100
AcDbLine
 10
-11821.066801714
 20
12965.4276380984
 30
0.0
 11
-11815.1500593238
 21
12971.3443804886
 31
0.0
  0
LINE
  5
C8
100
AcDbEntity
  8
L1_80
  6
CONTINUOUS
 62
         4
100
AcDbLine
 10
-11825.0984818946
 20
12965.6385986049
 30
0.0
 11
-11820.1170532989
 21
12970.6200272005
 31
0.0
  0
LINE
  5
C9
100
AcDbEntity
  8
L1_80
  6
CONTINUOUS
 62
         4
100
AcDbLine
 10
-11825.9996795575
 20
12968.9800416291
 30
0.0
 11
-11825.0878662408
 21
12969.8918549458
 31
0.0
  0
ENDBLK
  5
CA
100
AcDbEntity
  8
0
  6
CONTINUOUS
100
AcDbBlockEnd
  0
BLOCK
  5
2DA
100
AcDbEntity
  8
0
100
AcDbBlockBegin
  2
*D1
 70
        65
 10
0.0
 20
0.0
 30
0.0
  3
*D1
  1

  0
POINT
  5
2DD
100
AcDbEntity
  8
DEFPOINTS
  6
CONTINUOUS
 62
         0
100
AcDbPoint
 10
-11529.178126954
 20
12921.2967845459
 30
0.0
  0
POINT
  5
2DE
100
AcDbEntity
  8
DEFPOINTS
  6
CONTINUOUS
 62
         0
100
AcDbPoint
 10
-11529.178126954
 20
12949.441726017
 30
0.0
  0
POINT
  5
2DF
100
AcDbEntity
  8
DEFPOINTS
  6
CONTINUOUS
 62
         0
100
AcDbPoint
 10
-11559.178126954
 20
12953.5171206258
 30
0.0
  0
LINE
  5
2E0
100
AcDbEntity
  8
L1_80
  6
CONTINUOUS
 62
         4
100
AcDbLine
 10
-11529.178126954
 20
12948.091726017
 30
0.0
 11
-11529.178126954
 21
12920.6217845459
 31
0.0
  0
LINE
  5
2E1
100
AcDbEntity
  8
L1_80
  6
CONTINUOUS
 62
         4
100
AcDbLine
 10
-11559.178126954
 20
12952.1671206258
 30
0.0
 11
-11559.178126954
 21
12920.6217845459
 31
0.0
  0
LINE
  5
2E2
100
AcDbEntity
  8
L1_80
  6
CONTINUOUS
 62
         4
100
AcDbLine
 10
-11529.178126954
 20
12921.2967845459
 30
0.0
 11
-11559.178126954
 21
12921.2967845459
 31
0.0
  0
SOLID
  5
2E3
100
AcDbEntity
  8
L1_80
  6
CONTINUOUS
 62
         4
100
AcDbTrace
 10
-11529.178126954
 20
12921.2967845459
 30
0.0
 11
-11531.878126954
 21
12920.8917845459
 31
0.0
 12
-11531.878126954
 22
12921.7017845459
 32
0.0
 13
-11529.178126954
 23
12921.2967845459
 33
0.0
  0
SOLID
  5
2E4
100
AcDbEntity
  8
L1_80
  6
CONTINUOUS
 62
         4
100
AcDbTrace
 10
-11559.178126954
 20
12921.2967845459
 30
0.0
 11
-11556.478126954
 21
12921.7017845459
 31
0.0
 12
-11556.478126954
 22
12920.8917845459
 32
0.0
 13
-11559.178126954
 23
12921.2967845459
 33
0.0
  0
TEXT
  5
2E6
100
AcDbEntity
  8
L1_80
  6
CONTINUOUS
 62
         4
100
AcDbText
 10
-11548.5962967391
 20
12923.3217845459
 30
0.0
 40
2.7
  1
30
  7
BOX
100
AcDbText
  0
ENDBLK
  5
2E7
100
AcDbEntity
  8
0
  6
CONTINUOUS
100
AcDbBlockEnd
  0
BLOCK
  5
2EC
100
AcDbEntity
  8
0
100
AcDbBlockBegin
  2
*D2
 70
        65
 10
0.0
 20
0.0
 30
0.0
  3
*D2
  1

  0
POINT
  5
2EE
100
AcDbEntity
  8
DEFPOINTS
  6
CONTINUOUS
 62
         0
100
AcDbPoint
 10
-11757.778126954
 20
13188.2477367076
 30
0.0
  0
POINT
  5
2EF
100
AcDbEntity
  8
DEFPOINTS
  6
CONTINUOUS
 62
         0
100
AcDbPoint
 10
-11757.778126954
 20
13142.8390970959
 30
0.0
  0
POINT
  5
2F0
100
AcDbEntity
  8
DEFPOINTS
  6
CONTINUOUS
 62
         0
100
AcDbPoint
 10
-11529.178126954
 20
13120.6140970959
 30
0.0
  0
LINE
  5
2F1
100
AcDbEntity
  8
L1_80
  6
CONTINUOUS
 62
         4
100
AcDbLine
 10
-11757.778126954
 20
13144.1890970959
 30
0.0
 11
-11757.778126954
 21
13188.9227367076
 31
0.0
  0
LINE
  5
2F2
100
AcDbEntity
  8
L1_80
  6
CONTINUOUS
 62
         4
100
AcDbLine
 10
-11529.178126954
 20
13121.9640970959
 30
0.0
 11
-11529.178126954
 21
13188.9227367076
 31
0.0
  0
LINE
  5
2F3
100
AcDbEntity
  8
L1_80
  6
CONTINUOUS
 62
         4
100
AcDbLine
 10
-11757.778126954
 20
13188.2477367076
 30
0.0
 11
-11529.178126954
 21
13188.2477367076
 31
0.0
  0
SOLID
  5
2F4
100
AcDbEntity
  8
L1_80
  6
CONTINUOUS
 62
         4
100
AcDbTrace
 10
-11757.778126954
 20
13188.2477367076
 30
0.0
 11
-11755.078126954
 21
13188.6527367076
 31
0.0
 12
-11755.078126954
 22
13187.8427367076
 32
0.0
 13
-11757.778126954
 23
13188.2477367076
 33
0.0
  0
SOLID
  5
2F5
100
AcDbEntity
  8
L1_80
  6
CONTINUOUS
 62
         4
100
AcDbTrace
 10
-11529.178126954
 20
13188.2477367076
 30
0.0
 11
-11531.878126954
 21
13187.8427367076
 31
0.0
 12
-11531.878126954
 22
13188.6527367076
 32
0.0
 13
-11529.178126954
 23
13188.2477367076
 33
0.0
  0
TEXT
  5
2F7
100
AcDbEntity
  8
L1_80
  6
CONTINUOUS
 62
         4
100
AcDbText
 10
-11693.828644914
 20
13190.2727367076
 30
0.0
 40
2.7
  1
228.6   
  7
BOX
100
AcDbText
  0
ENDBLK
  5
2F8
100
AcDbEntity
  8
0
  6
CONTINUOUS
100
AcDbBlockEnd
  0
BLOCK
  5
2FA
100
AcDbEntity
  8
0
100
AcDbBlockBegin
  2
*D3
 70
        65
 10
0.0
 20
0.0
 30
0.0
  3
*D3
  1

  0
POINT
  5
2FC
100
AcDbEntity
  8
DEFPOINTS
  6
CONTINUOUS
 62
         0
100
AcDbPoint
 10
-11826.028126954
 20
13195.0298222482
 30
0.0
  0
POINT
  5
2FD
100
AcDbEntity
  8
DEFPOINTS
  6
CONTINUOUS
 62
         0
100
AcDbPoint
 10
-11826.028126954
 20
13131.8482788123
 30
0.0
  0
POINT
  5
2FE
100
AcDbEntity
  8
DEFPOINTS
  6
CONTINUOUS
 62
         0
100
AcDbPoint
 10
-11529.178126954
 20
13120.6140970959
 30
0.0
  0
LINE
  5
2FF
100
AcDbEntity
  8
L1_80
  6
CONTINUOUS
 62
         4
100
AcDbLine
 10
-11826.028126954
 20
13133.1982788123
 30
0.0
 11
-11826.028126954
 21
13195.7048222482
 31
0.0
  0
LINE
  5
300
100
AcDbEntity
  8
L1_80
  6
CONTINUOUS
 62
         4
100
AcDbLine
 10
-11529.178126954
 20
13121.9640970959
 30
0.0
 11
-11529.178126954
 21
13195.7048222482
 31
0.0
  0
LINE
  5
301
100
AcDbEntity
  8
L1_80
  6
CONTINUOUS
 62
         4
100
AcDbLine
 10
-11826.028126954
 20
13195.0298222482
 30
0.0
 11
-11529.178126954
 21
13195.0298222482
 31
0.0
  0
SOLID
  5
302
100
AcDbEntity
  8
L1_80
  6
CONTINUOUS
 62
         4
100
AcDbTrace
 10
-11826.028126954
 20
13195.0298222482
 30
0.0
 11
-11823.328126954
 21
13195.4348222482
 31
0.0
 12
-11823.328126954
 22
13194.6248222482
 32
0.0
 13
-11826.028126954
 23
13195.0298222482
 33
0.0
  0
SOLID
  5
303
100
AcDbEntity
  8
L1_80
  6
CONTINUOUS
 62
         4
100
AcDbTrace
 10
-11529.178126954
 20
13195.0298222482
 30
0.0
 11
-11531.878126954
 21
13194.6248222482
 31
0.0
 12
-11531.878126954
 22
13195.4348222482
 32
0.0
 13
-11529.178126954
 23
13195.0298222482
 33
0.0
  0
TEXT
  5
305
100
AcDbEntity
  8
L1_80
  6
CONTINUOUS
 62
         4
100
AcDbText
 10
-11724.989661035
 20
13197.0548222482
 30
0.0
 40
2.7
  1
296.85
  7
BOX
100
AcDbText
  0
ENDBLK
  5
306
100
AcDbEntity
  8
0
  6
CONTINUOUS
100
AcDbBlockEnd
  0
BLOCK
  5
30B
100
AcDbEntity
  8
0
100
AcDbBlockBegin
  2
*D4
 70
        65
 10
0.0
 20
0.0
 30
0.0
  3
*D4
  1

  0
POINT
  5
30D
100
AcDbEntity
  8
DEFPOINTS
  6
CONTINUOUS
 62
         0
100
AcDbPoint
 10
-11519.2007746216
 20
13129.6140970959
 30
0.0
  0
POINT
  5
30E
100
AcDbEntity
  8
DEFPOINTS
  6
CONTINUOUS
 62
         0
100
AcDbPoint
 10
-11529.178126954
 20
13129.6140970959
 30
0.0
  0
POINT
  5
30F
100
AcDbEntity
  8
DEFPOINTS
  6
CONTINUOUS
 62
         0
100
AcDbPoint
 10
-11529.178126954
 20
13111.6140970959
 30
0.0
  0
LINE
  5
310
100
AcDbEntity
  8
L1_80
  6
CONTINUOUS
 62
         4
100
AcDbLine
 10
-11527.828126954
 20
13129.6140970959
 30
0.0
 11
-11518.5257746216
 21
13129.6140970959
 31
0.0
  0
LINE
  5
311
100
AcDbEntity
  8
L1_80
  6
CONTINUOUS
 62
         4
100
AcDbLine
 10
-11527.828126954
 20
13111.6140970959
 30
0.0
 11
-11518.5257746216
 21
13111.6140970959
 31
0.0
  0
LINE
  5
312
100
AcDbEntity
  8
L1_80
  6
CONTINUOUS
 62
         4
100
AcDbLine
 10
-11519.2007746216
 20
13129.6140970959
 30
0.0
 11
-11519.2007746216
 21
13111.6140970959
 31
0.0
  0
SOLID
  5
313
100
AcDbEntity
  8
L1_80
  6
CONTINUOUS
 62
         4
100
AcDbTrace
 10
-11519.2007746216
 20
13129.6140970959
 30
0.0
 11
-11518.7957746216
 21
13126.9140970959
 31
0.0
 12
-11519.6057746216
 22
13126.9140970959
 32
0.0
 13
-11519.2007746216
 23
13129.6140970959
 33
0.0
  0
SOLID
  5
314
100
AcDbEntity
  8
L1_80
  6
CONTINUOUS
 62
         4
100
AcDbTrace
 10
-11519.2007746216
 20
13111.6140970959
 30
0.0
 11
-11519.6057746216
 21
13114.3140970959
 31
0.0
 12
-11518.7957746216
 22
13114.3140970959
 32
0.0
 13
-11519.2007746216
 23
13111.6140970959
 33
0.0
  0
TEXT
  5
316
100
AcDbEntity
  8
L1_80
  6
CONTINUOUS
 62
         4
100
AcDbText
 10
-11521.2257746216
 20
13115.6806281589
 30
0.0
 40
2.7
  1
崷18
 50
90.0
  7
BOX
100
AcDbText
  0
ENDBLK
  5
317
100
AcDbEntity
  8
0
  6
CONTINUOUS
100
AcDbBlockEnd
  0
BLOCK
  5
322
100
AcDbEntity
  8
0
100
AcDbBlockBegin
  2
*D5
 70
        65
 10
0.0
 20
0.0
 30
0.0
  3
*D5
  1

  0
POINT
  5
324
100
AcDbEntity
  8
DEFPOINTS
  6
CONTINUOUS
 62
         0
100
AcDbPoint
 10
-11507.9484864641
 20
13133.3140970959
 30
0.0
  0
POINT
  5
325
100
AcDbEntity
  8
DEFPOINTS
  6
CONTINUOUS
 62
         0
100
AcDbPoint
 10
-11537.5561918851
 20
13133.3140970959
 30
0.0
  0
POINT
  5
326
100
AcDbEntity
  8
DEFPOINTS
  6
CONTINUOUS
 62
         0
100
AcDbPoint
 10
-11537.5561918851
 20
13107.9140970959
 30
0.0
  0
LINE
  5
327
100
AcDbEntity
  8
ERP____
  6
CONTINUOUS
 62
         4
100
AcDbLine
 10
-11536.2061918851
 20
13133.3140970959
 30
0.0
 11
-11507.2734864641
 21
13133.3140970959
 31
0.0
  0
LINE
  5
328
100
AcDbEntity
  8
ERP____
  6
CONTINUOUS
 62
         4
100
AcDbLine
 10
-11536.2061918851
 20
13107.9140970959
 30
0.0
 11
-11507.2734864641
 21
13107.9140970959
 31
0.0
  0
LINE
  5
329
100
AcDbEntity
  8
ERP____
  6
CONTINUOUS
 62
         4
100
AcDbLine
 10
-11507.9484864641
 20
13133.3140970959
 30
0.0
 11
-11507.9484864641
 21
13107.9140970959
 31
0.0
  0
SOLID
  5
32A
100
AcDbEntity
  8
ERP____
  6
CONTINUOUS
 62
         4
100
AcDbTrace
 10
-11507.9484864641
 20
13133.3140970959
 30
0.0
 11
-11507.5434864641
 21
13130.6140970959
 31
0.0
 12
-11508.3534864641
 22
13130.6140970959
 32
0.0
 13
-11507.9484864641
 23
13133.3140970959
 33
0.0
  0
SOLID
  5
32B
100
AcDbEntity
  8
ERP____
  6
CONTINUOUS
 62
         4
100
AcDbTrace
 10
-11507.9484864641
 20
13107.9140970959
 30
0.0
 11
-11508.3534864641
 21
13110.6140970959
 31
0.0
 12
-11507.5434864641
 22
13110.6140970959
 32
0.0
 13
-11507.9484864641
 23
13107.9140970959
 33
0.0
  0
TEXT
  5
32D
100
AcDbEntity
  8
ERP____
  6
CONTINUOUS
 62
         4
100
AcDbText
 10
-11511.0804864641
 20
13112.156546549
 30
0.0
 40
2.7
  1
崷25.4
 50
90.0
  7
BOX
100
AcDbText
  0
ENDBLK
  5
32E
100
AcDbEntity
  8
0
  6
CONTINUOUS
100
AcDbBlockEnd
  0
BLOCK
  5
341
100
AcDbEntity
  8
0
100
AcDbBlockBegin
  2
*D6
 70
        65
 10
0.0
 20
0.0
 30
0.0
  3
*D6
  1

  0
POINT
  5
343
100
AcDbEntity
  8
DEFPOINTS
  6
CONTINUOUS
 62
         0
100
AcDbPoint
 10
-11702.5577606127
 20
13035.8892964458
 30
0.0
  0
POINT
  5
344
100
AcDbEntity
  8
DEFPOINTS
  6
CONTINUOUS
 62
         0
100
AcDbPoint
 10
-11702.5577606127
 20
13029.4914213899
 30
0.0
  0
POINT
  5
345
100
AcDbEntity
  8
DEFPOINTS
  6
CONTINUOUS
 62
         0
100
AcDbPoint
 10
-11696.2077479127
 20
13029.4914213899
 30
0.0
  0
LINE
  5
346
100
AcDbEntity
  8
L1_80
  6
CONTINUOUS
 62
         4
100
AcDbLine
 10
-11702.5577606127
 20
13030.8414213899
 30
0.0
 11
-11702.5577606127
 21
13036.5642964458
 31
0.0
  0
LINE
  5
347
100
AcDbEntity
  8
L1_80
  6
CONTINUOUS
 62
         4
100
AcDbLine
 10
-11696.2077479127
 20
13030.8414213899
 30
0.0
 11
-11696.2077479127
 21
13036.5642964458
 31
0.0
  0
LINE
  5
348
100
AcDbEntity
  8
L1_80
  6
CONTINUOUS
 62
         4
100
AcDbLine
 10
-11702.5577606127
 20
13035.8892964458
 30
0.0
 11
-11696.2077479127
 21
13035.8892964458
 31
0.0
  0
SOLID
  5
349
100
AcDbEntity
  8
L1_80
  6
CONTINUOUS
 62
         4
100
AcDbTrace
 10
-11702.5577606127
 20
13035.8892964458
 30
0.0
 11
-11699.8577606127
 21
13036.2942964458
 31
0.0
 12
-11699.8577606127
 22
13035.4842964458
 32
0.0
 13
-11702.5577606127
 23
13035.8892964458
 33
0.0
  0
SOLID
  5
34A
100
AcDbEntity
  8
L1_80
  6
CONTINUOUS
 62
         4
100
AcDbTrace
 10
-11696.2077479127
 20
13035.8892964458
 30
0.0
 11
-11698.9077479127
 21
13035.4842964458
 31
0.0
 12
-11698.9077479127
 22
13036.2942964458
 32
0.0
 13
-11696.2077479127
 23
13035.8892964458
 33
0.0
  0
TEXT
  5
34C
100
AcDbEntity
  8
L1_80
  6
CONTINUOUS
 62
         4
100
AcDbText
 10
-11711.1803868124
 20
13037.9142964458
 30
0.0
 40
2.7
  1
1/4"-28UNF
  7
BOX
100
AcDbText
  0
ENDBLK
  5
34D
100
AcDbEntity
  8
0
  6
CONTINUOUS
100
AcDbBlockEnd
  0
BLOCK
  5
34F
100
AcDbEntity
  8
0
100
AcDbBlockBegin
  2
*D7
 70
        65
 10
0.0
 20
0.0
 30
0.0
  3
*D7
  1

  0
POINT
  5
351
100
AcDbEntity
  8
DEFPOINTS
  6
CONTINUOUS
 62
         0
100
AcDbPoint
 10
-11701.2302751241
 20
13016.0030203495
 30
0.0
  0
POINT
  5
352
100
AcDbEntity
  8
DEFPOINTS
  6
CONTINUOUS
 62
         0
100
AcDbPoint
 10
-11701.2302751241
 20
13024.9890083851
 30
0.0
  0
POINT
  5
353
100
AcDbEntity
  8
DEFPOINTS
  6
CONTINUOUS
 62
         0
100
AcDbPoint
 10
-11697.5352334013
 20
13024.9890083851
 30
0.0
  0
LINE
  5
354
100
AcDbEntity
  8
L1_80
  6
CONTINUOUS
 62
         4
100
AcDbLine
 10
-11701.2302751241
 20
13023.6390083851
 30
0.0
 11
-11701.2302751241
 21
13015.3280203495
 31
0.0
  0
LINE
  5
355
100
AcDbEntity
  8
L1_80
  6
CONTINUOUS
 62
         4
100
AcDbLine
 10
-11697.5352334013
 20
13023.6390083851
 30
0.0
 11
-11697.5352334013
 21
13015.3280203495
 31
0.0
  0
LINE
  5
356
100
AcDbEntity
  8
L1_80
  6
CONTINUOUS
 62
         4
100
AcDbLine
 10
-11701.2302751241
 20
13016.0030203495
 30
0.0
 11
-11706.6302751241
 21
13016.0030203495
 31
0.0
  0
SOLID
  5
357
100
AcDbEntity
  8
L1_80
  6
CONTINUOUS
 62
         4
100
AcDbTrace
 10
-11701.2302751241
 20
13016.0030203495
 30
0.0
 11
-11703.9302751241
 21
13015.5980203495
 31
0.0
 12
-11703.9302751241
 22
13016.4080203495
 32
0.0
 13
-11701.2302751241
 23
13016.0030203495
 33
0.0
  0
LINE
  5
358
100
AcDbEntity
  8
L1_80
  6
CONTINUOUS
 62
         4
100
AcDbLine
 10
-11697.5352334013
 20
13016.0030203495
 30
0.0
 11
-11673.88105255
 21
13016.0030203495
 31
0.0
  0
SOLID
  5
359
100
AcDbEntity
  8
L1_80
  6
CONTINUOUS
 62
         4
100
AcDbTrace
 10
-11697.5352334013
 20
13016.0030203495
 30
0.0
 11
-11694.8352334013
 21
13016.4080203495
 31
0.0
 12
-11694.8352334013
 22
13015.5980203495
 32
0.0
 13
-11697.5352334013
 23
13016.0030203495
 33
0.0
  0
LINE
  5
35A
100
AcDbEntity
  8
L1_80
  6
CONTINUOUS
 62
         4
100
AcDbLine
 10
-11701.2302751241
 20
13016.0030203495
 30
0.0
 11
-11697.5352334013
 21
13016.0030203495
 31
0.0
  0
TEXT
  5
35C
100
AcDbEntity
  8
L1_80
  6
CONTINUOUS
 62
         4
100
AcDbText
 10
-11694.13105255
 20
13018.0280203495
 30
0.0
 40
2.7
  1
1/8"Hex
  7
BOX
100
AcDbText
  0
ENDBLK
  5
35D
100
AcDbEntity
  8
0
  6
CONTINUOUS
100
AcDbBlockEnd
  0
BLOCK
  5
38B
100
AcDbEntity
  8
0
100
AcDbBlockBegin
  2
*D8
 70
        65
 10
0.0
 20
0.0
 30
0.0
  3
*D8
  1

  0
POINT
  5
38D
100
AcDbEntity
  8
DEFPOINTS
  6
CONTINUOUS
 62
         0
100
AcDbPoint
 10
-11711.4327430732
 20
13024.9890083851
 30
0.0
  0
POINT
  5
38E
100
AcDbEntity
  8
DEFPOINTS
  6
CONTINUOUS
 62
         0
100
AcDbPoint
 10
-11701.9481654895
 20
13024.9890083851
 30
0.0
  0
POINT
  5
38F
100
AcDbEntity
  8
DEFPOINTS
  6
CONTINUOUS
 62
         0
100
AcDbPoint
 10
-11701.0591576155
 20
13031.3390210851
 30
0.0
  0
LINE
  5
390
100
AcDbEntity
  8
L1_80
  6
CONTINUOUS
 62
         4
100
AcDbLine
 10
-11703.2981654895
 20
13024.9890083851
 30
0.0
 11
-11712.1077430732
 21
13024.9890083851
 31
0.0
  0
LINE
  5
391
100
AcDbEntity
  8
L1_80
  6
CONTINUOUS
 62
         4
100
AcDbLine
 10
-11702.4091576155
 20
13031.3390210851
 30
0.0
 11
-11712.1077430732
 21
13031.3390210851
 31
0.0
  0
LINE
  5
392
100
AcDbEntity
  8
L1_80
  6
CONTINUOUS
 62
         4
100
AcDbLine
 10
-11711.4327430732
 20
13024.9890083851
 30
0.0
 11
-11711.4327430732
 21
13031.3390210851
 31
0.0
  0
SOLID
  5
393
100
AcDbEntity
  8
L1_80
  6
CONTINUOUS
 62
         4
100
AcDbTrace
 10
-11711.4327430732
 20
13024.9890083851
 30
0.0
 11
-11711.8377430732
 21
13027.6890083851
 31
0.0
 12
-11711.0277430732
 22
13027.6890083851
 32
0.0
 13
-11711.4327430732
 23
13024.9890083851
 33
0.0
  0
LINE
  5
394
100
AcDbEntity
  8
L1_80
  6
CONTINUOUS
 62
         4
100
AcDbLine
 10
-11711.4327430732
 20
13031.3390210851
 30
0.0
 11
-11711.4327430732
 21
13024.9081574004
 31
0.0
  0
SOLID
  5
395
100
AcDbEntity
  8
L1_80
  6
CONTINUOUS
 62
         4
100
AcDbTrace
 10
-11711.4327430732
 20
13031.3390210851
 30
0.0
 11
-11711.0277430732
 21
13028.6390210851
 31
0.0
 12
-11711.8377430732
 22
13028.6390210851
 32
0.0
 13
-11711.4327430732
 23
13031.3390210851
 33
0.0
  0
TEXT
  5
397
100
AcDbEntity
  8
L1_80
  6
CONTINUOUS
 62
         4
100
AcDbText
 10
-11714.5647430732
 20
13026.2581574004
 30
0.0
 40
2.7
  1
6.35(0.25")
 50
90.0
  7
BOX
100
AcDbText
  0
ENDBLK
  5
398
100
AcDbEntity
  8
0
  6
CONTINUOUS
100
AcDbBlockEnd
  0
ENDSEC
  0
SECTION
  2
ENTITIES
  0
INSERT
  5
CC
100
AcDbEntity
  8
0
  6
CONTINUOUS
100
AcDbBlockReference
  2
*X0
 10
0.0
 20
0.0
 30
0.0
  0
ARC
  5
CD
100
AcDbEntity
  8
L1_80
  6
CONTINUOUS
 62
         7
100
AcDbCircle
 10
-11605.3257551108
 20
12972.1861206258
 30
0.0
 40
2.0
100
AcDbArc
 50
267.0
 51
270.0
  0
ARC
  5
CE
100
AcDbEntity
  8
L1_80
  6
CONTINUOUS
 62
         7
100
AcDbCircle
 10
-11605.3257551108
 20
12942.7861206258
 30
0.0
 40
2.0
100
AcDbArc
 50
89.9999999999
 51
93.0
  0
ARC
  5
CF
100
AcDbEntity
  8
L1_80
  6
CONTINUOUS
 62
         7
100
AcDbCircle
 10
-11720.726126954
 20
12978.2339978426
 30
0.0
 40
2.0
100
AcDbArc
 50
180.0
 51
267.0
  0
ARC
  5
D0
100
AcDbEntity
  8
L1_80
  6
CONTINUOUS
 62
         7
100
AcDbCircle
 10
-11720.726126954
 20
12936.7382434091
 30
0.0
 40
2.0
100
AcDbArc
 50
93.0
 51
180.0
  0
LINE
  5
D1
100
AcDbEntity
  8
L1_80
  6
CONTINUOUS
 62
         7
100
AcDbLine
 10
-11720.8307988664
 20
12938.7355024786
 30
0.0
 11
-11605.4304270233
 21
12944.7833796953
 31
0.0
  0
LINE
  5
D2
100
AcDbEntity
  8
L1_80
  6
CONTINUOUS
 62
         7
100
AcDbLine
 10
-11720.8307988664
 20
12976.2367387731
 30
0.0
 11
-11605.4304270232
 21
12970.1888615563
 31
0.0
  0
ARC
  5
D3
100
AcDbEntity
  8
L1_80
  6
CONTINUOUS
 62
         7
100
AcDbCircle
 10
-11605.3257551108
 20
13105.9140970959
 30
0.0
 40
2.0
100
AcDbArc
 50
89.9999999999
 51
93.0
  0
ARC
  5
D4
100
AcDbEntity
  8
L1_80
  6
CONTINUOUS
 62
         7
100
AcDbCircle
 10
-11605.3257551108
 20
13135.3140970959
 30
0.0
 40
2.0
100
AcDbArc
 50
267.0
 51
270.0
  0
ARC
  5
D5
100
AcDbEntity
  8
L1_80
  6
CONTINUOUS
 62
         7
100
AcDbCircle
 10
-11720.726126954
 20
13099.8662198792
 30
0.0
 40
2.0
100
AcDbArc
 50
93.0
 51
180.0
  0
LINE
  5
D6
100
AcDbEntity
  8
L1_80
  6
CONTINUOUS
 62
         7
100
AcDbLine
 10
-11720.8307988664
 20
13101.8634789487
 30
0.0
 11
-11605.4304270233
 21
13107.9113561654
 31
0.0
  0
ARC
  5
D7
100
AcDbEntity
  8
L1_80
  6
CONTINUOUS
 62
         7
100
AcDbCircle
 10
-11720.726126954
 20
13141.3619743126
 30
0.0
 40
2.0
100
AcDbArc
 50
180.0
 51
267.0
  0
LINE
  5
D8
100
AcDbEntity
  8
_Y__________
  6
CONTINUOUS
 62
         7
100
AcDbLine
 10
-11723.226126954
 20
13098.3290970959
 30
0.0
 11
-11723.226126954
 21
13142.8990970959
 31
0.0
  0
LINE
  5
D9
100
AcDbEntity
  8
_Y__________
  6
CONTINUOUS
 62
         4
100
AcDbLine
 10
-11739.178126954
 20
13088.8390970959
 30
0.0
 11
-11739.178126954
 21
13111.7640970959
 31
0.0
  0
LINE
  5
DA
100
AcDbEntity
  8
_Y__________
  6
CONTINUOUS
 62
         4
100
AcDbLine
 10
-11754.078126954
 20
13088.8390970959
 30
0.0
 11
-11754.078126954
 21
13111.7640970959
 31
0.0
  0
LINE
  5
DB
100
AcDbEntity
  8
_Y__________
  6
CONTINUOUS
 62
         4
100
AcDbLine
 10
-11739.178126954
 20
13129.4640970959
 30
0.0
 11
-11739.178126954
 21
13152.3890970959
 31
0.0
  0
LINE
  5
DC
100
AcDbEntity
  8
_Y__________
  6
CONTINUOUS
 62
         4
100
AcDbLine
 10
-11754.078126954
 20
13129.4640970959
 30
0.0
 11
-11754.078126954
 21
13152.3890970959
 31
0.0
  0
LINE
  5
DD
100
AcDbEntity
  8
_Y__________
  6
CONTINUOUS
 62
         7
100
AcDbLine
 10
-11756.578126954
 20
13098.2140970959
 30
0.0
 11
-11756.578126954
 21
13143.0140970959
 31
0.0
  0
LINE
  5
DE
100
AcDbEntity
  8
_Y__________
  6
CENTER
 62
         1
100
AcDbLine
 10
-11761.1306183724
 20
13120.6140970959
 30
0.0
 11
-11738.678126954
 21
13120.6140970959
 31
0.0
  0
LINE
  5
DF
100
AcDbEntity
  8
_Y__________
  6
CONTINUOUS
 62
         7
100
AcDbLine
 10
-11825.0012952256
 20
13133.0357183896
 30
0.0
 11
-11756.578126954
 21
13143.0140970959
 31
0.0
  0
LINE
  5
E0
100
AcDbEntity
  8
_Y__________
  6
CENTER
 62
         1
100
AcDbLine
 10
-11828.4216286849
 20
13120.6140970959
 30
0.0
 11
-11779.3155138158
 21
13120.6140970959
 31
0.0
  0
LINE
  5
E1
100
AcDbEntity
  8
_Y__________
  6
CONTINUOUS
 62
         7
100
AcDbLine
 10
-11825.0012952256
 20
13108.1924758022
 30
0.0
 11
-11756.578126954
 21
13098.2140970959
 31
0.0
  0
LINE
  5
E2
100
AcDbEntity
  8
_Y__________
  6
CENTER
 62
         1
100
AcDbLine
 10
-11746.678126954
 20
13158.1193603967
 30
0.0
 11
-11746.678126954
 21
13083.1165408449
 31
0.0
  0
ARC
  5
E3
100
AcDbEntity
  8
_Y__________
  6
CONTINUOUS
 62
         7
100
AcDbCircle
 10
-11745.7769272857
 20
13149.7390970959
 30
0.0
 40
1.0
100
AcDbArc
 50
270.0
 51
346.8556743106
  0
ARC
  5
E4
100
AcDbEntity
  8
_Y__________
  6
CONTINUOUS
 62
         7
100
AcDbCircle
 10
-11747.5793266222
 20
13149.7390970959
 30
0.0
 40
1.0
100
AcDbArc
 50
193.1443256894
 51
270.0
  0
LINE
  5
E5
100
AcDbEntity
  8
_Y__________
  6
CONTINUOUS
 62
         7
100
AcDbLine
 10
-11747.5793266222
 20
13148.7390970959
 30
0.0
 11
-11745.7769272857
 21
13148.7390970959
 31
0.0
  0
LINE
  5
E6
100
AcDbEntity
  8
_Y__________
  6
CONTINUOUS
 62
         7
100
AcDbLine
 10
-11743.1418565552
 20
13152.3890970959
 30
0.0
 11
-11739.678126954
 21
13152.3890970959
 31
0.0
  0
LINE
  5
E7
100
AcDbEntity
  8
_Y__________
  6
CONTINUOUS
 62
         7
100
AcDbLine
 10
-11744.803126954
 20
13149.5116923601
 30
0.0
 11
-11743.1418565552
 21
13152.3890970959
 31
0.0
  0
LINE
  5
E8
100
AcDbEntity
  8
_Y__________
  6
CONTINUOUS
 62
         7
100
AcDbLine
 10
-11743.1418565552
 20
13088.8390970959
 30
0.0
 11
-11739.678126954
 21
13088.8390970959
 31
0.0
  0
ARC
  5
E9
100
AcDbEntity
  8
_Y__________
  6
CONTINUOUS
 62
         7
100
AcDbCircle
 10
-11745.7769272857
 20
13091.4890970959
 30
0.0
 40
1.0
100
AcDbArc
 50
13.1443256894
 51
90.0
  0
LINE
  5
EA
100
AcDbEntity
  8
_Y__________
  6
CONTINUOUS
 62
         7
100
AcDbLine
 10
-11744.803126954
 20
13091.7165018317
 30
0.0
 11
-11743.1418565552
 21
13088.8390970959
 31
0.0
  0
ARC
  5
EB
100
AcDbEntity
  8
_Y__________
  6
CONTINUOUS
 62
         7
100
AcDbCircle
 10
-11747.5793266222
 20
13091.4890970959
 30
0.0
 40
1.0
100
AcDbArc
 50
90.0
 51
166.8556743106
  0
LINE
  5
EC
100
AcDbEntity
  8
_Y__________
  6
CONTINUOUS
 62
         7
100
AcDbLine
 10
-11747.5793266222
 20
13092.4890970959
 30
0.0
 11
-11745.7769272857
 21
13092.4890970959
 31
0.0
  0
LINE
  5
ED
100
AcDbEntity
  8
_Y__________
  6
CONTINUOUS
 62
         7
100
AcDbLine
 10
-11738.678126954
 20
13151.3890970959
 30
0.0
 11
-11738.678126954
 21
13139.6140970959
 31
0.0
  0
LINE
  5
EE
100
AcDbEntity
  8
_Y__________
  6
CONTINUOUS
 62
         7
100
AcDbLine
 10
-11738.678126954
 20
13151.3890970959
 30
0.0
 11
-11738.678126954
 21
13089.8390970959
 31
0.0
  0
LINE
  5
EF
100
AcDbEntity
  8
_Y__________
  6
CONTINUOUS
 62
         7
100
AcDbLine
 10
-11753.578126954
 20
13152.3890970959
 30
0.0
 11
-11750.2143973527
 21
13152.3890970959
 31
0.0
  0
LINE
  5
F0
100
AcDbEntity
  8
_Y__________
  6
CONTINUOUS
 62
         7
100
AcDbLine
 10
-11753.578126954
 20
13088.8390970959
 30
0.0
 11
-11750.2143973527
 21
13088.8390970959
 31
0.0
  0
LINE
  5
F1
100
AcDbEntity
  8
_Y__________
  6
CENTER
 62
         1
100
AcDbLine
 10
-11757.778126954
 20
13142.8390970959
 30
0.0
 11
-11757.778126954
 21
13098.3890970959
 31
0.0
  0
LINE
  5
F2
100
AcDbEntity
  8
_Y__________
  6
CONTINUOUS
 62
         7
100
AcDbLine
 10
-11754.578126954
 20
13151.3890970959
 30
0.0
 11
-11754.578126954
 21
13089.8390970959
 31
0.0
  0
LINE
  5
F3
100
AcDbEntity
  8
_Y__________
  6
CONTINUOUS
 62
         7
100
AcDbLine
 10
-11748.553126954
 20
13091.7165018317
 30
0.0
 11
-11750.2143973527
 21
13088.8390970959
 31
0.0
  0
LINE
  5
F4
100
AcDbEntity
  8
_Y__________
  6
CONTINUOUS
 62
         7
100
AcDbLine
 10
-11748.553126954
 20
13149.5116923601
 30
0.0
 11
-11750.2143973527
 21
13152.3890970959
 31
0.0
  0
LINE
  5
F5
100
AcDbEntity
  8
_Y__________
  6
CONTINUOUS
 62
         7
100
AcDbLine
 10
-11743.1418565552
 20
12989.261120626
 30
0.0
 11
-11739.678126954
 21
12989.261120626
 31
0.0
  0
LINE
  5
F6
100
AcDbEntity
  8
_Y__________
  6
CONTINUOUS
 62
         7
100
AcDbLine
 10
-11744.803126954
 20
12986.3837158902
 30
0.0
 11
-11743.1418565552
 21
12989.261120626
 31
0.0
  0
ARC
  5
F7
100
AcDbEntity
  8
_Y__________
  6
CONTINUOUS
 62
         7
100
AcDbCircle
 10
-11745.7769272857
 20
12986.611120626
 30
0.0
 40
1.0
100
AcDbArc
 50
270.0
 51
346.8556743106
  0
LINE
  5
F8
100
AcDbEntity
  8
_Y__________
  6
CONTINUOUS
 62
         7
100
AcDbLine
 10
-11747.5793266222
 20
12985.611120626
 30
0.0
 11
-11745.7769272857
 21
12985.611120626
 31
0.0
  0
ARC
  5
F9
100
AcDbEntity
  8
_Y__________
  6
CONTINUOUS
 62
         7
100
AcDbCircle
 10
-11747.5793266222
 20
12986.611120626
 30
0.0
 40
1.0
100
AcDbArc
 50
193.1443256894
 51
270.0
  0
LINE
  5
FA
100
AcDbEntity
  8
_Y__________
  6
CONTINUOUS
 62
         7
100
AcDbLine
 10
-11748.553126954
 20
12986.38371589
 30
0.0
 11
-11750.2143973527
 21
12989.2611206258
 31
0.0
  0
LINE
  5
FB
100
AcDbEntity
  8
_Y__________
  6
CONTINUOUS
 62
         7
100
AcDbLine
 10
-11753.578126954
 20
12989.261120626
 30
0.0
 11
-11750.2143973527
 21
12989.261120626
 31
0.0
  0
LINE
  5
FC
100
AcDbEntity
  8
_Y__________
  6
CONTINUOUS
 62
         7
100
AcDbLine
 10
-11754.578126954
 20
12980.6861206258
 30
0.0
 11
-11754.578126954
 21
12988.261120626
 31
0.0
  0
LINE
  5
FD
100
AcDbEntity
  8
_Y__________
  6
CONTINUOUS
 62
         7
100
AcDbLine
 10
-11825.1512952256
 20
12969.8858669195
 30
0.0
 11
-11756.578126954
 21
12979.8861206258
 31
0.0
  0
LINE
  5
FE
100
AcDbEntity
  8
_Y__________
  6
CONTINUOUS
 62
         7
100
AcDbLine
 10
-11825.1512952256
 20
12945.0863743321
 30
0.0
 11
-11756.5781269535
 21
12935.0861206258
 31
0.0
  0
LINE
  5
FF
100
AcDbEntity
  8
_Y__________
  6
CENTER
 62
         1
100
AcDbLine
 10
-11829.2258599293
 20
12957.4861206258
 30
0.0
 11
-11738.678126954
 21
12957.4861206258
 31
0.0
  0
LINE
  5
100
100
AcDbEntity
  8
_Y__________
  6
CONTINUOUS
 62
         7
100
AcDbLine
 10
-11753.578126954
 20
12925.7111206257
 30
0.0
 11
-11750.2143973527
 21
12925.7111206257
 31
0.0
  0
LINE
  5
101
100
AcDbEntity
  8
_Y__________
  6
CONTINUOUS
 62
         7
100
AcDbLine
 10
-11754.578126954
 20
12934.2861206258
 30
0.0
 11
-11754.578126954
 21
12926.7111206257
 31
0.0
  0
LINE
  5
102
100
AcDbEntity
  8
_Y__________
  6
CONTINUOUS
 62
         7
100
AcDbLine
 10
-11748.553126954
 20
12928.5885253616
 30
0.0
 11
-11750.2143973527
 21
12925.7111206258
 31
0.0
  0
ARC
  5
103
100
AcDbEntity
  8
_Y__________
  6
CONTINUOUS
 62
         7
100
AcDbCircle
 10
-11747.5793266222
 20
12928.3611206258
 30
0.0
 40
1.0
100
AcDbArc
 50
90.0
 51
166.8556743106
  0
LINE
  5
104
100
AcDbEntity
  8
_Y__________
  6
CONTINUOUS
 62
         7
100
AcDbLine
 10
-11747.5793266222
 20
12929.3611206258
 30
0.0
 11
-11745.7769272857
 21
12929.3611206258
 31
0.0
  0
ARC
  5
105
100
AcDbEntity
  8
_Y__________
  6
CONTINUOUS
 62
         7
100
AcDbCircle
 10
-11745.7769272857
 20
12928.3611206257
 30
0.0
 40
1.0
100
AcDbArc
 50
13.1443256894
 51
90.0
  0
LINE
  5
106
100
AcDbEntity
  8
_Y__________
  6
CONTINUOUS
 62
         7
100
AcDbLine
 10
-11744.803126954
 20
12928.5885253616
 30
0.0
 11
-11743.1418565552
 21
12925.7111206258
 31
0.0
  0
LINE
  5
107
100
AcDbEntity
  8
_Y__________
  6
CONTINUOUS
 62
         7
100
AcDbLine
 10
-11743.1418565552
 20
12925.7111206257
 30
0.0
 11
-11739.678126954
 21
12925.7111206257
 31
0.0
  0
LINE
  5
108
100
AcDbEntity
  8
_Y__________
  6
CONTINUOUS
 62
         7
100
AcDbLine
 10
-11826.028126954
 20
13131.8482788123
 30
0.0
 11
-11826.028126954
 21
13109.3799153795
 31
0.0
  0
ARC
  5
109
100
AcDbEntity
  8
_Y__________
  6
CONTINUOUS
 62
         7
100
AcDbCircle
 10
-11824.828126954
 20
13131.8482788123
 30
0.0
 40
1.2
100
AcDbArc
 50
98.2971449698
 51
180.0
  0
ARC
  5
10A
100
AcDbEntity
  8
_Y__________
  6
CONTINUOUS
 62
         7
100
AcDbCircle
 10
-11824.828126954
 20
13109.3799153795
 30
0.0
 40
1.2
100
AcDbArc
 50
180.0
 51
261.7028550302
  0
LINE
  5
10B
100
AcDbEntity
  8
_Y__________
  6
CONTINUOUS
 62
         7
100
AcDbLine
 10
-11826.028126954
 20
12968.7203023423
 30
0.0
 11
-11826.028126954
 21
12946.2519389094
 31
0.0
  0
ARC
  5
10C
100
AcDbEntity
  8
_Y__________
  6
CONTINUOUS
 62
         7
100
AcDbCircle
 10
-11824.828126954
 20
12968.7203023423
 30
0.0
 40
1.2
100
AcDbArc
 50
98.2971449698
 51
180.0
  0
ARC
  5
10D
100
AcDbEntity
  8
_Y__________
  6
CONTINUOUS
 62
         7
100
AcDbCircle
 10
-11824.828126954
 20
12946.2519389094
 30
0.0
 40
1.2
100
AcDbArc
 50
180.0
 51
261.7028550302
  0
LINE
  5
10E
100
AcDbEntity
  8
_Y__________
  6
CONTINUOUS
 62
         7
100
AcDbLine
 10
-11797.578126954
 20
12965.4861206258
 30
0.0
 11
-11797.578126954
 21
12949.4861206258
 31
0.0
  0
LINE
  5
10F
100
AcDbEntity
  8
_Y__________
  6
CONTINUOUS
 62
         5
100
AcDbLine
 10
-11821.1252842415
 20
12949.4861206258
 30
0.0
 11
-11797.578126954
 21
12949.4861206258
 31
0.0
  0
ARC
  5
110
100
AcDbEntity
  8
_Y__________
  6
CONTINUOUS
 62
         7
100
AcDbCircle
 10
-11825.028126954
 20
12948.3361206258
 30
0.0
 40
1.0
100
AcDbArc
 50
90.0
 51
180.0
  0
LINE
  5
111
100
AcDbEntity
  8
_Y__________
  6
CONTINUOUS
 62
         7
100
AcDbLine
 10
-11825.028126954
 20
12949.3361206258
 30
0.0
 11
-11822.258126954
 21
12949.3361206258
 31
0.0
  0
LINE
  5
112
100
AcDbEntity
  8
_Y__________
  6
CONTINUOUS
 62
         7
100
AcDbLine
 10
-11821.9103551827
 20
12949.2429354606
 30
0.0
 11
-11822.258126954
 21
12949.3361206258
 31
0.0
  0
LINE
  5
113
100
AcDbEntity
  8
_Y__________
  6
CONTINUOUS
 62
         7
100
AcDbLine
 10
-11821.8585913737
 20
12949.2361206258
 30
0.0
 11
-11821.458126954
 21
12949.2361206258
 31
0.0
  0
ARC
  5
114
100
AcDbEntity
  8
_Y__________
  6
CONTINUOUS
 62
         7
100
AcDbCircle
 10
-11821.458126954
 20
12949.4361206258
 30
0.0
 40
0.2
100
AcDbArc
 50
270.0
 51
314.9999999962
  0
LINE
  5
115
100
AcDbEntity
  8
_Y__________
  6
CONTINUOUS
 62
         7
100
AcDbLine
 10
-11821.3167055977
 20
12949.2946992696
 30
0.0
 11
-11820.1252842415
 21
12950.4861206258
 31
0.0
  0
LINE
  5
116
100
AcDbEntity
  8
_Y__________
  6
CONTINUOUS
 62
         7
100
AcDbLine
 10
-11820.1252842415
 20
12950.4861206258
 30
0.0
 11
-11671.028126954
 21
12950.4861206258
 31
0.0
  0
LINE
  5
117
100
AcDbEntity
  8
_Y__________
  6
CONTINUOUS
 62
         7
100
AcDbLine
 10
-11820.1252842415
 20
12964.4861206258
 30
0.0
 11
-11820.1252842415
 21
12950.4861206258
 31
0.0
  0
LINE
  5
118
100
AcDbEntity
  8
_Y__________
  6
CONTINUOUS
 62
         7
100
AcDbLine
 10
-11820.1252842415
 20
12964.4861206258
 30
0.0
 11
-11671.028126954
 21
12964.4861206258
 31
0.0
  0
LINE
  5
119
100
AcDbEntity
  8
_Y__________
  6
CONTINUOUS
 62
         5
100
AcDbLine
 10
-11821.1252842415
 20
12965.4861206258
 30
0.0
 11
-11797.578126954
 21
12965.4861206258
 31
0.0
  0
LINE
  5
11A
100
AcDbEntity
  8
_Y__________
  6
CONTINUOUS
 62
         7
100
AcDbLine
 10
-11822.258126954
 20
12965.6361206258
 30
0.0
 11
-11822.258126954
 21
12949.3361206258
 31
0.0
  0
LINE
  5
11B
100
AcDbEntity
  8
_Y__________
  6
CONTINUOUS
 62
         7
100
AcDbLine
 10
-11821.258126954
 20
12965.2796434665
 30
0.0
 11
-11821.258126954
 21
12949.8073672903
 31
0.0
  0
ARC
  5
11C
100
AcDbEntity
  8
_Y__________
  6
CONTINUOUS
 62
         7
100
AcDbCircle
 10
-11821.458126954
 20
12965.5361206258
 30
0.0
 40
0.2
100
AcDbArc
 50
45.0000000038
 51
90.0
  0
LINE
  5
11D
100
AcDbEntity
  8
_Y__________
  6
CONTINUOUS
 62
         7
100
AcDbLine
 10
-11821.3167055977
 20
12965.6775419821
 30
0.0
 11
-11820.1252842415
 21
12964.4861206258
 31
0.0
  0
LINE
  5
11E
100
AcDbEntity
  8
_Y__________
  6
CONTINUOUS
 62
         7
100
AcDbLine
 10
-11821.8585913737
 20
12965.7361206258
 30
0.0
 11
-11821.458126954
 21
12965.7361206258
 31
0.0
  0
LINE
  5
11F
100
AcDbEntity
  8
_Y__________
  6
CONTINUOUS
 62
         7
100
AcDbLine
 10
-11821.9103551827
 20
12965.7293057911
 30
0.0
 11
-11822.258126954
 21
12965.6361206258
 31
0.0
  0
ARC
  5
120
100
AcDbEntity
  8
_Y__________
  6
CONTINUOUS
 62
         7
100
AcDbCircle
 10
-11821.8585913737
 20
12965.5361206258
 30
0.0
 40
0.2
100
AcDbArc
 50
90.0
 51
105.0
  0
LINE
  5
121
100
AcDbEntity
  8
_Y__________
  6
CONTINUOUS
 62
         7
100
AcDbLine
 10
-11825.028126954
 20
12965.6361206258
 30
0.0
 11
-11822.258126954
 21
12965.6361206258
 31
0.0
  0
ARC
  5
122
100
AcDbEntity
  8
_Y__________
  6
CONTINUOUS
 62
         7
100
AcDbCircle
 10
-11825.028126954
 20
12966.6361206258
 30
0.0
 40
1.0
100
AcDbArc
 50
180.0
 51
270.0
  0
LINE
  5
123
100
AcDbEntity
  8
_Y__________
  6
CONTINUOUS
 62
         7
100
AcDbLine
 10
-11754.578126954
 20
13089.3390970959
 30
0.0
 11
-11754.078126954
 21
13088.8390970959
 31
0.0
  0
LINE
  5
124
100
AcDbEntity
  8
_Y__________
  6
CONTINUOUS
 62
         7
100
AcDbLine
 10
-11738.678126954
 20
13089.3390970959
 30
0.0
 11
-11739.178126954
 21
13088.8390970959
 31
0.0
  0
LINE
  5
125
100
AcDbEntity
  8
_Y__________
  6
CONTINUOUS
 62
         7
100
AcDbLine
 10
-11754.078126954
 20
13088.8390970959
 30
0.0
 11
-11752.578126954
 21
13088.8390970959
 31
0.0
  0
LINE
  5
126
100
AcDbEntity
  8
_Y__________
  6
CONTINUOUS
 62
         7
100
AcDbLine
 10
-11740.678126954
 20
13088.8390970959
 30
0.0
 11
-11739.178126954
 21
13088.8390970959
 31
0.0
  0
LINE
  5
127
100
AcDbEntity
  8
_Y__________
  6
CONTINUOUS
 62
         7
100
AcDbLine
 10
-11754.578126954
 20
13090.8390970959
 30
0.0
 11
-11754.578126954
 21
13089.3390970959
 31
0.0
  0
LINE
  5
128
100
AcDbEntity
  8
_Y__________
  6
CONTINUOUS
 62
         7
100
AcDbLine
 10
-11738.678126954
 20
13090.8390970959
 30
0.0
 11
-11738.678126954
 21
13089.3390970959
 31
0.0
  0
LINE
  5
129
100
AcDbEntity
  8
_Y__________
  6
CONTINUOUS
 62
         7
100
AcDbLine
 10
-11739.178126954
 20
12989.2611206258
 30
0.0
 11
-11738.678126954
 21
12988.7611206258
 31
0.0
  0
LINE
  5
12A
100
AcDbEntity
  8
_Y__________
  6
CONTINUOUS
 62
         7
100
AcDbLine
 10
-11754.578126954
 20
12988.7611206258
 30
0.0
 11
-11754.078126954
 21
12989.2611206258
 31
0.0
  0
LINE
  5
12B
100
AcDbEntity
  8
_Y__________
  6
CONTINUOUS
 62
         7
100
AcDbLine
 10
-11754.578126954
 20
12926.2111206258
 30
0.0
 11
-11754.078126954
 21
12925.7111206258
 31
0.0
  0
LINE
  5
12C
100
AcDbEntity
  8
_Y__________
  6
CONTINUOUS
 62
         7
100
AcDbLine
 10
-11738.678126954
 20
12926.2111206258
 30
0.0
 11
-11739.178126954
 21
12925.7111206258
 31
0.0
  0
LINE
  5
12D
100
AcDbEntity
  8
_Y__________
  6
CONTINUOUS
 62
         7
100
AcDbLine
 10
-11739.178126954
 20
13152.3890970959
 30
0.0
 11
-11738.678126954
 21
13151.8890970959
 31
0.0
  0
LINE
  5
12E
100
AcDbEntity
  8
_Y__________
  6
CONTINUOUS
 62
         7
100
AcDbLine
 10
-11754.078126954
 20
13152.3890970959
 30
0.0
 11
-11754.578126954
 21
13151.8890970959
 31
0.0
  0
LINE
  5
12F
100
AcDbEntity
  8
_Y__________
  6
CONTINUOUS
 62
         7
100
AcDbLine
 10
-11754.078126954
 20
12989.2611206258
 30
0.0
 11
-11752.578126954
 21
12989.2611206258
 31
0.0
  0
LINE
  5
130
100
AcDbEntity
  8
_Y__________
  6
CONTINUOUS
 62
         7
100
AcDbLine
 10
-11754.578126954
 20
12988.7611206258
 30
0.0
 11
-11754.578126954
 21
12987.2611206258
 31
0.0
  0
LINE
  5
131
100
AcDbEntity
  8
_Y__________
  6
CONTINUOUS
 62
         7
100
AcDbLine
 10
-11740.678126954
 20
12989.2611206258
 30
0.0
 11
-11739.178126954
 21
12989.2611206258
 31
0.0
  0
LINE
  5
132
100
AcDbEntity
  8
_Y__________
  6
CONTINUOUS
 62
         7
100
AcDbLine
 10
-11754.078126954
 20
12925.7111206258
 30
0.0
 11
-11752.578126954
 21
12925.7111206258
 31
0.0
  0
LINE
  5
133
100
AcDbEntity
  8
_Y__________
  6
CONTINUOUS
 62
         7
100
AcDbLine
 10
-11740.678126954
 20
12925.7111206258
 30
0.0
 11
-11739.178126954
 21
12925.7111206258
 31
0.0
  0
LINE
  5
134
100
AcDbEntity
  8
_Y__________
  6
CONTINUOUS
 62
         7
100
AcDbLine
 10
-11738.678126954
 20
12988.7611206258
 30
0.0
 11
-11738.678126954
 21
12987.2611206258
 31
0.0
  0
LINE
  5
135
100
AcDbEntity
  8
_Y__________
  6
CONTINUOUS
 62
         7
100
AcDbLine
 10
-11754.578126954
 20
12927.7111206258
 30
0.0
 11
-11754.578126954
 21
12926.2111206258
 31
0.0
  0
LINE
  5
136
100
AcDbEntity
  8
_Y__________
  6
CONTINUOUS
 62
         7
100
AcDbLine
 10
-11738.678126954
 20
12927.7111206258
 30
0.0
 11
-11738.678126954
 21
12926.2111206258
 31
0.0
  0
LINE
  5
137
100
AcDbEntity
  8
_Y__________
  6
CONTINUOUS
 62
         7
100
AcDbLine
 10
-11738.678126954
 20
13151.8890970959
 30
0.0
 11
-11738.678126954
 21
13150.3890970959
 31
0.0
  0
LINE
  5
138
100
AcDbEntity
  8
_Y__________
  6
CONTINUOUS
 62
         7
100
AcDbLine
 10
-11740.678126954
 20
13152.3890970959
 30
0.0
 11
-11739.178126954
 21
13152.3890970959
 31
0.0
  0
LINE
  5
139
100
AcDbEntity
  8
_Y__________
  6
CONTINUOUS
 62
         7
100
AcDbLine
 10
-11754.578126954
 20
13151.8890970959
 30
0.0
 11
-11754.578126954
 21
13150.3890970959
 31
0.0
  0
LINE
  5
13A
100
AcDbEntity
  8
_Y__________
  6
CONTINUOUS
 62
         7
100
AcDbLine
 10
-11754.078126954
 20
13152.3890970959
 30
0.0
 11
-11752.578126954
 21
13152.3890970959
 31
0.0
  0
LINE
  5
13B
100
AcDbEntity
  8
_Y__________
  6
CONTINUOUS
 62
         7
100
AcDbLine
 10
-11738.678126954
 20
12934.7011206258
 30
0.0
 11
-11738.678126954
 21
12926.7111206257
 31
0.0
  0
LINE
  5
13C
100
AcDbEntity
  8
_Y__________
  6
CONTINUOUS
 62
         7
100
AcDbLine
 10
-11738.678126954
 20
12988.261120626
 30
0.0
 11
-11738.678126954
 21
12980.2711206258
 31
0.0
  0
ARC
  5
13D
100
AcDbEntity
  8
_Y__________
  6
CONTINUOUS
 62
         7
100
AcDbCircle
 10
-11738.178126954
 20
13143.3990970959
 30
0.0
 40
0.5
100
AcDbArc
 50
180.0
 51
270.0
  0
ARC
  5
13E
100
AcDbEntity
  8
_Y__________
  6
CONTINUOUS
 62
         7
100
AcDbCircle
 10
-11738.178126954
 20
13097.8290970959
 30
0.0
 40
0.5
100
AcDbArc
 50
90.0
 51
180.0
  0
LINE
  5
13F
100
AcDbEntity
  8
_Y__________
  6
CONTINUOUS
 62
         7
100
AcDbLine
 10
-11738.178126954
 20
13098.3290970959
 30
0.0
 11
-11723.526126954
 21
13098.3290970959
 31
0.0
  0
LINE
  5
140
100
AcDbEntity
  8
_Y__________
  6
CONTINUOUS
 62
         7
100
AcDbLine
 10
-11738.178126954
 20
13142.8990970959
 30
0.0
 11
-11723.526126954
 21
13142.8990970959
 31
0.0
  0
LINE
  5
141
100
AcDbEntity
  8
_Y__________
  6
CONTINUOUS
 62
         7
100
AcDbLine
 10
-11738.678126954
 20
13097.8290970959
 30
0.0
 11
-11738.678126954
 21
13089.8390970959
 31
0.0
  0
LINE
  5
142
100
AcDbEntity
  8
_Y__________
  6
CONTINUOUS
 62
         7
100
AcDbLine
 10
-11738.678126954
 20
13151.3890970959
 30
0.0
 11
-11738.678126954
 21
13143.3990970959
 31
0.0
  0
LINE
  5
143
100
AcDbEntity
  8
_Y__________
  6
CONTINUOUS
 62
         7
100
AcDbLine
 10
-11738.178126954
 20
12979.7711206258
 30
0.0
 11
-11723.526126954
 21
12979.7711206258
 31
0.0
  0
LINE
  5
144
100
AcDbEntity
  8
_Y__________
  6
CONTINUOUS
 62
         7
100
AcDbLine
 10
-11738.178126954
 20
12935.2011206258
 30
0.0
 11
-11723.526126954
 21
12935.2011206258
 31
0.0
  0
ARC
  5
145
100
AcDbEntity
  8
_Y__________
  6
CONTINUOUS
 62
         7
100
AcDbCircle
 10
-11738.178126954
 20
12934.7011206258
 30
0.0
 40
0.5
100
AcDbArc
 50
90.0
 51
180.0
  0
ARC
  5
146
100
AcDbEntity
  8
_Y__________
  6
CONTINUOUS
 62
         7
100
AcDbCircle
 10
-11738.178126954
 20
12980.2711206258
 30
0.0
 40
0.5
100
AcDbArc
 50
180.0
 51
270.0
  0
LINE
  5
147
100
AcDbEntity
  8
_Y__________
  6
CONTINUOUS
 62
         7
100
AcDbLine
 10
-11925.6581269539
 20
13113.0640970959
 30
0.0
 11
-11925.6581269539
 21
13128.1640970959
 31
0.0
  0
LINE
  5
148
100
AcDbEntity
  8
_Y__________
  6
CONTINUOUS
 62
         7
100
AcDbLine
 10
-11925.6581269539
 20
13113.0640970959
 30
0.0
 11
-11926.1581269539
 21
13112.5640970959
 31
0.0
  0
LINE
  5
149
100
AcDbEntity
  8
_Y__________
  6
CONTINUOUS
 62
         7
100
AcDbLine
 10
-11926.1581269539
 20
13112.5640970959
 30
0.0
 11
-11933.0965089055
 21
13112.5640970959
 31
0.0
  0
LINE
  5
14A
100
AcDbEntity
  8
_Y__________
  6
CONTINUOUS
 62
         7
100
AcDbLine
 10
-11933.4905941867
 20
13112.1700118147
 30
0.0
 11
-11933.0965089055
 21
13112.5640970959
 31
0.0
  0
LINE
  5
14B
100
AcDbEntity
  8
_Y__________
  6
CONTINUOUS
 62
         7
100
AcDbLine
 10
-11926.1581269539
 20
13128.6640970959
 30
0.0
 11
-11933.0965089055
 21
13128.6640970959
 31
0.0
  0
LINE
  5
14C
100
AcDbEntity
  8
_Y__________
  6
CONTINUOUS
 62
         7
100
AcDbLine
 10
-11925.6581269539
 20
13128.1640970959
 30
0.0
 11
-11926.1581269539
 21
13128.6640970959
 31
0.0
  0
LINE
  5
14D
100
AcDbEntity
  8
_Y__________
  6
CONTINUOUS
 62
         7
100
AcDbLine
 10
-11933.4905941867
 20
13129.0581823771
 30
0.0
 11
-11933.0965089055
 21
13128.6640970959
 31
0.0
  0
LINE
  5
14E
100
AcDbEntity
  8
_Y__________
  6
CONTINUOUS
 62
         7
100
AcDbLine
 10
-11872.6197450024
 20
13112.5640970959
 30
0.0
 11
-11877.3581269539
 21
13112.5640970959
 31
0.0
  0
LINE
  5
14F
100
AcDbEntity
  8
_Y__________
  6
CONTINUOUS
 62
         7
100
AcDbLine
 10
-11877.8581269539
 20
13113.0640970959
 30
0.0
 11
-11877.8581269539
 21
13128.1640970959
 31
0.0
  0
LINE
  5
150
100
AcDbEntity
  8
_Y__________
  6
CONTINUOUS
 62
         7
100
AcDbLine
 10
-11877.8581269539
 20
13113.0640970959
 30
0.0
 11
-11877.3581269539
 21
13112.5640970959
 31
0.0
  0
LINE
  5
151
100
AcDbEntity
  8
_Y__________
  6
CONTINUOUS
 62
         7
100
AcDbLine
 10
-11872.2256597212
 20
13112.1700118147
 30
0.0
 11
-11872.6197450024
 21
13112.5640970959
 31
0.0
  0
LINE
  5
152
100
AcDbEntity
  8
_Y__________
  6
CONTINUOUS
 62
         7
100
AcDbLine
 10
-11877.8581269539
 20
13128.1640970959
 30
0.0
 11
-11877.3581269539
 21
13128.6640970959
 31
0.0
  0
LINE
  5
153
100
AcDbEntity
  8
_Y__________
  6
CONTINUOUS
 62
         7
100
AcDbLine
 10
-11872.2256597212
 20
13129.0581823771
 30
0.0
 11
-11872.6197450024
 21
13128.6640970959
 31
0.0
  0
LINE
  5
154
100
AcDbEntity
  8
_Y__________
  6
CONTINUOUS
 62
         7
100
AcDbLine
 10
-11872.6197450024
 20
13128.6640970959
 30
0.0
 11
-11877.3581269539
 21
13128.6640970959
 31
0.0
  0
CIRCLE
  5
155
100
AcDbEntity
  8
_Y__________
  6
CONTINUOUS
 62
         7
100
AcDbCircle
 10
-11902.858126954
 20
13120.6140970959
 30
0.0
 40
22.225
  0
CIRCLE
  5
156
100
AcDbEntity
  8
_Y__________
  6
CONTINUOUS
 62
         7
100
AcDbCircle
 10
-11902.858126954
 20
13120.6140970959
 30
0.0
 40
8.5
  0
CIRCLE
  5
157
100
AcDbEntity
  8
_Y__________
  6
CONTINUOUS
 62
         7
100
AcDbCircle
 10
-11902.858126954
 20
13120.6140970959
 30
0.0
 40
9.5
  0
ARC
  5
158
100
AcDbEntity
  8
_Y__________
  6
CONTINUOUS
 62
         5
100
AcDbCircle
 10
-11902.858126954
 20
13120.6140970959
 30
0.0
 40
8.0
100
AcDbArc
 50
352.9901372228
 51
621.2264515102
  0
CIRCLE
  5
159
100
AcDbEntity
  8
_Y__________
  6
CONTINUOUS
 62
         7
100
AcDbCircle
 10
-11902.858126954
 20
13120.6140970959
 30
0.0
 40
7.0
  0
CIRCLE
  5
15A
100
AcDbEntity
  8
_Y__________
  6
CONTINUOUS
 62
         7
100
AcDbCircle
 10
-11902.858126954
 20
13120.6140970959
 30
0.0
 40
12.7165768873
  0
LINE
  5
15B
100
AcDbEntity
  8
_Y__________
  6
CENTER
 62
         1
100
AcDbLine
 10
-11902.858126954
 20
13085.0027448631
 30
0.0
 11
-11902.858126954
 21
13155.8468051944
 31
0.0
  0
ARC
  5
15C
100
AcDbEntity
  8
_Y__________
  6
CONTINUOUS
 62
         7
100
AcDbCircle
 10
-11902.858126954
 20
13120.6140970959
 30
0.0
 40
31.775
100
AcDbArc
 50
15.411296411
 51
164.588703589
  0
ARC
  5
15D
100
AcDbEntity
  8
_Y__________
  6
CONTINUOUS
 62
         7
100
AcDbCircle
 10
-11902.858126954
 20
13120.6140970959
 30
0.0
 40
31.775
100
AcDbArc
 50
195.411296411
 51
344.588703589
  0
LINE
  5
15E
100
AcDbEntity
  8
_Y__________
  6
CENTER
 62
         1
100
AcDbLine
 10
-11934.633126954
 20
13120.6140970959
 30
0.0
 11
-11871.083126954
 21
13120.6140970959
 31
0.0
  0
LINE
  5
15F
100
AcDbEntity
  8
_Y__________
  6
CENTER
 62
         1
100
AcDbLine
 10
-11485.9905145352
 20
13120.6140970959
 30
0.0
 11
-11432.0120575547
 21
13120.6140970959
 31
0.0
  0
LINE
  5
160
100
AcDbEntity
  8
_Y__________
  6
CONTINUOUS
 62
         7
100
AcDbLine
 10
-11489.7365089055
 20
13112.5640970959
 30
0.0
 11
-11484.998126954
 21
13112.5640970959
 31
0.0
  0
LINE
  5
161
100
AcDbEntity
  8
_Y__________
  6
CONTINUOUS
 62
         7
100
AcDbLine
 10
-11490.1305941867
 20
13112.1700118147
 30
0.0
 11
-11489.7365089055
 21
13112.5640970959
 31
0.0
  0
LINE
  5
162
100
AcDbEntity
  8
_Y__________
  6
CONTINUOUS
 62
         7
100
AcDbLine
 10
-11484.498126954
 20
13113.0640970959
 30
0.0
 11
-11484.998126954
 21
13112.5640970959
 31
0.0
  0
LINE
  5
163
100
AcDbEntity
  8
_Y__________
  6
CONTINUOUS
 62
         7
100
AcDbLine
 10
-11490.1305941867
 20
13129.0581823771
 30
0.0
 11
-11489.7365089055
 21
13128.6640970959
 31
0.0
  0
LINE
  5
164
100
AcDbEntity
  8
_Y__________
  6
CONTINUOUS
 62
         7
100
AcDbLine
 10
-11484.498126954
 20
13128.1640970959
 30
0.0
 11
-11484.998126954
 21
13128.6640970959
 31
0.0
  0
LINE
  5
165
100
AcDbEntity
  8
_Y__________
  6
CONTINUOUS
 62
         7
100
AcDbLine
 10
-11484.498126954
 20
13128.1640970959
 30
0.0
 11
-11484.498126954
 21
13113.0640970959
 31
0.0
  0
LINE
  5
166
100
AcDbEntity
  8
_Y__________
  6
CONTINUOUS
 62
         7
100
AcDbLine
 10
-11489.7365089055
 20
13128.6640970959
 30
0.0
 11
-11484.998126954
 21
13128.6640970959
 31
0.0
  0
LINE
  5
167
100
AcDbEntity
  8
_Y__________
  6
CONTINUOUS
 62
         7
100
AcDbLine
 10
-11428.8656597212
 20
13112.1700118147
 30
0.0
 11
-11429.2597450024
 21
13112.5640970959
 31
0.0
  0
LINE
  5
168
100
AcDbEntity
  8
_Y__________
  6
CONTINUOUS
 62
         7
100
AcDbLine
 10
-11436.698126954
 20
13113.0640970959
 30
0.0
 11
-11436.198126954
 21
13112.5640970959
 31
0.0
  0
LINE
  5
169
100
AcDbEntity
  8
_Y__________
  6
CONTINUOUS
 62
         7
100
AcDbLine
 10
-11436.198126954
 20
13112.5640970959
 30
0.0
 11
-11429.2597450024
 21
13112.5640970959
 31
0.0
  0
LINE
  5
16A
100
AcDbEntity
  8
_Y__________
  6
CONTINUOUS
 62
         7
100
AcDbLine
 10
-11428.8656597212
 20
13129.0581823771
 30
0.0
 11
-11429.2597450024
 21
13128.6640970959
 31
0.0
  0
LINE
  5
16B
100
AcDbEntity
  8
_Y__________
  6
CONTINUOUS
 62
         7
100
AcDbLine
 10
-11436.198126954
 20
13128.6640970959
 30
0.0
 11
-11429.2597450024
 21
13128.6640970959
 31
0.0
  0
LINE
  5
16C
100
AcDbEntity
  8
_Y__________
  6
CONTINUOUS
 62
         7
100
AcDbLine
 10
-11436.698126954
 20
13128.1640970959
 30
0.0
 11
-11436.198126954
 21
13128.6640970959
 31
0.0
  0
LINE
  5
16D
100
AcDbEntity
  8
_Y__________
  6
CONTINUOUS
 62
         7
100
AcDbLine
 10
-11436.698126954
 20
13128.1640970959
 30
0.0
 11
-11436.698126954
 21
13113.0640970959
 31
0.0
  0
ARC
  5
16E
100
AcDbEntity
  8
_Y__________
  6
DASHED
 62
         2
100
AcDbCircle
 10
-11459.498126954
 20
13120.6140970959
 30
0.0
 40
28.125
100
AcDbArc
 50
198.3406919436
 51
343.3680794645
  0
ARC
  5
16F
100
AcDbEntity
  8
_Y__________
  6
DASHED
 62
         2
100
AcDbCircle
 10
-11459.498126954
 20
13120.6140970959
 30
0.0
 40
28.125
100
AcDbArc
 50
16.6319205355
 51
163.3680794645
  0
LINE
  5
170
100
AcDbEntity
  8
_Y__________
  6
CENTER
 62
         1
100
AcDbLine
 10
-11459.498126954
 20
13155.3890970959
 30
0.0
 11
-11459.498126954
 21
13085.8390970959
 31
0.0
  0
ARC
  5
171
100
AcDbEntity
  8
_Y__________
  6
CONTINUOUS
 62
         7
100
AcDbCircle
 10
-11459.498126954
 20
13120.6140970959
 30
0.0
 40
31.775
100
AcDbArc
 50
15.411296411
 51
164.588703589
  0
ARC
  5
172
100
AcDbEntity
  8
_Y__________
  6
CONTINUOUS
 62
         7
100
AcDbCircle
 10
-11459.498126954
 20
13120.6140970959
 30
0.0
 40
31.775
100
AcDbArc
 50
195.411296411
 51
344.588703589
  0
LINE
  5
173
100
AcDbEntity
  8
_Y__________
  6
CONTINUOUS
 62
         7
100
AcDbLine
 10
-11750.2143973527
 20
13152.3890970959
 30
0.0
 11
-11750.2143973527
 21
13129.4640970959
 31
0.0
  0
LINE
  5
174
100
AcDbEntity
  8
_Y__________
  6
CONTINUOUS
 62
         7
100
AcDbLine
 10
-11748.553126954
 20
13149.5116923601
 30
0.0
 11
-11748.553126954
 21
13128.6640970959
 31
0.0
  0
LINE
  5
175
100
AcDbEntity
  8
_Y__________
  6
CONTINUOUS
 62
         7
100
AcDbLine
 10
-11744.803126954
 20
13149.5116923601
 30
0.0
 11
-11744.803126954
 21
13128.6640970959
 31
0.0
  0
LINE
  5
176
100
AcDbEntity
  8
_Y__________
  6
CONTINUOUS
 62
         7
100
AcDbLine
 10
-11743.1418565552
 20
13152.3890970959
 30
0.0
 11
-11743.1418565552
 21
13129.4640970959
 31
0.0
  0
LINE
  5
177
100
AcDbEntity
  8
_Y__________
  6
CONTINUOUS
 62
         7
100
AcDbLine
 10
-11739.478126954
 20
13128.6640970959
 30
0.0
 11
-11753.778126954
 21
13128.6640970959
 31
0.0
  0
LINE
  5
178
100
AcDbEntity
  8
_Y__________
  6
CONTINUOUS
 62
         7
100
AcDbLine
 10
-11739.478126954
 20
13112.5640970959
 30
0.0
 11
-11753.778126954
 21
13112.5640970959
 31
0.0
  0
LINE
  5
179
100
AcDbEntity
  8
_Y__________
  6
CONTINUOUS
 62
         7
100
AcDbLine
 10
-11750.2143973527
 20
13129.4640970959
 30
0.0
 11
-11748.553126954
 21
13128.6640970959
 31
0.0
  0
LINE
  5
17A
100
AcDbEntity
  8
_Y__________
  6
CONTINUOUS
 62
         7
100
AcDbLine
 10
-11750.2143973527
 20
13111.7640970959
 30
0.0
 11
-11748.553126954
 21
13112.5640970959
 31
0.0
  0
LINE
  5
17B
100
AcDbEntity
  8
_Y__________
  6
CONTINUOUS
 62
         7
100
AcDbLine
 10
-11753.778126954
 20
13128.6640970959
 30
0.0
 11
-11753.778126954
 21
13112.5640970959
 31
0.0
  0
LINE
  5
17C
100
AcDbEntity
  8
_Y__________
  6
CONTINUOUS
 62
         7
100
AcDbLine
 10
-11750.2143973527
 20
13111.7640970959
 30
0.0
 11
-11754.578126954
 21
13111.7640970959
 31
0.0
  0
LINE
  5
17D
100
AcDbEntity
  8
_Y__________
  6
CONTINUOUS
 62
         7
100
AcDbLine
 10
-11753.778126954
 20
13112.5640970959
 30
0.0
 11
-11754.578126954
 21
13111.7640970959
 31
0.0
  0
LINE
  5
17E
100
AcDbEntity
  8
_Y__________
  6
CONTINUOUS
 62
         7
100
AcDbLine
 10
-11754.578126954
 20
13129.4640970959
 30
0.0
 11
-11753.778126954
 21
13128.6640970959
 31
0.0
  0
LINE
  5
17F
100
AcDbEntity
  8
_Y__________
  6
CONTINUOUS
 62
         7
100
AcDbLine
 10
-11750.2143973527
 20
13129.4640970959
 30
0.0
 11
-11754.578126954
 21
13129.4640970959
 31
0.0
  0
LINE
  5
180
100
AcDbEntity
  8
_Y__________
  6
CONTINUOUS
 62
         7
100
AcDbLine
 10
-11739.478126954
 20
13128.6640970959
 30
0.0
 11
-11739.478126954
 21
13112.5640970959
 31
0.0
  0
LINE
  5
181
100
AcDbEntity
  8
_Y__________
  6
CONTINUOUS
 62
         7
100
AcDbLine
 10
-11738.678126954
 20
13111.7640970959
 30
0.0
 11
-11743.1418565552
 21
13111.7640970959
 31
0.0
  0
LINE
  5
182
100
AcDbEntity
  8
_Y__________
  6
CONTINUOUS
 62
         7
100
AcDbLine
 10
-11739.478126954
 20
13112.5640970959
 30
0.0
 11
-11738.678126954
 21
13111.7640970959
 31
0.0
  0
LINE
  5
183
100
AcDbEntity
  8
_Y__________
  6
CONTINUOUS
 62
         7
100
AcDbLine
 10
-11744.803126954
 20
13112.5640970959
 30
0.0
 11
-11743.1418565552
 21
13111.7640970959
 31
0.0
  0
LINE
  5
184
100
AcDbEntity
  8
_Y__________
  6
CONTINUOUS
 62
         7
100
AcDbLine
 10
-11738.678126954
 20
13129.4640970959
 30
0.0
 11
-11739.478126954
 21
13128.6640970959
 31
0.0
  0
LINE
  5
185
100
AcDbEntity
  8
_Y__________
  6
CONTINUOUS
 62
         7
100
AcDbLine
 10
-11744.803126954
 20
13128.6640970959
 30
0.0
 11
-11743.1418565552
 21
13129.4640970959
 31
0.0
  0
LINE
  5
186
100
AcDbEntity
  8
_Y__________
  6
CONTINUOUS
 62
         7
100
AcDbLine
 10
-11738.678126954
 20
13129.4640970959
 30
0.0
 11
-11743.1418565552
 21
13129.4640970959
 31
0.0
  0
LINE
  5
187
100
AcDbEntity
  8
_Y__________
  6
CONTINUOUS
 62
         7
100
AcDbLine
 10
-11750.2143973527
 20
13111.7640970959
 30
0.0
 11
-11750.2143973527
 21
13088.8390970959
 31
0.0
  0
LINE
  5
188
100
AcDbEntity
  8
_Y__________
  6
CONTINUOUS
 62
         7
100
AcDbLine
 10
-11748.553126954
 20
13112.5640970959
 30
0.0
 11
-11748.553126954
 21
13091.7165018317
 31
0.0
  0
LINE
  5
189
100
AcDbEntity
  8
_Y__________
  6
CONTINUOUS
 62
         7
100
AcDbLine
 10
-11744.803126954
 20
13112.5640970959
 30
0.0
 11
-11744.803126954
 21
13091.7165018317
 31
0.0
  0
LINE
  5
18A
100
AcDbEntity
  8
_Y__________
  6
CONTINUOUS
 62
         7
100
AcDbLine
 10
-11743.1418565552
 20
13111.7640970959
 30
0.0
 11
-11743.1418565552
 21
13088.8390970959
 31
0.0
  0
CIRCLE
  5
18B
100
AcDbEntity
  8
_Y__________
  6
CONTINUOUS
 62
         7
100
AcDbCircle
 10
-11459.498126954
 20
13120.6140970959
 30
0.0
 40
22.225
  0
LINE
  5
18C
100
AcDbEntity
  8
_Y__________
  6
CONTINUOUS
 62
         7
100
AcDbLine
 10
-11722.726126954
 20
12979.2711206258
 30
0.0
 11
-11722.726126954
 21
12978.2339978426
 31
0.0
  0
LINE
  5
18D
100
AcDbEntity
  8
_Y__________
  6
CONTINUOUS
 62
         7
100
AcDbLine
 10
-11722.726126954
 20
12936.7382434091
 30
0.0
 11
-11722.726126954
 21
12935.7011206258
 31
0.0
  0
LINE
  5
18E
100
AcDbEntity
  8
_Y__________
  6
CONTINUOUS
 62
         7
100
AcDbLine
 10
-11722.726126954
 20
13142.3990970959
 30
0.0
 11
-11722.726126954
 21
13098.8290970959
 31
0.0
  0
LINE
  5
18F
100
AcDbEntity
  8
_Y__________
  6
CONTINUOUS
 62
         7
100
AcDbLine
 10
-11723.226126954
 20
12935.2011206258
 30
0.0
 11
-11724.226126954
 21
12935.2011206258
 31
0.0
  0
LINE
  5
190
100
AcDbEntity
  8
_Y__________
  6
CONTINUOUS
 62
         7
100
AcDbLine
 10
-11723.226126954
 20
12979.7711206258
 30
0.0
 11
-11724.226126954
 21
12979.7711206258
 31
0.0
  0
LINE
  5
191
100
AcDbEntity
  8
_Y__________
  6
CONTINUOUS
 62
         7
100
AcDbLine
 10
-11723.226126954
 20
13142.8990970959
 30
0.0
 11
-11722.726126954
 21
13142.3990970959
 31
0.0
  0
LINE
  5
192
100
AcDbEntity
  8
_Y__________
  6
CONTINUOUS
 62
         7
100
AcDbLine
 10
-11722.726126954
 20
12935.7011206258
 30
0.0
 11
-11723.226126954
 21
12935.2011206258
 31
0.0
  0
LINE
  5
193
100
AcDbEntity
  8
_Y__________
  6
CONTINUOUS
 62
         7
100
AcDbLine
 10
-11723.226126954
 20
12979.7711206258
 30
0.0
 11
-11722.726126954
 21
12979.2711206258
 31
0.0
  0
LINE
  5
194
100
AcDbEntity
  8
_Y__________
  6
CONTINUOUS
 62
         7
100
AcDbLine
 10
-11723.226126954
 20
13098.3290970959
 30
0.0
 11
-11724.226126954
 21
13098.3290970959
 31
0.0
  0
LINE
  5
195
100
AcDbEntity
  8
_Y__________
  6
CONTINUOUS
 62
         7
100
AcDbLine
 10
-11722.726126954
 20
13098.8290970959
 30
0.0
 11
-11723.226126954
 21
13098.3290970959
 31
0.0
  0
LINE
  5
196
100
AcDbEntity
  8
_Y__________
  6
CONTINUOUS
 62
         7
100
AcDbLine
 10
-11723.226126954
 20
13142.8990970959
 30
0.0
 11
-11724.226126954
 21
13142.8990970959
 31
0.0
  0
LINE
  5
197
100
AcDbEntity
  8
_Y__________
  6
CENTER
 62
         1
100
AcDbLine
 10
-11492.8590760125
 20
13138.3524283595
 30
0.0
 11
-11459.5245564242
 21
13120.6281498945
 31
0.0
  0
LINE
  5
198
100
AcDbEntity
  8
_Y__________
  6
DASHED
 62
         2
100
AcDbLine
 10
-11484.498126954
 20
13115.4140970959
 30
0.0
 11
-11484.298126954
 21
13115.6140970959
 31
0.0
  0
LINE
  5
199
100
AcDbEntity
  8
_Y__________
  6
DASHED
 62
         2
100
AcDbLine
 10
-11484.498126954
 20
13125.8140970959
 30
0.0
 11
-11484.298126954
 21
13125.6140970959
 31
0.0
  0
LINE
  5
19A
100
AcDbEntity
  8
_Y__________
  6
DASHED
 62
         2
100
AcDbLine
 10
-11484.298126954
 20
13125.6140970959
 30
0.0
 11
-11484.298126954
 21
13115.6140970959
 31
0.0
  0
ARC
  5
19B
100
AcDbEntity
  8
_Y__________
  6
DASHED
 62
         2
100
AcDbCircle
 10
-11480.048126954
 20
13115.8140970959
 30
0.0
 40
0.2
100
AcDbArc
 50
270.0
 51
360.0
  0
ARC
  5
19C
100
AcDbEntity
  8
_Y__________
  6
DASHED
 62
         2
100
AcDbCircle
 10
-11480.048126954
 20
13125.4140970959
 30
0.0
 40
0.2
100
AcDbArc
 50
0.0
 51
90.0
  0
LINE
  5
19D
100
AcDbEntity
  8
_Y__________
  6
DASHED
 62
         2
100
AcDbLine
 10
-11479.848126954
 20
13125.4140970959
 30
0.0
 11
-11479.848126954
 21
13115.8140970959
 31
0.0
  0
LINE
  5
19E
100
AcDbEntity
  8
_Y__________
  6
DASHED
 62
         2
100
AcDbLine
 10
-11484.298126954
 20
13125.6140970959
 30
0.0
 11
-11480.048126954
 21
13125.6140970959
 31
0.0
  0
LINE
  5
19F
100
AcDbEntity
  8
_Y__________
  6
DASHED
 62
         2
100
AcDbLine
 10
-11484.298126954
 20
13115.6140970959
 30
0.0
 11
-11480.048126954
 21
13115.6140970959
 31
0.0
  0
LINE
  5
1A0
100
AcDbEntity
  8
_Y__________
  6
CENTER
 62
         1
100
AcDbLine
 10
-11492.8590760125
 20
13102.8757658323
 30
0.0
 11
-11459.5245564242
 21
13120.6000442973
 31
0.0
  0
LINE
  5
1A1
100
AcDbEntity
  8
_Y__________
  6
DASHED
 62
         2
100
AcDbLine
 10
-11485.2071041673
 20
13109.2095315346
 30
0.0
 11
-11478.3429828538
 21
13112.859249577
 31
0.0
  0
LINE
  5
1A2
100
AcDbEntity
  8
_Y__________
  6
DASHED
 62
         2
100
AcDbLine
 10
-11483.3292179162
 20
13105.6777411631
 30
0.0
 11
-11476.4650966026
 21
13109.3274592056
 31
0.0
  0
LINE
  5
1A3
100
AcDbEntity
  8
_Y__________
  6
DASHED
 62
         2
100
AcDbLine
 10
-11478.3429828538
 20
13112.859249577
 30
0.0
 11
-11476.4650966026
 21
13109.3274592056
 31
0.0
  0
LINE
  5
1A4
100
AcDbEntity
  8
_Y__________
  6
DASHED
 62
         2
100
AcDbLine
 10
-11476.3844996674
 20
13111.6354534576
 30
0.0
 11
-11476.4650966026
 21
13109.3274592056
 31
0.0
  0
LINE
  5
1A5
100
AcDbEntity
  8
_Y__________
  6
DASHED
 62
         2
100
AcDbLine
 10
-11478.3429828538
 20
13112.859249577
 30
0.0
 11
-11476.3844996674
 21
13111.6354534576
 31
0.0
  0
LINE
  5
1A6
100
AcDbEntity
  8
_Y__________
  6
DASHED
 62
         2
100
AcDbLine
 10
-11485.2071041673
 20
13132.0186626572
 30
0.0
 11
-11478.3429828538
 21
13128.3689446148
 31
0.0
  0
LINE
  5
1A7
100
AcDbEntity
  8
_Y__________
  6
DASHED
 62
         2
100
AcDbLine
 10
-11478.3429828538
 20
13128.3689446148
 30
0.0
 11
-11476.4650966026
 21
13131.9007349862
 31
0.0
  0
LINE
  5
1A8
100
AcDbEntity
  8
_Y__________
  6
DASHED
 62
         2
100
AcDbLine
 10
-11478.3429828538
 20
13128.3689446148
 30
0.0
 11
-11476.3844996674
 21
13129.5927407342
 31
0.0
  0
LINE
  5
1A9
100
AcDbEntity
  8
_Y__________
  6
DASHED
 62
         2
100
AcDbLine
 10
-11476.3844996674
 20
13129.5927407342
 30
0.0
 11
-11476.4650966026
 21
13131.9007349862
 31
0.0
  0
LINE
  5
1AA
100
AcDbEntity
  8
_Y__________
  6
DASHED
 62
         2
100
AcDbLine
 10
-11483.3292179162
 20
13135.5504530287
 30
0.0
 11
-11476.4650966026
 21
13131.9007349862
 31
0.0
  0
LINE
  5
1AB
100
AcDbEntity
  8
_Y__________
  6
CONTINUOUS
 62
         7
100
AcDbLine
 10
-11484.498126954
 20
13125.8140970959
 30
0.0
 11
-11484.498126954
 21
13115.4140970959
 31
0.0
  0
CIRCLE
  5
1AC
100
AcDbEntity
  8
_Y__________
  6
CONTINUOUS
 62
         7
100
AcDbCircle
 10
-11746.678126954
 20
13120.6140970959
 30
0.0
 40
5.0
  0
CIRCLE
  5
1AD
100
AcDbEntity
  8
_Y__________
  6
CONTINUOUS
 62
         7
100
AcDbCircle
 10
-11746.678126954
 20
13133.8179847993
 30
0.0
 40
1.875
  0
CIRCLE
  5
1AE
100
AcDbEntity
  8
_Y__________
  6
CONTINUOUS
 62
         7
100
AcDbCircle
 10
-11746.678126954
 20
13107.4102093925
 30
0.0
 40
1.875
  0
LINE
  5
1AF
100
AcDbEntity
  8
_X______
  6
CENTER
 62
         1
100
AcDbLine
 10
-11890.8045052218
 20
13144.9597374271
 30
0.0
 11
-11896.4426609465
 21
13147.0118582871
 31
0.0
  0
ARC
  5
1B0
100
AcDbEntity
  8
_X______
  6
CONTINUOUS
 62
         7
100
AcDbCircle
 10
-11892.7099892722
 20
13145.6532769034
 30
0.0
 40
2.9722262277
100
AcDbArc
 50
141.257725858
 51
160.0
  0
ARC
  5
1B1
100
AcDbEntity
  8
_X______
  6
CONTINUOUS
 62
         7
100
AcDbCircle
 10
-11893.1020666277
 20
13145.9678653358
 30
0.0
 40
2.4695428935
100
AcDbArc
 50
120.6773100903
 51
141.257725858
  0
POLYLINE
  5
1B3
100
AcDbEntity
  8
_X______
  6
CONTINUOUS
 62
         7
100
AcDb3dPolyline
 66
         1
 10
0.0
 20
0.0
 30
0.0
 70
         8
  0
VERTEX
  5
1B5
100
AcDbEntity
  8
_X______
  6
CONTINUOUS
 62
         7
100
AcDbVertex
100
AcDb3dPolylineVertex
 10
-11894.3620332516
 20
13148.0918065331
 30
0.0
 70
        32
  0
VERTEX
  5
1B7
100
AcDbEntity
  8
_X______
  6
CONTINUOUS
 62
         7
100
AcDbVertex
100
AcDb3dPolylineVertex
 10
-11894.3620332516
 20
13148.0918065331
 30
0.0
 70
        32
  0
SEQEND
  5
1B9
100
AcDbEntity
  8
_X______
  6
CONTINUOUS
 62
         7
  0
ARC
  5
1BA
100
AcDbEntity
  8
_X______
  6
CONTINUOUS
 62
         7
100
AcDbCircle
 10
-11893.3018051588
 20
13146.3045670284
 30
0.0
 40
2.0780540551
100
AcDbArc
 50
96.8239621528
 51
120.6773100903
  0
POLYLINE
  5
1BC
100
AcDbEntity
  8
_X______
  6
CONTINUOUS
 62
         7
100
AcDb3dPolyline
 66
         1
 10
0.0
 20
0.0
 30
0.0
 70
         8
  0
VERTEX
  5
1BE
100
AcDbEntity
  8
_X______
  6
CONTINUOUS
 62
         7
100
AcDbVertex
100
AcDb3dPolylineVertex
 10
-11893.5487179507
 20
13148.3678999461
 30
0.0
 70
        32
  0
VERTEX
  5
1C0
100
AcDbEntity
  8
_X______
  6
CONTINUOUS
 62
         7
100
AcDbVertex
100
AcDb3dPolylineVertex
 10
-11893.5487179507
 20
13148.3678999461
 30
0.0
 70
        32
  0
SEQEND
  5
1C2
100
AcDbEntity
  8
_X______
  6
CONTINUOUS
 62
         7
  0
ARC
  5
1C3
100
AcDbEntity
  8
_X______
  6
CONTINUOUS
 62
         7
100
AcDbCircle
 10
-11893.3527154875
 20
13146.7300004627
 30
0.0
 40
1.6495853065
100
AcDbArc
 50
70.0000000001
 51
96.8239621529
  0
POLYLINE
  5
1C5
100
AcDbEntity
  8
_X______
  6
CONTINUOUS
 62
         7
100
AcDb3dPolyline
 66
         1
 10
0.0
 20
0.0
 30
0.0
 70
         8
  0
VERTEX
  5
1C7
100
AcDbEntity
  8
_X______
  6
CONTINUOUS
 62
         7
100
AcDbVertex
100
AcDb3dPolylineVertex
 10
-11892.7885240845
 20
13148.2801036025
 30
0.0
 70
        32
  0
VERTEX
  5
1C9
100
AcDbEntity
  8
_X______
  6
CONTINUOUS
 62
         7
100
AcDbVertex
100
AcDb3dPolylineVertex
 10
-11892.7885240845
 20
13148.2801036025
 30
0.0
 70
        32
  0
SEQEND
  5
1CB
100
AcDbEntity
  8
_X______
  6
CONTINUOUS
 62
         7
  0
ARC
  5
1CC
100
AcDbEntity
  8
_X______
  6
CONTINUOUS
 62
         7
100
AcDbCircle
 10
-11893.3527154875
 20
13146.7300004627
 30
0.0
 40
1.6495853065
100
AcDbArc
 50
43.1760378472
 51
69.9999999999
  0
POLYLINE
  5
1CE
100
AcDbEntity
  8
_X______
  6
CONTINUOUS
 62
         7
100
AcDb3dPolyline
 66
         1
 10
0.0
 20
0.0
 30
0.0
 70
         8
  0
VERTEX
  5
1D0
100
AcDbEntity
  8
_X______
  6
CONTINUOUS
 62
         7
100
AcDbVertex
100
AcDb3dPolylineVertex
 10
-11892.1497473958
 20
13147.8587163055
 30
0.0
 70
        32
  0
VERTEX
  5
1D2
100
AcDbEntity
  8
_X______
  6
CONTINUOUS
 62
         7
100
AcDbVertex
100
AcDb3dPolylineVertex
 10
-11892.1497473958
 20
13147.8587163055
 30
0.0
 70
        32
  0
SEQEND
  5
1D4
100
AcDbEntity
  8
_X______
  6
CONTINUOUS
 62
         7
  0
ARC
  5
1D5
100
AcDbEntity
  8
_X______
  6
CONTINUOUS
 62
         7
100
AcDbCircle
 10
-11893.6651784022
 20
13146.4368240729
 30
0.0
 40
2.0780540551
100
AcDbArc
 50
19.3226899097
 51
43.1760378472
  0
POLYLINE
  5
1D7
100
AcDbEntity
  8
_X______
  6
CONTINUOUS
 62
         7
100
AcDb3dPolyline
 66
         1
 10
0.0
 20
0.0
 30
0.0
 70
         8
  0
VERTEX
  5
1D9
100
AcDbEntity
  8
_X______
  6
CONTINUOUS
 62
         7
100
AcDbVertex
100
AcDb3dPolylineVertex
 10
-11891.704181154
 20
13147.1244274825
 30
0.0
 70
        32
  0
VERTEX
  5
1DB
100
AcDbEntity
  8
_X______
  6
CONTINUOUS
 62
         7
100
AcDbVertex
100
AcDb3dPolylineVertex
 10
-11891.704181154
 20
13147.1244274825
 30
0.0
 70
        32
  0
SEQEND
  5
1DD
100
AcDbEntity
  8
_X______
  6
CONTINUOUS
 62
         7
  0
ARC
  5
1DE
100
AcDbEntity
  8
_X______
  6
CONTINUOUS
 62
         7
100
AcDbCircle
 10
-11894.0346146701
 20
13146.3072850653
 30
0.0
 40
2.4695428935
100
AcDbArc
 50
358.742274142
 51
379.3226899097
  0
POLYLINE
  5
1E0
100
AcDbEntity
  8
_X______
  6
CONTINUOUS
 62
         7
100
AcDb3dPolyline
 66
         1
 10
0.0
 20
0.0
 30
0.0
 70
         8
  0
VERTEX
  5
1E2
100
AcDbEntity
  8
_X______
  6
CONTINUOUS
 62
         7
100
AcDbVertex
100
AcDb3dPolylineVertex
 10
-11891.5656667477
 20
13146.2530793535
 30
0.0
 70
        32
  0
VERTEX
  5
1E4
100
AcDbEntity
  8
_X______
  6
CONTINUOUS
 62
         7
100
AcDbVertex
100
AcDb3dPolylineVertex
 10
-11891.5656667477
 20
13146.2530793535
 30
0.0
 70
        32
  0
SEQEND
  5
1E6
100
AcDbEntity
  8
_X______
  6
CONTINUOUS
 62
         7
  0
ARC
  5
1E7
100
AcDbEntity
  8
_X______
  6
CONTINUOUS
 62
         7
100
AcDbCircle
 10
-11894.5371768961
 20
13146.3183188109
 30
0.0
 40
2.9722262277
100
AcDbArc
 50
339.9999999999
 51
358.742274142
  0
POLYLINE
  5
1E9
100
AcDbEntity
  8
_X______
  6
CONTINUOUS
 62
         7
100
AcDb3dPolyline
 66
         1
 10
0.0
 20
0.0
 30
0.0
 70
         8
  0
VERTEX
  5
1EB
100
AcDbEntity
  8
_X______
  6
CONTINUOUS
 62
         7
100
AcDbVertex
100
AcDb3dPolylineVertex
 10
-11891.7441978426
 20
13145.3017575705
 30
0.0
 70
        32
  0
VERTEX
  5
1ED
100
AcDbEntity
  8
_X______
  6
CONTINUOUS
 62
         7
100
AcDbVertex
100
AcDb3dPolylineVertex
 10
-11891.7441978426
 20
13145.3017575705
 30
0.0
 70
        32
  0
SEQEND
  5
1EF
100
AcDbEntity
  8
_X______
  6
CONTINUOUS
 62
         7
  0
ARC
  5
1F0
100
AcDbEntity
  8
_X______
  6
CONTINUOUS
 62
         7
100
AcDbCircle
 10
-11894.5371768961
 20
13146.3183188109
 30
0.0
 40
2.9722262277
100
AcDbArc
 50
321.257725858
 51
340.0
  0
POLYLINE
  5
1F2
100
AcDbEntity
  8
_X______
  6
CONTINUOUS
 62
         7
100
AcDb3dPolyline
 66
         1
 10
0.0
 20
0.0
 30
0.0
 70
         8
  0
VERTEX
  5
1F4
100
AcDbEntity
  8
_X______
  6
CONTINUOUS
 62
         7
100
AcDbVertex
100
AcDb3dPolylineVertex
 10
-11892.2189329444
 20
13144.4582452292
 30
0.0
 70
        32
  0
VERTEX
  5
1F6
100
AcDbEntity
  8
_X______
  6
CONTINUOUS
 62
         7
100
AcDbVertex
100
AcDb3dPolylineVertex
 10
-11892.2189329444
 20
13144.4582452292
 30
0.0
 70
        32
  0
SEQEND
  5
1F8
100
AcDbEntity
  8
_X______
  6
CONTINUOUS
 62
         7
  0
ARC
  5
1F9
100
AcDbEntity
  8
_X______
  6
CONTINUOUS
 62
         7
100
AcDbCircle
 10
-11894.1450995406
 20
13146.0037303784
 30
0.0
 40
2.4695428935
100
AcDbArc
 50
300.6773100903
 51
321.257725858
  0
POLYLINE
  5
1FB
100
AcDbEntity
  8
_X______
  6
CONTINUOUS
 62
         7
100
AcDb3dPolyline
 66
         1
 10
0.0
 20
0.0
 30
0.0
 70
         8
  0
VERTEX
  5
1FD
100
AcDbEntity
  8
_X______
  6
CONTINUOUS
 62
         7
100
AcDbVertex
100
AcDb3dPolylineVertex
 10
-11892.8851329167
 20
13143.8797891811
 30
0.0
 70
        32
  0
VERTEX
  5
1FF
100
AcDbEntity
  8
_X______
  6
CONTINUOUS
 62
         7
100
AcDbVertex
100
AcDb3dPolylineVertex
 10
-11892.8851329167
 20
13143.8797891811
 30
0.0
 70
        32
  0
SEQEND
  5
201
100
AcDbEntity
  8
_X______
  6
CONTINUOUS
 62
         7
  0
ARC
  5
202
100
AcDbEntity
  8
_X______
  6
CONTINUOUS
 62
         7
100
AcDbCircle
 10
-11893.9453610095
 20
13145.6670286858
 30
0.0
 40
2.0780540551
100
AcDbArc
 50
276.8239621528
 51
300.6773100904
  0
POLYLINE
  5
204
100
AcDbEntity
  8
_X______
  6
CONTINUOUS
 62
         7
100
AcDb3dPolyline
 66
         1
 10
0.0
 20
0.0
 30
0.0
 70
         8
  0
VERTEX
  5
206
100
AcDbEntity
  8
_X______
  6
CONTINUOUS
 62
         7
100
AcDbVertex
100
AcDb3dPolylineVertex
 10
-11893.6984482176
 20
13143.6036957682
 30
0.0
 70
        32
  0
VERTEX
  5
208
100
AcDbEntity
  8
_X______
  6
CONTINUOUS
 62
         7
100
AcDbVertex
100
AcDb3dPolylineVertex
 10
-11893.6984482176
 20
13143.6036957682
 30
0.0
 70
        32
  0
SEQEND
  5
20A
100
AcDbEntity
  8
_X______
  6
CONTINUOUS
 62
         7
  0
ARC
  5
20B
100
AcDbEntity
  8
_X______
  6
CONTINUOUS
 62
         7
100
AcDbCircle
 10
-11893.8944506808
 20
13145.2415952516
 30
0.0
 40
1.6495853065
100
AcDbArc
 50
250.0
 51
276.8239621528
  0
POLYLINE
  5
20D
100
AcDbEntity
  8
_X______
  6
CONTINUOUS
 62
         7
100
AcDb3dPolyline
 66
         1
 10
0.0
 20
0.0
 30
0.0
 70
         8
  0
VERTEX
  5
20F
100
AcDbEntity
  8
_X______
  6
CONTINUOUS
 62
         7
100
AcDbVertex
100
AcDb3dPolylineVertex
 10
-11894.4586420838
 20
13143.6914921117
 30
0.0
 70
        32
  0
VERTEX
  5
211
100
AcDbEntity
  8
_X______
  6
CONTINUOUS
 62
         7
100
AcDbVertex
100
AcDb3dPolylineVertex
 10
-11894.4586420838
 20
13143.6914921117
 30
0.0
 70
        32
  0
SEQEND
  5
213
100
AcDbEntity
  8
_X______
  6
CONTINUOUS
 62
         7
  0
ARC
  5
214
100
AcDbEntity
  8
_X______
  6
CONTINUOUS
 62
         7
100
AcDbCircle
 10
-11893.8944506808
 20
13145.2415952516
 30
0.0
 40
1.6495853065
100
AcDbArc
 50
223.1760378472
 51
249.9999999999
  0
POLYLINE
  5
216
100
AcDbEntity
  8
_X______
  6
CONTINUOUS
 62
         7
100
AcDb3dPolyline
 66
         1
 10
0.0
 20
0.0
 30
0.0
 70
         8
  0
VERTEX
  5
218
100
AcDbEntity
  8
_X______
  6
CONTINUOUS
 62
         7
100
AcDbVertex
100
AcDb3dPolylineVertex
 10
-11895.0974187725
 20
13144.1128794088
 30
0.0
 70
        32
  0
VERTEX
  5
21A
100
AcDbEntity
  8
_X______
  6
CONTINUOUS
 62
         7
100
AcDbVertex
100
AcDb3dPolylineVertex
 10
-11895.0974187725
 20
13144.1128794088
 30
0.0
 70
        32
  0
SEQEND
  5
21C
100
AcDbEntity
  8
_X______
  6
CONTINUOUS
 62
         7
  0
ARC
  5
21D
100
AcDbEntity
  8
_X______
  6
CONTINUOUS
 62
         7
100
AcDbCircle
 10
-11893.5819877662
 20
13145.5347716413
 30
0.0
 40
2.0780540551
100
AcDbArc
 50
199.3226899097
 51
223.1760378473
  0
POLYLINE
  5
21F
100
AcDbEntity
  8
_X______
  6
CONTINUOUS
 62
         7
100
AcDb3dPolyline
 66
         1
 10
0.0
 20
0.0
 30
0.0
 70
         8
  0
VERTEX
  5
221
100
AcDbEntity
  8
_X______
  6
CONTINUOUS
 62
         7
100
AcDbVertex
100
AcDb3dPolylineVertex
 10
-11895.5429850143
 20
13144.8471682317
 30
0.0
 70
        32
  0
VERTEX
  5
223
100
AcDbEntity
  8
_X______
  6
CONTINUOUS
 62
         7
100
AcDbVertex
100
AcDb3dPolylineVertex
 10
-11895.5429850143
 20
13144.8471682317
 30
0.0
 70
        32
  0
SEQEND
  5
225
100
AcDbEntity
  8
_X______
  6
CONTINUOUS
 62
         7
  0
ARC
  5
226
100
AcDbEntity
  8
_X______
  6
CONTINUOUS
 62
         7
100
AcDbCircle
 10
-11893.2125514982
 20
13145.6643106489
 30
0.0
 40
2.4695428935
100
AcDbArc
 50
178.742274142
 51
199.3226899097
  0
POLYLINE
  5
228
100
AcDbEntity
  8
_X______
  6
CONTINUOUS
 62
         7
100
AcDb3dPolyline
 66
         1
 10
0.0
 20
0.0
 30
0.0
 70
         8
  0
VERTEX
  5
22A
100
AcDbEntity
  8
_X______
  6
CONTINUOUS
 62
         7
100
AcDbVertex
100
AcDb3dPolylineVertex
 10
-11895.6814994206
 20
13145.7185163608
 30
0.0
 70
        32
  0
VERTEX
  5
22C
100
AcDbEntity
  8
_X______
  6
CONTINUOUS
 62
         7
100
AcDbVertex
100
AcDb3dPolylineVertex
 10
-11895.6814994206
 20
13145.7185163608
 30
0.0
 70
        32
  0
SEQEND
  5
22E
100
AcDbEntity
  8
_X______
  6
CONTINUOUS
 62
         7
  0
ARC
  5
22F
100
AcDbEntity
  8
_X______
  6
CONTINUOUS
 62
         7
100
AcDbCircle
 10
-11892.7099892722
 20
13145.6532769034
 30
0.0
 40
2.9722262277
100
AcDbArc
 50
160.0
 51
178.7422741421
  0
POLYLINE
  5
231
100
AcDbEntity
  8
_X______
  6
CONTINUOUS
 62
         7
100
AcDb3dPolyline
 66
         1
 10
0.0
 20
0.0
 30
0.0
 70
         8
  0
VERTEX
  5
233
100
AcDbEntity
  8
_X______
  6
CONTINUOUS
 62
         7
100
AcDbVertex
100
AcDb3dPolylineVertex
 10
-11895.5029683257
 20
13146.6698381438
 30
0.0
 70
        32
  0
VERTEX
  5
235
100
AcDbEntity
  8
_X______
  6
CONTINUOUS
 62
         7
100
AcDbVertex
100
AcDb3dPolylineVertex
 10
-11895.5029683257
 20
13146.6698381438
 30
0.0
 70
        32
  0
SEQEND
  5
237
100
AcDbEntity
  8
_X______
  6
CONTINUOUS
 62
         7
  0
ARC
  5
238
100
AcDbEntity
  8
_X______
  6
CONTINUOUS
 62
         7
100
AcDbCircle
 10
-11912.1342661417
 20
13095.6934225505
 30
0.0
 40
2.0780540551
100
AcDbArc
 50
19.3226899097
 51
43.1760378472
  0
ARC
  5
239
100
AcDbEntity
  8
_X______
  6
CONTINUOUS
 62
         7
100
AcDbCircle
 10
-11912.5037024097
 20
13095.5638835429
 30
0.0
 40
2.4695428935
100
AcDbArc
 50
358.742274142
 51
379.3226899097
  0
ARC
  5
23A
100
AcDbEntity
  8
_X______
  6
CONTINUOUS
 62
         7
100
AcDbCircle
 10
-11911.1790770118
 20
13094.9098753809
 30
0.0
 40
2.9722262277
100
AcDbArc
 50
160.0
 51
178.742274142
  0
ARC
  5
23B
100
AcDbEntity
  8
_X______
  6
CONTINUOUS
 62
         7
100
AcDbCircle
 10
-11911.6816392378
 20
13094.9209091265
 30
0.0
 40
2.4695428935
100
AcDbArc
 50
178.742274142
 51
199.3226899096
  0
ARC
  5
23C
100
AcDbEntity
  8
_X______
  6
CONTINUOUS
 62
         7
100
AcDbCircle
 10
-11912.0510755057
 20
13094.7913701189
 30
0.0
 40
2.0780540551
100
AcDbArc
 50
199.3226899097
 51
223.1760378473
  0
POLYLINE
  5
23E
100
AcDbEntity
  8
_X______
  6
CONTINUOUS
 62
         7
100
AcDb3dPolyline
 66
         1
 10
0.0
 20
0.0
 30
0.0
 70
         8
  0
VERTEX
  5
240
100
AcDbEntity
  8
_X______
  6
CONTINUOUS
 62
         7
100
AcDbVertex
100
AcDb3dPolylineVertex
 10
-11913.5665065121
 20
13093.3694778863
 30
0.0
 70
        32
  0
VERTEX
  5
242
100
AcDbEntity
  8
_X______
  6
CONTINUOUS
 62
         7
100
AcDbVertex
100
AcDb3dPolylineVertex
 10
-11913.5665065121
 20
13093.3694778863
 30
0.0
 70
        32
  0
SEQEND
  5
244
100
AcDbEntity
  8
_X______
  6
CONTINUOUS
 62
         7
  0
ARC
  5
245
100
AcDbEntity
  8
_X______
  6
CONTINUOUS
 62
         7
100
AcDbCircle
 10
-11912.3635384204
 20
13094.4981937291
 30
0.0
 40
1.6495853065
100
AcDbArc
 50
223.1760378472
 51
250.0
  0
POLYLINE
  5
247
100
AcDbEntity
  8
_X______
  6
CONTINUOUS
 62
         7
100
AcDb3dPolyline
 66
         1
 10
0.0
 20
0.0
 30
0.0
 70
         8
  0
VERTEX
  5
249
100
AcDbEntity
  8
_X______
  6
CONTINUOUS
 62
         7
100
AcDbVertex
100
AcDb3dPolylineVertex
 10
-11912.9277298234
 20
13092.9480905893
 30
0.0
 70
        32
  0
VERTEX
  5
24B
100
AcDbEntity
  8
_X______
  6
CONTINUOUS
 62
         7
100
AcDbVertex
100
AcDb3dPolylineVertex
 10
-11912.9277298234
 20
13092.9480905893
 30
0.0
 70
        32
  0
SEQEND
  5
24D
100
AcDbEntity
  8
_X______
  6
CONTINUOUS
 62
         7
  0
ARC
  5
24E
100
AcDbEntity
  8
_X______
  6
CONTINUOUS
 62
         7
100
AcDbCircle
 10
-11912.3635384204
 20
13094.4981937291
 30
0.0
 40
1.6495853065
100
AcDbArc
 50
250.0
 51
276.8239621528
  0
POLYLINE
  5
250
100
AcDbEntity
  8
_X______
  6
CONTINUOUS
 62
         7
100
AcDb3dPolyline
 66
         1
 10
0.0
 20
0.0
 30
0.0
 70
         8
  0
VERTEX
  5
252
100
AcDbEntity
  8
_X______
  6
CONTINUOUS
 62
         7
100
AcDbVertex
100
AcDb3dPolylineVertex
 10
-11912.1675359572
 20
13092.8602942457
 30
0.0
 70
        32
  0
VERTEX
  5
254
100
AcDbEntity
  8
_X______
  6
CONTINUOUS
 62
         7
100
AcDbVertex
100
AcDb3dPolylineVertex
 10
-11912.1675359572
 20
13092.8602942457
 30
0.0
 70
        32
  0
SEQEND
  5
256
100
AcDbEntity
  8
_X______
  6
CONTINUOUS
 62
         7
  0
ARC
  5
257
100
AcDbEntity
  8
_X______
  6
CONTINUOUS
 62
         7
100
AcDbCircle
 10
-11912.4144487491
 20
13094.9236271634
 30
0.0
 40
2.0780540551
100
AcDbArc
 50
276.8239621528
 51
300.6773100903
  0
POLYLINE
  5
259
100
AcDbEntity
  8
_X______
  6
CONTINUOUS
 62
         7
100
AcDb3dPolyline
 66
         1
 10
0.0
 20
0.0
 30
0.0
 70
         8
  0
VERTEX
  5
25B
100
AcDbEntity
  8
_X______
  6
CONTINUOUS
 62
         7
100
AcDbVertex
100
AcDb3dPolylineVertex
 10
-11911.3542206563
 20
13093.1363876587
 30
0.0
 70
        32
  0
VERTEX
  5
25D
100
AcDbEntity
  8
_X______
  6
CONTINUOUS
 62
         7
100
AcDbVertex
100
AcDb3dPolylineVertex
 10
-11911.3542206563
 20
13093.1363876587
 30
0.0
 70
        32
  0
SEQEND
  5
25F
100
AcDbEntity
  8
_X______
  6
CONTINUOUS
 62
         7
  0
ARC
  5
260
100
AcDbEntity
  8
_X______
  6
CONTINUOUS
 62
         7
100
AcDbCircle
 10
-11912.6141872802
 20
13095.260328856
 30
0.0
 40
2.4695428935
100
AcDbArc
 50
300.6773100904
 51
321.2577258581
  0
POLYLINE
  5
262
100
AcDbEntity
  8
_X______
  6
CONTINUOUS
 62
         7
100
AcDb3dPolyline
 66
         1
 10
0.0
 20
0.0
 30
0.0
 70
         8
  0
VERTEX
  5
264
100
AcDbEntity
  8
_X______
  6
CONTINUOUS
 62
         7
100
AcDbVertex
100
AcDb3dPolylineVertex
 10
-11910.6880206839
 20
13093.7148437068
 30
0.0
 70
        32
  0
VERTEX
  5
266
100
AcDbEntity
  8
_X______
  6
CONTINUOUS
 62
         7
100
AcDbVertex
100
AcDb3dPolylineVertex
 10
-11910.6880206839
 20
13093.7148437068
 30
0.0
 70
        32
  0
SEQEND
  5
268
100
AcDbEntity
  8
_X______
  6
CONTINUOUS
 62
         7
  0
ARC
  5
269
100
AcDbEntity
  8
_X______
  6
CONTINUOUS
 62
         7
100
AcDbCircle
 10
-11913.0062646357
 20
13095.5749172884
 30
0.0
 40
2.9722262277
100
AcDbArc
 50
321.257725858
 51
340.0
  0
POLYLINE
  5
26B
100
AcDbEntity
  8
_X______
  6
CONTINUOUS
 62
         7
100
AcDb3dPolyline
 66
         1
 10
0.0
 20
0.0
 30
0.0
 70
         8
  0
VERTEX
  5
26D
100
AcDbEntity
  8
_X______
  6
CONTINUOUS
 62
         7
100
AcDbVertex
100
AcDb3dPolylineVertex
 10
-11910.2132855822
 20
13094.558356048
 30
0.0
 70
        32
  0
VERTEX
  5
26F
100
AcDbEntity
  8
_X______
  6
CONTINUOUS
 62
         7
100
AcDbVertex
100
AcDb3dPolylineVertex
 10
-11910.2132855822
 20
13094.558356048
 30
0.0
 70
        32
  0
SEQEND
  5
271
100
AcDbEntity
  8
_X______
  6
CONTINUOUS
 62
         7
  0
ARC
  5
272
100
AcDbEntity
  8
_X______
  6
CONTINUOUS
 62
         7
100
AcDbCircle
 10
-11913.0062646357
 20
13095.5749172884
 30
0.0
 40
2.9722262277
100
AcDbArc
 50
339.9999999999
 51
358.7422741419
  0
POLYLINE
  5
274
100
AcDbEntity
  8
_X______
  6
CONTINUOUS
 62
         7
100
AcDb3dPolyline
 66
         1
 10
0.0
 20
0.0
 30
0.0
 70
         8
  0
VERTEX
  5
276
100
AcDbEntity
  8
_X______
  6
CONTINUOUS
 62
         7
100
AcDbVertex
100
AcDb3dPolylineVertex
 10
-11910.0347544873
 20
13095.509677831
 30
0.0
 70
        32
  0
VERTEX
  5
278
100
AcDbEntity
  8
_X______
  6
CONTINUOUS
 62
         7
100
AcDbVertex
100
AcDb3dPolylineVertex
 10
-11910.0347544873
 20
13095.509677831
 30
0.0
 70
        32
  0
SEQEND
  5
27A
100
AcDbEntity
  8
_X______
  6
CONTINUOUS
 62
         7
  0
POLYLINE
  5
27C
100
AcDbEntity
  8
_X______
  6
CONTINUOUS
 62
         7
100
AcDb3dPolyline
 66
         1
 10
0.0
 20
0.0
 30
0.0
 70
         8
  0
VERTEX
  5
27E
100
AcDbEntity
  8
_X______
  6
CONTINUOUS
 62
         7
100
AcDbVertex
100
AcDb3dPolylineVertex
 10
-11910.6188351354
 20
13097.115314783
 30
0.0
 70
        32
  0
VERTEX
  5
280
100
AcDbEntity
  8
_X______
  6
CONTINUOUS
 62
         7
100
AcDbVertex
100
AcDb3dPolylineVertex
 10
-11910.6188351354
 20
13097.115314783
 30
0.0
 70
        32
  0
SEQEND
  5
282
100
AcDbEntity
  8
_X______
  6
CONTINUOUS
 62
         7
  0
ARC
  5
283
100
AcDbEntity
  8
_X______
  6
CONTINUOUS
 62
         7
100
AcDbCircle
 10
-11911.8218032271
 20
13095.9865989402
 30
0.0
 40
1.6495853065
100
AcDbArc
 50
43.1760378472
 51
70.0
  0
POLYLINE
  5
285
100
AcDbEntity
  8
_X______
  6
CONTINUOUS
 62
         7
100
AcDb3dPolyline
 66
         1
 10
0.0
 20
0.0
 30
0.0
 70
         8
  0
VERTEX
  5
287
100
AcDbEntity
  8
_X______
  6
CONTINUOUS
 62
         7
100
AcDbVertex
100
AcDb3dPolylineVertex
 10
-11911.2576118241
 20
13097.5367020801
 30
0.0
 70
        32
  0
VERTEX
  5
289
100
AcDbEntity
  8
_X______
  6
CONTINUOUS
 62
         7
100
AcDbVertex
100
AcDb3dPolylineVertex
 10
-11911.2576118241
 20
13097.5367020801
 30
0.0
 70
        32
  0
SEQEND
  5
28B
100
AcDbEntity
  8
_X______
  6
CONTINUOUS
 62
         7
  0
ARC
  5
28C
100
AcDbEntity
  8
_X______
  6
CONTINUOUS
 62
         7
100
AcDbCircle
 10
-11911.8218032271
 20
13095.9865989402
 30
0.0
 40
1.6495853065
100
AcDbArc
 50
70.0
 51
96.8239621528
  0
ARC
  5
28D
100
AcDbEntity
  8
_X______
  6
CONTINUOUS
 62
         7
100
AcDbCircle
 10
-11911.7708928984
 20
13095.561165506
 30
0.0
 40
2.0780540551
100
AcDbArc
 50
96.8239621528
 51
120.6773100903
  0
POLYLINE
  5
28F
100
AcDbEntity
  8
_X______
  6
CONTINUOUS
 62
         7
100
AcDb3dPolyline
 66
         1
 10
0.0
 20
0.0
 30
0.0
 70
         8
  0
VERTEX
  5
291
100
AcDbEntity
  8
_X______
  6
CONTINUOUS
 62
         7
100
AcDbVertex
100
AcDb3dPolylineVertex
 10
-11912.8311209912
 20
13097.3484050107
 30
0.0
 70
        32
  0
VERTEX
  5
293
100
AcDbEntity
  8
_X______
  6
CONTINUOUS
 62
         7
100
AcDbVertex
100
AcDb3dPolylineVertex
 10
-11912.8311209912
 20
13097.3484050107
 30
0.0
 70
        32
  0
SEQEND
  5
295
100
AcDbEntity
  8
_X______
  6
CONTINUOUS
 62
         7
  0
ARC
  5
296
100
AcDbEntity
  8
_X______
  6
CONTINUOUS
 62
         7
100
AcDbCircle
 10
-11911.5711543673
 20
13095.2244638134
 30
0.0
 40
2.4695428935
100
AcDbArc
 50
120.6773100903
 51
141.257725858
  0
POLYLINE
  5
298
100
AcDbEntity
  8
_X______
  6
CONTINUOUS
 62
         7
100
AcDb3dPolyline
 66
         1
 10
0.0
 20
0.0
 30
0.0
 70
         8
  0
VERTEX
  5
29A
100
AcDbEntity
  8
_X______
  6
CONTINUOUS
 62
         7
100
AcDbVertex
100
AcDb3dPolylineVertex
 10
-11913.4973209635
 20
13096.7699489626
 30
0.0
 70
        32
  0
VERTEX
  5
29C
100
AcDbEntity
  8
_X______
  6
CONTINUOUS
 62
         7
100
AcDbVertex
100
AcDb3dPolylineVertex
 10
-11913.4973209635
 20
13096.7699489626
 30
0.0
 70
        32
  0
SEQEND
  5
29E
100
AcDbEntity
  8
_X______
  6
CONTINUOUS
 62
         7
  0
ARC
  5
29F
100
AcDbEntity
  8
_X______
  6
CONTINUOUS
 62
         7
100
AcDbCircle
 10
-11911.1790770118
 20
13094.9098753809
 30
0.0
 40
2.9722262277
100
AcDbArc
 50
141.257725858
 51
160.0
  0
POLYLINE
  5
2A1
100
AcDbEntity
  8
_X______
  6
CONTINUOUS
 62
         7
100
AcDb3dPolyline
 66
         1
 10
0.0
 20
0.0
 30
0.0
 70
         8
  0
VERTEX
  5
2A3
100
AcDbEntity
  8
_X______
  6
CONTINUOUS
 62
         7
100
AcDbVertex
100
AcDb3dPolylineVertex
 10
-11913.9720560653
 20
13095.9264366213
 30
0.0
 70
        32
  0
VERTEX
  5
2A5
100
AcDbEntity
  8
_X______
  6
CONTINUOUS
 62
         7
100
AcDbVertex
100
AcDb3dPolylineVertex
 10
-11913.9720560653
 20
13095.9264366213
 30
0.0
 70
        32
  0
SEQEND
  5
2A7
100
AcDbEntity
  8
_X______
  6
CONTINUOUS
 62
         7
  0
LINE
  5
2A8
100
AcDbEntity
  8
_X______
  6
CENTER
 62
         1
100
AcDbLine
 10
-11909.2735929614
 20
13094.2163359047
 30
0.0
 11
-11914.9117486861
 21
13096.2684567647
 31
0.0
  0
LINE
  5
2A9
100
AcDbEntity
  8
_X______
  6
CENTER
 62
         1
100
AcDbLine
 10
-11890.6783271593
 20
13154.0778220053
 30
0.0
 11
-11914.9084228276
 21
13087.5061812854
 31
0.0
  0
LINE
  5
2AA
100
AcDbEntity
  8
_X______
  6
CENTER
 62
         1
100
AcDbLine
 10
-11471.3918774381
 20
13153.2919079837
 30
0.0
 11
-11447.4572536947
 21
13087.5320697056
 31
0.0
  0
LINE
  5
2AB
100
AcDbEntity
  8
_X______
  6
DASHED
 62
         2
100
AcDbLine
 10
-11465.7772213839
 20
13143.7133760573
 30
0.0
 11
-11467.2137059859
 21
13147.6600850646
 31
0.0
  0
LINE
  5
2AC
100
AcDbEntity
  8
_X______
  6
DASHED
 62
         2
100
AcDbLine
 10
-11469.5359918671
 20
13142.345295484
 30
0.0
 11
-11470.9724764691
 21
13146.2920044913
 31
0.0
  0
LINE
  5
2AD
100
AcDbEntity
  8
_X______
  6
DASHED
 62
         2
100
AcDbLine
 10
-11466.1061138012
 20
13143.5936690071
 30
0.0
 11
-11460.9736427304
 21
13129.4923206341
 31
0.0
  0
LINE
  5
2AE
100
AcDbEntity
  8
_X______
  6
DASHED
 62
         2
100
AcDbLine
 10
-11469.2070994498
 20
13142.4650025341
 30
0.0
 11
-11464.074628379
 21
13128.3636541611
 31
0.0
  0
LINE
  5
2AF
100
AcDbEntity
  8
_X______
  6
DASHED
 62
         2
100
AcDbLine
 10
-11465.7772213839
 20
13143.7133760573
 30
0.0
 11
-11469.5359918671
 21
13142.345295484
 31
0.0
  0
LINE
  5
2B0
100
AcDbEntity
  8
_X______
  6
DASHED
 62
         2
100
AcDbLine
 10
-11453.219032524
 20
13097.5148181345
 30
0.0
 11
-11451.782547922
 21
13093.5681091272
 31
0.0
  0
LINE
  5
2B1
100
AcDbEntity
  8
_X______
  6
DASHED
 62
         2
100
AcDbLine
 10
-11449.4602620408
 20
13098.8828987078
 30
0.0
 11
-11453.219032524
 21
13097.5148181345
 31
0.0
  0
LINE
  5
2B2
100
AcDbEntity
  8
_X______
  6
DASHED
 62
         2
100
AcDbLine
 10
-11449.4602620408
 20
13098.8828987078
 30
0.0
 11
-11448.0237774388
 21
13094.9361897005
 31
0.0
  0
LINE
  5
2B3
100
AcDbEntity
  8
_X______
  6
DASHED
 62
         2
100
AcDbLine
 10
-11454.9216255289
 20
13112.8645400307
 30
0.0
 11
-11449.7891544581
 21
13098.7631916577
 31
0.0
  0
LINE
  5
2B4
100
AcDbEntity
  8
_X______
  6
DASHED
 62
         2
100
AcDbLine
 10
-11458.0226111775
 20
13111.7358735577
 30
0.0
 11
-11452.8901401067
 21
13097.6345251847
 31
0.0
  0
LINE
  5
2B5
100
AcDbEntity
  8
_X______
  6
CONTINUOUS
 62
         7
100
AcDbLine
 10
-11752.4845729613
 20
12985.03447641
 30
0.0
 11
-11723.1384796063
 21
12964.4861206258
 31
0.0
  0
LINE
  5
2B6
100
AcDbEntity
  8
_X______
  6
CONTINUOUS
 62
         7
100
AcDbLine
 10
-11754.3773752012
 20
12982.3312746638
 30
0.0
 11
-11728.8918540319
 21
12964.4861206258
 31
0.0
  0
LINE
  5
2B7
100
AcDbEntity
  8
_X______
  6
CENTER
 62
         1
100
AcDbLine
 10
-11755.2887576093
 20
12984.9837095676
 30
0.0
 11
-11726.0151668191
 21
12964.4861206258
 31
0.0
  0
LINE
  5
2B8
100
AcDbEntity
  8
_X______
  6
CONTINUOUS
 62
         7
100
AcDbLine
 10
-11754.5781269539
 20
12986.9887085328
 30
0.0
 11
-11752.2551423867
 21
12985.3621372277
 31
0.0
  0
LINE
  5
2B9
100
AcDbEntity
  8
_X______
  6
CONTINUOUS
 62
         4
100
AcDbLine
 10
-11752.2838212085
 20
12985.3211796255
 30
0.0
 11
-11748.1880609871
 21
12982.4532974437
 31
0.0
  0
LINE
  5
2BA
100
AcDbEntity
  8
_X______
  6
CONTINUOUS
 62
         7
100
AcDbLine
 10
-11750.4823667325
 20
12979.1766892666
 30
0.0
 11
-11748.1880609871
 21
12982.4532974437
 31
0.0
  0
LINE
  5
2BB
100
AcDbEntity
  8
_X______
  6
CONTINUOUS
 62
         4
100
AcDbLine
 10
-11754.5781269539
 20
12982.0445714483
 30
0.0
 11
-11750.4823667325
 21
12979.1766892666
 31
0.0
  0
LINE
  5
2BC
100
AcDbEntity
  8
_X______
  6
CONTINUOUS
 62
         7
100
AcDbLine
 10
-11754.578126954
 20
12982.0445714483
 30
0.0
 11
-11752.2551423867
 21
12985.3621372277
 31
0.0
  0
LINE
  5
2BD
100
AcDbEntity
  8
L1_80
  6
CENTER
 62
         1
100
AcDbLine
 10
-11459.498126954
 20
13106.1656501713
 30
0.0
 11
-11459.498126954
 21
13134.9928182857
 31
0.0
  0
LINE
  5
2BE
100
AcDbEntity
  8
L1_80
  6
CENTER
 62
         1
100
AcDbLine
 10
-11444.6206894066
 20
13120.6140970959
 30
0.0
 11
-11474.2804678261
 21
13120.6140970959
 31
0.0
  0
LINE
  5
2BF
100
AcDbEntity
  8
L1_80
  6
CENTER
 62
         1
100
AcDbLine
 10
-11524.3908108096
 20
12957.4861206258
 30
0.0
 11
-11738.678126954
 21
12957.4861206258
 31
0.0
  0
LINE
  5
2C0
100
AcDbEntity
  8
L1_80
  6
CONTINUOUS
 62
         7
100
AcDbLine
 10
-11529.178126954
 20
13112.2354174395
 30
0.0
 11
-11529.178126954
 21
13128.9927767523
 31
0.0
  0
LINE
  5
2C1
100
AcDbEntity
  8
L1_80
  6
CONTINUOUS
 62
         7
100
AcDbLine
 10
-11533.7065540787
 20
13107.9140970959
 30
0.0
 11
-11605.3257551108
 21
13107.9140970959
 31
0.0
  0
LINE
  5
2C2
100
AcDbEntity
  8
L1_80
  6
CONTINUOUS
 62
         7
100
AcDbLine
 10
-11533.7065540787
 20
13133.3140970959
 30
0.0
 11
-11605.3257551108
 21
13133.3140970959
 31
0.0
  0
LINE
  5
2C3
100
AcDbEntity
  8
L1_80
  6
CENTER
 62
         1
100
AcDbLine
 10
-11524.3908108096
 20
13120.6140970959
 30
0.0
 11
-11722.726126954
 21
13120.6140970959
 31
0.0
  0
LINE
  5
2C4
100
AcDbEntity
  8
L1_80
  6
DASHED
 62
         2
100
AcDbLine
 10
-11462.948126954
 20
13109.4464234499
 30
0.0
 11
-11463.7481974787
 21
13108.6463529252
 31
0.0
  0
LINE
  5
2C5
100
AcDbEntity
  8
L1_80
  6
DASHED
 62
         2
100
AcDbLine
 10
-11455.2480564293
 20
13108.6463529252
 30
0.0
 11
-11456.048126954
 21
13109.4464234499
 31
0.0
  0
LINE
  5
2C6
100
AcDbEntity
  8
L1_80
  6
DASHED
 62
         2
100
AcDbLine
 10
-11456.048126954
 20
13109.4464234499
 30
0.0
 11
-11462.948126954
 21
13109.4464234499
 31
0.0
  0
LINE
  5
2C7
100
AcDbEntity
  8
L1_80
  6
DASHED
 62
         2
100
AcDbLine
 10
-11455.548126954
 20
13108.9464234499
 30
0.0
 11
-11455.548126954
 21
13120.2262040694
 31
0.0
  0
LINE
  5
2C8
100
AcDbEntity
  8
L1_80
  6
DASHED
 62
         2
100
AcDbLine
 10
-11456.048126954
 20
13109.4464234499
 30
0.0
 11
-11456.048126954
 21
13118.6518379387
 31
0.0
  0
LINE
  5
2C9
100
AcDbEntity
  8
L1_80
  6
DASHED
 62
         2
100
AcDbLine
 10
-11463.448126954
 20
13108.9464234499
 30
0.0
 11
-11463.448126954
 21
13120.2262040694
 31
0.0
  0
LINE
  5
2CA
100
AcDbEntity
  8
L1_80
  6
DASHED
 62
         2
100
AcDbLine
 10
-11462.948126954
 20
13109.4464234499
 30
0.0
 11
-11462.948126954
 21
13118.6518379387
 31
0.0
  0
CIRCLE
  5
2CB
100
AcDbEntity
  8
L1_80
  6
CONTINUOUS
 62
         7
100
AcDbCircle
 10
-11459.498126954
 20
13120.6140970959
 30
0.0
 40
3.969
  0
CIRCLE
  5
2CC
100
AcDbEntity
  8
L1_80
  6
CONTINUOUS
 62
         7
100
AcDbCircle
 10
-11459.498126954
 20
13120.6140970959
 30
0.0
 40
9.0
  0
CIRCLE
  5
2CD
100
AcDbEntity
  8
L1_80
  6
CONTINUOUS
 62
         7
100
AcDbCircle
 10
-11459.498126954
 20
13120.6140970959
 30
0.0
 40
12.7
  0
ARC
  5
2CE
100
AcDbEntity
  8
L1_80
  6
CONTINUOUS
 62
         7
100
AcDbCircle
 10
-11547.178126954
 20
12977.1661206258
 30
0.0
 40
10.0
100
AcDbArc
 50
224.2667631515
 51
315.7332368485
  0
ARC
  5
2CF
100
AcDbEntity
  8
L1_80
  6
DASHED
 62
         2
100
AcDbCircle
 10
-11459.498126954
 20
13140.2940970959
 30
0.0
 40
10.0
100
AcDbArc
 50
235.9228173443
 51
304.0771826557
  0
LINE
  5
2D0
100
AcDbEntity
  8
L1_80
  6
CONTINUOUS
 62
         7
100
AcDbLine
 10
-11559.7733750815
 20
12952.4861206258
 30
0.0
 11
-11559.178126954
 21
12953.5171206258
 31
0.0
  0
LINE
  5
2D1
100
AcDbEntity
  8
L1_80
  6
CONTINUOUS
 62
         7
100
AcDbLine
 10
-11559.7733750815
 20
12962.4861206258
 30
0.0
 11
-11559.178126954
 21
12961.4551206258
 31
0.0
  0
ARC
  5
2D2
100
AcDbEntity
  8
L1_80
  6
CONTINUOUS
 62
         7
100
AcDbCircle
 10
-11530.678126954
 20
12952.0171206258
 30
0.0
 40
1.5
100
AcDbArc
 50
74.9779402929
 51
90.0
  0
ARC
  5
2D3
100
AcDbEntity
  8
L1_80
  6
CONTINUOUS
 62
         7
100
AcDbCircle
 10
-11530.678126954
 20
12952.0171206258
 30
0.0
 40
1.5
100
AcDbArc
 50
0.0
 51
45.0220597071
  0
LINE
  5
2D4
100
AcDbEntity
  8
L1_80
  6
CONTINUOUS
 62
         7
100
AcDbLine
 10
-11529.6178752303
 20
12953.0781890886
 30
0.0
 11
-11530.2893405719
 21
12953.4658597842
 31
0.0
  0
ARC
  5
2D5
100
AcDbEntity
  8
L1_80
  6
CONTINUOUS
 62
         7
100
AcDbCircle
 10
-11530.678126954
 20
12962.9551206258
 30
0.0
 40
1.5
100
AcDbArc
 50
314.9779402929
 51
360.0
  0
LINE
  5
2D6
100
AcDbEntity
  8
L1_80
  6
CONTINUOUS
 62
         7
100
AcDbLine
 10
-11529.6178752303
 20
12961.8940521631
 30
0.0
 11
-11530.2893405719
 21
12961.5063814674
 31
0.0
  0
ARC
  5
2D7
100
AcDbEntity
  8
L1_80
  6
CONTINUOUS
 62
         7
100
AcDbCircle
 10
-11530.678126954
 20
12962.9551206258
 30
0.0
 40
1.5
100
AcDbArc
 50
270.0
 51
285.0220597071
  0
DIMENSION
  5
2DB
100
AcDbEntity
  8
L1_80
  6
CONTINUOUS
 62
         4
100
AcDbDimension
  2
*D1
 10
-11529.178126954
 20
12921.2967845459
 30
0.0
 11
-11548.5962967391
 21
12923.3217845459
 31
0.0
  3
DIMSTYLE1
100
AcDbAlignedDimension
 13
-11529.178126954
 23
12949.441726017
 33
0.0
 14
-11559.178126954
 24
12953.5171206258
 34
0.0
100
AcDbRotatedDimension
  0
LINE
  5
2E8
100
AcDbEntity
  8
L1_80
  6
CONTINUOUS
 62
         7
100
AcDbLine
 10
-11530.678126954
 20
12953.5171206258
 30
0.0
 11
-11559.178126954
 21
12953.5171206258
 31
0.0
  0
LINE
  5
2E9
100
AcDbEntity
  8
L1_80
  6
CONTINUOUS
 62
         7
100
AcDbLine
 10
-11530.678126954
 20
12961.4551206258
 30
0.0
 11
-11559.178126954
 21
12961.4551206258
 31
0.0
  0
LINE
  5
2EA
100
AcDbEntity
  8
L1_80
  6
CONTINUOUS
 62
         7
100
AcDbLine
 10
-11559.178126954
 20
12953.5171206258
 30
0.0
 11
-11559.178126954
 21
12961.4551206258
 31
0.0
  0
DIMENSION
  5
2ED
100
AcDbEntity
  8
L1_80
  6
CONTINUOUS
 62
         4
100
AcDbDimension
  2
*D2
 10
-11757.778126954
 20
13188.2477367076
 30
0.0
 11
-11693.828644914
 21
13190.2727367076
 31
0.0
  3
DIMSTYLE1
100
AcDbAlignedDimension
 13
-11757.778126954
 23
13142.8390970959
 33
0.0
 14
-11529.178126954
 24
13120.6140970959
 34
0.0
100
AcDbRotatedDimension
  0
DIMENSION
  5
2FB
100
AcDbEntity
  8
L1_80
  6
CONTINUOUS
 62
         4
100
AcDbDimension
  2
*D3
 10
-11826.028126954
 20
13195.0298222482
 30
0.0
 11
-11724.989661035
 21
13197.0548222482
 31
0.0
  3
DIMSTYLE1
100
AcDbAlignedDimension
 13
-11826.028126954
 23
13131.8482788123
 33
0.0
 14
-11529.178126954
 24
13120.6140970959
 34
0.0
100
AcDbRotatedDimension
  0
LINE
  5
307
100
AcDbEntity
  8
L1_80
  6
CONTINUOUS
 62
         7
100
AcDbLine
 10
-11754.578126954
 20
13151.3890970959
 30
0.0
 11
-11754.578126954
 21
13089.8390970959
 31
0.0
  0
LINE
  5
308
100
AcDbEntity
  8
L1_80
  6
CENTER
 62
         1
100
AcDbLine
 10
-11757.778126954
 20
13142.8390970959
 30
0.0
 11
-11757.778126954
 21
13098.3890970959
 31
0.0
  0
LINE
  5
309
100
AcDbEntity
  8
L1_80
  6
CONTINUOUS
 62
         7
100
AcDbLine
 10
-11826.028126954
 20
13131.8482788123
 30
0.0
 11
-11826.028126954
 21
13109.3799153795
 31
0.0
  0
DIMENSION
  5
30C
100
AcDbEntity
  8
L1_80
  6
CONTINUOUS
 62
         4
100
AcDbDimension
  2
*D4
 10
-11519.2007746216
 20
13129.6140970959
 30
0.0
 11
-11521.2257746216
 21
13115.6806281589
 31
0.0
  3
DIMSTYLE1
100
AcDbAlignedDimension
 13
-11529.178126954
 23
13129.6140970959
 33
0.0
 14
-11529.178126954
 24
13111.6140970959
 34
0.0
 50
90.0
100
AcDbRotatedDimension
  0
LINE
  5
318
100
AcDbEntity
  8
L1_80
  6
CONTINUOUS
 62
         4
100
AcDbLine
 10
-11605.378126954
 20
13107.9140970959
 30
0.0
 11
-11605.378126954
 21
13133.3140970959
 31
0.0
  0
LINE
  5
319
100
AcDbEntity
  8
L1_80
  6
CONTINUOUS
 62
         7
100
AcDbLine
 10
-11671.028126954
 20
12964.4861206258
 30
0.0
 11
-11671.028126954
 21
12950.4861206258
 31
0.0
  0
LINE
  5
31A
100
AcDbEntity
  8
L1_80
  6
CONTINUOUS
 62
         7
100
AcDbLine
 10
-11559.7733750815
 20
12962.4861206258
 30
0.0
 11
-11669.8734264156
 21
12962.4861206258
 31
0.0
  0
LINE
  5
31B
100
AcDbEntity
  8
L1_80
  6
CONTINUOUS
 62
         7
100
AcDbLine
 10
-11559.7733750815
 20
12952.4861206258
 30
0.0
 11
-11669.8734264156
 21
12952.4861206258
 31
0.0
  0
LINE
  5
31C
100
AcDbEntity
  8
L1_80
  6
CONTINUOUS
 62
         7
100
AcDbLine
 10
-11671.028126954
 20
12964.4861206258
 30
0.0
 11
-11669.8734264156
 21
12962.4861206258
 31
0.0
  0
LINE
  5
31D
100
AcDbEntity
  8
L1_80
  6
CONTINUOUS
 62
         7
100
AcDbLine
 10
-11671.028126954
 20
12950.4861206258
 30
0.0
 11
-11669.8734264156
 21
12952.4861206258
 31
0.0
  0
LINE
  5
31E
100
AcDbEntity
  8
L1_80
  6
CONTINUOUS
 62
         7
100
AcDbLine
 10
-11669.8734264156
 20
12952.4861206258
 30
0.0
 11
-11669.8734264156
 21
12962.4861206258
 31
0.0
  0
LINE
  5
31F
100
AcDbEntity
  8
L1_80
  6
CONTINUOUS
 62
         7
100
AcDbLine
 10
-11559.7733750815
 20
12952.4861206258
 30
0.0
 11
-11559.7733750815
 21
12962.4861206258
 31
0.0
  0
CIRCLE
  5
320
100
AcDbEntity
  8
L1_80
  6
CONTINUOUS
 62
         7
100
AcDbCircle
 10
-11459.498126954
 20
13120.6140970959
 30
0.0
 40
19.4670731464
  0
DIMENSION
  5
323
100
AcDbEntity
  8
ERP____
  6
CONTINUOUS
 62
         4
100
AcDbDimension
  2
*D5
 10
-11507.9484864641
 20
13133.3140970959
 30
0.0
 11
-11511.0804864641
 21
13112.156546549
 31
0.0
  3
DIMSTYLE1
100
AcDbAlignedDimension
 13
-11537.5561918851
 23
13133.3140970959
 33
0.0
 14
-11537.5561918851
 24
13107.9140970959
 34
0.0
 50
90.0
100
AcDbRotatedDimension
  0
LINE
  5
32F
100
AcDbEntity
  8
L1_80
  6
CONTINUOUS
 62
         7
100
AcDbLine
 10
-11755.378126954
 20
12935.0861206258
 30
0.0
 11
-11756.578126954
 21
12935.0861206258
 31
0.0
  0
ARC
  5
330
100
AcDbEntity
  8
L1_80
  6
CONTINUOUS
 62
         7
100
AcDbCircle
 10
-11755.378126954
 20
12934.2861206258
 30
0.0
 40
0.8
100
AcDbArc
 50
0.0
 51
90.0000000001
  0
ARC
  5
331
100
AcDbEntity
  8
L1_80
  6
CONTINUOUS
 62
         7
100
AcDbCircle
 10
-11755.378126954
 20
12980.6861206258
 30
0.0
 40
0.8
100
AcDbArc
 50
269.9999999999
 51
360.0
  0
LINE
  5
332
100
AcDbEntity
  8
L1_80
  6
CONTINUOUS
 62
         7
100
AcDbLine
 10
-11755.378126954
 20
12979.8861206258
 30
0.0
 11
-11756.578126954
 21
12979.8861206258
 31
0.0
  0
LINE
  5
333
100
AcDbEntity
  8
L1_80
  6
CONTINUOUS
 62
         7
100
AcDbLine
 10
-11755.378126954
 20
13098.2140970959
 30
0.0
 11
-11756.578126954
 21
13098.2140970959
 31
0.0
  0
ARC
  5
334
100
AcDbEntity
  8
L1_80
  6
CONTINUOUS
 62
         7
100
AcDbCircle
 10
-11755.378126954
 20
13097.4140970959
 30
0.0
 40
0.8
100
AcDbArc
 50
0.0
 51
90.0000000001
  0
ARC
  5
335
100
AcDbEntity
  8
L1_80
  6
CONTINUOUS
 62
         7
100
AcDbCircle
 10
-11755.378126954
 20
13143.8140970959
 30
0.0
 40
0.8
100
AcDbArc
 50
269.9999999999
 51
360.0
  0
LINE
  5
336
100
AcDbEntity
  8
L1_80
  6
CONTINUOUS
 62
         7
100
AcDbLine
 10
-11755.378126954
 20
13143.0140970959
 30
0.0
 11
-11756.578126954
 21
13143.0140970959
 31
0.0
  0
LINE
  5
337
100
AcDbEntity
  8
L1_80
  6
CONTINUOUS
 62
         7
100
AcDbLine
 10
-11720.8307988664
 20
13139.3647152431
 30
0.0
 11
-11605.4304270232
 21
13133.3168380264
 31
0.0
  0
LINE
  5
338
100
AcDbEntity
  8
L1_80
  6
CONTINUOUS
 62
         7
100
AcDbLine
 10
-11529.6174667822
 20
13111.1747572677
 30
0.0
 11
-11532.2923405163
 21
13108.4998835335
 31
0.0
  0
LINE
  5
339
100
AcDbEntity
  8
L1_80
  6
CONTINUOUS
 62
         7
100
AcDbLine
 10
-11529.6174667822
 20
13130.0534369241
 30
0.0
 11
-11532.2923405163
 21
13132.7283106583
 31
0.0
  0
ARC
  5
33A
100
AcDbEntity
  8
L1_80
  6
CONTINUOUS
 62
         7
100
AcDbCircle
 10
-11533.7065540787
 20
13131.3140970959
 30
0.0
 40
2.0
100
AcDbArc
 50
45.0
 51
89.9999999999
  0
ARC
  5
33B
100
AcDbEntity
  8
L1_80
  6
CONTINUOUS
 62
         7
100
AcDbCircle
 10
-11533.7065540787
 20
13109.9140970959
 30
0.0
 40
2.0
100
AcDbArc
 50
270.0
 51
315.0
  0
ARC
  5
33C
100
AcDbEntity
  8
L1_80
  6
CONTINUOUS
 62
         7
100
AcDbCircle
 10
-11530.678126954
 20
13112.2354174395
 30
0.0
 40
1.5
100
AcDbArc
 50
315.0
 51
360.0
  0
ARC
  5
33D
100
AcDbEntity
  8
L1_80
  6
CONTINUOUS
 62
         7
100
AcDbCircle
 10
-11530.678126954
 20
13128.9927767523
 30
0.0
 40
1.5
100
AcDbArc
 50
0.0
 51
45.0
  0
LINE
  5
33E
100
AcDbEntity
  8
L1_80
  6
CONTINUOUS
 62
         4
100
AcDbLine
 10
-11532.878126954
 20
13132.6613826462
 30
0.0
 11
-11532.878126954
 21
13108.6692007549
 31
0.0
  0
LINE
  5
33F
100
AcDbEntity
  8
L1_80
  6
CENTER
 62
         1
100
AcDbLine
 10
-11699.3827542627
 20
13022.5363198651
 30
0.0
 11
-11699.3827542627
 21
13034.2390083851
 31
0.0
  0
DIMENSION
  5
342
100
AcDbEntity
  8
L1_80
  6
CONTINUOUS
 62
         4
100
AcDbDimension
  2
*D6
 10
-11702.5577606127
 20
13035.8892964458
 30
0.0
 11
-11711.1803868124
 21
13037.9142964458
 31
0.0
  3
DIMSTYLE1
100
AcDbAlignedDimension
 13
-11702.5577606127
 23
13029.4914213899
 33
0.0
 14
-11696.2077479127
 24
13029.4914213899
 34
0.0
100
AcDbRotatedDimension
  0
DIMENSION
  5
350
100
AcDbEntity
  8
L1_80
  6
CONTINUOUS
 62
         4
100
AcDbDimension
  2
*D7
 10
-11701.2302751241
 20
13016.0030203495
 30
0.0
 11
-11694.13105255
 21
13018.0280203495
 31
0.0
  3
DIMSTYLE1
100
AcDbAlignedDimension
 13
-11701.2302751241
 23
13024.9890083851
 33
0.0
 14
-11697.5352334013
 24
13024.9890083851
 34
0.0
100
AcDbRotatedDimension
  0
LINE
  5
35E
100
AcDbEntity
  8
L1_80
  6
CONTINUOUS
 62
         4
100
AcDbLine
 10
-11696.8173430359
 20
13024.9890083851
 30
0.0
 11
-11701.9481654895
 21
13024.9890083851
 31
0.0
  0
LINE
  5
35F
100
AcDbEntity
  8
L1_80
  6
CONTINUOUS
 62
         4
100
AcDbLine
 10
-11696.2077479127
 20
13025.4462092995
 30
0.0
 11
-11702.5577606127
 21
13025.4462092995
 31
0.0
  0
LINE
  5
360
100
AcDbEntity
  8
L1_80
  6
CONTINUOUS
 62
         4
100
AcDbLine
 10
-11696.8173430359
 20
13024.9890083851
 30
0.0
 11
-11696.2077479127
 21
13025.4462092995
 31
0.0
  0
LINE
  5
361
100
AcDbEntity
  8
L1_80
  6
CONTINUOUS
 62
         4
100
AcDbLine
 10
-11701.9481654895
 20
13024.9890083851
 30
0.0
 11
-11702.5577606127
 21
13025.4462092995
 31
0.0
  0
LINE
  5
362
100
AcDbEntity
  8
L1_80
  6
CONTINUOUS
 62
         4
100
AcDbLine
 10
-11702.5577606127
 20
13025.4462092995
 30
0.0
 11
-11702.5577606127
 21
13025.995485398
 31
0.0
  0
LINE
  5
363
100
AcDbEntity
  8
L1_80
  6
CONTINUOUS
 62
         4
100
AcDbLine
 10
-11701.9481654895
 20
13026.5447614966
 30
0.0
 11
-11702.5577606127
 21
13027.0940375951
 31
0.0
  0
LINE
  5
364
100
AcDbEntity
  8
L1_80
  6
CONTINUOUS
 62
         4
100
AcDbLine
 10
-11702.5577606127
 20
13027.0940375951
 30
0.0
 11
-11701.9481654895
 21
13027.6433136937
 31
0.0
  0
LINE
  5
365
100
AcDbEntity
  8
L1_80
  6
CONTINUOUS
 62
         4
100
AcDbLine
 10
-11696.2077479127
 20
13026.5447614966
 30
0.0
 11
-11696.8173430359
 21
13027.0940375951
 31
0.0
  0
LINE
  5
366
100
AcDbEntity
  8
L1_80
  6
CONTINUOUS
 62
         4
100
AcDbLine
 10
-11696.8173430359
 20
13027.0940375951
 30
0.0
 11
-11696.2077479127
 21
13027.6433136937
 31
0.0
  0
LINE
  5
367
100
AcDbEntity
  8
L1_80
  6
CONTINUOUS
 62
         4
100
AcDbLine
 10
-11696.2077479127
 20
13027.6433136937
 30
0.0
 11
-11702.5577606127
 21
13027.0940375951
 31
0.0
  0
LINE
  5
368
100
AcDbEntity
  8
L1_80
  6
CONTINUOUS
 62
         4
100
AcDbLine
 10
-11696.8173430359
 20
13027.0940375951
 30
0.0
 11
-11701.9481654895
 21
13026.5447614966
 31
0.0
  0
LINE
  5
369
100
AcDbEntity
  8
L1_80
  6
CONTINUOUS
 62
         4
100
AcDbLine
 10
-11701.9481654895
 20
13026.5447614966
 30
0.0
 11
-11702.5577606127
 21
13025.995485398
 31
0.0
  0
LINE
  5
36A
100
AcDbEntity
  8
L1_80
  6
CONTINUOUS
 62
         4
100
AcDbLine
 10
-11696.2077479127
 20
13026.5447614966
 30
0.0
 11
-11696.8173430359
 21
13025.995485398
 31
0.0
  0
LINE
  5
36B
100
AcDbEntity
  8
L1_80
  6
CONTINUOUS
 62
         4
100
AcDbLine
 10
-11696.8173430359
 20
13025.995485398
 30
0.0
 11
-11696.2077479127
 21
13025.4462092995
 31
0.0
  0
LINE
  5
36C
100
AcDbEntity
  8
L1_80
  6
CONTINUOUS
 62
         4
100
AcDbLine
 10
-11696.2077479127
 20
13026.5447614966
 30
0.0
 11
-11702.5577606127
 21
13025.995485398
 31
0.0
  0
LINE
  5
36D
100
AcDbEntity
  8
L1_80
  6
CONTINUOUS
 62
         4
100
AcDbLine
 10
-11696.8173430359
 20
13025.995485398
 30
0.0
 11
-11701.398889391
 21
13025.4462092995
 31
0.0
  0
LINE
  5
36E
100
AcDbEntity
  8
L1_80
  6
CONTINUOUS
 62
         4
100
AcDbLine
 10
-11696.2077479127
 20
13025.4462092995
 30
0.0
 11
-11701.398889391
 21
13025.4462092995
 31
0.0
  0
LINE
  5
36F
100
AcDbEntity
  8
L1_80
  6
CONTINUOUS
 62
         4
100
AcDbLine
 10
-11701.9481654895
 20
13027.6433136937
 30
0.0
 11
-11702.5577606127
 21
13028.1925897922
 31
0.0
  0
LINE
  5
370
100
AcDbEntity
  8
L1_80
  6
CONTINUOUS
 62
         4
100
AcDbLine
 10
-11702.5577606127
 20
13028.1925897922
 30
0.0
 11
-11701.9481654895
 21
13028.7418658908
 31
0.0
  0
LINE
  5
371
100
AcDbEntity
  8
L1_80
  6
CONTINUOUS
 62
         4
100
AcDbLine
 10
-11696.2077479127
 20
13027.6433136937
 30
0.0
 11
-11696.8173430359
 21
13028.1925897922
 31
0.0
  0
LINE
  5
372
100
AcDbEntity
  8
L1_80
  6
CONTINUOUS
 62
         4
100
AcDbLine
 10
-11696.8173430359
 20
13028.1925897922
 30
0.0
 11
-11696.2077479127
 21
13028.7418658908
 31
0.0
  0
LINE
  5
373
100
AcDbEntity
  8
L1_80
  6
CONTINUOUS
 62
         4
100
AcDbLine
 10
-11696.2077479127
 20
13028.7418658908
 30
0.0
 11
-11702.5577606127
 21
13028.1925897922
 31
0.0
  0
LINE
  5
374
100
AcDbEntity
  8
L1_80
  6
CONTINUOUS
 62
         4
100
AcDbLine
 10
-11696.8173430359
 20
13028.1925897922
 30
0.0
 11
-11701.9481654895
 21
13027.6433136937
 31
0.0
  0
LINE
  5
375
100
AcDbEntity
  8
L1_80
  6
CONTINUOUS
 62
         4
100
AcDbLine
 10
-11701.9481654895
 20
13026.5447614966
 30
0.0
 11
-11702.5577606127
 21
13025.995485398
 31
0.0
  0
LINE
  5
376
100
AcDbEntity
  8
L1_80
  6
CONTINUOUS
 62
         4
100
AcDbLine
 10
-11696.2077479127
 20
13026.5447614966
 30
0.0
 11
-11696.8173430359
 21
13025.995485398
 31
0.0
  0
LINE
  5
377
100
AcDbEntity
  8
L1_80
  6
CONTINUOUS
 62
         4
100
AcDbLine
 10
-11696.8173430359
 20
13025.995485398
 30
0.0
 11
-11696.2077479127
 21
13025.4462092995
 31
0.0
  0
LINE
  5
378
100
AcDbEntity
  8
L1_80
  6
CONTINUOUS
 62
         4
100
AcDbLine
 10
-11696.2077479127
 20
13026.5447614966
 30
0.0
 11
-11702.5577606127
 21
13025.995485398
 31
0.0
  0
LINE
  5
379
100
AcDbEntity
  8
L1_80
  6
CONTINUOUS
 62
         4
100
AcDbLine
 10
-11696.8173430359
 20
13025.995485398
 30
0.0
 11
-11701.398889391
 21
13025.4462092995
 31
0.0
  0
LINE
  5
37A
100
AcDbEntity
  8
L1_80
  6
CONTINUOUS
 62
         4
100
AcDbLine
 10
-11696.2077479127
 20
13025.4462092995
 30
0.0
 11
-11701.398889391
 21
13025.4462092995
 31
0.0
  0
LINE
  5
37B
100
AcDbEntity
  8
L1_80
  6
CONTINUOUS
 62
         4
100
AcDbLine
 10
-11701.9481654895
 20
13028.7418658908
 30
0.0
 11
-11702.5577606127
 21
13029.2911419893
 31
0.0
  0
LINE
  5
37C
100
AcDbEntity
  8
L1_80
  6
CONTINUOUS
 62
         4
100
AcDbLine
 10
-11702.5577606127
 20
13029.2911419893
 30
0.0
 11
-11701.9481654895
 21
13029.8404180879
 31
0.0
  0
LINE
  5
37D
100
AcDbEntity
  8
L1_80
  6
CONTINUOUS
 62
         4
100
AcDbLine
 10
-11696.2077479127
 20
13028.7418658908
 30
0.0
 11
-11696.8173430359
 21
13029.2911419893
 31
0.0
  0
LINE
  5
37E
100
AcDbEntity
  8
L1_80
  6
CONTINUOUS
 62
         4
100
AcDbLine
 10
-11696.8173430359
 20
13029.2911419893
 30
0.0
 11
-11696.2077479127
 21
13029.8404180879
 31
0.0
  0
LINE
  5
37F
100
AcDbEntity
  8
L1_80
  6
CONTINUOUS
 62
         4
100
AcDbLine
 10
-11696.2077479127
 20
13029.8404180879
 30
0.0
 11
-11702.5577606127
 21
13029.2911419893
 31
0.0
  0
LINE
  5
380
100
AcDbEntity
  8
L1_80
  6
CONTINUOUS
 62
         4
100
AcDbLine
 10
-11696.8173430359
 20
13029.2911419893
 30
0.0
 11
-11701.9481654895
 21
13028.7418658908
 31
0.0
  0
LINE
  5
381
100
AcDbEntity
  8
L1_80
  6
CONTINUOUS
 62
         4
100
AcDbLine
 10
-11701.0591576155
 20
13031.3390210851
 30
0.0
 11
-11697.7063509099
 21
13031.3390210851
 31
0.0
  0
LINE
  5
382
100
AcDbEntity
  8
L1_80
  6
CONTINUOUS
 62
         4
100
AcDbLine
 10
-11702.5577606127
 20
13029.8404180879
 30
0.0
 11
-11696.2077479127
 21
13029.8404180879
 31
0.0
  0
LINE
  5
383
100
AcDbEntity
  8
L1_80
  6
CONTINUOUS
 62
         4
100
AcDbLine
 10
-11701.0591576155
 20
13031.3390210851
 30
0.0
 11
-11702.5577606127
 21
13029.8404180879
 31
0.0
  0
LINE
  5
384
100
AcDbEntity
  8
L1_80
  6
CONTINUOUS
 62
         4
100
AcDbLine
 10
-11697.7063509099
 20
13031.3390210851
 30
0.0
 11
-11696.2077479127
 21
13029.8404180879
 31
0.0
  0
LINE
  5
385
100
AcDbEntity
  8
L1_80
  6
DASHED
 62
         2
100
AcDbLine
 10
-11701.2158450336
 20
13028.1640147351
 30
0.0
 11
-11697.5496634918
 21
13028.1640147351
 31
0.0
  0
LINE
  5
386
100
AcDbEntity
  8
L1_80
  6
DASHED
 62
         2
100
AcDbLine
 10
-11701.2158450336
 20
13024.9890083851
 30
0.0
 11
-11701.2158450336
 21
13028.1640147351
 31
0.0
  0
LINE
  5
387
100
AcDbEntity
  8
L1_80
  6
DASHED
 62
         2
100
AcDbLine
 10
-11697.5496634918
 20
13024.9890083851
 30
0.0
 11
-11697.5496634918
 21
13028.1640147351
 31
0.0
  0
LINE
  5
388
100
AcDbEntity
  8
L1_80
  6
DASHED
 62
         2
100
AcDbLine
 10
-11700.2992996481
 20
13024.9890083851
 30
0.0
 11
-11700.2992996481
 21
13028.1640147351
 31
0.0
  0
LINE
  5
389
100
AcDbEntity
  8
L1_80
  6
DASHED
 62
         2
100
AcDbLine
 10
-11698.4662088773
 20
13024.9890083851
 30
0.0
 11
-11698.4662088773
 21
13028.1640147351
 31
0.0
  0
DIMENSION
  5
38C
100
AcDbEntity
  8
L1_80
  6
CONTINUOUS
 62
         4
100
AcDbDimension
  2
*D8
 10
-11711.4327430732
 20
13024.9890083851
 30
0.0
 11
-11714.5647430732
 21
13026.2581574004
 31
0.0
  3
DIMSTYLE1
100
AcDbAlignedDimension
 13
-11701.9481654895
 23
13024.9890083851
 33
0.0
 14
-11701.0591576155
 24
13031.3390210851
 34
0.0
 50
90.0
100
AcDbRotatedDimension
  0
LINE
  5
399
100
AcDbEntity
  8
L1_80
  6
CENTER
 62
         1
100
AcDbLine
 10
-11540.354126954
 20
12943.0959086018
 30
0.0
 11
-11540.354126954
 21
12955.3090128751
 31
0.0
  0
LINE
  5
39A
100
AcDbEntity
  8
L1_80
  6
CONTINUOUS
 62
         7
100
AcDbLine
 10
-11533.7065540787
 20
12970.1861206258
 30
0.0
 11
-11605.2558017136
 21
12970.1861206258
 31
0.0
  0
LINE
  5
39B
100
AcDbEntity
  8
L1_80
  6
CONTINUOUS
 62
         7
100
AcDbLine
 10
-11533.7065540787
 20
12944.7861206258
 30
0.0
 11
-11605.2558017136
 21
12944.7861206258
 31
0.0
  0
LINE
  5
39C
100
AcDbEntity
  8
L1_80
  6
CONTINUOUS
 62
         7
100
AcDbLine
 10
-11529.178126954
 20
12949.1074409694
 30
0.0
 11
-11529.178126954
 21
12965.8648002823
 31
0.0
  0
LINE
  5
39D
100
AcDbEntity
  8
L1_80
  6
CONTINUOUS
 62
         7
100
AcDbLine
 10
-11529.6174667822
 20
12948.0467807976
 30
0.0
 11
-11532.2923405163
 21
12945.3719070635
 31
0.0
  0
LINE
  5
39E
100
AcDbEntity
  8
L1_80
  6
CONTINUOUS
 62
         7
100
AcDbLine
 10
-11529.6174667822
 20
12966.9254604541
 30
0.0
 11
-11532.2923405163
 21
12969.6003341882
 31
0.0
  0
ARC
  5
39F
100
AcDbEntity
  8
L1_80
  6
CONTINUOUS
 62
         7
100
AcDbCircle
 10
-11533.7065540787
 20
12968.1861206258
 30
0.0
 40
2.0
100
AcDbArc
 50
45.0
 51
89.9999999999
  0
ARC
  5
3A0
100
AcDbEntity
  8
L1_80
  6
CONTINUOUS
 62
         7
100
AcDbCircle
 10
-11533.7065540787
 20
12946.7861206258
 30
0.0
 40
2.0
100
AcDbArc
 50
270.0
 51
315.0
  0
ARC
  5
3A1
100
AcDbEntity
  8
L1_80
  6
CONTINUOUS
 62
         7
100
AcDbCircle
 10
-11530.678126954
 20
12949.1074409694
 30
0.0
 40
1.5
100
AcDbArc
 50
315.0
 51
360.0
  0
ARC
  5
3A2
100
AcDbEntity
  8
L1_80
  6
CONTINUOUS
 62
         7
100
AcDbCircle
 10
-11530.678126954
 20
12965.8648002823
 30
0.0
 40
1.5
100
AcDbArc
 50
0.0
 51
45.0
  0
LINE
  5
3A3
100
AcDbEntity
  8
L1_80
  6
CONTINUOUS
 62
         7
100
AcDbLine
 10
-11537.604126954
 20
12945.8151206258
 30
0.0
 11
-11543.104126954
 21
12945.8151206258
 31
0.0
  0
LINE
  5
3A4
100
AcDbEntity
  8
L1_80
  6
CONTINUOUS
 62
         7
100
AcDbLine
 10
-11537.604126954
 20
12953.5171206258
 30
0.0
 11
-11537.604126954
 21
12945.8151206258
 31
0.0
  0
LINE
  5
3A5
100
AcDbEntity
  8
L1_80
  6
CONTINUOUS
 62
         4
100
AcDbLine
 10
-11537.154126954
 20
12945.3651206258
 30
0.0
 11
-11537.154126954
 21
12953.5171206258
 31
0.0
  0
LINE
  5
3A6
100
AcDbEntity
  8
L1_80
  6
CONTINUOUS
 62
         7
100
AcDbLine
 10
-11543.104126954
 20
12945.8151206258
 30
0.0
 11
-11543.104126954
 21
12953.5171206258
 31
0.0
  0
LINE
  5
3A7
100
AcDbEntity
  8
L1_80
  6
CONTINUOUS
 62
         4
100
AcDbLine
 10
-11543.554126954
 20
12945.3651206258
 30
0.0
 11
-11543.554126954
 21
12953.5171206258
 31
0.0
  0
LINE
  5
3A8
100
AcDbEntity
  8
L1_80
  6
CONTINUOUS
 62
         7
100
AcDbLine
 10
-11536.575126954
 20
12944.7861206258
 30
0.0
 11
-11537.604126954
 21
12945.8151206258
 31
0.0
  0
LINE
  5
3A9
100
AcDbEntity
  8
L1_80
  6
CONTINUOUS
 62
         7
100
AcDbLine
 10
-11544.133126954
 20
12944.7861206258
 30
0.0
 11
-11543.104126954
 21
12945.8151206258
 31
0.0
  0
TEXT
  5
3AB
100
AcDbEntity
  8
L1_80
  6
CONTINUOUS
 62
         2
100
AcDbText
 10
-11474.9263491713
 20
13194.7999337747
 30
0.0
 40
4.5
  1
531011
 41
0.98
  7
BOX
100
AcDbText
  0
ENDSEC
  0
SECTION
  2
OBJECTS
  0
DICTIONARY
  5
19
100
AcDbDictionary
  3
ACAD_GROUP
350
1A
  3
ACAD_MLINESTYLE
350
1B
  0
DICTIONARY
  5
1A
102
{ACAD_REACTORS
330
19
102
}
100
AcDbDictionary
  0
DICTIONARY
  5
1B
102
{ACAD_REACTORS
330
19
102
}
100
AcDbDictionary
  3
STANDARD
350
1C
  0
MLINESTYLE
  5
1C
102
{ACAD_REACTORS
330
1B
102
}
100
AcDbMlineStyle
  2
STANDARD
 70
         0
  3

 62
         0
 51
90.0
 52
90.0
 71
         2
 49
0.5
 62
       256
  6
BYLAYER
 49
-0.5
 62
       256
  6
BYLAYER
  0
ENDSEC
  0
EOF
