  0
SECTION
  2
HEADER
  9
$ACADVER
  1
AC1014
  9
$ACADMAINTVER
 70
         0
  9
$DWGCODEPAGE
  3
BIG5
  9
$INSBASE
 10
0.0
 20
0.0
 30
0.0
  9
$EXTMIN
 10
1120.6441880385
 20
-58.3977753983
 30
0.0
  9
$EXTMAX
 10
1717.562492714
 20
242.5499190656
 30
0.0
  9
$LIMMIN
 10
0.0
 20
0.0
  9
$LIMMAX
 10
0.0
 20
0.0
  9
$ORTHOMODE
 70
         0
  9
$REGENMODE
 70
         1
  9
$FILLMODE
 70
         1
  9
$QTEXTMODE
 70
         0
  9
$MIRRTEXT
 70
         1
  9
$DRAGMODE
 70
         2
  9
$LTSCALE
 40
1.0
  9
$OSMODE
 70
         0
  9
$ATTMODE
 70
         1
  9
$TEXTSIZE
 40
4.0
  9
$TRACEWID
 40
0.05
  9
$TEXTSTYLE
  7
STANDARD
  9
$CLAYER
  8
0
  9
$CELTYPE
  6
CONTINUOUS
  9
$CECOLOR
 62
         4
  9
$CELTSCALE
 40
1.0
  9
$DELOBJ
 70
         1
  9
$DISPSILH
 70
         0
  9
$DIMSCALE
 40
1.0
  9
$DIMASZ
 40
0.18
  9
$DIMEXO
 40
0.0625
  9
$DIMDLI
 40
0.38
  9
$DIMRND
 40
0.0
  9
$DIMDLE
 40
0.0
  9
$DIMEXE
 40
0.25
  9
$DIMTP
 40
0.01
  9
$DIMTM
 40
-0.01
  9
$DIMTXT
 40
2.7
  9
$DIMCEN
 40
0.09
  9
$DIMTSZ
 40
0.0
  9
$DIMTOL
 70
         0
  9
$DIMLIM
 70
         0
  9
$DIMTIH
 70
         1
  9
$DIMTOH
 70
         1
  9
$DIMSE1
 70
         0
  9
$DIMSE2
 70
         0
  9
$DIMTAD
 70
         0
  9
$DIMZIN
 70
         0
  9
$DIMBLK
  1

  9
$DIMASO
 70
         1
  9
$DIMSHO
 70
         1
  9
$DIMPOST
  1

  9
$DIMAPOST
  1

  9
$DIMALT
 70
         0
  9
$DIMALTD
 70
         2
  9
$DIMALTF
 40
25.4
  9
$DIMLFAC
 40
1.0
  9
$DIMTOFL
 70
         0
  9
$DIMTVP
 40
0.0
  9
$DIMTIX
 70
         0
  9
$DIMSOXD
 70
         0
  9
$DIMSAH
 70
         0
  9
$DIMBLK1
  1

  9
$DIMBLK2
  1

  9
$DIMSTYLE
  2
STANDARD
  9
$DIMCLRD
 70
         0
  9
$DIMCLRE
 70
         0
  9
$DIMCLRT
 70
         4
  9
$DIMTFAC
 40
1.0
  9
$DIMGAP
 40
0.09
  9
$DIMJUST
 70
         0
  9
$DIMSD1
 70
         0
  9
$DIMSD2
 70
         0
  9
$DIMTOLJ
 70
         1
  9
$DIMTZIN
 70
         0
  9
$DIMALTZ
 70
         0
  9
$DIMALTTZ
 70
         0
  9
$DIMFIT
 70
         3
  9
$DIMUPT
 70
         0
  9
$DIMUNIT
 70
         2
  9
$DIMDEC
 70
         4
  9
$DIMTDEC
 70
         4
  9
$DIMALTU
 70
         2
  9
$DIMALTTD
 70
         2
  9
$DIMTXSTY
  7
STANDARD
  9
$DIMAUNIT
 70
         0
  9
$LUNITS
 70
         2
  9
$LUPREC
 70
        10
  9
$SKETCHINC
 40
0.1
  9
$FILLETRAD
 40
0.0
  9
$AUNITS
 70
         0
  9
$AUPREC
 70
         0
  9
$MENU
  1
acad
  9
$ELEVATION
 40
0.0
  9
$PELEVATION
 40
0.0
  9
$THICKNESS
 40
0.0
  9
$LIMCHECK
 70
         0
  9
$BLIPMODE
 70
         1
  9
$CHAMFERA
 40
0.0
  9
$CHAMFERB
 40
0.0
  9
$CHAMFERC
 40
0.0
  9
$CHAMFERD
 40
0.0
  9
$SKPOLY
 70
         0
  9
$TDCREATE
 40
0.000000000
  9
$TDUPDATE
 40
0.000000000
  9
$TDINDWG
 40
0.0000000000
  9
$TDUSRTIMER
 40
0.0000000000
  9
$USRTIMER
 70
         1
  9
$ANGBASE
 50
0.0
  9
$ANGDIR
 70
         0
  9
$PDMODE
 70
         2
  9
$PDSIZE
 40
0.0
  9
$PLINEWID
 40
0.0
  9
$COORDS
 70
         1
  9
$SPLFRAME
 70
         0
  9
$SPLINETYPE
 70
         6
  9
$SPLINESEGS
 70
         8
  9
$ATTDIA
 70
         0
  9
$ATTREQ
 70
         1
  9
$HANDLING
 70
         1
  9
$HANDSEED
  5
452
  9
$SURFTAB1
 70
         6
  9
$SURFTAB2
 70
         6
  9
$SURFTYPE
 70
         6
  9
$SURFU
 70
         6
  9
$SURFV
 70
         6
  9
$UCSNAME
  2

  9
$UCSORG
 10
0.0
 20
0.0
 30
0.0
  9
$UCSXDIR
 10
1.0
 20
0.0
 30
0.0
  9
$UCSYDIR
 10
0.0
 20
1.0
 30
0.0
  9
$PUCSNAME
  2

  9
$PUCSORG
 10
0.0
 20
0.0
 30
0.0
  9
$PUCSXDIR
 10
1.0
 20
0.0
 30
0.0
  9
$PUCSYDIR
 10
0.0
 20
1.0
 30
0.0
  9
$USERI1
 70
         0
  9
$USERI2
 70
         0
  9
$USERI3
 70
         0
  9
$USERI4
 70
         0
  9
$USERI5
 70
         0
  9
$USERR1
 40
0.0
  9
$USERR2
 40
0.0
  9
$USERR3
 40
0.0
  9
$USERR4
 40
0.0
  9
$USERR5
 40
0.0
  9
$WORLDVIEW
 70
         1
  9
$SHADEDGE
 70
         3
  9
$SHADEDIF
 70
        70
  9
$TILEMODE
 70
         1
  9
$MAXACTVP
 70
        16
  9
$PINSBASE
 10
0.0
 20
0.0
 30
0.0
  9
$PLIMCHECK
 70
         0
  9
$PEXTMIN
 10
1.0000000000E+20
 20
1.0000000000E+20
 30
1.0000000000E+20
  9
$PEXTMAX
 10
-1.0000000000E+20
 20
-1.0000000000E+20
 30
-1.0000000000E+20
  9
$PLIMMIN
 10
0.0
 20
0.0
  9
$PLIMMAX
 10
12.0
 20
9.0
  9
$UNITMODE
 70
         0
  9
$VISRETAIN
 70
         0
  9
$PLINEGEN
 70
         1
  9
$PSLTSCALE
 70
         0
  9
$TREEDEPTH
 70
      3020
  9
$PICKSTYLE
 70
         1
  9
$CMLSTYLE
  2
STANDARD
  9
$CMLJUST
 70
         0
  9
$CMLSCALE
 40
1.0
  9
$PROXYGRAPHICS
 70
         0
  9
$MEASUREMENT
 70
         0
  0
ENDSEC
  0
SECTION
  2
CLASSES
  0
CLASS
  1
LWPOLYLINE
  2
AcDbPolyline
  3
"AutoCAD"
 90
        0
280
         0
281
         1
  0
CLASS
  1
IMAGE
  2
AcDbRasterImage
  3
ISM
 90
      127
280
         0
281
         1
  0
CLASS
  1
OLE2FRAME
  2
AcDbOle2Frame
  3
""
 90
        0
280
         0
281
         1
  0
CLASS
  1
HATCH
  2
AcDbHatch
  3
"ACAD_SEDONA"
 90
        0
280
         0
281
         1
  0
CLASS
  1
DICTIONARYVAR
  2
AcDbDictionaryVar
  3
"AutoCAD"
 90
        0
280
         0
281
         0
  0
CLASS
  1
RASTERVARIABLES
  2
AcDbRasterVariables
  3
ISM
 90
        0
280
         0
281
         0
  0
CLASS
  1
IMAGEDEF
  2
AcDbRasterImageDef
  3
ISM
 90
        0
280
         0
281
         0
  0
CLASS
  1
IMAGEDEF_REACTOR
  2
AcDbRasterImageDefReactor
  3
ISM
 90
        1
280
         0
281
         0
  0
CLASS
  1
IDBUFFER
  2
AcDbIdBuffer
  3
"Acad"
 90
        0
280
         0
281
         0
  0
CLASS
  1
SPATIAL_FILTER
  2
AcDbSpatialFilter
  3
"Acad"
 90
        0
280
         0
281
         0
  0
CLASS
  1
XRECORD
  2
AcDbXrecord
  3
"<Built In>"
 90
        0
280
         0
281
         0
  0
CLASS
  1
SORTENTSTABLE
  2
AcDbSortentsTable
  3
"AutoCAD"
 90
        0
280
         0
281
         0
  0
CLASS
  1
LAYER_INDEX
  2
AcDbLayerIndex
  3
"Acad"
 90
        0
280
         0
281
         0
  0
CLASS
  1
SPATIAL_INDEX
  2
AcDbSpatialIndex
  3
"Acad"
 90
        0
280
         0
281
         0
  0
CLASS
  1
OBJECT_PTR
  2
CAseDLPNTableRecord
  3
"ASE-LPNTableRecord"
 90
        1
280
         0
281
         0
  0
CLASS
  1
LAYOUT
  2
AcDbLayout
  3
"AutoCAD 2000"
 90
        1
280
         0
281
         0
  0
CLASS
  1
PLOTSETTINGS
  2
AcDbPlotSettings
  3
"AutoCAD 2000"
 90
        1
280
         0
281
         0
  0
CLASS
  1
ACDBDICTIONARYWDFLT
  2
AcDbDictionaryWithDefault
  3
"AutoCAD 2000"
 90
        1
280
         0
281
         0
  0
CLASS
  1
ACDBPLACEHOLDER
  2
AcDbPlaceHolder
  3
"AutoCAD 2000"
 90
        1
280
         0
281
         0
  0
CLASS
  1
VBA_PROJECT
  2
AcDbVbaProject
  3
"acadvba"
 90
        1
280
         0
281
         0
  0
CLASS
  1
WIPEOUT
  2
AcDbWipeout
  3
WipeOut|AutoCAD Express Tool|expresstools@autodesk.com
 90
      127
280
         0
281
         1
  0
CLASS
  1
WIPEOUTVARIABLES
  2
AcDbWipeoutVariables
  3
WipeOut|AutoCAD Express Tool|expresstools@autodesk.com
 90
        0
280
         0
281
         0
  0
CLASS
  1
RTEXT
  2
RText
  3
RText|AutoCAD Express Tool|expresstools@autodesk.com
 90
        0
280
         0
281
         1
  0
CLASS
  1
ARCALIGNEDTEXT
  2
AcDbArcAlignedText
  3
ATEXT|AutoCAD Express Tool|expresstools@autodesk.com
 90
        0
280
         0
281
         1
  0
ENDSEC
  0
SECTION
  2
TABLES
  0
TABLE
  2
VPORT
  5
7
100
AcDbSymbolTable
 70
         1
  0
VPORT
  5
15
100
AcDbSymbolTableRecord
100
AcDbViewportTableRecord
  2
*ACTIVE
 70
         0
 10
0.0
 20
0.0
 11
1.0
 21
1.0
 12
1419.1033403763
 22
92.0760718337
 13
0.0
 23
0.0
 14
1.0
 24
1.0
 15
0.0
 25
0.0
 16
0.0
 26
0.0
 36
1.0
 17
0.0
 27
0.0
 37
0.0
 40
300.9476944639
 41
1.9834619625
 42
50.0
 43
0.0
 44
0.0
 50
0.0
 51
0.0
 71
         0
 72
       100
 73
         1
 74
         1
 75
         0
 76
         0
 77
         0
 78
         0
  0
ENDTAB
  0
TABLE
  2
LTYPE
  5
4
100
AcDbSymbolTable
 70
         6
  0
LTYPE
  5
11
100
AcDbSymbolTableRecord
100
AcDbLinetypeTableRecord
  2
BYBLOCK
 70
        64
  3

 72
        65
 73
         0
 40
0.0
  0
LTYPE
  5
12
100
AcDbSymbolTableRecord
100
AcDbLinetypeTableRecord
  2
BYLAYER
 70
        64
  3

 72
        65
 73
         0
 40
0.0
  0
LTYPE
  5
13
100
AcDbSymbolTableRecord
100
AcDbLinetypeTableRecord
  2
CONTINUOUS
 70
        64
  3
Solid line
 72
        65
 73
         0
 40
0.0
  0
LTYPE
  5
1D
100
AcDbSymbolTableRecord
100
AcDbLinetypeTableRecord
  2
DASHED
 70
        64
  3
_ _ _ _ _ _ _ _ _ _ _ _ _ _ _ _
 72
        65
 73
         2
 40
0.2
 49
0.1
 74
         0
 49
-0.1
 74
         0
  0
LTYPE
  5
1E
100
AcDbSymbolTableRecord
100
AcDbLinetypeTableRecord
  2
CENTER
 70
        64
  3
___ _ ___ _ ___ _ ___ _ ___ _ ___ _ ___ _ ___ _
 72
        65
 73
         4
 40
0.95
 49
0.625
 74
         0
 49
-0.125
 74
         0
 49
0.075
 74
         0
 49
-0.125
 74
         0
  0
LTYPE
  5
1F
100
AcDbSymbolTableRecord
100
AcDbLinetypeTableRecord
  2
PHANTOM
 70
        64
  3
______  __  __  ______  __  __  ______  __  __  
 72
        65
 73
         6
 40
1.025
 49
0.625
 74
         0
 49
-0.125
 74
         0
 49
0.075
 74
         0
 49
-0.125
 74
         0
 49
0.075
 74
         0
 49
-0.125
 74
         0
  0
ENDTAB
  0
TABLE
  2
LAYER
  5
2
100
AcDbSymbolTable
 70
         5
  0
LAYER
  5
14
100
AcDbSymbolTableRecord
100
AcDbLayerTableRecord
  2
0
 70
         0
 62
         7
  6
CONTINUOUS
  0
LAYER
  5
21
100
AcDbSymbolTableRecord
100
AcDbLayerTableRecord
  2
_____U
 70
         1
 62
         7
  6
CONTINUOUS
  0
LAYER
  5
22
100
AcDbSymbolTableRecord
100
AcDbLayerTableRecord
  2
_Y__________
 70
         0
 62
         7
  6
CONTINUOUS
  0
LAYER
  5
23
100
AcDbSymbolTableRecord
100
AcDbLayerTableRecord
  2
L1_35
 70
         0
 62
         7
  6
CONTINUOUS
  0
LAYER
  5
28
100
AcDbSymbolTableRecord
100
AcDbLayerTableRecord
  2
DEFPOINTS
 70
         0
 62
        -7
  6
CONTINUOUS
  0
ENDTAB
  0
TABLE
  2
STYLE
  5
3
100
AcDbSymbolTable
 70
        10
  0
STYLE
  5
17
100
AcDbSymbolTableRecord
100
AcDbTextStyleTableRecord
  2
STANDARD
 70
         0
 40
0.0
 41
1.0
 50
0.0
 71
         0
 42
0.0
  3
txt
  4

  0
STYLE
  5
31
100
AcDbSymbolTableRecord
100
AcDbTextStyleTableRecord
  2
BOX
 70
         0
 40
1.0
 41
1.0
 50
0.0
 71
         0
 42
0.2
  3
txt.shx
  4

  0
STYLE
  5
B5
100
AcDbSymbolTableRecord
100
AcDbTextStyleTableRecord
  2
BOX
 70
         0
 40
1.0
 41
1.0
 50
0.0
 71
         0
 42
0.2
  3
txt.shx
  4

  0
STYLE
  5
C6
100
AcDbSymbolTableRecord
100
AcDbTextStyleTableRecord
  2
BOX
 70
         0
 40
1.0
 41
1.0
 50
0.0
 71
         0
 42
0.2
  3
txt.shx
  4

  0
STYLE
  5
D4
100
AcDbSymbolTableRecord
100
AcDbTextStyleTableRecord
  2
BOX
 70
         0
 40
1.0
 41
1.0
 50
0.0
 71
         0
 42
0.2
  3
txt.shx
  4

  0
STYLE
  5
EB
100
AcDbSymbolTableRecord
100
AcDbTextStyleTableRecord
  2
BOX
 70
         0
 40
1.0
 41
1.0
 50
0.0
 71
         0
 42
0.2
  3
txt.shx
  4

  0
STYLE
  5
112
100
AcDbSymbolTableRecord
100
AcDbTextStyleTableRecord
  2
BOX
 70
         0
 40
1.0
 41
1.0
 50
0.0
 71
         0
 42
0.2
  3
txt.shx
  4

  0
STYLE
  5
123
100
AcDbSymbolTableRecord
100
AcDbTextStyleTableRecord
  2
BOX
 70
         0
 40
1.0
 41
1.0
 50
0.0
 71
         0
 42
0.2
  3
txt.shx
  4

  0
STYLE
  5
131
100
AcDbSymbolTableRecord
100
AcDbTextStyleTableRecord
  2
BOX
 70
         0
 40
1.0
 41
1.0
 50
0.0
 71
         0
 42
0.2
  3
txt.shx
  4

  0
STYLE
  5
450
100
AcDbSymbolTableRecord
100
AcDbTextStyleTableRecord
  2
BOX
 70
         0
 40
1.0
 41
1.0
 50
0.0
 71
         0
 42
0.2
  3
txt.shx
  4

  0
ENDTAB
  0
TABLE
  2
VIEW
  5
5
100
AcDbSymbolTable
 70
         0
  0
ENDTAB
  0
TABLE
  2
UCS
  5
6
100
AcDbSymbolTable
 70
         1
  0
UCS
  5
20
100
AcDbSymbolTableRecord
100
AcDbUCSTableRecord
  2
CK_VIEW_1
 70
         0
 10
0.0
 20
0.0
 30
1.0
 11
1.0
 21
0.0
 31
0.0
 12
0.0
 22
1.0
 32
0.0
  0
ENDTAB
  0
TABLE
  2
APPID
  5
8
100
AcDbSymbolTable
 70
         1
  0
APPID
  5
16
100
AcDbSymbolTableRecord
100
AcDbRegAppTableRecord
  2
ACAD
 70
         0
  0
ENDTAB
  0
TABLE
  2
DIMSTYLE
  5
9
100
AcDbSymbolTable
 70
         2
  0
DIMSTYLE
105
18
100
AcDbSymbolTableRecord
100
AcDbDimStyleTableRecord
  2
STANDARD
 70
         0
  3

  4

  5

  6

  7

 40
1.0
 41
0.18
 42
0.0625
 43
0.38
 44
0.18
 45
0.0
 46
0.0
 47
0.0
 48
0.0
 71
         0
 72
         0
 73
         1
 74
         1
 75
         0
 76
         0
 77
         0
 78
         0
140
0.18
141
0.09
142
0.0
143
25.4
144
1.0
145
0.0
146
1.0
147
0.09
170
         0
171
         2
172
         0
173
         0
174
         0
175
         0
176
         0
177
         0
178
         0
270
         2
271
         4
272
         4
273
         2
274
         2
275
         0
280
         0
281
         0
282
         0
283
         1
284
         0
285
         0
286
         0
287
         0
288
         0
340
17
  0
DIMSTYLE
105
24
100
AcDbSymbolTableRecord
100
AcDbDimStyleTableRecord
  2
DIMSTYLE1
 70
         0
  3

  4

  5

  6

  7

 40
1.0
 41
2.7
 42
0.0625
 43
0.38
 44
2.7
 45
0.0
 46
0.0
 47
0.0
 48
0.0
 71
         0
 72
         0
 73
         1
 74
         1
 75
         0
 76
         0
 77
         0
 78
         0
140
2.7
141
0.09
142
0.0
143
25.4
144
1.0
145
0.0
146
1.0
147
0.09
170
         0
171
         2
172
         0
173
         0
174
         0
175
         0
176
         0
177
         0
178
         0
270
         2
271
         4
272
         4
273
         2
274
         2
275
         0
280
         0
281
         0
282
         0
283
         1
284
         0
285
         0
286
         0
287
         0
288
         0
340
17
  0
ENDTAB
  0
TABLE
  2
BLOCK_RECORD
  5
1
100
AcDbSymbolTable
 70
         9
  0
BLOCK_RECORD
  5
A
100
AcDbSymbolTableRecord
100
AcDbBlockTableRecord
  2
*MODEL_SPACE
  0
BLOCK_RECORD
  5
B
100
AcDbSymbolTableRecord
100
AcDbBlockTableRecord
  2
*PAPER_SPACE
  0
BLOCK_RECORD
  5
25
100
AcDbSymbolTableRecord
100
AcDbBlockTableRecord
  2
*D0
  0
BLOCK_RECORD
  5
34
100
AcDbSymbolTableRecord
100
AcDbBlockTableRecord
  2
*X1
  0
BLOCK_RECORD
  5
AA
100
AcDbSymbolTableRecord
100
AcDbBlockTableRecord
  2
*D2
  0
BLOCK_RECORD
  5
BB
100
AcDbSymbolTableRecord
100
AcDbBlockTableRecord
  2
*D3
  0
BLOCK_RECORD
  5
C9
100
AcDbSymbolTableRecord
100
AcDbBlockTableRecord
  2
*D4
  0
BLOCK_RECORD
  5
E0
100
AcDbSymbolTableRecord
100
AcDbBlockTableRecord
  2
*D5
  0
BLOCK_RECORD
  5
107
100
AcDbSymbolTableRecord
100
AcDbBlockTableRecord
  2
*D6
  0
BLOCK_RECORD
  5
116
100
AcDbSymbolTableRecord
100
AcDbBlockTableRecord
  2
*D7
  0
BLOCK_RECORD
  5
126
100
AcDbSymbolTableRecord
100
AcDbBlockTableRecord
  2
*D8
  0
ENDTAB
  0
ENDSEC
  0
SECTION
  2
BLOCKS
  0
BLOCK
  5
D
100
AcDbEntity
  8
0
100
AcDbBlockBegin
  2
*MODEL_SPACE
 70
         0
 10
0.0
 20
0.0
 30
0.0
  3
*MODEL_SPACE
  1

  0
ENDBLK
  5
E
100
AcDbEntity
  8
0
100
AcDbBlockEnd
  0
BLOCK
  5
F
100
AcDbEntity
 67
         1
  8
0
100
AcDbBlockBegin
  2
*PAPER_SPACE
 70
         0
 10
0.0
 20
0.0
 30
0.0
  3
*PAPER_SPACE
  1

  0
ENDBLK
  5
10
100
AcDbEntity
 67
         1
  8
0
100
AcDbBlockEnd
  0
BLOCK
  5
26
100
AcDbEntity
  8
0
100
AcDbBlockBegin
  2
*D0
 70
        65
 10
0.0
 20
0.0
 30
0.0
  3
*D0
  1

  0
POINT
  5
29
100
AcDbEntity
  8
DEFPOINTS
  6
CONTINUOUS
 62
         0
100
AcDbPoint
 10
1446.6325150775
 20
159.5884980187
 30
0.0
  0
POINT
  5
2A
100
AcDbEntity
  8
DEFPOINTS
  6
CONTINUOUS
 62
         0
100
AcDbPoint
 10
1434.1372677689
 20
159.5884980187
 30
0.0
  0
POINT
  5
2B
100
AcDbEntity
  8
DEFPOINTS
  6
CONTINUOUS
 62
         0
100
AcDbPoint
 10
1434.1372677689
 20
140.78078544
 30
0.0
  0
LINE
  5
2C
100
AcDbEntity
  8
L1_35
  6
CONTINUOUS
 62
         4
100
AcDbLine
 10
1435.4872677689
 20
159.5884980187
 30
0.0
 11
1447.3075150775
 21
159.5884980187
 31
0.0
  0
LINE
  5
2D
100
AcDbEntity
  8
L1_35
  6
CONTINUOUS
 62
         4
100
AcDbLine
 10
1435.4872677689
 20
140.78078544
 30
0.0
 11
1447.3075150775
 21
140.78078544
 31
0.0
  0
LINE
  5
2E
100
AcDbEntity
  8
L1_35
  6
CONTINUOUS
 62
         4
100
AcDbLine
 10
1446.6325150775
 20
159.5884980187
 30
0.0
 11
1446.6325150775
 21
140.78078544
 31
0.0
  0
SOLID
  5
2F
100
AcDbEntity
  8
L1_35
  6
CONTINUOUS
 62
         4
100
AcDbTrace
 10
1446.6325150775
 20
159.5884980187
 30
0.0
 11
1447.0375150775
 21
156.8884980187
 31
0.0
 12
1446.2275150775
 22
156.8884980187
 32
0.0
 13
1446.6325150775
 23
159.5884980187
 33
0.0
  0
SOLID
  5
30
100
AcDbEntity
  8
L1_35
  6
CONTINUOUS
 62
         4
100
AcDbTrace
 10
1446.6325150775
 20
140.78078544
 30
0.0
 11
1446.2275150775
 21
143.48078544
 31
0.0
 12
1447.0375150775
 22
143.48078544
 32
0.0
 13
1446.6325150775
 23
140.78078544
 33
0.0
  0
TEXT
  5
32
100
AcDbEntity
  8
L1_35
  6
CONTINUOUS
 62
         4
100
AcDbText
 10
1444.6075150775
 20
144.7846417294
 30
0.0
 40
2.7
  1
崷18
 50
90.0
  7
BOX
100
AcDbText
  0
ENDBLK
  5
33
100
AcDbEntity
  8
0
  6
CONTINUOUS
100
AcDbBlockEnd
  0
BLOCK
  5
35
100
AcDbEntity
  8
0
100
AcDbBlockBegin
  2
*X1
 70
        65
 10
0.0
 20
0.0
 30
0.0
  3
*X1
  1

  0
LINE
  5
36
100
AcDbEntity
  8
L1_35
  6
CONTINUOUS
 62
         4
100
AcDbLine
 10
1418.4405737432
 20
-44.6597558241
 30
0.0
 11
1419.0447614596
 21
-44.0555681076
 31
0.0
  0
LINE
  5
37
100
AcDbEntity
  8
L1_35
  6
CONTINUOUS
 62
         4
100
AcDbLine
 10
1414.456504138
 20
-44.4011847421
 30
0.0
 11
1417.4911524447
 21
-41.3665364354
 31
0.0
  0
LINE
  5
38
100
AcDbEntity
  8
L1_35
  6
CONTINUOUS
 62
         4
100
AcDbLine
 10
1412.9287056096
 20
-41.6863425834
 30
0.0
 11
1414.6805733395
 21
-39.9344748535
 31
0.0
  0
LINE
  5
39
100
AcDbEntity
  8
L1_35
  6
CONTINUOUS
 62
         4
100
AcDbLine
 10
1417.6545576151
 20
-36.9604905778
 30
0.0
 11
1419.1033403763
 21
-35.5117078167
 31
0.0
  0
LINE
  5
3A
100
AcDbEntity
  8
L1_35
  6
CONTINUOUS
 62
         4
100
AcDbLine
 10
1430.6344807522
 20
-23.9805674408
 30
0.0
 11
1435.0033403763
 21
-19.6117078167
 31
0.0
  0
LINE
  5
3B
100
AcDbEntity
  8
L1_35
  6
CONTINUOUS
 62
         4
100
AcDbLine
 10
1405.654072765
 20
-44.7183347409
 30
0.0
 11
1412.1302178584
 21
-38.2421896475
 31
0.0
  0
LINE
  5
3C
100
AcDbEntity
  8
L1_35
  6
CONTINUOUS
 62
         4
100
AcDbLine
 10
1414.5837548858
 20
-35.78865262
 30
0.0
 11
1419.1033403763
 21
-31.2690671296
 31
0.0
  0
LINE
  5
3D
100
AcDbEntity
  8
L1_35
  6
CONTINUOUS
 62
         4
100
AcDbLine
 10
1424.7290727652
 20
-25.6433347407
 30
0.0
 11
1432.6665727652
 21
-17.7058347407
 31
0.0
  0
LINE
  5
3E
100
AcDbEntity
  8
L1_35
  6
CONTINUOUS
 62
         4
100
AcDbLine
 10
1403.2033403763
 20
-42.9264264425
 30
0.0
 11
1404.8061284917
 21
-41.323638327
 31
0.0
  0
LINE
  5
3F
100
AcDbEntity
  8
L1_35
  6
CONTINUOUS
 62
         4
100
AcDbLine
 10
1405.4374055421
 20
-40.6923612767
 30
0.0
 11
1406.4349547557
 21
-39.6948120631
 31
0.0
  0
LINE
  5
40
100
AcDbEntity
  8
L1_35
  6
CONTINUOUS
 62
         4
100
AcDbLine
 10
1412.9185992105
 20
-33.2111676083
 30
0.0
 11
1419.2582786054
 21
-26.8714882133
 31
0.0
  0
LINE
  5
41
100
AcDbEntity
  8
L1_35
  6
CONTINUOUS
 62
         4
100
AcDbLine
 10
1420.3314938489
 20
-25.7982729698
 30
0.0
 11
1428.4239320781
 21
-17.7058347407
 31
0.0
  0
LINE
  5
42
100
AcDbEntity
  8
L1_35
  6
CONTINUOUS
 62
         4
100
AcDbLine
 10
1405.7208455919
 20
-36.1662805398
 30
0.0
 11
1406.509059648
 21
-35.3780664836
 31
0.0
  0
LINE
  5
43
100
AcDbEntity
  8
L1_35
  6
CONTINUOUS
 62
         4
100
AcDbLine
 10
1408.9625966754
 20
-32.9245294562
 30
0.0
 11
1424.181291391
 21
-17.7058347407
 31
0.0
  0
LINE
  5
44
100
AcDbEntity
  8
L1_35
  6
CONTINUOUS
 62
         4
100
AcDbLine
 10
1433.7223686839
 20
-8.1647574477
 30
0.0
 11
1434.9872630833
 21
-6.8998630483
 31
0.0
  0
LINE
  5
45
100
AcDbEntity
  8
L1_35
  6
CONTINUOUS
 62
         4
100
AcDbLine
 10
1402.5011507038
 20
-35.1433347407
 30
0.0
 11
1403.6984805428
 21
-33.9460049017
 31
0.0
  0
LINE
  5
46
100
AcDbEntity
  8
L1_35
  6
CONTINUOUS
 62
         4
100
AcDbLine
 10
1406.1520175702
 20
-31.4924678743
 30
0.0
 11
1419.9386507038
 21
-17.7058347407
 31
0.0
  0
LINE
  5
47
100
AcDbEntity
  8
L1_35
  6
CONTINUOUS
 62
         4
100
AcDbLine
 10
1429.4636507038
 20
-8.1808347407
 30
0.0
 11
1434.1152664
 21
-3.5292190445
 31
0.0
  0
LINE
  5
48
100
AcDbEntity
  8
L1_35
  6
CONTINUOUS
 62
         4
100
AcDbLine
 10
1398.4587611534
 20
-34.943083604
 30
0.0
 11
1400.8879014376
 21
-32.5139433198
 31
0.0
  0
LINE
  5
49
100
AcDbEntity
  8
L1_35
  6
CONTINUOUS
 62
         4
100
AcDbLine
 10
1403.341438465
 20
-30.0604062924
 30
0.0
 11
1415.6960100167
 21
-17.7058347407
 31
0.0
  0
LINE
  5
4A
100
AcDbEntity
  8
L1_35
  6
CONTINUOUS
 62
         4
100
AcDbLine
 10
1425.2210100167
 20
-8.1808347407
 30
0.0
 11
1431.221848594
 21
-2.1799961634
 31
0.0
  0
LINE
  5
4B
100
AcDbEntity
  8
L1_35
  6
CONTINUOUS
 62
         4
100
AcDbLine
 10
1394.7560929174
 20
-34.4031111529
 30
0.0
 11
1398.0773223324
 21
-31.0818817379
 31
0.0
  0
LINE
  5
4C
100
AcDbEntity
  8
L1_35
  6
CONTINUOUS
 62
         4
100
AcDbLine
 10
1400.5308593598
 20
-28.6283447105
 30
0.0
 11
1411.4533693296
 21
-17.7058347407
 31
0.0
  0
LINE
  5
4D
100
AcDbEntity
  8
L1_35
  6
CONTINUOUS
 62
         4
100
AcDbLine
 10
1421.7533403763
 20
-7.405863694
 30
0.0
 11
1428.3284307881
 21
-0.8307732822
 31
0.0
  0
LINE
  5
4E
100
AcDbEntity
  8
L1_35
  6
CONTINUOUS
 62
         4
100
AcDbLine
 10
1391.0534246813
 20
-33.8631387018
 30
0.0
 11
1395.2667432272
 21
-29.649820156
 31
0.0
  0
LINE
  5
4F
100
AcDbEntity
  8
L1_35
  6
CONTINUOUS
 62
         4
100
AcDbLine
 10
1397.7202802546
 20
-27.1962831285
 30
0.0
 11
1407.2107286425
 21
-17.7058347407
 31
0.0
  0
LINE
  5
50
100
AcDbEntity
  8
L1_35
  6
CONTINUOUS
 62
         4
100
AcDbLine
 10
1421.7533403763
 20
-3.1632230069
 30
0.0
 11
1424.6732286425
 21
-0.2433347407
 31
0.0
  0
LINE
  5
51
100
AcDbEntity
  8
L1_35
  6
CONTINUOUS
 62
         4
100
AcDbLine
 10
1387.3507564453
 20
-33.3231662507
 30
0.0
 11
1392.456164122
 21
-28.2177585741
 31
0.0
  0
LINE
  5
52
100
AcDbEntity
  8
L1_35
  6
CONTINUOUS
 62
         4
100
AcDbLine
 10
1394.9097011494
 20
-25.7642215466
 30
0.0
 11
1402.9680879554
 21
-17.7058347407
 31
0.0
  0
LINE
  5
53
100
AcDbEntity
  8
L1_35
  6
CONTINUOUS
 62
         4
100
AcDbLine
 10
1412.4930879554
 20
-8.1808347407
 30
0.0
 11
1413.2533403763
 21
-7.4205823198
 31
0.0
  0
LINE
  5
54
100
AcDbEntity
  8
L1_35
  6
CONTINUOUS
 62
         4
100
AcDbLine
 10
1383.6480882093
 20
-32.7831937997
 30
0.0
 11
1389.6455850168
 21
-26.7856969921
 31
0.0
  0
LINE
  5
55
100
AcDbEntity
  8
L1_35
  6
CONTINUOUS
 62
         4
100
AcDbLine
 10
1392.0991220442
 20
-24.3321599647
 30
0.0
 11
1398.7254472682
 21
-17.7058347407
 31
0.0
  0
LINE
  5
56
100
AcDbEntity
  8
L1_35
  6
CONTINUOUS
 62
         4
100
AcDbLine
 10
1408.2504472682
 20
-8.1808347407
 30
0.0
 11
1413.2533403763
 21
-3.1779416327
 31
0.0
  0
LINE
  5
57
100
AcDbEntity
  8
L1_35
  6
CONTINUOUS
 62
         4
100
AcDbLine
 10
1379.9454199732
 20
-32.2432213486
 30
0.0
 11
1386.8350059116
 21
-25.3536354102
 31
0.0
  0
LINE
  5
58
100
AcDbEntity
  8
L1_35
  6
CONTINUOUS
 62
         4
100
AcDbLine
 10
1389.288542939
 20
-22.9000983828
 30
0.0
 11
1392.2453065811
 21
-19.9433347407
 31
0.0
  0
LINE
  5
59
100
AcDbEntity
  8
L1_35
  6
CONTINUOUS
 62
         4
100
AcDbLine
 10
1404.0078065811
 20
-8.1808347407
 30
0.0
 11
1411.9453065811
 21
-0.2433347407
 31
0.0
  0
LINE
  5
5A
100
AcDbEntity
  8
L1_35
  6
CONTINUOUS
 62
         4
100
AcDbLine
 10
1376.2427517372
 20
-31.7032488975
 30
0.0
 11
1384.0244268064
 21
-23.9215738283
 31
0.0
  0
LINE
  5
5B
100
AcDbEntity
  8
L1_35
  6
CONTINUOUS
 62
         4
100
AcDbLine
 10
1386.4779638338
 20
-21.4680368009
 30
0.0
 11
1388.002665894
 21
-19.9433347407
 31
0.0
  0
LINE
  5
5C
100
AcDbEntity
  8
L1_35
  6
CONTINUOUS
 62
         4
100
AcDbLine
 10
1399.765165894
 20
-8.1808347407
 30
0.0
 11
1411.2533403763
 21
3.3073397416
 31
0.0
  0
LINE
  5
5D
100
AcDbEntity
  8
L1_35
  6
CONTINUOUS
 62
         4
100
AcDbLine
 10
1372.5400835012
 20
-31.1632764464
 30
0.0
 11
1381.2138477012
 21
-22.4895122464
 31
0.0
  0
LINE
  5
5E
100
AcDbEntity
  8
L1_35
  6
CONTINUOUS
 62
         4
100
AcDbLine
 10
1383.6673847286
 20
-20.0359752189
 30
0.0
 11
1383.7600252069
 21
-19.9433347407
 31
0.0
  0
LINE
  5
5F
100
AcDbEntity
  8
L1_35
  6
CONTINUOUS
 62
         4
100
AcDbLine
 10
1395.5225252069
 20
-8.1808347407
 30
0.0
 11
1411.2533403763
 21
7.5499804287
 31
0.0
  0
LINE
  5
60
100
AcDbEntity
  8
L1_35
  6
CONTINUOUS
 62
         4
100
AcDbLine
 10
1368.8374152651
 20
-30.6233039953
 30
0.0
 11
1378.403268596
 21
-21.0574506645
 31
0.0
  0
LINE
  5
61
100
AcDbEntity
  8
L1_35
  6
CONTINUOUS
 62
         4
100
AcDbLine
 10
1393.5173845198
 20
-5.9433347407
 30
0.0
 11
1411.2533403763
 21
11.7926211158
 31
0.0
  0
LINE
  5
62
100
AcDbEntity
  8
L1_35
  6
CONTINUOUS
 62
         4
100
AcDbLine
 10
1365.1347470291
 20
-30.0833315442
 30
0.0
 11
1375.2747438326
 21
-19.9433347407
 31
0.0
  0
LINE
  5
63
100
AcDbEntity
  8
L1_35
  6
CONTINUOUS
 62
         4
100
AcDbLine
 10
1389.2747438326
 20
-5.9433347407
 30
0.0
 11
1407.2747438326
 21
12.0566652593
 31
0.0
  0
LINE
  5
64
100
AcDbEntity
  8
L1_35
  6
CONTINUOUS
 62
         4
100
AcDbLine
 10
1361.4320787931
 20
-29.5433590931
 30
0.0
 11
1371.0321031455
 21
-19.9433347407
 31
0.0
  0
LINE
  5
65
100
AcDbEntity
  8
L1_35
  6
CONTINUOUS
 62
         4
100
AcDbLine
 10
1385.0321031455
 20
-5.9433347407
 30
0.0
 11
1400.3004284964
 21
9.3249906102
 31
0.0
  0
LINE
  5
66
100
AcDbEntity
  8
L1_35
  6
CONTINUOUS
 62
         4
100
AcDbLine
 10
1357.729410557
 20
-29.003386642
 30
0.0
 11
1366.7894624584
 21
-19.9433347407
 31
0.0
  0
LINE
  5
67
100
AcDbEntity
  8
L1_35
  6
CONTINUOUS
 62
         4
100
AcDbLine
 10
1380.7894624584
 20
-5.9433347407
 30
0.0
 11
1395.3334345212
 21
8.6006373221
 31
0.0
  0
LINE
  5
68
100
AcDbEntity
  8
L1_35
  6
CONTINUOUS
 62
         4
100
AcDbLine
 10
1354.026742321
 20
-28.4634141909
 30
0.0
 11
1362.5468217713
 21
-19.9433347407
 31
0.0
  0
LINE
  5
69
100
AcDbEntity
  8
L1_35
  6
CONTINUOUS
 62
         4
100
AcDbLine
 10
1376.5468217713
 20
-5.9433347407
 30
0.0
 11
1390.366440546
 21
7.8762840341
 31
0.0
  0
LINE
  5
6A
100
AcDbEntity
  8
L1_35
  6
CONTINUOUS
 62
         4
100
AcDbLine
 10
1350.324074085
 20
-27.9234417399
 30
0.0
 11
1358.3041810842
 21
-19.9433347407
 31
0.0
  0
LINE
  5
6B
100
AcDbEntity
  8
L1_35
  6
CONTINUOUS
 62
         4
100
AcDbLine
 10
1372.3041810842
 20
-5.9433347407
 30
0.0
 11
1385.3994465709
 21
7.151930746
 31
0.0
  0
LINE
  5
6C
100
AcDbEntity
  8
L1_35
  6
CONTINUOUS
 62
         4
100
AcDbLine
 10
1346.6214058489
 20
-27.3834692888
 30
0.0
 11
1354.061540397
 21
-19.9433347407
 31
0.0
  0
LINE
  5
6D
100
AcDbEntity
  8
L1_35
  6
CONTINUOUS
 62
         4
100
AcDbLine
 10
1368.061540397
 20
-5.9433347407
 30
0.0
 11
1380.4324525957
 21
6.427577458
 31
0.0
  0
LINE
  5
6E
100
AcDbEntity
  8
L1_35
  6
CONTINUOUS
 62
         4
100
AcDbLine
 10
1342.9187376129
 20
-26.8434968377
 30
0.0
 11
1349.8188997099
 21
-19.9433347407
 31
0.0
  0
LINE
  5
6F
100
AcDbEntity
  8
L1_35
  6
CONTINUOUS
 62
         4
100
AcDbLine
 10
1363.8188997099
 20
-5.9433347407
 30
0.0
 11
1375.4654586206
 21
5.70322417
 31
0.0
  0
LINE
  5
70
100
AcDbEntity
  8
L1_35
  6
CONTINUOUS
 62
         4
100
AcDbLine
 10
1339.2160693769
 20
-26.3035243866
 30
0.0
 11
1345.5762590228
 21
-19.9433347407
 31
0.0
  0
LINE
  5
71
100
AcDbEntity
  8
L1_35
  6
CONTINUOUS
 62
         4
100
AcDbLine
 10
1359.5762590228
 20
-5.9433347407
 30
0.0
 11
1370.4984646454
 21
4.9788708819
 31
0.0
  0
LINE
  5
72
100
AcDbEntity
  8
L1_35
  6
CONTINUOUS
 62
         4
100
AcDbLine
 10
1335.5134011408
 20
-25.7635519355
 30
0.0
 11
1341.3336183357
 21
-19.9433347407
 31
0.0
  0
LINE
  5
73
100
AcDbEntity
  8
L1_35
  6
CONTINUOUS
 62
         4
100
AcDbLine
 10
1355.3336183357
 20
-5.9433347407
 30
0.0
 11
1365.5314706702
 21
4.2545175939
 31
0.0
  0
LINE
  5
74
100
AcDbEntity
  8
L1_35
  6
CONTINUOUS
 62
         4
100
AcDbLine
 10
1332.0579142174
 20
-24.9763981718
 30
0.0
 11
1335.8527205082
 21
-21.181591881
 31
0.0
  0
LINE
  5
75
100
AcDbEntity
  8
L1_35
  6
CONTINUOUS
 62
         4
100
AcDbLine
 10
1351.0909776486
 20
-5.9433347407
 30
0.0
 11
1360.5644766951
 21
3.5301643058
 31
0.0
  0
LINE
  5
76
100
AcDbEntity
  8
L1_35
  6
CONTINUOUS
 62
         4
100
AcDbLine
 10
1346.8483369614
 20
-5.9433347407
 30
0.0
 11
1355.5974827199
 21
2.8058110178
 31
0.0
  0
LINE
  5
77
100
AcDbEntity
  8
L1_35
  6
CONTINUOUS
 62
         4
100
AcDbLine
 10
1342.6056962743
 20
-5.9433347407
 30
0.0
 11
1350.6304887447
 21
2.0814577297
 31
0.0
  0
LINE
  5
78
100
AcDbEntity
  8
L1_35
  6
CONTINUOUS
 62
         4
100
AcDbLine
 10
1338.3630555872
 20
-5.9433347407
 30
0.0
 11
1345.6634947696
 21
1.3571044417
 31
0.0
  0
LINE
  5
79
100
AcDbEntity
  8
L1_35
  6
CONTINUOUS
 62
         4
100
AcDbLine
 10
1335.2704149001
 20
-4.7933347407
 30
0.0
 11
1340.6965007944
 21
0.6327511536
 31
0.0
  0
LINE
  5
7A
100
AcDbEntity
  8
L1_35
  6
CONTINUOUS
 62
         4
100
AcDbLine
 10
1331.7836071849
 20
-4.0375017687
 30
0.0
 11
1335.7295068192
 21
-0.0916021344
 31
0.0
  0
ENDBLK
  5
7B
100
AcDbEntity
  8
0
  6
CONTINUOUS
100
AcDbBlockEnd
  0
BLOCK
  5
AB
100
AcDbEntity
  8
0
100
AcDbBlockBegin
  2
*D2
 70
        65
 10
0.0
 20
0.0
 30
0.0
  3
*D2
  1

  0
POINT
  5
AD
100
AcDbEntity
  8
DEFPOINTS
  6
CONTINUOUS
 62
         0
100
AcDbPoint
 10
1395.0033403763
 20
26.7725906292
 30
0.0
  0
POINT
  5
AE
100
AcDbEntity
  8
DEFPOINTS
  6
CONTINUOUS
 62
         0
100
AcDbPoint
 10
1395.0033403763
 20
-8.1808347407
 30
0.0
  0
POINT
  5
AF
100
AcDbEntity
  8
DEFPOINTS
  6
CONTINUOUS
 62
         0
100
AcDbPoint
 10
1435.0033403763
 20
-4.8989401319
 30
0.0
  0
LINE
  5
B0
100
AcDbEntity
  8
L1_35
  6
CONTINUOUS
 62
         4
100
AcDbLine
 10
1395.0033403763
 20
-6.8308347407
 30
0.0
 11
1395.0033403763
 21
27.4475906292
 31
0.0
  0
LINE
  5
B1
100
AcDbEntity
  8
L1_35
  6
CONTINUOUS
 62
         4
100
AcDbLine
 10
1435.0033403763
 20
-3.5489401319
 30
0.0
 11
1435.0033403763
 21
27.4475906292
 31
0.0
  0
LINE
  5
B2
100
AcDbEntity
  8
L1_35
  6
CONTINUOUS
 62
         4
100
AcDbLine
 10
1395.0033403763
 20
26.7725906292
 30
0.0
 11
1435.0033403763
 21
26.7725906292
 31
0.0
  0
SOLID
  5
B3
100
AcDbEntity
  8
L1_35
  6
CONTINUOUS
 62
         4
100
AcDbTrace
 10
1395.0033403763
 20
26.7725906292
 30
0.0
 11
1397.7033403763
 21
27.1775906292
 31
0.0
 12
1397.7033403763
 22
26.3675906292
 32
0.0
 13
1395.0033403763
 23
26.7725906292
 33
0.0
  0
SOLID
  5
B4
100
AcDbEntity
  8
L1_35
  6
CONTINUOUS
 62
         4
100
AcDbTrace
 10
1435.0033403763
 20
26.7725906292
 30
0.0
 11
1432.3033403763
 21
26.3675906292
 31
0.0
 12
1432.3033403763
 22
27.1775906292
 32
0.0
 13
1435.0033403763
 23
26.7725906292
 33
0.0
  0
TEXT
  5
B6
100
AcDbEntity
  8
L1_35
  6
CONTINUOUS
 62
         4
100
AcDbText
 10
1411.0629938269
 20
28.7975906292
 30
0.0
 40
2.7
  1
40
  7
BOX
100
AcDbText
  0
ENDBLK
  5
B7
100
AcDbEntity
  8
0
  6
CONTINUOUS
100
AcDbBlockEnd
  0
BLOCK
  5
BC
100
AcDbEntity
  8
0
100
AcDbBlockBegin
  2
*D3
 70
        65
 10
0.0
 20
0.0
 30
0.0
  3
*D3
  1

  0
POINT
  5
BE
100
AcDbEntity
  8
DEFPOINTS
  6
CONTINUOUS
 62
         0
100
AcDbPoint
 10
1331.7533403763
 20
223.5167024274
 30
0.0
  0
POINT
  5
BF
100
AcDbEntity
  8
DEFPOINTS
  6
CONTINUOUS
 62
         0
100
AcDbPoint
 10
1331.7533403763
 20
161.4188234458
 30
0.0
  0
POINT
  5
C0
100
AcDbEntity
  8
DEFPOINTS
  6
CONTINUOUS
 62
         0
100
AcDbPoint
 10
1435.0033403763
 20
150.1846417294
 30
0.0
  0
LINE
  5
C1
100
AcDbEntity
  8
L1_35
  6
CONTINUOUS
 62
         4
100
AcDbLine
 10
1331.7533403763
 20
162.7688234458
 30
0.0
 11
1331.7533403763
 21
224.1917024274
 31
0.0
  0
LINE
  5
C2
100
AcDbEntity
  8
L1_35
  6
CONTINUOUS
 62
         4
100
AcDbLine
 10
1435.0033403763
 20
151.5346417294
 30
0.0
 11
1435.0033403763
 21
224.1917024274
 31
0.0
  0
LINE
  5
C3
100
AcDbEntity
  8
L1_35
  6
CONTINUOUS
 62
         4
100
AcDbLine
 10
1331.7533403763
 20
223.5167024274
 30
0.0
 11
1435.0033403763
 21
223.5167024274
 31
0.0
  0
SOLID
  5
C4
100
AcDbEntity
  8
L1_35
  6
CONTINUOUS
 62
         4
100
AcDbTrace
 10
1331.7533403763
 20
223.5167024274
 30
0.0
 11
1334.4533403763
 21
223.9217024274
 31
0.0
 12
1334.4533403763
 22
223.1117024274
 32
0.0
 13
1331.7533403763
 23
223.5167024274
 33
0.0
  0
SOLID
  5
C5
100
AcDbEntity
  8
L1_35
  6
CONTINUOUS
 62
         4
100
AcDbTrace
 10
1435.0033403763
 20
223.5167024274
 30
0.0
 11
1432.3033403763
 21
223.1117024274
 31
0.0
 12
1432.3033403763
 22
223.9217024274
 32
0.0
 13
1435.0033403763
 23
223.5167024274
 33
0.0
  0
TEXT
  5
C7
100
AcDbEntity
  8
L1_35
  6
CONTINUOUS
 62
         4
100
AcDbText
 10
1374.1489374669
 20
225.5417024274
 30
0.0
 40
2.7
  1
103.25
  7
BOX
100
AcDbText
  0
ENDBLK
  5
C8
100
AcDbEntity
  8
0
  6
CONTINUOUS
100
AcDbBlockEnd
  0
BLOCK
  5
CA
100
AcDbEntity
  8
0
100
AcDbBlockBegin
  2
*D4
 70
        65
 10
0.0
 20
0.0
 30
0.0
  3
*D4
  1

  0
POINT
  5
CC
100
AcDbEntity
  8
DEFPOINTS
  6
CONTINUOUS
 62
         0
100
AcDbPoint
 10
1400.0033403763
 20
213.6693807086
 30
0.0
  0
POINT
  5
CD
100
AcDbEntity
  8
DEFPOINTS
  6
CONTINUOUS
 62
         0
100
AcDbPoint
 10
1400.0033403763
 20
172.4096417294
 30
0.0
  0
POINT
  5
CE
100
AcDbEntity
  8
DEFPOINTS
  6
CONTINUOUS
 62
         0
100
AcDbPoint
 10
1435.0033403763
 20
150.1846417294
 30
0.0
  0
LINE
  5
CF
100
AcDbEntity
  8
L1_35
  6
CONTINUOUS
 62
         4
100
AcDbLine
 10
1400.0033403763
 20
173.7596417294
 30
0.0
 11
1400.0033403763
 21
214.3443807086
 31
0.0
  0
LINE
  5
D0
100
AcDbEntity
  8
L1_35
  6
CONTINUOUS
 62
         4
100
AcDbLine
 10
1435.0033403763
 20
151.5346417294
 30
0.0
 11
1435.0033403763
 21
214.3443807086
 31
0.0
  0
LINE
  5
D1
100
AcDbEntity
  8
L1_35
  6
CONTINUOUS
 62
         4
100
AcDbLine
 10
1400.0033403763
 20
213.6693807086
 30
0.0
 11
1435.0033403763
 21
213.6693807086
 31
0.0
  0
SOLID
  5
D2
100
AcDbEntity
  8
L1_35
  6
CONTINUOUS
 62
         4
100
AcDbTrace
 10
1400.0033403763
 20
213.6693807086
 30
0.0
 11
1402.7033403763
 21
214.0743807086
 31
0.0
 12
1402.7033403763
 22
213.2643807086
 32
0.0
 13
1400.0033403763
 23
213.6693807086
 33
0.0
  0
SOLID
  5
D3
100
AcDbEntity
  8
L1_35
  6
CONTINUOUS
 62
         4
100
AcDbTrace
 10
1435.0033403763
 20
213.6693807086
 30
0.0
 11
1432.3033403763
 21
213.2643807086
 31
0.0
 12
1432.3033403763
 22
214.0743807086
 32
0.0
 13
1435.0033403763
 23
213.6693807086
 33
0.0
  0
TEXT
  5
D5
100
AcDbEntity
  8
L1_35
  6
CONTINUOUS
 62
         4
100
AcDbText
 10
1414.9992956543
 20
215.6943807086
 30
0.0
 40
2.7
  1
35
  7
BOX
100
AcDbText
  0
ENDBLK
  5
D6
100
AcDbEntity
  8
0
  6
CONTINUOUS
100
AcDbBlockEnd
  0
BLOCK
  5
E1
100
AcDbEntity
  8
0
100
AcDbBlockBegin
  2
*D5
 70
        65
 10
0.0
 20
0.0
 30
0.0
  3
*D5
  1

  0
POINT
  5
E3
100
AcDbEntity
  8
DEFPOINTS
  6
CONTINUOUS
 62
         0
100
AcDbPoint
 10
1457.4371256257
 20
137.4846417294
 30
0.0
  0
POINT
  5
E4
100
AcDbEntity
  8
DEFPOINTS
  6
CONTINUOUS
 62
         0
100
AcDbPoint
 10
1426.6252754451
 20
137.4846417294
 30
0.0
  0
POINT
  5
E5
100
AcDbEntity
  8
DEFPOINTS
  6
CONTINUOUS
 62
         0
100
AcDbPoint
 10
1426.6252754451
 20
162.8846417294
 30
0.0
  0
LINE
  5
E6
100
AcDbEntity
  8
L1_35
  6
CONTINUOUS
 62
         4
100
AcDbLine
 10
1427.9752754451
 20
137.4846417294
 30
0.0
 11
1458.1121256257
 21
137.4846417294
 31
0.0
  0
LINE
  5
E7
100
AcDbEntity
  8
L1_35
  6
CONTINUOUS
 62
         4
100
AcDbLine
 10
1427.9752754451
 20
162.8846417294
 30
0.0
 11
1458.1121256257
 21
162.8846417294
 31
0.0
  0
LINE
  5
E8
100
AcDbEntity
  8
L1_35
  6
CONTINUOUS
 62
         4
100
AcDbLine
 10
1457.4371256257
 20
137.4846417294
 30
0.0
 11
1457.4371256257
 21
162.8846417294
 31
0.0
  0
SOLID
  5
E9
100
AcDbEntity
  8
L1_35
  6
CONTINUOUS
 62
         4
100
AcDbTrace
 10
1457.4371256257
 20
137.4846417294
 30
0.0
 11
1457.0321256257
 21
140.1846417294
 31
0.0
 12
1457.8421256257
 22
140.1846417294
 32
0.0
 13
1457.4371256257
 23
137.4846417294
 33
0.0
  0
SOLID
  5
EA
100
AcDbEntity
  8
L1_35
  6
CONTINUOUS
 62
         4
100
AcDbTrace
 10
1457.4371256257
 20
162.8846417294
 30
0.0
 11
1457.8421256257
 21
160.1846417294
 31
0.0
 12
1457.0321256257
 22
160.1846417294
 32
0.0
 13
1457.4371256257
 23
162.8846417294
 33
0.0
  0
TEXT
  5
EC
100
AcDbEntity
  8
L1_35
  6
CONTINUOUS
 62
         4
100
AcDbText
 10
1454.3051256257
 20
141.5748202411
 30
0.0
 40
2.7
  1
崷25.4
 50
90.0
  7
BOX
100
AcDbText
  0
ENDBLK
  5
ED
100
AcDbEntity
  8
0
  6
CONTINUOUS
100
AcDbBlockEnd
  0
BLOCK
  5
108
100
AcDbEntity
  8
0
100
AcDbBlockBegin
  2
*D6
 70
        65
 10
0.0
 20
0.0
 30
0.0
  3
*D6
  1

  0
POINT
  5
10A
100
AcDbEntity
  8
DEFPOINTS
  6
CONTINUOUS
 62
         0
100
AcDbPoint
 10
1437.5953281512
 20
69.9546518477
 30
0.0
  0
POINT
  5
10B
100
AcDbEntity
  8
DEFPOINTS
  6
CONTINUOUS
 62
         0
100
AcDbPoint
 10
1445.3387640506
 20
69.9546518477
 30
0.0
  0
POINT
  5
10C
100
AcDbEntity
  8
DEFPOINTS
  6
CONTINUOUS
 62
         0
100
AcDbPoint
 10
1443.9798542208
 20
61.9561758508
 30
0.0
  0
LINE
  5
10D
100
AcDbEntity
  8
L1_35
  6
CONTINUOUS
 62
         4
100
AcDbLine
 10
1443.9887640506
 20
69.9546518477
 30
0.0
 11
1436.9203281512
 21
69.9546518477
 31
0.0
  0
LINE
  5
10E
100
AcDbEntity
  8
L1_35
  6
CONTINUOUS
 62
         4
100
AcDbLine
 10
1442.6298542208
 20
61.9561758508
 30
0.0
 11
1436.9203281512
 21
61.9561758508
 31
0.0
  0
LINE
  5
10F
100
AcDbEntity
  8
L1_35
  6
CONTINUOUS
 62
         4
100
AcDbLine
 10
1437.5953281512
 20
69.9546518477
 30
0.0
 11
1437.5953281512
 21
61.9561758508
 31
0.0
  0
SOLID
  5
110
100
AcDbEntity
  8
L1_35
  6
CONTINUOUS
 62
         4
100
AcDbTrace
 10
1437.5953281512
 20
69.9546518477
 30
0.0
 11
1438.0003281512
 21
67.2546518477
 31
0.0
 12
1437.1903281512
 22
67.2546518477
 32
0.0
 13
1437.5953281512
 23
69.9546518477
 33
0.0
  0
SOLID
  5
111
100
AcDbEntity
  8
L1_35
  6
CONTINUOUS
 62
         4
100
AcDbTrace
 10
1437.5953281512
 20
61.9561758508
 30
0.0
 11
1437.1903281512
 21
64.6561758508
 31
0.0
 12
1438.0003281512
 22
64.6561758508
 32
0.0
 13
1437.5953281512
 23
61.9561758508
 33
0.0
  0
TEXT
  5
113
100
AcDbEntity
  8
L1_35
  6
CONTINUOUS
 62
         4
100
AcDbText
 10
1435.5703281512
 20
64.863178396
 30
0.0
 40
2.7
  1
8
 50
90.0
  7
BOX
100
AcDbText
  0
ENDBLK
  5
114
100
AcDbEntity
  8
0
  6
CONTINUOUS
100
AcDbBlockEnd
  0
BLOCK
  5
117
100
AcDbEntity
  8
0
100
AcDbBlockBegin
  2
*D7
 70
        65
 10
0.0
 20
0.0
 30
0.0
  3
*D7
  1

  0
POINT
  5
119
100
AcDbEntity
  8
DEFPOINTS
  6
CONTINUOUS
 62
         0
100
AcDbPoint
 10
1445.2598881433
 20
52.0459964996
 30
0.0
  0
POINT
  5
11A
100
AcDbEntity
  8
DEFPOINTS
  6
CONTINUOUS
 62
         0
100
AcDbPoint
 10
1445.2598881433
 20
61.9561758508
 30
0.0
  0
POINT
  5
11B
100
AcDbEntity
  8
DEFPOINTS
  6
CONTINUOUS
 62
         0
100
AcDbPoint
 10
1450.8024507276
 20
61.9561758508
 30
0.0
  0
LINE
  5
11C
100
AcDbEntity
  8
L1_35
  6
CONTINUOUS
 62
         4
100
AcDbLine
 10
1445.2598881433
 20
60.6061758508
 30
0.0
 11
1445.2598881433
 21
51.3709964996
 31
0.0
  0
LINE
  5
11D
100
AcDbEntity
  8
L1_35
  6
CONTINUOUS
 62
         4
100
AcDbLine
 10
1450.8024507276
 20
60.6061758508
 30
0.0
 11
1450.8024507276
 21
51.3709964996
 31
0.0
  0
LINE
  5
11E
100
AcDbEntity
  8
L1_35
  6
CONTINUOUS
 62
         4
100
AcDbLine
 10
1445.2598881433
 20
52.0459964996
 30
0.0
 11
1439.8598881433
 21
52.0459964996
 31
0.0
  0
SOLID
  5
11F
100
AcDbEntity
  8
L1_35
  6
CONTINUOUS
 62
         4
100
AcDbTrace
 10
1445.2598881433
 20
52.0459964996
 30
0.0
 11
1442.5598881433
 21
51.6409964996
 31
0.0
 12
1442.5598881433
 22
52.4509964996
 32
0.0
 13
1445.2598881433
 23
52.0459964996
 33
0.0
  0
LINE
  5
120
100
AcDbEntity
  8
L1_35
  6
CONTINUOUS
 62
         4
100
AcDbLine
 10
1450.8024507276
 20
52.0459964996
 30
0.0
 11
1470.5525185623
 21
52.0459964996
 31
0.0
  0
SOLID
  5
121
100
AcDbEntity
  8
L1_35
  6
CONTINUOUS
 62
         4
100
AcDbTrace
 10
1450.8024507276
 20
52.0459964996
 30
0.0
 11
1453.5024507276
 21
52.4509964996
 31
0.0
 12
1453.5024507276
 22
51.6409964996
 32
0.0
 13
1450.8024507276
 23
52.0459964996
 33
0.0
  0
LINE
  5
122
100
AcDbEntity
  8
L1_35
  6
CONTINUOUS
 62
         4
100
AcDbLine
 10
1445.2598881433
 20
52.0459964996
 30
0.0
 11
1450.8024507276
 21
52.0459964996
 31
0.0
  0
TEXT
  5
124
100
AcDbEntity
  8
L1_35
  6
CONTINUOUS
 62
         4
100
AcDbText
 10
1453.0025185623
 20
54.0709964996
 30
0.0
 40
2.7
  1
4.8Hex
  7
BOX
100
AcDbText
  0
ENDBLK
  5
125
100
AcDbEntity
  8
0
  6
CONTINUOUS
100
AcDbBlockEnd
  0
BLOCK
  5
127
100
AcDbEntity
  8
0
100
AcDbBlockBegin
  2
*D8
 70
        65
 10
0.0
 20
0.0
 30
0.0
  3
*D8
  1

  0
POINT
  5
129
100
AcDbEntity
  8
DEFPOINTS
  6
CONTINUOUS
 62
         0
100
AcDbPoint
 10
1443.2686599104
 20
76.2370073585
 30
0.0
  0
POINT
  5
12A
100
AcDbEntity
  8
DEFPOINTS
  6
CONTINUOUS
 62
         0
100
AcDbPoint
 10
1443.2686599104
 20
67.8845477075
 30
0.0
  0
POINT
  5
12B
100
AcDbEntity
  8
DEFPOINTS
  6
CONTINUOUS
 62
         0
100
AcDbPoint
 10
1452.7936789605
 20
67.8845477075
 30
0.0
  0
LINE
  5
12C
100
AcDbEntity
  8
L1_35
  6
CONTINUOUS
 62
         4
100
AcDbLine
 10
1443.2686599104
 20
69.2345477075
 30
0.0
 11
1443.2686599104
 21
76.9120073585
 31
0.0
  0
LINE
  5
12D
100
AcDbEntity
  8
L1_35
  6
CONTINUOUS
 62
         4
100
AcDbLine
 10
1452.7936789605
 20
69.2345477075
 30
0.0
 11
1452.7936789605
 21
76.9120073585
 31
0.0
  0
LINE
  5
12E
100
AcDbEntity
  8
L1_35
  6
CONTINUOUS
 62
         4
100
AcDbLine
 10
1443.2686599104
 20
76.2370073585
 30
0.0
 11
1452.7936789605
 21
76.2370073585
 31
0.0
  0
SOLID
  5
12F
100
AcDbEntity
  8
L1_35
  6
CONTINUOUS
 62
         4
100
AcDbTrace
 10
1443.2686599104
 20
76.2370073585
 30
0.0
 11
1445.9686599104
 21
76.6420073585
 31
0.0
 12
1445.9686599104
 22
75.8320073585
 32
0.0
 13
1443.2686599104
 23
76.2370073585
 33
0.0
  0
SOLID
  5
130
100
AcDbEntity
  8
L1_35
  6
CONTINUOUS
 62
         4
100
AcDbTrace
 10
1452.7936789605
 20
76.2370073585
 30
0.0
 11
1450.0936789605
 21
75.8320073585
 31
0.0
 12
1450.0936789605
 22
76.6420073585
 32
0.0
 13
1452.7936789605
 23
76.2370073585
 33
0.0
  0
TEXT
  5
132
100
AcDbEntity
  8
L1_35
  6
CONTINUOUS
 62
         4
100
AcDbText
 10
1435.4335722854
 20
78.2620073585
 30
0.0
 40
2.7
  1
3/8"-24UNF
  7
BOX
100
AcDbText
  0
ENDBLK
  5
133
100
AcDbEntity
  8
0
  6
CONTINUOUS
100
AcDbBlockEnd
  0
ENDSEC
  0
SECTION
  2
ENTITIES
  0
DIMENSION
  5
27
100
AcDbEntity
  8
L1_35
  6
CONTINUOUS
 62
         4
100
AcDbDimension
  2
*D0
 10
1446.6325150775
 20
159.5884980187
 30
0.0
 11
1444.6075150775
 21
144.7846417294
 31
0.0
  3
DIMSTYLE1
100
AcDbAlignedDimension
 13
1434.1372677689
 23
159.5884980187
 33
0.0
 14
1434.1372677689
 24
140.78078544
 34
0.0
 50
90.0
100
AcDbRotatedDimension
  0
INSERT
  5
7D
100
AcDbEntity
  8
0
  6
CONTINUOUS
100
AcDbBlockReference
  2
*X1
 10
0.0
 20
0.0
 30
0.0
  0
LINE
  5
7E
100
AcDbEntity
  8
_Y__________
  6
CONTINUOUS
 62
         7
100
AcDbLine
 10
1419.1033403763
 20
12.0566652593
 30
0.0
 11
1403.2033403763
 21
12.0566652593
 31
0.0
  0
LINE
  5
7F
100
AcDbEntity
  8
_Y__________
  6
CONTINUOUS
 62
         7
100
AcDbLine
 10
1411.2533403763
 20
-0.2433347407
 30
0.0
 11
1411.2533403763
 21
12.0566652593
 31
0.0
  0
LINE
  5
80
100
AcDbEntity
  8
L1_35
  6
CONTINUOUS
 62
         7
100
AcDbLine
 10
1412.0333403763
 20
-0.2433347407
 30
0.0
 11
1413.2533403763
 21
-1.4633347407
 31
0.0
  0
LINE
  5
81
100
AcDbEntity
  8
L1_35
  6
CONTINUOUS
 62
         7
100
AcDbLine
 10
1422.9733403763
 20
-0.2433347407
 30
0.0
 11
1421.7533403763
 21
-1.4633347407
 31
0.0
  0
LINE
  5
82
100
AcDbEntity
  8
L1_35
  6
CONTINUOUS
 62
         7
100
AcDbLine
 10
1421.7533403763
 20
-1.4633347407
 30
0.0
 11
1413.2533403763
 21
-1.4633347407
 31
0.0
  0
ARC
  5
83
100
AcDbEntity
  8
L1_35
  6
CONTINUOUS
 62
         7
100
AcDbCircle
 10
1421.1033403763
 20
-27.6433347407
 30
0.0
 40
2.0
100
AcDbArc
 50
90.0
 51
180.0
  0
ARC
  5
84
100
AcDbEntity
  8
L1_35
  6
CONTINUOUS
 62
         7
100
AcDbCircle
 10
1421.1033403763
 20
1.7566652593
 30
0.0
 40
2.0
100
AcDbArc
 50
180.0
 51
270.0
  0
LINE
  5
85
100
AcDbEntity
  8
L1_35
  6
CONTINUOUS
 62
         7
100
AcDbLine
 10
1393.7115191489
 20
-5.9433347407
 30
0.0
 11
1393.7115191489
 21
-19.9433347407
 31
0.0
  0
LINE
  5
86
100
AcDbEntity
  8
L1_35
  6
CONTINUOUS
 62
         7
100
AcDbLine
 10
1393.7115191489
 20
-19.9433347407
 30
0.0
 11
1360.2033403763
 21
-19.9433347407
 31
0.0
  0
LINE
  5
87
100
AcDbEntity
  8
L1_35
  6
CONTINUOUS
 62
         7
100
AcDbLine
 10
1393.7115191489
 20
-5.9433347407
 30
0.0
 11
1360.2033403763
 21
-5.9433347407
 31
0.0
  0
ARC
  5
88
100
AcDbEntity
  8
L1_35
  6
CONTINUOUS
 62
         7
100
AcDbCircle
 10
1421.1033403763
 20
135.4846417294
 30
0.0
 40
2.0
100
AcDbArc
 50
90.0
 51
180.0
  0
ARC
  5
89
100
AcDbEntity
  8
L1_35
  6
CONTINUOUS
 62
         7
100
AcDbCircle
 10
1421.1033403763
 20
164.8846417294
 30
0.0
 40
2.0
100
AcDbArc
 50
180.0
 51
270.0
  0
ARC
  5
8A
100
AcDbEntity
  8
L1_35
  6
CONTINUOUS
 62
         4
100
AcDbCircle
 10
1417.5033403763
 20
150.1846417294
 30
0.0
 40
4.75
100
AcDbArc
 50
180.0
 51
450.0
  0
CIRCLE
  5
8B
100
AcDbEntity
  8
L1_35
  6
CONTINUOUS
 62
         7
100
AcDbCircle
 10
1417.5033403763
 20
150.1846417294
 30
0.0
 40
4.25
  0
LINE
  5
8C
100
AcDbEntity
  8
L1_35
  6
CENTER
 62
         1
100
AcDbLine
 10
1417.5033403763
 20
141.3346417294
 30
0.0
 11
1417.5033403763
 21
159.0346417294
 31
0.0
  0
LINE
  5
8D
100
AcDbEntity
  8
L1_35
  6
CONTINUOUS
 62
         7
100
AcDbLine
 10
1419.1033403763
 20
1.7566652593
 30
0.0
 11
1419.1033403763
 21
17.8316652593
 31
0.0
  0
LINE
  5
8E
100
AcDbEntity
  8
L1_35
  6
CONTINUOUS
 62
         7
100
AcDbLine
 10
1419.1033403763
 20
-43.7183347407
 30
0.0
 11
1419.1033403763
 21
-27.6433347407
 31
0.0
  0
LINE
  5
8F
100
AcDbEntity
  8
_Y__________
  6
CONTINUOUS
 62
         4
100
AcDbLine
 10
1612.621258028
 20
143.2846417294
 30
0.0
 11
1598.2833403763
 21
143.2846417294
 31
0.0
  0
LINE
  5
90
100
AcDbEntity
  8
_Y__________
  6
CONTINUOUS
 62
         4
100
AcDbLine
 10
1612.621258028
 20
157.0846417294
 30
0.0
 11
1598.2833403763
 21
157.0846417294
 31
0.0
  0
LINE
  5
91
100
AcDbEntity
  8
_Y__________
  6
CONTINUOUS
 62
         7
100
AcDbLine
 10
1612.0370076406
 20
144.2846417294
 30
0.0
 11
1598.2833403763
 21
144.2846417294
 31
0.0
  0
LINE
  5
92
100
AcDbEntity
  8
_Y__________
  6
CONTINUOUS
 62
         7
100
AcDbLine
 10
1612.0370076406
 20
156.0846417294
 30
0.0
 11
1598.2833403763
 21
156.0846417294
 31
0.0
  0
LINE
  5
93
100
AcDbEntity
  8
_Y__________
  6
CONTINUOUS
 62
         7
100
AcDbLine
 10
1418.1033403763
 20
144.2846417294
 30
0.0
 11
1419.1033403763
 21
143.2846417294
 31
0.0
  0
LINE
  5
94
100
AcDbEntity
  8
_Y__________
  6
CONTINUOUS
 62
         7
100
AcDbLine
 10
1418.1033403763
 20
156.0846417294
 30
0.0
 11
1419.1033403763
 21
157.0846417294
 31
0.0
  0
LINE
  5
95
100
AcDbEntity
  8
_Y__________
  6
CONTINUOUS
 62
         7
100
AcDbLine
 10
1419.1033403763
 20
143.2846417294
 30
0.0
 11
1419.1033403763
 21
119.4096417294
 31
0.0
  0
LINE
  5
96
100
AcDbEntity
  8
_Y__________
  6
CONTINUOUS
 62
         7
100
AcDbLine
 10
1418.3033403763
 20
144.0846417294
 30
0.0
 11
1418.3033403763
 21
142.1346417294
 31
0.0
  0
LINE
  5
97
100
AcDbEntity
  8
_Y__________
  6
CONTINUOUS
 62
         7
100
AcDbLine
 10
1418.1033403763
 20
144.2846417294
 30
0.0
 11
1417.1533403763
 21
144.2846417294
 31
0.0
  0
LINE
  5
98
100
AcDbEntity
  8
_Y__________
  6
CONTINUOUS
 62
         7
100
AcDbLine
 10
1418.1033403763
 20
156.0846417294
 30
0.0
 11
1417.1533403763
 21
156.0846417294
 31
0.0
  0
ARC
  5
99
100
AcDbEntity
  8
_Y__________
  6
CONTINUOUS
 62
         7
100
AcDbCircle
 10
1417.1533403763
 20
150.1846417294
 30
0.0
 40
5.9
100
AcDbArc
 50
90.0
 51
270.0
  0
LINE
  5
9A
100
AcDbEntity
  8
L1_35
  6
DASHED
 62
         2
100
AcDbLine
 10
1627.5333403763
 20
139.8003778505
 30
0.0
 11
1628.656451423
 21
138.6772668038
 31
0.0
  0
LINE
  5
9B
100
AcDbEntity
  8
L1_35
  6
DASHED
 62
         2
100
AcDbLine
 10
1619.0333403763
 20
139.8003778505
 30
0.0
 11
1617.9102293295
 21
138.6772668038
 31
0.0
  0
LINE
  5
9C
100
AcDbEntity
  8
L1_35
  6
CENTER
 62
         1
100
AcDbLine
 10
1623.2833403763
 20
136.8301988845
 30
0.0
 11
1623.2833403763
 21
163.10030658
 31
0.0
  0
LINE
  5
9D
100
AcDbEntity
  8
L1_35
  6
CENTER
 62
         1
100
AcDbLine
 10
1637.2740783004
 20
150.1846417294
 30
0.0
 11
1609.2133787583
 21
150.1846417294
 31
0.0
  0
LINE
  5
9E
100
AcDbEntity
  8
L1_35
  6
CONTINUOUS
 62
         7
100
AcDbLine
 10
1393.7115191489
 20
-19.9433347407
 30
0.0
 11
1395.0033403763
 21
-17.7058347407
 31
0.0
  0
LINE
  5
9F
100
AcDbEntity
  8
L1_35
  6
CONTINUOUS
 62
         7
100
AcDbLine
 10
1393.7115191489
 20
-5.9433347407
 30
0.0
 11
1395.0033403763
 21
-8.1808347407
 31
0.0
  0
LINE
  5
A0
100
AcDbEntity
  8
L1_35
  6
CONTINUOUS
 62
         4
100
AcDbLine
 10
1433.5033403763
 20
-17.7058347407
 30
0.0
 11
1433.5033403763
 21
-8.1808347407
 31
0.0
  0
ARC
  5
A1
100
AcDbEntity
  8
L1_35
  6
CONTINUOUS
 62
         7
100
AcDbCircle
 10
1433.5033403763
 20
-19.2058347407
 30
0.0
 40
1.5
100
AcDbArc
 50
0.0
 51
45.0220597071
  0
ARC
  5
A2
100
AcDbEntity
  8
L1_35
  6
CONTINUOUS
 62
         7
100
AcDbCircle
 10
1433.5033403763
 20
-19.2058347407
 30
0.0
 40
1.5
100
AcDbArc
 50
74.9779402929
 51
90.0
  0
LINE
  5
A3
100
AcDbEntity
  8
L1_35
  6
CONTINUOUS
 62
         7
100
AcDbLine
 10
1434.5635920999
 20
-18.144766278
 30
0.0
 11
1433.8921267583
 21
-17.7570955823
 31
0.0
  0
ARC
  5
A4
100
AcDbEntity
  8
L1_35
  6
CONTINUOUS
 62
         7
100
AcDbCircle
 10
1433.5033403763
 20
-6.6808347407
 30
0.0
 40
1.5
100
AcDbArc
 50
314.9779402929
 51
360.0
  0
LINE
  5
A5
100
AcDbEntity
  8
L1_35
  6
CONTINUOUS
 62
         7
100
AcDbLine
 10
1434.5635920999
 20
-7.7419032034
 30
0.0
 11
1433.8921267583
 21
-8.1295738991
 31
0.0
  0
ARC
  5
A6
100
AcDbEntity
  8
L1_35
  6
CONTINUOUS
 62
         7
100
AcDbCircle
 10
1433.5033403763
 20
-6.6808347407
 30
0.0
 40
1.5
100
AcDbArc
 50
270.0
 51
285.0220597071
  0
LINE
  5
A7
100
AcDbEntity
  8
L1_35
  6
CONTINUOUS
 62
         7
100
AcDbLine
 10
1433.5033403763
 20
-17.7058347407
 30
0.0
 11
1395.0033403763
 21
-17.7058347407
 31
0.0
  0
LINE
  5
A8
100
AcDbEntity
  8
L1_35
  6
CONTINUOUS
 62
         7
100
AcDbLine
 10
1395.0033403763
 20
-8.1808347407
 30
0.0
 11
1433.5033403763
 21
-8.1808347407
 31
0.0
  0
LINE
  5
A9
100
AcDbEntity
  8
L1_35
  6
CONTINUOUS
 62
         7
100
AcDbLine
 10
1395.0033403763
 20
-8.1808347407
 30
0.0
 11
1395.0033403763
 21
-17.7058347407
 31
0.0
  0
DIMENSION
  5
AC
100
AcDbEntity
  8
L1_35
  6
CONTINUOUS
 62
         4
100
AcDbDimension
  2
*D2
 10
1395.0033403763
 20
26.7725906292
 30
0.0
 11
1411.0629938269
 21
28.7975906292
 31
0.0
  3
DIMSTYLE1
100
AcDbAlignedDimension
 13
1395.0033403763
 23
-8.1808347407
 33
0.0
 14
1435.0033403763
 24
-4.8989401319
 34
0.0
100
AcDbRotatedDimension
  0
LINE
  5
B8
100
AcDbEntity
  8
L1_35
  6
CONTINUOUS
 62
         7
100
AcDbLine
 10
1331.7533403763
 20
161.4188234458
 30
0.0
 11
1331.7533403763
 21
138.9504600129
 31
0.0
  0
LINE
  5
B9
100
AcDbEntity
  8
L1_35
  6
CENTER
 62
         1
100
AcDbLine
 10
1400.0033403763
 20
172.4096417294
 30
0.0
 11
1400.0033403763
 21
127.9596417294
 31
0.0
  0
LINE
  5
BA
100
AcDbEntity
  8
L1_35
  6
CONTINUOUS
 62
         7
100
AcDbLine
 10
1403.2033403763
 20
180.9596417294
 30
0.0
 11
1403.2033403763
 21
119.4096417294
 31
0.0
  0
DIMENSION
  5
BD
100
AcDbEntity
  8
L1_35
  6
CONTINUOUS
 62
         4
100
AcDbDimension
  2
*D3
 10
1331.7533403763
 20
223.5167024274
 30
0.0
 11
1374.1489374669
 21
225.5417024274
 31
0.0
  3
DIMSTYLE1
100
AcDbAlignedDimension
 13
1331.7533403763
 23
161.4188234458
 33
0.0
 14
1435.0033403763
 24
150.1846417294
 34
0.0
100
AcDbRotatedDimension
  0
DIMENSION
  5
CB
100
AcDbEntity
  8
L1_35
  6
CONTINUOUS
 62
         4
100
AcDbDimension
  2
*D4
 10
1400.0033403763
 20
213.6693807086
 30
0.0
 11
1414.9992956543
 21
215.6943807086
 31
0.0
  3
DIMSTYLE1
100
AcDbAlignedDimension
 13
1400.0033403763
 23
172.4096417294
 33
0.0
 14
1435.0033403763
 24
150.1846417294
 34
0.0
100
AcDbRotatedDimension
  0
CIRCLE
  5
D7
100
AcDbEntity
  8
L1_35
  6
CONTINUOUS
 62
         7
100
AcDbCircle
 10
1623.2833403763
 20
150.1846417294
 30
0.0
 40
12.7
  0
CIRCLE
  5
D8
100
AcDbEntity
  8
L1_35
  6
CONTINUOUS
 62
         7
100
AcDbCircle
 10
1623.2833403763
 20
150.1846417294
 30
0.0
 40
9.0
  0
CIRCLE
  5
D9
100
AcDbEntity
  8
L1_35
  6
CONTINUOUS
 62
         7
100
AcDbCircle
 10
1623.2833403763
 20
150.1846417294
 30
0.0
 40
4.7625
  0
LINE
  5
DA
100
AcDbEntity
  8
L1_35
  6
DASHED
 62
         2
100
AcDbLine
 10
1627.5333403763
 20
139.8003778505
 30
0.0
 11
1619.0333403763
 21
139.8003778505
 31
0.0
  0
LINE
  5
DB
100
AcDbEntity
  8
L1_35
  6
DASHED
 62
         2
100
AcDbLine
 10
1627.5333403763
 20
148.0354776477
 30
0.0
 11
1627.5333403763
 21
139.8003778505
 31
0.0
  0
LINE
  5
DC
100
AcDbEntity
  8
L1_35
  6
DASHED
 62
         2
100
AcDbLine
 10
1628.0333403763
 20
149.8398138738
 30
0.0
 11
1628.0333403763
 21
139.3003778505
 31
0.0
  0
LINE
  5
DD
100
AcDbEntity
  8
L1_35
  6
DASHED
 62
         2
100
AcDbLine
 10
1619.0333403763
 20
139.8003778505
 30
0.0
 11
1619.0333403763
 21
148.0354776477
 31
0.0
  0
LINE
  5
DE
100
AcDbEntity
  8
L1_35
  6
DASHED
 62
         2
100
AcDbLine
 10
1618.5333403763
 20
139.3003778505
 30
0.0
 11
1618.5333403763
 21
149.8398138738
 31
0.0
  0
LINE
  5
DF
100
AcDbEntity
  8
L1_35
  6
CENTER
 62
         1
100
AcDbLine
 10
1439.2214523284
 20
150.1846417294
 30
0.0
 11
1419.1033403763
 21
150.1846417294
 31
0.0
  0
DIMENSION
  5
E2
100
AcDbEntity
  8
L1_35
  6
CONTINUOUS
 62
         4
100
AcDbDimension
  2
*D5
 10
1457.4371256257
 20
137.4846417294
 30
0.0
 11
1454.3051256257
 21
141.5748202411
 31
0.0
  3
DIMSTYLE1
100
AcDbAlignedDimension
 13
1426.6252754451
 23
137.4846417294
 33
0.0
 14
1426.6252754451
 24
162.8846417294
 34
0.0
 50
90.0
100
AcDbRotatedDimension
  0
ARC
  5
EE
100
AcDbEntity
  8
L1_35
  6
CONTINUOUS
 62
         7
100
AcDbCircle
 10
1426.6252754451
 20
160.8846417294
 30
0.0
 40
2.0
100
AcDbArc
 50
65.0
 51
90.0
  0
ARC
  5
EF
100
AcDbEntity
  8
L1_35
  6
CONTINUOUS
 62
         7
100
AcDbCircle
 10
1426.6252754451
 20
139.4846417294
 30
0.0
 40
2.0
100
AcDbArc
 50
270.0
 51
295.0
  0
ARC
  5
F0
100
AcDbEntity
  8
L1_35
  6
CONTINUOUS
 62
         7
100
AcDbCircle
 10
1433.5033403763
 20
142.1402471206
 30
0.0
 40
1.5
100
AcDbArc
 50
295.0
 51
360.0
  0
ARC
  5
F1
100
AcDbEntity
  8
L1_35
  6
CONTINUOUS
 62
         7
100
AcDbCircle
 10
1433.5033403763
 20
158.2290363382
 30
0.0
 40
1.5
100
AcDbArc
 50
0.0
 51
65.0
  0
LINE
  5
F2
100
AcDbEntity
  8
L1_35
  6
CONTINUOUS
 62
         7
100
AcDbLine
 10
1435.0033403763
 20
142.1402471206
 30
0.0
 11
1435.0033403763
 21
158.2290363382
 31
0.0
  0
LINE
  5
F3
100
AcDbEntity
  8
L1_35
  6
CONTINUOUS
 62
         7
100
AcDbLine
 10
1434.1372677689
 20
140.78078544
 30
0.0
 11
1427.4705119686
 21
137.6720261553
 31
0.0
  0
LINE
  5
F4
100
AcDbEntity
  8
L1_35
  6
CONTINUOUS
 62
         7
100
AcDbLine
 10
1434.1372677689
 20
159.5884980187
 30
0.0
 11
1427.4705119686
 21
162.6972573035
 31
0.0
  0
LINE
  5
F5
100
AcDbEntity
  8
L1_35
  6
CONTINUOUS
 62
         4
100
AcDbLine
 10
1427.058154673
 20
137.5320497151
 30
0.0
 11
1427.058154673
 21
162.8372337436
 31
0.0
  0
LINE
  5
F6
100
AcDbEntity
  8
L1_35
  6
CONTINUOUS
 62
         7
100
AcDbLine
 10
1426.6252754451
 20
137.4846417294
 30
0.0
 11
1421.1033403763
 21
137.4846417294
 31
0.0
  0
LINE
  5
F7
100
AcDbEntity
  8
L1_35
  6
CONTINUOUS
 62
         7
100
AcDbLine
 10
1426.6252754451
 20
162.8846417294
 30
0.0
 11
1421.1033403763
 21
162.8846417294
 31
0.0
  0
LINE
  5
F8
100
AcDbEntity
  8
L1_35
  6
CENTER
 62
         1
100
AcDbLine
 10
1441.5714469812
 20
-12.9433347407
 30
0.0
 11
1419.1033403763
 21
-12.9433347407
 31
0.0
  0
LINE
  5
F9
100
AcDbEntity
  8
L1_35
  6
CONTINUOUS
 62
         4
100
AcDbLine
 10
1412.7533403763
 20
-0.9633347407
 30
0.0
 11
1412.7533403763
 21
-8.1808347407
 31
0.0
  0
LINE
  5
FA
100
AcDbEntity
  8
L1_35
  6
CONTINUOUS
 62
         7
100
AcDbLine
 10
1413.2533403763
 20
-1.4633347407
 30
0.0
 11
1413.2533403763
 21
-8.1808347407
 31
0.0
  0
LINE
  5
FB
100
AcDbEntity
  8
L1_35
  6
CONTINUOUS
 62
         7
100
AcDbLine
 10
1421.7533403763
 20
-8.1808347407
 30
0.0
 11
1421.7533403763
 21
-1.4633347407
 31
0.0
  0
LINE
  5
FC
100
AcDbEntity
  8
L1_35
  6
CONTINUOUS
 62
         4
100
AcDbLine
 10
1422.2533403763
 20
-8.1808347407
 30
0.0
 11
1422.2533403763
 21
-0.9633347407
 31
0.0
  0
LINE
  5
FD
100
AcDbEntity
  8
L1_35
  6
CENTER
 62
         1
100
AcDbLine
 10
1417.5033403763
 20
0.1503922785
 30
0.0
 11
1417.5033403763
 21
-10.090884097
 31
0.0
  0
LINE
  5
FE
100
AcDbEntity
  8
L1_35
  6
CONTINUOUS
 62
         7
100
AcDbLine
 10
1426.6252754451
 20
-0.2433347407
 30
0.0
 11
1411.2533403763
 21
-0.2433347407
 31
0.0
  0
LINE
  5
FF
100
AcDbEntity
  8
L1_35
  6
CONTINUOUS
 62
         7
100
AcDbLine
 10
1426.6252754451
 20
-25.6433347407
 30
0.0
 11
1421.1033403763
 21
-25.6433347407
 31
0.0
  0
ARC
  5
100
100
AcDbEntity
  8
L1_35
  6
CONTINUOUS
 62
         7
100
AcDbCircle
 10
1426.6252754451
 20
-2.2433347407
 30
0.0
 40
2.0
100
AcDbArc
 50
65.0
 51
90.0
  0
LINE
  5
101
100
AcDbEntity
  8
L1_35
  6
CONTINUOUS
 62
         7
100
AcDbLine
 10
1434.1372677689
 20
-3.5394784513
 30
0.0
 11
1427.4705119686
 21
-0.4307191666
 31
0.0
  0
ARC
  5
102
100
AcDbEntity
  8
L1_35
  6
CONTINUOUS
 62
         7
100
AcDbCircle
 10
1426.6252754451
 20
-23.6433347407
 30
0.0
 40
2.0
100
AcDbArc
 50
270.0
 51
295.0
  0
LINE
  5
103
100
AcDbEntity
  8
L1_35
  6
CONTINUOUS
 62
         7
100
AcDbLine
 10
1434.1372677689
 20
-22.34719103
 30
0.0
 11
1427.4705119686
 21
-25.4559503147
 31
0.0
  0
ARC
  5
104
100
AcDbEntity
  8
L1_35
  6
CONTINUOUS
 62
         7
100
AcDbCircle
 10
1433.5033403763
 20
-20.9877293495
 30
0.0
 40
1.5
100
AcDbArc
 50
295.0
 51
360.0
  0
LINE
  5
105
100
AcDbEntity
  8
L1_35
  6
CONTINUOUS
 62
         7
100
AcDbLine
 10
1435.0033403763
 20
-20.9877293495
 30
0.0
 11
1435.0033403763
 21
-4.8989401319
 31
0.0
  0
ARC
  5
106
100
AcDbEntity
  8
L1_35
  6
CONTINUOUS
 62
         7
100
AcDbCircle
 10
1433.5033403763
 20
-4.8989401319
 30
0.0
 40
1.5
100
AcDbArc
 50
0.0
 51
65.0
  0
DIMENSION
  5
109
100
AcDbEntity
  8
L1_35
  6
CONTINUOUS
 62
         4
100
AcDbDimension
  2
*D6
 10
1437.5953281512
 20
69.9546518477
 30
0.0
 11
1435.5703281512
 21
64.863178396
 31
0.0
  3
DIMSTYLE1
100
AcDbAlignedDimension
 13
1445.3387640506
 23
69.9546518477
 33
0.0
 14
1443.9798542208
 24
61.9561758508
 34
0.0
 50
90.0
100
AcDbRotatedDimension
  0
LINE
  5
115
100
AcDbEntity
  8
L1_35
  6
CENTER
 62
         1
100
AcDbLine
 10
1448.0311694355
 20
59.5034873308
 30
0.0
 11
1448.0311694355
 21
71.2061758508
 31
0.0
  0
DIMENSION
  5
118
100
AcDbEntity
  8
L1_35
  6
CONTINUOUS
 62
         4
100
AcDbDimension
  2
*D7
 10
1445.2598881433
 20
52.0459964996
 30
0.0
 11
1453.0025185623
 21
54.0709964996
 31
0.0
  3
DIMSTYLE1
100
AcDbAlignedDimension
 13
1445.2598881433
 23
61.9561758508
 33
0.0
 14
1450.8024507276
 24
61.9561758508
 34
0.0
100
AcDbRotatedDimension
  0
DIMENSION
  5
128
100
AcDbEntity
  8
L1_35
  6
CONTINUOUS
 62
         4
100
AcDbDimension
  2
*D8
 10
1443.2686599104
 20
76.2370073585
 30
0.0
 11
1435.4335722854
 21
78.2620073585
 31
0.0
  3
DIMSTYLE1
100
AcDbAlignedDimension
 13
1443.2686599104
 23
67.8845477075
 33
0.0
 14
1452.7936789605
 24
67.8845477075
 34
0.0
100
AcDbRotatedDimension
  0
LINE
  5
134
100
AcDbEntity
  8
L1_35
  6
DASHED
 62
         2
100
AcDbLine
 10
1449.4096536951
 20
61.9561758508
 30
0.0
 11
1449.4096536951
 21
66.7313854012
 31
0.0
  0
LINE
  5
135
100
AcDbEntity
  8
L1_35
  6
DASHED
 62
         2
100
AcDbLine
 10
1446.6526851758
 20
61.9561758508
 30
0.0
 11
1446.6526851758
 21
66.7313854012
 31
0.0
  0
LINE
  5
136
100
AcDbEntity
  8
L1_35
  6
DASHED
 62
         2
100
AcDbLine
 10
1450.7881379548
 20
61.9561758508
 30
0.0
 11
1450.7881379548
 21
66.7313854012
 31
0.0
  0
LINE
  5
137
100
AcDbEntity
  8
L1_35
  6
DASHED
 62
         2
100
AcDbLine
 10
1445.2742009161
 20
61.9561758508
 30
0.0
 11
1445.2742009161
 21
66.7313854012
 31
0.0
  0
LINE
  5
138
100
AcDbEntity
  8
L1_35
  6
DASHED
 62
         2
100
AcDbLine
 10
1445.2742009161
 20
66.7313854012
 30
0.0
 11
1450.7881379548
 21
66.7313854012
 31
0.0
  0
LINE
  5
139
100
AcDbEntity
  8
L1_35
  6
CONTINUOUS
 62
         4
100
AcDbLine
 10
1450.7235748203
 20
69.9546518477
 30
0.0
 11
1452.7936789605
 21
67.8845477075
 31
0.0
  0
LINE
  5
13A
100
AcDbEntity
  8
L1_35
  6
CONTINUOUS
 62
         4
100
AcDbLine
 10
1445.3387640506
 20
69.9546518477
 30
0.0
 11
1443.2686599104
 21
67.8845477075
 31
0.0
  0
LINE
  5
13B
100
AcDbEntity
  8
L1_35
  6
CONTINUOUS
 62
         4
100
AcDbLine
 10
1443.2686599104
 20
67.8845477075
 30
0.0
 11
1452.7936789605
 21
67.8845477075
 31
0.0
  0
LINE
  5
13C
100
AcDbEntity
  8
L1_35
  6
CONTINUOUS
 62
         4
100
AcDbLine
 10
1445.3387640506
 20
69.9546518477
 30
0.0
 11
1450.7235748203
 21
69.9546518477
 31
0.0
  0
LINE
  5
13D
100
AcDbEntity
  8
L1_35
  6
CONTINUOUS
 62
         4
100
AcDbLine
 10
1452.0824846501
 20
67.3450506285
 30
0.0
 11
1443.9798542208
 21
66.8055535495
 31
0.0
  0
LINE
  5
13E
100
AcDbEntity
  8
L1_35
  6
CONTINUOUS
 62
         4
100
AcDbLine
 10
1452.7936789605
 20
67.8845477075
 30
0.0
 11
1443.2686599104
 21
67.3450506285
 31
0.0
  0
LINE
  5
13F
100
AcDbEntity
  8
L1_35
  6
CONTINUOUS
 62
         4
100
AcDbLine
 10
1452.0824846501
 20
67.3450506285
 30
0.0
 11
1452.7936789605
 21
67.8845477075
 31
0.0
  0
LINE
  5
140
100
AcDbEntity
  8
L1_35
  6
CONTINUOUS
 62
         4
100
AcDbLine
 10
1452.7936789605
 20
66.8055535495
 30
0.0
 11
1452.0824846501
 21
67.3450506285
 31
0.0
  0
LINE
  5
141
100
AcDbEntity
  8
L1_35
  6
CONTINUOUS
 62
         4
100
AcDbLine
 10
1443.2686599104
 20
67.3450506285
 30
0.0
 11
1443.9798542208
 21
67.8845477075
 31
0.0
  0
LINE
  5
142
100
AcDbEntity
  8
L1_35
  6
CONTINUOUS
 62
         4
100
AcDbLine
 10
1443.9798542208
 20
66.8055535495
 30
0.0
 11
1443.2686599104
 21
67.3450506285
 31
0.0
  0
LINE
  5
143
100
AcDbEntity
  8
L1_35
  6
CONTINUOUS
 62
         4
100
AcDbLine
 10
1452.7936789605
 20
62.4895769176
 30
0.0
 11
1444.5193512998
 21
62.4895769176
 31
0.0
  0
LINE
  5
144
100
AcDbEntity
  8
L1_35
  6
CONTINUOUS
 62
         4
100
AcDbLine
 10
1452.0824846501
 20
63.0290739966
 30
0.0
 11
1444.5193512998
 21
62.4895769176
 31
0.0
  0
LINE
  5
145
100
AcDbEntity
  8
L1_35
  6
CONTINUOUS
 62
         4
100
AcDbLine
 10
1452.7936789605
 20
63.5685710756
 30
0.0
 11
1443.2686599104
 21
63.0290739966
 31
0.0
  0
LINE
  5
146
100
AcDbEntity
  8
L1_35
  6
CONTINUOUS
 62
         4
100
AcDbLine
 10
1452.0824846501
 20
63.0290739966
 30
0.0
 11
1452.7936789605
 21
62.4895769176
 31
0.0
  0
LINE
  5
147
100
AcDbEntity
  8
L1_35
  6
CONTINUOUS
 62
         4
100
AcDbLine
 10
1452.7936789605
 20
63.5685710756
 30
0.0
 11
1452.0824846501
 21
63.0290739966
 31
0.0
  0
LINE
  5
148
100
AcDbEntity
  8
L1_35
  6
CONTINUOUS
 62
         4
100
AcDbLine
 10
1443.9798542208
 20
63.5685710756
 30
0.0
 11
1443.2686599104
 21
63.0290739966
 31
0.0
  0
LINE
  5
149
100
AcDbEntity
  8
L1_35
  6
CONTINUOUS
 62
         4
100
AcDbLine
 10
1452.0824846501
 20
66.2660564706
 30
0.0
 11
1443.9798542208
 21
65.7265593916
 31
0.0
  0
LINE
  5
14A
100
AcDbEntity
  8
L1_35
  6
CONTINUOUS
 62
         4
100
AcDbLine
 10
1452.7936789605
 20
66.8055535495
 30
0.0
 11
1443.2686599104
 21
66.2660564706
 31
0.0
  0
LINE
  5
14B
100
AcDbEntity
  8
L1_35
  6
CONTINUOUS
 62
         4
100
AcDbLine
 10
1452.0824846501
 20
66.2660564706
 30
0.0
 11
1452.7936789605
 21
66.8055535495
 31
0.0
  0
LINE
  5
14C
100
AcDbEntity
  8
L1_35
  6
CONTINUOUS
 62
         4
100
AcDbLine
 10
1452.7936789605
 20
65.7265593916
 30
0.0
 11
1452.0824846501
 21
66.2660564706
 31
0.0
  0
LINE
  5
14D
100
AcDbEntity
  8
L1_35
  6
CONTINUOUS
 62
         4
100
AcDbLine
 10
1443.2686599104
 20
66.2660564706
 30
0.0
 11
1443.9798542208
 21
66.8055535495
 31
0.0
  0
LINE
  5
14E
100
AcDbEntity
  8
L1_35
  6
CONTINUOUS
 62
         4
100
AcDbLine
 10
1443.9798542208
 20
65.7265593916
 30
0.0
 11
1443.2686599104
 21
66.2660564706
 31
0.0
  0
LINE
  5
14F
100
AcDbEntity
  8
L1_35
  6
CONTINUOUS
 62
         4
100
AcDbLine
 10
1452.7936789605
 20
62.4895769176
 30
0.0
 11
1444.5193512998
 21
62.4895769176
 31
0.0
  0
LINE
  5
150
100
AcDbEntity
  8
L1_35
  6
CONTINUOUS
 62
         4
100
AcDbLine
 10
1452.0824846501
 20
63.0290739966
 30
0.0
 11
1444.5193512998
 21
62.4895769176
 31
0.0
  0
LINE
  5
151
100
AcDbEntity
  8
L1_35
  6
CONTINUOUS
 62
         4
100
AcDbLine
 10
1452.7936789605
 20
63.5685710756
 30
0.0
 11
1443.2686599104
 21
63.0290739966
 31
0.0
  0
LINE
  5
152
100
AcDbEntity
  8
L1_35
  6
CONTINUOUS
 62
         4
100
AcDbLine
 10
1452.0824846501
 20
63.0290739966
 30
0.0
 11
1452.7936789605
 21
62.4895769176
 31
0.0
  0
LINE
  5
153
100
AcDbEntity
  8
L1_35
  6
CONTINUOUS
 62
         4
100
AcDbLine
 10
1452.7936789605
 20
63.5685710756
 30
0.0
 11
1452.0824846501
 21
63.0290739966
 31
0.0
  0
LINE
  5
154
100
AcDbEntity
  8
L1_35
  6
CONTINUOUS
 62
         4
100
AcDbLine
 10
1443.9798542208
 20
63.5685710756
 30
0.0
 11
1443.2686599104
 21
63.0290739966
 31
0.0
  0
LINE
  5
155
100
AcDbEntity
  8
L1_35
  6
CONTINUOUS
 62
         4
100
AcDbLine
 10
1452.0824846501
 20
65.1870623126
 30
0.0
 11
1443.9798542208
 21
64.6475652336
 31
0.0
  0
LINE
  5
156
100
AcDbEntity
  8
L1_35
  6
CONTINUOUS
 62
         4
100
AcDbLine
 10
1452.7936789605
 20
65.7265593916
 30
0.0
 11
1443.2686599104
 21
65.1870623126
 31
0.0
  0
LINE
  5
157
100
AcDbEntity
  8
L1_35
  6
CONTINUOUS
 62
         4
100
AcDbLine
 10
1452.0824846501
 20
65.1870623126
 30
0.0
 11
1452.7936789605
 21
65.7265593916
 31
0.0
  0
LINE
  5
158
100
AcDbEntity
  8
L1_35
  6
CONTINUOUS
 62
         4
100
AcDbLine
 10
1452.7936789605
 20
64.6475652336
 30
0.0
 11
1452.0824846501
 21
65.1870623126
 31
0.0
  0
LINE
  5
159
100
AcDbEntity
  8
L1_35
  6
CONTINUOUS
 62
         4
100
AcDbLine
 10
1443.2686599104
 20
65.1870623126
 30
0.0
 11
1443.9798542208
 21
65.7265593916
 31
0.0
  0
LINE
  5
15A
100
AcDbEntity
  8
L1_35
  6
CONTINUOUS
 62
         4
100
AcDbLine
 10
1443.9798542208
 20
64.6475652336
 30
0.0
 11
1443.2686599104
 21
65.1870623126
 31
0.0
  0
LINE
  5
15B
100
AcDbEntity
  8
L1_35
  6
CONTINUOUS
 62
         4
100
AcDbLine
 10
1452.7936789605
 20
62.4895769176
 30
0.0
 11
1444.5193512998
 21
62.4895769176
 31
0.0
  0
LINE
  5
15C
100
AcDbEntity
  8
L1_35
  6
CONTINUOUS
 62
         4
100
AcDbLine
 10
1452.0824846501
 20
63.0290739966
 30
0.0
 11
1444.5193512998
 21
62.4895769176
 31
0.0
  0
LINE
  5
15D
100
AcDbEntity
  8
L1_35
  6
CONTINUOUS
 62
         4
100
AcDbLine
 10
1452.7936789605
 20
63.5685710756
 30
0.0
 11
1443.2686599104
 21
63.0290739966
 31
0.0
  0
LINE
  5
15E
100
AcDbEntity
  8
L1_35
  6
CONTINUOUS
 62
         4
100
AcDbLine
 10
1452.0824846501
 20
63.0290739966
 30
0.0
 11
1452.7936789605
 21
62.4895769176
 31
0.0
  0
LINE
  5
15F
100
AcDbEntity
  8
L1_35
  6
CONTINUOUS
 62
         4
100
AcDbLine
 10
1452.7936789605
 20
63.5685710756
 30
0.0
 11
1452.0824846501
 21
63.0290739966
 31
0.0
  0
LINE
  5
160
100
AcDbEntity
  8
L1_35
  6
CONTINUOUS
 62
         4
100
AcDbLine
 10
1443.9798542208
 20
63.5685710756
 30
0.0
 11
1443.2686599104
 21
63.0290739966
 31
0.0
  0
LINE
  5
161
100
AcDbEntity
  8
L1_35
  6
CONTINUOUS
 62
         4
100
AcDbLine
 10
1452.0824846501
 20
64.1080681546
 30
0.0
 11
1443.9798542208
 21
63.5685710756
 31
0.0
  0
LINE
  5
162
100
AcDbEntity
  8
L1_35
  6
CONTINUOUS
 62
         4
100
AcDbLine
 10
1452.7936789605
 20
64.6475652336
 30
0.0
 11
1443.2686599104
 21
64.1080681546
 31
0.0
  0
LINE
  5
163
100
AcDbEntity
  8
L1_35
  6
CONTINUOUS
 62
         4
100
AcDbLine
 10
1452.0824846501
 20
64.1080681546
 30
0.0
 11
1452.7936789605
 21
64.6475652336
 31
0.0
  0
LINE
  5
164
100
AcDbEntity
  8
L1_35
  6
CONTINUOUS
 62
         4
100
AcDbLine
 10
1452.7936789605
 20
63.5685710756
 30
0.0
 11
1452.0824846501
 21
64.1080681546
 31
0.0
  0
LINE
  5
165
100
AcDbEntity
  8
L1_35
  6
CONTINUOUS
 62
         4
100
AcDbLine
 10
1443.2686599104
 20
64.1080681546
 30
0.0
 11
1443.9798542208
 21
64.6475652336
 31
0.0
  0
LINE
  5
166
100
AcDbEntity
  8
L1_35
  6
CONTINUOUS
 62
         4
100
AcDbLine
 10
1443.9798542208
 20
63.5685710756
 30
0.0
 11
1443.2686599104
 21
64.1080681546
 31
0.0
  0
LINE
  5
167
100
AcDbEntity
  8
L1_35
  6
CONTINUOUS
 62
         4
100
AcDbLine
 10
1443.2686599104
 20
62.4895769176
 30
0.0
 11
1443.2686599104
 21
63.0290739966
 31
0.0
  0
LINE
  5
168
100
AcDbEntity
  8
L1_35
  6
CONTINUOUS
 62
         4
100
AcDbLine
 10
1443.9798542208
 20
61.9561758508
 30
0.0
 11
1443.2686599104
 21
62.4895769176
 31
0.0
  0
LINE
  5
169
100
AcDbEntity
  8
L1_35
  6
CONTINUOUS
 62
         4
100
AcDbLine
 10
1452.0824846501
 20
61.9561758508
 30
0.0
 11
1452.7936789605
 21
62.4895769176
 31
0.0
  0
LINE
  5
16A
100
AcDbEntity
  8
L1_35
  6
CONTINUOUS
 62
         4
100
AcDbLine
 10
1452.7936789605
 20
62.4895769176
 30
0.0
 11
1443.2686599104
 21
62.4895769176
 31
0.0
  0
LINE
  5
16B
100
AcDbEntity
  8
L1_35
  6
CONTINUOUS
 62
         4
100
AcDbLine
 10
1452.0824846501
 20
61.9561758508
 30
0.0
 11
1443.9798542208
 21
61.9561758508
 31
0.0
  0
LINE
  5
16C
100
AcDbEntity
  8
_Y__________
  6
CENTER
 62
         1
100
AcDbLine
 10
1208.5078743688
 20
123.7868805382
 30
0.0
 11
1202.8697186441
 21
125.8390013981
 31
0.0
  0
POLYLINE
  5
16E
100
AcDbEntity
  8
_Y__________
  6
CONTINUOUS
 62
         7
100
AcDb3dPolyline
 66
         1
 10
0.0
 20
0.0
 30
0.0
 70
         8
  0
VERTEX
  5
170
100
AcDbEntity
  8
_Y__________
  6
CONTINUOUS
 62
         7
100
AcDbVertex
100
AcDb3dPolylineVertex
 10
1203.8094112649
 20
125.4969812548
 30
0.0
 70
        32
  0
VERTEX
  5
172
100
AcDbEntity
  8
_Y__________
  6
CONTINUOUS
 62
         7
100
AcDbVertex
100
AcDb3dPolylineVertex
 10
1203.8094112649
 20
125.4969812548
 30
0.0
 70
        32
  0
SEQEND
  5
174
100
AcDbEntity
  8
_Y__________
  6
CONTINUOUS
 62
         7
  0
ARC
  5
175
100
AcDbEntity
  8
_Y__________
  6
CONTINUOUS
 62
         7
100
AcDbCircle
 10
1206.6023903184
 20
124.4804200144
 30
0.0
 40
2.9722262277
100
AcDbArc
 50
141.257725858
 51
160.0
  0
POLYLINE
  5
177
100
AcDbEntity
  8
_Y__________
  6
CONTINUOUS
 62
         7
100
AcDb3dPolyline
 66
         1
 10
0.0
 20
0.0
 30
0.0
 70
         8
  0
VERTEX
  5
179
100
AcDbEntity
  8
_Y__________
  6
CONTINUOUS
 62
         7
100
AcDbVertex
100
AcDb3dPolylineVertex
 10
1204.2841463667
 20
126.340493596
 30
0.0
 70
        32
  0
VERTEX
  5
17B
100
AcDbEntity
  8
_Y__________
  6
CONTINUOUS
 62
         7
100
AcDbVertex
100
AcDb3dPolylineVertex
 10
1204.2841463667
 20
126.340493596
 30
0.0
 70
        32
  0
SEQEND
  5
17D
100
AcDbEntity
  8
_Y__________
  6
CONTINUOUS
 62
         7
  0
ARC
  5
17E
100
AcDbEntity
  8
_Y__________
  6
CONTINUOUS
 62
         7
100
AcDbCircle
 10
1206.2103129629
 20
124.7950084469
 30
0.0
 40
2.4695428935
100
AcDbArc
 50
120.6773100904
 51
141.257725858
  0
POLYLINE
  5
180
100
AcDbEntity
  8
_Y__________
  6
CONTINUOUS
 62
         7
100
AcDb3dPolyline
 66
         1
 10
0.0
 20
0.0
 30
0.0
 70
         8
  0
VERTEX
  5
182
100
AcDbEntity
  8
_Y__________
  6
CONTINUOUS
 62
         7
100
AcDbVertex
100
AcDb3dPolylineVertex
 10
1204.950346339
 20
126.9189496442
 30
0.0
 70
        32
  0
VERTEX
  5
184
100
AcDbEntity
  8
_Y__________
  6
CONTINUOUS
 62
         7
100
AcDbVertex
100
AcDb3dPolylineVertex
 10
1204.950346339
 20
126.9189496442
 30
0.0
 70
        32
  0
SEQEND
  5
186
100
AcDbEntity
  8
_Y__________
  6
CONTINUOUS
 62
         7
  0
ARC
  5
187
100
AcDbEntity
  8
_Y__________
  6
CONTINUOUS
 62
         7
100
AcDbCircle
 10
1206.0105744318
 20
125.1317101395
 30
0.0
 40
2.0780540551
100
AcDbArc
 50
96.8239621528
 51
120.6773100904
  0
POLYLINE
  5
189
100
AcDbEntity
  8
_Y__________
  6
CONTINUOUS
 62
         7
100
AcDb3dPolyline
 66
         1
 10
0.0
 20
0.0
 30
0.0
 70
         8
  0
VERTEX
  5
18B
100
AcDbEntity
  8
_Y__________
  6
CONTINUOUS
 62
         7
100
AcDbVertex
100
AcDb3dPolylineVertex
 10
1205.7636616399
 20
127.1950430571
 30
0.0
 70
        32
  0
VERTEX
  5
18D
100
AcDbEntity
  8
_Y__________
  6
CONTINUOUS
 62
         7
100
AcDbVertex
100
AcDb3dPolylineVertex
 10
1205.7636616399
 20
127.1950430571
 30
0.0
 70
        32
  0
SEQEND
  5
18F
100
AcDbEntity
  8
_Y__________
  6
CONTINUOUS
 62
         7
  0
ARC
  5
190
100
AcDbEntity
  8
_Y__________
  6
CONTINUOUS
 62
         7
100
AcDbCircle
 10
1205.9596641031
 20
125.5571435737
 30
0.0
 40
1.6495853065
100
AcDbArc
 50
70.0
 51
96.8239621528
  0
POLYLINE
  5
192
100
AcDbEntity
  8
_Y__________
  6
CONTINUOUS
 62
         7
100
AcDb3dPolyline
 66
         1
 10
0.0
 20
0.0
 30
0.0
 70
         8
  0
VERTEX
  5
194
100
AcDbEntity
  8
_Y__________
  6
CONTINUOUS
 62
         7
100
AcDbVertex
100
AcDb3dPolylineVertex
 10
1206.5238555061
 20
127.1072467136
 30
0.0
 70
        32
  0
VERTEX
  5
196
100
AcDbEntity
  8
_Y__________
  6
CONTINUOUS
 62
         7
100
AcDbVertex
100
AcDb3dPolylineVertex
 10
1206.5238555061
 20
127.1072467136
 30
0.0
 70
        32
  0
SEQEND
  5
198
100
AcDbEntity
  8
_Y__________
  6
CONTINUOUS
 62
         7
  0
ARC
  5
199
100
AcDbEntity
  8
_Y__________
  6
CONTINUOUS
 62
         7
100
AcDbCircle
 10
1205.9596641031
 20
125.5571435737
 30
0.0
 40
1.6495853065
100
AcDbArc
 50
43.1760378472
 51
70.0
  0
POLYLINE
  5
19B
100
AcDbEntity
  8
_Y__________
  6
CONTINUOUS
 62
         7
100
AcDb3dPolyline
 66
         1
 10
0.0
 20
0.0
 30
0.0
 70
         8
  0
VERTEX
  5
19D
100
AcDbEntity
  8
_Y__________
  6
CONTINUOUS
 62
         7
100
AcDbVertex
100
AcDb3dPolylineVertex
 10
1207.1626321948
 20
126.6858594165
 30
0.0
 70
        32
  0
VERTEX
  5
19F
100
AcDbEntity
  8
_Y__________
  6
CONTINUOUS
 62
         7
100
AcDbVertex
100
AcDb3dPolylineVertex
 10
1207.1626321948
 20
126.6858594165
 30
0.0
 70
        32
  0
SEQEND
  5
1A1
100
AcDbEntity
  8
_Y__________
  6
CONTINUOUS
 62
         7
  0
ARC
  5
1A2
100
AcDbEntity
  8
_Y__________
  6
CONTINUOUS
 62
         7
100
AcDbCircle
 10
1205.6472011885
 20
125.263967184
 30
0.0
 40
2.0780540551
100
AcDbArc
 50
19.3226899097
 51
43.1760378473
  0
POLYLINE
  5
1A4
100
AcDbEntity
  8
_Y__________
  6
CONTINUOUS
 62
         7
100
AcDb3dPolyline
 66
         1
 10
0.0
 20
0.0
 30
0.0
 70
         8
  0
VERTEX
  5
1A6
100
AcDbEntity
  8
_Y__________
  6
CONTINUOUS
 62
         7
100
AcDbVertex
100
AcDb3dPolylineVertex
 10
1207.6081984366
 20
125.9515705936
 30
0.0
 70
        32
  0
VERTEX
  5
1A8
100
AcDbEntity
  8
_Y__________
  6
CONTINUOUS
 62
         7
100
AcDbVertex
100
AcDb3dPolylineVertex
 10
1207.6081984366
 20
125.9515705936
 30
0.0
 70
        32
  0
SEQEND
  5
1AA
100
AcDbEntity
  8
_Y__________
  6
CONTINUOUS
 62
         7
  0
ARC
  5
1AB
100
AcDbEntity
  8
_Y__________
  6
CONTINUOUS
 62
         7
100
AcDbCircle
 10
1205.2777649205
 20
125.1344281764
 30
0.0
 40
2.4695428935
100
AcDbArc
 50
358.742274142
 51
379.3226899096
  0
POLYLINE
  5
1AD
100
AcDbEntity
  8
_Y__________
  6
CONTINUOUS
 62
         7
100
AcDb3dPolyline
 66
         1
 10
0.0
 20
0.0
 30
0.0
 70
         8
  0
VERTEX
  5
1AF
100
AcDbEntity
  8
_Y__________
  6
CONTINUOUS
 62
         7
100
AcDbVertex
100
AcDb3dPolylineVertex
 10
1207.7467128429
 20
125.0802224645
 30
0.0
 70
        32
  0
VERTEX
  5
1B1
100
AcDbEntity
  8
_Y__________
  6
CONTINUOUS
 62
         7
100
AcDbVertex
100
AcDb3dPolylineVertex
 10
1207.7467128429
 20
125.0802224645
 30
0.0
 70
        32
  0
SEQEND
  5
1B3
100
AcDbEntity
  8
_Y__________
  6
CONTINUOUS
 62
         7
  0
ARC
  5
1B4
100
AcDbEntity
  8
_Y__________
  6
CONTINUOUS
 62
         7
100
AcDbCircle
 10
1204.7752026945
 20
125.1454619219
 30
0.0
 40
2.9722262277
100
AcDbArc
 50
339.9999999999
 51
358.742274142
  0
POLYLINE
  5
1B6
100
AcDbEntity
  8
_Y__________
  6
CONTINUOUS
 62
         7
100
AcDb3dPolyline
 66
         1
 10
0.0
 20
0.0
 30
0.0
 70
         8
  0
VERTEX
  5
1B8
100
AcDbEntity
  8
_Y__________
  6
CONTINUOUS
 62
         7
100
AcDbVertex
100
AcDb3dPolylineVertex
 10
1207.568181748
 20
124.1289006815
 30
0.0
 70
        32
  0
VERTEX
  5
1BA
100
AcDbEntity
  8
_Y__________
  6
CONTINUOUS
 62
         7
100
AcDbVertex
100
AcDb3dPolylineVertex
 10
1207.568181748
 20
124.1289006815
 30
0.0
 70
        32
  0
SEQEND
  5
1BC
100
AcDbEntity
  8
_Y__________
  6
CONTINUOUS
 62
         7
  0
ARC
  5
1BD
100
AcDbEntity
  8
_Y__________
  6
CONTINUOUS
 62
         7
100
AcDbCircle
 10
1204.7752026945
 20
125.1454619219
 30
0.0
 40
2.9722262277
100
AcDbArc
 50
321.257725858
 51
340.0
  0
POLYLINE
  5
1BF
100
AcDbEntity
  8
_Y__________
  6
CONTINUOUS
 62
         7
100
AcDb3dPolyline
 66
         1
 10
0.0
 20
0.0
 30
0.0
 70
         8
  0
VERTEX
  5
1C1
100
AcDbEntity
  8
_Y__________
  6
CONTINUOUS
 62
         7
100
AcDbVertex
100
AcDb3dPolylineVertex
 10
1207.0934466463
 20
123.2853883403
 30
0.0
 70
        32
  0
VERTEX
  5
1C3
100
AcDbEntity
  8
_Y__________
  6
CONTINUOUS
 62
         7
100
AcDbVertex
100
AcDb3dPolylineVertex
 10
1207.0934466463
 20
123.2853883403
 30
0.0
 70
        32
  0
SEQEND
  5
1C5
100
AcDbEntity
  8
_Y__________
  6
CONTINUOUS
 62
         7
  0
ARC
  5
1C6
100
AcDbEntity
  8
_Y__________
  6
CONTINUOUS
 62
         7
100
AcDbCircle
 10
1205.16728005
 20
124.8308734895
 30
0.0
 40
2.4695428935
100
AcDbArc
 50
300.6773100904
 51
321.2577258581
  0
POLYLINE
  5
1C8
100
AcDbEntity
  8
_Y__________
  6
CONTINUOUS
 62
         7
100
AcDb3dPolyline
 66
         1
 10
0.0
 20
0.0
 30
0.0
 70
         8
  0
VERTEX
  5
1CA
100
AcDbEntity
  8
_Y__________
  6
CONTINUOUS
 62
         7
100
AcDbVertex
100
AcDb3dPolylineVertex
 10
1206.4272466739
 20
122.7069322922
 30
0.0
 70
        32
  0
VERTEX
  5
1CC
100
AcDbEntity
  8
_Y__________
  6
CONTINUOUS
 62
         7
100
AcDbVertex
100
AcDb3dPolylineVertex
 10
1206.4272466739
 20
122.7069322922
 30
0.0
 70
        32
  0
SEQEND
  5
1CE
100
AcDbEntity
  8
_Y__________
  6
CONTINUOUS
 62
         7
  0
ARC
  5
1CF
100
AcDbEntity
  8
_Y__________
  6
CONTINUOUS
 62
         7
100
AcDbCircle
 10
1205.3670185811
 20
124.4941717969
 30
0.0
 40
2.0780540551
100
AcDbArc
 50
276.8239621528
 51
300.6773100903
  0
POLYLINE
  5
1D1
100
AcDbEntity
  8
_Y__________
  6
CONTINUOUS
 62
         7
100
AcDb3dPolyline
 66
         1
 10
0.0
 20
0.0
 30
0.0
 70
         8
  0
VERTEX
  5
1D3
100
AcDbEntity
  8
_Y__________
  6
CONTINUOUS
 62
         7
100
AcDbVertex
100
AcDb3dPolylineVertex
 10
1205.6139313731
 20
122.4308388792
 30
0.0
 70
        32
  0
VERTEX
  5
1D5
100
AcDbEntity
  8
_Y__________
  6
CONTINUOUS
 62
         7
100
AcDbVertex
100
AcDb3dPolylineVertex
 10
1205.6139313731
 20
122.4308388792
 30
0.0
 70
        32
  0
SEQEND
  5
1D7
100
AcDbEntity
  8
_Y__________
  6
CONTINUOUS
 62
         7
  0
ARC
  5
1D8
100
AcDbEntity
  8
_Y__________
  6
CONTINUOUS
 62
         7
100
AcDbCircle
 10
1205.4179289098
 20
124.0687383626
 30
0.0
 40
1.6495853065
100
AcDbArc
 50
250.0
 51
276.8239621528
  0
POLYLINE
  5
1DA
100
AcDbEntity
  8
_Y__________
  6
CONTINUOUS
 62
         7
100
AcDb3dPolyline
 66
         1
 10
0.0
 20
0.0
 30
0.0
 70
         8
  0
VERTEX
  5
1DC
100
AcDbEntity
  8
_Y__________
  6
CONTINUOUS
 62
         7
100
AcDbVertex
100
AcDb3dPolylineVertex
 10
1204.8537375068
 20
122.5186352228
 30
0.0
 70
        32
  0
VERTEX
  5
1DE
100
AcDbEntity
  8
_Y__________
  6
CONTINUOUS
 62
         7
100
AcDbVertex
100
AcDb3dPolylineVertex
 10
1204.8537375068
 20
122.5186352228
 30
0.0
 70
        32
  0
SEQEND
  5
1E0
100
AcDbEntity
  8
_Y__________
  6
CONTINUOUS
 62
         7
  0
ARC
  5
1E1
100
AcDbEntity
  8
_Y__________
  6
CONTINUOUS
 62
         7
100
AcDbCircle
 10
1205.4179289098
 20
124.0687383626
 30
0.0
 40
1.6495853065
100
AcDbArc
 50
223.1760378472
 51
250.0
  0
POLYLINE
  5
1E3
100
AcDbEntity
  8
_Y__________
  6
CONTINUOUS
 62
         7
100
AcDb3dPolyline
 66
         1
 10
0.0
 20
0.0
 30
0.0
 70
         8
  0
VERTEX
  5
1E5
100
AcDbEntity
  8
_Y__________
  6
CONTINUOUS
 62
         7
100
AcDbVertex
100
AcDb3dPolylineVertex
 10
1204.2149608181
 20
122.9400225198
 30
0.0
 70
        32
  0
VERTEX
  5
1E7
100
AcDbEntity
  8
_Y__________
  6
CONTINUOUS
 62
         7
100
AcDbVertex
100
AcDb3dPolylineVertex
 10
1204.2149608181
 20
122.9400225198
 30
0.0
 70
        32
  0
SEQEND
  5
1E9
100
AcDbEntity
  8
_Y__________
  6
CONTINUOUS
 62
         7
  0
ARC
  5
1EA
100
AcDbEntity
  8
_Y__________
  6
CONTINUOUS
 62
         7
100
AcDbCircle
 10
1205.7303918245
 20
124.3619147524
 30
0.0
 40
2.0780540551
100
AcDbArc
 50
199.3226899096
 51
223.1760378473
  0
ARC
  5
1EB
100
AcDbEntity
  8
_Y__________
  6
CONTINUOUS
 62
         7
100
AcDbCircle
 10
1206.0998280924
 20
124.49145376
 30
0.0
 40
2.4695428935
100
AcDbArc
 50
178.742274142
 51
199.3226899096
  0
ARC
  5
1EC
100
AcDbEntity
  8
_Y__________
  6
CONTINUOUS
 62
         7
100
AcDbCircle
 10
1206.6023903184
 20
124.4804200144
 30
0.0
 40
2.9722262277
100
AcDbArc
 50
160.0
 51
178.742274142
  0
POLYLINE
  5
1EE
100
AcDbEntity
  8
_Y__________
  6
CONTINUOUS
 62
         7
100
AcDb3dPolyline
 66
         1
 10
0.0
 20
0.0
 30
0.0
 70
         8
  0
VERTEX
  5
1F0
100
AcDbEntity
  8
_Y__________
  6
CONTINUOUS
 62
         7
100
AcDbVertex
100
AcDb3dPolylineVertex
 10
1222.2784990045
 20
176.2403827773
 30
0.0
 70
        32
  0
VERTEX
  5
1F2
100
AcDbEntity
  8
_Y__________
  6
CONTINUOUS
 62
         7
100
AcDbVertex
100
AcDb3dPolylineVertex
 10
1222.2784990045
 20
176.2403827773
 30
0.0
 70
        32
  0
SEQEND
  5
1F4
100
AcDbEntity
  8
_Y__________
  6
CONTINUOUS
 62
         7
  0
ARC
  5
1F5
100
AcDbEntity
  8
_Y__________
  6
CONTINUOUS
 62
         7
100
AcDbCircle
 10
1225.071478058
 20
175.2238215369
 30
0.0
 40
2.9722262277
100
AcDbArc
 50
160.0
 51
178.7422741421
  0
POLYLINE
  5
1F7
100
AcDbEntity
  8
_Y__________
  6
CONTINUOUS
 62
         7
100
AcDb3dPolyline
 66
         1
 10
0.0
 20
0.0
 30
0.0
 70
         8
  0
VERTEX
  5
1F9
100
AcDbEntity
  8
_Y__________
  6
CONTINUOUS
 62
         7
100
AcDbVertex
100
AcDb3dPolylineVertex
 10
1222.0999679096
 20
175.2890609943
 30
0.0
 70
        32
  0
VERTEX
  5
1FB
100
AcDbEntity
  8
_Y__________
  6
CONTINUOUS
 62
         7
100
AcDbVertex
100
AcDb3dPolylineVertex
 10
1222.0999679096
 20
175.2890609943
 30
0.0
 70
        32
  0
SEQEND
  5
1FD
100
AcDbEntity
  8
_Y__________
  6
CONTINUOUS
 62
         7
  0
ARC
  5
1FE
100
AcDbEntity
  8
_Y__________
  6
CONTINUOUS
 62
         7
100
AcDbCircle
 10
1224.568915832
 20
175.2348552824
 30
0.0
 40
2.4695428935
100
AcDbArc
 50
178.7422741421
 51
199.3226899097
  0
POLYLINE
  5
200
100
AcDbEntity
  8
_Y__________
  6
CONTINUOUS
 62
         7
100
AcDb3dPolyline
 66
         1
 10
0.0
 20
0.0
 30
0.0
 70
         8
  0
VERTEX
  5
202
100
AcDbEntity
  8
_Y__________
  6
CONTINUOUS
 62
         7
100
AcDbVertex
100
AcDb3dPolylineVertex
 10
1222.2384823159
 20
174.4177128652
 30
0.0
 70
        32
  0
VERTEX
  5
204
100
AcDbEntity
  8
_Y__________
  6
CONTINUOUS
 62
         7
100
AcDbVertex
100
AcDb3dPolylineVertex
 10
1222.2384823159
 20
174.4177128652
 30
0.0
 70
        32
  0
SEQEND
  5
206
100
AcDbEntity
  8
_Y__________
  6
CONTINUOUS
 62
         7
  0
ARC
  5
207
100
AcDbEntity
  8
_Y__________
  6
CONTINUOUS
 62
         7
100
AcDbCircle
 10
1224.199479564
 20
175.1053162748
 30
0.0
 40
2.0780540551
100
AcDbArc
 50
199.3226899097
 51
223.1760378473
  0
POLYLINE
  5
209
100
AcDbEntity
  8
_Y__________
  6
CONTINUOUS
 62
         7
100
AcDb3dPolyline
 66
         1
 10
0.0
 20
0.0
 30
0.0
 70
         8
  0
VERTEX
  5
20B
100
AcDbEntity
  8
_Y__________
  6
CONTINUOUS
 62
         7
100
AcDbVertex
100
AcDb3dPolylineVertex
 10
1222.6840485577
 20
173.6834240423
 30
0.0
 70
        32
  0
VERTEX
  5
20D
100
AcDbEntity
  8
_Y__________
  6
CONTINUOUS
 62
         7
100
AcDbVertex
100
AcDb3dPolylineVertex
 10
1222.6840485577
 20
173.6834240423
 30
0.0
 70
        32
  0
SEQEND
  5
20F
100
AcDbEntity
  8
_Y__________
  6
CONTINUOUS
 62
         7
  0
ARC
  5
210
100
AcDbEntity
  8
_Y__________
  6
CONTINUOUS
 62
         7
100
AcDbCircle
 10
1223.8870166494
 20
174.8121398851
 30
0.0
 40
1.6495853065
100
AcDbArc
 50
223.1760378472
 51
249.9999999999
  0
POLYLINE
  5
212
100
AcDbEntity
  8
_Y__________
  6
CONTINUOUS
 62
         7
100
AcDb3dPolyline
 66
         1
 10
0.0
 20
0.0
 30
0.0
 70
         8
  0
VERTEX
  5
214
100
AcDbEntity
  8
_Y__________
  6
CONTINUOUS
 62
         7
100
AcDbVertex
100
AcDb3dPolylineVertex
 10
1223.3228252464
 20
173.2620367452
 30
0.0
 70
        32
  0
VERTEX
  5
216
100
AcDbEntity
  8
_Y__________
  6
CONTINUOUS
 62
         7
100
AcDbVertex
100
AcDb3dPolylineVertex
 10
1223.3228252464
 20
173.2620367452
 30
0.0
 70
        32
  0
SEQEND
  5
218
100
AcDbEntity
  8
_Y__________
  6
CONTINUOUS
 62
         7
  0
ARC
  5
219
100
AcDbEntity
  8
_Y__________
  6
CONTINUOUS
 62
         7
100
AcDbCircle
 10
1223.8870166494
 20
174.8121398851
 30
0.0
 40
1.6495853065
100
AcDbArc
 50
250.0
 51
276.8239621528
  0
POLYLINE
  5
21B
100
AcDbEntity
  8
_Y__________
  6
CONTINUOUS
 62
         7
100
AcDb3dPolyline
 66
         1
 10
0.0
 20
0.0
 30
0.0
 70
         8
  0
VERTEX
  5
21D
100
AcDbEntity
  8
_Y__________
  6
CONTINUOUS
 62
         7
100
AcDbVertex
100
AcDb3dPolylineVertex
 10
1224.0830191126
 20
173.1742404017
 30
0.0
 70
        32
  0
VERTEX
  5
21F
100
AcDbEntity
  8
_Y__________
  6
CONTINUOUS
 62
         7
100
AcDbVertex
100
AcDb3dPolylineVertex
 10
1224.0830191126
 20
173.1742404017
 30
0.0
 70
        32
  0
SEQEND
  5
221
100
AcDbEntity
  8
_Y__________
  6
CONTINUOUS
 62
         7
  0
ARC
  5
222
100
AcDbEntity
  8
_Y__________
  6
CONTINUOUS
 62
         7
100
AcDbCircle
 10
1223.8361063207
 20
175.2375733193
 30
0.0
 40
2.0780540551
100
AcDbArc
 50
276.8239621528
 51
300.6773100904
  0
POLYLINE
  5
224
100
AcDbEntity
  8
_Y__________
  6
CONTINUOUS
 62
         7
100
AcDb3dPolyline
 66
         1
 10
0.0
 20
0.0
 30
0.0
 70
         8
  0
VERTEX
  5
226
100
AcDbEntity
  8
_Y__________
  6
CONTINUOUS
 62
         7
100
AcDbVertex
100
AcDb3dPolylineVertex
 10
1224.8963344135
 20
173.4503338146
 30
0.0
 70
        32
  0
VERTEX
  5
228
100
AcDbEntity
  8
_Y__________
  6
CONTINUOUS
 62
         7
100
AcDbVertex
100
AcDb3dPolylineVertex
 10
1224.8963344135
 20
173.4503338146
 30
0.0
 70
        32
  0
SEQEND
  5
22A
100
AcDbEntity
  8
_Y__________
  6
CONTINUOUS
 62
         7
  0
ARC
  5
22B
100
AcDbEntity
  8
_Y__________
  6
CONTINUOUS
 62
         7
100
AcDbCircle
 10
1223.6363677896
 20
175.5742750119
 30
0.0
 40
2.4695428935
100
AcDbArc
 50
300.6773100903
 51
321.257725858
  0
POLYLINE
  5
22D
100
AcDbEntity
  8
_Y__________
  6
CONTINUOUS
 62
         7
100
AcDb3dPolyline
 66
         1
 10
0.0
 20
0.0
 30
0.0
 70
         8
  0
VERTEX
  5
22F
100
AcDbEntity
  8
_Y__________
  6
CONTINUOUS
 62
         7
100
AcDbVertex
100
AcDb3dPolylineVertex
 10
1225.5625343858
 20
174.0287898627
 30
0.0
 70
        32
  0
VERTEX
  5
231
100
AcDbEntity
  8
_Y__________
  6
CONTINUOUS
 62
         7
100
AcDbVertex
100
AcDb3dPolylineVertex
 10
1225.5625343858
 20
174.0287898627
 30
0.0
 70
        32
  0
SEQEND
  5
233
100
AcDbEntity
  8
_Y__________
  6
CONTINUOUS
 62
         7
  0
ARC
  5
234
100
AcDbEntity
  8
_Y__________
  6
CONTINUOUS
 62
         7
100
AcDbCircle
 10
1223.2442904341
 20
175.8888634444
 30
0.0
 40
2.9722262277
100
AcDbArc
 50
321.257725858
 51
340.0
  0
POLYLINE
  5
236
100
AcDbEntity
  8
_Y__________
  6
CONTINUOUS
 62
         7
100
AcDb3dPolyline
 66
         1
 10
0.0
 20
0.0
 30
0.0
 70
         8
  0
VERTEX
  5
238
100
AcDbEntity
  8
_Y__________
  6
CONTINUOUS
 62
         7
100
AcDbVertex
100
AcDb3dPolylineVertex
 10
1226.0372694876
 20
174.872302204
 30
0.0
 70
        32
  0
VERTEX
  5
23A
100
AcDbEntity
  8
_Y__________
  6
CONTINUOUS
 62
         7
100
AcDbVertex
100
AcDb3dPolylineVertex
 10
1226.0372694876
 20
174.872302204
 30
0.0
 70
        32
  0
SEQEND
  5
23C
100
AcDbEntity
  8
_Y__________
  6
CONTINUOUS
 62
         7
  0
ARC
  5
23D
100
AcDbEntity
  8
_Y__________
  6
CONTINUOUS
 62
         7
100
AcDbCircle
 10
1223.2442904341
 20
175.8888634444
 30
0.0
 40
2.9722262277
100
AcDbArc
 50
339.9999999999
 51
358.742274142
  0
POLYLINE
  5
23F
100
AcDbEntity
  8
_Y__________
  6
CONTINUOUS
 62
         7
100
AcDb3dPolyline
 66
         1
 10
0.0
 20
0.0
 30
0.0
 70
         8
  0
VERTEX
  5
241
100
AcDbEntity
  8
_Y__________
  6
CONTINUOUS
 62
         7
100
AcDbVertex
100
AcDb3dPolylineVertex
 10
1226.2158005825
 20
175.823623987
 30
0.0
 70
        32
  0
VERTEX
  5
243
100
AcDbEntity
  8
_Y__________
  6
CONTINUOUS
 62
         7
100
AcDbVertex
100
AcDb3dPolylineVertex
 10
1226.2158005825
 20
175.823623987
 30
0.0
 70
        32
  0
SEQEND
  5
245
100
AcDbEntity
  8
_Y__________
  6
CONTINUOUS
 62
         7
  0
ARC
  5
246
100
AcDbEntity
  8
_Y__________
  6
CONTINUOUS
 62
         7
100
AcDbCircle
 10
1223.7468526601
 20
175.8778296988
 30
0.0
 40
2.4695428935
100
AcDbArc
 50
358.742274142
 51
379.3226899097
  0
POLYLINE
  5
248
100
AcDbEntity
  8
_Y__________
  6
CONTINUOUS
 62
         7
100
AcDb3dPolyline
 66
         1
 10
0.0
 20
0.0
 30
0.0
 70
         8
  0
VERTEX
  5
24A
100
AcDbEntity
  8
_Y__________
  6
CONTINUOUS
 62
         7
100
AcDbVertex
100
AcDb3dPolylineVertex
 10
1226.0772861762
 20
176.694972116
 30
0.0
 70
        32
  0
VERTEX
  5
24C
100
AcDbEntity
  8
_Y__________
  6
CONTINUOUS
 62
         7
100
AcDbVertex
100
AcDb3dPolylineVertex
 10
1226.0772861762
 20
176.694972116
 30
0.0
 70
        32
  0
SEQEND
  5
24E
100
AcDbEntity
  8
_Y__________
  6
CONTINUOUS
 62
         7
  0
ARC
  5
24F
100
AcDbEntity
  8
_Y__________
  6
CONTINUOUS
 62
         7
100
AcDbCircle
 10
1224.1162889281
 20
176.0073687064
 30
0.0
 40
2.0780540551
100
AcDbArc
 50
19.3226899096
 51
43.1760378472
  0
POLYLINE
  5
251
100
AcDbEntity
  8
_Y__________
  6
CONTINUOUS
 62
         7
100
AcDb3dPolyline
 66
         1
 10
0.0
 20
0.0
 30
0.0
 70
         8
  0
VERTEX
  5
253
100
AcDbEntity
  8
_Y__________
  6
CONTINUOUS
 62
         7
100
AcDbVertex
100
AcDb3dPolylineVertex
 10
1225.6317199344
 20
177.429260939
 30
0.0
 70
        32
  0
VERTEX
  5
255
100
AcDbEntity
  8
_Y__________
  6
CONTINUOUS
 62
         7
100
AcDbVertex
100
AcDb3dPolylineVertex
 10
1225.6317199344
 20
177.429260939
 30
0.0
 70
        32
  0
SEQEND
  5
257
100
AcDbEntity
  8
_Y__________
  6
CONTINUOUS
 62
         7
  0
ARC
  5
258
100
AcDbEntity
  8
_Y__________
  6
CONTINUOUS
 62
         7
100
AcDbCircle
 10
1224.4287518427
 20
176.3005450962
 30
0.0
 40
1.6495853065
100
AcDbArc
 50
43.1760378472
 51
70.0
  0
POLYLINE
  5
25A
100
AcDbEntity
  8
_Y__________
  6
CONTINUOUS
 62
         7
100
AcDb3dPolyline
 66
         1
 10
0.0
 20
0.0
 30
0.0
 70
         8
  0
VERTEX
  5
25C
100
AcDbEntity
  8
_Y__________
  6
CONTINUOUS
 62
         7
100
AcDbVertex
100
AcDb3dPolylineVertex
 10
1224.9929432457
 20
177.850648236
 30
0.0
 70
        32
  0
VERTEX
  5
25E
100
AcDbEntity
  8
_Y__________
  6
CONTINUOUS
 62
         7
100
AcDbVertex
100
AcDb3dPolylineVertex
 10
1224.9929432457
 20
177.850648236
 30
0.0
 70
        32
  0
SEQEND
  5
260
100
AcDbEntity
  8
_Y__________
  6
CONTINUOUS
 62
         7
  0
ARC
  5
261
100
AcDbEntity
  8
_Y__________
  6
CONTINUOUS
 62
         7
100
AcDbCircle
 10
1224.4287518427
 20
176.3005450962
 30
0.0
 40
1.6495853065
100
AcDbArc
 50
70.0000000001
 51
96.8239621529
  0
POLYLINE
  5
263
100
AcDbEntity
  8
_Y__________
  6
CONTINUOUS
 62
         7
100
AcDb3dPolyline
 66
         1
 10
0.0
 20
0.0
 30
0.0
 70
         8
  0
VERTEX
  5
265
100
AcDbEntity
  8
_Y__________
  6
CONTINUOUS
 62
         7
100
AcDbVertex
100
AcDb3dPolylineVertex
 10
1224.2327493795
 20
177.9384445796
 30
0.0
 70
        32
  0
VERTEX
  5
267
100
AcDbEntity
  8
_Y__________
  6
CONTINUOUS
 62
         7
100
AcDbVertex
100
AcDb3dPolylineVertex
 10
1224.2327493795
 20
177.9384445796
 30
0.0
 70
        32
  0
SEQEND
  5
269
100
AcDbEntity
  8
_Y__________
  6
CONTINUOUS
 62
         7
  0
ARC
  5
26A
100
AcDbEntity
  8
_Y__________
  6
CONTINUOUS
 62
         7
100
AcDbCircle
 10
1224.4796621714
 20
175.8751116619
 30
0.0
 40
2.0780540551
100
AcDbArc
 50
96.8239621528
 51
120.6773100904
  0
POLYLINE
  5
26C
100
AcDbEntity
  8
_Y__________
  6
CONTINUOUS
 62
         7
100
AcDb3dPolyline
 66
         1
 10
0.0
 20
0.0
 30
0.0
 70
         8
  0
VERTEX
  5
26E
100
AcDbEntity
  8
_Y__________
  6
CONTINUOUS
 62
         7
100
AcDbVertex
100
AcDb3dPolylineVertex
 10
1223.4194340786
 20
177.6623511666
 30
0.0
 70
        32
  0
VERTEX
  5
270
100
AcDbEntity
  8
_Y__________
  6
CONTINUOUS
 62
         7
100
AcDbVertex
100
AcDb3dPolylineVertex
 10
1223.4194340786
 20
177.6623511666
 30
0.0
 70
        32
  0
SEQEND
  5
272
100
AcDbEntity
  8
_Y__________
  6
CONTINUOUS
 62
         7
  0
ARC
  5
273
100
AcDbEntity
  8
_Y__________
  6
CONTINUOUS
 62
         7
100
AcDbCircle
 10
1224.6794007025
 20
175.5384099693
 30
0.0
 40
2.4695428935
100
AcDbArc
 50
120.6773100903
 51
141.257725858
  0
ARC
  5
274
100
AcDbEntity
  8
_Y__________
  6
CONTINUOUS
 62
         7
100
AcDbCircle
 10
1225.071478058
 20
175.2238215369
 30
0.0
 40
2.9722262277
100
AcDbArc
 50
141.257725858
 51
160.0
  0
LINE
  5
275
100
AcDbEntity
  8
_Y__________
  6
CENTER
 62
         1
100
AcDbLine
 10
1226.9769621084
 20
174.5302820606
 30
0.0
 11
1221.3388063837
 21
176.5824029206
 31
0.0
  0
LINE
  5
276
100
AcDbEntity
  8
_Y__________
  6
CENTER
 62
         1
100
AcDbLine
 10
1227.1031401709
 20
183.6483666388
 30
0.0
 11
1202.8730445027
 21
117.0767259189
 31
0.0
  0
LINE
  5
277
100
AcDbEntity
  8
_Y__________
  6
CENTER
 62
         1
100
AcDbLine
 10
1611.3895898921
 20
182.8624526172
 30
0.0
 11
1634.884398311
 21
118.3109970118
 31
0.0
  0
LINE
  5
278
100
AcDbEntity
  8
_Y__________
  6
DASHED
 62
         2
100
AcDbLine
 10
1629.5624348063
 20
127.085362768
 30
0.0
 11
1630.9989194082
 21
123.1386537607
 31
0.0
  0
LINE
  5
279
100
AcDbEntity
  8
_Y__________
  6
DASHED
 62
         2
100
AcDbLine
 10
1633.3212052894
 20
128.4534433413
 30
0.0
 11
1629.5624348063
 21
127.085362768
 31
0.0
  0
LINE
  5
27A
100
AcDbEntity
  8
_Y__________
  6
DASHED
 62
         2
100
AcDbLine
 10
1633.3212052894
 20
128.4534433413
 30
0.0
 11
1634.7576898914
 21
124.506734334
 31
0.0
  0
LINE
  5
27B
100
AcDbEntity
  8
_Y__________
  6
DASHED
 62
         2
100
AcDbLine
 10
1626.3618215883
 20
146.5508613732
 30
0.0
 11
1632.9923128721
 21
128.3337362912
 31
0.0
  0
LINE
  5
27C
100
AcDbEntity
  8
_Y__________
  6
DASHED
 62
         2
100
AcDbLine
 10
1623.2608359398
 20
145.4221949003
 30
0.0
 11
1629.8913272235
 21
127.2050698182
 31
0.0
  0
LINE
  5
27D
100
AcDbEntity
  8
_Y__________
  6
DASHED
 62
         2
100
AcDbLine
 10
1616.675353529
 20
173.1642136406
 30
0.0
 11
1623.3058448128
 21
154.9470885585
 31
0.0
  0
LINE
  5
27E
100
AcDbEntity
  8
_Y__________
  6
DASHED
 62
         2
100
AcDbLine
 10
1613.5743678804
 20
172.0355471676
 30
0.0
 11
1620.2048591642
 21
153.8184220856
 31
0.0
  0
LINE
  5
27F
100
AcDbEntity
  8
_Y__________
  6
DASHED
 62
         2
100
AcDbLine
 10
1617.0042459463
 20
173.2839206908
 30
0.0
 11
1615.5677613443
 21
177.2306296981
 31
0.0
  0
LINE
  5
280
100
AcDbEntity
  8
_Y__________
  6
DASHED
 62
         2
100
AcDbLine
 10
1613.2454754631
 20
171.9158401175
 30
0.0
 11
1611.8089908611
 21
175.8625491248
 31
0.0
  0
LINE
  5
281
100
AcDbEntity
  8
_Y__________
  6
DASHED
 62
         2
100
AcDbLine
 10
1617.0042459463
 20
173.2839206908
 30
0.0
 11
1613.2454754631
 21
171.9158401175
 31
0.0
  0
ARC
  5
282
100
AcDbEntity
  8
_Y__________
  6
CONTINUOUS
 62
         7
100
AcDbCircle
 10
1632.559479564
 20
125.263967184
 30
0.0
 40
2.0780540551
100
AcDbArc
 50
136.8239621527
 51
160.6773100903
  0
ARC
  5
283
100
AcDbEntity
  8
_Y__________
  6
CONTINUOUS
 62
         7
100
AcDbCircle
 10
1632.1961063207
 20
125.1317101395
 30
0.0
 40
2.0780540551
100
AcDbArc
 50
59.3226899096
 51
83.1760378472
  0
POLYLINE
  5
285
100
AcDbEntity
  8
_Y__________
  6
CONTINUOUS
 62
         7
100
AcDb3dPolyline
 66
         1
 10
0.0
 20
0.0
 30
0.0
 70
         8
  0
VERTEX
  5
287
100
AcDbEntity
  8
_Y__________
  6
CONTINUOUS
 62
         7
100
AcDbVertex
100
AcDb3dPolylineVertex
 10
1634.4372861762
 20
123.6743113428
 30
0.0
 70
        32
  0
VERTEX
  5
289
100
AcDbEntity
  8
_Y__________
  6
CONTINUOUS
 62
         7
100
AcDbVertex
100
AcDb3dPolylineVertex
 10
1634.4372861762
 20
123.6743113428
 30
0.0
 70
        32
  0
SEQEND
  5
28B
100
AcDbEntity
  8
_Y__________
  6
CONTINUOUS
 62
         7
  0
POLYLINE
  5
28D
100
AcDbEntity
  8
_Y__________
  6
CONTINUOUS
 62
         7
100
AcDb3dPolyline
 66
         1
 10
0.0
 20
0.0
 30
0.0
 70
         8
  0
VERTEX
  5
28F
100
AcDbEntity
  8
_Y__________
  6
CONTINUOUS
 62
         7
100
AcDbVertex
100
AcDb3dPolylineVertex
 10
1633.9917199344
 20
122.9400225198
 30
0.0
 70
        32
  0
VERTEX
  5
291
100
AcDbEntity
  8
_Y__________
  6
CONTINUOUS
 62
         7
100
AcDbVertex
100
AcDb3dPolylineVertex
 10
1633.9917199344
 20
122.9400225198
 30
0.0
 70
        32
  0
SEQEND
  5
293
100
AcDbEntity
  8
_Y__________
  6
CONTINUOUS
 62
         7
  0
POLYLINE
  5
295
100
AcDbEntity
  8
_Y__________
  6
CONTINUOUS
 62
         7
100
AcDb3dPolyline
 66
         1
 10
0.0
 20
0.0
 30
0.0
 70
         8
  0
VERTEX
  5
297
100
AcDbEntity
  8
_Y__________
  6
CONTINUOUS
 62
         7
100
AcDbVertex
100
AcDb3dPolylineVertex
 10
1633.3529432457
 20
122.5186352228
 30
0.0
 70
        32
  0
VERTEX
  5
299
100
AcDbEntity
  8
_Y__________
  6
CONTINUOUS
 62
         7
100
AcDbVertex
100
AcDb3dPolylineVertex
 10
1633.3529432457
 20
122.5186352228
 30
0.0
 70
        32
  0
SEQEND
  5
29B
100
AcDbEntity
  8
_Y__________
  6
CONTINUOUS
 62
         7
  0
POLYLINE
  5
29D
100
AcDbEntity
  8
_Y__________
  6
CONTINUOUS
 62
         7
100
AcDb3dPolyline
 66
         1
 10
0.0
 20
0.0
 30
0.0
 70
         8
  0
VERTEX
  5
29F
100
AcDbEntity
  8
_Y__________
  6
CONTINUOUS
 62
         7
100
AcDbVertex
100
AcDb3dPolylineVertex
 10
1632.5927493795
 20
122.4308388792
 30
0.0
 70
        32
  0
VERTEX
  5
2A1
100
AcDbEntity
  8
_Y__________
  6
CONTINUOUS
 62
         7
100
AcDbVertex
100
AcDb3dPolylineVertex
 10
1632.5927493795
 20
122.4308388792
 30
0.0
 70
        32
  0
SEQEND
  5
2A3
100
AcDbEntity
  8
_Y__________
  6
CONTINUOUS
 62
         7
  0
POLYLINE
  5
2A5
100
AcDbEntity
  8
_Y__________
  6
CONTINUOUS
 62
         7
100
AcDb3dPolyline
 66
         1
 10
0.0
 20
0.0
 30
0.0
 70
         8
  0
VERTEX
  5
2A7
100
AcDbEntity
  8
_Y__________
  6
CONTINUOUS
 62
         7
100
AcDbVertex
100
AcDb3dPolylineVertex
 10
1631.7794340786
 20
122.7069322922
 30
0.0
 70
        32
  0
VERTEX
  5
2A9
100
AcDbEntity
  8
_Y__________
  6
CONTINUOUS
 62
         7
100
AcDbVertex
100
AcDb3dPolylineVertex
 10
1631.7794340786
 20
122.7069322922
 30
0.0
 70
        32
  0
SEQEND
  5
2AB
100
AcDbEntity
  8
_Y__________
  6
CONTINUOUS
 62
         7
  0
POLYLINE
  5
2AD
100
AcDbEntity
  8
_Y__________
  6
CONTINUOUS
 62
         7
100
AcDb3dPolyline
 66
         1
 10
0.0
 20
0.0
 30
0.0
 70
         8
  0
VERTEX
  5
2AF
100
AcDbEntity
  8
_Y__________
  6
CONTINUOUS
 62
         7
100
AcDbVertex
100
AcDb3dPolylineVertex
 10
1631.1132341063
 20
123.2853883403
 30
0.0
 70
        32
  0
VERTEX
  5
2B1
100
AcDbEntity
  8
_Y__________
  6
CONTINUOUS
 62
         7
100
AcDbVertex
100
AcDb3dPolylineVertex
 10
1631.1132341063
 20
123.2853883403
 30
0.0
 70
        32
  0
SEQEND
  5
2B3
100
AcDbEntity
  8
_Y__________
  6
CONTINUOUS
 62
         7
  0
POLYLINE
  5
2B5
100
AcDbEntity
  8
_Y__________
  6
CONTINUOUS
 62
         7
100
AcDb3dPolyline
 66
         1
 10
0.0
 20
0.0
 30
0.0
 70
         8
  0
VERTEX
  5
2B7
100
AcDbEntity
  8
_Y__________
  6
CONTINUOUS
 62
         7
100
AcDbVertex
100
AcDb3dPolylineVertex
 10
1630.6384990045
 20
124.1289006815
 30
0.0
 70
        32
  0
VERTEX
  5
2B9
100
AcDbEntity
  8
_Y__________
  6
CONTINUOUS
 62
         7
100
AcDbVertex
100
AcDb3dPolylineVertex
 10
1630.6384990045
 20
124.1289006815
 30
0.0
 70
        32
  0
SEQEND
  5
2BB
100
AcDbEntity
  8
_Y__________
  6
CONTINUOUS
 62
         7
  0
POLYLINE
  5
2BD
100
AcDbEntity
  8
_Y__________
  6
CONTINUOUS
 62
         7
100
AcDb3dPolyline
 66
         1
 10
0.0
 20
0.0
 30
0.0
 70
         8
  0
VERTEX
  5
2BF
100
AcDbEntity
  8
_Y__________
  6
CONTINUOUS
 62
         7
100
AcDbVertex
100
AcDb3dPolylineVertex
 10
1630.4599679096
 20
125.0802224645
 30
0.0
 70
        32
  0
VERTEX
  5
2C1
100
AcDbEntity
  8
_Y__________
  6
CONTINUOUS
 62
         7
100
AcDbVertex
100
AcDb3dPolylineVertex
 10
1630.4599679096
 20
125.0802224645
 30
0.0
 70
        32
  0
SEQEND
  5
2C3
100
AcDbEntity
  8
_Y__________
  6
CONTINUOUS
 62
         7
  0
POLYLINE
  5
2C5
100
AcDbEntity
  8
_Y__________
  6
CONTINUOUS
 62
         7
100
AcDb3dPolyline
 66
         1
 10
0.0
 20
0.0
 30
0.0
 70
         8
  0
VERTEX
  5
2C7
100
AcDbEntity
  8
_Y__________
  6
CONTINUOUS
 62
         7
100
AcDbVertex
100
AcDb3dPolylineVertex
 10
1630.5984823159
 20
125.9515705936
 30
0.0
 70
        32
  0
VERTEX
  5
2C9
100
AcDbEntity
  8
_Y__________
  6
CONTINUOUS
 62
         7
100
AcDbVertex
100
AcDb3dPolylineVertex
 10
1630.5984823159
 20
125.9515705936
 30
0.0
 70
        32
  0
SEQEND
  5
2CB
100
AcDbEntity
  8
_Y__________
  6
CONTINUOUS
 62
         7
  0
POLYLINE
  5
2CD
100
AcDbEntity
  8
_Y__________
  6
CONTINUOUS
 62
         7
100
AcDb3dPolyline
 66
         1
 10
0.0
 20
0.0
 30
0.0
 70
         8
  0
VERTEX
  5
2CF
100
AcDbEntity
  8
_Y__________
  6
CONTINUOUS
 62
         7
100
AcDbVertex
100
AcDb3dPolylineVertex
 10
1631.0440485577
 20
126.6858594165
 30
0.0
 70
        32
  0
VERTEX
  5
2D1
100
AcDbEntity
  8
_Y__________
  6
CONTINUOUS
 62
         7
100
AcDbVertex
100
AcDb3dPolylineVertex
 10
1631.0440485577
 20
126.6858594165
 30
0.0
 70
        32
  0
SEQEND
  5
2D3
100
AcDbEntity
  8
_Y__________
  6
CONTINUOUS
 62
         7
  0
POLYLINE
  5
2D5
100
AcDbEntity
  8
_Y__________
  6
CONTINUOUS
 62
         7
100
AcDb3dPolyline
 66
         1
 10
0.0
 20
0.0
 30
0.0
 70
         8
  0
VERTEX
  5
2D7
100
AcDbEntity
  8
_Y__________
  6
CONTINUOUS
 62
         7
100
AcDbVertex
100
AcDb3dPolylineVertex
 10
1633.2563344135
 20
126.9189496442
 30
0.0
 70
        32
  0
VERTEX
  5
2D9
100
AcDbEntity
  8
_Y__________
  6
CONTINUOUS
 62
         7
100
AcDbVertex
100
AcDb3dPolylineVertex
 10
1633.2563344135
 20
126.9189496442
 30
0.0
 70
        32
  0
SEQEND
  5
2DB
100
AcDbEntity
  8
_Y__________
  6
CONTINUOUS
 62
         7
  0
POLYLINE
  5
2DD
100
AcDbEntity
  8
_Y__________
  6
CONTINUOUS
 62
         7
100
AcDb3dPolyline
 66
         1
 10
0.0
 20
0.0
 30
0.0
 70
         8
  0
VERTEX
  5
2DF
100
AcDbEntity
  8
_Y__________
  6
CONTINUOUS
 62
         7
100
AcDbVertex
100
AcDb3dPolylineVertex
 10
1633.9225343858
 20
126.340493596
 30
0.0
 70
        32
  0
VERTEX
  5
2E1
100
AcDbEntity
  8
_Y__________
  6
CONTINUOUS
 62
         7
100
AcDbVertex
100
AcDb3dPolylineVertex
 10
1633.9225343858
 20
126.340493596
 30
0.0
 70
        32
  0
SEQEND
  5
2E3
100
AcDbEntity
  8
_Y__________
  6
CONTINUOUS
 62
         7
  0
POLYLINE
  5
2E5
100
AcDbEntity
  8
_Y__________
  6
CONTINUOUS
 62
         7
100
AcDb3dPolyline
 66
         1
 10
0.0
 20
0.0
 30
0.0
 70
         8
  0
VERTEX
  5
2E7
100
AcDbEntity
  8
_Y__________
  6
CONTINUOUS
 62
         7
100
AcDbVertex
100
AcDb3dPolylineVertex
 10
1634.3972694876
 20
125.4969812548
 30
0.0
 70
        32
  0
VERTEX
  5
2E9
100
AcDbEntity
  8
_Y__________
  6
CONTINUOUS
 62
         7
100
AcDbVertex
100
AcDb3dPolylineVertex
 10
1634.3972694876
 20
125.4969812548
 30
0.0
 70
        32
  0
SEQEND
  5
2EB
100
AcDbEntity
  8
_Y__________
  6
CONTINUOUS
 62
         7
  0
ARC
  5
2EC
100
AcDbEntity
  8
_Y__________
  6
CONTINUOUS
 62
         7
100
AcDbCircle
 10
1631.6042904341
 20
124.4804200144
 30
0.0
 40
2.9722262277
100
AcDbArc
 50
1.257725858
 51
20.0
  0
ARC
  5
2ED
100
AcDbEntity
  8
_Y__________
  6
CONTINUOUS
 62
         7
100
AcDbCircle
 10
1632.1068526601
 20
124.49145376
 30
0.0
 40
2.4695428935
100
AcDbArc
 50
340.6773100904
 51
361.257725858
  0
ARC
  5
2EE
100
AcDbEntity
  8
_Y__________
  6
CONTINUOUS
 62
         7
100
AcDbCircle
 10
1632.4762889281
 20
124.3619147524
 30
0.0
 40
2.0780540551
100
AcDbArc
 50
316.8239621527
 51
340.6773100903
  0
ARC
  5
2EF
100
AcDbEntity
  8
_Y__________
  6
CONTINUOUS
 62
         7
100
AcDbCircle
 10
1632.7887518427
 20
124.0687383626
 30
0.0
 40
1.6495853065
100
AcDbArc
 50
290.0
 51
316.8239621528
  0
ARC
  5
2F0
100
AcDbEntity
  8
_Y__________
  6
CONTINUOUS
 62
         7
100
AcDbCircle
 10
1632.7887518427
 20
124.0687383626
 30
0.0
 40
1.6495853065
100
AcDbArc
 50
263.1760378472
 51
290.0
  0
ARC
  5
2F1
100
AcDbEntity
  8
_Y__________
  6
CONTINUOUS
 62
         7
100
AcDbCircle
 10
1632.8396621714
 20
124.4941717969
 30
0.0
 40
2.0780540551
100
AcDbArc
 50
239.3226899097
 51
263.1760378472
  0
ARC
  5
2F2
100
AcDbEntity
  8
_Y__________
  6
CONTINUOUS
 62
         7
100
AcDbCircle
 10
1633.0394007025
 20
124.8308734895
 30
0.0
 40
2.4695428935
100
AcDbArc
 50
218.7422741419
 51
239.3226899096
  0
ARC
  5
2F3
100
AcDbEntity
  8
_Y__________
  6
CONTINUOUS
 62
         7
100
AcDbCircle
 10
1633.431478058
 20
125.1454619219
 30
0.0
 40
2.9722262277
100
AcDbArc
 50
200.0
 51
218.742274142
  0
ARC
  5
2F4
100
AcDbEntity
  8
_Y__________
  6
CONTINUOUS
 62
         7
100
AcDbCircle
 10
1633.431478058
 20
125.1454619219
 30
0.0
 40
2.9722262277
100
AcDbArc
 50
181.257725858
 51
200.0000000001
  0
ARC
  5
2F5
100
AcDbEntity
  8
_Y__________
  6
CONTINUOUS
 62
         7
100
AcDbCircle
 10
1632.928915832
 20
125.1344281764
 30
0.0
 40
2.4695428935
100
AcDbArc
 50
160.6773100904
 51
181.257725858
  0
ARC
  5
2F6
100
AcDbEntity
  8
_Y__________
  6
CONTINUOUS
 62
         7
100
AcDbCircle
 10
1631.9963677896
 20
124.7950084469
 30
0.0
 40
2.4695428935
100
AcDbArc
 50
38.742274142
 51
59.3226899096
  0
ARC
  5
2F7
100
AcDbEntity
  8
_Y__________
  6
CONTINUOUS
 62
         7
100
AcDbCircle
 10
1631.6042904341
 20
124.4804200144
 30
0.0
 40
2.9722262277
100
AcDbArc
 50
20.0
 51
38.742274142
  0
LINE
  5
2F8
100
AcDbEntity
  8
_Y__________
  6
CENTER
 62
         1
100
AcDbLine
 10
1629.6988063837
 20
123.7868805382
 30
0.0
 11
1635.3369621084
 21
125.8390013981
 31
0.0
  0
ARC
  5
2F9
100
AcDbEntity
  8
_Y__________
  6
CONTINUOUS
 62
         7
100
AcDbCircle
 10
1632.2470166494
 20
125.5571435737
 30
0.0
 40
1.6495853065
100
AcDbArc
 50
110.0
 51
136.8239621528
  0
ARC
  5
2FA
100
AcDbEntity
  8
_Y__________
  6
CONTINUOUS
 62
         7
100
AcDbCircle
 10
1632.2470166494
 20
125.5571435737
 30
0.0
 40
1.6495853065
100
AcDbArc
 50
83.1760378472
 51
110.0
  0
POLYLINE
  5
2FC
100
AcDbEntity
  8
_Y__________
  6
CONTINUOUS
 62
         7
100
AcDb3dPolyline
 66
         1
 10
0.0
 20
0.0
 30
0.0
 70
         8
  0
VERTEX
  5
2FE
100
AcDbEntity
  8
_Y__________
  6
CONTINUOUS
 62
         7
100
AcDbVertex
100
AcDb3dPolylineVertex
 10
1614.7872466739
 20
177.6623511666
 30
0.0
 70
        32
  0
VERTEX
  5
300
100
AcDbEntity
  8
_Y__________
  6
CONTINUOUS
 62
         7
100
AcDbVertex
100
AcDb3dPolylineVertex
 10
1614.7872466739
 20
177.6623511666
 30
0.0
 70
        32
  0
SEQEND
  5
302
100
AcDbEntity
  8
_Y__________
  6
CONTINUOUS
 62
         7
  0
POLYLINE
  5
304
100
AcDbEntity
  8
_Y__________
  6
CONTINUOUS
 62
         7
100
AcDb3dPolyline
 66
         1
 10
0.0
 20
0.0
 30
0.0
 70
         8
  0
VERTEX
  5
306
100
AcDbEntity
  8
_Y__________
  6
CONTINUOUS
 62
         7
100
AcDbVertex
100
AcDb3dPolylineVertex
 10
1613.9739313731
 20
177.9384445796
 30
0.0
 70
        32
  0
VERTEX
  5
308
100
AcDbEntity
  8
_Y__________
  6
CONTINUOUS
 62
         7
100
AcDbVertex
100
AcDb3dPolylineVertex
 10
1613.9739313731
 20
177.9384445796
 30
0.0
 70
        32
  0
SEQEND
  5
30A
100
AcDbEntity
  8
_Y__________
  6
CONTINUOUS
 62
         7
  0
POLYLINE
  5
30C
100
AcDbEntity
  8
_Y__________
  6
CONTINUOUS
 62
         7
100
AcDb3dPolyline
 66
         1
 10
0.0
 20
0.0
 30
0.0
 70
         8
  0
VERTEX
  5
30E
100
AcDbEntity
  8
_Y__________
  6
CONTINUOUS
 62
         7
100
AcDbVertex
100
AcDb3dPolylineVertex
 10
1613.2137375068
 20
177.850648236
 30
0.0
 70
        32
  0
VERTEX
  5
310
100
AcDbEntity
  8
_Y__________
  6
CONTINUOUS
 62
         7
100
AcDbVertex
100
AcDb3dPolylineVertex
 10
1613.2137375068
 20
177.850648236
 30
0.0
 70
        32
  0
SEQEND
  5
312
100
AcDbEntity
  8
_Y__________
  6
CONTINUOUS
 62
         7
  0
POLYLINE
  5
314
100
AcDbEntity
  8
_Y__________
  6
CONTINUOUS
 62
         7
100
AcDb3dPolyline
 66
         1
 10
0.0
 20
0.0
 30
0.0
 70
         8
  0
VERTEX
  5
316
100
AcDbEntity
  8
_Y__________
  6
CONTINUOUS
 62
         7
100
AcDbVertex
100
AcDb3dPolylineVertex
 10
1612.5749608181
 20
177.429260939
 30
0.0
 70
        32
  0
VERTEX
  5
318
100
AcDbEntity
  8
_Y__________
  6
CONTINUOUS
 62
         7
100
AcDbVertex
100
AcDb3dPolylineVertex
 10
1612.5749608181
 20
177.429260939
 30
0.0
 70
        32
  0
SEQEND
  5
31A
100
AcDbEntity
  8
_Y__________
  6
CONTINUOUS
 62
         7
  0
POLYLINE
  5
31C
100
AcDbEntity
  8
_Y__________
  6
CONTINUOUS
 62
         7
100
AcDb3dPolyline
 66
         1
 10
0.0
 20
0.0
 30
0.0
 70
         8
  0
VERTEX
  5
31E
100
AcDbEntity
  8
_Y__________
  6
CONTINUOUS
 62
         7
100
AcDbVertex
100
AcDb3dPolylineVertex
 10
1612.1293945764
 20
176.694972116
 30
0.0
 70
        32
  0
VERTEX
  5
320
100
AcDbEntity
  8
_Y__________
  6
CONTINUOUS
 62
         7
100
AcDbVertex
100
AcDb3dPolylineVertex
 10
1612.1293945764
 20
176.694972116
 30
0.0
 70
        32
  0
SEQEND
  5
322
100
AcDbEntity
  8
_Y__________
  6
CONTINUOUS
 62
         7
  0
POLYLINE
  5
324
100
AcDbEntity
  8
_Y__________
  6
CONTINUOUS
 62
         7
100
AcDb3dPolyline
 66
         1
 10
0.0
 20
0.0
 30
0.0
 70
         8
  0
VERTEX
  5
326
100
AcDbEntity
  8
_Y__________
  6
CONTINUOUS
 62
         7
100
AcDbVertex
100
AcDb3dPolylineVertex
 10
1611.99088017
 20
175.823623987
 30
0.0
 70
        32
  0
VERTEX
  5
328
100
AcDbEntity
  8
_Y__________
  6
CONTINUOUS
 62
         7
100
AcDbVertex
100
AcDb3dPolylineVertex
 10
1611.99088017
 20
175.823623987
 30
0.0
 70
        32
  0
SEQEND
  5
32A
100
AcDbEntity
  8
_Y__________
  6
CONTINUOUS
 62
         7
  0
POLYLINE
  5
32C
100
AcDbEntity
  8
_Y__________
  6
CONTINUOUS
 62
         7
100
AcDb3dPolyline
 66
         1
 10
0.0
 20
0.0
 30
0.0
 70
         8
  0
VERTEX
  5
32E
100
AcDbEntity
  8
_Y__________
  6
CONTINUOUS
 62
         7
100
AcDbVertex
100
AcDb3dPolylineVertex
 10
1612.1694112649
 20
174.872302204
 30
0.0
 70
        32
  0
VERTEX
  5
330
100
AcDbEntity
  8
_Y__________
  6
CONTINUOUS
 62
         7
100
AcDbVertex
100
AcDb3dPolylineVertex
 10
1612.1694112649
 20
174.872302204
 30
0.0
 70
        32
  0
SEQEND
  5
332
100
AcDbEntity
  8
_Y__________
  6
CONTINUOUS
 62
         7
  0
POLYLINE
  5
334
100
AcDbEntity
  8
_Y__________
  6
CONTINUOUS
 62
         7
100
AcDb3dPolyline
 66
         1
 10
0.0
 20
0.0
 30
0.0
 70
         8
  0
VERTEX
  5
336
100
AcDbEntity
  8
_Y__________
  6
CONTINUOUS
 62
         7
100
AcDbVertex
100
AcDb3dPolylineVertex
 10
1612.6441463667
 20
174.0287898627
 30
0.0
 70
        32
  0
VERTEX
  5
338
100
AcDbEntity
  8
_Y__________
  6
CONTINUOUS
 62
         7
100
AcDbVertex
100
AcDb3dPolylineVertex
 10
1612.6441463667
 20
174.0287898627
 30
0.0
 70
        32
  0
SEQEND
  5
33A
100
AcDbEntity
  8
_Y__________
  6
CONTINUOUS
 62
         7
  0
POLYLINE
  5
33C
100
AcDbEntity
  8
_Y__________
  6
CONTINUOUS
 62
         7
100
AcDb3dPolyline
 66
         1
 10
0.0
 20
0.0
 30
0.0
 70
         8
  0
VERTEX
  5
33E
100
AcDbEntity
  8
_Y__________
  6
CONTINUOUS
 62
         7
100
AcDbVertex
100
AcDb3dPolylineVertex
 10
1613.310346339
 20
173.4503338146
 30
0.0
 70
        32
  0
VERTEX
  5
340
100
AcDbEntity
  8
_Y__________
  6
CONTINUOUS
 62
         7
100
AcDbVertex
100
AcDb3dPolylineVertex
 10
1613.310346339
 20
173.4503338146
 30
0.0
 70
        32
  0
SEQEND
  5
342
100
AcDbEntity
  8
_Y__________
  6
CONTINUOUS
 62
         7
  0
POLYLINE
  5
344
100
AcDbEntity
  8
_Y__________
  6
CONTINUOUS
 62
         7
100
AcDb3dPolyline
 66
         1
 10
0.0
 20
0.0
 30
0.0
 70
         8
  0
VERTEX
  5
346
100
AcDbEntity
  8
_Y__________
  6
CONTINUOUS
 62
         7
100
AcDbVertex
100
AcDb3dPolylineVertex
 10
1614.1236616399
 20
173.1742404017
 30
0.0
 70
        32
  0
VERTEX
  5
348
100
AcDbEntity
  8
_Y__________
  6
CONTINUOUS
 62
         7
100
AcDbVertex
100
AcDb3dPolylineVertex
 10
1614.1236616399
 20
173.1742404017
 30
0.0
 70
        32
  0
SEQEND
  5
34A
100
AcDbEntity
  8
_Y__________
  6
CONTINUOUS
 62
         7
  0
POLYLINE
  5
34C
100
AcDbEntity
  8
_Y__________
  6
CONTINUOUS
 62
         7
100
AcDb3dPolyline
 66
         1
 10
0.0
 20
0.0
 30
0.0
 70
         8
  0
VERTEX
  5
34E
100
AcDbEntity
  8
_Y__________
  6
CONTINUOUS
 62
         7
100
AcDbVertex
100
AcDb3dPolylineVertex
 10
1614.8838555061
 20
173.2620367452
 30
0.0
 70
        32
  0
VERTEX
  5
350
100
AcDbEntity
  8
_Y__________
  6
CONTINUOUS
 62
         7
100
AcDbVertex
100
AcDb3dPolylineVertex
 10
1614.8838555061
 20
173.2620367452
 30
0.0
 70
        32
  0
SEQEND
  5
352
100
AcDbEntity
  8
_Y__________
  6
CONTINUOUS
 62
         7
  0
POLYLINE
  5
354
100
AcDbEntity
  8
_Y__________
  6
CONTINUOUS
 62
         7
100
AcDb3dPolyline
 66
         1
 10
0.0
 20
0.0
 30
0.0
 70
         8
  0
VERTEX
  5
356
100
AcDbEntity
  8
_Y__________
  6
CONTINUOUS
 62
         7
100
AcDbVertex
100
AcDb3dPolylineVertex
 10
1615.5226321948
 20
173.6834240423
 30
0.0
 70
        32
  0
VERTEX
  5
358
100
AcDbEntity
  8
_Y__________
  6
CONTINUOUS
 62
         7
100
AcDbVertex
100
AcDb3dPolylineVertex
 10
1615.5226321948
 20
173.6834240423
 30
0.0
 70
        32
  0
SEQEND
  5
35A
100
AcDbEntity
  8
_Y__________
  6
CONTINUOUS
 62
         7
  0
POLYLINE
  5
35C
100
AcDbEntity
  8
_Y__________
  6
CONTINUOUS
 62
         7
100
AcDb3dPolyline
 66
         1
 10
0.0
 20
0.0
 30
0.0
 70
         8
  0
VERTEX
  5
35E
100
AcDbEntity
  8
_Y__________
  6
CONTINUOUS
 62
         7
100
AcDbVertex
100
AcDb3dPolylineVertex
 10
1615.9681984366
 20
174.4177128652
 30
0.0
 70
        32
  0
VERTEX
  5
360
100
AcDbEntity
  8
_Y__________
  6
CONTINUOUS
 62
         7
100
AcDbVertex
100
AcDb3dPolylineVertex
 10
1615.9681984366
 20
174.4177128652
 30
0.0
 70
        32
  0
SEQEND
  5
362
100
AcDbEntity
  8
_Y__________
  6
CONTINUOUS
 62
         7
  0
POLYLINE
  5
364
100
AcDbEntity
  8
_Y__________
  6
CONTINUOUS
 62
         7
100
AcDb3dPolyline
 66
         1
 10
0.0
 20
0.0
 30
0.0
 70
         8
  0
VERTEX
  5
366
100
AcDbEntity
  8
_Y__________
  6
CONTINUOUS
 62
         7
100
AcDbVertex
100
AcDb3dPolylineVertex
 10
1616.1067128429
 20
175.2890609943
 30
0.0
 70
        32
  0
VERTEX
  5
368
100
AcDbEntity
  8
_Y__________
  6
CONTINUOUS
 62
         7
100
AcDbVertex
100
AcDb3dPolylineVertex
 10
1616.1067128429
 20
175.2890609943
 30
0.0
 70
        32
  0
SEQEND
  5
36A
100
AcDbEntity
  8
_Y__________
  6
CONTINUOUS
 62
         7
  0
POLYLINE
  5
36C
100
AcDbEntity
  8
_Y__________
  6
CONTINUOUS
 62
         7
100
AcDb3dPolyline
 66
         1
 10
0.0
 20
0.0
 30
0.0
 70
         8
  0
VERTEX
  5
36E
100
AcDbEntity
  8
_Y__________
  6
CONTINUOUS
 62
         7
100
AcDbVertex
100
AcDb3dPolylineVertex
 10
1615.928181748
 20
176.2403827773
 30
0.0
 70
        32
  0
VERTEX
  5
370
100
AcDbEntity
  8
_Y__________
  6
CONTINUOUS
 62
         7
100
AcDbVertex
100
AcDb3dPolylineVertex
 10
1615.928181748
 20
176.2403827773
 30
0.0
 70
        32
  0
SEQEND
  5
372
100
AcDbEntity
  8
_Y__________
  6
CONTINUOUS
 62
         7
  0
LINE
  5
373
100
AcDbEntity
  8
_Y__________
  6
CENTER
 62
         1
100
AcDbLine
 10
1611.2297186441
 20
174.5302820606
 30
0.0
 11
1616.8678743688
 21
176.5824029206
 31
0.0
  0
ARC
  5
374
100
AcDbEntity
  8
_Y__________
  6
CONTINUOUS
 62
         7
100
AcDbCircle
 10
1613.1352026945
 20
175.2238215369
 30
0.0
 40
2.9722262277
100
AcDbArc
 50
20.0
 51
38.742274142
  0
ARC
  5
375
100
AcDbEntity
  8
_Y__________
  6
CONTINUOUS
 62
         7
100
AcDbCircle
 10
1613.52728005
 20
175.5384099693
 30
0.0
 40
2.4695428935
100
AcDbArc
 50
38.742274142
 51
59.3226899097
  0
ARC
  5
376
100
AcDbEntity
  8
_Y__________
  6
CONTINUOUS
 62
         7
100
AcDbCircle
 10
1613.7270185811
 20
175.8751116619
 30
0.0
 40
2.0780540551
100
AcDbArc
 50
59.3226899096
 51
83.1760378472
  0
ARC
  5
377
100
AcDbEntity
  8
_Y__________
  6
CONTINUOUS
 62
         7
100
AcDbCircle
 10
1613.7779289098
 20
176.3005450962
 30
0.0
 40
1.6495853065
100
AcDbArc
 50
83.1760378471
 51
109.9999999999
  0
ARC
  5
378
100
AcDbEntity
  8
_Y__________
  6
CONTINUOUS
 62
         7
100
AcDbCircle
 10
1613.7779289098
 20
176.3005450962
 30
0.0
 40
1.6495853065
100
AcDbArc
 50
110.0
 51
136.8239621528
  0
ARC
  5
379
100
AcDbEntity
  8
_Y__________
  6
CONTINUOUS
 62
         7
100
AcDbCircle
 10
1614.0903918245
 20
176.0073687064
 30
0.0
 40
2.0780540551
100
AcDbArc
 50
136.8239621528
 51
160.6773100904
  0
ARC
  5
37A
100
AcDbEntity
  8
_Y__________
  6
CONTINUOUS
 62
         7
100
AcDbCircle
 10
1614.4598280924
 20
175.8778296988
 30
0.0
 40
2.4695428935
100
AcDbArc
 50
160.6773100903
 51
181.257725858
  0
ARC
  5
37B
100
AcDbEntity
  8
_Y__________
  6
CONTINUOUS
 62
         7
100
AcDbCircle
 10
1614.9623903184
 20
175.8888634444
 30
0.0
 40
2.9722262277
100
AcDbArc
 50
181.257725858
 51
200.0000000001
  0
ARC
  5
37C
100
AcDbEntity
  8
_Y__________
  6
CONTINUOUS
 62
         7
100
AcDbCircle
 10
1614.9623903184
 20
175.8888634444
 30
0.0
 40
2.9722262277
100
AcDbArc
 50
200.0
 51
218.742274142
  0
ARC
  5
37D
100
AcDbEntity
  8
_Y__________
  6
CONTINUOUS
 62
         7
100
AcDbCircle
 10
1614.5703129629
 20
175.5742750119
 30
0.0
 40
2.4695428935
100
AcDbArc
 50
218.742274142
 51
239.3226899097
  0
ARC
  5
37E
100
AcDbEntity
  8
_Y__________
  6
CONTINUOUS
 62
         7
100
AcDbCircle
 10
1614.3705744318
 20
175.2375733193
 30
0.0
 40
2.0780540551
100
AcDbArc
 50
239.3226899096
 51
263.1760378472
  0
ARC
  5
37F
100
AcDbEntity
  8
_Y__________
  6
CONTINUOUS
 62
         7
100
AcDbCircle
 10
1614.3196641031
 20
174.8121398851
 30
0.0
 40
1.6495853065
100
AcDbArc
 50
263.1760378472
 51
290.0
  0
ARC
  5
380
100
AcDbEntity
  8
_Y__________
  6
CONTINUOUS
 62
         7
100
AcDbCircle
 10
1614.3196641031
 20
174.8121398851
 30
0.0
 40
1.6495853065
100
AcDbArc
 50
290.0000000001
 51
316.8239621528
  0
ARC
  5
381
100
AcDbEntity
  8
_Y__________
  6
CONTINUOUS
 62
         7
100
AcDbCircle
 10
1614.0072011885
 20
175.1053162748
 30
0.0
 40
2.0780540551
100
AcDbArc
 50
316.8239621527
 51
340.6773100903
  0
ARC
  5
382
100
AcDbEntity
  8
_Y__________
  6
CONTINUOUS
 62
         7
100
AcDbCircle
 10
1613.6377649205
 20
175.2348552824
 30
0.0
 40
2.4695428935
100
AcDbArc
 50
340.6773100903
 51
361.2577258579
  0
ARC
  5
383
100
AcDbEntity
  8
_Y__________
  6
CONTINUOUS
 62
         7
100
AcDbCircle
 10
1613.1352026945
 20
175.2238215369
 30
0.0
 40
2.9722262277
100
AcDbArc
 50
1.2577258579
 51
20.0
  0
LINE
  5
384
100
AcDbEntity
  8
_Y__________
  6
CENTER
 62
         1
100
AcDbLine
 10
1420.8853534246
 20
-40.8513157402
 30
0.0
 11
1379.8511302661
 21
-19.9433347407
 31
0.0
  0
LINE
  5
385
100
AcDbEntity
  8
_Y__________
  6
CONTINUOUS
 62
         7
100
AcDbLine
 10
1419.1033403763
 20
-37.6986822654
 30
0.0
 11
1415.7175155843
 21
-35.9735183664
 31
0.0
  0
LINE
  5
386
100
AcDbEntity
  8
_Y__________
  6
CONTINUOUS
 62
         7
100
AcDbLine
 10
1419.1033403763
 20
-42.1879872159
 30
0.0
 11
1413.9015535854
 21
-39.5375444632
 31
0.0
  0
LINE
  5
387
100
AcDbEntity
  8
_Y__________
  6
CONTINUOUS
 62
         7
100
AcDbLine
 10
1406.3511979746
 20
-35.2976319436
 30
0.0
 11
1376.2166929796
 21
-19.9433347407
 31
0.0
  0
LINE
  5
388
100
AcDbEntity
  8
_Y__________
  6
CONTINUOUS
 62
         7
100
AcDbLine
 10
1409.7659578698
 20
-33.3338624299
 30
0.0
 11
1383.4855675527
 21
-19.9433347407
 31
0.0
  0
LINE
  5
389
100
AcDbEntity
  8
_Y__________
  6
CONTINUOUS
 62
         4
100
AcDbLine
 10
1410.0345126352
 20
-37.1743745016
 30
0.0
 11
1413.0788387897
 21
-35.0427143795
 31
0.0
  0
LINE
  5
38A
100
AcDbEntity
  8
_Y__________
  6
CONTINUOUS
 62
         7
100
AcDbLine
 10
1413.0769291007
 20
-35.0208865346
 30
0.0
 11
1412.9127847976
 21
-33.144708565
 31
0.0
  0
LINE
  5
38B
100
AcDbEntity
  8
_Y__________
  6
CONTINUOUS
 62
         4
100
AcDbLine
 10
1412.9127847976
 20
-33.144708565
 30
0.0
 11
1411.1860365497
 21
-32.3395126333
 31
0.0
  0
LINE
  5
38C
100
AcDbEntity
  8
_Y__________
  6
CONTINUOUS
 62
         4
100
AcDbLine
 10
1413.0788387897
 20
-35.0427143795
 30
0.0
 11
1411.1860365497
 21
-32.3395126333
 31
0.0
  0
LINE
  5
38D
100
AcDbEntity
  8
_Y__________
  6
CONTINUOUS
 62
         4
100
AcDbLine
 10
1409.7659578698
 20
-33.3338624299
 30
0.0
 11
1411.1860365497
 21
-32.3395126333
 31
0.0
  0
LINE
  5
38E
100
AcDbEntity
  8
_Y__________
  6
CONTINUOUS
 62
         7
100
AcDbLine
 10
1415.7175155843
 20
-35.9735183664
 30
0.0
 11
1415.3785709096
 21
-36.1936316118
 31
0.0
  0
LINE
  5
38F
100
AcDbEntity
  8
_Y__________
  6
CONTINUOUS
 62
         7
100
AcDbLine
 10
1413.9015535854
 20
-39.5375444632
 30
0.0
 11
1413.8804022605
 21
-39.1339531417
 31
0.0
  0
LINE
  5
390
100
AcDbEntity
  8
_Y__________
  6
CONTINUOUS
 62
         7
100
AcDbLine
 10
1415.7175155843
 20
-35.9735183664
 30
0.0
 11
1413.9015535854
 21
-39.5375444632
 31
0.0
  0
LINE
  5
391
100
AcDbEntity
  8
_Y__________
  6
CONTINUOUS
 62
         7
100
AcDbLine
 10
1415.3785709096
 20
-36.1936316118
 30
0.0
 11
1413.8804022605
 21
-39.1339531417
 31
0.0
  0
LINE
  5
392
100
AcDbEntity
  8
_Y__________
  6
CONTINUOUS
 62
         7
100
AcDbLine
 10
1413.8804022605
 20
-39.1339531417
 30
0.0
 11
1410.0345126352
 21
-37.1743745016
 31
0.0
  0
LINE
  5
393
100
AcDbEntity
  8
_Y__________
  6
CONTINUOUS
 62
         7
100
AcDbLine
 10
1415.3785709096
 20
-36.1936316118
 30
0.0
 11
1413.0769291007
 21
-35.0208865346
 31
0.0
  0
LINE
  5
394
100
AcDbEntity
  8
_Y__________
  6
CONTINUOUS
 62
         7
100
AcDbLine
 10
1406.8895245756
 20
-34.9206915996
 30
0.0
 11
1409.183830321
 21
-38.1972997767
 31
0.0
  0
LINE
  5
395
100
AcDbEntity
  8
_Y__________
  6
CONTINUOUS
 62
         7
100
AcDbLine
 10
1405.2968943689
 20
-40.4916905248
 30
0.0
 11
1410.0345126352
 21
-37.1743745016
 31
0.0
  0
LINE
  5
396
100
AcDbEntity
  8
_Y__________
  6
CENTER
 62
         1
100
AcDbLine
 10
1402.4927097209
 20
-40.4409236824
 30
0.0
 11
1412.684046429
 21
-33.304872895
 31
0.0
  0
LINE
  5
397
100
AcDbEntity
  8
_Y__________
  6
CONTINUOUS
 62
         4
100
AcDbLine
 10
1403.2033403763
 20
-37.5017855631
 30
0.0
 11
1406.8895245756
 21
-34.9206915996
 31
0.0
  0
LINE
  5
398
100
AcDbEntity
  8
_Y__________
  6
CONTINUOUS
 62
         7
100
AcDbLine
 10
1403.404092129
 20
-37.7884887786
 30
0.0
 11
1409.7659578698
 21
-33.3338624299
 31
0.0
  0
LINE
  5
399
100
AcDbEntity
  8
_Y__________
  6
CONTINUOUS
 62
         7
100
AcDbLine
 10
1403.2033403763
 20
-37.5017855631
 30
0.0
 11
1405.5263249435
 21
-40.8193513425
 31
0.0
  0
LINE
  5
39A
100
AcDbEntity
  8
_Y__________
  6
CONTINUOUS
 62
         7
100
AcDbLine
 10
1403.2033403763
 20
-42.4459226476
 30
0.0
 11
1405.5263249435
 21
-40.8193513425
 31
0.0
  0
LINE
  5
39B
100
AcDbEntity
  8
_Y__________
  6
CONTINUOUS
 62
         4
100
AcDbLine
 10
1405.4976461217
 20
-40.7783937403
 30
0.0
 11
1409.183830321
 21
-38.1972997767
 31
0.0
  0
ARC
  5
39C
100
AcDbEntity
  8
_Y__________
  6
CONTINUOUS
 62
         7
100
AcDbCircle
 10
1404.2033403763
 20
180.9596417294
 30
0.0
 40
1.0
100
AcDbArc
 50
90.0
 51
180.0
  0
LINE
  5
39D
100
AcDbEntity
  8
_Y__________
  6
CONTINUOUS
 62
         7
100
AcDbLine
 10
1404.2033403763
 20
181.9596417294
 30
0.0
 11
1405.2033403763
 21
181.9596417294
 31
0.0
  0
LINE
  5
39E
100
AcDbEntity
  8
_Y__________
  6
CONTINUOUS
 62
         7
100
AcDbLine
 10
1403.2033403763
 20
180.9596417294
 30
0.0
 11
1403.2033403763
 21
179.9596417294
 31
0.0
  0
LINE
  5
39F
100
AcDbEntity
  8
_Y__________
  6
CONTINUOUS
 62
         7
100
AcDbLine
 10
1417.1033403763
 20
181.9596417294
 30
0.0
 11
1418.1033403763
 21
181.9596417294
 31
0.0
  0
ARC
  5
3A0
100
AcDbEntity
  8
_Y__________
  6
CONTINUOUS
 62
         7
100
AcDbCircle
 10
1418.1033403763
 20
180.9596417294
 30
0.0
 40
1.0
100
AcDbArc
 50
0.0
 51
90.0
  0
ARC
  5
3A1
100
AcDbEntity
  8
_Y__________
  6
CONTINUOUS
 62
         7
100
AcDbCircle
 10
1404.2033403763
 20
119.4096417294
 30
0.0
 40
1.0
100
AcDbArc
 50
180.0
 51
270.0
  0
LINE
  5
3A2
100
AcDbEntity
  8
_Y__________
  6
CONTINUOUS
 62
         7
100
AcDbLine
 10
1404.2033403763
 20
118.4096417294
 30
0.0
 11
1405.2033403763
 21
118.4096417294
 31
0.0
  0
LINE
  5
3A3
100
AcDbEntity
  8
_Y__________
  6
CONTINUOUS
 62
         7
100
AcDbLine
 10
1417.1033403763
 20
118.4096417294
 30
0.0
 11
1418.1033403763
 21
118.4096417294
 31
0.0
  0
ARC
  5
3A4
100
AcDbEntity
  8
_Y__________
  6
CONTINUOUS
 62
         7
100
AcDbCircle
 10
1418.1033403763
 20
119.4096417294
 30
0.0
 40
1.0
100
AcDbArc
 50
270.0
 51
360.0
  0
LINE
  5
3A5
100
AcDbEntity
  8
_Y__________
  6
CONTINUOUS
 62
         7
100
AcDbLine
 10
1419.1033403763
 20
180.9596417294
 30
0.0
 11
1419.1033403763
 21
179.9596417294
 31
0.0
  0
LINE
  5
3A6
100
AcDbEntity
  8
_Y__________
  6
CONTINUOUS
 62
         7
100
AcDbLine
 10
1403.2033403763
 20
120.4096417294
 30
0.0
 11
1403.2033403763
 21
119.4096417294
 31
0.0
  0
LINE
  5
3A7
100
AcDbEntity
  8
_Y__________
  6
CONTINUOUS
 62
         7
100
AcDbLine
 10
1419.1033403763
 20
120.4096417294
 30
0.0
 11
1419.1033403763
 21
119.4096417294
 31
0.0
  0
LINE
  5
3A8
100
AcDbEntity
  8
_Y__________
  6
CONTINUOUS
 62
         7
100
AcDbLine
 10
1419.1033403763
 20
-42.7183347407
 30
0.0
 11
1419.1033403763
 21
-43.7183347407
 31
0.0
  0
LINE
  5
3A9
100
AcDbEntity
  8
_Y__________
  6
CONTINUOUS
 62
         7
100
AcDbLine
 10
1403.2033403763
 20
-42.7183347407
 30
0.0
 11
1403.2033403763
 21
-43.7183347407
 31
0.0
  0
LINE
  5
3AA
100
AcDbEntity
  8
_Y__________
  6
CONTINUOUS
 62
         7
100
AcDbLine
 10
1419.1033403763
 20
17.8316652593
 30
0.0
 11
1419.1033403763
 21
16.8316652593
 31
0.0
  0
ARC
  5
3AB
100
AcDbEntity
  8
_Y__________
  6
CONTINUOUS
 62
         7
100
AcDbCircle
 10
1418.1033403763
 20
-43.7183347407
 30
0.0
 40
1.0
100
AcDbArc
 50
270.0
 51
360.0
  0
LINE
  5
3AC
100
AcDbEntity
  8
_Y__________
  6
CONTINUOUS
 62
         7
100
AcDbLine
 10
1417.1033403763
 20
-44.7183347407
 30
0.0
 11
1418.1033403763
 21
-44.7183347407
 31
0.0
  0
LINE
  5
3AD
100
AcDbEntity
  8
_Y__________
  6
CONTINUOUS
 62
         7
100
AcDbLine
 10
1404.2033403763
 20
-44.7183347407
 30
0.0
 11
1405.2033403763
 21
-44.7183347407
 31
0.0
  0
ARC
  5
3AE
100
AcDbEntity
  8
_Y__________
  6
CONTINUOUS
 62
         7
100
AcDbCircle
 10
1404.2033403763
 20
-43.7183347407
 30
0.0
 40
1.0
100
AcDbArc
 50
180.0
 51
270.0
  0
ARC
  5
3AF
100
AcDbEntity
  8
_Y__________
  6
CONTINUOUS
 62
         7
100
AcDbCircle
 10
1418.1033403763
 20
17.8316652593
 30
0.0
 40
1.0
100
AcDbArc
 50
0.0
 51
90.0
  0
LINE
  5
3B0
100
AcDbEntity
  8
_Y__________
  6
CONTINUOUS
 62
         7
100
AcDbLine
 10
1417.1033403763
 20
18.8316652593
 30
0.0
 11
1418.1033403763
 21
18.8316652593
 31
0.0
  0
LINE
  5
3B1
100
AcDbEntity
  8
_Y__________
  6
CONTINUOUS
 62
         7
100
AcDbLine
 10
1403.2033403763
 20
17.8316652593
 30
0.0
 11
1403.2033403763
 21
16.8316652593
 31
0.0
  0
LINE
  5
3B2
100
AcDbEntity
  8
_Y__________
  6
CONTINUOUS
 62
         7
100
AcDbLine
 10
1404.2033403763
 20
18.8316652593
 30
0.0
 11
1405.2033403763
 21
18.8316652593
 31
0.0
  0
ARC
  5
3B3
100
AcDbEntity
  8
_Y__________
  6
CONTINUOUS
 62
         7
100
AcDbCircle
 10
1404.2033403763
 20
17.8316652593
 30
0.0
 40
1.0
100
AcDbArc
 50
90.0
 51
180.0
  0
ARC
  5
3B4
100
AcDbEntity
  8
_Y__________
  6
CONTINUOUS
 62
         7
100
AcDbCircle
 10
1402.6033403763
 20
172.9846417294
 30
0.0
 40
0.6
100
AcDbArc
 50
270.0
 51
360.0
  0
LINE
  5
3B5
100
AcDbEntity
  8
_Y__________
  6
CONTINUOUS
 62
         7
100
AcDbLine
 10
1401.2033403763
 20
172.5846417294
 30
0.0
 11
1401.9497505378
 21
172.3846417294
 31
0.0
  0
LINE
  5
3B6
100
AcDbEntity
  8
_Y__________
  6
CONTINUOUS
 62
         7
100
AcDbLine
 10
1401.9497505378
 20
172.3846417294
 30
0.0
 11
1402.6033403763
 21
172.3846417294
 31
0.0
  0
LINE
  5
3B7
100
AcDbEntity
  8
_Y__________
  6
CONTINUOUS
 62
         7
100
AcDbLine
 10
1401.2033403763
 20
127.7846417294
 30
0.0
 11
1401.2033403763
 21
172.5846417294
 31
0.0
  0
LINE
  5
3B8
100
AcDbEntity
  8
_Y__________
  6
CONTINUOUS
 62
         7
100
AcDbLine
 10
1401.9497505378
 20
127.9846417294
 30
0.0
 11
1401.9497505378
 21
172.3846417294
 31
0.0
  0
ARC
  5
3B9
100
AcDbEntity
  8
_Y__________
  6
CONTINUOUS
 62
         7
100
AcDbCircle
 10
1402.6033403763
 20
127.3846417294
 30
0.0
 40
0.6
100
AcDbArc
 50
0.0
 51
90.0
  0
LINE
  5
3BA
100
AcDbEntity
  8
_Y__________
  6
CONTINUOUS
 62
         7
100
AcDbLine
 10
1401.2033403763
 20
127.7846417294
 30
0.0
 11
1401.9497505378
 21
127.9846417294
 31
0.0
  0
LINE
  5
3BB
100
AcDbEntity
  8
_Y__________
  6
CONTINUOUS
 62
         7
100
AcDbLine
 10
1401.9497505378
 20
127.9846417294
 30
0.0
 11
1402.6033403763
 21
127.9846417294
 31
0.0
  0
LINE
  5
3BC
100
AcDbEntity
  8
_Y__________
  6
CENTER
 62
         1
100
AcDbLine
 10
1396.6508489578
 20
150.1846417294
 30
0.0
 11
1419.1033403763
 21
150.1846417294
 31
0.0
  0
LINE
  5
3BD
100
AcDbEntity
  8
_Y__________
  6
CONTINUOUS
 62
         7
100
AcDbLine
 10
1332.7801721046
 20
162.6062630231
 30
0.0
 11
1401.2033403763
 21
172.5846417294
 31
0.0
  0
LINE
  5
3BE
100
AcDbEntity
  8
_Y__________
  6
CENTER
 62
         1
100
AcDbLine
 10
1329.3598386453
 20
150.1846417294
 30
0.0
 11
1378.4659535144
 21
150.1846417294
 31
0.0
  0
LINE
  5
3BF
100
AcDbEntity
  8
_Y__________
  6
CONTINUOUS
 62
         7
100
AcDbLine
 10
1332.7801721046
 20
137.7630204357
 30
0.0
 11
1401.2033403763
 21
127.7846417294
 31
0.0
  0
LINE
  5
3C0
100
AcDbEntity
  8
_Y__________
  6
CENTER
 62
         1
100
AcDbLine
 10
1411.1033403763
 20
187.6899050302
 30
0.0
 11
1411.1033403763
 21
112.6870854784
 31
0.0
  0
ARC
  5
3C1
100
AcDbEntity
  8
_Y__________
  6
CONTINUOUS
 62
         7
100
AcDbCircle
 10
1412.0045400445
 20
179.3096417294
 30
0.0
 40
1.0
100
AcDbArc
 50
270.0
 51
346.8556743105
  0
ARC
  5
3C2
100
AcDbEntity
  8
_Y__________
  6
CONTINUOUS
 62
         7
100
AcDbCircle
 10
1410.202140708
 20
179.3096417294
 30
0.0
 40
1.0
100
AcDbArc
 50
193.1443256895
 51
270.0
  0
LINE
  5
3C3
100
AcDbEntity
  8
_Y__________
  6
CONTINUOUS
 62
         7
100
AcDbLine
 10
1410.202140708
 20
178.3096417294
 30
0.0
 11
1412.0045400445
 21
178.3096417294
 31
0.0
  0
LINE
  5
3C4
100
AcDbEntity
  8
_Y__________
  6
CONTINUOUS
 62
         7
100
AcDbLine
 10
1414.639610775
 20
181.9596417294
 30
0.0
 11
1418.1033403763
 21
181.9596417294
 31
0.0
  0
LINE
  5
3C5
100
AcDbEntity
  8
_Y__________
  6
CONTINUOUS
 62
         7
100
AcDbLine
 10
1412.9783403763
 20
179.0822369936
 30
0.0
 11
1414.639610775
 21
181.9596417294
 31
0.0
  0
LINE
  5
3C6
100
AcDbEntity
  8
_Y__________
  6
CONTINUOUS
 62
         7
100
AcDbLine
 10
1414.639610775
 20
118.4096417294
 30
0.0
 11
1418.1033403763
 21
118.4096417294
 31
0.0
  0
ARC
  5
3C7
100
AcDbEntity
  8
_Y__________
  6
CONTINUOUS
 62
         7
100
AcDbCircle
 10
1412.0045400445
 20
121.0596417294
 30
0.0
 40
1.0
100
AcDbArc
 50
13.1443256895
 51
90.0
  0
LINE
  5
3C8
100
AcDbEntity
  8
_Y__________
  6
CONTINUOUS
 62
         7
100
AcDbLine
 10
1412.9783403763
 20
121.2870464652
 30
0.0
 11
1414.639610775
 21
118.4096417294
 31
0.0
  0
ARC
  5
3C9
100
AcDbEntity
  8
_Y__________
  6
CONTINUOUS
 62
         7
100
AcDbCircle
 10
1410.202140708
 20
121.0596417294
 30
0.0
 40
1.0
100
AcDbArc
 50
90.0
 51
166.8556743105
  0
LINE
  5
3CA
100
AcDbEntity
  8
_Y__________
  6
CONTINUOUS
 62
         7
100
AcDbLine
 10
1410.202140708
 20
122.0596417294
 30
0.0
 11
1412.0045400445
 21
122.0596417294
 31
0.0
  0
LINE
  5
3CB
100
AcDbEntity
  8
_Y__________
  6
CONTINUOUS
 62
         7
100
AcDbLine
 10
1419.1033403763
 20
180.9596417294
 30
0.0
 11
1419.1033403763
 21
169.1846417294
 31
0.0
  0
LINE
  5
3CC
100
AcDbEntity
  8
_Y__________
  6
CONTINUOUS
 62
         7
100
AcDbLine
 10
1419.1033403763
 20
180.9596417294
 30
0.0
 11
1419.1033403763
 21
157.0846417294
 31
0.0
  0
LINE
  5
3CD
100
AcDbEntity
  8
_Y__________
  6
CONTINUOUS
 62
         7
100
AcDbLine
 10
1404.2033403763
 20
181.9596417294
 30
0.0
 11
1407.5670699775
 21
181.9596417294
 31
0.0
  0
LINE
  5
3CE
100
AcDbEntity
  8
_Y__________
  6
CONTINUOUS
 62
         7
100
AcDbLine
 10
1404.2033403763
 20
118.4096417294
 30
0.0
 11
1407.5670699775
 21
118.4096417294
 31
0.0
  0
LINE
  5
3CF
100
AcDbEntity
  8
_Y__________
  6
CENTER
 62
         1
100
AcDbLine
 10
1400.0033403763
 20
172.4096417294
 30
0.0
 11
1400.0033403763
 21
127.9596417294
 31
0.0
  0
LINE
  5
3D0
100
AcDbEntity
  8
_Y__________
  6
CONTINUOUS
 62
         7
100
AcDbLine
 10
1403.2033403763
 20
180.9596417294
 30
0.0
 11
1403.2033403763
 21
119.4096417294
 31
0.0
  0
LINE
  5
3D1
100
AcDbEntity
  8
_Y__________
  6
CONTINUOUS
 62
         7
100
AcDbLine
 10
1409.2283403763
 20
121.2870464652
 30
0.0
 11
1407.5670699775
 21
118.4096417294
 31
0.0
  0
LINE
  5
3D2
100
AcDbEntity
  8
_Y__________
  6
CONTINUOUS
 62
         7
100
AcDbLine
 10
1409.2283403763
 20
179.0822369936
 30
0.0
 11
1407.5670699775
 21
181.9596417294
 31
0.0
  0
LINE
  5
3D3
100
AcDbEntity
  8
_Y__________
  6
CONTINUOUS
 62
         7
100
AcDbLine
 10
1414.639610775
 20
18.8316652595
 30
0.0
 11
1418.1033403763
 21
18.8316652595
 31
0.0
  0
LINE
  5
3D4
100
AcDbEntity
  8
_Y__________
  6
CONTINUOUS
 62
         7
100
AcDbLine
 10
1412.9783403763
 20
15.9542605237
 30
0.0
 11
1414.639610775
 21
18.8316652595
 31
0.0
  0
ARC
  5
3D5
100
AcDbEntity
  8
_Y__________
  6
CONTINUOUS
 62
         7
100
AcDbCircle
 10
1412.0045400445
 20
16.1816652595
 30
0.0
 40
1.0
100
AcDbArc
 50
270.0
 51
346.8556743105
  0
LINE
  5
3D6
100
AcDbEntity
  8
_Y__________
  6
CONTINUOUS
 62
         7
100
AcDbLine
 10
1410.202140708
 20
15.1816652595
 30
0.0
 11
1412.0045400445
 21
15.1816652595
 31
0.0
  0
ARC
  5
3D7
100
AcDbEntity
  8
_Y__________
  6
CONTINUOUS
 62
         7
100
AcDbCircle
 10
1410.202140708
 20
16.1816652595
 30
0.0
 40
1.0
100
AcDbArc
 50
193.1443256895
 51
270.0
  0
LINE
  5
3D8
100
AcDbEntity
  8
_Y__________
  6
CONTINUOUS
 62
         7
100
AcDbLine
 10
1409.2283403763
 20
15.9542605235
 30
0.0
 11
1407.5670699775
 21
18.8316652593
 31
0.0
  0
LINE
  5
3D9
100
AcDbEntity
  8
_Y__________
  6
CONTINUOUS
 62
         7
100
AcDbLine
 10
1404.2033403763
 20
18.8316652595
 30
0.0
 11
1407.5670699775
 21
18.8316652595
 31
0.0
  0
LINE
  5
3DA
100
AcDbEntity
  8
_Y__________
  6
CONTINUOUS
 62
         7
100
AcDbLine
 10
1403.2033403763
 20
9.8566652593
 30
0.0
 11
1403.2033403763
 21
17.8316652595
 31
0.0
  0
ARC
  5
3DB
100
AcDbEntity
  8
_Y__________
  6
CONTINUOUS
 62
         7
100
AcDbCircle
 10
1402.6033403763
 20
9.8566652593
 30
0.0
 40
0.6
100
AcDbArc
 50
270.0
 51
360.0
  0
LINE
  5
3DC
100
AcDbEntity
  8
_Y__________
  6
CONTINUOUS
 62
         7
100
AcDbLine
 10
1401.9497505378
 20
9.2566652593
 30
0.0
 11
1402.6033403763
 21
9.2566652593
 31
0.0
  0
LINE
  5
3DD
100
AcDbEntity
  8
_Y__________
  6
CONTINUOUS
 62
         7
100
AcDbLine
 10
1332.6301721046
 20
-0.543588447
 30
0.0
 11
1401.2033403763
 21
9.4566652593
 31
0.0
  0
LINE
  5
3DE
100
AcDbEntity
  8
_Y__________
  6
CONTINUOUS
 62
         7
100
AcDbLine
 10
1401.2033403763
 20
9.4566652593
 30
0.0
 11
1401.9497505378
 21
9.2566652593
 31
0.0
  0
LINE
  5
3DF
100
AcDbEntity
  8
_Y__________
  6
CONTINUOUS
 62
         7
100
AcDbLine
 10
1332.6301721046
 20
-25.3430810344
 30
0.0
 11
1401.2033403767
 21
-35.3433347407
 31
0.0
  0
LINE
  5
3E0
100
AcDbEntity
  8
_Y__________
  6
CENTER
 62
         1
100
AcDbLine
 10
1328.5556074009
 20
-12.9433347407
 30
0.0
 11
1419.1033403763
 21
-12.9433347407
 31
0.0
  0
LINE
  5
3E1
100
AcDbEntity
  8
_Y__________
  6
CONTINUOUS
 62
         7
100
AcDbLine
 10
1401.2033403763
 20
-35.3433347409
 30
0.0
 11
1401.9497505378
 21
-35.1433347409
 31
0.0
  0
LINE
  5
3E2
100
AcDbEntity
  8
_Y__________
  6
CONTINUOUS
 62
         7
100
AcDbLine
 10
1401.9497505378
 20
-35.1433347407
 30
0.0
 11
1402.6033403763
 21
-35.1433347407
 31
0.0
  0
ARC
  5
3E3
100
AcDbEntity
  8
_Y__________
  6
CONTINUOUS
 62
         7
100
AcDbCircle
 10
1402.6033403763
 20
-35.7433347407
 30
0.0
 40
0.6
100
AcDbArc
 50
0.0
 51
90.0
  0
LINE
  5
3E4
100
AcDbEntity
  8
_Y__________
  6
CONTINUOUS
 62
         7
100
AcDbLine
 10
1404.2033403763
 20
-44.7183347409
 30
0.0
 11
1407.5670699775
 21
-44.7183347409
 31
0.0
  0
LINE
  5
3E5
100
AcDbEntity
  8
_Y__________
  6
CONTINUOUS
 62
         7
100
AcDbLine
 10
1403.2033403763
 20
-35.7433347409
 30
0.0
 11
1403.2033403763
 21
-43.7183347409
 31
0.0
  0
LINE
  5
3E6
100
AcDbEntity
  8
_Y__________
  6
CONTINUOUS
 62
         7
100
AcDbLine
 10
1409.2283403763
 20
-41.8409300049
 30
0.0
 11
1407.5670699775
 21
-44.7183347407
 31
0.0
  0
ARC
  5
3E7
100
AcDbEntity
  8
_Y__________
  6
CONTINUOUS
 62
         7
100
AcDbCircle
 10
1410.202140708
 20
-42.0683347407
 30
0.0
 40
1.0
100
AcDbArc
 50
90.0
 51
166.8556743105
  0
LINE
  5
3E8
100
AcDbEntity
  8
_Y__________
  6
CONTINUOUS
 62
         7
100
AcDbLine
 10
1410.202140708
 20
-41.0683347407
 30
0.0
 11
1412.0045400445
 21
-41.0683347407
 31
0.0
  0
ARC
  5
3E9
100
AcDbEntity
  8
_Y__________
  6
CONTINUOUS
 62
         7
100
AcDbCircle
 10
1412.0045400445
 20
-42.0683347409
 30
0.0
 40
1.0
100
AcDbArc
 50
13.1443256895
 51
90.0
  0
LINE
  5
3EA
100
AcDbEntity
  8
_Y__________
  6
CONTINUOUS
 62
         7
100
AcDbLine
 10
1412.9783403763
 20
-41.8409300049
 30
0.0
 11
1414.639610775
 21
-44.7183347407
 31
0.0
  0
LINE
  5
3EB
100
AcDbEntity
  8
_Y__________
  6
CONTINUOUS
 62
         7
100
AcDbLine
 10
1414.639610775
 20
-44.7183347409
 30
0.0
 11
1418.1033403763
 21
-44.7183347409
 31
0.0
  0
LINE
  5
3EC
100
AcDbEntity
  8
_Y__________
  6
CONTINUOUS
 62
         7
100
AcDbLine
 10
1192.1233403763
 20
142.6346417294
 30
0.0
 11
1192.1233403763
 21
157.7346417294
 31
0.0
  0
LINE
  5
3ED
100
AcDbEntity
  8
_Y__________
  6
CONTINUOUS
 62
         7
100
AcDbLine
 10
1192.1233403763
 20
142.6346417294
 30
0.0
 11
1191.6233403763
 21
142.1346417294
 31
0.0
  0
LINE
  5
3EE
100
AcDbEntity
  8
_Y__________
  6
CONTINUOUS
 62
         7
100
AcDbLine
 10
1191.6233403763
 20
142.1346417294
 30
0.0
 11
1184.6849584247
 21
142.1346417294
 31
0.0
  0
LINE
  5
3EF
100
AcDbEntity
  8
_Y__________
  6
CONTINUOUS
 62
         7
100
AcDbLine
 10
1184.2908731435
 20
141.7405564482
 30
0.0
 11
1184.6849584247
 21
142.1346417294
 31
0.0
  0
LINE
  5
3F0
100
AcDbEntity
  8
_Y__________
  6
CONTINUOUS
 62
         7
100
AcDbLine
 10
1191.6233403763
 20
158.2346417294
 30
0.0
 11
1184.6849584247
 21
158.2346417294
 31
0.0
  0
LINE
  5
3F1
100
AcDbEntity
  8
_Y__________
  6
CONTINUOUS
 62
         7
100
AcDbLine
 10
1192.1233403763
 20
157.7346417294
 30
0.0
 11
1191.6233403763
 21
158.2346417294
 31
0.0
  0
LINE
  5
3F2
100
AcDbEntity
  8
_Y__________
  6
CONTINUOUS
 62
         7
100
AcDbLine
 10
1184.2908731435
 20
158.6287270106
 30
0.0
 11
1184.6849584247
 21
158.2346417294
 31
0.0
  0
LINE
  5
3F3
100
AcDbEntity
  8
_Y__________
  6
CONTINUOUS
 62
         7
100
AcDbLine
 10
1245.1617223278
 20
142.1346417294
 30
0.0
 11
1240.4233403763
 21
142.1346417294
 31
0.0
  0
LINE
  5
3F4
100
AcDbEntity
  8
_Y__________
  6
CONTINUOUS
 62
         7
100
AcDbLine
 10
1239.9233403763
 20
142.6346417294
 30
0.0
 11
1239.9233403763
 21
157.7346417294
 31
0.0
  0
LINE
  5
3F5
100
AcDbEntity
  8
_Y__________
  6
CONTINUOUS
 62
         7
100
AcDbLine
 10
1239.9233403763
 20
142.6346417294
 30
0.0
 11
1240.4233403763
 21
142.1346417294
 31
0.0
  0
LINE
  5
3F6
100
AcDbEntity
  8
_Y__________
  6
CONTINUOUS
 62
         7
100
AcDbLine
 10
1245.555807609
 20
141.7405564482
 30
0.0
 11
1245.1617223278
 21
142.1346417294
 31
0.0
  0
LINE
  5
3F7
100
AcDbEntity
  8
_Y__________
  6
CONTINUOUS
 62
         7
100
AcDbLine
 10
1239.9233403763
 20
157.7346417294
 30
0.0
 11
1240.4233403763
 21
158.2346417294
 31
0.0
  0
LINE
  5
3F8
100
AcDbEntity
  8
_Y__________
  6
CONTINUOUS
 62
         7
100
AcDbLine
 10
1245.555807609
 20
158.6287270106
 30
0.0
 11
1245.1617223278
 21
158.2346417294
 31
0.0
  0
LINE
  5
3F9
100
AcDbEntity
  8
_Y__________
  6
CONTINUOUS
 62
         7
100
AcDbLine
 10
1245.1617223278
 20
158.2346417294
 30
0.0
 11
1240.4233403763
 21
158.2346417294
 31
0.0
  0
CIRCLE
  5
3FA
100
AcDbEntity
  8
_Y__________
  6
CONTINUOUS
 62
         7
100
AcDbCircle
 10
1214.9233403763
 20
150.1846417294
 30
0.0
 40
22.225
  0
CIRCLE
  5
3FB
100
AcDbEntity
  8
_Y__________
  6
CONTINUOUS
 62
         7
100
AcDbCircle
 10
1214.9233403763
 20
150.1846417294
 30
0.0
 40
8.5
  0
CIRCLE
  5
3FC
100
AcDbEntity
  8
_Y__________
  6
CONTINUOUS
 62
         7
100
AcDbCircle
 10
1214.9233403763
 20
150.1846417294
 30
0.0
 40
9.5
  0
ARC
  5
3FD
100
AcDbEntity
  8
_Y__________
  6
CONTINUOUS
 62
         5
100
AcDbCircle
 10
1214.9233403763
 20
150.1846417294
 30
0.0
 40
8.0
100
AcDbArc
 50
352.9901372228
 51
621.2264515101
  0
CIRCLE
  5
3FE
100
AcDbEntity
  8
_Y__________
  6
CONTINUOUS
 62
         7
100
AcDbCircle
 10
1214.9233403763
 20
150.1846417294
 30
0.0
 40
7.0
  0
CIRCLE
  5
3FF
100
AcDbEntity
  8
_Y__________
  6
CONTINUOUS
 62
         7
100
AcDbCircle
 10
1214.9233403763
 20
150.1846417294
 30
0.0
 40
12.7165768873
  0
LINE
  5
400
100
AcDbEntity
  8
_Y__________
  6
CENTER
 62
         1
100
AcDbLine
 10
1214.9233403763
 20
114.5732894966
 30
0.0
 11
1214.9233403763
 21
185.4173498279
 31
0.0
  0
ARC
  5
401
100
AcDbEntity
  8
_Y__________
  6
CONTINUOUS
 62
         7
100
AcDbCircle
 10
1214.9233403763
 20
150.1846417294
 30
0.0
 40
31.775
100
AcDbArc
 50
15.411296411
 51
164.588703589
  0
ARC
  5
402
100
AcDbEntity
  8
_Y__________
  6
CONTINUOUS
 62
         7
100
AcDbCircle
 10
1214.9233403763
 20
150.1846417294
 30
0.0
 40
31.775
100
AcDbArc
 50
195.411296411
 51
344.588703589
  0
LINE
  5
403
100
AcDbEntity
  8
_Y__________
  6
CENTER
 62
         1
100
AcDbLine
 10
1183.1483403763
 20
150.1846417294
 30
0.0
 11
1246.6983403763
 21
150.1846417294
 31
0.0
  0
LINE
  5
404
100
AcDbEntity
  8
_Y__________
  6
CENTER
 62
         1
100
AcDbLine
 10
1589.36411614
 20
150.1846417294
 30
0.0
 11
1655.0583403763
 21
150.1846417294
 31
0.0
  0
LINE
  5
405
100
AcDbEntity
  8
_Y__________
  6
CONTINUOUS
 62
         7
100
AcDbLine
 10
1593.0449584247
 20
142.1346417294
 30
0.0
 11
1597.7833403763
 21
142.1346417294
 31
0.0
  0
LINE
  5
406
100
AcDbEntity
  8
_Y__________
  6
CONTINUOUS
 62
         7
100
AcDbLine
 10
1592.6508731435
 20
141.7405564482
 30
0.0
 11
1593.0449584247
 21
142.1346417294
 31
0.0
  0
LINE
  5
407
100
AcDbEntity
  8
_Y__________
  6
CONTINUOUS
 62
         7
100
AcDbLine
 10
1598.2833403763
 20
142.6346417294
 30
0.0
 11
1597.7833403763
 21
142.1346417294
 31
0.0
  0
LINE
  5
408
100
AcDbEntity
  8
_Y__________
  6
CONTINUOUS
 62
         7
100
AcDbLine
 10
1592.6508731435
 20
158.6287270106
 30
0.0
 11
1593.0449584247
 21
158.2346417294
 31
0.0
  0
LINE
  5
409
100
AcDbEntity
  8
_Y__________
  6
CONTINUOUS
 62
         7
100
AcDbLine
 10
1598.2833403763
 20
157.7346417294
 30
0.0
 11
1597.7833403763
 21
158.2346417294
 31
0.0
  0
LINE
  5
40A
100
AcDbEntity
  8
_Y__________
  6
CONTINUOUS
 62
         7
100
AcDbLine
 10
1598.2833403763
 20
157.7346417294
 30
0.0
 11
1598.2833403763
 21
142.6346417294
 31
0.0
  0
LINE
  5
40B
100
AcDbEntity
  8
_Y__________
  6
CONTINUOUS
 62
         7
100
AcDbLine
 10
1593.0449584247
 20
158.2346417294
 30
0.0
 11
1597.7833403763
 21
158.2346417294
 31
0.0
  0
LINE
  5
40C
100
AcDbEntity
  8
_Y__________
  6
CONTINUOUS
 62
         7
100
AcDbLine
 10
1653.915807609
 20
141.7405564482
 30
0.0
 11
1653.5217223278
 21
142.1346417294
 31
0.0
  0
LINE
  5
40D
100
AcDbEntity
  8
_Y__________
  6
CONTINUOUS
 62
         7
100
AcDbLine
 10
1646.0833403763
 20
142.6346417294
 30
0.0
 11
1646.5833403763
 21
142.1346417294
 31
0.0
  0
LINE
  5
40E
100
AcDbEntity
  8
_Y__________
  6
CONTINUOUS
 62
         7
100
AcDbLine
 10
1646.5833403763
 20
142.1346417294
 30
0.0
 11
1653.5217223278
 21
142.1346417294
 31
0.0
  0
LINE
  5
40F
100
AcDbEntity
  8
_Y__________
  6
CONTINUOUS
 62
         7
100
AcDbLine
 10
1653.915807609
 20
158.6287270106
 30
0.0
 11
1653.5217223278
 21
158.2346417294
 31
0.0
  0
LINE
  5
410
100
AcDbEntity
  8
_Y__________
  6
CONTINUOUS
 62
         7
100
AcDbLine
 10
1646.5833403763
 20
158.2346417294
 30
0.0
 11
1653.5217223278
 21
158.2346417294
 31
0.0
  0
LINE
  5
411
100
AcDbEntity
  8
_Y__________
  6
CONTINUOUS
 62
         7
100
AcDbLine
 10
1646.0833403763
 20
157.7346417294
 30
0.0
 11
1646.5833403763
 21
158.2346417294
 31
0.0
  0
LINE
  5
412
100
AcDbEntity
  8
_Y__________
  6
CONTINUOUS
 62
         7
100
AcDbLine
 10
1646.0833403763
 20
157.7346417294
 30
0.0
 11
1646.0833403763
 21
142.6346417294
 31
0.0
  0
ARC
  5
413
100
AcDbEntity
  8
_Y__________
  6
DASHED
 62
         2
100
AcDbCircle
 10
1623.2833403763
 20
150.1846417294
 30
0.0
 40
28.125
100
AcDbArc
 50
196.6319205355
 51
343.3680794645
  0
ARC
  5
414
100
AcDbEntity
  8
_Y__________
  6
DASHED
 62
         2
100
AcDbCircle
 10
1623.2833403763
 20
150.1846417294
 30
0.0
 40
28.125
100
AcDbArc
 50
16.6319205355
 51
163.3680794645
  0
LINE
  5
415
100
AcDbEntity
  8
_Y__________
  6
CENTER
 62
         1
100
AcDbLine
 10
1623.2833403763
 20
184.9596417294
 30
0.0
 11
1623.2833403763
 21
115.4096417294
 31
0.0
  0
ARC
  5
416
100
AcDbEntity
  8
_Y__________
  6
CONTINUOUS
 62
         7
100
AcDbCircle
 10
1623.2833403763
 20
150.1846417294
 30
0.0
 40
31.775
100
AcDbArc
 50
15.411296411
 51
164.588703589
  0
ARC
  5
417
100
AcDbEntity
  8
_Y__________
  6
CONTINUOUS
 62
         7
100
AcDbCircle
 10
1623.2833403763
 20
150.1846417294
 30
0.0
 40
31.775
100
AcDbArc
 50
195.411296411
 51
344.588703589
  0
LINE
  5
418
100
AcDbEntity
  8
_Y__________
  6
CONTINUOUS
 62
         7
100
AcDbLine
 10
1407.5670699775
 20
181.9596417294
 30
0.0
 11
1407.5670699775
 21
159.0346417294
 31
0.0
  0
LINE
  5
419
100
AcDbEntity
  8
_Y__________
  6
CONTINUOUS
 62
         7
100
AcDbLine
 10
1409.2283403763
 20
179.0822369936
 30
0.0
 11
1409.2283403763
 21
158.2346417294
 31
0.0
  0
LINE
  5
41A
100
AcDbEntity
  8
_Y__________
  6
CONTINUOUS
 62
         7
100
AcDbLine
 10
1412.9783403763
 20
179.0822369936
 30
0.0
 11
1412.9783403763
 21
158.2346417294
 31
0.0
  0
LINE
  5
41B
100
AcDbEntity
  8
_Y__________
  6
CONTINUOUS
 62
         7
100
AcDbLine
 10
1414.639610775
 20
181.9596417294
 30
0.0
 11
1414.639610775
 21
159.0346417294
 31
0.0
  0
LINE
  5
41C
100
AcDbEntity
  8
_Y__________
  6
CONTINUOUS
 62
         7
100
AcDbLine
 10
1418.3033403763
 20
158.2346417294
 30
0.0
 11
1404.0033403763
 21
158.2346417294
 31
0.0
  0
LINE
  5
41D
100
AcDbEntity
  8
_Y__________
  6
CONTINUOUS
 62
         7
100
AcDbLine
 10
1418.3033403763
 20
142.1346417294
 30
0.0
 11
1404.0033403763
 21
142.1346417294
 31
0.0
  0
LINE
  5
41E
100
AcDbEntity
  8
_Y__________
  6
CONTINUOUS
 62
         7
100
AcDbLine
 10
1407.5670699775
 20
159.0346417294
 30
0.0
 11
1409.2283403763
 21
158.2346417294
 31
0.0
  0
LINE
  5
41F
100
AcDbEntity
  8
_Y__________
  6
CONTINUOUS
 62
         7
100
AcDbLine
 10
1407.5670699775
 20
141.3346417294
 30
0.0
 11
1409.2283403763
 21
142.1346417294
 31
0.0
  0
LINE
  5
420
100
AcDbEntity
  8
_Y__________
  6
CONTINUOUS
 62
         7
100
AcDbLine
 10
1404.0033403763
 20
158.2346417294
 30
0.0
 11
1404.0033403763
 21
142.1346417294
 31
0.0
  0
LINE
  5
421
100
AcDbEntity
  8
_Y__________
  6
CONTINUOUS
 62
         7
100
AcDbLine
 10
1407.5670699775
 20
141.3346417294
 30
0.0
 11
1403.2033403763
 21
141.3346417294
 31
0.0
  0
LINE
  5
422
100
AcDbEntity
  8
_Y__________
  6
CONTINUOUS
 62
         7
100
AcDbLine
 10
1404.0033403763
 20
142.1346417294
 30
0.0
 11
1403.2033403763
 21
141.3346417294
 31
0.0
  0
LINE
  5
423
100
AcDbEntity
  8
_Y__________
  6
CONTINUOUS
 62
         7
100
AcDbLine
 10
1403.2033403763
 20
159.0346417294
 30
0.0
 11
1404.0033403763
 21
158.2346417294
 31
0.0
  0
LINE
  5
424
100
AcDbEntity
  8
_Y__________
  6
CONTINUOUS
 62
         7
100
AcDbLine
 10
1407.5670699775
 20
159.0346417294
 30
0.0
 11
1403.2033403763
 21
159.0346417294
 31
0.0
  0
LINE
  5
425
100
AcDbEntity
  8
_Y__________
  6
CONTINUOUS
 62
         7
100
AcDbLine
 10
1418.3033403763
 20
158.2346417294
 30
0.0
 11
1418.3033403763
 21
156.2846417294
 31
0.0
  0
LINE
  5
426
100
AcDbEntity
  8
_Y__________
  6
CONTINUOUS
 62
         7
100
AcDbLine
 10
1419.1033403763
 20
141.3346417294
 30
0.0
 11
1414.639610775
 21
141.3346417294
 31
0.0
  0
LINE
  5
427
100
AcDbEntity
  8
_Y__________
  6
CONTINUOUS
 62
         7
100
AcDbLine
 10
1418.3033403763
 20
142.1346417294
 30
0.0
 11
1419.1033403763
 21
141.3346417294
 31
0.0
  0
LINE
  5
428
100
AcDbEntity
  8
_Y__________
  6
CONTINUOUS
 62
         7
100
AcDbLine
 10
1412.9783403763
 20
142.1346417294
 30
0.0
 11
1414.639610775
 21
141.3346417294
 31
0.0
  0
LINE
  5
429
100
AcDbEntity
  8
_Y__________
  6
CONTINUOUS
 62
         7
100
AcDbLine
 10
1419.1033403763
 20
159.0346417294
 30
0.0
 11
1418.3033403763
 21
158.2346417294
 31
0.0
  0
LINE
  5
42A
100
AcDbEntity
  8
_Y__________
  6
CONTINUOUS
 62
         7
100
AcDbLine
 10
1412.9783403763
 20
158.2346417294
 30
0.0
 11
1414.639610775
 21
159.0346417294
 31
0.0
  0
LINE
  5
42B
100
AcDbEntity
  8
_Y__________
  6
CONTINUOUS
 62
         7
100
AcDbLine
 10
1419.1033403763
 20
159.0346417294
 30
0.0
 11
1414.639610775
 21
159.0346417294
 31
0.0
  0
LINE
  5
42C
100
AcDbEntity
  8
_Y__________
  6
CONTINUOUS
 62
         7
100
AcDbLine
 10
1407.5670699775
 20
141.3346417294
 30
0.0
 11
1407.5670699775
 21
118.4096417294
 31
0.0
  0
LINE
  5
42D
100
AcDbEntity
  8
_Y__________
  6
CONTINUOUS
 62
         7
100
AcDbLine
 10
1409.2283403763
 20
142.1346417294
 30
0.0
 11
1409.2283403763
 21
121.2870464652
 31
0.0
  0
LINE
  5
42E
100
AcDbEntity
  8
_Y__________
  6
CONTINUOUS
 62
         7
100
AcDbLine
 10
1412.9783403763
 20
142.1346417294
 30
0.0
 11
1412.9783403763
 21
121.2870464652
 31
0.0
  0
LINE
  5
42F
100
AcDbEntity
  8
_Y__________
  6
CONTINUOUS
 62
         7
100
AcDbLine
 10
1414.639610775
 20
141.3346417294
 30
0.0
 11
1414.639610775
 21
118.4096417294
 31
0.0
  0
LINE
  5
430
100
AcDbEntity
  8
_Y__________
  6
CONTINUOUS
 62
         7
100
AcDbLine
 10
1331.7533403763
 20
161.4188234458
 30
0.0
 11
1331.7533403763
 21
138.9504600129
 31
0.0
  0
ARC
  5
431
100
AcDbEntity
  8
_Y__________
  6
CONTINUOUS
 62
         7
100
AcDbCircle
 10
1332.9533403763
 20
161.4188234458
 30
0.0
 40
1.2
100
AcDbArc
 50
98.2971449698
 51
180.0
  0
ARC
  5
432
100
AcDbEntity
  8
_Y__________
  6
CONTINUOUS
 62
         7
100
AcDbCircle
 10
1332.9533403763
 20
138.9504600129
 30
0.0
 40
1.2
100
AcDbArc
 50
180.0
 51
261.7028550302
  0
LINE
  5
433
100
AcDbEntity
  8
_Y__________
  6
CONTINUOUS
 62
         7
100
AcDbLine
 10
1331.7533403763
 20
-1.7091530242
 30
0.0
 11
1331.7533403763
 21
-24.1775164571
 31
0.0
  0
ARC
  5
434
100
AcDbEntity
  8
_Y__________
  6
CONTINUOUS
 62
         7
100
AcDbCircle
 10
1332.9533403763
 20
-1.7091530242
 30
0.0
 40
1.2
100
AcDbArc
 50
98.2971449698
 51
180.0
  0
ARC
  5
435
100
AcDbEntity
  8
_Y__________
  6
CONTINUOUS
 62
         7
100
AcDbCircle
 10
1332.9533403763
 20
-24.1775164571
 30
0.0
 40
1.2
100
AcDbArc
 50
180.0
 51
261.7028550302
  0
LINE
  5
436
100
AcDbEntity
  8
_Y__________
  6
CONTINUOUS
 62
         7
100
AcDbLine
 10
1360.2033403763
 20
-4.9433347407
 30
0.0
 11
1360.2033403763
 21
-20.9433347407
 31
0.0
  0
LINE
  5
437
100
AcDbEntity
  8
_Y__________
  6
CONTINUOUS
 62
         5
100
AcDbLine
 10
1336.6561830887
 20
-20.9433347407
 30
0.0
 11
1360.2033403763
 21
-20.9433347407
 31
0.0
  0
ARC
  5
438
100
AcDbEntity
  8
_Y__________
  6
CONTINUOUS
 62
         7
100
AcDbCircle
 10
1332.7533403763
 20
-22.0933347407
 30
0.0
 40
1.0
100
AcDbArc
 50
90.0
 51
180.0
  0
LINE
  5
439
100
AcDbEntity
  8
_Y__________
  6
CONTINUOUS
 62
         7
100
AcDbLine
 10
1332.7533403763
 20
-21.0933347407
 30
0.0
 11
1335.5233403763
 21
-21.0933347407
 31
0.0
  0
LINE
  5
43A
100
AcDbEntity
  8
_Y__________
  6
CONTINUOUS
 62
         7
100
AcDbLine
 10
1335.8711121475
 20
-21.1865199059
 30
0.0
 11
1335.5233403763
 21
-21.0933347407
 31
0.0
  0
LINE
  5
43B
100
AcDbEntity
  8
_Y__________
  6
CONTINUOUS
 62
         7
100
AcDbLine
 10
1335.9228759565
 20
-21.1933347407
 30
0.0
 11
1336.3233403763
 21
-21.1933347407
 31
0.0
  0
ARC
  5
43C
100
AcDbEntity
  8
_Y__________
  6
CONTINUOUS
 62
         7
100
AcDbCircle
 10
1336.3233403763
 20
-20.9933347407
 30
0.0
 40
0.2
100
AcDbArc
 50
270.0
 51
314.9999999962
  0
LINE
  5
43D
100
AcDbEntity
  8
_Y__________
  6
CONTINUOUS
 62
         7
100
AcDbLine
 10
1336.4647617325
 20
-21.1347560969
 30
0.0
 11
1337.6561830887
 21
-19.9433347407
 31
0.0
  0
LINE
  5
43E
100
AcDbEntity
  8
_Y__________
  6
CONTINUOUS
 62
         7
100
AcDbLine
 10
1337.6561830887
 20
-19.9433347407
 30
0.0
 11
1360.2033403763
 21
-19.9433347407
 31
0.0
  0
LINE
  5
43F
100
AcDbEntity
  8
_Y__________
  6
CONTINUOUS
 62
         7
100
AcDbLine
 10
1337.6561830887
 20
-5.9433347407
 30
0.0
 11
1337.6561830887
 21
-19.9433347407
 31
0.0
  0
LINE
  5
440
100
AcDbEntity
  8
_Y__________
  6
CONTINUOUS
 62
         7
100
AcDbLine
 10
1337.6561830887
 20
-5.9433347407
 30
0.0
 11
1360.2033403763
 21
-5.9433347407
 31
0.0
  0
LINE
  5
441
100
AcDbEntity
  8
_Y__________
  6
CONTINUOUS
 62
         5
100
AcDbLine
 10
1336.6561830887
 20
-4.9433347407
 30
0.0
 11
1360.2033403763
 21
-4.9433347407
 31
0.0
  0
LINE
  5
442
100
AcDbEntity
  8
_Y__________
  6
CONTINUOUS
 62
         7
100
AcDbLine
 10
1335.5233403763
 20
-4.7933347407
 30
0.0
 11
1335.5233403763
 21
-21.0933347407
 31
0.0
  0
LINE
  5
443
100
AcDbEntity
  8
_Y__________
  6
CONTINUOUS
 62
         7
100
AcDbLine
 10
1336.5233403763
 20
-5.1498119
 30
0.0
 11
1336.5233403763
 21
-20.6220880762
 31
0.0
  0
ARC
  5
444
100
AcDbEntity
  8
_Y__________
  6
CONTINUOUS
 62
         7
100
AcDbCircle
 10
1336.3233403763
 20
-4.8933347407
 30
0.0
 40
0.2
100
AcDbArc
 50
45.0000000038
 51
90.0
  0
LINE
  5
445
100
AcDbEntity
  8
_Y__________
  6
CONTINUOUS
 62
         7
100
AcDbLine
 10
1336.4647617325
 20
-4.7519133844
 30
0.0
 11
1337.6561830887
 21
-5.9433347407
 31
0.0
  0
LINE
  5
446
100
AcDbEntity
  8
_Y__________
  6
CONTINUOUS
 62
         7
100
AcDbLine
 10
1335.9228759565
 20
-4.6933347407
 30
0.0
 11
1336.3233403763
 21
-4.6933347407
 31
0.0
  0
LINE
  5
447
100
AcDbEntity
  8
_Y__________
  6
CONTINUOUS
 62
         7
100
AcDbLine
 10
1335.8711121475
 20
-4.7001495754
 30
0.0
 11
1335.5233403763
 21
-4.7933347407
 31
0.0
  0
ARC
  5
448
100
AcDbEntity
  8
_Y__________
  6
CONTINUOUS
 62
         7
100
AcDbCircle
 10
1335.9228759565
 20
-4.8933347407
 30
0.0
 40
0.2
100
AcDbArc
 50
90.0
 51
105.0
  0
LINE
  5
449
100
AcDbEntity
  8
_Y__________
  6
CONTINUOUS
 62
         7
100
AcDbLine
 10
1332.7533403763
 20
-4.7933347407
 30
0.0
 11
1335.5233403763
 21
-4.7933347407
 31
0.0
  0
ARC
  5
44A
100
AcDbEntity
  8
_Y__________
  6
CONTINUOUS
 62
         7
100
AcDbCircle
 10
1332.7533403763
 20
-3.7933347407
 30
0.0
 40
1.0
100
AcDbArc
 50
180.0
 51
270.0
  0
LINE
  5
44B
100
AcDbEntity
  8
_Y__________
  6
DASHED
 62
         2
100
AcDbLine
 10
1645.4200917222
 20
145.1846417294
 30
0.0
 11
1642.5333403763
 21
150.1846417294
 31
0.0
  0
LINE
  5
44C
100
AcDbEntity
  8
_Y__________
  6
DASHED
 62
         2
100
AcDbLine
 10
1645.4200917222
 20
155.1846417294
 30
0.0
 11
1645.4200917222
 21
145.1846417294
 31
0.0
  0
LINE
  5
44D
100
AcDbEntity
  8
_Y__________
  6
DASHED
 62
         2
100
AcDbLine
 10
1645.4200917222
 20
155.1846417294
 30
0.0
 11
1642.5333403763
 21
150.1846417294
 31
0.0
  0
LINE
  5
44E
100
AcDbEntity
  8
_Y__________
  6
DASHED
 62
         2
100
AcDbLine
 10
1645.4200917222
 20
155.1846417294
 30
0.0
 11
1645.8833403763
 21
155.1846417294
 31
0.0
  0
LINE
  5
44F
100
AcDbEntity
  8
_Y__________
  6
DASHED
 62
         2
100
AcDbLine
 10
1645.4200917222
 20
145.1846417294
 30
0.0
 11
1645.8833403763
 21
145.1846417294
 31
0.0
  0
TEXT
  5
451
100
AcDbEntity
  8
L1_35
  6
CONTINUOUS
 62
         2
100
AcDbText
 10
1607.8551181589
 20
224.3704784082
 30
0.0
 40
4.5
  1
531012
 41
0.98
  7
BOX
100
AcDbText
  0
ENDSEC
  0
SECTION
  2
OBJECTS
  0
DICTIONARY
  5
19
100
AcDbDictionary
  3
ACAD_GROUP
350
1A
  3
ACAD_MLINESTYLE
350
1B
  0
DICTIONARY
  5
1A
102
{ACAD_REACTORS
330
19
102
}
100
AcDbDictionary
  0
DICTIONARY
  5
1B
102
{ACAD_REACTORS
330
19
102
}
100
AcDbDictionary
  3
STANDARD
350
1C
  0
MLINESTYLE
  5
1C
102
{ACAD_REACTORS
330
1B
102
}
100
AcDbMlineStyle
  2
STANDARD
 70
         0
  3

 62
         0
 51
90.0
 52
90.0
 71
         2
 49
0.5
 62
       256
  6
BYLAYER
 49
-0.5
 62
       256
  6
BYLAYER
  0
ENDSEC
  0
EOF
