  0
SECTION
  2
HEADER
  9
$ACADVER
  1
AC1014
  9
$ACADMAINTVER
 70
         0
  9
$DWGCODEPAGE
  3
BIG5
  9
$INSBASE
 10
0.0
 20
0.0
 30
0.0
  9
$EXTMIN
 10
1112.4353451962
 20
-65.7489765105
 30
0.0
  9
$EXTMAX
 10
1724.6288027891
 20
242.8999762615
 30
0.0
  9
$LIMMIN
 10
0.0
 20
0.0
  9
$LIMMAX
 10
0.0
 20
0.0
  9
$ORTHOMODE
 70
         0
  9
$REGENMODE
 70
         1
  9
$FILLMODE
 70
         1
  9
$QTEXTMODE
 70
         0
  9
$MIRRTEXT
 70
         1
  9
$DRAGMODE
 70
         2
  9
$LTSCALE
 40
1.0
  9
$OSMODE
 70
         0
  9
$ATTMODE
 70
         1
  9
$TEXTSIZE
 40
2.7
  9
$TRACEWID
 40
0.05
  9
$TEXTSTYLE
  7
STANDARD
  9
$CLAYER
  8
0
  9
$CELTYPE
  6
CONTINUOUS
  9
$CECOLOR
 62
         4
  9
$CELTSCALE
 40
1.0
  9
$DELOBJ
 70
         1
  9
$DISPSILH
 70
         0
  9
$DIMSCALE
 40
1.0
  9
$DIMASZ
 40
0.18
  9
$DIMEXO
 40
0.0625
  9
$DIMDLI
 40
0.38
  9
$DIMRND
 40
0.0
  9
$DIMDLE
 40
0.0
  9
$DIMEXE
 40
0.25
  9
$DIMTP
 40
0.01
  9
$DIMTM
 40
-0.01
  9
$DIMTXT
 40
2.7
  9
$DIMCEN
 40
0.09
  9
$DIMTSZ
 40
0.0
  9
$DIMTOL
 70
         0
  9
$DIMLIM
 70
         0
  9
$DIMTIH
 70
         1
  9
$DIMTOH
 70
         1
  9
$DIMSE1
 70
         0
  9
$DIMSE2
 70
         0
  9
$DIMTAD
 70
         0
  9
$DIMZIN
 70
         0
  9
$DIMBLK
  1

  9
$DIMASO
 70
         1
  9
$DIMSHO
 70
         1
  9
$DIMPOST
  1

  9
$DIMAPOST
  1

  9
$DIMALT
 70
         0
  9
$DIMALTD
 70
         2
  9
$DIMALTF
 40
25.4
  9
$DIMLFAC
 40
1.0
  9
$DIMTOFL
 70
         0
  9
$DIMTVP
 40
0.0
  9
$DIMTIX
 70
         0
  9
$DIMSOXD
 70
         0
  9
$DIMSAH
 70
         0
  9
$DIMBLK1
  1

  9
$DIMBLK2
  1

  9
$DIMSTYLE
  2
STANDARD
  9
$DIMCLRD
 70
         0
  9
$DIMCLRE
 70
         0
  9
$DIMCLRT
 70
         4
  9
$DIMTFAC
 40
1.0
  9
$DIMGAP
 40
0.09
  9
$DIMJUST
 70
         0
  9
$DIMSD1
 70
         0
  9
$DIMSD2
 70
         0
  9
$DIMTOLJ
 70
         1
  9
$DIMTZIN
 70
         0
  9
$DIMALTZ
 70
         0
  9
$DIMALTTZ
 70
         0
  9
$DIMFIT
 70
         3
  9
$DIMUPT
 70
         0
  9
$DIMUNIT
 70
         2
  9
$DIMDEC
 70
         4
  9
$DIMTDEC
 70
         4
  9
$DIMALTU
 70
         2
  9
$DIMALTTD
 70
         2
  9
$DIMTXSTY
  7
STANDARD
  9
$DIMAUNIT
 70
         0
  9
$LUNITS
 70
         2
  9
$LUPREC
 70
        10
  9
$SKETCHINC
 40
0.1
  9
$FILLETRAD
 40
0.0
  9
$AUNITS
 70
         0
  9
$AUPREC
 70
         0
  9
$MENU
  1
acad
  9
$ELEVATION
 40
0.0
  9
$PELEVATION
 40
0.0
  9
$THICKNESS
 40
0.0
  9
$LIMCHECK
 70
         0
  9
$BLIPMODE
 70
         1
  9
$CHAMFERA
 40
0.0
  9
$CHAMFERB
 40
0.0
  9
$CHAMFERC
 40
0.0
  9
$CHAMFERD
 40
0.0
  9
$SKPOLY
 70
         0
  9
$TDCREATE
 40
0.000000000
  9
$TDUPDATE
 40
0.000000000
  9
$TDINDWG
 40
0.0000000000
  9
$TDUSRTIMER
 40
0.0000000000
  9
$USRTIMER
 70
         1
  9
$ANGBASE
 50
0.0
  9
$ANGDIR
 70
         0
  9
$PDMODE
 70
         2
  9
$PDSIZE
 40
0.0
  9
$PLINEWID
 40
0.0
  9
$COORDS
 70
         1
  9
$SPLFRAME
 70
         0
  9
$SPLINETYPE
 70
         6
  9
$SPLINESEGS
 70
         8
  9
$ATTDIA
 70
         0
  9
$ATTREQ
 70
         1
  9
$HANDLING
 70
         1
  9
$HANDSEED
  5
2EB
  9
$SURFTAB1
 70
         6
  9
$SURFTAB2
 70
         6
  9
$SURFTYPE
 70
         6
  9
$SURFU
 70
         6
  9
$SURFV
 70
         6
  9
$UCSNAME
  2

  9
$UCSORG
 10
0.0
 20
0.0
 30
0.0
  9
$UCSXDIR
 10
1.0
 20
0.0
 30
0.0
  9
$UCSYDIR
 10
0.0
 20
1.0
 30
0.0
  9
$PUCSNAME
  2

  9
$PUCSORG
 10
0.0
 20
0.0
 30
0.0
  9
$PUCSXDIR
 10
1.0
 20
0.0
 30
0.0
  9
$PUCSYDIR
 10
0.0
 20
1.0
 30
0.0
  9
$USERI1
 70
         0
  9
$USERI2
 70
         0
  9
$USERI3
 70
         0
  9
$USERI4
 70
         0
  9
$USERI5
 70
         0
  9
$USERR1
 40
0.0
  9
$USERR2
 40
0.0
  9
$USERR3
 40
0.0
  9
$USERR4
 40
0.0
  9
$USERR5
 40
0.0
  9
$WORLDVIEW
 70
         1
  9
$SHADEDGE
 70
         3
  9
$SHADEDIF
 70
        70
  9
$TILEMODE
 70
         1
  9
$MAXACTVP
 70
        16
  9
$PINSBASE
 10
0.0
 20
0.0
 30
0.0
  9
$PLIMCHECK
 70
         0
  9
$PEXTMIN
 10
1.0000000000E+20
 20
1.0000000000E+20
 30
1.0000000000E+20
  9
$PEXTMAX
 10
-1.0000000000E+20
 20
-1.0000000000E+20
 30
-1.0000000000E+20
  9
$PLIMMIN
 10
0.0
 20
0.0
  9
$PLIMMAX
 10
12.0
 20
9.0
  9
$UNITMODE
 70
         0
  9
$VISRETAIN
 70
         0
  9
$PLINEGEN
 70
         1
  9
$PSLTSCALE
 70
         0
  9
$TREEDEPTH
 70
      3020
  9
$PICKSTYLE
 70
         1
  9
$CMLSTYLE
  2
STANDARD
  9
$CMLJUST
 70
         0
  9
$CMLSCALE
 40
1.0
  9
$PROXYGRAPHICS
 70
         0
  9
$MEASUREMENT
 70
         0
  0
ENDSEC
  0
SECTION
  2
CLASSES
  0
CLASS
  1
LWPOLYLINE
  2
AcDbPolyline
  3
"AutoCAD"
 90
        0
280
         0
281
         1
  0
CLASS
  1
IMAGE
  2
AcDbRasterImage
  3
ISM
 90
      127
280
         0
281
         1
  0
CLASS
  1
OLE2FRAME
  2
AcDbOle2Frame
  3
""
 90
        0
280
         0
281
         1
  0
CLASS
  1
HATCH
  2
AcDbHatch
  3
"ACAD_SEDONA"
 90
        0
280
         0
281
         1
  0
CLASS
  1
DICTIONARYVAR
  2
AcDbDictionaryVar
  3
"AutoCAD"
 90
        0
280
         0
281
         0
  0
CLASS
  1
RASTERVARIABLES
  2
AcDbRasterVariables
  3
ISM
 90
        0
280
         0
281
         0
  0
CLASS
  1
IMAGEDEF
  2
AcDbRasterImageDef
  3
ISM
 90
        0
280
         0
281
         0
  0
CLASS
  1
IMAGEDEF_REACTOR
  2
AcDbRasterImageDefReactor
  3
ISM
 90
        1
280
         0
281
         0
  0
CLASS
  1
IDBUFFER
  2
AcDbIdBuffer
  3
"Acad"
 90
        0
280
         0
281
         0
  0
CLASS
  1
SPATIAL_FILTER
  2
AcDbSpatialFilter
  3
"Acad"
 90
        0
280
         0
281
         0
  0
CLASS
  1
XRECORD
  2
AcDbXrecord
  3
"<Built In>"
 90
        0
280
         0
281
         0
  0
CLASS
  1
SORTENTSTABLE
  2
AcDbSortentsTable
  3
"AutoCAD"
 90
        0
280
         0
281
         0
  0
CLASS
  1
LAYER_INDEX
  2
AcDbLayerIndex
  3
"Acad"
 90
        0
280
         0
281
         0
  0
CLASS
  1
SPATIAL_INDEX
  2
AcDbSpatialIndex
  3
"Acad"
 90
        0
280
         0
281
         0
  0
CLASS
  1
OBJECT_PTR
  2
CAseDLPNTableRecord
  3
"ASE-LPNTableRecord"
 90
        1
280
         0
281
         0
  0
CLASS
  1
LAYOUT
  2
AcDbLayout
  3
"AutoCAD 2000"
 90
        1
280
         0
281
         0
  0
CLASS
  1
PLOTSETTINGS
  2
AcDbPlotSettings
  3
"AutoCAD 2000"
 90
        1
280
         0
281
         0
  0
CLASS
  1
ACDBDICTIONARYWDFLT
  2
AcDbDictionaryWithDefault
  3
"AutoCAD 2000"
 90
        1
280
         0
281
         0
  0
CLASS
  1
ACDBPLACEHOLDER
  2
AcDbPlaceHolder
  3
"AutoCAD 2000"
 90
        1
280
         0
281
         0
  0
CLASS
  1
VBA_PROJECT
  2
AcDbVbaProject
  3
"acadvba"
 90
        1
280
         0
281
         0
  0
CLASS
  1
WIPEOUT
  2
AcDbWipeout
  3
WipeOut|AutoCAD Express Tool|expresstools@autodesk.com
 90
      127
280
         0
281
         1
  0
CLASS
  1
WIPEOUTVARIABLES
  2
AcDbWipeoutVariables
  3
WipeOut|AutoCAD Express Tool|expresstools@autodesk.com
 90
        0
280
         0
281
         0
  0
CLASS
  1
RTEXT
  2
RText
  3
RText|AutoCAD Express Tool|expresstools@autodesk.com
 90
        0
280
         0
281
         1
  0
CLASS
  1
ARCALIGNEDTEXT
  2
AcDbArcAlignedText
  3
ATEXT|AutoCAD Express Tool|expresstools@autodesk.com
 90
        0
280
         0
281
         1
  0
ENDSEC
  0
SECTION
  2
TABLES
  0
TABLE
  2
VPORT
  5
7
100
AcDbSymbolTable
 70
         1
  0
VPORT
  5
15
100
AcDbSymbolTableRecord
100
AcDbViewportTableRecord
  2
*ACTIVE
 70
         0
 10
0.0
 20
0.0
 11
1.0
 21
1.0
 12
1418.5320739926
 22
88.5754998755
 13
0.0
 23
0.0
 14
1.0
 24
1.0
 15
0.0
 25
0.0
 16
0.0
 26
0.0
 36
1.0
 17
0.0
 27
0.0
 37
0.0
 40
308.648952772
 41
1.9834619625
 42
50.0
 43
0.0
 44
0.0
 50
0.0
 51
0.0
 71
         0
 72
       100
 73
         1
 74
         1
 75
         0
 76
         0
 77
         0
 78
         0
  0
ENDTAB
  0
TABLE
  2
LTYPE
  5
4
100
AcDbSymbolTable
 70
         6
  0
LTYPE
  5
11
100
AcDbSymbolTableRecord
100
AcDbLinetypeTableRecord
  2
BYBLOCK
 70
        64
  3

 72
        65
 73
         0
 40
0.0
  0
LTYPE
  5
12
100
AcDbSymbolTableRecord
100
AcDbLinetypeTableRecord
  2
BYLAYER
 70
        64
  3

 72
        65
 73
         0
 40
0.0
  0
LTYPE
  5
13
100
AcDbSymbolTableRecord
100
AcDbLinetypeTableRecord
  2
CONTINUOUS
 70
        64
  3
Solid line
 72
        65
 73
         0
 40
0.0
  0
LTYPE
  5
1D
100
AcDbSymbolTableRecord
100
AcDbLinetypeTableRecord
  2
DASHED
 70
        64
  3
_ _ _ _ _ _ _ _ _ _ _ _ _ _ _ _
 72
        65
 73
         2
 40
0.2
 49
0.1
 74
         0
 49
-0.1
 74
         0
  0
LTYPE
  5
1E
100
AcDbSymbolTableRecord
100
AcDbLinetypeTableRecord
  2
CENTER
 70
        64
  3
___ _ ___ _ ___ _ ___ _ ___ _ ___ _ ___ _ ___ _
 72
        65
 73
         4
 40
0.95
 49
0.625
 74
         0
 49
-0.125
 74
         0
 49
0.075
 74
         0
 49
-0.125
 74
         0
  0
LTYPE
  5
1F
100
AcDbSymbolTableRecord
100
AcDbLinetypeTableRecord
  2
PHANTOM
 70
        64
  3
______  __  __  ______  __  __  ______  __  __  
 72
        65
 73
         6
 40
1.025
 49
0.625
 74
         0
 49
-0.125
 74
         0
 49
0.075
 74
         0
 49
-0.125
 74
         0
 49
0.075
 74
         0
 49
-0.125
 74
         0
  0
ENDTAB
  0
TABLE
  2
LAYER
  5
2
100
AcDbSymbolTable
 70
         5
  0
LAYER
  5
14
100
AcDbSymbolTableRecord
100
AcDbLayerTableRecord
  2
0
 70
         0
 62
         7
  6
CONTINUOUS
  0
LAYER
  5
21
100
AcDbSymbolTableRecord
100
AcDbLayerTableRecord
  2
_____U
 70
         1
 62
         7
  6
CONTINUOUS
  0
LAYER
  5
22
100
AcDbSymbolTableRecord
100
AcDbLayerTableRecord
  2
_Y__________
 70
         0
 62
         7
  6
CONTINUOUS
  0
LAYER
  5
23
100
AcDbSymbolTableRecord
100
AcDbLayerTableRecord
  2
L1_65
 70
         0
 62
         7
  6
CONTINUOUS
  0
LAYER
  5
28
100
AcDbSymbolTableRecord
100
AcDbLayerTableRecord
  2
DEFPOINTS
 70
         0
 62
        -7
  6
CONTINUOUS
  0
ENDTAB
  0
TABLE
  2
STYLE
  5
3
100
AcDbSymbolTable
 70
         7
  0
STYLE
  5
17
100
AcDbSymbolTableRecord
100
AcDbTextStyleTableRecord
  2
STANDARD
 70
         0
 40
0.0
 41
1.0
 50
0.0
 71
         0
 42
0.0
  3
txt
  4

  0
STYLE
  5
31
100
AcDbSymbolTableRecord
100
AcDbTextStyleTableRecord
  2
BOX
 70
         0
 40
1.0
 41
1.0
 50
0.0
 71
         0
 42
0.2
  3
txt.shx
  4

  0
STYLE
  5
247
100
AcDbSymbolTableRecord
100
AcDbTextStyleTableRecord
  2
BOX
 70
         0
 40
1.0
 41
1.0
 50
0.0
 71
         0
 42
0.2
  3
txt.shx
  4

  0
STYLE
  5
25F
100
AcDbSymbolTableRecord
100
AcDbTextStyleTableRecord
  2
BOX
 70
         0
 40
1.0
 41
1.0
 50
0.0
 71
         0
 42
0.2
  3
txt.shx
  4

  0
STYLE
  5
26D
100
AcDbSymbolTableRecord
100
AcDbTextStyleTableRecord
  2
BOX
 70
         0
 40
1.0
 41
1.0
 50
0.0
 71
         0
 42
0.2
  3
txt.shx
  4

  0
STYLE
  5
27E
100
AcDbSymbolTableRecord
100
AcDbTextStyleTableRecord
  2
BOX
 70
         0
 40
1.0
 41
1.0
 50
0.0
 71
         0
 42
0.2
  3
txt.shx
  4

  0
STYLE
  5
2E9
100
AcDbSymbolTableRecord
100
AcDbTextStyleTableRecord
  2
BOX
 70
         0
 40
1.0
 41
1.0
 50
0.0
 71
         0
 42
0.2
  3
txt.shx
  4

  0
ENDTAB
  0
TABLE
  2
VIEW
  5
5
100
AcDbSymbolTable
 70
         0
  0
ENDTAB
  0
TABLE
  2
UCS
  5
6
100
AcDbSymbolTable
 70
         1
  0
UCS
  5
20
100
AcDbSymbolTableRecord
100
AcDbUCSTableRecord
  2
CK_VIEW_1
 70
         0
 10
0.0
 20
0.0
 30
1.0
 11
1.0
 21
0.0
 31
0.0
 12
0.0
 22
1.0
 32
0.0
  0
ENDTAB
  0
TABLE
  2
APPID
  5
8
100
AcDbSymbolTable
 70
         1
  0
APPID
  5
16
100
AcDbSymbolTableRecord
100
AcDbRegAppTableRecord
  2
ACAD
 70
         0
  0
ENDTAB
  0
TABLE
  2
DIMSTYLE
  5
9
100
AcDbSymbolTable
 70
         2
  0
DIMSTYLE
105
18
100
AcDbSymbolTableRecord
100
AcDbDimStyleTableRecord
  2
STANDARD
 70
         0
  3

  4

  5

  6

  7

 40
1.0
 41
0.18
 42
0.0625
 43
0.38
 44
0.18
 45
0.0
 46
0.0
 47
0.0
 48
0.0
 71
         0
 72
         0
 73
         1
 74
         1
 75
         0
 76
         0
 77
         0
 78
         0
140
0.18
141
0.09
142
0.0
143
25.4
144
1.0
145
0.0
146
1.0
147
0.09
170
         0
171
         2
172
         0
173
         0
174
         0
175
         0
176
         0
177
         0
178
         0
270
         2
271
         4
272
         4
273
         2
274
         2
275
         0
280
         0
281
         0
282
         0
283
         1
284
         0
285
         0
286
         0
287
         0
288
         0
340
17
  0
DIMSTYLE
105
24
100
AcDbSymbolTableRecord
100
AcDbDimStyleTableRecord
  2
DIMSTYLE1
 70
         0
  3

  4

  5

  6

  7

 40
1.0
 41
2.7
 42
0.0625
 43
0.38
 44
2.7
 45
0.0
 46
0.0
 47
0.0
 48
0.0
 71
         0
 72
         0
 73
         1
 74
         1
 75
         0
 76
         0
 77
         0
 78
         0
140
2.7
141
0.09
142
0.0
143
25.4
144
1.0
145
0.0
146
1.0
147
0.09
170
         0
171
         2
172
         0
173
         0
174
         0
175
         0
176
         0
177
         0
178
         0
270
         2
271
         4
272
         4
273
         2
274
         2
275
         0
280
         0
281
         0
282
         0
283
         1
284
         0
285
         0
286
         0
287
         0
288
         0
340
17
  0
ENDTAB
  0
TABLE
  2
BLOCK_RECORD
  5
1
100
AcDbSymbolTable
 70
         6
  0
BLOCK_RECORD
  5
A
100
AcDbSymbolTableRecord
100
AcDbBlockTableRecord
  2
*MODEL_SPACE
  0
BLOCK_RECORD
  5
B
100
AcDbSymbolTableRecord
100
AcDbBlockTableRecord
  2
*PAPER_SPACE
  0
BLOCK_RECORD
  5
25
100
AcDbSymbolTableRecord
100
AcDbBlockTableRecord
  2
*D0
  0
BLOCK_RECORD
  5
23C
100
AcDbSymbolTableRecord
100
AcDbBlockTableRecord
  2
*D1
  0
BLOCK_RECORD
  5
254
100
AcDbSymbolTableRecord
100
AcDbBlockTableRecord
  2
*D2
  0
BLOCK_RECORD
  5
262
100
AcDbSymbolTableRecord
100
AcDbBlockTableRecord
  2
*D3
  0
BLOCK_RECORD
  5
273
100
AcDbSymbolTableRecord
100
AcDbBlockTableRecord
  2
*D4
  0
BLOCK_RECORD
  5
29A
100
AcDbSymbolTableRecord
100
AcDbBlockTableRecord
  2
*X5
  0
ENDTAB
  0
ENDSEC
  0
SECTION
  2
BLOCKS
  0
BLOCK
  5
D
100
AcDbEntity
  8
0
100
AcDbBlockBegin
  2
*MODEL_SPACE
 70
         0
 10
0.0
 20
0.0
 30
0.0
  3
*MODEL_SPACE
  1

  0
ENDBLK
  5
E
100
AcDbEntity
  8
0
100
AcDbBlockEnd
  0
BLOCK
  5
F
100
AcDbEntity
 67
         1
  8
0
100
AcDbBlockBegin
  2
*PAPER_SPACE
 70
         0
 10
0.0
 20
0.0
 30
0.0
  3
*PAPER_SPACE
  1

  0
ENDBLK
  5
10
100
AcDbEntity
 67
         1
  8
0
100
AcDbBlockEnd
  0
BLOCK
  5
26
100
AcDbEntity
  8
0
100
AcDbBlockBegin
  2
*D0
 70
        65
 10
0.0
 20
0.0
 30
0.0
  3
*D0
  1

  0
POINT
  5
29
100
AcDbEntity
  8
DEFPOINTS
  6
CONTINUOUS
 62
         0
100
AcDbPoint
 10
1475.7323561597
 20
159.5884980187
 30
0.0
  0
POINT
  5
2A
100
AcDbEntity
  8
DEFPOINTS
  6
CONTINUOUS
 62
         0
100
AcDbPoint
 10
1464.1372677689
 20
159.5884980187
 30
0.0
  0
POINT
  5
2B
100
AcDbEntity
  8
DEFPOINTS
  6
CONTINUOUS
 62
         0
100
AcDbPoint
 10
1464.1372677689
 20
140.78078544
 30
0.0
  0
LINE
  5
2C
100
AcDbEntity
  8
L1_65
  6
CONTINUOUS
 62
         4
100
AcDbLine
 10
1465.4872677689
 20
159.5884980187
 30
0.0
 11
1476.4073561597
 21
159.5884980187
 31
0.0
  0
LINE
  5
2D
100
AcDbEntity
  8
L1_65
  6
CONTINUOUS
 62
         4
100
AcDbLine
 10
1465.4872677689
 20
140.78078544
 30
0.0
 11
1476.4073561597
 21
140.78078544
 31
0.0
  0
LINE
  5
2E
100
AcDbEntity
  8
L1_65
  6
CONTINUOUS
 62
         4
100
AcDbLine
 10
1475.7323561597
 20
159.5884980187
 30
0.0
 11
1475.7323561597
 21
140.78078544
 31
0.0
  0
SOLID
  5
2F
100
AcDbEntity
  8
L1_65
  6
CONTINUOUS
 62
         4
100
AcDbTrace
 10
1475.7323561597
 20
159.5884980187
 30
0.0
 11
1476.1373561597
 21
156.8884980187
 31
0.0
 12
1475.3273561597
 22
156.8884980187
 32
0.0
 13
1475.7323561597
 23
159.5884980187
 33
0.0
  0
SOLID
  5
30
100
AcDbEntity
  8
L1_65
  6
CONTINUOUS
 62
         4
100
AcDbTrace
 10
1475.7323561597
 20
140.78078544
 30
0.0
 11
1475.3273561597
 21
143.48078544
 31
0.0
 12
1476.1373561597
 22
143.48078544
 32
0.0
 13
1475.7323561597
 23
140.78078544
 33
0.0
  0
TEXT
  5
32
100
AcDbEntity
  8
L1_65
  6
CONTINUOUS
 62
         4
100
AcDbText
 10
1473.7073561597
 20
144.7846417294
 30
0.0
 40
2.7
  1
崷18
 50
90.0
  7
BOX
100
AcDbText
  0
ENDBLK
  5
33
100
AcDbEntity
  8
0
  6
CONTINUOUS
100
AcDbBlockEnd
  0
BLOCK
  5
23D
100
AcDbEntity
  8
0
100
AcDbBlockBegin
  2
*D1
 70
        65
 10
0.0
 20
0.0
 30
0.0
  3
*D1
  1

  0
POINT
  5
23F
100
AcDbEntity
  8
DEFPOINTS
  6
CONTINUOUS
 62
         0
100
AcDbPoint
 10
1486.8228728958
 20
137.4846417294
 30
0.0
  0
POINT
  5
240
100
AcDbEntity
  8
DEFPOINTS
  6
CONTINUOUS
 62
         0
100
AcDbPoint
 10
1456.6252754451
 20
137.4846417294
 30
0.0
  0
POINT
  5
241
100
AcDbEntity
  8
DEFPOINTS
  6
CONTINUOUS
 62
         0
100
AcDbPoint
 10
1456.6252754451
 20
162.8846417294
 30
0.0
  0
LINE
  5
242
100
AcDbEntity
  8
L1_65
  6
CONTINUOUS
 62
         4
100
AcDbLine
 10
1457.9752754451
 20
137.4846417294
 30
0.0
 11
1487.4978728958
 21
137.4846417294
 31
0.0
  0
LINE
  5
243
100
AcDbEntity
  8
L1_65
  6
CONTINUOUS
 62
         4
100
AcDbLine
 10
1457.9752754451
 20
162.8846417294
 30
0.0
 11
1487.4978728958
 21
162.8846417294
 31
0.0
  0
LINE
  5
244
100
AcDbEntity
  8
L1_65
  6
CONTINUOUS
 62
         4
100
AcDbLine
 10
1486.8228728958
 20
137.4846417294
 30
0.0
 11
1486.8228728958
 21
162.8846417294
 31
0.0
  0
SOLID
  5
245
100
AcDbEntity
  8
L1_65
  6
CONTINUOUS
 62
         4
100
AcDbTrace
 10
1486.8228728958
 20
137.4846417294
 30
0.0
 11
1486.4178728958
 21
140.1846417294
 31
0.0
 12
1487.2278728958
 22
140.1846417294
 32
0.0
 13
1486.8228728958
 23
137.4846417294
 33
0.0
  0
SOLID
  5
246
100
AcDbEntity
  8
L1_65
  6
CONTINUOUS
 62
         4
100
AcDbTrace
 10
1486.8228728958
 20
162.8846417294
 30
0.0
 11
1487.2278728958
 21
160.1846417294
 31
0.0
 12
1486.4178728958
 22
160.1846417294
 32
0.0
 13
1486.8228728958
 23
162.8846417294
 33
0.0
  0
TEXT
  5
248
100
AcDbEntity
  8
L1_65
  6
CONTINUOUS
 62
         4
100
AcDbText
 10
1483.6908728958
 20
141.5072850613
 30
0.0
 40
2.7
  1
崷25.4
 50
90.0
  7
BOX
100
AcDbText
  0
ENDBLK
  5
249
100
AcDbEntity
  8
0
  6
CONTINUOUS
100
AcDbBlockEnd
  0
BLOCK
  5
255
100
AcDbEntity
  8
0
100
AcDbBlockBegin
  2
*D2
 70
        65
 10
0.0
 20
0.0
 30
0.0
  3
*D2
  1

  0
POINT
  5
257
100
AcDbEntity
  8
DEFPOINTS
  6
CONTINUOUS
 62
         0
100
AcDbPoint
 10
1400.0033403763
 20
217.3824359449
 30
0.0
  0
POINT
  5
258
100
AcDbEntity
  8
DEFPOINTS
  6
CONTINUOUS
 62
         0
100
AcDbPoint
 10
1400.0033403763
 20
172.4096417294
 30
0.0
  0
POINT
  5
259
100
AcDbEntity
  8
DEFPOINTS
  6
CONTINUOUS
 62
         0
100
AcDbPoint
 10
1465.0033403763
 20
150.1846417294
 30
0.0
  0
LINE
  5
25A
100
AcDbEntity
  8
L1_65
  6
CONTINUOUS
 62
         4
100
AcDbLine
 10
1400.0033403763
 20
173.7596417294
 30
0.0
 11
1400.0033403763
 21
218.0574359449
 31
0.0
  0
LINE
  5
25B
100
AcDbEntity
  8
L1_65
  6
CONTINUOUS
 62
         4
100
AcDbLine
 10
1465.0033403763
 20
151.5346417294
 30
0.0
 11
1465.0033403763
 21
218.0574359449
 31
0.0
  0
LINE
  5
25C
100
AcDbEntity
  8
L1_65
  6
CONTINUOUS
 62
         4
100
AcDbLine
 10
1400.0033403763
 20
217.3824359449
 30
0.0
 11
1465.0033403763
 21
217.3824359449
 31
0.0
  0
SOLID
  5
25D
100
AcDbEntity
  8
L1_65
  6
CONTINUOUS
 62
         4
100
AcDbTrace
 10
1400.0033403763
 20
217.3824359449
 30
0.0
 11
1402.7033403763
 21
217.7874359449
 31
0.0
 12
1402.7033403763
 22
216.9774359449
 32
0.0
 13
1400.0033403763
 23
217.3824359449
 33
0.0
  0
SOLID
  5
25E
100
AcDbEntity
  8
L1_65
  6
CONTINUOUS
 62
         4
100
AcDbTrace
 10
1465.0033403763
 20
217.3824359449
 30
0.0
 11
1462.3033403763
 21
216.9774359449
 31
0.0
 12
1462.3033403763
 22
217.7874359449
 32
0.0
 13
1465.0033403763
 23
217.3824359449
 33
0.0
  0
TEXT
  5
260
100
AcDbEntity
  8
L1_65
  6
CONTINUOUS
 62
         4
100
AcDbText
 10
1428.3194485805
 20
219.4074359449
 30
0.0
 40
2.7
  1
65
  7
BOX
100
AcDbText
  0
ENDBLK
  5
261
100
AcDbEntity
  8
0
  6
CONTINUOUS
100
AcDbBlockEnd
  0
BLOCK
  5
263
100
AcDbEntity
  8
0
100
AcDbBlockBegin
  2
*D3
 70
        65
 10
0.0
 20
0.0
 30
0.0
  3
*D3
  1

  0
POINT
  5
265
100
AcDbEntity
  8
DEFPOINTS
  6
CONTINUOUS
 62
         0
100
AcDbPoint
 10
1331.7533403763
 20
223.5679539148
 30
0.0
  0
POINT
  5
266
100
AcDbEntity
  8
DEFPOINTS
  6
CONTINUOUS
 62
         0
100
AcDbPoint
 10
1331.7533403763
 20
161.4188234458
 30
0.0
  0
POINT
  5
267
100
AcDbEntity
  8
DEFPOINTS
  6
CONTINUOUS
 62
         0
100
AcDbPoint
 10
1465.0033403763
 20
150.1846417294
 30
0.0
  0
LINE
  5
268
100
AcDbEntity
  8
L1_65
  6
CONTINUOUS
 62
         4
100
AcDbLine
 10
1331.7533403763
 20
162.7688234458
 30
0.0
 11
1331.7533403763
 21
224.2429539148
 31
0.0
  0
LINE
  5
269
100
AcDbEntity
  8
L1_65
  6
CONTINUOUS
 62
         4
100
AcDbLine
 10
1465.0033403763
 20
151.5346417294
 30
0.0
 11
1465.0033403763
 21
224.2429539148
 31
0.0
  0
LINE
  5
26A
100
AcDbEntity
  8
L1_65
  6
CONTINUOUS
 62
         4
100
AcDbLine
 10
1331.7533403763
 20
223.5679539148
 30
0.0
 11
1465.0033403763
 21
223.5679539148
 31
0.0
  0
SOLID
  5
26B
100
AcDbEntity
  8
L1_65
  6
CONTINUOUS
 62
         4
100
AcDbTrace
 10
1331.7533403763
 20
223.5679539148
 30
0.0
 11
1334.4533403763
 21
223.9729539148
 31
0.0
 12
1334.4533403763
 22
223.1629539148
 32
0.0
 13
1331.7533403763
 23
223.5679539148
 33
0.0
  0
SOLID
  5
26C
100
AcDbEntity
  8
L1_65
  6
CONTINUOUS
 62
         4
100
AcDbTrace
 10
1465.0033403763
 20
223.5679539148
 30
0.0
 11
1462.3033403763
 21
223.1629539148
 31
0.0
 12
1462.3033403763
 22
223.9729539148
 32
0.0
 13
1465.0033403763
 23
223.5679539148
 33
0.0
  0
TEXT
  5
26E
100
AcDbEntity
  8
L1_65
  6
CONTINUOUS
 62
         4
100
AcDbText
 10
1390.1960631912
 20
225.5929539148
 30
0.0
 40
2.7
  1
133.25
  7
BOX
100
AcDbText
  0
ENDBLK
  5
26F
100
AcDbEntity
  8
0
  6
CONTINUOUS
100
AcDbBlockEnd
  0
BLOCK
  5
274
100
AcDbEntity
  8
0
100
AcDbBlockBegin
  2
*D4
 70
        65
 10
0.0
 20
0.0
 30
0.0
  3
*D4
  1

  0
POINT
  5
276
100
AcDbEntity
  8
DEFPOINTS
  6
CONTINUOUS
 62
         0
100
AcDbPoint
 10
1425.0033403763
 20
-51.0444786573
 30
0.0
  0
POINT
  5
277
100
AcDbEntity
  8
DEFPOINTS
  6
CONTINUOUS
 62
         0
100
AcDbPoint
 10
1425.0033403763
 20
-17.7058347407
 30
0.0
  0
POINT
  5
278
100
AcDbEntity
  8
DEFPOINTS
  6
CONTINUOUS
 62
         0
100
AcDbPoint
 10
1465.0033403763
 20
-20.9877293495
 30
0.0
  0
LINE
  5
279
100
AcDbEntity
  8
L1_65
  6
CONTINUOUS
 62
         4
100
AcDbLine
 10
1425.0033403763
 20
-19.0558347407
 30
0.0
 11
1425.0033403763
 21
-51.7194786573
 31
0.0
  0
LINE
  5
27A
100
AcDbEntity
  8
L1_65
  6
CONTINUOUS
 62
         4
100
AcDbLine
 10
1465.0033403763
 20
-22.3377293495
 30
0.0
 11
1465.0033403763
 21
-51.7194786573
 31
0.0
  0
LINE
  5
27B
100
AcDbEntity
  8
L1_65
  6
CONTINUOUS
 62
         4
100
AcDbLine
 10
1425.0033403763
 20
-51.0444786573
 30
0.0
 11
1465.0033403763
 21
-51.0444786573
 31
0.0
  0
SOLID
  5
27C
100
AcDbEntity
  8
L1_65
  6
CONTINUOUS
 62
         4
100
AcDbTrace
 10
1425.0033403763
 20
-51.0444786573
 30
0.0
 11
1427.7033403763
 21
-50.6394786573
 31
0.0
 12
1427.7033403763
 22
-51.4494786573
 32
0.0
 13
1425.0033403763
 23
-51.0444786573
 33
0.0
  0
SOLID
  5
27D
100
AcDbEntity
  8
L1_65
  6
CONTINUOUS
 62
         4
100
AcDbTrace
 10
1465.0033403763
 20
-51.0444786573
 30
0.0
 11
1462.3033403763
 21
-51.4494786573
 31
0.0
 12
1462.3033403763
 22
-50.6394786573
 32
0.0
 13
1465.0033403763
 23
-51.0444786573
 33
0.0
  0
TEXT
  5
27F
100
AcDbEntity
  8
L1_65
  6
CONTINUOUS
 62
         4
100
AcDbText
 10
1443.9579876056
 20
-49.0194786573
 30
0.0
 40
2.7
  1
40
  7
BOX
100
AcDbText
  0
ENDBLK
  5
280
100
AcDbEntity
  8
0
  6
CONTINUOUS
100
AcDbBlockEnd
  0
BLOCK
  5
29B
100
AcDbEntity
  8
0
100
AcDbBlockBegin
  2
*X5
 70
        65
 10
0.0
 20
0.0
 30
0.0
  3
*X5
  1

  0
LINE
  5
29C
100
AcDbEntity
  8
L1_65
  6
CONTINUOUS
 62
         4
100
AcDbLine
 10
1458.6148465117
 20
-24.9223383538
 30
0.0
 11
1464.8938696814
 21
-18.6433151841
 31
0.0
  0
LINE
  5
29D
100
AcDbEntity
  8
L1_65
  6
CONTINUOUS
 62
         4
100
AcDbLine
 10
1454.770274907
 20
-24.5242692714
 30
0.0
 11
1461.5887094377
 21
-17.7058347407
 31
0.0
  0
LINE
  5
29E
100
AcDbEntity
  8
L1_65
  6
CONTINUOUS
 62
         4
100
AcDbLine
 10
1453.7533403763
 20
-21.298563115
 30
0.0
 11
1457.3460687506
 21
-17.7058347407
 31
0.0
  0
LINE
  5
29F
100
AcDbEntity
  8
L1_65
  6
CONTINUOUS
 62
         4
100
AcDbLine
 10
1462.6284280635
 20
-8.1808347407
 30
0.0
 11
1465.0033403763
 21
-5.8059224279
 31
0.0
  0
LINE
  5
2A0
100
AcDbEntity
  8
L1_65
  6
CONTINUOUS
 62
         4
100
AcDbLine
 10
1431.3382873764
 20
-35.2283347407
 30
0.0
 11
1435.0553403763
 21
-31.5112817408
 31
0.0
  0
LINE
  5
2A1
100
AcDbEntity
  8
L1_65
  6
CONTINUOUS
 62
         4
100
AcDbLine
 10
1440.9232873764
 20
-25.6433347407
 30
0.0
 11
1445.2533403763
 21
-21.3132817408
 31
0.0
  0
LINE
  5
2A2
100
AcDbEntity
  8
L1_65
  6
CONTINUOUS
 62
         4
100
AcDbLine
 10
1458.3857873764
 20
-8.1808347407
 30
0.0
 11
1463.3801796523
 21
-3.1864424647
 31
0.0
  0
LINE
  5
2A3
100
AcDbEntity
  8
L1_65
  6
CONTINUOUS
 62
         4
100
AcDbLine
 10
1417.6056466891
 20
-44.7183347409
 30
0.0
 11
1419.1033403763
 21
-43.2206410537
 31
0.0
  0
LINE
  5
2A4
100
AcDbEntity
  8
L1_65
  6
CONTINUOUS
 62
         4
100
AcDbLine
 10
1427.0956466892
 20
-35.2283347407
 30
0.0
 11
1435.0553403763
 21
-27.2686410537
 31
0.0
  0
LINE
  5
2A5
100
AcDbEntity
  8
L1_65
  6
CONTINUOUS
 62
         4
100
AcDbLine
 10
1436.6806466892
 20
-25.6433347407
 30
0.0
 11
1444.6181466892
 21
-17.7058347407
 31
0.0
  0
LINE
  5
2A6
100
AcDbEntity
  8
L1_65
  6
CONTINUOUS
 62
         4
100
AcDbLine
 10
1454.1431466892
 20
-8.1808347407
 30
0.0
 11
1460.4867618464
 21
-1.8372195835
 31
0.0
  0
LINE
  5
2A7
100
AcDbEntity
  8
L1_65
  6
CONTINUOUS
 62
         4
100
AcDbLine
 10
1414.1723409976
 20
-43.9089997452
 30
0.0
 11
1419.1033403763
 21
-38.9780003665
 31
0.0
  0
LINE
  5
2A8
100
AcDbEntity
  8
L1_65
  6
CONTINUOUS
 62
         4
100
AcDbLine
 10
1422.8530060021
 20
-35.2283347407
 30
0.0
 11
1440.3755060021
 21
-17.7058347407
 31
0.0
  0
LINE
  5
2A9
100
AcDbEntity
  8
L1_65
  6
CONTINUOUS
 62
         4
100
AcDbLine
 10
1449.9005060021
 20
-8.1808347407
 30
0.0
 11
1457.5933440404
 21
-0.4879967024
 31
0.0
  0
LINE
  5
2AA
100
AcDbEntity
  8
L1_65
  6
CONTINUOUS
 62
         4
100
AcDbLine
 10
1412.5847980381
 20
-41.2539020175
 30
0.0
 11
1436.132865315
 21
-17.7058347407
 31
0.0
  0
LINE
  5
2AB
100
AcDbEntity
  8
L1_65
  6
CONTINUOUS
 62
         4
100
AcDbLine
 10
1445.657865315
 20
-8.1808347407
 30
0.0
 11
1451.3961321908
 21
-2.4425678648
 31
0.0
  0
LINE
  5
2AC
100
AcDbEntity
  8
L1_65
  6
CONTINUOUS
 62
         4
100
AcDbLine
 10
1404.8777246277
 20
-44.7183347409
 30
0.0
 11
1431.8902246279
 21
-17.7058347407
 31
0.0
  0
LINE
  5
2AD
100
AcDbEntity
  8
L1_65
  6
CONTINUOUS
 62
         4
100
AcDbLine
 10
1441.4152246279
 20
-8.1808347407
 30
0.0
 11
1447.2336945098
 21
-2.3623648588
 31
0.0
  0
LINE
  5
2AE
100
AcDbEntity
  8
L1_65
  6
CONTINUOUS
 62
         4
100
AcDbLine
 10
1403.2033403763
 20
-42.1500783052
 30
0.0
 11
1427.6475839408
 21
-17.7058347407
 31
0.0
  0
LINE
  5
2AF
100
AcDbEntity
  8
L1_65
  6
CONTINUOUS
 62
         4
100
AcDbLine
 10
1437.1725839408
 20
-8.1808347407
 30
0.0
 11
1444.2321619559
 21
-1.1212567255
 31
0.0
  0
LINE
  5
2B0
100
AcDbEntity
  8
L1_65
  6
CONTINUOUS
 62
         4
100
AcDbLine
 10
1403.2033403763
 20
-37.9074376181
 30
0.0
 11
1421.1674432536
 21
-19.9433347407
 31
0.0
  0
LINE
  5
2B1
100
AcDbEntity
  8
L1_65
  6
CONTINUOUS
 62
         4
100
AcDbLine
 10
1432.9299432536
 20
-8.1808347407
 30
0.0
 11
1440.8674432536
 21
-0.2433347407
 31
0.0
  0
LINE
  5
2B2
100
AcDbEntity
  8
L1_65
  6
CONTINUOUS
 62
         4
100
AcDbLine
 10
1401.6424658943
 20
-35.2256714129
 30
0.0
 11
1416.9248025665
 21
-19.9433347407
 31
0.0
  0
LINE
  5
2B3
100
AcDbEntity
  8
L1_65
  6
CONTINUOUS
 62
         4
100
AcDbLine
 10
1428.6873025665
 20
-8.1808347407
 30
0.0
 11
1436.6248025665
 21
-0.2433347407
 31
0.0
  0
LINE
  5
2B4
100
AcDbEntity
  8
L1_65
  6
CONTINUOUS
 62
         4
100
AcDbLine
 10
1397.7812209608
 20
-34.8442756593
 30
0.0
 11
1412.6821618794
 21
-19.9433347407
 31
0.0
  0
LINE
  5
2B5
100
AcDbEntity
  8
L1_65
  6
CONTINUOUS
 62
         4
100
AcDbLine
 10
1424.7988498539
 20
-7.8266467662
 30
0.0
 11
1435.0553403763
 21
2.4298437562
 31
0.0
  0
LINE
  5
2B6
100
AcDbEntity
  8
L1_65
  6
CONTINUOUS
 62
         4
100
AcDbLine
 10
1394.0785527248
 20
-34.3043032082
 30
0.0
 11
1408.4395211923
 21
-19.9433347407
 31
0.0
  0
LINE
  5
2B7
100
AcDbEntity
  8
L1_65
  6
CONTINUOUS
 62
         4
100
AcDbLine
 10
1422.4395211923
 20
-5.9433347407
 30
0.0
 11
1435.0553403763
 21
6.6724844433
 31
0.0
  0
LINE
  5
2B8
100
AcDbEntity
  8
L1_65
  6
CONTINUOUS
 62
         4
100
AcDbLine
 10
1390.3758844888
 20
-33.7643307571
 30
0.0
 11
1404.1968805052
 21
-19.9433347407
 31
0.0
  0
LINE
  5
2B9
100
AcDbEntity
  8
L1_65
  6
CONTINUOUS
 62
         4
100
AcDbLine
 10
1418.1968805052
 20
-5.9433347407
 30
0.0
 11
1433.4818805052
 21
9.3416652593
 31
0.0
  0
LINE
  5
2BA
100
AcDbEntity
  8
L1_65
  6
CONTINUOUS
 62
         4
100
AcDbLine
 10
1386.6732162527
 20
-33.224358306
 30
0.0
 11
1399.9542398181
 21
-19.9433347407
 31
0.0
  0
LINE
  5
2BB
100
AcDbEntity
  8
L1_65
  6
CONTINUOUS
 62
         4
100
AcDbLine
 10
1413.9542398181
 20
-5.9433347407
 30
0.0
 11
1429.2392398181
 21
9.3416652593
 31
0.0
  0
LINE
  5
2BC
100
AcDbEntity
  8
L1_65
  6
CONTINUOUS
 62
         4
100
AcDbLine
 10
1382.9705480167
 20
-32.6843858549
 30
0.0
 11
1395.7115991309
 21
-19.9433347407
 31
0.0
  0
LINE
  5
2BD
100
AcDbEntity
  8
L1_65
  6
CONTINUOUS
 62
         4
100
AcDbLine
 10
1412.8533333286
 20
-2.801600543
 30
0.0
 11
1424.9965991309
 21
9.3416652593
 31
0.0
  0
LINE
  5
2BE
100
AcDbEntity
  8
L1_65
  6
CONTINUOUS
 62
         4
100
AcDbLine
 10
1379.2678797807
 20
-32.1444134038
 30
0.0
 11
1391.4689584438
 21
-19.9433347407
 31
0.0
  0
LINE
  5
2BF
100
AcDbEntity
  8
L1_65
  6
CONTINUOUS
 62
         4
100
AcDbLine
 10
1405.4689584438
 20
-5.9433347407
 30
0.0
 11
1409.5533336953
 21
-1.8589594892
 31
0.0
  0
LINE
  5
2C0
100
AcDbEntity
  8
L1_65
  6
CONTINUOUS
 62
         4
100
AcDbLine
 10
1412.853334979
 20
1.4410417946
 30
0.0
 11
1420.7539584438
 21
9.3416652593
 31
0.0
  0
LINE
  5
2C1
100
AcDbEntity
  8
L1_65
  6
CONTINUOUS
 62
         4
100
AcDbLine
 10
1375.5652115446
 20
-31.6044409527
 30
0.0
 11
1387.2263177567
 21
-19.9433347407
 31
0.0
  0
LINE
  5
2C2
100
AcDbEntity
  8
L1_65
  6
CONTINUOUS
 62
         4
100
AcDbLine
 10
1401.2263177567
 20
-5.9433347407
 30
0.0
 11
1409.5533353457
 21
2.3836828484
 31
0.0
  0
LINE
  5
2C3
100
AcDbEntity
  8
L1_65
  6
CONTINUOUS
 62
         4
100
AcDbLine
 10
1412.8533366295
 20
5.6836841321
 30
0.0
 11
1419.1033403763
 21
11.9336878789
 31
0.0
  0
LINE
  5
2C4
100
AcDbEntity
  8
L1_65
  6
CONTINUOUS
 62
         4
100
AcDbLine
 10
1371.8625433086
 20
-31.0644685016
 30
0.0
 11
1382.9836770696
 21
-19.9433347407
 31
0.0
  0
LINE
  5
2C5
100
AcDbEntity
  8
L1_65
  6
CONTINUOUS
 62
         4
100
AcDbLine
 10
1396.9836770696
 20
-5.9433347407
 30
0.0
 11
1409.5533369962
 21
6.626325186
 31
0.0
  0
LINE
  5
2C6
100
AcDbEntity
  8
L1_65
  6
CONTINUOUS
 62
         4
100
AcDbLine
 10
1412.85333828
 20
9.9263264697
 30
0.0
 11
1419.1033403763
 21
16.176328566
 31
0.0
  0
LINE
  5
2C7
100
AcDbEntity
  8
L1_65
  6
CONTINUOUS
 62
         4
100
AcDbLine
 10
1368.1598750726
 20
-30.5244960506
 30
0.0
 11
1378.7410363825
 21
-19.9433347407
 31
0.0
  0
LINE
  5
2C8
100
AcDbEntity
  8
L1_65
  6
CONTINUOUS
 62
         4
100
AcDbLine
 10
1392.7410363825
 20
-5.9433347407
 30
0.0
 11
1407.6283401281
 21
8.943969005
 31
0.0
  0
LINE
  5
2C9
100
AcDbEntity
  8
L1_65
  6
CONTINUOUS
 62
         4
100
AcDbLine
 10
1413.2033400666
 20
14.5189689435
 30
0.0
 11
1417.5160363826
 21
18.8316652595
 31
0.0
  0
LINE
  5
2CA
100
AcDbEntity
  8
L1_65
  6
CONTINUOUS
 62
         4
100
AcDbLine
 10
1364.4572068365
 20
-29.9845235995
 30
0.0
 11
1374.4983956953
 21
-19.9433347407
 31
0.0
  0
LINE
  5
2CB
100
AcDbEntity
  8
L1_65
  6
CONTINUOUS
 62
         4
100
AcDbLine
 10
1388.4983956953
 20
-5.9433347407
 30
0.0
 11
1405.1329737733
 21
10.6912433373
 31
0.0
  0
LINE
  5
2CC
100
AcDbEntity
  8
L1_65
  6
CONTINUOUS
 62
         4
100
AcDbLine
 10
1407.5024234154
 20
13.0606929794
 30
0.0
 11
1409.203340161
 21
14.761609725
 31
0.0
  0
LINE
  5
2CD
100
AcDbEntity
  8
L1_65
  6
CONTINUOUS
 62
         4
100
AcDbLine
 10
1360.7545386005
 20
-29.4445511484
 30
0.0
 11
1370.2557550082
 21
-19.9433347407
 31
0.0
  0
LINE
  5
2CE
100
AcDbEntity
  8
L1_65
  6
CONTINUOUS
 62
         4
100
AcDbLine
 10
1384.2557550082
 20
-5.9433347407
 30
0.0
 11
1399.3915331161
 21
9.1924433672
 31
0.0
  0
LINE
  5
2CF
100
AcDbEntity
  8
L1_65
  6
CONTINUOUS
 62
         4
100
AcDbLine
 10
1405.2942630778
 20
15.0951733289
 30
0.0
 11
1408.1028158819
 21
17.903726133
 31
0.0
  0
LINE
  5
2D0
100
AcDbEntity
  8
L1_65
  6
CONTINUOUS
 62
         4
100
AcDbLine
 10
1357.0518703645
 20
-28.9045786973
 30
0.0
 11
1366.0131143211
 21
-19.9433347407
 31
0.0
  0
LINE
  5
2D1
100
AcDbEntity
  8
L1_65
  6
CONTINUOUS
 62
         4
100
AcDbLine
 10
1380.0131143211
 20
-5.9433347407
 30
0.0
 11
1394.424539141
 21
8.4680900792
 31
0.0
  0
LINE
  5
2D2
100
AcDbEntity
  8
L1_65
  6
CONTINUOUS
 62
         4
100
AcDbLine
 10
1403.2033403763
 20
17.2468913145
 30
0.0
 11
1404.7881143213
 21
18.8316652595
 31
0.0
  0
LINE
  5
2D3
100
AcDbEntity
  8
L1_65
  6
CONTINUOUS
 62
         4
100
AcDbLine
 10
1353.3492021285
 20
-28.3646062462
 30
0.0
 11
1361.770473634
 21
-19.9433347407
 31
0.0
  0
LINE
  5
2D4
100
AcDbEntity
  8
L1_65
  6
CONTINUOUS
 62
         4
100
AcDbLine
 10
1375.770473634
 20
-5.9433347407
 30
0.0
 11
1389.4575451658
 21
7.7437367911
 31
0.0
  0
LINE
  5
2D5
100
AcDbEntity
  8
L1_65
  6
CONTINUOUS
 62
         4
100
AcDbLine
 10
1349.6465338924
 20
-27.8246337951
 30
0.0
 11
1357.5278329469
 21
-19.9433347407
 31
0.0
  0
LINE
  5
2D6
100
AcDbEntity
  8
L1_65
  6
CONTINUOUS
 62
         4
100
AcDbLine
 10
1371.5278329469
 20
-5.9433347407
 30
0.0
 11
1384.4905511906
 21
7.0193835031
 31
0.0
  0
LINE
  5
2D7
100
AcDbEntity
  8
L1_65
  6
CONTINUOUS
 62
         4
100
AcDbLine
 10
1345.9438656564
 20
-27.284661344
 30
0.0
 11
1353.2851922597
 21
-19.9433347407
 31
0.0
  0
LINE
  5
2D8
100
AcDbEntity
  8
L1_65
  6
CONTINUOUS
 62
         4
100
AcDbLine
 10
1367.2851922597
 20
-5.9433347407
 30
0.0
 11
1379.5235572155
 21
6.295030215
 31
0.0
  0
LINE
  5
2D9
100
AcDbEntity
  8
L1_65
  6
CONTINUOUS
 62
         4
100
AcDbLine
 10
1342.2411974204
 20
-26.7446888929
 30
0.0
 11
1349.0425515726
 21
-19.9433347407
 31
0.0
  0
LINE
  5
2DA
100
AcDbEntity
  8
L1_65
  6
CONTINUOUS
 62
         4
100
AcDbLine
 10
1363.0425515726
 20
-5.9433347407
 30
0.0
 11
1374.5565632403
 21
5.570676927
 31
0.0
  0
LINE
  5
2DB
100
AcDbEntity
  8
L1_65
  6
CONTINUOUS
 62
         4
100
AcDbLine
 10
1338.5385291843
 20
-26.2047164418
 30
0.0
 11
1344.7999108855
 21
-19.9433347407
 31
0.0
  0
LINE
  5
2DC
100
AcDbEntity
  8
L1_65
  6
CONTINUOUS
 62
         4
100
AcDbLine
 10
1358.7999108855
 20
-5.9433347407
 30
0.0
 11
1369.5895692651
 21
4.846323639
 31
0.0
  0
LINE
  5
2DD
100
AcDbEntity
  8
L1_65
  6
CONTINUOUS
 62
         4
100
AcDbLine
 10
1334.8358609483
 20
-25.6647439908
 30
0.0
 11
1340.5572701984
 21
-19.9433347407
 31
0.0
  0
LINE
  5
2DE
100
AcDbEntity
  8
L1_65
  6
CONTINUOUS
 62
         4
100
AcDbLine
 10
1354.5572701984
 20
-5.9433347407
 30
0.0
 11
1364.62257529
 21
4.1219703509
 31
0.0
  0
LINE
  5
2DF
100
AcDbEntity
  8
L1_65
  6
CONTINUOUS
 62
         4
100
AcDbLine
 10
1331.7892165228
 20
-24.4687477291
 30
0.0
 11
1335.1646295113
 21
-21.0933347407
 31
0.0
  0
LINE
  5
2E0
100
AcDbEntity
  8
L1_65
  6
CONTINUOUS
 62
         4
100
AcDbLine
 10
1350.3146295113
 20
-5.9433347407
 30
0.0
 11
1359.6555813148
 21
3.3976170629
 31
0.0
  0
LINE
  5
2E1
100
AcDbEntity
  8
L1_65
  6
CONTINUOUS
 62
         4
100
AcDbLine
 10
1346.0719888241
 20
-5.9433347407
 30
0.0
 11
1354.6885873396
 21
2.6732637748
 31
0.0
  0
LINE
  5
2E2
100
AcDbEntity
  8
L1_65
  6
CONTINUOUS
 62
         4
100
AcDbLine
 10
1341.829348137
 20
-5.9433347407
 30
0.0
 11
1349.7215933645
 21
1.9489104868
 31
0.0
  0
LINE
  5
2E3
100
AcDbEntity
  8
L1_65
  6
CONTINUOUS
 62
         4
100
AcDbLine
 10
1337.6214452693
 20
-5.9085969213
 30
0.0
 11
1344.7545993893
 21
1.2245571987
 31
0.0
  0
LINE
  5
2E4
100
AcDbEntity
  8
L1_65
  6
CONTINUOUS
 62
         4
100
AcDbLine
 10
1334.4940667628
 20
-4.7933347407
 30
0.0
 11
1339.7876054141
 21
0.5002039107
 31
0.0
  0
LINE
  5
2E5
100
AcDbEntity
  8
L1_65
  6
CONTINUOUS
 62
         4
100
AcDbLine
 10
1331.7533403763
 20
-3.2914204401
 30
0.0
 11
1334.820611439
 21
-0.2241493774
 31
0.0
  0
ENDBLK
  5
2E6
100
AcDbEntity
  8
0
  6
CONTINUOUS
100
AcDbBlockEnd
  0
ENDSEC
  0
SECTION
  2
ENTITIES
  0
DIMENSION
  5
27
100
AcDbEntity
  8
L1_65
  6
CONTINUOUS
 62
         4
100
AcDbDimension
  2
*D0
 10
1475.7323561597
 20
159.5884980187
 30
0.0
 11
1473.7073561597
 21
144.7846417294
 31
0.0
  3
DIMSTYLE1
100
AcDbAlignedDimension
 13
1464.1372677689
 23
159.5884980187
 33
0.0
 14
1464.1372677689
 24
140.78078544
 34
0.0
 50
90.0
100
AcDbRotatedDimension
  0
ARC
  5
34
100
AcDbEntity
  8
_Y__________
  6
CONTINUOUS
 62
         7
100
AcDbCircle
 10
1332.7533403763
 20
-3.7933347407
 30
0.0
 40
1.0
100
AcDbArc
 50
180.0
 51
270.0
  0
LINE
  5
35
100
AcDbEntity
  8
_Y__________
  6
CONTINUOUS
 62
         7
100
AcDbLine
 10
1332.7533403763
 20
-4.7933347407
 30
0.0
 11
1335.5233403763
 21
-4.7933347407
 31
0.0
  0
ARC
  5
36
100
AcDbEntity
  8
_Y__________
  6
CONTINUOUS
 62
         7
100
AcDbCircle
 10
1335.9228759565
 20
-4.8933347407
 30
0.0
 40
0.2
100
AcDbArc
 50
90.0
 51
105.0
  0
LINE
  5
37
100
AcDbEntity
  8
_Y__________
  6
CONTINUOUS
 62
         7
100
AcDbLine
 10
1335.8711121475
 20
-4.7001495754
 30
0.0
 11
1335.5233403763
 21
-4.7933347407
 31
0.0
  0
LINE
  5
38
100
AcDbEntity
  8
_Y__________
  6
CONTINUOUS
 62
         7
100
AcDbLine
 10
1335.9228759565
 20
-4.6933347407
 30
0.0
 11
1336.3233403763
 21
-4.6933347407
 31
0.0
  0
LINE
  5
39
100
AcDbEntity
  8
_Y__________
  6
CONTINUOUS
 62
         7
100
AcDbLine
 10
1336.4647617325
 20
-4.7519133844
 30
0.0
 11
1337.6561830887
 21
-5.9433347407
 31
0.0
  0
ARC
  5
3A
100
AcDbEntity
  8
_Y__________
  6
CONTINUOUS
 62
         7
100
AcDbCircle
 10
1336.3233403763
 20
-4.8933347407
 30
0.0
 40
0.2
100
AcDbArc
 50
45.0000000038
 51
90.0
  0
LINE
  5
3B
100
AcDbEntity
  8
_Y__________
  6
CONTINUOUS
 62
         7
100
AcDbLine
 10
1336.5233403763
 20
-5.1498119
 30
0.0
 11
1336.5233403763
 21
-20.6220880762
 31
0.0
  0
LINE
  5
3C
100
AcDbEntity
  8
_Y__________
  6
CONTINUOUS
 62
         7
100
AcDbLine
 10
1335.5233403763
 20
-4.7933347407
 30
0.0
 11
1335.5233403763
 21
-21.0933347407
 31
0.0
  0
LINE
  5
3D
100
AcDbEntity
  8
_Y__________
  6
CONTINUOUS
 62
         5
100
AcDbLine
 10
1336.6561830887
 20
-4.9433347407
 30
0.0
 11
1360.2033403763
 21
-4.9433347407
 31
0.0
  0
LINE
  5
3E
100
AcDbEntity
  8
_Y__________
  6
CONTINUOUS
 62
         7
100
AcDbLine
 10
1337.6561830887
 20
-5.9433347407
 30
0.0
 11
1360.2033403763
 21
-5.9433347407
 31
0.0
  0
LINE
  5
3F
100
AcDbEntity
  8
_Y__________
  6
CONTINUOUS
 62
         7
100
AcDbLine
 10
1337.6561830887
 20
-5.9433347407
 30
0.0
 11
1337.6561830887
 21
-19.9433347407
 31
0.0
  0
LINE
  5
40
100
AcDbEntity
  8
_Y__________
  6
CONTINUOUS
 62
         7
100
AcDbLine
 10
1337.6561830887
 20
-19.9433347407
 30
0.0
 11
1360.2033403763
 21
-19.9433347407
 31
0.0
  0
LINE
  5
41
100
AcDbEntity
  8
_Y__________
  6
CONTINUOUS
 62
         7
100
AcDbLine
 10
1336.4647617325
 20
-21.1347560969
 30
0.0
 11
1337.6561830887
 21
-19.9433347407
 31
0.0
  0
ARC
  5
42
100
AcDbEntity
  8
_Y__________
  6
CONTINUOUS
 62
         7
100
AcDbCircle
 10
1336.3233403763
 20
-20.9933347407
 30
0.0
 40
0.2
100
AcDbArc
 50
270.0
 51
314.9999999962
  0
LINE
  5
43
100
AcDbEntity
  8
_Y__________
  6
CONTINUOUS
 62
         7
100
AcDbLine
 10
1335.9228759565
 20
-21.1933347407
 30
0.0
 11
1336.3233403763
 21
-21.1933347407
 31
0.0
  0
LINE
  5
44
100
AcDbEntity
  8
_Y__________
  6
CONTINUOUS
 62
         7
100
AcDbLine
 10
1335.8711121475
 20
-21.1865199059
 30
0.0
 11
1335.5233403763
 21
-21.0933347407
 31
0.0
  0
LINE
  5
45
100
AcDbEntity
  8
_Y__________
  6
CONTINUOUS
 62
         7
100
AcDbLine
 10
1332.7533403763
 20
-21.0933347407
 30
0.0
 11
1335.5233403763
 21
-21.0933347407
 31
0.0
  0
ARC
  5
46
100
AcDbEntity
  8
_Y__________
  6
CONTINUOUS
 62
         7
100
AcDbCircle
 10
1332.7533403763
 20
-22.0933347407
 30
0.0
 40
1.0
100
AcDbArc
 50
90.0
 51
180.0
  0
LINE
  5
47
100
AcDbEntity
  8
_Y__________
  6
CONTINUOUS
 62
         5
100
AcDbLine
 10
1336.6561830887
 20
-20.9433347407
 30
0.0
 11
1360.2033403763
 21
-20.9433347407
 31
0.0
  0
LINE
  5
48
100
AcDbEntity
  8
_Y__________
  6
CONTINUOUS
 62
         7
100
AcDbLine
 10
1360.2033403763
 20
-4.9433347407
 30
0.0
 11
1360.2033403763
 21
-20.9433347407
 31
0.0
  0
ARC
  5
49
100
AcDbEntity
  8
_Y__________
  6
CONTINUOUS
 62
         7
100
AcDbCircle
 10
1332.9533403763
 20
-24.1775164571
 30
0.0
 40
1.2
100
AcDbArc
 50
180.0
 51
261.7028550302
  0
ARC
  5
4A
100
AcDbEntity
  8
_Y__________
  6
CONTINUOUS
 62
         7
100
AcDbCircle
 10
1332.9533403763
 20
-1.7091530242
 30
0.0
 40
1.2
100
AcDbArc
 50
98.2971449698
 51
180.0
  0
LINE
  5
4B
100
AcDbEntity
  8
_Y__________
  6
CONTINUOUS
 62
         7
100
AcDbLine
 10
1331.7533403763
 20
-1.7091530242
 30
0.0
 11
1331.7533403763
 21
-24.1775164571
 31
0.0
  0
ARC
  5
4C
100
AcDbEntity
  8
_Y__________
  6
CONTINUOUS
 62
         7
100
AcDbCircle
 10
1332.9533403763
 20
138.9504600129
 30
0.0
 40
1.2
100
AcDbArc
 50
180.0
 51
261.7028550302
  0
ARC
  5
4D
100
AcDbEntity
  8
_Y__________
  6
CONTINUOUS
 62
         7
100
AcDbCircle
 10
1332.9533403763
 20
161.4188234458
 30
0.0
 40
1.2
100
AcDbArc
 50
98.2971449698
 51
180.0
  0
LINE
  5
4E
100
AcDbEntity
  8
_Y__________
  6
CONTINUOUS
 62
         7
100
AcDbLine
 10
1331.7533403763
 20
161.4188234458
 30
0.0
 11
1331.7533403763
 21
138.9504600129
 31
0.0
  0
LINE
  5
4F
100
AcDbEntity
  8
_Y__________
  6
CENTER
 62
         1
100
AcDbLine
 10
1411.1033403763
 20
27.7581221708
 30
0.0
 11
1411.1033403763
 21
-11.0333634957
 31
0.0
  0
LINE
  5
50
100
AcDbEntity
  8
_Y__________
  6
CENTER
 62
         1
100
AcDbLine
 10
1402.4927097209
 20
14.5542542011
 30
0.0
 11
1413.4465979673
 21
6.8842590783
 31
0.0
  0
LINE
  5
51
100
AcDbEntity
  8
_Y__________
  6
CONTINUOUS
 62
         7
100
AcDbLine
 10
1403.2033403763
 20
16.5592531663
 30
0.0
 11
1405.5263249435
 21
14.9326818612
 31
0.0
  0
LINE
  5
52
100
AcDbEntity
  8
_Y__________
  6
CONTINUOUS
 62
         7
100
AcDbLine
 10
1403.2033403763
 20
11.6151160818
 30
0.0
 11
1405.5263249435
 21
14.9326818612
 31
0.0
  0
LINE
  5
53
100
AcDbEntity
  8
_Y__________
  6
CONTINUOUS
 62
         4
100
AcDbLine
 10
1403.2033403763
 20
11.6151160818
 30
0.0
 11
1406.8895245756
 21
9.0340221182
 31
0.0
  0
LINE
  5
54
100
AcDbEntity
  8
_Y__________
  6
CONTINUOUS
 62
         7
100
AcDbLine
 10
1403.404092129
 20
11.9018192973
 30
0.0
 11
1409.5533373735
 21
7.5960714228
 31
0.0
  0
LINE
  5
55
100
AcDbEntity
  8
_Y__________
  6
CONTINUOUS
 62
         7
100
AcDbLine
 10
1405.2968943689
 20
14.6050210435
 30
0.0
 11
1410.4745414243
 21
10.9795935451
 31
0.0
  0
LINE
  5
56
100
AcDbEntity
  8
_Y__________
  6
CONTINUOUS
 62
         4
100
AcDbLine
 10
1405.4976461217
 20
14.891724259
 30
0.0
 11
1409.183830321
 21
12.3106302954
 31
0.0
  0
LINE
  5
57
100
AcDbEntity
  8
_Y__________
  6
CONTINUOUS
 62
         7
100
AcDbLine
 10
1409.2033406418
 20
15.9975613338
 30
0.0
 11
1409.203339036
 21
11.86969904
 31
0.0
  0
LINE
  5
58
100
AcDbEntity
  8
_Y__________
  6
CONTINUOUS
 62
         7
100
AcDbLine
 10
1413.2033407766
 20
16.3439726486
 30
0.0
 11
1413.2033387683
 21
11.1816652593
 31
0.0
  0
LINE
  5
59
100
AcDbEntity
  8
_Y__________
  6
CONTINUOUS
 62
         4
100
AcDbLine
 10
1413.0788387897
 20
9.1560448981
 30
0.0
 11
1411.1860365497
 21
6.452843152
 31
0.0
  0
LINE
  5
5A
100
AcDbEntity
  8
_Y__________
  6
CONTINUOUS
 62
         4
100
AcDbLine
 10
1412.6092919222
 20
7.1165180317
 30
0.0
 11
1411.1860365497
 21
6.452843152
 31
0.0
  0
LINE
  5
5B
100
AcDbEntity
  8
_Y__________
  6
CONTINUOUS
 62
         4
100
AcDbLine
 10
1409.5764624957
 20
7.5798790379
 30
0.0
 11
1410.99388615
 21
6.5873883103
 31
0.0
  0
LINE
  5
5C
100
AcDbEntity
  8
_Y__________
  6
CONTINUOUS
 62
         7
100
AcDbLine
 10
1406.8895245756
 20
9.0340221182
 30
0.0
 11
1409.2125091428
 21
12.3515878976
 31
0.0
  0
LINE
  5
5D
100
AcDbEntity
  8
_Y__________
  6
CONTINUOUS
 62
         4
100
AcDbLine
 10
1413.2033387683
 20
11.1816652593
 30
0.0
 11
1410.185951432
 21
11.1816664331
 31
0.0
  0
LINE
  5
5E
100
AcDbEntity
  8
_Y__________
  6
CONTINUOUS
 62
         7
100
AcDbLine
 10
1412.8533386897
 20
10.9795926197
 30
0.0
 11
1410.4745414243
 21
10.9795935451
 31
0.0
  0
LINE
  5
5F
100
AcDbEntity
  8
_Y__________
  6
CONTINUOUS
 62
         7
100
AcDbLine
 10
1413.2033387683
 20
11.1816652593
 30
0.0
 11
1412.8533386897
 21
10.9795926197
 31
0.0
  0
LINE
  5
60
100
AcDbEntity
  8
_Y__________
  6
CONTINUOUS
 62
         7
100
AcDbLine
 10
1412.8533386897
 20
10.9795926197
 30
0.0
 11
1412.8533380417
 21
9.3139422217
 31
0.0
  0
LINE
  5
61
100
AcDbEntity
  8
_Y__________
  6
CONTINUOUS
 62
         7
100
AcDbLine
 10
1412.8533380417
 20
9.3139422217
 30
0.0
 11
1413.0788387897
 21
9.1560448981
 31
0.0
  0
LINE
  5
62
100
AcDbEntity
  8
_Y__________
  6
CONTINUOUS
 62
         7
100
AcDbLine
 10
1413.0788387897
 20
9.1560448981
 30
0.0
 11
1412.9127847976
 21
7.2580390837
 31
0.0
  0
LINE
  5
63
100
AcDbEntity
  8
_Y__________
  6
CONTINUOUS
 62
         4
100
AcDbLine
 10
1411.2437639878
 20
10.4409781076
 30
0.0
 11
1412.661187642
 21
9.44848738
 31
0.0
  0
LINE
  5
64
100
AcDbEntity
  8
_Y__________
  6
CONTINUOUS
 62
         7
100
AcDbLine
 10
1412.8533372312
 20
7.2303182282
 30
0.0
 11
1412.8533321064
 21
-5.9433347407
 31
0.0
  0
LINE
  5
65
100
AcDbEntity
  8
_Y__________
  6
CONTINUOUS
 62
         7
100
AcDbLine
 10
1409.5533373735
 20
7.5960714228
 30
0.0
 11
1409.5533321064
 21
-5.9433347407
 31
0.0
  0
LINE
  5
66
100
AcDbEntity
  8
_Y__________
  6
CONTINUOUS
 62
         7
100
AcDbLine
 10
1192.1233403763
 20
142.6346417294
 30
0.0
 11
1192.1233403763
 21
157.7346417294
 31
0.0
  0
LINE
  5
67
100
AcDbEntity
  8
_Y__________
  6
CONTINUOUS
 62
         7
100
AcDbLine
 10
1192.1233403763
 20
142.6346417294
 30
0.0
 11
1191.6233403763
 21
142.1346417294
 31
0.0
  0
LINE
  5
68
100
AcDbEntity
  8
_Y__________
  6
CONTINUOUS
 62
         7
100
AcDbLine
 10
1191.6233403763
 20
142.1346417294
 30
0.0
 11
1184.6849584247
 21
142.1346417294
 31
0.0
  0
LINE
  5
69
100
AcDbEntity
  8
_Y__________
  6
CONTINUOUS
 62
         7
100
AcDbLine
 10
1184.2908731435
 20
141.7405564482
 30
0.0
 11
1184.6849584247
 21
142.1346417294
 31
0.0
  0
LINE
  5
6A
100
AcDbEntity
  8
_Y__________
  6
CONTINUOUS
 62
         7
100
AcDbLine
 10
1191.6233403763
 20
158.2346417294
 30
0.0
 11
1184.6849584247
 21
158.2346417294
 31
0.0
  0
LINE
  5
6B
100
AcDbEntity
  8
_Y__________
  6
CONTINUOUS
 62
         7
100
AcDbLine
 10
1192.1233403763
 20
157.7346417294
 30
0.0
 11
1191.6233403763
 21
158.2346417294
 31
0.0
  0
LINE
  5
6C
100
AcDbEntity
  8
_Y__________
  6
CONTINUOUS
 62
         7
100
AcDbLine
 10
1184.2908731435
 20
158.6287270106
 30
0.0
 11
1184.6849584247
 21
158.2346417294
 31
0.0
  0
LINE
  5
6D
100
AcDbEntity
  8
_Y__________
  6
CONTINUOUS
 62
         7
100
AcDbLine
 10
1245.1617223278
 20
142.1346417294
 30
0.0
 11
1240.4233403763
 21
142.1346417294
 31
0.0
  0
LINE
  5
6E
100
AcDbEntity
  8
_Y__________
  6
CONTINUOUS
 62
         7
100
AcDbLine
 10
1239.9233403763
 20
142.6346417294
 30
0.0
 11
1239.9233403763
 21
157.7346417294
 31
0.0
  0
LINE
  5
6F
100
AcDbEntity
  8
_Y__________
  6
CONTINUOUS
 62
         7
100
AcDbLine
 10
1239.9233403763
 20
142.6346417294
 30
0.0
 11
1240.4233403763
 21
142.1346417294
 31
0.0
  0
LINE
  5
70
100
AcDbEntity
  8
_Y__________
  6
CONTINUOUS
 62
         7
100
AcDbLine
 10
1245.555807609
 20
141.7405564482
 30
0.0
 11
1245.1617223278
 21
142.1346417294
 31
0.0
  0
LINE
  5
71
100
AcDbEntity
  8
_Y__________
  6
CONTINUOUS
 62
         7
100
AcDbLine
 10
1239.9233403763
 20
157.7346417294
 30
0.0
 11
1240.4233403763
 21
158.2346417294
 31
0.0
  0
LINE
  5
72
100
AcDbEntity
  8
_Y__________
  6
CONTINUOUS
 62
         7
100
AcDbLine
 10
1245.555807609
 20
158.6287270106
 30
0.0
 11
1245.1617223278
 21
158.2346417294
 31
0.0
  0
LINE
  5
73
100
AcDbEntity
  8
_Y__________
  6
CONTINUOUS
 62
         7
100
AcDbLine
 10
1245.1617223278
 20
158.2346417294
 30
0.0
 11
1240.4233403763
 21
158.2346417294
 31
0.0
  0
CIRCLE
  5
74
100
AcDbEntity
  8
_Y__________
  6
CONTINUOUS
 62
         7
100
AcDbCircle
 10
1214.9233403763
 20
150.1846417294
 30
0.0
 40
22.225
  0
CIRCLE
  5
75
100
AcDbEntity
  8
_Y__________
  6
CONTINUOUS
 62
         7
100
AcDbCircle
 10
1214.9233403763
 20
150.1846417294
 30
0.0
 40
8.5
  0
CIRCLE
  5
76
100
AcDbEntity
  8
_Y__________
  6
CONTINUOUS
 62
         7
100
AcDbCircle
 10
1214.9233403763
 20
150.1846417294
 30
0.0
 40
9.5
  0
ARC
  5
77
100
AcDbEntity
  8
_Y__________
  6
CONTINUOUS
 62
         5
100
AcDbCircle
 10
1214.9233403763
 20
150.1846417294
 30
0.0
 40
8.0
100
AcDbArc
 50
352.9901372228
 51
621.2264515101
  0
CIRCLE
  5
78
100
AcDbEntity
  8
_Y__________
  6
CONTINUOUS
 62
         7
100
AcDbCircle
 10
1214.9233403763
 20
150.1846417294
 30
0.0
 40
7.0
  0
CIRCLE
  5
79
100
AcDbEntity
  8
_Y__________
  6
CONTINUOUS
 62
         7
100
AcDbCircle
 10
1214.9233403763
 20
150.1846417294
 30
0.0
 40
12.7165768873
  0
LINE
  5
7A
100
AcDbEntity
  8
_Y__________
  6
CENTER
 62
         1
100
AcDbLine
 10
1214.9233403763
 20
114.5732894966
 30
0.0
 11
1214.9233403763
 21
185.4173498279
 31
0.0
  0
ARC
  5
7B
100
AcDbEntity
  8
_Y__________
  6
CONTINUOUS
 62
         7
100
AcDbCircle
 10
1214.9233403763
 20
150.1846417294
 30
0.0
 40
31.775
100
AcDbArc
 50
15.411296411
 51
164.588703589
  0
ARC
  5
7C
100
AcDbEntity
  8
_Y__________
  6
CONTINUOUS
 62
         7
100
AcDbCircle
 10
1214.9233403763
 20
150.1846417294
 30
0.0
 40
31.775
100
AcDbArc
 50
195.411296411
 51
344.588703589
  0
LINE
  5
7D
100
AcDbEntity
  8
_Y__________
  6
CENTER
 62
         1
100
AcDbLine
 10
1183.1483403763
 20
150.1846417294
 30
0.0
 11
1246.6983403763
 21
150.1846417294
 31
0.0
  0
LINE
  5
7E
100
AcDbEntity
  8
_Y__________
  6
CENTER
 62
         1
100
AcDbLine
 10
1596.790952795
 20
150.1846417294
 30
0.0
 11
1650.7694097755
 21
150.1846417294
 31
0.0
  0
LINE
  5
7F
100
AcDbEntity
  8
_Y__________
  6
CONTINUOUS
 62
         7
100
AcDbLine
 10
1593.0449584247
 20
142.1346417294
 30
0.0
 11
1597.7833403763
 21
142.1346417294
 31
0.0
  0
LINE
  5
80
100
AcDbEntity
  8
_Y__________
  6
CONTINUOUS
 62
         7
100
AcDbLine
 10
1592.6508731435
 20
141.7405564482
 30
0.0
 11
1593.0449584247
 21
142.1346417294
 31
0.0
  0
LINE
  5
81
100
AcDbEntity
  8
_Y__________
  6
CONTINUOUS
 62
         7
100
AcDbLine
 10
1598.2833403763
 20
142.6346417294
 30
0.0
 11
1597.7833403763
 21
142.1346417294
 31
0.0
  0
LINE
  5
82
100
AcDbEntity
  8
_Y__________
  6
CONTINUOUS
 62
         7
100
AcDbLine
 10
1592.6508731435
 20
158.6287270106
 30
0.0
 11
1593.0449584247
 21
158.2346417294
 31
0.0
  0
LINE
  5
83
100
AcDbEntity
  8
_Y__________
  6
CONTINUOUS
 62
         7
100
AcDbLine
 10
1598.2833403763
 20
157.7346417294
 30
0.0
 11
1597.7833403763
 21
158.2346417294
 31
0.0
  0
LINE
  5
84
100
AcDbEntity
  8
_Y__________
  6
CONTINUOUS
 62
         7
100
AcDbLine
 10
1598.2833403763
 20
157.7346417294
 30
0.0
 11
1598.2833403763
 21
142.6346417294
 31
0.0
  0
LINE
  5
85
100
AcDbEntity
  8
_Y__________
  6
CONTINUOUS
 62
         7
100
AcDbLine
 10
1593.0449584247
 20
158.2346417294
 30
0.0
 11
1597.7833403763
 21
158.2346417294
 31
0.0
  0
LINE
  5
86
100
AcDbEntity
  8
_Y__________
  6
CONTINUOUS
 62
         7
100
AcDbLine
 10
1653.915807609
 20
141.7405564482
 30
0.0
 11
1653.5217223278
 21
142.1346417294
 31
0.0
  0
LINE
  5
87
100
AcDbEntity
  8
_Y__________
  6
CONTINUOUS
 62
         7
100
AcDbLine
 10
1646.0833403763
 20
142.6346417294
 30
0.0
 11
1646.5833403763
 21
142.1346417294
 31
0.0
  0
LINE
  5
88
100
AcDbEntity
  8
_Y__________
  6
CONTINUOUS
 62
         7
100
AcDbLine
 10
1646.5833403763
 20
142.1346417294
 30
0.0
 11
1653.5217223278
 21
142.1346417294
 31
0.0
  0
LINE
  5
89
100
AcDbEntity
  8
_Y__________
  6
CONTINUOUS
 62
         7
100
AcDbLine
 10
1653.915807609
 20
158.6287270106
 30
0.0
 11
1653.5217223278
 21
158.2346417294
 31
0.0
  0
LINE
  5
8A
100
AcDbEntity
  8
_Y__________
  6
CONTINUOUS
 62
         7
100
AcDbLine
 10
1646.5833403763
 20
158.2346417294
 30
0.0
 11
1653.5217223278
 21
158.2346417294
 31
0.0
  0
LINE
  5
8B
100
AcDbEntity
  8
_Y__________
  6
CONTINUOUS
 62
         7
100
AcDbLine
 10
1646.0833403763
 20
157.7346417294
 30
0.0
 11
1646.5833403763
 21
158.2346417294
 31
0.0
  0
LINE
  5
8C
100
AcDbEntity
  8
_Y__________
  6
CONTINUOUS
 62
         7
100
AcDbLine
 10
1646.0833403763
 20
157.7346417294
 30
0.0
 11
1646.0833403763
 21
142.6346417294
 31
0.0
  0
ARC
  5
8D
100
AcDbEntity
  8
_Y__________
  6
DASHED
 62
         2
100
AcDbCircle
 10
1623.2833403763
 20
150.1846417294
 30
0.0
 40
28.125
100
AcDbArc
 50
198.3406919436
 51
343.3680794645
  0
ARC
  5
8E
100
AcDbEntity
  8
_Y__________
  6
DASHED
 62
         2
100
AcDbCircle
 10
1623.2833403763
 20
150.1846417294
 30
0.0
 40
28.125
100
AcDbArc
 50
16.6319205355
 51
163.3680794645
  0
LINE
  5
8F
100
AcDbEntity
  8
_Y__________
  6
CENTER
 62
         1
100
AcDbLine
 10
1623.2833403763
 20
184.9596417294
 30
0.0
 11
1623.2833403763
 21
115.4096417294
 31
0.0
  0
ARC
  5
90
100
AcDbEntity
  8
_Y__________
  6
CONTINUOUS
 62
         7
100
AcDbCircle
 10
1623.2833403763
 20
150.1846417294
 30
0.0
 40
31.775
100
AcDbArc
 50
15.411296411
 51
164.588703589
  0
ARC
  5
91
100
AcDbEntity
  8
_Y__________
  6
CONTINUOUS
 62
         7
100
AcDbCircle
 10
1623.2833403763
 20
150.1846417294
 30
0.0
 40
31.775
100
AcDbArc
 50
195.411296411
 51
344.588703589
  0
LINE
  5
92
100
AcDbEntity
  8
_Y__________
  6
CONTINUOUS
 62
         7
100
AcDbLine
 10
1407.5670699775
 20
181.9596417294
 30
0.0
 11
1407.5670699775
 21
159.0346417294
 31
0.0
  0
LINE
  5
93
100
AcDbEntity
  8
_Y__________
  6
CONTINUOUS
 62
         7
100
AcDbLine
 10
1409.2283403763
 20
179.0822369936
 30
0.0
 11
1409.2283403763
 21
158.2346417294
 31
0.0
  0
LINE
  5
94
100
AcDbEntity
  8
_Y__________
  6
CONTINUOUS
 62
         7
100
AcDbLine
 10
1412.9783403763
 20
179.0822369936
 30
0.0
 11
1412.9783403763
 21
158.2346417294
 31
0.0
  0
LINE
  5
95
100
AcDbEntity
  8
_Y__________
  6
CONTINUOUS
 62
         7
100
AcDbLine
 10
1414.639610775
 20
181.9596417294
 30
0.0
 11
1414.639610775
 21
159.0346417294
 31
0.0
  0
LINE
  5
96
100
AcDbEntity
  8
_Y__________
  6
CONTINUOUS
 62
         7
100
AcDbLine
 10
1418.3033403763
 20
158.2346417294
 30
0.0
 11
1404.0033403763
 21
158.2346417294
 31
0.0
  0
LINE
  5
97
100
AcDbEntity
  8
_Y__________
  6
CONTINUOUS
 62
         7
100
AcDbLine
 10
1418.3033403763
 20
142.1346417294
 30
0.0
 11
1404.0033403763
 21
142.1346417294
 31
0.0
  0
LINE
  5
98
100
AcDbEntity
  8
_Y__________
  6
CONTINUOUS
 62
         7
100
AcDbLine
 10
1407.5670699775
 20
159.0346417294
 30
0.0
 11
1409.2283403763
 21
158.2346417294
 31
0.0
  0
LINE
  5
99
100
AcDbEntity
  8
_Y__________
  6
CONTINUOUS
 62
         7
100
AcDbLine
 10
1407.5670699775
 20
141.3346417294
 30
0.0
 11
1409.2283403763
 21
142.1346417294
 31
0.0
  0
LINE
  5
9A
100
AcDbEntity
  8
_Y__________
  6
CONTINUOUS
 62
         7
100
AcDbLine
 10
1404.0033403763
 20
158.2346417294
 30
0.0
 11
1404.0033403763
 21
142.1346417294
 31
0.0
  0
LINE
  5
9B
100
AcDbEntity
  8
_Y__________
  6
CONTINUOUS
 62
         7
100
AcDbLine
 10
1407.5670699775
 20
141.3346417294
 30
0.0
 11
1403.2033403763
 21
141.3346417294
 31
0.0
  0
LINE
  5
9C
100
AcDbEntity
  8
_Y__________
  6
CONTINUOUS
 62
         7
100
AcDbLine
 10
1404.0033403763
 20
142.1346417294
 30
0.0
 11
1403.2033403763
 21
141.3346417294
 31
0.0
  0
LINE
  5
9D
100
AcDbEntity
  8
_Y__________
  6
CONTINUOUS
 62
         7
100
AcDbLine
 10
1403.2033403763
 20
159.0346417294
 30
0.0
 11
1404.0033403763
 21
158.2346417294
 31
0.0
  0
LINE
  5
9E
100
AcDbEntity
  8
_Y__________
  6
CONTINUOUS
 62
         7
100
AcDbLine
 10
1407.5670699775
 20
159.0346417294
 30
0.0
 11
1403.2033403763
 21
159.0346417294
 31
0.0
  0
LINE
  5
9F
100
AcDbEntity
  8
_Y__________
  6
CONTINUOUS
 62
         7
100
AcDbLine
 10
1418.3033403763
 20
158.2346417294
 30
0.0
 11
1418.3033403763
 21
142.1346417294
 31
0.0
  0
LINE
  5
A0
100
AcDbEntity
  8
_Y__________
  6
CONTINUOUS
 62
         7
100
AcDbLine
 10
1419.1033403763
 20
141.3346417294
 30
0.0
 11
1414.639610775
 21
141.3346417294
 31
0.0
  0
LINE
  5
A1
100
AcDbEntity
  8
_Y__________
  6
CONTINUOUS
 62
         7
100
AcDbLine
 10
1418.3033403763
 20
142.1346417294
 30
0.0
 11
1419.1033403763
 21
141.3346417294
 31
0.0
  0
LINE
  5
A2
100
AcDbEntity
  8
_Y__________
  6
CONTINUOUS
 62
         7
100
AcDbLine
 10
1412.9783403763
 20
142.1346417294
 30
0.0
 11
1414.639610775
 21
141.3346417294
 31
0.0
  0
LINE
  5
A3
100
AcDbEntity
  8
_Y__________
  6
CONTINUOUS
 62
         7
100
AcDbLine
 10
1419.1033403763
 20
159.0346417294
 30
0.0
 11
1418.3033403763
 21
158.2346417294
 31
0.0
  0
LINE
  5
A4
100
AcDbEntity
  8
_Y__________
  6
CONTINUOUS
 62
         7
100
AcDbLine
 10
1412.9783403763
 20
158.2346417294
 30
0.0
 11
1414.639610775
 21
159.0346417294
 31
0.0
  0
LINE
  5
A5
100
AcDbEntity
  8
_Y__________
  6
CONTINUOUS
 62
         7
100
AcDbLine
 10
1419.1033403763
 20
159.0346417294
 30
0.0
 11
1414.639610775
 21
159.0346417294
 31
0.0
  0
LINE
  5
A6
100
AcDbEntity
  8
_Y__________
  6
CONTINUOUS
 62
         7
100
AcDbLine
 10
1407.5670699775
 20
141.3346417294
 30
0.0
 11
1407.5670699775
 21
118.4096417294
 31
0.0
  0
LINE
  5
A7
100
AcDbEntity
  8
_Y__________
  6
CONTINUOUS
 62
         7
100
AcDbLine
 10
1409.2283403763
 20
142.1346417294
 30
0.0
 11
1409.2283403763
 21
121.2870464652
 31
0.0
  0
LINE
  5
A8
100
AcDbEntity
  8
_Y__________
  6
CONTINUOUS
 62
         7
100
AcDbLine
 10
1412.9783403763
 20
142.1346417294
 30
0.0
 11
1412.9783403763
 21
121.2870464652
 31
0.0
  0
LINE
  5
A9
100
AcDbEntity
  8
_Y__________
  6
CONTINUOUS
 62
         7
100
AcDbLine
 10
1414.639610775
 20
141.3346417294
 30
0.0
 11
1414.639610775
 21
118.4096417294
 31
0.0
  0
CIRCLE
  5
AA
100
AcDbEntity
  8
_Y__________
  6
CONTINUOUS
 62
         7
100
AcDbCircle
 10
1623.2833403763
 20
150.1846417294
 30
0.0
 40
22.225
  0
LINE
  5
AB
100
AcDbEntity
  8
_Y__________
  6
CONTINUOUS
 62
         7
100
AcDbLine
 10
1414.639610775
 20
-44.7183347409
 30
0.0
 11
1418.1033403763
 21
-44.7183347409
 31
0.0
  0
LINE
  5
AC
100
AcDbEntity
  8
_Y__________
  6
CONTINUOUS
 62
         7
100
AcDbLine
 10
1412.9783403763
 20
-41.8409300049
 30
0.0
 11
1414.639610775
 21
-44.7183347407
 31
0.0
  0
ARC
  5
AD
100
AcDbEntity
  8
_Y__________
  6
CONTINUOUS
 62
         7
100
AcDbCircle
 10
1412.0045400445
 20
-42.0683347409
 30
0.0
 40
1.0
100
AcDbArc
 50
13.1443256895
 51
90.0
  0
LINE
  5
AE
100
AcDbEntity
  8
_Y__________
  6
CONTINUOUS
 62
         7
100
AcDbLine
 10
1410.202140708
 20
-41.0683347407
 30
0.0
 11
1412.0045400445
 21
-41.0683347407
 31
0.0
  0
ARC
  5
AF
100
AcDbEntity
  8
_Y__________
  6
CONTINUOUS
 62
         7
100
AcDbCircle
 10
1410.202140708
 20
-42.0683347407
 30
0.0
 40
1.0
100
AcDbArc
 50
90.0
 51
166.8556743105
  0
LINE
  5
B0
100
AcDbEntity
  8
_Y__________
  6
CONTINUOUS
 62
         7
100
AcDbLine
 10
1409.2283403763
 20
-41.8409300049
 30
0.0
 11
1407.5670699775
 21
-44.7183347407
 31
0.0
  0
LINE
  5
B1
100
AcDbEntity
  8
_Y__________
  6
CONTINUOUS
 62
         7
100
AcDbLine
 10
1403.2033403763
 20
-35.7433347409
 30
0.0
 11
1403.2033403763
 21
-43.7183347409
 31
0.0
  0
LINE
  5
B2
100
AcDbEntity
  8
_Y__________
  6
CONTINUOUS
 62
         7
100
AcDbLine
 10
1404.2033403763
 20
-44.7183347409
 30
0.0
 11
1407.5670699775
 21
-44.7183347409
 31
0.0
  0
ARC
  5
B3
100
AcDbEntity
  8
_Y__________
  6
CONTINUOUS
 62
         7
100
AcDbCircle
 10
1402.6033403763
 20
-35.7433347407
 30
0.0
 40
0.6
100
AcDbArc
 50
0.0
 51
90.0
  0
LINE
  5
B4
100
AcDbEntity
  8
_Y__________
  6
CONTINUOUS
 62
         7
100
AcDbLine
 10
1401.9497505378
 20
-35.1433347407
 30
0.0
 11
1402.6033403763
 21
-35.1433347407
 31
0.0
  0
LINE
  5
B5
100
AcDbEntity
  8
_Y__________
  6
CONTINUOUS
 62
         7
100
AcDbLine
 10
1401.2033403763
 20
-35.3433347409
 30
0.0
 11
1401.9497505378
 21
-35.1433347409
 31
0.0
  0
LINE
  5
B6
100
AcDbEntity
  8
_Y__________
  6
CENTER
 62
         1
100
AcDbLine
 10
1328.5556074009
 20
-12.9433347407
 30
0.0
 11
1419.1033403763
 21
-12.9433347407
 31
0.0
  0
LINE
  5
B7
100
AcDbEntity
  8
_Y__________
  6
CONTINUOUS
 62
         7
100
AcDbLine
 10
1332.6301721046
 20
-25.3430810344
 30
0.0
 11
1401.2033403767
 21
-35.3433347407
 31
0.0
  0
LINE
  5
B8
100
AcDbEntity
  8
_Y__________
  6
CONTINUOUS
 62
         7
100
AcDbLine
 10
1401.2033403763
 20
9.4566652593
 30
0.0
 11
1401.9497505378
 21
9.2566652593
 31
0.0
  0
LINE
  5
B9
100
AcDbEntity
  8
_Y__________
  6
CONTINUOUS
 62
         7
100
AcDbLine
 10
1332.6301721046
 20
-0.543588447
 30
0.0
 11
1401.2033403763
 21
9.4566652593
 31
0.0
  0
LINE
  5
BA
100
AcDbEntity
  8
_Y__________
  6
CONTINUOUS
 62
         7
100
AcDbLine
 10
1401.9497505378
 20
9.2566652593
 30
0.0
 11
1402.6033403763
 21
9.2566652593
 31
0.0
  0
ARC
  5
BB
100
AcDbEntity
  8
_Y__________
  6
CONTINUOUS
 62
         7
100
AcDbCircle
 10
1402.6033403763
 20
9.8566652593
 30
0.0
 40
0.6
100
AcDbArc
 50
270.0
 51
360.0
  0
LINE
  5
BC
100
AcDbEntity
  8
_Y__________
  6
CONTINUOUS
 62
         7
100
AcDbLine
 10
1403.2033403763
 20
9.8566652593
 30
0.0
 11
1403.2033403763
 21
17.8316652595
 31
0.0
  0
LINE
  5
BD
100
AcDbEntity
  8
_Y__________
  6
CONTINUOUS
 62
         7
100
AcDbLine
 10
1404.2033403763
 20
18.8316652595
 30
0.0
 11
1407.5670699775
 21
18.8316652595
 31
0.0
  0
LINE
  5
BE
100
AcDbEntity
  8
_Y__________
  6
CONTINUOUS
 62
         7
100
AcDbLine
 10
1409.2283403763
 20
15.9542605235
 30
0.0
 11
1407.5670699775
 21
18.8316652593
 31
0.0
  0
ARC
  5
BF
100
AcDbEntity
  8
_Y__________
  6
CONTINUOUS
 62
         7
100
AcDbCircle
 10
1410.202140708
 20
16.1816652595
 30
0.0
 40
1.0
100
AcDbArc
 50
193.1443256895
 51
270.0
  0
LINE
  5
C0
100
AcDbEntity
  8
_Y__________
  6
CONTINUOUS
 62
         7
100
AcDbLine
 10
1410.202140708
 20
15.1816652595
 30
0.0
 11
1412.0045400445
 21
15.1816652595
 31
0.0
  0
ARC
  5
C1
100
AcDbEntity
  8
_Y__________
  6
CONTINUOUS
 62
         7
100
AcDbCircle
 10
1412.0045400445
 20
16.1816652595
 30
0.0
 40
1.0
100
AcDbArc
 50
270.0
 51
346.8556743105
  0
LINE
  5
C2
100
AcDbEntity
  8
_Y__________
  6
CONTINUOUS
 62
         7
100
AcDbLine
 10
1412.9783403763
 20
15.9542605237
 30
0.0
 11
1414.639610775
 21
18.8316652595
 31
0.0
  0
LINE
  5
C3
100
AcDbEntity
  8
_Y__________
  6
CONTINUOUS
 62
         7
100
AcDbLine
 10
1414.639610775
 20
18.8316652595
 30
0.0
 11
1418.1033403763
 21
18.8316652595
 31
0.0
  0
LINE
  5
C4
100
AcDbEntity
  8
_Y__________
  6
CONTINUOUS
 62
         7
100
AcDbLine
 10
1409.2283403763
 20
179.0822369936
 30
0.0
 11
1407.5670699775
 21
181.9596417294
 31
0.0
  0
LINE
  5
C5
100
AcDbEntity
  8
_Y__________
  6
CONTINUOUS
 62
         7
100
AcDbLine
 10
1409.2283403763
 20
121.2870464652
 30
0.0
 11
1407.5670699775
 21
118.4096417294
 31
0.0
  0
LINE
  5
C6
100
AcDbEntity
  8
_Y__________
  6
CONTINUOUS
 62
         7
100
AcDbLine
 10
1403.2033403763
 20
180.9596417294
 30
0.0
 11
1403.2033403763
 21
119.4096417294
 31
0.0
  0
LINE
  5
C7
100
AcDbEntity
  8
_Y__________
  6
CENTER
 62
         1
100
AcDbLine
 10
1400.0033403763
 20
172.4096417294
 30
0.0
 11
1400.0033403763
 21
127.9596417294
 31
0.0
  0
LINE
  5
C8
100
AcDbEntity
  8
_Y__________
  6
CONTINUOUS
 62
         7
100
AcDbLine
 10
1404.2033403763
 20
118.4096417294
 30
0.0
 11
1407.5670699775
 21
118.4096417294
 31
0.0
  0
LINE
  5
C9
100
AcDbEntity
  8
_Y__________
  6
CONTINUOUS
 62
         7
100
AcDbLine
 10
1404.2033403763
 20
181.9596417294
 30
0.0
 11
1407.5670699775
 21
181.9596417294
 31
0.0
  0
LINE
  5
CA
100
AcDbEntity
  8
_Y__________
  6
CONTINUOUS
 62
         7
100
AcDbLine
 10
1419.1033403763
 20
180.9596417294
 30
0.0
 11
1419.1033403763
 21
119.4096417294
 31
0.0
  0
LINE
  5
CB
100
AcDbEntity
  8
_Y__________
  6
CONTINUOUS
 62
         7
100
AcDbLine
 10
1419.1033403763
 20
180.9596417294
 30
0.0
 11
1419.1033403763
 21
169.1846417294
 31
0.0
  0
LINE
  5
CC
100
AcDbEntity
  8
_Y__________
  6
CONTINUOUS
 62
         7
100
AcDbLine
 10
1410.202140708
 20
122.0596417294
 30
0.0
 11
1412.0045400445
 21
122.0596417294
 31
0.0
  0
ARC
  5
CD
100
AcDbEntity
  8
_Y__________
  6
CONTINUOUS
 62
         7
100
AcDbCircle
 10
1410.202140708
 20
121.0596417294
 30
0.0
 40
1.0
100
AcDbArc
 50
90.0
 51
166.8556743105
  0
LINE
  5
CE
100
AcDbEntity
  8
_Y__________
  6
CONTINUOUS
 62
         7
100
AcDbLine
 10
1412.9783403763
 20
121.2870464652
 30
0.0
 11
1414.639610775
 21
118.4096417294
 31
0.0
  0
ARC
  5
CF
100
AcDbEntity
  8
_Y__________
  6
CONTINUOUS
 62
         7
100
AcDbCircle
 10
1412.0045400445
 20
121.0596417294
 30
0.0
 40
1.0
100
AcDbArc
 50
13.1443256895
 51
90.0
  0
LINE
  5
D0
100
AcDbEntity
  8
_Y__________
  6
CONTINUOUS
 62
         7
100
AcDbLine
 10
1414.639610775
 20
118.4096417294
 30
0.0
 11
1418.1033403763
 21
118.4096417294
 31
0.0
  0
LINE
  5
D1
100
AcDbEntity
  8
_Y__________
  6
CONTINUOUS
 62
         7
100
AcDbLine
 10
1412.9783403763
 20
179.0822369936
 30
0.0
 11
1414.639610775
 21
181.9596417294
 31
0.0
  0
LINE
  5
D2
100
AcDbEntity
  8
_Y__________
  6
CONTINUOUS
 62
         7
100
AcDbLine
 10
1414.639610775
 20
181.9596417294
 30
0.0
 11
1418.1033403763
 21
181.9596417294
 31
0.0
  0
LINE
  5
D3
100
AcDbEntity
  8
_Y__________
  6
CONTINUOUS
 62
         7
100
AcDbLine
 10
1410.202140708
 20
178.3096417294
 30
0.0
 11
1412.0045400445
 21
178.3096417294
 31
0.0
  0
ARC
  5
D4
100
AcDbEntity
  8
_Y__________
  6
CONTINUOUS
 62
         7
100
AcDbCircle
 10
1410.202140708
 20
179.3096417294
 30
0.0
 40
1.0
100
AcDbArc
 50
193.1443256895
 51
270.0
  0
ARC
  5
D5
100
AcDbEntity
  8
_Y__________
  6
CONTINUOUS
 62
         7
100
AcDbCircle
 10
1412.0045400445
 20
179.3096417294
 30
0.0
 40
1.0
100
AcDbArc
 50
270.0
 51
346.8556743105
  0
LINE
  5
D6
100
AcDbEntity
  8
_Y__________
  6
CENTER
 62
         1
100
AcDbLine
 10
1411.1033403763
 20
187.6899050302
 30
0.0
 11
1411.1033403763
 21
112.6870854784
 31
0.0
  0
LINE
  5
D7
100
AcDbEntity
  8
_Y__________
  6
CONTINUOUS
 62
         7
100
AcDbLine
 10
1332.7801721046
 20
137.7630204357
 30
0.0
 11
1401.2033403763
 21
127.7846417294
 31
0.0
  0
LINE
  5
D8
100
AcDbEntity
  8
_Y__________
  6
CENTER
 62
         1
100
AcDbLine
 10
1329.3598386453
 20
150.1846417294
 30
0.0
 11
1378.4659535144
 21
150.1846417294
 31
0.0
  0
LINE
  5
D9
100
AcDbEntity
  8
_Y__________
  6
CONTINUOUS
 62
         7
100
AcDbLine
 10
1332.7801721046
 20
162.6062630231
 30
0.0
 11
1401.2033403763
 21
172.5846417294
 31
0.0
  0
LINE
  5
DA
100
AcDbEntity
  8
_Y__________
  6
CENTER
 62
         1
100
AcDbLine
 10
1396.6508489578
 20
150.1846417294
 30
0.0
 11
1419.1033403763
 21
150.1846417294
 31
0.0
  0
LINE
  5
DB
100
AcDbEntity
  8
_Y__________
  6
CONTINUOUS
 62
         7
100
AcDbLine
 10
1401.9497505378
 20
127.9846417294
 30
0.0
 11
1402.6033403763
 21
127.9846417294
 31
0.0
  0
LINE
  5
DC
100
AcDbEntity
  8
_Y__________
  6
CONTINUOUS
 62
         7
100
AcDbLine
 10
1401.2033403763
 20
127.7846417294
 30
0.0
 11
1401.9497505378
 21
127.9846417294
 31
0.0
  0
ARC
  5
DD
100
AcDbEntity
  8
_Y__________
  6
CONTINUOUS
 62
         7
100
AcDbCircle
 10
1402.6033403763
 20
127.3846417294
 30
0.0
 40
0.6
100
AcDbArc
 50
0.0
 51
90.0
  0
LINE
  5
DE
100
AcDbEntity
  8
_Y__________
  6
CONTINUOUS
 62
         7
100
AcDbLine
 10
1401.9497505378
 20
127.9846417294
 30
0.0
 11
1401.9497505378
 21
172.3846417294
 31
0.0
  0
LINE
  5
DF
100
AcDbEntity
  8
_Y__________
  6
CONTINUOUS
 62
         7
100
AcDbLine
 10
1401.2033403763
 20
127.7846417294
 30
0.0
 11
1401.2033403763
 21
172.5846417294
 31
0.0
  0
LINE
  5
E0
100
AcDbEntity
  8
_Y__________
  6
CONTINUOUS
 62
         7
100
AcDbLine
 10
1401.9497505378
 20
172.3846417294
 30
0.0
 11
1402.6033403763
 21
172.3846417294
 31
0.0
  0
LINE
  5
E1
100
AcDbEntity
  8
_Y__________
  6
CONTINUOUS
 62
         7
100
AcDbLine
 10
1401.2033403763
 20
172.5846417294
 30
0.0
 11
1401.9497505378
 21
172.3846417294
 31
0.0
  0
ARC
  5
E2
100
AcDbEntity
  8
_Y__________
  6
CONTINUOUS
 62
         7
100
AcDbCircle
 10
1402.6033403763
 20
172.9846417294
 30
0.0
 40
0.6
100
AcDbArc
 50
270.0
 51
360.0
  0
CIRCLE
  5
E3
100
AcDbEntity
  8
_Y__________
  6
CONTINUOUS
 62
         7
100
AcDbCircle
 10
1411.1033403763
 20
150.1846417294
 30
0.0
 40
5.0
  0
LINE
  5
E4
100
AcDbEntity
  8
_Y__________
  6
DASHED
 62
         2
100
AcDbLine
 10
1598.7833403763
 20
145.1846417294
 30
0.0
 11
1598.2833403763
 21
144.6846417294
 31
0.0
  0
LINE
  5
E5
100
AcDbEntity
  8
_Y__________
  6
DASHED
 62
         2
100
AcDbLine
 10
1598.7833403763
 20
155.1846417294
 30
0.0
 11
1598.2833403763
 21
155.6846417294
 31
0.0
  0
LINE
  5
E6
100
AcDbEntity
  8
_Y__________
  6
DASHED
 62
         2
100
AcDbLine
 10
1598.7833403763
 20
155.1846417294
 30
0.0
 11
1598.7833403763
 21
145.1846417294
 31
0.0
  0
LINE
  5
E7
100
AcDbEntity
  8
_Y__________
  6
DASHED
 62
         2
100
AcDbLine
 10
1598.7833403763
 20
145.1846417294
 30
0.0
 11
1604.9573403763
 21
145.1846417294
 31
0.0
  0
LINE
  5
E8
100
AcDbEntity
  8
_Y__________
  6
DASHED
 62
         2
100
AcDbLine
 10
1607.8440917222
 20
150.1846417294
 30
0.0
 11
1604.9573403763
 21
145.1846417294
 31
0.0
  0
LINE
  5
E9
100
AcDbEntity
  8
_Y__________
  6
DASHED
 62
         2
100
AcDbLine
 10
1604.9573403763
 20
155.1846417294
 30
0.0
 11
1607.8440917222
 21
150.1846417294
 31
0.0
  0
LINE
  5
EA
100
AcDbEntity
  8
_Y__________
  6
DASHED
 62
         2
100
AcDbLine
 10
1604.9573403763
 20
155.1846417294
 30
0.0
 11
1604.9573403763
 21
145.1846417294
 31
0.0
  0
LINE
  5
EB
100
AcDbEntity
  8
_Y__________
  6
DASHED
 62
         2
100
AcDbLine
 10
1598.7833403763
 20
155.1846417294
 30
0.0
 11
1604.9573403763
 21
155.1846417294
 31
0.0
  0
LINE
  5
EC
100
AcDbEntity
  8
_Y__________
  6
CONTINUOUS
 62
         7
100
AcDbLine
 10
1598.2833403763
 20
155.6846417294
 30
0.0
 11
1598.2833403763
 21
144.6846417294
 31
0.0
  0
LINE
  5
ED
100
AcDbEntity
  8
_Y__________
  6
CONTINUOUS
 62
         7
100
AcDbLine
 10
1435.0553403763
 20
-33.4283347407
 30
0.0
 11
1435.0553403763
 21
-34.4283347407
 31
0.0
  0
ARC
  5
EE
100
AcDbEntity
  8
_Y__________
  6
CONTINUOUS
 62
         7
100
AcDbCircle
 10
1434.2553403763
 20
-34.4283347407
 30
0.0
 40
0.8
100
AcDbArc
 50
269.9999999999
 51
360.0
  0
LINE
  5
EF
100
AcDbEntity
  8
_Y__________
  6
CONTINUOUS
 62
         7
100
AcDbLine
 10
1435.0553403763
 20
8.5416652593
 30
0.0
 11
1435.0553403763
 21
7.5416652593
 31
0.0
  0
ARC
  5
F0
100
AcDbEntity
  8
_Y__________
  6
CONTINUOUS
 62
         7
100
AcDbCircle
 10
1434.2553403763
 20
8.5416652593
 30
0.0
 40
0.8
100
AcDbArc
 50
0.0
 51
90.0000000003
  0
LINE
  5
F1
100
AcDbEntity
  8
_Y__________
  6
CONTINUOUS
 62
         7
100
AcDbLine
 10
1419.6033403763
 20
127.8996417294
 30
0.0
 11
1434.2553403763
 21
127.8996417294
 31
0.0
  0
ARC
  5
F2
100
AcDbEntity
  8
_Y__________
  6
CONTINUOUS
 62
         7
100
AcDbCircle
 10
1434.2553403763
 20
128.6996417294
 30
0.0
 40
0.8
100
AcDbArc
 50
269.9999999999
 51
360.0
  0
ARC
  5
F3
100
AcDbEntity
  8
_Y__________
  6
CONTINUOUS
 62
         7
100
AcDbCircle
 10
1434.2553403763
 20
171.6696417294
 30
0.0
 40
0.8
100
AcDbArc
 50
0.0
 51
90.0000000003
  0
LINE
  5
F4
100
AcDbEntity
  8
_Y__________
  6
CONTINUOUS
 62
         7
100
AcDbLine
 10
1419.1033403763
 20
-35.7283347407
 30
0.0
 11
1419.1033403763
 21
-43.7183347409
 31
0.0
  0
LINE
  5
F5
100
AcDbEntity
  8
_Y__________
  6
CONTINUOUS
 62
         7
100
AcDbLine
 10
1419.1033403763
 20
17.8316652595
 30
0.0
 11
1419.1033403763
 21
9.8416652593
 31
0.0
  0
ARC
  5
F6
100
AcDbEntity
  8
_Y__________
  6
CONTINUOUS
 62
         7
100
AcDbCircle
 10
1419.6033403763
 20
172.9696417294
 30
0.0
 40
0.5
100
AcDbArc
 50
180.0
 51
270.0
  0
ARC
  5
F7
100
AcDbEntity
  8
_Y__________
  6
CONTINUOUS
 62
         7
100
AcDbCircle
 10
1419.6033403763
 20
127.3996417294
 30
0.0
 40
0.5
100
AcDbArc
 50
90.0
 51
180.0
  0
LINE
  5
F8
100
AcDbEntity
  8
_Y__________
  6
CONTINUOUS
 62
         7
100
AcDbLine
 10
1419.6033403763
 20
172.4696417294
 30
0.0
 11
1434.2553403763
 21
172.4696417294
 31
0.0
  0
LINE
  5
F9
100
AcDbEntity
  8
_Y__________
  6
CONTINUOUS
 62
         7
100
AcDbLine
 10
1435.0553403763
 20
171.6696417294
 30
0.0
 11
1435.0553403763
 21
128.6996417294
 31
0.0
  0
ARC
  5
FA
100
AcDbEntity
  8
_Y__________
  6
CONTINUOUS
 62
         7
100
AcDbCircle
 10
1404.2033403763
 20
17.8316652593
 30
0.0
 40
1.0
100
AcDbArc
 50
90.0
 51
180.0
  0
LINE
  5
FB
100
AcDbEntity
  8
_Y__________
  6
CONTINUOUS
 62
         7
100
AcDbLine
 10
1404.2033403763
 20
18.8316652593
 30
0.0
 11
1405.2033403763
 21
18.8316652593
 31
0.0
  0
LINE
  5
FC
100
AcDbEntity
  8
_Y__________
  6
CONTINUOUS
 62
         7
100
AcDbLine
 10
1403.2033403763
 20
17.8316652593
 30
0.0
 11
1403.2033403763
 21
16.8316652593
 31
0.0
  0
LINE
  5
FD
100
AcDbEntity
  8
_Y__________
  6
CONTINUOUS
 62
         7
100
AcDbLine
 10
1417.1033403763
 20
18.8316652593
 30
0.0
 11
1418.1033403763
 21
18.8316652593
 31
0.0
  0
ARC
  5
FE
100
AcDbEntity
  8
_Y__________
  6
CONTINUOUS
 62
         7
100
AcDbCircle
 10
1418.1033403763
 20
17.8316652593
 30
0.0
 40
1.0
100
AcDbArc
 50
0.0
 51
90.0
  0
ARC
  5
FF
100
AcDbEntity
  8
_Y__________
  6
CONTINUOUS
 62
         7
100
AcDbCircle
 10
1404.2033403763
 20
-43.7183347407
 30
0.0
 40
1.0
100
AcDbArc
 50
180.0
 51
270.0
  0
LINE
  5
100
100
AcDbEntity
  8
_Y__________
  6
CONTINUOUS
 62
         7
100
AcDbLine
 10
1404.2033403763
 20
-44.7183347407
 30
0.0
 11
1405.2033403763
 21
-44.7183347407
 31
0.0
  0
LINE
  5
101
100
AcDbEntity
  8
_Y__________
  6
CONTINUOUS
 62
         7
100
AcDbLine
 10
1417.1033403763
 20
-44.7183347407
 30
0.0
 11
1418.1033403763
 21
-44.7183347407
 31
0.0
  0
ARC
  5
102
100
AcDbEntity
  8
_Y__________
  6
CONTINUOUS
 62
         7
100
AcDbCircle
 10
1418.1033403763
 20
-43.7183347407
 30
0.0
 40
1.0
100
AcDbArc
 50
270.0
 51
360.0
  0
LINE
  5
103
100
AcDbEntity
  8
_Y__________
  6
CONTINUOUS
 62
         7
100
AcDbLine
 10
1419.1033403763
 20
17.8316652593
 30
0.0
 11
1419.1033403763
 21
16.8316652593
 31
0.0
  0
LINE
  5
104
100
AcDbEntity
  8
_Y__________
  6
CONTINUOUS
 62
         7
100
AcDbLine
 10
1403.2033403763
 20
-42.7183347407
 30
0.0
 11
1403.2033403763
 21
-43.7183347407
 31
0.0
  0
LINE
  5
105
100
AcDbEntity
  8
_Y__________
  6
CONTINUOUS
 62
         7
100
AcDbLine
 10
1419.1033403763
 20
-42.7183347407
 30
0.0
 11
1419.1033403763
 21
-43.7183347407
 31
0.0
  0
LINE
  5
106
100
AcDbEntity
  8
_Y__________
  6
CONTINUOUS
 62
         7
100
AcDbLine
 10
1419.1033403763
 20
127.3996417294
 30
0.0
 11
1419.1033403763
 21
119.4096417294
 31
0.0
  0
LINE
  5
107
100
AcDbEntity
  8
_Y__________
  6
CONTINUOUS
 62
         7
100
AcDbLine
 10
1403.2033403763
 20
120.4096417294
 30
0.0
 11
1403.2033403763
 21
119.4096417294
 31
0.0
  0
LINE
  5
108
100
AcDbEntity
  8
_Y__________
  6
CONTINUOUS
 62
         7
100
AcDbLine
 10
1419.1033403763
 20
180.9596417294
 30
0.0
 11
1419.1033403763
 21
172.9696417294
 31
0.0
  0
ARC
  5
109
100
AcDbEntity
  8
_Y__________
  6
CONTINUOUS
 62
         7
100
AcDbCircle
 10
1418.1033403763
 20
119.4096417294
 30
0.0
 40
1.0
100
AcDbArc
 50
270.0
 51
360.0
  0
LINE
  5
10A
100
AcDbEntity
  8
_Y__________
  6
CONTINUOUS
 62
         7
100
AcDbLine
 10
1417.1033403763
 20
118.4096417294
 30
0.0
 11
1418.1033403763
 21
118.4096417294
 31
0.0
  0
LINE
  5
10B
100
AcDbEntity
  8
_Y__________
  6
CONTINUOUS
 62
         7
100
AcDbLine
 10
1404.2033403763
 20
118.4096417294
 30
0.0
 11
1405.2033403763
 21
118.4096417294
 31
0.0
  0
ARC
  5
10C
100
AcDbEntity
  8
_Y__________
  6
CONTINUOUS
 62
         7
100
AcDbCircle
 10
1404.2033403763
 20
119.4096417294
 30
0.0
 40
1.0
100
AcDbArc
 50
180.0
 51
270.0
  0
ARC
  5
10D
100
AcDbEntity
  8
_Y__________
  6
CONTINUOUS
 62
         7
100
AcDbCircle
 10
1418.1033403763
 20
180.9596417294
 30
0.0
 40
1.0
100
AcDbArc
 50
0.0
 51
90.0
  0
LINE
  5
10E
100
AcDbEntity
  8
_Y__________
  6
CONTINUOUS
 62
         7
100
AcDbLine
 10
1417.1033403763
 20
181.9596417294
 30
0.0
 11
1418.1033403763
 21
181.9596417294
 31
0.0
  0
LINE
  5
10F
100
AcDbEntity
  8
_Y__________
  6
CONTINUOUS
 62
         7
100
AcDbLine
 10
1403.2033403763
 20
180.9596417294
 30
0.0
 11
1403.2033403763
 21
179.9596417294
 31
0.0
  0
LINE
  5
110
100
AcDbEntity
  8
_Y__________
  6
CONTINUOUS
 62
         7
100
AcDbLine
 10
1404.2033403763
 20
181.9596417294
 30
0.0
 11
1405.2033403763
 21
181.9596417294
 31
0.0
  0
ARC
  5
111
100
AcDbEntity
  8
_Y__________
  6
CONTINUOUS
 62
         7
100
AcDbCircle
 10
1404.2033403763
 20
180.9596417294
 30
0.0
 40
1.0
100
AcDbArc
 50
90.0
 51
180.0
  0
LINE
  5
112
100
AcDbEntity
  8
_Y__________
  6
CONTINUOUS
 62
         7
100
AcDbLine
 10
1419.6033403763
 20
9.3416652593
 30
0.0
 11
1434.2553403763
 21
9.3416652593
 31
0.0
  0
LINE
  5
113
100
AcDbEntity
  8
_Y__________
  6
CONTINUOUS
 62
         7
100
AcDbLine
 10
1419.6033403763
 20
-35.2283347407
 30
0.0
 11
1434.2553403763
 21
-35.2283347407
 31
0.0
  0
ARC
  5
114
100
AcDbEntity
  8
_Y__________
  6
CONTINUOUS
 62
         7
100
AcDbCircle
 10
1419.6033403763
 20
-35.7283347407
 30
0.0
 40
0.5
100
AcDbArc
 50
90.0
 51
180.0
  0
ARC
  5
115
100
AcDbEntity
  8
_Y__________
  6
CONTINUOUS
 62
         7
100
AcDbCircle
 10
1419.6033403763
 20
9.8416652593
 30
0.0
 40
0.5
100
AcDbArc
 50
180.0
 51
270.0
  0
LINE
  5
116
100
AcDbEntity
  8
_Y__________
  6
CONTINUOUS
 62
         7
100
AcDbLine
 10
1419.1033403763
 20
120.4096417294
 30
0.0
 11
1419.1033403763
 21
119.4096417294
 31
0.0
  0
LINE
  5
117
100
AcDbEntity
  8
_Y__________
  6
CONTINUOUS
 62
         7
100
AcDbLine
 10
1419.1033403763
 20
180.9596417294
 30
0.0
 11
1419.1033403763
 21
179.9596417294
 31
0.0
  0
LINE
  5
118
100
AcDbEntity
  8
_Y__________
  6
CENTER
 62
         1
100
AcDbLine
 10
1208.5078743688
 20
123.7868805382
 30
0.0
 11
1202.8697186441
 21
125.8390013981
 31
0.0
  0
POLYLINE
  5
11A
100
AcDbEntity
  8
_Y__________
  6
CONTINUOUS
 62
         7
100
AcDb3dPolyline
 66
         1
 10
0.0
 20
0.0
 30
0.0
 70
         8
  0
VERTEX
  5
11C
100
AcDbEntity
  8
_Y__________
  6
CONTINUOUS
 62
         7
100
AcDbVertex
100
AcDb3dPolylineVertex
 10
1203.8094112649
 20
125.4969812548
 30
0.0
 70
        32
  0
VERTEX
  5
11E
100
AcDbEntity
  8
_Y__________
  6
CONTINUOUS
 62
         7
100
AcDbVertex
100
AcDb3dPolylineVertex
 10
1203.8094112649
 20
125.4969812548
 30
0.0
 70
        32
  0
SEQEND
  5
120
100
AcDbEntity
  8
_Y__________
  6
CONTINUOUS
 62
         7
  0
ARC
  5
121
100
AcDbEntity
  8
_Y__________
  6
CONTINUOUS
 62
         7
100
AcDbCircle
 10
1206.6023903184
 20
124.4804200144
 30
0.0
 40
2.9722262277
100
AcDbArc
 50
141.257725858
 51
160.0
  0
POLYLINE
  5
123
100
AcDbEntity
  8
_Y__________
  6
CONTINUOUS
 62
         7
100
AcDb3dPolyline
 66
         1
 10
0.0
 20
0.0
 30
0.0
 70
         8
  0
VERTEX
  5
125
100
AcDbEntity
  8
_Y__________
  6
CONTINUOUS
 62
         7
100
AcDbVertex
100
AcDb3dPolylineVertex
 10
1204.2841463667
 20
126.340493596
 30
0.0
 70
        32
  0
VERTEX
  5
127
100
AcDbEntity
  8
_Y__________
  6
CONTINUOUS
 62
         7
100
AcDbVertex
100
AcDb3dPolylineVertex
 10
1204.2841463667
 20
126.340493596
 30
0.0
 70
        32
  0
SEQEND
  5
129
100
AcDbEntity
  8
_Y__________
  6
CONTINUOUS
 62
         7
  0
ARC
  5
12A
100
AcDbEntity
  8
_Y__________
  6
CONTINUOUS
 62
         7
100
AcDbCircle
 10
1206.2103129629
 20
124.7950084469
 30
0.0
 40
2.4695428935
100
AcDbArc
 50
120.6773100904
 51
141.257725858
  0
POLYLINE
  5
12C
100
AcDbEntity
  8
_Y__________
  6
CONTINUOUS
 62
         7
100
AcDb3dPolyline
 66
         1
 10
0.0
 20
0.0
 30
0.0
 70
         8
  0
VERTEX
  5
12E
100
AcDbEntity
  8
_Y__________
  6
CONTINUOUS
 62
         7
100
AcDbVertex
100
AcDb3dPolylineVertex
 10
1204.950346339
 20
126.9189496442
 30
0.0
 70
        32
  0
VERTEX
  5
130
100
AcDbEntity
  8
_Y__________
  6
CONTINUOUS
 62
         7
100
AcDbVertex
100
AcDb3dPolylineVertex
 10
1204.950346339
 20
126.9189496442
 30
0.0
 70
        32
  0
SEQEND
  5
132
100
AcDbEntity
  8
_Y__________
  6
CONTINUOUS
 62
         7
  0
ARC
  5
133
100
AcDbEntity
  8
_Y__________
  6
CONTINUOUS
 62
         7
100
AcDbCircle
 10
1206.0105744318
 20
125.1317101395
 30
0.0
 40
2.0780540551
100
AcDbArc
 50
96.8239621528
 51
120.6773100904
  0
ARC
  5
134
100
AcDbEntity
  8
_Y__________
  6
CONTINUOUS
 62
         7
100
AcDbCircle
 10
1205.9596641031
 20
125.5571435737
 30
0.0
 40
1.6495853065
100
AcDbArc
 50
70.0
 51
96.8239621528
  0
POLYLINE
  5
136
100
AcDbEntity
  8
_Y__________
  6
CONTINUOUS
 62
         7
100
AcDb3dPolyline
 66
         1
 10
0.0
 20
0.0
 30
0.0
 70
         8
  0
VERTEX
  5
138
100
AcDbEntity
  8
_Y__________
  6
CONTINUOUS
 62
         7
100
AcDbVertex
100
AcDb3dPolylineVertex
 10
1206.5238555061
 20
127.1072467136
 30
0.0
 70
        32
  0
VERTEX
  5
13A
100
AcDbEntity
  8
_Y__________
  6
CONTINUOUS
 62
         7
100
AcDbVertex
100
AcDb3dPolylineVertex
 10
1206.5238555061
 20
127.1072467136
 30
0.0
 70
        32
  0
SEQEND
  5
13C
100
AcDbEntity
  8
_Y__________
  6
CONTINUOUS
 62
         7
  0
ARC
  5
13D
100
AcDbEntity
  8
_Y__________
  6
CONTINUOUS
 62
         7
100
AcDbCircle
 10
1205.9596641031
 20
125.5571435737
 30
0.0
 40
1.6495853065
100
AcDbArc
 50
43.1760378472
 51
70.0
  0
POLYLINE
  5
13F
100
AcDbEntity
  8
_Y__________
  6
CONTINUOUS
 62
         7
100
AcDb3dPolyline
 66
         1
 10
0.0
 20
0.0
 30
0.0
 70
         8
  0
VERTEX
  5
141
100
AcDbEntity
  8
_Y__________
  6
CONTINUOUS
 62
         7
100
AcDbVertex
100
AcDb3dPolylineVertex
 10
1207.1626321948
 20
126.6858594165
 30
0.0
 70
        32
  0
VERTEX
  5
143
100
AcDbEntity
  8
_Y__________
  6
CONTINUOUS
 62
         7
100
AcDbVertex
100
AcDb3dPolylineVertex
 10
1207.1626321948
 20
126.6858594165
 30
0.0
 70
        32
  0
SEQEND
  5
145
100
AcDbEntity
  8
_Y__________
  6
CONTINUOUS
 62
         7
  0
POLYLINE
  5
147
100
AcDbEntity
  8
_Y__________
  6
CONTINUOUS
 62
         7
100
AcDb3dPolyline
 66
         1
 10
0.0
 20
0.0
 30
0.0
 70
         8
  0
VERTEX
  5
149
100
AcDbEntity
  8
_Y__________
  6
CONTINUOUS
 62
         7
100
AcDbVertex
100
AcDb3dPolylineVertex
 10
1207.7467128429
 20
125.0802224645
 30
0.0
 70
        32
  0
VERTEX
  5
14B
100
AcDbEntity
  8
_Y__________
  6
CONTINUOUS
 62
         7
100
AcDbVertex
100
AcDb3dPolylineVertex
 10
1207.7467128429
 20
125.0802224645
 30
0.0
 70
        32
  0
SEQEND
  5
14D
100
AcDbEntity
  8
_Y__________
  6
CONTINUOUS
 62
         7
  0
ARC
  5
14E
100
AcDbEntity
  8
_Y__________
  6
CONTINUOUS
 62
         7
100
AcDbCircle
 10
1204.7752026945
 20
125.1454619219
 30
0.0
 40
2.9722262277
100
AcDbArc
 50
339.9999999999
 51
358.742274142
  0
POLYLINE
  5
150
100
AcDbEntity
  8
_Y__________
  6
CONTINUOUS
 62
         7
100
AcDb3dPolyline
 66
         1
 10
0.0
 20
0.0
 30
0.0
 70
         8
  0
VERTEX
  5
152
100
AcDbEntity
  8
_Y__________
  6
CONTINUOUS
 62
         7
100
AcDbVertex
100
AcDb3dPolylineVertex
 10
1207.568181748
 20
124.1289006815
 30
0.0
 70
        32
  0
VERTEX
  5
154
100
AcDbEntity
  8
_Y__________
  6
CONTINUOUS
 62
         7
100
AcDbVertex
100
AcDb3dPolylineVertex
 10
1207.568181748
 20
124.1289006815
 30
0.0
 70
        32
  0
SEQEND
  5
156
100
AcDbEntity
  8
_Y__________
  6
CONTINUOUS
 62
         7
  0
ARC
  5
157
100
AcDbEntity
  8
_Y__________
  6
CONTINUOUS
 62
         7
100
AcDbCircle
 10
1204.7752026945
 20
125.1454619219
 30
0.0
 40
2.9722262277
100
AcDbArc
 50
321.257725858
 51
340.0
  0
POLYLINE
  5
159
100
AcDbEntity
  8
_Y__________
  6
CONTINUOUS
 62
         7
100
AcDb3dPolyline
 66
         1
 10
0.0
 20
0.0
 30
0.0
 70
         8
  0
VERTEX
  5
15B
100
AcDbEntity
  8
_Y__________
  6
CONTINUOUS
 62
         7
100
AcDbVertex
100
AcDb3dPolylineVertex
 10
1207.0934466463
 20
123.2853883403
 30
0.0
 70
        32
  0
VERTEX
  5
15D
100
AcDbEntity
  8
_Y__________
  6
CONTINUOUS
 62
         7
100
AcDbVertex
100
AcDb3dPolylineVertex
 10
1207.0934466463
 20
123.2853883403
 30
0.0
 70
        32
  0
SEQEND
  5
15F
100
AcDbEntity
  8
_Y__________
  6
CONTINUOUS
 62
         7
  0
ARC
  5
160
100
AcDbEntity
  8
_Y__________
  6
CONTINUOUS
 62
         7
100
AcDbCircle
 10
1205.16728005
 20
124.8308734895
 30
0.0
 40
2.4695428935
100
AcDbArc
 50
300.6773100904
 51
321.2577258581
  0
POLYLINE
  5
162
100
AcDbEntity
  8
_Y__________
  6
CONTINUOUS
 62
         7
100
AcDb3dPolyline
 66
         1
 10
0.0
 20
0.0
 30
0.0
 70
         8
  0
VERTEX
  5
164
100
AcDbEntity
  8
_Y__________
  6
CONTINUOUS
 62
         7
100
AcDbVertex
100
AcDb3dPolylineVertex
 10
1206.4272466739
 20
122.7069322922
 30
0.0
 70
        32
  0
VERTEX
  5
166
100
AcDbEntity
  8
_Y__________
  6
CONTINUOUS
 62
         7
100
AcDbVertex
100
AcDb3dPolylineVertex
 10
1206.4272466739
 20
122.7069322922
 30
0.0
 70
        32
  0
SEQEND
  5
168
100
AcDbEntity
  8
_Y__________
  6
CONTINUOUS
 62
         7
  0
ARC
  5
169
100
AcDbEntity
  8
_Y__________
  6
CONTINUOUS
 62
         7
100
AcDbCircle
 10
1205.3670185811
 20
124.4941717969
 30
0.0
 40
2.0780540551
100
AcDbArc
 50
276.8239621528
 51
300.6773100903
  0
POLYLINE
  5
16B
100
AcDbEntity
  8
_Y__________
  6
CONTINUOUS
 62
         7
100
AcDb3dPolyline
 66
         1
 10
0.0
 20
0.0
 30
0.0
 70
         8
  0
VERTEX
  5
16D
100
AcDbEntity
  8
_Y__________
  6
CONTINUOUS
 62
         7
100
AcDbVertex
100
AcDb3dPolylineVertex
 10
1205.6139313731
 20
122.4308388792
 30
0.0
 70
        32
  0
VERTEX
  5
16F
100
AcDbEntity
  8
_Y__________
  6
CONTINUOUS
 62
         7
100
AcDbVertex
100
AcDb3dPolylineVertex
 10
1205.6139313731
 20
122.4308388792
 30
0.0
 70
        32
  0
SEQEND
  5
171
100
AcDbEntity
  8
_Y__________
  6
CONTINUOUS
 62
         7
  0
ARC
  5
172
100
AcDbEntity
  8
_Y__________
  6
CONTINUOUS
 62
         7
100
AcDbCircle
 10
1205.4179289098
 20
124.0687383626
 30
0.0
 40
1.6495853065
100
AcDbArc
 50
250.0
 51
276.8239621528
  0
POLYLINE
  5
174
100
AcDbEntity
  8
_Y__________
  6
CONTINUOUS
 62
         7
100
AcDb3dPolyline
 66
         1
 10
0.0
 20
0.0
 30
0.0
 70
         8
  0
VERTEX
  5
176
100
AcDbEntity
  8
_Y__________
  6
CONTINUOUS
 62
         7
100
AcDbVertex
100
AcDb3dPolylineVertex
 10
1204.8537375068
 20
122.5186352228
 30
0.0
 70
        32
  0
VERTEX
  5
178
100
AcDbEntity
  8
_Y__________
  6
CONTINUOUS
 62
         7
100
AcDbVertex
100
AcDb3dPolylineVertex
 10
1204.8537375068
 20
122.5186352228
 30
0.0
 70
        32
  0
SEQEND
  5
17A
100
AcDbEntity
  8
_Y__________
  6
CONTINUOUS
 62
         7
  0
ARC
  5
17B
100
AcDbEntity
  8
_Y__________
  6
CONTINUOUS
 62
         7
100
AcDbCircle
 10
1205.4179289098
 20
124.0687383626
 30
0.0
 40
1.6495853065
100
AcDbArc
 50
223.1760378472
 51
250.0
  0
POLYLINE
  5
17D
100
AcDbEntity
  8
_Y__________
  6
CONTINUOUS
 62
         7
100
AcDb3dPolyline
 66
         1
 10
0.0
 20
0.0
 30
0.0
 70
         8
  0
VERTEX
  5
17F
100
AcDbEntity
  8
_Y__________
  6
CONTINUOUS
 62
         7
100
AcDbVertex
100
AcDb3dPolylineVertex
 10
1204.2149608181
 20
122.9400225198
 30
0.0
 70
        32
  0
VERTEX
  5
181
100
AcDbEntity
  8
_Y__________
  6
CONTINUOUS
 62
         7
100
AcDbVertex
100
AcDb3dPolylineVertex
 10
1204.2149608181
 20
122.9400225198
 30
0.0
 70
        32
  0
SEQEND
  5
183
100
AcDbEntity
  8
_Y__________
  6
CONTINUOUS
 62
         7
  0
ARC
  5
184
100
AcDbEntity
  8
_Y__________
  6
CONTINUOUS
 62
         7
100
AcDbCircle
 10
1205.7303918245
 20
124.3619147524
 30
0.0
 40
2.0780540551
100
AcDbArc
 50
199.3226899096
 51
223.1760378473
  0
ARC
  5
185
100
AcDbEntity
  8
_Y__________
  6
CONTINUOUS
 62
         7
100
AcDbCircle
 10
1206.0998280924
 20
124.49145376
 30
0.0
 40
2.4695428935
100
AcDbArc
 50
178.742274142
 51
199.3226899096
  0
ARC
  5
186
100
AcDbEntity
  8
_Y__________
  6
CONTINUOUS
 62
         7
100
AcDbCircle
 10
1206.6023903184
 20
124.4804200144
 30
0.0
 40
2.9722262277
100
AcDbArc
 50
160.0
 51
178.742274142
  0
ARC
  5
187
100
AcDbEntity
  8
_Y__________
  6
CONTINUOUS
 62
         7
100
AcDbCircle
 10
1205.2777649205
 20
125.1344281764
 30
0.0
 40
2.4695428935
100
AcDbArc
 50
358.742274142
 51
379.3226899097
  0
ARC
  5
188
100
AcDbEntity
  8
_Y__________
  6
CONTINUOUS
 62
         7
100
AcDbCircle
 10
1205.6472011885
 20
125.263967184
 30
0.0
 40
2.0780540551
100
AcDbArc
 50
19.3226899096
 51
43.1760378472
  0
POLYLINE
  5
18A
100
AcDbEntity
  8
_Y__________
  6
CONTINUOUS
 62
         7
100
AcDb3dPolyline
 66
         1
 10
0.0
 20
0.0
 30
0.0
 70
         8
  0
VERTEX
  5
18C
100
AcDbEntity
  8
_Y__________
  6
CONTINUOUS
 62
         7
100
AcDbVertex
100
AcDb3dPolylineVertex
 10
1222.2784990045
 20
176.2403827773
 30
0.0
 70
        32
  0
VERTEX
  5
18E
100
AcDbEntity
  8
_Y__________
  6
CONTINUOUS
 62
         7
100
AcDbVertex
100
AcDb3dPolylineVertex
 10
1222.2784990045
 20
176.2403827773
 30
0.0
 70
        32
  0
SEQEND
  5
190
100
AcDbEntity
  8
_Y__________
  6
CONTINUOUS
 62
         7
  0
ARC
  5
191
100
AcDbEntity
  8
_Y__________
  6
CONTINUOUS
 62
         7
100
AcDbCircle
 10
1225.071478058
 20
175.2238215369
 30
0.0
 40
2.9722262277
100
AcDbArc
 50
160.0
 51
178.7422741421
  0
POLYLINE
  5
193
100
AcDbEntity
  8
_Y__________
  6
CONTINUOUS
 62
         7
100
AcDb3dPolyline
 66
         1
 10
0.0
 20
0.0
 30
0.0
 70
         8
  0
VERTEX
  5
195
100
AcDbEntity
  8
_Y__________
  6
CONTINUOUS
 62
         7
100
AcDbVertex
100
AcDb3dPolylineVertex
 10
1222.0999679096
 20
175.2890609943
 30
0.0
 70
        32
  0
VERTEX
  5
197
100
AcDbEntity
  8
_Y__________
  6
CONTINUOUS
 62
         7
100
AcDbVertex
100
AcDb3dPolylineVertex
 10
1222.0999679096
 20
175.2890609943
 30
0.0
 70
        32
  0
SEQEND
  5
199
100
AcDbEntity
  8
_Y__________
  6
CONTINUOUS
 62
         7
  0
ARC
  5
19A
100
AcDbEntity
  8
_Y__________
  6
CONTINUOUS
 62
         7
100
AcDbCircle
 10
1224.568915832
 20
175.2348552824
 30
0.0
 40
2.4695428935
100
AcDbArc
 50
178.7422741421
 51
199.3226899097
  0
POLYLINE
  5
19C
100
AcDbEntity
  8
_Y__________
  6
CONTINUOUS
 62
         7
100
AcDb3dPolyline
 66
         1
 10
0.0
 20
0.0
 30
0.0
 70
         8
  0
VERTEX
  5
19E
100
AcDbEntity
  8
_Y__________
  6
CONTINUOUS
 62
         7
100
AcDbVertex
100
AcDb3dPolylineVertex
 10
1222.2384823159
 20
174.4177128652
 30
0.0
 70
        32
  0
VERTEX
  5
1A0
100
AcDbEntity
  8
_Y__________
  6
CONTINUOUS
 62
         7
100
AcDbVertex
100
AcDb3dPolylineVertex
 10
1222.2384823159
 20
174.4177128652
 30
0.0
 70
        32
  0
SEQEND
  5
1A2
100
AcDbEntity
  8
_Y__________
  6
CONTINUOUS
 62
         7
  0
ARC
  5
1A3
100
AcDbEntity
  8
_Y__________
  6
CONTINUOUS
 62
         7
100
AcDbCircle
 10
1224.199479564
 20
175.1053162748
 30
0.0
 40
2.0780540551
100
AcDbArc
 50
199.3226899097
 51
223.1760378473
  0
POLYLINE
  5
1A5
100
AcDbEntity
  8
_Y__________
  6
CONTINUOUS
 62
         7
100
AcDb3dPolyline
 66
         1
 10
0.0
 20
0.0
 30
0.0
 70
         8
  0
VERTEX
  5
1A7
100
AcDbEntity
  8
_Y__________
  6
CONTINUOUS
 62
         7
100
AcDbVertex
100
AcDb3dPolylineVertex
 10
1222.6840485577
 20
173.6834240423
 30
0.0
 70
        32
  0
VERTEX
  5
1A9
100
AcDbEntity
  8
_Y__________
  6
CONTINUOUS
 62
         7
100
AcDbVertex
100
AcDb3dPolylineVertex
 10
1222.6840485577
 20
173.6834240423
 30
0.0
 70
        32
  0
SEQEND
  5
1AB
100
AcDbEntity
  8
_Y__________
  6
CONTINUOUS
 62
         7
  0
ARC
  5
1AC
100
AcDbEntity
  8
_Y__________
  6
CONTINUOUS
 62
         7
100
AcDbCircle
 10
1223.8870166494
 20
174.8121398851
 30
0.0
 40
1.6495853065
100
AcDbArc
 50
223.1760378472
 51
249.9999999999
  0
POLYLINE
  5
1AE
100
AcDbEntity
  8
_Y__________
  6
CONTINUOUS
 62
         7
100
AcDb3dPolyline
 66
         1
 10
0.0
 20
0.0
 30
0.0
 70
         8
  0
VERTEX
  5
1B0
100
AcDbEntity
  8
_Y__________
  6
CONTINUOUS
 62
         7
100
AcDbVertex
100
AcDb3dPolylineVertex
 10
1223.3228252464
 20
173.2620367452
 30
0.0
 70
        32
  0
VERTEX
  5
1B2
100
AcDbEntity
  8
_Y__________
  6
CONTINUOUS
 62
         7
100
AcDbVertex
100
AcDb3dPolylineVertex
 10
1223.3228252464
 20
173.2620367452
 30
0.0
 70
        32
  0
SEQEND
  5
1B4
100
AcDbEntity
  8
_Y__________
  6
CONTINUOUS
 62
         7
  0
ARC
  5
1B5
100
AcDbEntity
  8
_Y__________
  6
CONTINUOUS
 62
         7
100
AcDbCircle
 10
1223.8870166494
 20
174.8121398851
 30
0.0
 40
1.6495853065
100
AcDbArc
 50
250.0
 51
276.8239621528
  0
POLYLINE
  5
1B7
100
AcDbEntity
  8
_Y__________
  6
CONTINUOUS
 62
         7
100
AcDb3dPolyline
 66
         1
 10
0.0
 20
0.0
 30
0.0
 70
         8
  0
VERTEX
  5
1B9
100
AcDbEntity
  8
_Y__________
  6
CONTINUOUS
 62
         7
100
AcDbVertex
100
AcDb3dPolylineVertex
 10
1224.0830191126
 20
173.1742404017
 30
0.0
 70
        32
  0
VERTEX
  5
1BB
100
AcDbEntity
  8
_Y__________
  6
CONTINUOUS
 62
         7
100
AcDbVertex
100
AcDb3dPolylineVertex
 10
1224.0830191126
 20
173.1742404017
 30
0.0
 70
        32
  0
SEQEND
  5
1BD
100
AcDbEntity
  8
_Y__________
  6
CONTINUOUS
 62
         7
  0
ARC
  5
1BE
100
AcDbEntity
  8
_Y__________
  6
CONTINUOUS
 62
         7
100
AcDbCircle
 10
1223.8361063207
 20
175.2375733193
 30
0.0
 40
2.0780540551
100
AcDbArc
 50
276.8239621528
 51
300.6773100904
  0
POLYLINE
  5
1C0
100
AcDbEntity
  8
_Y__________
  6
CONTINUOUS
 62
         7
100
AcDb3dPolyline
 66
         1
 10
0.0
 20
0.0
 30
0.0
 70
         8
  0
VERTEX
  5
1C2
100
AcDbEntity
  8
_Y__________
  6
CONTINUOUS
 62
         7
100
AcDbVertex
100
AcDb3dPolylineVertex
 10
1224.8963344135
 20
173.4503338146
 30
0.0
 70
        32
  0
VERTEX
  5
1C4
100
AcDbEntity
  8
_Y__________
  6
CONTINUOUS
 62
         7
100
AcDbVertex
100
AcDb3dPolylineVertex
 10
1224.8963344135
 20
173.4503338146
 30
0.0
 70
        32
  0
SEQEND
  5
1C6
100
AcDbEntity
  8
_Y__________
  6
CONTINUOUS
 62
         7
  0
ARC
  5
1C7
100
AcDbEntity
  8
_Y__________
  6
CONTINUOUS
 62
         7
100
AcDbCircle
 10
1223.6363677896
 20
175.5742750119
 30
0.0
 40
2.4695428935
100
AcDbArc
 50
300.6773100903
 51
321.257725858
  0
POLYLINE
  5
1C9
100
AcDbEntity
  8
_Y__________
  6
CONTINUOUS
 62
         7
100
AcDb3dPolyline
 66
         1
 10
0.0
 20
0.0
 30
0.0
 70
         8
  0
VERTEX
  5
1CB
100
AcDbEntity
  8
_Y__________
  6
CONTINUOUS
 62
         7
100
AcDbVertex
100
AcDb3dPolylineVertex
 10
1225.5625343858
 20
174.0287898627
 30
0.0
 70
        32
  0
VERTEX
  5
1CD
100
AcDbEntity
  8
_Y__________
  6
CONTINUOUS
 62
         7
100
AcDbVertex
100
AcDb3dPolylineVertex
 10
1225.5625343858
 20
174.0287898627
 30
0.0
 70
        32
  0
SEQEND
  5
1CF
100
AcDbEntity
  8
_Y__________
  6
CONTINUOUS
 62
         7
  0
ARC
  5
1D0
100
AcDbEntity
  8
_Y__________
  6
CONTINUOUS
 62
         7
100
AcDbCircle
 10
1223.2442904341
 20
175.8888634444
 30
0.0
 40
2.9722262277
100
AcDbArc
 50
321.257725858
 51
340.0
  0
POLYLINE
  5
1D2
100
AcDbEntity
  8
_Y__________
  6
CONTINUOUS
 62
         7
100
AcDb3dPolyline
 66
         1
 10
0.0
 20
0.0
 30
0.0
 70
         8
  0
VERTEX
  5
1D4
100
AcDbEntity
  8
_Y__________
  6
CONTINUOUS
 62
         7
100
AcDbVertex
100
AcDb3dPolylineVertex
 10
1226.0372694876
 20
174.872302204
 30
0.0
 70
        32
  0
VERTEX
  5
1D6
100
AcDbEntity
  8
_Y__________
  6
CONTINUOUS
 62
         7
100
AcDbVertex
100
AcDb3dPolylineVertex
 10
1226.0372694876
 20
174.872302204
 30
0.0
 70
        32
  0
SEQEND
  5
1D8
100
AcDbEntity
  8
_Y__________
  6
CONTINUOUS
 62
         7
  0
ARC
  5
1D9
100
AcDbEntity
  8
_Y__________
  6
CONTINUOUS
 62
         7
100
AcDbCircle
 10
1223.2442904341
 20
175.8888634444
 30
0.0
 40
2.9722262277
100
AcDbArc
 50
339.9999999999
 51
358.742274142
  0
POLYLINE
  5
1DB
100
AcDbEntity
  8
_Y__________
  6
CONTINUOUS
 62
         7
100
AcDb3dPolyline
 66
         1
 10
0.0
 20
0.0
 30
0.0
 70
         8
  0
VERTEX
  5
1DD
100
AcDbEntity
  8
_Y__________
  6
CONTINUOUS
 62
         7
100
AcDbVertex
100
AcDb3dPolylineVertex
 10
1226.2158005825
 20
175.823623987
 30
0.0
 70
        32
  0
VERTEX
  5
1DF
100
AcDbEntity
  8
_Y__________
  6
CONTINUOUS
 62
         7
100
AcDbVertex
100
AcDb3dPolylineVertex
 10
1226.2158005825
 20
175.823623987
 30
0.0
 70
        32
  0
SEQEND
  5
1E1
100
AcDbEntity
  8
_Y__________
  6
CONTINUOUS
 62
         7
  0
ARC
  5
1E2
100
AcDbEntity
  8
_Y__________
  6
CONTINUOUS
 62
         7
100
AcDbCircle
 10
1223.7468526601
 20
175.8778296988
 30
0.0
 40
2.4695428935
100
AcDbArc
 50
358.742274142
 51
379.3226899097
  0
POLYLINE
  5
1E4
100
AcDbEntity
  8
_Y__________
  6
CONTINUOUS
 62
         7
100
AcDb3dPolyline
 66
         1
 10
0.0
 20
0.0
 30
0.0
 70
         8
  0
VERTEX
  5
1E6
100
AcDbEntity
  8
_Y__________
  6
CONTINUOUS
 62
         7
100
AcDbVertex
100
AcDb3dPolylineVertex
 10
1226.0772861762
 20
176.694972116
 30
0.0
 70
        32
  0
VERTEX
  5
1E8
100
AcDbEntity
  8
_Y__________
  6
CONTINUOUS
 62
         7
100
AcDbVertex
100
AcDb3dPolylineVertex
 10
1226.0772861762
 20
176.694972116
 30
0.0
 70
        32
  0
SEQEND
  5
1EA
100
AcDbEntity
  8
_Y__________
  6
CONTINUOUS
 62
         7
  0
ARC
  5
1EB
100
AcDbEntity
  8
_Y__________
  6
CONTINUOUS
 62
         7
100
AcDbCircle
 10
1224.1162889281
 20
176.0073687064
 30
0.0
 40
2.0780540551
100
AcDbArc
 50
19.3226899096
 51
43.1760378472
  0
POLYLINE
  5
1ED
100
AcDbEntity
  8
_Y__________
  6
CONTINUOUS
 62
         7
100
AcDb3dPolyline
 66
         1
 10
0.0
 20
0.0
 30
0.0
 70
         8
  0
VERTEX
  5
1EF
100
AcDbEntity
  8
_Y__________
  6
CONTINUOUS
 62
         7
100
AcDbVertex
100
AcDb3dPolylineVertex
 10
1225.6317199344
 20
177.429260939
 30
0.0
 70
        32
  0
VERTEX
  5
1F1
100
AcDbEntity
  8
_Y__________
  6
CONTINUOUS
 62
         7
100
AcDbVertex
100
AcDb3dPolylineVertex
 10
1225.6317199344
 20
177.429260939
 30
0.0
 70
        32
  0
SEQEND
  5
1F3
100
AcDbEntity
  8
_Y__________
  6
CONTINUOUS
 62
         7
  0
ARC
  5
1F4
100
AcDbEntity
  8
_Y__________
  6
CONTINUOUS
 62
         7
100
AcDbCircle
 10
1224.4287518427
 20
176.3005450962
 30
0.0
 40
1.6495853065
100
AcDbArc
 50
43.1760378472
 51
70.0
  0
POLYLINE
  5
1F6
100
AcDbEntity
  8
_Y__________
  6
CONTINUOUS
 62
         7
100
AcDb3dPolyline
 66
         1
 10
0.0
 20
0.0
 30
0.0
 70
         8
  0
VERTEX
  5
1F8
100
AcDbEntity
  8
_Y__________
  6
CONTINUOUS
 62
         7
100
AcDbVertex
100
AcDb3dPolylineVertex
 10
1224.9929432457
 20
177.850648236
 30
0.0
 70
        32
  0
VERTEX
  5
1FA
100
AcDbEntity
  8
_Y__________
  6
CONTINUOUS
 62
         7
100
AcDbVertex
100
AcDb3dPolylineVertex
 10
1224.9929432457
 20
177.850648236
 30
0.0
 70
        32
  0
SEQEND
  5
1FC
100
AcDbEntity
  8
_Y__________
  6
CONTINUOUS
 62
         7
  0
ARC
  5
1FD
100
AcDbEntity
  8
_Y__________
  6
CONTINUOUS
 62
         7
100
AcDbCircle
 10
1224.4287518427
 20
176.3005450962
 30
0.0
 40
1.6495853065
100
AcDbArc
 50
70.0000000001
 51
96.8239621529
  0
POLYLINE
  5
1FF
100
AcDbEntity
  8
_Y__________
  6
CONTINUOUS
 62
         7
100
AcDb3dPolyline
 66
         1
 10
0.0
 20
0.0
 30
0.0
 70
         8
  0
VERTEX
  5
201
100
AcDbEntity
  8
_Y__________
  6
CONTINUOUS
 62
         7
100
AcDbVertex
100
AcDb3dPolylineVertex
 10
1224.2327493795
 20
177.9384445796
 30
0.0
 70
        32
  0
VERTEX
  5
203
100
AcDbEntity
  8
_Y__________
  6
CONTINUOUS
 62
         7
100
AcDbVertex
100
AcDb3dPolylineVertex
 10
1224.2327493795
 20
177.9384445796
 30
0.0
 70
        32
  0
SEQEND
  5
205
100
AcDbEntity
  8
_Y__________
  6
CONTINUOUS
 62
         7
  0
ARC
  5
206
100
AcDbEntity
  8
_Y__________
  6
CONTINUOUS
 62
         7
100
AcDbCircle
 10
1224.4796621714
 20
175.8751116619
 30
0.0
 40
2.0780540551
100
AcDbArc
 50
96.8239621528
 51
120.6773100904
  0
POLYLINE
  5
208
100
AcDbEntity
  8
_Y__________
  6
CONTINUOUS
 62
         7
100
AcDb3dPolyline
 66
         1
 10
0.0
 20
0.0
 30
0.0
 70
         8
  0
VERTEX
  5
20A
100
AcDbEntity
  8
_Y__________
  6
CONTINUOUS
 62
         7
100
AcDbVertex
100
AcDb3dPolylineVertex
 10
1223.4194340786
 20
177.6623511666
 30
0.0
 70
        32
  0
VERTEX
  5
20C
100
AcDbEntity
  8
_Y__________
  6
CONTINUOUS
 62
         7
100
AcDbVertex
100
AcDb3dPolylineVertex
 10
1223.4194340786
 20
177.6623511666
 30
0.0
 70
        32
  0
SEQEND
  5
20E
100
AcDbEntity
  8
_Y__________
  6
CONTINUOUS
 62
         7
  0
ARC
  5
20F
100
AcDbEntity
  8
_Y__________
  6
CONTINUOUS
 62
         7
100
AcDbCircle
 10
1224.6794007025
 20
175.5384099693
 30
0.0
 40
2.4695428935
100
AcDbArc
 50
120.6773100903
 51
141.257725858
  0
ARC
  5
210
100
AcDbEntity
  8
_Y__________
  6
CONTINUOUS
 62
         7
100
AcDbCircle
 10
1225.071478058
 20
175.2238215369
 30
0.0
 40
2.9722262277
100
AcDbArc
 50
141.257725858
 51
160.0
  0
LINE
  5
211
100
AcDbEntity
  8
_Y__________
  6
CENTER
 62
         1
100
AcDbLine
 10
1226.9769621084
 20
174.5302820606
 30
0.0
 11
1221.3388063837
 21
176.5824029206
 31
0.0
  0
LINE
  5
212
100
AcDbEntity
  8
_Y__________
  6
DASHED
 62
         2
100
AcDbLine
 10
1623.2608359398
 20
145.4221949003
 30
0.0
 11
1629.8913272235
 21
127.2050698182
 31
0.0
  0
LINE
  5
213
100
AcDbEntity
  8
_Y__________
  6
DASHED
 62
         2
100
AcDbLine
 10
1626.3618215883
 20
146.5508613732
 30
0.0
 11
1632.9923128721
 21
128.3337362912
 31
0.0
  0
LINE
  5
214
100
AcDbEntity
  8
_Y__________
  6
DASHED
 62
         2
100
AcDbLine
 10
1633.3212052894
 20
128.4534433413
 30
0.0
 11
1634.7576898914
 21
124.506734334
 31
0.0
  0
LINE
  5
215
100
AcDbEntity
  8
_Y__________
  6
DASHED
 62
         2
100
AcDbLine
 10
1633.3212052894
 20
128.4534433413
 30
0.0
 11
1629.5624348063
 21
127.085362768
 31
0.0
  0
LINE
  5
216
100
AcDbEntity
  8
_Y__________
  6
DASHED
 62
         2
100
AcDbLine
 10
1629.5624348063
 20
127.085362768
 30
0.0
 11
1630.9989194082
 21
123.1386537607
 31
0.0
  0
LINE
  5
217
100
AcDbEntity
  8
_Y__________
  6
DASHED
 62
         2
100
AcDbLine
 10
1617.0042459463
 20
173.2839206908
 30
0.0
 11
1613.2454754631
 21
171.9158401175
 31
0.0
  0
LINE
  5
218
100
AcDbEntity
  8
_Y__________
  6
DASHED
 62
         2
100
AcDbLine
 10
1613.5743678804
 20
172.0355471676
 30
0.0
 11
1620.2048591642
 21
153.8184220856
 31
0.0
  0
LINE
  5
219
100
AcDbEntity
  8
_Y__________
  6
DASHED
 62
         2
100
AcDbLine
 10
1616.675353529
 20
173.1642136406
 30
0.0
 11
1623.3058448128
 21
154.9470885585
 31
0.0
  0
LINE
  5
21A
100
AcDbEntity
  8
_Y__________
  6
DASHED
 62
         2
100
AcDbLine
 10
1613.2454754631
 20
171.9158401175
 30
0.0
 11
1611.8089908611
 21
175.8625491248
 31
0.0
  0
LINE
  5
21B
100
AcDbEntity
  8
_Y__________
  6
DASHED
 62
         2
100
AcDbLine
 10
1617.0042459463
 20
173.2839206908
 30
0.0
 11
1615.5677613443
 21
177.2306296981
 31
0.0
  0
LINE
  5
21C
100
AcDbEntity
  8
_Y__________
  6
CENTER
 62
         1
100
AcDbLine
 10
1611.3895898921
 20
182.8624526172
 30
0.0
 11
1635.3242136355
 21
117.102614339
 31
0.0
  0
LINE
  5
21D
100
AcDbEntity
  8
_Y__________
  6
CENTER
 62
         1
100
AcDbLine
 10
1227.1031401709
 20
183.6483666388
 30
0.0
 11
1202.8730445027
 21
117.0767259189
 31
0.0
  0
LINE
  5
21E
100
AcDbEntity
  8
L1_65
  6
CONTINUOUS
 62
         7
100
AcDbLine
 10
1443.1173403763
 20
-25.6433347407
 30
0.0
 11
1445.2533403763
 21
-23.5073347407
 31
0.0
  0
LINE
  5
21F
100
AcDbEntity
  8
L1_65
  6
CONTINUOUS
 62
         7
100
AcDbLine
 10
1455.8893403763
 20
-25.6433347407
 30
0.0
 11
1453.7533403763
 21
-23.5073347407
 31
0.0
  0
ARC
  5
220
100
AcDbEntity
  8
L1_65
  6
CONTINUOUS
 62
         7
100
AcDbCircle
 10
1463.5033403763
 20
-4.8989401319
 30
0.0
 40
1.5
100
AcDbArc
 50
0.0
 51
65.0
  0
LINE
  5
221
100
AcDbEntity
  8
L1_65
  6
CONTINUOUS
 62
         7
100
AcDbLine
 10
1465.0033403763
 20
-20.9877293495
 30
0.0
 11
1465.0033403763
 21
-4.8989401319
 31
0.0
  0
ARC
  5
222
100
AcDbEntity
  8
L1_65
  6
CONTINUOUS
 62
         7
100
AcDbCircle
 10
1463.5033403763
 20
-20.9877293495
 30
0.0
 40
1.5
100
AcDbArc
 50
295.0
 51
360.0
  0
LINE
  5
223
100
AcDbEntity
  8
L1_65
  6
CONTINUOUS
 62
         7
100
AcDbLine
 10
1464.1372677689
 20
-22.34719103
 30
0.0
 11
1457.4705119686
 21
-25.4559503147
 31
0.0
  0
ARC
  5
224
100
AcDbEntity
  8
L1_65
  6
CONTINUOUS
 62
         7
100
AcDbCircle
 10
1456.6252754451
 20
-23.6433347407
 30
0.0
 40
2.0
100
AcDbArc
 50
270.0
 51
295.0
  0
LINE
  5
225
100
AcDbEntity
  8
L1_65
  6
CONTINUOUS
 62
         7
100
AcDbLine
 10
1464.1372677689
 20
-3.5394784513
 30
0.0
 11
1457.4705119686
 21
-0.4307191666
 31
0.0
  0
ARC
  5
226
100
AcDbEntity
  8
L1_65
  6
CONTINUOUS
 62
         7
100
AcDbCircle
 10
1456.6252754451
 20
-2.2433347407
 30
0.0
 40
2.0
100
AcDbArc
 50
65.0
 51
90.0
  0
LINE
  5
227
100
AcDbEntity
  8
L1_65
  6
CONTINUOUS
 62
         7
100
AcDbLine
 10
1456.6252754451
 20
-25.6433347407
 30
0.0
 11
1436.0553403763
 21
-25.6433347407
 31
0.0
  0
LINE
  5
228
100
AcDbEntity
  8
L1_65
  6
CONTINUOUS
 62
         7
100
AcDbLine
 10
1456.6252754451
 20
-0.2433347407
 30
0.0
 11
1436.0553403763
 21
-0.2433347407
 31
0.0
  0
LINE
  5
229
100
AcDbEntity
  8
L1_65
  6
CENTER
 62
         1
100
AcDbLine
 10
1449.5033403763
 20
-26.0370617599
 30
0.0
 11
1449.5033403763
 21
-15.7957853844
 31
0.0
  0
LINE
  5
22A
100
AcDbEntity
  8
L1_65
  6
CONTINUOUS
 62
         4
100
AcDbLine
 10
1454.2533403763
 20
-17.7058347407
 30
0.0
 11
1454.2533403763
 21
-24.0073347407
 31
0.0
  0
LINE
  5
22B
100
AcDbEntity
  8
L1_65
  6
CONTINUOUS
 62
         7
100
AcDbLine
 10
1453.7533403763
 20
-17.7058347407
 30
0.0
 11
1453.7533403763
 21
-23.5073347407
 31
0.0
  0
LINE
  5
22C
100
AcDbEntity
  8
L1_65
  6
CONTINUOUS
 62
         7
100
AcDbLine
 10
1453.7533403763
 20
-23.5073347407
 30
0.0
 11
1445.2533403763
 21
-23.5073347407
 31
0.0
  0
LINE
  5
22D
100
AcDbEntity
  8
L1_65
  6
CONTINUOUS
 62
         7
100
AcDbLine
 10
1445.2533403763
 20
-23.5073347407
 30
0.0
 11
1445.2533403763
 21
-17.7058347407
 31
0.0
  0
LINE
  5
22E
100
AcDbEntity
  8
L1_65
  6
CONTINUOUS
 62
         4
100
AcDbLine
 10
1444.7533403763
 20
-24.0073347407
 30
0.0
 11
1444.7533403763
 21
-17.7058347407
 31
0.0
  0
LINE
  5
22F
100
AcDbEntity
  8
L1_65
  6
CENTER
 62
         1
100
AcDbLine
 10
1471.5714469812
 20
-12.9433347407
 30
0.0
 11
1419.1033403763
 21
-12.9433347407
 31
0.0
  0
LINE
  5
230
100
AcDbEntity
  8
L1_65
  6
CENTER
 62
         1
100
AcDbLine
 10
1449.5033403763
 20
-6.7237769527
 30
0.0
 11
1449.5033403763
 21
3.5105078544
 31
0.0
  0
ARC
  5
231
100
AcDbEntity
  8
L1_65
  6
CONTINUOUS
 62
         7
100
AcDbCircle
 10
1449.5033403763
 20
7.3766652593
 30
0.0
 40
10.0
100
AcDbArc
 50
229.6408321236
 51
310.3591678764
  0
LINE
  5
232
100
AcDbEntity
  8
L1_65
  6
CONTINUOUS
 62
         7
100
AcDbLine
 10
1456.6252754451
 20
162.8846417294
 30
0.0
 11
1436.0553403763
 21
162.8846417294
 31
0.0
  0
LINE
  5
233
100
AcDbEntity
  8
L1_65
  6
CONTINUOUS
 62
         7
100
AcDbLine
 10
1456.6252754451
 20
137.4846417294
 30
0.0
 11
1436.0553403763
 21
137.4846417294
 31
0.0
  0
LINE
  5
234
100
AcDbEntity
  8
L1_65
  6
CONTINUOUS
 62
         4
100
AcDbLine
 10
1457.058154673
 20
137.5320497151
 30
0.0
 11
1457.058154673
 21
162.8372337436
 31
0.0
  0
LINE
  5
235
100
AcDbEntity
  8
L1_65
  6
CONTINUOUS
 62
         7
100
AcDbLine
 10
1464.1372677689
 20
159.5884980187
 30
0.0
 11
1457.4705119686
 21
162.6972573035
 31
0.0
  0
LINE
  5
236
100
AcDbEntity
  8
L1_65
  6
CONTINUOUS
 62
         7
100
AcDbLine
 10
1464.1372677689
 20
140.78078544
 30
0.0
 11
1457.4705119686
 21
137.6720261553
 31
0.0
  0
LINE
  5
237
100
AcDbEntity
  8
L1_65
  6
CONTINUOUS
 62
         7
100
AcDbLine
 10
1465.0033403763
 20
142.1402471206
 30
0.0
 11
1465.0033403763
 21
158.2290363382
 31
0.0
  0
ARC
  5
238
100
AcDbEntity
  8
L1_65
  6
CONTINUOUS
 62
         7
100
AcDbCircle
 10
1463.5033403763
 20
158.2290363382
 30
0.0
 40
1.5
100
AcDbArc
 50
0.0
 51
65.0
  0
ARC
  5
239
100
AcDbEntity
  8
L1_65
  6
CONTINUOUS
 62
         7
100
AcDbCircle
 10
1463.5033403763
 20
142.1402471206
 30
0.0
 40
1.5
100
AcDbArc
 50
295.0
 51
360.0
  0
ARC
  5
23A
100
AcDbEntity
  8
L1_65
  6
CONTINUOUS
 62
         7
100
AcDbCircle
 10
1456.6252754451
 20
139.4846417294
 30
0.0
 40
2.0
100
AcDbArc
 50
270.0
 51
295.0
  0
ARC
  5
23B
100
AcDbEntity
  8
L1_65
  6
CONTINUOUS
 62
         7
100
AcDbCircle
 10
1456.6252754451
 20
160.8846417294
 30
0.0
 40
2.0
100
AcDbArc
 50
65.0
 51
90.0
  0
DIMENSION
  5
23E
100
AcDbEntity
  8
L1_65
  6
CONTINUOUS
 62
         4
100
AcDbDimension
  2
*D1
 10
1486.8228728958
 20
137.4846417294
 30
0.0
 11
1483.6908728958
 21
141.5072850613
 31
0.0
  3
DIMSTYLE1
100
AcDbAlignedDimension
 13
1456.6252754451
 23
137.4846417294
 33
0.0
 14
1456.6252754451
 24
162.8846417294
 34
0.0
 50
90.0
100
AcDbRotatedDimension
  0
LINE
  5
24A
100
AcDbEntity
  8
L1_65
  6
CENTER
 62
         1
100
AcDbLine
 10
1469.2214523284
 20
150.1846417294
 30
0.0
 11
1419.1033403763
 21
150.1846417294
 31
0.0
  0
LINE
  5
24B
100
AcDbEntity
  8
L1_65
  6
DASHED
 62
         2
100
AcDbLine
 10
1618.5333403763
 20
139.3003778505
 30
0.0
 11
1618.5333403763
 21
149.8398138738
 31
0.0
  0
LINE
  5
24C
100
AcDbEntity
  8
L1_65
  6
DASHED
 62
         2
100
AcDbLine
 10
1619.0333403763
 20
139.8003778505
 30
0.0
 11
1619.0333403763
 21
148.0354776477
 31
0.0
  0
LINE
  5
24D
100
AcDbEntity
  8
L1_65
  6
DASHED
 62
         2
100
AcDbLine
 10
1628.0333403763
 20
149.8398138738
 30
0.0
 11
1628.0333403763
 21
139.3003778505
 31
0.0
  0
LINE
  5
24E
100
AcDbEntity
  8
L1_65
  6
DASHED
 62
         2
100
AcDbLine
 10
1627.5333403763
 20
148.0354776477
 30
0.0
 11
1627.5333403763
 21
139.8003778505
 31
0.0
  0
LINE
  5
24F
100
AcDbEntity
  8
L1_65
  6
DASHED
 62
         2
100
AcDbLine
 10
1627.5333403763
 20
139.8003778505
 30
0.0
 11
1619.0333403763
 21
139.8003778505
 31
0.0
  0
CIRCLE
  5
250
100
AcDbEntity
  8
L1_65
  6
CONTINUOUS
 62
         7
100
AcDbCircle
 10
1623.2833403763
 20
150.1846417294
 30
0.0
 40
4.7625
  0
CIRCLE
  5
251
100
AcDbEntity
  8
L1_65
  6
CONTINUOUS
 62
         7
100
AcDbCircle
 10
1623.2833403763
 20
150.1846417294
 30
0.0
 40
9.0
  0
ARC
  5
252
100
AcDbEntity
  8
L1_65
  6
DASHED
 62
         2
100
AcDbCircle
 10
1623.2833403763
 20
170.5046417294
 30
0.0
 40
10.0
100
AcDbArc
 50
239.9041784303
 51
300.0958215697
  0
CIRCLE
  5
253
100
AcDbEntity
  8
L1_65
  6
CONTINUOUS
 62
         7
100
AcDbCircle
 10
1623.2833403763
 20
150.1846417294
 30
0.0
 40
12.7
  0
DIMENSION
  5
256
100
AcDbEntity
  8
L1_65
  6
CONTINUOUS
 62
         4
100
AcDbDimension
  2
*D2
 10
1400.0033403763
 20
217.3824359449
 30
0.0
 11
1428.3194485805
 21
219.4074359449
 31
0.0
  3
DIMSTYLE1
100
AcDbAlignedDimension
 13
1400.0033403763
 23
172.4096417294
 33
0.0
 14
1465.0033403763
 24
150.1846417294
 34
0.0
100
AcDbRotatedDimension
  0
DIMENSION
  5
264
100
AcDbEntity
  8
L1_65
  6
CONTINUOUS
 62
         4
100
AcDbDimension
  2
*D3
 10
1331.7533403763
 20
223.5679539148
 30
0.0
 11
1390.1960631912
 21
225.5929539148
 31
0.0
  3
DIMSTYLE1
100
AcDbAlignedDimension
 13
1331.7533403763
 23
161.4188234458
 33
0.0
 14
1465.0033403763
 24
150.1846417294
 34
0.0
100
AcDbRotatedDimension
  0
LINE
  5
270
100
AcDbEntity
  8
L1_65
  6
CONTINUOUS
 62
         7
100
AcDbLine
 10
1403.2033403763
 20
180.9596417294
 30
0.0
 11
1403.2033403763
 21
119.4096417294
 31
0.0
  0
LINE
  5
271
100
AcDbEntity
  8
L1_65
  6
CENTER
 62
         1
100
AcDbLine
 10
1400.0033403763
 20
172.4096417294
 30
0.0
 11
1400.0033403763
 21
127.9596417294
 31
0.0
  0
LINE
  5
272
100
AcDbEntity
  8
L1_65
  6
CONTINUOUS
 62
         7
100
AcDbLine
 10
1331.7533403763
 20
161.4188234458
 30
0.0
 11
1331.7533403763
 21
138.9504600129
 31
0.0
  0
DIMENSION
  5
275
100
AcDbEntity
  8
L1_65
  6
CONTINUOUS
 62
         4
100
AcDbDimension
  2
*D4
 10
1425.0033403763
 20
-51.0444786573
 30
0.0
 11
1443.9579876056
 21
-49.0194786573
 31
0.0
  3
DIMSTYLE1
100
AcDbAlignedDimension
 13
1425.0033403763
 23
-17.7058347407
 33
0.0
 14
1465.0033403763
 24
-20.9877293495
 34
0.0
100
AcDbRotatedDimension
  0
LINE
  5
281
100
AcDbEntity
  8
L1_65
  6
CONTINUOUS
 62
         7
100
AcDbLine
 10
1425.0033403763
 20
-8.1808347407
 30
0.0
 11
1425.0033403763
 21
-17.7058347407
 31
0.0
  0
LINE
  5
282
100
AcDbEntity
  8
L1_65
  6
CONTINUOUS
 62
         7
100
AcDbLine
 10
1425.0033403763
 20
-8.1808347407
 30
0.0
 11
1463.5033403763
 21
-8.1808347407
 31
0.0
  0
LINE
  5
283
100
AcDbEntity
  8
L1_65
  6
CONTINUOUS
 62
         7
100
AcDbLine
 10
1463.5033403763
 20
-17.7058347407
 30
0.0
 11
1425.0033403763
 21
-17.7058347407
 31
0.0
  0
ARC
  5
284
100
AcDbEntity
  8
L1_65
  6
CONTINUOUS
 62
         7
100
AcDbCircle
 10
1463.5033403763
 20
-6.6808347407
 30
0.0
 40
1.5
100
AcDbArc
 50
270.0
 51
285.0220597071
  0
LINE
  5
285
100
AcDbEntity
  8
L1_65
  6
CONTINUOUS
 62
         7
100
AcDbLine
 10
1464.5635920999
 20
-7.7419032034
 30
0.0
 11
1463.8921267583
 21
-8.1295738991
 31
0.0
  0
ARC
  5
286
100
AcDbEntity
  8
L1_65
  6
CONTINUOUS
 62
         7
100
AcDbCircle
 10
1463.5033403763
 20
-6.6808347407
 30
0.0
 40
1.5
100
AcDbArc
 50
314.9779402929
 51
360.0
  0
LINE
  5
287
100
AcDbEntity
  8
L1_65
  6
CONTINUOUS
 62
         7
100
AcDbLine
 10
1464.5635920999
 20
-18.144766278
 30
0.0
 11
1463.8921267583
 21
-17.7570955823
 31
0.0
  0
ARC
  5
288
100
AcDbEntity
  8
L1_65
  6
CONTINUOUS
 62
         7
100
AcDbCircle
 10
1463.5033403763
 20
-19.2058347407
 30
0.0
 40
1.5
100
AcDbArc
 50
74.9779402929
 51
90.0
  0
ARC
  5
289
100
AcDbEntity
  8
L1_65
  6
CONTINUOUS
 62
         7
100
AcDbCircle
 10
1463.5033403763
 20
-19.2058347407
 30
0.0
 40
1.5
100
AcDbArc
 50
0.0
 51
45.0220597071
  0
LINE
  5
28A
100
AcDbEntity
  8
L1_65
  6
CONTINUOUS
 62
         4
100
AcDbLine
 10
1463.5033403763
 20
-17.7058347407
 30
0.0
 11
1463.5033403763
 21
-8.1808347407
 31
0.0
  0
LINE
  5
28B
100
AcDbEntity
  8
L1_65
  6
CONTINUOUS
 62
         7
100
AcDbLine
 10
1423.7115191489
 20
-5.9433347407
 30
0.0
 11
1425.0033403763
 21
-8.1808347407
 31
0.0
  0
LINE
  5
28C
100
AcDbEntity
  8
L1_65
  6
CONTINUOUS
 62
         7
100
AcDbLine
 10
1423.7115191489
 20
-19.9433347407
 30
0.0
 11
1425.0033403763
 21
-17.7058347407
 31
0.0
  0
LINE
  5
28D
100
AcDbEntity
  8
L1_65
  6
CENTER
 62
         1
100
AcDbLine
 10
1637.2740783004
 20
150.1846417294
 30
0.0
 11
1609.2133787583
 21
150.1846417294
 31
0.0
  0
LINE
  5
28E
100
AcDbEntity
  8
L1_65
  6
CENTER
 62
         1
100
AcDbLine
 10
1623.2833403763
 20
136.8301988845
 30
0.0
 11
1623.2833403763
 21
163.10030658
 31
0.0
  0
LINE
  5
28F
100
AcDbEntity
  8
L1_65
  6
DASHED
 62
         2
100
AcDbLine
 10
1619.0333403763
 20
139.8003778505
 30
0.0
 11
1617.9102293295
 21
138.6772668038
 31
0.0
  0
LINE
  5
290
100
AcDbEntity
  8
L1_65
  6
DASHED
 62
         2
100
AcDbLine
 10
1627.5333403763
 20
139.8003778505
 30
0.0
 11
1628.656451423
 21
138.6772668038
 31
0.0
  0
ARC
  5
291
100
AcDbEntity
  8
L1_65
  6
CONTINUOUS
 62
         7
100
AcDbCircle
 10
1436.0553403763
 20
163.8846417294
 30
0.0
 40
1.0
100
AcDbArc
 50
180.0
 51
270.0
  0
ARC
  5
292
100
AcDbEntity
  8
L1_65
  6
CONTINUOUS
 62
         7
100
AcDbCircle
 10
1436.0553403763
 20
136.4846417294
 30
0.0
 40
1.0
100
AcDbArc
 50
90.0
 51
180.0
  0
LINE
  5
293
100
AcDbEntity
  8
L1_65
  6
CONTINUOUS
 62
         7
100
AcDbLine
 10
1435.0553403763
 20
-34.4283347407
 30
0.0
 11
1435.0553403763
 21
-26.6433347407
 31
0.0
  0
LINE
  5
294
100
AcDbEntity
  8
L1_65
  6
CONTINUOUS
 62
         7
100
AcDbLine
 10
1435.0553403763
 20
0.7566652593
 30
0.0
 11
1435.0553403763
 21
8.5416652593
 31
0.0
  0
ARC
  5
295
100
AcDbEntity
  8
L1_65
  6
CONTINUOUS
 62
         7
100
AcDbCircle
 10
1436.0553403763
 20
0.7566652593
 30
0.0
 40
1.0
100
AcDbArc
 50
180.0
 51
270.0
  0
ARC
  5
296
100
AcDbEntity
  8
L1_65
  6
CONTINUOUS
 62
         7
100
AcDbCircle
 10
1436.0553403763
 20
-26.6433347407
 30
0.0
 40
1.0
100
AcDbArc
 50
90.0
 51
180.0
  0
LINE
  5
297
100
AcDbEntity
  8
L1_65
  6
CONTINUOUS
 62
         7
100
AcDbLine
 10
1423.7115191489
 20
-5.9433347407
 30
0.0
 11
1360.2033403763
 21
-5.9433347407
 31
0.0
  0
LINE
  5
298
100
AcDbEntity
  8
L1_65
  6
CONTINUOUS
 62
         7
100
AcDbLine
 10
1423.7115191489
 20
-19.9433347407
 30
0.0
 11
1360.2033403763
 21
-19.9433347407
 31
0.0
  0
LINE
  5
299
100
AcDbEntity
  8
L1_65
  6
CONTINUOUS
 62
         7
100
AcDbLine
 10
1423.7115191489
 20
-5.9433347407
 30
0.0
 11
1423.7115191489
 21
-19.9433347407
 31
0.0
  0
INSERT
  5
2E8
100
AcDbEntity
  8
0
  6
CONTINUOUS
100
AcDbBlockReference
  2
*X5
 10
0.0
 20
0.0
 30
0.0
  0
TEXT
  5
2EA
100
AcDbEntity
  8
L1_65
  6
CONTINUOUS
 62
         2
100
AcDbText
 10
1607.8551181589
 20
224.3704784082
 30
0.0
 40
4.5
  1
531014
 41
0.98
  7
BOX
100
AcDbText
  0
ENDSEC
  0
SECTION
  2
OBJECTS
  0
DICTIONARY
  5
19
100
AcDbDictionary
  3
ACAD_GROUP
350
1A
  3
ACAD_MLINESTYLE
350
1B
  0
DICTIONARY
  5
1A
102
{ACAD_REACTORS
330
19
102
}
100
AcDbDictionary
  0
DICTIONARY
  5
1B
102
{ACAD_REACTORS
330
19
102
}
100
AcDbDictionary
  3
STANDARD
350
1C
  0
MLINESTYLE
  5
1C
102
{ACAD_REACTORS
330
1B
102
}
100
AcDbMlineStyle
  2
STANDARD
 70
         0
  3

 62
         0
 51
90.0
 52
90.0
 71
         2
 49
0.5
 62
       256
  6
BYLAYER
 49
-0.5
 62
       256
  6
BYLAYER
  0
ENDSEC
  0
EOF
