  0
SECTION
  2
HEADER
  9
$ACADVER
  1
AC1014
  9
$ACADMAINTVER
 70
         0
  9
$DWGCODEPAGE
  3
BIG5
  9
$INSBASE
 10
0.0
 20
0.0
 30
0.0
  9
$EXTMIN
 10
1104.494946917
 20
-74.2785108273
 30
0.0
  9
$EXTMAX
 10
1733.7117338355
 20
243.3061445623
 30
0.0
  9
$LIMMIN
 10
0.0
 20
0.0
  9
$LIMMAX
 10
0.0
 20
0.0
  9
$ORTHOMODE
 70
         0
  9
$REGENMODE
 70
         1
  9
$FILLMODE
 70
         1
  9
$QTEXTMODE
 70
         0
  9
$MIRRTEXT
 70
         1
  9
$DRAGMODE
 70
         2
  9
$LTSCALE
 40
1.0
  9
$OSMODE
 70
         0
  9
$ATTMODE
 70
         1
  9
$TEXTSIZE
 40
4.0
  9
$TRACEWID
 40
0.05
  9
$TEXTSTYLE
  7
STANDARD
  9
$CLAYER
  8
0
  9
$CELTYPE
  6
CONTINUOUS
  9
$CECOLOR
 62
         4
  9
$CELTSCALE
 40
1.0
  9
$DELOBJ
 70
         1
  9
$DISPSILH
 70
         0
  9
$DIMSCALE
 40
1.0
  9
$DIMASZ
 40
0.18
  9
$DIMEXO
 40
0.0625
  9
$DIMDLI
 40
0.38
  9
$DIMRND
 40
0.0
  9
$DIMDLE
 40
0.0
  9
$DIMEXE
 40
0.25
  9
$DIMTP
 40
0.01
  9
$DIMTM
 40
-0.01
  9
$DIMTXT
 40
2.7
  9
$DIMCEN
 40
0.09
  9
$DIMTSZ
 40
0.0
  9
$DIMTOL
 70
         0
  9
$DIMLIM
 70
         0
  9
$DIMTIH
 70
         1
  9
$DIMTOH
 70
         1
  9
$DIMSE1
 70
         0
  9
$DIMSE2
 70
         0
  9
$DIMTAD
 70
         0
  9
$DIMZIN
 70
         0
  9
$DIMBLK
  1

  9
$DIMASO
 70
         1
  9
$DIMSHO
 70
         1
  9
$DIMPOST
  1

  9
$DIMAPOST
  1

  9
$DIMALT
 70
         0
  9
$DIMALTD
 70
         2
  9
$DIMALTF
 40
25.4
  9
$DIMLFAC
 40
1.0
  9
$DIMTOFL
 70
         0
  9
$DIMTVP
 40
0.0
  9
$DIMTIX
 70
         0
  9
$DIMSOXD
 70
         0
  9
$DIMSAH
 70
         0
  9
$DIMBLK1
  1

  9
$DIMBLK2
  1

  9
$DIMSTYLE
  2
STANDARD
  9
$DIMCLRD
 70
         0
  9
$DIMCLRE
 70
         0
  9
$DIMCLRT
 70
         4
  9
$DIMTFAC
 40
1.0
  9
$DIMGAP
 40
0.09
  9
$DIMJUST
 70
         0
  9
$DIMSD1
 70
         0
  9
$DIMSD2
 70
         0
  9
$DIMTOLJ
 70
         1
  9
$DIMTZIN
 70
         0
  9
$DIMALTZ
 70
         0
  9
$DIMALTTZ
 70
         0
  9
$DIMFIT
 70
         3
  9
$DIMUPT
 70
         0
  9
$DIMUNIT
 70
         2
  9
$DIMDEC
 70
         4
  9
$DIMTDEC
 70
         4
  9
$DIMALTU
 70
         2
  9
$DIMALTTD
 70
         2
  9
$DIMTXSTY
  7
STANDARD
  9
$DIMAUNIT
 70
         0
  9
$LUNITS
 70
         2
  9
$LUPREC
 70
        10
  9
$SKETCHINC
 40
0.1
  9
$FILLETRAD
 40
0.0
  9
$AUNITS
 70
         0
  9
$AUPREC
 70
         0
  9
$MENU
  1
acad
  9
$ELEVATION
 40
0.0
  9
$PELEVATION
 40
0.0
  9
$THICKNESS
 40
0.0
  9
$LIMCHECK
 70
         0
  9
$BLIPMODE
 70
         1
  9
$CHAMFERA
 40
0.0
  9
$CHAMFERB
 40
0.0
  9
$CHAMFERC
 40
0.0
  9
$CHAMFERD
 40
0.0
  9
$SKPOLY
 70
         0
  9
$TDCREATE
 40
0.000000000
  9
$TDUPDATE
 40
0.000000000
  9
$TDINDWG
 40
0.0000000000
  9
$TDUSRTIMER
 40
0.0000000000
  9
$USRTIMER
 70
         1
  9
$ANGBASE
 50
0.0
  9
$ANGDIR
 70
         0
  9
$PDMODE
 70
         2
  9
$PDSIZE
 40
0.0
  9
$PLINEWID
 40
0.0
  9
$COORDS
 70
         1
  9
$SPLFRAME
 70
         0
  9
$SPLINETYPE
 70
         6
  9
$SPLINESEGS
 70
         8
  9
$ATTDIA
 70
         0
  9
$ATTREQ
 70
         1
  9
$HANDLING
 70
         1
  9
$HANDSEED
  5
43B
  9
$SURFTAB1
 70
         6
  9
$SURFTAB2
 70
         6
  9
$SURFTYPE
 70
         6
  9
$SURFU
 70
         6
  9
$SURFV
 70
         6
  9
$UCSNAME
  2

  9
$UCSORG
 10
0.0
 20
0.0
 30
0.0
  9
$UCSXDIR
 10
1.0
 20
0.0
 30
0.0
  9
$UCSYDIR
 10
0.0
 20
1.0
 30
0.0
  9
$PUCSNAME
  2

  9
$PUCSORG
 10
0.0
 20
0.0
 30
0.0
  9
$PUCSXDIR
 10
1.0
 20
0.0
 30
0.0
  9
$PUCSYDIR
 10
0.0
 20
1.0
 30
0.0
  9
$USERI1
 70
         0
  9
$USERI2
 70
         0
  9
$USERI3
 70
         0
  9
$USERI4
 70
         0
  9
$USERI5
 70
         0
  9
$USERR1
 40
0.0
  9
$USERR2
 40
0.0
  9
$USERR3
 40
0.0
  9
$USERR4
 40
0.0
  9
$USERR5
 40
0.0
  9
$WORLDVIEW
 70
         1
  9
$SHADEDGE
 70
         3
  9
$SHADEDIF
 70
        70
  9
$TILEMODE
 70
         1
  9
$MAXACTVP
 70
        16
  9
$PINSBASE
 10
0.0
 20
0.0
 30
0.0
  9
$PLIMCHECK
 70
         0
  9
$PEXTMIN
 10
1.0000000000E+20
 20
1.0000000000E+20
 30
1.0000000000E+20
  9
$PEXTMAX
 10
-1.0000000000E+20
 20
-1.0000000000E+20
 30
-1.0000000000E+20
  9
$PLIMMIN
 10
0.0
 20
0.0
  9
$PLIMMAX
 10
12.0
 20
9.0
  9
$UNITMODE
 70
         0
  9
$VISRETAIN
 70
         0
  9
$PLINEGEN
 70
         1
  9
$PSLTSCALE
 70
         0
  9
$TREEDEPTH
 70
      3020
  9
$PICKSTYLE
 70
         1
  9
$CMLSTYLE
  2
STANDARD
  9
$CMLJUST
 70
         0
  9
$CMLSCALE
 40
1.0
  9
$PROXYGRAPHICS
 70
         0
  9
$MEASUREMENT
 70
         0
  0
ENDSEC
  0
SECTION
  2
CLASSES
  0
CLASS
  1
LWPOLYLINE
  2
AcDbPolyline
  3
"AutoCAD"
 90
        0
280
         0
281
         1
  0
CLASS
  1
IMAGE
  2
AcDbRasterImage
  3
ISM
 90
      127
280
         0
281
         1
  0
CLASS
  1
OLE2FRAME
  2
AcDbOle2Frame
  3
""
 90
        0
280
         0
281
         1
  0
CLASS
  1
HATCH
  2
AcDbHatch
  3
"ACAD_SEDONA"
 90
        0
280
         0
281
         1
  0
CLASS
  1
DICTIONARYVAR
  2
AcDbDictionaryVar
  3
"AutoCAD"
 90
        0
280
         0
281
         0
  0
CLASS
  1
RASTERVARIABLES
  2
AcDbRasterVariables
  3
ISM
 90
        0
280
         0
281
         0
  0
CLASS
  1
IMAGEDEF
  2
AcDbRasterImageDef
  3
ISM
 90
        0
280
         0
281
         0
  0
CLASS
  1
IMAGEDEF_REACTOR
  2
AcDbRasterImageDefReactor
  3
ISM
 90
        1
280
         0
281
         0
  0
CLASS
  1
IDBUFFER
  2
AcDbIdBuffer
  3
"Acad"
 90
        0
280
         0
281
         0
  0
CLASS
  1
SPATIAL_FILTER
  2
AcDbSpatialFilter
  3
"Acad"
 90
        0
280
         0
281
         0
  0
CLASS
  1
XRECORD
  2
AcDbXrecord
  3
"<Built In>"
 90
        0
280
         0
281
         0
  0
CLASS
  1
SORTENTSTABLE
  2
AcDbSortentsTable
  3
"AutoCAD"
 90
        0
280
         0
281
         0
  0
CLASS
  1
LAYER_INDEX
  2
AcDbLayerIndex
  3
"Acad"
 90
        0
280
         0
281
         0
  0
CLASS
  1
SPATIAL_INDEX
  2
AcDbSpatialIndex
  3
"Acad"
 90
        0
280
         0
281
         0
  0
CLASS
  1
OBJECT_PTR
  2
CAseDLPNTableRecord
  3
"ASE-LPNTableRecord"
 90
        1
280
         0
281
         0
  0
CLASS
  1
LAYOUT
  2
AcDbLayout
  3
"AutoCAD 2000"
 90
        1
280
         0
281
         0
  0
CLASS
  1
PLOTSETTINGS
  2
AcDbPlotSettings
  3
"AutoCAD 2000"
 90
        1
280
         0
281
         0
  0
CLASS
  1
ACDBDICTIONARYWDFLT
  2
AcDbDictionaryWithDefault
  3
"AutoCAD 2000"
 90
        1
280
         0
281
         0
  0
CLASS
  1
ACDBPLACEHOLDER
  2
AcDbPlaceHolder
  3
"AutoCAD 2000"
 90
        1
280
         0
281
         0
  0
CLASS
  1
VBA_PROJECT
  2
AcDbVbaProject
  3
"acadvba"
 90
        1
280
         0
281
         0
  0
CLASS
  1
WIPEOUT
  2
AcDbWipeout
  3
WipeOut|AutoCAD Express Tool|expresstools@autodesk.com
 90
      127
280
         0
281
         1
  0
CLASS
  1
WIPEOUTVARIABLES
  2
AcDbWipeoutVariables
  3
WipeOut|AutoCAD Express Tool|expresstools@autodesk.com
 90
        0
280
         0
281
         0
  0
CLASS
  1
RTEXT
  2
RText
  3
RText|AutoCAD Express Tool|expresstools@autodesk.com
 90
        0
280
         0
281
         1
  0
CLASS
  1
ARCALIGNEDTEXT
  2
AcDbArcAlignedText
  3
ATEXT|AutoCAD Express Tool|expresstools@autodesk.com
 90
        0
280
         0
281
         1
  0
ENDSEC
  0
SECTION
  2
TABLES
  0
TABLE
  2
VPORT
  5
7
100
AcDbSymbolTable
 70
         1
  0
VPORT
  5
15
100
AcDbSymbolTableRecord
100
AcDbViewportTableRecord
  2
*ACTIVE
 70
         0
 10
0.0
 20
0.0
 11
1.0
 21
1.0
 12
1419.1033403763
 22
84.5138168675
 13
0.0
 23
0.0
 14
1.0
 24
1.0
 15
0.0
 25
0.0
 16
0.0
 26
0.0
 36
1.0
 17
0.0
 27
0.0
 37
0.0
 40
317.5846553896
 41
1.9812568908
 42
50.0
 43
0.0
 44
0.0
 50
0.0
 51
0.0
 71
         0
 72
       100
 73
         1
 74
         1
 75
         0
 76
         0
 77
         0
 78
         0
  0
ENDTAB
  0
TABLE
  2
LTYPE
  5
4
100
AcDbSymbolTable
 70
         6
  0
LTYPE
  5
11
100
AcDbSymbolTableRecord
100
AcDbLinetypeTableRecord
  2
BYBLOCK
 70
        64
  3

 72
        65
 73
         0
 40
0.0
  0
LTYPE
  5
12
100
AcDbSymbolTableRecord
100
AcDbLinetypeTableRecord
  2
BYLAYER
 70
        64
  3

 72
        65
 73
         0
 40
0.0
  0
LTYPE
  5
13
100
AcDbSymbolTableRecord
100
AcDbLinetypeTableRecord
  2
CONTINUOUS
 70
        64
  3
Solid line
 72
        65
 73
         0
 40
0.0
  0
LTYPE
  5
1D
100
AcDbSymbolTableRecord
100
AcDbLinetypeTableRecord
  2
DASHED
 70
        64
  3
_ _ _ _ _ _ _ _ _ _ _ _ _ _ _ _
 72
        65
 73
         2
 40
0.2
 49
0.1
 74
         0
 49
-0.1
 74
         0
  0
LTYPE
  5
1E
100
AcDbSymbolTableRecord
100
AcDbLinetypeTableRecord
  2
CENTER
 70
        64
  3
___ _ ___ _ ___ _ ___ _ ___ _ ___ _ ___ _ ___ _
 72
        65
 73
         4
 40
0.95
 49
0.625
 74
         0
 49
-0.125
 74
         0
 49
0.075
 74
         0
 49
-0.125
 74
         0
  0
LTYPE
  5
1F
100
AcDbSymbolTableRecord
100
AcDbLinetypeTableRecord
  2
PHANTOM
 70
        64
  3
______  __  __  ______  __  __  ______  __  __  
 72
        65
 73
         6
 40
1.025
 49
0.625
 74
         0
 49
-0.125
 74
         0
 49
0.075
 74
         0
 49
-0.125
 74
         0
 49
0.075
 74
         0
 49
-0.125
 74
         0
  0
ENDTAB
  0
TABLE
  2
LAYER
  5
2
100
AcDbSymbolTable
 70
         5
  0
LAYER
  5
14
100
AcDbSymbolTableRecord
100
AcDbLayerTableRecord
  2
0
 70
         0
 62
         7
  6
CONTINUOUS
  0
LAYER
  5
21
100
AcDbSymbolTableRecord
100
AcDbLayerTableRecord
  2
_____U
 70
         1
 62
         7
  6
CONTINUOUS
  0
LAYER
  5
22
100
AcDbSymbolTableRecord
100
AcDbLayerTableRecord
  2
_Y__________
 70
         0
 62
         7
  6
CONTINUOUS
  0
LAYER
  5
23
100
AcDbSymbolTableRecord
100
AcDbLayerTableRecord
  2
L1_45
 70
         0
 62
         7
  6
CONTINUOUS
  0
LAYER
  5
2E7
100
AcDbSymbolTableRecord
100
AcDbLayerTableRecord
  2
DEFPOINTS
 70
         0
 62
        -7
  6
CONTINUOUS
  0
ENDTAB
  0
TABLE
  2
STYLE
  5
3
100
AcDbSymbolTable
 70
         9
  0
STYLE
  5
17
100
AcDbSymbolTableRecord
100
AcDbTextStyleTableRecord
  2
STANDARD
 70
         0
 40
0.0
 41
1.0
 50
0.0
 71
         0
 42
0.0
  3
txt
  4

  0
STYLE
  5
2F0
100
AcDbSymbolTableRecord
100
AcDbTextStyleTableRecord
  2
BOX
 70
         0
 40
1.0
 41
1.0
 50
0.0
 71
         0
 42
0.2
  3
txt.shx
  4

  0
STYLE
  5
2FE
100
AcDbSymbolTableRecord
100
AcDbTextStyleTableRecord
  2
BOX
 70
         0
 40
1.0
 41
1.0
 50
0.0
 71
         0
 42
0.2
  3
txt.shx
  4

  0
STYLE
  5
369
100
AcDbSymbolTableRecord
100
AcDbTextStyleTableRecord
  2
BOX
 70
         0
 40
1.0
 41
1.0
 50
0.0
 71
         0
 42
0.2
  3
txt.shx
  4

  0
STYLE
  5
378
100
AcDbSymbolTableRecord
100
AcDbTextStyleTableRecord
  2
BOX
 70
         0
 40
1.0
 41
1.0
 50
0.0
 71
         0
 42
0.2
  3
txt.shx
  4

  0
STYLE
  5
386
100
AcDbSymbolTableRecord
100
AcDbTextStyleTableRecord
  2
BOX
 70
         0
 40
1.0
 41
1.0
 50
0.0
 71
         0
 42
0.2
  3
txt.shx
  4

  0
STYLE
  5
3A1
100
AcDbSymbolTableRecord
100
AcDbTextStyleTableRecord
  2
BOX
 70
         0
 40
1.0
 41
1.0
 50
0.0
 71
         0
 42
0.2
  3
txt.shx
  4

  0
STYLE
  5
42B
100
AcDbSymbolTableRecord
100
AcDbTextStyleTableRecord
  2
BOX
 70
         0
 40
1.0
 41
1.0
 50
0.0
 71
         0
 42
0.2
  3
txt.shx
  4

  0
STYLE
  5
438
100
AcDbSymbolTableRecord
100
AcDbTextStyleTableRecord
  2
BOX
 70
         0
 40
1.0
 41
1.0
 50
0.0
 71
         0
 42
0.2
  3
txt.shx
  4

  0
ENDTAB
  0
TABLE
  2
VIEW
  5
5
100
AcDbSymbolTable
 70
         0
  0
ENDTAB
  0
TABLE
  2
UCS
  5
6
100
AcDbSymbolTable
 70
         1
  0
UCS
  5
20
100
AcDbSymbolTableRecord
100
AcDbUCSTableRecord
  2
CK_VIEW_1
 70
         0
 10
0.0
 20
0.0
 30
1.0
 11
1.0
 21
0.0
 31
0.0
 12
0.0
 22
1.0
 32
0.0
  0
ENDTAB
  0
TABLE
  2
APPID
  5
8
100
AcDbSymbolTable
 70
         1
  0
APPID
  5
16
100
AcDbSymbolTableRecord
100
AcDbRegAppTableRecord
  2
ACAD
 70
         0
  0
ENDTAB
  0
TABLE
  2
DIMSTYLE
  5
9
100
AcDbSymbolTable
 70
         2
  0
DIMSTYLE
105
18
100
AcDbSymbolTableRecord
100
AcDbDimStyleTableRecord
  2
STANDARD
 70
         0
  3

  4

  5

  6

  7

 40
1.0
 41
0.18
 42
0.0625
 43
0.38
 44
0.18
 45
0.0
 46
0.0
 47
0.0
 48
0.0
 71
         0
 72
         0
 73
         1
 74
         1
 75
         0
 76
         0
 77
         0
 78
         0
140
0.18
141
0.09
142
0.0
143
25.4
144
1.0
145
0.0
146
1.0
147
0.09
170
         0
171
         2
172
         0
173
         0
174
         0
175
         0
176
         0
177
         0
178
         0
270
         2
271
         4
272
         4
273
         2
274
         2
275
         0
280
         0
281
         0
282
         0
283
         1
284
         0
285
         0
286
         0
287
         0
288
         0
340
17
  0
DIMSTYLE
105
2E3
100
AcDbSymbolTableRecord
100
AcDbDimStyleTableRecord
  2
DIMSTYLE1
 70
         0
  3

  4

  5

  6

  7

 40
1.0
 41
2.7
 42
0.0625
 43
0.38
 44
2.7
 45
0.0
 46
0.0
 47
0.0
 48
0.0
 71
         0
 72
         0
 73
         1
 74
         1
 75
         0
 76
         0
 77
         0
 78
         0
140
2.7
141
0.09
142
0.0
143
25.4
144
1.0
145
0.0
146
1.0
147
0.09
170
         0
171
         2
172
         0
173
         0
174
         0
175
         0
176
         0
177
         0
178
         0
270
         2
271
         4
272
         4
273
         2
274
         2
275
         0
280
         0
281
         0
282
         0
283
         1
284
         0
285
         0
286
         0
287
         0
288
         0
340
17
  0
ENDTAB
  0
TABLE
  2
BLOCK_RECORD
  5
1
100
AcDbSymbolTable
 70
         8
  0
BLOCK_RECORD
  5
A
100
AcDbSymbolTableRecord
100
AcDbBlockTableRecord
  2
*MODEL_SPACE
  0
BLOCK_RECORD
  5
B
100
AcDbSymbolTableRecord
100
AcDbBlockTableRecord
  2
*PAPER_SPACE
  0
BLOCK_RECORD
  5
2E4
100
AcDbSymbolTableRecord
100
AcDbBlockTableRecord
  2
*D0
  0
BLOCK_RECORD
  5
2F3
100
AcDbSymbolTableRecord
100
AcDbBlockTableRecord
  2
*D1
  0
BLOCK_RECORD
  5
35D
100
AcDbSymbolTableRecord
100
AcDbBlockTableRecord
  2
*D2
  0
BLOCK_RECORD
  5
36D
100
AcDbSymbolTableRecord
100
AcDbBlockTableRecord
  2
*D3
  0
BLOCK_RECORD
  5
37B
100
AcDbSymbolTableRecord
100
AcDbBlockTableRecord
  2
*D4
  0
BLOCK_RECORD
  5
396
100
AcDbSymbolTableRecord
100
AcDbBlockTableRecord
  2
*D5
  0
BLOCK_RECORD
  5
3E0
100
AcDbSymbolTableRecord
100
AcDbBlockTableRecord
  2
*X6
  0
BLOCK_RECORD
  5
42D
100
AcDbSymbolTableRecord
100
AcDbBlockTableRecord
  2
*D7
  0
ENDTAB
  0
ENDSEC
  0
SECTION
  2
BLOCKS
  0
BLOCK
  5
D
100
AcDbEntity
  8
0
100
AcDbBlockBegin
  2
*MODEL_SPACE
 70
         0
 10
0.0
 20
0.0
 30
0.0
  3
*MODEL_SPACE
  1

  0
ENDBLK
  5
E
100
AcDbEntity
  8
0
100
AcDbBlockEnd
  0
BLOCK
  5
F
100
AcDbEntity
 67
         1
  8
0
100
AcDbBlockBegin
  2
*PAPER_SPACE
 70
         0
 10
0.0
 20
0.0
 30
0.0
  3
*PAPER_SPACE
  1

  0
ENDBLK
  5
10
100
AcDbEntity
 67
         1
  8
0
100
AcDbBlockEnd
  0
BLOCK
  5
2E5
100
AcDbEntity
  8
0
100
AcDbBlockBegin
  2
*D0
 70
        65
 10
0.0
 20
0.0
 30
0.0
  3
*D0
  1

  0
POINT
  5
2E8
100
AcDbEntity
  8
DEFPOINTS
  6
CONTINUOUS
 62
         0
100
AcDbPoint
 10
1331.7533403763
 20
223.3529896602
 30
0.0
  0
POINT
  5
2E9
100
AcDbEntity
  8
DEFPOINTS
  6
CONTINUOUS
 62
         0
100
AcDbPoint
 10
1331.7533403763
 20
161.4188234458
 30
0.0
  0
POINT
  5
2EA
100
AcDbEntity
  8
DEFPOINTS
  6
CONTINUOUS
 62
         0
100
AcDbPoint
 10
1445.0033403763
 20
150.1846417294
 30
0.0
  0
LINE
  5
2EB
100
AcDbEntity
  8
L1_45
  6
CONTINUOUS
 62
         4
100
AcDbLine
 10
1331.7533403763
 20
162.7688234458
 30
0.0
 11
1331.7533403763
 21
224.0279896602
 31
0.0
  0
LINE
  5
2EC
100
AcDbEntity
  8
L1_45
  6
CONTINUOUS
 62
         4
100
AcDbLine
 10
1445.0033403763
 20
151.5346417294
 30
0.0
 11
1445.0033403763
 21
224.0279896602
 31
0.0
  0
LINE
  5
2ED
100
AcDbEntity
  8
L1_45
  6
CONTINUOUS
 62
         4
100
AcDbLine
 10
1331.7533403763
 20
223.3529896602
 30
0.0
 11
1445.0033403763
 21
223.3529896602
 31
0.0
  0
SOLID
  5
2EE
100
AcDbEntity
  8
L1_45
  6
CONTINUOUS
 62
         4
100
AcDbTrace
 10
1331.7533403763
 20
223.3529896602
 30
0.0
 11
1334.4533403763
 21
223.7579896602
 31
0.0
 12
1334.4533403763
 22
222.9479896602
 32
0.0
 13
1331.7533403763
 23
223.3529896602
 33
0.0
  0
SOLID
  5
2EF
100
AcDbEntity
  8
L1_45
  6
CONTINUOUS
 62
         4
100
AcDbTrace
 10
1445.0033403763
 20
223.3529896602
 30
0.0
 11
1442.3033403763
 21
222.9479896602
 31
0.0
 12
1442.3033403763
 22
223.7579896602
 32
0.0
 13
1445.0033403763
 23
223.3529896602
 33
0.0
  0
TEXT
  5
2F1
100
AcDbEntity
  8
L1_45
  6
CONTINUOUS
 62
         4
100
AcDbText
 10
1380.1915760597
 20
225.3779896602
 30
0.0
 40
2.7
  1
113.25
  7
BOX
100
AcDbText
  0
ENDBLK
  5
2F2
100
AcDbEntity
  8
0
  6
CONTINUOUS
100
AcDbBlockEnd
  0
BLOCK
  5
2F4
100
AcDbEntity
  8
0
100
AcDbBlockBegin
  2
*D1
 70
        65
 10
0.0
 20
0.0
 30
0.0
  3
*D1
  1

  0
POINT
  5
2F6
100
AcDbEntity
  8
DEFPOINTS
  6
CONTINUOUS
 62
         0
100
AcDbPoint
 10
1400.0033403763
 20
215.1979279252
 30
0.0
  0
POINT
  5
2F7
100
AcDbEntity
  8
DEFPOINTS
  6
CONTINUOUS
 62
         0
100
AcDbPoint
 10
1400.0033403763
 20
172.4096417294
 30
0.0
  0
POINT
  5
2F8
100
AcDbEntity
  8
DEFPOINTS
  6
CONTINUOUS
 62
         0
100
AcDbPoint
 10
1445.0033403763
 20
150.1846417294
 30
0.0
  0
LINE
  5
2F9
100
AcDbEntity
  8
L1_45
  6
CONTINUOUS
 62
         4
100
AcDbLine
 10
1400.0033403763
 20
173.7596417294
 30
0.0
 11
1400.0033403763
 21
215.8729279252
 31
0.0
  0
LINE
  5
2FA
100
AcDbEntity
  8
L1_45
  6
CONTINUOUS
 62
         4
100
AcDbLine
 10
1445.0033403763
 20
151.5346417294
 30
0.0
 11
1445.0033403763
 21
215.8729279252
 31
0.0
  0
LINE
  5
2FB
100
AcDbEntity
  8
L1_45
  6
CONTINUOUS
 62
         4
100
AcDbLine
 10
1400.0033403763
 20
215.1979279252
 30
0.0
 11
1445.0033403763
 21
215.1979279252
 31
0.0
  0
SOLID
  5
2FC
100
AcDbEntity
  8
L1_45
  6
CONTINUOUS
 62
         4
100
AcDbTrace
 10
1400.0033403763
 20
215.1979279252
 30
0.0
 11
1402.7033403763
 21
215.6029279252
 31
0.0
 12
1402.7033403763
 22
214.7929279252
 32
0.0
 13
1400.0033403763
 23
215.1979279252
 33
0.0
  0
SOLID
  5
2FD
100
AcDbEntity
  8
L1_45
  6
CONTINUOUS
 62
         4
100
AcDbTrace
 10
1445.0033403763
 20
215.1979279252
 30
0.0
 11
1442.3033403763
 21
214.7929279252
 31
0.0
 12
1442.3033403763
 22
215.6029279252
 32
0.0
 13
1445.0033403763
 23
215.1979279252
 33
0.0
  0
TEXT
  5
2FF
100
AcDbEntity
  8
L1_45
  6
CONTINUOUS
 62
         4
100
AcDbText
 10
1420.4074165438
 20
217.2229279252
 30
0.0
 40
2.7
  1
45
  7
BOX
100
AcDbText
  0
ENDBLK
  5
300
100
AcDbEntity
  8
0
  6
CONTINUOUS
100
AcDbBlockEnd
  0
BLOCK
  5
35E
100
AcDbEntity
  8
0
100
AcDbBlockBegin
  2
*D2
 70
        65
 10
0.0
 20
0.0
 30
0.0
  3
*D2
  1

  0
POINT
  5
360
100
AcDbEntity
  8
DEFPOINTS
  6
CONTINUOUS
 62
         0
100
AcDbPoint
 10
1422.7600754854
 20
50.7659127992
 30
0.0
  0
POINT
  5
361
100
AcDbEntity
  8
DEFPOINTS
  6
CONTINUOUS
 62
         0
100
AcDbPoint
 10
1422.7600754854
 20
57.2539107661
 30
0.0
  0
POINT
  5
362
100
AcDbEntity
  8
DEFPOINTS
  6
CONTINUOUS
 62
         0
100
AcDbPoint
 10
1429.2263985003
 20
57.2539107661
 30
0.0
  0
LINE
  5
363
100
AcDbEntity
  8
L1_45
  6
CONTINUOUS
 62
         4
100
AcDbLine
 10
1422.7600754854
 20
55.9039107661
 30
0.0
 11
1422.7600754854
 21
50.0909127992
 31
0.0
  0
LINE
  5
364
100
AcDbEntity
  8
L1_45
  6
CONTINUOUS
 62
         4
100
AcDbLine
 10
1429.2263985003
 20
55.9039107661
 30
0.0
 11
1429.2263985003
 21
50.0909127992
 31
0.0
  0
LINE
  5
365
100
AcDbEntity
  8
L1_45
  6
CONTINUOUS
 62
         4
100
AcDbLine
 10
1422.7600754854
 20
50.7659127992
 30
0.0
 11
1429.2263985003
 21
50.7659127992
 31
0.0
  0
SOLID
  5
366
100
AcDbEntity
  8
L1_45
  6
CONTINUOUS
 62
         4
100
AcDbTrace
 10
1422.7600754854
 20
50.7659127992
 30
0.0
 11
1425.4600754854
 21
51.1709127992
 31
0.0
 12
1425.4600754854
 22
50.3609127992
 32
0.0
 13
1422.7600754854
 23
50.7659127992
 33
0.0
  0
LINE
  5
367
100
AcDbEntity
  8
L1_45
  6
CONTINUOUS
 62
         4
100
AcDbLine
 10
1429.2263985003
 20
50.7659127992
 30
0.0
 11
1448.4975480006
 21
50.7659127992
 31
0.0
  0
SOLID
  5
368
100
AcDbEntity
  8
L1_45
  6
CONTINUOUS
 62
         4
100
AcDbTrace
 10
1429.2263985003
 20
50.7659127992
 30
0.0
 11
1426.5263985003
 21
50.3609127992
 31
0.0
 12
1426.5263985003
 22
51.1709127992
 32
0.0
 13
1429.2263985003
 23
50.7659127992
 33
0.0
  0
TEXT
  5
36A
100
AcDbEntity
  8
L1_45
  6
CONTINUOUS
 62
         4
100
AcDbText
 10
1430.9475480006
 20
52.7909127992
 30
0.0
 40
2.7
  1
5.6Hex
  7
BOX
100
AcDbText
  0
ENDBLK
  5
36B
100
AcDbEntity
  8
0
  6
CONTINUOUS
100
AcDbBlockEnd
  0
BLOCK
  5
36E
100
AcDbEntity
  8
0
100
AcDbBlockBegin
  2
*D3
 70
        65
 10
0.0
 20
0.0
 30
0.0
  3
*D3
  1

  0
POINT
  5
370
100
AcDbEntity
  8
DEFPOINTS
  6
CONTINUOUS
 62
         0
100
AcDbPoint
 10
1420.4306258677
 20
73.9337493916
 30
0.0
  0
POINT
  5
371
100
AcDbEntity
  8
DEFPOINTS
  6
CONTINUOUS
 62
         0
100
AcDbPoint
 10
1420.4306258677
 20
65.0517263617
 30
0.0
  0
POINT
  5
372
100
AcDbEntity
  8
DEFPOINTS
  6
CONTINUOUS
 62
         0
100
AcDbPoint
 10
1431.5558481181
 20
65.0517263617
 30
0.0
  0
LINE
  5
373
100
AcDbEntity
  8
L1_45
  6
CONTINUOUS
 62
         4
100
AcDbLine
 10
1420.4306258677
 20
66.4017263617
 30
0.0
 11
1420.4306258677
 21
74.6087493916
 31
0.0
  0
LINE
  5
374
100
AcDbEntity
  8
L1_45
  6
CONTINUOUS
 62
         4
100
AcDbLine
 10
1431.5558481181
 20
66.4017263617
 30
0.0
 11
1431.5558481181
 21
74.6087493916
 31
0.0
  0
LINE
  5
375
100
AcDbEntity
  8
L1_45
  6
CONTINUOUS
 62
         4
100
AcDbLine
 10
1420.4306258677
 20
73.9337493916
 30
0.0
 11
1431.5558481181
 21
73.9337493916
 31
0.0
  0
SOLID
  5
376
100
AcDbEntity
  8
L1_45
  6
CONTINUOUS
 62
         4
100
AcDbTrace
 10
1420.4306258677
 20
73.9337493916
 30
0.0
 11
1423.1306258677
 21
74.3387493916
 31
0.0
 12
1423.1306258677
 22
73.5287493916
 32
0.0
 13
1420.4306258677
 23
73.9337493916
 33
0.0
  0
SOLID
  5
377
100
AcDbEntity
  8
L1_45
  6
CONTINUOUS
 62
         4
100
AcDbTrace
 10
1431.5558481181
 20
73.9337493916
 30
0.0
 11
1428.8558481181
 21
73.5287493916
 31
0.0
 12
1428.8558481181
 22
74.3387493916
 32
0.0
 13
1431.5558481181
 23
73.9337493916
 33
0.0
  0
TEXT
  5
379
100
AcDbEntity
  8
L1_45
  6
CONTINUOUS
 62
         4
100
AcDbText
 10
1410.7519230685
 20
75.9587493916
 30
0.0
 40
2.7
  1
7/16"-20UNF
  7
BOX
100
AcDbText
  0
ENDBLK
  5
37A
100
AcDbEntity
  8
0
  6
CONTINUOUS
100
AcDbBlockEnd
  0
BLOCK
  5
37C
100
AcDbEntity
  8
0
100
AcDbBlockBegin
  2
*D4
 70
        65
 10
0.0
 20
0.0
 30
0.0
  3
*D4
  1

  0
POINT
  5
37E
100
AcDbEntity
  8
DEFPOINTS
  6
CONTINUOUS
 62
         0
100
AcDbPoint
 10
1415.5583492028
 20
67.4139310861
 30
0.0
  0
POINT
  5
37F
100
AcDbEntity
  8
DEFPOINTS
  6
CONTINUOUS
 62
         0
100
AcDbPoint
 10
1422.7928305921
 20
67.4139310861
 30
0.0
  0
POINT
  5
380
100
AcDbEntity
  8
DEFPOINTS
  6
CONTINUOUS
 62
         0
100
AcDbPoint
 10
1421.277285761
 20
57.2539107661
 30
0.0
  0
LINE
  5
381
100
AcDbEntity
  8
L1_45
  6
CONTINUOUS
 62
         4
100
AcDbLine
 10
1421.4428305921
 20
67.4139310861
 30
0.0
 11
1414.8833492028
 21
67.4139310861
 31
0.0
  0
LINE
  5
382
100
AcDbEntity
  8
L1_45
  6
CONTINUOUS
 62
         4
100
AcDbLine
 10
1419.927285761
 20
57.2539107661
 30
0.0
 11
1414.8833492028
 21
57.2539107661
 31
0.0
  0
LINE
  5
383
100
AcDbEntity
  8
L1_45
  6
CONTINUOUS
 62
         4
100
AcDbLine
 10
1415.5583492028
 20
67.4139310861
 30
0.0
 11
1415.5583492028
 21
57.2539107661
 31
0.0
  0
SOLID
  5
384
100
AcDbEntity
  8
L1_45
  6
CONTINUOUS
 62
         4
100
AcDbTrace
 10
1415.5583492028
 20
67.4139310861
 30
0.0
 11
1415.9633492028
 21
64.7139310861
 31
0.0
 12
1415.1533492028
 22
64.7139310861
 32
0.0
 13
1415.5583492028
 23
67.4139310861
 33
0.0
  0
SOLID
  5
385
100
AcDbEntity
  8
L1_45
  6
CONTINUOUS
 62
         4
100
AcDbTrace
 10
1415.5583492028
 20
57.2539107661
 30
0.0
 11
1415.1533492028
 21
59.9539107661
 31
0.0
 12
1415.9633492028
 22
59.9539107661
 32
0.0
 13
1415.5583492028
 23
57.2539107661
 33
0.0
  0
TEXT
  5
387
100
AcDbEntity
  8
L1_45
  6
CONTINUOUS
 62
         4
100
AcDbText
 10
1413.5333492028
 20
58.9659038528
 30
0.0
 40
2.7
  1
10
 50
90.0
  7
BOX
100
AcDbText
  0
ENDBLK
  5
388
100
AcDbEntity
  8
0
  6
CONTINUOUS
100
AcDbBlockEnd
  0
BLOCK
  5
397
100
AcDbEntity
  8
0
100
AcDbBlockBegin
  2
*D5
 70
        65
 10
0.0
 20
0.0
 30
0.0
  3
*D5
  1

  0
POINT
  5
399
100
AcDbEntity
  8
DEFPOINTS
  6
CONTINUOUS
 62
         0
100
AcDbPoint
 10
1380.0033403763
 20
-59.1678446733
 30
0.0
  0
POINT
  5
39A
100
AcDbEntity
  8
DEFPOINTS
  6
CONTINUOUS
 62
         0
100
AcDbPoint
 10
1380.0033403763
 20
-19.7933347407
 30
0.0
  0
POINT
  5
39B
100
AcDbEntity
  8
DEFPOINTS
  6
CONTINUOUS
 62
         0
100
AcDbPoint
 10
1445.0033403763
 20
-24.4877293495
 30
0.0
  0
LINE
  5
39C
100
AcDbEntity
  8
L1_45
  6
CONTINUOUS
 62
         4
100
AcDbLine
 10
1380.0033403763
 20
-21.1433347407
 30
0.0
 11
1380.0033403763
 21
-59.8428446733
 31
0.0
  0
LINE
  5
39D
100
AcDbEntity
  8
L1_45
  6
CONTINUOUS
 62
         4
100
AcDbLine
 10
1445.0033403763
 20
-25.8377293495
 30
0.0
 11
1445.0033403763
 21
-59.8428446733
 31
0.0
  0
LINE
  5
39E
100
AcDbEntity
  8
L1_45
  6
CONTINUOUS
 62
         4
100
AcDbLine
 10
1380.0033403763
 20
-59.1678446733
 30
0.0
 11
1445.0033403763
 21
-59.1678446733
 31
0.0
  0
SOLID
  5
39F
100
AcDbEntity
  8
L1_45
  6
CONTINUOUS
 62
         4
100
AcDbTrace
 10
1380.0033403763
 20
-59.1678446733
 30
0.0
 11
1382.7033403763
 21
-58.7628446733
 31
0.0
 12
1382.7033403763
 22
-59.5728446733
 32
0.0
 13
1380.0033403763
 23
-59.1678446733
 33
0.0
  0
SOLID
  5
3A0
100
AcDbEntity
  8
L1_45
  6
CONTINUOUS
 62
         4
100
AcDbTrace
 10
1445.0033403763
 20
-59.1678446733
 30
0.0
 11
1442.3033403763
 21
-59.5728446733
 31
0.0
 12
1442.3033403763
 22
-58.7628446733
 32
0.0
 13
1445.0033403763
 23
-59.1678446733
 33
0.0
  0
TEXT
  5
3A2
100
AcDbEntity
  8
L1_45
  6
CONTINUOUS
 62
         4
100
AcDbText
 10
1409.6214536268
 20
-57.1428446733
 30
0.0
 40
2.7
  1
65
  7
BOX
100
AcDbText
  0
ENDBLK
  5
3A3
100
AcDbEntity
  8
0
  6
CONTINUOUS
100
AcDbBlockEnd
  0
BLOCK
  5
3E1
100
AcDbEntity
  8
0
100
AcDbBlockBegin
  2
*X6
 70
        65
 10
0.0
 20
0.0
 30
0.0
  3
*X6
  1

  0
LINE
  5
3E2
100
AcDbEntity
  8
L1_45
  6
CONTINUOUS
 62
         4
100
AcDbLine
 10
1443.4626593032
 20
-26.1617661238
 30
0.0
 11
1444.9968027482
 21
-24.6276226788
 31
0.0
  0
LINE
  5
3E3
100
AcDbEntity
  8
L1_45
  6
CONTINUOUS
 62
         4
100
AcDbLine
 10
1435.5130592163
 20
-29.8687255236
 30
0.0
 11
1444.9572865837
 21
-20.4244981563
 31
0.0
  0
LINE
  5
3E4
100
AcDbEntity
  8
L1_45
  6
CONTINUOUS
 62
         4
100
AcDbLine
 10
1416.4208093119
 20
-44.7183347409
 30
0.0
 11
1418.9529226224
 21
-42.1862214304
 31
0.0
  0
LINE
  5
3E5
100
AcDbEntity
  8
L1_45
  6
CONTINUOUS
 62
         4
100
AcDbLine
 10
1430.6958093121
 20
-30.4433347407
 30
0.0
 11
1441.8458093121
 21
-19.2933347407
 31
0.0
  0
LINE
  5
3E6
100
AcDbEntity
  8
L1_45
  6
CONTINUOUS
 62
         4
100
AcDbLine
 10
1413.7386604182
 20
-43.1578429475
 30
0.0
 11
1416.3026977142
 21
-40.5938056515
 31
0.0
  0
LINE
  5
3E7
100
AcDbEntity
  8
L1_45
  6
CONTINUOUS
 62
         4
100
AcDbLine
 10
1426.453168625
 20
-30.4433347407
 30
0.0
 11
1437.603168625
 21
-19.2933347407
 31
0.0
  0
LINE
  5
3E8
100
AcDbEntity
  8
L1_45
  6
CONTINUOUS
 62
         4
100
AcDbLine
 10
1411.5855279379
 20
-41.0683347407
 30
0.0
 11
1413.652472806
 21
-39.0013898726
 31
0.0
  0
LINE
  5
3E9
100
AcDbEntity
  8
L1_45
  6
CONTINUOUS
 62
         4
100
AcDbLine
 10
1416.5674883504
 20
-36.0863743282
 30
0.0
 11
1419.1033403763
 21
-33.5505223023
 31
0.0
  0
LINE
  5
3EA
100
AcDbEntity
  8
L1_45
  6
CONTINUOUS
 62
         4
100
AcDbLine
 10
1422.2105279379
 20
-30.4433347407
 30
0.0
 11
1433.3605279379
 21
-19.2933347407
 31
0.0
  0
LINE
  5
3EB
100
AcDbEntity
  8
L1_45
  6
CONTINUOUS
 62
         4
100
AcDbLine
 10
1403.7847240605
 20
-44.626497931
 30
0.0
 11
1411.2573117579
 21
-37.1539102335
 31
0.0
  0
LINE
  5
3EC
100
AcDbEntity
  8
L1_45
  6
CONTINUOUS
 62
         4
100
AcDbLine
 10
1413.662199582
 20
-34.7490224094
 30
0.0
 11
1429.1178872508
 21
-19.2933347407
 31
0.0
  0
LINE
  5
3ED
100
AcDbEntity
  8
L1_45
  6
CONTINUOUS
 62
         4
100
AcDbLine
 10
1441.8178872508
 20
-6.5933347407
 30
0.0
 11
1445.0033403763
 21
-3.4078816152
 31
0.0
  0
LINE
  5
3EE
100
AcDbEntity
  8
L1_45
  6
CONTINUOUS
 62
         4
100
AcDbLine
 10
1411.6245748863
 20
-32.544006418
 30
0.0
 11
1424.8752465637
 21
-19.2933347407
 31
0.0
  0
LINE
  5
3EF
100
AcDbEntity
  8
L1_45
  6
CONTINUOUS
 62
         4
100
AcDbLine
 10
1437.5752465637
 20
-6.5933347407
 30
0.0
 11
1444.1316994178
 21
-0.0368818866
 31
0.0
  0
LINE
  5
3F0
100
AcDbEntity
  8
L1_45
  6
CONTINUOUS
 62
         4
100
AcDbLine
 10
1403.2033403763
 20
-36.722600241
 30
0.0
 11
1405.9568619415
 21
-33.9690786757
 31
0.0
  0
LINE
  5
3F1
100
AcDbEntity
  8
L1_45
  6
CONTINUOUS
 62
         4
100
AcDbLine
 10
1408.3617497656
 20
-31.5641908516
 30
0.0
 11
1420.6326058765
 21
-19.2933347407
 31
0.0
  0
LINE
  5
3F2
100
AcDbEntity
  8
L1_45
  6
CONTINUOUS
 62
         4
100
AcDbLine
 10
1433.3326058765
 20
-6.5933347407
 30
0.0
 11
1441.2382816118
 21
1.3123409946
 31
0.0
  0
LINE
  5
3F3
100
AcDbEntity
  8
L1_45
  6
CONTINUOUS
 62
         4
100
AcDbLine
 10
1400.4498493041
 20
-35.233450626
 30
0.0
 11
1403.3066370333
 21
-32.3766628968
 31
0.0
  0
LINE
  5
3F4
100
AcDbEntity
  8
L1_45
  6
CONTINUOUS
 62
         4
100
AcDbLine
 10
1405.7115248574
 20
-29.9717750727
 30
0.0
 11
1416.3899651894
 21
-19.2933347407
 31
0.0
  0
LINE
  5
3F5
100
AcDbEntity
  8
L1_45
  6
CONTINUOUS
 62
         4
100
AcDbLine
 10
1429.0899651894
 20
-6.5933347407
 30
0.0
 11
1438.3448638058
 21
2.6615638758
 31
0.0
  0
LINE
  5
3F6
100
AcDbEntity
  8
L1_45
  6
CONTINUOUS
 62
         4
100
AcDbLine
 10
1396.7471810681
 20
-34.6934781749
 30
0.0
 11
1400.6564121251
 21
-30.7842471179
 31
0.0
  0
LINE
  5
3F7
100
AcDbEntity
  8
L1_45
  6
CONTINUOUS
 62
         4
100
AcDbLine
 10
1403.0612999492
 20
-28.3793592938
 30
0.0
 11
1412.1473245023
 21
-19.2933347407
 31
0.0
  0
LINE
  5
3F8
100
AcDbEntity
  8
L1_45
  6
CONTINUOUS
 62
         4
100
AcDbLine
 10
1428.0033403763
 20
-3.4373188667
 30
0.0
 11
1435.4514459999
 21
4.0107867569
 31
0.0
  0
LINE
  5
3F9
100
AcDbEntity
  8
L1_45
  6
CONTINUOUS
 62
         4
100
AcDbLine
 10
1393.044512832
 20
-34.1535057238
 30
0.0
 11
1398.0061872168
 21
-29.191831339
 31
0.0
  0
LINE
  5
3FA
100
AcDbEntity
  8
L1_45
  6
CONTINUOUS
 62
         4
100
AcDbLine
 10
1400.411075041
 20
-26.7869435149
 30
0.0
 11
1407.9046838152
 21
-19.2933347407
 31
0.0
  0
LINE
  5
3FB
100
AcDbEntity
  8
L1_45
  6
CONTINUOUS
 62
         4
100
AcDbLine
 10
1428.0033403763
 20
0.8053218204
 30
0.0
 11
1431.7546838152
 21
4.5566652593
 31
0.0
  0
LINE
  5
3FC
100
AcDbEntity
  8
L1_45
  6
CONTINUOUS
 62
         4
100
AcDbLine
 10
1389.341844596
 20
-33.6135332727
 30
0.0
 11
1395.3559623086
 21
-27.5994155601
 31
0.0
  0
LINE
  5
3FD
100
AcDbEntity
  8
L1_45
  6
CONTINUOUS
 62
         4
100
AcDbLine
 10
1397.7608501328
 20
-25.194527736
 30
0.0
 11
1403.6620431281
 21
-19.2933347407
 31
0.0
  0
LINE
  5
3FE
100
AcDbEntity
  8
L1_45
  6
CONTINUOUS
 62
         4
100
AcDbLine
 10
1416.3620431281
 20
-6.5933347407
 30
0.0
 11
1418.0033403763
 21
-4.9520374925
 31
0.0
  0
LINE
  5
3FF
100
AcDbEntity
  8
L1_45
  6
CONTINUOUS
 62
         4
100
AcDbLine
 10
1385.63917636
 20
-33.0735608216
 30
0.0
 11
1392.7057374004
 21
-26.0069997812
 31
0.0
  0
LINE
  5
400
100
AcDbEntity
  8
L1_45
  6
CONTINUOUS
 62
         4
100
AcDbLine
 10
1395.1106252245
 20
-23.6021119571
 30
0.0
 11
1398.9194024409
 21
-19.7933347407
 31
0.0
  0
LINE
  5
401
100
AcDbEntity
  8
L1_45
  6
CONTINUOUS
 62
         4
100
AcDbLine
 10
1412.1194024409
 20
-6.5933347407
 30
0.0
 11
1418.0033403763
 21
-0.7093968054
 31
0.0
  0
LINE
  5
402
100
AcDbEntity
  8
L1_45
  6
CONTINUOUS
 62
         4
100
AcDbLine
 10
1381.9365081239
 20
-32.5335883705
 30
0.0
 11
1390.0555124922
 21
-24.4145840023
 31
0.0
  0
LINE
  5
403
100
AcDbEntity
  8
L1_45
  6
CONTINUOUS
 62
         4
100
AcDbLine
 10
1392.4604003163
 20
-22.0096961782
 30
0.0
 11
1394.6767617538
 21
-19.7933347407
 31
0.0
  0
LINE
  5
404
100
AcDbEntity
  8
L1_45
  6
CONTINUOUS
 62
         4
100
AcDbLine
 10
1407.8767617538
 20
-6.5933347407
 30
0.0
 11
1417.900051065
 21
3.4299545705
 31
0.0
  0
LINE
  5
405
100
AcDbEntity
  8
L1_45
  6
CONTINUOUS
 62
         4
100
AcDbLine
 10
1378.2338398879
 20
-31.9936159195
 30
0.0
 11
1387.405287584
 21
-22.8221682234
 31
0.0
  0
LINE
  5
406
100
AcDbEntity
  8
L1_45
  6
CONTINUOUS
 62
         4
100
AcDbLine
 10
1389.8101754081
 20
-20.4172803992
 30
0.0
 11
1390.4341210667
 21
-19.7933347407
 31
0.0
  0
LINE
  5
407
100
AcDbEntity
  8
L1_45
  6
CONTINUOUS
 62
         4
100
AcDbLine
 10
1403.6341210667
 20
-6.5933347407
 30
0.0
 11
1415.3033403763
 21
5.0758845689
 31
0.0
  0
LINE
  5
408
100
AcDbEntity
  8
L1_45
  6
CONTINUOUS
 62
         4
100
AcDbLine
 10
1374.5311716519
 20
-31.4536434684
 30
0.0
 11
1384.7550626758
 21
-21.2297524445
 31
0.0
  0
LINE
  5
409
100
AcDbEntity
  8
L1_45
  6
CONTINUOUS
 62
         4
100
AcDbLine
 10
1399.8914803796
 20
-6.0933347407
 30
0.0
 11
1415.3033403763
 21
9.318525256
 31
0.0
  0
LINE
  5
40A
100
AcDbEntity
  8
L1_45
  6
CONTINUOUS
 62
         4
100
AcDbLine
 10
1370.8285034159
 20
-30.9136710173
 30
0.0
 11
1381.9488396925
 21
-19.7933347407
 31
0.0
  0
LINE
  5
40B
100
AcDbEntity
  8
L1_45
  6
CONTINUOUS
 62
         4
100
AcDbLine
 10
1395.6488396925
 20
-6.0933347407
 30
0.0
 11
1413.7988396925
 21
12.0566652593
 31
0.0
  0
LINE
  5
40C
100
AcDbEntity
  8
L1_45
  6
CONTINUOUS
 62
         4
100
AcDbLine
 10
1367.1258351798
 20
-30.3736985662
 30
0.0
 11
1377.5561990053
 21
-19.9433347407
 31
0.0
  0
LINE
  5
40D
100
AcDbEntity
  8
L1_45
  6
CONTINUOUS
 62
         4
100
AcDbLine
 10
1391.4061990053
 20
-6.0933347407
 30
0.0
 11
1409.5561990053
 21
12.0566652593
 31
0.0
  0
LINE
  5
40E
100
AcDbEntity
  8
L1_45
  6
CONTINUOUS
 62
         4
100
AcDbLine
 10
1363.4231669438
 20
-29.8337261151
 30
0.0
 11
1373.3135583182
 21
-19.9433347407
 31
0.0
  0
LINE
  5
40F
100
AcDbEntity
  8
L1_45
  6
CONTINUOUS
 62
         4
100
AcDbLine
 10
1387.1635583182
 20
-6.0933347407
 30
0.0
 11
1402.5135583182
 21
9.2566652593
 31
0.0
  0
LINE
  5
410
100
AcDbEntity
  8
L1_45
  6
CONTINUOUS
 62
         4
100
AcDbLine
 10
1403.2033403763
 20
9.9464473174
 30
0.0
 11
1405.3135583182
 21
12.0566652593
 31
0.0
  0
LINE
  5
411
100
AcDbEntity
  8
L1_45
  6
CONTINUOUS
 62
         4
100
AcDbLine
 10
1359.7204987078
 20
-29.293753664
 30
0.0
 11
1369.0709176311
 21
-19.9433347407
 31
0.0
  0
LINE
  5
412
100
AcDbEntity
  8
L1_45
  6
CONTINUOUS
 62
         4
100
AcDbLine
 10
1382.9209176311
 20
-6.0933347407
 30
0.0
 11
1398.0044064307
 21
8.9901540589
 31
0.0
  0
LINE
  5
413
100
AcDbEntity
  8
L1_45
  6
CONTINUOUS
 62
         4
100
AcDbLine
 10
1356.0178304717
 20
-28.7537812129
 30
0.0
 11
1364.828276944
 21
-19.9433347407
 31
0.0
  0
LINE
  5
414
100
AcDbEntity
  8
L1_45
  6
CONTINUOUS
 62
         4
100
AcDbLine
 10
1378.828276944
 20
-5.9433347407
 30
0.0
 11
1393.0374124555
 21
8.2658007709
 31
0.0
  0
LINE
  5
415
100
AcDbEntity
  8
L1_45
  6
CONTINUOUS
 62
         4
100
AcDbLine
 10
1352.3151622357
 20
-28.2138087618
 30
0.0
 11
1360.5856362569
 21
-19.9433347407
 31
0.0
  0
LINE
  5
416
100
AcDbEntity
  8
L1_45
  6
CONTINUOUS
 62
         4
100
AcDbLine
 10
1374.5856362569
 20
-5.9433347407
 30
0.0
 11
1388.0704184804
 21
7.5414474828
 31
0.0
  0
LINE
  5
417
100
AcDbEntity
  8
L1_45
  6
CONTINUOUS
 62
         4
100
AcDbLine
 10
1348.6124939997
 20
-27.6738363108
 30
0.0
 11
1356.3429955697
 21
-19.9433347407
 31
0.0
  0
LINE
  5
418
100
AcDbEntity
  8
L1_45
  6
CONTINUOUS
 62
         4
100
AcDbLine
 10
1370.3429955697
 20
-5.9433347407
 30
0.0
 11
1383.1034245052
 21
6.8170941948
 31
0.0
  0
LINE
  5
419
100
AcDbEntity
  8
L1_45
  6
CONTINUOUS
 62
         4
100
AcDbLine
 10
1344.9098257636
 20
-27.1338638597
 30
0.0
 11
1352.1003548826
 21
-19.9433347407
 31
0.0
  0
LINE
  5
41A
100
AcDbEntity
  8
L1_45
  6
CONTINUOUS
 62
         4
100
AcDbLine
 10
1366.1003548826
 20
-5.9433347407
 30
0.0
 11
1378.1364305301
 21
6.0927409068
 31
0.0
  0
LINE
  5
41B
100
AcDbEntity
  8
L1_45
  6
CONTINUOUS
 62
         4
100
AcDbLine
 10
1341.2071575276
 20
-26.5938914086
 30
0.0
 11
1347.8577141955
 21
-19.9433347407
 31
0.0
  0
LINE
  5
41C
100
AcDbEntity
  8
L1_45
  6
CONTINUOUS
 62
         4
100
AcDbLine
 10
1361.8577141955
 20
-5.9433347407
 30
0.0
 11
1373.1694365549
 21
5.3683876187
 31
0.0
  0
LINE
  5
41D
100
AcDbEntity
  8
L1_45
  6
CONTINUOUS
 62
         4
100
AcDbLine
 10
1337.5044892916
 20
-26.0539189575
 30
0.0
 11
1343.6150735084
 21
-19.9433347407
 31
0.0
  0
LINE
  5
41E
100
AcDbEntity
  8
L1_45
  6
CONTINUOUS
 62
         4
100
AcDbLine
 10
1357.6150735084
 20
-5.9433347407
 30
0.0
 11
1368.2024425797
 21
4.6440343307
 31
0.0
  0
LINE
  5
41F
100
AcDbEntity
  8
L1_45
  6
CONTINUOUS
 62
         4
100
AcDbLine
 10
1333.8018210555
 20
-25.5139465064
 30
0.0
 11
1339.3724328213
 21
-19.9433347407
 31
0.0
  0
LINE
  5
420
100
AcDbEntity
  8
L1_45
  6
CONTINUOUS
 62
         4
100
AcDbLine
 10
1353.3724328213
 20
-5.9433347407
 30
0.0
 11
1363.2354486046
 21
3.9196810426
 31
0.0
  0
LINE
  5
421
100
AcDbEntity
  8
L1_45
  6
CONTINUOUS
 62
         4
100
AcDbLine
 10
1331.7533403763
 20
-23.3197864986
 30
0.0
 11
1333.9797921341
 21
-21.0933347407
 31
0.0
  0
LINE
  5
422
100
AcDbEntity
  8
L1_45
  6
CONTINUOUS
 62
         4
100
AcDbLine
 10
1349.1297921341
 20
-5.9433347407
 30
0.0
 11
1358.2684546294
 21
3.1953277546
 31
0.0
  0
LINE
  5
423
100
AcDbEntity
  8
L1_45
  6
CONTINUOUS
 62
         4
100
AcDbLine
 10
1344.887151447
 20
-5.9433347407
 30
0.0
 11
1353.3014606542
 21
2.4709744665
 31
0.0
  0
LINE
  5
424
100
AcDbEntity
  8
L1_45
  6
CONTINUOUS
 62
         4
100
AcDbLine
 10
1340.6445107599
 20
-5.9433347407
 30
0.0
 11
1348.3344666791
 21
1.7466211785
 31
0.0
  0
LINE
  5
425
100
AcDbEntity
  8
L1_45
  6
CONTINUOUS
 62
         4
100
AcDbLine
 10
1337.0290265808
 20
-5.3161782327
 30
0.0
 11
1343.3674727039
 21
1.0222678904
 31
0.0
  0
LINE
  5
426
100
AcDbEntity
  8
L1_45
  6
CONTINUOUS
 62
         4
100
AcDbLine
 10
1333.3092293857
 20
-4.7933347407
 30
0.0
 11
1338.4004787287
 21
0.2979146024
 31
0.0
  0
LINE
  5
427
100
AcDbEntity
  8
L1_45
  6
CONTINUOUS
 62
         4
100
AcDbLine
 10
1331.7533403763
 20
-2.106583063
 30
0.0
 11
1333.4334847536
 21
-0.4264386856
 31
0.0
  0
ENDBLK
  5
428
100
AcDbEntity
  8
0
  6
CONTINUOUS
100
AcDbBlockEnd
  0
BLOCK
  5
42E
100
AcDbEntity
  8
0
100
AcDbBlockBegin
  2
*D7
 70
        65
 10
0.0
 20
0.0
 30
0.0
  3
*D7
  1

  0
POINT
  5
430
100
AcDbEntity
  8
DEFPOINTS
  6
CONTINUOUS
 62
         0
100
AcDbPoint
 10
1459.8960072633
 20
167.6846417294
 30
0.0
  0
POINT
  5
431
100
AcDbEntity
  8
DEFPOINTS
  6
CONTINUOUS
 62
         0
100
AcDbPoint
 10
1433.8374164484
 20
167.6846417294
 30
0.0
  0
POINT
  5
432
100
AcDbEntity
  8
DEFPOINTS
  6
CONTINUOUS
 62
         0
100
AcDbPoint
 10
1433.8374164484
 20
132.6846417294
 30
0.0
  0
LINE
  5
433
100
AcDbEntity
  8
L1_45
  6
CONTINUOUS
 62
         4
100
AcDbLine
 10
1435.1874164484
 20
167.6846417294
 30
0.0
 11
1460.5710072633
 21
167.6846417294
 31
0.0
  0
LINE
  5
434
100
AcDbEntity
  8
L1_45
  6
CONTINUOUS
 62
         4
100
AcDbLine
 10
1435.1874164484
 20
132.6846417294
 30
0.0
 11
1460.5710072633
 21
132.6846417294
 31
0.0
  0
LINE
  5
435
100
AcDbEntity
  8
L1_45
  6
CONTINUOUS
 62
         4
100
AcDbLine
 10
1459.8960072633
 20
167.6846417294
 30
0.0
 11
1459.8960072633
 21
132.6846417294
 31
0.0
  0
SOLID
  5
436
100
AcDbEntity
  8
L1_45
  6
CONTINUOUS
 62
         4
100
AcDbTrace
 10
1459.8960072633
 20
167.6846417294
 30
0.0
 11
1460.3010072633
 21
164.9846417294
 31
0.0
 12
1459.4910072633
 22
164.9846417294
 32
0.0
 13
1459.8960072633
 23
167.6846417294
 33
0.0
  0
SOLID
  5
437
100
AcDbEntity
  8
L1_45
  6
CONTINUOUS
 62
         4
100
AcDbTrace
 10
1459.8960072633
 20
132.6846417294
 30
0.0
 11
1459.4910072633
 21
135.3846417294
 31
0.0
 12
1460.3010072633
 22
135.3846417294
 32
0.0
 13
1459.8960072633
 23
132.6846417294
 33
0.0
  0
TEXT
  5
439
100
AcDbEntity
  8
L1_45
  6
CONTINUOUS
 62
         4
100
AcDbText
 10
1456.7640072633
 20
142.1341529422
 30
0.0
 40
2.7
  1
崷35
 50
90.0
  7
BOX
100
AcDbText
  0
ENDBLK
  5
43A
100
AcDbEntity
  8
0
  6
CONTINUOUS
100
AcDbBlockEnd
  0
ENDSEC
  0
SECTION
  2
ENTITIES
  0
ARC
  5
24
100
AcDbEntity
  8
_Y__________
  6
CONTINUOUS
 62
         7
100
AcDbCircle
 10
1332.7533403763
 20
-3.7933347407
 30
0.0
 40
1.0
100
AcDbArc
 50
180.0
 51
270.0
  0
LINE
  5
25
100
AcDbEntity
  8
_Y__________
  6
CONTINUOUS
 62
         7
100
AcDbLine
 10
1332.7533403763
 20
-4.7933347407
 30
0.0
 11
1335.5233403763
 21
-4.7933347407
 31
0.0
  0
ARC
  5
26
100
AcDbEntity
  8
_Y__________
  6
CONTINUOUS
 62
         7
100
AcDbCircle
 10
1335.9228759565
 20
-4.8933347407
 30
0.0
 40
0.2
100
AcDbArc
 50
90.0
 51
105.0
  0
LINE
  5
27
100
AcDbEntity
  8
_Y__________
  6
CONTINUOUS
 62
         7
100
AcDbLine
 10
1335.8711121475
 20
-4.7001495754
 30
0.0
 11
1335.5233403763
 21
-4.7933347407
 31
0.0
  0
LINE
  5
28
100
AcDbEntity
  8
_Y__________
  6
CONTINUOUS
 62
         7
100
AcDbLine
 10
1335.9228759565
 20
-4.6933347407
 30
0.0
 11
1336.3233403763
 21
-4.6933347407
 31
0.0
  0
LINE
  5
29
100
AcDbEntity
  8
_Y__________
  6
CONTINUOUS
 62
         7
100
AcDbLine
 10
1336.4647617325
 20
-4.7519133844
 30
0.0
 11
1337.6561830887
 21
-5.9433347407
 31
0.0
  0
ARC
  5
2A
100
AcDbEntity
  8
_Y__________
  6
CONTINUOUS
 62
         7
100
AcDbCircle
 10
1336.3233403763
 20
-4.8933347407
 30
0.0
 40
0.2
100
AcDbArc
 50
45.0000000038
 51
90.0
  0
LINE
  5
2B
100
AcDbEntity
  8
_Y__________
  6
CONTINUOUS
 62
         7
100
AcDbLine
 10
1336.5233403763
 20
-5.1498119
 30
0.0
 11
1336.5233403763
 21
-20.6220880762
 31
0.0
  0
LINE
  5
2C
100
AcDbEntity
  8
_Y__________
  6
CONTINUOUS
 62
         7
100
AcDbLine
 10
1335.5233403763
 20
-4.7933347407
 30
0.0
 11
1335.5233403763
 21
-21.0933347407
 31
0.0
  0
LINE
  5
2D
100
AcDbEntity
  8
_Y__________
  6
CONTINUOUS
 62
         5
100
AcDbLine
 10
1336.6561830887
 20
-4.9433347407
 30
0.0
 11
1360.2033403763
 21
-4.9433347407
 31
0.0
  0
LINE
  5
2E
100
AcDbEntity
  8
_Y__________
  6
CONTINUOUS
 62
         7
100
AcDbLine
 10
1337.6561830887
 20
-5.9433347407
 30
0.0
 11
1360.2033403763
 21
-5.9433347407
 31
0.0
  0
LINE
  5
2F
100
AcDbEntity
  8
_Y__________
  6
CONTINUOUS
 62
         7
100
AcDbLine
 10
1337.6561830887
 20
-5.9433347407
 30
0.0
 11
1337.6561830887
 21
-19.9433347407
 31
0.0
  0
LINE
  5
30
100
AcDbEntity
  8
_Y__________
  6
CONTINUOUS
 62
         7
100
AcDbLine
 10
1337.6561830887
 20
-19.9433347407
 30
0.0
 11
1360.2033403763
 21
-19.9433347407
 31
0.0
  0
LINE
  5
31
100
AcDbEntity
  8
_Y__________
  6
CONTINUOUS
 62
         7
100
AcDbLine
 10
1336.4647617325
 20
-21.1347560969
 30
0.0
 11
1337.6561830887
 21
-19.9433347407
 31
0.0
  0
ARC
  5
32
100
AcDbEntity
  8
_Y__________
  6
CONTINUOUS
 62
         7
100
AcDbCircle
 10
1336.3233403763
 20
-20.9933347407
 30
0.0
 40
0.2
100
AcDbArc
 50
270.0
 51
314.9999999962
  0
LINE
  5
33
100
AcDbEntity
  8
_Y__________
  6
CONTINUOUS
 62
         7
100
AcDbLine
 10
1335.9228759565
 20
-21.1933347407
 30
0.0
 11
1336.3233403763
 21
-21.1933347407
 31
0.0
  0
LINE
  5
34
100
AcDbEntity
  8
_Y__________
  6
CONTINUOUS
 62
         7
100
AcDbLine
 10
1335.8711121475
 20
-21.1865199059
 30
0.0
 11
1335.5233403763
 21
-21.0933347407
 31
0.0
  0
LINE
  5
35
100
AcDbEntity
  8
_Y__________
  6
CONTINUOUS
 62
         7
100
AcDbLine
 10
1332.7533403763
 20
-21.0933347407
 30
0.0
 11
1335.5233403763
 21
-21.0933347407
 31
0.0
  0
ARC
  5
36
100
AcDbEntity
  8
_Y__________
  6
CONTINUOUS
 62
         7
100
AcDbCircle
 10
1332.7533403763
 20
-22.0933347407
 30
0.0
 40
1.0
100
AcDbArc
 50
90.0
 51
180.0
  0
LINE
  5
37
100
AcDbEntity
  8
_Y__________
  6
CONTINUOUS
 62
         5
100
AcDbLine
 10
1336.6561830887
 20
-20.9433347407
 30
0.0
 11
1360.2033403763
 21
-20.9433347407
 31
0.0
  0
LINE
  5
38
100
AcDbEntity
  8
_Y__________
  6
CONTINUOUS
 62
         7
100
AcDbLine
 10
1360.2033403763
 20
-4.9433347407
 30
0.0
 11
1360.2033403763
 21
-20.9433347407
 31
0.0
  0
ARC
  5
39
100
AcDbEntity
  8
_Y__________
  6
CONTINUOUS
 62
         7
100
AcDbCircle
 10
1332.9533403763
 20
-24.1775164571
 30
0.0
 40
1.2
100
AcDbArc
 50
180.0
 51
261.7028550302
  0
ARC
  5
3A
100
AcDbEntity
  8
_Y__________
  6
CONTINUOUS
 62
         7
100
AcDbCircle
 10
1332.9533403763
 20
-1.7091530242
 30
0.0
 40
1.2
100
AcDbArc
 50
98.2971449698
 51
180.0
  0
LINE
  5
3B
100
AcDbEntity
  8
_Y__________
  6
CONTINUOUS
 62
         7
100
AcDbLine
 10
1331.7533403763
 20
-1.7091530242
 30
0.0
 11
1331.7533403763
 21
-24.1775164571
 31
0.0
  0
ARC
  5
3C
100
AcDbEntity
  8
_Y__________
  6
CONTINUOUS
 62
         7
100
AcDbCircle
 10
1332.9533403763
 20
138.9504600129
 30
0.0
 40
1.2
100
AcDbArc
 50
180.0
 51
261.7028550302
  0
ARC
  5
3D
100
AcDbEntity
  8
_Y__________
  6
CONTINUOUS
 62
         7
100
AcDbCircle
 10
1332.9533403763
 20
161.4188234458
 30
0.0
 40
1.2
100
AcDbArc
 50
98.2971449698
 51
180.0
  0
LINE
  5
3E
100
AcDbEntity
  8
_Y__________
  6
CONTINUOUS
 62
         7
100
AcDbLine
 10
1331.7533403763
 20
161.4188234458
 30
0.0
 11
1331.7533403763
 21
138.9504600129
 31
0.0
  0
LINE
  5
3F
100
AcDbEntity
  8
_Y__________
  6
CENTER
 62
         1
100
AcDbLine
 10
1611.2297186441
 20
174.5302820606
 30
0.0
 11
1616.8678743688
 21
176.5824029206
 31
0.0
  0
ARC
  5
40
100
AcDbEntity
  8
_Y__________
  6
CONTINUOUS
 62
         7
100
AcDbCircle
 10
1613.1352026945
 20
175.2238215369
 30
0.0
 40
2.9722262277
100
AcDbArc
 50
1.2577258579
 51
20.0
  0
ARC
  5
41
100
AcDbEntity
  8
_Y__________
  6
CONTINUOUS
 62
         7
100
AcDbCircle
 10
1613.6377649205
 20
175.2348552824
 30
0.0
 40
2.4695428935
100
AcDbArc
 50
340.6773100903
 51
361.2577258579
  0
ARC
  5
42
100
AcDbEntity
  8
_Y__________
  6
CONTINUOUS
 62
         7
100
AcDbCircle
 10
1614.0072011885
 20
175.1053162748
 30
0.0
 40
2.0780540551
100
AcDbArc
 50
316.8239621527
 51
340.6773100903
  0
ARC
  5
43
100
AcDbEntity
  8
_Y__________
  6
CONTINUOUS
 62
         7
100
AcDbCircle
 10
1614.3196641031
 20
174.8121398851
 30
0.0
 40
1.6495853065
100
AcDbArc
 50
290.0000000001
 51
316.8239621528
  0
ARC
  5
44
100
AcDbEntity
  8
_Y__________
  6
CONTINUOUS
 62
         7
100
AcDbCircle
 10
1614.3196641031
 20
174.8121398851
 30
0.0
 40
1.6495853065
100
AcDbArc
 50
263.1760378472
 51
290.0
  0
ARC
  5
45
100
AcDbEntity
  8
_Y__________
  6
CONTINUOUS
 62
         7
100
AcDbCircle
 10
1614.3705744318
 20
175.2375733193
 30
0.0
 40
2.0780540551
100
AcDbArc
 50
239.3226899096
 51
263.1760378472
  0
ARC
  5
46
100
AcDbEntity
  8
_Y__________
  6
CONTINUOUS
 62
         7
100
AcDbCircle
 10
1614.5703129629
 20
175.5742750119
 30
0.0
 40
2.4695428935
100
AcDbArc
 50
218.742274142
 51
239.3226899097
  0
ARC
  5
47
100
AcDbEntity
  8
_Y__________
  6
CONTINUOUS
 62
         7
100
AcDbCircle
 10
1614.9623903184
 20
175.8888634444
 30
0.0
 40
2.9722262277
100
AcDbArc
 50
200.0
 51
218.742274142
  0
ARC
  5
48
100
AcDbEntity
  8
_Y__________
  6
CONTINUOUS
 62
         7
100
AcDbCircle
 10
1614.9623903184
 20
175.8888634444
 30
0.0
 40
2.9722262277
100
AcDbArc
 50
181.257725858
 51
200.0000000001
  0
ARC
  5
49
100
AcDbEntity
  8
_Y__________
  6
CONTINUOUS
 62
         7
100
AcDbCircle
 10
1614.4598280924
 20
175.8778296988
 30
0.0
 40
2.4695428935
100
AcDbArc
 50
160.6773100903
 51
181.257725858
  0
ARC
  5
4A
100
AcDbEntity
  8
_Y__________
  6
CONTINUOUS
 62
         7
100
AcDbCircle
 10
1614.0903918245
 20
176.0073687064
 30
0.0
 40
2.0780540551
100
AcDbArc
 50
136.8239621528
 51
160.6773100904
  0
ARC
  5
4B
100
AcDbEntity
  8
_Y__________
  6
CONTINUOUS
 62
         7
100
AcDbCircle
 10
1613.7779289098
 20
176.3005450962
 30
0.0
 40
1.6495853065
100
AcDbArc
 50
110.0
 51
136.8239621528
  0
ARC
  5
4C
100
AcDbEntity
  8
_Y__________
  6
CONTINUOUS
 62
         7
100
AcDbCircle
 10
1613.7779289098
 20
176.3005450962
 30
0.0
 40
1.6495853065
100
AcDbArc
 50
83.1760378471
 51
109.9999999999
  0
ARC
  5
4D
100
AcDbEntity
  8
_Y__________
  6
CONTINUOUS
 62
         7
100
AcDbCircle
 10
1613.7270185811
 20
175.8751116619
 30
0.0
 40
2.0780540551
100
AcDbArc
 50
59.3226899096
 51
83.1760378472
  0
ARC
  5
4E
100
AcDbEntity
  8
_Y__________
  6
CONTINUOUS
 62
         7
100
AcDbCircle
 10
1613.52728005
 20
175.5384099693
 30
0.0
 40
2.4695428935
100
AcDbArc
 50
38.742274142
 51
59.3226899097
  0
ARC
  5
4F
100
AcDbEntity
  8
_Y__________
  6
CONTINUOUS
 62
         7
100
AcDbCircle
 10
1613.1352026945
 20
175.2238215369
 30
0.0
 40
2.9722262277
100
AcDbArc
 50
20.0
 51
38.742274142
  0
POLYLINE
  5
51
100
AcDbEntity
  8
_Y__________
  6
CONTINUOUS
 62
         7
100
AcDb3dPolyline
 66
         1
 10
0.0
 20
0.0
 30
0.0
 70
         8
  0
VERTEX
  5
53
100
AcDbEntity
  8
_Y__________
  6
CONTINUOUS
 62
         7
100
AcDbVertex
100
AcDb3dPolylineVertex
 10
1615.928181748
 20
176.2403827773
 30
0.0
 70
        32
  0
VERTEX
  5
55
100
AcDbEntity
  8
_Y__________
  6
CONTINUOUS
 62
         7
100
AcDbVertex
100
AcDb3dPolylineVertex
 10
1615.928181748
 20
176.2403827773
 30
0.0
 70
        32
  0
SEQEND
  5
57
100
AcDbEntity
  8
_Y__________
  6
CONTINUOUS
 62
         7
  0
POLYLINE
  5
59
100
AcDbEntity
  8
_Y__________
  6
CONTINUOUS
 62
         7
100
AcDb3dPolyline
 66
         1
 10
0.0
 20
0.0
 30
0.0
 70
         8
  0
VERTEX
  5
5B
100
AcDbEntity
  8
_Y__________
  6
CONTINUOUS
 62
         7
100
AcDbVertex
100
AcDb3dPolylineVertex
 10
1616.1067128429
 20
175.2890609943
 30
0.0
 70
        32
  0
VERTEX
  5
5D
100
AcDbEntity
  8
_Y__________
  6
CONTINUOUS
 62
         7
100
AcDbVertex
100
AcDb3dPolylineVertex
 10
1616.1067128429
 20
175.2890609943
 30
0.0
 70
        32
  0
SEQEND
  5
5F
100
AcDbEntity
  8
_Y__________
  6
CONTINUOUS
 62
         7
  0
POLYLINE
  5
61
100
AcDbEntity
  8
_Y__________
  6
CONTINUOUS
 62
         7
100
AcDb3dPolyline
 66
         1
 10
0.0
 20
0.0
 30
0.0
 70
         8
  0
VERTEX
  5
63
100
AcDbEntity
  8
_Y__________
  6
CONTINUOUS
 62
         7
100
AcDbVertex
100
AcDb3dPolylineVertex
 10
1615.9681984366
 20
174.4177128652
 30
0.0
 70
        32
  0
VERTEX
  5
65
100
AcDbEntity
  8
_Y__________
  6
CONTINUOUS
 62
         7
100
AcDbVertex
100
AcDb3dPolylineVertex
 10
1615.9681984366
 20
174.4177128652
 30
0.0
 70
        32
  0
SEQEND
  5
67
100
AcDbEntity
  8
_Y__________
  6
CONTINUOUS
 62
         7
  0
POLYLINE
  5
69
100
AcDbEntity
  8
_Y__________
  6
CONTINUOUS
 62
         7
100
AcDb3dPolyline
 66
         1
 10
0.0
 20
0.0
 30
0.0
 70
         8
  0
VERTEX
  5
6B
100
AcDbEntity
  8
_Y__________
  6
CONTINUOUS
 62
         7
100
AcDbVertex
100
AcDb3dPolylineVertex
 10
1615.5226321948
 20
173.6834240423
 30
0.0
 70
        32
  0
VERTEX
  5
6D
100
AcDbEntity
  8
_Y__________
  6
CONTINUOUS
 62
         7
100
AcDbVertex
100
AcDb3dPolylineVertex
 10
1615.5226321948
 20
173.6834240423
 30
0.0
 70
        32
  0
SEQEND
  5
6F
100
AcDbEntity
  8
_Y__________
  6
CONTINUOUS
 62
         7
  0
POLYLINE
  5
71
100
AcDbEntity
  8
_Y__________
  6
CONTINUOUS
 62
         7
100
AcDb3dPolyline
 66
         1
 10
0.0
 20
0.0
 30
0.0
 70
         8
  0
VERTEX
  5
73
100
AcDbEntity
  8
_Y__________
  6
CONTINUOUS
 62
         7
100
AcDbVertex
100
AcDb3dPolylineVertex
 10
1614.8838555061
 20
173.2620367452
 30
0.0
 70
        32
  0
VERTEX
  5
75
100
AcDbEntity
  8
_Y__________
  6
CONTINUOUS
 62
         7
100
AcDbVertex
100
AcDb3dPolylineVertex
 10
1614.8838555061
 20
173.2620367452
 30
0.0
 70
        32
  0
SEQEND
  5
77
100
AcDbEntity
  8
_Y__________
  6
CONTINUOUS
 62
         7
  0
POLYLINE
  5
79
100
AcDbEntity
  8
_Y__________
  6
CONTINUOUS
 62
         7
100
AcDb3dPolyline
 66
         1
 10
0.0
 20
0.0
 30
0.0
 70
         8
  0
VERTEX
  5
7B
100
AcDbEntity
  8
_Y__________
  6
CONTINUOUS
 62
         7
100
AcDbVertex
100
AcDb3dPolylineVertex
 10
1614.1236616399
 20
173.1742404016
 30
0.0
 70
        32
  0
VERTEX
  5
7D
100
AcDbEntity
  8
_Y__________
  6
CONTINUOUS
 62
         7
100
AcDbVertex
100
AcDb3dPolylineVertex
 10
1614.1236616399
 20
173.1742404016
 30
0.0
 70
        32
  0
SEQEND
  5
7F
100
AcDbEntity
  8
_Y__________
  6
CONTINUOUS
 62
         7
  0
POLYLINE
  5
81
100
AcDbEntity
  8
_Y__________
  6
CONTINUOUS
 62
         7
100
AcDb3dPolyline
 66
         1
 10
0.0
 20
0.0
 30
0.0
 70
         8
  0
VERTEX
  5
83
100
AcDbEntity
  8
_Y__________
  6
CONTINUOUS
 62
         7
100
AcDbVertex
100
AcDb3dPolylineVertex
 10
1613.310346339
 20
173.4503338146
 30
0.0
 70
        32
  0
VERTEX
  5
85
100
AcDbEntity
  8
_Y__________
  6
CONTINUOUS
 62
         7
100
AcDbVertex
100
AcDb3dPolylineVertex
 10
1613.310346339
 20
173.4503338146
 30
0.0
 70
        32
  0
SEQEND
  5
87
100
AcDbEntity
  8
_Y__________
  6
CONTINUOUS
 62
         7
  0
POLYLINE
  5
89
100
AcDbEntity
  8
_Y__________
  6
CONTINUOUS
 62
         7
100
AcDb3dPolyline
 66
         1
 10
0.0
 20
0.0
 30
0.0
 70
         8
  0
VERTEX
  5
8B
100
AcDbEntity
  8
_Y__________
  6
CONTINUOUS
 62
         7
100
AcDbVertex
100
AcDb3dPolylineVertex
 10
1612.6441463667
 20
174.0287898627
 30
0.0
 70
        32
  0
VERTEX
  5
8D
100
AcDbEntity
  8
_Y__________
  6
CONTINUOUS
 62
         7
100
AcDbVertex
100
AcDb3dPolylineVertex
 10
1612.6441463667
 20
174.0287898627
 30
0.0
 70
        32
  0
SEQEND
  5
8F
100
AcDbEntity
  8
_Y__________
  6
CONTINUOUS
 62
         7
  0
POLYLINE
  5
91
100
AcDbEntity
  8
_Y__________
  6
CONTINUOUS
 62
         7
100
AcDb3dPolyline
 66
         1
 10
0.0
 20
0.0
 30
0.0
 70
         8
  0
VERTEX
  5
93
100
AcDbEntity
  8
_Y__________
  6
CONTINUOUS
 62
         7
100
AcDbVertex
100
AcDb3dPolylineVertex
 10
1612.1694112649
 20
174.872302204
 30
0.0
 70
        32
  0
VERTEX
  5
95
100
AcDbEntity
  8
_Y__________
  6
CONTINUOUS
 62
         7
100
AcDbVertex
100
AcDb3dPolylineVertex
 10
1612.1694112649
 20
174.872302204
 30
0.0
 70
        32
  0
SEQEND
  5
97
100
AcDbEntity
  8
_Y__________
  6
CONTINUOUS
 62
         7
  0
POLYLINE
  5
99
100
AcDbEntity
  8
_Y__________
  6
CONTINUOUS
 62
         7
100
AcDb3dPolyline
 66
         1
 10
0.0
 20
0.0
 30
0.0
 70
         8
  0
VERTEX
  5
9B
100
AcDbEntity
  8
_Y__________
  6
CONTINUOUS
 62
         7
100
AcDbVertex
100
AcDb3dPolylineVertex
 10
1611.99088017
 20
175.823623987
 30
0.0
 70
        32
  0
VERTEX
  5
9D
100
AcDbEntity
  8
_Y__________
  6
CONTINUOUS
 62
         7
100
AcDbVertex
100
AcDb3dPolylineVertex
 10
1611.99088017
 20
175.823623987
 30
0.0
 70
        32
  0
SEQEND
  5
9F
100
AcDbEntity
  8
_Y__________
  6
CONTINUOUS
 62
         7
  0
POLYLINE
  5
A1
100
AcDbEntity
  8
_Y__________
  6
CONTINUOUS
 62
         7
100
AcDb3dPolyline
 66
         1
 10
0.0
 20
0.0
 30
0.0
 70
         8
  0
VERTEX
  5
A3
100
AcDbEntity
  8
_Y__________
  6
CONTINUOUS
 62
         7
100
AcDbVertex
100
AcDb3dPolylineVertex
 10
1612.1293945764
 20
176.694972116
 30
0.0
 70
        32
  0
VERTEX
  5
A5
100
AcDbEntity
  8
_Y__________
  6
CONTINUOUS
 62
         7
100
AcDbVertex
100
AcDb3dPolylineVertex
 10
1612.1293945764
 20
176.694972116
 30
0.0
 70
        32
  0
SEQEND
  5
A7
100
AcDbEntity
  8
_Y__________
  6
CONTINUOUS
 62
         7
  0
POLYLINE
  5
A9
100
AcDbEntity
  8
_Y__________
  6
CONTINUOUS
 62
         7
100
AcDb3dPolyline
 66
         1
 10
0.0
 20
0.0
 30
0.0
 70
         8
  0
VERTEX
  5
AB
100
AcDbEntity
  8
_Y__________
  6
CONTINUOUS
 62
         7
100
AcDbVertex
100
AcDb3dPolylineVertex
 10
1612.5749608181
 20
177.4292609389
 30
0.0
 70
        32
  0
VERTEX
  5
AD
100
AcDbEntity
  8
_Y__________
  6
CONTINUOUS
 62
         7
100
AcDbVertex
100
AcDb3dPolylineVertex
 10
1612.5749608181
 20
177.4292609389
 30
0.0
 70
        32
  0
SEQEND
  5
AF
100
AcDbEntity
  8
_Y__________
  6
CONTINUOUS
 62
         7
  0
POLYLINE
  5
B1
100
AcDbEntity
  8
_Y__________
  6
CONTINUOUS
 62
         7
100
AcDb3dPolyline
 66
         1
 10
0.0
 20
0.0
 30
0.0
 70
         8
  0
VERTEX
  5
B3
100
AcDbEntity
  8
_Y__________
  6
CONTINUOUS
 62
         7
100
AcDbVertex
100
AcDb3dPolylineVertex
 10
1613.2137375068
 20
177.850648236
 30
0.0
 70
        32
  0
VERTEX
  5
B5
100
AcDbEntity
  8
_Y__________
  6
CONTINUOUS
 62
         7
100
AcDbVertex
100
AcDb3dPolylineVertex
 10
1613.2137375068
 20
177.850648236
 30
0.0
 70
        32
  0
SEQEND
  5
B7
100
AcDbEntity
  8
_Y__________
  6
CONTINUOUS
 62
         7
  0
POLYLINE
  5
B9
100
AcDbEntity
  8
_Y__________
  6
CONTINUOUS
 62
         7
100
AcDb3dPolyline
 66
         1
 10
0.0
 20
0.0
 30
0.0
 70
         8
  0
VERTEX
  5
BB
100
AcDbEntity
  8
_Y__________
  6
CONTINUOUS
 62
         7
100
AcDbVertex
100
AcDb3dPolylineVertex
 10
1613.9739313731
 20
177.9384445796
 30
0.0
 70
        32
  0
VERTEX
  5
BD
100
AcDbEntity
  8
_Y__________
  6
CONTINUOUS
 62
         7
100
AcDbVertex
100
AcDb3dPolylineVertex
 10
1613.9739313731
 20
177.9384445796
 30
0.0
 70
        32
  0
SEQEND
  5
BF
100
AcDbEntity
  8
_Y__________
  6
CONTINUOUS
 62
         7
  0
POLYLINE
  5
C1
100
AcDbEntity
  8
_Y__________
  6
CONTINUOUS
 62
         7
100
AcDb3dPolyline
 66
         1
 10
0.0
 20
0.0
 30
0.0
 70
         8
  0
VERTEX
  5
C3
100
AcDbEntity
  8
_Y__________
  6
CONTINUOUS
 62
         7
100
AcDbVertex
100
AcDb3dPolylineVertex
 10
1614.7872466739
 20
177.6623511666
 30
0.0
 70
        32
  0
VERTEX
  5
C5
100
AcDbEntity
  8
_Y__________
  6
CONTINUOUS
 62
         7
100
AcDbVertex
100
AcDb3dPolylineVertex
 10
1614.7872466739
 20
177.6623511666
 30
0.0
 70
        32
  0
SEQEND
  5
C7
100
AcDbEntity
  8
_Y__________
  6
CONTINUOUS
 62
         7
  0
LINE
  5
C8
100
AcDbEntity
  8
_Y__________
  6
CENTER
 62
         1
100
AcDbLine
 10
1629.6988063837
 20
123.7868805382
 30
0.0
 11
1635.3369621084
 21
125.8390013981
 31
0.0
  0
ARC
  5
C9
100
AcDbEntity
  8
_Y__________
  6
CONTINUOUS
 62
         7
100
AcDbCircle
 10
1631.6042904341
 20
124.4804200144
 30
0.0
 40
2.9722262277
100
AcDbArc
 50
20.0
 51
38.742274142
  0
ARC
  5
CA
100
AcDbEntity
  8
_Y__________
  6
CONTINUOUS
 62
         7
100
AcDbCircle
 10
1631.9963677896
 20
124.7950084469
 30
0.0
 40
2.4695428935
100
AcDbArc
 50
38.742274142
 51
59.3226899096
  0
ARC
  5
CB
100
AcDbEntity
  8
_Y__________
  6
CONTINUOUS
 62
         7
100
AcDbCircle
 10
1632.1961063207
 20
125.1317101395
 30
0.0
 40
2.0780540551
100
AcDbArc
 50
59.3226899096
 51
83.1760378472
  0
ARC
  5
CC
100
AcDbEntity
  8
_Y__________
  6
CONTINUOUS
 62
         7
100
AcDbCircle
 10
1632.2470166494
 20
125.5571435737
 30
0.0
 40
1.6495853065
100
AcDbArc
 50
83.1760378472
 51
110.0
  0
ARC
  5
CD
100
AcDbEntity
  8
_Y__________
  6
CONTINUOUS
 62
         7
100
AcDbCircle
 10
1632.2470166494
 20
125.5571435737
 30
0.0
 40
1.6495853065
100
AcDbArc
 50
110.0
 51
136.8239621528
  0
ARC
  5
CE
100
AcDbEntity
  8
_Y__________
  6
CONTINUOUS
 62
         7
100
AcDbCircle
 10
1632.559479564
 20
125.263967184
 30
0.0
 40
2.0780540551
100
AcDbArc
 50
136.8239621527
 51
160.6773100903
  0
ARC
  5
CF
100
AcDbEntity
  8
_Y__________
  6
CONTINUOUS
 62
         7
100
AcDbCircle
 10
1632.928915832
 20
125.1344281764
 30
0.0
 40
2.4695428935
100
AcDbArc
 50
160.6773100904
 51
181.257725858
  0
ARC
  5
D0
100
AcDbEntity
  8
_Y__________
  6
CONTINUOUS
 62
         7
100
AcDbCircle
 10
1633.431478058
 20
125.1454619219
 30
0.0
 40
2.9722262277
100
AcDbArc
 50
181.257725858
 51
200.0000000001
  0
ARC
  5
D1
100
AcDbEntity
  8
_Y__________
  6
CONTINUOUS
 62
         7
100
AcDbCircle
 10
1633.431478058
 20
125.1454619219
 30
0.0
 40
2.9722262277
100
AcDbArc
 50
200.0
 51
218.742274142
  0
ARC
  5
D2
100
AcDbEntity
  8
_Y__________
  6
CONTINUOUS
 62
         7
100
AcDbCircle
 10
1633.0394007025
 20
124.8308734894
 30
0.0
 40
2.4695428935
100
AcDbArc
 50
218.7422741419
 51
239.3226899096
  0
ARC
  5
D3
100
AcDbEntity
  8
_Y__________
  6
CONTINUOUS
 62
         7
100
AcDbCircle
 10
1632.8396621714
 20
124.4941717969
 30
0.0
 40
2.0780540551
100
AcDbArc
 50
239.3226899097
 51
263.1760378472
  0
ARC
  5
D4
100
AcDbEntity
  8
_Y__________
  6
CONTINUOUS
 62
         7
100
AcDbCircle
 10
1632.7887518427
 20
124.0687383626
 30
0.0
 40
1.6495853065
100
AcDbArc
 50
263.1760378472
 51
290.0
  0
ARC
  5
D5
100
AcDbEntity
  8
_Y__________
  6
CONTINUOUS
 62
         7
100
AcDbCircle
 10
1632.7887518427
 20
124.0687383626
 30
0.0
 40
1.6495853065
100
AcDbArc
 50
290.0
 51
316.8239621528
  0
ARC
  5
D6
100
AcDbEntity
  8
_Y__________
  6
CONTINUOUS
 62
         7
100
AcDbCircle
 10
1632.476288928
 20
124.3619147524
 30
0.0
 40
2.0780540551
100
AcDbArc
 50
316.8239621527
 51
340.6773100903
  0
ARC
  5
D7
100
AcDbEntity
  8
_Y__________
  6
CONTINUOUS
 62
         7
100
AcDbCircle
 10
1632.1068526601
 20
124.49145376
 30
0.0
 40
2.4695428935
100
AcDbArc
 50
340.6773100904
 51
361.257725858
  0
ARC
  5
D8
100
AcDbEntity
  8
_Y__________
  6
CONTINUOUS
 62
         7
100
AcDbCircle
 10
1631.6042904341
 20
124.4804200144
 30
0.0
 40
2.9722262277
100
AcDbArc
 50
1.257725858
 51
20.0
  0
POLYLINE
  5
DA
100
AcDbEntity
  8
_Y__________
  6
CONTINUOUS
 62
         7
100
AcDb3dPolyline
 66
         1
 10
0.0
 20
0.0
 30
0.0
 70
         8
  0
VERTEX
  5
DC
100
AcDbEntity
  8
_Y__________
  6
CONTINUOUS
 62
         7
100
AcDbVertex
100
AcDb3dPolylineVertex
 10
1634.3972694876
 20
125.4969812548
 30
0.0
 70
        32
  0
VERTEX
  5
DE
100
AcDbEntity
  8
_Y__________
  6
CONTINUOUS
 62
         7
100
AcDbVertex
100
AcDb3dPolylineVertex
 10
1634.3972694876
 20
125.4969812548
 30
0.0
 70
        32
  0
SEQEND
  5
E0
100
AcDbEntity
  8
_Y__________
  6
CONTINUOUS
 62
         7
  0
POLYLINE
  5
E2
100
AcDbEntity
  8
_Y__________
  6
CONTINUOUS
 62
         7
100
AcDb3dPolyline
 66
         1
 10
0.0
 20
0.0
 30
0.0
 70
         8
  0
VERTEX
  5
E4
100
AcDbEntity
  8
_Y__________
  6
CONTINUOUS
 62
         7
100
AcDbVertex
100
AcDb3dPolylineVertex
 10
1633.9225343858
 20
126.340493596
 30
0.0
 70
        32
  0
VERTEX
  5
E6
100
AcDbEntity
  8
_Y__________
  6
CONTINUOUS
 62
         7
100
AcDbVertex
100
AcDb3dPolylineVertex
 10
1633.9225343858
 20
126.340493596
 30
0.0
 70
        32
  0
SEQEND
  5
E8
100
AcDbEntity
  8
_Y__________
  6
CONTINUOUS
 62
         7
  0
POLYLINE
  5
EA
100
AcDbEntity
  8
_Y__________
  6
CONTINUOUS
 62
         7
100
AcDb3dPolyline
 66
         1
 10
0.0
 20
0.0
 30
0.0
 70
         8
  0
VERTEX
  5
EC
100
AcDbEntity
  8
_Y__________
  6
CONTINUOUS
 62
         7
100
AcDbVertex
100
AcDb3dPolylineVertex
 10
1633.2563344135
 20
126.9189496442
 30
0.0
 70
        32
  0
VERTEX
  5
EE
100
AcDbEntity
  8
_Y__________
  6
CONTINUOUS
 62
         7
100
AcDbVertex
100
AcDb3dPolylineVertex
 10
1633.2563344135
 20
126.9189496442
 30
0.0
 70
        32
  0
SEQEND
  5
F0
100
AcDbEntity
  8
_Y__________
  6
CONTINUOUS
 62
         7
  0
POLYLINE
  5
F2
100
AcDbEntity
  8
_Y__________
  6
CONTINUOUS
 62
         7
100
AcDb3dPolyline
 66
         1
 10
0.0
 20
0.0
 30
0.0
 70
         8
  0
VERTEX
  5
F4
100
AcDbEntity
  8
_Y__________
  6
CONTINUOUS
 62
         7
100
AcDbVertex
100
AcDb3dPolylineVertex
 10
1632.4430191126
 20
127.1950430571
 30
0.0
 70
        32
  0
VERTEX
  5
F6
100
AcDbEntity
  8
_Y__________
  6
CONTINUOUS
 62
         7
100
AcDbVertex
100
AcDb3dPolylineVertex
 10
1632.4430191126
 20
127.1950430571
 30
0.0
 70
        32
  0
SEQEND
  5
F8
100
AcDbEntity
  8
_Y__________
  6
CONTINUOUS
 62
         7
  0
POLYLINE
  5
FA
100
AcDbEntity
  8
_Y__________
  6
CONTINUOUS
 62
         7
100
AcDb3dPolyline
 66
         1
 10
0.0
 20
0.0
 30
0.0
 70
         8
  0
VERTEX
  5
FC
100
AcDbEntity
  8
_Y__________
  6
CONTINUOUS
 62
         7
100
AcDbVertex
100
AcDb3dPolylineVertex
 10
1631.6828252464
 20
127.1072467136
 30
0.0
 70
        32
  0
VERTEX
  5
FE
100
AcDbEntity
  8
_Y__________
  6
CONTINUOUS
 62
         7
100
AcDbVertex
100
AcDb3dPolylineVertex
 10
1631.6828252464
 20
127.1072467136
 30
0.0
 70
        32
  0
SEQEND
  5
100
100
AcDbEntity
  8
_Y__________
  6
CONTINUOUS
 62
         7
  0
POLYLINE
  5
102
100
AcDbEntity
  8
_Y__________
  6
CONTINUOUS
 62
         7
100
AcDb3dPolyline
 66
         1
 10
0.0
 20
0.0
 30
0.0
 70
         8
  0
VERTEX
  5
104
100
AcDbEntity
  8
_Y__________
  6
CONTINUOUS
 62
         7
100
AcDbVertex
100
AcDb3dPolylineVertex
 10
1631.0440485577
 20
126.6858594165
 30
0.0
 70
        32
  0
VERTEX
  5
106
100
AcDbEntity
  8
_Y__________
  6
CONTINUOUS
 62
         7
100
AcDbVertex
100
AcDb3dPolylineVertex
 10
1631.0440485577
 20
126.6858594165
 30
0.0
 70
        32
  0
SEQEND
  5
108
100
AcDbEntity
  8
_Y__________
  6
CONTINUOUS
 62
         7
  0
POLYLINE
  5
10A
100
AcDbEntity
  8
_Y__________
  6
CONTINUOUS
 62
         7
100
AcDb3dPolyline
 66
         1
 10
0.0
 20
0.0
 30
0.0
 70
         8
  0
VERTEX
  5
10C
100
AcDbEntity
  8
_Y__________
  6
CONTINUOUS
 62
         7
100
AcDbVertex
100
AcDb3dPolylineVertex
 10
1630.5984823159
 20
125.9515705936
 30
0.0
 70
        32
  0
VERTEX
  5
10E
100
AcDbEntity
  8
_Y__________
  6
CONTINUOUS
 62
         7
100
AcDbVertex
100
AcDb3dPolylineVertex
 10
1630.5984823159
 20
125.9515705936
 30
0.0
 70
        32
  0
SEQEND
  5
110
100
AcDbEntity
  8
_Y__________
  6
CONTINUOUS
 62
         7
  0
POLYLINE
  5
112
100
AcDbEntity
  8
_Y__________
  6
CONTINUOUS
 62
         7
100
AcDb3dPolyline
 66
         1
 10
0.0
 20
0.0
 30
0.0
 70
         8
  0
VERTEX
  5
114
100
AcDbEntity
  8
_Y__________
  6
CONTINUOUS
 62
         7
100
AcDbVertex
100
AcDb3dPolylineVertex
 10
1630.4599679096
 20
125.0802224645
 30
0.0
 70
        32
  0
VERTEX
  5
116
100
AcDbEntity
  8
_Y__________
  6
CONTINUOUS
 62
         7
100
AcDbVertex
100
AcDb3dPolylineVertex
 10
1630.4599679096
 20
125.0802224645
 30
0.0
 70
        32
  0
SEQEND
  5
118
100
AcDbEntity
  8
_Y__________
  6
CONTINUOUS
 62
         7
  0
POLYLINE
  5
11A
100
AcDbEntity
  8
_Y__________
  6
CONTINUOUS
 62
         7
100
AcDb3dPolyline
 66
         1
 10
0.0
 20
0.0
 30
0.0
 70
         8
  0
VERTEX
  5
11C
100
AcDbEntity
  8
_Y__________
  6
CONTINUOUS
 62
         7
100
AcDbVertex
100
AcDb3dPolylineVertex
 10
1630.6384990045
 20
124.1289006815
 30
0.0
 70
        32
  0
VERTEX
  5
11E
100
AcDbEntity
  8
_Y__________
  6
CONTINUOUS
 62
         7
100
AcDbVertex
100
AcDb3dPolylineVertex
 10
1630.6384990045
 20
124.1289006815
 30
0.0
 70
        32
  0
SEQEND
  5
120
100
AcDbEntity
  8
_Y__________
  6
CONTINUOUS
 62
         7
  0
POLYLINE
  5
122
100
AcDbEntity
  8
_Y__________
  6
CONTINUOUS
 62
         7
100
AcDb3dPolyline
 66
         1
 10
0.0
 20
0.0
 30
0.0
 70
         8
  0
VERTEX
  5
124
100
AcDbEntity
  8
_Y__________
  6
CONTINUOUS
 62
         7
100
AcDbVertex
100
AcDb3dPolylineVertex
 10
1631.1132341062
 20
123.2853883403
 30
0.0
 70
        32
  0
VERTEX
  5
126
100
AcDbEntity
  8
_Y__________
  6
CONTINUOUS
 62
         7
100
AcDbVertex
100
AcDb3dPolylineVertex
 10
1631.1132341062
 20
123.2853883403
 30
0.0
 70
        32
  0
SEQEND
  5
128
100
AcDbEntity
  8
_Y__________
  6
CONTINUOUS
 62
         7
  0
POLYLINE
  5
12A
100
AcDbEntity
  8
_Y__________
  6
CONTINUOUS
 62
         7
100
AcDb3dPolyline
 66
         1
 10
0.0
 20
0.0
 30
0.0
 70
         8
  0
VERTEX
  5
12C
100
AcDbEntity
  8
_Y__________
  6
CONTINUOUS
 62
         7
100
AcDbVertex
100
AcDb3dPolylineVertex
 10
1631.7794340786
 20
122.7069322922
 30
0.0
 70
        32
  0
VERTEX
  5
12E
100
AcDbEntity
  8
_Y__________
  6
CONTINUOUS
 62
         7
100
AcDbVertex
100
AcDb3dPolylineVertex
 10
1631.7794340786
 20
122.7069322922
 30
0.0
 70
        32
  0
SEQEND
  5
130
100
AcDbEntity
  8
_Y__________
  6
CONTINUOUS
 62
         7
  0
POLYLINE
  5
132
100
AcDbEntity
  8
_Y__________
  6
CONTINUOUS
 62
         7
100
AcDb3dPolyline
 66
         1
 10
0.0
 20
0.0
 30
0.0
 70
         8
  0
VERTEX
  5
134
100
AcDbEntity
  8
_Y__________
  6
CONTINUOUS
 62
         7
100
AcDbVertex
100
AcDb3dPolylineVertex
 10
1632.5927493795
 20
122.4308388792
 30
0.0
 70
        32
  0
VERTEX
  5
136
100
AcDbEntity
  8
_Y__________
  6
CONTINUOUS
 62
         7
100
AcDbVertex
100
AcDb3dPolylineVertex
 10
1632.5927493795
 20
122.4308388792
 30
0.0
 70
        32
  0
SEQEND
  5
138
100
AcDbEntity
  8
_Y__________
  6
CONTINUOUS
 62
         7
  0
POLYLINE
  5
13A
100
AcDbEntity
  8
_Y__________
  6
CONTINUOUS
 62
         7
100
AcDb3dPolyline
 66
         1
 10
0.0
 20
0.0
 30
0.0
 70
         8
  0
VERTEX
  5
13C
100
AcDbEntity
  8
_Y__________
  6
CONTINUOUS
 62
         7
100
AcDbVertex
100
AcDb3dPolylineVertex
 10
1633.3529432457
 20
122.5186352228
 30
0.0
 70
        32
  0
VERTEX
  5
13E
100
AcDbEntity
  8
_Y__________
  6
CONTINUOUS
 62
         7
100
AcDbVertex
100
AcDb3dPolylineVertex
 10
1633.3529432457
 20
122.5186352228
 30
0.0
 70
        32
  0
SEQEND
  5
140
100
AcDbEntity
  8
_Y__________
  6
CONTINUOUS
 62
         7
  0
POLYLINE
  5
142
100
AcDbEntity
  8
_Y__________
  6
CONTINUOUS
 62
         7
100
AcDb3dPolyline
 66
         1
 10
0.0
 20
0.0
 30
0.0
 70
         8
  0
VERTEX
  5
144
100
AcDbEntity
  8
_Y__________
  6
CONTINUOUS
 62
         7
100
AcDbVertex
100
AcDb3dPolylineVertex
 10
1633.9917199344
 20
122.9400225198
 30
0.0
 70
        32
  0
VERTEX
  5
146
100
AcDbEntity
  8
_Y__________
  6
CONTINUOUS
 62
         7
100
AcDbVertex
100
AcDb3dPolylineVertex
 10
1633.9917199344
 20
122.9400225198
 30
0.0
 70
        32
  0
SEQEND
  5
148
100
AcDbEntity
  8
_Y__________
  6
CONTINUOUS
 62
         7
  0
POLYLINE
  5
14A
100
AcDbEntity
  8
_Y__________
  6
CONTINUOUS
 62
         7
100
AcDb3dPolyline
 66
         1
 10
0.0
 20
0.0
 30
0.0
 70
         8
  0
VERTEX
  5
14C
100
AcDbEntity
  8
_Y__________
  6
CONTINUOUS
 62
         7
100
AcDbVertex
100
AcDb3dPolylineVertex
 10
1634.4372861761
 20
123.6743113428
 30
0.0
 70
        32
  0
VERTEX
  5
14E
100
AcDbEntity
  8
_Y__________
  6
CONTINUOUS
 62
         7
100
AcDbVertex
100
AcDb3dPolylineVertex
 10
1634.4372861761
 20
123.6743113428
 30
0.0
 70
        32
  0
SEQEND
  5
150
100
AcDbEntity
  8
_Y__________
  6
CONTINUOUS
 62
         7
  0
LINE
  5
151
100
AcDbEntity
  8
_Y__________
  6
CENTER
 62
         1
100
AcDbLine
 10
1227.1031401709
 20
183.6483666388
 30
0.0
 11
1202.8730445027
 21
117.0767259189
 31
0.0
  0
LINE
  5
152
100
AcDbEntity
  8
_Y__________
  6
CENTER
 62
         1
100
AcDbLine
 10
1611.3895898921
 20
182.8624526172
 30
0.0
 11
1634.884398311
 21
118.3109970118
 31
0.0
  0
LINE
  5
153
100
AcDbEntity
  8
_Y__________
  6
DASHED
 62
         2
100
AcDbLine
 10
1617.0042459463
 20
173.2839206908
 30
0.0
 11
1615.5677613443
 21
177.2306296981
 31
0.0
  0
LINE
  5
154
100
AcDbEntity
  8
_Y__________
  6
DASHED
 62
         2
100
AcDbLine
 10
1613.2454754631
 20
171.9158401175
 30
0.0
 11
1611.8089908611
 21
175.8625491248
 31
0.0
  0
LINE
  5
155
100
AcDbEntity
  8
_Y__________
  6
DASHED
 62
         2
100
AcDbLine
 10
1616.675353529
 20
173.1642136406
 30
0.0
 11
1622.3315286556
 21
157.6240001996
 31
0.0
  0
LINE
  5
156
100
AcDbEntity
  8
_Y__________
  6
DASHED
 62
         2
100
AcDbLine
 10
1613.5743678804
 20
172.0355471676
 30
0.0
 11
1619.2305430071
 21
156.4953337266
 31
0.0
  0
LINE
  5
157
100
AcDbEntity
  8
_Y__________
  6
DASHED
 62
         2
100
AcDbLine
 10
1617.0042459463
 20
173.2839206908
 30
0.0
 11
1613.2454754631
 21
171.9158401175
 31
0.0
  0
LINE
  5
158
100
AcDbEntity
  8
_Y__________
  6
DASHED
 62
         2
100
AcDbLine
 10
1629.5624348063
 20
127.085362768
 30
0.0
 11
1630.9989194082
 21
123.1386537607
 31
0.0
  0
LINE
  5
159
100
AcDbEntity
  8
_Y__________
  6
DASHED
 62
         2
100
AcDbLine
 10
1633.3212052894
 20
128.4534433413
 30
0.0
 11
1629.5624348063
 21
127.085362768
 31
0.0
  0
LINE
  5
15A
100
AcDbEntity
  8
_Y__________
  6
DASHED
 62
         2
100
AcDbLine
 10
1633.3212052894
 20
128.4534433413
 30
0.0
 11
1634.7576898914
 21
124.506734334
 31
0.0
  0
LINE
  5
15B
100
AcDbEntity
  8
_Y__________
  6
DASHED
 62
         2
100
AcDbLine
 10
1627.3361377455
 20
143.8739497321
 30
0.0
 11
1632.9923128721
 21
128.3337362912
 31
0.0
  0
LINE
  5
15C
100
AcDbEntity
  8
_Y__________
  6
DASHED
 62
         2
100
AcDbLine
 10
1624.2351520969
 20
142.7452832592
 30
0.0
 11
1629.8913272235
 21
127.2050698182
 31
0.0
  0
LINE
  5
15D
100
AcDbEntity
  8
_Y__________
  6
CENTER
 62
         1
100
AcDbLine
 10
1226.9769621084
 20
174.5302820606
 30
0.0
 11
1221.3388063837
 21
176.5824029206
 31
0.0
  0
ARC
  5
15E
100
AcDbEntity
  8
_Y__________
  6
CONTINUOUS
 62
         7
100
AcDbCircle
 10
1225.071478058
 20
175.2238215369
 30
0.0
 40
2.9722262277
100
AcDbArc
 50
141.257725858
 51
160.0
  0
ARC
  5
15F
100
AcDbEntity
  8
_Y__________
  6
CONTINUOUS
 62
         7
100
AcDbCircle
 10
1224.6794007025
 20
175.5384099693
 30
0.0
 40
2.4695428935
100
AcDbArc
 50
120.6773100903
 51
141.257725858
  0
POLYLINE
  5
161
100
AcDbEntity
  8
_Y__________
  6
CONTINUOUS
 62
         7
100
AcDb3dPolyline
 66
         1
 10
0.0
 20
0.0
 30
0.0
 70
         8
  0
VERTEX
  5
163
100
AcDbEntity
  8
_Y__________
  6
CONTINUOUS
 62
         7
100
AcDbVertex
100
AcDb3dPolylineVertex
 10
1223.4194340786
 20
177.6623511666
 30
0.0
 70
        32
  0
VERTEX
  5
165
100
AcDbEntity
  8
_Y__________
  6
CONTINUOUS
 62
         7
100
AcDbVertex
100
AcDb3dPolylineVertex
 10
1223.4194340786
 20
177.6623511666
 30
0.0
 70
        32
  0
SEQEND
  5
167
100
AcDbEntity
  8
_Y__________
  6
CONTINUOUS
 62
         7
  0
ARC
  5
168
100
AcDbEntity
  8
_Y__________
  6
CONTINUOUS
 62
         7
100
AcDbCircle
 10
1224.4796621714
 20
175.8751116619
 30
0.0
 40
2.0780540551
100
AcDbArc
 50
96.8239621528
 51
120.6773100904
  0
POLYLINE
  5
16A
100
AcDbEntity
  8
_Y__________
  6
CONTINUOUS
 62
         7
100
AcDb3dPolyline
 66
         1
 10
0.0
 20
0.0
 30
0.0
 70
         8
  0
VERTEX
  5
16C
100
AcDbEntity
  8
_Y__________
  6
CONTINUOUS
 62
         7
100
AcDbVertex
100
AcDb3dPolylineVertex
 10
1224.2327493795
 20
177.9384445796
 30
0.0
 70
        32
  0
VERTEX
  5
16E
100
AcDbEntity
  8
_Y__________
  6
CONTINUOUS
 62
         7
100
AcDbVertex
100
AcDb3dPolylineVertex
 10
1224.2327493795
 20
177.9384445796
 30
0.0
 70
        32
  0
SEQEND
  5
170
100
AcDbEntity
  8
_Y__________
  6
CONTINUOUS
 62
         7
  0
ARC
  5
171
100
AcDbEntity
  8
_Y__________
  6
CONTINUOUS
 62
         7
100
AcDbCircle
 10
1224.4287518427
 20
176.3005450962
 30
0.0
 40
1.6495853065
100
AcDbArc
 50
70.0000000001
 51
96.8239621529
  0
POLYLINE
  5
173
100
AcDbEntity
  8
_Y__________
  6
CONTINUOUS
 62
         7
100
AcDb3dPolyline
 66
         1
 10
0.0
 20
0.0
 30
0.0
 70
         8
  0
VERTEX
  5
175
100
AcDbEntity
  8
_Y__________
  6
CONTINUOUS
 62
         7
100
AcDbVertex
100
AcDb3dPolylineVertex
 10
1224.9929432457
 20
177.850648236
 30
0.0
 70
        32
  0
VERTEX
  5
177
100
AcDbEntity
  8
_Y__________
  6
CONTINUOUS
 62
         7
100
AcDbVertex
100
AcDb3dPolylineVertex
 10
1224.9929432457
 20
177.850648236
 30
0.0
 70
        32
  0
SEQEND
  5
179
100
AcDbEntity
  8
_Y__________
  6
CONTINUOUS
 62
         7
  0
ARC
  5
17A
100
AcDbEntity
  8
_Y__________
  6
CONTINUOUS
 62
         7
100
AcDbCircle
 10
1224.4287518427
 20
176.3005450962
 30
0.0
 40
1.6495853065
100
AcDbArc
 50
43.1760378472
 51
70.0
  0
POLYLINE
  5
17C
100
AcDbEntity
  8
_Y__________
  6
CONTINUOUS
 62
         7
100
AcDb3dPolyline
 66
         1
 10
0.0
 20
0.0
 30
0.0
 70
         8
  0
VERTEX
  5
17E
100
AcDbEntity
  8
_Y__________
  6
CONTINUOUS
 62
         7
100
AcDbVertex
100
AcDb3dPolylineVertex
 10
1225.6317199344
 20
177.429260939
 30
0.0
 70
        32
  0
VERTEX
  5
180
100
AcDbEntity
  8
_Y__________
  6
CONTINUOUS
 62
         7
100
AcDbVertex
100
AcDb3dPolylineVertex
 10
1225.6317199344
 20
177.429260939
 30
0.0
 70
        32
  0
SEQEND
  5
182
100
AcDbEntity
  8
_Y__________
  6
CONTINUOUS
 62
         7
  0
ARC
  5
183
100
AcDbEntity
  8
_Y__________
  6
CONTINUOUS
 62
         7
100
AcDbCircle
 10
1224.1162889281
 20
176.0073687064
 30
0.0
 40
2.0780540551
100
AcDbArc
 50
19.3226899096
 51
43.1760378472
  0
POLYLINE
  5
185
100
AcDbEntity
  8
_Y__________
  6
CONTINUOUS
 62
         7
100
AcDb3dPolyline
 66
         1
 10
0.0
 20
0.0
 30
0.0
 70
         8
  0
VERTEX
  5
187
100
AcDbEntity
  8
_Y__________
  6
CONTINUOUS
 62
         7
100
AcDbVertex
100
AcDb3dPolylineVertex
 10
1226.0772861762
 20
176.694972116
 30
0.0
 70
        32
  0
VERTEX
  5
189
100
AcDbEntity
  8
_Y__________
  6
CONTINUOUS
 62
         7
100
AcDbVertex
100
AcDb3dPolylineVertex
 10
1226.0772861762
 20
176.694972116
 30
0.0
 70
        32
  0
SEQEND
  5
18B
100
AcDbEntity
  8
_Y__________
  6
CONTINUOUS
 62
         7
  0
ARC
  5
18C
100
AcDbEntity
  8
_Y__________
  6
CONTINUOUS
 62
         7
100
AcDbCircle
 10
1223.7468526601
 20
175.8778296988
 30
0.0
 40
2.4695428935
100
AcDbArc
 50
358.742274142
 51
379.3226899097
  0
POLYLINE
  5
18E
100
AcDbEntity
  8
_Y__________
  6
CONTINUOUS
 62
         7
100
AcDb3dPolyline
 66
         1
 10
0.0
 20
0.0
 30
0.0
 70
         8
  0
VERTEX
  5
190
100
AcDbEntity
  8
_Y__________
  6
CONTINUOUS
 62
         7
100
AcDbVertex
100
AcDb3dPolylineVertex
 10
1226.2158005825
 20
175.823623987
 30
0.0
 70
        32
  0
VERTEX
  5
192
100
AcDbEntity
  8
_Y__________
  6
CONTINUOUS
 62
         7
100
AcDbVertex
100
AcDb3dPolylineVertex
 10
1226.2158005825
 20
175.823623987
 30
0.0
 70
        32
  0
SEQEND
  5
194
100
AcDbEntity
  8
_Y__________
  6
CONTINUOUS
 62
         7
  0
ARC
  5
195
100
AcDbEntity
  8
_Y__________
  6
CONTINUOUS
 62
         7
100
AcDbCircle
 10
1223.2442904341
 20
175.8888634444
 30
0.0
 40
2.9722262277
100
AcDbArc
 50
339.9999999999
 51
358.742274142
  0
POLYLINE
  5
197
100
AcDbEntity
  8
_Y__________
  6
CONTINUOUS
 62
         7
100
AcDb3dPolyline
 66
         1
 10
0.0
 20
0.0
 30
0.0
 70
         8
  0
VERTEX
  5
199
100
AcDbEntity
  8
_Y__________
  6
CONTINUOUS
 62
         7
100
AcDbVertex
100
AcDb3dPolylineVertex
 10
1226.0372694876
 20
174.872302204
 30
0.0
 70
        32
  0
VERTEX
  5
19B
100
AcDbEntity
  8
_Y__________
  6
CONTINUOUS
 62
         7
100
AcDbVertex
100
AcDb3dPolylineVertex
 10
1226.0372694876
 20
174.872302204
 30
0.0
 70
        32
  0
SEQEND
  5
19D
100
AcDbEntity
  8
_Y__________
  6
CONTINUOUS
 62
         7
  0
ARC
  5
19E
100
AcDbEntity
  8
_Y__________
  6
CONTINUOUS
 62
         7
100
AcDbCircle
 10
1223.2442904341
 20
175.8888634444
 30
0.0
 40
2.9722262277
100
AcDbArc
 50
321.257725858
 51
340.0
  0
POLYLINE
  5
1A0
100
AcDbEntity
  8
_Y__________
  6
CONTINUOUS
 62
         7
100
AcDb3dPolyline
 66
         1
 10
0.0
 20
0.0
 30
0.0
 70
         8
  0
VERTEX
  5
1A2
100
AcDbEntity
  8
_Y__________
  6
CONTINUOUS
 62
         7
100
AcDbVertex
100
AcDb3dPolylineVertex
 10
1225.5625343858
 20
174.0287898627
 30
0.0
 70
        32
  0
VERTEX
  5
1A4
100
AcDbEntity
  8
_Y__________
  6
CONTINUOUS
 62
         7
100
AcDbVertex
100
AcDb3dPolylineVertex
 10
1225.5625343858
 20
174.0287898627
 30
0.0
 70
        32
  0
SEQEND
  5
1A6
100
AcDbEntity
  8
_Y__________
  6
CONTINUOUS
 62
         7
  0
ARC
  5
1A7
100
AcDbEntity
  8
_Y__________
  6
CONTINUOUS
 62
         7
100
AcDbCircle
 10
1223.6363677896
 20
175.5742750119
 30
0.0
 40
2.4695428935
100
AcDbArc
 50
300.6773100903
 51
321.257725858
  0
POLYLINE
  5
1A9
100
AcDbEntity
  8
_Y__________
  6
CONTINUOUS
 62
         7
100
AcDb3dPolyline
 66
         1
 10
0.0
 20
0.0
 30
0.0
 70
         8
  0
VERTEX
  5
1AB
100
AcDbEntity
  8
_Y__________
  6
CONTINUOUS
 62
         7
100
AcDbVertex
100
AcDb3dPolylineVertex
 10
1224.8963344135
 20
173.4503338146
 30
0.0
 70
        32
  0
VERTEX
  5
1AD
100
AcDbEntity
  8
_Y__________
  6
CONTINUOUS
 62
         7
100
AcDbVertex
100
AcDb3dPolylineVertex
 10
1224.8963344135
 20
173.4503338146
 30
0.0
 70
        32
  0
SEQEND
  5
1AF
100
AcDbEntity
  8
_Y__________
  6
CONTINUOUS
 62
         7
  0
ARC
  5
1B0
100
AcDbEntity
  8
_Y__________
  6
CONTINUOUS
 62
         7
100
AcDbCircle
 10
1223.8361063207
 20
175.2375733193
 30
0.0
 40
2.0780540551
100
AcDbArc
 50
276.8239621528
 51
300.6773100904
  0
POLYLINE
  5
1B2
100
AcDbEntity
  8
_Y__________
  6
CONTINUOUS
 62
         7
100
AcDb3dPolyline
 66
         1
 10
0.0
 20
0.0
 30
0.0
 70
         8
  0
VERTEX
  5
1B4
100
AcDbEntity
  8
_Y__________
  6
CONTINUOUS
 62
         7
100
AcDbVertex
100
AcDb3dPolylineVertex
 10
1224.0830191126
 20
173.1742404017
 30
0.0
 70
        32
  0
VERTEX
  5
1B6
100
AcDbEntity
  8
_Y__________
  6
CONTINUOUS
 62
         7
100
AcDbVertex
100
AcDb3dPolylineVertex
 10
1224.0830191126
 20
173.1742404017
 30
0.0
 70
        32
  0
SEQEND
  5
1B8
100
AcDbEntity
  8
_Y__________
  6
CONTINUOUS
 62
         7
  0
ARC
  5
1B9
100
AcDbEntity
  8
_Y__________
  6
CONTINUOUS
 62
         7
100
AcDbCircle
 10
1223.8870166494
 20
174.8121398851
 30
0.0
 40
1.6495853065
100
AcDbArc
 50
250.0
 51
276.8239621528
  0
POLYLINE
  5
1BB
100
AcDbEntity
  8
_Y__________
  6
CONTINUOUS
 62
         7
100
AcDb3dPolyline
 66
         1
 10
0.0
 20
0.0
 30
0.0
 70
         8
  0
VERTEX
  5
1BD
100
AcDbEntity
  8
_Y__________
  6
CONTINUOUS
 62
         7
100
AcDbVertex
100
AcDb3dPolylineVertex
 10
1223.3228252464
 20
173.2620367452
 30
0.0
 70
        32
  0
VERTEX
  5
1BF
100
AcDbEntity
  8
_Y__________
  6
CONTINUOUS
 62
         7
100
AcDbVertex
100
AcDb3dPolylineVertex
 10
1223.3228252464
 20
173.2620367452
 30
0.0
 70
        32
  0
SEQEND
  5
1C1
100
AcDbEntity
  8
_Y__________
  6
CONTINUOUS
 62
         7
  0
ARC
  5
1C2
100
AcDbEntity
  8
_Y__________
  6
CONTINUOUS
 62
         7
100
AcDbCircle
 10
1223.8870166494
 20
174.8121398851
 30
0.0
 40
1.6495853065
100
AcDbArc
 50
223.1760378472
 51
249.9999999999
  0
POLYLINE
  5
1C4
100
AcDbEntity
  8
_Y__________
  6
CONTINUOUS
 62
         7
100
AcDb3dPolyline
 66
         1
 10
0.0
 20
0.0
 30
0.0
 70
         8
  0
VERTEX
  5
1C6
100
AcDbEntity
  8
_Y__________
  6
CONTINUOUS
 62
         7
100
AcDbVertex
100
AcDb3dPolylineVertex
 10
1222.6840485577
 20
173.6834240423
 30
0.0
 70
        32
  0
VERTEX
  5
1C8
100
AcDbEntity
  8
_Y__________
  6
CONTINUOUS
 62
         7
100
AcDbVertex
100
AcDb3dPolylineVertex
 10
1222.6840485577
 20
173.6834240423
 30
0.0
 70
        32
  0
SEQEND
  5
1CA
100
AcDbEntity
  8
_Y__________
  6
CONTINUOUS
 62
         7
  0
ARC
  5
1CB
100
AcDbEntity
  8
_Y__________
  6
CONTINUOUS
 62
         7
100
AcDbCircle
 10
1224.199479564
 20
175.1053162748
 30
0.0
 40
2.0780540551
100
AcDbArc
 50
199.3226899097
 51
223.1760378473
  0
POLYLINE
  5
1CD
100
AcDbEntity
  8
_Y__________
  6
CONTINUOUS
 62
         7
100
AcDb3dPolyline
 66
         1
 10
0.0
 20
0.0
 30
0.0
 70
         8
  0
VERTEX
  5
1CF
100
AcDbEntity
  8
_Y__________
  6
CONTINUOUS
 62
         7
100
AcDbVertex
100
AcDb3dPolylineVertex
 10
1222.2384823159
 20
174.4177128652
 30
0.0
 70
        32
  0
VERTEX
  5
1D1
100
AcDbEntity
  8
_Y__________
  6
CONTINUOUS
 62
         7
100
AcDbVertex
100
AcDb3dPolylineVertex
 10
1222.2384823159
 20
174.4177128652
 30
0.0
 70
        32
  0
SEQEND
  5
1D3
100
AcDbEntity
  8
_Y__________
  6
CONTINUOUS
 62
         7
  0
ARC
  5
1D4
100
AcDbEntity
  8
_Y__________
  6
CONTINUOUS
 62
         7
100
AcDbCircle
 10
1224.568915832
 20
175.2348552824
 30
0.0
 40
2.4695428935
100
AcDbArc
 50
178.7422741421
 51
199.3226899097
  0
POLYLINE
  5
1D6
100
AcDbEntity
  8
_Y__________
  6
CONTINUOUS
 62
         7
100
AcDb3dPolyline
 66
         1
 10
0.0
 20
0.0
 30
0.0
 70
         8
  0
VERTEX
  5
1D8
100
AcDbEntity
  8
_Y__________
  6
CONTINUOUS
 62
         7
100
AcDbVertex
100
AcDb3dPolylineVertex
 10
1222.0999679096
 20
175.2890609943
 30
0.0
 70
        32
  0
VERTEX
  5
1DA
100
AcDbEntity
  8
_Y__________
  6
CONTINUOUS
 62
         7
100
AcDbVertex
100
AcDb3dPolylineVertex
 10
1222.0999679096
 20
175.2890609943
 30
0.0
 70
        32
  0
SEQEND
  5
1DC
100
AcDbEntity
  8
_Y__________
  6
CONTINUOUS
 62
         7
  0
ARC
  5
1DD
100
AcDbEntity
  8
_Y__________
  6
CONTINUOUS
 62
         7
100
AcDbCircle
 10
1225.071478058
 20
175.2238215369
 30
0.0
 40
2.9722262277
100
AcDbArc
 50
160.0
 51
178.7422741421
  0
POLYLINE
  5
1DF
100
AcDbEntity
  8
_Y__________
  6
CONTINUOUS
 62
         7
100
AcDb3dPolyline
 66
         1
 10
0.0
 20
0.0
 30
0.0
 70
         8
  0
VERTEX
  5
1E1
100
AcDbEntity
  8
_Y__________
  6
CONTINUOUS
 62
         7
100
AcDbVertex
100
AcDb3dPolylineVertex
 10
1222.2784990045
 20
176.2403827773
 30
0.0
 70
        32
  0
VERTEX
  5
1E3
100
AcDbEntity
  8
_Y__________
  6
CONTINUOUS
 62
         7
100
AcDbVertex
100
AcDb3dPolylineVertex
 10
1222.2784990045
 20
176.2403827773
 30
0.0
 70
        32
  0
SEQEND
  5
1E5
100
AcDbEntity
  8
_Y__________
  6
CONTINUOUS
 62
         7
  0
ARC
  5
1E6
100
AcDbEntity
  8
_Y__________
  6
CONTINUOUS
 62
         7
100
AcDbCircle
 10
1205.6472011885
 20
125.263967184
 30
0.0
 40
2.0780540551
100
AcDbArc
 50
19.3226899096
 51
43.1760378472
  0
ARC
  5
1E7
100
AcDbEntity
  8
_Y__________
  6
CONTINUOUS
 62
         7
100
AcDbCircle
 10
1205.2777649205
 20
125.1344281764
 30
0.0
 40
2.4695428935
100
AcDbArc
 50
358.742274142
 51
379.3226899097
  0
ARC
  5
1E8
100
AcDbEntity
  8
_Y__________
  6
CONTINUOUS
 62
         7
100
AcDbCircle
 10
1206.6023903184
 20
124.4804200144
 30
0.0
 40
2.9722262277
100
AcDbArc
 50
160.0
 51
178.742274142
  0
ARC
  5
1E9
100
AcDbEntity
  8
_Y__________
  6
CONTINUOUS
 62
         7
100
AcDbCircle
 10
1206.0998280924
 20
124.49145376
 30
0.0
 40
2.4695428935
100
AcDbArc
 50
178.742274142
 51
199.3226899096
  0
ARC
  5
1EA
100
AcDbEntity
  8
_Y__________
  6
CONTINUOUS
 62
         7
100
AcDbCircle
 10
1205.7303918245
 20
124.3619147524
 30
0.0
 40
2.0780540551
100
AcDbArc
 50
199.3226899096
 51
223.1760378473
  0
POLYLINE
  5
1EC
100
AcDbEntity
  8
_Y__________
  6
CONTINUOUS
 62
         7
100
AcDb3dPolyline
 66
         1
 10
0.0
 20
0.0
 30
0.0
 70
         8
  0
VERTEX
  5
1EE
100
AcDbEntity
  8
_Y__________
  6
CONTINUOUS
 62
         7
100
AcDbVertex
100
AcDb3dPolylineVertex
 10
1204.2149608181
 20
122.9400225198
 30
0.0
 70
        32
  0
VERTEX
  5
1F0
100
AcDbEntity
  8
_Y__________
  6
CONTINUOUS
 62
         7
100
AcDbVertex
100
AcDb3dPolylineVertex
 10
1204.2149608181
 20
122.9400225198
 30
0.0
 70
        32
  0
SEQEND
  5
1F2
100
AcDbEntity
  8
_Y__________
  6
CONTINUOUS
 62
         7
  0
ARC
  5
1F3
100
AcDbEntity
  8
_Y__________
  6
CONTINUOUS
 62
         7
100
AcDbCircle
 10
1205.4179289098
 20
124.0687383626
 30
0.0
 40
1.6495853065
100
AcDbArc
 50
223.1760378472
 51
250.0
  0
POLYLINE
  5
1F5
100
AcDbEntity
  8
_Y__________
  6
CONTINUOUS
 62
         7
100
AcDb3dPolyline
 66
         1
 10
0.0
 20
0.0
 30
0.0
 70
         8
  0
VERTEX
  5
1F7
100
AcDbEntity
  8
_Y__________
  6
CONTINUOUS
 62
         7
100
AcDbVertex
100
AcDb3dPolylineVertex
 10
1204.8537375068
 20
122.5186352228
 30
0.0
 70
        32
  0
VERTEX
  5
1F9
100
AcDbEntity
  8
_Y__________
  6
CONTINUOUS
 62
         7
100
AcDbVertex
100
AcDb3dPolylineVertex
 10
1204.8537375068
 20
122.5186352228
 30
0.0
 70
        32
  0
SEQEND
  5
1FB
100
AcDbEntity
  8
_Y__________
  6
CONTINUOUS
 62
         7
  0
ARC
  5
1FC
100
AcDbEntity
  8
_Y__________
  6
CONTINUOUS
 62
         7
100
AcDbCircle
 10
1205.4179289098
 20
124.0687383626
 30
0.0
 40
1.6495853065
100
AcDbArc
 50
250.0
 51
276.8239621528
  0
POLYLINE
  5
1FE
100
AcDbEntity
  8
_Y__________
  6
CONTINUOUS
 62
         7
100
AcDb3dPolyline
 66
         1
 10
0.0
 20
0.0
 30
0.0
 70
         8
  0
VERTEX
  5
200
100
AcDbEntity
  8
_Y__________
  6
CONTINUOUS
 62
         7
100
AcDbVertex
100
AcDb3dPolylineVertex
 10
1205.6139313731
 20
122.4308388792
 30
0.0
 70
        32
  0
VERTEX
  5
202
100
AcDbEntity
  8
_Y__________
  6
CONTINUOUS
 62
         7
100
AcDbVertex
100
AcDb3dPolylineVertex
 10
1205.6139313731
 20
122.4308388792
 30
0.0
 70
        32
  0
SEQEND
  5
204
100
AcDbEntity
  8
_Y__________
  6
CONTINUOUS
 62
         7
  0
ARC
  5
205
100
AcDbEntity
  8
_Y__________
  6
CONTINUOUS
 62
         7
100
AcDbCircle
 10
1205.3670185811
 20
124.4941717969
 30
0.0
 40
2.0780540551
100
AcDbArc
 50
276.8239621528
 51
300.6773100903
  0
POLYLINE
  5
207
100
AcDbEntity
  8
_Y__________
  6
CONTINUOUS
 62
         7
100
AcDb3dPolyline
 66
         1
 10
0.0
 20
0.0
 30
0.0
 70
         8
  0
VERTEX
  5
209
100
AcDbEntity
  8
_Y__________
  6
CONTINUOUS
 62
         7
100
AcDbVertex
100
AcDb3dPolylineVertex
 10
1206.4272466739
 20
122.7069322922
 30
0.0
 70
        32
  0
VERTEX
  5
20B
100
AcDbEntity
  8
_Y__________
  6
CONTINUOUS
 62
         7
100
AcDbVertex
100
AcDb3dPolylineVertex
 10
1206.4272466739
 20
122.7069322922
 30
0.0
 70
        32
  0
SEQEND
  5
20D
100
AcDbEntity
  8
_Y__________
  6
CONTINUOUS
 62
         7
  0
ARC
  5
20E
100
AcDbEntity
  8
_Y__________
  6
CONTINUOUS
 62
         7
100
AcDbCircle
 10
1205.16728005
 20
124.8308734895
 30
0.0
 40
2.4695428935
100
AcDbArc
 50
300.6773100904
 51
321.2577258581
  0
POLYLINE
  5
210
100
AcDbEntity
  8
_Y__________
  6
CONTINUOUS
 62
         7
100
AcDb3dPolyline
 66
         1
 10
0.0
 20
0.0
 30
0.0
 70
         8
  0
VERTEX
  5
212
100
AcDbEntity
  8
_Y__________
  6
CONTINUOUS
 62
         7
100
AcDbVertex
100
AcDb3dPolylineVertex
 10
1207.0934466463
 20
123.2853883403
 30
0.0
 70
        32
  0
VERTEX
  5
214
100
AcDbEntity
  8
_Y__________
  6
CONTINUOUS
 62
         7
100
AcDbVertex
100
AcDb3dPolylineVertex
 10
1207.0934466463
 20
123.2853883403
 30
0.0
 70
        32
  0
SEQEND
  5
216
100
AcDbEntity
  8
_Y__________
  6
CONTINUOUS
 62
         7
  0
ARC
  5
217
100
AcDbEntity
  8
_Y__________
  6
CONTINUOUS
 62
         7
100
AcDbCircle
 10
1204.7752026945
 20
125.1454619219
 30
0.0
 40
2.9722262277
100
AcDbArc
 50
321.257725858
 51
340.0
  0
POLYLINE
  5
219
100
AcDbEntity
  8
_Y__________
  6
CONTINUOUS
 62
         7
100
AcDb3dPolyline
 66
         1
 10
0.0
 20
0.0
 30
0.0
 70
         8
  0
VERTEX
  5
21B
100
AcDbEntity
  8
_Y__________
  6
CONTINUOUS
 62
         7
100
AcDbVertex
100
AcDb3dPolylineVertex
 10
1207.568181748
 20
124.1289006815
 30
0.0
 70
        32
  0
VERTEX
  5
21D
100
AcDbEntity
  8
_Y__________
  6
CONTINUOUS
 62
         7
100
AcDbVertex
100
AcDb3dPolylineVertex
 10
1207.568181748
 20
124.1289006815
 30
0.0
 70
        32
  0
SEQEND
  5
21F
100
AcDbEntity
  8
_Y__________
  6
CONTINUOUS
 62
         7
  0
ARC
  5
220
100
AcDbEntity
  8
_Y__________
  6
CONTINUOUS
 62
         7
100
AcDbCircle
 10
1204.7752026945
 20
125.1454619219
 30
0.0
 40
2.9722262277
100
AcDbArc
 50
339.9999999999
 51
358.742274142
  0
POLYLINE
  5
222
100
AcDbEntity
  8
_Y__________
  6
CONTINUOUS
 62
         7
100
AcDb3dPolyline
 66
         1
 10
0.0
 20
0.0
 30
0.0
 70
         8
  0
VERTEX
  5
224
100
AcDbEntity
  8
_Y__________
  6
CONTINUOUS
 62
         7
100
AcDbVertex
100
AcDb3dPolylineVertex
 10
1207.7467128429
 20
125.0802224645
 30
0.0
 70
        32
  0
VERTEX
  5
226
100
AcDbEntity
  8
_Y__________
  6
CONTINUOUS
 62
         7
100
AcDbVertex
100
AcDb3dPolylineVertex
 10
1207.7467128429
 20
125.0802224645
 30
0.0
 70
        32
  0
SEQEND
  5
228
100
AcDbEntity
  8
_Y__________
  6
CONTINUOUS
 62
         7
  0
POLYLINE
  5
22A
100
AcDbEntity
  8
_Y__________
  6
CONTINUOUS
 62
         7
100
AcDb3dPolyline
 66
         1
 10
0.0
 20
0.0
 30
0.0
 70
         8
  0
VERTEX
  5
22C
100
AcDbEntity
  8
_Y__________
  6
CONTINUOUS
 62
         7
100
AcDbVertex
100
AcDb3dPolylineVertex
 10
1207.1626321948
 20
126.6858594165
 30
0.0
 70
        32
  0
VERTEX
  5
22E
100
AcDbEntity
  8
_Y__________
  6
CONTINUOUS
 62
         7
100
AcDbVertex
100
AcDb3dPolylineVertex
 10
1207.1626321948
 20
126.6858594165
 30
0.0
 70
        32
  0
SEQEND
  5
230
100
AcDbEntity
  8
_Y__________
  6
CONTINUOUS
 62
         7
  0
ARC
  5
231
100
AcDbEntity
  8
_Y__________
  6
CONTINUOUS
 62
         7
100
AcDbCircle
 10
1205.9596641031
 20
125.5571435737
 30
0.0
 40
1.6495853065
100
AcDbArc
 50
43.1760378472
 51
70.0
  0
POLYLINE
  5
233
100
AcDbEntity
  8
_Y__________
  6
CONTINUOUS
 62
         7
100
AcDb3dPolyline
 66
         1
 10
0.0
 20
0.0
 30
0.0
 70
         8
  0
VERTEX
  5
235
100
AcDbEntity
  8
_Y__________
  6
CONTINUOUS
 62
         7
100
AcDbVertex
100
AcDb3dPolylineVertex
 10
1206.5238555061
 20
127.1072467136
 30
0.0
 70
        32
  0
VERTEX
  5
237
100
AcDbEntity
  8
_Y__________
  6
CONTINUOUS
 62
         7
100
AcDbVertex
100
AcDb3dPolylineVertex
 10
1206.5238555061
 20
127.1072467136
 30
0.0
 70
        32
  0
SEQEND
  5
239
100
AcDbEntity
  8
_Y__________
  6
CONTINUOUS
 62
         7
  0
ARC
  5
23A
100
AcDbEntity
  8
_Y__________
  6
CONTINUOUS
 62
         7
100
AcDbCircle
 10
1205.9596641031
 20
125.5571435737
 30
0.0
 40
1.6495853065
100
AcDbArc
 50
70.0
 51
96.8239621528
  0
ARC
  5
23B
100
AcDbEntity
  8
_Y__________
  6
CONTINUOUS
 62
         7
100
AcDbCircle
 10
1206.0105744318
 20
125.1317101395
 30
0.0
 40
2.0780540551
100
AcDbArc
 50
96.8239621528
 51
120.6773100904
  0
POLYLINE
  5
23D
100
AcDbEntity
  8
_Y__________
  6
CONTINUOUS
 62
         7
100
AcDb3dPolyline
 66
         1
 10
0.0
 20
0.0
 30
0.0
 70
         8
  0
VERTEX
  5
23F
100
AcDbEntity
  8
_Y__________
  6
CONTINUOUS
 62
         7
100
AcDbVertex
100
AcDb3dPolylineVertex
 10
1204.950346339
 20
126.9189496442
 30
0.0
 70
        32
  0
VERTEX
  5
241
100
AcDbEntity
  8
_Y__________
  6
CONTINUOUS
 62
         7
100
AcDbVertex
100
AcDb3dPolylineVertex
 10
1204.950346339
 20
126.9189496442
 30
0.0
 70
        32
  0
SEQEND
  5
243
100
AcDbEntity
  8
_Y__________
  6
CONTINUOUS
 62
         7
  0
ARC
  5
244
100
AcDbEntity
  8
_Y__________
  6
CONTINUOUS
 62
         7
100
AcDbCircle
 10
1206.2103129629
 20
124.7950084469
 30
0.0
 40
2.4695428935
100
AcDbArc
 50
120.6773100904
 51
141.257725858
  0
POLYLINE
  5
246
100
AcDbEntity
  8
_Y__________
  6
CONTINUOUS
 62
         7
100
AcDb3dPolyline
 66
         1
 10
0.0
 20
0.0
 30
0.0
 70
         8
  0
VERTEX
  5
248
100
AcDbEntity
  8
_Y__________
  6
CONTINUOUS
 62
         7
100
AcDbVertex
100
AcDb3dPolylineVertex
 10
1204.2841463667
 20
126.340493596
 30
0.0
 70
        32
  0
VERTEX
  5
24A
100
AcDbEntity
  8
_Y__________
  6
CONTINUOUS
 62
         7
100
AcDbVertex
100
AcDb3dPolylineVertex
 10
1204.2841463667
 20
126.340493596
 30
0.0
 70
        32
  0
SEQEND
  5
24C
100
AcDbEntity
  8
_Y__________
  6
CONTINUOUS
 62
         7
  0
ARC
  5
24D
100
AcDbEntity
  8
_Y__________
  6
CONTINUOUS
 62
         7
100
AcDbCircle
 10
1206.6023903184
 20
124.4804200144
 30
0.0
 40
2.9722262277
100
AcDbArc
 50
141.257725858
 51
160.0
  0
POLYLINE
  5
24F
100
AcDbEntity
  8
_Y__________
  6
CONTINUOUS
 62
         7
100
AcDb3dPolyline
 66
         1
 10
0.0
 20
0.0
 30
0.0
 70
         8
  0
VERTEX
  5
251
100
AcDbEntity
  8
_Y__________
  6
CONTINUOUS
 62
         7
100
AcDbVertex
100
AcDb3dPolylineVertex
 10
1203.8094112649
 20
125.4969812548
 30
0.0
 70
        32
  0
VERTEX
  5
253
100
AcDbEntity
  8
_Y__________
  6
CONTINUOUS
 62
         7
100
AcDbVertex
100
AcDb3dPolylineVertex
 10
1203.8094112649
 20
125.4969812548
 30
0.0
 70
        32
  0
SEQEND
  5
255
100
AcDbEntity
  8
_Y__________
  6
CONTINUOUS
 62
         7
  0
LINE
  5
256
100
AcDbEntity
  8
_Y__________
  6
CENTER
 62
         1
100
AcDbLine
 10
1208.5078743688
 20
123.7868805382
 30
0.0
 11
1202.8697186441
 21
125.8390013981
 31
0.0
  0
LINE
  5
257
100
AcDbEntity
  8
_Y__________
  6
CONTINUOUS
 62
         7
100
AcDbLine
 10
1414.639610775
 20
141.3346417294
 30
0.0
 11
1414.639610775
 21
118.4096417294
 31
0.0
  0
LINE
  5
258
100
AcDbEntity
  8
_Y__________
  6
CONTINUOUS
 62
         7
100
AcDbLine
 10
1412.9783403763
 20
142.1346417294
 30
0.0
 11
1412.9783403763
 21
121.2870464652
 31
0.0
  0
LINE
  5
259
100
AcDbEntity
  8
_Y__________
  6
CONTINUOUS
 62
         7
100
AcDbLine
 10
1409.2283403763
 20
142.1346417294
 30
0.0
 11
1409.2283403763
 21
121.2870464652
 31
0.0
  0
LINE
  5
25A
100
AcDbEntity
  8
_Y__________
  6
CONTINUOUS
 62
         7
100
AcDbLine
 10
1407.5670699775
 20
141.3346417294
 30
0.0
 11
1407.5670699775
 21
118.4096417294
 31
0.0
  0
LINE
  5
25B
100
AcDbEntity
  8
_Y__________
  6
CONTINUOUS
 62
         7
100
AcDbLine
 10
1419.1033403763
 20
159.0346417294
 30
0.0
 11
1414.639610775
 21
159.0346417294
 31
0.0
  0
LINE
  5
25C
100
AcDbEntity
  8
_Y__________
  6
CONTINUOUS
 62
         7
100
AcDbLine
 10
1412.9783403763
 20
158.2346417294
 30
0.0
 11
1414.639610775
 21
159.0346417294
 31
0.0
  0
LINE
  5
25D
100
AcDbEntity
  8
_Y__________
  6
CONTINUOUS
 62
         7
100
AcDbLine
 10
1419.1033403763
 20
159.0346417294
 30
0.0
 11
1418.3033403763
 21
158.2346417294
 31
0.0
  0
LINE
  5
25E
100
AcDbEntity
  8
_Y__________
  6
CONTINUOUS
 62
         7
100
AcDbLine
 10
1412.9783403763
 20
142.1346417294
 30
0.0
 11
1414.639610775
 21
141.3346417294
 31
0.0
  0
LINE
  5
25F
100
AcDbEntity
  8
_Y__________
  6
CONTINUOUS
 62
         7
100
AcDbLine
 10
1418.3033403763
 20
142.1346417294
 30
0.0
 11
1419.1033403763
 21
141.3346417294
 31
0.0
  0
LINE
  5
260
100
AcDbEntity
  8
_Y__________
  6
CONTINUOUS
 62
         7
100
AcDbLine
 10
1419.1033403763
 20
141.3346417294
 30
0.0
 11
1414.639610775
 21
141.3346417294
 31
0.0
  0
LINE
  5
261
100
AcDbEntity
  8
_Y__________
  6
CONTINUOUS
 62
         7
100
AcDbLine
 10
1418.3033403763
 20
158.2346417294
 30
0.0
 11
1418.3033403763
 21
156.7156878822
 31
0.0
  0
LINE
  5
262
100
AcDbEntity
  8
_Y__________
  6
CONTINUOUS
 62
         7
100
AcDbLine
 10
1407.5670699775
 20
159.0346417294
 30
0.0
 11
1403.2033403763
 21
159.0346417294
 31
0.0
  0
LINE
  5
263
100
AcDbEntity
  8
_Y__________
  6
CONTINUOUS
 62
         7
100
AcDbLine
 10
1403.2033403763
 20
159.0346417294
 30
0.0
 11
1404.0033403763
 21
158.2346417294
 31
0.0
  0
LINE
  5
264
100
AcDbEntity
  8
_Y__________
  6
CONTINUOUS
 62
         7
100
AcDbLine
 10
1404.0033403763
 20
142.1346417294
 30
0.0
 11
1403.2033403763
 21
141.3346417294
 31
0.0
  0
LINE
  5
265
100
AcDbEntity
  8
_Y__________
  6
CONTINUOUS
 62
         7
100
AcDbLine
 10
1407.5670699775
 20
141.3346417294
 30
0.0
 11
1403.2033403763
 21
141.3346417294
 31
0.0
  0
LINE
  5
266
100
AcDbEntity
  8
_Y__________
  6
CONTINUOUS
 62
         7
100
AcDbLine
 10
1404.0033403763
 20
158.2346417294
 30
0.0
 11
1404.0033403763
 21
142.1346417294
 31
0.0
  0
LINE
  5
267
100
AcDbEntity
  8
_Y__________
  6
CONTINUOUS
 62
         7
100
AcDbLine
 10
1407.5670699775
 20
141.3346417294
 30
0.0
 11
1409.2283403763
 21
142.1346417294
 31
0.0
  0
LINE
  5
268
100
AcDbEntity
  8
_Y__________
  6
CONTINUOUS
 62
         7
100
AcDbLine
 10
1407.5670699775
 20
159.0346417294
 30
0.0
 11
1409.2283403763
 21
158.2346417294
 31
0.0
  0
LINE
  5
269
100
AcDbEntity
  8
_Y__________
  6
CONTINUOUS
 62
         7
100
AcDbLine
 10
1418.3033403763
 20
142.1346417294
 30
0.0
 11
1404.0033403763
 21
142.1346417294
 31
0.0
  0
LINE
  5
26A
100
AcDbEntity
  8
_Y__________
  6
CONTINUOUS
 62
         7
100
AcDbLine
 10
1418.3033403763
 20
158.2346417294
 30
0.0
 11
1404.0033403763
 21
158.2346417294
 31
0.0
  0
LINE
  5
26B
100
AcDbEntity
  8
_Y__________
  6
CONTINUOUS
 62
         7
100
AcDbLine
 10
1414.639610775
 20
181.9596417294
 30
0.0
 11
1414.639610775
 21
159.0346417294
 31
0.0
  0
LINE
  5
26C
100
AcDbEntity
  8
_Y__________
  6
CONTINUOUS
 62
         7
100
AcDbLine
 10
1412.9783403763
 20
179.0822369936
 30
0.0
 11
1412.9783403763
 21
158.2346417294
 31
0.0
  0
LINE
  5
26D
100
AcDbEntity
  8
_Y__________
  6
CONTINUOUS
 62
         7
100
AcDbLine
 10
1409.2283403763
 20
179.0822369936
 30
0.0
 11
1409.2283403763
 21
158.2346417294
 31
0.0
  0
LINE
  5
26E
100
AcDbEntity
  8
_Y__________
  6
CONTINUOUS
 62
         7
100
AcDbLine
 10
1407.5670699775
 20
181.9596417294
 30
0.0
 11
1407.5670699775
 21
159.0346417294
 31
0.0
  0
ARC
  5
26F
100
AcDbEntity
  8
_Y__________
  6
CONTINUOUS
 62
         7
100
AcDbCircle
 10
1623.2833403763
 20
150.1846417294
 30
0.0
 40
31.775
100
AcDbArc
 50
195.411296411
 51
344.588703589
  0
ARC
  5
270
100
AcDbEntity
  8
_Y__________
  6
CONTINUOUS
 62
         7
100
AcDbCircle
 10
1623.2833403763
 20
150.1846417294
 30
0.0
 40
31.775
100
AcDbArc
 50
15.411296411
 51
164.588703589
  0
LINE
  5
271
100
AcDbEntity
  8
_Y__________
  6
CENTER
 62
         1
100
AcDbLine
 10
1623.2833403763
 20
184.9596417294
 30
0.0
 11
1623.2833403763
 21
115.4096417294
 31
0.0
  0
ARC
  5
272
100
AcDbEntity
  8
_Y__________
  6
DASHED
 62
         2
100
AcDbCircle
 10
1623.2833403763
 20
150.1846417294
 30
0.0
 40
28.125
100
AcDbArc
 50
16.6319205355
 51
163.3680794645
  0
ARC
  5
273
100
AcDbEntity
  8
_Y__________
  6
DASHED
 62
         2
100
AcDbCircle
 10
1623.2833403763
 20
150.1846417294
 30
0.0
 40
28.125
100
AcDbArc
 50
196.6319205355
 51
343.3680794645
  0
LINE
  5
274
100
AcDbEntity
  8
_Y__________
  6
CONTINUOUS
 62
         7
100
AcDbLine
 10
1646.0833403763
 20
157.7346417294
 30
0.0
 11
1646.0833403763
 21
142.6346417294
 31
0.0
  0
LINE
  5
275
100
AcDbEntity
  8
_Y__________
  6
CONTINUOUS
 62
         7
100
AcDbLine
 10
1646.0833403763
 20
157.7346417294
 30
0.0
 11
1646.5833403763
 21
158.2346417294
 31
0.0
  0
LINE
  5
276
100
AcDbEntity
  8
_Y__________
  6
CONTINUOUS
 62
         7
100
AcDbLine
 10
1646.5833403763
 20
158.2346417294
 30
0.0
 11
1653.5217223278
 21
158.2346417294
 31
0.0
  0
LINE
  5
277
100
AcDbEntity
  8
_Y__________
  6
CONTINUOUS
 62
         7
100
AcDbLine
 10
1653.915807609
 20
158.6287270106
 30
0.0
 11
1653.5217223278
 21
158.2346417294
 31
0.0
  0
LINE
  5
278
100
AcDbEntity
  8
_Y__________
  6
CONTINUOUS
 62
         7
100
AcDbLine
 10
1646.5833403763
 20
142.1346417294
 30
0.0
 11
1653.5217223278
 21
142.1346417294
 31
0.0
  0
LINE
  5
279
100
AcDbEntity
  8
_Y__________
  6
CONTINUOUS
 62
         7
100
AcDbLine
 10
1646.0833403763
 20
142.6346417294
 30
0.0
 11
1646.5833403763
 21
142.1346417294
 31
0.0
  0
LINE
  5
27A
100
AcDbEntity
  8
_Y__________
  6
CONTINUOUS
 62
         7
100
AcDbLine
 10
1653.915807609
 20
141.7405564482
 30
0.0
 11
1653.5217223278
 21
142.1346417294
 31
0.0
  0
LINE
  5
27B
100
AcDbEntity
  8
_Y__________
  6
CONTINUOUS
 62
         7
100
AcDbLine
 10
1593.0449584247
 20
158.2346417294
 30
0.0
 11
1597.7833403763
 21
158.2346417294
 31
0.0
  0
LINE
  5
27C
100
AcDbEntity
  8
_Y__________
  6
CONTINUOUS
 62
         7
100
AcDbLine
 10
1598.2833403763
 20
157.7346417294
 30
0.0
 11
1598.2833403763
 21
142.6346417294
 31
0.0
  0
LINE
  5
27D
100
AcDbEntity
  8
_Y__________
  6
CONTINUOUS
 62
         7
100
AcDbLine
 10
1598.2833403763
 20
157.7346417294
 30
0.0
 11
1597.7833403763
 21
158.2346417294
 31
0.0
  0
LINE
  5
27E
100
AcDbEntity
  8
_Y__________
  6
CONTINUOUS
 62
         7
100
AcDbLine
 10
1592.6508731435
 20
158.6287270106
 30
0.0
 11
1593.0449584247
 21
158.2346417294
 31
0.0
  0
LINE
  5
27F
100
AcDbEntity
  8
_Y__________
  6
CONTINUOUS
 62
         7
100
AcDbLine
 10
1598.2833403763
 20
142.6346417294
 30
0.0
 11
1597.7833403763
 21
142.1346417294
 31
0.0
  0
LINE
  5
280
100
AcDbEntity
  8
_Y__________
  6
CONTINUOUS
 62
         7
100
AcDbLine
 10
1592.6508731435
 20
141.7405564482
 30
0.0
 11
1593.0449584247
 21
142.1346417294
 31
0.0
  0
LINE
  5
281
100
AcDbEntity
  8
_Y__________
  6
CONTINUOUS
 62
         7
100
AcDbLine
 10
1593.0449584247
 20
142.1346417294
 30
0.0
 11
1597.7833403763
 21
142.1346417294
 31
0.0
  0
LINE
  5
282
100
AcDbEntity
  8
_Y__________
  6
CENTER
 62
         1
100
AcDbLine
 10
1589.36411614
 20
150.1846417294
 30
0.0
 11
1655.0583403763
 21
150.1846417294
 31
0.0
  0
LINE
  5
283
100
AcDbEntity
  8
_Y__________
  6
CENTER
 62
         1
100
AcDbLine
 10
1183.1483403763
 20
150.1846417294
 30
0.0
 11
1246.6983403763
 21
150.1846417294
 31
0.0
  0
ARC
  5
284
100
AcDbEntity
  8
_Y__________
  6
CONTINUOUS
 62
         7
100
AcDbCircle
 10
1214.9233403763
 20
150.1846417294
 30
0.0
 40
31.775
100
AcDbArc
 50
195.411296411
 51
344.588703589
  0
ARC
  5
285
100
AcDbEntity
  8
_Y__________
  6
CONTINUOUS
 62
         7
100
AcDbCircle
 10
1214.9233403763
 20
150.1846417294
 30
0.0
 40
31.775
100
AcDbArc
 50
15.411296411
 51
164.588703589
  0
LINE
  5
286
100
AcDbEntity
  8
_Y__________
  6
CENTER
 62
         1
100
AcDbLine
 10
1214.9233403763
 20
114.5732894966
 30
0.0
 11
1214.9233403763
 21
185.4173498279
 31
0.0
  0
CIRCLE
  5
287
100
AcDbEntity
  8
_Y__________
  6
CONTINUOUS
 62
         7
100
AcDbCircle
 10
1214.9233403763
 20
150.1846417294
 30
0.0
 40
12.7165768873
  0
CIRCLE
  5
288
100
AcDbEntity
  8
_Y__________
  6
CONTINUOUS
 62
         7
100
AcDbCircle
 10
1214.9233403763
 20
150.1846417294
 30
0.0
 40
7.0
  0
ARC
  5
289
100
AcDbEntity
  8
_Y__________
  6
CONTINUOUS
 62
         5
100
AcDbCircle
 10
1214.9233403763
 20
150.1846417294
 30
0.0
 40
8.0
100
AcDbArc
 50
352.9901372228
 51
621.2264515101
  0
CIRCLE
  5
28A
100
AcDbEntity
  8
_Y__________
  6
CONTINUOUS
 62
         7
100
AcDbCircle
 10
1214.9233403763
 20
150.1846417294
 30
0.0
 40
9.5
  0
CIRCLE
  5
28B
100
AcDbEntity
  8
_Y__________
  6
CONTINUOUS
 62
         7
100
AcDbCircle
 10
1214.9233403763
 20
150.1846417294
 30
0.0
 40
8.5
  0
CIRCLE
  5
28C
100
AcDbEntity
  8
_Y__________
  6
CONTINUOUS
 62
         7
100
AcDbCircle
 10
1214.9233403763
 20
150.1846417294
 30
0.0
 40
22.225
  0
LINE
  5
28D
100
AcDbEntity
  8
_Y__________
  6
CONTINUOUS
 62
         7
100
AcDbLine
 10
1245.1617223278
 20
158.2346417294
 30
0.0
 11
1240.4233403763
 21
158.2346417294
 31
0.0
  0
LINE
  5
28E
100
AcDbEntity
  8
_Y__________
  6
CONTINUOUS
 62
         7
100
AcDbLine
 10
1245.555807609
 20
158.6287270106
 30
0.0
 11
1245.1617223278
 21
158.2346417294
 31
0.0
  0
LINE
  5
28F
100
AcDbEntity
  8
_Y__________
  6
CONTINUOUS
 62
         7
100
AcDbLine
 10
1239.9233403763
 20
157.7346417294
 30
0.0
 11
1240.4233403763
 21
158.2346417294
 31
0.0
  0
LINE
  5
290
100
AcDbEntity
  8
_Y__________
  6
CONTINUOUS
 62
         7
100
AcDbLine
 10
1245.555807609
 20
141.7405564482
 30
0.0
 11
1245.1617223278
 21
142.1346417294
 31
0.0
  0
LINE
  5
291
100
AcDbEntity
  8
_Y__________
  6
CONTINUOUS
 62
         7
100
AcDbLine
 10
1239.9233403763
 20
142.6346417294
 30
0.0
 11
1240.4233403763
 21
142.1346417294
 31
0.0
  0
LINE
  5
292
100
AcDbEntity
  8
_Y__________
  6
CONTINUOUS
 62
         7
100
AcDbLine
 10
1239.9233403763
 20
142.6346417294
 30
0.0
 11
1239.9233403763
 21
157.7346417294
 31
0.0
  0
LINE
  5
293
100
AcDbEntity
  8
_Y__________
  6
CONTINUOUS
 62
         7
100
AcDbLine
 10
1245.1617223278
 20
142.1346417294
 30
0.0
 11
1240.4233403763
 21
142.1346417294
 31
0.0
  0
LINE
  5
294
100
AcDbEntity
  8
_Y__________
  6
CONTINUOUS
 62
         7
100
AcDbLine
 10
1184.2908731435
 20
158.6287270106
 30
0.0
 11
1184.6849584247
 21
158.2346417294
 31
0.0
  0
LINE
  5
295
100
AcDbEntity
  8
_Y__________
  6
CONTINUOUS
 62
         7
100
AcDbLine
 10
1192.1233403763
 20
157.7346417294
 30
0.0
 11
1191.6233403763
 21
158.2346417294
 31
0.0
  0
LINE
  5
296
100
AcDbEntity
  8
_Y__________
  6
CONTINUOUS
 62
         7
100
AcDbLine
 10
1191.6233403763
 20
158.2346417294
 30
0.0
 11
1184.6849584247
 21
158.2346417294
 31
0.0
  0
LINE
  5
297
100
AcDbEntity
  8
_Y__________
  6
CONTINUOUS
 62
         7
100
AcDbLine
 10
1184.2908731435
 20
141.7405564482
 30
0.0
 11
1184.6849584247
 21
142.1346417294
 31
0.0
  0
LINE
  5
298
100
AcDbEntity
  8
_Y__________
  6
CONTINUOUS
 62
         7
100
AcDbLine
 10
1191.6233403763
 20
142.1346417294
 30
0.0
 11
1184.6849584247
 21
142.1346417294
 31
0.0
  0
LINE
  5
299
100
AcDbEntity
  8
_Y__________
  6
CONTINUOUS
 62
         7
100
AcDbLine
 10
1192.1233403763
 20
142.6346417294
 30
0.0
 11
1191.6233403763
 21
142.1346417294
 31
0.0
  0
LINE
  5
29A
100
AcDbEntity
  8
_Y__________
  6
CONTINUOUS
 62
         7
100
AcDbLine
 10
1192.1233403763
 20
142.6346417294
 30
0.0
 11
1192.1233403763
 21
157.7346417294
 31
0.0
  0
LINE
  5
29B
100
AcDbEntity
  8
_Y__________
  6
CONTINUOUS
 62
         7
100
AcDbLine
 10
1414.639610775
 20
-44.7183347409
 30
0.0
 11
1418.1033403763
 21
-44.7183347409
 31
0.0
  0
LINE
  5
29C
100
AcDbEntity
  8
_Y__________
  6
CONTINUOUS
 62
         7
100
AcDbLine
 10
1412.9783403763
 20
-41.8409300049
 30
0.0
 11
1414.639610775
 21
-44.7183347407
 31
0.0
  0
ARC
  5
29D
100
AcDbEntity
  8
_Y__________
  6
CONTINUOUS
 62
         7
100
AcDbCircle
 10
1412.0045400445
 20
-42.0683347409
 30
0.0
 40
1.0
100
AcDbArc
 50
13.1443256895
 51
90.0
  0
LINE
  5
29E
100
AcDbEntity
  8
_Y__________
  6
CONTINUOUS
 62
         7
100
AcDbLine
 10
1410.202140708
 20
-41.0683347407
 30
0.0
 11
1412.0045400445
 21
-41.0683347407
 31
0.0
  0
ARC
  5
29F
100
AcDbEntity
  8
_Y__________
  6
CONTINUOUS
 62
         7
100
AcDbCircle
 10
1410.202140708
 20
-42.0683347407
 30
0.0
 40
1.0
100
AcDbArc
 50
90.0
 51
166.8556743105
  0
LINE
  5
2A0
100
AcDbEntity
  8
_Y__________
  6
CONTINUOUS
 62
         7
100
AcDbLine
 10
1409.2283403763
 20
-41.8409300049
 30
0.0
 11
1407.5670699775
 21
-44.7183347407
 31
0.0
  0
LINE
  5
2A1
100
AcDbEntity
  8
_Y__________
  6
CONTINUOUS
 62
         7
100
AcDbLine
 10
1403.2033403763
 20
-35.7433347409
 30
0.0
 11
1403.2033403763
 21
-43.7183347409
 31
0.0
  0
LINE
  5
2A2
100
AcDbEntity
  8
_Y__________
  6
CONTINUOUS
 62
         7
100
AcDbLine
 10
1404.2033403763
 20
-44.7183347409
 30
0.0
 11
1407.5670699775
 21
-44.7183347409
 31
0.0
  0
ARC
  5
2A3
100
AcDbEntity
  8
_Y__________
  6
CONTINUOUS
 62
         7
100
AcDbCircle
 10
1402.6033403763
 20
-35.7433347407
 30
0.0
 40
0.6
100
AcDbArc
 50
0.0
 51
90.0
  0
LINE
  5
2A4
100
AcDbEntity
  8
_Y__________
  6
CONTINUOUS
 62
         7
100
AcDbLine
 10
1401.9497505378
 20
-35.1433347407
 30
0.0
 11
1402.6033403763
 21
-35.1433347407
 31
0.0
  0
LINE
  5
2A5
100
AcDbEntity
  8
_Y__________
  6
CONTINUOUS
 62
         7
100
AcDbLine
 10
1401.2033403763
 20
-35.3433347409
 30
0.0
 11
1401.9497505378
 21
-35.1433347409
 31
0.0
  0
LINE
  5
2A6
100
AcDbEntity
  8
_Y__________
  6
CENTER
 62
         1
100
AcDbLine
 10
1328.5556074009
 20
-12.9433347407
 30
0.0
 11
1419.1033403763
 21
-12.9433347407
 31
0.0
  0
LINE
  5
2A7
100
AcDbEntity
  8
_Y__________
  6
CONTINUOUS
 62
         7
100
AcDbLine
 10
1332.6301721046
 20
-25.3430810344
 30
0.0
 11
1401.2033403767
 21
-35.3433347407
 31
0.0
  0
LINE
  5
2A8
100
AcDbEntity
  8
_Y__________
  6
CONTINUOUS
 62
         7
100
AcDbLine
 10
1332.6301721046
 20
-0.543588447
 30
0.0
 11
1401.2033403763
 21
9.4566652593
 31
0.0
  0
LINE
  5
2A9
100
AcDbEntity
  8
_Y__________
  6
CONTINUOUS
 62
         7
100
AcDbLine
 10
1409.2283403763
 20
179.0822369936
 30
0.0
 11
1407.5670699775
 21
181.9596417294
 31
0.0
  0
LINE
  5
2AA
100
AcDbEntity
  8
_Y__________
  6
CONTINUOUS
 62
         7
100
AcDbLine
 10
1409.2283403763
 20
121.2870464652
 30
0.0
 11
1407.5670699775
 21
118.4096417294
 31
0.0
  0
LINE
  5
2AB
100
AcDbEntity
  8
_Y__________
  6
CONTINUOUS
 62
         7
100
AcDbLine
 10
1403.2033403763
 20
180.9596417294
 30
0.0
 11
1403.2033403763
 21
119.4096417294
 31
0.0
  0
LINE
  5
2AC
100
AcDbEntity
  8
_Y__________
  6
CENTER
 62
         1
100
AcDbLine
 10
1400.0033403763
 20
172.4096417294
 30
0.0
 11
1400.0033403763
 21
127.9596417294
 31
0.0
  0
LINE
  5
2AD
100
AcDbEntity
  8
_Y__________
  6
CONTINUOUS
 62
         7
100
AcDbLine
 10
1404.2033403763
 20
118.4096417294
 30
0.0
 11
1407.5670699775
 21
118.4096417294
 31
0.0
  0
LINE
  5
2AE
100
AcDbEntity
  8
_Y__________
  6
CONTINUOUS
 62
         7
100
AcDbLine
 10
1404.2033403763
 20
181.9596417294
 30
0.0
 11
1407.5670699775
 21
181.9596417294
 31
0.0
  0
LINE
  5
2AF
100
AcDbEntity
  8
_Y__________
  6
CONTINUOUS
 62
         7
100
AcDbLine
 10
1419.1033403763
 20
180.9596417294
 30
0.0
 11
1419.1033403763
 21
157.9261885255
 31
0.0
  0
LINE
  5
2B0
100
AcDbEntity
  8
_Y__________
  6
CONTINUOUS
 62
         7
100
AcDbLine
 10
1419.1033403763
 20
180.9596417294
 30
0.0
 11
1419.1033403763
 21
169.1846417294
 31
0.0
  0
LINE
  5
2B1
100
AcDbEntity
  8
_Y__________
  6
CONTINUOUS
 62
         7
100
AcDbLine
 10
1410.202140708
 20
122.0596417294
 30
0.0
 11
1412.0045400445
 21
122.0596417294
 31
0.0
  0
ARC
  5
2B2
100
AcDbEntity
  8
_Y__________
  6
CONTINUOUS
 62
         7
100
AcDbCircle
 10
1410.202140708
 20
121.0596417294
 30
0.0
 40
1.0
100
AcDbArc
 50
90.0
 51
166.8556743105
  0
LINE
  5
2B3
100
AcDbEntity
  8
_Y__________
  6
CONTINUOUS
 62
         7
100
AcDbLine
 10
1412.9783403763
 20
121.2870464652
 30
0.0
 11
1414.639610775
 21
118.4096417294
 31
0.0
  0
ARC
  5
2B4
100
AcDbEntity
  8
_Y__________
  6
CONTINUOUS
 62
         7
100
AcDbCircle
 10
1412.0045400445
 20
121.0596417294
 30
0.0
 40
1.0
100
AcDbArc
 50
13.1443256895
 51
90.0
  0
LINE
  5
2B5
100
AcDbEntity
  8
_Y__________
  6
CONTINUOUS
 62
         7
100
AcDbLine
 10
1414.639610775
 20
118.4096417294
 30
0.0
 11
1418.1033403763
 21
118.4096417294
 31
0.0
  0
LINE
  5
2B6
100
AcDbEntity
  8
_Y__________
  6
CONTINUOUS
 62
         7
100
AcDbLine
 10
1412.9783403763
 20
179.0822369936
 30
0.0
 11
1414.639610775
 21
181.9596417294
 31
0.0
  0
LINE
  5
2B7
100
AcDbEntity
  8
_Y__________
  6
CONTINUOUS
 62
         7
100
AcDbLine
 10
1414.639610775
 20
181.9596417294
 30
0.0
 11
1418.1033403763
 21
181.9596417294
 31
0.0
  0
LINE
  5
2B8
100
AcDbEntity
  8
_Y__________
  6
CONTINUOUS
 62
         7
100
AcDbLine
 10
1410.202140708
 20
178.3096417294
 30
0.0
 11
1412.0045400445
 21
178.3096417294
 31
0.0
  0
ARC
  5
2B9
100
AcDbEntity
  8
_Y__________
  6
CONTINUOUS
 62
         7
100
AcDbCircle
 10
1410.202140708
 20
179.3096417294
 30
0.0
 40
1.0
100
AcDbArc
 50
193.1443256895
 51
270.0
  0
ARC
  5
2BA
100
AcDbEntity
  8
_Y__________
  6
CONTINUOUS
 62
         7
100
AcDbCircle
 10
1412.0045400445
 20
179.3096417294
 30
0.0
 40
1.0
100
AcDbArc
 50
270.0
 51
346.8556743105
  0
LINE
  5
2BB
100
AcDbEntity
  8
_Y__________
  6
CENTER
 62
         1
100
AcDbLine
 10
1411.1033403763
 20
187.6899050302
 30
0.0
 11
1411.1033403763
 21
112.6870854784
 31
0.0
  0
LINE
  5
2BC
100
AcDbEntity
  8
_Y__________
  6
CONTINUOUS
 62
         7
100
AcDbLine
 10
1332.7801721046
 20
137.7630204357
 30
0.0
 11
1401.2033403763
 21
127.7846417294
 31
0.0
  0
LINE
  5
2BD
100
AcDbEntity
  8
_Y__________
  6
CENTER
 62
         1
100
AcDbLine
 10
1329.3598386453
 20
150.1846417294
 30
0.0
 11
1378.4659535144
 21
150.1846417294
 31
0.0
  0
LINE
  5
2BE
100
AcDbEntity
  8
_Y__________
  6
CONTINUOUS
 62
         7
100
AcDbLine
 10
1332.7801721046
 20
162.6062630231
 30
0.0
 11
1401.2033403763
 21
172.5846417294
 31
0.0
  0
LINE
  5
2BF
100
AcDbEntity
  8
_Y__________
  6
CENTER
 62
         1
100
AcDbLine
 10
1396.6508489578
 20
150.1846417294
 30
0.0
 11
1419.1033403763
 21
150.1846417294
 31
0.0
  0
LINE
  5
2C0
100
AcDbEntity
  8
_Y__________
  6
CONTINUOUS
 62
         7
100
AcDbLine
 10
1401.9497505378
 20
127.9846417294
 30
0.0
 11
1402.6033403763
 21
127.9846417294
 31
0.0
  0
LINE
  5
2C1
100
AcDbEntity
  8
_Y__________
  6
CONTINUOUS
 62
         7
100
AcDbLine
 10
1401.2033403763
 20
127.7846417294
 30
0.0
 11
1401.9497505378
 21
127.9846417294
 31
0.0
  0
ARC
  5
2C2
100
AcDbEntity
  8
_Y__________
  6
CONTINUOUS
 62
         7
100
AcDbCircle
 10
1402.6033403763
 20
127.3846417294
 30
0.0
 40
0.6
100
AcDbArc
 50
0.0
 51
90.0
  0
LINE
  5
2C3
100
AcDbEntity
  8
_Y__________
  6
CONTINUOUS
 62
         7
100
AcDbLine
 10
1401.9497505378
 20
127.9846417294
 30
0.0
 11
1401.9497505378
 21
172.3846417294
 31
0.0
  0
LINE
  5
2C4
100
AcDbEntity
  8
_Y__________
  6
CONTINUOUS
 62
         7
100
AcDbLine
 10
1401.2033403763
 20
127.7846417294
 30
0.0
 11
1401.2033403763
 21
172.5846417294
 31
0.0
  0
LINE
  5
2C5
100
AcDbEntity
  8
_Y__________
  6
CONTINUOUS
 62
         7
100
AcDbLine
 10
1401.9497505378
 20
172.3846417294
 30
0.0
 11
1402.6033403763
 21
172.3846417294
 31
0.0
  0
LINE
  5
2C6
100
AcDbEntity
  8
_Y__________
  6
CONTINUOUS
 62
         7
100
AcDbLine
 10
1401.2033403763
 20
172.5846417294
 30
0.0
 11
1401.9497505378
 21
172.3846417294
 31
0.0
  0
ARC
  5
2C7
100
AcDbEntity
  8
_Y__________
  6
CONTINUOUS
 62
         7
100
AcDbCircle
 10
1402.6033403763
 20
172.9846417294
 30
0.0
 40
0.6
100
AcDbArc
 50
270.0
 51
360.0
  0
ARC
  5
2C8
100
AcDbEntity
  8
_Y__________
  6
CONTINUOUS
 62
         7
100
AcDbCircle
 10
1404.2033403763
 20
-43.7183347407
 30
0.0
 40
1.0
100
AcDbArc
 50
180.0
 51
270.0
  0
LINE
  5
2C9
100
AcDbEntity
  8
_Y__________
  6
CONTINUOUS
 62
         7
100
AcDbLine
 10
1404.2033403763
 20
-44.7183347407
 30
0.0
 11
1405.2033403763
 21
-44.7183347407
 31
0.0
  0
LINE
  5
2CA
100
AcDbEntity
  8
_Y__________
  6
CONTINUOUS
 62
         7
100
AcDbLine
 10
1417.1033403763
 20
-44.7183347407
 30
0.0
 11
1418.1033403763
 21
-44.7183347407
 31
0.0
  0
ARC
  5
2CB
100
AcDbEntity
  8
_Y__________
  6
CONTINUOUS
 62
         7
100
AcDbCircle
 10
1418.1033403763
 20
-43.7183347407
 30
0.0
 40
1.0
100
AcDbArc
 50
270.0
 51
360.0
  0
LINE
  5
2CC
100
AcDbEntity
  8
_Y__________
  6
CONTINUOUS
 62
         7
100
AcDbLine
 10
1403.2033403763
 20
-42.7183347407
 30
0.0
 11
1403.2033403763
 21
-43.7183347407
 31
0.0
  0
LINE
  5
2CD
100
AcDbEntity
  8
_Y__________
  6
CONTINUOUS
 62
         7
100
AcDbLine
 10
1419.1033403763
 20
-42.7183347407
 30
0.0
 11
1419.1033403763
 21
-43.7183347407
 31
0.0
  0
LINE
  5
2CE
100
AcDbEntity
  8
_Y__________
  6
CONTINUOUS
 62
         7
100
AcDbLine
 10
1419.1033403763
 20
120.4096417294
 30
0.0
 11
1419.1033403763
 21
119.4096417294
 31
0.0
  0
LINE
  5
2CF
100
AcDbEntity
  8
_Y__________
  6
CONTINUOUS
 62
         7
100
AcDbLine
 10
1403.2033403763
 20
120.4096417294
 30
0.0
 11
1403.2033403763
 21
119.4096417294
 31
0.0
  0
LINE
  5
2D0
100
AcDbEntity
  8
_Y__________
  6
CONTINUOUS
 62
         7
100
AcDbLine
 10
1419.1033403763
 20
180.9596417294
 30
0.0
 11
1419.1033403763
 21
179.9596417294
 31
0.0
  0
ARC
  5
2D1
100
AcDbEntity
  8
_Y__________
  6
CONTINUOUS
 62
         7
100
AcDbCircle
 10
1418.1033403763
 20
119.4096417294
 30
0.0
 40
1.0
100
AcDbArc
 50
270.0
 51
360.0
  0
LINE
  5
2D2
100
AcDbEntity
  8
_Y__________
  6
CONTINUOUS
 62
         7
100
AcDbLine
 10
1417.1033403763
 20
118.4096417294
 30
0.0
 11
1418.1033403763
 21
118.4096417294
 31
0.0
  0
LINE
  5
2D3
100
AcDbEntity
  8
_Y__________
  6
CONTINUOUS
 62
         7
100
AcDbLine
 10
1404.2033403763
 20
118.4096417294
 30
0.0
 11
1405.2033403763
 21
118.4096417294
 31
0.0
  0
ARC
  5
2D4
100
AcDbEntity
  8
_Y__________
  6
CONTINUOUS
 62
         7
100
AcDbCircle
 10
1404.2033403763
 20
119.4096417294
 30
0.0
 40
1.0
100
AcDbArc
 50
180.0
 51
270.0
  0
ARC
  5
2D5
100
AcDbEntity
  8
_Y__________
  6
CONTINUOUS
 62
         7
100
AcDbCircle
 10
1418.1033403763
 20
180.9596417294
 30
0.0
 40
1.0
100
AcDbArc
 50
0.0
 51
90.0
  0
LINE
  5
2D6
100
AcDbEntity
  8
_Y__________
  6
CONTINUOUS
 62
         7
100
AcDbLine
 10
1417.1033403763
 20
181.9596417294
 30
0.0
 11
1418.1033403763
 21
181.9596417294
 31
0.0
  0
LINE
  5
2D7
100
AcDbEntity
  8
_Y__________
  6
CONTINUOUS
 62
         7
100
AcDbLine
 10
1403.2033403763
 20
180.9596417294
 30
0.0
 11
1403.2033403763
 21
179.9596417294
 31
0.0
  0
LINE
  5
2D8
100
AcDbEntity
  8
_Y__________
  6
CONTINUOUS
 62
         7
100
AcDbLine
 10
1404.2033403763
 20
181.9596417294
 30
0.0
 11
1405.2033403763
 21
181.9596417294
 31
0.0
  0
ARC
  5
2D9
100
AcDbEntity
  8
_Y__________
  6
CONTINUOUS
 62
         7
100
AcDbCircle
 10
1404.2033403763
 20
180.9596417294
 30
0.0
 40
1.0
100
AcDbArc
 50
90.0
 51
180.0
  0
LINE
  5
2DA
100
AcDbEntity
  8
_Y__________
  6
CONTINUOUS
 62
         7
100
AcDbLine
 10
1419.1033403763
 20
142.4430949333
 30
0.0
 11
1419.1033403763
 21
119.4096417294
 31
0.0
  0
LINE
  5
2DB
100
AcDbEntity
  8
_Y__________
  6
CONTINUOUS
 62
         7
100
AcDbLine
 10
1418.3033403763
 20
143.6535955766
 30
0.0
 11
1418.3033403763
 21
142.1346417294
 31
0.0
  0
LINE
  5
2DC
100
AcDbEntity
  8
_Y__________
  6
CONTINUOUS
 62
         7
100
AcDbLine
 10
1607.1622361957
 20
156.9934595416
 30
0.0
 11
1598.2833403763
 21
156.9934595416
 31
0.0
  0
LINE
  5
2DD
100
AcDbEntity
  8
_Y__________
  6
CONTINUOUS
 62
         7
100
AcDbLine
 10
1607.1622361957
 20
143.3758239172
 30
0.0
 11
1598.2833403763
 21
143.3758239172
 31
0.0
  0
LINE
  5
2DE
100
AcDbEntity
  8
_Y__________
  6
CONTINUOUS
 62
         4
100
AcDbLine
 10
1607.4564249719
 20
157.6518198298
 30
0.0
 11
1598.2833403763
 21
157.6518198298
 31
0.0
  0
LINE
  5
2DF
100
AcDbEntity
  8
_Y__________
  6
CONTINUOUS
 62
         4
100
AcDbLine
 10
1607.4345948921
 20
142.7639095164
 30
0.0
 11
1598.2833403763
 21
142.7639095164
 31
0.0
  0
LINE
  5
2E0
100
AcDbEntity
  8
L1_45
  6
CONTINUOUS
 62
         7
100
AcDbLine
 10
1331.7533403763
 20
161.4188234458
 30
0.0
 11
1331.7533403763
 21
138.9504600129
 31
0.0
  0
LINE
  5
2E1
100
AcDbEntity
  8
L1_45
  6
CENTER
 62
         1
100
AcDbLine
 10
1400.0033403763
 20
172.4096417294
 30
0.0
 11
1400.0033403763
 21
127.9596417294
 31
0.0
  0
LINE
  5
2E2
100
AcDbEntity
  8
L1_45
  6
CONTINUOUS
 62
         7
100
AcDbLine
 10
1403.2033403763
 20
180.9596417294
 30
0.0
 11
1403.2033403763
 21
119.4096417294
 31
0.0
  0
DIMENSION
  5
2E6
100
AcDbEntity
  8
L1_45
  6
CONTINUOUS
 62
         4
100
AcDbDimension
  2
*D0
 10
1331.7533403763
 20
223.3529896602
 30
0.0
 11
1380.1915760597
 21
225.3779896602
 31
0.0
  3
DIMSTYLE1
100
AcDbAlignedDimension
 13
1331.7533403763
 23
161.4188234458
 33
0.0
 14
1445.0033403763
 24
150.1846417294
 34
0.0
100
AcDbRotatedDimension
  0
DIMENSION
  5
2F5
100
AcDbEntity
  8
L1_45
  6
CONTINUOUS
 62
         4
100
AcDbDimension
  2
*D1
 10
1400.0033403763
 20
215.1979279252
 30
0.0
 11
1420.4074165438
 21
217.2229279252
 31
0.0
  3
DIMSTYLE1
100
AcDbAlignedDimension
 13
1400.0033403763
 23
172.4096417294
 33
0.0
 14
1445.0033403763
 24
150.1846417294
 34
0.0
100
AcDbRotatedDimension
  0
CIRCLE
  5
301
100
AcDbEntity
  8
L1_45
  6
CONTINUOUS
 62
         7
100
AcDbCircle
 10
1623.2833403763
 20
150.1846417294
 30
0.0
 40
17.5
  0
CIRCLE
  5
302
100
AcDbEntity
  8
L1_45
  6
CONTINUOUS
 62
         7
100
AcDbCircle
 10
1623.2833403763
 20
150.1846417294
 30
0.0
 40
12.5
  0
CIRCLE
  5
303
100
AcDbEntity
  8
L1_45
  6
CONTINUOUS
 62
         7
100
AcDbCircle
 10
1623.2833403763
 20
150.1846417294
 30
0.0
 40
6.35
  0
LINE
  5
304
100
AcDbEntity
  8
L1_45
  6
DASHED
 62
         2
100
AcDbLine
 10
1607.289402142
 20
155.7396417294
 30
0.0
 11
1620.2069016884
 21
155.7396417294
 31
0.0
  0
LINE
  5
305
100
AcDbEntity
  8
L1_45
  6
DASHED
 62
         2
100
AcDbLine
 10
1607.844402142
 20
155.1846417294
 30
0.0
 11
1619.368943871
 21
155.1846417294
 31
0.0
  0
LINE
  5
306
100
AcDbEntity
  8
L1_45
  6
DASHED
 62
         2
100
AcDbLine
 10
1607.844402142
 20
145.1846417294
 30
0.0
 11
1619.368943871
 21
145.1846417294
 31
0.0
  0
LINE
  5
307
100
AcDbEntity
  8
L1_45
  6
DASHED
 62
         2
100
AcDbLine
 10
1607.289402142
 20
144.6296417294
 30
0.0
 11
1620.2069016884
 21
144.6296417294
 31
0.0
  0
LINE
  5
308
100
AcDbEntity
  8
L1_45
  6
DASHED
 62
         2
100
AcDbLine
 10
1607.844402142
 20
145.1846417294
 30
0.0
 11
1607.844402142
 21
155.1846417294
 31
0.0
  0
LINE
  5
309
100
AcDbEntity
  8
L1_45
  6
DASHED
 62
         2
100
AcDbLine
 10
1606.8441501336
 20
144.184389721
 30
0.0
 11
1607.844402142
 21
145.1846417294
 31
0.0
  0
LINE
  5
30A
100
AcDbEntity
  8
L1_45
  6
DASHED
 62
         2
100
AcDbLine
 10
1606.8441501336
 20
156.1848937378
 30
0.0
 11
1607.844402142
 21
155.1846417294
 31
0.0
  0
LINE
  5
30B
100
AcDbEntity
  8
L1_45
  6
CENTER
 62
         1
100
AcDbLine
 10
1449.8579811273
 20
150.1846417294
 30
0.0
 11
1419.1033403763
 21
150.1846417294
 31
0.0
  0
LINE
  5
30C
100
AcDbEntity
  8
L1_45
  6
CONTINUOUS
 62
         4
100
AcDbLine
 10
1434.2808057737
 20
132.7344094596
 30
0.0
 11
1434.2808057737
 21
167.6348739992
 31
0.0
  0
ARC
  5
30D
100
AcDbEntity
  8
L1_45
  6
CONTINUOUS
 62
         7
100
AcDbCircle
 10
1443.5033403763
 20
138.6402471206
 30
0.0
 40
1.5
100
AcDbArc
 50
295.0
 51
360.0
  0
ARC
  5
30E
100
AcDbEntity
  8
L1_45
  6
CONTINUOUS
 62
         7
100
AcDbCircle
 10
1443.5033403763
 20
161.7290363382
 30
0.0
 40
1.5
100
AcDbArc
 50
0.0
 51
65.0
  0
ARC
  5
30F
100
AcDbEntity
  8
L1_45
  6
CONTINUOUS
 62
         7
100
AcDbCircle
 10
1433.8374164484
 20
134.6846417294
 30
0.0
 40
2.0
100
AcDbArc
 50
270.0
 51
295.0
  0
ARC
  5
310
100
AcDbEntity
  8
L1_45
  6
CONTINUOUS
 62
         7
100
AcDbCircle
 10
1433.8374164484
 20
165.6846417294
 30
0.0
 40
2.0
100
AcDbArc
 50
65.0
 51
90.0
  0
LINE
  5
311
100
AcDbEntity
  8
L1_45
  6
CONTINUOUS
 62
         7
100
AcDbLine
 10
1445.0033403763
 20
138.6402471206
 30
0.0
 11
1445.0033403763
 21
161.7290363382
 31
0.0
  0
LINE
  5
312
100
AcDbEntity
  8
L1_45
  6
CONTINUOUS
 62
         7
100
AcDbLine
 10
1434.6826529719
 20
132.8720261553
 30
0.0
 11
1444.1372677689
 21
137.28078544
 31
0.0
  0
LINE
  5
313
100
AcDbEntity
  8
L1_45
  6
CONTINUOUS
 62
         7
100
AcDbLine
 10
1444.1372677689
 20
163.0884980187
 30
0.0
 11
1434.6826529719
 21
167.4972573035
 31
0.0
  0
LINE
  5
314
100
AcDbEntity
  8
L1_45
  6
CONTINUOUS
 62
         7
100
AcDbLine
 10
1433.8374164484
 20
167.6846417294
 30
0.0
 11
1422.1033403763
 21
167.6846417294
 31
0.0
  0
LINE
  5
315
100
AcDbEntity
  8
L1_45
  6
CONTINUOUS
 62
         7
100
AcDbLine
 10
1433.8374164484
 20
132.6846417294
 30
0.0
 11
1422.1033403763
 21
132.6846417294
 31
0.0
  0
LINE
  5
316
100
AcDbEntity
  8
L1_45
  6
CENTER
 62
         1
100
AcDbLine
 10
1449.8579811273
 20
-12.9433347407
 30
0.0
 11
1419.1033403763
 21
-12.9433347407
 31
0.0
  0
LINE
  5
317
100
AcDbEntity
  8
L1_45
  6
CONTINUOUS
 62
         7
100
AcDbLine
 10
1428.0033403763
 20
3.3266652593
 30
0.0
 11
1428.0033403763
 21
-6.5933347407
 31
0.0
  0
LINE
  5
318
100
AcDbEntity
  8
L1_45
  6
CONTINUOUS
 62
         7
100
AcDbLine
 10
1418.0033403763
 20
3.3266652593
 30
0.0
 11
1418.0033403763
 21
-6.5933347407
 31
0.0
  0
LINE
  5
319
100
AcDbEntity
  8
L1_45
  6
CENTER
 62
         1
100
AcDbLine
 10
1423.0033403763
 20
7.0161754185
 30
0.0
 11
1423.0033403763
 21
-8.7298721513
 31
0.0
  0
LINE
  5
31A
100
AcDbEntity
  8
L1_45
  6
CONTINUOUS
 62
         7
100
AcDbLine
 10
1433.8374164484
 20
4.5566652593
 30
0.0
 11
1415.3033403763
 21
4.5566652593
 31
0.0
  0
LINE
  5
31B
100
AcDbEntity
  8
L1_45
  6
CONTINUOUS
 62
         7
100
AcDbLine
 10
1433.8374164484
 20
-30.4433347407
 30
0.0
 11
1422.1033403763
 21
-30.4433347407
 31
0.0
  0
ARC
  5
31C
100
AcDbEntity
  8
L1_45
  6
CONTINUOUS
 62
         7
100
AcDbCircle
 10
1443.5033403763
 20
-24.4877293495
 30
0.0
 40
1.5
100
AcDbArc
 50
295.0
 51
360.0
  0
LINE
  5
31D
100
AcDbEntity
  8
L1_45
  6
CONTINUOUS
 62
         7
100
AcDbLine
 10
1434.6826529719
 20
-30.2559503147
 30
0.0
 11
1444.1372677689
 21
-25.84719103
 31
0.0
  0
LINE
  5
31E
100
AcDbEntity
  8
L1_45
  6
CONTINUOUS
 62
         7
100
AcDbLine
 10
1445.0033403763
 20
-24.4877293495
 30
0.0
 11
1445.0033403763
 21
-1.3989401319
 31
0.0
  0
ARC
  5
31F
100
AcDbEntity
  8
L1_45
  6
CONTINUOUS
 62
         7
100
AcDbCircle
 10
1443.5033403763
 20
-1.3989401319
 30
0.0
 40
1.5
100
AcDbArc
 50
0.0
 51
65.0
  0
LINE
  5
320
100
AcDbEntity
  8
L1_45
  6
CONTINUOUS
 62
         7
100
AcDbLine
 10
1444.1372677689
 20
-0.0394784513
 30
0.0
 11
1434.6826529719
 21
4.3692808334
 31
0.0
  0
ARC
  5
321
100
AcDbEntity
  8
L1_45
  6
CONTINUOUS
 62
         7
100
AcDbCircle
 10
1433.8374164484
 20
-28.4433347407
 30
0.0
 40
2.0
100
AcDbArc
 50
270.0
 51
295.0
  0
ARC
  5
322
100
AcDbEntity
  8
L1_45
  6
CONTINUOUS
 62
         7
100
AcDbCircle
 10
1433.8374164484
 20
2.5566652593
 30
0.0
 40
2.0
100
AcDbArc
 50
65.0
 51
90.0
  0
LINE
  5
323
100
AcDbEntity
  8
L1_45
  6
CONTINUOUS
 62
         4
100
AcDbLine
 10
1417.4533403763
 20
3.8766652593
 30
0.0
 11
1417.4533403763
 21
-6.5933347407
 31
0.0
  0
LINE
  5
324
100
AcDbEntity
  8
L1_45
  6
CONTINUOUS
 62
         4
100
AcDbLine
 10
1428.5533403763
 20
-6.5933347407
 30
0.0
 11
1428.5533403763
 21
3.8766652593
 31
0.0
  0
LINE
  5
325
100
AcDbEntity
  8
L1_45
  6
CONTINUOUS
 62
         7
100
AcDbLine
 10
1430.7091882248
 20
57.2539107661
 30
0.0
 11
1421.277285761
 21
57.2539107661
 31
0.0
  0
LINE
  5
326
100
AcDbEntity
  8
L1_45
  6
CONTINUOUS
 62
         7
100
AcDbLine
 10
1431.5558481181
 20
57.8889120361
 30
0.0
 11
1420.4306258677
 21
57.8889120361
 31
0.0
  0
LINE
  5
327
100
AcDbEntity
  8
L1_45
  6
CONTINUOUS
 62
         7
100
AcDbLine
 10
1430.7091882248
 20
57.2539107661
 30
0.0
 11
1431.5558481181
 21
57.8889120361
 31
0.0
  0
LINE
  5
328
100
AcDbEntity
  8
L1_45
  6
CONTINUOUS
 62
         7
100
AcDbLine
 10
1421.277285761
 20
57.2539107661
 30
0.0
 11
1420.4306258677
 21
57.8889120361
 31
0.0
  0
LINE
  5
329
100
AcDbEntity
  8
L1_45
  6
CONTINUOUS
 62
         7
100
AcDbLine
 10
1420.4306258677
 20
57.8889120361
 30
0.0
 11
1420.4306258677
 21
58.6051934687
 31
0.0
  0
LINE
  5
32A
100
AcDbEntity
  8
L1_45
  6
CONTINUOUS
 62
         7
100
AcDbLine
 10
1421.277285761
 20
59.3214749012
 30
0.0
 11
1420.4306258677
 21
60.0377563338
 31
0.0
  0
LINE
  5
32B
100
AcDbEntity
  8
L1_45
  6
CONTINUOUS
 62
         7
100
AcDbLine
 10
1420.4306258677
 20
60.0377563338
 30
0.0
 11
1421.277285761
 21
60.7540377663
 31
0.0
  0
LINE
  5
32C
100
AcDbEntity
  8
L1_45
  6
CONTINUOUS
 62
         7
100
AcDbLine
 10
1431.5558481181
 20
59.3214749012
 30
0.0
 11
1430.7091882248
 21
60.0377563338
 31
0.0
  0
LINE
  5
32D
100
AcDbEntity
  8
L1_45
  6
CONTINUOUS
 62
         7
100
AcDbLine
 10
1430.7091882248
 20
60.0377563338
 30
0.0
 11
1431.5558481181
 21
60.7540377663
 31
0.0
  0
LINE
  5
32E
100
AcDbEntity
  8
L1_45
  6
CONTINUOUS
 62
         7
100
AcDbLine
 10
1431.5558481181
 20
60.7540377663
 30
0.0
 11
1420.4306258677
 21
60.0377563338
 31
0.0
  0
LINE
  5
32F
100
AcDbEntity
  8
L1_45
  6
CONTINUOUS
 62
         7
100
AcDbLine
 10
1430.7091882248
 20
60.0377563338
 30
0.0
 11
1421.277285761
 21
59.3214749012
 31
0.0
  0
LINE
  5
330
100
AcDbEntity
  8
L1_45
  6
CONTINUOUS
 62
         4
100
AcDbLine
 10
1421.277285761
 20
59.3214749012
 30
0.0
 11
1420.4306258677
 21
58.6051934687
 31
0.0
  0
LINE
  5
331
100
AcDbEntity
  8
L1_45
  6
CONTINUOUS
 62
         4
100
AcDbLine
 10
1431.5558481181
 20
59.3214749012
 30
0.0
 11
1430.7091882248
 21
58.6051934687
 31
0.0
  0
LINE
  5
332
100
AcDbEntity
  8
L1_45
  6
CONTINUOUS
 62
         4
100
AcDbLine
 10
1430.7091882248
 20
58.6051934687
 30
0.0
 11
1431.5558481181
 21
57.8889120361
 31
0.0
  0
LINE
  5
333
100
AcDbEntity
  8
L1_45
  6
CONTINUOUS
 62
         4
100
AcDbLine
 10
1431.5558481181
 20
59.3214749012
 30
0.0
 11
1420.4306258677
 21
58.6051934687
 31
0.0
  0
LINE
  5
334
100
AcDbEntity
  8
L1_45
  6
CONTINUOUS
 62
         4
100
AcDbLine
 10
1430.7091882248
 20
58.6051934687
 30
0.0
 11
1421.9935671935
 21
57.8889120361
 31
0.0
  0
LINE
  5
335
100
AcDbEntity
  8
L1_45
  6
CONTINUOUS
 62
         4
100
AcDbLine
 10
1431.5558481181
 20
57.8889120361
 30
0.0
 11
1421.9935671935
 21
57.8889120361
 31
0.0
  0
LINE
  5
336
100
AcDbEntity
  8
L1_45
  6
CONTINUOUS
 62
         7
100
AcDbLine
 10
1421.277285761
 20
60.7540377663
 30
0.0
 11
1420.4306258677
 21
61.4703191989
 31
0.0
  0
LINE
  5
337
100
AcDbEntity
  8
L1_45
  6
CONTINUOUS
 62
         7
100
AcDbLine
 10
1420.4306258677
 20
61.4703191989
 30
0.0
 11
1421.277285761
 21
62.1866006315
 31
0.0
  0
LINE
  5
338
100
AcDbEntity
  8
L1_45
  6
CONTINUOUS
 62
         7
100
AcDbLine
 10
1431.5558481181
 20
60.7540377663
 30
0.0
 11
1430.7091882248
 21
61.4703191989
 31
0.0
  0
LINE
  5
339
100
AcDbEntity
  8
L1_45
  6
CONTINUOUS
 62
         7
100
AcDbLine
 10
1430.7091882248
 20
61.4703191989
 30
0.0
 11
1431.5558481181
 21
62.1866006315
 31
0.0
  0
LINE
  5
33A
100
AcDbEntity
  8
L1_45
  6
CONTINUOUS
 62
         7
100
AcDbLine
 10
1431.5558481181
 20
62.1866006315
 30
0.0
 11
1420.4306258677
 21
61.4703191989
 31
0.0
  0
LINE
  5
33B
100
AcDbEntity
  8
L1_45
  6
CONTINUOUS
 62
         7
100
AcDbLine
 10
1430.7091882248
 20
61.4703191989
 30
0.0
 11
1421.277285761
 21
60.7540377663
 31
0.0
  0
LINE
  5
33C
100
AcDbEntity
  8
L1_45
  6
CONTINUOUS
 62
         4
100
AcDbLine
 10
1421.277285761
 20
59.3214749012
 30
0.0
 11
1420.4306258677
 21
58.6051934687
 31
0.0
  0
LINE
  5
33D
100
AcDbEntity
  8
L1_45
  6
CONTINUOUS
 62
         4
100
AcDbLine
 10
1431.5558481181
 20
59.3214749012
 30
0.0
 11
1430.7091882248
 21
58.6051934687
 31
0.0
  0
LINE
  5
33E
100
AcDbEntity
  8
L1_45
  6
CONTINUOUS
 62
         4
100
AcDbLine
 10
1430.7091882248
 20
58.6051934687
 30
0.0
 11
1431.5558481181
 21
57.8889120361
 31
0.0
  0
LINE
  5
33F
100
AcDbEntity
  8
L1_45
  6
CONTINUOUS
 62
         4
100
AcDbLine
 10
1431.5558481181
 20
59.3214749012
 30
0.0
 11
1420.4306258677
 21
58.6051934687
 31
0.0
  0
LINE
  5
340
100
AcDbEntity
  8
L1_45
  6
CONTINUOUS
 62
         4
100
AcDbLine
 10
1430.7091882248
 20
58.6051934687
 30
0.0
 11
1421.9935671935
 21
57.8889120361
 31
0.0
  0
LINE
  5
341
100
AcDbEntity
  8
L1_45
  6
CONTINUOUS
 62
         4
100
AcDbLine
 10
1431.5558481181
 20
57.8889120361
 30
0.0
 11
1421.9935671935
 21
57.8889120361
 31
0.0
  0
LINE
  5
342
100
AcDbEntity
  8
L1_45
  6
CONTINUOUS
 62
         7
100
AcDbLine
 10
1421.277285761
 20
62.1866006315
 30
0.0
 11
1420.4306258677
 21
62.902882064
 31
0.0
  0
LINE
  5
343
100
AcDbEntity
  8
L1_45
  6
CONTINUOUS
 62
         7
100
AcDbLine
 10
1420.4306258677
 20
62.902882064
 30
0.0
 11
1421.277285761
 21
63.6191634966
 31
0.0
  0
LINE
  5
344
100
AcDbEntity
  8
L1_45
  6
CONTINUOUS
 62
         7
100
AcDbLine
 10
1431.5558481181
 20
62.1866006315
 30
0.0
 11
1430.7091882248
 21
62.902882064
 31
0.0
  0
LINE
  5
345
100
AcDbEntity
  8
L1_45
  6
CONTINUOUS
 62
         7
100
AcDbLine
 10
1430.7091882248
 20
62.902882064
 30
0.0
 11
1431.5558481181
 21
63.6191634966
 31
0.0
  0
LINE
  5
346
100
AcDbEntity
  8
L1_45
  6
CONTINUOUS
 62
         7
100
AcDbLine
 10
1431.5558481181
 20
63.6191634966
 30
0.0
 11
1420.4306258677
 21
62.902882064
 31
0.0
  0
LINE
  5
347
100
AcDbEntity
  8
L1_45
  6
CONTINUOUS
 62
         7
100
AcDbLine
 10
1430.7091882248
 20
62.902882064
 30
0.0
 11
1421.277285761
 21
62.1866006315
 31
0.0
  0
LINE
  5
348
100
AcDbEntity
  8
L1_45
  6
CONTINUOUS
 62
         7
100
AcDbLine
 10
1421.277285761
 20
59.3214749012
 30
0.0
 11
1420.4306258677
 21
58.6051934687
 31
0.0
  0
LINE
  5
349
100
AcDbEntity
  8
L1_45
  6
CONTINUOUS
 62
         7
100
AcDbLine
 10
1431.5558481181
 20
59.3214749012
 30
0.0
 11
1430.7091882248
 21
58.6051934687
 31
0.0
  0
LINE
  5
34A
100
AcDbEntity
  8
L1_45
  6
CONTINUOUS
 62
         7
100
AcDbLine
 10
1430.7091882248
 20
58.6051934687
 30
0.0
 11
1431.5558481181
 21
57.8889120361
 31
0.0
  0
LINE
  5
34B
100
AcDbEntity
  8
L1_45
  6
CONTINUOUS
 62
         7
100
AcDbLine
 10
1431.5558481181
 20
59.3214749012
 30
0.0
 11
1420.4306258677
 21
58.6051934687
 31
0.0
  0
LINE
  5
34C
100
AcDbEntity
  8
L1_45
  6
CONTINUOUS
 62
         7
100
AcDbLine
 10
1430.7091882248
 20
58.6051934687
 30
0.0
 11
1421.9935671935
 21
57.8889120361
 31
0.0
  0
LINE
  5
34D
100
AcDbEntity
  8
L1_45
  6
CONTINUOUS
 62
         7
100
AcDbLine
 10
1431.5558481181
 20
57.8889120361
 30
0.0
 11
1421.9935671935
 21
57.8889120361
 31
0.0
  0
LINE
  5
34E
100
AcDbEntity
  8
L1_45
  6
CONTINUOUS
 62
         7
100
AcDbLine
 10
1421.277285761
 20
63.6191634966
 30
0.0
 11
1420.4306258677
 21
64.3354449292
 31
0.0
  0
LINE
  5
34F
100
AcDbEntity
  8
L1_45
  6
CONTINUOUS
 62
         7
100
AcDbLine
 10
1420.4306258677
 20
64.3354449292
 30
0.0
 11
1421.277285761
 21
65.0517263617
 31
0.0
  0
LINE
  5
350
100
AcDbEntity
  8
L1_45
  6
CONTINUOUS
 62
         7
100
AcDbLine
 10
1431.5558481181
 20
63.6191634966
 30
0.0
 11
1430.7091882248
 21
64.3354449292
 31
0.0
  0
LINE
  5
351
100
AcDbEntity
  8
L1_45
  6
CONTINUOUS
 62
         7
100
AcDbLine
 10
1430.7091882248
 20
64.3354449292
 30
0.0
 11
1431.5558481181
 21
65.0517263617
 31
0.0
  0
LINE
  5
352
100
AcDbEntity
  8
L1_45
  6
CONTINUOUS
 62
         7
100
AcDbLine
 10
1431.5558481181
 20
65.0517263617
 30
0.0
 11
1420.4306258677
 21
64.3354449292
 31
0.0
  0
LINE
  5
353
100
AcDbEntity
  8
L1_45
  6
CONTINUOUS
 62
         7
100
AcDbLine
 10
1430.7091882248
 20
64.3354449292
 30
0.0
 11
1421.277285761
 21
63.6191634966
 31
0.0
  0
LINE
  5
354
100
AcDbEntity
  8
L1_45
  6
CONTINUOUS
 62
         7
100
AcDbLine
 10
1422.7928305921
 20
67.4139310861
 30
0.0
 11
1429.1936433937
 21
67.4139310861
 31
0.0
  0
LINE
  5
355
100
AcDbEntity
  8
L1_45
  6
CONTINUOUS
 62
         7
100
AcDbLine
 10
1420.4306258677
 20
65.0517263617
 30
0.0
 11
1431.5558481181
 21
65.0517263617
 31
0.0
  0
LINE
  5
356
100
AcDbEntity
  8
L1_45
  6
CONTINUOUS
 62
         7
100
AcDbLine
 10
1422.7928305921
 20
67.4139310861
 30
0.0
 11
1420.4306258677
 21
65.0517263617
 31
0.0
  0
LINE
  5
357
100
AcDbEntity
  8
L1_45
  6
CONTINUOUS
 62
         7
100
AcDbLine
 10
1429.1936433937
 20
67.4139310861
 30
0.0
 11
1431.5558481181
 21
65.0517263617
 31
0.0
  0
LINE
  5
358
100
AcDbEntity
  8
L1_45
  6
DASHED
 62
         2
100
AcDbLine
 10
1422.7816619623
 20
62.8165218913
 30
0.0
 11
1429.2048120234
 21
62.8165218913
 31
0.0
  0
LINE
  5
359
100
AcDbEntity
  8
L1_45
  6
DASHED
 62
         2
100
AcDbLine
 10
1422.7816619623
 20
57.2539107661
 30
0.0
 11
1422.7816619623
 21
62.8165218913
 31
0.0
  0
LINE
  5
35A
100
AcDbEntity
  8
L1_45
  6
DASHED
 62
         2
100
AcDbLine
 10
1429.2048120234
 20
57.2539107661
 30
0.0
 11
1429.2048120234
 21
62.8165218913
 31
0.0
  0
LINE
  5
35B
100
AcDbEntity
  8
L1_45
  6
DASHED
 62
         2
100
AcDbLine
 10
1424.3874494776
 20
57.2539107661
 30
0.0
 11
1424.3874494776
 21
62.8165218913
 31
0.0
  0
LINE
  5
35C
100
AcDbEntity
  8
L1_45
  6
DASHED
 62
         2
100
AcDbLine
 10
1427.5990245081
 20
57.2539107661
 30
0.0
 11
1427.5990245081
 21
62.8165218913
 31
0.0
  0
DIMENSION
  5
35F
100
AcDbEntity
  8
L1_45
  6
CONTINUOUS
 62
         4
100
AcDbDimension
  2
*D2
 10
1422.7600754854
 20
50.7659127992
 30
0.0
 11
1430.9475480006
 21
52.7909127992
 31
0.0
  3
DIMSTYLE1
100
AcDbAlignedDimension
 13
1422.7600754854
 23
57.2539107661
 33
0.0
 14
1429.2263985003
 24
57.2539107661
 34
0.0
100
AcDbRotatedDimension
  0
LINE
  5
36C
100
AcDbEntity
  8
L1_45
  6
CENTER
 62
         1
100
AcDbLine
 10
1425.9932369929
 20
54.4752043251
 30
0.0
 11
1425.9932369929
 21
68.5039107661
 31
0.0
  0
DIMENSION
  5
36F
100
AcDbEntity
  8
L1_45
  6
CONTINUOUS
 62
         4
100
AcDbDimension
  2
*D3
 10
1420.4306258677
 20
73.9337493916
 30
0.0
 11
1410.7519230685
 21
75.9587493916
 31
0.0
  3
DIMSTYLE1
100
AcDbAlignedDimension
 13
1420.4306258677
 23
65.0517263617
 33
0.0
 14
1431.5558481181
 24
65.0517263617
 34
0.0
100
AcDbRotatedDimension
  0
DIMENSION
  5
37D
100
AcDbEntity
  8
L1_45
  6
CONTINUOUS
 62
         4
100
AcDbDimension
  2
*D4
 10
1415.5583492028
 20
67.4139310861
 30
0.0
 11
1413.5333492028
 21
58.9659038528
 31
0.0
  3
DIMSTYLE1
100
AcDbAlignedDimension
 13
1422.7928305921
 23
67.4139310861
 33
0.0
 14
1421.277285761
 24
57.2539107661
 34
0.0
 50
90.0
100
AcDbRotatedDimension
  0
LINE
  5
389
100
AcDbEntity
  8
L1_45
  6
CONTINUOUS
 62
         7
100
AcDbLine
 10
1400.0033403763
 20
-6.0933347407
 30
0.0
 11
1400.0033403763
 21
-19.7933347407
 31
0.0
  0
LINE
  5
38A
100
AcDbEntity
  8
L1_45
  6
CONTINUOUS
 62
         7
100
AcDbLine
 10
1443.5033403763
 20
-6.5933347407
 30
0.0
 11
1400.0033403763
 21
-6.5933347407
 31
0.0
  0
ARC
  5
38B
100
AcDbEntity
  8
L1_45
  6
CONTINUOUS
 62
         7
100
AcDbCircle
 10
1443.5033403763
 20
-5.0933347407
 30
0.0
 40
1.5
100
AcDbArc
 50
270.0
 51
285.022059707
  0
ARC
  5
38C
100
AcDbEntity
  8
L1_45
  6
CONTINUOUS
 62
         7
100
AcDbCircle
 10
1443.5033403763
 20
-5.0933347407
 30
0.0
 40
1.5
100
AcDbArc
 50
314.9779402929
 51
360.0
  0
LINE
  5
38D
100
AcDbEntity
  8
L1_45
  6
CONTINUOUS
 62
         7
100
AcDbLine
 10
1443.8921267583
 20
-6.5420738991
 30
0.0
 11
1444.5635920999
 21
-6.1544032034
 31
0.0
  0
ARC
  5
38E
100
AcDbEntity
  8
L1_45
  6
CONTINUOUS
 62
         7
100
AcDbCircle
 10
1443.5033403763
 20
-20.7933347407
 30
0.0
 40
1.5
100
AcDbArc
 50
74.977940293
 51
90.0
  0
ARC
  5
38F
100
AcDbEntity
  8
L1_45
  6
CONTINUOUS
 62
         7
100
AcDbCircle
 10
1443.5033403763
 20
-20.7933347407
 30
0.0
 40
1.5
100
AcDbArc
 50
0.0
 51
45.022059707
  0
LINE
  5
390
100
AcDbEntity
  8
L1_45
  6
CONTINUOUS
 62
         7
100
AcDbLine
 10
1443.8921267583
 20
-19.3445955823
 30
0.0
 11
1444.5635920999
 21
-19.732266278
 31
0.0
  0
LINE
  5
391
100
AcDbEntity
  8
L1_45
  6
CONTINUOUS
 62
         7
100
AcDbLine
 10
1400.0033403763
 20
-19.2933347407
 30
0.0
 11
1443.5033403763
 21
-19.2933347407
 31
0.0
  0
LINE
  5
392
100
AcDbEntity
  8
L1_45
  6
CONTINUOUS
 62
         4
100
AcDbLine
 10
1443.8921267583
 20
-19.2933347407
 30
0.0
 11
1443.8921267583
 21
-6.5933347407
 31
0.0
  0
LINE
  5
393
100
AcDbEntity
  8
L1_45
  6
CONTINUOUS
 62
         7
100
AcDbLine
 10
1400.0033403763
 20
-6.0933347407
 30
0.0
 11
1380.0033403763
 21
-6.0933347407
 31
0.0
  0
LINE
  5
394
100
AcDbEntity
  8
L1_45
  6
CONTINUOUS
 62
         7
100
AcDbLine
 10
1400.0033403763
 20
-19.7933347407
 30
0.0
 11
1380.0033403763
 21
-19.7933347407
 31
0.0
  0
LINE
  5
395
100
AcDbEntity
  8
L1_45
  6
CONTINUOUS
 62
         7
100
AcDbLine
 10
1380.0033403763
 20
-5.9433347407
 30
0.0
 11
1380.0033403763
 21
-19.9433347407
 31
0.0
  0
DIMENSION
  5
398
100
AcDbEntity
  8
L1_45
  6
CONTINUOUS
 62
         4
100
AcDbDimension
  2
*D5
 10
1380.0033403763
 20
-59.1678446733
 30
0.0
 11
1409.6214536268
 21
-57.1428446733
 31
0.0
  3
DIMSTYLE1
100
AcDbAlignedDimension
 13
1380.0033403763
 23
-19.7933347407
 33
0.0
 14
1445.0033403763
 24
-24.4877293495
 34
0.0
100
AcDbRotatedDimension
  0
LINE
  5
3A4
100
AcDbEntity
  8
_Y__________
  6
CONTINUOUS
 62
         7
100
AcDbLine
 10
1401.2033403763
 20
9.4566652593
 30
0.0
 11
1401.9497505378
 21
9.2566652593
 31
0.0
  0
LINE
  5
3A5
100
AcDbEntity
  8
_Y__________
  6
CONTINUOUS
 62
         7
100
AcDbLine
 10
1401.9497505378
 20
9.2566652593
 30
0.0
 11
1402.6033403763
 21
9.2566652593
 31
0.0
  0
ARC
  5
3A6
100
AcDbEntity
  8
_Y__________
  6
CONTINUOUS
 62
         7
100
AcDbCircle
 10
1402.6033403763
 20
9.8566652593
 30
0.0
 40
0.6
100
AcDbArc
 50
270.0
 51
360.0
  0
LINE
  5
3A7
100
AcDbEntity
  8
_Y__________
  6
CONTINUOUS
 62
         7
100
AcDbLine
 10
1403.2033403763
 20
9.8566652593
 30
0.0
 11
1403.2033403763
 21
17.8316652595
 31
0.0
  0
LINE
  5
3A8
100
AcDbEntity
  8
_Y__________
  6
CONTINUOUS
 62
         7
100
AcDbLine
 10
1404.2033403763
 20
18.8316652595
 30
0.0
 11
1407.5670699775
 21
18.8316652595
 31
0.0
  0
LINE
  5
3A9
100
AcDbEntity
  8
_Y__________
  6
CONTINUOUS
 62
         7
100
AcDbLine
 10
1409.2283403763
 20
15.9542605235
 30
0.0
 11
1407.5670699775
 21
18.8316652593
 31
0.0
  0
ARC
  5
3AA
100
AcDbEntity
  8
_Y__________
  6
CONTINUOUS
 62
         7
100
AcDbCircle
 10
1410.202140708
 20
16.1816652595
 30
0.0
 40
1.0
100
AcDbArc
 50
193.1443256895
 51
270.0
  0
LINE
  5
3AB
100
AcDbEntity
  8
_Y__________
  6
CONTINUOUS
 62
         7
100
AcDbLine
 10
1410.202140708
 20
15.1816652595
 30
0.0
 11
1412.0045400445
 21
15.1816652595
 31
0.0
  0
ARC
  5
3AC
100
AcDbEntity
  8
_Y__________
  6
CONTINUOUS
 62
         7
100
AcDbCircle
 10
1412.0045400445
 20
16.1816652595
 30
0.0
 40
1.0
100
AcDbArc
 50
270.0
 51
346.8556743105
  0
LINE
  5
3AD
100
AcDbEntity
  8
_Y__________
  6
CONTINUOUS
 62
         7
100
AcDbLine
 10
1412.9783403763
 20
15.9542605237
 30
0.0
 11
1414.639610775
 21
18.8316652595
 31
0.0
  0
LINE
  5
3AE
100
AcDbEntity
  8
_Y__________
  6
CONTINUOUS
 62
         7
100
AcDbLine
 10
1414.639610775
 20
18.8316652595
 30
0.0
 11
1418.1033403763
 21
18.8316652595
 31
0.0
  0
ARC
  5
3AF
100
AcDbEntity
  8
_Y__________
  6
CONTINUOUS
 62
         7
100
AcDbCircle
 10
1404.2033403763
 20
17.8316652593
 30
0.0
 40
1.0
100
AcDbArc
 50
90.0
 51
180.0
  0
LINE
  5
3B0
100
AcDbEntity
  8
_Y__________
  6
CONTINUOUS
 62
         7
100
AcDbLine
 10
1404.2033403763
 20
18.8316652593
 30
0.0
 11
1405.2033403763
 21
18.8316652593
 31
0.0
  0
LINE
  5
3B1
100
AcDbEntity
  8
_Y__________
  6
CONTINUOUS
 62
         7
100
AcDbLine
 10
1403.2033403763
 20
17.8316652593
 30
0.0
 11
1403.2033403763
 21
16.8316652593
 31
0.0
  0
LINE
  5
3B2
100
AcDbEntity
  8
_Y__________
  6
CONTINUOUS
 62
         7
100
AcDbLine
 10
1417.1033403763
 20
18.8316652593
 30
0.0
 11
1418.1033403763
 21
18.8316652593
 31
0.0
  0
ARC
  5
3B3
100
AcDbEntity
  8
_Y__________
  6
CONTINUOUS
 62
         7
100
AcDbCircle
 10
1418.1033403763
 20
17.8316652593
 30
0.0
 40
1.0
100
AcDbArc
 50
0.0
 51
90.0
  0
LINE
  5
3B4
100
AcDbEntity
  8
_Y__________
  6
CONTINUOUS
 62
         7
100
AcDbLine
 10
1419.1033403763
 20
17.8316652593
 30
0.0
 11
1419.1033403763
 21
16.8316652593
 31
0.0
  0
LINE
  5
3B5
100
AcDbEntity
  8
_Y__________
  6
CENTER
 62
         1
100
AcDbLine
 10
1402.4927097209
 20
-40.4409236824
 30
0.0
 11
1412.8533372581
 21
-33.1863341803
 31
0.0
  0
LINE
  5
3B6
100
AcDbEntity
  8
_Y__________
  6
CONTINUOUS
 62
         4
100
AcDbLine
 10
1403.2033403763
 20
-37.5017855631
 30
0.0
 11
1406.8895245756
 21
-34.9206915996
 31
0.0
  0
LINE
  5
3B7
100
AcDbEntity
  8
_Y__________
  6
CONTINUOUS
 62
         7
100
AcDbLine
 10
1403.404092129
 20
-37.7884887786
 30
0.0
 11
1407.5186105905
 21
-34.9074719358
 31
0.0
  0
LINE
  5
3B8
100
AcDbEntity
  8
_Y__________
  6
CONTINUOUS
 62
         7
100
AcDbLine
 10
1403.2033403763
 20
-37.5017855631
 30
0.0
 11
1405.5263249435
 21
-40.8193513425
 31
0.0
  0
LINE
  5
3B9
100
AcDbEntity
  8
_Y__________
  6
CONTINUOUS
 62
         7
100
AcDbLine
 10
1403.2033403763
 20
-42.4459226476
 30
0.0
 11
1405.5263249435
 21
-40.8193513425
 31
0.0
  0
LINE
  5
3BA
100
AcDbEntity
  8
_Y__________
  6
CONTINUOUS
 62
         4
100
AcDbLine
 10
1407.5186105905
 20
-34.9074719358
 30
0.0
 11
1411.1860365497
 21
-32.3395126333
 31
0.0
  0
LINE
  5
3BB
100
AcDbEntity
  8
_Y__________
  6
CONTINUOUS
 62
         7
100
AcDbLine
 10
1406.8895245756
 20
-34.9206915996
 30
0.0
 11
1409.183830321
 21
-38.1972997767
 31
0.0
  0
LINE
  5
3BC
100
AcDbEntity
  8
_Y__________
  6
CONTINUOUS
 62
         7
100
AcDbLine
 10
1405.2968943689
 20
-40.4916905248
 30
0.0
 11
1410.6149557901
 21
-36.7679438291
 31
0.0
  0
LINE
  5
3BD
100
AcDbEntity
  8
_Y__________
  6
CONTINUOUS
 62
         4
100
AcDbLine
 10
1405.4976461217
 20
-40.7783937403
 30
0.0
 11
1409.183830321
 21
-38.1972997767
 31
0.0
  0
LINE
  5
3BE
100
AcDbEntity
  8
_Y__________
  6
CONTINUOUS
 62
         4
100
AcDbLine
 10
1413.0788387897
 20
-35.0427143795
 30
0.0
 11
1411.1860365497
 21
-32.3395126333
 31
0.0
  0
LINE
  5
3BF
100
AcDbEntity
  8
_Y__________
  6
CONTINUOUS
 62
         4
100
AcDbLine
 10
1412.9127847976
 20
-33.144708565
 30
0.0
 11
1411.1860365497
 21
-32.3395126333
 31
0.0
  0
LINE
  5
3C0
100
AcDbEntity
  8
_Y__________
  6
CONTINUOUS
 62
         7
100
AcDbLine
 10
1413.0788387897
 20
-35.0427143795
 30
0.0
 11
1412.9127847976
 21
-33.144708565
 31
0.0
  0
LINE
  5
3C1
100
AcDbEntity
  8
_Y__________
  6
CONTINUOUS
 62
         4
100
AcDbLine
 10
1410.6149557901
 20
-36.7679438291
 30
0.0
 11
1413.0788387897
 21
-35.0427143795
 31
0.0
  0
LINE
  5
3C2
100
AcDbEntity
  8
_Y__________
  6
CONTINUOUS
 62
         7
100
AcDbLine
 10
1414.3032034923
 20
-34.7258547267
 30
0.0
 11
1413.949730146
 21
-34.9217882021
 31
0.0
  0
LINE
  5
3C3
100
AcDbEntity
  8
_Y__________
  6
CONTINUOUS
 62
         7
100
AcDbLine
 10
1412.2430511927
 20
-38.1545239296
 30
0.0
 11
1412.2501044988
 21
-37.7504402944
 31
0.0
  0
LINE
  5
3C4
100
AcDbEntity
  8
_Y__________
  6
CONTINUOUS
 62
         7
100
AcDbLine
 10
1414.3032034923
 20
-34.7258547267
 30
0.0
 11
1412.2430511927
 21
-38.1545239296
 31
0.0
  0
LINE
  5
3C5
100
AcDbEntity
  8
_Y__________
  6
CONTINUOUS
 62
         7
100
AcDbLine
 10
1413.949730146
 20
-34.9217882021
 30
0.0
 11
1412.2501044988
 21
-37.7504402944
 31
0.0
  0
LINE
  5
3C6
100
AcDbEntity
  8
_Y__________
  6
CONTINUOUS
 62
         7
100
AcDbLine
 10
1413.949730146
 20
-34.9217882021
 30
0.0
 11
1413.0193504626
 21
-34.3627596896
 31
0.0
  0
LINE
  5
3C7
100
AcDbEntity
  8
_Y__________
  6
CONTINUOUS
 62
         7
100
AcDbLine
 10
1412.2501044988
 20
-37.7504402944
 30
0.0
 11
1410.6149557901
 21
-36.7679438291
 31
0.0
  0
LINE
  5
3C8
100
AcDbEntity
  8
_Y__________
  6
CENTER
 62
         1
100
AcDbLine
 10
1420.8176749777
 20
-40.9734108905
 30
0.0
 11
1385.5681088069
 21
-19.7933347407
 31
0.0
  0
LINE
  5
3C9
100
AcDbEntity
  8
_Y__________
  6
CONTINUOUS
 62
         7
100
AcDbLine
 10
1419.110676138
 20
-37.6144757166
 30
0.0
 11
1414.3032034923
 21
-34.7258547267
 31
0.0
  0
LINE
  5
3CA
100
AcDbEntity
  8
_Y__________
  6
CONTINUOUS
 62
         7
100
AcDbLine
 10
1419.1033403763
 20
-42.2766015351
 30
0.0
 11
1412.2430511927
 21
-38.1545239296
 31
0.0
  0
LINE
  5
3CB
100
AcDbEntity
  8
_Y__________
  6
CONTINUOUS
 62
         7
100
AcDbLine
 10
1410.47763329
 20
-32.8355419359
 30
0.0
 11
1388.7717554505
 21
-19.7933347407
 31
0.0
  0
LINE
  5
3CC
100
AcDbEntity
  8
_Y__________
  6
CONTINUOUS
 62
         7
100
AcDbLine
 10
1407.5186105905
 20
-34.9074719358
 30
0.0
 11
1382.3644621633
 21
-19.7933347407
 31
0.0
  0
LINE
  5
3CD
100
AcDbEntity
  8
L1_45
  6
CONTINUOUS
 62
         7
100
AcDbLine
 10
1416.7733403763
 20
4.5566652593
 30
0.0
 11
1418.0033403763
 21
3.3266652593
 31
0.0
  0
LINE
  5
3CE
100
AcDbEntity
  8
L1_45
  6
CONTINUOUS
 62
         7
100
AcDbLine
 10
1428.0033403763
 20
3.3266652593
 30
0.0
 11
1418.0033403763
 21
3.3266652593
 31
0.0
  0
LINE
  5
3CF
100
AcDbEntity
  8
L1_45
  6
CONTINUOUS
 62
         7
100
AcDbLine
 10
1429.2333403763
 20
4.5566652593
 30
0.0
 11
1428.0033403763
 21
3.3266652593
 31
0.0
  0
LINE
  5
3D0
100
AcDbEntity
  8
L1_45
  6
CENTER
 62
         1
100
AcDbLine
 10
1423.0033403763
 20
143.7409404449
 30
0.0
 11
1423.0033403763
 21
156.6271166028
 31
0.0
  0
CIRCLE
  5
3D1
100
AcDbEntity
  8
L1_45
  6
CONTINUOUS
 62
         7
100
AcDbCircle
 10
1423.0033403763
 20
150.1846417294
 30
0.0
 40
5.0
  0
ARC
  5
3D2
100
AcDbEntity
  8
L1_45
  6
CONTINUOUS
 62
         4
100
AcDbCircle
 10
1423.0033403763
 20
150.1846417294
 30
0.0
 40
5.55
100
AcDbArc
 50
180.0
 51
450.0
  0
LINE
  5
3D3
100
AcDbEntity
  8
_Y__________
  6
CONTINUOUS
 62
         7
100
AcDbLine
 10
1419.1033403763
 20
12.0566652593
 30
0.0
 11
1403.2033403763
 21
12.0566652593
 31
0.0
  0
LINE
  5
3D4
100
AcDbEntity
  8
_Y__________
  6
CONTINUOUS
 62
         7
100
AcDbLine
 10
1415.3033403763
 20
4.5566652593
 30
0.0
 11
1415.3033403763
 21
12.0566652593
 31
0.0
  0
LINE
  5
3D5
100
AcDbEntity
  8
L1_45
  6
CONTINUOUS
 62
         7
100
AcDbLine
 10
1419.1033403763
 20
17.8316652593
 30
0.0
 11
1419.1033403763
 21
7.5566652593
 31
0.0
  0
LINE
  5
3D6
100
AcDbEntity
  8
L1_45
  6
CONTINUOUS
 62
         7
100
AcDbLine
 10
1419.1033403763
 20
-33.4433347407
 30
0.0
 11
1419.1033403763
 21
-43.7183347407
 31
0.0
  0
LINE
  5
3D7
100
AcDbEntity
  8
L1_45
  6
CONTINUOUS
 62
         7
100
AcDbLine
 10
1380.0033403763
 20
-5.9433347407
 30
0.0
 11
1360.2033403763
 21
-5.9433347407
 31
0.0
  0
LINE
  5
3D8
100
AcDbEntity
  8
L1_45
  6
CONTINUOUS
 62
         7
100
AcDbLine
 10
1380.0033403763
 20
-19.9433347407
 30
0.0
 11
1360.2033403763
 21
-19.9433347407
 31
0.0
  0
ARC
  5
3D9
100
AcDbEntity
  8
L1_45
  6
CONTINUOUS
 62
         7
100
AcDbCircle
 10
1422.1033403763
 20
170.6846417294
 30
0.0
 40
3.0
100
AcDbArc
 50
180.0
 51
270.0
  0
ARC
  5
3DA
100
AcDbEntity
  8
L1_45
  6
CONTINUOUS
 62
         7
100
AcDbCircle
 10
1422.1033403763
 20
129.6846417294
 30
0.0
 40
3.0
100
AcDbArc
 50
90.0
 51
180.0
  0
ARC
  5
3DB
100
AcDbEntity
  8
_Y__________
  6
CONTINUOUS
 62
         7
100
AcDbCircle
 10
1423.0033403763
 20
150.1846417294
 30
0.0
 40
8.0
100
AcDbArc
 50
126.6335093962
 51
233.3664906038
  0
LINE
  5
3DC
100
AcDbEntity
  8
_Y__________
  6
CONTINUOUS
 62
         7
100
AcDbLine
 10
1418.2297859746
 20
156.6043908191
 30
0.0
 11
1419.1033403763
 21
157.9261885255
 31
0.0
  0
LINE
  5
3DD
100
AcDbEntity
  8
_Y__________
  6
CONTINUOUS
 62
         7
100
AcDbLine
 10
1418.2297859746
 20
143.7648926397
 30
0.0
 11
1419.1033403763
 21
142.4430949333
 31
0.0
  0
ARC
  5
3DE
100
AcDbEntity
  8
L1_45
  6
CONTINUOUS
 62
         7
100
AcDbCircle
 10
1422.1033403763
 20
7.5566652593
 30
0.0
 40
3.0
100
AcDbArc
 50
180.0
 51
270.0
  0
ARC
  5
3DF
100
AcDbEntity
  8
L1_45
  6
CONTINUOUS
 62
         7
100
AcDbCircle
 10
1422.1033403763
 20
-33.4433347407
 30
0.0
 40
3.0
100
AcDbArc
 50
90.0
 51
180.0
  0
INSERT
  5
42A
100
AcDbEntity
  8
0
  6
CONTINUOUS
100
AcDbBlockReference
  2
*X6
 10
0.0
 20
0.0
 30
0.0
  0
TEXT
  5
42C
100
AcDbEntity
  8
L1_45
  6
CONTINUOUS
 62
         2
100
AcDbText
 10
1607.8551181589
 20
224.3704784082
 30
0.0
 40
4.5
  1
531024
 41
0.98
  7
BOX
100
AcDbText
  0
DIMENSION
  5
42F
100
AcDbEntity
  8
L1_45
  6
CONTINUOUS
 62
         4
100
AcDbDimension
  2
*D7
 10
1459.8960072633
 20
167.6846417294
 30
0.0
 11
1456.7640072633
 21
142.1341529422
 31
0.0
  3
DIMSTYLE1
100
AcDbAlignedDimension
 13
1433.8374164484
 23
167.6846417294
 33
0.0
 14
1433.8374164484
 24
132.6846417294
 34
0.0
 50
90.0
100
AcDbRotatedDimension
  0
ENDSEC
  0
SECTION
  2
OBJECTS
  0
DICTIONARY
  5
19
100
AcDbDictionary
  3
ACAD_GROUP
350
1A
  3
ACAD_MLINESTYLE
350
1B
  0
DICTIONARY
  5
1A
102
{ACAD_REACTORS
330
19
102
}
100
AcDbDictionary
  0
DICTIONARY
  5
1B
102
{ACAD_REACTORS
330
19
102
}
100
AcDbDictionary
  3
STANDARD
350
1C
  0
MLINESTYLE
  5
1C
102
{ACAD_REACTORS
330
1B
102
}
100
AcDbMlineStyle
  2
STANDARD
 70
         0
  3

 62
         0
 51
90.0
 52
90.0
 71
         2
 49
0.5
 62
       256
  6
BYLAYER
 49
-0.5
 62
       256
  6
BYLAYER
  0
ENDSEC
  0
EOF
