  0
SECTION
  2
HEADER
  9
$ACADVER
  1
AC1014
  9
$ACADMAINTVER
 70
         0
  9
$DWGCODEPAGE
  3
BIG5
  9
$INSBASE
 10
0.0
 20
0.0
 30
0.0
  9
$EXTMIN
 10
1234.7235475365
 20
556.6163916471
 30
0.0
  9
$EXTMAX
 10
1857.7235467347
 20
870.7136675075
 30
0.0
  9
$LIMMIN
 10
0.0
 20
0.0
  9
$LIMMAX
 10
0.0
 20
0.0
  9
$ORTHOMODE
 70
         0
  9
$REGENMODE
 70
         1
  9
$FILLMODE
 70
         1
  9
$QTEXTMODE
 70
         0
  9
$MIRRTEXT
 70
         1
  9
$DRAGMODE
 70
         2
  9
$LTSCALE
 40
1.0
  9
$OSMODE
 70
         0
  9
$ATTMODE
 70
         1
  9
$TEXTSIZE
 40
1.7
  9
$TRACEWID
 40
0.05
  9
$TEXTSTYLE
  7
STANDARD
  9
$CLAYER
  8
0
  9
$CELTYPE
  6
CONTINUOUS
  9
$CECOLOR
 62
         4
  9
$CELTSCALE
 40
1.0
  9
$DELOBJ
 70
         1
  9
$DISPSILH
 70
         0
  9
$DIMSCALE
 40
1.0
  9
$DIMASZ
 40
0.18
  9
$DIMEXO
 40
0.0625
  9
$DIMDLI
 40
0.38
  9
$DIMRND
 40
0.0
  9
$DIMDLE
 40
0.0
  9
$DIMEXE
 40
0.25
  9
$DIMTP
 40
0.01
  9
$DIMTM
 40
-0.01
  9
$DIMTXT
 40
2.7
  9
$DIMCEN
 40
0.09
  9
$DIMTSZ
 40
0.0
  9
$DIMTOL
 70
         0
  9
$DIMLIM
 70
         0
  9
$DIMTIH
 70
         1
  9
$DIMTOH
 70
         1
  9
$DIMSE1
 70
         0
  9
$DIMSE2
 70
         0
  9
$DIMTAD
 70
         0
  9
$DIMZIN
 70
         0
  9
$DIMBLK
  1

  9
$DIMASO
 70
         1
  9
$DIMSHO
 70
         1
  9
$DIMPOST
  1

  9
$DIMAPOST
  1

  9
$DIMALT
 70
         0
  9
$DIMALTD
 70
         2
  9
$DIMALTF
 40
25.4
  9
$DIMLFAC
 40
1.0
  9
$DIMTOFL
 70
         0
  9
$DIMTVP
 40
0.0
  9
$DIMTIX
 70
         0
  9
$DIMSOXD
 70
         0
  9
$DIMSAH
 70
         0
  9
$DIMBLK1
  1

  9
$DIMBLK2
  1

  9
$DIMSTYLE
  2
STANDARD
  9
$DIMCLRD
 70
         0
  9
$DIMCLRE
 70
         0
  9
$DIMCLRT
 70
         4
  9
$DIMTFAC
 40
1.0
  9
$DIMGAP
 40
0.09
  9
$DIMJUST
 70
         0
  9
$DIMSD1
 70
         0
  9
$DIMSD2
 70
         0
  9
$DIMTOLJ
 70
         1
  9
$DIMTZIN
 70
         0
  9
$DIMALTZ
 70
         0
  9
$DIMALTTZ
 70
         0
  9
$DIMFIT
 70
         3
  9
$DIMUPT
 70
         0
  9
$DIMUNIT
 70
         2
  9
$DIMDEC
 70
         4
  9
$DIMTDEC
 70
         4
  9
$DIMALTU
 70
         2
  9
$DIMALTTD
 70
         2
  9
$DIMTXSTY
  7
STANDARD
  9
$DIMAUNIT
 70
         0
  9
$LUNITS
 70
         2
  9
$LUPREC
 70
        10
  9
$SKETCHINC
 40
0.1
  9
$FILLETRAD
 40
0.0
  9
$AUNITS
 70
         0
  9
$AUPREC
 70
         0
  9
$MENU
  1
acad
  9
$ELEVATION
 40
0.0
  9
$PELEVATION
 40
0.0
  9
$THICKNESS
 40
0.0
  9
$LIMCHECK
 70
         0
  9
$BLIPMODE
 70
         1
  9
$CHAMFERA
 40
0.0
  9
$CHAMFERB
 40
0.0
  9
$CHAMFERC
 40
0.0
  9
$CHAMFERD
 40
0.0
  9
$SKPOLY
 70
         0
  9
$TDCREATE
 40
0.000000000
  9
$TDUPDATE
 40
0.000000000
  9
$TDINDWG
 40
0.0000000000
  9
$TDUSRTIMER
 40
0.0000000000
  9
$USRTIMER
 70
         1
  9
$ANGBASE
 50
0.0
  9
$ANGDIR
 70
         0
  9
$PDMODE
 70
         2
  9
$PDSIZE
 40
0.0
  9
$PLINEWID
 40
0.0
  9
$COORDS
 70
         1
  9
$SPLFRAME
 70
         0
  9
$SPLINETYPE
 70
         6
  9
$SPLINESEGS
 70
         8
  9
$ATTDIA
 70
         0
  9
$ATTREQ
 70
         1
  9
$HANDLING
 70
         1
  9
$HANDSEED
  5
451
  9
$SURFTAB1
 70
         6
  9
$SURFTAB2
 70
         6
  9
$SURFTYPE
 70
         6
  9
$SURFU
 70
         6
  9
$SURFV
 70
         6
  9
$UCSNAME
  2

  9
$UCSORG
 10
0.0
 20
0.0
 30
0.0
  9
$UCSXDIR
 10
1.0
 20
0.0
 30
0.0
  9
$UCSYDIR
 10
0.0
 20
1.0
 30
0.0
  9
$PUCSNAME
  2

  9
$PUCSORG
 10
0.0
 20
0.0
 30
0.0
  9
$PUCSXDIR
 10
1.0
 20
0.0
 30
0.0
  9
$PUCSYDIR
 10
0.0
 20
1.0
 30
0.0
  9
$USERI1
 70
         0
  9
$USERI2
 70
         0
  9
$USERI3
 70
         0
  9
$USERI4
 70
         0
  9
$USERI5
 70
         0
  9
$USERR1
 40
0.0
  9
$USERR2
 40
0.0
  9
$USERR3
 40
0.0
  9
$USERR4
 40
0.0
  9
$USERR5
 40
0.0
  9
$WORLDVIEW
 70
         1
  9
$SHADEDGE
 70
         3
  9
$SHADEDIF
 70
        70
  9
$TILEMODE
 70
         1
  9
$MAXACTVP
 70
        16
  9
$PINSBASE
 10
0.0
 20
0.0
 30
0.0
  9
$PLIMCHECK
 70
         0
  9
$PEXTMIN
 10
1.0000000000E+20
 20
1.0000000000E+20
 30
1.0000000000E+20
  9
$PEXTMAX
 10
-1.0000000000E+20
 20
-1.0000000000E+20
 30
-1.0000000000E+20
  9
$PLIMMIN
 10
0.0
 20
0.0
  9
$PLIMMAX
 10
12.0
 20
9.0
  9
$UNITMODE
 70
         0
  9
$VISRETAIN
 70
         0
  9
$PLINEGEN
 70
         1
  9
$PSLTSCALE
 70
         0
  9
$TREEDEPTH
 70
      3020
  9
$PICKSTYLE
 70
         1
  9
$CMLSTYLE
  2
STANDARD
  9
$CMLJUST
 70
         0
  9
$CMLSCALE
 40
1.0
  9
$PROXYGRAPHICS
 70
         0
  9
$MEASUREMENT
 70
         0
  0
ENDSEC
  0
SECTION
  2
CLASSES
  0
CLASS
  1
LWPOLYLINE
  2
AcDbPolyline
  3
"AutoCAD"
 90
        0
280
         0
281
         1
  0
CLASS
  1
IMAGE
  2
AcDbRasterImage
  3
ISM
 90
      127
280
         0
281
         1
  0
CLASS
  1
OLE2FRAME
  2
AcDbOle2Frame
  3
""
 90
        0
280
         0
281
         1
  0
CLASS
  1
HATCH
  2
AcDbHatch
  3
"ACAD_SEDONA"
 90
        0
280
         0
281
         1
  0
CLASS
  1
DICTIONARYVAR
  2
AcDbDictionaryVar
  3
"AutoCAD"
 90
        0
280
         0
281
         0
  0
CLASS
  1
RASTERVARIABLES
  2
AcDbRasterVariables
  3
ISM
 90
        0
280
         0
281
         0
  0
CLASS
  1
IMAGEDEF
  2
AcDbRasterImageDef
  3
ISM
 90
        0
280
         0
281
         0
  0
CLASS
  1
IMAGEDEF_REACTOR
  2
AcDbRasterImageDefReactor
  3
ISM
 90
        1
280
         0
281
         0
  0
CLASS
  1
IDBUFFER
  2
AcDbIdBuffer
  3
"Acad"
 90
        0
280
         0
281
         0
  0
CLASS
  1
SPATIAL_FILTER
  2
AcDbSpatialFilter
  3
"Acad"
 90
        0
280
         0
281
         0
  0
CLASS
  1
XRECORD
  2
AcDbXrecord
  3
"<Built In>"
 90
        0
280
         0
281
         0
  0
CLASS
  1
SORTENTSTABLE
  2
AcDbSortentsTable
  3
"AutoCAD"
 90
        0
280
         0
281
         0
  0
CLASS
  1
LAYER_INDEX
  2
AcDbLayerIndex
  3
"Acad"
 90
        0
280
         0
281
         0
  0
CLASS
  1
SPATIAL_INDEX
  2
AcDbSpatialIndex
  3
"Acad"
 90
        0
280
         0
281
         0
  0
CLASS
  1
OBJECT_PTR
  2
CAseDLPNTableRecord
  3
"ASE-LPNTableRecord"
 90
        1
280
         0
281
         0
  0
CLASS
  1
LAYOUT
  2
AcDbLayout
  3
"AutoCAD 2000"
 90
        1
280
         0
281
         0
  0
CLASS
  1
PLOTSETTINGS
  2
AcDbPlotSettings
  3
"AutoCAD 2000"
 90
        1
280
         0
281
         0
  0
CLASS
  1
ACDBDICTIONARYWDFLT
  2
AcDbDictionaryWithDefault
  3
"AutoCAD 2000"
 90
        1
280
         0
281
         0
  0
CLASS
  1
ACDBPLACEHOLDER
  2
AcDbPlaceHolder
  3
"AutoCAD 2000"
 90
        1
280
         0
281
         0
  0
CLASS
  1
VBA_PROJECT
  2
AcDbVbaProject
  3
"acadvba"
 90
        1
280
         0
281
         0
  0
CLASS
  1
WIPEOUT
  2
AcDbWipeout
  3
WipeOut|AutoCAD Express Tool|expresstools@autodesk.com
 90
      127
280
         0
281
         1
  0
CLASS
  1
WIPEOUTVARIABLES
  2
AcDbWipeoutVariables
  3
WipeOut|AutoCAD Express Tool|expresstools@autodesk.com
 90
        0
280
         0
281
         0
  0
CLASS
  1
RTEXT
  2
RText
  3
RText|AutoCAD Express Tool|expresstools@autodesk.com
 90
        0
280
         0
281
         1
  0
CLASS
  1
ARCALIGNEDTEXT
  2
AcDbArcAlignedText
  3
ATEXT|AutoCAD Express Tool|expresstools@autodesk.com
 90
        0
280
         0
281
         1
  0
ENDSEC
  0
SECTION
  2
TABLES
  0
TABLE
  2
VPORT
  5
7
100
AcDbSymbolTable
 70
         1
  0
VPORT
  5
15
100
AcDbSymbolTableRecord
100
AcDbViewportTableRecord
  2
*ACTIVE
 70
         0
 10
0.0
 20
0.0
 11
1.0
 21
1.0
 12
1546.2235471356
 22
713.6650295773
 13
0.0
 23
0.0
 14
1.0
 24
1.0
 15
0.0
 25
0.0
 16
0.0
 26
0.0
 36
1.0
 17
0.0
 27
0.0
 37
0.0
 40
314.0972758604
 41
1.9834619625
 42
50.0
 43
0.0
 44
0.0
 50
0.0
 51
0.0
 71
         0
 72
       100
 73
         1
 74
         1
 75
         0
 76
         0
 77
         0
 78
         0
  0
ENDTAB
  0
TABLE
  2
LTYPE
  5
4
100
AcDbSymbolTable
 70
         6
  0
LTYPE
  5
11
100
AcDbSymbolTableRecord
100
AcDbLinetypeTableRecord
  2
BYBLOCK
 70
        64
  3

 72
        65
 73
         0
 40
0.0
  0
LTYPE
  5
12
100
AcDbSymbolTableRecord
100
AcDbLinetypeTableRecord
  2
BYLAYER
 70
        64
  3

 72
        65
 73
         0
 40
0.0
  0
LTYPE
  5
13
100
AcDbSymbolTableRecord
100
AcDbLinetypeTableRecord
  2
CONTINUOUS
 70
        64
  3
Solid line
 72
        65
 73
         0
 40
0.0
  0
LTYPE
  5
1D
100
AcDbSymbolTableRecord
100
AcDbLinetypeTableRecord
  2
DASHED
 70
        64
  3
_ _ _ _ _ _ _ _ _ _ _ _ _ _ _ _
 72
        65
 73
         2
 40
0.2
 49
0.1
 74
         0
 49
-0.1
 74
         0
  0
LTYPE
  5
1E
100
AcDbSymbolTableRecord
100
AcDbLinetypeTableRecord
  2
CENTER
 70
        64
  3
___ _ ___ _ ___ _ ___ _ ___ _ ___ _ ___ _ ___ _
 72
        65
 73
         4
 40
0.95
 49
0.625
 74
         0
 49
-0.125
 74
         0
 49
0.075
 74
         0
 49
-0.125
 74
         0
  0
LTYPE
  5
1F
100
AcDbSymbolTableRecord
100
AcDbLinetypeTableRecord
  2
PHANTOM
 70
        64
  3
______  __  __  ______  __  __  ______  __  __  
 72
        65
 73
         6
 40
1.025
 49
0.625
 74
         0
 49
-0.125
 74
         0
 49
0.075
 74
         0
 49
-0.125
 74
         0
 49
0.075
 74
         0
 49
-0.125
 74
         0
  0
ENDTAB
  0
TABLE
  2
LAYER
  5
2
100
AcDbSymbolTable
 70
        16
  0
LAYER
  5
14
100
AcDbSymbolTableRecord
100
AcDbLayerTableRecord
  2
0
 70
         0
 62
         7
  6
CONTINUOUS
  0
LAYER
  5
21
100
AcDbSymbolTableRecord
100
AcDbLayerTableRecord
  2
____
 70
         0
 62
         7
  6
CONTINUOUS
  0
LAYER
  5
22
100
AcDbSymbolTableRecord
100
AcDbLayerTableRecord
  2
____
 70
         1
 62
         7
  6
CONTINUOUS
  0
LAYER
  5
23
100
AcDbSymbolTableRecord
100
AcDbLayerTableRecord
  2
____
 70
         1
 62
         7
  6
CONTINUOUS
  0
LAYER
  5
24
100
AcDbSymbolTableRecord
100
AcDbLayerTableRecord
  2
____
 70
         1
 62
         7
  6
CONTINUOUS
  0
LAYER
  5
25
100
AcDbSymbolTableRecord
100
AcDbLayerTableRecord
  2
___Y__
 70
         1
 62
         7
  6
CONTINUOUS
  0
LAYER
  5
26
100
AcDbSymbolTableRecord
100
AcDbLayerTableRecord
  2
___G
 70
         1
 62
         7
  6
CONTINUOUS
  0
LAYER
  5
27
100
AcDbSymbolTableRecord
100
AcDbLayerTableRecord
  2
___G____G_
 70
         1
 62
         7
  6
CONTINUOUS
  0
LAYER
  5
28
100
AcDbSymbolTableRecord
100
AcDbLayerTableRecord
  2
______
 70
         1
 62
         7
  6
CONTINUOUS
  0
LAYER
  5
29
100
AcDbSymbolTableRecord
100
AcDbLayerTableRecord
  2
__________G_
 70
         1
 62
         7
  6
CONTINUOUS
  0
LAYER
  5
2A
100
AcDbSymbolTableRecord
100
AcDbLayerTableRecord
  2
______
 70
         1
 62
         7
  6
CONTINUOUS
  0
LAYER
  5
2B
100
AcDbSymbolTableRecord
100
AcDbLayerTableRecord
  2
______
 70
         1
 62
         7
  6
CONTINUOUS
  0
LAYER
  5
2C
100
AcDbSymbolTableRecord
100
AcDbLayerTableRecord
  2
____
 70
         1
 62
         7
  6
CONTINUOUS
  0
LAYER
  5
2D
100
AcDbSymbolTableRecord
100
AcDbLayerTableRecord
  2
___T
 70
         1
 62
         7
  6
CONTINUOUS
  0
LAYER
  5
2E
100
AcDbSymbolTableRecord
100
AcDbLayerTableRecord
  2
_P____
 70
         1
 62
         7
  6
CONTINUOUS
  0
LAYER
  5
1A3
100
AcDbSymbolTableRecord
100
AcDbLayerTableRecord
  2
DEFPOINTS
 70
         0
 62
        -7
  6
CONTINUOUS
  0
ENDTAB
  0
TABLE
  2
STYLE
  5
3
100
AcDbSymbolTable
 70
        10
  0
STYLE
  5
17
100
AcDbSymbolTableRecord
100
AcDbTextStyleTableRecord
  2
STANDARD
 70
         0
 40
0.0
 41
1.0
 50
0.0
 71
         0
 42
0.0
  3
txt
  4

  0
STYLE
  5
1AC
100
AcDbSymbolTableRecord
100
AcDbTextStyleTableRecord
  2
BOX
 70
         0
 40
1.0
 41
1.0
 50
0.0
 71
         0
 42
0.2
  3
txt.shx
  4

  0
STYLE
  5
220
100
AcDbSymbolTableRecord
100
AcDbTextStyleTableRecord
  2
BOX
 70
         0
 40
1.0
 41
1.0
 50
0.0
 71
         0
 42
0.2
  3
txt.shx
  4

  0
STYLE
  5
258
100
AcDbSymbolTableRecord
100
AcDbTextStyleTableRecord
  2
BOX
 70
         0
 40
1.0
 41
1.0
 50
0.0
 71
         0
 42
0.2
  3
txt.shx
  4

  0
STYLE
  5
281
100
AcDbSymbolTableRecord
100
AcDbTextStyleTableRecord
  2
BOX
 70
         0
 40
1.0
 41
1.0
 50
0.0
 71
         0
 42
0.2
  3
txt.shx
  4

  0
STYLE
  5
298
100
AcDbSymbolTableRecord
100
AcDbTextStyleTableRecord
  2
BOX
 70
         0
 40
1.0
 41
1.0
 50
0.0
 71
         0
 42
0.2
  3
txt.shx
  4

  0
STYLE
  5
2CB
100
AcDbSymbolTableRecord
100
AcDbTextStyleTableRecord
  2
BOX
 70
         0
 40
1.0
 41
1.0
 50
0.0
 71
         0
 42
0.2
  3
txt.shx
  4

  0
STYLE
  5
2D9
100
AcDbSymbolTableRecord
100
AcDbTextStyleTableRecord
  2
BOX
 70
         0
 40
1.0
 41
1.0
 50
0.0
 71
         0
 42
0.2
  3
txt.shx
  4

  0
STYLE
  5
44C
100
AcDbSymbolTableRecord
100
AcDbTextStyleTableRecord
  2
BOX
 70
         0
 40
1.0
 41
1.0
 50
0.0
 71
         0
 42
0.2
  3
txt.shx
  4

  0
STYLE
  5
44F
100
AcDbSymbolTableRecord
100
AcDbTextStyleTableRecord
  2
BOX
 70
         0
 40
1.0
 41
1.0
 50
0.0
 71
         0
 42
0.2
  3
txt.shx
  4

  0
ENDTAB
  0
TABLE
  2
VIEW
  5
5
100
AcDbSymbolTable
 70
         0
  0
ENDTAB
  0
TABLE
  2
UCS
  5
6
100
AcDbSymbolTable
 70
         1
  0
UCS
  5
20
100
AcDbSymbolTableRecord
100
AcDbUCSTableRecord
  2
CK_VIEW_1
 70
         0
 10
0.0
 20
0.0
 30
1.0
 11
1.0
 21
0.0
 31
0.0
 12
0.0
 22
1.0
 32
0.0
  0
ENDTAB
  0
TABLE
  2
APPID
  5
8
100
AcDbSymbolTable
 70
         1
  0
APPID
  5
16
100
AcDbSymbolTableRecord
100
AcDbRegAppTableRecord
  2
ACAD
 70
         0
  0
ENDTAB
  0
TABLE
  2
DIMSTYLE
  5
9
100
AcDbSymbolTable
 70
         2
  0
DIMSTYLE
105
18
100
AcDbSymbolTableRecord
100
AcDbDimStyleTableRecord
  2
STANDARD
 70
         0
  3

  4

  5

  6

  7

 40
1.0
 41
0.18
 42
0.0625
 43
0.38
 44
0.18
 45
0.0
 46
0.0
 47
0.0
 48
0.0
 71
         0
 72
         0
 73
         1
 74
         1
 75
         0
 76
         0
 77
         0
 78
         0
140
0.18
141
0.09
142
0.0
143
25.4
144
1.0
145
0.0
146
1.0
147
0.09
170
         0
171
         2
172
         0
173
         0
174
         0
175
         0
176
         0
177
         0
178
         0
270
         2
271
         4
272
         4
273
         2
274
         2
275
         0
280
         0
281
         0
282
         0
283
         1
284
         0
285
         0
286
         0
287
         0
288
         0
340
17
  0
DIMSTYLE
105
19F
100
AcDbSymbolTableRecord
100
AcDbDimStyleTableRecord
  2
DIMSTYLE1
 70
         0
  3

  4

  5

  6

  7

 40
1.0
 41
2.7
 42
0.0625
 43
0.38
 44
2.7
 45
0.0
 46
0.0
 47
0.0
 48
0.0
 71
         0
 72
         0
 73
         1
 74
         1
 75
         0
 76
         0
 77
         0
 78
         0
140
2.7
141
0.09
142
0.0
143
25.4
144
1.0
145
0.0
146
1.0
147
0.09
170
         0
171
         2
172
         0
173
         0
174
         0
175
         0
176
         0
177
         0
178
         0
270
         2
271
         4
272
         4
273
         2
274
         2
275
         0
280
         0
281
         0
282
         0
283
         1
284
         0
285
         0
286
         0
287
         0
288
         0
340
17
  0
ENDTAB
  0
TABLE
  2
BLOCK_RECORD
  5
1
100
AcDbSymbolTable
 70
         9
  0
BLOCK_RECORD
  5
A
100
AcDbSymbolTableRecord
100
AcDbBlockTableRecord
  2
*MODEL_SPACE
  0
BLOCK_RECORD
  5
B
100
AcDbSymbolTableRecord
100
AcDbBlockTableRecord
  2
*PAPER_SPACE
  0
BLOCK_RECORD
  5
1A0
100
AcDbSymbolTableRecord
100
AcDbBlockTableRecord
  2
*D0
  0
BLOCK_RECORD
  5
214
100
AcDbSymbolTableRecord
100
AcDbBlockTableRecord
  2
*D1
  0
BLOCK_RECORD
  5
24D
100
AcDbSymbolTableRecord
100
AcDbBlockTableRecord
  2
*D2
  0
BLOCK_RECORD
  5
275
100
AcDbSymbolTableRecord
100
AcDbBlockTableRecord
  2
*D3
  0
BLOCK_RECORD
  5
28D
100
AcDbSymbolTableRecord
100
AcDbBlockTableRecord
  2
*D4
  0
BLOCK_RECORD
  5
2C0
100
AcDbSymbolTableRecord
100
AcDbBlockTableRecord
  2
*D5
  0
BLOCK_RECORD
  5
2CE
100
AcDbSymbolTableRecord
100
AcDbBlockTableRecord
  2
*D6
  0
BLOCK_RECORD
  5
3F9
100
AcDbSymbolTableRecord
100
AcDbBlockTableRecord
  2
*X7
  0
BLOCK_RECORD
  5
441
100
AcDbSymbolTableRecord
100
AcDbBlockTableRecord
  2
*D8
  0
ENDTAB
  0
ENDSEC
  0
SECTION
  2
BLOCKS
  0
BLOCK
  5
D
100
AcDbEntity
  8
0
100
AcDbBlockBegin
  2
*MODEL_SPACE
 70
         0
 10
0.0
 20
0.0
 30
0.0
  3
*MODEL_SPACE
  1

  0
ENDBLK
  5
E
100
AcDbEntity
  8
0
100
AcDbBlockEnd
  0
BLOCK
  5
F
100
AcDbEntity
 67
         1
  8
0
100
AcDbBlockBegin
  2
*PAPER_SPACE
 70
         0
 10
0.0
 20
0.0
 30
0.0
  3
*PAPER_SPACE
  1

  0
ENDBLK
  5
10
100
AcDbEntity
 67
         1
  8
0
100
AcDbBlockEnd
  0
BLOCK
  5
1A1
100
AcDbEntity
  8
0
100
AcDbBlockBegin
  2
*D0
 70
        65
 10
0.0
 20
0.0
 30
0.0
  3
*D0
  1

  0
POINT
  5
1A4
100
AcDbEntity
  8
DEFPOINTS
  6
CONTINUOUS
 62
         0
100
AcDbPoint
 10
1592.8254785609
 20
784.2319665993
 30
0.0
  0
POINT
  5
1A5
100
AcDbEntity
  8
DEFPOINTS
  6
CONTINUOUS
 62
         0
100
AcDbPoint
 10
1560.201902034
 20
784.2319665993
 30
0.0
  0
POINT
  5
1A6
100
AcDbEntity
  8
DEFPOINTS
  6
CONTINUOUS
 62
         0
100
AcDbPoint
 10
1560.201902034
 20
739.7819665993
 30
0.0
  0
LINE
  5
1A7
100
AcDbEntity
  8
____
  6
CONTINUOUS
 62
         4
100
AcDbLine
 10
1561.551902034
 20
784.2319665993
 30
0.0
 11
1593.5004785609
 21
784.2319665993
 31
0.0
  0
LINE
  5
1A8
100
AcDbEntity
  8
____
  6
CONTINUOUS
 62
         4
100
AcDbLine
 10
1561.551902034
 20
739.7819665993
 30
0.0
 11
1593.5004785609
 21
739.7819665993
 31
0.0
  0
LINE
  5
1A9
100
AcDbEntity
  8
____
  6
CONTINUOUS
 62
         4
100
AcDbLine
 10
1592.8254785609
 20
784.2319665993
 30
0.0
 11
1592.8254785609
 21
739.7819665993
 31
0.0
  0
SOLID
  5
1AA
100
AcDbEntity
  8
____
  6
CONTINUOUS
 62
         4
100
AcDbTrace
 10
1592.8254785609
 20
784.2319665993
 30
0.0
 11
1593.2304785609
 21
781.5319665993
 31
0.0
 12
1592.4204785609
 22
781.5319665993
 32
0.0
 13
1592.8254785609
 23
784.2319665993
 33
0.0
  0
SOLID
  5
1AB
100
AcDbEntity
  8
____
  6
CONTINUOUS
 62
         4
100
AcDbTrace
 10
1592.8254785609
 20
739.7819665993
 30
0.0
 11
1592.4204785609
 21
742.4819665993
 31
0.0
 12
1593.2304785609
 22
742.4819665993
 32
0.0
 13
1592.8254785609
 23
739.7819665993
 33
0.0
  0
TEXT
  5
1AD
100
AcDbEntity
  8
____
  6
CONTINUOUS
 62
         4
100
AcDbText
 10
1590.8004785609
 20
750.7436196188
 30
0.0
 40
2.7
  1
崷44.57
 50
90.0
  7
BOX
100
AcDbText
  0
ENDBLK
  5
1AE
100
AcDbEntity
  8
0
  6
CONTINUOUS
100
AcDbBlockEnd
  0
BLOCK
  5
215
100
AcDbEntity
  8
0
100
AcDbBlockBegin
  2
*D1
 70
        65
 10
0.0
 20
0.0
 30
0.0
  3
*D1
  1

  0
POINT
  5
217
100
AcDbEntity
  8
DEFPOINTS
  6
CONTINUOUS
 62
         0
100
AcDbPoint
 10
1540.7286645784
 20
600.8528157111
 30
0.0
  0
POINT
  5
218
100
AcDbEntity
  8
DEFPOINTS
  6
CONTINUOUS
 62
         0
100
AcDbPoint
 10
1540.7286645784
 20
590.8627051551
 30
0.0
  0
POINT
  5
219
100
AcDbEntity
  8
DEFPOINTS
  6
CONTINUOUS
 62
         0
100
AcDbPoint
 10
1555.0186645784
 20
590.8627051551
 30
0.0
  0
LINE
  5
21A
100
AcDbEntity
  8
____
  6
CONTINUOUS
 62
         4
100
AcDbLine
 10
1540.7286645784
 20
592.2127051551
 30
0.0
 11
1540.7286645784
 21
601.5278157111
 31
0.0
  0
LINE
  5
21B
100
AcDbEntity
  8
____
  6
CONTINUOUS
 62
         4
100
AcDbLine
 10
1555.0186645784
 20
592.2127051551
 30
0.0
 11
1555.0186645784
 21
601.5278157111
 31
0.0
  0
LINE
  5
21C
100
AcDbEntity
  8
____
  6
CONTINUOUS
 62
         4
100
AcDbLine
 10
1540.7286645784
 20
600.8528157111
 30
0.0
 11
1555.0186645784
 21
600.8528157111
 31
0.0
  0
SOLID
  5
21D
100
AcDbEntity
  8
____
  6
CONTINUOUS
 62
         4
100
AcDbTrace
 10
1540.7286645784
 20
600.8528157111
 30
0.0
 11
1543.4286645784
 21
601.2578157111
 31
0.0
 12
1543.4286645784
 22
600.4478157111
 32
0.0
 13
1540.7286645784
 23
600.8528157111
 33
0.0
  0
LINE
  5
21E
100
AcDbEntity
  8
____
  6
CONTINUOUS
 62
         4
100
AcDbLine
 10
1555.0186645784
 20
600.8528157111
 30
0.0
 11
1539.7811260109
 21
600.8528157111
 31
0.0
  0
SOLID
  5
21F
100
AcDbEntity
  8
____
  6
CONTINUOUS
 62
         4
100
AcDbTrace
 10
1555.0186645784
 20
600.8528157111
 30
0.0
 11
1552.3186645784
 21
600.4478157111
 31
0.0
 12
1552.3186645784
 22
601.2578157111
 32
0.0
 13
1555.0186645784
 23
600.8528157111
 33
0.0
  0
TEXT
  5
221
100
AcDbEntity
  8
____
  6
CONTINUOUS
 62
         4
100
AcDbText
 10
1541.1311260109
 20
602.8778157111
 30
0.0
 40
2.7
  1
9/16"-18UNF
  7
BOX
100
AcDbText
  0
ENDBLK
  5
222
100
AcDbEntity
  8
0
  6
CONTINUOUS
100
AcDbBlockEnd
  0
BLOCK
  5
24E
100
AcDbEntity
  8
0
100
AcDbBlockBegin
  2
*D2
 70
        65
 10
0.0
 20
0.0
 30
0.0
  3
*D2
  1

  0
POINT
  5
250
100
AcDbEntity
  8
DEFPOINTS
  6
CONTINUOUS
 62
         0
100
AcDbPoint
 10
1532.3430737037
 20
580.9077051551
 30
0.0
  0
POINT
  5
251
100
AcDbEntity
  8
DEFPOINTS
  6
CONTINUOUS
 62
         0
100
AcDbPoint
 10
1541.9836645784
 20
580.9077051551
 30
0.0
  0
POINT
  5
252
100
AcDbEntity
  8
DEFPOINTS
  6
CONTINUOUS
 62
         0
100
AcDbPoint
 10
1541.9836645784
 20
592.9077051551
 30
0.0
  0
LINE
  5
253
100
AcDbEntity
  8
____
  6
CONTINUOUS
 62
         4
100
AcDbLine
 10
1540.6336645784
 20
580.9077051551
 30
0.0
 11
1531.6680737037
 21
580.9077051551
 31
0.0
  0
LINE
  5
254
100
AcDbEntity
  8
____
  6
CONTINUOUS
 62
         4
100
AcDbLine
 10
1540.6336645784
 20
592.9077051551
 30
0.0
 11
1531.6680737037
 21
592.9077051551
 31
0.0
  0
LINE
  5
255
100
AcDbEntity
  8
____
  6
CONTINUOUS
 62
         4
100
AcDbLine
 10
1532.3430737037
 20
580.9077051551
 30
0.0
 11
1532.3430737037
 21
592.9077051551
 31
0.0
  0
SOLID
  5
256
100
AcDbEntity
  8
____
  6
CONTINUOUS
 62
         4
100
AcDbTrace
 10
1532.3430737037
 20
580.9077051551
 30
0.0
 11
1531.9380737037
 21
583.6077051551
 31
0.0
 12
1532.7480737037
 22
583.6077051551
 32
0.0
 13
1532.3430737037
 23
580.9077051551
 33
0.0
  0
SOLID
  5
257
100
AcDbEntity
  8
____
  6
CONTINUOUS
 62
         4
100
AcDbTrace
 10
1532.3430737037
 20
592.9077051551
 30
0.0
 11
1532.7480737037
 21
590.2077051551
 31
0.0
 12
1531.9380737037
 22
590.2077051551
 32
0.0
 13
1532.3430737037
 23
592.9077051551
 33
0.0
  0
TEXT
  5
259
100
AcDbEntity
  8
____
  6
CONTINUOUS
 62
         4
100
AcDbText
 10
1530.3180737037
 20
584.1629144752
 30
0.0
 40
2.7
  1
13
 50
90.0
  7
BOX
100
AcDbText
  0
ENDBLK
  5
25A
100
AcDbEntity
  8
0
  6
CONTINUOUS
100
AcDbBlockEnd
  0
BLOCK
  5
276
100
AcDbEntity
  8
0
100
AcDbBlockBegin
  2
*D3
 70
        65
 10
0.0
 20
0.0
 30
0.0
  3
*D3
  1

  0
POINT
  5
278
100
AcDbEntity
  8
DEFPOINTS
  6
CONTINUOUS
 62
         0
100
AcDbPoint
 10
1544.1786228556
 20
571.5685405499
 30
0.0
  0
POINT
  5
279
100
AcDbEntity
  8
DEFPOINTS
  6
CONTINUOUS
 62
         0
100
AcDbPoint
 10
1544.1786228556
 20
581.5077051551
 30
0.0
  0
POINT
  5
27A
100
AcDbEntity
  8
DEFPOINTS
  6
CONTINUOUS
 62
         0
100
AcDbPoint
 10
1551.5687063012
 20
581.5077051551
 30
0.0
  0
LINE
  5
27B
100
AcDbEntity
  8
____
  6
CONTINUOUS
 62
         4
100
AcDbLine
 10
1544.1786228556
 20
580.1577051551
 30
0.0
 11
1544.1786228556
 21
570.8935405499
 31
0.0
  0
LINE
  5
27C
100
AcDbEntity
  8
____
  6
CONTINUOUS
 62
         4
100
AcDbLine
 10
1551.5687063012
 20
580.1577051551
 30
0.0
 11
1551.5687063012
 21
570.8935405499
 31
0.0
  0
LINE
  5
27D
100
AcDbEntity
  8
____
  6
CONTINUOUS
 62
         4
100
AcDbLine
 10
1544.1786228556
 20
571.5685405499
 30
0.0
 11
1551.5687063012
 21
571.5685405499
 31
0.0
  0
SOLID
  5
27E
100
AcDbEntity
  8
____
  6
CONTINUOUS
 62
         4
100
AcDbTrace
 10
1544.1786228556
 20
571.5685405499
 30
0.0
 11
1546.8786228556
 21
571.9735405499
 31
0.0
 12
1546.8786228556
 22
571.1635405499
 32
0.0
 13
1544.1786228556
 23
571.5685405499
 33
0.0
  0
LINE
  5
27F
100
AcDbEntity
  8
____
  6
CONTINUOUS
 62
         4
100
AcDbLine
 10
1551.5687063012
 20
571.5685405499
 30
0.0
 11
1573.3801593732
 21
571.5685405499
 31
0.0
  0
SOLID
  5
280
100
AcDbEntity
  8
____
  6
CONTINUOUS
 62
         4
100
AcDbTrace
 10
1551.5687063012
 20
571.5685405499
 30
0.0
 11
1548.8687063012
 21
571.1635405499
 31
0.0
 12
1548.8687063012
 22
571.9735405499
 32
0.0
 13
1551.5687063012
 23
571.5685405499
 33
0.0
  0
TEXT
  5
282
100
AcDbEntity
  8
____
  6
CONTINUOUS
 62
         4
100
AcDbText
 10
1555.8301593732
 20
573.5935405499
 30
0.0
 40
2.7
  1
6.4Hex
  7
BOX
100
AcDbText
  0
ENDBLK
  5
283
100
AcDbEntity
  8
0
  6
CONTINUOUS
100
AcDbBlockEnd
  0
BLOCK
  5
28E
100
AcDbEntity
  8
0
100
AcDbBlockBegin
  2
*D4
 70
        65
 10
0.0
 20
0.0
 30
0.0
  3
*D4
  1

  0
POINT
  5
290
100
AcDbEntity
  8
DEFPOINTS
  6
CONTINUOUS
 62
         0
100
AcDbPoint
 10
1519.999902034
 20
692.1061723361
 30
0.0
  0
POINT
  5
291
100
AcDbEntity
  8
DEFPOINTS
  6
CONTINUOUS
 62
         0
100
AcDbPoint
 10
1519.999902034
 20
655.3403207807
 30
0.0
  0
POINT
  5
292
100
AcDbEntity
  8
DEFPOINTS
  6
CONTINUOUS
 62
         0
100
AcDbPoint
 10
1569.999902034
 20
661.6261802591
 30
0.0
  0
LINE
  5
293
100
AcDbEntity
  8
____
  6
CONTINUOUS
 62
         4
100
AcDbLine
 10
1519.999902034
 20
656.6903207807
 30
0.0
 11
1519.999902034
 21
692.7811723361
 31
0.0
  0
LINE
  5
294
100
AcDbEntity
  8
____
  6
CONTINUOUS
 62
         4
100
AcDbLine
 10
1569.999902034
 20
662.9761802591
 30
0.0
 11
1569.999902034
 21
692.7811723361
 31
0.0
  0
LINE
  5
295
100
AcDbEntity
  8
____
  6
CONTINUOUS
 62
         4
100
AcDbLine
 10
1519.999902034
 20
692.1061723361
 30
0.0
 11
1569.999902034
 21
692.1061723361
 31
0.0
  0
SOLID
  5
296
100
AcDbEntity
  8
____
  6
CONTINUOUS
 62
         4
100
AcDbTrace
 10
1519.999902034
 20
692.1061723361
 30
0.0
 11
1522.699902034
 21
692.5111723361
 31
0.0
 12
1522.699902034
 22
691.7011723361
 32
0.0
 13
1519.999902034
 23
692.1061723361
 33
0.0
  0
SOLID
  5
297
100
AcDbEntity
  8
____
  6
CONTINUOUS
 62
         4
100
AcDbTrace
 10
1569.999902034
 20
692.1061723361
 30
0.0
 11
1567.299902034
 21
691.7011723361
 31
0.0
 12
1567.299902034
 22
692.5111723361
 32
0.0
 13
1569.999902034
 23
692.1061723361
 33
0.0
  0
TEXT
  5
299
100
AcDbEntity
  8
____
  6
CONTINUOUS
 62
         4
100
AcDbText
 10
1543.7037653096
 20
694.1311723361
 30
0.0
 40
2.7
  1
50
  7
BOX
100
AcDbText
  0
ENDBLK
  5
29A
100
AcDbEntity
  8
0
  6
CONTINUOUS
100
AcDbBlockEnd
  0
BLOCK
  5
2C1
100
AcDbEntity
  8
0
100
AcDbBlockBegin
  2
*D5
 70
        65
 10
0.0
 20
0.0
 30
0.0
  3
*D5
  1

  0
POINT
  5
2C3
100
AcDbEntity
  8
DEFPOINTS
  6
CONTINUOUS
 62
         0
100
AcDbPoint
 10
1525.149902034
 20
842.666708845
 30
0.0
  0
POINT
  5
2C4
100
AcDbEntity
  8
DEFPOINTS
  6
CONTINUOUS
 62
         0
100
AcDbPoint
 10
1525.149902034
 20
784.2319665993
 30
0.0
  0
POINT
  5
2C5
100
AcDbEntity
  8
DEFPOINTS
  6
CONTINUOUS
 62
         0
100
AcDbPoint
 10
1569.999902034
 20
776.7328260777
 30
0.0
  0
LINE
  5
2C6
100
AcDbEntity
  8
____
  6
CONTINUOUS
 62
         4
100
AcDbLine
 10
1525.149902034
 20
785.5819665993
 30
0.0
 11
1525.149902034
 21
843.341708845
 31
0.0
  0
LINE
  5
2C7
100
AcDbEntity
  8
____
  6
CONTINUOUS
 62
         4
100
AcDbLine
 10
1569.999902034
 20
778.0828260777
 30
0.0
 11
1569.999902034
 21
843.341708845
 31
0.0
  0
LINE
  5
2C8
100
AcDbEntity
  8
____
  6
CONTINUOUS
 62
         4
100
AcDbLine
 10
1525.149902034
 20
842.666708845
 30
0.0
 11
1569.999902034
 21
842.666708845
 31
0.0
  0
SOLID
  5
2C9
100
AcDbEntity
  8
____
  6
CONTINUOUS
 62
         4
100
AcDbTrace
 10
1525.149902034
 20
842.666708845
 30
0.0
 11
1527.849902034
 21
843.071708845
 31
0.0
 12
1527.849902034
 22
842.261708845
 32
0.0
 13
1525.149902034
 23
842.666708845
 33
0.0
  0
SOLID
  5
2CA
100
AcDbEntity
  8
____
  6
CONTINUOUS
 62
         4
100
AcDbTrace
 10
1569.999902034
 20
842.666708845
 30
0.0
 11
1567.299902034
 21
842.261708845
 31
0.0
 12
1567.299902034
 22
843.071708845
 32
0.0
 13
1569.999902034
 23
842.666708845
 33
0.0
  0
TEXT
  5
2CC
100
AcDbEntity
  8
____
  6
CONTINUOUS
 62
         4
100
AcDbText
 10
1544.6740076498
 20
844.691708845
 30
0.0
 40
2.7
  1
45
  7
BOX
100
AcDbText
  0
ENDBLK
  5
2CD
100
AcDbEntity
  8
0
  6
CONTINUOUS
100
AcDbBlockEnd
  0
BLOCK
  5
2CF
100
AcDbEntity
  8
0
100
AcDbBlockBegin
  2
*D6
 70
        65
 10
0.0
 20
0.0
 30
0.0
  3
*D6
  1

  0
POINT
  5
2D1
100
AcDbEntity
  8
DEFPOINTS
  6
CONTINUOUS
 62
         0
100
AcDbPoint
 10
1569.999902034
 20
851.7115186047
 30
0.0
  0
POINT
  5
2D2
100
AcDbEntity
  8
DEFPOINTS
  6
CONTINUOUS
 62
         0
100
AcDbPoint
 10
1569.999902034
 20
776.7328260777
 30
0.0
  0
POINT
  5
2D3
100
AcDbEntity
  8
DEFPOINTS
  6
CONTINUOUS
 62
         0
100
AcDbPoint
 10
1456.749902034
 20
773.2192733157
 30
0.0
  0
LINE
  5
2D4
100
AcDbEntity
  8
____
  6
CONTINUOUS
 62
         4
100
AcDbLine
 10
1569.999902034
 20
778.0828260777
 30
0.0
 11
1569.999902034
 21
852.3865186047
 31
0.0
  0
LINE
  5
2D5
100
AcDbEntity
  8
____
  6
CONTINUOUS
 62
         4
100
AcDbLine
 10
1456.749902034
 20
774.5692733157
 30
0.0
 11
1456.749902034
 21
852.3865186047
 31
0.0
  0
LINE
  5
2D6
100
AcDbEntity
  8
____
  6
CONTINUOUS
 62
         4
100
AcDbLine
 10
1569.999902034
 20
851.7115186047
 30
0.0
 11
1456.749902034
 21
851.7115186047
 31
0.0
  0
SOLID
  5
2D7
100
AcDbEntity
  8
____
  6
CONTINUOUS
 62
         4
100
AcDbTrace
 10
1569.999902034
 20
851.7115186047
 30
0.0
 11
1567.299902034
 21
851.3065186047
 31
0.0
 12
1567.299902034
 22
852.1165186047
 32
0.0
 13
1569.999902034
 23
851.7115186047
 33
0.0
  0
SOLID
  5
2D8
100
AcDbEntity
  8
____
  6
CONTINUOUS
 62
         4
100
AcDbTrace
 10
1456.749902034
 20
851.7115186047
 30
0.0
 11
1459.449902034
 21
852.1165186047
 31
0.0
 12
1459.449902034
 22
851.3065186047
 32
0.0
 13
1456.749902034
 23
851.7115186047
 33
0.0
  0
TEXT
  5
2DA
100
AcDbEntity
  8
____
  6
CONTINUOUS
 62
         4
100
AcDbText
 10
1504.9401668913
 20
853.7365186047
 30
0.0
 40
2.7
  1
113.25
  7
BOX
100
AcDbText
  0
ENDBLK
  5
2DB
100
AcDbEntity
  8
0
  6
CONTINUOUS
100
AcDbBlockEnd
  0
BLOCK
  5
3FA
100
AcDbEntity
  8
0
100
AcDbBlockBegin
  2
*X7
 70
        65
 10
0.0
 20
0.0
 30
0.0
  3
*X7
  1

  0
LINE
  5
3FB
100
AcDbEntity
  8
____
  6
CONTINUOUS
 62
         4
100
AcDbLine
 10
1562.4447966878
 20
626.1523172996
 30
0.0
 11
1569.999902034
 21
633.7074226459
 31
0.0
  0
LINE
  5
3FC
100
AcDbEntity
  8
____
  6
CONTINUOUS
 62
         4
100
AcDbLine
 10
1556.7251594818
 20
624.6753207807
 30
0.0
 11
1569.8259565591
 21
637.7761178581
 31
0.0
  0
LINE
  5
3FD
100
AcDbEntity
  8
____
  6
CONTINUOUS
 62
         4
100
AcDbLine
 10
1542.9325187945
 20
615.1253207806
 30
0.0
 11
1544.249902034
 21
616.4427040201
 31
0.0
  0
LINE
  5
3FE
100
AcDbEntity
  8
____
  6
CONTINUOUS
 62
         4
100
AcDbLine
 10
1552.4825187947
 20
624.6753207807
 30
0.0
 11
1566.7675187947
 21
638.9603207807
 31
0.0
  0
LINE
  5
3FF
100
AcDbEntity
  8
____
  6
CONTINUOUS
 62
         4
100
AcDbLine
 10
1539.3849008597
 20
615.8203435329
 30
0.0
 11
1543.8281343766
 21
620.2635770498
 31
0.0
  0
LINE
  5
400
100
AcDbEntity
  8
____
  6
CONTINUOUS
 62
         4
100
AcDbLine
 10
1548.2398781076
 20
624.6753207807
 30
0.0
 11
1562.5248781076
 21
638.9603207807
 31
0.0
  0
LINE
  5
401
100
AcDbEntity
  8
____
  6
CONTINUOUS
 62
         4
100
AcDbLine
 10
1537.8307632633
 20
618.5088466236
 30
0.0
 11
1541.0582604164
 21
621.7363437767
 31
0.0
  0
LINE
  5
402
100
AcDbEntity
  8
____
  6
CONTINUOUS
 62
         4
100
AcDbLine
 10
1544.0159236964
 20
624.6940070567
 30
0.0
 11
1558.2822374204
 21
638.9603207807
 31
0.0
  0
LINE
  5
403
100
AcDbEntity
  8
____
  6
CONTINUOUS
 62
         4
100
AcDbLine
 10
1530.2045967331
 20
615.1253207806
 30
0.0
 11
1538.5471853239
 21
623.4679093713
 31
0.0
  0
LINE
  5
404
100
AcDbEntity
  8
____
  6
CONTINUOUS
 62
         4
100
AcDbLine
 10
1540.9872541992
 20
625.9079782466
 30
0.0
 11
1554.0395967333
 21
638.9603207807
 31
0.0
  0
LINE
  5
405
100
AcDbEntity
  8
____
  6
CONTINUOUS
 62
         4
100
AcDbLine
 10
1538.2173802391
 20
627.3807449736
 30
0.0
 11
1549.7969560462
 21
638.9603207807
 31
0.0
  0
LINE
  5
406
100
AcDbEntity
  8
____
  6
CONTINUOUS
 62
         4
100
AcDbLine
 10
1565.6769560462
 20
654.8403207807
 30
0.0
 11
1569.999902034
 21
659.1632667686
 31
0.0
  0
LINE
  5
407
100
AcDbEntity
  8
____
  6
CONTINUOUS
 62
         4
100
AcDbLine
 10
1528.8792395471
 20
622.2852449687
 30
0.0
 11
1533.0074410131
 21
626.4134464347
 31
0.0
  0
LINE
  5
408
100
AcDbEntity
  8
____
  6
CONTINUOUS
 62
         4
100
AcDbLine
 10
1535.4475062789
 20
628.8535117006
 30
0.0
 11
1545.5543153591
 21
638.9603207807
 31
0.0
  0
LINE
  5
409
100
AcDbEntity
  8
____
  6
CONTINUOUS
 62
         4
100
AcDbLine
 10
1561.4343153591
 20
654.8403207807
 30
0.0
 11
1569.9381850254
 21
663.3441904471
 31
0.0
  0
LINE
  5
40A
100
AcDbEntity
  8
____
  6
CONTINUOUS
 62
         4
100
AcDbLine
 10
1527.0353362041
 20
624.6839823129
 30
0.0
 11
1530.2375688576
 21
627.8862149664
 31
0.0
  0
LINE
  5
40B
100
AcDbEntity
  8
____
  6
CONTINUOUS
 62
         4
100
AcDbLine
 10
1532.6776323187
 20
630.3262784275
 30
0.0
 11
1541.311674672
 21
638.9603207807
 31
0.0
  0
LINE
  5
40C
100
AcDbEntity
  8
____
  6
CONTINUOUS
 62
         4
100
AcDbLine
 10
1557.191674672
 20
654.8403207807
 30
0.0
 11
1567.5971134088
 21
665.2457595176
 31
0.0
  0
LINE
  5
40D
100
AcDbEntity
  8
____
  6
CONTINUOUS
 62
         4
100
AcDbLine
 10
1523.0851444638
 20
624.9764312597
 30
0.0
 11
1527.4676967022
 21
629.3589834981
 31
0.0
  0
LINE
  5
40E
100
AcDbEntity
  8
____
  6
CONTINUOUS
 62
         4
100
AcDbLine
 10
1529.9077583586
 20
631.7990451545
 30
0.0
 11
1537.0690339848
 21
638.9603207807
 31
0.0
  0
LINE
  5
40F
100
AcDbEntity
  8
____
  6
CONTINUOUS
 62
         4
100
AcDbLine
 10
1552.9490339848
 20
654.8403207807
 30
0.0
 11
1564.7036956029
 21
666.5949823988
 31
0.0
  0
LINE
  5
410
100
AcDbEntity
  8
____
  6
CONTINUOUS
 62
         4
100
AcDbLine
 10
1519.3824762278
 20
625.5164037108
 30
0.0
 11
1524.6978245468
 21
630.8317520298
 31
0.0
  0
LINE
  5
411
100
AcDbEntity
  8
____
  6
CONTINUOUS
 62
         4
100
AcDbLine
 10
1527.1378843984
 20
633.2718118814
 30
0.0
 11
1532.8263932977
 21
638.9603207807
 31
0.0
  0
LINE
  5
412
100
AcDbEntity
  8
____
  6
CONTINUOUS
 62
         4
100
AcDbLine
 10
1552.499902034
 20
658.633829517
 30
0.0
 11
1561.8102777969
 21
667.9442052799
 31
0.0
  0
LINE
  5
413
100
AcDbEntity
  8
____
  6
CONTINUOUS
 62
         4
100
AcDbLine
 10
1515.6798079918
 20
626.0563761619
 30
0.0
 11
1521.9279523914
 21
632.3045205615
 31
0.0
  0
LINE
  5
414
100
AcDbEntity
  8
____
  6
CONTINUOUS
 62
         4
100
AcDbLine
 10
1524.3680104383
 20
634.7445786084
 30
0.0
 11
1528.5837526106
 21
638.9603207807
 31
0.0
  0
LINE
  5
415
100
AcDbEntity
  8
____
  6
CONTINUOUS
 62
         4
100
AcDbLine
 10
1552.499902034
 20
662.8764702042
 30
0.0
 11
1558.7487526106
 21
669.1253207807
 31
0.0
  0
LINE
  5
416
100
AcDbEntity
  8
____
  6
CONTINUOUS
 62
         4
100
AcDbLine
 10
1511.9771397557
 20
626.596348613
 30
0.0
 11
1519.158080236
 21
633.7772890932
 31
0.0
  0
LINE
  5
417
100
AcDbEntity
  8
____
  6
CONTINUOUS
 62
         4
100
AcDbLine
 10
1521.5981364781
 20
636.2173453354
 30
0.0
 11
1523.8411119235
 21
638.4603207807
 31
0.0
  0
LINE
  5
418
100
AcDbEntity
  8
____
  6
CONTINUOUS
 62
         4
100
AcDbLine
 10
1552.499902034
 20
667.1191108913
 30
0.0
 11
1554.5061119235
 21
669.1253207807
 31
0.0
  0
LINE
  5
419
100
AcDbEntity
  8
____
  6
CONTINUOUS
 62
         4
100
AcDbLine
 10
1508.2744715197
 20
627.1363210641
 30
0.0
 11
1516.3882080806
 21
635.2500576249
 31
0.0
  0
LINE
  5
41A
100
AcDbEntity
  8
____
  6
CONTINUOUS
 62
         4
100
AcDbLine
 10
1518.8282625179
 20
637.6901120623
 30
0.0
 11
1519.999902034
 21
638.8617515784
 31
0.0
  0
LINE
  5
41B
100
AcDbEntity
  8
____
  6
CONTINUOUS
 62
         4
100
AcDbLine
 10
1535.9784712364
 20
654.8403207807
 30
0.0
 11
1539.499902034
 21
658.3617515784
 31
0.0
  0
LINE
  5
41C
100
AcDbEntity
  8
____
  6
CONTINUOUS
 62
         4
100
AcDbLine
 10
1504.5718032837
 20
627.6762935152
 30
0.0
 11
1513.6183359251
 21
636.7228261566
 31
0.0
  0
LINE
  5
41D
100
AcDbEntity
  8
____
  6
CONTINUOUS
 62
         4
100
AcDbLine
 10
1516.0583885578
 20
639.1628787893
 30
0.0
 11
1516.7958305492
 21
639.9003207808
 31
0.0
  0
LINE
  5
41E
100
AcDbEntity
  8
____
  6
CONTINUOUS
 62
         4
100
AcDbLine
 10
1531.7358305492
 20
654.8403207807
 30
0.0
 11
1539.499902034
 21
662.6043922655
 31
0.0
  0
LINE
  5
41F
100
AcDbEntity
  8
____
  6
CONTINUOUS
 62
         4
100
AcDbLine
 10
1500.8691350476
 20
628.2162659663
 30
0.0
 11
1510.8484637697
 21
638.1955946883
 31
0.0
  0
LINE
  5
420
100
AcDbEntity
  8
____
  6
CONTINUOUS
 62
         4
100
AcDbLine
 10
1527.4931898621
 20
654.8403207807
 30
0.0
 11
1539.499902034
 21
666.8470329526
 31
0.0
  0
LINE
  5
421
100
AcDbEntity
  8
____
  6
CONTINUOUS
 62
         4
100
AcDbLine
 10
1497.1664668116
 20
628.7562384174
 30
0.0
 11
1508.0785916143
 21
639.66836322
 31
0.0
  0
LINE
  5
422
100
AcDbEntity
  8
____
  6
CONTINUOUS
 62
         4
100
AcDbLine
 10
1523.750549175
 20
655.3403207807
 30
0.0
 11
1537.969902034
 21
669.5596736398
 31
0.0
  0
LINE
  5
423
100
AcDbEntity
  8
____
  6
CONTINUOUS
 62
         4
100
AcDbLine
 10
1493.4637985756
 20
629.2962108684
 30
0.0
 11
1504.0679084879
 21
639.9003207807
 31
0.0
  0
LINE
  5
424
100
AcDbEntity
  8
____
  6
CONTINUOUS
 62
         4
100
AcDbLine
 10
1518.0679084879
 20
653.9003207807
 30
0.0
 11
1536.0679084879
 21
671.9003207807
 31
0.0
  0
LINE
  5
425
100
AcDbEntity
  8
____
  6
CONTINUOUS
 62
         4
100
AcDbLine
 10
1489.7611303395
 20
629.8361833195
 30
0.0
 11
1499.8252678008
 21
639.9003207807
 31
0.0
  0
LINE
  5
426
100
AcDbEntity
  8
____
  6
CONTINUOUS
 62
         4
100
AcDbLine
 10
1513.8252678008
 20
653.9003207807
 30
0.0
 11
1531.8252678008
 21
671.9003207807
 31
0.0
  0
LINE
  5
427
100
AcDbEntity
  8
____
  6
CONTINUOUS
 62
         4
100
AcDbLine
 10
1486.0584621035
 20
630.3761557706
 30
0.0
 11
1495.5826271136
 21
639.9003207807
 31
0.0
  0
LINE
  5
428
100
AcDbEntity
  8
____
  6
CONTINUOUS
 62
         4
100
AcDbLine
 10
1509.5826271136
 20
653.9003207807
 30
0.0
 11
1524.7491899321
 21
669.0668835992
 31
0.0
  0
LINE
  5
429
100
AcDbEntity
  8
____
  6
CONTINUOUS
 62
         4
100
AcDbLine
 10
1482.3557938675
 20
630.9161282217
 30
0.0
 11
1491.3399864265
 21
639.9003207807
 31
0.0
  0
LINE
  5
42A
100
AcDbEntity
  8
____
  6
CONTINUOUS
 62
         4
100
AcDbLine
 10
1505.3399864265
 20
653.9003207807
 30
0.0
 11
1519.782195957
 21
668.3425303112
 31
0.0
  0
LINE
  5
42B
100
AcDbEntity
  8
____
  6
CONTINUOUS
 62
         4
100
AcDbLine
 10
1478.6531256314
 20
631.4561006728
 30
0.0
 11
1487.0973457394
 21
639.9003207807
 31
0.0
  0
LINE
  5
42C
100
AcDbEntity
  8
____
  6
CONTINUOUS
 62
         4
100
AcDbLine
 10
1501.0973457394
 20
653.9003207807
 30
0.0
 11
1514.8152019818
 21
667.6181770231
 31
0.0
  0
LINE
  5
42D
100
AcDbEntity
  8
____
  6
CONTINUOUS
 62
         4
100
AcDbLine
 10
1474.9504573954
 20
631.9960731239
 30
0.0
 11
1482.8547050523
 21
639.9003207807
 31
0.0
  0
LINE
  5
42E
100
AcDbEntity
  8
____
  6
CONTINUOUS
 62
         4
100
AcDbLine
 10
1496.8547050523
 20
653.9003207807
 30
0.0
 11
1509.8482080066
 21
666.8938237351
 31
0.0
  0
LINE
  5
42F
100
AcDbEntity
  8
____
  6
CONTINUOUS
 62
         4
100
AcDbLine
 10
1471.2477891594
 20
632.536045575
 30
0.0
 11
1478.6120643652
 21
639.9003207807
 31
0.0
  0
LINE
  5
430
100
AcDbEntity
  8
____
  6
CONTINUOUS
 62
         4
100
AcDbLine
 10
1492.6120643652
 20
653.9003207807
 30
0.0
 11
1504.8812140315
 21
666.169470447
 31
0.0
  0
LINE
  5
431
100
AcDbEntity
  8
____
  6
CONTINUOUS
 62
         4
100
AcDbLine
 10
1467.5451209234
 20
633.0760180261
 30
0.0
 11
1474.369423678
 21
639.9003207807
 31
0.0
  0
LINE
  5
432
100
AcDbEntity
  8
____
  6
CONTINUOUS
 62
         4
100
AcDbLine
 10
1488.369423678
 20
653.9003207807
 30
0.0
 11
1499.9142200563
 21
665.445117159
 31
0.0
  0
LINE
  5
433
100
AcDbEntity
  8
____
  6
CONTINUOUS
 62
         4
100
AcDbLine
 10
1463.8424526873
 20
633.6159904771
 30
0.0
 11
1470.1267829909
 21
639.9003207807
 31
0.0
  0
LINE
  5
434
100
AcDbEntity
  8
____
  6
CONTINUOUS
 62
         4
100
AcDbLine
 10
1484.1267829909
 20
653.9003207807
 30
0.0
 11
1494.9472260811
 21
664.720763871
 31
0.0
  0
LINE
  5
435
100
AcDbEntity
  8
____
  6
CONTINUOUS
 62
         4
100
AcDbLine
 10
1460.1397844513
 20
634.1559629282
 30
0.0
 11
1465.8841423038
 21
639.9003207807
 31
0.0
  0
LINE
  5
436
100
AcDbEntity
  8
____
  6
CONTINUOUS
 62
         4
100
AcDbLine
 10
1479.8841423038
 20
653.9003207807
 30
0.0
 11
1489.980232106
 21
663.9964105829
 31
0.0
  0
LINE
  5
437
100
AcDbEntity
  8
____
  6
CONTINUOUS
 62
         4
100
AcDbLine
 10
1456.8819495443
 20
635.1407687083
 30
0.0
 11
1460.4915016167
 21
638.7503207807
 31
0.0
  0
LINE
  5
438
100
AcDbEntity
  8
____
  6
CONTINUOUS
 62
         4
100
AcDbLine
 10
1475.6415016167
 20
653.9003207807
 30
0.0
 11
1485.0132381308
 21
663.2720572949
 31
0.0
  0
LINE
  5
439
100
AcDbEntity
  8
____
  6
CONTINUOUS
 62
         4
100
AcDbLine
 10
1471.3988609296
 20
653.9003207807
 30
0.0
 11
1480.0462441556
 21
662.5477040068
 31
0.0
  0
LINE
  5
43A
100
AcDbEntity
  8
____
  6
CONTINUOUS
 62
         4
100
AcDbLine
 10
1467.1562202425
 20
653.9003207807
 30
0.0
 11
1475.0792501805
 21
661.8233507188
 31
0.0
  0
LINE
  5
43B
100
AcDbEntity
  8
____
  6
CONTINUOUS
 62
         4
100
AcDbLine
 10
1462.9135795553
 20
653.9003207807
 30
0.0
 11
1470.1122562053
 21
661.0989974307
 31
0.0
  0
LINE
  5
43C
100
AcDbEntity
  8
____
  6
CONTINUOUS
 62
         4
100
AcDbLine
 10
1459.8209388682
 20
655.0503207807
 30
0.0
 11
1465.1452622302
 21
660.3746441427
 31
0.0
  0
LINE
  5
43D
100
AcDbEntity
  8
____
  6
CONTINUOUS
 62
         4
100
AcDbLine
 10
1456.749902034
 20
656.2219246337
 30
0.0
 11
1460.178268255
 21
659.6502908546
 31
0.0
  0
ENDBLK
  5
43E
100
AcDbEntity
  8
0
  6
CONTINUOUS
100
AcDbBlockEnd
  0
BLOCK
  5
442
100
AcDbEntity
  8
0
100
AcDbBlockBegin
  2
*D8
 70
        65
 10
0.0
 20
0.0
 30
0.0
  3
*D8
  1

  0
POINT
  5
444
100
AcDbEntity
  8
DEFPOINTS
  6
CONTINUOUS
 62
         0
100
AcDbPoint
 10
1583.3352485587
 20
779.8304416518
 30
0.0
  0
POINT
  5
445
100
AcDbEntity
  8
DEFPOINTS
  6
CONTINUOUS
 62
         0
100
AcDbPoint
 10
1568.8451385575
 20
779.8304416518
 30
0.0
  0
POINT
  5
446
100
AcDbEntity
  8
DEFPOINTS
  6
CONTINUOUS
 62
         0
100
AcDbPoint
 10
1568.8451385575
 20
744.1834915469
 30
0.0
  0
LINE
  5
447
100
AcDbEntity
  8
____
  6
CONTINUOUS
 62
         4
100
AcDbLine
 10
1570.1951385575
 20
779.8304416518
 30
0.0
 11
1584.0102485587
 21
779.8304416518
 31
0.0
  0
LINE
  5
448
100
AcDbEntity
  8
____
  6
CONTINUOUS
 62
         4
100
AcDbLine
 10
1570.1951385575
 20
744.1834915469
 30
0.0
 11
1584.0102485587
 21
744.1834915469
 31
0.0
  0
LINE
  5
449
100
AcDbEntity
  8
____
  6
CONTINUOUS
 62
         4
100
AcDbLine
 10
1583.3352485587
 20
779.8304416518
 30
0.0
 11
1583.3352485587
 21
744.1834915469
 31
0.0
  0
SOLID
  5
44A
100
AcDbEntity
  8
____
  6
CONTINUOUS
 62
         4
100
AcDbTrace
 10
1583.3352485587
 20
779.8304416518
 30
0.0
 11
1583.7402485587
 21
777.1304416518
 31
0.0
 12
1582.9302485587
 22
777.1304416518
 32
0.0
 13
1583.3352485587
 23
779.8304416518
 33
0.0
  0
SOLID
  5
44B
100
AcDbEntity
  8
____
  6
CONTINUOUS
 62
         4
100
AcDbTrace
 10
1583.3352485587
 20
744.1834915469
 30
0.0
 11
1582.9302485587
 21
746.8834915469
 31
0.0
 12
1583.7402485587
 22
746.8834915469
 32
0.0
 13
1583.3352485587
 23
744.1834915469
 33
0.0
  0
TEXT
  5
44D
100
AcDbEntity
  8
____
  6
CONTINUOUS
 62
         4
100
AcDbText
 10
1581.3102485587
 20
756.6069665993
 30
0.0
 40
2.7
  1
崷35
 50
90.0
  7
BOX
100
AcDbText
  0
ENDBLK
  5
44E
100
AcDbEntity
  8
0
  6
CONTINUOUS
100
AcDbBlockEnd
  0
ENDSEC
  0
SECTION
  2
ENTITIES
  0
LINE
  5
2F
100
AcDbEntity
  8
____
  6
DASHED
 62
         2
100
AcDbLine
 10
1715.1146748358
 20
766.9848474822
 30
0.0
 11
1720.7406939681
 21
766.9848474822
 31
0.0
  0
LINE
  5
30
100
AcDbEntity
  8
____
  6
DASHED
 62
         2
100
AcDbLine
 10
1715.1146748358
 20
756.9848474822
 30
0.0
 11
1720.7137838063
 21
756.9848474822
 31
0.0
  0
LINE
  5
31
100
AcDbEntity
  8
____
  6
DASHED
 62
         2
100
AcDbLine
 10
1712.2279234899
 20
761.9848474822
 30
0.0
 11
1715.1146748358
 21
756.9848474822
 31
0.0
  0
LINE
  5
32
100
AcDbEntity
  8
____
  6
DASHED
 62
         2
100
AcDbLine
 10
1715.1146748358
 20
756.9848474822
 30
0.0
 11
1715.1146748358
 21
766.9848474822
 31
0.0
  0
LINE
  5
33
100
AcDbEntity
  8
____
  6
DASHED
 62
         2
100
AcDbLine
 10
1712.2279234899
 20
761.9848474822
 30
0.0
 11
1715.1146748358
 21
766.9848474822
 31
0.0
  0
ARC
  5
34
100
AcDbEntity
  8
____
  6
CONTINUOUS
 62
         7
100
AcDbCircle
 10
1688.476596573
 20
785.1667611652
 30
0.0
 40
2.9722262277
100
AcDbArc
 50
1.2577258579
 51
20.0
  0
ARC
  5
35
100
AcDbEntity
  8
____
  6
CONTINUOUS
 62
         7
100
AcDbCircle
 10
1688.979158799
 20
785.1777949108
 30
0.0
 40
2.4695428935
100
AcDbArc
 50
340.6773100903
 51
361.2577258579
  0
ARC
  5
36
100
AcDbEntity
  8
____
  6
CONTINUOUS
 62
         7
100
AcDbCircle
 10
1689.348595067
 20
785.0482559031
 30
0.0
 40
2.0780540551
100
AcDbArc
 50
316.8239621527
 51
340.6773100903
  0
ARC
  5
37
100
AcDbEntity
  8
____
  6
CONTINUOUS
 62
         7
100
AcDbCircle
 10
1689.6610579816
 20
784.7550795134
 30
0.0
 40
1.6495853065
100
AcDbArc
 50
290.0000000001
 51
316.8239621528
  0
ARC
  5
38
100
AcDbEntity
  8
____
  6
CONTINUOUS
 62
         7
100
AcDbCircle
 10
1689.6610579816
 20
784.7550795134
 30
0.0
 40
1.6495853065
100
AcDbArc
 50
263.1760378472
 51
290.0
  0
ARC
  5
39
100
AcDbEntity
  8
____
  6
CONTINUOUS
 62
         7
100
AcDbCircle
 10
1689.7119683103
 20
785.1805129477
 30
0.0
 40
2.0780540551
100
AcDbArc
 50
239.3226899096
 51
263.1760378472
  0
ARC
  5
3A
100
AcDbEntity
  8
____
  6
CONTINUOUS
 62
         7
100
AcDbCircle
 10
1689.9117068414
 20
785.5172146402
 30
0.0
 40
2.4695428935
100
AcDbArc
 50
218.742274142
 51
239.3226899097
  0
ARC
  5
3B
100
AcDbEntity
  8
____
  6
CONTINUOUS
 62
         7
100
AcDbCircle
 10
1690.3037841969
 20
785.8318030727
 30
0.0
 40
2.9722262277
100
AcDbArc
 50
200.0
 51
218.742274142
  0
ARC
  5
3C
100
AcDbEntity
  8
____
  6
CONTINUOUS
 62
         7
100
AcDbCircle
 10
1690.3037841969
 20
785.8318030727
 30
0.0
 40
2.9722262277
100
AcDbArc
 50
181.257725858
 51
200.0000000001
  0
ARC
  5
3D
100
AcDbEntity
  8
____
  6
CONTINUOUS
 62
         7
100
AcDbCircle
 10
1689.8012219709
 20
785.8207693271
 30
0.0
 40
2.4695428935
100
AcDbArc
 50
160.6773100903
 51
181.257725858
  0
ARC
  5
3E
100
AcDbEntity
  8
____
  6
CONTINUOUS
 62
         7
100
AcDbCircle
 10
1689.4317857029
 20
785.9503083348
 30
0.0
 40
2.0780540551
100
AcDbArc
 50
136.8239621528
 51
160.6773100904
  0
ARC
  5
3F
100
AcDbEntity
  8
____
  6
CONTINUOUS
 62
         7
100
AcDbCircle
 10
1689.1193227883
 20
786.2434847245
 30
0.0
 40
1.6495853065
100
AcDbArc
 50
110.0
 51
136.8239621528
  0
ARC
  5
40
100
AcDbEntity
  8
____
  6
CONTINUOUS
 62
         7
100
AcDbCircle
 10
1689.1193227883
 20
786.2434847245
 30
0.0
 40
1.6495853065
100
AcDbArc
 50
83.1760378471
 51
109.9999999999
  0
ARC
  5
41
100
AcDbEntity
  8
____
  6
CONTINUOUS
 62
         7
100
AcDbCircle
 10
1689.0684124596
 20
785.8180512903
 30
0.0
 40
2.0780540551
100
AcDbArc
 50
59.3226899096
 51
83.1760378472
  0
ARC
  5
42
100
AcDbEntity
  8
____
  6
CONTINUOUS
 62
         7
100
AcDbCircle
 10
1688.8686739285
 20
785.4813495977
 30
0.0
 40
2.4695428935
100
AcDbArc
 50
38.742274142
 51
59.3226899097
  0
ARC
  5
43
100
AcDbEntity
  8
____
  6
CONTINUOUS
 62
         7
100
AcDbCircle
 10
1688.476596573
 20
785.1667611652
 30
0.0
 40
2.9722262277
100
AcDbArc
 50
20.0
 51
38.742274142
  0
LINE
  5
44
100
AcDbEntity
  8
____
  6
CENTER
 62
         1
100
AcDbLine
 10
1686.5711125226
 20
784.473221689
 30
0.0
 11
1692.2092682473
 21
786.5253425489
 31
0.0
  0
POLYLINE
  5
46
100
AcDbEntity
  8
____
  6
CONTINUOUS
 62
         7
100
AcDb3dPolyline
 66
         1
 10
0.0
 20
0.0
 30
0.0
 70
         8
  0
VERTEX
  5
48
100
AcDbEntity
  8
____
  6
CONTINUOUS
 62
         7
100
AcDbVertex
100
AcDb3dPolylineVertex
 10
1691.2695756265
 20
786.1833224056
 30
0.0
 70
        32
  0
VERTEX
  5
4A
100
AcDbEntity
  8
____
  6
CONTINUOUS
 62
         7
100
AcDbVertex
100
AcDb3dPolylineVertex
 10
1691.2695756265
 20
786.1833224056
 30
0.0
 70
        32
  0
SEQEND
  5
4C
100
AcDbEntity
  8
____
  6
CONTINUOUS
 62
         7
  0
POLYLINE
  5
4E
100
AcDbEntity
  8
____
  6
CONTINUOUS
 62
         7
100
AcDb3dPolyline
 66
         1
 10
0.0
 20
0.0
 30
0.0
 70
         8
  0
VERTEX
  5
50
100
AcDbEntity
  8
____
  6
CONTINUOUS
 62
         7
100
AcDbVertex
100
AcDb3dPolylineVertex
 10
1691.4481067214
 20
785.2320006226
 30
0.0
 70
        32
  0
VERTEX
  5
52
100
AcDbEntity
  8
____
  6
CONTINUOUS
 62
         7
100
AcDbVertex
100
AcDb3dPolylineVertex
 10
1691.4481067214
 20
785.2320006226
 30
0.0
 70
        32
  0
SEQEND
  5
54
100
AcDbEntity
  8
____
  6
CONTINUOUS
 62
         7
  0
POLYLINE
  5
56
100
AcDbEntity
  8
____
  6
CONTINUOUS
 62
         7
100
AcDb3dPolyline
 66
         1
 10
0.0
 20
0.0
 30
0.0
 70
         8
  0
VERTEX
  5
58
100
AcDbEntity
  8
____
  6
CONTINUOUS
 62
         7
100
AcDbVertex
100
AcDb3dPolylineVertex
 10
1691.3095923151
 20
784.3606524936
 30
0.0
 70
        32
  0
VERTEX
  5
5A
100
AcDbEntity
  8
____
  6
CONTINUOUS
 62
         7
100
AcDbVertex
100
AcDb3dPolylineVertex
 10
1691.3095923151
 20
784.3606524936
 30
0.0
 70
        32
  0
SEQEND
  5
5C
100
AcDbEntity
  8
____
  6
CONTINUOUS
 62
         7
  0
POLYLINE
  5
5E
100
AcDbEntity
  8
____
  6
CONTINUOUS
 62
         7
100
AcDb3dPolyline
 66
         1
 10
0.0
 20
0.0
 30
0.0
 70
         8
  0
VERTEX
  5
60
100
AcDbEntity
  8
____
  6
CONTINUOUS
 62
         7
100
AcDbVertex
100
AcDb3dPolylineVertex
 10
1690.8640260733
 20
783.6263636706
 30
0.0
 70
        32
  0
VERTEX
  5
62
100
AcDbEntity
  8
____
  6
CONTINUOUS
 62
         7
100
AcDbVertex
100
AcDb3dPolylineVertex
 10
1690.8640260733
 20
783.6263636706
 30
0.0
 70
        32
  0
SEQEND
  5
64
100
AcDbEntity
  8
____
  6
CONTINUOUS
 62
         7
  0
POLYLINE
  5
66
100
AcDbEntity
  8
____
  6
CONTINUOUS
 62
         7
100
AcDb3dPolyline
 66
         1
 10
0.0
 20
0.0
 30
0.0
 70
         8
  0
VERTEX
  5
68
100
AcDbEntity
  8
____
  6
CONTINUOUS
 62
         7
100
AcDbVertex
100
AcDb3dPolylineVertex
 10
1690.2252493846
 20
783.2049763736
 30
0.0
 70
        32
  0
VERTEX
  5
6A
100
AcDbEntity
  8
____
  6
CONTINUOUS
 62
         7
100
AcDbVertex
100
AcDb3dPolylineVertex
 10
1690.2252493846
 20
783.2049763736
 30
0.0
 70
        32
  0
SEQEND
  5
6C
100
AcDbEntity
  8
____
  6
CONTINUOUS
 62
         7
  0
POLYLINE
  5
6E
100
AcDbEntity
  8
____
  6
CONTINUOUS
 62
         7
100
AcDb3dPolyline
 66
         1
 10
0.0
 20
0.0
 30
0.0
 70
         8
  0
VERTEX
  5
70
100
AcDbEntity
  8
____
  6
CONTINUOUS
 62
         7
100
AcDbVertex
100
AcDb3dPolylineVertex
 10
1689.4650555184
 20
783.11718003
 30
0.0
 70
        32
  0
VERTEX
  5
72
100
AcDbEntity
  8
____
  6
CONTINUOUS
 62
         7
100
AcDbVertex
100
AcDb3dPolylineVertex
 10
1689.4650555184
 20
783.11718003
 30
0.0
 70
        32
  0
SEQEND
  5
74
100
AcDbEntity
  8
____
  6
CONTINUOUS
 62
         7
  0
POLYLINE
  5
76
100
AcDbEntity
  8
____
  6
CONTINUOUS
 62
         7
100
AcDb3dPolyline
 66
         1
 10
0.0
 20
0.0
 30
0.0
 70
         8
  0
VERTEX
  5
78
100
AcDbEntity
  8
____
  6
CONTINUOUS
 62
         7
100
AcDbVertex
100
AcDb3dPolylineVertex
 10
1688.6517402175
 20
783.393273443
 30
0.0
 70
        32
  0
VERTEX
  5
7A
100
AcDbEntity
  8
____
  6
CONTINUOUS
 62
         7
100
AcDbVertex
100
AcDb3dPolylineVertex
 10
1688.6517402175
 20
783.393273443
 30
0.0
 70
        32
  0
SEQEND
  5
7C
100
AcDbEntity
  8
____
  6
CONTINUOUS
 62
         7
  0
POLYLINE
  5
7E
100
AcDbEntity
  8
____
  6
CONTINUOUS
 62
         7
100
AcDb3dPolyline
 66
         1
 10
0.0
 20
0.0
 30
0.0
 70
         8
  0
VERTEX
  5
80
100
AcDbEntity
  8
____
  6
CONTINUOUS
 62
         7
100
AcDbVertex
100
AcDb3dPolylineVertex
 10
1687.9855402452
 20
783.9717294911
 30
0.0
 70
        32
  0
VERTEX
  5
82
100
AcDbEntity
  8
____
  6
CONTINUOUS
 62
         7
100
AcDbVertex
100
AcDb3dPolylineVertex
 10
1687.9855402452
 20
783.9717294911
 30
0.0
 70
        32
  0
SEQEND
  5
84
100
AcDbEntity
  8
____
  6
CONTINUOUS
 62
         7
  0
POLYLINE
  5
86
100
AcDbEntity
  8
____
  6
CONTINUOUS
 62
         7
100
AcDb3dPolyline
 66
         1
 10
0.0
 20
0.0
 30
0.0
 70
         8
  0
VERTEX
  5
88
100
AcDbEntity
  8
____
  6
CONTINUOUS
 62
         7
100
AcDbVertex
100
AcDb3dPolylineVertex
 10
1687.5108051434
 20
784.8152418323
 30
0.0
 70
        32
  0
VERTEX
  5
8A
100
AcDbEntity
  8
____
  6
CONTINUOUS
 62
         7
100
AcDbVertex
100
AcDb3dPolylineVertex
 10
1687.5108051434
 20
784.8152418323
 30
0.0
 70
        32
  0
SEQEND
  5
8C
100
AcDbEntity
  8
____
  6
CONTINUOUS
 62
         7
  0
POLYLINE
  5
8E
100
AcDbEntity
  8
____
  6
CONTINUOUS
 62
         7
100
AcDb3dPolyline
 66
         1
 10
0.0
 20
0.0
 30
0.0
 70
         8
  0
VERTEX
  5
90
100
AcDbEntity
  8
____
  6
CONTINUOUS
 62
         7
100
AcDbVertex
100
AcDb3dPolylineVertex
 10
1687.3322740485
 20
785.7665636153
 30
0.0
 70
        32
  0
VERTEX
  5
92
100
AcDbEntity
  8
____
  6
CONTINUOUS
 62
         7
100
AcDbVertex
100
AcDb3dPolylineVertex
 10
1687.3322740485
 20
785.7665636153
 30
0.0
 70
        32
  0
SEQEND
  5
94
100
AcDbEntity
  8
____
  6
CONTINUOUS
 62
         7
  0
POLYLINE
  5
96
100
AcDbEntity
  8
____
  6
CONTINUOUS
 62
         7
100
AcDb3dPolyline
 66
         1
 10
0.0
 20
0.0
 30
0.0
 70
         8
  0
VERTEX
  5
98
100
AcDbEntity
  8
____
  6
CONTINUOUS
 62
         7
100
AcDbVertex
100
AcDb3dPolylineVertex
 10
1687.4707884548
 20
786.6379117444
 30
0.0
 70
        32
  0
VERTEX
  5
9A
100
AcDbEntity
  8
____
  6
CONTINUOUS
 62
         7
100
AcDbVertex
100
AcDb3dPolylineVertex
 10
1687.4707884548
 20
786.6379117444
 30
0.0
 70
        32
  0
SEQEND
  5
9C
100
AcDbEntity
  8
____
  6
CONTINUOUS
 62
         7
  0
POLYLINE
  5
9E
100
AcDbEntity
  8
____
  6
CONTINUOUS
 62
         7
100
AcDb3dPolyline
 66
         1
 10
0.0
 20
0.0
 30
0.0
 70
         8
  0
VERTEX
  5
A0
100
AcDbEntity
  8
____
  6
CONTINUOUS
 62
         7
100
AcDbVertex
100
AcDb3dPolylineVertex
 10
1687.9163546966
 20
787.3722005673
 30
0.0
 70
        32
  0
VERTEX
  5
A2
100
AcDbEntity
  8
____
  6
CONTINUOUS
 62
         7
100
AcDbVertex
100
AcDb3dPolylineVertex
 10
1687.9163546966
 20
787.3722005673
 30
0.0
 70
        32
  0
SEQEND
  5
A4
100
AcDbEntity
  8
____
  6
CONTINUOUS
 62
         7
  0
POLYLINE
  5
A6
100
AcDbEntity
  8
____
  6
CONTINUOUS
 62
         7
100
AcDb3dPolyline
 66
         1
 10
0.0
 20
0.0
 30
0.0
 70
         8
  0
VERTEX
  5
A8
100
AcDbEntity
  8
____
  6
CONTINUOUS
 62
         7
100
AcDbVertex
100
AcDb3dPolylineVertex
 10
1688.5551313853
 20
787.7935878644
 30
0.0
 70
        32
  0
VERTEX
  5
AA
100
AcDbEntity
  8
____
  6
CONTINUOUS
 62
         7
100
AcDbVertex
100
AcDb3dPolylineVertex
 10
1688.5551313853
 20
787.7935878644
 30
0.0
 70
        32
  0
SEQEND
  5
AC
100
AcDbEntity
  8
____
  6
CONTINUOUS
 62
         7
  0
POLYLINE
  5
AE
100
AcDbEntity
  8
____
  6
CONTINUOUS
 62
         7
100
AcDb3dPolyline
 66
         1
 10
0.0
 20
0.0
 30
0.0
 70
         8
  0
VERTEX
  5
B0
100
AcDbEntity
  8
____
  6
CONTINUOUS
 62
         7
100
AcDbVertex
100
AcDb3dPolylineVertex
 10
1689.3153252515
 20
787.8813842079
 30
0.0
 70
        32
  0
VERTEX
  5
B2
100
AcDbEntity
  8
____
  6
CONTINUOUS
 62
         7
100
AcDbVertex
100
AcDb3dPolylineVertex
 10
1689.3153252515
 20
787.8813842079
 30
0.0
 70
        32
  0
SEQEND
  5
B4
100
AcDbEntity
  8
____
  6
CONTINUOUS
 62
         7
  0
POLYLINE
  5
B6
100
AcDbEntity
  8
____
  6
CONTINUOUS
 62
         7
100
AcDb3dPolyline
 66
         1
 10
0.0
 20
0.0
 30
0.0
 70
         8
  0
VERTEX
  5
B8
100
AcDbEntity
  8
____
  6
CONTINUOUS
 62
         7
100
AcDbVertex
100
AcDb3dPolylineVertex
 10
1690.1286405524
 20
787.6052907949
 30
0.0
 70
        32
  0
VERTEX
  5
BA
100
AcDbEntity
  8
____
  6
CONTINUOUS
 62
         7
100
AcDbVertex
100
AcDb3dPolylineVertex
 10
1690.1286405524
 20
787.6052907949
 30
0.0
 70
        32
  0
SEQEND
  5
BC
100
AcDbEntity
  8
____
  6
CONTINUOUS
 62
         7
  0
ARC
  5
BD
100
AcDbEntity
  8
____
  6
CONTINUOUS
 62
         7
100
AcDbCircle
 10
1706.2203299546
 20
739.2588536852
 30
0.0
 40
1.6495853065
100
AcDbArc
 50
83.1760378472
 51
110.0
  0
ARC
  5
BE
100
AcDbEntity
  8
____
  6
CONTINUOUS
 62
         7
100
AcDbCircle
 10
1706.2203299546
 20
739.2588536852
 30
0.0
 40
1.6495853065
100
AcDbArc
 50
110.0
 51
136.8239621528
  0
ARC
  5
BF
100
AcDbEntity
  8
____
  6
CONTINUOUS
 62
         7
100
AcDbCircle
 10
1705.5776037393
 20
738.1821301259
 30
0.0
 40
2.9722262277
100
AcDbArc
 50
20.0
 51
38.742274142
  0
ARC
  5
C0
100
AcDbEntity
  8
____
  6
CONTINUOUS
 62
         7
100
AcDbCircle
 10
1705.9696810948
 20
738.4967185584
 30
0.0
 40
2.4695428935
100
AcDbArc
 50
38.742274142
 51
59.3226899096
  0
ARC
  5
C1
100
AcDbEntity
  8
____
  6
CONTINUOUS
 62
         7
100
AcDbCircle
 10
1706.9022291372
 20
738.8361382878
 30
0.0
 40
2.4695428935
100
AcDbArc
 50
160.6773100904
 51
181.257725858
  0
ARC
  5
C2
100
AcDbEntity
  8
____
  6
CONTINUOUS
 62
         7
100
AcDbCircle
 10
1707.4047913632
 20
738.8471720334
 30
0.0
 40
2.9722262277
100
AcDbArc
 50
181.257725858
 51
200.0000000001
  0
ARC
  5
C3
100
AcDbEntity
  8
____
  6
CONTINUOUS
 62
         7
100
AcDbCircle
 10
1707.4047913632
 20
738.8471720334
 30
0.0
 40
2.9722262277
100
AcDbArc
 50
200.0
 51
218.742274142
  0
ARC
  5
C4
100
AcDbEntity
  8
____
  6
CONTINUOUS
 62
         7
100
AcDbCircle
 10
1707.0127140077
 20
738.5325836009
 30
0.0
 40
2.4695428935
100
AcDbArc
 50
218.7422741419
 51
239.3226899096
  0
ARC
  5
C5
100
AcDbEntity
  8
____
  6
CONTINUOUS
 62
         7
100
AcDbCircle
 10
1706.8129754766
 20
738.1958819084
 30
0.0
 40
2.0780540551
100
AcDbArc
 50
239.3226899097
 51
263.1760378472
  0
ARC
  5
C6
100
AcDbEntity
  8
____
  6
CONTINUOUS
 62
         7
100
AcDbCircle
 10
1706.7620651479
 20
737.7704484741
 30
0.0
 40
1.6495853065
100
AcDbArc
 50
263.1760378472
 51
290.0
  0
ARC
  5
C7
100
AcDbEntity
  8
____
  6
CONTINUOUS
 62
         7
100
AcDbCircle
 10
1706.7620651479
 20
737.7704484741
 30
0.0
 40
1.6495853065
100
AcDbArc
 50
290.0
 51
316.8239621528
  0
ARC
  5
C8
100
AcDbEntity
  8
____
  6
CONTINUOUS
 62
         7
100
AcDbCircle
 10
1706.4496022332
 20
738.0636248639
 30
0.0
 40
2.0780540551
100
AcDbArc
 50
316.8239621527
 51
340.6773100903
  0
ARC
  5
C9
100
AcDbEntity
  8
____
  6
CONTINUOUS
 62
         7
100
AcDbCircle
 10
1706.0801659653
 20
738.1931638715
 30
0.0
 40
2.4695428935
100
AcDbArc
 50
340.6773100904
 51
361.257725858
  0
ARC
  5
CA
100
AcDbEntity
  8
____
  6
CONTINUOUS
 62
         7
100
AcDbCircle
 10
1705.5776037393
 20
738.1821301259
 30
0.0
 40
2.9722262277
100
AcDbArc
 50
1.257725858
 51
20.0
  0
POLYLINE
  5
CC
100
AcDbEntity
  8
____
  6
CONTINUOUS
 62
         7
100
AcDb3dPolyline
 66
         1
 10
0.0
 20
0.0
 30
0.0
 70
         8
  0
VERTEX
  5
CE
100
AcDbEntity
  8
____
  6
CONTINUOUS
 62
         7
100
AcDbVertex
100
AcDb3dPolylineVertex
 10
1708.3705827928
 20
739.1986913663
 30
0.0
 70
        32
  0
VERTEX
  5
D0
100
AcDbEntity
  8
____
  6
CONTINUOUS
 62
         7
100
AcDbVertex
100
AcDb3dPolylineVertex
 10
1708.3705827928
 20
739.1986913663
 30
0.0
 70
        32
  0
SEQEND
  5
D2
100
AcDbEntity
  8
____
  6
CONTINUOUS
 62
         7
  0
POLYLINE
  5
D4
100
AcDbEntity
  8
____
  6
CONTINUOUS
 62
         7
100
AcDb3dPolyline
 66
         1
 10
0.0
 20
0.0
 30
0.0
 70
         8
  0
VERTEX
  5
D6
100
AcDbEntity
  8
____
  6
CONTINUOUS
 62
         7
100
AcDbVertex
100
AcDb3dPolylineVertex
 10
1707.895847691
 20
740.0422037075
 30
0.0
 70
        32
  0
VERTEX
  5
D8
100
AcDbEntity
  8
____
  6
CONTINUOUS
 62
         7
100
AcDbVertex
100
AcDb3dPolylineVertex
 10
1707.895847691
 20
740.0422037075
 30
0.0
 70
        32
  0
SEQEND
  5
DA
100
AcDbEntity
  8
____
  6
CONTINUOUS
 62
         7
  0
POLYLINE
  5
DC
100
AcDbEntity
  8
____
  6
CONTINUOUS
 62
         7
100
AcDb3dPolyline
 66
         1
 10
0.0
 20
0.0
 30
0.0
 70
         8
  0
VERTEX
  5
DE
100
AcDbEntity
  8
____
  6
CONTINUOUS
 62
         7
100
AcDbVertex
100
AcDb3dPolylineVertex
 10
1707.2296477187
 20
740.6206597557
 30
0.0
 70
        32
  0
VERTEX
  5
E0
100
AcDbEntity
  8
____
  6
CONTINUOUS
 62
         7
100
AcDbVertex
100
AcDb3dPolylineVertex
 10
1707.2296477187
 20
740.6206597557
 30
0.0
 70
        32
  0
SEQEND
  5
E2
100
AcDbEntity
  8
____
  6
CONTINUOUS
 62
         7
  0
POLYLINE
  5
E4
100
AcDbEntity
  8
____
  6
CONTINUOUS
 62
         7
100
AcDb3dPolyline
 66
         1
 10
0.0
 20
0.0
 30
0.0
 70
         8
  0
VERTEX
  5
E6
100
AcDbEntity
  8
____
  6
CONTINUOUS
 62
         7
100
AcDbVertex
100
AcDb3dPolylineVertex
 10
1705.0173618629
 20
740.387569528
 30
0.0
 70
        32
  0
VERTEX
  5
E8
100
AcDbEntity
  8
____
  6
CONTINUOUS
 62
         7
100
AcDbVertex
100
AcDb3dPolylineVertex
 10
1705.0173618629
 20
740.387569528
 30
0.0
 70
        32
  0
SEQEND
  5
EA
100
AcDbEntity
  8
____
  6
CONTINUOUS
 62
         7
  0
POLYLINE
  5
EC
100
AcDbEntity
  8
____
  6
CONTINUOUS
 62
         7
100
AcDb3dPolyline
 66
         1
 10
0.0
 20
0.0
 30
0.0
 70
         8
  0
VERTEX
  5
EE
100
AcDbEntity
  8
____
  6
CONTINUOUS
 62
         7
100
AcDbVertex
100
AcDb3dPolylineVertex
 10
1704.5717956211
 20
739.6532807051
 30
0.0
 70
        32
  0
VERTEX
  5
F0
100
AcDbEntity
  8
____
  6
CONTINUOUS
 62
         7
100
AcDbVertex
100
AcDb3dPolylineVertex
 10
1704.5717956211
 20
739.6532807051
 30
0.0
 70
        32
  0
SEQEND
  5
F2
100
AcDbEntity
  8
____
  6
CONTINUOUS
 62
         7
  0
POLYLINE
  5
F4
100
AcDbEntity
  8
____
  6
CONTINUOUS
 62
         7
100
AcDb3dPolyline
 66
         1
 10
0.0
 20
0.0
 30
0.0
 70
         8
  0
VERTEX
  5
F6
100
AcDbEntity
  8
____
  6
CONTINUOUS
 62
         7
100
AcDbVertex
100
AcDb3dPolylineVertex
 10
1704.4332812148
 20
738.781932576
 30
0.0
 70
        32
  0
VERTEX
  5
F8
100
AcDbEntity
  8
____
  6
CONTINUOUS
 62
         7
100
AcDbVertex
100
AcDb3dPolylineVertex
 10
1704.4332812148
 20
738.781932576
 30
0.0
 70
        32
  0
SEQEND
  5
FA
100
AcDbEntity
  8
____
  6
CONTINUOUS
 62
         7
  0
POLYLINE
  5
FC
100
AcDbEntity
  8
____
  6
CONTINUOUS
 62
         7
100
AcDb3dPolyline
 66
         1
 10
0.0
 20
0.0
 30
0.0
 70
         8
  0
VERTEX
  5
FE
100
AcDbEntity
  8
____
  6
CONTINUOUS
 62
         7
100
AcDbVertex
100
AcDb3dPolylineVertex
 10
1704.6118123097
 20
737.830610793
 30
0.0
 70
        32
  0
VERTEX
  5
100
100
AcDbEntity
  8
____
  6
CONTINUOUS
 62
         7
100
AcDbVertex
100
AcDb3dPolylineVertex
 10
1704.6118123097
 20
737.830610793
 30
0.0
 70
        32
  0
SEQEND
  5
102
100
AcDbEntity
  8
____
  6
CONTINUOUS
 62
         7
  0
POLYLINE
  5
104
100
AcDbEntity
  8
____
  6
CONTINUOUS
 62
         7
100
AcDb3dPolyline
 66
         1
 10
0.0
 20
0.0
 30
0.0
 70
         8
  0
VERTEX
  5
106
100
AcDbEntity
  8
____
  6
CONTINUOUS
 62
         7
100
AcDbVertex
100
AcDb3dPolylineVertex
 10
1705.0865474114
 20
736.9870984518
 30
0.0
 70
        32
  0
VERTEX
  5
108
100
AcDbEntity
  8
____
  6
CONTINUOUS
 62
         7
100
AcDbVertex
100
AcDb3dPolylineVertex
 10
1705.0865474114
 20
736.9870984518
 30
0.0
 70
        32
  0
SEQEND
  5
10A
100
AcDbEntity
  8
____
  6
CONTINUOUS
 62
         7
  0
POLYLINE
  5
10C
100
AcDbEntity
  8
____
  6
CONTINUOUS
 62
         7
100
AcDb3dPolyline
 66
         1
 10
0.0
 20
0.0
 30
0.0
 70
         8
  0
VERTEX
  5
10E
100
AcDbEntity
  8
____
  6
CONTINUOUS
 62
         7
100
AcDbVertex
100
AcDb3dPolylineVertex
 10
1705.7527473838
 20
736.4086424037
 30
0.0
 70
        32
  0
VERTEX
  5
110
100
AcDbEntity
  8
____
  6
CONTINUOUS
 62
         7
100
AcDbVertex
100
AcDb3dPolylineVertex
 10
1705.7527473838
 20
736.4086424037
 30
0.0
 70
        32
  0
SEQEND
  5
112
100
AcDbEntity
  8
____
  6
CONTINUOUS
 62
         7
  0
POLYLINE
  5
114
100
AcDbEntity
  8
____
  6
CONTINUOUS
 62
         7
100
AcDb3dPolyline
 66
         1
 10
0.0
 20
0.0
 30
0.0
 70
         8
  0
VERTEX
  5
116
100
AcDbEntity
  8
____
  6
CONTINUOUS
 62
         7
100
AcDbVertex
100
AcDb3dPolylineVertex
 10
1706.5660626846
 20
736.1325489907
 30
0.0
 70
        32
  0
VERTEX
  5
118
100
AcDbEntity
  8
____
  6
CONTINUOUS
 62
         7
100
AcDbVertex
100
AcDb3dPolylineVertex
 10
1706.5660626846
 20
736.1325489907
 30
0.0
 70
        32
  0
SEQEND
  5
11A
100
AcDbEntity
  8
____
  6
CONTINUOUS
 62
         7
  0
POLYLINE
  5
11C
100
AcDbEntity
  8
____
  6
CONTINUOUS
 62
         7
100
AcDb3dPolyline
 66
         1
 10
0.0
 20
0.0
 30
0.0
 70
         8
  0
VERTEX
  5
11E
100
AcDbEntity
  8
____
  6
CONTINUOUS
 62
         7
100
AcDbVertex
100
AcDb3dPolylineVertex
 10
1707.3262565509
 20
736.2203453343
 30
0.0
 70
        32
  0
VERTEX
  5
120
100
AcDbEntity
  8
____
  6
CONTINUOUS
 62
         7
100
AcDbVertex
100
AcDb3dPolylineVertex
 10
1707.3262565509
 20
736.2203453343
 30
0.0
 70
        32
  0
SEQEND
  5
122
100
AcDbEntity
  8
____
  6
CONTINUOUS
 62
         7
  0
POLYLINE
  5
124
100
AcDbEntity
  8
____
  6
CONTINUOUS
 62
         7
100
AcDb3dPolyline
 66
         1
 10
0.0
 20
0.0
 30
0.0
 70
         8
  0
VERTEX
  5
126
100
AcDbEntity
  8
____
  6
CONTINUOUS
 62
         7
100
AcDbVertex
100
AcDb3dPolylineVertex
 10
1707.9650332396
 20
736.6417326313
 30
0.0
 70
        32
  0
VERTEX
  5
128
100
AcDbEntity
  8
____
  6
CONTINUOUS
 62
         7
100
AcDbVertex
100
AcDb3dPolylineVertex
 10
1707.9650332396
 20
736.6417326313
 30
0.0
 70
        32
  0
SEQEND
  5
12A
100
AcDbEntity
  8
____
  6
CONTINUOUS
 62
         7
  0
POLYLINE
  5
12C
100
AcDbEntity
  8
____
  6
CONTINUOUS
 62
         7
100
AcDb3dPolyline
 66
         1
 10
0.0
 20
0.0
 30
0.0
 70
         8
  0
VERTEX
  5
12E
100
AcDbEntity
  8
____
  6
CONTINUOUS
 62
         7
100
AcDbVertex
100
AcDb3dPolylineVertex
 10
1708.4105994813
 20
737.3760214543
 30
0.0
 70
        32
  0
VERTEX
  5
130
100
AcDbEntity
  8
____
  6
CONTINUOUS
 62
         7
100
AcDbVertex
100
AcDb3dPolylineVertex
 10
1708.4105994813
 20
737.3760214543
 30
0.0
 70
        32
  0
SEQEND
  5
132
100
AcDbEntity
  8
____
  6
CONTINUOUS
 62
         7
  0
ARC
  5
133
100
AcDbEntity
  8
____
  6
CONTINUOUS
 62
         7
100
AcDbCircle
 10
1706.1694196259
 20
738.833420251
 30
0.0
 40
2.0780540551
100
AcDbArc
 50
59.3226899096
 51
83.1760378472
  0
ARC
  5
134
100
AcDbEntity
  8
____
  6
CONTINUOUS
 62
         7
100
AcDbCircle
 10
1706.5327928692
 20
738.9656772955
 30
0.0
 40
2.0780540551
100
AcDbArc
 50
136.8239621527
 51
160.6773100903
  0
LINE
  5
135
100
AcDbEntity
  8
____
  6
DASHED
 62
         2
100
AcDbLine
 10
1692.3456398247
 20
783.2268603191
 30
0.0
 11
1688.5868693416
 21
781.8587797458
 31
0.0
  0
LINE
  5
136
100
AcDbEntity
  8
____
  6
DASHED
 62
         2
100
AcDbLine
 10
1688.5868693416
 20
781.8587797458
 30
0.0
 11
1687.5108051434
 21
784.8152418323
 31
0.0
  0
LINE
  5
137
100
AcDbEntity
  8
____
  6
DASHED
 62
         2
100
AcDbLine
 10
1692.3456398247
 20
783.2268603191
 30
0.0
 11
1691.2695756265
 21
786.1833224056
 31
0.0
  0
LINE
  5
138
100
AcDbEntity
  8
____
  6
DASHED
 62
         2
100
AcDbLine
 10
1688.9157617589
 20
781.978486796
 30
0.0
 11
1693.7338449419
 21
768.7409120454
 31
0.0
  0
LINE
  5
139
100
AcDbEntity
  8
____
  6
DASHED
 62
         2
100
AcDbLine
 10
1692.0167474075
 20
783.1071532689
 30
0.0
 11
1696.8348305905
 21
769.8695785184
 31
0.0
  0
LINE
  5
13A
100
AcDbEntity
  8
____
  6
DASHED
 62
         2
100
AcDbLine
 10
1699.0465573456
 20
754.1443546802
 30
0.0
 11
1703.8646405287
 21
740.9067799297
 31
0.0
  0
LINE
  5
13B
100
AcDbEntity
  8
____
  6
DASHED
 62
         2
100
AcDbLine
 10
1702.1475429942
 20
755.2730211532
 30
0.0
 11
1706.9656261773
 21
742.0354464027
 31
0.0
  0
LINE
  5
13C
100
AcDbEntity
  8
____
  6
DASHED
 62
         2
100
AcDbLine
 10
1707.2945185946
 20
742.1551534528
 30
0.0
 11
1708.3705827928
 21
739.1986913663
 31
0.0
  0
LINE
  5
13D
100
AcDbEntity
  8
____
  6
DASHED
 62
         2
100
AcDbLine
 10
1707.2945185946
 20
742.1551534528
 30
0.0
 11
1703.5357481114
 21
740.7870728795
 31
0.0
  0
LINE
  5
13E
100
AcDbEntity
  8
____
  6
DASHED
 62
         2
100
AcDbLine
 10
1703.5357481114
 20
740.7870728795
 30
0.0
 11
1704.6118123097
 21
737.830610793
 31
0.0
  0
LINE
  5
13F
100
AcDbEntity
  8
____
  6
CENTER
 62
         1
100
AcDbLine
 10
1686.0469434839
 20
794.6847774871
 30
0.0
 11
1709.5417519029
 21
730.1333218818
 31
0.0
  0
ARC
  5
140
100
AcDbEntity
  8
____
  6
CONTINUOUS
 62
         7
100
AcDbCircle
 10
1545.999902034
 20
762.0069665993
 30
0.0
 40
8.15
100
AcDbArc
 50
102.3993311819
 51
257.6006688181
  0
ARC
  5
141
100
AcDbEntity
  8
____
  6
CONTINUOUS
 62
         7
100
AcDbCircle
 10
1544.749902034
 20
784.7919665993
 30
0.0
 40
0.5
100
AcDbArc
 50
180.0
 51
270.0
  0
ARC
  5
142
100
AcDbEntity
  8
____
  6
CONTINUOUS
 62
         7
100
AcDbCircle
 10
1544.749902034
 20
739.2219665993
 30
0.0
 40
0.5
100
AcDbArc
 50
90.0
 51
180.0
  0
LINE
  5
143
100
AcDbEntity
  8
____
  6
CONTINUOUS
 62
         7
100
AcDbLine
 10
1544.749902034
 20
739.7219665993
 30
0.0
 11
1558.8339781062
 21
739.7219665993
 31
0.0
  0
LINE
  5
144
100
AcDbEntity
  8
____
  6
CONTINUOUS
 62
         7
100
AcDbLine
 10
1544.749902034
 20
784.2919665993
 30
0.0
 11
1559.2773674315
 21
784.2919665993
 31
0.0
  0
LINE
  5
145
100
AcDbEntity
  8
____
  6
CENTER
 62
         1
100
AcDbLine
 10
1664.0214697319
 20
762.0069665993
 30
0.0
 11
1725.4267633673
 21
762.0069665993
 31
0.0
  0
LINE
  5
146
100
AcDbEntity
  8
____
  6
CONTINUOUS
 62
         7
100
AcDbLine
 10
1673.3406939681
 20
754.0628813181
 30
0.0
 11
1672.8406939681
 21
753.5628813181
 31
0.0
  0
LINE
  5
147
100
AcDbEntity
  8
____
  6
CONTINUOUS
 62
         7
100
AcDbLine
 10
1667.3082267354
 20
753.5628813181
 30
0.0
 11
1672.8406939681
 21
753.5628813181
 31
0.0
  0
LINE
  5
148
100
AcDbEntity
  8
____
  6
CONTINUOUS
 62
         7
100
AcDbLine
 10
1667.7023120165
 20
753.9569665993
 30
0.0
 11
1672.4406939681
 21
753.9569665993
 31
0.0
  0
LINE
  5
149
100
AcDbEntity
  8
____
  6
CONTINUOUS
 62
         7
100
AcDbLine
 10
1667.3082267354
 20
753.5628813181
 30
0.0
 11
1667.7023120165
 21
753.9569665993
 31
0.0
  0
LINE
  5
14A
100
AcDbEntity
  8
____
  6
CONTINUOUS
 62
         7
100
AcDbLine
 10
1672.9406939681
 20
754.4569665993
 30
0.0
 11
1672.4406939681
 21
753.9569665993
 31
0.0
  0
LINE
  5
14B
100
AcDbEntity
  8
____
  6
CONTINUOUS
 62
         7
100
AcDbLine
 10
1673.3406939681
 20
769.9510518805
 30
0.0
 11
1672.8406939681
 21
770.4510518805
 31
0.0
  0
LINE
  5
14C
100
AcDbEntity
  8
____
  6
CONTINUOUS
 62
         7
100
AcDbLine
 10
1667.3082267354
 20
770.4510518805
 30
0.0
 11
1667.7023120165
 21
770.0569665993
 31
0.0
  0
LINE
  5
14D
100
AcDbEntity
  8
____
  6
CONTINUOUS
 62
         7
100
AcDbLine
 10
1672.9406939681
 20
769.5569665993
 30
0.0
 11
1672.4406939681
 21
770.0569665993
 31
0.0
  0
LINE
  5
14E
100
AcDbEntity
  8
____
  6
CONTINUOUS
 62
         7
100
AcDbLine
 10
1672.9406939681
 20
769.5569665993
 30
0.0
 11
1672.9406939681
 21
754.4569665993
 31
0.0
  0
LINE
  5
14F
100
AcDbEntity
  8
____
  6
CONTINUOUS
 62
         7
100
AcDbLine
 10
1667.7023120165
 20
770.0569665993
 30
0.0
 11
1672.4406939681
 21
770.0569665993
 31
0.0
  0
LINE
  5
150
100
AcDbEntity
  8
____
  6
CONTINUOUS
 62
         7
100
AcDbLine
 10
1667.3082267354
 20
770.4510518805
 30
0.0
 11
1672.8406939681
 21
770.4510518805
 31
0.0
  0
LINE
  5
151
100
AcDbEntity
  8
____
  6
CONTINUOUS
 62
         7
100
AcDbLine
 10
1720.3406939681
 20
769.9510518805
 30
0.0
 11
1720.8406939681
 21
770.4510518805
 31
0.0
  0
LINE
  5
152
100
AcDbEntity
  8
____
  6
CONTINUOUS
 62
         7
100
AcDbLine
 10
1720.3406939681
 20
754.0628813181
 30
0.0
 11
1720.8406939681
 21
753.5628813181
 31
0.0
  0
LINE
  5
153
100
AcDbEntity
  8
____
  6
CONTINUOUS
 62
         7
100
AcDbLine
 10
1728.5731612008
 20
753.5628813181
 30
0.0
 11
1728.1790759196
 21
753.9569665993
 31
0.0
  0
LINE
  5
154
100
AcDbEntity
  8
____
  6
CONTINUOUS
 62
         7
100
AcDbLine
 10
1720.7406939681
 20
754.4569665993
 30
0.0
 11
1721.2406939681
 21
753.9569665993
 31
0.0
  0
LINE
  5
155
100
AcDbEntity
  8
____
  6
CONTINUOUS
 62
         7
100
AcDbLine
 10
1721.2406939681
 20
753.9569665993
 30
0.0
 11
1728.1790759196
 21
753.9569665993
 31
0.0
  0
LINE
  5
156
100
AcDbEntity
  8
____
  6
CONTINUOUS
 62
         7
100
AcDbLine
 10
1728.5731612008
 20
753.5628813181
 30
0.0
 11
1720.8406939681
 21
753.5628813181
 31
0.0
  0
LINE
  5
157
100
AcDbEntity
  8
____
  6
CONTINUOUS
 62
         7
100
AcDbLine
 10
1720.3406939681
 20
769.9510518805
 30
0.0
 11
1720.3406939681
 21
754.0628813181
 31
0.0
  0
LINE
  5
158
100
AcDbEntity
  8
____
  6
CONTINUOUS
 62
         7
100
AcDbLine
 10
1728.5731612008
 20
770.4510518805
 30
0.0
 11
1728.1790759196
 21
770.0569665993
 31
0.0
  0
LINE
  5
159
100
AcDbEntity
  8
____
  6
CONTINUOUS
 62
         7
100
AcDbLine
 10
1721.2406939681
 20
770.0569665993
 30
0.0
 11
1728.1790759196
 21
770.0569665993
 31
0.0
  0
LINE
  5
15A
100
AcDbEntity
  8
____
  6
CONTINUOUS
 62
         7
100
AcDbLine
 10
1728.5731612008
 20
770.4510518805
 30
0.0
 11
1720.8406939681
 21
770.4510518805
 31
0.0
  0
LINE
  5
15B
100
AcDbEntity
  8
____
  6
CONTINUOUS
 62
         7
100
AcDbLine
 10
1720.7406939681
 20
769.5569665993
 30
0.0
 11
1721.2406939681
 21
770.0569665993
 31
0.0
  0
LINE
  5
15C
100
AcDbEntity
  8
____
  6
CONTINUOUS
 62
         7
100
AcDbLine
 10
1720.7406939681
 20
769.5569665993
 30
0.0
 11
1720.7406939681
 21
754.4569665993
 31
0.0
  0
LINE
  5
15D
100
AcDbEntity
  8
____
  6
CONTINUOUS
 62
         7
100
AcDbLine
 10
1673.3406939681
 20
769.9510518805
 30
0.0
 11
1673.3406939681
 21
754.0628813181
 31
0.0
  0
ARC
  5
15E
100
AcDbEntity
  8
____
  6
DASHED
 62
         2
100
AcDbCircle
 10
1697.9406939681
 20
762.0069665993
 30
0.0
 40
28.125
100
AcDbArc
 50
198.3406919436
 51
343.3680794645
  0
ARC
  5
15F
100
AcDbEntity
  8
____
  6
DASHED
 62
         2
100
AcDbCircle
 10
1697.9406939681
 20
762.0069665993
 30
0.0
 40
28.125
100
AcDbArc
 50
16.6319205355
 51
163.3680794645
  0
LINE
  5
160
100
AcDbEntity
  8
____
  6
CENTER
 62
         1
100
AcDbLine
 10
1697.9406939681
 20
796.7819665993
 30
0.0
 11
1697.9406939681
 21
723.4142582647
 31
0.0
  0
ARC
  5
161
100
AcDbEntity
  8
____
  6
CONTINUOUS
 62
         7
100
AcDbCircle
 10
1697.9406939681
 20
762.0069665993
 30
0.0
 40
30.775
100
AcDbArc
 50
195.9251485826
 51
344.0748514174
  0
ARC
  5
162
100
AcDbEntity
  8
____
  6
CONTINUOUS
 62
         7
100
AcDbCircle
 10
1697.9406939681
 20
762.0069665993
 30
0.0
 40
31.775
100
AcDbArc
 50
15.411296411
 51
164.588703589
  0
ARC
  5
163
100
AcDbEntity
  8
____
  6
CONTINUOUS
 62
         7
100
AcDbCircle
 10
1697.9406939681
 20
762.0069665993
 30
0.0
 40
30.775
100
AcDbArc
 50
15.9251485826
 51
164.0748514174
  0
LINE
  5
164
100
AcDbEntity
  8
____
  6
CONTINUOUS
 62
         7
100
AcDbLine
 10
1534.374902034
 20
790.9045618635
 30
0.0
 11
1532.7136316352
 21
793.7819665993
 31
0.0
  0
LINE
  5
165
100
AcDbEntity
  8
____
  6
CONTINUOUS
 62
         7
100
AcDbLine
 10
1543.449902034
 20
770.0569665993
 30
0.0
 11
1529.149902034
 21
770.0569665993
 31
0.0
  0
LINE
  5
166
100
AcDbEntity
  8
____
  6
CONTINUOUS
 62
         7
100
AcDbLine
 10
1543.449902034
 20
753.9569665993
 30
0.0
 11
1529.149902034
 21
753.9569665993
 31
0.0
  0
LINE
  5
167
100
AcDbEntity
  8
____
  6
CONTINUOUS
 62
         7
100
AcDbLine
 10
1532.7136316352
 20
770.8569665993
 30
0.0
 11
1534.374902034
 21
770.0569665993
 31
0.0
  0
LINE
  5
168
100
AcDbEntity
  8
____
  6
CONTINUOUS
 62
         7
100
AcDbLine
 10
1534.374902034
 20
733.1093713351
 30
0.0
 11
1532.7136316352
 21
730.2319665993
 31
0.0
  0
LINE
  5
169
100
AcDbEntity
  8
____
  6
CONTINUOUS
 62
         7
100
AcDbLine
 10
1532.7136316352
 20
753.1569665993
 30
0.0
 11
1534.374902034
 21
753.9569665993
 31
0.0
  0
LINE
  5
16A
100
AcDbEntity
  8
____
  6
CONTINUOUS
 62
         7
100
AcDbLine
 10
1529.149902034
 20
770.0569665993
 30
0.0
 11
1529.149902034
 21
753.9569665993
 31
0.0
  0
LINE
  5
16B
100
AcDbEntity
  8
____
  6
CONTINUOUS
 62
         7
100
AcDbLine
 10
1528.349902034
 20
792.7819665993
 30
0.0
 11
1528.349902034
 21
731.2319665993
 31
0.0
  0
LINE
  5
16C
100
AcDbEntity
  8
____
  6
CENTER
 62
         1
100
AcDbLine
 10
1525.149902034
 20
784.2319665993
 30
0.0
 11
1525.149902034
 21
739.7819665993
 31
0.0
  0
LINE
  5
16D
100
AcDbEntity
  8
____
  6
CONTINUOUS
 62
         7
100
AcDbLine
 10
1532.7136316352
 20
753.1569665993
 30
0.0
 11
1532.7136316352
 21
730.2319665993
 31
0.0
  0
LINE
  5
16E
100
AcDbEntity
  8
____
  6
CONTINUOUS
 62
         7
100
AcDbLine
 10
1529.349902034
 20
730.2319665993
 30
0.0
 11
1532.7136316352
 21
730.2319665993
 31
0.0
  0
LINE
  5
16F
100
AcDbEntity
  8
____
  6
CONTINUOUS
 62
         7
100
AcDbLine
 10
1532.7136316352
 20
753.1569665993
 30
0.0
 11
1528.349902034
 21
753.1569665993
 31
0.0
  0
LINE
  5
170
100
AcDbEntity
  8
____
  6
CONTINUOUS
 62
         7
100
AcDbLine
 10
1529.149902034
 20
753.9569665993
 30
0.0
 11
1528.349902034
 21
753.1569665993
 31
0.0
  0
LINE
  5
171
100
AcDbEntity
  8
____
  6
CONTINUOUS
 62
         7
100
AcDbLine
 10
1529.349902034
 20
793.7819665993
 30
0.0
 11
1532.7136316352
 21
793.7819665993
 31
0.0
  0
LINE
  5
172
100
AcDbEntity
  8
____
  6
CONTINUOUS
 62
         7
100
AcDbLine
 10
1528.349902034
 20
770.8569665993
 30
0.0
 11
1529.149902034
 21
770.0569665993
 31
0.0
  0
LINE
  5
173
100
AcDbEntity
  8
____
  6
CONTINUOUS
 62
         7
100
AcDbLine
 10
1532.7136316352
 20
770.8569665993
 30
0.0
 11
1528.349902034
 21
770.8569665993
 31
0.0
  0
LINE
  5
174
100
AcDbEntity
  8
____
  6
CONTINUOUS
 62
         7
100
AcDbLine
 10
1532.7136316352
 20
793.7819665993
 30
0.0
 11
1532.7136316352
 21
770.8569665993
 31
0.0
  0
LINE
  5
175
100
AcDbEntity
  8
____
  6
CONTINUOUS
 62
         7
100
AcDbLine
 10
1543.449902034
 20
770.0569665993
 30
0.0
 11
1543.449902034
 21
769.7477675915
 31
0.0
  0
LINE
  5
176
100
AcDbEntity
  8
____
  6
CONTINUOUS
 62
         7
100
AcDbLine
 10
1544.249902034
 20
792.7819665993
 30
0.0
 11
1544.249902034
 21
769.9668660962
 31
0.0
  0
LINE
  5
177
100
AcDbEntity
  8
____
  6
CONTINUOUS
 62
         7
100
AcDbLine
 10
1544.249902034
 20
792.7819665993
 30
0.0
 11
1544.249902034
 21
781.0069665993
 31
0.0
  0
LINE
  5
178
100
AcDbEntity
  8
____
  6
CONTINUOUS
 62
         7
100
AcDbLine
 10
1539.7861724328
 20
753.1569665993
 30
0.0
 11
1539.7861724328
 21
730.2319665993
 31
0.0
  0
LINE
  5
179
100
AcDbEntity
  8
____
  6
CONTINUOUS
 62
         7
100
AcDbLine
 10
1538.124902034
 20
753.9569665993
 30
0.0
 11
1538.124902034
 21
733.1093713351
 31
0.0
  0
LINE
  5
17A
100
AcDbEntity
  8
____
  6
CONTINUOUS
 62
         7
100
AcDbLine
 10
1534.374902034
 20
753.9569665993
 30
0.0
 11
1534.374902034
 21
733.1093713351
 31
0.0
  0
LINE
  5
17B
100
AcDbEntity
  8
____
  6
CONTINUOUS
 62
         7
100
AcDbLine
 10
1535.3487023658
 20
733.8819665993
 30
0.0
 11
1537.1511017023
 21
733.8819665993
 31
0.0
  0
ARC
  5
17C
100
AcDbEntity
  8
____
  6
CONTINUOUS
 62
         7
100
AcDbCircle
 10
1535.3487023658
 20
732.8819665993
 30
0.0
 40
1.0
100
AcDbArc
 50
90.0
 51
166.8556743105
  0
LINE
  5
17D
100
AcDbEntity
  8
____
  6
CONTINUOUS
 62
         7
100
AcDbLine
 10
1538.124902034
 20
733.1093713351
 30
0.0
 11
1539.7861724328
 21
730.2319665993
 31
0.0
  0
ARC
  5
17E
100
AcDbEntity
  8
____
  6
CONTINUOUS
 62
         7
100
AcDbCircle
 10
1537.1511017023
 20
732.8819665993
 30
0.0
 40
1.0
100
AcDbArc
 50
13.1443256895
 51
90.0
  0
LINE
  5
17F
100
AcDbEntity
  8
____
  6
CONTINUOUS
 62
         7
100
AcDbLine
 10
1539.7861724328
 20
730.2319665993
 30
0.0
 11
1543.249902034
 21
730.2319665993
 31
0.0
  0
LINE
  5
180
100
AcDbEntity
  8
____
  6
CONTINUOUS
 62
         7
100
AcDbLine
 10
1544.249902034
 20
753.1569665993
 30
0.0
 11
1539.7861724328
 21
753.1569665993
 31
0.0
  0
LINE
  5
181
100
AcDbEntity
  8
____
  6
CONTINUOUS
 62
         7
100
AcDbLine
 10
1543.449902034
 20
753.9569665993
 30
0.0
 11
1544.249902034
 21
753.1569665993
 31
0.0
  0
LINE
  5
182
100
AcDbEntity
  8
____
  6
CONTINUOUS
 62
         7
100
AcDbLine
 10
1538.124902034
 20
753.9569665993
 30
0.0
 11
1539.7861724328
 21
753.1569665993
 31
0.0
  0
LINE
  5
183
100
AcDbEntity
  8
____
  6
CONTINUOUS
 62
         7
100
AcDbLine
 10
1538.124902034
 20
790.9045618635
 30
0.0
 11
1539.7861724328
 21
793.7819665993
 31
0.0
  0
LINE
  5
184
100
AcDbEntity
  8
____
  6
CONTINUOUS
 62
         7
100
AcDbLine
 10
1539.7861724328
 20
793.7819665993
 30
0.0
 11
1543.249902034
 21
793.7819665993
 31
0.0
  0
LINE
  5
185
100
AcDbEntity
  8
____
  6
CONTINUOUS
 62
         7
100
AcDbLine
 10
1535.3487023658
 20
790.1319665993
 30
0.0
 11
1537.1511017023
 21
790.1319665993
 31
0.0
  0
ARC
  5
186
100
AcDbEntity
  8
____
  6
CONTINUOUS
 62
         7
100
AcDbCircle
 10
1535.3487023658
 20
791.1319665993
 30
0.0
 40
1.0
100
AcDbArc
 50
193.1443256895
 51
270.0
  0
ARC
  5
187
100
AcDbEntity
  8
____
  6
CONTINUOUS
 62
         7
100
AcDbCircle
 10
1537.1511017023
 20
791.1319665993
 30
0.0
 40
1.0
100
AcDbArc
 50
270.0
 51
346.8556743105
  0
LINE
  5
188
100
AcDbEntity
  8
____
  6
CONTINUOUS
 62
         7
100
AcDbLine
 10
1544.249902034
 20
770.8569665993
 30
0.0
 11
1543.449902034
 21
770.0569665993
 31
0.0
  0
LINE
  5
189
100
AcDbEntity
  8
____
  6
CONTINUOUS
 62
         7
100
AcDbLine
 10
1538.124902034
 20
770.0569665993
 30
0.0
 11
1539.7861724328
 21
770.8569665993
 31
0.0
  0
LINE
  5
18A
100
AcDbEntity
  8
____
  6
CONTINUOUS
 62
         7
100
AcDbLine
 10
1544.249902034
 20
770.8569665993
 30
0.0
 11
1539.7861724328
 21
770.8569665993
 31
0.0
  0
LINE
  5
18B
100
AcDbEntity
  8
____
  6
CONTINUOUS
 62
         7
100
AcDbLine
 10
1538.124902034
 20
790.9045618635
 30
0.0
 11
1538.124902034
 21
770.0569665993
 31
0.0
  0
LINE
  5
18C
100
AcDbEntity
  8
____
  6
CONTINUOUS
 62
         7
100
AcDbLine
 10
1539.7861724328
 20
793.7819665993
 30
0.0
 11
1539.7861724328
 21
770.8569665993
 31
0.0
  0
LINE
  5
18D
100
AcDbEntity
  8
____
  6
CONTINUOUS
 62
         7
100
AcDbLine
 10
1534.374902034
 20
790.9045618635
 30
0.0
 11
1534.374902034
 21
770.0569665993
 31
0.0
  0
LINE
  5
18E
100
AcDbEntity
  8
____
  6
CENTER
 62
         1
100
AcDbLine
 10
1536.249902034
 20
799.5122299001
 30
0.0
 11
1536.249902034
 21
724.5094103483
 31
0.0
  0
LINE
  5
18F
100
AcDbEntity
  8
____
  6
CONTINUOUS
 62
         7
100
AcDbLine
 10
1456.749902034
 20
773.2192733157
 30
0.0
 11
1456.749902034
 21
750.7946598829
 31
0.0
  0
ARC
  5
190
100
AcDbEntity
  8
____
  6
CONTINUOUS
 62
         7
100
AcDbCircle
 10
1457.949902034
 20
750.7946598829
 30
0.0
 40
1.2
100
AcDbArc
 50
180.0
 51
261.7028550302
  0
ARC
  5
191
100
AcDbEntity
  8
____
  6
CONTINUOUS
 62
         7
100
AcDbCircle
 10
1457.949902034
 20
773.2192733157
 30
0.0
 40
1.2
100
AcDbArc
 50
98.2971449698
 51
180.0
  0
LINE
  5
192
100
AcDbEntity
  8
____
  6
CONTINUOUS
 62
         7
100
AcDbLine
 10
1457.7767337623
 20
749.6072203056
 30
0.0
 11
1526.349902034
 21
739.6069665993
 31
0.0
  0
LINE
  5
193
100
AcDbEntity
  8
____
  6
CENTER
 62
         1
100
AcDbLine
 10
1454.506400303
 20
762.0069665993
 30
0.0
 11
1503.6125151721
 21
762.0069665993
 31
0.0
  0
LINE
  5
194
100
AcDbEntity
  8
____
  6
CONTINUOUS
 62
         7
100
AcDbLine
 10
1457.7767337623
 20
774.406712893
 30
0.0
 11
1526.349902034
 21
784.4069665993
 31
0.0
  0
LINE
  5
195
100
AcDbEntity
  8
____
  6
CENTER
 62
         1
100
AcDbLine
 10
1521.7974106156
 20
762.0069665993
 30
0.0
 11
1571.4958022671
 21
762.0069665993
 31
0.0
  0
ARC
  5
196
100
AcDbEntity
  8
____
  6
CONTINUOUS
 62
         7
100
AcDbCircle
 10
1697.9406939681
 20
762.0069665993
 30
0.0
 40
31.775
100
AcDbArc
 50
195.411296411
 51
344.588703589
  0
LINE
  5
197
100
AcDbEntity
  8
____
  6
CONTINUOUS
 62
         7
100
AcDbLine
 10
1527.0963121955
 20
739.8069665993
 30
0.0
 11
1527.749902034
 21
739.8069665993
 31
0.0
  0
LINE
  5
198
100
AcDbEntity
  8
____
  6
CONTINUOUS
 62
         7
100
AcDbLine
 10
1526.349902034
 20
739.6069665993
 30
0.0
 11
1527.0963121955
 21
739.8069665993
 31
0.0
  0
ARC
  5
199
100
AcDbEntity
  8
____
  6
CONTINUOUS
 62
         7
100
AcDbCircle
 10
1527.749902034
 20
739.2069665993
 30
0.0
 40
0.6
100
AcDbArc
 50
0.0
 51
90.0
  0
LINE
  5
19A
100
AcDbEntity
  8
____
  6
CONTINUOUS
 62
         7
100
AcDbLine
 10
1527.0963121955
 20
739.8069665993
 30
0.0
 11
1527.0963121955
 21
784.2069665993
 31
0.0
  0
LINE
  5
19B
100
AcDbEntity
  8
____
  6
CONTINUOUS
 62
         7
100
AcDbLine
 10
1526.349902034
 20
739.6069665993
 30
0.0
 11
1526.349902034
 21
784.4069665993
 31
0.0
  0
LINE
  5
19C
100
AcDbEntity
  8
____
  6
CONTINUOUS
 62
         7
100
AcDbLine
 10
1527.0963121955
 20
784.2069665993
 30
0.0
 11
1527.749902034
 21
784.2069665993
 31
0.0
  0
LINE
  5
19D
100
AcDbEntity
  8
____
  6
CONTINUOUS
 62
         7
100
AcDbLine
 10
1526.349902034
 20
784.4069665993
 30
0.0
 11
1527.0963121955
 21
784.2069665993
 31
0.0
  0
ARC
  5
19E
100
AcDbEntity
  8
____
  6
CONTINUOUS
 62
         7
100
AcDbCircle
 10
1527.749902034
 20
784.8069665993
 30
0.0
 40
0.6
100
AcDbArc
 50
270.0
 51
360.0
  0
DIMENSION
  5
1A2
100
AcDbEntity
  8
____
  6
CONTINUOUS
 62
         4
100
AcDbDimension
  2
*D0
 10
1592.8254785609
 20
784.2319665993
 30
0.0
 11
1590.8004785609
 21
750.7436196188
 31
0.0
  3
DIMSTYLE1
100
AcDbAlignedDimension
 13
1560.201902034
 23
784.2319665993
 33
0.0
 14
1560.201902034
 24
739.7819665993
 34
0.0
 50
90.0
100
AcDbRotatedDimension
  0
LINE
  5
1AF
100
AcDbEntity
  8
____
  6
CONTINUOUS
 62
         7
100
AcDbLine
 10
1545.049902034
 20
624.6753207807
 30
0.0
 11
1558.8339781062
 21
624.6753207807
 31
0.0
  0
ARC
  5
1B0
100
AcDbEntity
  8
____
  6
CONTINUOUS
 62
         7
100
AcDbCircle
 10
1545.049902034
 20
623.8753207807
 30
0.0
 40
0.8
100
AcDbArc
 50
90.0
 51
180.0
  0
LINE
  5
1B1
100
AcDbEntity
  8
____
  6
CONTINUOUS
 62
         7
100
AcDbLine
 10
1544.249902034
 20
623.8753207807
 30
0.0
 11
1544.249902034
 21
616.1253207806
 31
0.0
  0
LINE
  5
1B2
100
AcDbEntity
  8
____
  6
CONTINUOUS
 62
         7
100
AcDbLine
 10
1539.7861724328
 20
615.1253207806
 30
0.0
 11
1543.249902034
 21
615.1253207806
 31
0.0
  0
LINE
  5
1B3
100
AcDbEntity
  8
____
  6
CONTINUOUS
 62
         7
100
AcDbLine
 10
1538.124902034
 20
618.0027255166
 30
0.0
 11
1539.7861724328
 21
615.1253207807
 31
0.0
  0
ARC
  5
1B4
100
AcDbEntity
  8
____
  6
CONTINUOUS
 62
         7
100
AcDbCircle
 10
1537.1511017023
 20
617.7753207806
 30
0.0
 40
1.0
100
AcDbArc
 50
13.1443256895
 51
90.0
  0
LINE
  5
1B5
100
AcDbEntity
  8
____
  6
CONTINUOUS
 62
         7
100
AcDbLine
 10
1535.3487023658
 20
618.7753207807
 30
0.0
 11
1537.1511017023
 21
618.7753207807
 31
0.0
  0
ARC
  5
1B6
100
AcDbEntity
  8
____
  6
CONTINUOUS
 62
         7
100
AcDbCircle
 10
1535.3487023658
 20
617.7753207807
 30
0.0
 40
1.0
100
AcDbArc
 50
90.0
 51
166.8556743105
  0
LINE
  5
1B7
100
AcDbEntity
  8
____
  6
CONTINUOUS
 62
         7
100
AcDbLine
 10
1534.374902034
 20
618.0027255166
 30
0.0
 11
1532.7136316352
 21
615.1253207807
 31
0.0
  0
LINE
  5
1B8
100
AcDbEntity
  8
____
  6
CONTINUOUS
 62
         7
100
AcDbLine
 10
1528.349902034
 20
624.1003207806
 30
0.0
 11
1528.349902034
 21
616.1253207806
 31
0.0
  0
LINE
  5
1B9
100
AcDbEntity
  8
____
  6
CONTINUOUS
 62
         7
100
AcDbLine
 10
1529.349902034
 20
615.1253207806
 30
0.0
 11
1532.7136316352
 21
615.1253207806
 31
0.0
  0
ARC
  5
1BA
100
AcDbEntity
  8
____
  6
CONTINUOUS
 62
         7
100
AcDbCircle
 10
1527.749902034
 20
624.1003207807
 30
0.0
 40
0.6
100
AcDbArc
 50
0.0
 51
90.0
  0
LINE
  5
1BB
100
AcDbEntity
  8
____
  6
CONTINUOUS
 62
         7
100
AcDbLine
 10
1527.0963121955
 20
624.7003207807
 30
0.0
 11
1527.749902034
 21
624.7003207807
 31
0.0
  0
LINE
  5
1BC
100
AcDbEntity
  8
____
  6
CONTINUOUS
 62
         7
100
AcDbLine
 10
1526.349902034
 20
624.5003207806
 30
0.0
 11
1527.0963121955
 21
624.7003207806
 31
0.0
  0
LINE
  5
1BD
100
AcDbEntity
  8
____
  6
CENTER
 62
         1
100
AcDbLine
 10
1453.7021690586
 20
646.9003207807
 30
0.0
 11
1571.2466362011
 21
646.9003207807
 31
0.0
  0
LINE
  5
1BE
100
AcDbEntity
  8
____
  6
CONTINUOUS
 62
         7
100
AcDbLine
 10
1485.199902034
 20
654.9003207807
 30
0.0
 11
1485.199902034
 21
638.9003207807
 31
0.0
  0
LINE
  5
1BF
100
AcDbEntity
  8
____
  6
CONTINUOUS
 62
         5
100
AcDbLine
 10
1461.6527447465
 20
638.9003207807
 30
0.0
 11
1485.199902034
 21
638.9003207807
 31
0.0
  0
LINE
  5
1C0
100
AcDbEntity
  8
____
  6
CONTINUOUS
 62
         7
100
AcDbLine
 10
1457.7767337623
 20
634.500574487
 30
0.0
 11
1526.3499020345
 21
624.5003207807
 31
0.0
  0
ARC
  5
1C1
100
AcDbEntity
  8
____
  6
CONTINUOUS
 62
         7
100
AcDbCircle
 10
1457.949902034
 20
635.6880140643
 30
0.0
 40
1.2
100
AcDbArc
 50
180.0
 51
261.7028550302
  0
ARC
  5
1C2
100
AcDbEntity
  8
____
  6
CONTINUOUS
 62
         7
100
AcDbCircle
 10
1457.749902034
 20
637.7503207807
 30
0.0
 40
1.0
100
AcDbArc
 50
90.0
 51
180.0
  0
LINE
  5
1C3
100
AcDbEntity
  8
____
  6
CONTINUOUS
 62
         7
100
AcDbLine
 10
1457.749902034
 20
638.7503207807
 30
0.0
 11
1460.519902034
 21
638.7503207807
 31
0.0
  0
LINE
  5
1C4
100
AcDbEntity
  8
____
  6
CONTINUOUS
 62
         7
100
AcDbLine
 10
1460.8676738053
 20
638.6571356155
 30
0.0
 11
1460.519902034
 21
638.7503207807
 31
0.0
  0
LINE
  5
1C5
100
AcDbEntity
  8
____
  6
CONTINUOUS
 62
         7
100
AcDbLine
 10
1460.9194376143
 20
638.6503207807
 30
0.0
 11
1461.319902034
 21
638.6503207807
 31
0.0
  0
ARC
  5
1C6
100
AcDbEntity
  8
____
  6
CONTINUOUS
 62
         7
100
AcDbCircle
 10
1461.319902034
 20
638.8503207807
 30
0.0
 40
0.2
100
AcDbArc
 50
270.0
 51
314.9999999962
  0
LINE
  5
1C7
100
AcDbEntity
  8
____
  6
CONTINUOUS
 62
         7
100
AcDbLine
 10
1461.4613233902
 20
638.7088994245
 30
0.0
 11
1462.6527447465
 21
639.9003207807
 31
0.0
  0
LINE
  5
1C8
100
AcDbEntity
  8
____
  6
CONTINUOUS
 62
         7
100
AcDbLine
 10
1462.6527447465
 20
639.9003207807
 30
0.0
 11
1519.999902034
 21
639.9003207808
 31
0.0
  0
LINE
  5
1C9
100
AcDbEntity
  8
____
  6
CONTINUOUS
 62
         7
100
AcDbLine
 10
1462.6527447465
 20
653.9003207807
 30
0.0
 11
1462.6527447465
 21
639.9003207807
 31
0.0
  0
LINE
  5
1CA
100
AcDbEntity
  8
____
  6
CONTINUOUS
 62
         7
100
AcDbLine
 10
1462.6527447465
 20
653.9003207807
 30
0.0
 11
1519.999902034
 21
653.9003207807
 31
0.0
  0
LINE
  5
1CB
100
AcDbEntity
  8
____
  6
CONTINUOUS
 62
         5
100
AcDbLine
 10
1461.6527447465
 20
654.9003207807
 30
0.0
 11
1485.199902034
 21
654.9003207807
 31
0.0
  0
LINE
  5
1CC
100
AcDbEntity
  8
____
  6
CONTINUOUS
 62
         7
100
AcDbLine
 10
1460.519902034
 20
655.0503207807
 30
0.0
 11
1460.519902034
 21
638.7503207807
 31
0.0
  0
LINE
  5
1CD
100
AcDbEntity
  8
____
  6
CONTINUOUS
 62
         7
100
AcDbLine
 10
1461.519902034
 20
654.6938436214
 30
0.0
 11
1461.519902034
 21
639.2215674452
 31
0.0
  0
ARC
  5
1CE
100
AcDbEntity
  8
____
  6
CONTINUOUS
 62
         7
100
AcDbCircle
 10
1461.319902034
 20
654.9503207807
 30
0.0
 40
0.2
100
AcDbArc
 50
45.0000000038
 51
90.0
  0
LINE
  5
1CF
100
AcDbEntity
  8
____
  6
CONTINUOUS
 62
         7
100
AcDbLine
 10
1461.4613233902
 20
655.091742137
 30
0.0
 11
1462.6527447465
 21
653.9003207807
 31
0.0
  0
LINE
  5
1D0
100
AcDbEntity
  8
____
  6
CONTINUOUS
 62
         7
100
AcDbLine
 10
1460.9194376143
 20
655.1503207807
 30
0.0
 11
1461.319902034
 21
655.1503207807
 31
0.0
  0
LINE
  5
1D1
100
AcDbEntity
  8
____
  6
CONTINUOUS
 62
         7
100
AcDbLine
 10
1460.8676738053
 20
655.143505946
 30
0.0
 11
1460.519902034
 21
655.0503207807
 31
0.0
  0
ARC
  5
1D2
100
AcDbEntity
  8
____
  6
CONTINUOUS
 62
         7
100
AcDbCircle
 10
1460.9194376143
 20
654.9503207807
 30
0.0
 40
0.2
100
AcDbArc
 50
90.0
 51
105.0
  0
LINE
  5
1D3
100
AcDbEntity
  8
____
  6
CONTINUOUS
 62
         7
100
AcDbLine
 10
1457.749902034
 20
655.0503207807
 30
0.0
 11
1460.519902034
 21
655.0503207807
 31
0.0
  0
ARC
  5
1D4
100
AcDbEntity
  8
____
  6
CONTINUOUS
 62
         7
100
AcDbCircle
 10
1457.749902034
 20
656.0503207807
 30
0.0
 40
1.0
100
AcDbArc
 50
180.0
 51
270.0
  0
LINE
  5
1D5
100
AcDbEntity
  8
____
  6
CONTINUOUS
 62
         7
100
AcDbLine
 10
1456.749902034
 20
658.1126274972
 30
0.0
 11
1456.749902034
 21
635.6880140643
 31
0.0
  0
ARC
  5
1D6
100
AcDbEntity
  8
____
  6
CONTINUOUS
 62
         7
100
AcDbCircle
 10
1457.949902034
 20
658.1126274972
 30
0.0
 40
1.2
100
AcDbArc
 50
98.2971449698
 51
180.0
  0
LINE
  5
1D7
100
AcDbEntity
  8
____
  6
CONTINUOUS
 62
         7
100
AcDbLine
 10
1526.349902034
 20
669.3003207807
 30
0.0
 11
1527.0963121955
 21
669.1003207807
 31
0.0
  0
LINE
  5
1D8
100
AcDbEntity
  8
____
  6
CONTINUOUS
 62
         7
100
AcDbLine
 10
1457.7767337623
 20
659.3000670745
 30
0.0
 11
1526.349902034
 21
669.3003207807
 31
0.0
  0
LINE
  5
1D9
100
AcDbEntity
  8
____
  6
CONTINUOUS
 62
         7
100
AcDbLine
 10
1527.0963121955
 20
669.1003207807
 30
0.0
 11
1527.749902034
 21
669.1003207807
 31
0.0
  0
ARC
  5
1DA
100
AcDbEntity
  8
____
  6
CONTINUOUS
 62
         7
100
AcDbCircle
 10
1527.749902034
 20
669.7003207807
 30
0.0
 40
0.6
100
AcDbArc
 50
270.0
 51
360.0
  0
LINE
  5
1DB
100
AcDbEntity
  8
____
  6
CONTINUOUS
 62
         7
100
AcDbLine
 10
1528.349902034
 20
669.7003207807
 30
0.0
 11
1528.349902034
 21
677.6753207809
 31
0.0
  0
LINE
  5
1DC
100
AcDbEntity
  8
____
  6
CONTINUOUS
 62
         7
100
AcDbLine
 10
1529.349902034
 20
678.6753207809
 30
0.0
 11
1532.7136316352
 21
678.6753207809
 31
0.0
  0
LINE
  5
1DD
100
AcDbEntity
  8
____
  6
CONTINUOUS
 62
         7
100
AcDbLine
 10
1534.374902034
 20
675.7979160449
 30
0.0
 11
1532.7136316352
 21
678.6753207807
 31
0.0
  0
ARC
  5
1DE
100
AcDbEntity
  8
____
  6
CONTINUOUS
 62
         7
100
AcDbCircle
 10
1535.3487023658
 20
676.0253207809
 30
0.0
 40
1.0
100
AcDbArc
 50
193.1443256895
 51
270.0
  0
LINE
  5
1DF
100
AcDbEntity
  8
____
  6
CONTINUOUS
 62
         7
100
AcDbLine
 10
1535.3487023658
 20
675.0253207809
 30
0.0
 11
1537.1511017023
 21
675.0253207809
 31
0.0
  0
ARC
  5
1E0
100
AcDbEntity
  8
____
  6
CONTINUOUS
 62
         7
100
AcDbCircle
 10
1537.1511017023
 20
676.0253207809
 30
0.0
 40
1.0
100
AcDbArc
 50
270.0
 51
346.8556743105
  0
LINE
  5
1E1
100
AcDbEntity
  8
____
  6
CONTINUOUS
 62
         7
100
AcDbLine
 10
1538.124902034
 20
675.7979160451
 30
0.0
 11
1539.7861724328
 21
678.6753207809
 31
0.0
  0
LINE
  5
1E2
100
AcDbEntity
  8
____
  6
CONTINUOUS
 62
         7
100
AcDbLine
 10
1544.249902034
 20
677.6753207809
 30
0.0
 11
1544.249902034
 21
669.9253207807
 31
0.0
  0
LINE
  5
1E3
100
AcDbEntity
  8
____
  6
CONTINUOUS
 62
         7
100
AcDbLine
 10
1539.7861724328
 20
678.6753207809
 30
0.0
 11
1543.249902034
 21
678.6753207809
 31
0.0
  0
ARC
  5
1E4
100
AcDbEntity
  8
____
  6
CONTINUOUS
 62
         7
100
AcDbCircle
 10
1545.049902034
 20
669.9253207807
 30
0.0
 40
0.8
100
AcDbArc
 50
180.0
 51
270.0
  0
LINE
  5
1E5
100
AcDbEntity
  8
____
  6
CONTINUOUS
 62
         7
100
AcDbLine
 10
1545.049902034
 20
669.1253207807
 30
0.0
 11
1558.8339781062
 21
669.1253207807
 31
0.0
  0
LINE
  5
1E6
100
AcDbEntity
  8
____
  6
CONTINUOUS
 62
         7
100
AcDbLine
 10
1419.1064003031
 20
754.0628813181
 30
0.0
 11
1419.1064003031
 21
769.9510518805
 31
0.0
  0
LINE
  5
1E7
100
AcDbEntity
  8
____
  6
CONTINUOUS
 62
         7
100
AcDbLine
 10
1371.7064003031
 20
754.4569665993
 30
0.0
 11
1371.7064003031
 21
769.5569665993
 31
0.0
  0
LINE
  5
1E8
100
AcDbEntity
  8
____
  6
CONTINUOUS
 62
         7
100
AcDbLine
 10
1371.7064003031
 20
754.4569665993
 30
0.0
 11
1371.2064003031
 21
753.9569665993
 31
0.0
  0
LINE
  5
1E9
100
AcDbEntity
  8
____
  6
CONTINUOUS
 62
         7
100
AcDbLine
 10
1363.8739330703
 20
753.5628813181
 30
0.0
 11
1371.6064003031
 21
753.5628813181
 31
0.0
  0
LINE
  5
1EA
100
AcDbEntity
  8
____
  6
CONTINUOUS
 62
         7
100
AcDbLine
 10
1371.2064003031
 20
753.9569665993
 30
0.0
 11
1364.2680183515
 21
753.9569665993
 31
0.0
  0
LINE
  5
1EB
100
AcDbEntity
  8
____
  6
CONTINUOUS
 62
         7
100
AcDbLine
 10
1363.8739330703
 20
753.5628813181
 30
0.0
 11
1364.2680183515
 21
753.9569665993
 31
0.0
  0
LINE
  5
1EC
100
AcDbEntity
  8
____
  6
CONTINUOUS
 62
         7
100
AcDbLine
 10
1372.1064003031
 20
754.0628813181
 30
0.0
 11
1372.1064003031
 21
769.9510518805
 31
0.0
  0
LINE
  5
1ED
100
AcDbEntity
  8
____
  6
CONTINUOUS
 62
         7
100
AcDbLine
 10
1363.8739330703
 20
770.4510518805
 30
0.0
 11
1371.6064003031
 21
770.4510518805
 31
0.0
  0
LINE
  5
1EE
100
AcDbEntity
  8
____
  6
CONTINUOUS
 62
         7
100
AcDbLine
 10
1371.2064003031
 20
770.0569665993
 30
0.0
 11
1364.2680183515
 21
770.0569665993
 31
0.0
  0
LINE
  5
1EF
100
AcDbEntity
  8
____
  6
CONTINUOUS
 62
         7
100
AcDbLine
 10
1371.7064003031
 20
769.5569665993
 30
0.0
 11
1371.2064003031
 21
770.0569665993
 31
0.0
  0
LINE
  5
1F0
100
AcDbEntity
  8
____
  6
CONTINUOUS
 62
         7
100
AcDbLine
 10
1363.8739330703
 20
770.4510518805
 30
0.0
 11
1364.2680183515
 21
770.0569665993
 31
0.0
  0
LINE
  5
1F1
100
AcDbEntity
  8
____
  6
CONTINUOUS
 62
         7
100
AcDbLine
 10
1372.1064003031
 20
769.9510518805
 30
0.0
 11
1371.6064003031
 21
770.4510518805
 31
0.0
  0
LINE
  5
1F2
100
AcDbEntity
  8
____
  6
CONTINUOUS
 62
         7
100
AcDbLine
 10
1372.1064003031
 20
754.0628813181
 30
0.0
 11
1371.6064003031
 21
753.5628813181
 31
0.0
  0
LINE
  5
1F3
100
AcDbEntity
  8
____
  6
CONTINUOUS
 62
         7
100
AcDbLine
 10
1425.1388675358
 20
753.5628813181
 30
0.0
 11
1419.6064003031
 21
753.5628813181
 31
0.0
  0
LINE
  5
1F4
100
AcDbEntity
  8
____
  6
CONTINUOUS
 62
         7
100
AcDbLine
 10
1424.7447822546
 20
753.9569665993
 30
0.0
 11
1420.0064003031
 21
753.9569665993
 31
0.0
  0
LINE
  5
1F5
100
AcDbEntity
  8
____
  6
CONTINUOUS
 62
         7
100
AcDbLine
 10
1419.5064003031
 20
754.4569665993
 30
0.0
 11
1419.5064003031
 21
769.5569665993
 31
0.0
  0
LINE
  5
1F6
100
AcDbEntity
  8
____
  6
CONTINUOUS
 62
         7
100
AcDbLine
 10
1419.5064003031
 20
754.4569665993
 30
0.0
 11
1420.0064003031
 21
753.9569665993
 31
0.0
  0
LINE
  5
1F7
100
AcDbEntity
  8
____
  6
CONTINUOUS
 62
         7
100
AcDbLine
 10
1425.1388675358
 20
753.5628813181
 30
0.0
 11
1424.7447822546
 21
753.9569665993
 31
0.0
  0
LINE
  5
1F8
100
AcDbEntity
  8
____
  6
CONTINUOUS
 62
         7
100
AcDbLine
 10
1419.1064003031
 20
754.0628813181
 30
0.0
 11
1419.6064003031
 21
753.5628813181
 31
0.0
  0
LINE
  5
1F9
100
AcDbEntity
  8
____
  6
CONTINUOUS
 62
         7
100
AcDbLine
 10
1419.5064003031
 20
769.5569665993
 30
0.0
 11
1420.0064003031
 21
770.0569665993
 31
0.0
  0
LINE
  5
1FA
100
AcDbEntity
  8
____
  6
CONTINUOUS
 62
         7
100
AcDbLine
 10
1425.1388675358
 20
770.4510518805
 30
0.0
 11
1424.7447822546
 21
770.0569665993
 31
0.0
  0
LINE
  5
1FB
100
AcDbEntity
  8
____
  6
CONTINUOUS
 62
         7
100
AcDbLine
 10
1424.7447822546
 20
770.0569665993
 30
0.0
 11
1420.0064003031
 21
770.0569665993
 31
0.0
  0
LINE
  5
1FC
100
AcDbEntity
  8
____
  6
CONTINUOUS
 62
         7
100
AcDbLine
 10
1425.1388675358
 20
770.4510518805
 30
0.0
 11
1419.6064003031
 21
770.4510518805
 31
0.0
  0
LINE
  5
1FD
100
AcDbEntity
  8
____
  6
CONTINUOUS
 62
         7
100
AcDbLine
 10
1419.1064003031
 20
769.9510518805
 30
0.0
 11
1419.6064003031
 21
770.4510518805
 31
0.0
  0
CIRCLE
  5
1FE
100
AcDbEntity
  8
____
  6
CONTINUOUS
 62
         7
100
AcDbCircle
 10
1394.506400303
 20
762.0069665993
 30
0.0
 40
22.225
  0
CIRCLE
  5
1FF
100
AcDbEntity
  8
____
  6
CONTINUOUS
 62
         7
100
AcDbCircle
 10
1394.506400303
 20
762.0069665993
 30
0.0
 40
8.5
  0
CIRCLE
  5
200
100
AcDbEntity
  8
____
  6
CONTINUOUS
 62
         7
100
AcDbCircle
 10
1394.506400303
 20
762.0069665993
 30
0.0
 40
9.5
  0
ARC
  5
201
100
AcDbEntity
  8
____
  6
CONTINUOUS
 62
         5
100
AcDbCircle
 10
1394.506400303
 20
762.0069665993
 30
0.0
 40
8.0
100
AcDbArc
 50
352.9901372228
 51
621.2264515101
  0
CIRCLE
  5
202
100
AcDbEntity
  8
____
  6
CONTINUOUS
 62
         7
100
AcDbCircle
 10
1394.506400303
 20
762.0069665993
 30
0.0
 40
7.0
  0
CIRCLE
  5
203
100
AcDbEntity
  8
____
  6
CONTINUOUS
 62
         7
100
AcDbCircle
 10
1394.506400303
 20
762.0069665993
 30
0.0
 40
12.7165768873
  0
LINE
  5
204
100
AcDbEntity
  8
____
  6
CENTER
 62
         1
100
AcDbLine
 10
1394.506400303
 20
726.3956143665
 30
0.0
 11
1394.506400303
 21
797.2396746978
 31
0.0
  0
ARC
  5
205
100
AcDbEntity
  8
____
  6
CONTINUOUS
 62
         7
100
AcDbCircle
 10
1394.506400303
 20
762.0069665993
 30
0.0
 40
31.775
100
AcDbArc
 50
15.411296411
 51
164.588703589
  0
LINE
  5
206
100
AcDbEntity
  8
____
  6
CENTER
 62
         1
100
AcDbLine
 10
1366.3125384951
 20
762.0069665993
 30
0.0
 11
1423.6530525164
 21
762.0069665993
 31
0.0
  0
ARC
  5
207
100
AcDbEntity
  8
____
  6
CONTINUOUS
 62
         7
100
AcDbCircle
 10
1394.506400303
 20
762.0069665993
 30
0.0
 40
31.775
100
AcDbArc
 50
195.411296411
 51
344.588703589
  0
ARC
  5
208
100
AcDbEntity
  8
____
  6
CONTINUOUS
 62
         7
100
AcDbCircle
 10
1529.349902034
 20
677.6753207809
 30
0.0
 40
1.0
100
AcDbArc
 50
90.0
 51
180.0
  0
ARC
  5
209
100
AcDbEntity
  8
____
  6
CONTINUOUS
 62
         7
100
AcDbCircle
 10
1543.249902034
 20
677.6753207809
 30
0.0
 40
1.0
100
AcDbArc
 50
0.0
 51
90.0
  0
ARC
  5
20A
100
AcDbEntity
  8
____
  6
CONTINUOUS
 62
         7
100
AcDbCircle
 10
1543.249902034
 20
616.1253207806
 30
0.0
 40
1.0
100
AcDbArc
 50
270.0
 51
360.0
  0
ARC
  5
20B
100
AcDbEntity
  8
____
  6
CONTINUOUS
 62
         7
100
AcDbCircle
 10
1529.349902034
 20
616.1253207806
 30
0.0
 40
1.0
100
AcDbArc
 50
180.0
 51
270.0
  0
LINE
  5
20C
100
AcDbEntity
  8
____
  6
CONTINUOUS
 62
         4
100
AcDbLine
 10
1529.349902034
 20
793.7819665993
 30
0.0
 11
1529.349902034
 21
770.8569665993
 31
0.0
  0
ARC
  5
20D
100
AcDbEntity
  8
____
  6
CONTINUOUS
 62
         7
100
AcDbCircle
 10
1529.349902034
 20
792.7819665993
 30
0.0
 40
1.0
100
AcDbArc
 50
90.0
 51
180.0
  0
LINE
  5
20E
100
AcDbEntity
  8
____
  6
CONTINUOUS
 62
         4
100
AcDbLine
 10
1543.249902034
 20
793.7819665993
 30
0.0
 11
1543.249902034
 21
770.8569665993
 31
0.0
  0
ARC
  5
20F
100
AcDbEntity
  8
____
  6
CONTINUOUS
 62
         7
100
AcDbCircle
 10
1543.249902034
 20
792.7819665993
 30
0.0
 40
1.0
100
AcDbArc
 50
0.0
 51
90.0
  0
ARC
  5
210
100
AcDbEntity
  8
____
  6
CONTINUOUS
 62
         7
100
AcDbCircle
 10
1529.349902034
 20
731.2319665993
 30
0.0
 40
1.0
100
AcDbArc
 50
180.0
 51
270.0
  0
LINE
  5
211
100
AcDbEntity
  8
____
  6
CONTINUOUS
 62
         4
100
AcDbLine
 10
1529.349902034
 20
753.1569665993
 30
0.0
 11
1529.349902034
 21
730.2319665993
 31
0.0
  0
ARC
  5
212
100
AcDbEntity
  8
____
  6
CONTINUOUS
 62
         7
100
AcDbCircle
 10
1543.249902034
 20
731.2319665993
 30
0.0
 40
1.0
100
AcDbArc
 50
270.0
 51
360.0
  0
LINE
  5
213
100
AcDbEntity
  8
____
  6
CONTINUOUS
 62
         4
100
AcDbLine
 10
1543.249902034
 20
753.1569665993
 30
0.0
 11
1543.249902034
 21
730.2319665993
 31
0.0
  0
DIMENSION
  5
216
100
AcDbEntity
  8
____
  6
CONTINUOUS
 62
         4
100
AcDbDimension
  2
*D1
 10
1540.7286645784
 20
600.8528157111
 30
0.0
 11
1541.1311260109
 21
602.8778157111
 31
0.0
  3
DIMSTYLE1
100
AcDbAlignedDimension
 13
1540.7286645784
 23
590.8627051551
 33
0.0
 14
1555.0186645784
 24
590.8627051551
 34
0.0
100
AcDbRotatedDimension
  0
LINE
  5
223
100
AcDbEntity
  8
____
  6
CONTINUOUS
 62
         7
100
AcDbLine
 10
1554.1670173851
 20
580.9188811775
 30
0.0
 11
1541.5803117717
 21
580.9188811775
 31
0.0
  0
LINE
  5
224
100
AcDbEntity
  8
____
  6
CONTINUOUS
 62
         7
100
AcDbLine
 10
1555.0136772785
 20
581.5538824475
 30
0.0
 11
1540.7336518784
 21
581.5538824475
 31
0.0
  0
LINE
  5
225
100
AcDbEntity
  8
____
  6
CONTINUOUS
 62
         7
100
AcDbLine
 10
1555.0136772785
 20
584.4537215805
 30
0.0
 11
1540.7336518784
 21
583.7287617973
 31
0.0
  0
LINE
  5
226
100
AcDbEntity
  8
____
  6
CONTINUOUS
 62
         7
100
AcDbLine
 10
1554.1670173851
 20
583.7287617973
 30
0.0
 11
1541.5803117717
 21
583.003802014
 31
0.0
  0
LINE
  5
227
100
AcDbEntity
  8
____
  6
CONTINUOUS
 62
         7
100
AcDbLine
 10
1555.0136772785
 20
583.003802014
 30
0.0
 11
1540.7336518784
 21
582.2788422307
 31
0.0
  0
LINE
  5
228
100
AcDbEntity
  8
____
  6
CONTINUOUS
 62
         7
100
AcDbLine
 10
1554.1670173851
 20
582.2788422307
 30
0.0
 11
1542.305271555
 21
581.5538824475
 31
0.0
  0
LINE
  5
229
100
AcDbEntity
  8
____
  6
CONTINUOUS
 62
         7
100
AcDbLine
 10
1555.0136772785
 20
581.5538824475
 30
0.0
 11
1542.305271555
 21
581.5538824475
 31
0.0
  0
LINE
  5
22A
100
AcDbEntity
  8
____
  6
CONTINUOUS
 62
         7
100
AcDbLine
 10
1555.0136772785
 20
585.903641147
 30
0.0
 11
1540.7336518784
 21
585.1786813638
 31
0.0
  0
LINE
  5
22B
100
AcDbEntity
  8
____
  6
CONTINUOUS
 62
         7
100
AcDbLine
 10
1554.1670173851
 20
585.1786813638
 30
0.0
 11
1541.5803117717
 21
584.4537215805
 31
0.0
  0
LINE
  5
22C
100
AcDbEntity
  8
____
  6
CONTINUOUS
 62
         7
100
AcDbLine
 10
1555.0136772785
 20
583.003802014
 30
0.0
 11
1540.7336518784
 21
582.2788422307
 31
0.0
  0
LINE
  5
22D
100
AcDbEntity
  8
____
  6
CONTINUOUS
 62
         7
100
AcDbLine
 10
1554.1670173851
 20
582.2788422307
 30
0.0
 11
1542.305271555
 21
581.5538824475
 31
0.0
  0
LINE
  5
22E
100
AcDbEntity
  8
____
  6
CONTINUOUS
 62
         7
100
AcDbLine
 10
1555.0136772785
 20
581.5538824475
 30
0.0
 11
1542.305271555
 21
581.5538824475
 31
0.0
  0
LINE
  5
22F
100
AcDbEntity
  8
____
  6
CONTINUOUS
 62
         7
100
AcDbLine
 10
1555.0136772785
 20
587.3535607135
 30
0.0
 11
1540.7336518784
 21
586.6286009303
 31
0.0
  0
LINE
  5
230
100
AcDbEntity
  8
____
  6
CONTINUOUS
 62
         7
100
AcDbLine
 10
1554.1670173851
 20
586.6286009303
 30
0.0
 11
1541.5803117717
 21
585.903641147
 31
0.0
  0
LINE
  5
231
100
AcDbEntity
  8
____
  6
CONTINUOUS
 62
         7
100
AcDbLine
 10
1555.0136772785
 20
583.003802014
 30
0.0
 11
1540.7336518784
 21
582.2788422307
 31
0.0
  0
LINE
  5
232
100
AcDbEntity
  8
____
  6
CONTINUOUS
 62
         7
100
AcDbLine
 10
1554.1670173851
 20
582.2788422307
 30
0.0
 11
1542.305271555
 21
581.5538824475
 31
0.0
  0
LINE
  5
233
100
AcDbEntity
  8
____
  6
CONTINUOUS
 62
         7
100
AcDbLine
 10
1555.0136772785
 20
581.5538824475
 30
0.0
 11
1542.305271555
 21
581.5538824475
 31
0.0
  0
LINE
  5
234
100
AcDbEntity
  8
____
  6
CONTINUOUS
 62
         7
100
AcDbLine
 10
1555.0136772785
 20
588.80348028
 30
0.0
 11
1540.7336518784
 21
588.0785204968
 31
0.0
  0
LINE
  5
235
100
AcDbEntity
  8
____
  6
CONTINUOUS
 62
         7
100
AcDbLine
 10
1554.1670173851
 20
588.0785204968
 30
0.0
 11
1541.5803117717
 21
587.3535607135
 31
0.0
  0
LINE
  5
236
100
AcDbEntity
  8
____
  6
CONTINUOUS
 62
         7
100
AcDbLine
 10
1555.0136772785
 20
583.003802014
 30
0.0
 11
1540.7336518784
 21
582.2788422307
 31
0.0
  0
LINE
  5
237
100
AcDbEntity
  8
____
  6
CONTINUOUS
 62
         7
100
AcDbLine
 10
1554.1670173851
 20
582.2788422307
 30
0.0
 11
1542.305271555
 21
581.5538824475
 31
0.0
  0
LINE
  5
238
100
AcDbEntity
  8
____
  6
CONTINUOUS
 62
         7
100
AcDbLine
 10
1555.0136772785
 20
581.5538824475
 30
0.0
 11
1542.305271555
 21
581.5538824475
 31
0.0
  0
LINE
  5
239
100
AcDbEntity
  8
____
  6
CONTINUOUS
 62
         7
100
AcDbLine
 10
1555.0136772785
 20
590.2533998465
 30
0.0
 11
1540.7336518784
 21
589.5284400633
 31
0.0
  0
LINE
  5
23A
100
AcDbEntity
  8
____
  6
CONTINUOUS
 62
         7
100
AcDbLine
 10
1554.1670173851
 20
589.5284400633
 30
0.0
 11
1541.5803117717
 21
588.80348028
 31
0.0
  0
LINE
  5
23B
100
AcDbEntity
  8
____
  6
CONTINUOUS
 62
         7
100
AcDbLine
 10
1540.7336518784
 20
590.2533998465
 30
0.0
 11
1555.0136772785
 21
590.2533998465
 31
0.0
  0
LINE
  5
23C
100
AcDbEntity
  8
____
  6
CONTINUOUS
 62
         7
100
AcDbLine
 10
1541.5803117717
 20
580.9188811775
 30
0.0
 11
1540.7336518784
 21
581.5538824475
 31
0.0
  0
LINE
  5
23D
100
AcDbEntity
  8
____
  6
CONTINUOUS
 62
         7
100
AcDbLine
 10
1540.7336518784
 20
581.5538824475
 30
0.0
 11
1540.7336518784
 21
582.2788422307
 31
0.0
  0
LINE
  5
23E
100
AcDbEntity
  8
____
  6
CONTINUOUS
 62
         7
100
AcDbLine
 10
1541.5803117717
 20
583.003802014
 30
0.0
 11
1540.7336518784
 21
583.7287617973
 31
0.0
  0
LINE
  5
23F
100
AcDbEntity
  8
____
  6
CONTINUOUS
 62
         7
100
AcDbLine
 10
1540.7336518784
 20
583.7287617973
 30
0.0
 11
1541.5803117717
 21
584.4537215805
 31
0.0
  0
LINE
  5
240
100
AcDbEntity
  8
____
  6
CONTINUOUS
 62
         7
100
AcDbLine
 10
1541.5803117717
 20
583.003802014
 30
0.0
 11
1540.7336518784
 21
582.2788422307
 31
0.0
  0
LINE
  5
241
100
AcDbEntity
  8
____
  6
CONTINUOUS
 62
         7
100
AcDbLine
 10
1541.5803117717
 20
584.4537215805
 30
0.0
 11
1540.7336518784
 21
585.1786813638
 31
0.0
  0
LINE
  5
242
100
AcDbEntity
  8
____
  6
CONTINUOUS
 62
         7
100
AcDbLine
 10
1540.7336518784
 20
585.1786813638
 30
0.0
 11
1541.5803117717
 21
585.903641147
 31
0.0
  0
LINE
  5
243
100
AcDbEntity
  8
____
  6
CONTINUOUS
 62
         7
100
AcDbLine
 10
1541.5803117717
 20
583.003802014
 30
0.0
 11
1540.7336518784
 21
582.2788422307
 31
0.0
  0
LINE
  5
244
100
AcDbEntity
  8
____
  6
CONTINUOUS
 62
         7
100
AcDbLine
 10
1541.5803117717
 20
585.903641147
 30
0.0
 11
1540.7336518784
 21
586.6286009303
 31
0.0
  0
LINE
  5
245
100
AcDbEntity
  8
____
  6
CONTINUOUS
 62
         7
100
AcDbLine
 10
1540.7336518784
 20
586.6286009303
 30
0.0
 11
1541.5803117717
 21
587.3535607135
 31
0.0
  0
LINE
  5
246
100
AcDbEntity
  8
____
  6
CONTINUOUS
 62
         7
100
AcDbLine
 10
1541.5803117717
 20
583.003802014
 30
0.0
 11
1540.7336518784
 21
582.2788422307
 31
0.0
  0
LINE
  5
247
100
AcDbEntity
  8
____
  6
CONTINUOUS
 62
         7
100
AcDbLine
 10
1541.5803117717
 20
587.3535607135
 30
0.0
 11
1540.7336518784
 21
588.0785204968
 31
0.0
  0
LINE
  5
248
100
AcDbEntity
  8
____
  6
CONTINUOUS
 62
         7
100
AcDbLine
 10
1540.7336518784
 20
588.0785204968
 30
0.0
 11
1541.5803117717
 21
588.80348028
 31
0.0
  0
LINE
  5
249
100
AcDbEntity
  8
____
  6
CONTINUOUS
 62
         7
100
AcDbLine
 10
1541.5803117717
 20
583.003802014
 30
0.0
 11
1540.7336518784
 21
582.2788422307
 31
0.0
  0
LINE
  5
24A
100
AcDbEntity
  8
____
  6
CONTINUOUS
 62
         7
100
AcDbLine
 10
1541.5803117717
 20
588.80348028
 30
0.0
 11
1540.7336518784
 21
589.5284400633
 31
0.0
  0
LINE
  5
24B
100
AcDbEntity
  8
____
  6
CONTINUOUS
 62
         7
100
AcDbLine
 10
1540.7336518784
 20
589.5284400633
 30
0.0
 11
1541.5803117717
 21
590.2533998465
 31
0.0
  0
LINE
  5
24C
100
AcDbEntity
  8
____
  6
CONTINUOUS
 62
         7
100
AcDbLine
 10
1544.177957187
 20
592.9077051551
 30
0.0
 11
1540.7336518784
 21
590.2533998465
 31
0.0
  0
DIMENSION
  5
24F
100
AcDbEntity
  8
____
  6
CONTINUOUS
 62
         4
100
AcDbDimension
  2
*D2
 10
1532.3430737037
 20
580.9077051551
 30
0.0
 11
1530.3180737037
 21
584.1629144752
 31
0.0
  3
DIMSTYLE1
100
AcDbAlignedDimension
 13
1541.9836645784
 23
580.9077051551
 33
0.0
 14
1541.9836645784
 24
592.9077051551
 34
0.0
 50
90.0
100
AcDbRotatedDimension
  0
LINE
  5
25B
100
AcDbEntity
  8
____
  6
CONTINUOUS
 62
         7
100
AcDbLine
 10
1554.1670173851
 20
580.9188811775
 30
0.0
 11
1555.0136772785
 21
581.5538824475
 31
0.0
  0
LINE
  5
25C
100
AcDbEntity
  8
____
  6
CONTINUOUS
 62
         7
100
AcDbLine
 10
1555.0136772785
 20
583.003802014
 30
0.0
 11
1554.1670173851
 21
583.7287617973
 31
0.0
  0
LINE
  5
25D
100
AcDbEntity
  8
____
  6
CONTINUOUS
 62
         7
100
AcDbLine
 10
1554.1670173851
 20
583.7287617973
 30
0.0
 11
1555.0136772785
 21
584.4537215805
 31
0.0
  0
LINE
  5
25E
100
AcDbEntity
  8
____
  6
CONTINUOUS
 62
         7
100
AcDbLine
 10
1555.0136772785
 20
583.003802014
 30
0.0
 11
1554.1670173851
 21
582.2788422307
 31
0.0
  0
LINE
  5
25F
100
AcDbEntity
  8
____
  6
CONTINUOUS
 62
         7
100
AcDbLine
 10
1554.1670173851
 20
582.2788422307
 30
0.0
 11
1555.0136772785
 21
581.5538824475
 31
0.0
  0
LINE
  5
260
100
AcDbEntity
  8
____
  6
CONTINUOUS
 62
         7
100
AcDbLine
 10
1555.0136772785
 20
584.4537215805
 30
0.0
 11
1554.1670173851
 21
585.1786813638
 31
0.0
  0
LINE
  5
261
100
AcDbEntity
  8
____
  6
CONTINUOUS
 62
         7
100
AcDbLine
 10
1554.1670173851
 20
585.1786813638
 30
0.0
 11
1555.0136772785
 21
585.903641147
 31
0.0
  0
LINE
  5
262
100
AcDbEntity
  8
____
  6
CONTINUOUS
 62
         7
100
AcDbLine
 10
1555.0136772785
 20
583.003802014
 30
0.0
 11
1554.1670173851
 21
582.2788422307
 31
0.0
  0
LINE
  5
263
100
AcDbEntity
  8
____
  6
CONTINUOUS
 62
         7
100
AcDbLine
 10
1554.1670173851
 20
582.2788422307
 30
0.0
 11
1555.0136772785
 21
581.5538824475
 31
0.0
  0
LINE
  5
264
100
AcDbEntity
  8
____
  6
CONTINUOUS
 62
         7
100
AcDbLine
 10
1555.0136772785
 20
585.903641147
 30
0.0
 11
1554.1670173851
 21
586.6286009303
 31
0.0
  0
LINE
  5
265
100
AcDbEntity
  8
____
  6
CONTINUOUS
 62
         7
100
AcDbLine
 10
1554.1670173851
 20
586.6286009303
 30
0.0
 11
1555.0136772785
 21
587.3535607135
 31
0.0
  0
LINE
  5
266
100
AcDbEntity
  8
____
  6
CONTINUOUS
 62
         7
100
AcDbLine
 10
1555.0136772785
 20
583.003802014
 30
0.0
 11
1554.1670173851
 21
582.2788422307
 31
0.0
  0
LINE
  5
267
100
AcDbEntity
  8
____
  6
CONTINUOUS
 62
         7
100
AcDbLine
 10
1554.1670173851
 20
582.2788422307
 30
0.0
 11
1555.0136772785
 21
581.5538824475
 31
0.0
  0
LINE
  5
268
100
AcDbEntity
  8
____
  6
CONTINUOUS
 62
         7
100
AcDbLine
 10
1555.0136772785
 20
587.3535607135
 30
0.0
 11
1554.1670173851
 21
588.0785204968
 31
0.0
  0
LINE
  5
269
100
AcDbEntity
  8
____
  6
CONTINUOUS
 62
         7
100
AcDbLine
 10
1554.1670173851
 20
588.0785204968
 30
0.0
 11
1555.0136772785
 21
588.80348028
 31
0.0
  0
LINE
  5
26A
100
AcDbEntity
  8
____
  6
CONTINUOUS
 62
         7
100
AcDbLine
 10
1555.0136772785
 20
583.003802014
 30
0.0
 11
1554.1670173851
 21
582.2788422307
 31
0.0
  0
LINE
  5
26B
100
AcDbEntity
  8
____
  6
CONTINUOUS
 62
         7
100
AcDbLine
 10
1554.1670173851
 20
582.2788422307
 30
0.0
 11
1555.0136772785
 21
581.5538824475
 31
0.0
  0
LINE
  5
26C
100
AcDbEntity
  8
____
  6
CONTINUOUS
 62
         7
100
AcDbLine
 10
1555.0136772785
 20
588.80348028
 30
0.0
 11
1554.1670173851
 21
589.5284400633
 31
0.0
  0
LINE
  5
26D
100
AcDbEntity
  8
____
  6
CONTINUOUS
 62
         7
100
AcDbLine
 10
1554.1670173851
 20
589.5284400633
 30
0.0
 11
1555.0136772785
 21
590.2533998465
 31
0.0
  0
LINE
  5
26E
100
AcDbEntity
  8
____
  6
CONTINUOUS
 62
         7
100
AcDbLine
 10
1551.5693719698
 20
592.9077051551
 30
0.0
 11
1555.0136772785
 21
590.2533998465
 31
0.0
  0
LINE
  5
26F
100
AcDbEntity
  8
____
  6
CONTINUOUS
 62
         7
100
AcDbLine
 10
1544.177957187
 20
592.9077051551
 30
0.0
 11
1551.5693719698
 21
592.9077051551
 31
0.0
  0
LINE
  5
270
100
AcDbEntity
  8
____
  6
DASHED
 62
         2
100
AcDbLine
 10
1544.2074830367
 20
587.2688938775
 30
0.0
 11
1551.5398461201
 21
587.2688938775
 31
0.0
  0
LINE
  5
271
100
AcDbEntity
  8
____
  6
DASHED
 62
         2
100
AcDbLine
 10
1544.2074830367
 20
580.9188811775
 30
0.0
 11
1544.2074830367
 21
587.2688938775
 31
0.0
  0
LINE
  5
272
100
AcDbEntity
  8
____
  6
DASHED
 62
         2
100
AcDbLine
 10
1551.5398461201
 20
580.9188811775
 30
0.0
 11
1551.5398461201
 21
587.2688938775
 31
0.0
  0
LINE
  5
273
100
AcDbEntity
  8
____
  6
DASHED
 62
         2
100
AcDbLine
 10
1546.0405738076
 20
580.9188811775
 30
0.0
 11
1546.0405738076
 21
587.2688938775
 31
0.0
  0
LINE
  5
274
100
AcDbEntity
  8
____
  6
DASHED
 62
         2
100
AcDbLine
 10
1549.7067553493
 20
580.9188811775
 30
0.0
 11
1549.7067553493
 21
587.2688938775
 31
0.0
  0
DIMENSION
  5
277
100
AcDbEntity
  8
____
  6
CONTINUOUS
 62
         4
100
AcDbDimension
  2
*D3
 10
1544.1786228556
 20
571.5685405499
 30
0.0
 11
1555.8301593732
 21
573.5935405499
 31
0.0
  3
DIMSTYLE1
100
AcDbAlignedDimension
 13
1544.1786228556
 23
581.5077051551
 33
0.0
 14
1551.5687063012
 24
581.5077051551
 34
0.0
100
AcDbRotatedDimension
  0
LINE
  5
284
100
AcDbEntity
  8
____
  6
CENTER
 62
         1
100
AcDbLine
 10
1547.8736645784
 20
580.1289987141
 30
0.0
 11
1547.8736645784
 21
594.1577051551
 31
0.0
  0
LINE
  5
285
100
AcDbEntity
  8
____
  6
CONTINUOUS
 62
         7
100
AcDbLine
 10
1568.8451385575
 20
779.8304416518
 30
0.0
 11
1559.6792146297
 21
784.1045821734
 31
0.0
  0
LINE
  5
286
100
AcDbEntity
  8
____
  6
CONTINUOUS
 62
         4
100
AcDbLine
 10
1559.2773674315
 20
739.7219665993
 30
0.0
 11
1559.2773674315
 21
784.2919665993
 31
0.0
  0
LINE
  5
287
100
AcDbEntity
  8
____
  6
CONTINUOUS
 62
         7
100
AcDbLine
 10
1569.999902034
 20
778.0178260777
 30
0.0
 11
1569.999902034
 21
745.9961071209
 31
0.0
  0
ARC
  5
288
100
AcDbEntity
  8
____
  6
CONTINUOUS
 62
         7
100
AcDbCircle
 10
1567.999902034
 20
778.0178260777
 30
0.0
 40
2.0
100
AcDbArc
 50
0.0
 51
65.0
  0
ARC
  5
289
100
AcDbEntity
  8
____
  6
CONTINUOUS
 62
         7
100
AcDbCircle
 10
1567.999902034
 20
745.9961071209
 30
0.0
 40
2.0
100
AcDbArc
 50
295.0
 51
360.0
  0
LINE
  5
28A
100
AcDbEntity
  8
____
  6
CONTINUOUS
 62
         7
100
AcDbLine
 10
1559.6792146297
 20
739.9093510252
 30
0.0
 11
1568.8451385575
 21
744.1834915469
 31
0.0
  0
ARC
  5
28B
100
AcDbEntity
  8
____
  6
CONTINUOUS
 62
         7
100
AcDbCircle
 10
1558.8339781062
 20
782.2919665993
 30
0.0
 40
2.0
100
AcDbArc
 50
65.0
 51
90.0
  0
ARC
  5
28C
100
AcDbEntity
  8
____
  6
CONTINUOUS
 62
         7
100
AcDbCircle
 10
1558.8339781062
 20
741.7219665993
 30
0.0
 40
2.0
100
AcDbArc
 50
270.0
 51
295.0
  0
DIMENSION
  5
28F
100
AcDbEntity
  8
____
  6
CONTINUOUS
 62
         4
100
AcDbDimension
  2
*D4
 10
1519.999902034
 20
692.1061723361
 30
0.0
 11
1543.7037653096
 21
694.1311723361
 31
0.0
  3
DIMSTYLE1
100
AcDbAlignedDimension
 13
1519.999902034
 23
655.3403207807
 33
0.0
 14
1569.999902034
 24
661.6261802591
 34
0.0
100
AcDbRotatedDimension
  0
LINE
  5
29B
100
AcDbEntity
  8
____
  6
CONTINUOUS
 62
         7
100
AcDbLine
 10
1525.999902034
 20
638.4603207807
 30
0.0
 11
1519.999902034
 21
638.4603207807
 31
0.0
  0
LINE
  5
29C
100
AcDbEntity
  8
____
  6
CONTINUOUS
 62
         7
100
AcDbLine
 10
1525.999902034
 20
655.3403207807
 30
0.0
 11
1519.999902034
 21
655.3403207807
 31
0.0
  0
LINE
  5
29D
100
AcDbEntity
  8
____
  6
CONTINUOUS
 62
         7
100
AcDbLine
 10
1519.999902034
 20
638.4603207807
 30
0.0
 11
1519.999902034
 21
655.3403207807
 31
0.0
  0
ARC
  5
29E
100
AcDbEntity
  8
____
  6
CONTINUOUS
 62
         7
100
AcDbCircle
 10
1558.8339781062
 20
626.6753207807
 30
0.0
 40
2.0
100
AcDbArc
 50
270.0
 51
295.0
  0
ARC
  5
29F
100
AcDbEntity
  8
____
  6
CONTINUOUS
 62
         7
100
AcDbCircle
 10
1567.999902034
 20
630.9494613024
 30
0.0
 40
2.0
100
AcDbArc
 50
295.0
 51
360.0
  0
ARC
  5
2A0
100
AcDbEntity
  8
____
  6
CONTINUOUS
 62
         7
100
AcDbCircle
 10
1567.999902034
 20
662.8511802591
 30
0.0
 40
2.0
100
AcDbArc
 50
0.0
 51
65.0
  0
ARC
  5
2A1
100
AcDbEntity
  8
____
  6
CONTINUOUS
 62
         7
100
AcDbCircle
 10
1558.8339781062
 20
667.1253207807
 30
0.0
 40
2.0
100
AcDbArc
 50
65.0
 51
90.0
  0
LINE
  5
2A2
100
AcDbEntity
  8
____
  6
CENTER
 62
         1
100
AcDbLine
 10
1545.999902034
 20
650.1518458334
 30
0.0
 11
1545.999902034
 21
671.4914879901
 31
0.0
  0
LINE
  5
2A3
100
AcDbEntity
  8
____
  6
CONTINUOUS
 62
         4
100
AcDbLine
 10
1567.999902034
 20
654.8403207807
 30
0.0
 11
1567.999902034
 21
638.9603207807
 31
0.0
  0
LINE
  5
2A4
100
AcDbEntity
  8
____
  6
CONTINUOUS
 62
         7
100
AcDbLine
 10
1567.999902034
 20
638.9603207807
 30
0.0
 11
1525.999902034
 21
638.9603207807
 31
0.0
  0
ARC
  5
2A5
100
AcDbEntity
  8
____
  6
CONTINUOUS
 62
         7
100
AcDbCircle
 10
1567.999902034
 20
636.9603207807
 30
0.0
 40
2.0
100
AcDbArc
 50
0.0
 51
45.022059707
  0
ARC
  5
2A6
100
AcDbEntity
  8
____
  6
CONTINUOUS
 62
         7
100
AcDbCircle
 10
1567.999902034
 20
636.9603207807
 30
0.0
 40
2.0
100
AcDbArc
 50
74.9779402929
 51
90.0
  0
LINE
  5
2A7
100
AcDbEntity
  8
____
  6
CONTINUOUS
 62
         7
100
AcDbLine
 10
1569.4135709988
 20
638.375078731
 30
0.0
 11
1568.5182838768
 21
638.891972992
 31
0.0
  0
ARC
  5
2A8
100
AcDbEntity
  8
____
  6
CONTINUOUS
 62
         7
100
AcDbCircle
 10
1567.999902034
 20
656.8403207807
 30
0.0
 40
2.0
100
AcDbArc
 50
314.9779402929
 51
360.0
  0
ARC
  5
2A9
100
AcDbEntity
  8
____
  6
CONTINUOUS
 62
         7
100
AcDbCircle
 10
1567.999902034
 20
656.8403207807
 30
0.0
 40
2.0
100
AcDbArc
 50
270.0
 51
285.0220597071
  0
LINE
  5
2AA
100
AcDbEntity
  8
____
  6
CONTINUOUS
 62
         7
100
AcDbLine
 10
1569.4135709988
 20
655.4255628305
 30
0.0
 11
1568.5182838768
 21
654.9086685695
 31
0.0
  0
LINE
  5
2AB
100
AcDbEntity
  8
____
  6
CONTINUOUS
 62
         7
100
AcDbLine
 10
1567.999902034
 20
654.8403207807
 30
0.0
 11
1525.999902034
 21
654.8403207807
 31
0.0
  0
LINE
  5
2AC
100
AcDbEntity
  8
____
  6
CONTINUOUS
 62
         7
100
AcDbLine
 10
1568.8451385575
 20
664.6637958332
 30
0.0
 11
1559.6792146297
 21
668.9379363548
 31
0.0
  0
LINE
  5
2AD
100
AcDbEntity
  8
____
  6
CONTINUOUS
 62
         7
100
AcDbLine
 10
1569.999902034
 20
662.8511802591
 30
0.0
 11
1569.999902034
 21
630.9494613024
 31
0.0
  0
LINE
  5
2AE
100
AcDbEntity
  8
____
  6
CONTINUOUS
 62
         7
100
AcDbLine
 10
1559.6792146297
 20
624.8627052067
 30
0.0
 11
1568.8451385575
 21
629.1368457283
 31
0.0
  0
LINE
  5
2AF
100
AcDbEntity
  8
____
  6
CONTINUOUS
 62
         4
100
AcDbLine
 10
1553.149902034
 20
668.2453207807
 30
0.0
 11
1553.149902034
 21
654.8403207807
 31
0.0
  0
LINE
  5
2B0
100
AcDbEntity
  8
____
  6
CONTINUOUS
 62
         7
100
AcDbLine
 10
1552.499902034
 20
667.5953207807
 30
0.0
 11
1552.499902034
 21
654.8403207807
 31
0.0
  0
LINE
  5
2B1
100
AcDbEntity
  8
____
  6
CONTINUOUS
 62
         7
100
AcDbLine
 10
1539.499902034
 20
667.5953207807
 30
0.0
 11
1539.499902034
 21
654.8403207807
 31
0.0
  0
LINE
  5
2B2
100
AcDbEntity
  8
____
  6
CONTINUOUS
 62
         7
100
AcDbLine
 10
1552.499902034
 20
667.5953207807
 30
0.0
 11
1539.499902034
 21
667.5953207807
 31
0.0
  0
LINE
  5
2B3
100
AcDbEntity
  8
____
  6
CONTINUOUS
 62
         4
100
AcDbLine
 10
1538.849902034
 20
668.2453207807
 30
0.0
 11
1538.849902034
 21
654.8403207807
 31
0.0
  0
LINE
  5
2B4
100
AcDbEntity
  8
____
  6
CONTINUOUS
 62
         7
100
AcDbLine
 10
1539.499902034
 20
667.5953207807
 30
0.0
 11
1537.969902034
 21
669.1253207807
 31
0.0
  0
LINE
  5
2B5
100
AcDbEntity
  8
____
  6
CONTINUOUS
 62
         7
100
AcDbLine
 10
1525.999902034
 20
638.4603207807
 30
0.0
 11
1525.999902034
 21
655.3403207807
 31
0.0
  0
CIRCLE
  5
2B6
100
AcDbEntity
  8
____
  6
CONTINUOUS
 62
         7
100
AcDbCircle
 10
1697.9406939681
 20
762.0069665993
 30
0.0
 40
16.0
  0
CIRCLE
  5
2B7
100
AcDbEntity
  8
____
  6
CONTINUOUS
 62
         7
100
AcDbCircle
 10
1697.9406939681
 20
762.0069665993
 30
0.0
 40
9.94
  0
LINE
  5
2B8
100
AcDbEntity
  8
____
  6
DASHED
 62
         2
100
AcDbLine
 10
1676.8791075239
 20
769.289191634
 30
0.0
 11
1677.3307253583
 21
768.5069665993
 31
0.0
  0
LINE
  5
2B9
100
AcDbEntity
  8
____
  6
DASHED
 62
         2
100
AcDbLine
 10
1677.3307253583
 20
755.5069665993
 30
0.0
 11
1677.3307253583
 21
768.5069665993
 31
0.0
  0
LINE
  5
2BA
100
AcDbEntity
  8
____
  6
DASHED
 62
         2
100
AcDbLine
 10
1676.9554476833
 20
769.1569665993
 30
0.0
 11
1694.4879993682
 21
769.1569665993
 31
0.0
  0
LINE
  5
2BB
100
AcDbEntity
  8
____
  6
DASHED
 62
         2
100
AcDbLine
 10
1676.9554476833
 20
754.8569665993
 30
0.0
 11
1694.4879993682
 21
754.8569665993
 31
0.0
  0
LINE
  5
2BC
100
AcDbEntity
  8
____
  6
DASHED
 62
         2
100
AcDbLine
 10
1677.3307253583
 20
768.5069665993
 30
0.0
 11
1693.3806939681
 21
768.5069665993
 31
0.0
  0
LINE
  5
2BD
100
AcDbEntity
  8
____
  6
DASHED
 62
         2
100
AcDbLine
 10
1677.3307253583
 20
755.5069665993
 30
0.0
 11
1693.3806939681
 21
755.5069665993
 31
0.0
  0
CIRCLE
  5
2BE
100
AcDbEntity
  8
____
  6
CONTINUOUS
 62
         7
100
AcDbCircle
 10
1697.9406939681
 20
762.0069665993
 30
0.0
 40
7.94
  0
CIRCLE
  5
2BF
100
AcDbEntity
  8
____
  6
CONTINUOUS
 62
         4
100
AcDbCircle
 10
1697.9406939681
 20
762.0069665993
 30
0.0
 40
8.44
  0
DIMENSION
  5
2C2
100
AcDbEntity
  8
____
  6
CONTINUOUS
 62
         4
100
AcDbDimension
  2
*D5
 10
1525.149902034
 20
842.666708845
 30
0.0
 11
1544.6740076498
 21
844.691708845
 31
0.0
  3
DIMSTYLE1
100
AcDbAlignedDimension
 13
1525.149902034
 23
784.2319665993
 33
0.0
 14
1569.999902034
 24
776.7328260777
 34
0.0
100
AcDbRotatedDimension
  0
DIMENSION
  5
2D0
100
AcDbEntity
  8
____
  6
CONTINUOUS
 62
         4
100
AcDbDimension
  2
*D6
 10
1569.999902034
 20
851.7115186047
 30
0.0
 11
1504.9401668913
 21
853.7365186047
 31
0.0
  3
DIMSTYLE1
100
AcDbAlignedDimension
 13
1569.999902034
 23
776.7328260777
 33
0.0
 14
1456.749902034
 24
773.2192733157
 34
0.0
100
AcDbRotatedDimension
  0
LINE
  5
2DC
100
AcDbEntity
  8
____
  6
CONTINUOUS
 62
         7
100
AcDbLine
 10
1544.249902034
 20
671.9003207807
 30
0.0
 11
1528.349902034
 21
671.9003207807
 31
0.0
  0
CIRCLE
  5
2DD
100
AcDbEntity
  8
____
  6
CONTINUOUS
 62
         7
100
AcDbCircle
 10
1697.9406939681
 20
762.0069665993
 30
0.0
 40
22.285
  0
LINE
  5
2DE
100
AcDbEntity
  8
____
  6
CONTINUOUS
 62
         7
100
AcDbLine
 10
1554.029902034
 20
669.1253207807
 30
0.0
 11
1552.499902034
 21
667.5953207807
 31
0.0
  0
LINE
  5
2DF
100
AcDbEntity
  8
____
  6
CENTER
 62
         1
100
AcDbLine
 10
1545.999902034
 20
749.6964141807
 30
0.0
 11
1545.999902034
 21
773.7425755932
 31
0.0
  0
LINE
  5
2E0
100
AcDbEntity
  8
____
  6
CONTINUOUS
 62
         7
100
AcDbLine
 10
1537.969902034
 20
669.1253207807
 30
0.0
 11
1537.969902034
 21
671.9003207807
 31
0.0
  0
CIRCLE
  5
2E1
100
AcDbEntity
  8
____
  6
CONTINUOUS
 62
         7
100
AcDbCircle
 10
1545.999902034
 20
762.0069665993
 30
0.0
 40
6.5
  0
ARC
  5
2E2
100
AcDbEntity
  8
____
  6
CONTINUOUS
 62
         4
100
AcDbCircle
 10
1545.999902034
 20
762.0069665993
 30
0.0
 40
7.15
100
AcDbArc
 50
285.0
 51
555.0
  0
LINE
  5
2E3
100
AcDbEntity
  8
____
  6
CONTINUOUS
 62
         7
100
AcDbLine
 10
1544.249902034
 20
754.0470671025
 30
0.0
 11
1544.249902034
 21
731.2319665993
 31
0.0
  0
LINE
  5
2E4
100
AcDbEntity
  8
____
  6
CONTINUOUS
 62
         7
100
AcDbLine
 10
1543.449902034
 20
754.2661656072
 30
0.0
 11
1543.449902034
 21
753.9569665993
 31
0.0
  0
LINE
  5
2E5
100
AcDbEntity
  8
____
  6
CONTINUOUS
 62
         7
100
AcDbLine
 10
1676.8338532523
 20
769.1569665993
 30
0.0
 11
1673.3406939681
 21
769.1569665993
 31
0.0
  0
LINE
  5
2E6
100
AcDbEntity
  8
____
  6
CONTINUOUS
 62
         7
100
AcDbLine
 10
1676.8338532523
 20
754.8569665993
 30
0.0
 11
1673.3406939681
 21
754.8569665993
 31
0.0
  0
LINE
  5
2E7
100
AcDbEntity
  8
____
  6
DASHED
 62
         2
100
AcDbLine
 10
1676.8791075239
 20
754.7247415646
 30
0.0
 11
1677.3307253583
 21
755.5069665993
 31
0.0
  0
LINE
  5
2E8
100
AcDbEntity
  8
____
  6
CENTER
 62
         1
100
AcDbLine
 10
1406.6862000977
 20
795.4706915087
 30
0.0
 11
1382.4561044294
 21
728.8990507888
 31
0.0
  0
ARC
  5
2E9
100
AcDbEntity
  8
____
  6
CONTINUOUS
 62
         7
100
AcDbCircle
 10
1385.2302611153
 20
737.0862920539
 30
0.0
 40
2.0780540551
100
AcDbArc
 50
19.3226899096
 51
43.1760378472
  0
ARC
  5
2EA
100
AcDbEntity
  8
____
  6
CONTINUOUS
 62
         7
100
AcDbCircle
 10
1384.8608248473
 20
736.9567530463
 30
0.0
 40
2.4695428935
100
AcDbArc
 50
358.742274142
 51
379.3226899097
  0
ARC
  5
2EB
100
AcDbEntity
  8
____
  6
CONTINUOUS
 62
         7
100
AcDbCircle
 10
1386.1854502452
 20
736.3027448843
 30
0.0
 40
2.9722262277
100
AcDbArc
 50
160.0
 51
178.742274142
  0
ARC
  5
2EC
100
AcDbEntity
  8
____
  6
CONTINUOUS
 62
         7
100
AcDbCircle
 10
1385.6828880192
 20
736.3137786299
 30
0.0
 40
2.4695428935
100
AcDbArc
 50
178.742274142
 51
199.3226899096
  0
ARC
  5
2ED
100
AcDbEntity
  8
____
  6
CONTINUOUS
 62
         7
100
AcDbCircle
 10
1385.3134517512
 20
736.1842396223
 30
0.0
 40
2.0780540551
100
AcDbArc
 50
199.3226899097
 51
223.1760378473
  0
POLYLINE
  5
2EF
100
AcDbEntity
  8
____
  6
CONTINUOUS
 62
         7
100
AcDb3dPolyline
 66
         1
 10
0.0
 20
0.0
 30
0.0
 70
         8
  0
VERTEX
  5
2F1
100
AcDbEntity
  8
____
  6
CONTINUOUS
 62
         7
100
AcDbVertex
100
AcDb3dPolylineVertex
 10
1383.7980207449
 20
734.7623473898
 30
0.0
 70
        32
  0
VERTEX
  5
2F3
100
AcDbEntity
  8
____
  6
CONTINUOUS
 62
         7
100
AcDbVertex
100
AcDb3dPolylineVertex
 10
1383.7980207449
 20
734.7623473898
 30
0.0
 70
        32
  0
SEQEND
  5
2F5
100
AcDbEntity
  8
____
  6
CONTINUOUS
 62
         7
  0
ARC
  5
2F6
100
AcDbEntity
  8
____
  6
CONTINUOUS
 62
         7
100
AcDbCircle
 10
1385.0009888366
 20
735.8910632325
 30
0.0
 40
1.6495853065
100
AcDbArc
 50
223.1760378472
 51
250.0
  0
POLYLINE
  5
2F8
100
AcDbEntity
  8
____
  6
CONTINUOUS
 62
         7
100
AcDb3dPolyline
 66
         1
 10
0.0
 20
0.0
 30
0.0
 70
         8
  0
VERTEX
  5
2FA
100
AcDbEntity
  8
____
  6
CONTINUOUS
 62
         7
100
AcDbVertex
100
AcDb3dPolylineVertex
 10
1384.4367974336
 20
734.3409600927
 30
0.0
 70
        32
  0
VERTEX
  5
2FC
100
AcDbEntity
  8
____
  6
CONTINUOUS
 62
         7
100
AcDbVertex
100
AcDb3dPolylineVertex
 10
1384.4367974336
 20
734.3409600927
 30
0.0
 70
        32
  0
SEQEND
  5
2FE
100
AcDbEntity
  8
____
  6
CONTINUOUS
 62
         7
  0
ARC
  5
2FF
100
AcDbEntity
  8
____
  6
CONTINUOUS
 62
         7
100
AcDbCircle
 10
1385.0009888366
 20
735.8910632325
 30
0.0
 40
1.6495853065
100
AcDbArc
 50
250.0
 51
276.8239621528
  0
POLYLINE
  5
301
100
AcDbEntity
  8
____
  6
CONTINUOUS
 62
         7
100
AcDb3dPolyline
 66
         1
 10
0.0
 20
0.0
 30
0.0
 70
         8
  0
VERTEX
  5
303
100
AcDbEntity
  8
____
  6
CONTINUOUS
 62
         7
100
AcDbVertex
100
AcDb3dPolylineVertex
 10
1385.1969912998
 20
734.2531637491
 30
0.0
 70
        32
  0
VERTEX
  5
305
100
AcDbEntity
  8
____
  6
CONTINUOUS
 62
         7
100
AcDbVertex
100
AcDb3dPolylineVertex
 10
1385.1969912998
 20
734.2531637491
 30
0.0
 70
        32
  0
SEQEND
  5
307
100
AcDbEntity
  8
____
  6
CONTINUOUS
 62
         7
  0
ARC
  5
308
100
AcDbEntity
  8
____
  6
CONTINUOUS
 62
         7
100
AcDbCircle
 10
1384.9500785079
 20
736.3164966668
 30
0.0
 40
2.0780540551
100
AcDbArc
 50
276.8239621528
 51
300.6773100903
  0
POLYLINE
  5
30A
100
AcDbEntity
  8
____
  6
CONTINUOUS
 62
         7
100
AcDb3dPolyline
 66
         1
 10
0.0
 20
0.0
 30
0.0
 70
         8
  0
VERTEX
  5
30C
100
AcDbEntity
  8
____
  6
CONTINUOUS
 62
         7
100
AcDbVertex
100
AcDb3dPolylineVertex
 10
1386.0103066007
 20
734.5292571621
 30
0.0
 70
        32
  0
VERTEX
  5
30E
100
AcDbEntity
  8
____
  6
CONTINUOUS
 62
         7
100
AcDbVertex
100
AcDb3dPolylineVertex
 10
1386.0103066007
 20
734.5292571621
 30
0.0
 70
        32
  0
SEQEND
  5
310
100
AcDbEntity
  8
____
  6
CONTINUOUS
 62
         7
  0
ARC
  5
311
100
AcDbEntity
  8
____
  6
CONTINUOUS
 62
         7
100
AcDbCircle
 10
1384.7503399768
 20
736.6531983594
 30
0.0
 40
2.4695428935
100
AcDbArc
 50
300.6773100904
 51
321.2577258581
  0
POLYLINE
  5
313
100
AcDbEntity
  8
____
  6
CONTINUOUS
 62
         7
100
AcDb3dPolyline
 66
         1
 10
0.0
 20
0.0
 30
0.0
 70
         8
  0
VERTEX
  5
315
100
AcDbEntity
  8
____
  6
CONTINUOUS
 62
         7
100
AcDbVertex
100
AcDb3dPolylineVertex
 10
1386.6765065731
 20
735.1077132102
 30
0.0
 70
        32
  0
VERTEX
  5
317
100
AcDbEntity
  8
____
  6
CONTINUOUS
 62
         7
100
AcDbVertex
100
AcDb3dPolylineVertex
 10
1386.6765065731
 20
735.1077132102
 30
0.0
 70
        32
  0
SEQEND
  5
319
100
AcDbEntity
  8
____
  6
CONTINUOUS
 62
         7
  0
ARC
  5
31A
100
AcDbEntity
  8
____
  6
CONTINUOUS
 62
         7
100
AcDbCircle
 10
1384.3582626213
 20
736.9677867918
 30
0.0
 40
2.9722262277
100
AcDbArc
 50
321.257725858
 51
340.0
  0
POLYLINE
  5
31C
100
AcDbEntity
  8
____
  6
CONTINUOUS
 62
         7
100
AcDb3dPolyline
 66
         1
 10
0.0
 20
0.0
 30
0.0
 70
         8
  0
VERTEX
  5
31E
100
AcDbEntity
  8
____
  6
CONTINUOUS
 62
         7
100
AcDbVertex
100
AcDb3dPolylineVertex
 10
1387.1512416748
 20
735.9512255514
 30
0.0
 70
        32
  0
VERTEX
  5
320
100
AcDbEntity
  8
____
  6
CONTINUOUS
 62
         7
100
AcDbVertex
100
AcDb3dPolylineVertex
 10
1387.1512416748
 20
735.9512255514
 30
0.0
 70
        32
  0
SEQEND
  5
322
100
AcDbEntity
  8
____
  6
CONTINUOUS
 62
         7
  0
ARC
  5
323
100
AcDbEntity
  8
____
  6
CONTINUOUS
 62
         7
100
AcDbCircle
 10
1384.3582626213
 20
736.9677867919
 30
0.0
 40
2.9722262277
100
AcDbArc
 50
339.9999999999
 51
358.7422741419
  0
POLYLINE
  5
325
100
AcDbEntity
  8
____
  6
CONTINUOUS
 62
         7
100
AcDb3dPolyline
 66
         1
 10
0.0
 20
0.0
 30
0.0
 70
         8
  0
VERTEX
  5
327
100
AcDbEntity
  8
____
  6
CONTINUOUS
 62
         7
100
AcDbVertex
100
AcDb3dPolylineVertex
 10
1387.3297727697
 20
736.9025473344
 30
0.0
 70
        32
  0
VERTEX
  5
329
100
AcDbEntity
  8
____
  6
CONTINUOUS
 62
         7
100
AcDbVertex
100
AcDb3dPolylineVertex
 10
1387.3297727697
 20
736.9025473344
 30
0.0
 70
        32
  0
SEQEND
  5
32B
100
AcDbEntity
  8
____
  6
CONTINUOUS
 62
         7
  0
POLYLINE
  5
32D
100
AcDbEntity
  8
____
  6
CONTINUOUS
 62
         7
100
AcDb3dPolyline
 66
         1
 10
0.0
 20
0.0
 30
0.0
 70
         8
  0
VERTEX
  5
32F
100
AcDbEntity
  8
____
  6
CONTINUOUS
 62
         7
100
AcDbVertex
100
AcDb3dPolylineVertex
 10
1386.7456921216
 20
738.5081842864
 30
0.0
 70
        32
  0
VERTEX
  5
331
100
AcDbEntity
  8
____
  6
CONTINUOUS
 62
         7
100
AcDbVertex
100
AcDb3dPolylineVertex
 10
1386.7456921216
 20
738.5081842864
 30
0.0
 70
        32
  0
SEQEND
  5
333
100
AcDbEntity
  8
____
  6
CONTINUOUS
 62
         7
  0
ARC
  5
334
100
AcDbEntity
  8
____
  6
CONTINUOUS
 62
         7
100
AcDbCircle
 10
1385.5427240299
 20
737.3794684436
 30
0.0
 40
1.6495853065
100
AcDbArc
 50
43.1760378472
 51
70.0
  0
POLYLINE
  5
336
100
AcDbEntity
  8
____
  6
CONTINUOUS
 62
         7
100
AcDb3dPolyline
 66
         1
 10
0.0
 20
0.0
 30
0.0
 70
         8
  0
VERTEX
  5
338
100
AcDbEntity
  8
____
  6
CONTINUOUS
 62
         7
100
AcDbVertex
100
AcDb3dPolylineVertex
 10
1386.1069154329
 20
738.9295715835
 30
0.0
 70
        32
  0
VERTEX
  5
33A
100
AcDbEntity
  8
____
  6
CONTINUOUS
 62
         7
100
AcDbVertex
100
AcDb3dPolylineVertex
 10
1386.1069154329
 20
738.9295715835
 30
0.0
 70
        32
  0
SEQEND
  5
33C
100
AcDbEntity
  8
____
  6
CONTINUOUS
 62
         7
  0
ARC
  5
33D
100
AcDbEntity
  8
____
  6
CONTINUOUS
 62
         7
100
AcDbCircle
 10
1385.5427240299
 20
737.3794684436
 30
0.0
 40
1.6495853065
100
AcDbArc
 50
70.0
 51
96.8239621528
  0
ARC
  5
33E
100
AcDbEntity
  8
____
  6
CONTINUOUS
 62
         7
100
AcDbCircle
 10
1385.5936343586
 20
736.9540350094
 30
0.0
 40
2.0780540551
100
AcDbArc
 50
96.8239621528
 51
120.6773100904
  0
POLYLINE
  5
340
100
AcDbEntity
  8
____
  6
CONTINUOUS
 62
         7
100
AcDb3dPolyline
 66
         1
 10
0.0
 20
0.0
 30
0.0
 70
         8
  0
VERTEX
  5
342
100
AcDbEntity
  8
____
  6
CONTINUOUS
 62
         7
100
AcDbVertex
100
AcDb3dPolylineVertex
 10
1384.5334062658
 20
738.7412745141
 30
0.0
 70
        32
  0
VERTEX
  5
344
100
AcDbEntity
  8
____
  6
CONTINUOUS
 62
         7
100
AcDbVertex
100
AcDb3dPolylineVertex
 10
1384.5334062658
 20
738.7412745141
 30
0.0
 70
        32
  0
SEQEND
  5
346
100
AcDbEntity
  8
____
  6
CONTINUOUS
 62
         7
  0
ARC
  5
347
100
AcDbEntity
  8
____
  6
CONTINUOUS
 62
         7
100
AcDbCircle
 10
1385.7933728897
 20
736.6173333168
 30
0.0
 40
2.4695428935
100
AcDbArc
 50
120.6773100904
 51
141.257725858
  0
POLYLINE
  5
349
100
AcDbEntity
  8
____
  6
CONTINUOUS
 62
         7
100
AcDb3dPolyline
 66
         1
 10
0.0
 20
0.0
 30
0.0
 70
         8
  0
VERTEX
  5
34B
100
AcDbEntity
  8
____
  6
CONTINUOUS
 62
         7
100
AcDbVertex
100
AcDb3dPolylineVertex
 10
1383.8672062935
 20
738.162818466
 30
0.0
 70
        32
  0
VERTEX
  5
34D
100
AcDbEntity
  8
____
  6
CONTINUOUS
 62
         7
100
AcDbVertex
100
AcDb3dPolylineVertex
 10
1383.8672062935
 20
738.162818466
 30
0.0
 70
        32
  0
SEQEND
  5
34F
100
AcDbEntity
  8
____
  6
CONTINUOUS
 62
         7
  0
ARC
  5
350
100
AcDbEntity
  8
____
  6
CONTINUOUS
 62
         7
100
AcDbCircle
 10
1386.1854502452
 20
736.3027448843
 30
0.0
 40
2.9722262277
100
AcDbArc
 50
141.257725858
 51
160.0
  0
POLYLINE
  5
352
100
AcDbEntity
  8
____
  6
CONTINUOUS
 62
         7
100
AcDb3dPolyline
 66
         1
 10
0.0
 20
0.0
 30
0.0
 70
         8
  0
VERTEX
  5
354
100
AcDbEntity
  8
____
  6
CONTINUOUS
 62
         7
100
AcDbVertex
100
AcDb3dPolylineVertex
 10
1383.3924711917
 20
737.3193061247
 30
0.0
 70
        32
  0
VERTEX
  5
356
100
AcDbEntity
  8
____
  6
CONTINUOUS
 62
         7
100
AcDbVertex
100
AcDb3dPolylineVertex
 10
1383.3924711917
 20
737.3193061247
 30
0.0
 70
        32
  0
SEQEND
  5
358
100
AcDbEntity
  8
____
  6
CONTINUOUS
 62
         7
  0
LINE
  5
359
100
AcDbEntity
  8
____
  6
CENTER
 62
         1
100
AcDbLine
 10
1388.0909342956
 20
735.6092054081
 30
0.0
 11
1382.4527785709
 21
737.6613262681
 31
0.0
  0
LINE
  5
35A
100
AcDbEntity
  8
____
  6
CENTER
 62
         1
100
AcDbLine
 10
1406.5600220352
 20
786.3526069306
 30
0.0
 11
1400.9218663105
 21
788.4047277905
 31
0.0
  0
ARC
  5
35B
100
AcDbEntity
  8
____
  6
CONTINUOUS
 62
         7
100
AcDbCircle
 10
1404.6545379848
 20
787.0461464068
 30
0.0
 40
2.9722262277
100
AcDbArc
 50
141.257725858
 51
160.0
  0
ARC
  5
35C
100
AcDbEntity
  8
____
  6
CONTINUOUS
 62
         7
100
AcDbCircle
 10
1404.2624606293
 20
787.3607348392
 30
0.0
 40
2.4695428935
100
AcDbArc
 50
120.6773100903
 51
141.257725858
  0
POLYLINE
  5
35E
100
AcDbEntity
  8
____
  6
CONTINUOUS
 62
         7
100
AcDb3dPolyline
 66
         1
 10
0.0
 20
0.0
 30
0.0
 70
         8
  0
VERTEX
  5
360
100
AcDbEntity
  8
____
  6
CONTINUOUS
 62
         7
100
AcDbVertex
100
AcDb3dPolylineVertex
 10
1403.0024940054
 20
789.4846760365
 30
0.0
 70
        32
  0
VERTEX
  5
362
100
AcDbEntity
  8
____
  6
CONTINUOUS
 62
         7
100
AcDbVertex
100
AcDb3dPolylineVertex
 10
1403.0024940054
 20
789.4846760365
 30
0.0
 70
        32
  0
SEQEND
  5
364
100
AcDbEntity
  8
____
  6
CONTINUOUS
 62
         7
  0
ARC
  5
365
100
AcDbEntity
  8
____
  6
CONTINUOUS
 62
         7
100
AcDbCircle
 10
1404.0627220982
 20
787.6974365318
 30
0.0
 40
2.0780540551
100
AcDbArc
 50
96.8239621528
 51
120.6773100904
  0
POLYLINE
  5
367
100
AcDbEntity
  8
____
  6
CONTINUOUS
 62
         7
100
AcDb3dPolyline
 66
         1
 10
0.0
 20
0.0
 30
0.0
 70
         8
  0
VERTEX
  5
369
100
AcDbEntity
  8
____
  6
CONTINUOUS
 62
         7
100
AcDbVertex
100
AcDb3dPolylineVertex
 10
1403.8158093062
 20
789.7607694495
 30
0.0
 70
        32
  0
VERTEX
  5
36B
100
AcDbEntity
  8
____
  6
CONTINUOUS
 62
         7
100
AcDbVertex
100
AcDb3dPolylineVertex
 10
1403.8158093062
 20
789.7607694495
 30
0.0
 70
        32
  0
SEQEND
  5
36D
100
AcDbEntity
  8
____
  6
CONTINUOUS
 62
         7
  0
ARC
  5
36E
100
AcDbEntity
  8
____
  6
CONTINUOUS
 62
         7
100
AcDbCircle
 10
1404.0118117695
 20
788.1228699661
 30
0.0
 40
1.6495853065
100
AcDbArc
 50
70.0000000001
 51
96.8239621529
  0
POLYLINE
  5
370
100
AcDbEntity
  8
____
  6
CONTINUOUS
 62
         7
100
AcDb3dPolyline
 66
         1
 10
0.0
 20
0.0
 30
0.0
 70
         8
  0
VERTEX
  5
372
100
AcDbEntity
  8
____
  6
CONTINUOUS
 62
         7
100
AcDbVertex
100
AcDb3dPolylineVertex
 10
1404.5760031725
 20
789.6729731059
 30
0.0
 70
        32
  0
VERTEX
  5
374
100
AcDbEntity
  8
____
  6
CONTINUOUS
 62
         7
100
AcDbVertex
100
AcDb3dPolylineVertex
 10
1404.5760031725
 20
789.6729731059
 30
0.0
 70
        32
  0
SEQEND
  5
376
100
AcDbEntity
  8
____
  6
CONTINUOUS
 62
         7
  0
ARC
  5
377
100
AcDbEntity
  8
____
  6
CONTINUOUS
 62
         7
100
AcDbCircle
 10
1404.0118117695
 20
788.1228699661
 30
0.0
 40
1.6495853065
100
AcDbArc
 50
43.1760378472
 51
70.0
  0
POLYLINE
  5
379
100
AcDbEntity
  8
____
  6
CONTINUOUS
 62
         7
100
AcDb3dPolyline
 66
         1
 10
0.0
 20
0.0
 30
0.0
 70
         8
  0
VERTEX
  5
37B
100
AcDbEntity
  8
____
  6
CONTINUOUS
 62
         7
100
AcDbVertex
100
AcDb3dPolylineVertex
 10
1405.2147798612
 20
789.2515858089
 30
0.0
 70
        32
  0
VERTEX
  5
37D
100
AcDbEntity
  8
____
  6
CONTINUOUS
 62
         7
100
AcDbVertex
100
AcDb3dPolylineVertex
 10
1405.2147798612
 20
789.2515858089
 30
0.0
 70
        32
  0
SEQEND
  5
37F
100
AcDbEntity
  8
____
  6
CONTINUOUS
 62
         7
  0
ARC
  5
380
100
AcDbEntity
  8
____
  6
CONTINUOUS
 62
         7
100
AcDbCircle
 10
1403.6993488548
 20
787.8296935763
 30
0.0
 40
2.0780540551
100
AcDbArc
 50
19.3226899096
 51
43.1760378472
  0
POLYLINE
  5
382
100
AcDbEntity
  8
____
  6
CONTINUOUS
 62
         7
100
AcDb3dPolyline
 66
         1
 10
0.0
 20
0.0
 30
0.0
 70
         8
  0
VERTEX
  5
384
100
AcDbEntity
  8
____
  6
CONTINUOUS
 62
         7
100
AcDbVertex
100
AcDb3dPolylineVertex
 10
1405.6603461029
 20
788.5172969859
 30
0.0
 70
        32
  0
VERTEX
  5
386
100
AcDbEntity
  8
____
  6
CONTINUOUS
 62
         7
100
AcDbVertex
100
AcDb3dPolylineVertex
 10
1405.6603461029
 20
788.5172969859
 30
0.0
 70
        32
  0
SEQEND
  5
388
100
AcDbEntity
  8
____
  6
CONTINUOUS
 62
         7
  0
ARC
  5
389
100
AcDbEntity
  8
____
  6
CONTINUOUS
 62
         7
100
AcDbCircle
 10
1403.3299125869
 20
787.7001545687
 30
0.0
 40
2.4695428935
100
AcDbArc
 50
358.742274142
 51
379.3226899097
  0
POLYLINE
  5
38B
100
AcDbEntity
  8
____
  6
CONTINUOUS
 62
         7
100
AcDb3dPolyline
 66
         1
 10
0.0
 20
0.0
 30
0.0
 70
         8
  0
VERTEX
  5
38D
100
AcDbEntity
  8
____
  6
CONTINUOUS
 62
         7
100
AcDbVertex
100
AcDb3dPolylineVertex
 10
1405.7988605093
 20
787.6459488569
 30
0.0
 70
        32
  0
VERTEX
  5
38F
100
AcDbEntity
  8
____
  6
CONTINUOUS
 62
         7
100
AcDbVertex
100
AcDb3dPolylineVertex
 10
1405.7988605093
 20
787.6459488569
 30
0.0
 70
        32
  0
SEQEND
  5
391
100
AcDbEntity
  8
____
  6
CONTINUOUS
 62
         7
  0
ARC
  5
392
100
AcDbEntity
  8
____
  6
CONTINUOUS
 62
         7
100
AcDbCircle
 10
1402.8273503609
 20
787.7111883143
 30
0.0
 40
2.9722262277
100
AcDbArc
 50
339.9999999999
 51
358.742274142
  0
POLYLINE
  5
394
100
AcDbEntity
  8
____
  6
CONTINUOUS
 62
         7
100
AcDb3dPolyline
 66
         1
 10
0.0
 20
0.0
 30
0.0
 70
         8
  0
VERTEX
  5
396
100
AcDbEntity
  8
____
  6
CONTINUOUS
 62
         7
100
AcDbVertex
100
AcDb3dPolylineVertex
 10
1405.6203294144
 20
786.6946270739
 30
0.0
 70
        32
  0
VERTEX
  5
398
100
AcDbEntity
  8
____
  6
CONTINUOUS
 62
         7
100
AcDbVertex
100
AcDb3dPolylineVertex
 10
1405.6203294144
 20
786.6946270739
 30
0.0
 70
        32
  0
SEQEND
  5
39A
100
AcDbEntity
  8
____
  6
CONTINUOUS
 62
         7
  0
ARC
  5
39B
100
AcDbEntity
  8
____
  6
CONTINUOUS
 62
         7
100
AcDbCircle
 10
1402.8273503609
 20
787.7111883143
 30
0.0
 40
2.9722262277
100
AcDbArc
 50
321.257725858
 51
340.0
  0
POLYLINE
  5
39D
100
AcDbEntity
  8
____
  6
CONTINUOUS
 62
         7
100
AcDb3dPolyline
 66
         1
 10
0.0
 20
0.0
 30
0.0
 70
         8
  0
VERTEX
  5
39F
100
AcDbEntity
  8
____
  6
CONTINUOUS
 62
         7
100
AcDbVertex
100
AcDb3dPolylineVertex
 10
1405.1455943126
 20
785.8511147327
 30
0.0
 70
        32
  0
VERTEX
  5
3A1
100
AcDbEntity
  8
____
  6
CONTINUOUS
 62
         7
100
AcDbVertex
100
AcDb3dPolylineVertex
 10
1405.1455943126
 20
785.8511147327
 30
0.0
 70
        32
  0
SEQEND
  5
3A3
100
AcDbEntity
  8
____
  6
CONTINUOUS
 62
         7
  0
ARC
  5
3A4
100
AcDbEntity
  8
____
  6
CONTINUOUS
 62
         7
100
AcDbCircle
 10
1403.2194277164
 20
787.3965998818
 30
0.0
 40
2.4695428935
100
AcDbArc
 50
300.6773100903
 51
321.257725858
  0
POLYLINE
  5
3A6
100
AcDbEntity
  8
____
  6
CONTINUOUS
 62
         7
100
AcDb3dPolyline
 66
         1
 10
0.0
 20
0.0
 30
0.0
 70
         8
  0
VERTEX
  5
3A8
100
AcDbEntity
  8
____
  6
CONTINUOUS
 62
         7
100
AcDbVertex
100
AcDb3dPolylineVertex
 10
1404.4793943403
 20
785.2726586845
 30
0.0
 70
        32
  0
VERTEX
  5
3AA
100
AcDbEntity
  8
____
  6
CONTINUOUS
 62
         7
100
AcDbVertex
100
AcDb3dPolylineVertex
 10
1404.4793943403
 20
785.2726586845
 30
0.0
 70
        32
  0
SEQEND
  5
3AC
100
AcDbEntity
  8
____
  6
CONTINUOUS
 62
         7
  0
ARC
  5
3AD
100
AcDbEntity
  8
____
  6
CONTINUOUS
 62
         7
100
AcDbCircle
 10
1403.4191662475
 20
787.0598981892
 30
0.0
 40
2.0780540551
100
AcDbArc
 50
276.8239621528
 51
300.6773100904
  0
POLYLINE
  5
3AF
100
AcDbEntity
  8
____
  6
CONTINUOUS
 62
         7
100
AcDb3dPolyline
 66
         1
 10
0.0
 20
0.0
 30
0.0
 70
         8
  0
VERTEX
  5
3B1
100
AcDbEntity
  8
____
  6
CONTINUOUS
 62
         7
100
AcDbVertex
100
AcDb3dPolylineVertex
 10
1403.6660790394
 20
784.9965652716
 30
0.0
 70
        32
  0
VERTEX
  5
3B3
100
AcDbEntity
  8
____
  6
CONTINUOUS
 62
         7
100
AcDbVertex
100
AcDb3dPolylineVertex
 10
1403.6660790394
 20
784.9965652716
 30
0.0
 70
        32
  0
SEQEND
  5
3B5
100
AcDbEntity
  8
____
  6
CONTINUOUS
 62
         7
  0
ARC
  5
3B6
100
AcDbEntity
  8
____
  6
CONTINUOUS
 62
         7
100
AcDbCircle
 10
1403.4700765762
 20
786.634464755
 30
0.0
 40
1.6495853065
100
AcDbArc
 50
250.0
 51
276.8239621528
  0
POLYLINE
  5
3B8
100
AcDbEntity
  8
____
  6
CONTINUOUS
 62
         7
100
AcDb3dPolyline
 66
         1
 10
0.0
 20
0.0
 30
0.0
 70
         8
  0
VERTEX
  5
3BA
100
AcDbEntity
  8
____
  6
CONTINUOUS
 62
         7
100
AcDbVertex
100
AcDb3dPolylineVertex
 10
1402.9058851732
 20
785.0843616151
 30
0.0
 70
        32
  0
VERTEX
  5
3BC
100
AcDbEntity
  8
____
  6
CONTINUOUS
 62
         7
100
AcDbVertex
100
AcDb3dPolylineVertex
 10
1402.9058851732
 20
785.0843616151
 30
0.0
 70
        32
  0
SEQEND
  5
3BE
100
AcDbEntity
  8
____
  6
CONTINUOUS
 62
         7
  0
ARC
  5
3BF
100
AcDbEntity
  8
____
  6
CONTINUOUS
 62
         7
100
AcDbCircle
 10
1403.4700765762
 20
786.634464755
 30
0.0
 40
1.6495853065
100
AcDbArc
 50
223.1760378472
 51
249.9999999999
  0
POLYLINE
  5
3C1
100
AcDbEntity
  8
____
  6
CONTINUOUS
 62
         7
100
AcDb3dPolyline
 66
         1
 10
0.0
 20
0.0
 30
0.0
 70
         8
  0
VERTEX
  5
3C3
100
AcDbEntity
  8
____
  6
CONTINUOUS
 62
         7
100
AcDbVertex
100
AcDb3dPolylineVertex
 10
1402.2671084845
 20
785.5057489122
 30
0.0
 70
        32
  0
VERTEX
  5
3C5
100
AcDbEntity
  8
____
  6
CONTINUOUS
 62
         7
100
AcDbVertex
100
AcDb3dPolylineVertex
 10
1402.2671084845
 20
785.5057489122
 30
0.0
 70
        32
  0
SEQEND
  5
3C7
100
AcDbEntity
  8
____
  6
CONTINUOUS
 62
         7
  0
ARC
  5
3C8
100
AcDbEntity
  8
____
  6
CONTINUOUS
 62
         7
100
AcDbCircle
 10
1403.7825394908
 20
786.9276411447
 30
0.0
 40
2.0780540551
100
AcDbArc
 50
199.3226899097
 51
223.1760378473
  0
POLYLINE
  5
3CA
100
AcDbEntity
  8
____
  6
CONTINUOUS
 62
         7
100
AcDb3dPolyline
 66
         1
 10
0.0
 20
0.0
 30
0.0
 70
         8
  0
VERTEX
  5
3CC
100
AcDbEntity
  8
____
  6
CONTINUOUS
 62
         7
100
AcDbVertex
100
AcDb3dPolylineVertex
 10
1401.8215422427
 20
786.2400377351
 30
0.0
 70
        32
  0
VERTEX
  5
3CE
100
AcDbEntity
  8
____
  6
CONTINUOUS
 62
         7
100
AcDbVertex
100
AcDb3dPolylineVertex
 10
1401.8215422427
 20
786.2400377351
 30
0.0
 70
        32
  0
SEQEND
  5
3D0
100
AcDbEntity
  8
____
  6
CONTINUOUS
 62
         7
  0
ARC
  5
3D1
100
AcDbEntity
  8
____
  6
CONTINUOUS
 62
         7
100
AcDbCircle
 10
1404.1519757588
 20
787.0571801523
 30
0.0
 40
2.4695428935
100
AcDbArc
 50
178.7422741421
 51
199.3226899097
  0
POLYLINE
  5
3D3
100
AcDbEntity
  8
____
  6
CONTINUOUS
 62
         7
100
AcDb3dPolyline
 66
         1
 10
0.0
 20
0.0
 30
0.0
 70
         8
  0
VERTEX
  5
3D5
100
AcDbEntity
  8
____
  6
CONTINUOUS
 62
         7
100
AcDbVertex
100
AcDb3dPolylineVertex
 10
1401.6830278364
 20
787.1113858642
 30
0.0
 70
        32
  0
VERTEX
  5
3D7
100
AcDbEntity
  8
____
  6
CONTINUOUS
 62
         7
100
AcDbVertex
100
AcDb3dPolylineVertex
 10
1401.6830278364
 20
787.1113858642
 30
0.0
 70
        32
  0
SEQEND
  5
3D9
100
AcDbEntity
  8
____
  6
CONTINUOUS
 62
         7
  0
ARC
  5
3DA
100
AcDbEntity
  8
____
  6
CONTINUOUS
 62
         7
100
AcDbCircle
 10
1404.6545379848
 20
787.0461464068
 30
0.0
 40
2.9722262277
100
AcDbArc
 50
160.0
 51
178.7422741421
  0
POLYLINE
  5
3DC
100
AcDbEntity
  8
____
  6
CONTINUOUS
 62
         7
100
AcDb3dPolyline
 66
         1
 10
0.0
 20
0.0
 30
0.0
 70
         8
  0
VERTEX
  5
3DE
100
AcDbEntity
  8
____
  6
CONTINUOUS
 62
         7
100
AcDbVertex
100
AcDb3dPolylineVertex
 10
1401.8615589313
 20
788.0627076472
 30
0.0
 70
        32
  0
VERTEX
  5
3E0
100
AcDbEntity
  8
____
  6
CONTINUOUS
 62
         7
100
AcDbVertex
100
AcDb3dPolylineVertex
 10
1401.8615589313
 20
788.0627076472
 30
0.0
 70
        32
  0
SEQEND
  5
3E2
100
AcDbEntity
  8
____
  6
CONTINUOUS
 62
         7
  0
LINE
  5
3E3
100
AcDbEntity
  8
____
  6
CONTINUOUS
 62
         7
100
AcDbLine
 10
1541.4980030323
 20
625.6364085297
 30
0.0
 11
1514.6714605861
 21
639.9003207808
 31
0.0
  0
LINE
  5
3E4
100
AcDbEntity
  8
____
  6
CENTER
 62
         1
100
AcDbLine
 10
1509.9891052379
 20
640.521247936
 30
0.0
 11
1546.1186129326
 21
621.3108479335
 31
0.0
  0
LINE
  5
3E5
100
AcDbEntity
  8
____
  6
CONTINUOUS
 62
         7
100
AcDbLine
 10
1539.94874841
 20
622.72268436
 30
0.0
 11
1507.6423433005
 21
639.9003207807
 31
0.0
  0
LINE
  5
3E6
100
AcDbEntity
  8
____
  6
CONTINUOUS
 62
         7
100
AcDbLine
 10
1528.349902034
 20
622.3418699579
 30
0.0
 11
1528.5506537867
 21
622.0551667424
 31
0.0
  0
LINE
  5
3E7
100
AcDbEntity
  8
____
  6
CONTINUOUS
 62
         7
100
AcDbLine
 10
1530.4434560267
 20
619.3519649963
 30
0.0
 11
1530.6728866012
 21
619.0243041785
 31
0.0
  0
LINE
  5
3E8
100
AcDbEntity
  8
____
  6
CONTINUOUS
 62
         7
100
AcDbLine
 10
1528.349902034
 20
617.3977328734
 30
0.0
 11
1530.6728866012
 21
619.0243041785
 31
0.0
  0
LINE
  5
3E9
100
AcDbEntity
  8
____
  6
CONTINUOUS
 62
         7
100
AcDbLine
 10
1528.5506537867
 20
622.0551667424
 30
0.0
 11
1530.4434560267
 21
619.3519649963
 31
0.0
  0
LINE
  5
3EA
100
AcDbEntity
  8
____
  6
CONTINUOUS
 62
         4
100
AcDbLine
 10
1530.6442077794
 20
619.0652617808
 30
0.0
 11
1534.3303919787
 21
621.6463557443
 31
0.0
  0
LINE
  5
3EB
100
AcDbEntity
  8
____
  6
CONTINUOUS
 62
         4
100
AcDbLine
 10
1528.349902034
 20
622.3418699579
 30
0.0
 11
1532.0360862333
 21
624.9229639215
 31
0.0
  0
LINE
  5
3EC
100
AcDbEntity
  8
____
  6
CONTINUOUS
 62
         7
100
AcDbLine
 10
1528.5506537867
 20
622.0551667424
 30
0.0
 11
1536.3325982075
 21
627.5041428877
 31
0.0
  0
LINE
  5
3ED
100
AcDbEntity
  8
____
  6
CENTER
 62
         1
100
AcDbLine
 10
1527.6392713787
 20
619.4027318386
 30
0.0
 11
1538.7275779754
 21
627.1668477037
 31
0.0
  0
LINE
  5
3EE
100
AcDbEntity
  8
____
  6
CONTINUOUS
 62
         7
100
AcDbLine
 10
1530.4434560267
 20
619.3519649963
 30
0.0
 11
1538.2254004474
 21
624.8009411416
 31
0.0
  0
LINE
  5
3EF
100
AcDbEntity
  8
____
  6
CONTINUOUS
 62
         7
100
AcDbLine
 10
1532.0360862333
 20
624.9229639215
 30
0.0
 11
1534.3590708005
 21
621.6053981421
 31
0.0
  0
LINE
  5
3F0
100
AcDbEntity
  8
____
  6
CONTINUOUS
 62
         7
100
AcDbLine
 10
1538.2254004474
 20
624.8009411416
 30
0.0
 11
1538.0593464554
 21
626.6989469561
 31
0.0
  0
LINE
  5
3F1
100
AcDbEntity
  8
____
  6
CONTINUOUS
 62
         7
100
AcDbLine
 10
1538.0593464554
 20
626.6989469561
 30
0.0
 11
1536.3325982075
 21
627.5041428877
 31
0.0
  0
LINE
  5
3F2
100
AcDbEntity
  8
____
  6
CONTINUOUS
 62
         7
100
AcDbLine
 10
1538.2254004474
 20
624.8009411416
 30
0.0
 11
1536.3325982075
 21
627.5041428877
 31
0.0
  0
LINE
  5
3F3
100
AcDbEntity
  8
____
  6
CONTINUOUS
 62
         7
100
AcDbLine
 10
1539.9628528769
 20
622.3187852752
 30
0.0
 11
1539.94874841
 21
622.72268436
 31
0.0
  0
LINE
  5
3F4
100
AcDbEntity
  8
____
  6
CONTINUOUS
 62
         7
100
AcDbLine
 10
1541.8407376669
 20
625.8505728987
 30
0.0
 11
1541.4980030323
 21
625.6364085297
 31
0.0
  0
LINE
  5
3F5
100
AcDbEntity
  8
____
  6
CONTINUOUS
 62
         7
100
AcDbLine
 10
1541.4980030323
 20
625.6364085297
 30
0.0
 11
1539.9487484996
 21
622.722681794
 31
0.0
  0
LINE
  5
3F6
100
AcDbEntity
  8
____
  6
CONTINUOUS
 62
         4
100
AcDbLine
 10
1541.8407376669
 20
625.8505728987
 30
0.0
 11
1539.9628529855
 21
622.3187821649
 31
0.0
  0
LINE
  5
3F7
100
AcDbEntity
  8
____
  6
CONTINUOUS
 62
         7
100
AcDbLine
 10
1544.249902034
 20
620.0393194188
 30
0.0
 11
1539.9628530023
 21
622.3187816837
 31
0.0
  0
LINE
  5
3F8
100
AcDbEntity
  8
____
  6
CONTINUOUS
 62
         7
100
AcDbLine
 10
1544.4868394515
 20
624.4436169431
 30
0.0
 11
1541.8407376669
 21
625.8505728987
 31
0.0
  0
INSERT
  5
440
100
AcDbEntity
  8
0
  6
CONTINUOUS
100
AcDbBlockReference
  2
*X7
 10
0.0
 20
0.0
 30
0.0
  0
DIMENSION
  5
443
100
AcDbEntity
  8
____
  6
CONTINUOUS
 62
         4
100
AcDbDimension
  2
*D8
 10
1583.3352485587
 20
779.8304416518
 30
0.0
 11
1581.3102485587
 21
756.6069665993
 31
0.0
  3
DIMSTYLE1
100
AcDbAlignedDimension
 13
1568.8451385575
 23
779.8304416518
 33
0.0
 14
1568.8451385575
 24
744.1834915469
 34
0.0
 50
90.0
100
AcDbRotatedDimension
  0
TEXT
  5
450
100
AcDbEntity
  8
____
  6
CONTINUOUS
 62
         2
100
AcDbText
 10
1682.5124717508
 20
836.1928032781
 30
0.0
 40
4.5
  1
531032
 41
0.98
  7
BOX
100
AcDbText
  0
ENDSEC
  0
SECTION
  2
OBJECTS
  0
DICTIONARY
  5
19
100
AcDbDictionary
  3
ACAD_GROUP
350
1A
  3
ACAD_MLINESTYLE
350
1B
  0
DICTIONARY
  5
1A
102
{ACAD_REACTORS
330
19
102
}
100
AcDbDictionary
  0
DICTIONARY
  5
1B
102
{ACAD_REACTORS
330
19
102
}
100
AcDbDictionary
  3
STANDARD
350
1C
  0
MLINESTYLE
  5
1C
102
{ACAD_REACTORS
330
1B
102
}
100
AcDbMlineStyle
  2
STANDARD
 70
         0
  3

 62
         0
 51
90.0
 52
90.0
 71
         2
 49
0.5
 62
       256
  6
BYLAYER
 49
-0.5
 62
       256
  6
BYLAYER
  0
ENDSEC
  0
EOF
