  0
SECTION
  2
HEADER
  9
$ACADVER
  1
AC1014
  9
$ACADMAINTVER
 70
         0
  9
$DWGCODEPAGE
  3
BIG5
  9
$INSBASE
 10
0.0
 20
0.0
 30
0.0
  9
$EXTMIN
 10
153.6000738451
 20
53.4947464271
 30
0.0
  9
$EXTMAX
 10
733.998410657
 20
346.113585498
 30
0.0
  9
$LIMMIN
 10
0.0
 20
0.0
  9
$LIMMAX
 10
0.0
 20
0.0
  9
$ORTHOMODE
 70
         0
  9
$REGENMODE
 70
         1
  9
$FILLMODE
 70
         1
  9
$QTEXTMODE
 70
         0
  9
$MIRRTEXT
 70
         1
  9
$DRAGMODE
 70
         2
  9
$LTSCALE
 40
1.0
  9
$OSMODE
 70
         0
  9
$ATTMODE
 70
         1
  9
$TEXTSIZE
 40
1.3
  9
$TRACEWID
 40
0.05
  9
$TEXTSTYLE
  7
STANDARD
  9
$CLAYER
  8
0
  9
$CELTYPE
  6
CONTINUOUS
  9
$CECOLOR
 62
         4
  9
$CELTSCALE
 40
1.0
  9
$DELOBJ
 70
         1
  9
$DISPSILH
 70
         0
  9
$DIMSCALE
 40
1.0
  9
$DIMASZ
 40
0.18
  9
$DIMEXO
 40
0.0625
  9
$DIMDLI
 40
0.38
  9
$DIMRND
 40
0.0
  9
$DIMDLE
 40
0.0
  9
$DIMEXE
 40
0.25
  9
$DIMTP
 40
0.01
  9
$DIMTM
 40
-0.01
  9
$DIMTXT
 40
2.7
  9
$DIMCEN
 40
0.09
  9
$DIMTSZ
 40
0.0
  9
$DIMTOL
 70
         0
  9
$DIMLIM
 70
         0
  9
$DIMTIH
 70
         1
  9
$DIMTOH
 70
         1
  9
$DIMSE1
 70
         0
  9
$DIMSE2
 70
         0
  9
$DIMTAD
 70
         0
  9
$DIMZIN
 70
         0
  9
$DIMBLK
  1

  9
$DIMASO
 70
         1
  9
$DIMSHO
 70
         1
  9
$DIMPOST
  1

  9
$DIMAPOST
  1

  9
$DIMALT
 70
         0
  9
$DIMALTD
 70
         2
  9
$DIMALTF
 40
25.4
  9
$DIMLFAC
 40
1.0
  9
$DIMTOFL
 70
         0
  9
$DIMTVP
 40
0.0
  9
$DIMTIX
 70
         0
  9
$DIMSOXD
 70
         0
  9
$DIMSAH
 70
         0
  9
$DIMBLK1
  1

  9
$DIMBLK2
  1

  9
$DIMSTYLE
  2
STANDARD
  9
$DIMCLRD
 70
         0
  9
$DIMCLRE
 70
         0
  9
$DIMCLRT
 70
         4
  9
$DIMTFAC
 40
1.0
  9
$DIMGAP
 40
0.09
  9
$DIMJUST
 70
         0
  9
$DIMSD1
 70
         0
  9
$DIMSD2
 70
         0
  9
$DIMTOLJ
 70
         1
  9
$DIMTZIN
 70
         0
  9
$DIMALTZ
 70
         0
  9
$DIMALTTZ
 70
         0
  9
$DIMFIT
 70
         3
  9
$DIMUPT
 70
         0
  9
$DIMUNIT
 70
         2
  9
$DIMDEC
 70
         4
  9
$DIMTDEC
 70
         4
  9
$DIMALTU
 70
         2
  9
$DIMALTTD
 70
         2
  9
$DIMTXSTY
  7
STANDARD
  9
$DIMAUNIT
 70
         0
  9
$LUNITS
 70
         2
  9
$LUPREC
 70
        10
  9
$SKETCHINC
 40
0.1
  9
$FILLETRAD
 40
0.0
  9
$AUNITS
 70
         0
  9
$AUPREC
 70
         0
  9
$MENU
  1
acad
  9
$ELEVATION
 40
0.0
  9
$PELEVATION
 40
0.0
  9
$THICKNESS
 40
0.0
  9
$LIMCHECK
 70
         0
  9
$BLIPMODE
 70
         1
  9
$CHAMFERA
 40
0.0
  9
$CHAMFERB
 40
0.0
  9
$CHAMFERC
 40
0.0
  9
$CHAMFERD
 40
0.0
  9
$SKPOLY
 70
         0
  9
$TDCREATE
 40
0.000000000
  9
$TDUPDATE
 40
0.000000000
  9
$TDINDWG
 40
0.0000000000
  9
$TDUSRTIMER
 40
0.0000000000
  9
$USRTIMER
 70
         1
  9
$ANGBASE
 50
0.0
  9
$ANGDIR
 70
         0
  9
$PDMODE
 70
         2
  9
$PDSIZE
 40
0.0
  9
$PLINEWID
 40
0.0
  9
$COORDS
 70
         1
  9
$SPLFRAME
 70
         0
  9
$SPLINETYPE
 70
         6
  9
$SPLINESEGS
 70
         8
  9
$ATTDIA
 70
         0
  9
$ATTREQ
 70
         1
  9
$HANDLING
 70
         1
  9
$HANDSEED
  5
22C
  9
$SURFTAB1
 70
         6
  9
$SURFTAB2
 70
         6
  9
$SURFTYPE
 70
         6
  9
$SURFU
 70
         6
  9
$SURFV
 70
         6
  9
$UCSNAME
  2

  9
$UCSORG
 10
0.0
 20
0.0
 30
0.0
  9
$UCSXDIR
 10
1.0
 20
0.0
 30
0.0
  9
$UCSYDIR
 10
0.0
 20
1.0
 30
0.0
  9
$PUCSNAME
  2

  9
$PUCSORG
 10
0.0
 20
0.0
 30
0.0
  9
$PUCSXDIR
 10
1.0
 20
0.0
 30
0.0
  9
$PUCSYDIR
 10
0.0
 20
1.0
 30
0.0
  9
$USERI1
 70
         0
  9
$USERI2
 70
         0
  9
$USERI3
 70
         0
  9
$USERI4
 70
         0
  9
$USERI5
 70
         0
  9
$USERR1
 40
0.0
  9
$USERR2
 40
0.0
  9
$USERR3
 40
0.0
  9
$USERR4
 40
0.0
  9
$USERR5
 40
0.0
  9
$WORLDVIEW
 70
         1
  9
$SHADEDGE
 70
         3
  9
$SHADEDIF
 70
        70
  9
$TILEMODE
 70
         1
  9
$MAXACTVP
 70
        16
  9
$PINSBASE
 10
0.0
 20
0.0
 30
0.0
  9
$PLIMCHECK
 70
         0
  9
$PEXTMIN
 10
1.0000000000E+20
 20
1.0000000000E+20
 30
1.0000000000E+20
  9
$PEXTMAX
 10
-1.0000000000E+20
 20
-1.0000000000E+20
 30
-1.0000000000E+20
  9
$PLIMMIN
 10
0.0
 20
0.0
  9
$PLIMMAX
 10
12.0
 20
9.0
  9
$UNITMODE
 70
         0
  9
$VISRETAIN
 70
         0
  9
$PLINEGEN
 70
         1
  9
$PSLTSCALE
 70
         0
  9
$TREEDEPTH
 70
      3020
  9
$PICKSTYLE
 70
         1
  9
$CMLSTYLE
  2
STANDARD
  9
$CMLJUST
 70
         0
  9
$CMLSCALE
 40
1.0
  9
$PROXYGRAPHICS
 70
         0
  9
$MEASUREMENT
 70
         0
  0
ENDSEC
  0
SECTION
  2
CLASSES
  0
CLASS
  1
LWPOLYLINE
  2
AcDbPolyline
  3
"AutoCAD"
 90
        0
280
         0
281
         1
  0
CLASS
  1
IMAGE
  2
AcDbRasterImage
  3
ISM
 90
      127
280
         0
281
         1
  0
CLASS
  1
OLE2FRAME
  2
AcDbOle2Frame
  3
""
 90
        0
280
         0
281
         1
  0
CLASS
  1
HATCH
  2
AcDbHatch
  3
"ACAD_SEDONA"
 90
        0
280
         0
281
         1
  0
CLASS
  1
DICTIONARYVAR
  2
AcDbDictionaryVar
  3
"AutoCAD"
 90
        0
280
         0
281
         0
  0
CLASS
  1
RASTERVARIABLES
  2
AcDbRasterVariables
  3
ISM
 90
        0
280
         0
281
         0
  0
CLASS
  1
IMAGEDEF
  2
AcDbRasterImageDef
  3
ISM
 90
        0
280
         0
281
         0
  0
CLASS
  1
IMAGEDEF_REACTOR
  2
AcDbRasterImageDefReactor
  3
ISM
 90
        1
280
         0
281
         0
  0
CLASS
  1
IDBUFFER
  2
AcDbIdBuffer
  3
"Acad"
 90
        0
280
         0
281
         0
  0
CLASS
  1
SPATIAL_FILTER
  2
AcDbSpatialFilter
  3
"Acad"
 90
        0
280
         0
281
         0
  0
CLASS
  1
XRECORD
  2
AcDbXrecord
  3
"<Built In>"
 90
        0
280
         0
281
         0
  0
CLASS
  1
SORTENTSTABLE
  2
AcDbSortentsTable
  3
"AutoCAD"
 90
        0
280
         0
281
         0
  0
CLASS
  1
LAYER_INDEX
  2
AcDbLayerIndex
  3
"Acad"
 90
        0
280
         0
281
         0
  0
CLASS
  1
SPATIAL_INDEX
  2
AcDbSpatialIndex
  3
"Acad"
 90
        0
280
         0
281
         0
  0
CLASS
  1
OBJECT_PTR
  2
CAseDLPNTableRecord
  3
"ASE-LPNTableRecord"
 90
        1
280
         0
281
         0
  0
CLASS
  1
LAYOUT
  2
AcDbLayout
  3
"AutoCAD 2000"
 90
        1
280
         0
281
         0
  0
CLASS
  1
PLOTSETTINGS
  2
AcDbPlotSettings
  3
"AutoCAD 2000"
 90
        1
280
         0
281
         0
  0
CLASS
  1
ACDBDICTIONARYWDFLT
  2
AcDbDictionaryWithDefault
  3
"AutoCAD 2000"
 90
        1
280
         0
281
         0
  0
CLASS
  1
ACDBPLACEHOLDER
  2
AcDbPlaceHolder
  3
"AutoCAD 2000"
 90
        1
280
         0
281
         0
  0
CLASS
  1
VBA_PROJECT
  2
AcDbVbaProject
  3
"acadvba"
 90
        1
280
         0
281
         0
  0
CLASS
  1
WIPEOUT
  2
AcDbWipeout
  3
WipeOut|AutoCAD Express Tool|expresstools@autodesk.com
 90
      127
280
         0
281
         1
  0
CLASS
  1
WIPEOUTVARIABLES
  2
AcDbWipeoutVariables
  3
WipeOut|AutoCAD Express Tool|expresstools@autodesk.com
 90
        0
280
         0
281
         0
  0
CLASS
  1
RTEXT
  2
RText
  3
RText|AutoCAD Express Tool|expresstools@autodesk.com
 90
        0
280
         0
281
         1
  0
CLASS
  1
ARCALIGNEDTEXT
  2
AcDbArcAlignedText
  3
ATEXT|AutoCAD Express Tool|expresstools@autodesk.com
 90
        0
280
         0
281
         1
  0
ENDSEC
  0
SECTION
  2
TABLES
  0
TABLE
  2
VPORT
  5
7
100
AcDbSymbolTable
 70
         1
  0
VPORT
  5
15
100
AcDbSymbolTableRecord
100
AcDbViewportTableRecord
  2
*ACTIVE
 70
         0
 10
0.0
 20
0.0
 11
1.0
 21
1.0
 12
443.7992422511
 22
199.8041659625
 13
0.0
 23
0.0
 14
1.0
 24
1.0
 15
0.0
 25
0.0
 16
0.0
 26
0.0
 36
1.0
 17
0.0
 27
0.0
 37
0.0
 40
292.6188390708
 41
1.9834619625
 42
50.0
 43
0.0
 44
0.0
 50
0.0
 51
0.0
 71
         0
 72
       100
 73
         1
 74
         1
 75
         0
 76
         0
 77
         0
 78
         0
  0
ENDTAB
  0
TABLE
  2
LTYPE
  5
4
100
AcDbSymbolTable
 70
         6
  0
LTYPE
  5
11
100
AcDbSymbolTableRecord
100
AcDbLinetypeTableRecord
  2
BYBLOCK
 70
        64
  3

 72
        65
 73
         0
 40
0.0
  0
LTYPE
  5
12
100
AcDbSymbolTableRecord
100
AcDbLinetypeTableRecord
  2
BYLAYER
 70
        64
  3

 72
        65
 73
         0
 40
0.0
  0
LTYPE
  5
13
100
AcDbSymbolTableRecord
100
AcDbLinetypeTableRecord
  2
CONTINUOUS
 70
        64
  3
Solid line
 72
        65
 73
         0
 40
0.0
  0
LTYPE
  5
1D
100
AcDbSymbolTableRecord
100
AcDbLinetypeTableRecord
  2
DASHED
 70
        64
  3
_ _ _ _ _ _ _ _ _ _ _ _ _ _ _ _
 72
        65
 73
         2
 40
0.2
 49
0.1
 74
         0
 49
-0.1
 74
         0
  0
LTYPE
  5
1E
100
AcDbSymbolTableRecord
100
AcDbLinetypeTableRecord
  2
CENTER
 70
        64
  3
___ _ ___ _ ___ _ ___ _ ___ _ ___ _ ___ _ ___ _
 72
        65
 73
         4
 40
0.95
 49
0.625
 74
         0
 49
-0.125
 74
         0
 49
0.075
 74
         0
 49
-0.125
 74
         0
  0
LTYPE
  5
1F
100
AcDbSymbolTableRecord
100
AcDbLinetypeTableRecord
  2
PHANTOM
 70
        64
  3
______  __  __  ______  __  __  ______  __  __  
 72
        65
 73
         6
 40
1.025
 49
0.625
 74
         0
 49
-0.125
 74
         0
 49
0.075
 74
         0
 49
-0.125
 74
         0
 49
0.075
 74
         0
 49
-0.125
 74
         0
  0
ENDTAB
  0
TABLE
  2
LAYER
  5
2
100
AcDbSymbolTable
 70
        15
  0
LAYER
  5
14
100
AcDbSymbolTableRecord
100
AcDbLayerTableRecord
  2
0
 70
         0
 62
         7
  6
CONTINUOUS
  0
LAYER
  5
21
100
AcDbSymbolTableRecord
100
AcDbLayerTableRecord
  2
______
 70
         0
 62
         7
  6
CONTINUOUS
  0
LAYER
  5
22
100
AcDbSymbolTableRecord
100
AcDbLayerTableRecord
  2
____
 70
         1
 62
         7
  6
CONTINUOUS
  0
LAYER
  5
23
100
AcDbSymbolTableRecord
100
AcDbLayerTableRecord
  2
____
 70
         1
 62
         7
  6
CONTINUOUS
  0
LAYER
  5
24
100
AcDbSymbolTableRecord
100
AcDbLayerTableRecord
  2
____
 70
         1
 62
         7
  6
CONTINUOUS
  0
LAYER
  5
25
100
AcDbSymbolTableRecord
100
AcDbLayerTableRecord
  2
___Y__
 70
         1
 62
         7
  6
CONTINUOUS
  0
LAYER
  5
26
100
AcDbSymbolTableRecord
100
AcDbLayerTableRecord
  2
___G
 70
         1
 62
         7
  6
CONTINUOUS
  0
LAYER
  5
27
100
AcDbSymbolTableRecord
100
AcDbLayerTableRecord
  2
___G____G_
 70
         1
 62
         7
  6
CONTINUOUS
  0
LAYER
  5
28
100
AcDbSymbolTableRecord
100
AcDbLayerTableRecord
  2
______
 70
         1
 62
         7
  6
CONTINUOUS
  0
LAYER
  5
29
100
AcDbSymbolTableRecord
100
AcDbLayerTableRecord
  2
__________G_
 70
         1
 62
         7
  6
CONTINUOUS
  0
LAYER
  5
2A
100
AcDbSymbolTableRecord
100
AcDbLayerTableRecord
  2
____
 70
         1
 62
         7
  6
CONTINUOUS
  0
LAYER
  5
2B
100
AcDbSymbolTableRecord
100
AcDbLayerTableRecord
  2
______
 70
         1
 62
         7
  6
CONTINUOUS
  0
LAYER
  5
2C
100
AcDbSymbolTableRecord
100
AcDbLayerTableRecord
  2
____
 70
         1
 62
         7
  6
CONTINUOUS
  0
LAYER
  5
2D
100
AcDbSymbolTableRecord
100
AcDbLayerTableRecord
  2
___T
 70
         1
 62
         7
  6
CONTINUOUS
  0
LAYER
  5
7E
100
AcDbSymbolTableRecord
100
AcDbLayerTableRecord
  2
DEFPOINTS
 70
         0
 62
        -7
  6
CONTINUOUS
  0
ENDTAB
  0
TABLE
  2
STYLE
  5
3
100
AcDbSymbolTable
 70
        11
  0
STYLE
  5
17
100
AcDbSymbolTableRecord
100
AcDbTextStyleTableRecord
  2
STANDARD
 70
         0
 40
0.0
 41
1.0
 50
0.0
 71
         0
 42
0.0
  3
txt
  4

  0
STYLE
  5
87
100
AcDbSymbolTableRecord
100
AcDbTextStyleTableRecord
  2
BOX
 70
         0
 40
1.0
 41
1.0
 50
0.0
 71
         0
 42
0.2
  3
txt.shx
  4

  0
STYLE
  5
95
100
AcDbSymbolTableRecord
100
AcDbTextStyleTableRecord
  2
BOX
 70
         0
 40
1.0
 41
1.0
 50
0.0
 71
         0
 42
0.2
  3
txt.shx
  4

  0
STYLE
  5
A3
100
AcDbSymbolTableRecord
100
AcDbTextStyleTableRecord
  2
BOX
 70
         0
 40
1.0
 41
1.0
 50
0.0
 71
         0
 42
0.2
  3
txt.shx
  4

  0
STYLE
  5
B1
100
AcDbSymbolTableRecord
100
AcDbTextStyleTableRecord
  2
BOX
 70
         0
 40
1.0
 41
1.0
 50
0.0
 71
         0
 42
0.2
  3
txt.shx
  4

  0
STYLE
  5
BF
100
AcDbSymbolTableRecord
100
AcDbTextStyleTableRecord
  2
BOX
 70
         0
 40
1.0
 41
1.0
 50
0.0
 71
         0
 42
0.2
  3
txt.shx
  4

  0
STYLE
  5
CF
100
AcDbSymbolTableRecord
100
AcDbTextStyleTableRecord
  2
BOX
 70
         0
 40
1.0
 41
1.0
 50
0.0
 71
         0
 42
0.2
  3
txt.shx
  4

  0
STYLE
  5
DF
100
AcDbSymbolTableRecord
100
AcDbTextStyleTableRecord
  2
BOX
 70
         0
 40
1.0
 41
1.0
 50
0.0
 71
         0
 42
0.2
  3
txt.shx
  4

  0
STYLE
  5
219
100
AcDbSymbolTableRecord
100
AcDbTextStyleTableRecord
  2
BOX
 70
         0
 40
1.0
 41
1.0
 50
0.0
 71
         0
 42
0.2
  3
txt.shx
  4

  0
STYLE
  5
227
100
AcDbSymbolTableRecord
100
AcDbTextStyleTableRecord
  2
BOX
 70
         0
 40
1.0
 41
1.0
 50
0.0
 71
         0
 42
0.2
  3
txt.shx
  4

  0
STYLE
  5
22A
100
AcDbSymbolTableRecord
100
AcDbTextStyleTableRecord
  2
BOX
 70
         0
 40
1.0
 41
1.0
 50
0.0
 71
         0
 42
0.2
  3
txt.shx
  4

  0
ENDTAB
  0
TABLE
  2
VIEW
  5
5
100
AcDbSymbolTable
 70
         0
  0
ENDTAB
  0
TABLE
  2
UCS
  5
6
100
AcDbSymbolTable
 70
         1
  0
UCS
  5
20
100
AcDbSymbolTableRecord
100
AcDbUCSTableRecord
  2
CK_VIEW_1
 70
         0
 10
0.0
 20
0.0
 30
1.0
 11
1.0
 21
0.0
 31
0.0
 12
0.0
 22
1.0
 32
0.0
  0
ENDTAB
  0
TABLE
  2
APPID
  5
8
100
AcDbSymbolTable
 70
         1
  0
APPID
  5
16
100
AcDbSymbolTableRecord
100
AcDbRegAppTableRecord
  2
ACAD
 70
         0
  0
ENDTAB
  0
TABLE
  2
DIMSTYLE
  5
9
100
AcDbSymbolTable
 70
         2
  0
DIMSTYLE
105
18
100
AcDbSymbolTableRecord
100
AcDbDimStyleTableRecord
  2
STANDARD
 70
         0
  3

  4

  5

  6

  7

 40
1.0
 41
0.18
 42
0.0625
 43
0.38
 44
0.18
 45
0.0
 46
0.0
 47
0.0
 48
0.0
 71
         0
 72
         0
 73
         1
 74
         1
 75
         0
 76
         0
 77
         0
 78
         0
140
0.18
141
0.09
142
0.0
143
25.4
144
1.0
145
0.0
146
1.0
147
0.09
170
         0
171
         2
172
         0
173
         0
174
         0
175
         0
176
         0
177
         0
178
         0
270
         2
271
         4
272
         4
273
         2
274
         2
275
         0
280
         0
281
         0
282
         0
283
         1
284
         0
285
         0
286
         0
287
         0
288
         0
340
17
  0
DIMSTYLE
105
7A
100
AcDbSymbolTableRecord
100
AcDbDimStyleTableRecord
  2
DIMSTYLE1
 70
         0
  3

  4

  5

  6

  7

 40
1.0
 41
2.7
 42
0.0625
 43
0.38
 44
2.7
 45
0.0
 46
0.0
 47
0.0
 48
0.0
 71
         0
 72
         0
 73
         1
 74
         1
 75
         0
 76
         0
 77
         0
 78
         0
140
2.7
141
0.09
142
0.0
143
25.4
144
1.0
145
0.0
146
1.0
147
0.09
170
         0
171
         2
172
         0
173
         0
174
         0
175
         0
176
         0
177
         0
178
         0
270
         2
271
         4
272
         4
273
         2
274
         2
275
         0
280
         0
281
         0
282
         0
283
         1
284
         0
285
         0
286
         0
287
         0
288
         0
340
17
  0
ENDTAB
  0
TABLE
  2
BLOCK_RECORD
  5
1
100
AcDbSymbolTable
 70
        10
  0
BLOCK_RECORD
  5
A
100
AcDbSymbolTableRecord
100
AcDbBlockTableRecord
  2
*MODEL_SPACE
  0
BLOCK_RECORD
  5
B
100
AcDbSymbolTableRecord
100
AcDbBlockTableRecord
  2
*PAPER_SPACE
  0
BLOCK_RECORD
  5
2E
100
AcDbSymbolTableRecord
100
AcDbBlockTableRecord
  2
*X0
  0
BLOCK_RECORD
  5
7B
100
AcDbSymbolTableRecord
100
AcDbBlockTableRecord
  2
*D1
  0
BLOCK_RECORD
  5
8A
100
AcDbSymbolTableRecord
100
AcDbBlockTableRecord
  2
*D2
  0
BLOCK_RECORD
  5
98
100
AcDbSymbolTableRecord
100
AcDbBlockTableRecord
  2
*D3
  0
BLOCK_RECORD
  5
A6
100
AcDbSymbolTableRecord
100
AcDbBlockTableRecord
  2
*D4
  0
BLOCK_RECORD
  5
B4
100
AcDbSymbolTableRecord
100
AcDbBlockTableRecord
  2
*D5
  0
BLOCK_RECORD
  5
C2
100
AcDbSymbolTableRecord
100
AcDbBlockTableRecord
  2
*D6
  0
BLOCK_RECORD
  5
D3
100
AcDbSymbolTableRecord
100
AcDbBlockTableRecord
  2
*D7
  0
BLOCK_RECORD
  5
20E
100
AcDbSymbolTableRecord
100
AcDbBlockTableRecord
  2
*D8
  0
BLOCK_RECORD
  5
21C
100
AcDbSymbolTableRecord
100
AcDbBlockTableRecord
  2
*D9
  0
ENDTAB
  0
ENDSEC
  0
SECTION
  2
BLOCKS
  0
BLOCK
  5
D
100
AcDbEntity
  8
0
100
AcDbBlockBegin
  2
*MODEL_SPACE
 70
         0
 10
0.0
 20
0.0
 30
0.0
  3
*MODEL_SPACE
  1

  0
ENDBLK
  5
E
100
AcDbEntity
  8
0
100
AcDbBlockEnd
  0
BLOCK
  5
F
100
AcDbEntity
 67
         1
  8
0
100
AcDbBlockBegin
  2
*PAPER_SPACE
 70
         0
 10
0.0
 20
0.0
 30
0.0
  3
*PAPER_SPACE
  1

  0
ENDBLK
  5
10
100
AcDbEntity
 67
         1
  8
0
100
AcDbBlockEnd
  0
BLOCK
  5
2F
100
AcDbEntity
  8
0
100
AcDbBlockBegin
  2
*X0
 70
        65
 10
0.0
 20
0.0
 30
0.0
  3
*X0
  1

  0
LINE
  5
30
100
AcDbEntity
  8
______
  6
CONTINUOUS
 62
         4
100
AcDbLine
 10
448.9094039444
 20
98.9484738984
 30
0.0
 11
455.5599019265
 21
105.5989718805
 31
0.0
  0
LINE
  5
31
100
AcDbEntity
  8
______
  6
CONTINUOUS
 62
         4
100
AcDbLine
 10
444.6667632573
 20
98.9484738984
 30
0.0
 11
455.5455910478
 21
109.8273016889
 31
0.0
  0
LINE
  5
32
100
AcDbEntity
  8
______
  6
CONTINUOUS
 62
         4
100
AcDbLine
 10
443.2599019265
 20
101.7842532548
 30
0.0
 11
453.0641225701
 21
111.5884738984
 31
0.0
  0
LINE
  5
33
100
AcDbEntity
  8
______
  6
CONTINUOUS
 62
         4
100
AcDbLine
 10
442.096481883
 20
104.8634738984
 30
0.0
 11
448.821481883
 21
111.5884738984
 31
0.0
  0
LINE
  5
34
100
AcDbEntity
  8
______
  6
CONTINUOUS
 62
         4
100
AcDbLine
 10
439.0393715612
 20
106.0490042637
 30
0.0
 11
444.5788411959
 21
111.5884738984
 31
0.0
  0
LINE
  5
35
100
AcDbEntity
  8
______
  6
CONTINUOUS
 62
         4
100
AcDbLine
 10
438.2099019265
 20
109.4621753161
 30
0.0
 11
440.3362005088
 21
111.5884738984
 31
0.0
  0
LINE
  5
36
100
AcDbEntity
  8
______
  6
CONTINUOUS
 62
         4
100
AcDbLine
 10
416.6406377603
 20
104.8634738984
 30
0.0
 11
420.9099019265
 21
109.1327380646
 31
0.0
  0
LINE
  5
37
100
AcDbEntity
  8
______
  6
CONTINUOUS
 62
         4
100
AcDbLine
 10
412.3979970732
 20
104.8634738984
 30
0.0
 11
419.1229970732
 21
111.5884738984
 31
0.0
  0
LINE
  5
38
100
AcDbEntity
  8
______
  6
CONTINUOUS
 62
         4
100
AcDbLine
 10
450.8729970732
 20
143.3384738984
 30
0.0
 11
455.5599019265
 21
148.0253787517
 31
0.0
  0
LINE
  5
39
100
AcDbEntity
  8
______
  6
CONTINUOUS
 62
         4
100
AcDbLine
 10
408.4693818496
 20
105.1774993619
 30
0.0
 11
414.8803563861
 21
111.5884738984
 31
0.0
  0
LINE
  5
3A
100
AcDbEntity
  8
______
  6
CONTINUOUS
 62
         4
100
AcDbLine
 10
446.6303563861
 20
143.3384738984
 30
0.0
 11
453.6292993867
 21
150.337416899
 31
0.0
  0
LINE
  5
3B
100
AcDbEntity
  8
______
  6
CONTINUOUS
 62
         4
100
AcDbLine
 10
404.4496303097
 20
105.4003885091
 30
0.0
 11
410.637715699
 21
111.5884738984
 31
0.0
  0
LINE
  5
3C
100
AcDbEntity
  8
______
  6
CONTINUOUS
 62
         4
100
AcDbLine
 10
442.387715699
 20
143.3384738984
 30
0.0
 11
449.3866586996
 21
150.337416899
 31
0.0
  0
LINE
  5
3D
100
AcDbEntity
  8
______
  6
CONTINUOUS
 62
         4
100
AcDbLine
 10
400.7469620737
 20
105.9403609602
 30
0.0
 11
406.3950750118
 21
111.5884738984
 31
0.0
  0
LINE
  5
3E
100
AcDbEntity
  8
______
  6
CONTINUOUS
 62
         4
100
AcDbLine
 10
438.1450750118
 20
143.3384738984
 30
0.0
 11
445.1440180125
 21
150.337416899
 31
0.0
  0
LINE
  5
3F
100
AcDbEntity
  8
______
  6
CONTINUOUS
 62
         4
100
AcDbLine
 10
397.0442938377
 20
106.4803334113
 30
0.0
 11
402.1524343247
 21
111.5884738984
 31
0.0
  0
LINE
  5
40
100
AcDbEntity
  8
______
  6
CONTINUOUS
 62
         4
100
AcDbLine
 10
433.9024343247
 20
143.3384738984
 30
0.0
 11
440.9013773253
 21
150.337416899
 31
0.0
  0
LINE
  5
41
100
AcDbEntity
  8
______
  6
CONTINUOUS
 62
         4
100
AcDbLine
 10
393.3416256016
 20
107.0203058624
 30
0.0
 11
397.4097936376
 21
111.0884738984
 31
0.0
  0
LINE
  5
42
100
AcDbEntity
  8
______
  6
CONTINUOUS
 62
         4
100
AcDbLine
 10
429.6597936376
 20
143.3384738984
 30
0.0
 11
436.6587366382
 21
150.337416899
 31
0.0
  0
LINE
  5
43
100
AcDbEntity
  8
______
  6
CONTINUOUS
 62
         4
100
AcDbLine
 10
389.6389573656
 20
107.5602783135
 30
0.0
 11
393.5599019265
 21
111.4812228744
 31
0.0
  0
LINE
  5
44
100
AcDbEntity
  8
______
  6
CONTINUOUS
 62
         4
100
AcDbLine
 10
425.4171529505
 20
143.3384738984
 30
0.0
 11
432.4160959511
 21
150.337416899
 31
0.0
  0
LINE
  5
45
100
AcDbEntity
  8
______
  6
CONTINUOUS
 62
         4
100
AcDbLine
 10
385.9362891296
 20
108.1002507646
 30
0.0
 11
393.5599019265
 21
115.7238635615
 31
0.0
  0
LINE
  5
46
100
AcDbEntity
  8
______
  6
CONTINUOUS
 62
         4
100
AcDbLine
 10
421.1745122634
 20
143.3384738984
 30
0.0
 11
428.173455264
 21
150.337416899
 31
0.0
  0
LINE
  5
47
100
AcDbEntity
  8
______
  6
CONTINUOUS
 62
         4
100
AcDbLine
 10
382.2336208935
 20
108.6402232157
 30
0.0
 11
393.5599019265
 21
119.9665042487
 31
0.0
  0
LINE
  5
48
100
AcDbEntity
  8
______
  6
CONTINUOUS
 62
         4
100
AcDbLine
 10
416.9318715762
 20
143.3384738984
 30
0.0
 11
425.5599019265
 21
151.9665042487
 31
0.0
  0
LINE
  5
49
100
AcDbEntity
  8
______
  6
CONTINUOUS
 62
         4
100
AcDbLine
 10
378.5309526575
 20
109.1801956668
 30
0.0
 11
389.8142308891
 21
120.4634738984
 31
0.0
  0
LINE
  5
4A
100
AcDbEntity
  8
______
  6
CONTINUOUS
 62
         4
100
AcDbLine
 10
412.6892308891
 20
143.3384738984
 30
0.0
 11
421.8142308891
 21
152.4634738984
 31
0.0
  0
LINE
  5
4B
100
AcDbEntity
  8
______
  6
CONTINUOUS
 62
         4
100
AcDbLine
 10
374.8282844215
 20
109.7201681178
 30
0.0
 11
385.571590202
 21
120.4634738984
 31
0.0
  0
LINE
  5
4C
100
AcDbEntity
  8
______
  6
CONTINUOUS
 62
         4
100
AcDbLine
 10
408.446590202
 20
143.3384738984
 30
0.0
 11
417.571590202
 21
152.4634738984
 31
0.0
  0
LINE
  5
4D
100
AcDbEntity
  8
______
  6
CONTINUOUS
 62
         4
100
AcDbLine
 10
371.1256161855
 20
110.2601405689
 30
0.0
 11
381.3289495149
 21
120.4634738984
 31
0.0
  0
LINE
  5
4E
100
AcDbEntity
  8
______
  6
CONTINUOUS
 62
         4
100
AcDbLine
 10
404.2039495149
 20
143.3384738984
 30
0.0
 11
413.3289495149
 21
152.4634738984
 31
0.0
  0
LINE
  5
4F
100
AcDbEntity
  8
______
  6
CONTINUOUS
 62
         4
100
AcDbLine
 10
367.4229479494
 20
110.80011302
 30
0.0
 11
377.0863088278
 21
120.4634738984
 31
0.0
  0
LINE
  5
50
100
AcDbEntity
  8
______
  6
CONTINUOUS
 62
         4
100
AcDbLine
 10
391.0863088278
 20
134.4634738984
 30
0.0
 11
393.5599019265
 21
136.9370669971
 31
0.0
  0
LINE
  5
51
100
AcDbEntity
  8
______
  6
CONTINUOUS
 62
         4
100
AcDbLine
 10
399.9613088278
 20
143.3384738984
 30
0.0
 11
406.4395978109
 21
149.8167628815
 31
0.0
  0
LINE
  5
52
100
AcDbEntity
  8
______
  6
CONTINUOUS
 62
         4
100
AcDbLine
 10
408.7599019265
 20
152.1370669971
 30
0.0
 11
409.0863088278
 21
152.4634738984
 31
0.0
  0
LINE
  5
53
100
AcDbEntity
  8
______
  6
CONTINUOUS
 62
         4
100
AcDbLine
 10
363.7202797134
 20
111.3400854711
 30
0.0
 11
372.8436681406
 21
120.4634738984
 31
0.0
  0
LINE
  5
54
100
AcDbEntity
  8
______
  6
CONTINUOUS
 62
         4
100
AcDbLine
 10
386.8436681406
 20
134.4634738984
 30
0.0
 11
393.5599019265
 21
141.1797076843
 31
0.0
  0
LINE
  5
55
100
AcDbEntity
  8
______
  6
CONTINUOUS
 62
         4
100
AcDbLine
 10
396.2186681406
 20
143.8384738984
 30
0.0
 11
401.4726038357
 21
149.0924095934
 31
0.0
  0
LINE
  5
56
100
AcDbEntity
  8
______
  6
CONTINUOUS
 62
         4
100
AcDbLine
 10
360.0176114774
 20
111.8800579222
 30
0.0
 11
368.6010274535
 21
120.4634738984
 31
0.0
  0
LINE
  5
57
100
AcDbEntity
  8
______
  6
CONTINUOUS
 62
         4
100
AcDbLine
 10
382.6010274535
 20
134.4634738984
 30
0.0
 11
396.5056098606
 21
148.3680563054
 31
0.0
  0
LINE
  5
58
100
AcDbEntity
  8
______
  6
CONTINUOUS
 62
         4
100
AcDbLine
 10
356.3149432413
 20
112.4200303733
 30
0.0
 11
364.3583867664
 21
120.4634738984
 31
0.0
  0
LINE
  5
59
100
AcDbEntity
  8
______
  6
CONTINUOUS
 62
         4
100
AcDbLine
 10
378.3583867664
 20
134.4634738984
 30
0.0
 11
391.5386158854
 21
147.6437030174
 31
0.0
  0
LINE
  5
5A
100
AcDbEntity
  8
______
  6
CONTINUOUS
 62
         4
100
AcDbLine
 10
352.6122750053
 20
112.9600028244
 30
0.0
 11
360.1157460793
 21
120.4634738984
 31
0.0
  0
LINE
  5
5B
100
AcDbEntity
  8
______
  6
CONTINUOUS
 62
         4
100
AcDbLine
 10
374.1157460793
 20
134.4634738984
 30
0.0
 11
386.5716219102
 21
146.9193497293
 31
0.0
  0
LINE
  5
5C
100
AcDbEntity
  8
______
  6
CONTINUOUS
 62
         4
100
AcDbLine
 10
348.9096067693
 20
113.4999752755
 30
0.0
 11
355.8731053922
 21
120.4634738984
 31
0.0
  0
LINE
  5
5D
100
AcDbEntity
  8
______
  6
CONTINUOUS
 62
         4
100
AcDbLine
 10
369.8731053922
 20
134.4634738984
 30
0.0
 11
381.6046279351
 21
146.1949964413
 31
0.0
  0
LINE
  5
5E
100
AcDbEntity
  8
______
  6
CONTINUOUS
 62
         4
100
AcDbLine
 10
345.2069385332
 20
114.0399477265
 30
0.0
 11
351.630464705
 21
120.4634738984
 31
0.0
  0
LINE
  5
5F
100
AcDbEntity
  8
______
  6
CONTINUOUS
 62
         4
100
AcDbLine
 10
365.630464705
 20
134.4634738984
 30
0.0
 11
376.6376339599
 21
145.4706431532
 31
0.0
  0
LINE
  5
60
100
AcDbEntity
  8
______
  6
CONTINUOUS
 62
         4
100
AcDbLine
 10
341.5042702972
 20
114.5799201776
 30
0.0
 11
347.3878240179
 21
120.4634738984
 31
0.0
  0
LINE
  5
61
100
AcDbEntity
  8
______
  6
CONTINUOUS
 62
         4
100
AcDbLine
 10
361.3878240179
 20
134.4634738984
 30
0.0
 11
371.6706399847
 21
144.7462898652
 31
0.0
  0
LINE
  5
62
100
AcDbEntity
  8
______
  6
CONTINUOUS
 62
         4
100
AcDbLine
 10
337.8476871972
 20
115.1659777648
 30
0.0
 11
343.1451833308
 21
120.4634738984
 31
0.0
  0
LINE
  5
63
100
AcDbEntity
  8
______
  6
CONTINUOUS
 62
         4
100
AcDbLine
 10
357.1451833308
 20
134.4634738984
 30
0.0
 11
366.7036460096
 21
144.0219365771
 31
0.0
  0
LINE
  5
64
100
AcDbEntity
  8
______
  6
CONTINUOUS
 62
         4
100
AcDbLine
 10
337.3866883923
 20
118.947619647
 30
0.0
 11
337.5257561779
 21
119.0866874325
 31
0.0
  0
LINE
  5
65
100
AcDbEntity
  8
______
  6
CONTINUOUS
 62
         4
100
AcDbLine
 10
352.9025426437
 20
134.4634738984
 30
0.0
 11
361.7366520344
 21
143.2975832891
 31
0.0
  0
LINE
  5
66
100
AcDbEntity
  8
______
  6
CONTINUOUS
 62
         4
100
AcDbLine
 10
348.6599019566
 20
134.4634738984
 30
0.0
 11
356.7696580593
 21
142.573230001
 31
0.0
  0
LINE
  5
67
100
AcDbEntity
  8
______
  6
CONTINUOUS
 62
         4
100
AcDbLine
 10
344.4172612694
 20
134.4634738984
 30
0.0
 11
351.8026640841
 21
141.848876713
 31
0.0
  0
LINE
  5
68
100
AcDbEntity
  8
______
  6
CONTINUOUS
 62
         4
100
AcDbLine
 10
341.4246205823
 20
135.7134738984
 30
0.0
 11
346.8356701089
 21
141.124523425
 31
0.0
  0
LINE
  5
69
100
AcDbEntity
  8
______
  6
CONTINUOUS
 62
         4
100
AcDbLine
 10
337.4149083059
 20
135.9464023091
 30
0.0
 11
341.8686761338
 21
140.4001701369
 31
0.0
  0
ENDBLK
  5
6A
100
AcDbEntity
  8
0
  6
CONTINUOUS
100
AcDbBlockEnd
  0
BLOCK
  5
7C
100
AcDbEntity
  8
0
100
AcDbBlockBegin
  2
*D1
 70
        65
 10
0.0
 20
0.0
 30
0.0
  3
*D1
  1

  0
POINT
  5
7F
100
AcDbEntity
  8
DEFPOINTS
  6
CONTINUOUS
 62
         0
100
AcDbPoint
 10
405.5599019265
 20
317.6336774297
 30
0.0
  0
POINT
  5
80
100
AcDbEntity
  8
DEFPOINTS
  6
CONTINUOUS
 62
         0
100
AcDbPoint
 10
405.5599019265
 20
261.7951197169
 30
0.0
  0
POINT
  5
81
100
AcDbEntity
  8
DEFPOINTS
  6
CONTINUOUS
 62
         0
100
AcDbPoint
 10
455.5599019265
 20
261.2416925922
 30
0.0
  0
LINE
  5
82
100
AcDbEntity
  8
______
  6
CONTINUOUS
 62
         4
100
AcDbLine
 10
405.5599019265
 20
263.1451197169
 30
0.0
 11
405.5599019265
 21
318.3086774297
 31
0.0
  0
LINE
  5
83
100
AcDbEntity
  8
______
  6
CONTINUOUS
 62
         4
100
AcDbLine
 10
455.5599019265
 20
262.5916925922
 30
0.0
 11
455.5599019265
 21
318.3086774297
 31
0.0
  0
LINE
  5
84
100
AcDbEntity
  8
______
  6
CONTINUOUS
 62
         4
100
AcDbLine
 10
405.5599019265
 20
317.6336774297
 30
0.0
 11
455.5599019265
 21
317.6336774297
 31
0.0
  0
SOLID
  5
85
100
AcDbEntity
  8
______
  6
CONTINUOUS
 62
         4
100
AcDbTrace
 10
405.5599019265
 20
317.6336774297
 30
0.0
 11
408.2599019265
 21
318.0386774297
 31
0.0
 12
408.2599019265
 22
317.2286774297
 32
0.0
 13
405.5599019265
 23
317.6336774297
 33
0.0
  0
SOLID
  5
86
100
AcDbEntity
  8
______
  6
CONTINUOUS
 62
         4
100
AcDbTrace
 10
455.5599019265
 20
317.6336774297
 30
0.0
 11
452.8599019265
 21
317.2286774297
 31
0.0
 12
452.8599019265
 22
318.0386774297
 32
0.0
 13
455.5599019265
 23
317.6336774297
 33
0.0
  0
TEXT
  5
88
100
AcDbEntity
  8
______
  6
CONTINUOUS
 62
         4
100
AcDbText
 10
427.2700913513
 20
319.6586774297
 30
0.0
 40
2.7
  1
50
  7
BOX
100
AcDbText
  0
ENDBLK
  5
89
100
AcDbEntity
  8
0
  6
CONTINUOUS
100
AcDbBlockEnd
  0
BLOCK
  5
8B
100
AcDbEntity
  8
0
100
AcDbBlockBegin
  2
*D2
 70
        65
 10
0.0
 20
0.0
 30
0.0
  3
*D2
  1

  0
POINT
  5
8D
100
AcDbEntity
  8
DEFPOINTS
  6
CONTINUOUS
 62
         0
100
AcDbPoint
 10
337.1599019265
 20
328.0877291766
 30
0.0
  0
POINT
  5
8E
100
AcDbEntity
  8
DEFPOINTS
  6
CONTINUOUS
 62
         0
100
AcDbPoint
 10
337.1599019265
 20
250.7824264334
 30
0.0
  0
POINT
  5
8F
100
AcDbEntity
  8
DEFPOINTS
  6
CONTINUOUS
 62
         0
100
AcDbPoint
 10
455.5599019265
 20
261.2416925922
 30
0.0
  0
LINE
  5
90
100
AcDbEntity
  8
______
  6
CONTINUOUS
 62
         4
100
AcDbLine
 10
337.1599019265
 20
252.1324264334
 30
0.0
 11
337.1599019265
 21
328.7627291766
 31
0.0
  0
LINE
  5
91
100
AcDbEntity
  8
______
  6
CONTINUOUS
 62
         4
100
AcDbLine
 10
455.5599019265
 20
262.5916925922
 30
0.0
 11
455.5599019265
 21
328.7627291766
 31
0.0
  0
LINE
  5
92
100
AcDbEntity
  8
______
  6
CONTINUOUS
 62
         4
100
AcDbLine
 10
337.1599019265
 20
328.0877291766
 30
0.0
 11
455.5599019265
 21
328.0877291766
 31
0.0
  0
SOLID
  5
93
100
AcDbEntity
  8
______
  6
CONTINUOUS
 62
         4
100
AcDbTrace
 10
337.1599019265
 20
328.0877291766
 30
0.0
 11
339.8599019265
 21
328.4927291766
 31
0.0
 12
339.8599019265
 22
327.6827291766
 32
0.0
 13
337.1599019265
 23
328.0877291766
 33
0.0
  0
SOLID
  5
94
100
AcDbEntity
  8
______
  6
CONTINUOUS
 62
         4
100
AcDbTrace
 10
455.5599019265
 20
328.0877291766
 30
0.0
 11
452.8599019265
 21
327.6827291766
 31
0.0
 12
452.8599019265
 22
328.4927291766
 32
0.0
 13
455.5599019265
 23
328.0877291766
 33
0.0
  0
TEXT
  5
96
100
AcDbEntity
  8
______
  6
CONTINUOUS
 62
         4
100
AcDbText
 10
390.0327519403
 20
330.1127291766
 30
0.0
 40
2.7
  1
118.25
  7
BOX
100
AcDbText
  0
ENDBLK
  5
97
100
AcDbEntity
  8
0
  6
CONTINUOUS
100
AcDbBlockEnd
  0
BLOCK
  5
99
100
AcDbEntity
  8
0
100
AcDbBlockBegin
  2
*D3
 70
        65
 10
0.0
 20
0.0
 30
0.0
  3
*D3
  1

  0
POINT
  5
9B
100
AcDbEntity
  8
DEFPOINTS
  6
CONTINUOUS
 62
         0
100
AcDbPoint
 10
475.8389469579
 20
268.1451197169
 30
0.0
  0
POINT
  5
9C
100
AcDbEntity
  8
DEFPOINTS
  6
CONTINUOUS
 62
         0
100
AcDbPoint
 10
449.5599019265
 20
268.1451197169
 30
0.0
  0
POINT
  5
9D
100
AcDbEntity
  8
DEFPOINTS
  6
CONTINUOUS
 62
         0
100
AcDbPoint
 10
449.5599019265
 20
210.9951197169
 30
0.0
  0
LINE
  5
9E
100
AcDbEntity
  8
______
  6
CONTINUOUS
 62
         4
100
AcDbLine
 10
450.9099019265
 20
268.1451197169
 30
0.0
 11
476.5139469579
 21
268.1451197169
 31
0.0
  0
LINE
  5
9F
100
AcDbEntity
  8
______
  6
CONTINUOUS
 62
         4
100
AcDbLine
 10
450.9099019265
 20
210.9951197169
 30
0.0
 11
476.5139469579
 21
210.9951197169
 31
0.0
  0
LINE
  5
A0
100
AcDbEntity
  8
______
  6
CONTINUOUS
 62
         4
100
AcDbLine
 10
475.8389469579
 20
268.1451197169
 30
0.0
 11
475.8389469579
 21
210.9951197169
 31
0.0
  0
SOLID
  5
A1
100
AcDbEntity
  8
______
  6
CONTINUOUS
 62
         4
100
AcDbTrace
 10
475.8389469579
 20
268.1451197169
 30
0.0
 11
476.2439469579
 21
265.4451197169
 31
0.0
 12
475.4339469579
 22
265.4451197169
 32
0.0
 13
475.8389469579
 23
268.1451197169
 33
0.0
  0
SOLID
  5
A2
100
AcDbEntity
  8
______
  6
CONTINUOUS
 62
         4
100
AcDbTrace
 10
475.8389469579
 20
210.9951197169
 30
0.0
 11
475.4339469579
 21
213.6951197169
 31
0.0
 12
476.2439469579
 22
213.6951197169
 32
0.0
 13
475.8389469579
 23
210.9951197169
 33
0.0
  0
TEXT
  5
A4
100
AcDbEntity
  8
______
  6
CONTINUOUS
 62
         4
100
AcDbText
 10
473.8139469579
 20
226.5313736375
 30
0.0
 40
2.7
  1
崷57.15
 50
90.0
  7
BOX
100
AcDbText
  0
ENDBLK
  5
A5
100
AcDbEntity
  8
0
  6
CONTINUOUS
100
AcDbBlockEnd
  0
BLOCK
  5
A7
100
AcDbEntity
  8
0
100
AcDbBlockBegin
  2
*D4
 70
        65
 10
0.0
 20
0.0
 30
0.0
  3
*D4
  1

  0
POINT
  5
A9
100
AcDbEntity
  8
DEFPOINTS
  6
CONTINUOUS
 62
         0
100
AcDbPoint
 10
635.5060029593
 20
178.9257294189
 30
0.0
  0
POINT
  5
AA
100
AcDbEntity
  8
DEFPOINTS
  6
CONTINUOUS
 62
         0
100
AcDbPoint
 10
635.5060029593
 20
167.8714785
 30
0.0
  0
POINT
  5
AB
100
AcDbEntity
  8
DEFPOINTS
  6
CONTINUOUS
 62
         0
100
AcDbPoint
 10
616.4559648592
 20
167.8714785
 30
0.0
  0
LINE
  5
AC
100
AcDbEntity
  8
______
  6
CONTINUOUS
 62
         4
100
AcDbLine
 10
635.5060029593
 20
169.2214785
 30
0.0
 11
635.5060029593
 21
179.6007294189
 31
0.0
  0
LINE
  5
AD
100
AcDbEntity
  8
______
  6
CONTINUOUS
 62
         4
100
AcDbLine
 10
616.4559648592
 20
169.2214785
 30
0.0
 11
616.4559648592
 21
179.6007294189
 31
0.0
  0
LINE
  5
AE
100
AcDbEntity
  8
______
  6
CONTINUOUS
 62
         4
100
AcDbLine
 10
635.5060029593
 20
178.9257294189
 30
0.0
 11
616.4559648592
 21
178.9257294189
 31
0.0
  0
SOLID
  5
AF
100
AcDbEntity
  8
______
  6
CONTINUOUS
 62
         4
100
AcDbTrace
 10
635.5060029593
 20
178.9257294189
 30
0.0
 11
632.8060029593
 21
178.5207294189
 31
0.0
 12
632.8060029593
 22
179.3307294189
 32
0.0
 13
635.5060029593
 23
178.9257294189
 33
0.0
  0
SOLID
  5
B0
100
AcDbEntity
  8
______
  6
CONTINUOUS
 62
         4
100
AcDbTrace
 10
616.4559648592
 20
178.9257294189
 30
0.0
 11
619.1559648592
 21
179.3307294189
 31
0.0
 12
619.1559648592
 22
178.5207294189
 32
0.0
 13
616.4559648592
 23
178.9257294189
 33
0.0
  0
TEXT
  5
B2
100
AcDbEntity
  8
______
  6
CONTINUOUS
 62
         4
100
AcDbText
 10
613.9086039382
 20
180.9507294189
 30
0.0
 40
2.7
  1
3/4"-16UNF
  7
BOX
100
AcDbText
  0
ENDBLK
  5
B3
100
AcDbEntity
  8
0
  6
CONTINUOUS
100
AcDbBlockEnd
  0
BLOCK
  5
B5
100
AcDbEntity
  8
0
100
AcDbBlockBegin
  2
*D5
 70
        65
 10
0.0
 20
0.0
 30
0.0
  3
*D5
  1

  0
POINT
  5
B7
100
AcDbEntity
  8
DEFPOINTS
  6
CONTINUOUS
 62
         0
100
AcDbPoint
 10
604.5828446972
 20
162.6818671207
 30
0.0
  0
POINT
  5
B8
100
AcDbEntity
  8
DEFPOINTS
  6
CONTINUOUS
 62
         0
100
AcDbPoint
 10
617.5227563248
 20
162.6818671207
 30
0.0
  0
POINT
  5
B9
100
AcDbEntity
  8
DEFPOINTS
  6
CONTINUOUS
 62
         0
100
AcDbPoint
 10
620.2659724792
 20
172.18148612
 30
0.0
  0
LINE
  5
BA
100
AcDbEntity
  8
______
  6
CONTINUOUS
 62
         4
100
AcDbLine
 10
616.1727563248
 20
162.6818671207
 30
0.0
 11
603.9078446972
 21
162.6818671207
 31
0.0
  0
LINE
  5
BB
100
AcDbEntity
  8
______
  6
CONTINUOUS
 62
         4
100
AcDbLine
 10
618.9159724792
 20
172.18148612
 30
0.0
 11
603.9078446972
 21
172.18148612
 31
0.0
  0
LINE
  5
BC
100
AcDbEntity
  8
______
  6
CONTINUOUS
 62
         4
100
AcDbLine
 10
604.5828446972
 20
162.6818671207
 30
0.0
 11
604.5828446972
 21
172.18148612
 31
0.0
  0
SOLID
  5
BD
100
AcDbEntity
  8
______
  6
CONTINUOUS
 62
         4
100
AcDbTrace
 10
604.5828446972
 20
162.6818671207
 30
0.0
 11
604.1778446972
 21
165.3818671207
 31
0.0
 12
604.9878446972
 22
165.3818671207
 32
0.0
 13
604.5828446972
 23
162.6818671207
 33
0.0
  0
SOLID
  5
BE
100
AcDbEntity
  8
______
  6
CONTINUOUS
 62
         4
100
AcDbTrace
 10
604.5828446972
 20
172.18148612
 30
0.0
 11
604.9878446972
 21
169.48148612
 31
0.0
 12
604.1778446972
 22
169.48148612
 32
0.0
 13
604.5828446972
 23
172.18148612
 33
0.0
  0
TEXT
  5
C0
100
AcDbEntity
  8
______
  6
CONTINUOUS
 62
         4
100
AcDbText
 10
602.5578446972
 20
162.9494860222
 30
0.0
 40
2.7
  1
9.5
 50
90.0
  7
BOX
100
AcDbText
  0
ENDBLK
  5
C1
100
AcDbEntity
  8
0
  6
CONTINUOUS
100
AcDbBlockEnd
  0
BLOCK
  5
C3
100
AcDbEntity
  8
0
100
AcDbBlockBegin
  2
*D6
 70
        65
 10
0.0
 20
0.0
 30
0.0
  3
*D6
  1

  0
POINT
  5
C5
100
AcDbEntity
  8
DEFPOINTS
  6
CONTINUOUS
 62
         0
100
AcDbPoint
 10
612.7574815804
 20
162.6818671207
 30
0.0
  0
POINT
  5
C6
100
AcDbEntity
  8
DEFPOINTS
  6
CONTINUOUS
 62
         0
100
AcDbPoint
 10
617.5227563248
 20
162.6818671207
 30
0.0
  0
POINT
  5
C7
100
AcDbEntity
  8
DEFPOINTS
  6
CONTINUOUS
 62
         0
100
AcDbPoint
 10
620.4817115967
 20
166.6818671207
 30
0.0
  0
LINE
  5
C8
100
AcDbEntity
  8
______
  6
CONTINUOUS
 62
         4
100
AcDbLine
 10
616.1727563248
 20
162.6818671207
 30
0.0
 11
612.0824815804
 21
162.6818671207
 31
0.0
  0
LINE
  5
C9
100
AcDbEntity
  8
______
  6
CONTINUOUS
 62
         4
100
AcDbLine
 10
619.1317115967
 20
166.6818671207
 30
0.0
 11
612.0824815804
 21
166.6818671207
 31
0.0
  0
LINE
  5
CA
100
AcDbEntity
  8
______
  6
CONTINUOUS
 62
         4
100
AcDbLine
 10
612.7574815804
 20
162.6818671207
 30
0.0
 11
612.7574815804
 21
157.2818671207
 31
0.0
  0
SOLID
  5
CB
100
AcDbEntity
  8
______
  6
CONTINUOUS
 62
         4
100
AcDbTrace
 10
612.7574815804
 20
162.6818671207
 30
0.0
 11
613.1624815804
 21
159.9818671207
 31
0.0
 12
612.3524815804
 22
159.9818671207
 32
0.0
 13
612.7574815804
 23
162.6818671207
 33
0.0
  0
LINE
  5
CC
100
AcDbEntity
  8
______
  6
CONTINUOUS
 62
         4
100
AcDbLine
 10
612.7574815804
 20
166.6818671207
 30
0.0
 11
612.7574815804
 21
172.0818671207
 31
0.0
  0
SOLID
  5
CD
100
AcDbEntity
  8
______
  6
CONTINUOUS
 62
         4
100
AcDbTrace
 10
612.7574815804
 20
166.6818671207
 30
0.0
 11
612.3524815804
 21
169.3818671207
 31
0.0
 12
613.1624815804
 22
169.3818671207
 32
0.0
 13
612.7574815804
 23
166.6818671207
 33
0.0
  0
LINE
  5
CE
100
AcDbEntity
  8
______
  6
CONTINUOUS
 62
         4
100
AcDbLine
 10
612.7574815804
 20
162.6818671207
 30
0.0
 11
612.7574815804
 21
166.6818671207
 31
0.0
  0
TEXT
  5
D0
100
AcDbEntity
  8
______
  6
CONTINUOUS
 62
         4
100
AcDbText
 10
610.7324815804
 20
163.7630313569
 30
0.0
 40
2.7
  1
4
 50
90.0
  7
BOX
100
AcDbText
  0
ENDBLK
  5
D1
100
AcDbEntity
  8
0
  6
CONTINUOUS
100
AcDbBlockEnd
  0
BLOCK
  5
D4
100
AcDbEntity
  8
0
100
AcDbBlockBegin
  2
*D7
 70
        65
 10
0.0
 20
0.0
 30
0.0
  3
*D7
  1

  0
POINT
  5
D6
100
AcDbEntity
  8
DEFPOINTS
  6
CONTINUOUS
 62
         0
100
AcDbPoint
 10
620.438421325
 20
152.0946947845
 30
0.0
  0
POINT
  5
D7
100
AcDbEntity
  8
DEFPOINTS
  6
CONTINUOUS
 62
         0
100
AcDbPoint
 10
620.438421325
 20
163.1982501535
 30
0.0
  0
POINT
  5
D8
100
AcDbEntity
  8
DEFPOINTS
  6
CONTINUOUS
 62
         0
100
AcDbPoint
 10
631.5235464935
 20
163.1982501535
 30
0.0
  0
LINE
  5
D9
100
AcDbEntity
  8
______
  6
CONTINUOUS
 62
         4
100
AcDbLine
 10
620.438421325
 20
161.8482501535
 30
0.0
 11
620.438421325
 21
151.4196947845
 31
0.0
  0
LINE
  5
DA
100
AcDbEntity
  8
______
  6
CONTINUOUS
 62
         4
100
AcDbLine
 10
631.5235464935
 20
161.8482501535
 30
0.0
 11
631.5235464935
 21
151.4196947845
 31
0.0
  0
LINE
  5
DB
100
AcDbEntity
  8
______
  6
CONTINUOUS
 62
         4
100
AcDbLine
 10
620.438421325
 20
152.0946947845
 30
0.0
 11
631.5235464935
 21
152.0946947845
 31
0.0
  0
SOLID
  5
DC
100
AcDbEntity
  8
______
  6
CONTINUOUS
 62
         4
100
AcDbTrace
 10
620.438421325
 20
152.0946947845
 30
0.0
 11
623.138421325
 21
152.4996947845
 31
0.0
 12
623.138421325
 22
151.6896947845
 32
0.0
 13
620.438421325
 23
152.0946947845
 33
0.0
  0
LINE
  5
DD
100
AcDbEntity
  8
______
  6
CONTINUOUS
 62
         4
100
AcDbLine
 10
631.5235464935
 20
152.0946947845
 30
0.0
 11
652.3936151769
 21
152.0946947845
 31
0.0
  0
SOLID
  5
DE
100
AcDbEntity
  8
______
  6
CONTINUOUS
 62
         4
100
AcDbTrace
 10
631.5235464935
 20
152.0946947845
 30
0.0
 11
628.8235464935
 21
151.6896947845
 31
0.0
 12
628.8235464935
 22
152.4996947845
 32
0.0
 13
631.5235464935
 23
152.0946947845
 33
0.0
  0
TEXT
  5
E0
100
AcDbEntity
  8
______
  6
CONTINUOUS
 62
         4
100
AcDbText
 10
634.8436151769
 20
154.1196947845
 30
0.0
 40
2.7
  1
9.6Hex
  7
BOX
100
AcDbText
  0
ENDBLK
  5
E1
100
AcDbEntity
  8
0
  6
CONTINUOUS
100
AcDbBlockEnd
  0
BLOCK
  5
20F
100
AcDbEntity
  8
0
100
AcDbBlockBegin
  2
*D8
 70
        65
 10
0.0
 20
0.0
 30
0.0
  3
*D8
  1

  0
POINT
  5
211
100
AcDbEntity
  8
DEFPOINTS
  6
CONTINUOUS
 62
         0
100
AcDbPoint
 10
408.7599019265
 20
188.7348114959
 30
0.0
  0
POINT
  5
212
100
AcDbEntity
  8
DEFPOINTS
  6
CONTINUOUS
 62
         0
100
AcDbPoint
 10
408.7599019265
 20
208.2951197169
 30
0.0
  0
POINT
  5
213
100
AcDbEntity
  8
DEFPOINTS
  6
CONTINUOUS
 62
         0
100
AcDbPoint
 10
443.7599019265
 20
239.5701197169
 30
0.0
  0
LINE
  5
214
100
AcDbEntity
  8
______
  6
CONTINUOUS
 62
         4
100
AcDbLine
 10
408.7599019265
 20
206.9451197169
 30
0.0
 11
408.7599019265
 21
188.0598114959
 31
0.0
  0
LINE
  5
215
100
AcDbEntity
  8
______
  6
CONTINUOUS
 62
         4
100
AcDbLine
 10
443.7599019265
 20
238.2201197169
 30
0.0
 11
443.7599019265
 21
188.0598114959
 31
0.0
  0
LINE
  5
216
100
AcDbEntity
  8
______
  6
CONTINUOUS
 62
         4
100
AcDbLine
 10
408.7599019265
 20
188.7348114959
 30
0.0
 11
443.7599019265
 21
188.7348114959
 31
0.0
  0
SOLID
  5
217
100
AcDbEntity
  8
______
  6
CONTINUOUS
 62
         4
100
AcDbTrace
 10
408.7599019265
 20
188.7348114959
 30
0.0
 11
411.4599019265
 21
189.1398114959
 31
0.0
 12
411.4599019265
 22
188.3298114959
 32
0.0
 13
408.7599019265
 23
188.7348114959
 33
0.0
  0
SOLID
  5
218
100
AcDbEntity
  8
______
  6
CONTINUOUS
 62
         4
100
AcDbTrace
 10
443.7599019265
 20
188.7348114959
 30
0.0
 11
441.0599019265
 21
188.3298114959
 31
0.0
 12
441.0599019265
 22
189.1398114959
 32
0.0
 13
443.7599019265
 23
188.7348114959
 33
0.0
  0
TEXT
  5
21A
100
AcDbEntity
  8
______
  6
CONTINUOUS
 62
         4
100
AcDbText
 10
423.5599019265
 20
190.7598114959
 30
0.0
 40
2.7
  1
35
  7
BOX
100
AcDbText
  0
ENDBLK
  5
21B
100
AcDbEntity
  8
0
  6
CONTINUOUS
100
AcDbBlockEnd
  0
BLOCK
  5
21D
100
AcDbEntity
  8
0
100
AcDbBlockBegin
  2
*D9
 70
        65
 10
0.0
 20
0.0
 30
0.0
  3
*D9
  1

  0
POINT
  5
21F
100
AcDbEntity
  8
DEFPOINTS
  6
CONTINUOUS
 62
         0
100
AcDbPoint
 10
393.5599019265
 20
67.4706027485
 30
0.0
  0
POINT
  5
220
100
AcDbEntity
  8
DEFPOINTS
  6
CONTINUOUS
 62
         0
100
AcDbPoint
 10
393.5599019265
 20
111.0884738984
 30
0.0
  0
POINT
  5
221
100
AcDbEntity
  8
DEFPOINTS
  6
CONTINUOUS
 62
         0
100
AcDbPoint
 10
455.5599019265
 20
103.2919010231
 30
0.0
  0
LINE
  5
222
100
AcDbEntity
  8
______
  6
CONTINUOUS
 62
         4
100
AcDbLine
 10
393.5599019265
 20
109.7384738984
 30
0.0
 11
393.5599019265
 21
66.7956027485
 31
0.0
  0
LINE
  5
223
100
AcDbEntity
  8
______
  6
CONTINUOUS
 62
         4
100
AcDbLine
 10
455.5599019265
 20
101.9419010231
 30
0.0
 11
455.5599019265
 21
66.7956027485
 31
0.0
  0
LINE
  5
224
100
AcDbEntity
  8
______
  6
CONTINUOUS
 62
         4
100
AcDbLine
 10
393.5599019265
 20
67.4706027485
 30
0.0
 11
455.5599019265
 21
67.4706027485
 31
0.0
  0
SOLID
  5
225
100
AcDbEntity
  8
______
  6
CONTINUOUS
 62
         4
100
AcDbTrace
 10
393.5599019265
 20
67.4706027485
 30
0.0
 11
396.2599019265
 21
67.8756027485
 31
0.0
 12
396.2599019265
 22
67.0656027485
 32
0.0
 13
393.5599019265
 23
67.4706027485
 33
0.0
  0
SOLID
  5
226
100
AcDbEntity
  8
______
  6
CONTINUOUS
 62
         4
100
AcDbTrace
 10
455.5599019265
 20
67.4706027485
 30
0.0
 11
452.8599019265
 21
67.0656027485
 31
0.0
 12
452.8599019265
 22
67.8756027485
 32
0.0
 13
455.5599019265
 23
67.4706027485
 33
0.0
  0
TEXT
  5
228
100
AcDbEntity
  8
______
  6
CONTINUOUS
 62
         4
100
AcDbText
 10
419.429048524
 20
69.4956027485
 30
0.0
 40
2.7
  1
62
  7
BOX
100
AcDbText
  0
ENDBLK
  5
229
100
AcDbEntity
  8
0
  6
CONTINUOUS
100
AcDbBlockEnd
  0
ENDSEC
  0
SECTION
  2
ENTITIES
  0
INSERT
  5
6C
100
AcDbEntity
  8
0
  6
CONTINUOUS
100
AcDbBlockReference
  2
*X0
 10
0.0
 20
0.0
 30
0.0
  0
ARC
  5
6D
100
AcDbEntity
  8
______
  6
CONTINUOUS
 62
         7
100
AcDbCircle
 10
453.5599019265
 20
103.7769010231
 30
0.0
 40
2.0
100
AcDbArc
 50
315.0
 51
360.0
  0
ARC
  5
6E
100
AcDbEntity
  8
______
  6
CONTINUOUS
 62
         7
100
AcDbCircle
 10
450.7314748018
 20
100.9484738984
 30
0.0
 40
2.0
100
AcDbArc
 50
270.0
 51
315.0
  0
LINE
  5
6F
100
AcDbEntity
  8
______
  6
CONTINUOUS
 62
         7
100
AcDbLine
 10
452.1456883642
 20
99.534260336
 30
0.0
 11
454.9741154889
 21
102.3626874607
 31
0.0
  0
LINE
  5
70
100
AcDbEntity
  8
______
  6
CONTINUOUS
 62
         4
100
AcDbLine
 10
451.5599019265
 20
256.5268477327
 30
0.0
 11
425.5599019265
 21
222.6133917012
 31
0.0
  0
LINE
  5
71
100
AcDbEntity
  8
______
  6
CONTINUOUS
 62
         4
100
AcDbLine
 10
425.5599019265
 20
256.5268477327
 30
0.0
 11
451.5599019265
 21
222.6133917012
 31
0.0
  0
ARC
  5
72
100
AcDbEntity
  8
______
  6
CONTINUOUS
 62
         7
100
AcDbCircle
 10
453.5599019265
 20
215.8235468417
 30
0.0
 40
2.0
100
AcDbArc
 50
315.0
 51
360.0
  0
ARC
  5
73
100
AcDbEntity
  8
______
  6
CONTINUOUS
 62
         7
100
AcDbCircle
 10
450.7314748018
 20
212.9951197169
 30
0.0
 40
2.0
100
AcDbArc
 50
270.0
 51
315.0
  0
ARC
  5
74
100
AcDbEntity
  8
______
  6
CONTINUOUS
 62
         7
100
AcDbCircle
 10
453.5599019265
 20
263.3166925922
 30
0.0
 40
2.0
100
AcDbArc
 50
0.0
 51
45.0
  0
ARC
  5
75
100
AcDbEntity
  8
______
  6
CONTINUOUS
 62
         7
100
AcDbCircle
 10
450.7314748018
 20
266.1451197169
 30
0.0
 40
2.0
100
AcDbArc
 50
45.0
 51
90.0
  0
LINE
  5
76
100
AcDbEntity
  8
______
  6
CONTINUOUS
 62
         7
100
AcDbLine
 10
451.5599019265
 20
267.9654791592
 30
0.0
 11
451.5599019265
 21
211.1747602747
 31
0.0
  0
LINE
  5
77
100
AcDbEntity
  8
______
  6
CONTINUOUS
 62
         7
100
AcDbLine
 10
454.9741154889
 20
214.4093332793
 30
0.0
 11
452.1456883642
 21
211.5809061545
 31
0.0
  0
LINE
  5
78
100
AcDbEntity
  8
______
  6
CONTINUOUS
 62
         7
100
AcDbLine
 10
452.1456883642
 20
267.5593332793
 30
0.0
 11
454.9741154889
 21
264.7309061545
 31
0.0
  0
LINE
  5
79
100
AcDbEntity
  8
______
  6
CONTINUOUS
 62
         7
100
AcDbLine
 10
408.7599019265
 20
152.4634738984
 30
0.0
 11
425.5599019265
 21
152.4634738984
 31
0.0
  0
DIMENSION
  5
7D
100
AcDbEntity
  8
______
  6
CONTINUOUS
 62
         4
100
AcDbDimension
  2
*D1
 10
405.5599019265
 20
317.6336774297
 30
0.0
 11
427.2700913513
 21
319.6586774297
 31
0.0
  3
DIMSTYLE1
100
AcDbAlignedDimension
 13
405.5599019265
 23
261.7951197169
 33
0.0
 14
455.5599019265
 24
261.2416925922
 34
0.0
100
AcDbRotatedDimension
  0
DIMENSION
  5
8C
100
AcDbEntity
  8
______
  6
CONTINUOUS
 62
         4
100
AcDbDimension
  2
*D2
 10
337.1599019265
 20
328.0877291766
 30
0.0
 11
390.0327519403
 21
330.1127291766
 31
0.0
  3
DIMSTYLE1
100
AcDbAlignedDimension
 13
337.1599019265
 23
250.7824264334
 33
0.0
 14
455.5599019265
 24
261.2416925922
 34
0.0
100
AcDbRotatedDimension
  0
DIMENSION
  5
9A
100
AcDbEntity
  8
______
  6
CONTINUOUS
 62
         4
100
AcDbDimension
  2
*D3
 10
475.8389469579
 20
268.1451197169
 30
0.0
 11
473.8139469579
 21
226.5313736375
 31
0.0
  3
DIMSTYLE1
100
AcDbAlignedDimension
 13
449.5599019265
 23
268.1451197169
 33
0.0
 14
449.5599019265
 24
210.9951197169
 34
0.0
 50
90.0
100
AcDbRotatedDimension
  0
DIMENSION
  5
A8
100
AcDbEntity
  8
______
  6
CONTINUOUS
 62
         4
100
AcDbDimension
  2
*D4
 10
635.5060029593
 20
178.9257294189
 30
0.0
 11
613.9086039382
 21
180.9507294189
 31
0.0
  3
DIMSTYLE1
100
AcDbAlignedDimension
 13
635.5060029593
 23
167.8714785
 33
0.0
 14
616.4559648592
 24
167.8714785
 34
0.0
100
AcDbRotatedDimension
  0
DIMENSION
  5
B6
100
AcDbEntity
  8
______
  6
CONTINUOUS
 62
         4
100
AcDbDimension
  2
*D5
 10
604.5828446972
 20
162.6818671207
 30
0.0
 11
602.5578446972
 21
162.9494860222
 31
0.0
  3
DIMSTYLE1
100
AcDbAlignedDimension
 13
617.5227563248
 23
162.6818671207
 33
0.0
 14
620.2659724792
 24
172.18148612
 34
0.0
 50
90.0
100
AcDbRotatedDimension
  0
DIMENSION
  5
C4
100
AcDbEntity
  8
______
  6
CONTINUOUS
 62
         4
100
AcDbDimension
  2
*D6
 10
612.7574815804
 20
162.6818671207
 30
0.0
 11
610.7324815804
 21
163.7630313569
 31
0.0
  3
DIMSTYLE1
100
AcDbAlignedDimension
 13
617.5227563248
 23
162.6818671207
 33
0.0
 14
620.4817115967
 24
166.6818671207
 34
0.0
 50
90.0
100
AcDbRotatedDimension
  0
LINE
  5
D2
100
AcDbEntity
  8
______
  6
CENTER
 62
         1
100
AcDbLine
 10
625.9809839092
 20
160.5898119147
 30
0.0
 11
625.9809839092
 21
173.8060821188
 31
0.0
  0
DIMENSION
  5
D5
100
AcDbEntity
  8
______
  6
CONTINUOUS
 62
         4
100
AcDbDimension
  2
*D7
 10
620.438421325
 20
152.0946947845
 30
0.0
 11
634.8436151769
 21
154.1196947845
 31
0.0
  3
DIMSTYLE1
100
AcDbAlignedDimension
 13
620.438421325
 23
163.1982501535
 33
0.0
 14
631.5235464935
 24
163.1982501535
 34
0.0
100
AcDbRotatedDimension
  0
LINE
  5
E2
100
AcDbEntity
  8
______
  6
DASHED
 62
         2
100
AcDbLine
 10
623.231347753
 20
162.6818671207
 30
0.0
 11
623.231347753
 21
166.6818671207
 31
0.0
  0
LINE
  5
E3
100
AcDbEntity
  8
______
  6
DASHED
 62
         2
100
AcDbLine
 10
620.4817115967
 20
162.6818671207
 30
0.0
 11
620.4817115967
 21
166.6818671207
 31
0.0
  0
LINE
  5
E4
100
AcDbEntity
  8
______
  6
DASHED
 62
         2
100
AcDbLine
 10
628.7306200655
 20
162.6818671207
 30
0.0
 11
628.7306200655
 21
166.6818671207
 31
0.0
  0
LINE
  5
E5
100
AcDbEntity
  8
______
  6
DASHED
 62
         2
100
AcDbLine
 10
631.4802562218
 20
162.6818671207
 30
0.0
 11
631.4802562218
 21
166.6818671207
 31
0.0
  0
LINE
  5
E6
100
AcDbEntity
  8
______
  6
DASHED
 62
         2
100
AcDbLine
 10
620.4817115967
 20
166.6818671207
 30
0.0
 11
631.4802562218
 21
166.6818671207
 31
0.0
  0
LINE
  5
E7
100
AcDbEntity
  8
______
  6
CONTINUOUS
 62
         4
100
AcDbLine
 10
631.6959953393
 20
172.18148612
 30
0.0
 11
635.5060029593
 21
168.3714785
 31
0.0
  0
LINE
  5
E8
100
AcDbEntity
  8
______
  6
CONTINUOUS
 62
         4
100
AcDbLine
 10
620.2659724792
 20
172.18148612
 30
0.0
 11
616.4559648592
 21
168.3714785
 31
0.0
  0
LINE
  5
E9
100
AcDbEntity
  8
______
  6
CONTINUOUS
 62
         4
100
AcDbLine
 10
616.4559648592
 20
168.3714785
 30
0.0
 11
635.5060029593
 21
168.3714785
 31
0.0
  0
LINE
  5
EA
100
AcDbEntity
  8
______
  6
CONTINUOUS
 62
         4
100
AcDbLine
 10
620.2659724792
 20
172.18148612
 30
0.0
 11
631.6959953393
 21
172.18148612
 31
0.0
  0
LINE
  5
EB
100
AcDbEntity
  8
______
  6
CONTINUOUS
 62
         4
100
AcDbLine
 10
634.4392114937
 20
167.5565602035
 30
0.0
 11
617.5227563248
 21
166.741641907
 31
0.0
  0
LINE
  5
EC
100
AcDbEntity
  8
______
  6
CONTINUOUS
 62
         4
100
AcDbLine
 10
635.5060029593
 20
168.3714785
 30
0.0
 11
616.4559648592
 21
167.5565602035
 31
0.0
  0
LINE
  5
ED
100
AcDbEntity
  8
______
  6
CONTINUOUS
 62
         4
100
AcDbLine
 10
634.4392114937
 20
167.5565602035
 30
0.0
 11
635.5060029593
 21
168.3714785
 31
0.0
  0
LINE
  5
EE
100
AcDbEntity
  8
______
  6
CONTINUOUS
 62
         4
100
AcDbLine
 10
635.5060029593
 20
166.741641907
 30
0.0
 11
634.4392114937
 21
167.5565602035
 31
0.0
  0
LINE
  5
EF
100
AcDbEntity
  8
______
  6
CONTINUOUS
 62
         4
100
AcDbLine
 10
616.4559648592
 20
167.5565602035
 30
0.0
 11
617.5227563248
 21
168.3714785
 31
0.0
  0
LINE
  5
F0
100
AcDbEntity
  8
______
  6
CONTINUOUS
 62
         4
100
AcDbLine
 10
617.5227563248
 20
166.741641907
 30
0.0
 11
616.4559648592
 21
167.5565602035
 31
0.0
  0
LINE
  5
F1
100
AcDbEntity
  8
______
  6
CONTINUOUS
 62
         4
100
AcDbLine
 10
635.5060029593
 20
163.4819687209
 30
0.0
 11
618.3376746213
 21
163.4819687209
 31
0.0
  0
LINE
  5
F2
100
AcDbEntity
  8
______
  6
CONTINUOUS
 62
         4
100
AcDbLine
 10
634.4392114937
 20
164.2968870175
 30
0.0
 11
618.3376746213
 21
163.4819687209
 31
0.0
  0
LINE
  5
F3
100
AcDbEntity
  8
______
  6
CONTINUOUS
 62
         4
100
AcDbLine
 10
635.5060029593
 20
165.111805314
 30
0.0
 11
616.4559648592
 21
164.2968870175
 31
0.0
  0
LINE
  5
F4
100
AcDbEntity
  8
______
  6
CONTINUOUS
 62
         4
100
AcDbLine
 10
634.4392114937
 20
164.2968870175
 30
0.0
 11
635.5060029593
 21
163.4819687209
 31
0.0
  0
LINE
  5
F5
100
AcDbEntity
  8
______
  6
CONTINUOUS
 62
         4
100
AcDbLine
 10
635.5060029593
 20
165.111805314
 30
0.0
 11
634.4392114937
 21
164.2968870175
 31
0.0
  0
LINE
  5
F6
100
AcDbEntity
  8
______
  6
CONTINUOUS
 62
         4
100
AcDbLine
 10
617.5227563248
 20
165.111805314
 30
0.0
 11
616.4559648592
 21
164.2968870175
 31
0.0
  0
LINE
  5
F7
100
AcDbEntity
  8
______
  6
CONTINUOUS
 62
         4
100
AcDbLine
 10
634.4392114937
 20
165.9267236105
 30
0.0
 11
617.5227563248
 21
165.111805314
 31
0.0
  0
LINE
  5
F8
100
AcDbEntity
  8
______
  6
CONTINUOUS
 62
         4
100
AcDbLine
 10
635.5060029593
 20
166.741641907
 30
0.0
 11
616.4559648592
 21
165.9267236105
 31
0.0
  0
LINE
  5
F9
100
AcDbEntity
  8
______
  6
CONTINUOUS
 62
         4
100
AcDbLine
 10
634.4392114937
 20
165.9267236105
 30
0.0
 11
635.5060029593
 21
166.741641907
 31
0.0
  0
LINE
  5
FA
100
AcDbEntity
  8
______
  6
CONTINUOUS
 62
         4
100
AcDbLine
 10
635.5060029593
 20
165.111805314
 30
0.0
 11
634.4392114937
 21
165.9267236105
 31
0.0
  0
LINE
  5
FB
100
AcDbEntity
  8
______
  6
CONTINUOUS
 62
         4
100
AcDbLine
 10
616.4559648592
 20
165.9267236105
 30
0.0
 11
617.5227563248
 21
166.741641907
 31
0.0
  0
LINE
  5
FC
100
AcDbEntity
  8
______
  6
CONTINUOUS
 62
         4
100
AcDbLine
 10
617.5227563248
 20
165.111805314
 30
0.0
 11
616.4559648592
 21
165.9267236105
 31
0.0
  0
LINE
  5
FD
100
AcDbEntity
  8
______
  6
CONTINUOUS
 62
         4
100
AcDbLine
 10
616.4559648592
 20
163.4819687209
 30
0.0
 11
616.4559648592
 21
164.2968870175
 31
0.0
  0
LINE
  5
FE
100
AcDbEntity
  8
______
  6
CONTINUOUS
 62
         4
100
AcDbLine
 10
617.5227563248
 20
162.6818671207
 30
0.0
 11
616.4559648592
 21
163.4819687209
 31
0.0
  0
LINE
  5
FF
100
AcDbEntity
  8
______
  6
CONTINUOUS
 62
         4
100
AcDbLine
 10
634.4392114937
 20
162.6818671207
 30
0.0
 11
635.5060029593
 21
163.4819687209
 31
0.0
  0
LINE
  5
100
100
AcDbEntity
  8
______
  6
CONTINUOUS
 62
         4
100
AcDbLine
 10
635.5060029593
 20
163.4819687209
 30
0.0
 11
616.4559648592
 21
163.4819687209
 31
0.0
  0
LINE
  5
101
100
AcDbEntity
  8
______
  6
CONTINUOUS
 62
         4
100
AcDbLine
 10
634.4392114937
 20
162.6818671207
 30
0.0
 11
617.5227563248
 21
162.6818671207
 31
0.0
  0
LINE
  5
102
100
AcDbEntity
  8
______
  6
CONTINUOUS
 62
         7
100
AcDbLine
 10
424.6599019265
 20
231.5201197169
 30
0.0
 11
424.6599019265
 21
208.7951197169
 31
0.0
  0
LINE
  5
103
100
AcDbEntity
  8
______
  6
CONTINUOUS
 62
         7
100
AcDbLine
 10
425.5599019265
 20
222.6133917012
 30
0.0
 11
425.5599019265
 21
256.5268477327
 31
0.0
  0
LINE
  5
104
100
AcDbEntity
  8
______
  6
CONTINUOUS
 62
         7
100
AcDbLine
 10
451.5599019265
 20
222.6133917012
 30
0.0
 11
425.5599019265
 21
222.6133917012
 31
0.0
  0
LINE
  5
105
100
AcDbEntity
  8
______
  6
CONTINUOUS
 62
         7
100
AcDbLine
 10
451.5599019265
 20
256.5268477327
 30
0.0
 11
425.5599019265
 21
256.5268477327
 31
0.0
  0
LINE
  5
106
100
AcDbEntity
  8
______
  6
DASHED
 62
         2
100
AcDbLine
 10
435.7099019265
 20
231.5201197169
 30
0.0
 11
425.5599019265
 21
231.5201197169
 31
0.0
  0
LINE
  5
107
100
AcDbEntity
  8
______
  6
DASHED
 62
         2
100
AcDbLine
 10
435.7099019265
 20
247.6201197169
 30
0.0
 11
425.5599019265
 21
247.6201197169
 31
0.0
  0
ARC
  5
108
100
AcDbEntity
  8
______
  6
CONTINUOUS
 62
         7
100
AcDbCircle
 10
409.7599019265
 20
208.7951197169
 30
0.0
 40
1.0
100
AcDbArc
 50
180.0
 51
270.0
  0
ARC
  5
109
100
AcDbEntity
  8
______
  6
CONTINUOUS
 62
         7
100
AcDbCircle
 10
423.6599019265
 20
208.7951197169
 30
0.0
 40
1.0
100
AcDbArc
 50
270.0
 51
360.0
  0
ARC
  5
10A
100
AcDbEntity
  8
______
  6
CONTINUOUS
 62
         7
100
AcDbCircle
 10
423.6599019265
 20
270.3451197169
 30
0.0
 40
1.0
100
AcDbArc
 50
0.0
 51
90.0
  0
ARC
  5
10B
100
AcDbEntity
  8
______
  6
CONTINUOUS
 62
         7
100
AcDbCircle
 10
409.7599019265
 20
270.3451197169
 30
0.0
 40
1.0
100
AcDbArc
 50
90.0
 51
180.0
  0
LINE
  5
10C
100
AcDbEntity
  8
______
  6
DASHED
 62
         2
100
AcDbLine
 10
606.0477773222
 20
230.0201197169
 30
0.0
 11
605.1477773222
 21
230.9201197169
 31
0.0
  0
LINE
  5
10D
100
AcDbEntity
  8
______
  6
DASHED
 62
         2
100
AcDbLine
 10
606.0477773222
 20
230.0201197169
 30
0.0
 11
596.3289888179
 21
230.0201197169
 31
0.0
  0
LINE
  5
10E
100
AcDbEntity
  8
______
  6
DASHED
 62
         2
100
AcDbLine
 10
606.0477773222
 20
231.6260344358
 30
0.0
 11
606.0477773222
 21
230.0201197169
 31
0.0
  0
LINE
  5
10F
100
AcDbEntity
  8
______
  6
DASHED
 62
         2
100
AcDbLine
 10
610.9466426606
 20
231.1260344357
 30
0.0
 11
606.8327773222
 21
231.1260344357
 31
0.0
  0
LINE
  5
110
100
AcDbEntity
  8
______
  6
DASHED
 62
         2
100
AcDbLine
 10
611.0654381451
 20
231.5201197169
 30
0.0
 11
606.9477773222
 21
231.5201197169
 31
0.0
  0
LINE
  5
111
100
AcDbEntity
  8
______
  6
DASHED
 62
         2
100
AcDbLine
 10
610.9466426606
 20
248.0142049981
 30
0.0
 11
606.5477773222
 21
248.0142049981
 31
0.0
  0
LINE
  5
112
100
AcDbEntity
  8
______
  6
DASHED
 62
         2
100
AcDbLine
 10
611.0654381451
 20
247.6201197169
 30
0.0
 11
606.9477773222
 21
247.6201197169
 31
0.0
  0
ARC
  5
113
100
AcDbEntity
  8
______
  6
CONTINUOUS
 62
         7
100
AcDbCircle
 10
583.6477773222
 20
239.5701197169
 30
0.0
 40
28.575
100
AcDbArc
 50
216.3994602496
 51
503.6005397504
  0
LINE
  5
114
100
AcDbEntity
  8
______
  6
DASHED
 62
         2
100
AcDbLine
 10
606.0477773222
 20
247.5142049981
 30
0.0
 11
606.0477773222
 21
249.1201197169
 31
0.0
  0
LINE
  5
115
100
AcDbEntity
  8
______
  6
DASHED
 62
         2
100
AcDbLine
 10
606.0477773222
 20
249.1201197169
 30
0.0
 11
605.1477773222
 21
248.2201197169
 31
0.0
  0
LINE
  5
116
100
AcDbEntity
  8
______
  6
DASHED
 62
         2
100
AcDbLine
 10
605.1477773222
 20
248.2201197169
 30
0.0
 11
605.1477773222
 21
230.9201197169
 31
0.0
  0
LINE
  5
117
100
AcDbEntity
  8
______
  6
DASHED
 62
         2
100
AcDbLine
 10
605.1477773222
 20
230.9201197169
 30
0.0
 11
596.9591681211
 21
230.9201197169
 31
0.0
  0
LINE
  5
118
100
AcDbEntity
  8
______
  6
DASHED
 62
         2
100
AcDbLine
 10
605.1477773222
 20
248.2201197169
 30
0.0
 11
596.9591681211
 21
248.2201197169
 31
0.0
  0
LINE
  5
119
100
AcDbEntity
  8
______
  6
DASHED
 62
         2
100
AcDbLine
 10
606.0477773222
 20
249.1201197169
 30
0.0
 11
596.3289888179
 21
249.1201197169
 31
0.0
  0
CIRCLE
  5
11A
100
AcDbEntity
  8
______
  6
CONTINUOUS
 62
         7
100
AcDbCircle
 10
583.6477773222
 20
239.5701197169
 30
0.0
 40
15.875
  0
CIRCLE
  5
11B
100
AcDbEntity
  8
______
  6
CONTINUOUS
 62
         7
100
AcDbCircle
 10
583.6477773222
 20
239.5701197169
 30
0.0
 40
16.375
  0
LINE
  5
11C
100
AcDbEntity
  8
______
  6
CONTINUOUS
 62
         7
100
AcDbLine
 10
559.0477773222
 20
231.6260344357
 30
0.0
 11
558.5477773222
 21
231.1260344357
 31
0.0
  0
LINE
  5
11D
100
AcDbEntity
  8
______
  6
CONTINUOUS
 62
         7
100
AcDbLine
 10
553.0153100895
 20
231.1260344357
 30
0.0
 11
558.5477773222
 21
231.1260344357
 31
0.0
  0
LINE
  5
11E
100
AcDbEntity
  8
______
  6
CONTINUOUS
 62
         7
100
AcDbLine
 10
553.4093953706
 20
231.5201197169
 30
0.0
 11
558.1477773222
 21
231.5201197169
 31
0.0
  0
LINE
  5
11F
100
AcDbEntity
  8
______
  6
CONTINUOUS
 62
         7
100
AcDbLine
 10
553.0153100895
 20
231.1260344357
 30
0.0
 11
553.4093953706
 21
231.5201197169
 31
0.0
  0
LINE
  5
120
100
AcDbEntity
  8
______
  6
CONTINUOUS
 62
         7
100
AcDbLine
 10
558.6477773222
 20
232.0201197169
 30
0.0
 11
558.1477773222
 21
231.5201197169
 31
0.0
  0
LINE
  5
121
100
AcDbEntity
  8
______
  6
CONTINUOUS
 62
         7
100
AcDbLine
 10
559.0477773222
 20
247.5142049981
 30
0.0
 11
558.5477773222
 21
248.0142049981
 31
0.0
  0
LINE
  5
122
100
AcDbEntity
  8
______
  6
CONTINUOUS
 62
         7
100
AcDbLine
 10
553.0153100895
 20
248.0142049981
 30
0.0
 11
553.4093953706
 21
247.6201197169
 31
0.0
  0
LINE
  5
123
100
AcDbEntity
  8
______
  6
CONTINUOUS
 62
         7
100
AcDbLine
 10
558.6477773222
 20
247.1201197169
 30
0.0
 11
558.1477773222
 21
247.6201197169
 31
0.0
  0
LINE
  5
124
100
AcDbEntity
  8
______
  6
CONTINUOUS
 62
         7
100
AcDbLine
 10
558.6477773222
 20
247.1201197169
 30
0.0
 11
558.6477773222
 21
232.0201197169
 31
0.0
  0
LINE
  5
125
100
AcDbEntity
  8
______
  6
CONTINUOUS
 62
         7
100
AcDbLine
 10
553.4093953706
 20
247.6201197169
 30
0.0
 11
558.1477773222
 21
247.6201197169
 31
0.0
  0
LINE
  5
126
100
AcDbEntity
  8
______
  6
CONTINUOUS
 62
         7
100
AcDbLine
 10
553.0153100895
 20
248.0142049981
 30
0.0
 11
558.5477773222
 21
248.0142049981
 31
0.0
  0
LINE
  5
127
100
AcDbEntity
  8
______
  6
DASHED
 62
         2
100
AcDbLine
 10
606.0477773222
 20
247.5142049981
 30
0.0
 11
606.5477773222
 21
248.0142049981
 31
0.0
  0
LINE
  5
128
100
AcDbEntity
  8
______
  6
DASHED
 62
         2
100
AcDbLine
 10
606.0477773222
 20
231.6260344357
 30
0.0
 11
606.5477773222
 21
231.1260344357
 31
0.0
  0
LINE
  5
129
100
AcDbEntity
  8
______
  6
CONTINUOUS
 62
         7
100
AcDbLine
 10
614.2802445549
 20
231.1260344357
 30
0.0
 11
613.8861592738
 21
231.5201197169
 31
0.0
  0
LINE
  5
12A
100
AcDbEntity
  8
______
  6
DASHED
 62
         2
100
AcDbLine
 10
606.4477773222
 20
232.0201197169
 30
0.0
 11
606.9477773222
 21
231.5201197169
 31
0.0
  0
LINE
  5
12B
100
AcDbEntity
  8
______
  6
CONTINUOUS
 62
         7
100
AcDbLine
 10
611.0654381451
 20
231.5201197169
 30
0.0
 11
613.8861592738
 21
231.5201197169
 31
0.0
  0
LINE
  5
12C
100
AcDbEntity
  8
______
  6
CONTINUOUS
 62
         7
100
AcDbLine
 10
614.2802445549
 20
231.1260344357
 30
0.0
 11
610.9466426606
 21
231.1260344357
 31
0.0
  0
LINE
  5
12D
100
AcDbEntity
  8
______
  6
DASHED
 62
         2
100
AcDbLine
 10
606.0477773222
 20
247.5142049981
 30
0.0
 11
606.0477773222
 21
231.6260344357
 31
0.0
  0
LINE
  5
12E
100
AcDbEntity
  8
______
  6
CONTINUOUS
 62
         7
100
AcDbLine
 10
614.2802445549
 20
248.0142049981
 30
0.0
 11
613.8861592738
 21
247.6201197169
 31
0.0
  0
LINE
  5
12F
100
AcDbEntity
  8
______
  6
CONTINUOUS
 62
         7
100
AcDbLine
 10
611.0654381451
 20
247.6201197169
 30
0.0
 11
613.8861592738
 21
247.6201197169
 31
0.0
  0
LINE
  5
130
100
AcDbEntity
  8
______
  6
CONTINUOUS
 62
         7
100
AcDbLine
 10
614.2802445549
 20
248.0142049981
 30
0.0
 11
610.9466426606
 21
248.0142049981
 31
0.0
  0
LINE
  5
131
100
AcDbEntity
  8
______
  6
DASHED
 62
         2
100
AcDbLine
 10
606.4477773222
 20
247.1201197169
 30
0.0
 11
606.9477773222
 21
247.6201197169
 31
0.0
  0
LINE
  5
132
100
AcDbEntity
  8
______
  6
DASHED
 62
         2
100
AcDbLine
 10
606.4477773222
 20
247.1201197169
 30
0.0
 11
606.4477773222
 21
232.0201197169
 31
0.0
  0
LINE
  5
133
100
AcDbEntity
  8
______
  6
CONTINUOUS
 62
         7
100
AcDbLine
 10
559.0477773222
 20
247.5142049981
 30
0.0
 11
559.0477773222
 21
231.6260344357
 31
0.0
  0
ARC
  5
134
100
AcDbEntity
  8
______
  6
DASHED
 62
         2
100
AcDbCircle
 10
583.6477773222
 20
239.5701197169
 30
0.0
 40
28.125
100
AcDbArc
 50
198.3406919436
 51
343.3680794645
  0
ARC
  5
135
100
AcDbEntity
  8
______
  6
DASHED
 62
         2
100
AcDbCircle
 10
583.6477773222
 20
239.5701197169
 30
0.0
 40
28.125
100
AcDbArc
 50
16.6319205355
 51
163.3680794645
  0
ARC
  5
136
100
AcDbEntity
  8
______
  6
CONTINUOUS
 62
         7
100
AcDbCircle
 10
583.6477773222
 20
239.5701197169
 30
0.0
 40
30.775
100
AcDbArc
 50
195.9251485826
 51
344.0748514174
  0
ARC
  5
137
100
AcDbEntity
  8
______
  6
CONTINUOUS
 62
         7
100
AcDbCircle
 10
583.6477773222
 20
239.5701197169
 30
0.0
 40
31.775
100
AcDbArc
 50
15.411296411
 51
164.588703589
  0
ARC
  5
138
100
AcDbEntity
  8
______
  6
CONTINUOUS
 62
         7
100
AcDbCircle
 10
583.6477773222
 20
239.5701197169
 30
0.0
 40
30.775
100
AcDbArc
 50
15.9251485826
 51
164.0748514174
  0
ARC
  5
139
100
AcDbEntity
  8
______
  6
CONTINUOUS
 62
         7
100
AcDbCircle
 10
583.6477773222
 20
239.5701197169
 30
0.0
 40
31.775
100
AcDbArc
 50
195.411296411
 51
344.588703589
  0
LINE
  5
13A
100
AcDbEntity
  8
______
  6
CONTINUOUS
 62
         7
100
AcDbLine
 10
443.2599019265
 20
104.8634738984
 30
0.0
 11
443.2599019265
 21
98.9484738984
 31
0.0
  0
ARC
  5
13B
100
AcDbEntity
  8
______
  6
CONTINUOUS
 62
         7
100
AcDbCircle
 10
425.4599019265
 20
98.1484738984
 30
0.0
 40
0.8
100
AcDbArc
 50
90.0
 51
180.0
  0
LINE
  5
13C
100
AcDbEntity
  8
______
  6
CONTINUOUS
 62
         7
100
AcDbLine
 10
425.4599019265
 20
98.9484738984
 30
0.0
 11
450.7314748018
 21
98.9484738984
 31
0.0
  0
LINE
  5
13D
100
AcDbEntity
  8
______
  6
CONTINUOUS
 62
         7
100
AcDbLine
 10
408.7599019265
 20
104.8634738984
 30
0.0
 11
443.2599019265
 21
104.8634738984
 31
0.0
  0
ARC
  5
13E
100
AcDbEntity
  8
______
  6
CONTINUOUS
 62
         7
100
AcDbCircle
 10
453.5599019265
 20
109.5884738984
 30
0.0
 40
2.0
100
AcDbArc
 50
72.5714331305
 51
90.0
  0
ARC
  5
13F
100
AcDbEntity
  8
______
  6
CONTINUOUS
 62
         7
100
AcDbCircle
 10
453.5599019265
 20
109.5884738984
 30
0.0
 40
2.0
100
AcDbArc
 50
0.0
 51
47.4285668695
  0
LINE
  5
140
100
AcDbEntity
  8
______
  6
CONTINUOUS
 62
         7
100
AcDbLine
 10
454.9129196824
 20
111.0613428513
 30
0.0
 11
454.1589349783
 21
111.4966561231
 31
0.0
  0
ARC
  5
141
100
AcDbEntity
  8
______
  6
CONTINUOUS
 62
         7
100
AcDbCircle
 10
453.5599019265
 20
145.3384738984
 30
0.0
 40
2.0
100
AcDbArc
 50
312.5714331305
 51
360.0
  0
LINE
  5
142
100
AcDbEntity
  8
______
  6
CONTINUOUS
 62
         7
100
AcDbLine
 10
454.9129196824
 20
143.8656049455
 30
0.0
 11
454.1589349783
 21
143.4302916736
 31
0.0
  0
LINE
  5
143
100
AcDbEntity
  8
______
  6
CONTINUOUS
 62
         4
100
AcDbLine
 10
453.5599019265
 20
143.3384738984
 30
0.0
 11
453.5599019265
 21
111.5884738984
 31
0.0
  0
ARC
  5
144
100
AcDbEntity
  8
______
  6
CONTINUOUS
 62
         7
100
AcDbCircle
 10
453.5599019265
 20
145.3384738984
 30
0.0
 40
2.0
100
AcDbArc
 50
270.0
 51
287.4285668695
  0
LINE
  5
145
100
AcDbEntity
  8
______
  6
CONTINUOUS
 62
         7
100
AcDbLine
 10
440.2249019265
 20
104.8634738984
 30
0.0
 11
438.2099019265
 21
106.8784738984
 31
0.0
  0
LINE
  5
146
100
AcDbEntity
  8
______
  6
CONTINUOUS
 62
         7
100
AcDbLine
 10
420.9099019265
 20
106.8784738984
 30
0.0
 11
418.8949019265
 21
104.8634738984
 31
0.0
  0
LINE
  5
147
100
AcDbEntity
  8
______
  6
CONTINUOUS
 62
         7
100
AcDbLine
 10
438.2099019265
 20
106.8784738984
 30
0.0
 11
420.9099019265
 21
106.8784738984
 31
0.0
  0
LINE
  5
148
100
AcDbEntity
  8
______
  6
CONTINUOUS
 62
         7
100
AcDbLine
 10
420.9099019265
 20
106.8784738984
 30
0.0
 11
420.9099019265
 21
111.5884738984
 31
0.0
  0
LINE
  5
149
100
AcDbEntity
  8
______
  6
CONTINUOUS
 62
         7
100
AcDbLine
 10
438.2099019265
 20
106.8784738984
 30
0.0
 11
438.2099019265
 21
111.5884738984
 31
0.0
  0
LINE
  5
14A
100
AcDbEntity
  8
______
  6
CONTINUOUS
 62
         4
100
AcDbLine
 10
439.1099019265
 20
105.9784738984
 30
0.0
 11
439.1099019265
 21
111.5884738984
 31
0.0
  0
LINE
  5
14B
100
AcDbEntity
  8
______
  6
CONTINUOUS
 62
         4
100
AcDbLine
 10
420.0099019265
 20
105.9784738984
 30
0.0
 11
420.0099019265
 21
111.5884738984
 31
0.0
  0
LINE
  5
14C
100
AcDbEntity
  8
______
  6
CENTER
 62
         1
100
AcDbLine
 10
429.5599019265
 20
90.295648003
 30
0.0
 11
429.5599019265
 21
115.2145960022
 31
0.0
  0
LINE
  5
14D
100
AcDbEntity
  8
______
  6
CONTINUOUS
 62
         7
100
AcDbLine
 10
398.5599019265
 20
111.0884738984
 30
0.0
 11
393.5599019265
 21
111.0884738984
 31
0.0
  0
LINE
  5
14E
100
AcDbEntity
  8
______
  6
CONTINUOUS
 62
         7
100
AcDbLine
 10
398.5599019265
 20
143.8384738984
 30
0.0
 11
393.5599019265
 21
143.8384738984
 31
0.0
  0
LINE
  5
14F
100
AcDbEntity
  8
______
  6
CONTINUOUS
 62
         7
100
AcDbLine
 10
453.5599019265
 20
111.5884738984
 30
0.0
 11
398.5599019265
 21
111.5884738984
 31
0.0
  0
LINE
  5
150
100
AcDbEntity
  8
______
  6
CONTINUOUS
 62
         7
100
AcDbLine
 10
453.5599019265
 20
143.3384738984
 30
0.0
 11
398.5599019265
 21
143.3384738984
 31
0.0
  0
LINE
  5
151
100
AcDbEntity
  8
______
  6
CONTINUOUS
 62
         7
100
AcDbLine
 10
393.5599019265
 20
111.0884738984
 30
0.0
 11
393.5599019265
 21
143.8384738984
 31
0.0
  0
LINE
  5
152
100
AcDbEntity
  8
______
  6
CONTINUOUS
 62
         7
100
AcDbLine
 10
398.5599019265
 20
111.0884738984
 30
0.0
 11
398.5599019265
 21
143.8384738984
 31
0.0
  0
LINE
  5
153
100
AcDbEntity
  8
______
  6
CONTINUOUS
 62
         7
100
AcDbLine
 10
455.5599019265
 20
103.7769010231
 30
0.0
 11
455.5599019265
 21
150.337416899
 31
0.0
  0
LINE
  5
154
100
AcDbEntity
  8
______
  6
CONTINUOUS
 62
         7
100
AcDbLine
 10
424.1599019265
 20
95.6884738982
 30
0.0
 11
424.6599019265
 21
96.1884738982
 31
0.0
  0
LINE
  5
155
100
AcDbEntity
  8
______
  6
CONTINUOUS
 62
         7
100
AcDbLine
 10
408.7599019265
 20
96.1884738982
 30
0.0
 11
409.2599019265
 21
95.6884738982
 31
0.0
  0
LINE
  5
156
100
AcDbEntity
  8
______
  6
CONTINUOUS
 62
         7
100
AcDbLine
 10
424.1599019265
 20
159.2384738985
 30
0.0
 11
424.6599019265
 21
158.7384738985
 31
0.0
  0
LINE
  5
157
100
AcDbEntity
  8
______
  6
CONTINUOUS
 62
         7
100
AcDbLine
 10
408.7599019265
 20
158.7384738985
 30
0.0
 11
409.2599019265
 21
159.2384738985
 31
0.0
  0
LINE
  5
158
100
AcDbEntity
  8
______
  6
CONTINUOUS
 62
         7
100
AcDbLine
 10
406.7599019265
 20
105.0634738982
 30
0.0
 11
407.5063120881
 21
105.2634738982
 31
0.0
  0
LINE
  5
159
100
AcDbEntity
  8
______
  6
CONTINUOUS
 62
         7
100
AcDbLine
 10
407.5063120881
 20
105.2634738984
 30
0.0
 11
408.1599019265
 21
105.2634738984
 31
0.0
  0
ARC
  5
15A
100
AcDbEntity
  8
______
  6
CONTINUOUS
 62
         7
100
AcDbCircle
 10
408.1599019265
 20
104.6634738984
 30
0.0
 40
0.6
100
AcDbArc
 50
0.0
 51
90.0
  0
LINE
  5
15B
100
AcDbEntity
  8
______
  6
CONTINUOUS
 62
         7
100
AcDbLine
 10
408.7599019265
 20
104.6634738982
 30
0.0
 11
408.7599019265
 21
96.1884738982
 31
0.0
  0
LINE
  5
15C
100
AcDbEntity
  8
______
  6
CONTINUOUS
 62
         7
100
AcDbLine
 10
409.2599019265
 20
95.6884738982
 30
0.0
 11
413.1236315277
 21
95.6884738982
 31
0.0
  0
LINE
  5
15D
100
AcDbEntity
  8
______
  6
CONTINUOUS
 62
         7
100
AcDbLine
 10
414.7849019265
 20
98.5658786342
 30
0.0
 11
413.1236315278
 21
95.6884738984
 31
0.0
  0
ARC
  5
15E
100
AcDbEntity
  8
______
  6
CONTINUOUS
 62
         7
100
AcDbCircle
 10
415.7587022583
 20
98.3384738984
 30
0.0
 40
1.0
100
AcDbArc
 50
90.0
 51
166.8556743105
  0
LINE
  5
15F
100
AcDbEntity
  8
______
  6
CONTINUOUS
 62
         7
100
AcDbLine
 10
415.7587022583
 20
99.3384738984
 30
0.0
 11
417.5611015948
 21
99.3384738984
 31
0.0
  0
ARC
  5
160
100
AcDbEntity
  8
______
  6
CONTINUOUS
 62
         7
100
AcDbCircle
 10
417.5611015948
 20
98.3384738982
 30
0.0
 40
1.0
100
AcDbArc
 50
13.1443256895
 51
90.0
  0
LINE
  5
161
100
AcDbEntity
  8
______
  6
CONTINUOUS
 62
         7
100
AcDbLine
 10
418.5349019265
 20
98.5658786342
 30
0.0
 11
420.1961723253
 21
95.6884738984
 31
0.0
  0
LINE
  5
162
100
AcDbEntity
  8
______
  6
CONTINUOUS
 62
         7
100
AcDbLine
 10
420.1961723253
 20
95.6884738984
 30
0.0
 11
423.6599019265
 21
95.6884738984
 31
0.0
  0
LINE
  5
163
100
AcDbEntity
  8
______
  6
CONTINUOUS
 62
         7
100
AcDbLine
 10
420.1961723253
 20
95.6884738982
 30
0.0
 11
424.1599019265
 21
95.6884738982
 31
0.0
  0
LINE
  5
164
100
AcDbEntity
  8
______
  6
CONTINUOUS
 62
         7
100
AcDbLine
 10
424.6599019265
 20
98.1484738984
 30
0.0
 11
424.6599019265
 21
96.1884738982
 31
0.0
  0
LINE
  5
165
100
AcDbEntity
  8
______
  6
CONTINUOUS
 62
         7
100
AcDbLine
 10
415.7587022583
 20
155.5884738985
 30
0.0
 11
417.5611015948
 21
155.5884738985
 31
0.0
  0
ARC
  5
166
100
AcDbEntity
  8
______
  6
CONTINUOUS
 62
         7
100
AcDbCircle
 10
415.7587022583
 20
156.5884738985
 30
0.0
 40
1.0
100
AcDbArc
 50
193.1443257074
 51
270.0
  0
LINE
  5
167
100
AcDbEntity
  8
______
  6
CONTINUOUS
 62
         7
100
AcDbLine
 10
424.6599019265
 20
158.7384738985
 30
0.0
 11
424.6599019265
 21
156.7784738984
 31
0.0
  0
LINE
  5
168
100
AcDbEntity
  8
______
  6
CONTINUOUS
 62
         7
100
AcDbLine
 10
420.1961723253
 20
159.2384738985
 30
0.0
 11
424.1599019265
 21
159.2384738985
 31
0.0
  0
LINE
  5
169
100
AcDbEntity
  8
______
  6
CONTINUOUS
 62
         7
100
AcDbLine
 10
418.5349019265
 20
156.3610691627
 30
0.0
 11
420.1961723253
 21
159.2384738985
 31
0.0
  0
ARC
  5
16A
100
AcDbEntity
  8
______
  6
CONTINUOUS
 62
         7
100
AcDbCircle
 10
417.5611015948
 20
156.5884738985
 30
0.0
 40
1.0
100
AcDbArc
 50
270.0
 51
346.8556743106
  0
LINE
  5
16B
100
AcDbEntity
  8
______
  6
CONTINUOUS
 62
         7
100
AcDbLine
 10
414.7849019266
 20
156.3610691624
 30
0.0
 11
413.1236315276
 21
159.2384738985
 31
0.0
  0
LINE
  5
16C
100
AcDbEntity
  8
______
  6
CONTINUOUS
 62
         7
100
AcDbLine
 10
409.7599019265
 20
159.2384738984
 30
0.0
 11
413.1236315278
 21
159.2384738984
 31
0.0
  0
LINE
  5
16D
100
AcDbEntity
  8
______
  6
CONTINUOUS
 62
         7
100
AcDbLine
 10
409.2599019265
 20
159.2384738985
 30
0.0
 11
413.1236315276
 21
159.2384738985
 31
0.0
  0
LINE
  5
16E
100
AcDbEntity
  8
______
  6
CONTINUOUS
 62
         7
100
AcDbLine
 10
408.7599019265
 20
150.2634738984
 30
0.0
 11
408.7599019265
 21
158.7384738985
 31
0.0
  0
LINE
  5
16F
100
AcDbEntity
  8
______
  6
CONTINUOUS
 62
         7
100
AcDbLine
 10
338.1867336549
 20
115.0637276046
 30
0.0
 11
406.759901927
 21
105.0634738983
 31
0.0
  0
ARC
  5
170
100
AcDbEntity
  8
______
  6
CONTINUOUS
 62
         7
100
AcDbCircle
 10
425.4599019265
 20
156.7784738984
 30
0.0
 40
0.8
100
AcDbArc
 50
180.0
 51
270.0
  0
LINE
  5
171
100
AcDbEntity
  8
______
  6
CONTINUOUS
 62
         7
100
AcDbLine
 10
425.4599019265
 20
155.9784738984
 30
0.0
 11
425.5599019265
 21
155.9784738984
 31
0.0
  0
LINE
  5
172
100
AcDbEntity
  8
______
  6
CONTINUOUS
 62
         7
100
AcDbLine
 10
343.062744639
 20
134.4634738984
 30
0.0
 11
343.062744639
 21
120.4634738984
 31
0.0
  0
LINE
  5
173
100
AcDbEntity
  8
______
  6
CONTINUOUS
 62
         7
100
AcDbLine
 10
341.8713232828
 20
119.2720525421
 30
0.0
 11
343.062744639
 21
120.4634738984
 31
0.0
  0
LINE
  5
174
100
AcDbEntity
  8
______
  6
CONTINUOUS
 62
         7
100
AcDbLine
 10
337.1599019265
 20
138.6757806148
 30
0.0
 11
337.1599019265
 21
116.2511671819
 31
0.0
  0
LINE
  5
175
100
AcDbEntity
  8
______
  6
CONTINUOUS
 62
         7
100
AcDbLine
 10
365.6099019265
 20
135.4634738984
 30
0.0
 11
365.6099019265
 21
119.4634738984
 31
0.0
  0
LINE
  5
176
100
AcDbEntity
  8
______
  6
CONTINUOUS
 62
         7
100
AcDbLine
 10
337.1599019265
 20
135.6134738984
 30
0.0
 11
337.1599019265
 21
116.2511671819
 31
0.0
  0
LINE
  5
177
100
AcDbEntity
  8
______
  6
CONTINUOUS
 62
         7
100
AcDbLine
 10
341.9299019265
 20
135.2569967391
 30
0.0
 11
341.9299019265
 21
119.7847205629
 31
0.0
  0
ARC
  5
178
100
AcDbEntity
  8
______
  6
CONTINUOUS
 62
         7
100
AcDbCircle
 10
338.3599019265
 20
116.2511671819
 30
0.0
 40
1.2
100
AcDbArc
 50
180.0
 51
261.7028550302
  0
ARC
  5
179
100
AcDbEntity
  8
______
  6
CONTINUOUS
 62
         7
100
AcDbCircle
 10
338.3599019265
 20
138.6757806148
 30
0.0
 40
1.2
100
AcDbArc
 50
98.2971449698
 51
180.0
  0
LINE
  5
17A
100
AcDbEntity
  8
______
  6
CENTER
 62
         1
100
AcDbLine
 10
334.1121689511
 20
127.4634738984
 30
0.0
 11
456.8225068277
 21
127.4634738984
 31
0.0
  0
LINE
  5
17B
100
AcDbEntity
  8
______
  6
CONTINUOUS
 62
         5
100
AcDbLine
 10
342.062744639
 20
135.4634738984
 30
0.0
 11
365.6099019265
 21
135.4634738984
 31
0.0
  0
LINE
  5
17C
100
AcDbEntity
  8
______
  6
CONTINUOUS
 62
         7
100
AcDbLine
 10
343.062744639
 20
134.4634738984
 30
0.0
 11
393.5599019265
 21
134.4634738984
 31
0.0
  0
LINE
  5
17D
100
AcDbEntity
  8
______
  6
CONTINUOUS
 62
         7
100
AcDbLine
 10
343.062744639
 20
120.4634738984
 30
0.0
 11
393.5599019265
 21
120.4634738984
 31
0.0
  0
LINE
  5
17E
100
AcDbEntity
  8
______
  6
CONTINUOUS
 62
         5
100
AcDbLine
 10
342.062744639
 20
119.4634738984
 30
0.0
 11
365.6099019265
 21
119.4634738984
 31
0.0
  0
LINE
  5
17F
100
AcDbEntity
  8
______
  6
CONTINUOUS
 62
         7
100
AcDbLine
 10
338.1867336549
 20
139.8632201921
 30
0.0
 11
406.7599019265
 21
149.8634738984
 31
0.0
  0
ARC
  5
180
100
AcDbEntity
  8
______
  6
CONTINUOUS
 62
         7
100
AcDbCircle
 10
408.1599019265
 20
150.2634738984
 30
0.0
 40
0.6
100
AcDbArc
 50
270.0
 51
360.0
  0
LINE
  5
181
100
AcDbEntity
  8
______
  6
CONTINUOUS
 62
         7
100
AcDbLine
 10
406.7599019265
 20
149.8634738984
 30
0.0
 11
407.5063120881
 21
149.6634738984
 31
0.0
  0
LINE
  5
182
100
AcDbEntity
  8
______
  6
CONTINUOUS
 62
         7
100
AcDbLine
 10
407.5063120881
 20
149.6634738984
 30
0.0
 11
408.1599019265
 21
149.6634738984
 31
0.0
  0
LINE
  5
183
100
AcDbEntity
  8
______
  6
CONTINUOUS
 62
         7
100
AcDbLine
 10
338.1599019265
 20
135.6134738984
 30
0.0
 11
340.9299019265
 21
135.6134738984
 31
0.0
  0
LINE
  5
184
100
AcDbEntity
  8
______
  6
CONTINUOUS
 62
         7
100
AcDbLine
 10
340.9299019265
 20
135.6134738984
 30
0.0
 11
340.9299019265
 21
119.3134738984
 31
0.0
  0
LINE
  5
185
100
AcDbEntity
  8
______
  6
CONTINUOUS
 62
         7
100
AcDbLine
 10
341.3294375068
 20
135.7134738984
 30
0.0
 11
341.7299019265
 21
135.7134738984
 31
0.0
  0
ARC
  5
186
100
AcDbEntity
  8
______
  6
CONTINUOUS
 62
         7
100
AcDbCircle
 10
341.7299019265
 20
135.5134738984
 30
0.0
 40
0.2
100
AcDbArc
 50
45.0000000038
 51
90.0
  0
LINE
  5
187
100
AcDbEntity
  8
______
  6
CONTINUOUS
 62
         7
100
AcDbLine
 10
341.2776736978
 20
135.7066590636
 30
0.0
 11
340.9299019265
 21
135.6134738984
 31
0.0
  0
ARC
  5
188
100
AcDbEntity
  8
______
  6
CONTINUOUS
 62
         7
100
AcDbCircle
 10
341.3294375068
 20
135.5134738984
 30
0.0
 40
0.2
100
AcDbArc
 50
90.0
 51
105.0
  0
ARC
  5
189
100
AcDbEntity
  8
______
  6
CONTINUOUS
 62
         7
100
AcDbCircle
 10
338.1599019265
 20
136.6134738984
 30
0.0
 40
1.0
100
AcDbArc
 50
180.0
 51
270.0
  0
LINE
  5
18A
100
AcDbEntity
  8
______
  6
CONTINUOUS
 62
         7
100
AcDbLine
 10
341.8713232828
 20
135.6548952546
 30
0.0
 11
343.062744639
 21
134.4634738984
 31
0.0
  0
LINE
  5
18B
100
AcDbEntity
  8
______
  6
CONTINUOUS
 62
         7
100
AcDbLine
 10
338.1599019265
 20
119.3134738984
 30
0.0
 11
340.9299019265
 21
119.3134738984
 31
0.0
  0
LINE
  5
18C
100
AcDbEntity
  8
______
  6
CONTINUOUS
 62
         7
100
AcDbLine
 10
341.3294375068
 20
119.2134738984
 30
0.0
 11
341.7299019265
 21
119.2134738984
 31
0.0
  0
ARC
  5
18D
100
AcDbEntity
  8
______
  6
CONTINUOUS
 62
         7
100
AcDbCircle
 10
341.7299019265
 20
119.4134738984
 30
0.0
 40
0.2
100
AcDbArc
 50
270.0
 51
314.9999999962
  0
LINE
  5
18E
100
AcDbEntity
  8
______
  6
CONTINUOUS
 62
         7
100
AcDbLine
 10
341.2776736978
 20
119.2202887331
 30
0.0
 11
340.9299019265
 21
119.3134738984
 31
0.0
  0
ARC
  5
18F
100
AcDbEntity
  8
______
  6
CONTINUOUS
 62
         7
100
AcDbCircle
 10
341.3294375068
 20
119.4134738984
 30
0.0
 40
0.2
100
AcDbArc
 50
255.0
 51
270.0
  0
ARC
  5
190
100
AcDbEntity
  8
______
  6
CONTINUOUS
 62
         7
100
AcDbCircle
 10
338.1599019265
 20
118.3134738984
 30
0.0
 40
1.0
100
AcDbArc
 50
90.0
 51
180.0
  0
ARC
  5
191
100
AcDbEntity
  8
______
  6
DASHED
 62
         2
100
AcDbCircle
 10
431.5599019265
 20
239.5701197169
 30
0.0
 40
9.55
100
AcDbArc
 50
285.0
 51
555.0
  0
CIRCLE
  5
192
100
AcDbEntity
  8
______
  6
DASHED
 62
         2
100
AcDbCircle
 10
431.5599019265
 20
239.5701197169
 30
0.0
 40
8.65
  0
LINE
  5
193
100
AcDbEntity
  8
______
  6
CENTER
 62
         1
100
AcDbLine
 10
431.5599019265
 20
222.5837921529
 30
0.0
 11
431.5599019265
 21
255.3345927297
 31
0.0
  0
LINE
  5
194
100
AcDbEntity
  8
______
  6
CONTINUOUS
 62
         7
100
AcDbLine
 10
455.5599019265
 20
215.8235468417
 30
0.0
 11
455.5599019265
 21
263.3166925922
 31
0.0
  0
ARC
  5
195
100
AcDbEntity
  8
______
  6
CONTINUOUS
 62
         7
100
AcDbCircle
 10
425.1599019265
 20
268.6451197169
 30
0.0
 40
0.5
100
AcDbArc
 50
180.0
 51
270.0
  0
ARC
  5
196
100
AcDbEntity
  8
______
  6
CONTINUOUS
 62
         7
100
AcDbCircle
 10
425.1599019265
 20
210.4951197169
 30
0.0
 40
0.5
100
AcDbArc
 50
90.0
 51
180.0
  0
LINE
  5
197
100
AcDbEntity
  8
______
  6
CONTINUOUS
 62
         7
100
AcDbLine
 10
425.1599019265
 20
210.9951197169
 30
0.0
 11
450.7314748018
 21
210.9951197169
 31
0.0
  0
LINE
  5
198
100
AcDbEntity
  8
______
  6
CONTINUOUS
 62
         7
100
AcDbLine
 10
425.1599019265
 20
268.1451197169
 30
0.0
 11
450.7314748018
 21
268.1451197169
 31
0.0
  0
LINE
  5
199
100
AcDbEntity
  8
______
  6
CONTINUOUS
 62
         4
100
AcDbLine
 10
424.1599019265
 20
230.7201197169
 30
0.0
 11
424.1599019265
 21
207.9290943131
 31
0.0
  0
LINE
  5
19A
100
AcDbEntity
  8
______
  6
CONTINUOUS
 62
         4
100
AcDbLine
 10
409.2599019265
 20
230.7201197169
 30
0.0
 11
409.2599019265
 21
207.9290943131
 31
0.0
  0
LINE
  5
19B
100
AcDbEntity
  8
______
  6
CONTINUOUS
 62
         4
100
AcDbLine
 10
424.1599019265
 20
271.2111451207
 30
0.0
 11
424.1599019265
 21
248.4201197169
 31
0.0
  0
LINE
  5
19C
100
AcDbEntity
  8
______
  6
CONTINUOUS
 62
         7
100
AcDbLine
 10
414.7849019265
 20
268.4677149811
 30
0.0
 11
413.1236315278
 21
271.3451197169
 31
0.0
  0
LINE
  5
19D
100
AcDbEntity
  8
______
  6
CONTINUOUS
 62
         7
100
AcDbLine
 10
425.5599019265
 20
247.6201197169
 30
0.0
 11
409.5599019265
 21
247.6201197169
 31
0.0
  0
LINE
  5
19E
100
AcDbEntity
  8
______
  6
CONTINUOUS
 62
         7
100
AcDbLine
 10
425.5599019265
 20
231.5201197169
 30
0.0
 11
409.5599019265
 21
231.5201197169
 31
0.0
  0
LINE
  5
19F
100
AcDbEntity
  8
______
  6
CONTINUOUS
 62
         7
100
AcDbLine
 10
413.1236315278
 20
248.4201197169
 30
0.0
 11
414.7849019265
 21
247.6201197169
 31
0.0
  0
LINE
  5
1A0
100
AcDbEntity
  8
______
  6
CONTINUOUS
 62
         7
100
AcDbLine
 10
414.7849019265
 20
210.6725244527
 30
0.0
 11
413.1236315278
 21
207.7951197169
 31
0.0
  0
LINE
  5
1A1
100
AcDbEntity
  8
______
  6
CONTINUOUS
 62
         7
100
AcDbLine
 10
413.1236315278
 20
230.7201197169
 30
0.0
 11
414.7849019265
 21
231.5201197169
 31
0.0
  0
LINE
  5
1A2
100
AcDbEntity
  8
______
  6
CONTINUOUS
 62
         7
100
AcDbLine
 10
409.5599019265
 20
247.6201197169
 30
0.0
 11
409.5599019265
 21
231.5201197169
 31
0.0
  0
LINE
  5
1A3
100
AcDbEntity
  8
______
  6
CONTINUOUS
 62
         7
100
AcDbLine
 10
408.7599019265
 20
270.3451197169
 30
0.0
 11
408.7599019265
 21
208.7951197169
 31
0.0
  0
LINE
  5
1A4
100
AcDbEntity
  8
______
  6
CENTER
 62
         1
100
AcDbLine
 10
405.5599019265
 20
261.7951197169
 30
0.0
 11
405.5599019265
 21
217.3451197169
 31
0.0
  0
LINE
  5
1A5
100
AcDbEntity
  8
______
  6
CONTINUOUS
 62
         7
100
AcDbLine
 10
413.1236315278
 20
230.7201197169
 30
0.0
 11
413.1236315278
 21
207.7951197169
 31
0.0
  0
LINE
  5
1A6
100
AcDbEntity
  8
______
  6
CONTINUOUS
 62
         7
100
AcDbLine
 10
409.7599019265
 20
207.7951197169
 30
0.0
 11
413.1236315278
 21
207.7951197169
 31
0.0
  0
LINE
  5
1A7
100
AcDbEntity
  8
______
  6
CONTINUOUS
 62
         7
100
AcDbLine
 10
413.1236315278
 20
230.7201197169
 30
0.0
 11
408.7599019265
 21
230.7201197169
 31
0.0
  0
LINE
  5
1A8
100
AcDbEntity
  8
______
  6
CONTINUOUS
 62
         7
100
AcDbLine
 10
409.5599019265
 20
231.5201197169
 30
0.0
 11
408.7599019265
 21
230.7201197169
 31
0.0
  0
LINE
  5
1A9
100
AcDbEntity
  8
______
  6
CONTINUOUS
 62
         7
100
AcDbLine
 10
409.7599019265
 20
271.3451197169
 30
0.0
 11
413.1236315278
 21
271.3451197169
 31
0.0
  0
LINE
  5
1AA
100
AcDbEntity
  8
______
  6
CONTINUOUS
 62
         7
100
AcDbLine
 10
408.7599019265
 20
248.4201197169
 30
0.0
 11
409.5599019265
 21
247.6201197169
 31
0.0
  0
LINE
  5
1AB
100
AcDbEntity
  8
______
  6
CONTINUOUS
 62
         7
100
AcDbLine
 10
413.1236315278
 20
248.4201197169
 30
0.0
 11
408.7599019265
 21
248.4201197169
 31
0.0
  0
LINE
  5
1AC
100
AcDbEntity
  8
______
  6
CONTINUOUS
 62
         7
100
AcDbLine
 10
413.1236315278
 20
271.3451197169
 30
0.0
 11
413.1236315278
 21
248.4201197169
 31
0.0
  0
LINE
  5
1AD
100
AcDbEntity
  8
______
  6
CONTINUOUS
 62
         7
100
AcDbLine
 10
424.6599019265
 20
270.3451197169
 30
0.0
 11
424.6599019265
 21
247.6201197169
 31
0.0
  0
LINE
  5
1AE
100
AcDbEntity
  8
______
  6
CONTINUOUS
 62
         7
100
AcDbLine
 10
424.6599019265
 20
270.3451197169
 30
0.0
 11
424.6599019265
 21
264.8601197169
 31
0.0
  0
LINE
  5
1AF
100
AcDbEntity
  8
______
  6
CONTINUOUS
 62
         7
100
AcDbLine
 10
420.1961723253
 20
230.7201197169
 30
0.0
 11
420.1961723253
 21
207.7951197169
 31
0.0
  0
LINE
  5
1B0
100
AcDbEntity
  8
______
  6
CONTINUOUS
 62
         7
100
AcDbLine
 10
418.5349019265
 20
231.5201197169
 30
0.0
 11
418.5349019265
 21
210.6725244527
 31
0.0
  0
LINE
  5
1B1
100
AcDbEntity
  8
______
  6
CONTINUOUS
 62
         7
100
AcDbLine
 10
414.7849019265
 20
231.5201197169
 30
0.0
 11
414.7849019265
 21
210.6725244527
 31
0.0
  0
LINE
  5
1B2
100
AcDbEntity
  8
______
  6
CONTINUOUS
 62
         7
100
AcDbLine
 10
415.7587022583
 20
211.4451197169
 30
0.0
 11
417.5611015948
 21
211.4451197169
 31
0.0
  0
ARC
  5
1B3
100
AcDbEntity
  8
______
  6
CONTINUOUS
 62
         7
100
AcDbCircle
 10
415.7587022583
 20
210.4451197169
 30
0.0
 40
1.0
100
AcDbArc
 50
90.0
 51
166.8556743105
  0
LINE
  5
1B4
100
AcDbEntity
  8
______
  6
CONTINUOUS
 62
         7
100
AcDbLine
 10
418.5349019265
 20
210.6725244527
 30
0.0
 11
420.1961723253
 21
207.7951197169
 31
0.0
  0
ARC
  5
1B5
100
AcDbEntity
  8
______
  6
CONTINUOUS
 62
         7
100
AcDbCircle
 10
417.5611015948
 20
210.4451197169
 30
0.0
 40
1.0
100
AcDbArc
 50
13.1443256895
 51
90.0
  0
LINE
  5
1B6
100
AcDbEntity
  8
______
  6
CONTINUOUS
 62
         7
100
AcDbLine
 10
420.1961723253
 20
207.7951197169
 30
0.0
 11
423.6599019265
 21
207.7951197169
 31
0.0
  0
LINE
  5
1B7
100
AcDbEntity
  8
______
  6
CONTINUOUS
 62
         7
100
AcDbLine
 10
424.6599019265
 20
230.7201197169
 30
0.0
 11
420.1961723253
 21
230.7201197169
 31
0.0
  0
LINE
  5
1B8
100
AcDbEntity
  8
______
  6
CONTINUOUS
 62
         7
100
AcDbLine
 10
423.8599019265
 20
231.5201197169
 30
0.0
 11
424.6599019265
 21
230.7201197169
 31
0.0
  0
LINE
  5
1B9
100
AcDbEntity
  8
______
  6
CONTINUOUS
 62
         7
100
AcDbLine
 10
418.5349019265
 20
231.5201197169
 30
0.0
 11
420.1961723253
 21
230.7201197169
 31
0.0
  0
LINE
  5
1BA
100
AcDbEntity
  8
______
  6
CONTINUOUS
 62
         7
100
AcDbLine
 10
418.5349019265
 20
268.4677149811
 30
0.0
 11
420.1961723253
 21
271.3451197169
 31
0.0
  0
LINE
  5
1BB
100
AcDbEntity
  8
______
  6
CONTINUOUS
 62
         7
100
AcDbLine
 10
420.1961723253
 20
271.3451197169
 30
0.0
 11
423.6599019265
 21
271.3451197169
 31
0.0
  0
LINE
  5
1BC
100
AcDbEntity
  8
______
  6
CONTINUOUS
 62
         7
100
AcDbLine
 10
415.7587022583
 20
267.6951197169
 30
0.0
 11
417.5611015948
 21
267.6951197169
 31
0.0
  0
ARC
  5
1BD
100
AcDbEntity
  8
______
  6
CONTINUOUS
 62
         7
100
AcDbCircle
 10
415.7587022583
 20
268.6951197169
 30
0.0
 40
1.0
100
AcDbArc
 50
193.1443256895
 51
270.0
  0
ARC
  5
1BE
100
AcDbEntity
  8
______
  6
CONTINUOUS
 62
         7
100
AcDbCircle
 10
417.5611015948
 20
268.6951197169
 30
0.0
 40
1.0
100
AcDbArc
 50
270.0
 51
346.8556743105
  0
LINE
  5
1BF
100
AcDbEntity
  8
______
  6
CONTINUOUS
 62
         7
100
AcDbLine
 10
424.6599019265
 20
248.4201197169
 30
0.0
 11
423.8599019265
 21
247.6201197169
 31
0.0
  0
LINE
  5
1C0
100
AcDbEntity
  8
______
  6
CONTINUOUS
 62
         7
100
AcDbLine
 10
418.5349019265
 20
247.6201197169
 30
0.0
 11
420.1961723253
 21
248.4201197169
 31
0.0
  0
LINE
  5
1C1
100
AcDbEntity
  8
______
  6
CONTINUOUS
 62
         7
100
AcDbLine
 10
424.6599019265
 20
248.4201197169
 30
0.0
 11
420.1961723253
 21
248.4201197169
 31
0.0
  0
LINE
  5
1C2
100
AcDbEntity
  8
______
  6
CONTINUOUS
 62
         7
100
AcDbLine
 10
418.5349019265
 20
268.4677149811
 30
0.0
 11
418.5349019265
 21
247.6201197169
 31
0.0
  0
LINE
  5
1C3
100
AcDbEntity
  8
______
  6
CONTINUOUS
 62
         7
100
AcDbLine
 10
420.1961723253
 20
271.3451197169
 30
0.0
 11
420.1961723253
 21
248.4201197169
 31
0.0
  0
LINE
  5
1C4
100
AcDbEntity
  8
______
  6
CONTINUOUS
 62
         7
100
AcDbLine
 10
414.7849019265
 20
268.4677149811
 30
0.0
 11
414.7849019265
 21
247.6201197169
 31
0.0
  0
LINE
  5
1C5
100
AcDbEntity
  8
______
  6
CENTER
 62
         1
100
AcDbLine
 10
416.6599019265
 20
277.0753830177
 30
0.0
 11
416.6599019265
 21
202.0725634659
 31
0.0
  0
LINE
  5
1C6
100
AcDbEntity
  8
______
  6
CONTINUOUS
 62
         7
100
AcDbLine
 10
337.1599019265
 20
250.7824264334
 30
0.0
 11
337.1599019265
 21
228.3578130005
 31
0.0
  0
ARC
  5
1C7
100
AcDbEntity
  8
______
  6
CONTINUOUS
 62
         7
100
AcDbCircle
 10
338.3599019265
 20
228.3578130005
 30
0.0
 40
1.2
100
AcDbArc
 50
180.0
 51
261.7028550302
  0
ARC
  5
1C8
100
AcDbEntity
  8
______
  6
CONTINUOUS
 62
         7
100
AcDbCircle
 10
338.3599019265
 20
250.7824264334
 30
0.0
 40
1.2
100
AcDbArc
 50
98.2971449698
 51
180.0
  0
LINE
  5
1C9
100
AcDbEntity
  8
______
  6
CONTINUOUS
 62
         7
100
AcDbLine
 10
338.1867336549
 20
227.1703734232
 30
0.0
 11
406.7599019265
 21
217.1701197169
 31
0.0
  0
LINE
  5
1CA
100
AcDbEntity
  8
______
  6
CONTINUOUS
 62
         7
100
AcDbLine
 10
338.1867336549
 20
251.9698660106
 30
0.0
 11
406.7599019265
 21
261.9701197169
 31
0.0
  0
LINE
  5
1CB
100
AcDbEntity
  8
______
  6
CONTINUOUS
 62
         7
100
AcDbLine
 10
407.5063120881
 20
217.3701197169
 30
0.0
 11
408.1599019265
 21
217.3701197169
 31
0.0
  0
LINE
  5
1CC
100
AcDbEntity
  8
______
  6
CONTINUOUS
 62
         7
100
AcDbLine
 10
406.7599019265
 20
217.1701197169
 30
0.0
 11
407.5063120881
 21
217.3701197169
 31
0.0
  0
ARC
  5
1CD
100
AcDbEntity
  8
______
  6
CONTINUOUS
 62
         7
100
AcDbCircle
 10
408.1599019265
 20
216.7701197169
 30
0.0
 40
0.6
100
AcDbArc
 50
0.0
 51
90.0
  0
LINE
  5
1CE
100
AcDbEntity
  8
______
  6
CONTINUOUS
 62
         7
100
AcDbLine
 10
407.5063120881
 20
217.3701197169
 30
0.0
 11
407.5063120881
 21
261.7701197169
 31
0.0
  0
LINE
  5
1CF
100
AcDbEntity
  8
______
  6
CONTINUOUS
 62
         7
100
AcDbLine
 10
406.7599019265
 20
217.1701197169
 30
0.0
 11
406.7599019265
 21
261.9701197169
 31
0.0
  0
LINE
  5
1D0
100
AcDbEntity
  8
______
  6
CONTINUOUS
 62
         7
100
AcDbLine
 10
407.5063120881
 20
261.7701197169
 30
0.0
 11
408.1599019265
 21
261.7701197169
 31
0.0
  0
LINE
  5
1D1
100
AcDbEntity
  8
______
  6
CONTINUOUS
 62
         7
100
AcDbLine
 10
406.7599019265
 20
261.9701197169
 30
0.0
 11
407.5063120881
 21
261.7701197169
 31
0.0
  0
ARC
  5
1D2
100
AcDbEntity
  8
______
  6
CONTINUOUS
 62
         7
100
AcDbCircle
 10
408.1599019265
 20
262.3701197169
 30
0.0
 40
0.6
100
AcDbArc
 50
270.0
 51
360.0
  0
ARC
  5
1D3
100
AcDbEntity
  8
______
  6
DASHED
 62
         2
100
AcDbCircle
 10
435.7099019265
 20
239.5701197169
 30
0.0
 40
8.05
100
AcDbArc
 50
269.6441233048
 51
450.3558766951
  0
LINE
  5
1D4
100
AcDbEntity
  8
______
  6
CENTER
 62
         1
100
AcDbLine
 10
583.6477773222
 20
202.336615832
 30
0.0
 11
583.6477773222
 21
273.4893439531
 31
0.0
  0
ARC
  5
1D5
100
AcDbEntity
  8
______
  6
CONTINUOUS
 62
         7
100
AcDbCircle
 10
338.3599019265
 20
250.7824264334
 30
0.0
 40
1.2
100
AcDbArc
 50
98.2971449698
 51
180.0
  0
ARC
  5
1D6
100
AcDbEntity
  8
______
  6
CONTINUOUS
 62
         7
100
AcDbCircle
 10
338.3599019265
 20
228.3578130005
 30
0.0
 40
1.2
100
AcDbArc
 50
180.0
 51
261.7028550302
  0
LINE
  5
1D7
100
AcDbEntity
  8
______
  6
CENTER
 62
         1
100
AcDbLine
 10
416.6599019265
 20
277.0753830177
 30
0.0
 11
416.6599019265
 21
202.0725634659
 31
0.0
  0
LINE
  5
1D8
100
AcDbEntity
  8
______
  6
CONTINUOUS
 62
         7
100
AcDbLine
 10
406.7599019265
 20
261.9701197169
 30
0.0
 11
407.5063120881
 21
261.7701197169
 31
0.0
  0
LINE
  5
1D9
100
AcDbEntity
  8
______
  6
CONTINUOUS
 62
         7
100
AcDbLine
 10
407.5063120881
 20
261.7701197169
 30
0.0
 11
408.1599019265
 21
261.7701197169
 31
0.0
  0
LINE
  5
1DA
100
AcDbEntity
  8
______
  6
CONTINUOUS
 62
         7
100
AcDbLine
 10
413.1236315278
 20
248.4201197169
 30
0.0
 11
408.7599019265
 21
248.4201197169
 31
0.0
  0
LINE
  5
1DB
100
AcDbEntity
  8
______
  6
CONTINUOUS
 62
         7
100
AcDbLine
 10
408.7599019265
 20
248.4201197169
 30
0.0
 11
409.5599019265
 21
247.6201197169
 31
0.0
  0
LINE
  5
1DC
100
AcDbEntity
  8
______
  6
CENTER
 62
         1
100
AcDbLine
 10
405.5599019265
 20
261.7951197169
 30
0.0
 11
405.5599019265
 21
217.3451197169
 31
0.0
  0
LINE
  5
1DD
100
AcDbEntity
  8
______
  6
CONTINUOUS
 62
         7
100
AcDbLine
 10
409.5599019265
 20
247.6201197169
 30
0.0
 11
409.5599019265
 21
231.5201197169
 31
0.0
  0
ARC
  5
1DE
100
AcDbEntity
  8
______
  6
DASHED
 62
         2
100
AcDbCircle
 10
583.6477773222
 20
239.5701197169
 30
0.0
 40
28.125
100
AcDbArc
 50
16.6319205355
 51
163.3680794645
  0
LINE
  5
1DF
100
AcDbEntity
  8
______
  6
CENTER
 62
         1
100
AcDbLine
 10
555.8134195298
 20
239.5701197169
 30
0.0
 11
614.1977861015
 21
239.5701197169
 31
0.0
  0
ARC
  5
1E0
100
AcDbEntity
  8
______
  6
DASHED
 62
         2
100
AcDbCircle
 10
583.6477773222
 20
239.5701197169
 30
0.0
 40
28.125
100
AcDbArc
 50
198.3406919436
 51
343.3680794645
  0
LINE
  5
1E1
100
AcDbEntity
  8
______
  6
CONTINUOUS
 62
         7
100
AcDbLine
 10
559.0477773222
 20
247.5142049981
 30
0.0
 11
558.5477773222
 21
248.0142049981
 31
0.0
  0
LINE
  5
1E2
100
AcDbEntity
  8
______
  6
CONTINUOUS
 62
         7
100
AcDbLine
 10
558.6477773222
 20
247.1201197169
 30
0.0
 11
558.1477773222
 21
247.6201197169
 31
0.0
  0
LINE
  5
1E3
100
AcDbEntity
  8
______
  6
CONTINUOUS
 62
         7
100
AcDbLine
 10
614.2802445549
 20
231.1260344357
 30
0.0
 11
613.8861592738
 21
231.5201197169
 31
0.0
  0
LINE
  5
1E4
100
AcDbEntity
  8
______
  6
CONTINUOUS
 62
         7
100
AcDbLine
 10
614.2802445549
 20
248.0142049981
 30
0.0
 11
613.8861592738
 21
247.6201197169
 31
0.0
  0
LINE
  5
1E5
100
AcDbEntity
  8
______
  6
CONTINUOUS
 62
         4
100
AcDbLine
 10
409.2599019265
 20
271.2111451207
 30
0.0
 11
409.2599019265
 21
248.4201197169
 31
0.0
  0
LINE
  5
1E6
100
AcDbEntity
  8
______
  6
CONTINUOUS
 62
         7
100
AcDbLine
 10
455.5599019265
 20
150.337416899
 30
0.0
 11
426.5599019265
 21
150.337416899
 31
0.0
  0
LINE
  5
1E7
100
AcDbEntity
  8
______
  6
CONTINUOUS
 62
         7
100
AcDbLine
 10
425.5599019265
 20
151.337416899
 30
0.0
 11
425.5599019265
 21
155.9784738984
 31
0.0
  0
ARC
  5
1E8
100
AcDbEntity
  8
______
  6
CONTINUOUS
 62
         7
100
AcDbCircle
 10
426.5599019265
 20
151.337416899
 30
0.0
 40
1.0
100
AcDbArc
 50
180.0
 51
270.0
  0
LINE
  5
1E9
100
AcDbEntity
  8
______
  6
CONTINUOUS
 62
         7
100
AcDbLine
 10
560.6477773222
 20
222.6133917012
 30
0.0
 11
560.6477773222
 21
256.5268477327
 31
0.0
  0
LINE
  5
1EA
100
AcDbEntity
  8
______
  6
CENTER
 62
         1
100
AcDbLine
 10
335.3731708606
 20
239.5701197169
 30
0.0
 11
456.8225068277
 21
239.5701197169
 31
0.0
  0
LINE
  5
1EB
100
AcDbEntity
  8
______
  6
CONTINUOUS
 62
         7
100
AcDbLine
 10
296.24020745
 20
248.4201197169
 30
0.0
 11
295.44020745
 21
247.6201197169
 31
0.0
  0
CIRCLE
  5
1EC
100
AcDbEntity
  8
______
  6
CONTINUOUS
 62
         7
100
AcDbCircle
 10
265.7225383876
 20
239.5701197169
 30
0.0
 40
22.225
  0
LINE
  5
1ED
100
AcDbEntity
  8
______
  6
CONTINUOUS
 62
         7
100
AcDbLine
 10
296.24020745
 20
248.4201197169
 30
0.0
 11
291.4225383876
 21
248.4201197169
 31
0.0
  0
LINE
  5
1EE
100
AcDbEntity
  8
______
  6
CONTINUOUS
 62
         7
100
AcDbLine
 10
291.7225383876
 20
247.6201197169
 30
0.0
 11
295.44020745
 21
247.6201197169
 31
0.0
  0
LINE
  5
1EF
100
AcDbEntity
  8
______
  6
CONTINUOUS
 62
         7
100
AcDbLine
 10
296.24020745
 20
248.4201197169
 30
0.0
 11
295.44020745
 21
247.6201197169
 31
0.0
  0
LINE
  5
1F0
100
AcDbEntity
  8
______
  6
CONTINUOUS
 62
         7
100
AcDbLine
 10
242.4225383876
 20
232.5201197169
 30
0.0
 11
242.4225383876
 21
246.6201197169
 31
0.0
  0
LINE
  5
1F1
100
AcDbEntity
  8
______
  6
CONTINUOUS
 62
         7
100
AcDbLine
 10
243.2225383876
 20
232.2201197169
 30
0.0
 11
243.2225383876
 21
246.9201197169
 31
0.0
  0
LINE
  5
1F2
100
AcDbEntity
  8
______
  6
CONTINUOUS
 62
         7
100
AcDbLine
 10
241.4225383876
 20
247.6201197169
 30
0.0
 11
236.0048693252
 21
247.6201197169
 31
0.0
  0
LINE
  5
1F3
100
AcDbEntity
  8
______
  6
CONTINUOUS
 62
         7
100
AcDbLine
 10
235.2048693252
 20
248.4201197169
 30
0.0
 11
241.7225383876
 21
248.4201197169
 31
0.0
  0
LINE
  5
1F4
100
AcDbEntity
  8
______
  6
CONTINUOUS
 62
         7
100
AcDbLine
 10
235.2048693252
 20
248.4201197169
 30
0.0
 11
236.0048693252
 21
247.6201197169
 31
0.0
  0
LINE
  5
1F5
100
AcDbEntity
  8
______
  6
CONTINUOUS
 62
         7
100
AcDbLine
 10
235.2048693252
 20
230.7201197169
 30
0.0
 11
241.7225383876
 21
230.7201197169
 31
0.0
  0
LINE
  5
1F6
100
AcDbEntity
  8
______
  6
CONTINUOUS
 62
         7
100
AcDbLine
 10
235.2048693252
 20
230.7201197169
 30
0.0
 11
236.0048693253
 21
231.5201197169
 31
0.0
  0
LINE
  5
1F7
100
AcDbEntity
  8
______
  6
CONTINUOUS
 62
         7
100
AcDbLine
 10
236.0048693253
 20
231.5201197169
 30
0.0
 11
241.4225383876
 21
231.5201197169
 31
0.0
  0
LINE
  5
1F8
100
AcDbEntity
  8
______
  6
CONTINUOUS
 62
         7
100
AcDbLine
 10
296.24020745
 20
230.7201197169
 30
0.0
 11
291.4225383876
 21
230.7201197169
 31
0.0
  0
LINE
  5
1F9
100
AcDbEntity
  8
______
  6
CONTINUOUS
 62
         7
100
AcDbLine
 10
289.9225383876
 20
232.2201197169
 30
0.0
 11
289.9225383876
 21
246.9201197169
 31
0.0
  0
LINE
  5
1FA
100
AcDbEntity
  8
______
  6
CONTINUOUS
 62
         7
100
AcDbLine
 10
290.7225383876
 20
232.5201197169
 30
0.0
 11
290.7225383876
 21
246.6201197169
 31
0.0
  0
LINE
  5
1FB
100
AcDbEntity
  8
______
  6
CONTINUOUS
 62
         7
100
AcDbLine
 10
295.44020745
 20
231.5201197169
 30
0.0
 11
291.7225383876
 21
231.5201197169
 31
0.0
  0
LINE
  5
1FC
100
AcDbEntity
  8
______
  6
CONTINUOUS
 62
         7
100
AcDbLine
 10
296.24020745
 20
230.7201197169
 30
0.0
 11
295.44020745
 21
231.5201197169
 31
0.0
  0
CIRCLE
  5
1FD
100
AcDbEntity
  8
______
  6
CONTINUOUS
 62
         7
100
AcDbCircle
 10
265.7225383876
 20
239.5701197169
 30
0.0
 40
8.5
  0
CIRCLE
  5
1FE
100
AcDbEntity
  8
______
  6
CONTINUOUS
 62
         7
100
AcDbCircle
 10
265.7225383876
 20
239.5701197169
 30
0.0
 40
9.5
  0
ARC
  5
1FF
100
AcDbEntity
  8
______
  6
CONTINUOUS
 62
         5
100
AcDbCircle
 10
265.7225383876
 20
239.5701197169
 30
0.0
 40
8.0
100
AcDbArc
 50
278.7735484899
 51
547.0098627772
  0
CIRCLE
  5
200
100
AcDbEntity
  8
______
  6
CONTINUOUS
 62
         7
100
AcDbCircle
 10
265.7225383876
 20
239.5701197169
 30
0.0
 40
7.0
  0
CIRCLE
  5
201
100
AcDbEntity
  8
______
  6
CONTINUOUS
 62
         7
100
AcDbCircle
 10
265.7225383876
 20
239.5701197169
 30
0.0
 40
12.7165768873
  0
LINE
  5
202
100
AcDbEntity
  8
______
  6
CENTER
 62
         1
100
AcDbLine
 10
265.7225383876
 20
203.9587674841
 30
0.0
 11
265.7225383876
 21
274.8028278154
 31
0.0
  0
ARC
  5
203
100
AcDbEntity
  8
______
  6
CONTINUOUS
 62
         7
100
AcDbCircle
 10
265.7225383876
 20
239.5701197169
 30
0.0
 40
31.775
100
AcDbArc
 50
16.2014825394
 51
163.7985174606
  0
LINE
  5
204
100
AcDbEntity
  8
______
  6
CENTER
 62
         1
100
AcDbLine
 10
293.9164001956
 20
239.5701197169
 30
0.0
 11
238.4637038564
 21
239.5701197169
 31
0.0
  0
ARC
  5
205
100
AcDbEntity
  8
______
  6
CONTINUOUS
 62
         7
100
AcDbCircle
 10
265.7225383876
 20
239.5701197169
 30
0.0
 40
31.775
100
AcDbArc
 50
196.2014825394
 51
343.8575896806
  0
LINE
  5
206
100
AcDbEntity
  8
______
  6
CONTINUOUS
 62
         7
100
AcDbLine
 10
291.7225383876
 20
247.6201197169
 30
0.0
 11
290.7225383876
 21
246.6201197169
 31
0.0
  0
LINE
  5
207
100
AcDbEntity
  8
______
  6
CONTINUOUS
 62
         7
100
AcDbLine
 10
290.7225383876
 20
232.5201197169
 30
0.0
 11
291.7225383876
 21
231.5201197169
 31
0.0
  0
LINE
  5
208
100
AcDbEntity
  8
______
  6
CONTINUOUS
 62
         7
100
AcDbLine
 10
242.4225383876
 20
232.5201197169
 30
0.0
 11
241.4225383876
 21
231.5201197169
 31
0.0
  0
LINE
  5
209
100
AcDbEntity
  8
______
  6
CONTINUOUS
 62
         7
100
AcDbLine
 10
242.4225383876
 20
246.6201197169
 30
0.0
 11
241.4225383876
 21
247.6201197169
 31
0.0
  0
LINE
  5
20A
100
AcDbEntity
  8
______
  6
CONTINUOUS
 62
         7
100
AcDbLine
 10
241.7225383876
 20
248.4201197169
 30
0.0
 11
243.2225383876
 21
246.9201197169
 31
0.0
  0
LINE
  5
20B
100
AcDbEntity
  8
______
  6
CONTINUOUS
 62
         7
100
AcDbLine
 10
243.2225383876
 20
232.2201197169
 30
0.0
 11
241.7225383876
 21
230.7201197169
 31
0.0
  0
LINE
  5
20C
100
AcDbEntity
  8
______
  6
CONTINUOUS
 62
         7
100
AcDbLine
 10
291.4225383876
 20
230.7201197169
 30
0.0
 11
289.9225383876
 21
232.2201197169
 31
0.0
  0
LINE
  5
20D
100
AcDbEntity
  8
______
  6
CONTINUOUS
 62
         7
100
AcDbLine
 10
289.9225383876
 20
246.9201197169
 30
0.0
 11
291.4225383876
 21
248.4201197169
 31
0.0
  0
DIMENSION
  5
210
100
AcDbEntity
  8
______
  6
CONTINUOUS
 62
         4
100
AcDbDimension
  2
*D8
 10
408.7599019265
 20
188.7348114959
 30
0.0
 11
423.5599019265
 21
190.7598114959
 31
0.0
  3
DIMSTYLE1
100
AcDbAlignedDimension
 13
408.7599019265
 23
208.2951197169
 33
0.0
 14
443.7599019265
 24
239.5701197169
 34
0.0
100
AcDbRotatedDimension
  0
DIMENSION
  5
21E
100
AcDbEntity
  8
______
  6
CONTINUOUS
 62
         4
100
AcDbDimension
  2
*D9
 10
393.5599019265
 20
67.4706027485
 30
0.0
 11
419.429048524
 21
69.4956027485
 31
0.0
  3
DIMSTYLE1
100
AcDbAlignedDimension
 13
393.5599019265
 23
111.0884738984
 33
0.0
 14
455.5599019265
 24
103.2919010231
 34
0.0
100
AcDbRotatedDimension
  0
TEXT
  5
22B
100
AcDbEntity
  8
______
  6
CONTINUOUS
 62
         2
100
AcDbText
 10
568.2195551049
 20
313.7559563957
 30
0.0
 40
4.5
  1
531060
 41
0.98
  7
BOX
100
AcDbText
  0
ENDSEC
  0
SECTION
  2
OBJECTS
  0
DICTIONARY
  5
19
100
AcDbDictionary
  3
ACAD_GROUP
350
1A
  3
ACAD_MLINESTYLE
350
1B
  0
DICTIONARY
  5
1A
102
{ACAD_REACTORS
330
19
102
}
100
AcDbDictionary
  0
DICTIONARY
  5
1B
102
{ACAD_REACTORS
330
19
102
}
100
AcDbDictionary
  3
STANDARD
350
1C
  0
MLINESTYLE
  5
1C
102
{ACAD_REACTORS
330
1B
102
}
100
AcDbMlineStyle
  2
STANDARD
 70
         0
  3

 62
         0
 51
90.0
 52
90.0
 71
         2
 49
0.5
 62
       256
  6
BYLAYER
 49
-0.5
 62
       256
  6
BYLAYER
  0
ENDSEC
  0
EOF
