  0
SECTION
  2
HEADER
  9
$ACADVER
  1
AC1014
  9
$ACADMAINTVER
 70
         0
  9
$DWGCODEPAGE
  3
BIG5
  9
$INSBASE
 10
0.0
 20
0.0
 30
0.0
  9
$EXTMIN
 10
1112.7553851824
 20
-67.6531984808
 30
0.0
  9
$EXTMAX
 10
1732.0604364527
 20
244.5811992414
 30
0.0
  9
$LIMMIN
 10
0.0
 20
0.0
  9
$LIMMAX
 10
0.0
 20
0.0
  9
$ORTHOMODE
 70
         0
  9
$REGENMODE
 70
         1
  9
$FILLMODE
 70
         1
  9
$QTEXTMODE
 70
         0
  9
$MIRRTEXT
 70
         1
  9
$DRAGMODE
 70
         2
  9
$LTSCALE
 40
1.0
  9
$OSMODE
 70
         0
  9
$ATTMODE
 70
         1
  9
$TEXTSIZE
 40
1.7
  9
$TRACEWID
 40
0.05
  9
$TEXTSTYLE
  7
STANDARD
  9
$CLAYER
  8
0
  9
$CELTYPE
  6
CONTINUOUS
  9
$CECOLOR
 62
         4
  9
$CELTSCALE
 40
1.0
  9
$DELOBJ
 70
         1
  9
$DISPSILH
 70
         0
  9
$DIMSCALE
 40
1.0
  9
$DIMASZ
 40
0.18
  9
$DIMEXO
 40
0.0625
  9
$DIMDLI
 40
0.38
  9
$DIMRND
 40
0.0
  9
$DIMDLE
 40
0.0
  9
$DIMEXE
 40
0.25
  9
$DIMTP
 40
0.01
  9
$DIMTM
 40
-0.01
  9
$DIMTXT
 40
2.7
  9
$DIMCEN
 40
0.09
  9
$DIMTSZ
 40
0.0
  9
$DIMTOL
 70
         0
  9
$DIMLIM
 70
         0
  9
$DIMTIH
 70
         1
  9
$DIMTOH
 70
         1
  9
$DIMSE1
 70
         0
  9
$DIMSE2
 70
         0
  9
$DIMTAD
 70
         0
  9
$DIMZIN
 70
         0
  9
$DIMBLK
  1

  9
$DIMASO
 70
         1
  9
$DIMSHO
 70
         1
  9
$DIMPOST
  1

  9
$DIMAPOST
  1

  9
$DIMALT
 70
         0
  9
$DIMALTD
 70
         2
  9
$DIMALTF
 40
25.4
  9
$DIMLFAC
 40
1.0
  9
$DIMTOFL
 70
         0
  9
$DIMTVP
 40
0.0
  9
$DIMTIX
 70
         0
  9
$DIMSOXD
 70
         0
  9
$DIMSAH
 70
         0
  9
$DIMBLK1
  1

  9
$DIMBLK2
  1

  9
$DIMSTYLE
  2
STANDARD
  9
$DIMCLRD
 70
         0
  9
$DIMCLRE
 70
         0
  9
$DIMCLRT
 70
         4
  9
$DIMTFAC
 40
1.0
  9
$DIMGAP
 40
0.09
  9
$DIMJUST
 70
         0
  9
$DIMSD1
 70
         0
  9
$DIMSD2
 70
         0
  9
$DIMTOLJ
 70
         1
  9
$DIMTZIN
 70
         0
  9
$DIMALTZ
 70
         0
  9
$DIMALTTZ
 70
         0
  9
$DIMFIT
 70
         3
  9
$DIMUPT
 70
         0
  9
$DIMUNIT
 70
         2
  9
$DIMDEC
 70
         4
  9
$DIMTDEC
 70
         4
  9
$DIMALTU
 70
         2
  9
$DIMALTTD
 70
         2
  9
$DIMTXSTY
  7
STANDARD
  9
$DIMAUNIT
 70
         0
  9
$LUNITS
 70
         2
  9
$LUPREC
 70
        10
  9
$SKETCHINC
 40
0.1
  9
$FILLETRAD
 40
0.0
  9
$AUNITS
 70
         0
  9
$AUPREC
 70
         0
  9
$MENU
  1
acad
  9
$ELEVATION
 40
0.0
  9
$PELEVATION
 40
0.0
  9
$THICKNESS
 40
0.0
  9
$LIMCHECK
 70
         0
  9
$BLIPMODE
 70
         1
  9
$CHAMFERA
 40
0.0
  9
$CHAMFERB
 40
0.0
  9
$CHAMFERC
 40
0.0
  9
$CHAMFERD
 40
0.0
  9
$SKPOLY
 70
         0
  9
$TDCREATE
 40
0.000000000
  9
$TDUPDATE
 40
0.000000000
  9
$TDINDWG
 40
0.0000000000
  9
$TDUSRTIMER
 40
0.0000000000
  9
$USRTIMER
 70
         1
  9
$ANGBASE
 50
0.0
  9
$ANGDIR
 70
         0
  9
$PDMODE
 70
         2
  9
$PDSIZE
 40
0.0
  9
$PLINEWID
 40
0.0
  9
$COORDS
 70
         1
  9
$SPLFRAME
 70
         0
  9
$SPLINETYPE
 70
         6
  9
$SPLINESEGS
 70
         8
  9
$ATTDIA
 70
         0
  9
$ATTREQ
 70
         1
  9
$HANDLING
 70
         1
  9
$HANDSEED
  5
4B5
  9
$SURFTAB1
 70
         6
  9
$SURFTAB2
 70
         6
  9
$SURFTYPE
 70
         6
  9
$SURFU
 70
         6
  9
$SURFV
 70
         6
  9
$UCSNAME
  2

  9
$UCSORG
 10
0.0
 20
0.0
 30
0.0
  9
$UCSXDIR
 10
1.0
 20
0.0
 30
0.0
  9
$UCSYDIR
 10
0.0
 20
1.0
 30
0.0
  9
$PUCSNAME
  2

  9
$PUCSORG
 10
0.0
 20
0.0
 30
0.0
  9
$PUCSXDIR
 10
1.0
 20
0.0
 30
0.0
  9
$PUCSYDIR
 10
0.0
 20
1.0
 30
0.0
  9
$USERI1
 70
         0
  9
$USERI2
 70
         0
  9
$USERI3
 70
         0
  9
$USERI4
 70
         0
  9
$USERI5
 70
         0
  9
$USERR1
 40
0.0
  9
$USERR2
 40
0.0
  9
$USERR3
 40
0.0
  9
$USERR4
 40
0.0
  9
$USERR5
 40
0.0
  9
$WORLDVIEW
 70
         1
  9
$SHADEDGE
 70
         3
  9
$SHADEDIF
 70
        70
  9
$TILEMODE
 70
         1
  9
$MAXACTVP
 70
        16
  9
$PINSBASE
 10
0.0
 20
0.0
 30
0.0
  9
$PLIMCHECK
 70
         0
  9
$PEXTMIN
 10
1.0000000000E+20
 20
1.0000000000E+20
 30
1.0000000000E+20
  9
$PEXTMAX
 10
-1.0000000000E+20
 20
-1.0000000000E+20
 30
-1.0000000000E+20
  9
$PLIMMIN
 10
0.0
 20
0.0
  9
$PLIMMAX
 10
12.0
 20
9.0
  9
$UNITMODE
 70
         0
  9
$VISRETAIN
 70
         0
  9
$PLINEGEN
 70
         1
  9
$PSLTSCALE
 70
         0
  9
$TREEDEPTH
 70
      3020
  9
$PICKSTYLE
 70
         1
  9
$CMLSTYLE
  2
STANDARD
  9
$CMLJUST
 70
         0
  9
$CMLSCALE
 40
1.0
  9
$PROXYGRAPHICS
 70
         0
  9
$MEASUREMENT
 70
         0
  0
ENDSEC
  0
SECTION
  2
CLASSES
  0
CLASS
  1
LWPOLYLINE
  2
AcDbPolyline
  3
"AutoCAD"
 90
        0
280
         0
281
         1
  0
CLASS
  1
IMAGE
  2
AcDbRasterImage
  3
ISM
 90
      127
280
         0
281
         1
  0
CLASS
  1
OLE2FRAME
  2
AcDbOle2Frame
  3
""
 90
        0
280
         0
281
         1
  0
CLASS
  1
HATCH
  2
AcDbHatch
  3
"ACAD_SEDONA"
 90
        0
280
         0
281
         1
  0
CLASS
  1
DICTIONARYVAR
  2
AcDbDictionaryVar
  3
"AutoCAD"
 90
        0
280
         0
281
         0
  0
CLASS
  1
RASTERVARIABLES
  2
AcDbRasterVariables
  3
ISM
 90
        0
280
         0
281
         0
  0
CLASS
  1
IMAGEDEF
  2
AcDbRasterImageDef
  3
ISM
 90
        0
280
         0
281
         0
  0
CLASS
  1
IMAGEDEF_REACTOR
  2
AcDbRasterImageDefReactor
  3
ISM
 90
        1
280
         0
281
         0
  0
CLASS
  1
IDBUFFER
  2
AcDbIdBuffer
  3
"Acad"
 90
        0
280
         0
281
         0
  0
CLASS
  1
SPATIAL_FILTER
  2
AcDbSpatialFilter
  3
"Acad"
 90
        0
280
         0
281
         0
  0
CLASS
  1
XRECORD
  2
AcDbXrecord
  3
"<Built In>"
 90
        0
280
         0
281
         0
  0
CLASS
  1
SORTENTSTABLE
  2
AcDbSortentsTable
  3
"AutoCAD"
 90
        0
280
         0
281
         0
  0
CLASS
  1
LAYER_INDEX
  2
AcDbLayerIndex
  3
"Acad"
 90
        0
280
         0
281
         0
  0
CLASS
  1
SPATIAL_INDEX
  2
AcDbSpatialIndex
  3
"Acad"
 90
        0
280
         0
281
         0
  0
CLASS
  1
OBJECT_PTR
  2
CAseDLPNTableRecord
  3
"ASE-LPNTableRecord"
 90
        1
280
         0
281
         0
  0
CLASS
  1
LAYOUT
  2
AcDbLayout
  3
"AutoCAD 2000"
 90
        1
280
         0
281
         0
  0
CLASS
  1
PLOTSETTINGS
  2
AcDbPlotSettings
  3
"AutoCAD 2000"
 90
        1
280
         0
281
         0
  0
CLASS
  1
ACDBDICTIONARYWDFLT
  2
AcDbDictionaryWithDefault
  3
"AutoCAD 2000"
 90
        1
280
         0
281
         0
  0
CLASS
  1
ACDBPLACEHOLDER
  2
AcDbPlaceHolder
  3
"AutoCAD 2000"
 90
        1
280
         0
281
         0
  0
CLASS
  1
VBA_PROJECT
  2
AcDbVbaProject
  3
"acadvba"
 90
        1
280
         0
281
         0
  0
CLASS
  1
WIPEOUT
  2
AcDbWipeout
  3
WipeOut|AutoCAD Express Tool|expresstools@autodesk.com
 90
      127
280
         0
281
         1
  0
CLASS
  1
WIPEOUTVARIABLES
  2
AcDbWipeoutVariables
  3
WipeOut|AutoCAD Express Tool|expresstools@autodesk.com
 90
        0
280
         0
281
         0
  0
CLASS
  1
RTEXT
  2
RText
  3
RText|AutoCAD Express Tool|expresstools@autodesk.com
 90
        0
280
         0
281
         1
  0
CLASS
  1
ARCALIGNEDTEXT
  2
AcDbArcAlignedText
  3
ATEXT|AutoCAD Express Tool|expresstools@autodesk.com
 90
        0
280
         0
281
         1
  0
ENDSEC
  0
SECTION
  2
TABLES
  0
TABLE
  2
VPORT
  5
7
100
AcDbSymbolTable
 70
         1
  0
VPORT
  5
15
100
AcDbSymbolTableRecord
100
AcDbViewportTableRecord
  2
*ACTIVE
 70
         0
 10
0.0
 20
0.0
 11
1.0
 21
1.0
 12
1422.4079108175
 22
88.4640003803
 13
0.0
 23
0.0
 14
1.0
 24
1.0
 15
0.0
 25
0.0
 16
0.0
 26
0.0
 36
1.0
 17
0.0
 27
0.0
 37
0.0
 40
312.2343977222
 41
1.9834619625
 42
50.0
 43
0.0
 44
0.0
 50
0.0
 51
0.0
 71
         0
 72
       100
 73
         1
 74
         1
 75
         0
 76
         0
 77
         0
 78
         0
  0
ENDTAB
  0
TABLE
  2
LTYPE
  5
4
100
AcDbSymbolTable
 70
         6
  0
LTYPE
  5
11
100
AcDbSymbolTableRecord
100
AcDbLinetypeTableRecord
  2
BYBLOCK
 70
        64
  3

 72
        65
 73
         0
 40
0.0
  0
LTYPE
  5
12
100
AcDbSymbolTableRecord
100
AcDbLinetypeTableRecord
  2
BYLAYER
 70
        64
  3

 72
        65
 73
         0
 40
0.0
  0
LTYPE
  5
13
100
AcDbSymbolTableRecord
100
AcDbLinetypeTableRecord
  2
CONTINUOUS
 70
        64
  3
Solid line
 72
        65
 73
         0
 40
0.0
  0
LTYPE
  5
1D
100
AcDbSymbolTableRecord
100
AcDbLinetypeTableRecord
  2
DASHED
 70
        64
  3
_ _ _ _ _ _ _ _ _ _ _ _ _ _ _ _
 72
        65
 73
         2
 40
0.2
 49
0.1
 74
         0
 49
-0.1
 74
         0
  0
LTYPE
  5
1E
100
AcDbSymbolTableRecord
100
AcDbLinetypeTableRecord
  2
CENTER
 70
        64
  3
___ _ ___ _ ___ _ ___ _ ___ _ ___ _ ___ _ ___ _
 72
        65
 73
         4
 40
0.95
 49
0.625
 74
         0
 49
-0.125
 74
         0
 49
0.075
 74
         0
 49
-0.125
 74
         0
  0
LTYPE
  5
1F
100
AcDbSymbolTableRecord
100
AcDbLinetypeTableRecord
  2
PHANTOM
 70
        64
  3
______  __  __  ______  __  __  ______  __  __  
 72
        65
 73
         6
 40
1.025
 49
0.625
 74
         0
 49
-0.125
 74
         0
 49
0.075
 74
         0
 49
-0.125
 74
         0
 49
0.075
 74
         0
 49
-0.125
 74
         0
  0
ENDTAB
  0
TABLE
  2
LAYER
  5
2
100
AcDbSymbolTable
 70
         4
  0
LAYER
  5
14
100
AcDbSymbolTableRecord
100
AcDbLayerTableRecord
  2
0
 70
         0
 62
         7
  6
CONTINUOUS
  0
LAYER
  5
21
100
AcDbSymbolTableRecord
100
AcDbLayerTableRecord
  2
_____U
 70
         1
 62
         7
  6
CONTINUOUS
  0
LAYER
  5
22
100
AcDbSymbolTableRecord
100
AcDbLayerTableRecord
  2
L1_45
 70
         0
 62
         7
  6
CONTINUOUS
  0
LAYER
  5
81
100
AcDbSymbolTableRecord
100
AcDbLayerTableRecord
  2
DEFPOINTS
 70
         0
 62
        -7
  6
CONTINUOUS
  0
ENDTAB
  0
TABLE
  2
STYLE
  5
3
100
AcDbSymbolTable
 70
        27
  0
STYLE
  5
17
100
AcDbSymbolTableRecord
100
AcDbTextStyleTableRecord
  2
STANDARD
 70
         0
 40
0.0
 41
1.0
 50
0.0
 71
         0
 42
0.0
  3
txt
  4

  0
STYLE
  5
8A
100
AcDbSymbolTableRecord
100
AcDbTextStyleTableRecord
  2
BOX
 70
         0
 40
1.0
 41
1.0
 50
0.0
 71
         0
 42
0.2
  3
txt.shx
  4

  0
STYLE
  5
297
100
AcDbSymbolTableRecord
100
AcDbTextStyleTableRecord
  2
BOX
 70
         0
 40
1.0
 41
1.0
 50
0.0
 71
         0
 42
0.2
  3
txt.shx
  4

  0
STYLE
  5
2A7
100
AcDbSymbolTableRecord
100
AcDbTextStyleTableRecord
  2
BOX
 70
         0
 40
1.0
 41
1.0
 50
0.0
 71
         0
 42
0.2
  3
txt.shx
  4

  0
STYLE
  5
2B5
100
AcDbSymbolTableRecord
100
AcDbTextStyleTableRecord
  2
BOX
 70
         0
 40
1.0
 41
1.0
 50
0.0
 71
         0
 42
0.2
  3
txt.shx
  4

  0
STYLE
  5
2D5
100
AcDbSymbolTableRecord
100
AcDbTextStyleTableRecord
  2
BOX
 70
         0
 40
1.0
 41
1.0
 50
0.0
 71
         0
 42
0.2
  3
txt.shx
  4

  0
STYLE
  5
2E5
100
AcDbSymbolTableRecord
100
AcDbTextStyleTableRecord
  2
BOX
 70
         0
 40
1.0
 41
1.0
 50
0.0
 71
         0
 42
0.2
  3
txt.shx
  4

  0
STYLE
  5
2F3
100
AcDbSymbolTableRecord
100
AcDbTextStyleTableRecord
  2
BOX
 70
         0
 40
1.0
 41
1.0
 50
0.0
 71
         0
 42
0.2
  3
txt.shx
  4

  0
STYLE
  5
306
100
AcDbSymbolTableRecord
100
AcDbTextStyleTableRecord
  2
BOX
 70
         0
 40
1.0
 41
1.0
 50
0.0
 71
         0
 42
0.2
  3
txt.shx
  4

  0
STYLE
  5
317
100
AcDbSymbolTableRecord
100
AcDbTextStyleTableRecord
  2
BOX
 70
         0
 40
1.0
 41
1.0
 50
0.0
 71
         0
 42
0.2
  3
txt.shx
  4

  0
STYLE
  5
32D
100
AcDbSymbolTableRecord
100
AcDbTextStyleTableRecord
  2
BOX
 70
         0
 40
1.0
 41
1.0
 50
0.0
 71
         0
 42
0.2
  3
txt.shx
  4

  0
STYLE
  5
33F
100
AcDbSymbolTableRecord
100
AcDbTextStyleTableRecord
  2
BOX
 70
         0
 40
1.0
 41
1.0
 50
0.0
 71
         0
 42
0.2
  3
txt.shx
  4

  0
STYLE
  5
36B
100
AcDbSymbolTableRecord
100
AcDbTextStyleTableRecord
  2
BOX
 70
         0
 40
1.0
 41
1.0
 50
0.0
 71
         0
 42
0.2
  3
txt.shx
  4

  0
STYLE
  5
391
100
AcDbSymbolTableRecord
100
AcDbTextStyleTableRecord
  2
BOX
 70
         0
 40
1.0
 41
1.0
 50
0.0
 71
         0
 42
0.2
  3
txt.shx
  4

  0
STYLE
  5
3A0
100
AcDbSymbolTableRecord
100
AcDbTextStyleTableRecord
  2
BOX
 70
         0
 40
1.0
 41
1.0
 50
0.0
 71
         0
 42
0.2
  3
txt.shx
  4

  0
STYLE
  5
3E5
100
AcDbSymbolTableRecord
100
AcDbTextStyleTableRecord
  2
BOX
 70
         0
 40
1.0
 41
1.0
 50
0.0
 71
         0
 42
0.2
  3
txt.shx
  4

  0
STYLE
  5
3F5
100
AcDbSymbolTableRecord
100
AcDbTextStyleTableRecord
  2
BOX
 70
         0
 40
1.0
 41
1.0
 50
0.0
 71
         0
 42
0.2
  3
txt.shx
  4

  0
STYLE
  5
403
100
AcDbSymbolTableRecord
100
AcDbTextStyleTableRecord
  2
BOX
 70
         0
 40
1.0
 41
1.0
 50
0.0
 71
         0
 42
0.2
  3
txt.shx
  4

  0
STYLE
  5
411
100
AcDbSymbolTableRecord
100
AcDbTextStyleTableRecord
  2
BOX
 70
         0
 40
1.0
 41
1.0
 50
0.0
 71
         0
 42
0.2
  3
txt.shx
  4

  0
STYLE
  5
421
100
AcDbSymbolTableRecord
100
AcDbTextStyleTableRecord
  2
BOX
 70
         0
 40
1.0
 41
1.0
 50
0.0
 71
         0
 42
0.2
  3
txt.shx
  4

  0
STYLE
  5
42F
100
AcDbSymbolTableRecord
100
AcDbTextStyleTableRecord
  2
BOX
 70
         0
 40
1.0
 41
1.0
 50
0.0
 71
         0
 42
0.2
  3
txt.shx
  4

  0
STYLE
  5
43D
100
AcDbSymbolTableRecord
100
AcDbTextStyleTableRecord
  2
BOX
 70
         0
 40
1.0
 41
1.0
 50
0.0
 71
         0
 42
0.2
  3
txt.shx
  4

  0
STYLE
  5
44B
100
AcDbSymbolTableRecord
100
AcDbTextStyleTableRecord
  2
BOX
 70
         0
 40
1.0
 41
1.0
 50
0.0
 71
         0
 42
0.2
  3
txt.shx
  4

  0
STYLE
  5
478
100
AcDbSymbolTableRecord
100
AcDbTextStyleTableRecord
  2
BOX
 70
         0
 40
1.0
 41
1.0
 50
0.0
 71
         0
 42
0.2
  3
txt.shx
  4

  0
STYLE
  5
492
100
AcDbSymbolTableRecord
100
AcDbTextStyleTableRecord
  2
BOX
 70
         0
 40
1.0
 41
1.0
 50
0.0
 71
         0
 42
0.2
  3
txt.shx
  4

  0
STYLE
  5
4A0
100
AcDbSymbolTableRecord
100
AcDbTextStyleTableRecord
  2
BOX
 70
         0
 40
1.0
 41
1.0
 50
0.0
 71
         0
 42
0.2
  3
txt.shx
  4

  0
STYLE
  5
4B3
100
AcDbSymbolTableRecord
100
AcDbTextStyleTableRecord
  2
BOX
 70
         0
 40
1.0
 41
1.0
 50
0.0
 71
         0
 42
0.2
  3
txt.shx
  4

  0
ENDTAB
  0
TABLE
  2
VIEW
  5
5
100
AcDbSymbolTable
 70
         0
  0
ENDTAB
  0
TABLE
  2
UCS
  5
6
100
AcDbSymbolTable
 70
         1
  0
UCS
  5
20
100
AcDbSymbolTableRecord
100
AcDbUCSTableRecord
  2
CK_VIEW_1
 70
         0
 10
0.0
 20
0.0
 30
1.0
 11
1.0
 21
0.0
 31
0.0
 12
0.0
 22
1.0
 32
0.0
  0
ENDTAB
  0
TABLE
  2
APPID
  5
8
100
AcDbSymbolTable
 70
         1
  0
APPID
  5
16
100
AcDbSymbolTableRecord
100
AcDbRegAppTableRecord
  2
ACAD
 70
         0
  0
ENDTAB
  0
TABLE
  2
DIMSTYLE
  5
9
100
AcDbSymbolTable
 70
         2
  0
DIMSTYLE
105
18
100
AcDbSymbolTableRecord
100
AcDbDimStyleTableRecord
  2
STANDARD
 70
         0
  3

  4

  5

  6

  7

 40
1.0
 41
0.18
 42
0.0625
 43
0.38
 44
0.18
 45
0.0
 46
0.0
 47
0.0
 48
0.0
 71
         0
 72
         0
 73
         1
 74
         1
 75
         0
 76
         0
 77
         0
 78
         0
140
0.18
141
0.09
142
0.0
143
25.4
144
1.0
145
0.0
146
1.0
147
0.09
170
         0
171
         2
172
         0
173
         0
174
         0
175
         0
176
         0
177
         0
178
         0
270
         2
271
         4
272
         4
273
         2
274
         2
275
         0
280
         0
281
         0
282
         0
283
         1
284
         0
285
         0
286
         0
287
         0
288
         0
340
17
  0
DIMSTYLE
105
7D
100
AcDbSymbolTableRecord
100
AcDbDimStyleTableRecord
  2
DIMSTYLE1
 70
         0
  3

  4

  5

  6

  7

 40
1.0
 41
2.7
 42
0.0625
 43
0.38
 44
2.7
 45
0.0
 46
0.0
 47
0.0
 48
0.0
 71
         0
 72
         0
 73
         1
 74
         1
 75
         0
 76
         0
 77
         0
 78
         0
140
2.7
141
0.09
142
0.0
143
25.4
144
1.0
145
0.0
146
1.0
147
0.09
170
         0
171
         2
172
         0
173
         0
174
         0
175
         0
176
         0
177
         0
178
         0
270
         2
271
         4
272
         4
273
         2
274
         2
275
         0
280
         0
281
         0
282
         0
283
         1
284
         0
285
         0
286
         0
287
         0
288
         0
340
17
  0
ENDTAB
  0
TABLE
  2
BLOCK_RECORD
  5
1
100
AcDbSymbolTable
 70
        28
  0
BLOCK_RECORD
  5
A
100
AcDbSymbolTableRecord
100
AcDbBlockTableRecord
  2
*MODEL_SPACE
  0
BLOCK_RECORD
  5
B
100
AcDbSymbolTableRecord
100
AcDbBlockTableRecord
  2
*PAPER_SPACE
  0
BLOCK_RECORD
  5
23
100
AcDbSymbolTableRecord
100
AcDbBlockTableRecord
  2
*X0
  0
BLOCK_RECORD
  5
7E
100
AcDbSymbolTableRecord
100
AcDbBlockTableRecord
  2
*D1
  0
BLOCK_RECORD
  5
28A
100
AcDbSymbolTableRecord
100
AcDbBlockTableRecord
  2
*D2
  0
BLOCK_RECORD
  5
29A
100
AcDbSymbolTableRecord
100
AcDbBlockTableRecord
  2
*D3
  0
BLOCK_RECORD
  5
2AA
100
AcDbSymbolTableRecord
100
AcDbBlockTableRecord
  2
*D4
  0
BLOCK_RECORD
  5
2C8
100
AcDbSymbolTableRecord
100
AcDbBlockTableRecord
  2
*D5
  0
BLOCK_RECORD
  5
2D8
100
AcDbSymbolTableRecord
100
AcDbBlockTableRecord
  2
*D6
  0
BLOCK_RECORD
  5
2E8
100
AcDbSymbolTableRecord
100
AcDbBlockTableRecord
  2
*D7
  0
BLOCK_RECORD
  5
2FA
100
AcDbSymbolTableRecord
100
AcDbBlockTableRecord
  2
*D8
  0
BLOCK_RECORD
  5
30C
100
AcDbSymbolTableRecord
100
AcDbBlockTableRecord
  2
*D9
  0
BLOCK_RECORD
  5
320
100
AcDbSymbolTableRecord
100
AcDbBlockTableRecord
  2
*D10
  0
BLOCK_RECORD
  5
334
100
AcDbSymbolTableRecord
100
AcDbBlockTableRecord
  2
*D11
  0
BLOCK_RECORD
  5
342
100
AcDbSymbolTableRecord
100
AcDbBlockTableRecord
  2
*X12
  0
BLOCK_RECORD
  5
348
100
AcDbSymbolTableRecord
100
AcDbBlockTableRecord
  2
*X13
  0
BLOCK_RECORD
  5
360
100
AcDbSymbolTableRecord
100
AcDbBlockTableRecord
  2
*D14
  0
BLOCK_RECORD
  5
386
100
AcDbSymbolTableRecord
100
AcDbBlockTableRecord
  2
*D15
  0
BLOCK_RECORD
  5
394
100
AcDbSymbolTableRecord
100
AcDbBlockTableRecord
  2
*D16
  0
BLOCK_RECORD
  5
3D8
100
AcDbSymbolTableRecord
100
AcDbBlockTableRecord
  2
*D17
  0
BLOCK_RECORD
  5
3E8
100
AcDbSymbolTableRecord
100
AcDbBlockTableRecord
  2
*D18
  0
BLOCK_RECORD
  5
3F8
100
AcDbSymbolTableRecord
100
AcDbBlockTableRecord
  2
*D19
  0
BLOCK_RECORD
  5
406
100
AcDbSymbolTableRecord
100
AcDbBlockTableRecord
  2
*D20
  0
BLOCK_RECORD
  5
414
100
AcDbSymbolTableRecord
100
AcDbBlockTableRecord
  2
*D21
  0
BLOCK_RECORD
  5
424
100
AcDbSymbolTableRecord
100
AcDbBlockTableRecord
  2
*D22
  0
BLOCK_RECORD
  5
432
100
AcDbSymbolTableRecord
100
AcDbBlockTableRecord
  2
*D23
  0
BLOCK_RECORD
  5
440
100
AcDbSymbolTableRecord
100
AcDbBlockTableRecord
  2
*D24
  0
BLOCK_RECORD
  5
46D
100
AcDbSymbolTableRecord
100
AcDbBlockTableRecord
  2
*D25
  0
BLOCK_RECORD
  5
487
100
AcDbSymbolTableRecord
100
AcDbBlockTableRecord
  2
*D26
  0
BLOCK_RECORD
  5
495
100
AcDbSymbolTableRecord
100
AcDbBlockTableRecord
  2
*D27
  0
ENDTAB
  0
ENDSEC
  0
SECTION
  2
BLOCKS
  0
BLOCK
  5
D
100
AcDbEntity
  8
0
100
AcDbBlockBegin
  2
*MODEL_SPACE
 70
         0
 10
0.0
 20
0.0
 30
0.0
  3
*MODEL_SPACE
  1

  0
ENDBLK
  5
E
100
AcDbEntity
  8
0
100
AcDbBlockEnd
  0
BLOCK
  5
F
100
AcDbEntity
 67
         1
  8
0
100
AcDbBlockBegin
  2
*PAPER_SPACE
 70
         0
 10
0.0
 20
0.0
 30
0.0
  3
*PAPER_SPACE
  1

  0
ENDBLK
  5
10
100
AcDbEntity
 67
         1
  8
0
100
AcDbBlockEnd
  0
BLOCK
  5
24
100
AcDbEntity
  8
0
100
AcDbBlockBegin
  2
*X0
 70
        65
 10
0.0
 20
0.0
 30
0.0
  3
*X0
  1

  0
LINE
  5
25
100
AcDbEntity
  8
L1_45
  6
CONTINUOUS
 62
         4
100
AcDbLine
 10
1455.9469031613
 20
-19.2933347407
 30
0.0
 11
1457.7969031613
 21
-17.4433347407
 31
0.0
  0
LINE
  5
26
100
AcDbEntity
  8
L1_45
  6
CONTINUOUS
 62
         4
100
AcDbLine
 10
1440.5542624742
 20
-30.4433347407
 30
0.0
 11
1442.0033403763
 21
-28.9942568386
 31
0.0
  0
LINE
  5
27
100
AcDbEntity
  8
L1_45
  6
CONTINUOUS
 62
         4
100
AcDbLine
 10
1451.7042624742
 20
-19.2933347407
 30
0.0
 11
1454.2899283502
 21
-16.7076688647
 31
0.0
  0
LINE
  5
28
100
AcDbEntity
  8
L1_45
  6
CONTINUOUS
 62
         4
100
AcDbLine
 10
1431.5266217871
 20
-35.2283347407
 30
0.0
 11
1435.0553403763
 21
-31.6996161515
 31
0.0
  0
LINE
  5
29
100
AcDbEntity
  8
L1_45
  6
CONTINUOUS
 62
         4
100
AcDbLine
 10
1436.3116217871
 20
-30.4433347407
 30
0.0
 11
1440.5616217871
 21
-26.1933347407
 31
0.0
  0
LINE
  5
2A
100
AcDbEntity
  8
L1_45
  6
CONTINUOUS
 62
         4
100
AcDbLine
 10
1447.4616217871
 20
-19.2933347407
 30
0.0
 11
1451.0316217871
 21
-15.7233347407
 31
0.0
  0
LINE
  5
2B
100
AcDbEntity
  8
L1_45
  6
CONTINUOUS
 62
         4
100
AcDbLine
 10
1417.7939811
 20
-44.7183347407
 30
0.0
 11
1419.1033403763
 21
-43.4089754644
 31
0.0
  0
LINE
  5
2C
100
AcDbEntity
  8
L1_45
  6
CONTINUOUS
 62
         4
100
AcDbLine
 10
1427.2839811
 20
-35.2283347407
 30
0.0
 11
1436.3189811
 21
-26.1933347407
 31
0.0
  0
LINE
  5
2D
100
AcDbEntity
  8
L1_45
  6
CONTINUOUS
 62
         4
100
AcDbLine
 10
1438.8189811
 20
-23.6933347407
 30
0.0
 11
1442.0033403763
 21
-20.5089754644
 31
0.0
  0
LINE
  5
2E
100
AcDbEntity
  8
L1_45
  6
CONTINUOUS
 62
         4
100
AcDbLine
 10
1442.5689811
 20
-19.9433347407
 30
0.0
 11
1446.7889811
 21
-15.7233347407
 31
0.0
  0
LINE
  5
2F
100
AcDbEntity
  8
L1_45
  6
CONTINUOUS
 62
         4
100
AcDbLine
 10
1452.3489811
 20
-10.1633347407
 30
0.0
 11
1453.1339811
 21
-9.3783347407
 31
0.0
  0
LINE
  5
30
100
AcDbEntity
  8
L1_45
  6
CONTINUOUS
 62
         4
100
AcDbLine
 10
1455.1339811
 20
-7.3783347407
 30
0.0
 11
1455.9189811
 21
-6.5933347407
 31
0.0
  0
LINE
  5
31
100
AcDbEntity
  8
L1_45
  6
CONTINUOUS
 62
         4
100
AcDbLine
 10
1414.2412761763
 20
-44.0283989772
 30
0.0
 11
1419.1033403763
 21
-39.1663347773
 31
0.0
  0
LINE
  5
32
100
AcDbEntity
  8
L1_45
  6
CONTINUOUS
 62
         4
100
AcDbLine
 10
1423.0413404129
 20
-35.2283347407
 30
0.0
 11
1432.0763404129
 21
-26.1933347407
 31
0.0
  0
LINE
  5
33
100
AcDbEntity
  8
L1_45
  6
CONTINUOUS
 62
         4
100
AcDbLine
 10
1434.5763404129
 20
-23.6933347407
 30
0.0
 11
1442.5463404129
 21
-15.7233347407
 31
0.0
  0
LINE
  5
34
100
AcDbEntity
  8
L1_45
  6
CONTINUOUS
 62
         4
100
AcDbLine
 10
1448.1063404129
 20
-10.1633347407
 30
0.0
 11
1448.8913404129
 21
-9.3783347407
 31
0.0
  0
LINE
  5
35
100
AcDbEntity
  8
L1_45
  6
CONTINUOUS
 62
         4
100
AcDbLine
 10
1450.8913404129
 20
-7.3783347407
 30
0.0
 11
1451.6763404129
 21
-6.5933347407
 31
0.0
  0
LINE
  5
36
100
AcDbEntity
  8
L1_45
  6
CONTINUOUS
 62
         4
100
AcDbLine
 10
1412.6883551016
 20
-41.3386793649
 30
0.0
 11
1429.5520611125
 21
-24.4749733539
 31
0.0
  0
LINE
  5
37
100
AcDbEntity
  8
L1_45
  6
CONTINUOUS
 62
         4
100
AcDbLine
 10
1430.3336997257
 20
-23.6933347407
 30
0.0
 11
1434.0836997257
 21
-19.9433347407
 31
0.0
  0
LINE
  5
38
100
AcDbEntity
  8
L1_45
  6
CONTINUOUS
 62
         4
100
AcDbLine
 10
1443.8636997257
 20
-10.1633347407
 30
0.0
 11
1444.6486997257
 21
-9.3783347407
 31
0.0
  0
LINE
  5
39
100
AcDbEntity
  8
L1_45
  6
CONTINUOUS
 62
         4
100
AcDbLine
 10
1446.6486997257
 20
-7.3783347407
 30
0.0
 11
1447.4336997257
 21
-6.5933347407
 31
0.0
  0
LINE
  5
3A
100
AcDbEntity
  8
L1_45
  6
CONTINUOUS
 62
         4
100
AcDbLine
 10
1405.0660590386
 20
-44.7183347407
 30
0.0
 11
1429.8410590386
 21
-19.9433347407
 31
0.0
  0
LINE
  5
3B
100
AcDbEntity
  8
L1_45
  6
CONTINUOUS
 62
         4
100
AcDbLine
 10
1439.6210590386
 20
-10.1633347407
 30
0.0
 11
1440.4060590386
 21
-9.3783347407
 31
0.0
  0
LINE
  5
3C
100
AcDbEntity
  8
L1_45
  6
CONTINUOUS
 62
         4
100
AcDbLine
 10
1442.4060590386
 20
-7.3783347407
 30
0.0
 11
1445.0033403763
 21
-4.781053403
 31
0.0
  0
LINE
  5
3D
100
AcDbEntity
  8
L1_45
  6
CONTINUOUS
 62
         4
100
AcDbLine
 10
1403.2033403763
 20
-42.3384127159
 30
0.0
 11
1425.5984183515
 21
-19.9433347407
 31
0.0
  0
LINE
  5
3E
100
AcDbEntity
  8
L1_45
  6
CONTINUOUS
 62
         4
100
AcDbLine
 10
1438.1634183515
 20
-7.3783347407
 30
0.0
 11
1445.0033403763
 21
-0.5384127159
 31
0.0
  0
LINE
  5
3F
100
AcDbEntity
  8
L1_45
  6
CONTINUOUS
 62
         4
100
AcDbLine
 10
1403.2033403763
 20
-38.0957720288
 30
0.0
 11
1421.3557776644
 21
-19.9433347407
 31
0.0
  0
LINE
  5
40
100
AcDbEntity
  8
L1_45
  6
CONTINUOUS
 62
         4
100
AcDbLine
 10
1435.3557776644
 20
-5.9433347407
 30
0.0
 11
1444.9937732238
 21
3.6946608188
 31
0.0
  0
LINE
  5
41
100
AcDbEntity
  8
L1_45
  6
CONTINUOUS
 62
         4
100
AcDbLine
 10
1401.899735484
 20
-35.156736234
 30
0.0
 11
1417.1131369773
 21
-19.9433347407
 31
0.0
  0
LINE
  5
42
100
AcDbEntity
  8
L1_45
  6
CONTINUOUS
 62
         4
100
AcDbLine
 10
1432.5668583883
 20
-4.4896133296
 30
0.0
 11
1441.6131369773
 21
4.5566652593
 31
0.0
  0
LINE
  5
43
100
AcDbEntity
  8
L1_45
  6
CONTINUOUS
 62
         4
100
AcDbLine
 10
1397.9455855373
 20
-34.8682454935
 30
0.0
 11
1412.8704962901
 21
-19.9433347407
 31
0.0
  0
LINE
  5
44
100
AcDbEntity
  8
L1_45
  6
CONTINUOUS
 62
         4
100
AcDbLine
 10
1426.8704962901
 20
-5.9433347407
 30
0.0
 11
1427.7020423914
 21
-5.1117886395
 31
0.0
  0
LINE
  5
45
100
AcDbEntity
  8
L1_45
  6
CONTINUOUS
 62
         4
100
AcDbLine
 10
1430.0714920335
 20
-2.7423389974
 30
0.0
 11
1437.3704962901
 21
4.5566652593
 31
0.0
  0
LINE
  5
46
100
AcDbEntity
  8
L1_45
  6
CONTINUOUS
 62
         4
100
AcDbLine
 10
1394.2429173013
 20
-34.3282730424
 30
0.0
 11
1408.627855603
 21
-19.9433347407
 31
0.0
  0
LINE
  5
47
100
AcDbEntity
  8
L1_45
  6
CONTINUOUS
 62
         4
100
AcDbLine
 10
1422.627855603
 20
-5.9433347407
 30
0.0
 11
1425.2066760365
 21
-3.3645143072
 31
0.0
  0
LINE
  5
48
100
AcDbEntity
  8
L1_45
  6
CONTINUOUS
 62
         4
100
AcDbLine
 10
1427.5761256786
 20
-0.9950646651
 30
0.0
 11
1435.0553403763
 21
6.4841500326
 31
0.0
  0
LINE
  5
49
100
AcDbEntity
  8
L1_45
  6
CONTINUOUS
 62
         4
100
AcDbLine
 10
1390.5402490653
 20
-33.7883005913
 30
0.0
 11
1404.3852149159
 21
-19.9433347407
 31
0.0
  0
LINE
  5
4A
100
AcDbEntity
  8
L1_45
  6
CONTINUOUS
 62
         4
100
AcDbLine
 10
1418.3852149159
 20
-5.9433347407
 30
0.0
 11
1422.7113096816
 21
-1.6172399749
 31
0.0
  0
LINE
  5
4B
100
AcDbEntity
  8
L1_45
  6
CONTINUOUS
 62
         4
100
AcDbLine
 10
1425.0807593237
 20
0.7522096672
 30
0.0
 11
1433.6702149159
 21
9.3416652593
 31
0.0
  0
LINE
  5
4C
100
AcDbEntity
  8
L1_45
  6
CONTINUOUS
 62
         4
100
AcDbLine
 10
1386.8375808292
 20
-33.2483281402
 30
0.0
 11
1400.1425742288
 21
-19.9433347407
 31
0.0
  0
LINE
  5
4D
100
AcDbEntity
  8
L1_45
  6
CONTINUOUS
 62
         4
100
AcDbLine
 10
1414.1425742288
 20
-5.9433347407
 30
0.0
 11
1420.2159433268
 21
0.1300343573
 31
0.0
  0
LINE
  5
4E
100
AcDbEntity
  8
L1_45
  6
CONTINUOUS
 62
         4
100
AcDbLine
 10
1422.5853929689
 20
2.4994839994
 30
0.0
 11
1429.4275742288
 21
9.3416652593
 31
0.0
  0
LINE
  5
4F
100
AcDbEntity
  8
L1_45
  6
CONTINUOUS
 62
         4
100
AcDbLine
 10
1383.1349125932
 20
-32.7083556891
 30
0.0
 11
1395.8999335417
 21
-19.9433347407
 31
0.0
  0
LINE
  5
50
100
AcDbEntity
  8
L1_45
  6
CONTINUOUS
 62
         4
100
AcDbLine
 10
1409.8999335417
 20
-5.9433347407
 30
0.0
 11
1417.7205769719
 21
1.8773086896
 31
0.0
  0
LINE
  5
51
100
AcDbEntity
  8
L1_45
  6
CONTINUOUS
 62
         4
100
AcDbLine
 10
1420.090026614
 20
4.2467583317
 30
0.0
 11
1425.1849335417
 21
9.3416652593
 31
0.0
  0
LINE
  5
52
100
AcDbEntity
  8
L1_45
  6
CONTINUOUS
 62
         4
100
AcDbLine
 10
1379.4322443572
 20
-32.168383238
 30
0.0
 11
1391.6572928545
 21
-19.9433347407
 31
0.0
  0
LINE
  5
53
100
AcDbEntity
  8
L1_45
  6
CONTINUOUS
 62
         4
100
AcDbLine
 10
1405.6572928545
 20
-5.9433347407
 30
0.0
 11
1415.2252106171
 21
3.6245830219
 31
0.0
  0
LINE
  5
54
100
AcDbEntity
  8
L1_45
  6
CONTINUOUS
 62
         4
100
AcDbLine
 10
1417.5946602592
 20
5.994032664
 30
0.0
 11
1420.9422928545
 21
9.3416652593
 31
0.0
  0
LINE
  5
55
100
AcDbEntity
  8
L1_45
  6
CONTINUOUS
 62
         4
100
AcDbLine
 10
1375.7295761212
 20
-31.6284107869
 30
0.0
 11
1387.4146521674
 21
-19.9433347407
 31
0.0
  0
LINE
  5
56
100
AcDbEntity
  8
L1_45
  6
CONTINUOUS
 62
         4
100
AcDbLine
 10
1401.4146521674
 20
-5.9433347407
 30
0.0
 11
1412.7298442622
 21
5.3718573541
 31
0.0
  0
LINE
  5
57
100
AcDbEntity
  8
L1_45
  6
CONTINUOUS
 62
         4
100
AcDbLine
 10
1415.0992939043
 20
7.7413069962
 30
0.0
 11
1419.1033403763
 21
11.7453534682
 31
0.0
  0
LINE
  5
58
100
AcDbEntity
  8
L1_45
  6
CONTINUOUS
 62
         4
100
AcDbLine
 10
1372.0269078852
 20
-31.0884383358
 30
0.0
 11
1383.1720114803
 21
-19.9433347407
 31
0.0
  0
LINE
  5
59
100
AcDbEntity
  8
L1_45
  6
CONTINUOUS
 62
         4
100
AcDbLine
 10
1397.1720114803
 20
-5.9433347407
 30
0.0
 11
1410.2344779074
 21
7.1191316864
 31
0.0
  0
LINE
  5
5A
100
AcDbEntity
  8
L1_45
  6
CONTINUOUS
 62
         4
100
AcDbLine
 10
1412.6039275495
 20
9.4885813285
 30
0.0
 11
1419.1033403763
 21
15.9879941553
 31
0.0
  0
LINE
  5
5B
100
AcDbEntity
  8
L1_45
  6
CONTINUOUS
 62
         4
100
AcDbLine
 10
1368.3242396491
 20
-30.5484658847
 30
0.0
 11
1378.9293707932
 21
-19.9433347407
 31
0.0
  0
LINE
  5
5C
100
AcDbEntity
  8
L1_45
  6
CONTINUOUS
 62
         4
100
AcDbLine
 10
1392.9293707932
 20
-5.9433347407
 30
0.0
 11
1407.7391115525
 21
8.8664060187
 31
0.0
  0
LINE
  5
5D
100
AcDbEntity
  8
L1_45
  6
CONTINUOUS
 62
         4
100
AcDbLine
 10
1410.1085611946
 20
11.2358556608
 30
0.0
 11
1417.7043707934
 21
18.8316652595
 31
0.0
  0
LINE
  5
5E
100
AcDbEntity
  8
L1_45
  6
CONTINUOUS
 62
         4
100
AcDbLine
 10
1364.6215714131
 20
-30.0084934336
 30
0.0
 11
1374.6867301061
 21
-19.9433347407
 31
0.0
  0
LINE
  5
5F
100
AcDbEntity
  8
L1_45
  6
CONTINUOUS
 62
         4
100
AcDbLine
 10
1388.6867301061
 20
-5.9433347407
 30
0.0
 11
1405.2437451977
 21
10.6136803509
 31
0.0
  0
LINE
  5
60
100
AcDbEntity
  8
L1_45
  6
CONTINUOUS
 62
         4
100
AcDbLine
 10
1407.6131948398
 20
12.983129993
 30
0.0
 11
1409.8688913715
 21
15.2388265248
 31
0.0
  0
LINE
  5
61
100
AcDbEntity
  8
L1_45
  6
CONTINUOUS
 62
         4
100
AcDbLine
 10
1360.9189031771
 20
-29.4685209825
 30
0.0
 11
1370.4440894189
 21
-19.9433347407
 31
0.0
  0
LINE
  5
62
100
AcDbEntity
  8
L1_45
  6
CONTINUOUS
 62
         4
100
AcDbLine
 10
1384.4440894189
 20
-5.9433347407
 30
0.0
 11
1399.6120221823
 21
9.2245980227
 31
0.0
  0
LINE
  5
63
100
AcDbEntity
  8
L1_45
  6
CONTINUOUS
 62
         4
100
AcDbLine
 10
1405.4050345021
 20
15.0176103425
 30
0.0
 11
1408.1717510606
 21
17.784326901
 31
0.0
  0
LINE
  5
64
100
AcDbEntity
  8
L1_45
  6
CONTINUOUS
 62
         4
100
AcDbLine
 10
1357.2162349411
 20
-28.9285485314
 30
0.0
 11
1366.2014487318
 21
-19.9433347407
 31
0.0
  0
LINE
  5
65
100
AcDbEntity
  8
L1_45
  6
CONTINUOUS
 62
         4
100
AcDbLine
 10
1380.2014487318
 20
-5.9433347407
 30
0.0
 11
1394.6450282072
 21
8.5002447347
 31
0.0
  0
LINE
  5
66
100
AcDbEntity
  8
L1_45
  6
CONTINUOUS
 62
         4
100
AcDbLine
 10
1403.2033403763
 20
17.0585569038
 30
0.0
 11
1404.976448732
 21
18.8316652595
 31
0.0
  0
LINE
  5
67
100
AcDbEntity
  8
L1_45
  6
CONTINUOUS
 62
         4
100
AcDbLine
 10
1353.513566705
 20
-28.3885760803
 30
0.0
 11
1361.9588080447
 21
-19.9433347407
 31
0.0
  0
LINE
  5
68
100
AcDbEntity
  8
L1_45
  6
CONTINUOUS
 62
         4
100
AcDbLine
 10
1375.9588080447
 20
-5.9433347407
 30
0.0
 11
1389.678034232
 21
7.7758914466
 31
0.0
  0
LINE
  5
69
100
AcDbEntity
  8
L1_45
  6
CONTINUOUS
 62
         4
100
AcDbLine
 10
1349.810898469
 20
-27.8486036292
 30
0.0
 11
1357.7161673576
 21
-19.9433347407
 31
0.0
  0
LINE
  5
6A
100
AcDbEntity
  8
L1_45
  6
CONTINUOUS
 62
         4
100
AcDbLine
 10
1371.7161673576
 20
-5.9433347407
 30
0.0
 11
1384.7110402568
 21
7.0515381586
 31
0.0
  0
LINE
  5
6B
100
AcDbEntity
  8
L1_45
  6
CONTINUOUS
 62
         4
100
AcDbLine
 10
1346.108230233
 20
-27.3086311782
 30
0.0
 11
1353.4735266705
 21
-19.9433347407
 31
0.0
  0
LINE
  5
6C
100
AcDbEntity
  8
L1_45
  6
CONTINUOUS
 62
         4
100
AcDbLine
 10
1367.4735266705
 20
-5.9433347407
 30
0.0
 11
1379.7440462817
 21
6.3271848705
 31
0.0
  0
LINE
  5
6D
100
AcDbEntity
  8
L1_45
  6
CONTINUOUS
 62
         4
100
AcDbLine
 10
1342.405561997
 20
-26.7686587271
 30
0.0
 11
1349.2308859834
 21
-19.9433347407
 31
0.0
  0
LINE
  5
6E
100
AcDbEntity
  8
L1_45
  6
CONTINUOUS
 62
         4
100
AcDbLine
 10
1363.2308859834
 20
-5.9433347407
 30
0.0
 11
1374.7770523065
 21
5.6028315825
 31
0.0
  0
LINE
  5
6F
100
AcDbEntity
  8
L1_45
  6
CONTINUOUS
 62
         4
100
AcDbLine
 10
1338.702893761
 20
-26.228686276
 30
0.0
 11
1344.9882452962
 21
-19.9433347407
 31
0.0
  0
LINE
  5
70
100
AcDbEntity
  8
L1_45
  6
CONTINUOUS
 62
         4
100
AcDbLine
 10
1358.9882452962
 20
-5.9433347407
 30
0.0
 11
1369.8100583314
 21
4.8784782944
 31
0.0
  0
LINE
  5
71
100
AcDbEntity
  8
L1_45
  6
CONTINUOUS
 62
         4
100
AcDbLine
 10
1335.0002255249
 20
-25.6887138249
 30
0.0
 11
1340.7456046091
 21
-19.9433347407
 31
0.0
  0
LINE
  5
72
100
AcDbEntity
  8
L1_45
  6
CONTINUOUS
 62
         4
100
AcDbLine
 10
1354.7456046091
 20
-5.9433347407
 30
0.0
 11
1364.8430643562
 21
4.1541250064
 31
0.0
  0
LINE
  5
73
100
AcDbEntity
  8
L1_45
  6
CONTINUOUS
 62
         4
100
AcDbLine
 10
1331.834630336
 20
-24.6116683267
 30
0.0
 11
1335.352963922
 21
-21.0933347407
 31
0.0
  0
LINE
  5
74
100
AcDbEntity
  8
L1_45
  6
CONTINUOUS
 62
         4
100
AcDbLine
 10
1350.502963922
 20
-5.9433347407
 30
0.0
 11
1359.876070381
 21
3.4297717184
 31
0.0
  0
LINE
  5
75
100
AcDbEntity
  8
L1_45
  6
CONTINUOUS
 62
         4
100
AcDbLine
 10
1346.2603232349
 20
-5.9433347407
 30
0.0
 11
1354.9090764059
 21
2.7054184303
 31
0.0
  0
LINE
  5
76
100
AcDbEntity
  8
L1_45
  6
CONTINUOUS
 62
         4
100
AcDbLine
 10
1342.0176825478
 20
-5.9433347407
 30
0.0
 11
1349.9420824307
 21
1.9810651423
 31
0.0
  0
LINE
  5
77
100
AcDbEntity
  8
L1_45
  6
CONTINUOUS
 62
         4
100
AcDbLine
 10
1337.7750418606
 20
-5.9433347407
 30
0.0
 11
1344.9750884555
 21
1.2567118542
 31
0.0
  0
LINE
  5
78
100
AcDbEntity
  8
L1_45
  6
CONTINUOUS
 62
         4
100
AcDbLine
 10
1334.6824011735
 20
-4.7933347407
 30
0.0
 11
1340.0080944804
 21
0.5323585662
 31
0.0
  0
LINE
  5
79
100
AcDbEntity
  8
L1_45
  6
CONTINUOUS
 62
         4
100
AcDbLine
 10
1331.7533403763
 20
-3.4797548508
 30
0.0
 11
1335.0411005052
 21
-0.1919947219
 31
0.0
  0
ENDBLK
  5
7A
100
AcDbEntity
  8
0
  6
CONTINUOUS
100
AcDbBlockEnd
  0
BLOCK
  5
7F
100
AcDbEntity
  8
0
100
AcDbBlockBegin
  2
*D1
 70
        65
 10
0.0
 20
0.0
 30
0.0
  3
*D1
  1

  0
POINT
  5
82
100
AcDbEntity
  8
DEFPOINTS
  6
CONTINUOUS
 62
         0
100
AcDbPoint
 10
1400.0033403763
 20
219.4323007493
 30
0.0
  0
POINT
  5
83
100
AcDbEntity
  8
DEFPOINTS
  6
CONTINUOUS
 62
         0
100
AcDbPoint
 10
1400.0033403763
 20
172.4096417294
 30
0.0
  0
POINT
  5
84
100
AcDbEntity
  8
DEFPOINTS
  6
CONTINUOUS
 62
         0
100
AcDbPoint
 10
1445.0033403763
 20
166.6846417294
 30
0.0
  0
LINE
  5
85
100
AcDbEntity
  8
L1_45
  6
CONTINUOUS
 62
         4
100
AcDbLine
 10
1400.0033403763
 20
173.7596417294
 30
0.0
 11
1400.0033403763
 21
220.1073007493
 31
0.0
  0
LINE
  5
86
100
AcDbEntity
  8
L1_45
  6
CONTINUOUS
 62
         4
100
AcDbLine
 10
1445.0033403763
 20
168.0346417294
 30
0.0
 11
1445.0033403763
 21
220.1073007493
 31
0.0
  0
LINE
  5
87
100
AcDbEntity
  8
L1_45
  6
CONTINUOUS
 62
         4
100
AcDbLine
 10
1400.0033403763
 20
219.4323007493
 30
0.0
 11
1445.0033403763
 21
219.4323007493
 31
0.0
  0
SOLID
  5
88
100
AcDbEntity
  8
L1_45
  6
CONTINUOUS
 62
         4
100
AcDbTrace
 10
1400.0033403763
 20
219.4323007493
 30
0.0
 11
1402.7033403763
 21
219.8373007493
 31
0.0
 12
1402.7033403763
 22
219.0273007493
 32
0.0
 13
1400.0033403763
 23
219.4323007493
 33
0.0
  0
SOLID
  5
89
100
AcDbEntity
  8
L1_45
  6
CONTINUOUS
 62
         4
100
AcDbTrace
 10
1445.0033403763
 20
219.4323007493
 30
0.0
 11
1442.3033403763
 21
219.0273007493
 31
0.0
 12
1442.3033403763
 22
219.8373007493
 32
0.0
 13
1445.0033403763
 23
219.4323007493
 33
0.0
  0
TEXT
  5
8B
100
AcDbEntity
  8
L1_45
  6
CONTINUOUS
 62
         4
100
AcDbText
 10
1419.5635899254
 20
221.4573007493
 30
0.0
 40
2.7
  1
45
  7
BOX
100
AcDbText
  0
ENDBLK
  5
8C
100
AcDbEntity
  8
0
  6
CONTINUOUS
100
AcDbBlockEnd
  0
BLOCK
  5
28B
100
AcDbEntity
  8
0
100
AcDbBlockBegin
  2
*D2
 70
        65
 10
0.0
 20
0.0
 30
0.0
  3
*D2
  1

  0
POINT
  5
28D
100
AcDbEntity
  8
DEFPOINTS
  6
CONTINUOUS
 62
         0
100
AcDbPoint
 10
1475.0127702643
 20
69.5713572964
 30
0.0
  0
POINT
  5
28E
100
AcDbEntity
  8
DEFPOINTS
  6
CONTINUOUS
 62
         0
100
AcDbPoint
 10
1479.6179493127
 20
69.5713572964
 30
0.0
  0
POINT
  5
28F
100
AcDbEntity
  8
DEFPOINTS
  6
CONTINUOUS
 62
         0
100
AcDbPoint
 10
1479.6179493127
 20
66.5713572964
 30
0.0
  0
LINE
  5
290
100
AcDbEntity
  8
L1_45
  6
CONTINUOUS
 62
         4
100
AcDbLine
 10
1478.2679493127
 20
69.5713572964
 30
0.0
 11
1474.3377702643
 21
69.5713572964
 31
0.0
  0
LINE
  5
291
100
AcDbEntity
  8
L1_45
  6
CONTINUOUS
 62
         4
100
AcDbLine
 10
1478.2679493127
 20
66.5713572964
 30
0.0
 11
1474.3377702643
 21
66.5713572964
 31
0.0
  0
LINE
  5
292
100
AcDbEntity
  8
L1_45
  6
CONTINUOUS
 62
         4
100
AcDbLine
 10
1475.0127702643
 20
69.5713572964
 30
0.0
 11
1475.0127702643
 21
74.9713572964
 31
0.0
  0
SOLID
  5
293
100
AcDbEntity
  8
L1_45
  6
CONTINUOUS
 62
         4
100
AcDbTrace
 10
1475.0127702643
 20
69.5713572964
 30
0.0
 11
1474.6077702643
 21
72.2713572964
 31
0.0
 12
1475.4177702643
 22
72.2713572964
 32
0.0
 13
1475.0127702643
 23
69.5713572964
 33
0.0
  0
LINE
  5
294
100
AcDbEntity
  8
L1_45
  6
CONTINUOUS
 62
         4
100
AcDbLine
 10
1475.0127702643
 20
66.5713572964
 30
0.0
 11
1475.0127702643
 21
61.1713572964
 31
0.0
  0
SOLID
  5
295
100
AcDbEntity
  8
L1_45
  6
CONTINUOUS
 62
         4
100
AcDbTrace
 10
1475.0127702643
 20
66.5713572964
 30
0.0
 11
1475.4177702643
 21
63.8713572964
 31
0.0
 12
1474.6077702643
 22
63.8713572964
 32
0.0
 13
1475.0127702643
 23
66.5713572964
 33
0.0
  0
LINE
  5
296
100
AcDbEntity
  8
L1_45
  6
CONTINUOUS
 62
         4
100
AcDbLine
 10
1475.0127702643
 20
69.5713572964
 30
0.0
 11
1475.0127702643
 21
66.5713572964
 31
0.0
  0
TEXT
  5
298
100
AcDbEntity
  8
L1_45
  6
CONTINUOUS
 62
         4
100
AcDbText
 10
1472.9877702643
 20
58.2667953517
 30
0.0
 40
2.7
  1
M3xP0.5
 50
90.0
  7
BOX
100
AcDbText
  0
ENDBLK
  5
299
100
AcDbEntity
  8
0
  6
CONTINUOUS
100
AcDbBlockEnd
  0
BLOCK
  5
29B
100
AcDbEntity
  8
0
100
AcDbBlockBegin
  2
*D3
 70
        65
 10
0.0
 20
0.0
 30
0.0
  3
*D3
  1

  0
POINT
  5
29D
100
AcDbEntity
  8
DEFPOINTS
  6
CONTINUOUS
 62
         0
100
AcDbPoint
 10
1499.5221704495
 20
70.8213572964
 30
0.0
  0
POINT
  5
29E
100
AcDbEntity
  8
DEFPOINTS
  6
CONTINUOUS
 62
         0
100
AcDbPoint
 10
1493.9846193127
 20
70.8213572964
 30
0.0
  0
POINT
  5
29F
100
AcDbEntity
  8
DEFPOINTS
  6
CONTINUOUS
 62
         0
100
AcDbPoint
 10
1493.9846193127
 20
65.3213572964
 30
0.0
  0
LINE
  5
2A0
100
AcDbEntity
  8
L1_45
  6
CONTINUOUS
 62
         4
100
AcDbLine
 10
1495.3346193127
 20
70.8213572964
 30
0.0
 11
1500.1971704495
 21
70.8213572964
 31
0.0
  0
LINE
  5
2A1
100
AcDbEntity
  8
L1_45
  6
CONTINUOUS
 62
         4
100
AcDbLine
 10
1495.3346193127
 20
65.3213572964
 30
0.0
 11
1500.1971704495
 21
65.3213572964
 31
0.0
  0
LINE
  5
2A2
100
AcDbEntity
  8
L1_45
  6
CONTINUOUS
 62
         4
100
AcDbLine
 10
1499.5221704495
 20
70.8213572964
 30
0.0
 11
1499.5221704495
 21
87.6459850244
 31
0.0
  0
SOLID
  5
2A3
100
AcDbEntity
  8
L1_45
  6
CONTINUOUS
 62
         4
100
AcDbTrace
 10
1499.5221704495
 20
70.8213572964
 30
0.0
 11
1499.1171704495
 21
73.5213572964
 31
0.0
 12
1499.9271704495
 22
73.5213572964
 32
0.0
 13
1499.5221704495
 23
70.8213572964
 33
0.0
  0
LINE
  5
2A4
100
AcDbEntity
  8
L1_45
  6
CONTINUOUS
 62
         4
100
AcDbLine
 10
1499.5221704495
 20
65.3213572964
 30
0.0
 11
1499.5221704495
 21
59.9213572964
 31
0.0
  0
SOLID
  5
2A5
100
AcDbEntity
  8
L1_45
  6
CONTINUOUS
 62
         4
100
AcDbTrace
 10
1499.5221704495
 20
65.3213572964
 30
0.0
 11
1499.9271704495
 21
62.6213572964
 31
0.0
 12
1499.1171704495
 22
62.6213572964
 32
0.0
 13
1499.5221704495
 23
65.3213572964
 33
0.0
  0
LINE
  5
2A6
100
AcDbEntity
  8
L1_45
  6
CONTINUOUS
 62
         4
100
AcDbLine
 10
1499.5221704495
 20
70.8213572964
 30
0.0
 11
1499.5221704495
 21
65.3213572964
 31
0.0
  0
TEXT
  5
2A8
100
AcDbEntity
  8
L1_45
  6
CONTINUOUS
 62
         4
100
AcDbText
 10
1497.4971704495
 20
72.7959850244
 30
0.0
 40
2.7
  1
崷5.5
 50
90.0
  7
BOX
100
AcDbText
  0
ENDBLK
  5
2A9
100
AcDbEntity
  8
0
  6
CONTINUOUS
100
AcDbBlockEnd
  0
BLOCK
  5
2AB
100
AcDbEntity
  8
0
100
AcDbBlockBegin
  2
*D4
 70
        65
 10
0.0
 20
0.0
 30
0.0
  3
*D4
  1

  0
POINT
  5
2AD
100
AcDbEntity
  8
DEFPOINTS
  6
CONTINUOUS
 62
         0
100
AcDbPoint
 10
1479.2846193127
 20
57.563464108
 30
0.0
  0
POINT
  5
2AE
100
AcDbEntity
  8
DEFPOINTS
  6
CONTINUOUS
 62
         0
100
AcDbPoint
 10
1479.2846193127
 20
66.9046872964
 30
0.0
  0
POINT
  5
2AF
100
AcDbEntity
  8
DEFPOINTS
  6
CONTINUOUS
 62
         0
100
AcDbPoint
 10
1491.2846193127
 20
65.3213572964
 30
0.0
  0
LINE
  5
2B0
100
AcDbEntity
  8
L1_45
  6
CONTINUOUS
 62
         4
100
AcDbLine
 10
1479.2846193127
 20
65.5546872964
 30
0.0
 11
1479.2846193127
 21
56.888464108
 31
0.0
  0
LINE
  5
2B1
100
AcDbEntity
  8
L1_45
  6
CONTINUOUS
 62
         4
100
AcDbLine
 10
1491.2846193127
 20
63.9713572964
 30
0.0
 11
1491.2846193127
 21
56.888464108
 31
0.0
  0
LINE
  5
2B2
100
AcDbEntity
  8
L1_45
  6
CONTINUOUS
 62
         4
100
AcDbLine
 10
1479.2846193127
 20
57.563464108
 30
0.0
 11
1491.2846193127
 21
57.563464108
 31
0.0
  0
SOLID
  5
2B3
100
AcDbEntity
  8
L1_45
  6
CONTINUOUS
 62
         4
100
AcDbTrace
 10
1479.2846193127
 20
57.563464108
 30
0.0
 11
1481.9846193127
 21
57.968464108
 31
0.0
 12
1481.9846193127
 22
57.158464108
 32
0.0
 13
1479.2846193127
 23
57.563464108
 33
0.0
  0
SOLID
  5
2B4
100
AcDbEntity
  8
L1_45
  6
CONTINUOUS
 62
         4
100
AcDbTrace
 10
1491.2846193127
 20
57.563464108
 30
0.0
 11
1488.5846193127
 21
57.158464108
 31
0.0
 12
1488.5846193127
 22
57.968464108
 32
0.0
 13
1491.2846193127
 23
57.563464108
 33
0.0
  0
TEXT
  5
2B6
100
AcDbEntity
  8
L1_45
  6
CONTINUOUS
 62
         4
100
AcDbText
 10
1482.7184780278
 20
59.588464108
 30
0.0
 40
2.7
  1
12
  7
BOX
100
AcDbText
  0
ENDBLK
  5
2B7
100
AcDbEntity
  8
0
  6
CONTINUOUS
100
AcDbBlockEnd
  0
BLOCK
  5
2C9
100
AcDbEntity
  8
0
100
AcDbBlockBegin
  2
*D5
 70
        65
 10
0.0
 20
0.0
 30
0.0
  3
*D5
  1

  0
POINT
  5
2CB
100
AcDbEntity
  8
DEFPOINTS
  6
CONTINUOUS
 62
         0
100
AcDbPoint
 10
1533.6525279073
 20
76.9697634122
 30
0.0
  0
POINT
  5
2CC
100
AcDbEntity
  8
DEFPOINTS
  6
CONTINUOUS
 62
         0
100
AcDbPoint
 10
1539.6883812784
 20
76.9697634122
 30
0.0
  0
POINT
  5
2CD
100
AcDbEntity
  8
DEFPOINTS
  6
CONTINUOUS
 62
         0
100
AcDbPoint
 10
1539.6883812784
 20
71.4697634122
 30
0.0
  0
LINE
  5
2CE
100
AcDbEntity
  8
L1_45
  6
CONTINUOUS
 62
         4
100
AcDbLine
 10
1538.3383812784
 20
76.9697634122
 30
0.0
 11
1532.9775279073
 21
76.9697634122
 31
0.0
  0
LINE
  5
2CF
100
AcDbEntity
  8
L1_45
  6
CONTINUOUS
 62
         4
100
AcDbLine
 10
1538.3383812784
 20
71.4697634122
 30
0.0
 11
1532.9775279073
 21
71.4697634122
 31
0.0
  0
LINE
  5
2D0
100
AcDbEntity
  8
L1_45
  6
CONTINUOUS
 62
         4
100
AcDbLine
 10
1533.6525279073
 20
76.9697634122
 30
0.0
 11
1533.6525279073
 21
82.3697634122
 31
0.0
  0
SOLID
  5
2D1
100
AcDbEntity
  8
L1_45
  6
CONTINUOUS
 62
         4
100
AcDbTrace
 10
1533.6525279073
 20
76.9697634122
 30
0.0
 11
1533.2475279073
 21
79.6697634122
 31
0.0
 12
1534.0575279073
 22
79.6697634122
 32
0.0
 13
1533.6525279073
 23
76.9697634122
 33
0.0
  0
LINE
  5
2D2
100
AcDbEntity
  8
L1_45
  6
CONTINUOUS
 62
         4
100
AcDbLine
 10
1533.6525279073
 20
71.4697634122
 30
0.0
 11
1533.6525279073
 21
54.5201142402
 31
0.0
  0
SOLID
  5
2D3
100
AcDbEntity
  8
L1_45
  6
CONTINUOUS
 62
         4
100
AcDbTrace
 10
1533.6525279073
 20
71.4697634122
 30
0.0
 11
1534.0575279073
 21
68.7697634122
 31
0.0
 12
1533.2475279073
 22
68.7697634122
 32
0.0
 13
1533.6525279073
 23
71.4697634122
 33
0.0
  0
LINE
  5
2D4
100
AcDbEntity
  8
L1_45
  6
CONTINUOUS
 62
         4
100
AcDbLine
 10
1533.6525279073
 20
76.9697634122
 30
0.0
 11
1533.6525279073
 21
71.4697634122
 31
0.0
  0
TEXT
  5
2D6
100
AcDbEntity
  8
L1_45
  6
CONTINUOUS
 62
         4
100
AcDbText
 10
1531.6275279073
 20
55.8701142402
 30
0.0
 40
2.7
  1
崷5.5
 50
90.0
  7
BOX
100
AcDbText
  0
ENDBLK
  5
2D7
100
AcDbEntity
  8
0
  6
CONTINUOUS
100
AcDbBlockEnd
  0
BLOCK
  5
2D9
100
AcDbEntity
  8
0
100
AcDbBlockBegin
  2
*D6
 70
        65
 10
0.0
 20
0.0
 30
0.0
  3
*D6
  1

  0
POINT
  5
2DB
100
AcDbEntity
  8
DEFPOINTS
  6
CONTINUOUS
 62
         0
100
AcDbPoint
 10
1527.2575470811
 20
75.8697634122
 30
0.0
  0
POINT
  5
2DC
100
AcDbEntity
  8
DEFPOINTS
  6
CONTINUOUS
 62
         0
100
AcDbPoint
 10
1537.2883812784
 20
75.8697634122
 30
0.0
  0
POINT
  5
2DD
100
AcDbEntity
  8
DEFPOINTS
  6
CONTINUOUS
 62
         0
100
AcDbPoint
 10
1537.2883812784
 20
72.5697634122
 30
0.0
  0
LINE
  5
2DE
100
AcDbEntity
  8
L1_45
  6
CONTINUOUS
 62
         4
100
AcDbLine
 10
1535.9383812784
 20
75.8697634122
 30
0.0
 11
1526.5825470811
 21
75.8697634122
 31
0.0
  0
LINE
  5
2DF
100
AcDbEntity
  8
L1_45
  6
CONTINUOUS
 62
         4
100
AcDbLine
 10
1535.9383812784
 20
72.5697634122
 30
0.0
 11
1526.5825470811
 21
72.5697634122
 31
0.0
  0
LINE
  5
2E0
100
AcDbEntity
  8
L1_45
  6
CONTINUOUS
 62
         4
100
AcDbLine
 10
1527.2575470811
 20
75.8697634122
 30
0.0
 11
1527.2575470811
 21
81.2697634122
 31
0.0
  0
SOLID
  5
2E1
100
AcDbEntity
  8
L1_45
  6
CONTINUOUS
 62
         4
100
AcDbTrace
 10
1527.2575470811
 20
75.8697634122
 30
0.0
 11
1526.8525470811
 21
78.5697634122
 31
0.0
 12
1527.6625470811
 22
78.5697634122
 32
0.0
 13
1527.2575470811
 23
75.8697634122
 33
0.0
  0
LINE
  5
2E2
100
AcDbEntity
  8
L1_45
  6
CONTINUOUS
 62
         4
100
AcDbLine
 10
1527.2575470811
 20
72.5697634122
 30
0.0
 11
1527.2575470811
 21
56.2254424605
 31
0.0
  0
SOLID
  5
2E3
100
AcDbEntity
  8
L1_45
  6
CONTINUOUS
 62
         4
100
AcDbTrace
 10
1527.2575470811
 20
72.5697634122
 30
0.0
 11
1527.6625470811
 21
69.8697634122
 31
0.0
 12
1526.8525470811
 22
69.8697634122
 32
0.0
 13
1527.2575470811
 23
72.5697634122
 33
0.0
  0
LINE
  5
2E4
100
AcDbEntity
  8
L1_45
  6
CONTINUOUS
 62
         4
100
AcDbLine
 10
1527.2575470811
 20
75.8697634122
 30
0.0
 11
1527.2575470811
 21
72.5697634122
 31
0.0
  0
TEXT
  5
2E6
100
AcDbEntity
  8
L1_45
  6
CONTINUOUS
 62
         4
100
AcDbText
 10
1525.2325470811
 20
57.5754424605
 30
0.0
 40
2.7
  1
崷3.3
 50
90.0
  7
BOX
100
AcDbText
  0
ENDBLK
  5
2E7
100
AcDbEntity
  8
0
  6
CONTINUOUS
100
AcDbBlockEnd
  0
BLOCK
  5
2E9
100
AcDbEntity
  8
0
100
AcDbBlockBegin
  2
*D7
 70
        65
 10
0.0
 20
0.0
 30
0.0
  3
*D7
  1

  0
POINT
  5
2EB
100
AcDbEntity
  8
DEFPOINTS
  6
CONTINUOUS
 62
         0
100
AcDbPoint
 10
1560.8359334415
 20
74.2197634122
 30
0.0
  0
POINT
  5
2EC
100
AcDbEntity
  8
DEFPOINTS
  6
CONTINUOUS
 62
         0
100
AcDbPoint
 10
1551.4145974959
 20
74.2197634122
 30
0.0
  0
POINT
  5
2ED
100
AcDbEntity
  8
DEFPOINTS
  6
CONTINUOUS
 62
         0
100
AcDbPoint
 10
1551.4145974959
 20
69.2197634122
 30
0.0
  0
LINE
  5
2EE
100
AcDbEntity
  8
L1_45
  6
CONTINUOUS
 62
         4
100
AcDbLine
 10
1552.7645974959
 20
74.2197634122
 30
0.0
 11
1561.5109334415
 21
74.2197634122
 31
0.0
  0
LINE
  5
2EF
100
AcDbEntity
  8
L1_45
  6
CONTINUOUS
 62
         4
100
AcDbLine
 10
1552.7645974959
 20
69.2197634122
 30
0.0
 11
1561.5109334415
 21
69.2197634122
 31
0.0
  0
LINE
  5
2F0
100
AcDbEntity
  8
L1_45
  6
CONTINUOUS
 62
         4
100
AcDbLine
 10
1560.8359334415
 20
74.2197634122
 30
0.0
 11
1560.8359334415
 21
69.2197634122
 31
0.0
  0
SOLID
  5
2F1
100
AcDbEntity
  8
L1_45
  6
CONTINUOUS
 62
         4
100
AcDbTrace
 10
1560.8359334415
 20
74.2197634122
 30
0.0
 11
1561.2409334415
 21
71.5197634122
 31
0.0
 12
1560.4309334415
 22
71.5197634122
 32
0.0
 13
1560.8359334415
 23
74.2197634122
 33
0.0
  0
SOLID
  5
2F2
100
AcDbEntity
  8
L1_45
  6
CONTINUOUS
 62
         4
100
AcDbTrace
 10
1560.8359334415
 20
69.2197634122
 30
0.0
 11
1560.4309334415
 21
71.9197634122
 31
0.0
 12
1561.2409334415
 22
71.9197634122
 32
0.0
 13
1560.8359334415
 23
69.2197634122
 33
0.0
  0
TEXT
  5
2F4
100
AcDbEntity
  8
L1_45
  6
CONTINUOUS
 62
         4
100
AcDbText
 10
1558.8109334415
 20
70.1444528178
 30
0.0
 40
2.7
  1
5
 50
90.0
  7
BOX
100
AcDbText
  0
ENDBLK
  5
2F5
100
AcDbEntity
  8
0
  6
CONTINUOUS
100
AcDbBlockEnd
  0
BLOCK
  5
2FB
100
AcDbEntity
  8
0
100
AcDbBlockBegin
  2
*D8
 70
        65
 10
0.0
 20
0.0
 30
0.0
  3
*D8
  1

  0
POINT
  5
2FD
100
AcDbEntity
  8
DEFPOINTS
  6
CONTINUOUS
 62
         0
100
AcDbPoint
 10
1548.2895974959
 20
62.5257529162
 30
0.0
  0
POINT
  5
2FE
100
AcDbEntity
  8
DEFPOINTS
  6
CONTINUOUS
 62
         0
100
AcDbPoint
 10
1548.2895974959
 20
69.7197634122
 30
0.0
  0
POINT
  5
2FF
100
AcDbEntity
  8
DEFPOINTS
  6
CONTINUOUS
 62
         0
100
AcDbPoint
 10
1554.5395974959
 20
69.7197634122
 30
0.0
  0
LINE
  5
300
100
AcDbEntity
  8
L1_45
  6
CONTINUOUS
 62
         4
100
AcDbLine
 10
1548.2895974959
 20
68.3697634122
 30
0.0
 11
1548.2895974959
 21
61.8507529162
 31
0.0
  0
LINE
  5
301
100
AcDbEntity
  8
L1_45
  6
CONTINUOUS
 62
         4
100
AcDbLine
 10
1554.5395974959
 20
68.3697634122
 30
0.0
 11
1554.5395974959
 21
61.8507529162
 31
0.0
  0
LINE
  5
302
100
AcDbEntity
  8
L1_45
  6
CONTINUOUS
 62
         4
100
AcDbLine
 10
1548.2895974959
 20
62.5257529162
 30
0.0
 11
1554.5395974959
 21
62.5257529162
 31
0.0
  0
SOLID
  5
303
100
AcDbEntity
  8
L1_45
  6
CONTINUOUS
 62
         4
100
AcDbTrace
 10
1548.2895974959
 20
62.5257529162
 30
0.0
 11
1550.9895974959
 21
62.9307529162
 31
0.0
 12
1550.9895974959
 22
62.1207529162
 32
0.0
 13
1548.2895974959
 23
62.5257529162
 33
0.0
  0
LINE
  5
304
100
AcDbEntity
  8
L1_45
  6
CONTINUOUS
 62
         4
100
AcDbLine
 10
1554.5395974959
 20
62.5257529162
 30
0.0
 11
1568.9907313684
 21
62.5257529162
 31
0.0
  0
SOLID
  5
305
100
AcDbEntity
  8
L1_45
  6
CONTINUOUS
 62
         4
100
AcDbTrace
 10
1554.5395974959
 20
62.5257529162
 30
0.0
 11
1551.8395974959
 21
62.1207529162
 31
0.0
 12
1551.8395974959
 22
62.9307529162
 32
0.0
 13
1554.5395974959
 23
62.5257529162
 33
0.0
  0
TEXT
  5
307
100
AcDbEntity
  8
L1_45
  6
CONTINUOUS
 62
         4
100
AcDbText
 10
1556.8407313684
 20
64.5507529162
 30
0.0
 40
2.7
  1
6.25
  7
BOX
100
AcDbText
  0
ENDBLK
  5
308
100
AcDbEntity
  8
0
  6
CONTINUOUS
100
AcDbBlockEnd
  0
BLOCK
  5
30D
100
AcDbEntity
  8
0
100
AcDbBlockBegin
  2
*D9
 70
        65
 10
0.0
 20
0.0
 30
0.0
  3
*D9
  1

  0
POINT
  5
30F
100
AcDbEntity
  8
DEFPOINTS
  6
CONTINUOUS
 62
         0
100
AcDbPoint
 10
1536.9883812784
 20
61.9317850844
 30
0.0
  0
POINT
  5
310
100
AcDbEntity
  8
DEFPOINTS
  6
CONTINUOUS
 62
         0
100
AcDbPoint
 10
1536.9883812784
 20
69.7197634122
 30
0.0
  0
POINT
  5
311
100
AcDbEntity
  8
DEFPOINTS
  6
CONTINUOUS
 62
         0
100
AcDbPoint
 10
1542.9883812784
 20
69.7197634122
 30
0.0
  0
LINE
  5
312
100
AcDbEntity
  8
L1_45
  6
CONTINUOUS
 62
         4
100
AcDbLine
 10
1536.9883812784
 20
68.3697634122
 30
0.0
 11
1536.9883812784
 21
61.2567850844
 31
0.0
  0
LINE
  5
313
100
AcDbEntity
  8
L1_45
  6
CONTINUOUS
 62
         4
100
AcDbLine
 10
1542.9883812784
 20
68.3697634122
 30
0.0
 11
1542.9883812784
 21
61.2567850844
 31
0.0
  0
LINE
  5
314
100
AcDbEntity
  8
L1_45
  6
CONTINUOUS
 62
         4
100
AcDbLine
 10
1536.9883812784
 20
61.9317850844
 30
0.0
 11
1542.9883812784
 21
61.9317850844
 31
0.0
  0
SOLID
  5
315
100
AcDbEntity
  8
L1_45
  6
CONTINUOUS
 62
         4
100
AcDbTrace
 10
1536.9883812784
 20
61.9317850844
 30
0.0
 11
1539.6883812784
 21
62.3367850844
 31
0.0
 12
1539.6883812784
 22
61.5267850844
 32
0.0
 13
1536.9883812784
 23
61.9317850844
 33
0.0
  0
SOLID
  5
316
100
AcDbEntity
  8
L1_45
  6
CONTINUOUS
 62
         4
100
AcDbTrace
 10
1542.9883812784
 20
61.9317850844
 30
0.0
 11
1540.2883812784
 21
61.5267850844
 31
0.0
 12
1540.2883812784
 22
62.3367850844
 32
0.0
 13
1542.9883812784
 23
61.9317850844
 33
0.0
  0
TEXT
  5
318
100
AcDbEntity
  8
L1_45
  6
CONTINUOUS
 62
         4
100
AcDbText
 10
1537.9096171258
 20
63.9567850844
 30
0.0
 40
2.7
  1
6
  7
BOX
100
AcDbText
  0
ENDBLK
  5
319
100
AcDbEntity
  8
0
  6
CONTINUOUS
100
AcDbBlockEnd
  0
BLOCK
  5
321
100
AcDbEntity
  8
0
100
AcDbBlockBegin
  2
*D10
 70
        65
 10
0.0
 20
0.0
 30
0.0
  3
*D10
  1

  0
POINT
  5
323
100
AcDbEntity
  8
DEFPOINTS
  6
CONTINUOUS
 62
         0
100
AcDbPoint
 10
1539.6883812784
 20
83.2618200097
 30
0.0
  0
POINT
  5
324
100
AcDbEntity
  8
DEFPOINTS
  6
CONTINUOUS
 62
         0
100
AcDbPoint
 10
1539.6883812784
 20
76.9697634122
 30
0.0
  0
POINT
  5
325
100
AcDbEntity
  8
DEFPOINTS
  6
CONTINUOUS
 62
         0
100
AcDbPoint
 10
1542.9883812784
 20
78.9197634122
 30
0.0
  0
LINE
  5
326
100
AcDbEntity
  8
L1_45
  6
CONTINUOUS
 62
         4
100
AcDbLine
 10
1539.6883812784
 20
78.3197634122
 30
0.0
 11
1539.6883812784
 21
83.9368200097
 31
0.0
  0
LINE
  5
327
100
AcDbEntity
  8
L1_45
  6
CONTINUOUS
 62
         4
100
AcDbLine
 10
1542.9883812784
 20
80.2697634122
 30
0.0
 11
1542.9883812784
 21
83.9368200097
 31
0.0
  0
LINE
  5
328
100
AcDbEntity
  8
L1_45
  6
CONTINUOUS
 62
         4
100
AcDbLine
 10
1539.6883812784
 20
83.2618200097
 30
0.0
 11
1534.2883812784
 21
83.2618200097
 31
0.0
  0
SOLID
  5
329
100
AcDbEntity
  8
L1_45
  6
CONTINUOUS
 62
         4
100
AcDbTrace
 10
1539.6883812784
 20
83.2618200097
 30
0.0
 11
1536.9883812784
 21
82.8568200097
 31
0.0
 12
1536.9883812784
 22
83.6668200097
 32
0.0
 13
1539.6883812784
 23
83.2618200097
 33
0.0
  0
LINE
  5
32A
100
AcDbEntity
  8
L1_45
  6
CONTINUOUS
 62
         4
100
AcDbLine
 10
1542.9883812784
 20
83.2618200097
 30
0.0
 11
1551.0254818902
 21
83.2618200097
 31
0.0
  0
SOLID
  5
32B
100
AcDbEntity
  8
L1_45
  6
CONTINUOUS
 62
         4
100
AcDbTrace
 10
1542.9883812784
 20
83.2618200097
 30
0.0
 11
1545.6883812784
 21
83.6668200097
 31
0.0
 12
1545.6883812784
 22
82.8568200097
 32
0.0
 13
1542.9883812784
 23
83.2618200097
 33
0.0
  0
LINE
  5
32C
100
AcDbEntity
  8
L1_45
  6
CONTINUOUS
 62
         4
100
AcDbLine
 10
1539.6883812784
 20
83.2618200097
 30
0.0
 11
1542.9883812784
 21
83.2618200097
 31
0.0
  0
TEXT
  5
32E
100
AcDbEntity
  8
L1_45
  6
CONTINUOUS
 62
         4
100
AcDbText
 10
1541.5754818902
 20
85.2868200097
 30
0.0
 40
2.7
  1
3.3
  7
BOX
100
AcDbText
  0
ENDBLK
  5
32F
100
AcDbEntity
  8
0
  6
CONTINUOUS
100
AcDbBlockEnd
  0
BLOCK
  5
335
100
AcDbEntity
  8
0
100
AcDbBlockBegin
  2
*D11
 70
        65
 10
0.0
 20
0.0
 30
0.0
  3
*D11
  1

  0
POINT
  5
337
100
AcDbEntity
  8
DEFPOINTS
  6
CONTINUOUS
 62
         0
100
AcDbPoint
 10
1569.283289224
 20
79.4197634122
 30
0.0
  0
POINT
  5
338
100
AcDbEntity
  8
DEFPOINTS
  6
CONTINUOUS
 62
         0
100
AcDbPoint
 10
1554.0395974959
 20
79.4197634122
 30
0.0
  0
POINT
  5
339
100
AcDbEntity
  8
DEFPOINTS
  6
CONTINUOUS
 62
         0
100
AcDbPoint
 10
1554.0395974959
 20
69.2197634122
 30
0.0
  0
LINE
  5
33A
100
AcDbEntity
  8
L1_45
  6
CONTINUOUS
 62
         4
100
AcDbLine
 10
1555.3895974959
 20
79.4197634122
 30
0.0
 11
1569.958289224
 21
79.4197634122
 31
0.0
  0
LINE
  5
33B
100
AcDbEntity
  8
L1_45
  6
CONTINUOUS
 62
         4
100
AcDbLine
 10
1555.3895974959
 20
69.2197634122
 30
0.0
 11
1569.958289224
 21
69.2197634122
 31
0.0
  0
LINE
  5
33C
100
AcDbEntity
  8
L1_45
  6
CONTINUOUS
 62
         4
100
AcDbLine
 10
1569.283289224
 20
79.4197634122
 30
0.0
 11
1569.283289224
 21
69.2197634122
 31
0.0
  0
SOLID
  5
33D
100
AcDbEntity
  8
L1_45
  6
CONTINUOUS
 62
         4
100
AcDbTrace
 10
1569.283289224
 20
79.4197634122
 30
0.0
 11
1569.688289224
 21
76.7197634122
 31
0.0
 12
1568.878289224
 22
76.7197634122
 32
0.0
 13
1569.283289224
 23
79.4197634122
 33
0.0
  0
SOLID
  5
33E
100
AcDbEntity
  8
L1_45
  6
CONTINUOUS
 62
         4
100
AcDbTrace
 10
1569.283289224
 20
69.2197634122
 30
0.0
 11
1568.878289224
 21
71.9197634122
 31
0.0
 12
1569.688289224
 22
71.9197634122
 32
0.0
 13
1569.283289224
 23
69.2197634122
 33
0.0
  0
TEXT
  5
340
100
AcDbEntity
  8
L1_45
  6
CONTINUOUS
 62
         4
100
AcDbText
 10
1567.258289224
 20
68.6324442421
 30
0.0
 40
2.7
  1
10.2
 50
90.0
  7
BOX
100
AcDbText
  0
ENDBLK
  5
341
100
AcDbEntity
  8
0
  6
CONTINUOUS
100
AcDbBlockEnd
  0
BLOCK
  5
343
100
AcDbEntity
  8
0
100
AcDbBlockBegin
  2
*X12
 70
        65
 10
0.0
 20
0.0
 30
0.0
  3
*X12
  1

  0
LINE
  5
344
100
AcDbEntity
  8
L1_45
  6
CONTINUOUS
 62
         4
100
AcDbLine
 10
1537.5614084725
 20
75.8697634122
 30
0.0
 11
1541.1114084725
 21
79.4197634122
 31
0.0
  0
ENDBLK
  5
345
100
AcDbEntity
  8
0
  6
CONTINUOUS
100
AcDbBlockEnd
  0
BLOCK
  5
349
100
AcDbEntity
  8
0
100
AcDbBlockBegin
  2
*X13
 70
        65
 10
0.0
 20
0.0
 30
0.0
  3
*X13
  1

  0
LINE
  5
34A
100
AcDbEntity
  8
L1_45
  6
CONTINUOUS
 62
         4
100
AcDbLine
 10
1539.3966898467
 20
69.2197634122
 30
0.0
 11
1541.6466898467
 21
71.4697634122
 31
0.0
  0
LINE
  5
34B
100
AcDbEntity
  8
L1_45
  6
CONTINUOUS
 62
         4
100
AcDbLine
 10
1536.9883812784
 20
71.054095531
 30
0.0
 11
1538.5040491596
 21
72.5697634122
 31
0.0
  0
ENDBLK
  5
34C
100
AcDbEntity
  8
0
  6
CONTINUOUS
100
AcDbBlockEnd
  0
BLOCK
  5
361
100
AcDbEntity
  8
0
100
AcDbBlockBegin
  2
*D14
 70
        65
 10
0.0
 20
0.0
 30
0.0
  3
*D14
  1

  0
POINT
  5
363
100
AcDbEntity
  8
DEFPOINTS
  6
CONTINUOUS
 62
         0
100
AcDbPoint
 10
1331.7533403763
 20
225.6637266176
 30
0.0
  0
POINT
  5
364
100
AcDbEntity
  8
DEFPOINTS
  6
CONTINUOUS
 62
         0
100
AcDbPoint
 10
1331.7533403763
 20
161.4188234458
 30
0.0
  0
POINT
  5
365
100
AcDbEntity
  8
DEFPOINTS
  6
CONTINUOUS
 62
         0
100
AcDbPoint
 10
1459.0033403763
 20
150.1846417294
 30
0.0
  0
LINE
  5
366
100
AcDbEntity
  8
L1_45
  6
CONTINUOUS
 62
         4
100
AcDbLine
 10
1331.7533403763
 20
162.7688234458
 30
0.0
 11
1331.7533403763
 21
226.3387266176
 31
0.0
  0
LINE
  5
367
100
AcDbEntity
  8
L1_45
  6
CONTINUOUS
 62
         4
100
AcDbLine
 10
1459.0033403763
 20
151.5346417294
 30
0.0
 11
1459.0033403763
 21
226.3387266176
 31
0.0
  0
LINE
  5
368
100
AcDbEntity
  8
L1_45
  6
CONTINUOUS
 62
         4
100
AcDbLine
 10
1331.7533403763
 20
225.6637266176
 30
0.0
 11
1459.0033403763
 21
225.6637266176
 31
0.0
  0
SOLID
  5
369
100
AcDbEntity
  8
L1_45
  6
CONTINUOUS
 62
         4
100
AcDbTrace
 10
1331.7533403763
 20
225.6637266176
 30
0.0
 11
1334.4533403763
 21
226.0687266176
 31
0.0
 12
1334.4533403763
 22
225.2587266176
 32
0.0
 13
1331.7533403763
 23
225.6637266176
 33
0.0
  0
SOLID
  5
36A
100
AcDbEntity
  8
L1_45
  6
CONTINUOUS
 62
         4
100
AcDbTrace
 10
1459.0033403763
 20
225.6637266176
 30
0.0
 11
1456.3033403763
 21
225.2587266176
 31
0.0
 12
1456.3033403763
 22
226.0687266176
 32
0.0
 13
1459.0033403763
 23
225.6637266176
 33
0.0
  0
TEXT
  5
36C
100
AcDbEntity
  8
L1_45
  6
CONTINUOUS
 62
         4
100
AcDbText
 10
1389.6751794956
 20
227.6887266176
 30
0.0
 40
2.7
  1
127.25
  7
BOX
100
AcDbText
  0
ENDBLK
  5
36D
100
AcDbEntity
  8
0
  6
CONTINUOUS
100
AcDbBlockEnd
  0
BLOCK
  5
387
100
AcDbEntity
  8
0
100
AcDbBlockBegin
  2
*D15
 70
        65
 10
0.0
 20
0.0
 30
0.0
  3
*D15
  1

  0
POINT
  5
389
100
AcDbEntity
  8
DEFPOINTS
  6
CONTINUOUS
 62
         0
100
AcDbPoint
 10
1459.0033403763
 20
-52.785725857
 30
0.0
  0
POINT
  5
38A
100
AcDbEntity
  8
DEFPOINTS
  6
CONTINUOUS
 62
         0
100
AcDbPoint
 10
1459.0033403763
 20
-18.2933347407
 30
0.0
  0
POINT
  5
38B
100
AcDbEntity
  8
DEFPOINTS
  6
CONTINUOUS
 62
         0
100
AcDbPoint
 10
1439.0033403763
 20
-16.1433347407
 30
0.0
  0
LINE
  5
38C
100
AcDbEntity
  8
L1_45
  6
CONTINUOUS
 62
         4
100
AcDbLine
 10
1459.0033403763
 20
-19.6433347407
 30
0.0
 11
1459.0033403763
 21
-53.460725857
 31
0.0
  0
LINE
  5
38D
100
AcDbEntity
  8
L1_45
  6
CONTINUOUS
 62
         4
100
AcDbLine
 10
1439.0033403763
 20
-17.4933347407
 30
0.0
 11
1439.0033403763
 21
-53.460725857
 31
0.0
  0
LINE
  5
38E
100
AcDbEntity
  8
L1_45
  6
CONTINUOUS
 62
         4
100
AcDbLine
 10
1459.0033403763
 20
-52.785725857
 30
0.0
 11
1439.0033403763
 21
-52.785725857
 31
0.0
  0
SOLID
  5
38F
100
AcDbEntity
  8
L1_45
  6
CONTINUOUS
 62
         4
100
AcDbTrace
 10
1459.0033403763
 20
-52.785725857
 30
0.0
 11
1456.3033403763
 21
-53.190725857
 31
0.0
 12
1456.3033403763
 22
-52.380725857
 32
0.0
 13
1459.0033403763
 23
-52.785725857
 33
0.0
  0
SOLID
  5
390
100
AcDbEntity
  8
L1_45
  6
CONTINUOUS
 62
         4
100
AcDbTrace
 10
1439.0033403763
 20
-52.785725857
 30
0.0
 11
1441.7033403763
 21
-52.380725857
 31
0.0
 12
1441.7033403763
 22
-53.190725857
 32
0.0
 13
1439.0033403763
 23
-52.785725857
 33
0.0
  0
TEXT
  5
392
100
AcDbEntity
  8
L1_45
  6
CONTINUOUS
 62
         4
100
AcDbText
 10
1446.4774459464
 20
-50.760725857
 30
0.0
 40
2.7
  1
20
  7
BOX
100
AcDbText
  0
ENDBLK
  5
393
100
AcDbEntity
  8
0
  6
CONTINUOUS
100
AcDbBlockEnd
  0
BLOCK
  5
395
100
AcDbEntity
  8
0
100
AcDbBlockBegin
  2
*D16
 70
        65
 10
0.0
 20
0.0
 30
0.0
  3
*D16
  1

  0
POINT
  5
397
100
AcDbEntity
  8
DEFPOINTS
  6
CONTINUOUS
 62
         0
100
AcDbPoint
 10
1459.0033403763
 20
-43.2369406985
 30
0.0
  0
POINT
  5
398
100
AcDbEntity
  8
DEFPOINTS
  6
CONTINUOUS
 62
         0
100
AcDbPoint
 10
1459.0033403763
 20
-18.2933347407
 30
0.0
  0
POINT
  5
399
100
AcDbEntity
  8
DEFPOINTS
  6
CONTINUOUS
 62
         0
100
AcDbPoint
 10
1455.0033403763
 20
-17.4433347407
 30
0.0
  0
LINE
  5
39A
100
AcDbEntity
  8
L1_45
  6
CONTINUOUS
 62
         4
100
AcDbLine
 10
1459.0033403763
 20
-19.6433347407
 30
0.0
 11
1459.0033403763
 21
-43.9119406985
 31
0.0
  0
LINE
  5
39B
100
AcDbEntity
  8
L1_45
  6
CONTINUOUS
 62
         4
100
AcDbLine
 10
1455.0033403763
 20
-18.7933347407
 30
0.0
 11
1455.0033403763
 21
-43.9119406985
 31
0.0
  0
LINE
  5
39C
100
AcDbEntity
  8
L1_45
  6
CONTINUOUS
 62
         4
100
AcDbLine
 10
1459.0033403763
 20
-43.2369406985
 30
0.0
 11
1455.0033403763
 21
-43.2369406985
 31
0.0
  0
SOLID
  5
39D
100
AcDbEntity
  8
L1_45
  6
CONTINUOUS
 62
         4
100
AcDbTrace
 10
1459.0033403763
 20
-43.2369406985
 30
0.0
 11
1456.3033403763
 21
-43.6419406985
 31
0.0
 12
1456.3033403763
 22
-42.8319406985
 32
0.0
 13
1459.0033403763
 23
-43.2369406985
 33
0.0
  0
LINE
  5
39E
100
AcDbEntity
  8
L1_45
  6
CONTINUOUS
 62
         4
100
AcDbLine
 10
1455.0033403763
 20
-43.2369406985
 30
0.0
 11
1444.9380724766
 21
-43.2369406985
 31
0.0
  0
SOLID
  5
39F
100
AcDbEntity
  8
L1_45
  6
CONTINUOUS
 62
         4
100
AcDbTrace
 10
1455.0033403763
 20
-43.2369406985
 30
0.0
 11
1457.7033403763
 21
-42.8319406985
 31
0.0
 12
1457.7033403763
 22
-43.6419406985
 32
0.0
 13
1455.0033403763
 23
-43.2369406985
 33
0.0
  0
TEXT
  5
3A1
100
AcDbEntity
  8
L1_45
  6
CONTINUOUS
 62
         4
100
AcDbText
 10
1446.2880724766
 20
-41.2119406985
 30
0.0
 40
2.7
  1
4
  7
BOX
100
AcDbText
  0
ENDBLK
  5
3A2
100
AcDbEntity
  8
0
  6
CONTINUOUS
100
AcDbBlockEnd
  0
BLOCK
  5
3D9
100
AcDbEntity
  8
0
100
AcDbBlockBegin
  2
*D17
 70
        65
 10
0.0
 20
0.0
 30
0.0
  3
*D17
  1

  0
POINT
  5
3DB
100
AcDbEntity
  8
DEFPOINTS
  6
CONTINUOUS
 62
         0
100
AcDbPoint
 10
1619.1851654259
 20
64.9834666657
 30
0.0
  0
POINT
  5
3DC
100
AcDbEntity
  8
DEFPOINTS
  6
CONTINUOUS
 62
         0
100
AcDbPoint
 10
1619.1851654259
 20
75.1153523792
 30
0.0
  0
POINT
  5
3DD
100
AcDbEntity
  8
DEFPOINTS
  6
CONTINUOUS
 62
         0
100
AcDbPoint
 10
1623.1851654259
 20
70.9392616155
 30
0.0
  0
LINE
  5
3DE
100
AcDbEntity
  8
L1_45
  6
CONTINUOUS
 62
         4
100
AcDbLine
 10
1619.1851654259
 20
73.7653523792
 30
0.0
 11
1619.1851654259
 21
64.3084666657
 31
0.0
  0
LINE
  5
3DF
100
AcDbEntity
  8
L1_45
  6
CONTINUOUS
 62
         4
100
AcDbLine
 10
1623.1851654259
 20
69.5892616155
 30
0.0
 11
1623.1851654259
 21
64.3084666657
 31
0.0
  0
LINE
  5
3E0
100
AcDbEntity
  8
L1_45
  6
CONTINUOUS
 62
         4
100
AcDbLine
 10
1619.1851654259
 20
64.9834666657
 30
0.0
 11
1613.7851654259
 21
64.9834666657
 31
0.0
  0
SOLID
  5
3E1
100
AcDbEntity
  8
L1_45
  6
CONTINUOUS
 62
         4
100
AcDbTrace
 10
1619.1851654259
 20
64.9834666657
 30
0.0
 11
1616.4851654259
 21
64.5784666657
 31
0.0
 12
1616.4851654259
 22
65.3884666657
 32
0.0
 13
1619.1851654259
 23
64.9834666657
 33
0.0
  0
LINE
  5
3E2
100
AcDbEntity
  8
L1_45
  6
CONTINUOUS
 62
         4
100
AcDbLine
 10
1623.1851654259
 20
64.9834666657
 30
0.0
 11
1628.5851654259
 21
64.9834666657
 31
0.0
  0
SOLID
  5
3E3
100
AcDbEntity
  8
L1_45
  6
CONTINUOUS
 62
         4
100
AcDbTrace
 10
1623.1851654259
 20
64.9834666657
 30
0.0
 11
1625.8851654259
 21
65.3884666657
 31
0.0
 12
1625.8851654259
 22
64.5784666657
 32
0.0
 13
1623.1851654259
 23
64.9834666657
 33
0.0
  0
LINE
  5
3E4
100
AcDbEntity
  8
L1_45
  6
CONTINUOUS
 62
         4
100
AcDbLine
 10
1619.1851654259
 20
64.9834666657
 30
0.0
 11
1623.1851654259
 21
64.9834666657
 31
0.0
  0
TEXT
  5
3E6
100
AcDbEntity
  8
L1_45
  6
CONTINUOUS
 62
         4
100
AcDbText
 10
1619.8262473835
 20
67.0084666657
 30
0.0
 40
2.7
  1
4
  7
BOX
100
AcDbText
  0
ENDBLK
  5
3E7
100
AcDbEntity
  8
0
  6
CONTINUOUS
100
AcDbBlockEnd
  0
BLOCK
  5
3E9
100
AcDbEntity
  8
0
100
AcDbBlockBegin
  2
*D18
 70
        65
 10
0.0
 20
0.0
 30
0.0
  3
*D18
  1

  0
POINT
  5
3EB
100
AcDbEntity
  8
DEFPOINTS
  6
CONTINUOUS
 62
         0
100
AcDbPoint
 10
1594.2405754963
 20
82.0142679655
 30
0.0
  0
POINT
  5
3EC
100
AcDbEntity
  8
DEFPOINTS
  6
CONTINUOUS
 62
         0
100
AcDbPoint
 10
1600.7896805898
 20
82.0142679655
 30
0.0
  0
POINT
  5
3ED
100
AcDbEntity
  8
DEFPOINTS
  6
CONTINUOUS
 62
         0
100
AcDbPoint
 10
1600.7896805898
 20
75.6642552655
 30
0.0
  0
LINE
  5
3EE
100
AcDbEntity
  8
L1_45
  6
CONTINUOUS
 62
         4
100
AcDbLine
 10
1599.4396805898
 20
82.0142679655
 30
0.0
 11
1593.5655754963
 21
82.0142679655
 31
0.0
  0
LINE
  5
3EF
100
AcDbEntity
  8
L1_45
  6
CONTINUOUS
 62
         4
100
AcDbLine
 10
1599.4396805898
 20
75.6642552655
 30
0.0
 11
1593.5655754963
 21
75.6642552655
 31
0.0
  0
LINE
  5
3F0
100
AcDbEntity
  8
L1_45
  6
CONTINUOUS
 62
         4
100
AcDbLine
 10
1594.2405754963
 20
82.0142679655
 30
0.0
 11
1594.2405754963
 21
87.4142679655
 31
0.0
  0
SOLID
  5
3F1
100
AcDbEntity
  8
L1_45
  6
CONTINUOUS
 62
         4
100
AcDbTrace
 10
1594.2405754963
 20
82.0142679655
 30
0.0
 11
1593.8355754963
 21
84.7142679655
 31
0.0
 12
1594.6455754963
 22
84.7142679655
 32
0.0
 13
1594.2405754963
 23
82.0142679655
 33
0.0
  0
LINE
  5
3F2
100
AcDbEntity
  8
L1_45
  6
CONTINUOUS
 62
         4
100
AcDbLine
 10
1594.2405754963
 20
75.6642552655
 30
0.0
 11
1594.2405754963
 21
70.2642552655
 31
0.0
  0
SOLID
  5
3F3
100
AcDbEntity
  8
L1_45
  6
CONTINUOUS
 62
         4
100
AcDbTrace
 10
1594.2405754963
 20
75.6642552655
 30
0.0
 11
1594.6455754963
 21
72.9642552655
 31
0.0
 12
1593.8355754963
 22
72.9642552655
 32
0.0
 13
1594.2405754963
 23
75.6642552655
 33
0.0
  0
LINE
  5
3F4
100
AcDbEntity
  8
L1_45
  6
CONTINUOUS
 62
         4
100
AcDbLine
 10
1594.2405754963
 20
82.0142679655
 30
0.0
 11
1594.2405754963
 21
75.6642552655
 31
0.0
  0
TEXT
  5
3F6
100
AcDbEntity
  8
L1_45
  6
CONTINUOUS
 62
         4
100
AcDbText
 10
1592.2155754963
 20
58.4981810679
 30
0.0
 40
2.7
  1
1/4"-28 UNF-2A
 50
90.0
  7
BOX
100
AcDbText
  0
ENDBLK
  5
3F7
100
AcDbEntity
  8
0
  6
CONTINUOUS
100
AcDbBlockEnd
  0
BLOCK
  5
3F9
100
AcDbEntity
  8
0
100
AcDbBlockBegin
  2
*D19
 70
        65
 10
0.0
 20
0.0
 30
0.0
  3
*D19
  1

  0
POINT
  5
3FB
100
AcDbEntity
  8
DEFPOINTS
  6
CONTINUOUS
 62
         0
100
AcDbPoint
 10
1636.7976798859
 20
86.7392616155
 30
0.0
  0
POINT
  5
3FC
100
AcDbEntity
  8
DEFPOINTS
  6
CONTINUOUS
 62
         0
100
AcDbPoint
 10
1623.1851654259
 20
86.7392616155
 30
0.0
  0
POINT
  5
3FD
100
AcDbEntity
  8
DEFPOINTS
  6
CONTINUOUS
 62
         0
100
AcDbPoint
 10
1623.1851654259
 20
70.9392616155
 30
0.0
  0
LINE
  5
3FE
100
AcDbEntity
  8
L1_45
  6
CONTINUOUS
 62
         4
100
AcDbLine
 10
1624.5351654259
 20
86.7392616155
 30
0.0
 11
1637.4726798859
 21
86.7392616155
 31
0.0
  0
LINE
  5
3FF
100
AcDbEntity
  8
L1_45
  6
CONTINUOUS
 62
         4
100
AcDbLine
 10
1624.5351654259
 20
70.9392616155
 30
0.0
 11
1637.4726798859
 21
70.9392616155
 31
0.0
  0
LINE
  5
400
100
AcDbEntity
  8
L1_45
  6
CONTINUOUS
 62
         4
100
AcDbLine
 10
1636.7976798859
 20
86.7392616155
 30
0.0
 11
1636.7976798859
 21
70.9392616155
 31
0.0
  0
SOLID
  5
401
100
AcDbEntity
  8
L1_45
  6
CONTINUOUS
 62
         4
100
AcDbTrace
 10
1636.7976798859
 20
86.7392616155
 30
0.0
 11
1637.2026798859
 21
84.0392616155
 31
0.0
 12
1636.3926798859
 22
84.0392616155
 32
0.0
 13
1636.7976798859
 23
86.7392616155
 33
0.0
  0
SOLID
  5
402
100
AcDbEntity
  8
L1_45
  6
CONTINUOUS
 62
         4
100
AcDbTrace
 10
1636.7976798859
 20
70.9392616155
 30
0.0
 11
1636.3926798859
 21
73.6392616155
 31
0.0
 12
1637.2026798859
 22
73.6392616155
 32
0.0
 13
1636.7976798859
 23
70.9392616155
 33
0.0
  0
TEXT
  5
404
100
AcDbEntity
  8
L1_45
  6
CONTINUOUS
 62
         4
100
AcDbText
 10
1634.7726798859
 20
70.500359158
 30
0.0
 40
2.7
  1
崷15.8
 50
90.0
  7
BOX
100
AcDbText
  0
ENDBLK
  5
405
100
AcDbEntity
  8
0
  6
CONTINUOUS
100
AcDbBlockEnd
  0
BLOCK
  5
407
100
AcDbEntity
  8
0
100
AcDbBlockBegin
  2
*D20
 70
        65
 10
0.0
 20
0.0
 30
0.0
  3
*D20
  1

  0
POINT
  5
409
100
AcDbEntity
  8
DEFPOINTS
  6
CONTINUOUS
 62
         0
100
AcDbPoint
 10
1630.3059181993
 20
82.8392616155
 30
0.0
  0
POINT
  5
40A
100
AcDbEntity
  8
DEFPOINTS
  6
CONTINUOUS
 62
         0
100
AcDbPoint
 10
1616.18719743
 20
82.8392616155
 30
0.0
  0
POINT
  5
40B
100
AcDbEntity
  8
DEFPOINTS
  6
CONTINUOUS
 62
         0
100
AcDbPoint
 10
1616.18719743
 20
74.8392616155
 30
0.0
  0
LINE
  5
40C
100
AcDbEntity
  8
L1_45
  6
CONTINUOUS
 62
         4
100
AcDbLine
 10
1617.53719743
 20
82.8392616155
 30
0.0
 11
1630.9809181993
 21
82.8392616155
 31
0.0
  0
LINE
  5
40D
100
AcDbEntity
  8
L1_45
  6
CONTINUOUS
 62
         4
100
AcDbLine
 10
1617.53719743
 20
74.8392616155
 30
0.0
 11
1630.9809181993
 21
74.8392616155
 31
0.0
  0
LINE
  5
40E
100
AcDbEntity
  8
L1_45
  6
CONTINUOUS
 62
         4
100
AcDbLine
 10
1630.3059181993
 20
82.8392616155
 30
0.0
 11
1630.3059181993
 21
74.8392616155
 31
0.0
  0
SOLID
  5
40F
100
AcDbEntity
  8
L1_45
  6
CONTINUOUS
 62
         4
100
AcDbTrace
 10
1630.3059181993
 20
82.8392616155
 30
0.0
 11
1630.7109181993
 21
80.1392616155
 31
0.0
 12
1629.9009181993
 22
80.1392616155
 32
0.0
 13
1630.3059181993
 23
82.8392616155
 33
0.0
  0
SOLID
  5
410
100
AcDbEntity
  8
L1_45
  6
CONTINUOUS
 62
         4
100
AcDbTrace
 10
1630.3059181993
 20
74.8392616155
 30
0.0
 11
1629.9009181993
 21
77.5392616155
 31
0.0
 12
1630.7109181993
 22
77.5392616155
 32
0.0
 13
1630.3059181993
 23
74.8392616155
 33
0.0
  0
TEXT
  5
412
100
AcDbEntity
  8
L1_45
  6
CONTINUOUS
 62
         4
100
AcDbText
 10
1628.2809181993
 20
74.550359158
 30
0.0
 40
2.7
  1
崷8
 50
90.0
  7
BOX
100
AcDbText
  0
ENDBLK
  5
413
100
AcDbEntity
  8
0
  6
CONTINUOUS
100
AcDbBlockEnd
  0
BLOCK
  5
415
100
AcDbEntity
  8
0
100
AcDbBlockBegin
  2
*D21
 70
        65
 10
0.0
 20
0.0
 30
0.0
  3
*D21
  1

  0
POINT
  5
417
100
AcDbEntity
  8
DEFPOINTS
  6
CONTINUOUS
 62
         0
100
AcDbPoint
 10
1616.18719743
 20
90.1779800742
 30
0.0
  0
POINT
  5
418
100
AcDbEntity
  8
DEFPOINTS
  6
CONTINUOUS
 62
         0
100
AcDbPoint
 10
1616.18719743
 20
86.7392616155
 30
0.0
  0
POINT
  5
419
100
AcDbEntity
  8
DEFPOINTS
  6
CONTINUOUS
 62
         0
100
AcDbPoint
 10
1613.18719743
 20
82.8392616155
 30
0.0
  0
LINE
  5
41A
100
AcDbEntity
  8
L1_45
  6
CONTINUOUS
 62
         4
100
AcDbLine
 10
1616.18719743
 20
88.0892616155
 30
0.0
 11
1616.18719743
 21
90.8529800742
 31
0.0
  0
LINE
  5
41B
100
AcDbEntity
  8
L1_45
  6
CONTINUOUS
 62
         4
100
AcDbLine
 10
1613.18719743
 20
84.1892616155
 30
0.0
 11
1613.18719743
 21
90.8529800742
 31
0.0
  0
LINE
  5
41C
100
AcDbEntity
  8
L1_45
  6
CONTINUOUS
 62
         4
100
AcDbLine
 10
1616.18719743
 20
90.1779800742
 30
0.0
 11
1621.58719743
 21
90.1779800742
 31
0.0
  0
SOLID
  5
41D
100
AcDbEntity
  8
L1_45
  6
CONTINUOUS
 62
         4
100
AcDbTrace
 10
1616.18719743
 20
90.1779800742
 30
0.0
 11
1618.88719743
 21
90.5829800742
 31
0.0
 12
1618.88719743
 22
89.7729800742
 32
0.0
 13
1616.18719743
 23
90.1779800742
 33
0.0
  0
LINE
  5
41E
100
AcDbEntity
  8
L1_45
  6
CONTINUOUS
 62
         4
100
AcDbLine
 10
1613.18719743
 20
90.1779800742
 30
0.0
 11
1607.78719743
 21
90.1779800742
 31
0.0
  0
SOLID
  5
41F
100
AcDbEntity
  8
L1_45
  6
CONTINUOUS
 62
         4
100
AcDbTrace
 10
1613.18719743
 20
90.1779800742
 30
0.0
 11
1610.48719743
 21
89.7729800742
 31
0.0
 12
1610.48719743
 22
90.5829800742
 32
0.0
 13
1613.18719743
 23
90.1779800742
 33
0.0
  0
LINE
  5
420
100
AcDbEntity
  8
L1_45
  6
CONTINUOUS
 62
         4
100
AcDbLine
 10
1616.18719743
 20
90.1779800742
 30
0.0
 11
1613.18719743
 21
90.1779800742
 31
0.0
  0
TEXT
  5
422
100
AcDbEntity
  8
L1_45
  6
CONTINUOUS
 62
         4
100
AcDbText
 10
1613.0078409463
 20
92.2029800742
 30
0.0
 40
2.7
  1
3
  7
BOX
100
AcDbText
  0
ENDBLK
  5
423
100
AcDbEntity
  8
0
  6
CONTINUOUS
100
AcDbBlockEnd
  0
BLOCK
  5
425
100
AcDbEntity
  8
0
100
AcDbBlockBegin
  2
*D22
 70
        65
 10
0.0
 20
0.0
 30
0.0
  3
*D22
  1

  0
POINT
  5
427
100
AcDbEntity
  8
DEFPOINTS
  6
CONTINUOUS
 62
         0
100
AcDbPoint
 10
1600.1851654259
 20
66.6106040846
 30
0.0
  0
POINT
  5
428
100
AcDbEntity
  8
DEFPOINTS
  6
CONTINUOUS
 62
         0
100
AcDbPoint
 10
1600.1851654259
 20
76.2687704293
 30
0.0
  0
POINT
  5
429
100
AcDbEntity
  8
DEFPOINTS
  6
CONTINUOUS
 62
         0
100
AcDbPoint
 10
1616.18719743
 20
70.9392616155
 30
0.0
  0
LINE
  5
42A
100
AcDbEntity
  8
L1_45
  6
CONTINUOUS
 62
         4
100
AcDbLine
 10
1600.1851654259
 20
74.9187704293
 30
0.0
 11
1600.1851654259
 21
65.9356040846
 31
0.0
  0
LINE
  5
42B
100
AcDbEntity
  8
L1_45
  6
CONTINUOUS
 62
         4
100
AcDbLine
 10
1616.18719743
 20
69.5892616155
 30
0.0
 11
1616.18719743
 21
65.9356040846
 31
0.0
  0
LINE
  5
42C
100
AcDbEntity
  8
L1_45
  6
CONTINUOUS
 62
         4
100
AcDbLine
 10
1600.1851654259
 20
66.6106040846
 30
0.0
 11
1616.18719743
 21
66.6106040846
 31
0.0
  0
SOLID
  5
42D
100
AcDbEntity
  8
L1_45
  6
CONTINUOUS
 62
         4
100
AcDbTrace
 10
1600.1851654259
 20
66.6106040846
 30
0.0
 11
1602.8851654259
 21
67.0156040846
 31
0.0
 12
1602.8851654259
 22
66.2056040846
 32
0.0
 13
1600.1851654259
 23
66.6106040846
 33
0.0
  0
SOLID
  5
42E
100
AcDbEntity
  8
L1_45
  6
CONTINUOUS
 62
         4
100
AcDbTrace
 10
1616.18719743
 20
66.6106040846
 30
0.0
 11
1613.48719743
 21
66.2056040846
 31
0.0
 12
1613.48719743
 22
67.0156040846
 32
0.0
 13
1616.18719743
 23
66.6106040846
 33
0.0
  0
TEXT
  5
430
100
AcDbEntity
  8
L1_45
  6
CONTINUOUS
 62
         4
100
AcDbText
 10
1604.280236887
 20
68.6356040846
 30
0.0
 40
2.7
  1
16
  7
BOX
100
AcDbText
  0
ENDBLK
  5
431
100
AcDbEntity
  8
0
  6
CONTINUOUS
100
AcDbBlockEnd
  0
BLOCK
  5
433
100
AcDbEntity
  8
0
100
AcDbBlockBegin
  2
*D23
 70
        65
 10
0.0
 20
0.0
 30
0.0
  3
*D23
  1

  0
POINT
  5
435
100
AcDbEntity
  8
DEFPOINTS
  6
CONTINUOUS
 62
         0
100
AcDbPoint
 10
1600.1851654259
 20
96.113734394
 30
0.0
  0
POINT
  5
436
100
AcDbEntity
  8
DEFPOINTS
  6
CONTINUOUS
 62
         0
100
AcDbPoint
 10
1600.1851654259
 20
81.4097528017
 30
0.0
  0
POINT
  5
437
100
AcDbEntity
  8
DEFPOINTS
  6
CONTINUOUS
 62
         0
100
AcDbPoint
 10
1623.1851654259
 20
86.7392616155
 30
0.0
  0
LINE
  5
438
100
AcDbEntity
  8
L1_45
  6
CONTINUOUS
 62
         4
100
AcDbLine
 10
1600.1851654259
 20
82.7597528017
 30
0.0
 11
1600.1851654259
 21
96.788734394
 31
0.0
  0
LINE
  5
439
100
AcDbEntity
  8
L1_45
  6
CONTINUOUS
 62
         4
100
AcDbLine
 10
1623.1851654259
 20
88.0892616155
 30
0.0
 11
1623.1851654259
 21
96.788734394
 31
0.0
  0
LINE
  5
43A
100
AcDbEntity
  8
L1_45
  6
CONTINUOUS
 62
         4
100
AcDbLine
 10
1600.1851654259
 20
96.113734394
 30
0.0
 11
1623.1851654259
 21
96.113734394
 31
0.0
  0
SOLID
  5
43B
100
AcDbEntity
  8
L1_45
  6
CONTINUOUS
 62
         4
100
AcDbTrace
 10
1600.1851654259
 20
96.113734394
 30
0.0
 11
1602.8851654259
 21
96.518734394
 31
0.0
 12
1602.8851654259
 22
95.708734394
 32
0.0
 13
1600.1851654259
 23
96.113734394
 33
0.0
  0
SOLID
  5
43C
100
AcDbEntity
  8
L1_45
  6
CONTINUOUS
 62
         4
100
AcDbTrace
 10
1623.1851654259
 20
96.113734394
 30
0.0
 11
1620.4851654259
 21
95.708734394
 31
0.0
 12
1620.4851654259
 22
96.518734394
 32
0.0
 13
1623.1851654259
 23
96.113734394
 33
0.0
  0
TEXT
  5
43E
100
AcDbEntity
  8
L1_45
  6
CONTINUOUS
 62
         4
100
AcDbText
 10
1609.3336299721
 20
98.138734394
 30
0.0
 40
2.7
  1
23
  7
BOX
100
AcDbText
  0
ENDBLK
  5
43F
100
AcDbEntity
  8
0
  6
CONTINUOUS
100
AcDbBlockEnd
  0
BLOCK
  5
441
100
AcDbEntity
  8
0
100
AcDbBlockBegin
  2
*D24
 70
        65
 10
0.0
 20
0.0
 30
0.0
  3
*D24
  1

  0
POINT
  5
443
100
AcDbEntity
  8
DEFPOINTS
  6
CONTINUOUS
 62
         0
100
AcDbPoint
 10
1649.6708924821
 20
88.8522535727
 30
0.0
  0
POINT
  5
444
100
AcDbEntity
  8
DEFPOINTS
  6
CONTINUOUS
 62
         0
100
AcDbPoint
 10
1649.6708924821
 20
80.7012162336
 30
0.0
  0
POINT
  5
445
100
AcDbEntity
  8
DEFPOINTS
  6
CONTINUOUS
 62
         0
100
AcDbPoint
 10
1656.1208924821
 20
80.7012162336
 30
0.0
  0
LINE
  5
446
100
AcDbEntity
  8
L1_45
  6
CONTINUOUS
 62
         4
100
AcDbLine
 10
1649.6708924821
 20
82.0512162336
 30
0.0
 11
1649.6708924821
 21
89.5272535727
 31
0.0
  0
LINE
  5
447
100
AcDbEntity
  8
L1_45
  6
CONTINUOUS
 62
         4
100
AcDbLine
 10
1656.1208924821
 20
82.0512162336
 30
0.0
 11
1656.1208924821
 21
89.5272535727
 31
0.0
  0
LINE
  5
448
100
AcDbEntity
  8
L1_45
  6
CONTINUOUS
 62
         4
100
AcDbLine
 10
1649.6708924821
 20
88.8522535727
 30
0.0
 11
1656.1208924821
 21
88.8522535727
 31
0.0
  0
SOLID
  5
449
100
AcDbEntity
  8
L1_45
  6
CONTINUOUS
 62
         4
100
AcDbTrace
 10
1649.6708924821
 20
88.8522535727
 30
0.0
 11
1652.3708924821
 21
89.2572535727
 31
0.0
 12
1652.3708924821
 22
88.4472535727
 32
0.0
 13
1649.6708924821
 23
88.8522535727
 33
0.0
  0
SOLID
  5
44A
100
AcDbEntity
  8
L1_45
  6
CONTINUOUS
 62
         4
100
AcDbTrace
 10
1656.1208924821
 20
88.8522535727
 30
0.0
 11
1653.4208924821
 21
88.4472535727
 31
0.0
 12
1653.4208924821
 22
89.2572535727
 32
0.0
 13
1656.1208924821
 23
88.8522535727
 33
0.0
  0
TEXT
  5
44C
100
AcDbEntity
  8
L1_45
  6
CONTINUOUS
 62
         4
100
AcDbText
 10
1646.6851618321
 20
90.8772535727
 30
0.0
 40
2.7
  1
6.45
  7
BOX
100
AcDbText
  0
ENDBLK
  5
44D
100
AcDbEntity
  8
0
  6
CONTINUOUS
100
AcDbBlockEnd
  0
BLOCK
  5
46E
100
AcDbEntity
  8
0
100
AcDbBlockBegin
  2
*D25
 70
        65
 10
0.0
 20
0.0
 30
0.0
  3
*D25
  1

  0
POINT
  5
470
100
AcDbEntity
  8
DEFPOINTS
  6
CONTINUOUS
 62
         0
100
AcDbPoint
 10
1445.0033403763
 20
173.3293903645
 30
0.0
  0
POINT
  5
471
100
AcDbEntity
  8
DEFPOINTS
  6
CONTINUOUS
 62
         0
100
AcDbPoint
 10
1445.0033403763
 20
166.6846417294
 30
0.0
  0
POINT
  5
472
100
AcDbEntity
  8
DEFPOINTS
  6
CONTINUOUS
 62
         0
100
AcDbPoint
 10
1459.0033403763
 20
155.5346417294
 30
0.0
  0
LINE
  5
473
100
AcDbEntity
  8
L1_45
  6
CONTINUOUS
 62
         4
100
AcDbLine
 10
1445.0033403763
 20
168.0346417294
 30
0.0
 11
1445.0033403763
 21
174.0043903645
 31
0.0
  0
LINE
  5
474
100
AcDbEntity
  8
L1_45
  6
CONTINUOUS
 62
         4
100
AcDbLine
 10
1459.0033403763
 20
156.8846417294
 30
0.0
 11
1459.0033403763
 21
174.0043903645
 31
0.0
  0
LINE
  5
475
100
AcDbEntity
  8
L1_45
  6
CONTINUOUS
 62
         4
100
AcDbLine
 10
1445.0033403763
 20
173.3293903645
 30
0.0
 11
1459.0033403763
 21
173.3293903645
 31
0.0
  0
SOLID
  5
476
100
AcDbEntity
  8
L1_45
  6
CONTINUOUS
 62
         4
100
AcDbTrace
 10
1445.0033403763
 20
173.3293903645
 30
0.0
 11
1447.7033403763
 21
173.7343903645
 31
0.0
 12
1447.7033403763
 22
172.9243903645
 32
0.0
 13
1445.0033403763
 23
173.3293903645
 33
0.0
  0
SOLID
  5
477
100
AcDbEntity
  8
L1_45
  6
CONTINUOUS
 62
         4
100
AcDbTrace
 10
1459.0033403763
 20
173.3293903645
 30
0.0
 11
1456.3033403763
 21
172.9243903645
 31
0.0
 12
1456.3033403763
 22
173.7343903645
 32
0.0
 13
1459.0033403763
 23
173.3293903645
 33
0.0
  0
TEXT
  5
479
100
AcDbEntity
  8
L1_45
  6
CONTINUOUS
 62
         4
100
AcDbText
 10
1449.0938626091
 20
175.3543903645
 30
0.0
 40
2.7
  1
14
  7
BOX
100
AcDbText
  0
ENDBLK
  5
47A
100
AcDbEntity
  8
0
  6
CONTINUOUS
100
AcDbBlockEnd
  0
BLOCK
  5
488
100
AcDbEntity
  8
0
100
AcDbBlockBegin
  2
*D26
 70
        65
 10
0.0
 20
0.0
 30
0.0
  3
*D26
  1

  0
POINT
  5
48A
100
AcDbEntity
  8
DEFPOINTS
  6
CONTINUOUS
 62
         0
100
AcDbPoint
 10
1478.766584063
 20
156.5346417294
 30
0.0
  0
POINT
  5
48B
100
AcDbEntity
  8
DEFPOINTS
  6
CONTINUOUS
 62
         0
100
AcDbPoint
 10
1458.0033403763
 20
156.5346417294
 30
0.0
  0
POINT
  5
48C
100
AcDbEntity
  8
DEFPOINTS
  6
CONTINUOUS
 62
         0
100
AcDbPoint
 10
1458.0033403763
 20
143.8346417294
 30
0.0
  0
LINE
  5
48D
100
AcDbEntity
  8
L1_45
  6
CONTINUOUS
 62
         4
100
AcDbLine
 10
1459.3533403763
 20
156.5346417294
 30
0.0
 11
1479.441584063
 21
156.5346417294
 31
0.0
  0
LINE
  5
48E
100
AcDbEntity
  8
L1_45
  6
CONTINUOUS
 62
         4
100
AcDbLine
 10
1459.3533403763
 20
143.8346417294
 30
0.0
 11
1479.441584063
 21
143.8346417294
 31
0.0
  0
LINE
  5
48F
100
AcDbEntity
  8
L1_45
  6
CONTINUOUS
 62
         4
100
AcDbLine
 10
1478.766584063
 20
156.5346417294
 30
0.0
 11
1478.766584063
 21
143.8346417294
 31
0.0
  0
SOLID
  5
490
100
AcDbEntity
  8
L1_45
  6
CONTINUOUS
 62
         4
100
AcDbTrace
 10
1478.766584063
 20
156.5346417294
 30
0.0
 11
1479.171584063
 21
153.8346417294
 31
0.0
 12
1478.361584063
 22
153.8346417294
 32
0.0
 13
1478.766584063
 23
156.5346417294
 33
0.0
  0
SOLID
  5
491
100
AcDbEntity
  8
L1_45
  6
CONTINUOUS
 62
         4
100
AcDbTrace
 10
1478.766584063
 20
143.8346417294
 30
0.0
 11
1478.361584063
 21
146.5346417294
 31
0.0
 12
1479.171584063
 22
146.5346417294
 32
0.0
 13
1478.766584063
 23
143.8346417294
 33
0.0
  0
TEXT
  5
493
100
AcDbEntity
  8
L1_45
  6
CONTINUOUS
 62
         4
100
AcDbText
 10
1476.741584063
 20
145.3726984975
 30
0.0
 40
2.7
  1
崷12.7
 50
90.0
  7
BOX
100
AcDbText
  0
ENDBLK
  5
494
100
AcDbEntity
  8
0
  6
CONTINUOUS
100
AcDbBlockEnd
  0
BLOCK
  5
496
100
AcDbEntity
  8
0
100
AcDbBlockBegin
  2
*D27
 70
        65
 10
0.0
 20
0.0
 30
0.0
  3
*D27
  1

  0
POINT
  5
498
100
AcDbEntity
  8
DEFPOINTS
  6
CONTINUOUS
 62
         0
100
AcDbPoint
 10
1494.4688204426
 20
167.6846417294
 30
0.0
  0
POINT
  5
499
100
AcDbEntity
  8
DEFPOINTS
  6
CONTINUOUS
 62
         0
100
AcDbPoint
 10
1444.0033403763
 20
167.6846417294
 30
0.0
  0
POINT
  5
49A
100
AcDbEntity
  8
DEFPOINTS
  6
CONTINUOUS
 62
         0
100
AcDbPoint
 10
1444.0033403763
 20
132.6846417294
 30
0.0
  0
LINE
  5
49B
100
AcDbEntity
  8
L1_45
  6
CONTINUOUS
 62
         4
100
AcDbLine
 10
1445.3533403763
 20
167.6846417294
 30
0.0
 11
1495.1438204426
 21
167.6846417294
 31
0.0
  0
LINE
  5
49C
100
AcDbEntity
  8
L1_45
  6
CONTINUOUS
 62
         4
100
AcDbLine
 10
1445.3533403763
 20
132.6846417294
 30
0.0
 11
1495.1438204426
 21
132.6846417294
 31
0.0
  0
LINE
  5
49D
100
AcDbEntity
  8
L1_45
  6
CONTINUOUS
 62
         4
100
AcDbLine
 10
1494.4688204426
 20
167.6846417294
 30
0.0
 11
1494.4688204426
 21
132.6846417294
 31
0.0
  0
SOLID
  5
49E
100
AcDbEntity
  8
L1_45
  6
CONTINUOUS
 62
         4
100
AcDbTrace
 10
1494.4688204426
 20
167.6846417294
 30
0.0
 11
1494.8738204426
 21
164.9846417294
 31
0.0
 12
1494.0638204426
 22
164.9846417294
 32
0.0
 13
1494.4688204426
 23
167.6846417294
 33
0.0
  0
SOLID
  5
49F
100
AcDbEntity
  8
L1_45
  6
CONTINUOUS
 62
         4
100
AcDbTrace
 10
1494.4688204426
 20
132.6846417294
 30
0.0
 11
1494.0638204426
 21
135.3846417294
 31
0.0
 12
1494.8738204426
 22
135.3846417294
 32
0.0
 13
1494.4688204426
 23
132.6846417294
 33
0.0
  0
TEXT
  5
4A1
100
AcDbEntity
  8
L1_45
  6
CONTINUOUS
 62
         4
100
AcDbText
 10
1492.4438204426
 20
143.065254407
 30
0.0
 40
2.7
  1
崷35
 50
90.0
  7
BOX
100
AcDbText
  0
ENDBLK
  5
4A2
100
AcDbEntity
  8
0
  6
CONTINUOUS
100
AcDbBlockEnd
  0
ENDSEC
  0
SECTION
  2
ENTITIES
  0
INSERT
  5
7C
100
AcDbEntity
  8
0
  6
CONTINUOUS
100
AcDbBlockReference
  2
*X0
 10
0.0
 20
0.0
 30
0.0
  0
DIMENSION
  5
80
100
AcDbEntity
  8
L1_45
  6
CONTINUOUS
 62
         4
100
AcDbDimension
  2
*D1
 10
1400.0033403763
 20
219.4323007493
 30
0.0
 11
1419.5635899254
 21
221.4573007493
 31
0.0
  3
DIMSTYLE1
100
AcDbAlignedDimension
 13
1400.0033403763
 23
172.4096417294
 33
0.0
 14
1445.0033403763
 24
166.6846417294
 34
0.0
100
AcDbRotatedDimension
  0
LINE
  5
8D
100
AcDbEntity
  8
L1_45
  6
CONTINUOUS
 62
         7
100
AcDbLine
 10
1436.5669222403
 20
-5.9433347407
 30
0.0
 11
1436.5669222403
 21
-19.9433347407
 31
0.0
  0
LINE
  5
8E
100
AcDbEntity
  8
L1_45
  6
CONTINUOUS
 62
         7
100
AcDbLine
 10
1439.0033403763
 20
-10.1633347407
 30
0.0
 11
1436.5669222403
 21
-5.9433347407
 31
0.0
  0
LINE
  5
8F
100
AcDbEntity
  8
L1_45
  6
CONTINUOUS
 62
         7
100
AcDbLine
 10
1439.0033403763
 20
-15.7233347407
 30
0.0
 11
1436.5669222403
 21
-19.9433347407
 31
0.0
  0
ARC
  5
90
100
AcDbEntity
  8
L1_45
  6
CONTINUOUS
 62
         7
100
AcDbCircle
 10
1436.0553403763
 20
-31.4433347407
 30
0.0
 40
1.0
100
AcDbArc
 50
90.0
 51
180.0
  0
ARC
  5
91
100
AcDbEntity
  8
L1_45
  6
CONTINUOUS
 62
         7
100
AcDbCircle
 10
1436.0553403763
 20
5.5566652593
 30
0.0
 40
1.0
100
AcDbArc
 50
180.0
 51
270.0
  0
LINE
  5
92
100
AcDbEntity
  8
L1_45
  6
CONTINUOUS
 62
         7
100
AcDbLine
 10
1435.0553403763
 20
5.5566652593
 30
0.0
 11
1435.0553403763
 21
8.5416652593
 31
0.0
  0
LINE
  5
93
100
AcDbEntity
  8
L1_45
  6
CONTINUOUS
 62
         7
100
AcDbLine
 10
1435.0553403763
 20
-34.4283347407
 30
0.0
 11
1435.0553403763
 21
-31.4433347407
 31
0.0
  0
LINE
  5
94
100
AcDbEntity
  8
L1_45
  6
CONTINUOUS
 62
         7
100
AcDbLine
 10
1436.5669222403
 20
-19.9433347407
 30
0.0
 11
1343.2512401455
 21
-19.9433347407
 31
0.0
  0
LINE
  5
95
100
AcDbEntity
  8
L1_45
  6
CONTINUOUS
 62
         7
100
AcDbLine
 10
1436.5669222403
 20
-5.9433347407
 30
0.0
 11
1343.2512401455
 21
-5.9433347407
 31
0.0
  0
ARC
  5
96
100
AcDbEntity
  8
L1_45
  6
CONTINUOUS
 62
         7
100
AcDbCircle
 10
1436.0553403763
 20
168.6846417294
 30
0.0
 40
1.0
100
AcDbArc
 50
180.0
 51
270.0
  0
ARC
  5
97
100
AcDbEntity
  8
L1_45
  6
CONTINUOUS
 62
         7
100
AcDbCircle
 10
1436.0553403763
 20
131.6846417294
 30
0.0
 40
1.0
100
AcDbArc
 50
90.0
 51
180.0
  0
LINE
  5
98
100
AcDbEntity
  8
L1_45
  6
CONTINUOUS
 62
         7
100
AcDbLine
 10
1403.2033403763
 20
11.6151160818
 30
0.0
 11
1405.5263249435
 21
14.9326818612
 31
0.0
  0
LINE
  5
99
100
AcDbEntity
  8
L1_45
  6
CONTINUOUS
 62
         4
100
AcDbLine
 10
1403.2033403763
 20
11.6151160818
 30
0.0
 11
1407.2991005977
 21
8.7472339
 31
0.0
  0
LINE
  5
9A
100
AcDbEntity
  8
L1_45
  6
CONTINUOUS
 62
         7
100
AcDbLine
 10
1407.2991005977
 20
8.7472339
 30
0.0
 11
1409.5934063431
 21
12.0238420772
 31
0.0
  0
LINE
  5
9B
100
AcDbEntity
  8
L1_45
  6
CONTINUOUS
 62
         4
100
AcDbLine
 10
1405.4976461217
 20
14.891724259
 30
0.0
 11
1409.5934063431
 21
12.0238420772
 31
0.0
  0
LINE
  5
9C
100
AcDbEntity
  8
L1_45
  6
CONTINUOUS
 62
         7
100
AcDbLine
 10
1403.2033403763
 20
16.5592531663
 30
0.0
 11
1405.5263249435
 21
14.9326818612
 31
0.0
  0
LINE
  5
9D
100
AcDbEntity
  8
L1_45
  6
CENTER
 62
         1
100
AcDbLine
 10
1402.4927097209
 20
14.5542542011
 30
0.0
 11
1431.7663005111
 21
-5.9433347407
 31
0.0
  0
LINE
  5
9E
100
AcDbEntity
  8
L1_45
  6
CONTINUOUS
 62
         7
100
AcDbLine
 10
1403.404092129
 20
11.9018192973
 30
0.0
 11
1428.8896132983
 21
-5.9433347407
 31
0.0
  0
LINE
  5
9F
100
AcDbEntity
  8
L1_45
  6
CONTINUOUS
 62
         7
100
AcDbLine
 10
1405.2968943689
 20
14.6050210435
 30
0.0
 11
1434.6429877239
 21
-5.9433347407
 31
0.0
  0
LINE
  5
A0
100
AcDbEntity
  8
L1_45
  6
DASHED
 62
         2
100
AcDbLine
 10
1624.2351520969
 20
142.7452832592
 30
0.0
 11
1629.8913272235
 21
127.2050698182
 31
0.0
  0
LINE
  5
A1
100
AcDbEntity
  8
L1_45
  6
DASHED
 62
         2
100
AcDbLine
 10
1627.3361377455
 20
143.8739497321
 30
0.0
 11
1632.9923128721
 21
128.3337362912
 31
0.0
  0
LINE
  5
A2
100
AcDbEntity
  8
L1_45
  6
DASHED
 62
         2
100
AcDbLine
 10
1633.3212052894
 20
128.4534433413
 30
0.0
 11
1634.7576898914
 21
124.506734334
 31
0.0
  0
LINE
  5
A3
100
AcDbEntity
  8
L1_45
  6
DASHED
 62
         2
100
AcDbLine
 10
1633.3212052894
 20
128.4534433413
 30
0.0
 11
1629.5624348063
 21
127.085362768
 31
0.0
  0
LINE
  5
A4
100
AcDbEntity
  8
L1_45
  6
DASHED
 62
         2
100
AcDbLine
 10
1629.5624348063
 20
127.085362768
 30
0.0
 11
1630.9989194082
 21
123.1386537607
 31
0.0
  0
LINE
  5
A5
100
AcDbEntity
  8
L1_45
  6
DASHED
 62
         2
100
AcDbLine
 10
1617.0042459463
 20
173.2839206908
 30
0.0
 11
1613.2454754631
 21
171.9158401175
 31
0.0
  0
LINE
  5
A6
100
AcDbEntity
  8
L1_45
  6
DASHED
 62
         2
100
AcDbLine
 10
1613.5743678804
 20
172.0355471676
 30
0.0
 11
1619.2305430071
 21
156.4953337266
 31
0.0
  0
LINE
  5
A7
100
AcDbEntity
  8
L1_45
  6
DASHED
 62
         2
100
AcDbLine
 10
1616.675353529
 20
173.1642136406
 30
0.0
 11
1622.3315286556
 21
157.6240001996
 31
0.0
  0
LINE
  5
A8
100
AcDbEntity
  8
L1_45
  6
DASHED
 62
         2
100
AcDbLine
 10
1613.2454754631
 20
171.9158401175
 30
0.0
 11
1611.8089908611
 21
175.8625491248
 31
0.0
  0
LINE
  5
A9
100
AcDbEntity
  8
L1_45
  6
DASHED
 62
         2
100
AcDbLine
 10
1617.0042459463
 20
173.2839206908
 30
0.0
 11
1615.5677613443
 21
177.2306296981
 31
0.0
  0
LINE
  5
AA
100
AcDbEntity
  8
L1_45
  6
CENTER
 62
         1
100
AcDbLine
 10
1611.3895898921
 20
182.8624526172
 30
0.0
 11
1635.3242136355
 21
117.102614339
 31
0.0
  0
LINE
  5
AB
100
AcDbEntity
  8
L1_45
  6
CENTER
 62
         1
100
AcDbLine
 10
1227.1031401709
 20
183.6483666388
 30
0.0
 11
1202.8730445027
 21
117.0767259189
 31
0.0
  0
LINE
  5
AC
100
AcDbEntity
  8
L1_45
  6
CENTER
 62
         1
100
AcDbLine
 10
1208.5078743688
 20
123.7868805382
 30
0.0
 11
1202.8697186441
 21
125.8390013981
 31
0.0
  0
POLYLINE
  5
AE
100
AcDbEntity
  8
L1_45
  6
CONTINUOUS
 62
         7
100
AcDb3dPolyline
 66
         1
 10
0.0
 20
0.0
 30
0.0
 70
         8
  0
VERTEX
  5
B0
100
AcDbEntity
  8
L1_45
  6
CONTINUOUS
 62
         7
100
AcDbVertex
100
AcDb3dPolylineVertex
 10
1203.8094112649
 20
125.4969812548
 30
0.0
 70
        32
  0
VERTEX
  5
B2
100
AcDbEntity
  8
L1_45
  6
CONTINUOUS
 62
         7
100
AcDbVertex
100
AcDb3dPolylineVertex
 10
1203.8094112649
 20
125.4969812548
 30
0.0
 70
        32
  0
SEQEND
  5
B4
100
AcDbEntity
  8
L1_45
  6
CONTINUOUS
 62
         7
  0
ARC
  5
B5
100
AcDbEntity
  8
L1_45
  6
CONTINUOUS
 62
         7
100
AcDbCircle
 10
1206.6023903184
 20
124.4804200144
 30
0.0
 40
2.9722262277
100
AcDbArc
 50
141.257725858
 51
160.0
  0
POLYLINE
  5
B7
100
AcDbEntity
  8
L1_45
  6
CONTINUOUS
 62
         7
100
AcDb3dPolyline
 66
         1
 10
0.0
 20
0.0
 30
0.0
 70
         8
  0
VERTEX
  5
B9
100
AcDbEntity
  8
L1_45
  6
CONTINUOUS
 62
         7
100
AcDbVertex
100
AcDb3dPolylineVertex
 10
1204.2841463667
 20
126.340493596
 30
0.0
 70
        32
  0
VERTEX
  5
BB
100
AcDbEntity
  8
L1_45
  6
CONTINUOUS
 62
         7
100
AcDbVertex
100
AcDb3dPolylineVertex
 10
1204.2841463667
 20
126.340493596
 30
0.0
 70
        32
  0
SEQEND
  5
BD
100
AcDbEntity
  8
L1_45
  6
CONTINUOUS
 62
         7
  0
ARC
  5
BE
100
AcDbEntity
  8
L1_45
  6
CONTINUOUS
 62
         7
100
AcDbCircle
 10
1206.2103129629
 20
124.7950084469
 30
0.0
 40
2.4695428935
100
AcDbArc
 50
120.6773100904
 51
141.257725858
  0
POLYLINE
  5
C0
100
AcDbEntity
  8
L1_45
  6
CONTINUOUS
 62
         7
100
AcDb3dPolyline
 66
         1
 10
0.0
 20
0.0
 30
0.0
 70
         8
  0
VERTEX
  5
C2
100
AcDbEntity
  8
L1_45
  6
CONTINUOUS
 62
         7
100
AcDbVertex
100
AcDb3dPolylineVertex
 10
1204.950346339
 20
126.9189496442
 30
0.0
 70
        32
  0
VERTEX
  5
C4
100
AcDbEntity
  8
L1_45
  6
CONTINUOUS
 62
         7
100
AcDbVertex
100
AcDb3dPolylineVertex
 10
1204.950346339
 20
126.9189496442
 30
0.0
 70
        32
  0
SEQEND
  5
C6
100
AcDbEntity
  8
L1_45
  6
CONTINUOUS
 62
         7
  0
ARC
  5
C7
100
AcDbEntity
  8
L1_45
  6
CONTINUOUS
 62
         7
100
AcDbCircle
 10
1206.0105744318
 20
125.1317101395
 30
0.0
 40
2.0780540551
100
AcDbArc
 50
96.8239621528
 51
120.6773100904
  0
ARC
  5
C8
100
AcDbEntity
  8
L1_45
  6
CONTINUOUS
 62
         7
100
AcDbCircle
 10
1205.9596641031
 20
125.5571435737
 30
0.0
 40
1.6495853065
100
AcDbArc
 50
70.0
 51
96.8239621528
  0
POLYLINE
  5
CA
100
AcDbEntity
  8
L1_45
  6
CONTINUOUS
 62
         7
100
AcDb3dPolyline
 66
         1
 10
0.0
 20
0.0
 30
0.0
 70
         8
  0
VERTEX
  5
CC
100
AcDbEntity
  8
L1_45
  6
CONTINUOUS
 62
         7
100
AcDbVertex
100
AcDb3dPolylineVertex
 10
1206.5238555061
 20
127.1072467136
 30
0.0
 70
        32
  0
VERTEX
  5
CE
100
AcDbEntity
  8
L1_45
  6
CONTINUOUS
 62
         7
100
AcDbVertex
100
AcDb3dPolylineVertex
 10
1206.5238555061
 20
127.1072467136
 30
0.0
 70
        32
  0
SEQEND
  5
D0
100
AcDbEntity
  8
L1_45
  6
CONTINUOUS
 62
         7
  0
ARC
  5
D1
100
AcDbEntity
  8
L1_45
  6
CONTINUOUS
 62
         7
100
AcDbCircle
 10
1205.9596641031
 20
125.5571435737
 30
0.0
 40
1.6495853065
100
AcDbArc
 50
43.1760378472
 51
70.0
  0
POLYLINE
  5
D3
100
AcDbEntity
  8
L1_45
  6
CONTINUOUS
 62
         7
100
AcDb3dPolyline
 66
         1
 10
0.0
 20
0.0
 30
0.0
 70
         8
  0
VERTEX
  5
D5
100
AcDbEntity
  8
L1_45
  6
CONTINUOUS
 62
         7
100
AcDbVertex
100
AcDb3dPolylineVertex
 10
1207.1626321948
 20
126.6858594165
 30
0.0
 70
        32
  0
VERTEX
  5
D7
100
AcDbEntity
  8
L1_45
  6
CONTINUOUS
 62
         7
100
AcDbVertex
100
AcDb3dPolylineVertex
 10
1207.1626321948
 20
126.6858594165
 30
0.0
 70
        32
  0
SEQEND
  5
D9
100
AcDbEntity
  8
L1_45
  6
CONTINUOUS
 62
         7
  0
POLYLINE
  5
DB
100
AcDbEntity
  8
L1_45
  6
CONTINUOUS
 62
         7
100
AcDb3dPolyline
 66
         1
 10
0.0
 20
0.0
 30
0.0
 70
         8
  0
VERTEX
  5
DD
100
AcDbEntity
  8
L1_45
  6
CONTINUOUS
 62
         7
100
AcDbVertex
100
AcDb3dPolylineVertex
 10
1207.7467128429
 20
125.0802224645
 30
0.0
 70
        32
  0
VERTEX
  5
DF
100
AcDbEntity
  8
L1_45
  6
CONTINUOUS
 62
         7
100
AcDbVertex
100
AcDb3dPolylineVertex
 10
1207.7467128429
 20
125.0802224645
 30
0.0
 70
        32
  0
SEQEND
  5
E1
100
AcDbEntity
  8
L1_45
  6
CONTINUOUS
 62
         7
  0
ARC
  5
E2
100
AcDbEntity
  8
L1_45
  6
CONTINUOUS
 62
         7
100
AcDbCircle
 10
1204.7752026945
 20
125.1454619219
 30
0.0
 40
2.9722262277
100
AcDbArc
 50
339.9999999999
 51
358.742274142
  0
POLYLINE
  5
E4
100
AcDbEntity
  8
L1_45
  6
CONTINUOUS
 62
         7
100
AcDb3dPolyline
 66
         1
 10
0.0
 20
0.0
 30
0.0
 70
         8
  0
VERTEX
  5
E6
100
AcDbEntity
  8
L1_45
  6
CONTINUOUS
 62
         7
100
AcDbVertex
100
AcDb3dPolylineVertex
 10
1207.568181748
 20
124.1289006815
 30
0.0
 70
        32
  0
VERTEX
  5
E8
100
AcDbEntity
  8
L1_45
  6
CONTINUOUS
 62
         7
100
AcDbVertex
100
AcDb3dPolylineVertex
 10
1207.568181748
 20
124.1289006815
 30
0.0
 70
        32
  0
SEQEND
  5
EA
100
AcDbEntity
  8
L1_45
  6
CONTINUOUS
 62
         7
  0
ARC
  5
EB
100
AcDbEntity
  8
L1_45
  6
CONTINUOUS
 62
         7
100
AcDbCircle
 10
1204.7752026945
 20
125.1454619219
 30
0.0
 40
2.9722262277
100
AcDbArc
 50
321.257725858
 51
340.0
  0
POLYLINE
  5
ED
100
AcDbEntity
  8
L1_45
  6
CONTINUOUS
 62
         7
100
AcDb3dPolyline
 66
         1
 10
0.0
 20
0.0
 30
0.0
 70
         8
  0
VERTEX
  5
EF
100
AcDbEntity
  8
L1_45
  6
CONTINUOUS
 62
         7
100
AcDbVertex
100
AcDb3dPolylineVertex
 10
1207.0934466463
 20
123.2853883403
 30
0.0
 70
        32
  0
VERTEX
  5
F1
100
AcDbEntity
  8
L1_45
  6
CONTINUOUS
 62
         7
100
AcDbVertex
100
AcDb3dPolylineVertex
 10
1207.0934466463
 20
123.2853883403
 30
0.0
 70
        32
  0
SEQEND
  5
F3
100
AcDbEntity
  8
L1_45
  6
CONTINUOUS
 62
         7
  0
ARC
  5
F4
100
AcDbEntity
  8
L1_45
  6
CONTINUOUS
 62
         7
100
AcDbCircle
 10
1205.16728005
 20
124.8308734895
 30
0.0
 40
2.4695428935
100
AcDbArc
 50
300.6773100904
 51
321.2577258581
  0
POLYLINE
  5
F6
100
AcDbEntity
  8
L1_45
  6
CONTINUOUS
 62
         7
100
AcDb3dPolyline
 66
         1
 10
0.0
 20
0.0
 30
0.0
 70
         8
  0
VERTEX
  5
F8
100
AcDbEntity
  8
L1_45
  6
CONTINUOUS
 62
         7
100
AcDbVertex
100
AcDb3dPolylineVertex
 10
1206.4272466739
 20
122.7069322922
 30
0.0
 70
        32
  0
VERTEX
  5
FA
100
AcDbEntity
  8
L1_45
  6
CONTINUOUS
 62
         7
100
AcDbVertex
100
AcDb3dPolylineVertex
 10
1206.4272466739
 20
122.7069322922
 30
0.0
 70
        32
  0
SEQEND
  5
FC
100
AcDbEntity
  8
L1_45
  6
CONTINUOUS
 62
         7
  0
ARC
  5
FD
100
AcDbEntity
  8
L1_45
  6
CONTINUOUS
 62
         7
100
AcDbCircle
 10
1205.3670185811
 20
124.4941717969
 30
0.0
 40
2.0780540551
100
AcDbArc
 50
276.8239621528
 51
300.6773100903
  0
POLYLINE
  5
FF
100
AcDbEntity
  8
L1_45
  6
CONTINUOUS
 62
         7
100
AcDb3dPolyline
 66
         1
 10
0.0
 20
0.0
 30
0.0
 70
         8
  0
VERTEX
  5
101
100
AcDbEntity
  8
L1_45
  6
CONTINUOUS
 62
         7
100
AcDbVertex
100
AcDb3dPolylineVertex
 10
1205.6139313731
 20
122.4308388792
 30
0.0
 70
        32
  0
VERTEX
  5
103
100
AcDbEntity
  8
L1_45
  6
CONTINUOUS
 62
         7
100
AcDbVertex
100
AcDb3dPolylineVertex
 10
1205.6139313731
 20
122.4308388792
 30
0.0
 70
        32
  0
SEQEND
  5
105
100
AcDbEntity
  8
L1_45
  6
CONTINUOUS
 62
         7
  0
ARC
  5
106
100
AcDbEntity
  8
L1_45
  6
CONTINUOUS
 62
         7
100
AcDbCircle
 10
1205.4179289098
 20
124.0687383626
 30
0.0
 40
1.6495853065
100
AcDbArc
 50
250.0
 51
276.8239621528
  0
POLYLINE
  5
108
100
AcDbEntity
  8
L1_45
  6
CONTINUOUS
 62
         7
100
AcDb3dPolyline
 66
         1
 10
0.0
 20
0.0
 30
0.0
 70
         8
  0
VERTEX
  5
10A
100
AcDbEntity
  8
L1_45
  6
CONTINUOUS
 62
         7
100
AcDbVertex
100
AcDb3dPolylineVertex
 10
1204.8537375068
 20
122.5186352228
 30
0.0
 70
        32
  0
VERTEX
  5
10C
100
AcDbEntity
  8
L1_45
  6
CONTINUOUS
 62
         7
100
AcDbVertex
100
AcDb3dPolylineVertex
 10
1204.8537375068
 20
122.5186352228
 30
0.0
 70
        32
  0
SEQEND
  5
10E
100
AcDbEntity
  8
L1_45
  6
CONTINUOUS
 62
         7
  0
ARC
  5
10F
100
AcDbEntity
  8
L1_45
  6
CONTINUOUS
 62
         7
100
AcDbCircle
 10
1205.4179289098
 20
124.0687383626
 30
0.0
 40
1.6495853065
100
AcDbArc
 50
223.1760378472
 51
250.0
  0
POLYLINE
  5
111
100
AcDbEntity
  8
L1_45
  6
CONTINUOUS
 62
         7
100
AcDb3dPolyline
 66
         1
 10
0.0
 20
0.0
 30
0.0
 70
         8
  0
VERTEX
  5
113
100
AcDbEntity
  8
L1_45
  6
CONTINUOUS
 62
         7
100
AcDbVertex
100
AcDb3dPolylineVertex
 10
1204.2149608181
 20
122.9400225198
 30
0.0
 70
        32
  0
VERTEX
  5
115
100
AcDbEntity
  8
L1_45
  6
CONTINUOUS
 62
         7
100
AcDbVertex
100
AcDb3dPolylineVertex
 10
1204.2149608181
 20
122.9400225198
 30
0.0
 70
        32
  0
SEQEND
  5
117
100
AcDbEntity
  8
L1_45
  6
CONTINUOUS
 62
         7
  0
ARC
  5
118
100
AcDbEntity
  8
L1_45
  6
CONTINUOUS
 62
         7
100
AcDbCircle
 10
1205.7303918245
 20
124.3619147524
 30
0.0
 40
2.0780540551
100
AcDbArc
 50
199.3226899096
 51
223.1760378473
  0
ARC
  5
119
100
AcDbEntity
  8
L1_45
  6
CONTINUOUS
 62
         7
100
AcDbCircle
 10
1206.0998280924
 20
124.49145376
 30
0.0
 40
2.4695428935
100
AcDbArc
 50
178.742274142
 51
199.3226899096
  0
ARC
  5
11A
100
AcDbEntity
  8
L1_45
  6
CONTINUOUS
 62
         7
100
AcDbCircle
 10
1206.6023903184
 20
124.4804200144
 30
0.0
 40
2.9722262277
100
AcDbArc
 50
160.0
 51
178.742274142
  0
ARC
  5
11B
100
AcDbEntity
  8
L1_45
  6
CONTINUOUS
 62
         7
100
AcDbCircle
 10
1205.2777649205
 20
125.1344281764
 30
0.0
 40
2.4695428935
100
AcDbArc
 50
358.742274142
 51
379.3226899097
  0
ARC
  5
11C
100
AcDbEntity
  8
L1_45
  6
CONTINUOUS
 62
         7
100
AcDbCircle
 10
1205.6472011885
 20
125.263967184
 30
0.0
 40
2.0780540551
100
AcDbArc
 50
19.3226899096
 51
43.1760378472
  0
POLYLINE
  5
11E
100
AcDbEntity
  8
L1_45
  6
CONTINUOUS
 62
         7
100
AcDb3dPolyline
 66
         1
 10
0.0
 20
0.0
 30
0.0
 70
         8
  0
VERTEX
  5
120
100
AcDbEntity
  8
L1_45
  6
CONTINUOUS
 62
         7
100
AcDbVertex
100
AcDb3dPolylineVertex
 10
1222.2784990045
 20
176.2403827773
 30
0.0
 70
        32
  0
VERTEX
  5
122
100
AcDbEntity
  8
L1_45
  6
CONTINUOUS
 62
         7
100
AcDbVertex
100
AcDb3dPolylineVertex
 10
1222.2784990045
 20
176.2403827773
 30
0.0
 70
        32
  0
SEQEND
  5
124
100
AcDbEntity
  8
L1_45
  6
CONTINUOUS
 62
         7
  0
ARC
  5
125
100
AcDbEntity
  8
L1_45
  6
CONTINUOUS
 62
         7
100
AcDbCircle
 10
1225.071478058
 20
175.2238215369
 30
0.0
 40
2.9722262277
100
AcDbArc
 50
160.0
 51
178.7422741421
  0
POLYLINE
  5
127
100
AcDbEntity
  8
L1_45
  6
CONTINUOUS
 62
         7
100
AcDb3dPolyline
 66
         1
 10
0.0
 20
0.0
 30
0.0
 70
         8
  0
VERTEX
  5
129
100
AcDbEntity
  8
L1_45
  6
CONTINUOUS
 62
         7
100
AcDbVertex
100
AcDb3dPolylineVertex
 10
1222.0999679096
 20
175.2890609943
 30
0.0
 70
        32
  0
VERTEX
  5
12B
100
AcDbEntity
  8
L1_45
  6
CONTINUOUS
 62
         7
100
AcDbVertex
100
AcDb3dPolylineVertex
 10
1222.0999679096
 20
175.2890609943
 30
0.0
 70
        32
  0
SEQEND
  5
12D
100
AcDbEntity
  8
L1_45
  6
CONTINUOUS
 62
         7
  0
ARC
  5
12E
100
AcDbEntity
  8
L1_45
  6
CONTINUOUS
 62
         7
100
AcDbCircle
 10
1224.568915832
 20
175.2348552824
 30
0.0
 40
2.4695428935
100
AcDbArc
 50
178.7422741421
 51
199.3226899097
  0
POLYLINE
  5
130
100
AcDbEntity
  8
L1_45
  6
CONTINUOUS
 62
         7
100
AcDb3dPolyline
 66
         1
 10
0.0
 20
0.0
 30
0.0
 70
         8
  0
VERTEX
  5
132
100
AcDbEntity
  8
L1_45
  6
CONTINUOUS
 62
         7
100
AcDbVertex
100
AcDb3dPolylineVertex
 10
1222.2384823159
 20
174.4177128652
 30
0.0
 70
        32
  0
VERTEX
  5
134
100
AcDbEntity
  8
L1_45
  6
CONTINUOUS
 62
         7
100
AcDbVertex
100
AcDb3dPolylineVertex
 10
1222.2384823159
 20
174.4177128652
 30
0.0
 70
        32
  0
SEQEND
  5
136
100
AcDbEntity
  8
L1_45
  6
CONTINUOUS
 62
         7
  0
ARC
  5
137
100
AcDbEntity
  8
L1_45
  6
CONTINUOUS
 62
         7
100
AcDbCircle
 10
1224.199479564
 20
175.1053162748
 30
0.0
 40
2.0780540551
100
AcDbArc
 50
199.3226899097
 51
223.1760378473
  0
POLYLINE
  5
139
100
AcDbEntity
  8
L1_45
  6
CONTINUOUS
 62
         7
100
AcDb3dPolyline
 66
         1
 10
0.0
 20
0.0
 30
0.0
 70
         8
  0
VERTEX
  5
13B
100
AcDbEntity
  8
L1_45
  6
CONTINUOUS
 62
         7
100
AcDbVertex
100
AcDb3dPolylineVertex
 10
1222.6840485577
 20
173.6834240423
 30
0.0
 70
        32
  0
VERTEX
  5
13D
100
AcDbEntity
  8
L1_45
  6
CONTINUOUS
 62
         7
100
AcDbVertex
100
AcDb3dPolylineVertex
 10
1222.6840485577
 20
173.6834240423
 30
0.0
 70
        32
  0
SEQEND
  5
13F
100
AcDbEntity
  8
L1_45
  6
CONTINUOUS
 62
         7
  0
ARC
  5
140
100
AcDbEntity
  8
L1_45
  6
CONTINUOUS
 62
         7
100
AcDbCircle
 10
1223.8870166494
 20
174.8121398851
 30
0.0
 40
1.6495853065
100
AcDbArc
 50
223.1760378472
 51
249.9999999999
  0
POLYLINE
  5
142
100
AcDbEntity
  8
L1_45
  6
CONTINUOUS
 62
         7
100
AcDb3dPolyline
 66
         1
 10
0.0
 20
0.0
 30
0.0
 70
         8
  0
VERTEX
  5
144
100
AcDbEntity
  8
L1_45
  6
CONTINUOUS
 62
         7
100
AcDbVertex
100
AcDb3dPolylineVertex
 10
1223.3228252464
 20
173.2620367452
 30
0.0
 70
        32
  0
VERTEX
  5
146
100
AcDbEntity
  8
L1_45
  6
CONTINUOUS
 62
         7
100
AcDbVertex
100
AcDb3dPolylineVertex
 10
1223.3228252464
 20
173.2620367452
 30
0.0
 70
        32
  0
SEQEND
  5
148
100
AcDbEntity
  8
L1_45
  6
CONTINUOUS
 62
         7
  0
ARC
  5
149
100
AcDbEntity
  8
L1_45
  6
CONTINUOUS
 62
         7
100
AcDbCircle
 10
1223.8870166494
 20
174.8121398851
 30
0.0
 40
1.6495853065
100
AcDbArc
 50
250.0
 51
276.8239621528
  0
POLYLINE
  5
14B
100
AcDbEntity
  8
L1_45
  6
CONTINUOUS
 62
         7
100
AcDb3dPolyline
 66
         1
 10
0.0
 20
0.0
 30
0.0
 70
         8
  0
VERTEX
  5
14D
100
AcDbEntity
  8
L1_45
  6
CONTINUOUS
 62
         7
100
AcDbVertex
100
AcDb3dPolylineVertex
 10
1224.0830191126
 20
173.1742404017
 30
0.0
 70
        32
  0
VERTEX
  5
14F
100
AcDbEntity
  8
L1_45
  6
CONTINUOUS
 62
         7
100
AcDbVertex
100
AcDb3dPolylineVertex
 10
1224.0830191126
 20
173.1742404017
 30
0.0
 70
        32
  0
SEQEND
  5
151
100
AcDbEntity
  8
L1_45
  6
CONTINUOUS
 62
         7
  0
ARC
  5
152
100
AcDbEntity
  8
L1_45
  6
CONTINUOUS
 62
         7
100
AcDbCircle
 10
1223.8361063207
 20
175.2375733193
 30
0.0
 40
2.0780540551
100
AcDbArc
 50
276.8239621528
 51
300.6773100904
  0
POLYLINE
  5
154
100
AcDbEntity
  8
L1_45
  6
CONTINUOUS
 62
         7
100
AcDb3dPolyline
 66
         1
 10
0.0
 20
0.0
 30
0.0
 70
         8
  0
VERTEX
  5
156
100
AcDbEntity
  8
L1_45
  6
CONTINUOUS
 62
         7
100
AcDbVertex
100
AcDb3dPolylineVertex
 10
1224.8963344135
 20
173.4503338146
 30
0.0
 70
        32
  0
VERTEX
  5
158
100
AcDbEntity
  8
L1_45
  6
CONTINUOUS
 62
         7
100
AcDbVertex
100
AcDb3dPolylineVertex
 10
1224.8963344135
 20
173.4503338146
 30
0.0
 70
        32
  0
SEQEND
  5
15A
100
AcDbEntity
  8
L1_45
  6
CONTINUOUS
 62
         7
  0
ARC
  5
15B
100
AcDbEntity
  8
L1_45
  6
CONTINUOUS
 62
         7
100
AcDbCircle
 10
1223.6363677896
 20
175.5742750119
 30
0.0
 40
2.4695428935
100
AcDbArc
 50
300.6773100903
 51
321.257725858
  0
POLYLINE
  5
15D
100
AcDbEntity
  8
L1_45
  6
CONTINUOUS
 62
         7
100
AcDb3dPolyline
 66
         1
 10
0.0
 20
0.0
 30
0.0
 70
         8
  0
VERTEX
  5
15F
100
AcDbEntity
  8
L1_45
  6
CONTINUOUS
 62
         7
100
AcDbVertex
100
AcDb3dPolylineVertex
 10
1225.5625343858
 20
174.0287898627
 30
0.0
 70
        32
  0
VERTEX
  5
161
100
AcDbEntity
  8
L1_45
  6
CONTINUOUS
 62
         7
100
AcDbVertex
100
AcDb3dPolylineVertex
 10
1225.5625343858
 20
174.0287898627
 30
0.0
 70
        32
  0
SEQEND
  5
163
100
AcDbEntity
  8
L1_45
  6
CONTINUOUS
 62
         7
  0
ARC
  5
164
100
AcDbEntity
  8
L1_45
  6
CONTINUOUS
 62
         7
100
AcDbCircle
 10
1223.2442904341
 20
175.8888634444
 30
0.0
 40
2.9722262277
100
AcDbArc
 50
321.257725858
 51
340.0
  0
POLYLINE
  5
166
100
AcDbEntity
  8
L1_45
  6
CONTINUOUS
 62
         7
100
AcDb3dPolyline
 66
         1
 10
0.0
 20
0.0
 30
0.0
 70
         8
  0
VERTEX
  5
168
100
AcDbEntity
  8
L1_45
  6
CONTINUOUS
 62
         7
100
AcDbVertex
100
AcDb3dPolylineVertex
 10
1226.0372694876
 20
174.872302204
 30
0.0
 70
        32
  0
VERTEX
  5
16A
100
AcDbEntity
  8
L1_45
  6
CONTINUOUS
 62
         7
100
AcDbVertex
100
AcDb3dPolylineVertex
 10
1226.0372694876
 20
174.872302204
 30
0.0
 70
        32
  0
SEQEND
  5
16C
100
AcDbEntity
  8
L1_45
  6
CONTINUOUS
 62
         7
  0
ARC
  5
16D
100
AcDbEntity
  8
L1_45
  6
CONTINUOUS
 62
         7
100
AcDbCircle
 10
1223.2442904341
 20
175.8888634444
 30
0.0
 40
2.9722262277
100
AcDbArc
 50
339.9999999999
 51
358.742274142
  0
POLYLINE
  5
16F
100
AcDbEntity
  8
L1_45
  6
CONTINUOUS
 62
         7
100
AcDb3dPolyline
 66
         1
 10
0.0
 20
0.0
 30
0.0
 70
         8
  0
VERTEX
  5
171
100
AcDbEntity
  8
L1_45
  6
CONTINUOUS
 62
         7
100
AcDbVertex
100
AcDb3dPolylineVertex
 10
1226.2158005825
 20
175.823623987
 30
0.0
 70
        32
  0
VERTEX
  5
173
100
AcDbEntity
  8
L1_45
  6
CONTINUOUS
 62
         7
100
AcDbVertex
100
AcDb3dPolylineVertex
 10
1226.2158005825
 20
175.823623987
 30
0.0
 70
        32
  0
SEQEND
  5
175
100
AcDbEntity
  8
L1_45
  6
CONTINUOUS
 62
         7
  0
ARC
  5
176
100
AcDbEntity
  8
L1_45
  6
CONTINUOUS
 62
         7
100
AcDbCircle
 10
1223.7468526601
 20
175.8778296988
 30
0.0
 40
2.4695428935
100
AcDbArc
 50
358.742274142
 51
379.3226899097
  0
POLYLINE
  5
178
100
AcDbEntity
  8
L1_45
  6
CONTINUOUS
 62
         7
100
AcDb3dPolyline
 66
         1
 10
0.0
 20
0.0
 30
0.0
 70
         8
  0
VERTEX
  5
17A
100
AcDbEntity
  8
L1_45
  6
CONTINUOUS
 62
         7
100
AcDbVertex
100
AcDb3dPolylineVertex
 10
1226.0772861762
 20
176.694972116
 30
0.0
 70
        32
  0
VERTEX
  5
17C
100
AcDbEntity
  8
L1_45
  6
CONTINUOUS
 62
         7
100
AcDbVertex
100
AcDb3dPolylineVertex
 10
1226.0772861762
 20
176.694972116
 30
0.0
 70
        32
  0
SEQEND
  5
17E
100
AcDbEntity
  8
L1_45
  6
CONTINUOUS
 62
         7
  0
ARC
  5
17F
100
AcDbEntity
  8
L1_45
  6
CONTINUOUS
 62
         7
100
AcDbCircle
 10
1224.1162889281
 20
176.0073687064
 30
0.0
 40
2.0780540551
100
AcDbArc
 50
19.3226899096
 51
43.1760378472
  0
POLYLINE
  5
181
100
AcDbEntity
  8
L1_45
  6
CONTINUOUS
 62
         7
100
AcDb3dPolyline
 66
         1
 10
0.0
 20
0.0
 30
0.0
 70
         8
  0
VERTEX
  5
183
100
AcDbEntity
  8
L1_45
  6
CONTINUOUS
 62
         7
100
AcDbVertex
100
AcDb3dPolylineVertex
 10
1225.6317199344
 20
177.429260939
 30
0.0
 70
        32
  0
VERTEX
  5
185
100
AcDbEntity
  8
L1_45
  6
CONTINUOUS
 62
         7
100
AcDbVertex
100
AcDb3dPolylineVertex
 10
1225.6317199344
 20
177.429260939
 30
0.0
 70
        32
  0
SEQEND
  5
187
100
AcDbEntity
  8
L1_45
  6
CONTINUOUS
 62
         7
  0
ARC
  5
188
100
AcDbEntity
  8
L1_45
  6
CONTINUOUS
 62
         7
100
AcDbCircle
 10
1224.4287518427
 20
176.3005450962
 30
0.0
 40
1.6495853065
100
AcDbArc
 50
43.1760378472
 51
70.0
  0
POLYLINE
  5
18A
100
AcDbEntity
  8
L1_45
  6
CONTINUOUS
 62
         7
100
AcDb3dPolyline
 66
         1
 10
0.0
 20
0.0
 30
0.0
 70
         8
  0
VERTEX
  5
18C
100
AcDbEntity
  8
L1_45
  6
CONTINUOUS
 62
         7
100
AcDbVertex
100
AcDb3dPolylineVertex
 10
1224.9929432457
 20
177.850648236
 30
0.0
 70
        32
  0
VERTEX
  5
18E
100
AcDbEntity
  8
L1_45
  6
CONTINUOUS
 62
         7
100
AcDbVertex
100
AcDb3dPolylineVertex
 10
1224.9929432457
 20
177.850648236
 30
0.0
 70
        32
  0
SEQEND
  5
190
100
AcDbEntity
  8
L1_45
  6
CONTINUOUS
 62
         7
  0
ARC
  5
191
100
AcDbEntity
  8
L1_45
  6
CONTINUOUS
 62
         7
100
AcDbCircle
 10
1224.4287518427
 20
176.3005450962
 30
0.0
 40
1.6495853065
100
AcDbArc
 50
70.0000000001
 51
96.8239621529
  0
POLYLINE
  5
193
100
AcDbEntity
  8
L1_45
  6
CONTINUOUS
 62
         7
100
AcDb3dPolyline
 66
         1
 10
0.0
 20
0.0
 30
0.0
 70
         8
  0
VERTEX
  5
195
100
AcDbEntity
  8
L1_45
  6
CONTINUOUS
 62
         7
100
AcDbVertex
100
AcDb3dPolylineVertex
 10
1224.2327493795
 20
177.9384445796
 30
0.0
 70
        32
  0
VERTEX
  5
197
100
AcDbEntity
  8
L1_45
  6
CONTINUOUS
 62
         7
100
AcDbVertex
100
AcDb3dPolylineVertex
 10
1224.2327493795
 20
177.9384445796
 30
0.0
 70
        32
  0
SEQEND
  5
199
100
AcDbEntity
  8
L1_45
  6
CONTINUOUS
 62
         7
  0
ARC
  5
19A
100
AcDbEntity
  8
L1_45
  6
CONTINUOUS
 62
         7
100
AcDbCircle
 10
1224.4796621714
 20
175.8751116619
 30
0.0
 40
2.0780540551
100
AcDbArc
 50
96.8239621528
 51
120.6773100904
  0
POLYLINE
  5
19C
100
AcDbEntity
  8
L1_45
  6
CONTINUOUS
 62
         7
100
AcDb3dPolyline
 66
         1
 10
0.0
 20
0.0
 30
0.0
 70
         8
  0
VERTEX
  5
19E
100
AcDbEntity
  8
L1_45
  6
CONTINUOUS
 62
         7
100
AcDbVertex
100
AcDb3dPolylineVertex
 10
1223.4194340786
 20
177.6623511666
 30
0.0
 70
        32
  0
VERTEX
  5
1A0
100
AcDbEntity
  8
L1_45
  6
CONTINUOUS
 62
         7
100
AcDbVertex
100
AcDb3dPolylineVertex
 10
1223.4194340786
 20
177.6623511666
 30
0.0
 70
        32
  0
SEQEND
  5
1A2
100
AcDbEntity
  8
L1_45
  6
CONTINUOUS
 62
         7
  0
ARC
  5
1A3
100
AcDbEntity
  8
L1_45
  6
CONTINUOUS
 62
         7
100
AcDbCircle
 10
1224.6794007025
 20
175.5384099693
 30
0.0
 40
2.4695428935
100
AcDbArc
 50
120.6773100903
 51
141.257725858
  0
ARC
  5
1A4
100
AcDbEntity
  8
L1_45
  6
CONTINUOUS
 62
         7
100
AcDbCircle
 10
1225.071478058
 20
175.2238215369
 30
0.0
 40
2.9722262277
100
AcDbArc
 50
141.257725858
 51
160.0
  0
LINE
  5
1A5
100
AcDbEntity
  8
L1_45
  6
CENTER
 62
         1
100
AcDbLine
 10
1226.9769621084
 20
174.5302820606
 30
0.0
 11
1221.3388063837
 21
176.5824029206
 31
0.0
  0
LINE
  5
1A6
100
AcDbEntity
  8
L1_45
  6
CONTINUOUS
 62
         7
100
AcDbLine
 10
1419.1033403763
 20
180.9596417294
 30
0.0
 11
1419.1033403763
 21
179.9596417294
 31
0.0
  0
LINE
  5
1A7
100
AcDbEntity
  8
L1_45
  6
CONTINUOUS
 62
         7
100
AcDbLine
 10
1419.1033403763
 20
120.4096417294
 30
0.0
 11
1419.1033403763
 21
119.4096417294
 31
0.0
  0
LINE
  5
1A8
100
AcDbEntity
  8
L1_45
  6
CONTINUOUS
 62
         7
100
AcDbLine
 10
1598.2833403762
 20
155.6846417294
 30
0.0
 11
1598.2833403762
 21
144.6846417294
 31
0.0
  0
LINE
  5
1A9
100
AcDbEntity
  8
L1_45
  6
DASHED
 62
         2
100
AcDbLine
 10
1598.7833403762
 20
155.1846417294
 30
0.0
 11
1604.9573403762
 21
155.1846417294
 31
0.0
  0
LINE
  5
1AA
100
AcDbEntity
  8
L1_45
  6
DASHED
 62
         2
100
AcDbLine
 10
1604.9573403762
 20
155.1846417294
 30
0.0
 11
1604.9573403762
 21
145.1846417294
 31
0.0
  0
LINE
  5
1AB
100
AcDbEntity
  8
L1_45
  6
DASHED
 62
         2
100
AcDbLine
 10
1604.9573403762
 20
155.1846417294
 30
0.0
 11
1607.8440917222
 21
150.1846417294
 31
0.0
  0
LINE
  5
1AC
100
AcDbEntity
  8
L1_45
  6
DASHED
 62
         2
100
AcDbLine
 10
1607.8440917222
 20
150.1846417294
 30
0.0
 11
1604.9573403762
 21
145.1846417294
 31
0.0
  0
LINE
  5
1AD
100
AcDbEntity
  8
L1_45
  6
DASHED
 62
         2
100
AcDbLine
 10
1598.7833403762
 20
145.1846417294
 30
0.0
 11
1604.9573403762
 21
145.1846417294
 31
0.0
  0
LINE
  5
1AE
100
AcDbEntity
  8
L1_45
  6
DASHED
 62
         2
100
AcDbLine
 10
1598.7833403762
 20
155.1846417294
 30
0.0
 11
1598.7833403762
 21
145.1846417294
 31
0.0
  0
LINE
  5
1AF
100
AcDbEntity
  8
L1_45
  6
DASHED
 62
         2
100
AcDbLine
 10
1598.7833403762
 20
155.1846417294
 30
0.0
 11
1598.2833403762
 21
155.6846417294
 31
0.0
  0
LINE
  5
1B0
100
AcDbEntity
  8
L1_45
  6
DASHED
 62
         2
100
AcDbLine
 10
1598.7833403762
 20
145.1846417294
 30
0.0
 11
1598.2833403762
 21
144.6846417294
 31
0.0
  0
CIRCLE
  5
1B1
100
AcDbEntity
  8
L1_45
  6
CONTINUOUS
 62
         7
100
AcDbCircle
 10
1411.1033403763
 20
150.1846417294
 30
0.0
 40
5.0
  0
ARC
  5
1B2
100
AcDbEntity
  8
L1_45
  6
CONTINUOUS
 62
         7
100
AcDbCircle
 10
1402.6033403763
 20
172.9846417294
 30
0.0
 40
0.6
100
AcDbArc
 50
270.0
 51
360.0
  0
LINE
  5
1B3
100
AcDbEntity
  8
L1_45
  6
CONTINUOUS
 62
         7
100
AcDbLine
 10
1401.2033403763
 20
172.5846417294
 30
0.0
 11
1401.9497505378
 21
172.3846417294
 31
0.0
  0
LINE
  5
1B4
100
AcDbEntity
  8
L1_45
  6
CONTINUOUS
 62
         7
100
AcDbLine
 10
1401.9497505378
 20
172.3846417294
 30
0.0
 11
1402.6033403763
 21
172.3846417294
 31
0.0
  0
LINE
  5
1B5
100
AcDbEntity
  8
L1_45
  6
CONTINUOUS
 62
         7
100
AcDbLine
 10
1401.2033403763
 20
127.7846417294
 30
0.0
 11
1401.2033403763
 21
172.5846417294
 31
0.0
  0
LINE
  5
1B6
100
AcDbEntity
  8
L1_45
  6
CONTINUOUS
 62
         7
100
AcDbLine
 10
1401.9497505378
 20
127.9846417294
 30
0.0
 11
1401.9497505378
 21
172.3846417294
 31
0.0
  0
ARC
  5
1B7
100
AcDbEntity
  8
L1_45
  6
CONTINUOUS
 62
         7
100
AcDbCircle
 10
1402.6033403763
 20
127.3846417294
 30
0.0
 40
0.6
100
AcDbArc
 50
0.0
 51
90.0
  0
LINE
  5
1B8
100
AcDbEntity
  8
L1_45
  6
CONTINUOUS
 62
         7
100
AcDbLine
 10
1401.2033403763
 20
127.7846417294
 30
0.0
 11
1401.9497505378
 21
127.9846417294
 31
0.0
  0
LINE
  5
1B9
100
AcDbEntity
  8
L1_45
  6
CONTINUOUS
 62
         7
100
AcDbLine
 10
1401.9497505378
 20
127.9846417294
 30
0.0
 11
1402.6033403763
 21
127.9846417294
 31
0.0
  0
LINE
  5
1BA
100
AcDbEntity
  8
L1_45
  6
CENTER
 62
         1
100
AcDbLine
 10
1396.6508489578
 20
150.1846417294
 30
0.0
 11
1419.1033403763
 21
150.1846417294
 31
0.0
  0
LINE
  5
1BB
100
AcDbEntity
  8
L1_45
  6
CONTINUOUS
 62
         7
100
AcDbLine
 10
1332.7801721046
 20
162.6062630231
 30
0.0
 11
1401.2033403763
 21
172.5846417294
 31
0.0
  0
LINE
  5
1BC
100
AcDbEntity
  8
L1_45
  6
CENTER
 62
         1
100
AcDbLine
 10
1329.3598386453
 20
150.1846417294
 30
0.0
 11
1378.4659535144
 21
150.1846417294
 31
0.0
  0
LINE
  5
1BD
100
AcDbEntity
  8
L1_45
  6
CONTINUOUS
 62
         7
100
AcDbLine
 10
1332.7801721046
 20
137.7630204357
 30
0.0
 11
1401.2033403763
 21
127.7846417294
 31
0.0
  0
LINE
  5
1BE
100
AcDbEntity
  8
L1_45
  6
CENTER
 62
         1
100
AcDbLine
 10
1411.1033403763
 20
187.6899050302
 30
0.0
 11
1411.1033403763
 21
112.6870854784
 31
0.0
  0
CIRCLE
  5
1BF
100
AcDbEntity
  8
L1_45
  6
CENTER
 62
         1
100
AcDbCircle
 10
1411.1033403763
 20
117.5346417294
 30
0.0
 40
3.5
  0
ARC
  5
1C0
100
AcDbEntity
  8
L1_45
  6
CONTINUOUS
 62
         7
100
AcDbCircle
 10
1412.0045400445
 20
179.3096417294
 30
0.0
 40
1.0
100
AcDbArc
 50
270.0
 51
346.8556743105
  0
ARC
  5
1C1
100
AcDbEntity
  8
L1_45
  6
CONTINUOUS
 62
         7
100
AcDbCircle
 10
1410.202140708
 20
179.3096417294
 30
0.0
 40
1.0
100
AcDbArc
 50
193.1443256895
 51
270.0
  0
LINE
  5
1C2
100
AcDbEntity
  8
L1_45
  6
CONTINUOUS
 62
         7
100
AcDbLine
 10
1410.202140708
 20
178.3096417294
 30
0.0
 11
1412.0045400445
 21
178.3096417294
 31
0.0
  0
LINE
  5
1C3
100
AcDbEntity
  8
L1_45
  6
CONTINUOUS
 62
         7
100
AcDbLine
 10
1414.639610775
 20
181.9596417294
 30
0.0
 11
1418.1033403763
 21
181.9596417294
 31
0.0
  0
LINE
  5
1C4
100
AcDbEntity
  8
L1_45
  6
CONTINUOUS
 62
         7
100
AcDbLine
 10
1412.9783403763
 20
179.0822369936
 30
0.0
 11
1414.639610775
 21
181.9596417294
 31
0.0
  0
LINE
  5
1C5
100
AcDbEntity
  8
L1_45
  6
CONTINUOUS
 62
         7
100
AcDbLine
 10
1414.639610775
 20
118.4096417294
 30
0.0
 11
1418.1033403763
 21
118.4096417294
 31
0.0
  0
ARC
  5
1C6
100
AcDbEntity
  8
L1_45
  6
CONTINUOUS
 62
         7
100
AcDbCircle
 10
1412.0045400445
 20
121.0596417294
 30
0.0
 40
1.0
100
AcDbArc
 50
13.1443256895
 51
90.0
  0
LINE
  5
1C7
100
AcDbEntity
  8
L1_45
  6
CONTINUOUS
 62
         7
100
AcDbLine
 10
1412.9783403763
 20
121.2870464652
 30
0.0
 11
1414.639610775
 21
118.4096417294
 31
0.0
  0
ARC
  5
1C8
100
AcDbEntity
  8
L1_45
  6
CONTINUOUS
 62
         7
100
AcDbCircle
 10
1410.202140708
 20
121.0596417294
 30
0.0
 40
1.0
100
AcDbArc
 50
90.0
 51
166.8556743105
  0
LINE
  5
1C9
100
AcDbEntity
  8
L1_45
  6
CONTINUOUS
 62
         7
100
AcDbLine
 10
1410.202140708
 20
122.0596417294
 30
0.0
 11
1412.0045400445
 21
122.0596417294
 31
0.0
  0
LINE
  5
1CA
100
AcDbEntity
  8
L1_45
  6
CONTINUOUS
 62
         7
100
AcDbLine
 10
1404.2033403763
 20
181.9596417294
 30
0.0
 11
1407.5670699775
 21
181.9596417294
 31
0.0
  0
LINE
  5
1CB
100
AcDbEntity
  8
L1_45
  6
CONTINUOUS
 62
         7
100
AcDbLine
 10
1404.2033403763
 20
118.4096417294
 30
0.0
 11
1407.5670699775
 21
118.4096417294
 31
0.0
  0
LINE
  5
1CC
100
AcDbEntity
  8
L1_45
  6
CENTER
 62
         1
100
AcDbLine
 10
1400.0033403763
 20
172.4096417294
 30
0.0
 11
1400.0033403763
 21
127.9596417294
 31
0.0
  0
LINE
  5
1CD
100
AcDbEntity
  8
L1_45
  6
CONTINUOUS
 62
         7
100
AcDbLine
 10
1403.2033403763
 20
180.9596417294
 30
0.0
 11
1403.2033403763
 21
119.4096417294
 31
0.0
  0
LINE
  5
1CE
100
AcDbEntity
  8
L1_45
  6
CONTINUOUS
 62
         7
100
AcDbLine
 10
1409.2283403763
 20
121.2870464652
 30
0.0
 11
1407.5670699775
 21
118.4096417294
 31
0.0
  0
LINE
  5
1CF
100
AcDbEntity
  8
L1_45
  6
CENTER
 62
         1
100
AcDbLine
 10
1406.7923351177
 20
117.5346417294
 30
0.0
 11
1415.2011696861
 21
117.5346417294
 31
0.0
  0
LINE
  5
1D0
100
AcDbEntity
  8
L1_45
  6
CENTER
 62
         1
100
AcDbLine
 10
1406.7923351177
 20
182.8346417294
 30
0.0
 11
1415.2011696861
 21
182.8346417294
 31
0.0
  0
LINE
  5
1D1
100
AcDbEntity
  8
L1_45
  6
CONTINUOUS
 62
         7
100
AcDbLine
 10
1409.2283403763
 20
179.0822369936
 30
0.0
 11
1407.5670699775
 21
181.9596417294
 31
0.0
  0
CIRCLE
  5
1D2
100
AcDbEntity
  8
L1_45
  6
CENTER
 62
         1
100
AcDbCircle
 10
1411.1033403763
 20
182.8346417294
 30
0.0
 40
3.5
  0
LINE
  5
1D3
100
AcDbEntity
  8
L1_45
  6
CONTINUOUS
 62
         7
100
AcDbLine
 10
1414.639610775
 20
18.8316652595
 30
0.0
 11
1418.1033403763
 21
18.8316652595
 31
0.0
  0
LINE
  5
1D4
100
AcDbEntity
  8
L1_45
  6
CONTINUOUS
 62
         7
100
AcDbLine
 10
1412.9783403763
 20
15.9542605237
 30
0.0
 11
1414.639610775
 21
18.8316652595
 31
0.0
  0
ARC
  5
1D5
100
AcDbEntity
  8
L1_45
  6
CONTINUOUS
 62
         7
100
AcDbCircle
 10
1412.0045400445
 20
16.1816652595
 30
0.0
 40
1.0
100
AcDbArc
 50
270.0
 51
346.8556743105
  0
LINE
  5
1D6
100
AcDbEntity
  8
L1_45
  6
CONTINUOUS
 62
         7
100
AcDbLine
 10
1410.202140708
 20
15.1816652595
 30
0.0
 11
1412.0045400445
 21
15.1816652595
 31
0.0
  0
ARC
  5
1D7
100
AcDbEntity
  8
L1_45
  6
CONTINUOUS
 62
         7
100
AcDbCircle
 10
1410.202140708
 20
16.1816652595
 30
0.0
 40
1.0
100
AcDbArc
 50
193.1443256895
 51
270.0
  0
LINE
  5
1D8
100
AcDbEntity
  8
L1_45
  6
CONTINUOUS
 62
         7
100
AcDbLine
 10
1409.2283403763
 20
15.9542605235
 30
0.0
 11
1407.5670699775
 21
18.8316652593
 31
0.0
  0
LINE
  5
1D9
100
AcDbEntity
  8
L1_45
  6
CONTINUOUS
 62
         7
100
AcDbLine
 10
1404.2033403763
 20
18.8316652595
 30
0.0
 11
1407.5670699775
 21
18.8316652595
 31
0.0
  0
LINE
  5
1DA
100
AcDbEntity
  8
L1_45
  6
CONTINUOUS
 62
         7
100
AcDbLine
 10
1403.2033403763
 20
9.8566652593
 30
0.0
 11
1403.2033403763
 21
17.8316652595
 31
0.0
  0
ARC
  5
1DB
100
AcDbEntity
  8
L1_45
  6
CONTINUOUS
 62
         7
100
AcDbCircle
 10
1402.6033403763
 20
9.8566652593
 30
0.0
 40
0.6
100
AcDbArc
 50
270.0
 51
360.0
  0
LINE
  5
1DC
100
AcDbEntity
  8
L1_45
  6
CONTINUOUS
 62
         7
100
AcDbLine
 10
1401.9497505378
 20
9.2566652593
 30
0.0
 11
1402.6033403763
 21
9.2566652593
 31
0.0
  0
LINE
  5
1DD
100
AcDbEntity
  8
L1_45
  6
CONTINUOUS
 62
         7
100
AcDbLine
 10
1332.6301721046
 20
-0.543588447
 30
0.0
 11
1401.2033403763
 21
9.4566652593
 31
0.0
  0
LINE
  5
1DE
100
AcDbEntity
  8
L1_45
  6
CONTINUOUS
 62
         7
100
AcDbLine
 10
1401.2033403763
 20
9.4566652593
 30
0.0
 11
1401.9497505378
 21
9.2566652593
 31
0.0
  0
LINE
  5
1DF
100
AcDbEntity
  8
L1_45
  6
CONTINUOUS
 62
         7
100
AcDbLine
 10
1332.6301721046
 20
-25.3430810344
 30
0.0
 11
1401.2033403767
 21
-35.3433347407
 31
0.0
  0
LINE
  5
1E0
100
AcDbEntity
  8
L1_45
  6
CENTER
 62
         1
100
AcDbLine
 10
1328.5556074009
 20
-12.9433347407
 30
0.0
 11
1435.1033403763
 21
-12.9433347407
 31
0.0
  0
LINE
  5
1E1
100
AcDbEntity
  8
L1_45
  6
CONTINUOUS
 62
         7
100
AcDbLine
 10
1401.2033403763
 20
-35.3433347409
 30
0.0
 11
1401.9497505378
 21
-35.1433347409
 31
0.0
  0
LINE
  5
1E2
100
AcDbEntity
  8
L1_45
  6
CONTINUOUS
 62
         7
100
AcDbLine
 10
1401.9497505378
 20
-35.1433347407
 30
0.0
 11
1402.6033403763
 21
-35.1433347407
 31
0.0
  0
ARC
  5
1E3
100
AcDbEntity
  8
L1_45
  6
CONTINUOUS
 62
         7
100
AcDbCircle
 10
1402.6033403763
 20
-35.7433347407
 30
0.0
 40
0.6
100
AcDbArc
 50
0.0
 51
90.0
  0
LINE
  5
1E4
100
AcDbEntity
  8
L1_45
  6
CONTINUOUS
 62
         7
100
AcDbLine
 10
1404.2033403763
 20
-44.7183347409
 30
0.0
 11
1407.5670699775
 21
-44.7183347409
 31
0.0
  0
LINE
  5
1E5
100
AcDbEntity
  8
L1_45
  6
CONTINUOUS
 62
         7
100
AcDbLine
 10
1403.2033403763
 20
-35.7433347409
 30
0.0
 11
1403.2033403763
 21
-43.7183347409
 31
0.0
  0
LINE
  5
1E6
100
AcDbEntity
  8
L1_45
  6
CONTINUOUS
 62
         7
100
AcDbLine
 10
1409.2283403763
 20
-41.8409300049
 30
0.0
 11
1407.5670699775
 21
-44.7183347407
 31
0.0
  0
ARC
  5
1E7
100
AcDbEntity
  8
L1_45
  6
CONTINUOUS
 62
         7
100
AcDbCircle
 10
1410.202140708
 20
-42.0683347407
 30
0.0
 40
1.0
100
AcDbArc
 50
90.0
 51
166.8556743105
  0
LINE
  5
1E8
100
AcDbEntity
  8
L1_45
  6
CONTINUOUS
 62
         7
100
AcDbLine
 10
1410.202140708
 20
-41.0683347407
 30
0.0
 11
1412.0045400445
 21
-41.0683347407
 31
0.0
  0
ARC
  5
1E9
100
AcDbEntity
  8
L1_45
  6
CONTINUOUS
 62
         7
100
AcDbCircle
 10
1412.0045400445
 20
-42.0683347409
 30
0.0
 40
1.0
100
AcDbArc
 50
13.1443256895
 51
90.0
  0
LINE
  5
1EA
100
AcDbEntity
  8
L1_45
  6
CONTINUOUS
 62
         7
100
AcDbLine
 10
1412.9783403763
 20
-41.8409300049
 30
0.0
 11
1414.639610775
 21
-44.7183347407
 31
0.0
  0
LINE
  5
1EB
100
AcDbEntity
  8
L1_45
  6
CONTINUOUS
 62
         7
100
AcDbLine
 10
1414.639610775
 20
-44.7183347409
 30
0.0
 11
1418.1033403763
 21
-44.7183347409
 31
0.0
  0
ARC
  5
1EC
100
AcDbEntity
  8
L1_45
  6
CONTINUOUS
 62
         7
100
AcDbCircle
 10
1419.6033403763
 20
9.8416652593
 30
0.0
 40
0.5
100
AcDbArc
 50
180.0
 51
270.0
  0
ARC
  5
1ED
100
AcDbEntity
  8
L1_45
  6
CONTINUOUS
 62
         7
100
AcDbCircle
 10
1419.6033403763
 20
-35.7283347407
 30
0.0
 40
0.5
100
AcDbArc
 50
90.0
 51
180.0
  0
LINE
  5
1EE
100
AcDbEntity
  8
L1_45
  6
CONTINUOUS
 62
         7
100
AcDbLine
 10
1419.6033403763
 20
-35.2283347407
 30
0.0
 11
1434.2553403763
 21
-35.2283347407
 31
0.0
  0
LINE
  5
1EF
100
AcDbEntity
  8
L1_45
  6
CONTINUOUS
 62
         7
100
AcDbLine
 10
1419.6033403763
 20
9.3416652593
 30
0.0
 11
1434.2553403763
 21
9.3416652593
 31
0.0
  0
ARC
  5
1F0
100
AcDbEntity
  8
L1_45
  6
CONTINUOUS
 62
         7
100
AcDbCircle
 10
1404.2033403763
 20
180.9596417294
 30
0.0
 40
1.0
100
AcDbArc
 50
90.0
 51
180.0
  0
LINE
  5
1F1
100
AcDbEntity
  8
L1_45
  6
CONTINUOUS
 62
         7
100
AcDbLine
 10
1404.2033403763
 20
181.9596417294
 30
0.0
 11
1405.2033403763
 21
181.9596417294
 31
0.0
  0
LINE
  5
1F2
100
AcDbEntity
  8
L1_45
  6
CONTINUOUS
 62
         7
100
AcDbLine
 10
1403.2033403763
 20
180.9596417294
 30
0.0
 11
1403.2033403763
 21
179.9596417294
 31
0.0
  0
LINE
  5
1F3
100
AcDbEntity
  8
L1_45
  6
CONTINUOUS
 62
         7
100
AcDbLine
 10
1417.1033403763
 20
181.9596417294
 30
0.0
 11
1418.1033403763
 21
181.9596417294
 31
0.0
  0
ARC
  5
1F4
100
AcDbEntity
  8
L1_45
  6
CONTINUOUS
 62
         7
100
AcDbCircle
 10
1418.1033403763
 20
180.9596417294
 30
0.0
 40
1.0
100
AcDbArc
 50
0.0
 51
90.0
  0
ARC
  5
1F5
100
AcDbEntity
  8
L1_45
  6
CONTINUOUS
 62
         7
100
AcDbCircle
 10
1404.2033403763
 20
119.4096417294
 30
0.0
 40
1.0
100
AcDbArc
 50
180.0
 51
270.0
  0
LINE
  5
1F6
100
AcDbEntity
  8
L1_45
  6
CONTINUOUS
 62
         7
100
AcDbLine
 10
1404.2033403763
 20
118.4096417294
 30
0.0
 11
1405.2033403763
 21
118.4096417294
 31
0.0
  0
LINE
  5
1F7
100
AcDbEntity
  8
L1_45
  6
CONTINUOUS
 62
         7
100
AcDbLine
 10
1417.1033403763
 20
118.4096417294
 30
0.0
 11
1418.1033403763
 21
118.4096417294
 31
0.0
  0
ARC
  5
1F8
100
AcDbEntity
  8
L1_45
  6
CONTINUOUS
 62
         7
100
AcDbCircle
 10
1418.1033403763
 20
119.4096417294
 30
0.0
 40
1.0
100
AcDbArc
 50
270.0
 51
360.0
  0
LINE
  5
1F9
100
AcDbEntity
  8
L1_45
  6
CONTINUOUS
 62
         7
100
AcDbLine
 10
1419.1033403763
 20
180.9596417294
 30
0.0
 11
1419.1033403763
 21
172.9696417294
 31
0.0
  0
LINE
  5
1FA
100
AcDbEntity
  8
L1_45
  6
CONTINUOUS
 62
         7
100
AcDbLine
 10
1403.2033403763
 20
120.4096417294
 30
0.0
 11
1403.2033403763
 21
119.4096417294
 31
0.0
  0
LINE
  5
1FB
100
AcDbEntity
  8
L1_45
  6
CONTINUOUS
 62
         7
100
AcDbLine
 10
1419.1033403763
 20
-42.7183347407
 30
0.0
 11
1419.1033403763
 21
-43.7183347407
 31
0.0
  0
LINE
  5
1FC
100
AcDbEntity
  8
L1_45
  6
CONTINUOUS
 62
         7
100
AcDbLine
 10
1403.2033403763
 20
-42.7183347407
 30
0.0
 11
1403.2033403763
 21
-43.7183347407
 31
0.0
  0
LINE
  5
1FD
100
AcDbEntity
  8
L1_45
  6
CONTINUOUS
 62
         7
100
AcDbLine
 10
1419.1033403763
 20
17.8316652593
 30
0.0
 11
1419.1033403763
 21
16.8316652593
 31
0.0
  0
ARC
  5
1FE
100
AcDbEntity
  8
L1_45
  6
CONTINUOUS
 62
         7
100
AcDbCircle
 10
1418.1033403763
 20
-43.7183347407
 30
0.0
 40
1.0
100
AcDbArc
 50
270.0
 51
360.0
  0
LINE
  5
1FF
100
AcDbEntity
  8
L1_45
  6
CONTINUOUS
 62
         7
100
AcDbLine
 10
1417.1033403763
 20
-44.7183347407
 30
0.0
 11
1418.1033403763
 21
-44.7183347407
 31
0.0
  0
LINE
  5
200
100
AcDbEntity
  8
L1_45
  6
CONTINUOUS
 62
         7
100
AcDbLine
 10
1404.2033403763
 20
-44.7183347407
 30
0.0
 11
1405.2033403763
 21
-44.7183347407
 31
0.0
  0
ARC
  5
201
100
AcDbEntity
  8
L1_45
  6
CONTINUOUS
 62
         7
100
AcDbCircle
 10
1404.2033403763
 20
-43.7183347407
 30
0.0
 40
1.0
100
AcDbArc
 50
180.0
 51
270.0
  0
ARC
  5
202
100
AcDbEntity
  8
L1_45
  6
CONTINUOUS
 62
         7
100
AcDbCircle
 10
1418.1033403763
 20
17.8316652593
 30
0.0
 40
1.0
100
AcDbArc
 50
0.0
 51
90.0
  0
LINE
  5
203
100
AcDbEntity
  8
L1_45
  6
CONTINUOUS
 62
         7
100
AcDbLine
 10
1417.1033403763
 20
18.8316652593
 30
0.0
 11
1418.1033403763
 21
18.8316652593
 31
0.0
  0
LINE
  5
204
100
AcDbEntity
  8
L1_45
  6
CONTINUOUS
 62
         7
100
AcDbLine
 10
1403.2033403763
 20
17.8316652593
 30
0.0
 11
1403.2033403763
 21
16.8316652593
 31
0.0
  0
LINE
  5
205
100
AcDbEntity
  8
L1_45
  6
CONTINUOUS
 62
         7
100
AcDbLine
 10
1404.2033403763
 20
18.8316652593
 30
0.0
 11
1405.2033403763
 21
18.8316652593
 31
0.0
  0
ARC
  5
206
100
AcDbEntity
  8
L1_45
  6
CONTINUOUS
 62
         7
100
AcDbCircle
 10
1404.2033403763
 20
17.8316652593
 30
0.0
 40
1.0
100
AcDbArc
 50
90.0
 51
180.0
  0
LINE
  5
207
100
AcDbEntity
  8
L1_45
  6
CONTINUOUS
 62
         7
100
AcDbLine
 10
1435.0553403763
 20
171.6696417294
 30
0.0
 11
1435.0553403763
 21
128.6996417294
 31
0.0
  0
LINE
  5
208
100
AcDbEntity
  8
L1_45
  6
CONTINUOUS
 62
         7
100
AcDbLine
 10
1419.6033403763
 20
172.4696417294
 30
0.0
 11
1434.2553403763
 21
172.4696417294
 31
0.0
  0
ARC
  5
209
100
AcDbEntity
  8
L1_45
  6
CONTINUOUS
 62
         7
100
AcDbCircle
 10
1419.6033403763
 20
127.3996417294
 30
0.0
 40
0.5
100
AcDbArc
 50
90.0
 51
180.0
  0
ARC
  5
20A
100
AcDbEntity
  8
L1_45
  6
CONTINUOUS
 62
         7
100
AcDbCircle
 10
1419.6033403763
 20
172.9696417294
 30
0.0
 40
0.5
100
AcDbArc
 50
180.0
 51
270.0
  0
LINE
  5
20B
100
AcDbEntity
  8
L1_45
  6
CONTINUOUS
 62
         7
100
AcDbLine
 10
1419.1033403763
 20
17.8316652595
 30
0.0
 11
1419.1033403763
 21
9.8416652593
 31
0.0
  0
LINE
  5
20C
100
AcDbEntity
  8
L1_45
  6
CONTINUOUS
 62
         7
100
AcDbLine
 10
1419.1033403763
 20
-35.7283347407
 30
0.0
 11
1419.1033403763
 21
-43.7183347409
 31
0.0
  0
ARC
  5
20D
100
AcDbEntity
  8
L1_45
  6
CONTINUOUS
 62
         7
100
AcDbCircle
 10
1434.2553403763
 20
171.6696417294
 30
0.0
 40
0.8
100
AcDbArc
 50
0.0
 51
90.0000000003
  0
CIRCLE
  5
20E
100
AcDbEntity
  8
L1_45
  6
DASHED
 62
         2
100
AcDbCircle
 10
1623.2833403763
 20
150.1846417294
 30
0.0
 40
22.225
  0
LINE
  5
20F
100
AcDbEntity
  8
L1_45
  6
CONTINUOUS
 62
         7
100
AcDbLine
 10
1414.639610775
 20
141.3346417294
 30
0.0
 11
1414.639610775
 21
118.4096417294
 31
0.0
  0
LINE
  5
210
100
AcDbEntity
  8
L1_45
  6
CONTINUOUS
 62
         7
100
AcDbLine
 10
1412.9783403763
 20
142.1346417294
 30
0.0
 11
1412.9783403763
 21
121.2870464652
 31
0.0
  0
LINE
  5
211
100
AcDbEntity
  8
L1_45
  6
CONTINUOUS
 62
         7
100
AcDbLine
 10
1409.2283403763
 20
142.1346417294
 30
0.0
 11
1409.2283403763
 21
121.2870464652
 31
0.0
  0
LINE
  5
212
100
AcDbEntity
  8
L1_45
  6
CONTINUOUS
 62
         7
100
AcDbLine
 10
1407.5670699775
 20
141.3346417294
 30
0.0
 11
1407.5670699775
 21
118.4096417294
 31
0.0
  0
LINE
  5
213
100
AcDbEntity
  8
L1_45
  6
CONTINUOUS
 62
         7
100
AcDbLine
 10
1419.1033403763
 20
159.0346417294
 30
0.0
 11
1414.639610775
 21
159.0346417294
 31
0.0
  0
LINE
  5
214
100
AcDbEntity
  8
L1_45
  6
CONTINUOUS
 62
         7
100
AcDbLine
 10
1412.9783403763
 20
158.2346417294
 30
0.0
 11
1414.639610775
 21
159.0346417294
 31
0.0
  0
LINE
  5
215
100
AcDbEntity
  8
L1_45
  6
CONTINUOUS
 62
         7
100
AcDbLine
 10
1419.1033403763
 20
159.0346417294
 30
0.0
 11
1418.3033403763
 21
158.2346417294
 31
0.0
  0
LINE
  5
216
100
AcDbEntity
  8
L1_45
  6
CONTINUOUS
 62
         7
100
AcDbLine
 10
1412.9783403763
 20
142.1346417294
 30
0.0
 11
1414.639610775
 21
141.3346417294
 31
0.0
  0
LINE
  5
217
100
AcDbEntity
  8
L1_45
  6
CONTINUOUS
 62
         7
100
AcDbLine
 10
1418.3033403763
 20
142.1346417294
 30
0.0
 11
1419.1033403763
 21
141.3346417294
 31
0.0
  0
LINE
  5
218
100
AcDbEntity
  8
L1_45
  6
CONTINUOUS
 62
         7
100
AcDbLine
 10
1419.1033403763
 20
141.3346417294
 30
0.0
 11
1414.639610775
 21
141.3346417294
 31
0.0
  0
LINE
  5
219
100
AcDbEntity
  8
L1_45
  6
CONTINUOUS
 62
         7
100
AcDbLine
 10
1418.3033403763
 20
158.2346417294
 30
0.0
 11
1418.3033403763
 21
142.1346417294
 31
0.0
  0
LINE
  5
21A
100
AcDbEntity
  8
L1_45
  6
CONTINUOUS
 62
         7
100
AcDbLine
 10
1407.5670699775
 20
159.0346417294
 30
0.0
 11
1403.2033403763
 21
159.0346417294
 31
0.0
  0
LINE
  5
21B
100
AcDbEntity
  8
L1_45
  6
CONTINUOUS
 62
         7
100
AcDbLine
 10
1403.2033403763
 20
159.0346417294
 30
0.0
 11
1404.0033403763
 21
158.2346417294
 31
0.0
  0
LINE
  5
21C
100
AcDbEntity
  8
L1_45
  6
CONTINUOUS
 62
         7
100
AcDbLine
 10
1404.0033403763
 20
142.1346417294
 30
0.0
 11
1403.2033403763
 21
141.3346417294
 31
0.0
  0
LINE
  5
21D
100
AcDbEntity
  8
L1_45
  6
CONTINUOUS
 62
         7
100
AcDbLine
 10
1407.5670699775
 20
141.3346417294
 30
0.0
 11
1403.2033403763
 21
141.3346417294
 31
0.0
  0
LINE
  5
21E
100
AcDbEntity
  8
L1_45
  6
CONTINUOUS
 62
         7
100
AcDbLine
 10
1404.0033403763
 20
158.2346417294
 30
0.0
 11
1404.0033403763
 21
142.1346417294
 31
0.0
  0
LINE
  5
21F
100
AcDbEntity
  8
L1_45
  6
CONTINUOUS
 62
         7
100
AcDbLine
 10
1407.5670699775
 20
141.3346417294
 30
0.0
 11
1409.2283403763
 21
142.1346417294
 31
0.0
  0
LINE
  5
220
100
AcDbEntity
  8
L1_45
  6
CONTINUOUS
 62
         7
100
AcDbLine
 10
1407.5670699775
 20
159.0346417294
 30
0.0
 11
1409.2283403763
 21
158.2346417294
 31
0.0
  0
LINE
  5
221
100
AcDbEntity
  8
L1_45
  6
CONTINUOUS
 62
         7
100
AcDbLine
 10
1418.3033403763
 20
142.1346417294
 30
0.0
 11
1404.0033403763
 21
142.1346417294
 31
0.0
  0
LINE
  5
222
100
AcDbEntity
  8
L1_45
  6
CONTINUOUS
 62
         7
100
AcDbLine
 10
1418.3033403763
 20
158.2346417294
 30
0.0
 11
1404.0033403763
 21
158.2346417294
 31
0.0
  0
LINE
  5
223
100
AcDbEntity
  8
L1_45
  6
CONTINUOUS
 62
         7
100
AcDbLine
 10
1414.639610775
 20
181.9596417294
 30
0.0
 11
1414.639610775
 21
159.0346417294
 31
0.0
  0
LINE
  5
224
100
AcDbEntity
  8
L1_45
  6
CONTINUOUS
 62
         7
100
AcDbLine
 10
1412.9783403763
 20
179.0822369936
 30
0.0
 11
1412.9783403763
 21
158.2346417294
 31
0.0
  0
LINE
  5
225
100
AcDbEntity
  8
L1_45
  6
CONTINUOUS
 62
         7
100
AcDbLine
 10
1409.2283403763
 20
179.0822369936
 30
0.0
 11
1409.2283403763
 21
158.2346417294
 31
0.0
  0
LINE
  5
226
100
AcDbEntity
  8
L1_45
  6
CONTINUOUS
 62
         7
100
AcDbLine
 10
1407.5670699775
 20
181.9596417294
 30
0.0
 11
1407.5670699775
 21
159.0346417294
 31
0.0
  0
ARC
  5
227
100
AcDbEntity
  8
L1_45
  6
CONTINUOUS
 62
         7
100
AcDbCircle
 10
1623.2833403763
 20
150.1846417294
 30
0.0
 40
31.775
100
AcDbArc
 50
195.411296411
 51
344.588703589
  0
ARC
  5
228
100
AcDbEntity
  8
L1_45
  6
CONTINUOUS
 62
         7
100
AcDbCircle
 10
1623.2833403763
 20
150.1846417294
 30
0.0
 40
31.775
100
AcDbArc
 50
15.411296411
 51
164.588703589
  0
LINE
  5
229
100
AcDbEntity
  8
L1_45
  6
CENTER
 62
         1
100
AcDbLine
 10
1623.2833403763
 20
184.9596417294
 30
0.0
 11
1623.2833403763
 21
115.4096417294
 31
0.0
  0
ARC
  5
22A
100
AcDbEntity
  8
L1_45
  6
DASHED
 62
         2
100
AcDbCircle
 10
1623.2833403763
 20
150.1846417294
 30
0.0
 40
28.125
100
AcDbArc
 50
16.6319205355
 51
163.3680794645
  0
ARC
  5
22B
100
AcDbEntity
  8
L1_45
  6
DASHED
 62
         2
100
AcDbCircle
 10
1623.2833403763
 20
150.1846417294
 30
0.0
 40
28.125
100
AcDbArc
 50
198.3406919436
 51
343.3680794645
  0
LINE
  5
22C
100
AcDbEntity
  8
L1_45
  6
CONTINUOUS
 62
         7
100
AcDbLine
 10
1646.0833403763
 20
157.7346417294
 30
0.0
 11
1646.0833403763
 21
142.6346417294
 31
0.0
  0
LINE
  5
22D
100
AcDbEntity
  8
L1_45
  6
CONTINUOUS
 62
         7
100
AcDbLine
 10
1646.0833403763
 20
157.7346417294
 30
0.0
 11
1646.5833403763
 21
158.2346417294
 31
0.0
  0
LINE
  5
22E
100
AcDbEntity
  8
L1_45
  6
CONTINUOUS
 62
         7
100
AcDbLine
 10
1646.5833403763
 20
158.2346417294
 30
0.0
 11
1653.5217223278
 21
158.2346417294
 31
0.0
  0
LINE
  5
22F
100
AcDbEntity
  8
L1_45
  6
CONTINUOUS
 62
         7
100
AcDbLine
 10
1653.915807609
 20
158.6287270106
 30
0.0
 11
1653.5217223278
 21
158.2346417294
 31
0.0
  0
LINE
  5
230
100
AcDbEntity
  8
L1_45
  6
CONTINUOUS
 62
         7
100
AcDbLine
 10
1646.5833403763
 20
142.1346417294
 30
0.0
 11
1653.5217223278
 21
142.1346417294
 31
0.0
  0
LINE
  5
231
100
AcDbEntity
  8
L1_45
  6
CONTINUOUS
 62
         7
100
AcDbLine
 10
1646.0833403763
 20
142.6346417294
 30
0.0
 11
1646.5833403763
 21
142.1346417294
 31
0.0
  0
LINE
  5
232
100
AcDbEntity
  8
L1_45
  6
CONTINUOUS
 62
         7
100
AcDbLine
 10
1653.915807609
 20
141.7405564482
 30
0.0
 11
1653.5217223278
 21
142.1346417294
 31
0.0
  0
LINE
  5
233
100
AcDbEntity
  8
L1_45
  6
CONTINUOUS
 62
         7
100
AcDbLine
 10
1593.0449584247
 20
158.2346417294
 30
0.0
 11
1597.7833403762
 21
158.2346417294
 31
0.0
  0
LINE
  5
234
100
AcDbEntity
  8
L1_45
  6
CONTINUOUS
 62
         7
100
AcDbLine
 10
1598.2833403762
 20
157.7346417294
 30
0.0
 11
1598.2833403762
 21
142.6346417294
 31
0.0
  0
LINE
  5
235
100
AcDbEntity
  8
L1_45
  6
CONTINUOUS
 62
         7
100
AcDbLine
 10
1598.2833403762
 20
157.7346417294
 30
0.0
 11
1597.7833403762
 21
158.2346417294
 31
0.0
  0
LINE
  5
236
100
AcDbEntity
  8
L1_45
  6
CONTINUOUS
 62
         7
100
AcDbLine
 10
1592.6508731435
 20
158.6287270106
 30
0.0
 11
1593.0449584247
 21
158.2346417294
 31
0.0
  0
LINE
  5
237
100
AcDbEntity
  8
L1_45
  6
CONTINUOUS
 62
         7
100
AcDbLine
 10
1598.2833403762
 20
142.6346417294
 30
0.0
 11
1597.7833403762
 21
142.1346417294
 31
0.0
  0
LINE
  5
238
100
AcDbEntity
  8
L1_45
  6
CONTINUOUS
 62
         7
100
AcDbLine
 10
1592.6508731435
 20
141.7405564482
 30
0.0
 11
1593.0449584247
 21
142.1346417294
 31
0.0
  0
LINE
  5
239
100
AcDbEntity
  8
L1_45
  6
CONTINUOUS
 62
         7
100
AcDbLine
 10
1593.0449584247
 20
142.1346417294
 30
0.0
 11
1597.7833403762
 21
142.1346417294
 31
0.0
  0
LINE
  5
23A
100
AcDbEntity
  8
L1_45
  6
CENTER
 62
         1
100
AcDbLine
 10
1596.790952795
 20
150.1846417294
 30
0.0
 11
1650.7694097755
 21
150.1846417294
 31
0.0
  0
LINE
  5
23B
100
AcDbEntity
  8
L1_45
  6
CENTER
 62
         1
100
AcDbLine
 10
1183.1483403763
 20
150.1846417294
 30
0.0
 11
1246.6983403763
 21
150.1846417294
 31
0.0
  0
ARC
  5
23C
100
AcDbEntity
  8
L1_45
  6
CONTINUOUS
 62
         7
100
AcDbCircle
 10
1214.9233403763
 20
150.1846417294
 30
0.0
 40
31.775
100
AcDbArc
 50
195.411296411
 51
344.588703589
  0
ARC
  5
23D
100
AcDbEntity
  8
L1_45
  6
CONTINUOUS
 62
         7
100
AcDbCircle
 10
1214.9233403763
 20
150.1846417294
 30
0.0
 40
31.775
100
AcDbArc
 50
15.411296411
 51
164.588703589
  0
LINE
  5
23E
100
AcDbEntity
  8
L1_45
  6
CENTER
 62
         1
100
AcDbLine
 10
1214.9233403763
 20
114.5732894966
 30
0.0
 11
1214.9233403763
 21
185.4173498279
 31
0.0
  0
CIRCLE
  5
23F
100
AcDbEntity
  8
L1_45
  6
CONTINUOUS
 62
         7
100
AcDbCircle
 10
1214.9233403763
 20
150.1846417294
 30
0.0
 40
12.7165768873
  0
CIRCLE
  5
240
100
AcDbEntity
  8
L1_45
  6
CONTINUOUS
 62
         7
100
AcDbCircle
 10
1214.9233403763
 20
150.1846417294
 30
0.0
 40
7.0
  0
ARC
  5
241
100
AcDbEntity
  8
L1_45
  6
CONTINUOUS
 62
         5
100
AcDbCircle
 10
1214.9233403763
 20
150.1846417294
 30
0.0
 40
8.0
100
AcDbArc
 50
352.9901372228
 51
621.2264515101
  0
CIRCLE
  5
242
100
AcDbEntity
  8
L1_45
  6
CONTINUOUS
 62
         7
100
AcDbCircle
 10
1214.9233403763
 20
150.1846417294
 30
0.0
 40
9.5
  0
CIRCLE
  5
243
100
AcDbEntity
  8
L1_45
  6
CONTINUOUS
 62
         7
100
AcDbCircle
 10
1214.9233403763
 20
150.1846417294
 30
0.0
 40
8.5
  0
CIRCLE
  5
244
100
AcDbEntity
  8
L1_45
  6
CONTINUOUS
 62
         7
100
AcDbCircle
 10
1214.9233403763
 20
150.1846417294
 30
0.0
 40
22.225
  0
LINE
  5
245
100
AcDbEntity
  8
L1_45
  6
CONTINUOUS
 62
         7
100
AcDbLine
 10
1245.1617223278
 20
158.2346417294
 30
0.0
 11
1240.4233403763
 21
158.2346417294
 31
0.0
  0
LINE
  5
246
100
AcDbEntity
  8
L1_45
  6
CONTINUOUS
 62
         7
100
AcDbLine
 10
1239.9233403763
 20
157.7346417294
 30
0.0
 11
1240.4233403763
 21
158.2346417294
 31
0.0
  0
LINE
  5
247
100
AcDbEntity
  8
L1_45
  6
CONTINUOUS
 62
         7
100
AcDbLine
 10
1245.555807609
 20
141.7405564482
 30
0.0
 11
1245.1617223278
 21
142.1346417294
 31
0.0
  0
LINE
  5
248
100
AcDbEntity
  8
L1_45
  6
CONTINUOUS
 62
         7
100
AcDbLine
 10
1239.9233403763
 20
142.6346417294
 30
0.0
 11
1240.4233403763
 21
142.1346417294
 31
0.0
  0
LINE
  5
249
100
AcDbEntity
  8
L1_45
  6
CONTINUOUS
 62
         7
100
AcDbLine
 10
1239.9233403763
 20
142.6346417294
 30
0.0
 11
1239.9233403763
 21
157.7346417294
 31
0.0
  0
LINE
  5
24A
100
AcDbEntity
  8
L1_45
  6
CONTINUOUS
 62
         7
100
AcDbLine
 10
1245.1617223278
 20
142.1346417294
 30
0.0
 11
1240.4233403763
 21
142.1346417294
 31
0.0
  0
LINE
  5
24B
100
AcDbEntity
  8
L1_45
  6
CONTINUOUS
 62
         7
100
AcDbLine
 10
1184.2908731435
 20
158.6287270106
 30
0.0
 11
1184.6849584247
 21
158.2346417294
 31
0.0
  0
LINE
  5
24C
100
AcDbEntity
  8
L1_45
  6
CONTINUOUS
 62
         7
100
AcDbLine
 10
1192.1233403763
 20
157.7346417294
 30
0.0
 11
1191.6233403763
 21
158.2346417294
 31
0.0
  0
LINE
  5
24D
100
AcDbEntity
  8
L1_45
  6
CONTINUOUS
 62
         7
100
AcDbLine
 10
1191.6233403763
 20
158.2346417294
 30
0.0
 11
1184.6849584247
 21
158.2346417294
 31
0.0
  0
LINE
  5
24E
100
AcDbEntity
  8
L1_45
  6
CONTINUOUS
 62
         7
100
AcDbLine
 10
1184.2908731435
 20
141.7405564482
 30
0.0
 11
1184.6849584247
 21
142.1346417294
 31
0.0
  0
LINE
  5
24F
100
AcDbEntity
  8
L1_45
  6
CONTINUOUS
 62
         7
100
AcDbLine
 10
1191.6233403763
 20
142.1346417294
 30
0.0
 11
1184.6849584247
 21
142.1346417294
 31
0.0
  0
LINE
  5
250
100
AcDbEntity
  8
L1_45
  6
CONTINUOUS
 62
         7
100
AcDbLine
 10
1192.1233403763
 20
142.6346417294
 30
0.0
 11
1191.6233403763
 21
142.1346417294
 31
0.0
  0
LINE
  5
251
100
AcDbEntity
  8
L1_45
  6
CONTINUOUS
 62
         7
100
AcDbLine
 10
1192.1233403763
 20
142.6346417294
 30
0.0
 11
1192.1233403763
 21
157.7346417294
 31
0.0
  0
ARC
  5
252
100
AcDbEntity
  8
L1_45
  6
CONTINUOUS
 62
         7
100
AcDbCircle
 10
1434.2553403763
 20
128.6996417294
 30
0.0
 40
0.8
100
AcDbArc
 50
269.9999999999
 51
360.0
  0
LINE
  5
253
100
AcDbEntity
  8
L1_45
  6
CONTINUOUS
 62
         7
100
AcDbLine
 10
1419.6033403763
 20
127.8996417294
 30
0.0
 11
1434.2553403763
 21
127.8996417294
 31
0.0
  0
ARC
  5
254
100
AcDbEntity
  8
L1_45
  6
CONTINUOUS
 62
         7
100
AcDbCircle
 10
1434.2553403763
 20
8.5416652593
 30
0.0
 40
0.8
100
AcDbArc
 50
0.0
 51
90.0000000003
  0
LINE
  5
255
100
AcDbEntity
  8
L1_45
  6
CONTINUOUS
 62
         7
100
AcDbLine
 10
1435.0553403763
 20
8.5416652593
 30
0.0
 11
1435.0553403763
 21
7.5416652593
 31
0.0
  0
ARC
  5
256
100
AcDbEntity
  8
L1_45
  6
CONTINUOUS
 62
         7
100
AcDbCircle
 10
1434.2553403763
 20
-34.4283347407
 30
0.0
 40
0.8
100
AcDbArc
 50
269.9999999999
 51
360.0
  0
LINE
  5
257
100
AcDbEntity
  8
L1_45
  6
CONTINUOUS
 62
         7
100
AcDbLine
 10
1435.0553403763
 20
-33.4283347407
 30
0.0
 11
1435.0553403763
 21
-34.4283347407
 31
0.0
  0
LINE
  5
258
100
AcDbEntity
  8
L1_45
  6
CONTINUOUS
 62
         7
100
AcDbLine
 10
1331.7533403763
 20
161.4188234458
 30
0.0
 11
1331.7533403763
 21
138.9504600129
 31
0.0
  0
ARC
  5
259
100
AcDbEntity
  8
L1_45
  6
CONTINUOUS
 62
         7
100
AcDbCircle
 10
1332.9533403763
 20
161.4188234458
 30
0.0
 40
1.2
100
AcDbArc
 50
98.2971449698
 51
180.0
  0
ARC
  5
25A
100
AcDbEntity
  8
L1_45
  6
CONTINUOUS
 62
         7
100
AcDbCircle
 10
1332.9533403763
 20
138.9504600129
 30
0.0
 40
1.2
100
AcDbArc
 50
180.0
 51
261.7028550302
  0
LINE
  5
25B
100
AcDbEntity
  8
L1_45
  6
CONTINUOUS
 62
         7
100
AcDbLine
 10
1331.7533403763
 20
-1.7091530242
 30
0.0
 11
1331.7533403763
 21
-24.1775164571
 31
0.0
  0
ARC
  5
25C
100
AcDbEntity
  8
L1_45
  6
CONTINUOUS
 62
         7
100
AcDbCircle
 10
1332.9533403763
 20
-1.7091530242
 30
0.0
 40
1.2
100
AcDbArc
 50
98.2971449698
 51
180.0
  0
ARC
  5
25D
100
AcDbEntity
  8
L1_45
  6
CONTINUOUS
 62
         7
100
AcDbCircle
 10
1332.9533403763
 20
-24.1775164571
 30
0.0
 40
1.2
100
AcDbArc
 50
180.0
 51
261.7028550302
  0
LINE
  5
25E
100
AcDbEntity
  8
L1_45
  6
CONTINUOUS
 62
         7
100
AcDbLine
 10
1360.2033403763
 20
-4.9433347407
 30
0.0
 11
1360.2033403763
 21
-20.9433347407
 31
0.0
  0
LINE
  5
25F
100
AcDbEntity
  8
L1_45
  6
CONTINUOUS
 62
         5
100
AcDbLine
 10
1336.6561830887
 20
-20.9433347407
 30
0.0
 11
1360.2033403763
 21
-20.9433347407
 31
0.0
  0
ARC
  5
260
100
AcDbEntity
  8
L1_45
  6
CONTINUOUS
 62
         7
100
AcDbCircle
 10
1332.7533403763
 20
-22.0933347407
 30
0.0
 40
1.0
100
AcDbArc
 50
90.0
 51
180.0
  0
LINE
  5
261
100
AcDbEntity
  8
L1_45
  6
CONTINUOUS
 62
         7
100
AcDbLine
 10
1332.7533403763
 20
-21.0933347407
 30
0.0
 11
1335.5233403763
 21
-21.0933347407
 31
0.0
  0
LINE
  5
262
100
AcDbEntity
  8
L1_45
  6
CONTINUOUS
 62
         7
100
AcDbLine
 10
1335.8711121475
 20
-21.1865199059
 30
0.0
 11
1335.5233403763
 21
-21.0933347407
 31
0.0
  0
LINE
  5
263
100
AcDbEntity
  8
L1_45
  6
CONTINUOUS
 62
         7
100
AcDbLine
 10
1335.9228759565
 20
-21.1933347407
 30
0.0
 11
1336.3233403763
 21
-21.1933347407
 31
0.0
  0
ARC
  5
264
100
AcDbEntity
  8
L1_45
  6
CONTINUOUS
 62
         7
100
AcDbCircle
 10
1336.3233403763
 20
-20.9933347407
 30
0.0
 40
0.2
100
AcDbArc
 50
270.0
 51
314.9999999962
  0
LINE
  5
265
100
AcDbEntity
  8
L1_45
  6
CONTINUOUS
 62
         7
100
AcDbLine
 10
1336.4647617325
 20
-21.1347560969
 30
0.0
 11
1337.6561830887
 21
-19.9433347407
 31
0.0
  0
LINE
  5
266
100
AcDbEntity
  8
L1_45
  6
CONTINUOUS
 62
         7
100
AcDbLine
 10
1337.6561830887
 20
-19.9433347407
 30
0.0
 11
1360.2033403763
 21
-19.9433347407
 31
0.0
  0
LINE
  5
267
100
AcDbEntity
  8
L1_45
  6
CONTINUOUS
 62
         7
100
AcDbLine
 10
1337.6561830887
 20
-5.9433347407
 30
0.0
 11
1337.6561830887
 21
-19.9433347407
 31
0.0
  0
LINE
  5
268
100
AcDbEntity
  8
L1_45
  6
CONTINUOUS
 62
         7
100
AcDbLine
 10
1337.6561830887
 20
-5.9433347407
 30
0.0
 11
1360.2033403763
 21
-5.9433347407
 31
0.0
  0
LINE
  5
269
100
AcDbEntity
  8
L1_45
  6
CONTINUOUS
 62
         5
100
AcDbLine
 10
1336.6561830887
 20
-4.9433347407
 30
0.0
 11
1360.2033403763
 21
-4.9433347407
 31
0.0
  0
LINE
  5
26A
100
AcDbEntity
  8
L1_45
  6
CONTINUOUS
 62
         7
100
AcDbLine
 10
1335.5233403763
 20
-4.7933347407
 30
0.0
 11
1335.5233403763
 21
-21.0933347407
 31
0.0
  0
LINE
  5
26B
100
AcDbEntity
  8
L1_45
  6
CONTINUOUS
 62
         7
100
AcDbLine
 10
1336.5233403763
 20
-5.1498119
 30
0.0
 11
1336.5233403763
 21
-20.6220880762
 31
0.0
  0
ARC
  5
26C
100
AcDbEntity
  8
L1_45
  6
CONTINUOUS
 62
         7
100
AcDbCircle
 10
1336.3233403763
 20
-4.8933347407
 30
0.0
 40
0.2
100
AcDbArc
 50
45.0000000038
 51
90.0
  0
LINE
  5
26D
100
AcDbEntity
  8
L1_45
  6
CONTINUOUS
 62
         7
100
AcDbLine
 10
1336.4647617325
 20
-4.7519133844
 30
0.0
 11
1337.6561830887
 21
-5.9433347407
 31
0.0
  0
LINE
  5
26E
100
AcDbEntity
  8
L1_45
  6
CONTINUOUS
 62
         7
100
AcDbLine
 10
1335.9228759565
 20
-4.6933347407
 30
0.0
 11
1336.3233403763
 21
-4.6933347407
 31
0.0
  0
LINE
  5
26F
100
AcDbEntity
  8
L1_45
  6
CONTINUOUS
 62
         7
100
AcDbLine
 10
1335.8711121475
 20
-4.7001495754
 30
0.0
 11
1335.5233403763
 21
-4.7933347407
 31
0.0
  0
ARC
  5
270
100
AcDbEntity
  8
L1_45
  6
CONTINUOUS
 62
         7
100
AcDbCircle
 10
1335.9228759565
 20
-4.8933347407
 30
0.0
 40
0.2
100
AcDbArc
 50
90.0
 51
105.0
  0
LINE
  5
271
100
AcDbEntity
  8
L1_45
  6
CONTINUOUS
 62
         7
100
AcDbLine
 10
1332.7533403763
 20
-4.7933347407
 30
0.0
 11
1335.5233403763
 21
-4.7933347407
 31
0.0
  0
ARC
  5
272
100
AcDbEntity
  8
L1_45
  6
CONTINUOUS
 62
         7
100
AcDbCircle
 10
1332.7533403763
 20
-3.7933347407
 30
0.0
 40
1.0
100
AcDbArc
 50
180.0
 51
270.0
  0
LINE
  5
273
100
AcDbEntity
  8
L1_45
  6
CENTER
 62
         1
100
AcDbLine
 10
1459.0033403763
 20
-17.5083347407
 30
0.0
 11
1437.9727701457
 21
-17.5083347407
 31
0.0
  0
LINE
  5
274
100
AcDbEntity
  8
L1_45
  6
CENTER
 62
         1
100
AcDbLine
 10
1459.0033403763
 20
-8.3783347407
 30
0.0
 11
1440.4905814235
 21
-8.3783347407
 31
0.0
  0
LINE
  5
275
100
AcDbEntity
  8
L1_45
  6
CONTINUOUS
 62
         7
100
AcDbLine
 10
1491.2846193127
 20
65.3213572964
 30
0.0
 11
1491.2846193127
 21
70.8213572964
 31
0.0
  0
LINE
  5
276
100
AcDbEntity
  8
L1_45
  6
CONTINUOUS
 62
         7
100
AcDbLine
 10
1493.9846193127
 20
65.3213572964
 30
0.0
 11
1493.9846193127
 21
70.8213572964
 31
0.0
  0
LINE
  5
277
100
AcDbEntity
  8
L1_45
  6
CONTINUOUS
 62
         7
100
AcDbLine
 10
1494.2846193127
 20
65.7456213651
 30
0.0
 11
1494.2846193127
 21
70.3970932276
 31
0.0
  0
LINE
  5
278
100
AcDbEntity
  8
L1_45
  6
CONTINUOUS
 62
         7
100
AcDbLine
 10
1491.2846193127
 20
65.3213572964
 30
0.0
 11
1493.9846193127
 21
65.3213572964
 31
0.0
  0
LINE
  5
279
100
AcDbEntity
  8
L1_45
  6
CONTINUOUS
 62
         7
100
AcDbLine
 10
1491.2846193127
 20
70.8213572964
 30
0.0
 11
1493.9846193127
 21
70.8213572964
 31
0.0
  0
LINE
  5
27A
100
AcDbEntity
  8
L1_45
  6
CONTINUOUS
 62
         7
100
AcDbLine
 10
1493.9846193127
 20
65.3213572964
 30
0.0
 11
1494.2846193127
 21
65.7456213651
 31
0.0
  0
LINE
  5
27B
100
AcDbEntity
  8
L1_45
  6
CONTINUOUS
 62
         7
100
AcDbLine
 10
1493.9846193127
 20
70.8213572964
 30
0.0
 11
1494.2846193127
 21
70.3970932276
 31
0.0
  0
LINE
  5
27C
100
AcDbEntity
  8
L1_45
  6
DASHED
 62
         2
100
AcDbLine
 10
1492.9846193127
 20
66.6279816234
 30
0.0
 11
1492.9846193127
 21
69.5147329693
 31
0.0
  0
LINE
  5
27D
100
AcDbEntity
  8
L1_45
  6
DASHED
 62
         2
100
AcDbLine
 10
1494.2846193127
 20
66.6279816234
 30
0.0
 11
1492.9846193127
 21
66.6279816234
 31
0.0
  0
LINE
  5
27E
100
AcDbEntity
  8
L1_45
  6
DASHED
 62
         2
100
AcDbLine
 10
1494.2846193127
 20
69.5147329693
 30
0.0
 11
1492.9846193127
 21
69.5147329693
 31
0.0
  0
LINE
  5
27F
100
AcDbEntity
  8
L1_45
  6
DASHED
 62
         2
100
AcDbLine
 10
1494.2846193127
 20
67.3496694599
 30
0.0
 11
1492.9846193127
 21
67.3496694599
 31
0.0
  0
LINE
  5
280
100
AcDbEntity
  8
L1_45
  6
DASHED
 62
         2
100
AcDbLine
 10
1494.2846193127
 20
68.7930451328
 30
0.0
 11
1492.9846193127
 21
68.7930451328
 31
0.0
  0
LINE
  5
281
100
AcDbEntity
  8
L1_45
  6
CONTINUOUS
 62
         7
100
AcDbLine
 10
1479.6179493127
 20
69.5713572964
 30
0.0
 11
1479.6179493127
 21
66.5713572964
 31
0.0
  0
LINE
  5
282
100
AcDbEntity
  8
L1_45
  6
CONTINUOUS
 62
         7
100
AcDbLine
 10
1479.2846193127
 20
69.2380272964
 30
0.0
 11
1479.6179493127
 21
69.5713572964
 31
0.0
  0
LINE
  5
283
100
AcDbEntity
  8
L1_45
  6
CONTINUOUS
 62
         7
100
AcDbLine
 10
1479.2846193127
 20
66.9046872964
 30
0.0
 11
1479.6179493127
 21
66.5713572964
 31
0.0
  0
LINE
  5
284
100
AcDbEntity
  8
L1_45
  6
CONTINUOUS
 62
         4
100
AcDbLine
 10
1479.2846193127
 20
66.9046872964
 30
0.0
 11
1489.7846193127
 21
66.9046872964
 31
0.0
  0
LINE
  5
285
100
AcDbEntity
  8
L1_45
  6
CONTINUOUS
 62
         4
100
AcDbLine
 10
1479.2846193127
 20
69.2380272964
 30
0.0
 11
1489.7846193127
 21
69.2380272964
 31
0.0
  0
LINE
  5
286
100
AcDbEntity
  8
L1_45
  6
CONTINUOUS
 62
         7
100
AcDbLine
 10
1479.6179493127
 20
69.5713572964
 30
0.0
 11
1491.2846193127
 21
69.5713572964
 31
0.0
  0
LINE
  5
287
100
AcDbEntity
  8
L1_45
  6
CONTINUOUS
 62
         7
100
AcDbLine
 10
1479.6179493127
 20
66.5713572964
 30
0.0
 11
1491.2846193127
 21
66.5713572964
 31
0.0
  0
LINE
  5
288
100
AcDbEntity
  8
L1_45
  6
CONTINUOUS
 62
         7
100
AcDbLine
 10
1479.2846193127
 20
69.2380272964
 30
0.0
 11
1479.2846193127
 21
66.9046872964
 31
0.0
  0
LINE
  5
289
100
AcDbEntity
  8
L1_45
  6
CONTINUOUS
 62
         7
100
AcDbLine
 10
1489.7846193127
 20
69.5713572964
 30
0.0
 11
1489.7846193127
 21
66.5713572964
 31
0.0
  0
DIMENSION
  5
28C
100
AcDbEntity
  8
L1_45
  6
CONTINUOUS
 62
         4
100
AcDbDimension
  2
*D2
 10
1475.0127702643
 20
69.5713572964
 30
0.0
 11
1472.9877702643
 21
58.2667953517
 31
0.0
  3
DIMSTYLE1
100
AcDbAlignedDimension
 13
1479.6179493127
 23
69.5713572964
 33
0.0
 14
1479.6179493127
 24
66.5713572964
 34
0.0
 50
90.0
100
AcDbRotatedDimension
  0
DIMENSION
  5
29C
100
AcDbEntity
  8
L1_45
  6
CONTINUOUS
 62
         4
100
AcDbDimension
  2
*D3
 10
1499.5221704495
 20
70.8213572964
 30
0.0
 11
1497.4971704495
 21
72.7959850244
 31
0.0
  3
DIMSTYLE1
100
AcDbAlignedDimension
 13
1493.9846193127
 23
70.8213572964
 33
0.0
 14
1493.9846193127
 24
65.3213572964
 34
0.0
 50
90.0
100
AcDbRotatedDimension
  0
DIMENSION
  5
2AC
100
AcDbEntity
  8
L1_45
  6
CONTINUOUS
 62
         4
100
AcDbDimension
  2
*D4
 10
1479.2846193127
 20
57.563464108
 30
0.0
 11
1482.7184780278
 21
59.588464108
 31
0.0
  3
DIMSTYLE1
100
AcDbAlignedDimension
 13
1479.2846193127
 23
66.9046872964
 33
0.0
 14
1491.2846193127
 24
65.3213572964
 34
0.0
100
AcDbRotatedDimension
  0
LINE
  5
2B8
100
AcDbEntity
  8
L1_45
  6
CENTER
 62
         1
100
AcDbLine
 10
1494.8043946206
 20
68.0713572964
 30
0.0
 11
1478.8173719427
 21
68.0713572964
 31
0.0
  0
LINE
  5
2B9
100
AcDbEntity
  8
L1_45
  6
CENTER
 62
         1
100
AcDbLine
 10
1555.4602602609
 20
74.2197634122
 30
0.0
 11
1547.331039568
 21
74.2197634122
 31
0.0
  0
CIRCLE
  5
2BA
100
AcDbEntity
  8
L1_45
  6
CONTINUOUS
 62
         7
100
AcDbCircle
 10
1551.4145974959
 20
74.2197634122
 30
0.0
 40
1.65
  0
CIRCLE
  5
2BB
100
AcDbEntity
  8
L1_45
  6
CONTINUOUS
 62
         7
100
AcDbCircle
 10
1551.4145974959
 20
74.2197634122
 30
0.0
 40
2.75
  0
LINE
  5
2BC
100
AcDbEntity
  8
L1_45
  6
CONTINUOUS
 62
         7
100
AcDbLine
 10
1542.6883812784
 20
76.9697634122
 30
0.0
 11
1539.6883812784
 21
76.9697634122
 31
0.0
  0
LINE
  5
2BD
100
AcDbEntity
  8
L1_45
  6
CONTINUOUS
 62
         7
100
AcDbLine
 10
1542.6883812784
 20
71.4697634122
 30
0.0
 11
1539.6883812784
 21
71.4697634122
 31
0.0
  0
LINE
  5
2BE
100
AcDbEntity
  8
L1_45
  6
CONTINUOUS
 62
         7
100
AcDbLine
 10
1539.6883812784
 20
72.5697634122
 30
0.0
 11
1537.2883812784
 21
72.5697634122
 31
0.0
  0
LINE
  5
2BF
100
AcDbEntity
  8
L1_45
  6
CONTINUOUS
 62
         7
100
AcDbLine
 10
1539.6883812784
 20
75.8697634122
 30
0.0
 11
1537.2883812784
 21
75.8697634122
 31
0.0
  0
LINE
  5
2C0
100
AcDbEntity
  8
L1_45
  6
CONTINUOUS
 62
         7
100
AcDbLine
 10
1539.6883812784
 20
76.9697634122
 30
0.0
 11
1539.6883812784
 21
71.4697634122
 31
0.0
  0
LINE
  5
2C1
100
AcDbEntity
  8
L1_45
  6
CENTER
 62
         1
100
AcDbLine
 10
1544.441681155
 20
74.2197634122
 30
0.0
 11
1535.2302209963
 21
74.2197634122
 31
0.0
  0
LINE
  5
2C2
100
AcDbEntity
  8
L1_45
  6
CONTINUOUS
 62
         7
100
AcDbLine
 10
1542.6883812784
 20
76.9697634122
 30
0.0
 11
1542.6883812784
 21
71.4697634122
 31
0.0
  0
LINE
  5
2C3
100
AcDbEntity
  8
L1_45
  6
CONTINUOUS
 62
         7
100
AcDbLine
 10
1537.2883812784
 20
75.8697634122
 30
0.0
 11
1537.2883812784
 21
72.5697634122
 31
0.0
  0
LINE
  5
2C4
100
AcDbEntity
  8
L1_45
  6
CONTINUOUS
 62
         7
100
AcDbLine
 10
1537.2883812784
 20
75.8697634122
 30
0.0
 11
1536.9883812784
 21
76.1697634122
 31
0.0
  0
LINE
  5
2C5
100
AcDbEntity
  8
L1_45
  6
CONTINUOUS
 62
         7
100
AcDbLine
 10
1537.2883812784
 20
72.5697634122
 30
0.0
 11
1536.9883812784
 21
72.2697634122
 31
0.0
  0
LINE
  5
2C6
100
AcDbEntity
  8
L1_45
  6
CONTINUOUS
 62
         7
100
AcDbLine
 10
1542.9883812784
 20
77.2697634122
 30
0.0
 11
1542.6883812784
 21
76.9697634122
 31
0.0
  0
LINE
  5
2C7
100
AcDbEntity
  8
L1_45
  6
CONTINUOUS
 62
         7
100
AcDbLine
 10
1542.9883812784
 20
71.1697634122
 30
0.0
 11
1542.6883812784
 21
71.4697634122
 31
0.0
  0
DIMENSION
  5
2CA
100
AcDbEntity
  8
L1_45
  6
CONTINUOUS
 62
         4
100
AcDbDimension
  2
*D5
 10
1533.6525279073
 20
76.9697634122
 30
0.0
 11
1531.6275279073
 21
55.8701142402
 31
0.0
  3
DIMSTYLE1
100
AcDbAlignedDimension
 13
1539.6883812784
 23
76.9697634122
 33
0.0
 14
1539.6883812784
 24
71.4697634122
 34
0.0
 50
90.0
100
AcDbRotatedDimension
  0
DIMENSION
  5
2DA
100
AcDbEntity
  8
L1_45
  6
CONTINUOUS
 62
         4
100
AcDbDimension
  2
*D6
 10
1527.2575470811
 20
75.8697634122
 30
0.0
 11
1525.2325470811
 21
57.5754424605
 31
0.0
  3
DIMSTYLE1
100
AcDbAlignedDimension
 13
1537.2883812784
 23
75.8697634122
 33
0.0
 14
1537.2883812784
 24
72.5697634122
 34
0.0
 50
90.0
100
AcDbRotatedDimension
  0
DIMENSION
  5
2EA
100
AcDbEntity
  8
L1_45
  6
CONTINUOUS
 62
         4
100
AcDbDimension
  2
*D7
 10
1560.8359334415
 20
74.2197634122
 30
0.0
 11
1558.8109334415
 21
70.1444528178
 31
0.0
  3
DIMSTYLE1
100
AcDbAlignedDimension
 13
1551.4145974959
 23
74.2197634122
 33
0.0
 14
1551.4145974959
 24
69.2197634122
 34
0.0
 50
90.0
100
AcDbRotatedDimension
  0
LINE
  5
2F6
100
AcDbEntity
  8
L1_45
  6
CENTER
 62
         1
100
AcDbLine
 10
1551.4145974959
 20
67.7105306005
 30
0.0
 11
1551.4145974959
 21
81.0979604535
 31
0.0
  0
LINE
  5
2F7
100
AcDbEntity
  8
L1_45
  6
CONTINUOUS
 62
         7
100
AcDbLine
 10
1554.0395974959
 20
69.2197634122
 30
0.0
 11
1548.7895974959
 21
69.2197634122
 31
0.0
  0
LINE
  5
2F8
100
AcDbEntity
  8
L1_45
  6
CONTINUOUS
 62
         7
100
AcDbLine
 10
1554.0395974959
 20
69.2197634122
 30
0.0
 11
1554.5395974959
 21
69.7197634122
 31
0.0
  0
LINE
  5
2F9
100
AcDbEntity
  8
L1_45
  6
CONTINUOUS
 62
         7
100
AcDbLine
 10
1548.2895974959
 20
69.7197634122
 30
0.0
 11
1548.7895974959
 21
69.2197634122
 31
0.0
  0
DIMENSION
  5
2FC
100
AcDbEntity
  8
L1_45
  6
CONTINUOUS
 62
         4
100
AcDbDimension
  2
*D8
 10
1548.2895974959
 20
62.5257529162
 30
0.0
 11
1556.8407313684
 21
64.5507529162
 31
0.0
  3
DIMSTYLE1
100
AcDbAlignedDimension
 13
1548.2895974959
 23
69.7197634122
 33
0.0
 14
1554.5395974959
 24
69.7197634122
 34
0.0
100
AcDbRotatedDimension
  0
LINE
  5
309
100
AcDbEntity
  8
L1_45
  6
CONTINUOUS
 62
         7
100
AcDbLine
 10
1542.4883812784
 20
69.2197634122
 30
0.0
 11
1537.4883812784
 21
69.2197634122
 31
0.0
  0
LINE
  5
30A
100
AcDbEntity
  8
L1_45
  6
CONTINUOUS
 62
         7
100
AcDbLine
 10
1542.9883812784
 20
69.7197634122
 30
0.0
 11
1542.4883812784
 21
69.2197634122
 31
0.0
  0
LINE
  5
30B
100
AcDbEntity
  8
L1_45
  6
CONTINUOUS
 62
         7
100
AcDbLine
 10
1536.9883812784
 20
69.7197634122
 30
0.0
 11
1537.4883812784
 21
69.2197634122
 31
0.0
  0
DIMENSION
  5
30E
100
AcDbEntity
  8
L1_45
  6
CONTINUOUS
 62
         4
100
AcDbDimension
  2
*D9
 10
1536.9883812784
 20
61.9317850844
 30
0.0
 11
1537.9096171258
 21
63.9567850844
 31
0.0
  3
DIMSTYLE1
100
AcDbAlignedDimension
 13
1536.9883812784
 23
69.7197634122
 33
0.0
 14
1542.9883812784
 24
69.7197634122
 34
0.0
100
AcDbRotatedDimension
  0
LINE
  5
31A
100
AcDbEntity
  8
L1_45
  6
CONTINUOUS
 62
         7
100
AcDbLine
 10
1554.0395974959
 20
79.4197634122
 30
0.0
 11
1548.7895974959
 21
79.4197634122
 31
0.0
  0
LINE
  5
31B
100
AcDbEntity
  8
L1_45
  6
CONTINUOUS
 62
         7
100
AcDbLine
 10
1554.0395974959
 20
79.4197634122
 30
0.0
 11
1554.5395974959
 21
78.9197634122
 31
0.0
  0
LINE
  5
31C
100
AcDbEntity
  8
L1_45
  6
CONTINUOUS
 62
         7
100
AcDbLine
 10
1548.2895974959
 20
78.9197634122
 30
0.0
 11
1548.7895974959
 21
79.4197634122
 31
0.0
  0
LINE
  5
31D
100
AcDbEntity
  8
L1_45
  6
CONTINUOUS
 62
         7
100
AcDbLine
 10
1542.4883812784
 20
79.4197634122
 30
0.0
 11
1537.4883812784
 21
79.4197634122
 31
0.0
  0
LINE
  5
31E
100
AcDbEntity
  8
L1_45
  6
CONTINUOUS
 62
         7
100
AcDbLine
 10
1542.4883812784
 20
79.4197634122
 30
0.0
 11
1542.9883812784
 21
78.9197634122
 31
0.0
  0
LINE
  5
31F
100
AcDbEntity
  8
L1_45
  6
CONTINUOUS
 62
         7
100
AcDbLine
 10
1537.4883812784
 20
79.4197634122
 30
0.0
 11
1536.9883812784
 21
78.9197634122
 31
0.0
  0
DIMENSION
  5
322
100
AcDbEntity
  8
L1_45
  6
CONTINUOUS
 62
         4
100
AcDbDimension
  2
*D10
 10
1539.6883812784
 20
83.2618200097
 30
0.0
 11
1541.5754818902
 21
85.2868200097
 31
0.0
  3
DIMSTYLE1
100
AcDbAlignedDimension
 13
1539.6883812784
 23
76.9697634122
 33
0.0
 14
1542.9883812784
 24
78.9197634122
 34
0.0
100
AcDbRotatedDimension
  0
LINE
  5
330
100
AcDbEntity
  8
L1_45
  6
CONTINUOUS
 62
         7
100
AcDbLine
 10
1554.5395974959
 20
78.9197634122
 30
0.0
 11
1554.5395974959
 21
69.7197634122
 31
0.0
  0
LINE
  5
331
100
AcDbEntity
  8
L1_45
  6
CONTINUOUS
 62
         7
100
AcDbLine
 10
1548.2895974959
 20
69.7197634122
 30
0.0
 11
1548.2895974959
 21
78.9197634122
 31
0.0
  0
LINE
  5
332
100
AcDbEntity
  8
L1_45
  6
CONTINUOUS
 62
         7
100
AcDbLine
 10
1542.9883812784
 20
78.9197634122
 30
0.0
 11
1542.9883812784
 21
69.7197634122
 31
0.0
  0
LINE
  5
333
100
AcDbEntity
  8
L1_45
  6
CONTINUOUS
 62
         7
100
AcDbLine
 10
1536.9883812784
 20
78.9197634122
 30
0.0
 11
1536.9883812784
 21
69.7197634122
 31
0.0
  0
DIMENSION
  5
336
100
AcDbEntity
  8
L1_45
  6
CONTINUOUS
 62
         4
100
AcDbDimension
  2
*D11
 10
1569.283289224
 20
79.4197634122
 30
0.0
 11
1567.258289224
 21
68.6324442421
 31
0.0
  3
DIMSTYLE1
100
AcDbAlignedDimension
 13
1554.0395974959
 23
79.4197634122
 33
0.0
 14
1554.0395974959
 24
69.2197634122
 34
0.0
 50
90.0
100
AcDbRotatedDimension
  0
INSERT
  5
347
100
AcDbEntity
  8
0
  6
CONTINUOUS
100
AcDbBlockReference
  2
*X12
 10
0.0
 20
0.0
 30
0.0
  0
INSERT
  5
34E
100
AcDbEntity
  8
0
  6
CONTINUOUS
100
AcDbBlockReference
  2
*X13
 10
0.0
 20
0.0
 30
0.0
  0
LINE
  5
34F
100
AcDbEntity
  8
L1_45
  6
DASHED
 62
         2
100
AcDbLine
 10
1442.0033403763
 20
0.3066652593
 30
0.0
 11
1430.0033403763
 21
0.3066652593
 31
0.0
  0
LINE
  5
350
100
AcDbEntity
  8
L1_45
  6
DASHED
 62
         2
100
AcDbLine
 10
1442.0033403763
 20
-2.1933347407
 30
0.0
 11
1430.0033403763
 21
-2.1933347407
 31
0.0
  0
LINE
  5
351
100
AcDbEntity
  8
L1_45
  6
DASHED
 62
         2
100
AcDbLine
 10
1442.0033403763
 20
0.5566652593
 30
0.0
 11
1432.0033403763
 21
0.5566652593
 31
0.0
  0
LINE
  5
352
100
AcDbEntity
  8
L1_45
  6
DASHED
 62
         2
100
AcDbLine
 10
1442.0033403763
 20
-2.4433347407
 30
0.0
 11
1432.0033403763
 21
-2.4433347407
 31
0.0
  0
LINE
  5
353
100
AcDbEntity
  8
L1_45
  6
DASHED
 62
         2
100
AcDbLine
 10
1432.0033403763
 20
-2.4433347407
 30
0.0
 11
1432.0033403763
 21
0.5566652593
 31
0.0
  0
LINE
  5
354
100
AcDbEntity
  8
L1_45
  6
DASHED
 62
         2
100
AcDbLine
 10
1430.0033403763
 20
-2.1933347407
 30
0.0
 11
1430.0033403763
 21
0.3066652593
 31
0.0
  0
LINE
  5
355
100
AcDbEntity
  8
L1_45
  6
DASHED
 62
         2
100
AcDbLine
 10
1429.2816525398
 20
-0.9433347407
 30
0.0
 11
1430.0033403763
 21
-2.1933347407
 31
0.0
  0
LINE
  5
356
100
AcDbEntity
  8
L1_45
  6
DASHED
 62
         2
100
AcDbLine
 10
1430.0033403763
 20
0.3066652593
 30
0.0
 11
1429.2816525398
 21
-0.9433347407
 31
0.0
  0
LINE
  5
357
100
AcDbEntity
  8
L1_45
  6
CENTER
 62
         1
100
AcDbLine
 10
1443.0973518687
 20
-0.9433347407
 30
0.0
 11
1428.4942456648
 21
-0.9433347407
 31
0.0
  0
LINE
  5
358
100
AcDbEntity
  8
L1_45
  6
DASHED
 62
         2
100
AcDbLine
 10
1442.0033403763
 20
-5.9433347407
 30
0.0
 11
1442.0033403763
 21
4.5566652593
 31
0.0
  0
LINE
  5
359
100
AcDbEntity
  8
L1_45
  6
DASHED
 62
         2
100
AcDbLine
 10
1444.9671269817
 20
-5.9433347407
 30
0.0
 11
1442.0033403763
 21
-5.9433347407
 31
0.0
  0
CIRCLE
  5
35A
100
AcDbEntity
  8
L1_45
  6
CONTINUOUS
 62
         7
100
AcDbCircle
 10
1623.2833403763
 20
150.1846417294
 30
0.0
 40
4.5
  0
ARC
  5
35B
100
AcDbEntity
  8
L1_45
  6
CONTINUOUS
 62
         7
100
AcDbCircle
 10
1623.2833403763
 20
150.1846417294
 30
0.0
 40
4.5
100
AcDbArc
 50
122.6512497253
 51
277.3487502747
  0
ARC
  5
35C
100
AcDbEntity
  8
L1_45
  6
CONTINUOUS
 62
         7
100
AcDbCircle
 10
1623.2833403763
 20
150.1846417294
 30
0.0
 40
4.5
100
AcDbArc
 50
302.6512497253
 51
457.3487502746
  0
LINE
  5
35D
100
AcDbEntity
  8
L1_45
  6
CONTINUOUS
 62
         7
100
AcDbLine
 10
1331.7533403763
 20
161.4188234458
 30
0.0
 11
1331.7533403763
 21
138.9504600129
 31
0.0
  0
LINE
  5
35E
100
AcDbEntity
  8
L1_45
  6
CENTER
 62
         1
100
AcDbLine
 10
1400.0033403763
 20
172.4096417294
 30
0.0
 11
1400.0033403763
 21
127.9596417294
 31
0.0
  0
LINE
  5
35F
100
AcDbEntity
  8
L1_45
  6
CONTINUOUS
 62
         7
100
AcDbLine
 10
1403.2033403763
 20
180.9596417294
 30
0.0
 11
1403.2033403763
 21
119.4096417294
 31
0.0
  0
DIMENSION
  5
362
100
AcDbEntity
  8
L1_45
  6
CONTINUOUS
 62
         4
100
AcDbDimension
  2
*D14
 10
1331.7533403763
 20
225.6637266176
 30
0.0
 11
1389.6751794956
 21
227.6887266176
 31
0.0
  3
DIMSTYLE1
100
AcDbAlignedDimension
 13
1331.7533403763
 23
161.4188234458
 33
0.0
 14
1459.0033403763
 24
150.1846417294
 34
0.0
100
AcDbRotatedDimension
  0
LINE
  5
36E
100
AcDbEntity
  8
L1_45
  6
CENTER
 62
         1
100
AcDbLine
 10
1624.9183890739
 20
162.1846417294
 30
0.0
 11
1621.5846747625
 21
162.1846417294
 31
0.0
  0
ARC
  5
36F
100
AcDbEntity
  8
L1_45
  6
CONTINUOUS
 62
         4
100
AcDbCircle
 10
1623.2833403763
 20
138.1846417294
 30
0.0
 40
1.5
100
AcDbArc
 50
270.0
 51
540.0
  0
CIRCLE
  5
370
100
AcDbEntity
  8
L1_45
  6
CONTINUOUS
 62
         7
100
AcDbCircle
 10
1623.2833403763
 20
138.1846417294
 30
0.0
 40
1.25
  0
LINE
  5
371
100
AcDbEntity
  8
L1_45
  6
CONTINUOUS
 62
         7
100
AcDbLine
 10
1625.2256884715
 20
143.1846417294
 30
0.0
 11
1621.340992281
 21
143.1846417294
 31
0.0
  0
ARC
  5
372
100
AcDbEntity
  8
L1_45
  6
CONTINUOUS
 62
         7
100
AcDbCircle
 10
1626.0548395166
 20
142.6256170927
 30
0.0
 40
1.0
100
AcDbArc
 50
293.7972173576
 51
506.0116283214
  0
ARC
  5
373
100
AcDbEntity
  8
L1_45
  6
CONTINUOUS
 62
         7
100
AcDbCircle
 10
1620.5118412359
 20
142.6256170927
 30
0.0
 40
1.0
100
AcDbArc
 50
33.9883716786
 51
246.2027826424
  0
LINE
  5
374
100
AcDbEntity
  8
L1_45
  6
CONTINUOUS
 62
         7
100
AcDbLine
 10
1626.4583403763
 20
141.7106378272
 30
0.0
 11
1626.4583403763
 21
132.9750695383
 31
0.0
  0
LINE
  5
375
100
AcDbEntity
  8
L1_45
  6
CONTINUOUS
 62
         7
100
AcDbLine
 10
1620.1083403763
 20
141.7106378272
 30
0.0
 11
1620.1083403763
 21
132.9750695383
 31
0.0
  0
LINE
  5
376
100
AcDbEntity
  8
L1_45
  6
CENTER
 62
         1
100
AcDbLine
 10
1625.8025304218
 20
138.1846417294
 30
0.0
 11
1620.683963599
 21
138.1846417294
 31
0.0
  0
ARC
  5
377
100
AcDbEntity
  8
L1_45
  6
CONTINUOUS
 62
         7
100
AcDbCircle
 10
1620.5118412359
 20
157.7436663661
 30
0.0
 40
1.0
100
AcDbArc
 50
113.7972173576
 51
326.0116283214
  0
ARC
  5
378
100
AcDbEntity
  8
L1_45
  6
CONTINUOUS
 62
         7
100
AcDbCircle
 10
1626.0548395166
 20
157.7436663661
 30
0.0
 40
1.0
100
AcDbArc
 50
213.9883716786
 51
426.2027826424
  0
ARC
  5
379
100
AcDbEntity
  8
L1_45
  6
CONTINUOUS
 62
         4
100
AcDbCircle
 10
1623.2833403763
 20
162.1846417294
 30
0.0
 40
1.5
100
AcDbArc
 50
180.0
 51
450.0
  0
CIRCLE
  5
37A
100
AcDbEntity
  8
L1_45
  6
CONTINUOUS
 62
         7
100
AcDbCircle
 10
1623.2833403763
 20
162.1846417294
 30
0.0
 40
1.25
  0
LINE
  5
37B
100
AcDbEntity
  8
L1_45
  6
CONTINUOUS
 62
         7
100
AcDbLine
 10
1620.1083403763
 20
158.6586456316
 30
0.0
 11
1620.1083403763
 21
167.3942139205
 31
0.0
  0
LINE
  5
37C
100
AcDbEntity
  8
L1_45
  6
CONTINUOUS
 62
         7
100
AcDbLine
 10
1626.4583403763
 20
158.6586456316
 30
0.0
 11
1626.4583403763
 21
167.3942139205
 31
0.0
  0
LINE
  5
37D
100
AcDbEntity
  8
L1_45
  6
CONTINUOUS
 62
         7
100
AcDbLine
 10
1625.2256884715
 20
157.1846417294
 30
0.0
 11
1621.340992281
 21
157.1846417294
 31
0.0
  0
ARC
  5
37E
100
AcDbEntity
  8
L1_45
  6
CONTINUOUS
 62
         4
100
AcDbCircle
 10
1623.2833403763
 20
150.1846417294
 30
0.0
 40
3.2
100
AcDbArc
 50
180.0
 51
450.0
  0
CIRCLE
  5
37F
100
AcDbEntity
  8
L1_45
  6
CONTINUOUS
 62
         7
100
AcDbCircle
 10
1623.2833403763
 20
150.1846417294
 30
0.0
 40
2.78
  0
CIRCLE
  5
380
100
AcDbEntity
  8
L1_45
  6
CONTINUOUS
 62
         7
100
AcDbCircle
 10
1623.2833403763
 20
150.1846417294
 30
0.0
 40
6.35
  0
LINE
  5
381
100
AcDbEntity
  8
L1_45
  6
CENTER
 62
         1
100
AcDbLine
 10
1623.2833403763
 20
129.9092621807
 30
0.0
 11
1623.2833403763
 21
170.2701604393
 31
0.0
  0
LINE
  5
382
100
AcDbEntity
  8
L1_45
  6
CENTER
 62
         1
100
AcDbLine
 10
1644.6500334581
 20
150.1846417294
 30
0.0
 11
1602.0673805968
 21
150.1846417294
 31
0.0
  0
LINE
  5
383
100
AcDbEntity
  8
L1_45
  6
CONTINUOUS
 62
         7
100
AcDbLine
 10
1454.7146652417
 20
-8.4433347407
 30
0.0
 11
1454.7146652417
 21
-17.4433347407
 31
0.0
  0
LINE
  5
384
100
AcDbEntity
  8
L1_45
  6
CONTINUOUS
 62
         7
100
AcDbLine
 10
1458.5033403763
 20
-17.4433347407
 30
0.0
 11
1454.7146652417
 21
-17.4433347407
 31
0.0
  0
LINE
  5
385
100
AcDbEntity
  8
L1_45
  6
CONTINUOUS
 62
         7
100
AcDbLine
 10
1458.5033403763
 20
-8.4433347407
 30
0.0
 11
1454.7146652417
 21
-8.4433347407
 31
0.0
  0
DIMENSION
  5
388
100
AcDbEntity
  8
L1_45
  6
CONTINUOUS
 62
         4
100
AcDbDimension
  2
*D15
 10
1459.0033403763
 20
-52.785725857
 30
0.0
 11
1446.4774459464
 21
-50.760725857
 31
0.0
  3
DIMSTYLE1
100
AcDbAlignedDimension
 13
1459.0033403763
 23
-18.2933347407
 33
0.0
 14
1439.0033403763
 24
-16.1433347407
 34
0.0
100
AcDbRotatedDimension
  0
DIMENSION
  5
396
100
AcDbEntity
  8
L1_45
  6
CONTINUOUS
 62
         4
100
AcDbDimension
  2
*D16
 10
1459.0033403763
 20
-43.2369406985
 30
0.0
 11
1446.2880724766
 21
-41.2119406985
 31
0.0
  3
DIMSTYLE1
100
AcDbAlignedDimension
 13
1459.0033403763
 23
-18.2933347407
 33
0.0
 14
1455.0033403763
 24
-17.4433347407
 34
0.0
100
AcDbRotatedDimension
  0
LINE
  5
3A3
100
AcDbEntity
  8
L1_45
  6
CONTINUOUS
 62
         7
100
AcDbLine
 10
1429.2816525398
 20
-24.9433347407
 30
0.0
 11
1430.0033403763
 21
-23.6933347407
 31
0.0
  0
LINE
  5
3A4
100
AcDbEntity
  8
L1_45
  6
CONTINUOUS
 62
         7
100
AcDbLine
 10
1430.0033403763
 20
-23.6933347407
 30
0.0
 11
1430.0033403763
 21
-26.1933347407
 31
0.0
  0
LINE
  5
3A5
100
AcDbEntity
  8
L1_45
  6
CONTINUOUS
 62
         7
100
AcDbLine
 10
1430.0033403763
 20
-26.1933347407
 30
0.0
 11
1429.2816525398
 21
-24.9433347407
 31
0.0
  0
LINE
  5
3A6
100
AcDbEntity
  8
L1_45
  6
CONTINUOUS
 62
         7
100
AcDbLine
 10
1432.0033403763
 20
-23.4433347407
 30
0.0
 11
1432.0033403763
 21
-26.4433347407
 31
0.0
  0
LINE
  5
3A7
100
AcDbEntity
  8
L1_45
  6
CONTINUOUS
 62
         4
100
AcDbLine
 10
1442.0033403763
 20
-23.4433347407
 30
0.0
 11
1432.0033403763
 21
-23.4433347407
 31
0.0
  0
LINE
  5
3A8
100
AcDbEntity
  8
L1_45
  6
CONTINUOUS
 62
         7
100
AcDbLine
 10
1442.0033403763
 20
-23.6933347407
 30
0.0
 11
1430.0033403763
 21
-23.6933347407
 31
0.0
  0
LINE
  5
3A9
100
AcDbEntity
  8
L1_45
  6
CENTER
 62
         1
100
AcDbLine
 10
1443.0973518687
 20
-24.9433347407
 30
0.0
 11
1428.4942456648
 21
-24.9433347407
 31
0.0
  0
LINE
  5
3AA
100
AcDbEntity
  8
L1_45
  6
CONTINUOUS
 62
         7
100
AcDbLine
 10
1442.0033403763
 20
-26.1933347407
 30
0.0
 11
1430.0033403763
 21
-26.1933347407
 31
0.0
  0
LINE
  5
3AB
100
AcDbEntity
  8
L1_45
  6
CONTINUOUS
 62
         4
100
AcDbLine
 10
1442.0033403763
 20
-26.4433347407
 30
0.0
 11
1432.0033403763
 21
-26.4433347407
 31
0.0
  0
LINE
  5
3AC
100
AcDbEntity
  8
L1_45
  6
CONTINUOUS
 62
         7
100
AcDbLine
 10
1442.0033403763
 20
-19.9433347407
 30
0.0
 11
1442.0033403763
 21
-30.4433347407
 31
0.0
  0
LINE
  5
3AD
100
AcDbEntity
  8
L1_45
  6
CONTINUOUS
 62
         7
100
AcDbLine
 10
1444.9671269817
 20
-19.9433347407
 30
0.0
 11
1442.0033403763
 21
-19.9433347407
 31
0.0
  0
LINE
  5
3AE
100
AcDbEntity
  8
L1_45
  6
CONTINUOUS
 62
         7
100
AcDbLine
 10
1439.0033403763
 20
-15.7233347407
 30
0.0
 11
1439.0033403763
 21
-10.1633347407
 31
0.0
  0
LINE
  5
3AF
100
AcDbEntity
  8
L1_45
  6
CONTINUOUS
 62
         4
100
AcDbLine
 10
1453.9641098917
 20
-16.1433347407
 30
0.0
 11
1438.7608532632
 21
-16.1433347407
 31
0.0
  0
LINE
  5
3B0
100
AcDbEntity
  8
L1_45
  6
CONTINUOUS
 62
         4
100
AcDbLine
 10
1453.9641098917
 20
-9.7433347407
 30
0.0
 11
1438.7608532632
 21
-9.7433347407
 31
0.0
  0
LINE
  5
3B1
100
AcDbEntity
  8
L1_45
  6
CONTINUOUS
 62
         7
100
AcDbLine
 10
1454.7146652417
 20
-8.4433347407
 30
0.0
 11
1453.7216227787
 21
-10.1633347407
 31
0.0
  0
LINE
  5
3B2
100
AcDbEntity
  8
L1_45
  6
CONTINUOUS
 62
         7
100
AcDbLine
 10
1453.7216227787
 20
-15.7233347407
 30
0.0
 11
1454.7146652417
 21
-17.4433347407
 31
0.0
  0
LINE
  5
3B3
100
AcDbEntity
  8
L1_45
  6
CONTINUOUS
 62
         7
100
AcDbLine
 10
1453.7216227787
 20
-15.7233347407
 30
0.0
 11
1439.0033403763
 21
-15.7233347407
 31
0.0
  0
LINE
  5
3B4
100
AcDbEntity
  8
L1_45
  6
CONTINUOUS
 62
         7
100
AcDbLine
 10
1453.7216227787
 20
-10.1633347407
 30
0.0
 11
1439.0033403763
 21
-10.1633347407
 31
0.0
  0
LINE
  5
3B5
100
AcDbEntity
  8
L1_45
  6
CONTINUOUS
 62
         7
100
AcDbLine
 10
1445.0033403763
 20
-29.4433347407
 30
0.0
 11
1445.0033403763
 21
-20.0428302246
 31
0.0
  0
LINE
  5
3B6
100
AcDbEntity
  8
L1_45
  6
CONTINUOUS
 62
         7
100
AcDbLine
 10
1444.8033403763
 20
-19.4933347407
 30
0.0
 11
1445.0033403763
 21
-20.0428302246
 31
0.0
  0
ARC
  5
3B7
100
AcDbEntity
  8
L1_45
  6
CONTINUOUS
 62
         7
100
AcDbCircle
 10
1445.2033403763
 20
-19.4933347407
 30
0.0
 40
0.4
100
AcDbArc
 50
90.0
 51
180.0
  0
LINE
  5
3B8
100
AcDbEntity
  8
L1_45
  6
CONTINUOUS
 62
         7
100
AcDbLine
 10
1446.8961606993
 20
-19.0933347407
 30
0.0
 11
1445.2033403763
 21
-19.0933347407
 31
0.0
  0
ARC
  5
3B9
100
AcDbEntity
  8
L1_45
  6
CONTINUOUS
 62
         7
100
AcDbCircle
 10
1446.8961606993
 20
-19.4933347407
 30
0.0
 40
0.4
100
AcDbArc
 50
60.0
 51
90.0
  0
LINE
  5
3BA
100
AcDbEntity
  8
L1_45
  6
CONTINUOUS
 62
         7
100
AcDbLine
 10
1447.0961606993
 20
-19.1469245792
 30
0.0
 11
1447.3497505378
 21
-19.2933347407
 31
0.0
  0
LINE
  5
3BB
100
AcDbEntity
  8
L1_45
  6
CONTINUOUS
 62
         7
100
AcDbLine
 10
1444.8033403763
 20
-6.3933347407
 30
0.0
 11
1445.0033403763
 21
-5.8438392568
 31
0.0
  0
ARC
  5
3BC
100
AcDbEntity
  8
L1_45
  6
CONTINUOUS
 62
         7
100
AcDbCircle
 10
1445.2033403763
 20
-6.3933347407
 30
0.0
 40
0.4
100
AcDbArc
 50
180.0
 51
270.0
  0
ARC
  5
3BD
100
AcDbEntity
  8
L1_45
  6
CONTINUOUS
 62
         7
100
AcDbCircle
 10
1446.8961606993
 20
-6.3933347407
 30
0.0
 40
0.4
100
AcDbArc
 50
270.0
 51
300.0
  0
LINE
  5
3BE
100
AcDbEntity
  8
L1_45
  6
CONTINUOUS
 62
         7
100
AcDbLine
 10
1447.0961606993
 20
-6.7397449022
 30
0.0
 11
1447.3497505378
 21
-6.5933347407
 31
0.0
  0
LINE
  5
3BF
100
AcDbEntity
  8
L1_45
  6
CONTINUOUS
 62
         7
100
AcDbLine
 10
1446.8961606993
 20
-6.7933347407
 30
0.0
 11
1445.2033403763
 21
-6.7933347407
 31
0.0
  0
LINE
  5
3C0
100
AcDbEntity
  8
L1_45
  6
CONTINUOUS
 62
         7
100
AcDbLine
 10
1444.0033403763
 20
-30.4433347407
 30
0.0
 11
1436.0553403763
 21
-30.4433347407
 31
0.0
  0
LINE
  5
3C1
100
AcDbEntity
  8
L1_45
  6
CONTINUOUS
 62
         7
100
AcDbLine
 10
1444.0033403763
 20
4.5566652593
 30
0.0
 11
1436.0553403763
 21
4.5566652593
 31
0.0
  0
LINE
  5
3C2
100
AcDbEntity
  8
L1_45
  6
CENTER
 62
         1
100
AcDbLine
 10
1459.7854219467
 20
-12.9433347407
 30
0.0
 11
1402.3871881504
 21
-12.9433347407
 31
0.0
  0
ARC
  5
3C3
100
AcDbEntity
  8
L1_45
  6
CONTINUOUS
 62
         7
100
AcDbCircle
 10
1444.0033403763
 20
-29.4433347407
 30
0.0
 40
1.0
100
AcDbArc
 50
270.0
 51
360.0
  0
LINE
  5
3C4
100
AcDbEntity
  8
L1_45
  6
CONTINUOUS
 62
         7
100
AcDbLine
 10
1445.0033403763
 20
-5.8438392568
 30
0.0
 11
1445.0033403763
 21
3.5566652593
 31
0.0
  0
ARC
  5
3C5
100
AcDbEntity
  8
L1_45
  6
CONTINUOUS
 62
         7
100
AcDbCircle
 10
1458.0033403763
 20
-18.2933347407
 30
0.0
 40
1.0
100
AcDbArc
 50
270.0
 51
360.0
  0
LINE
  5
3C6
100
AcDbEntity
  8
L1_45
  6
CONTINUOUS
 62
         7
100
AcDbLine
 10
1459.0033403763
 20
-18.2933347407
 30
0.0
 11
1459.0033403763
 21
-7.5933347407
 31
0.0
  0
LINE
  5
3C7
100
AcDbEntity
  8
L1_45
  6
CONTINUOUS
 62
         7
100
AcDbLine
 10
1447.3497505378
 20
-19.2933347407
 30
0.0
 11
1458.0033403763
 21
-19.2933347407
 31
0.0
  0
ARC
  5
3C8
100
AcDbEntity
  8
L1_45
  6
CONTINUOUS
 62
         7
100
AcDbCircle
 10
1458.0033403763
 20
-7.5933347407
 30
0.0
 40
1.0
100
AcDbArc
 50
0.0
 51
90.0
  0
LINE
  5
3C9
100
AcDbEntity
  8
L1_45
  6
CONTINUOUS
 62
         7
100
AcDbLine
 10
1458.0033403763
 20
-6.5933347407
 30
0.0
 11
1447.3497505378
 21
-6.5933347407
 31
0.0
  0
ARC
  5
3CA
100
AcDbEntity
  8
L1_45
  6
CONTINUOUS
 62
         7
100
AcDbCircle
 10
1444.0033403763
 20
3.5566652593
 30
0.0
 40
1.0
100
AcDbArc
 50
0.0
 51
90.0
  0
ARC
  5
3CB
100
AcDbEntity
  8
L1_45
  6
CONTINUOUS
 62
         7
100
AcDbCircle
 10
1458.5033403763
 20
-7.9433347407
 30
0.0
 40
0.5
100
AcDbArc
 50
270.0
 51
360.0
  0
ARC
  5
3CC
100
AcDbEntity
  8
L1_45
  6
CONTINUOUS
 62
         7
100
AcDbCircle
 10
1458.5033403763
 20
-17.9433347407
 30
0.0
 40
0.5
100
AcDbArc
 50
0.0
 51
90.0
  0
LINE
  5
3CD
100
AcDbEntity
  8
L1_45
  6
CONTINUOUS
 62
         4
100
AcDbLine
 10
1458.5033403763
 20
-8.4433347407
 30
0.0
 11
1458.5033403763
 21
-17.4433347407
 31
0.0
  0
LINE
  5
3CE
100
AcDbEntity
  8
L1_45
  6
CONTINUOUS
 62
         7
100
AcDbLine
 10
1453.7216227787
 20
-10.1633347407
 30
0.0
 11
1453.7216227787
 21
-15.7233347407
 31
0.0
  0
LINE
  5
3CF
100
AcDbEntity
  8
L1_45
  6
CONTINUOUS
 62
         4
100
AcDbLine
 10
1622.6851654259
 20
86.7392616155
 30
0.0
 11
1622.6851654259
 21
70.9392616155
 31
0.0
  0
LINE
  5
3D0
100
AcDbEntity
  8
L1_45
  6
CONTINUOUS
 62
         4
100
AcDbLine
 10
1616.68719743
 20
86.7392616155
 30
0.0
 11
1616.68719743
 21
70.9392616155
 31
0.0
  0
LINE
  5
3D1
100
AcDbEntity
  8
L1_45
  6
CONTINUOUS
 62
         4
100
AcDbLine
 10
1613.68719743
 20
82.8392616155
 30
0.0
 11
1613.68719743
 21
74.8392616155
 31
0.0
  0
LINE
  5
3D2
100
AcDbEntity
  8
L1_45
  6
CONTINUOUS
 62
         7
100
AcDbLine
 10
1616.68719743
 20
70.9392616155
 30
0.0
 11
1616.18719743
 21
71.4392616155
 31
0.0
  0
LINE
  5
3D3
100
AcDbEntity
  8
L1_45
  6
CONTINUOUS
 62
         7
100
AcDbLine
 10
1623.1851654259
 20
71.4392616155
 30
0.0
 11
1622.6851654259
 21
70.9392616155
 31
0.0
  0
LINE
  5
3D4
100
AcDbEntity
  8
L1_45
  6
CONTINUOUS
 62
         7
100
AcDbLine
 10
1622.6851654259
 20
86.7392616155
 30
0.0
 11
1623.1851654259
 21
86.2392616155
 31
0.0
  0
LINE
  5
3D5
100
AcDbEntity
  8
L1_45
  6
CONTINUOUS
 62
         7
100
AcDbLine
 10
1616.18719743
 20
86.2392616155
 30
0.0
 11
1616.68719743
 21
86.7392616155
 31
0.0
  0
LINE
  5
3D6
100
AcDbEntity
  8
L1_45
  6
CONTINUOUS
 62
         7
100
AcDbLine
 10
1613.18719743
 20
75.3392616155
 30
0.0
 11
1613.68719743
 21
74.8392616155
 31
0.0
  0
LINE
  5
3D7
100
AcDbEntity
  8
L1_45
  6
CONTINUOUS
 62
         7
100
AcDbLine
 10
1613.18719743
 20
82.3392616155
 30
0.0
 11
1613.68719743
 21
82.8392616155
 31
0.0
  0
DIMENSION
  5
3DA
100
AcDbEntity
  8
L1_45
  6
CONTINUOUS
 62
         4
100
AcDbDimension
  2
*D17
 10
1619.1851654259
 20
64.9834666657
 30
0.0
 11
1619.8262473835
 21
67.0084666657
 31
0.0
  3
DIMSTYLE1
100
AcDbAlignedDimension
 13
1619.1851654259
 23
75.1153523792
 33
0.0
 14
1623.1851654259
 24
70.9392616155
 34
0.0
100
AcDbRotatedDimension
  0
DIMENSION
  5
3EA
100
AcDbEntity
  8
L1_45
  6
CONTINUOUS
 62
         4
100
AcDbDimension
  2
*D18
 10
1594.2405754963
 20
82.0142679655
 30
0.0
 11
1592.2155754963
 21
58.4981810679
 31
0.0
  3
DIMSTYLE1
100
AcDbAlignedDimension
 13
1600.7896805898
 23
82.0142679655
 33
0.0
 14
1600.7896805898
 24
75.6642552655
 34
0.0
 50
90.0
100
AcDbRotatedDimension
  0
DIMENSION
  5
3FA
100
AcDbEntity
  8
L1_45
  6
CONTINUOUS
 62
         4
100
AcDbDimension
  2
*D19
 10
1636.7976798859
 20
86.7392616155
 30
0.0
 11
1634.7726798859
 21
70.500359158
 31
0.0
  3
DIMSTYLE1
100
AcDbAlignedDimension
 13
1623.1851654259
 23
86.7392616155
 33
0.0
 14
1623.1851654259
 24
70.9392616155
 34
0.0
 50
90.0
100
AcDbRotatedDimension
  0
DIMENSION
  5
408
100
AcDbEntity
  8
L1_45
  6
CONTINUOUS
 62
         4
100
AcDbDimension
  2
*D20
 10
1630.3059181993
 20
82.8392616155
 30
0.0
 11
1628.2809181993
 21
74.550359158
 31
0.0
  3
DIMSTYLE1
100
AcDbAlignedDimension
 13
1616.18719743
 23
82.8392616155
 33
0.0
 14
1616.18719743
 24
74.8392616155
 34
0.0
 50
90.0
100
AcDbRotatedDimension
  0
DIMENSION
  5
416
100
AcDbEntity
  8
L1_45
  6
CONTINUOUS
 62
         4
100
AcDbDimension
  2
*D21
 10
1616.18719743
 20
90.1779800742
 30
0.0
 11
1613.0078409463
 21
92.2029800742
 31
0.0
  3
DIMSTYLE1
100
AcDbAlignedDimension
 13
1616.18719743
 23
86.7392616155
 33
0.0
 14
1613.18719743
 24
82.8392616155
 34
0.0
100
AcDbRotatedDimension
  0
DIMENSION
  5
426
100
AcDbEntity
  8
L1_45
  6
CONTINUOUS
 62
         4
100
AcDbDimension
  2
*D22
 10
1600.1851654259
 20
66.6106040846
 30
0.0
 11
1604.280236887
 21
68.6356040846
 31
0.0
  3
DIMSTYLE1
100
AcDbAlignedDimension
 13
1600.1851654259
 23
76.2687704293
 33
0.0
 14
1616.18719743
 24
70.9392616155
 34
0.0
100
AcDbRotatedDimension
  0
DIMENSION
  5
434
100
AcDbEntity
  8
L1_45
  6
CONTINUOUS
 62
         4
100
AcDbDimension
  2
*D23
 10
1600.1851654259
 20
96.113734394
 30
0.0
 11
1609.3336299721
 21
98.138734394
 31
0.0
  3
DIMSTYLE1
100
AcDbAlignedDimension
 13
1600.1851654259
 23
81.4097528017
 33
0.0
 14
1623.1851654259
 24
86.7392616155
 34
0.0
100
AcDbRotatedDimension
  0
DIMENSION
  5
442
100
AcDbEntity
  8
L1_45
  6
CONTINUOUS
 62
         4
100
AcDbDimension
  2
*D24
 10
1649.6708924821
 20
88.8522535727
 30
0.0
 11
1646.6851618321
 21
90.8772535727
 31
0.0
  3
DIMSTYLE1
100
AcDbAlignedDimension
 13
1649.6708924821
 23
80.7012162336
 33
0.0
 14
1656.1208924821
 24
80.7012162336
 34
0.0
100
AcDbRotatedDimension
  0
LINE
  5
44E
100
AcDbEntity
  8
L1_45
  6
DASHED
 62
         2
100
AcDbLine
 10
1619.1851654259
 20
82.5631708518
 30
0.0
 11
1619.1851654259
 21
75.1153523792
 31
0.0
  0
LINE
  5
44F
100
AcDbEntity
  8
L1_45
  6
DASHED
 62
         2
100
AcDbLine
 10
1623.1851654259
 20
75.1153523792
 30
0.0
 11
1619.1851654259
 21
75.1153523792
 31
0.0
  0
LINE
  5
450
100
AcDbEntity
  8
L1_45
  6
DASHED
 62
         2
100
AcDbLine
 10
1623.1851654259
 20
76.9773069974
 30
0.0
 11
1619.1851654259
 21
76.9773069974
 31
0.0
  0
LINE
  5
451
100
AcDbEntity
  8
L1_45
  6
DASHED
 62
         2
100
AcDbLine
 10
1623.1851654259
 20
80.7012162336
 30
0.0
 11
1619.1851654259
 21
80.7012162336
 31
0.0
  0
LINE
  5
452
100
AcDbEntity
  8
L1_45
  6
DASHED
 62
         2
100
AcDbLine
 10
1623.1851654259
 20
82.5631708518
 30
0.0
 11
1619.1851654259
 21
82.5631708518
 31
0.0
  0
LINE
  5
453
100
AcDbEntity
  8
L1_45
  6
CONTINUOUS
 62
         7
100
AcDbLine
 10
1652.8958924821
 20
82.5631708518
 30
0.0
 11
1649.6708924821
 21
80.7012162336
 31
0.0
  0
LINE
  5
454
100
AcDbEntity
  8
L1_45
  6
CONTINUOUS
 62
         7
100
AcDbLine
 10
1656.1208924821
 20
76.9773069974
 30
0.0
 11
1652.8958924821
 21
75.1153523792
 31
0.0
  0
LINE
  5
455
100
AcDbEntity
  8
L1_45
  6
CONTINUOUS
 62
         7
100
AcDbLine
 10
1656.1208924821
 20
80.7012162336
 30
0.0
 11
1652.8958924821
 21
82.5631708518
 31
0.0
  0
LINE
  5
456
100
AcDbEntity
  8
L1_45
  6
CONTINUOUS
 62
         7
100
AcDbLine
 10
1652.8958924821
 20
75.1153523792
 30
0.0
 11
1649.6708924821
 21
76.9773069974
 31
0.0
  0
LINE
  5
457
100
AcDbEntity
  8
L1_45
  6
CONTINUOUS
 62
         7
100
AcDbLine
 10
1656.1208924821
 20
76.9773069974
 30
0.0
 11
1656.1208924821
 21
80.7012162336
 31
0.0
  0
LINE
  5
458
100
AcDbEntity
  8
L1_45
  6
CONTINUOUS
 62
         7
100
AcDbLine
 10
1649.6708924821
 20
76.9773069974
 30
0.0
 11
1649.6708924821
 21
80.7012162336
 31
0.0
  0
CIRCLE
  5
459
100
AcDbEntity
  8
L1_45
  6
CONTINUOUS
 62
         7
100
AcDbCircle
 10
1652.8958924821
 20
78.8392616155
 30
0.0
 40
7.9
  0
LINE
  5
45A
100
AcDbEntity
  8
L1_45
  6
CENTER
 62
         1
100
AcDbLine
 10
1652.8958924821
 20
70.0676728388
 30
0.0
 11
1652.8958924821
 21
87.6108503922
 31
0.0
  0
LINE
  5
45B
100
AcDbEntity
  8
L1_45
  6
CENTER
 62
         1
100
AcDbLine
 10
1661.6674812588
 20
78.8392616155
 30
0.0
 11
1644.1243037053
 21
78.8392616155
 31
0.0
  0
LINE
  5
45C
100
AcDbEntity
  8
L1_45
  6
CONTINUOUS
 62
         7
100
AcDbLine
 10
1623.1851654259
 20
86.2392616155
 30
0.0
 11
1623.1851654259
 21
71.4392616155
 31
0.0
  0
LINE
  5
45D
100
AcDbEntity
  8
L1_45
  6
CONTINUOUS
 62
         7
100
AcDbLine
 10
1622.6851654259
 20
70.9392616155
 30
0.0
 11
1616.68719743
 21
70.9392616155
 31
0.0
  0
LINE
  5
45E
100
AcDbEntity
  8
L1_45
  6
CONTINUOUS
 62
         7
100
AcDbLine
 10
1622.6851654259
 20
86.7392616155
 30
0.0
 11
1616.68719743
 21
86.7392616155
 31
0.0
  0
LINE
  5
45F
100
AcDbEntity
  8
L1_45
  6
CONTINUOUS
 62
         7
100
AcDbLine
 10
1616.18719743
 20
74.8392616155
 30
0.0
 11
1613.68719743
 21
74.8392616155
 31
0.0
  0
LINE
  5
460
100
AcDbEntity
  8
L1_45
  6
CONTINUOUS
 62
         7
100
AcDbLine
 10
1616.18719743
 20
82.8392616155
 30
0.0
 11
1613.68719743
 21
82.8392616155
 31
0.0
  0
LINE
  5
461
100
AcDbEntity
  8
L1_45
  6
CENTER
 62
         1
100
AcDbLine
 10
1623.6240837638
 20
78.8392616155
 30
0.0
 11
1599.8112751929
 21
78.8392616155
 31
0.0
  0
LINE
  5
462
100
AcDbEntity
  8
L1_45
  6
CONTINUOUS
 62
         7
100
AcDbLine
 10
1613.18719743
 20
82.3392616155
 30
0.0
 11
1613.18719743
 21
75.3392616155
 31
0.0
  0
LINE
  5
463
100
AcDbEntity
  8
L1_45
  6
CONTINUOUS
 62
         7
100
AcDbLine
 10
1612.1401464523
 20
82.0142679655
 30
0.0
 11
1612.1401464523
 21
75.6642552655
 31
0.0
  0
LINE
  5
464
100
AcDbEntity
  8
L1_45
  6
CONTINUOUS
 62
         7
100
AcDbLine
 10
1600.1851654259
 20
81.4097528017
 30
0.0
 11
1600.1851654259
 21
76.2687704293
 31
0.0
  0
LINE
  5
465
100
AcDbEntity
  8
L1_45
  6
CONTINUOUS
 62
         7
100
AcDbLine
 10
1600.7896805898
 20
75.6642552655
 30
0.0
 11
1613.18719743
 21
75.6642552655
 31
0.0
  0
LINE
  5
466
100
AcDbEntity
  8
L1_45
  6
CONTINUOUS
 62
         7
100
AcDbLine
 10
1600.7896805898
 20
82.0142679655
 30
0.0
 11
1613.18719743
 21
82.0142679655
 31
0.0
  0
LINE
  5
467
100
AcDbEntity
  8
L1_45
  6
CONTINUOUS
 62
         4
100
AcDbLine
 10
1600.1851654259
 20
81.4097528017
 30
0.0
 11
1612.1401464523
 21
81.4097528017
 31
0.0
  0
LINE
  5
468
100
AcDbEntity
  8
L1_45
  6
CONTINUOUS
 62
         4
100
AcDbLine
 10
1600.1851654259
 20
76.2687704293
 30
0.0
 11
1612.1401464523
 21
76.2687704293
 31
0.0
  0
LINE
  5
469
100
AcDbEntity
  8
L1_45
  6
CONTINUOUS
 62
         7
100
AcDbLine
 10
1600.1851654259
 20
76.2687704293
 30
0.0
 11
1600.7896805898
 21
75.6642552655
 31
0.0
  0
LINE
  5
46A
100
AcDbEntity
  8
L1_45
  6
CONTINUOUS
 62
         7
100
AcDbLine
 10
1600.1851654259
 20
81.4097528017
 30
0.0
 11
1600.7896805898
 21
82.0142679655
 31
0.0
  0
LINE
  5
46B
100
AcDbEntity
  8
L1_45
  6
CONTINUOUS
 62
         7
100
AcDbLine
 10
1600.7896805898
 20
82.0142679655
 30
0.0
 11
1600.7896805898
 21
75.6642552655
 31
0.0
  0
LINE
  5
46C
100
AcDbEntity
  8
L1_45
  6
CONTINUOUS
 62
         7
100
AcDbLine
 10
1616.18719743
 20
86.2392616155
 30
0.0
 11
1616.18719743
 21
71.4392616155
 31
0.0
  0
DIMENSION
  5
46F
100
AcDbEntity
  8
L1_45
  6
CONTINUOUS
 62
         4
100
AcDbDimension
  2
*D25
 10
1445.0033403763
 20
173.3293903645
 30
0.0
 11
1449.0938626091
 21
175.3543903645
 31
0.0
  3
DIMSTYLE1
100
AcDbAlignedDimension
 13
1445.0033403763
 23
166.6846417294
 33
0.0
 14
1459.0033403763
 24
155.5346417294
 34
0.0
100
AcDbRotatedDimension
  0
LINE
  5
47B
100
AcDbEntity
  8
L1_45
  6
CONTINUOUS
 62
         7
100
AcDbLine
 10
1447.3497505378
 20
143.8346417294
 30
0.0
 11
1447.3497505378
 21
156.5346417294
 31
0.0
  0
ARC
  5
47C
100
AcDbEntity
  8
L1_45
  6
CONTINUOUS
 62
         7
100
AcDbCircle
 10
1444.0033403763
 20
133.6846417294
 30
0.0
 40
1.0
100
AcDbArc
 50
270.0
 51
360.0
  0
ARC
  5
47D
100
AcDbEntity
  8
L1_45
  6
CONTINUOUS
 62
         7
100
AcDbCircle
 10
1458.0033403763
 20
144.8346417294
 30
0.0
 40
1.0
100
AcDbArc
 50
270.0
 51
360.0
  0
ARC
  5
47E
100
AcDbEntity
  8
L1_45
  6
CONTINUOUS
 62
         7
100
AcDbCircle
 10
1458.0033403763
 20
155.5346417294
 30
0.0
 40
1.0
100
AcDbArc
 50
0.0
 51
90.0
  0
ARC
  5
47F
100
AcDbEntity
  8
L1_45
  6
CONTINUOUS
 62
         7
100
AcDbCircle
 10
1444.0033403763
 20
166.6846417294
 30
0.0
 40
1.0
100
AcDbArc
 50
0.0
 51
90.0
  0
LINE
  5
480
100
AcDbEntity
  8
L1_45
  6
CONTINUOUS
 62
         7
100
AcDbLine
 10
1445.0033403763
 20
143.8346417294
 30
0.0
 11
1458.0033403763
 21
143.8346417294
 31
0.0
  0
LINE
  5
481
100
AcDbEntity
  8
L1_45
  6
CONTINUOUS
 62
         7
100
AcDbLine
 10
1458.0033403763
 20
156.5346417294
 30
0.0
 11
1445.0033403763
 21
156.5346417294
 31
0.0
  0
LINE
  5
482
100
AcDbEntity
  8
L1_45
  6
CONTINUOUS
 62
         7
100
AcDbLine
 10
1459.0033403763
 20
144.8346417294
 30
0.0
 11
1459.0033403763
 21
155.5346417294
 31
0.0
  0
LINE
  5
483
100
AcDbEntity
  8
L1_45
  6
CONTINUOUS
 62
         7
100
AcDbLine
 10
1445.0033403763
 20
133.6846417294
 30
0.0
 11
1445.0033403763
 21
166.6846417294
 31
0.0
  0
LINE
  5
484
100
AcDbEntity
  8
L1_45
  6
CONTINUOUS
 62
         7
100
AcDbLine
 10
1444.0033403763
 20
132.6846417294
 30
0.0
 11
1436.0553403763
 21
132.6846417294
 31
0.0
  0
LINE
  5
485
100
AcDbEntity
  8
L1_45
  6
CONTINUOUS
 62
         7
100
AcDbLine
 10
1444.0033403763
 20
167.6846417294
 30
0.0
 11
1436.0553403763
 21
167.6846417294
 31
0.0
  0
LINE
  5
486
100
AcDbEntity
  8
L1_45
  6
CENTER
 62
         1
100
AcDbLine
 10
1466.1721480179
 20
150.1846417294
 30
0.0
 11
1417.5634872665
 21
150.1846417294
 31
0.0
  0
DIMENSION
  5
489
100
AcDbEntity
  8
L1_45
  6
CONTINUOUS
 62
         4
100
AcDbDimension
  2
*D26
 10
1478.766584063
 20
156.5346417294
 30
0.0
 11
1476.741584063
 21
145.3726984975
 31
0.0
  3
DIMSTYLE1
100
AcDbAlignedDimension
 13
1458.0033403763
 23
156.5346417294
 33
0.0
 14
1458.0033403763
 24
143.8346417294
 34
0.0
 50
90.0
100
AcDbRotatedDimension
  0
DIMENSION
  5
497
100
AcDbEntity
  8
L1_45
  6
CONTINUOUS
 62
         4
100
AcDbDimension
  2
*D27
 10
1494.4688204426
 20
167.6846417294
 30
0.0
 11
1492.4438204426
 21
143.065254407
 31
0.0
  3
DIMSTYLE1
100
AcDbAlignedDimension
 13
1444.0033403763
 23
167.6846417294
 33
0.0
 14
1444.0033403763
 24
132.6846417294
 34
0.0
 50
90.0
100
AcDbRotatedDimension
  0
LINE
  5
4A3
100
AcDbEntity
  8
L1_45
  6
CONTINUOUS
 62
         7
100
AcDbLine
 10
1458.9799544249
 20
-7.3783347407
 30
0.0
 11
1437.3954198766
 21
-7.3783347407
 31
0.0
  0
LINE
  5
4A4
100
AcDbEntity
  8
L1_45
  6
CONTINUOUS
 62
         7
100
AcDbLine
 10
1453.999676135
 20
-9.3783347407
 30
0.0
 11
1438.5501204149
 21
-9.3783347407
 31
0.0
  0
LINE
  5
4A5
100
AcDbEntity
  8
L1_45
  6
CONTINUOUS
 62
         7
100
AcDbLine
 10
1453.999676135
 20
-9.6817322003
 30
0.0
 11
1453.999676135
 21
-7.3783347407
 31
0.0
  0
LINE
  5
4A6
100
AcDbEntity
  8
L1_45
  6
DASHED
 62
         2
100
AcDbLine
 10
1453.999676135
 20
-16.5083347407
 30
0.0
 11
1438.5501204149
 21
-16.5083347407
 31
0.0
  0
LINE
  5
4A7
100
AcDbEntity
  8
L1_45
  6
DASHED
 62
         2
100
AcDbLine
 10
1458.9799544249
 20
-18.5083347407
 30
0.0
 11
1437.3954198766
 21
-18.5083347407
 31
0.0
  0
LINE
  5
4A8
100
AcDbEntity
  8
L1_45
  6
DASHED
 62
         2
100
AcDbLine
 10
1453.999676135
 20
-16.2049372811
 30
0.0
 11
1453.999676135
 21
-18.5083347407
 31
0.0
  0
ARC
  5
4A9
100
AcDbEntity
  8
L1_45
  6
CONTINUOUS
 62
         7
100
AcDbCircle
 10
1624.5009320865
 20
146.8393359994
 30
0.0
 40
2.0
100
AcDbArc
 50
214.5456734538
 51
365.4543265462
  0
CIRCLE
  5
4AA
100
AcDbEntity
  8
L1_45
  6
CONTINUOUS
 62
         7
100
AcDbCircle
 10
1624.8429522298
 20
145.8996433786
 30
0.0
 40
1.0
  0
LINE
  5
4AB
100
AcDbEntity
  8
L1_45
  6
CENTER
 62
         1
100
AcDbLine
 10
1623.6313149815
 20
145.4586434855
 30
0.0
 11
1626.0811836743
 21
146.3503227675
 31
0.0
  0
LINE
  5
4AC
100
AcDbEntity
  8
L1_45
  6
CENTER
 62
         1
100
AcDbLine
 10
1630.1854604798
 20
131.2212225985
 30
0.0
 11
1616.3812202727
 21
169.1480608603
 31
0.0
  0
CIRCLE
  5
4AD
100
AcDbEntity
  8
L1_45
  6
CONTINUOUS
 62
         7
100
AcDbCircle
 10
1621.7237285227
 20
154.4696400802
 30
0.0
 40
1.0
  0
ARC
  5
4AE
100
AcDbEntity
  8
L1_45
  6
CONTINUOUS
 62
         7
100
AcDbCircle
 10
1622.065748666
 20
153.5299474594
 30
0.0
 40
2.0
100
AcDbArc
 50
34.5456734538
 51
185.4543265462
  0
LINE
  5
4AF
100
AcDbEntity
  8
L1_45
  6
CENTER
 62
         1
100
AcDbLine
 10
1620.5619065809
 20
154.0467714759
 30
0.0
 11
1622.9178795961
 21
154.9042755261
 31
0.0
  0
CIRCLE
  5
4B0
100
AcDbEntity
  8
L1_45
  6
CONTINUOUS
 62
         7
100
AcDbCircle
 10
1623.2833403763
 20
150.1846417294
 30
0.0
 40
17.5
  0
LINE
  5
4B1
100
AcDbEntity
  8
L1_45
  6
CONTINUOUS
 62
         7
100
AcDbLine
 10
1419.1033403763
 20
180.9596417294
 30
0.0
 11
1419.1033403763
 21
150.1846417294
 31
0.0
  0
LINE
  5
4B2
100
AcDbEntity
  8
L1_45
  6
CONTINUOUS
 62
         7
100
AcDbLine
 10
1419.1033403763
 20
150.1846417294
 30
0.0
 11
1419.1033403763
 21
119.4096417294
 31
0.0
  0
TEXT
  5
4B4
100
AcDbEntity
  8
L1_45
  6
CONTINUOUS
 62
         2
100
AcDbText
 10
1607.8551181589
 20
224.3704784082
 30
0.0
 40
4.5
  1
531190
 41
0.98
  7
BOX
100
AcDbText
  0
ENDSEC
  0
SECTION
  2
OBJECTS
  0
DICTIONARY
  5
19
100
AcDbDictionary
  3
ACAD_GROUP
350
1A
  3
ACAD_MLINESTYLE
350
1B
  0
DICTIONARY
  5
1A
102
{ACAD_REACTORS
330
19
102
}
100
AcDbDictionary
  0
DICTIONARY
  5
1B
102
{ACAD_REACTORS
330
19
102
}
100
AcDbDictionary
  3
STANDARD
350
1C
  0
MLINESTYLE
  5
1C
102
{ACAD_REACTORS
330
1B
102
}
100
AcDbMlineStyle
  2
STANDARD
 70
         0
  3

 62
         0
 51
90.0
 52
90.0
 71
         2
 49
0.5
 62
       256
  6
BYLAYER
 49
-0.5
 62
       256
  6
BYLAYER
  0
ENDSEC
  0
EOF
