  0
SECTION
  2
HEADER
  9
$ACADVER
  1
AC1014
  9
$ACADMAINTVER
 70
         0
  9
$DWGCODEPAGE
  3
BIG5
  9
$INSBASE
 10
0.0
 20
0.0
 30
0.0
  9
$EXTMIN
 10
1106.4073409559
 20
-195.6337818445
 30
0.0
  9
$EXTMAX
 10
1985.4039675534
 20
247.5290532438
 30
0.0
  9
$LIMMIN
 10
0.0
 20
0.0
  9
$LIMMAX
 10
0.0
 20
0.0
  9
$ORTHOMODE
 70
         0
  9
$REGENMODE
 70
         1
  9
$FILLMODE
 70
         1
  9
$QTEXTMODE
 70
         0
  9
$MIRRTEXT
 70
         1
  9
$DRAGMODE
 70
         2
  9
$LTSCALE
 40
1.0
  9
$OSMODE
 70
         0
  9
$ATTMODE
 70
         1
  9
$TEXTSIZE
 40
1.7
  9
$TRACEWID
 40
0.05
  9
$TEXTSTYLE
  7
STANDARD
  9
$CLAYER
  8
0
  9
$CELTYPE
  6
CONTINUOUS
  9
$CECOLOR
 62
         4
  9
$CELTSCALE
 40
1.0
  9
$DELOBJ
 70
         1
  9
$DISPSILH
 70
         0
  9
$DIMSCALE
 40
1.0
  9
$DIMASZ
 40
0.18
  9
$DIMEXO
 40
0.0625
  9
$DIMDLI
 40
0.38
  9
$DIMRND
 40
0.0
  9
$DIMDLE
 40
0.0
  9
$DIMEXE
 40
0.25
  9
$DIMTP
 40
0.01
  9
$DIMTM
 40
-0.01
  9
$DIMTXT
 40
3.5
  9
$DIMCEN
 40
0.09
  9
$DIMTSZ
 40
0.0
  9
$DIMTOL
 70
         0
  9
$DIMLIM
 70
         0
  9
$DIMTIH
 70
         1
  9
$DIMTOH
 70
         1
  9
$DIMSE1
 70
         0
  9
$DIMSE2
 70
         0
  9
$DIMTAD
 70
         0
  9
$DIMZIN
 70
         0
  9
$DIMBLK
  1

  9
$DIMASO
 70
         1
  9
$DIMSHO
 70
         1
  9
$DIMPOST
  1

  9
$DIMAPOST
  1

  9
$DIMALT
 70
         0
  9
$DIMALTD
 70
         2
  9
$DIMALTF
 40
25.4
  9
$DIMLFAC
 40
1.0
  9
$DIMTOFL
 70
         0
  9
$DIMTVP
 40
0.0
  9
$DIMTIX
 70
         0
  9
$DIMSOXD
 70
         0
  9
$DIMSAH
 70
         0
  9
$DIMBLK1
  1

  9
$DIMBLK2
  1

  9
$DIMSTYLE
  2
STANDARD
  9
$DIMCLRD
 70
         0
  9
$DIMCLRE
 70
         0
  9
$DIMCLRT
 70
         4
  9
$DIMTFAC
 40
0.7
  9
$DIMGAP
 40
0.09
  9
$DIMJUST
 70
         0
  9
$DIMSD1
 70
         0
  9
$DIMSD2
 70
         0
  9
$DIMTOLJ
 70
         1
  9
$DIMTZIN
 70
         0
  9
$DIMALTZ
 70
         0
  9
$DIMALTTZ
 70
         0
  9
$DIMFIT
 70
         3
  9
$DIMUPT
 70
         0
  9
$DIMUNIT
 70
         2
  9
$DIMDEC
 70
         4
  9
$DIMTDEC
 70
         4
  9
$DIMALTU
 70
         2
  9
$DIMALTTD
 70
         2
  9
$DIMTXSTY
  7
STANDARD
  9
$DIMAUNIT
 70
         0
  9
$LUNITS
 70
         2
  9
$LUPREC
 70
        10
  9
$SKETCHINC
 40
0.1
  9
$FILLETRAD
 40
0.0
  9
$AUNITS
 70
         0
  9
$AUPREC
 70
         0
  9
$MENU
  1
acad
  9
$ELEVATION
 40
0.0
  9
$PELEVATION
 40
0.0
  9
$THICKNESS
 40
0.0
  9
$LIMCHECK
 70
         0
  9
$BLIPMODE
 70
         1
  9
$CHAMFERA
 40
0.0
  9
$CHAMFERB
 40
0.0
  9
$CHAMFERC
 40
0.0
  9
$CHAMFERD
 40
0.0
  9
$SKPOLY
 70
         0
  9
$TDCREATE
 40
0.000000000
  9
$TDUPDATE
 40
0.000000000
  9
$TDINDWG
 40
0.0000000000
  9
$TDUSRTIMER
 40
0.0000000000
  9
$USRTIMER
 70
         1
  9
$ANGBASE
 50
0.0
  9
$ANGDIR
 70
         0
  9
$PDMODE
 70
         2
  9
$PDSIZE
 40
0.0
  9
$PLINEWID
 40
0.0
  9
$COORDS
 70
         1
  9
$SPLFRAME
 70
         0
  9
$SPLINETYPE
 70
         6
  9
$SPLINESEGS
 70
         8
  9
$ATTDIA
 70
         0
  9
$ATTREQ
 70
         1
  9
$HANDLING
 70
         1
  9
$HANDSEED
  5
39D
  9
$SURFTAB1
 70
         6
  9
$SURFTAB2
 70
         6
  9
$SURFTYPE
 70
         6
  9
$SURFU
 70
         6
  9
$SURFV
 70
         6
  9
$UCSNAME
  2

  9
$UCSORG
 10
0.0
 20
0.0
 30
0.0
  9
$UCSXDIR
 10
1.0
 20
0.0
 30
0.0
  9
$UCSYDIR
 10
0.0
 20
1.0
 30
0.0
  9
$PUCSNAME
  2

  9
$PUCSORG
 10
0.0
 20
0.0
 30
0.0
  9
$PUCSXDIR
 10
1.0
 20
0.0
 30
0.0
  9
$PUCSYDIR
 10
0.0
 20
1.0
 30
0.0
  9
$USERI1
 70
         0
  9
$USERI2
 70
         0
  9
$USERI3
 70
         0
  9
$USERI4
 70
         0
  9
$USERI5
 70
         0
  9
$USERR1
 40
0.0
  9
$USERR2
 40
0.0
  9
$USERR3
 40
0.0
  9
$USERR4
 40
0.0
  9
$USERR5
 40
0.0
  9
$WORLDVIEW
 70
         1
  9
$SHADEDGE
 70
         3
  9
$SHADEDIF
 70
        70
  9
$TILEMODE
 70
         1
  9
$MAXACTVP
 70
        16
  9
$PINSBASE
 10
0.0
 20
0.0
 30
0.0
  9
$PLIMCHECK
 70
         0
  9
$PEXTMIN
 10
1.0000000000E+20
 20
1.0000000000E+20
 30
1.0000000000E+20
  9
$PEXTMAX
 10
-1.0000000000E+20
 20
-1.0000000000E+20
 30
-1.0000000000E+20
  9
$PLIMMIN
 10
0.0
 20
0.0
  9
$PLIMMAX
 10
12.0
 20
9.0
  9
$UNITMODE
 70
         0
  9
$VISRETAIN
 70
         0
  9
$PLINEGEN
 70
         1
  9
$PSLTSCALE
 70
         0
  9
$TREEDEPTH
 70
      3020
  9
$PICKSTYLE
 70
         1
  9
$CMLSTYLE
  2
STANDARD
  9
$CMLJUST
 70
         0
  9
$CMLSCALE
 40
1.0
  9
$PROXYGRAPHICS
 70
         0
  9
$MEASUREMENT
 70
         0
  0
ENDSEC
  0
SECTION
  2
CLASSES
  0
CLASS
  1
LWPOLYLINE
  2
AcDbPolyline
  3
"AutoCAD"
 90
        0
280
         0
281
         1
  0
CLASS
  1
IMAGE
  2
AcDbRasterImage
  3
ISM
 90
      127
280
         0
281
         1
  0
CLASS
  1
OLE2FRAME
  2
AcDbOle2Frame
  3
""
 90
        0
280
         0
281
         1
  0
CLASS
  1
HATCH
  2
AcDbHatch
  3
"ACAD_SEDONA"
 90
        0
280
         0
281
         1
  0
CLASS
  1
DICTIONARYVAR
  2
AcDbDictionaryVar
  3
"AutoCAD"
 90
        0
280
         0
281
         0
  0
CLASS
  1
RASTERVARIABLES
  2
AcDbRasterVariables
  3
ISM
 90
        0
280
         0
281
         0
  0
CLASS
  1
IMAGEDEF
  2
AcDbRasterImageDef
  3
ISM
 90
        0
280
         0
281
         0
  0
CLASS
  1
IMAGEDEF_REACTOR
  2
AcDbRasterImageDefReactor
  3
ISM
 90
        1
280
         0
281
         0
  0
CLASS
  1
IDBUFFER
  2
AcDbIdBuffer
  3
"Acad"
 90
        0
280
         0
281
         0
  0
CLASS
  1
SPATIAL_FILTER
  2
AcDbSpatialFilter
  3
"Acad"
 90
        0
280
         0
281
         0
  0
CLASS
  1
XRECORD
  2
AcDbXrecord
  3
"<Built In>"
 90
        0
280
         0
281
         0
  0
CLASS
  1
SORTENTSTABLE
  2
AcDbSortentsTable
  3
"AutoCAD"
 90
        0
280
         0
281
         0
  0
CLASS
  1
LAYER_INDEX
  2
AcDbLayerIndex
  3
"Acad"
 90
        0
280
         0
281
         0
  0
CLASS
  1
SPATIAL_INDEX
  2
AcDbSpatialIndex
  3
"Acad"
 90
        0
280
         0
281
         0
  0
CLASS
  1
OBJECT_PTR
  2
CAseDLPNTableRecord
  3
"ASE-LPNTableRecord"
 90
        1
280
         0
281
         0
  0
CLASS
  1
LAYOUT
  2
AcDbLayout
  3
"AutoCAD 2000"
 90
        1
280
         0
281
         0
  0
CLASS
  1
PLOTSETTINGS
  2
AcDbPlotSettings
  3
"AutoCAD 2000"
 90
        1
280
         0
281
         0
  0
CLASS
  1
ACDBDICTIONARYWDFLT
  2
AcDbDictionaryWithDefault
  3
"AutoCAD 2000"
 90
        1
280
         0
281
         0
  0
CLASS
  1
ACDBPLACEHOLDER
  2
AcDbPlaceHolder
  3
"AutoCAD 2000"
 90
        1
280
         0
281
         0
  0
CLASS
  1
VBA_PROJECT
  2
AcDbVbaProject
  3
"acadvba"
 90
        1
280
         0
281
         0
  0
CLASS
  1
WIPEOUT
  2
AcDbWipeout
  3
WipeOut|AutoCAD Express Tool|expresstools@autodesk.com
 90
      127
280
         0
281
         1
  0
CLASS
  1
WIPEOUTVARIABLES
  2
AcDbWipeoutVariables
  3
WipeOut|AutoCAD Express Tool|expresstools@autodesk.com
 90
        0
280
         0
281
         0
  0
CLASS
  1
RTEXT
  2
RText
  3
RText|AutoCAD Express Tool|expresstools@autodesk.com
 90
        0
280
         0
281
         1
  0
CLASS
  1
ARCALIGNEDTEXT
  2
AcDbArcAlignedText
  3
ATEXT|AutoCAD Express Tool|expresstools@autodesk.com
 90
        0
280
         0
281
         1
  0
ENDSEC
  0
SECTION
  2
TABLES
  0
TABLE
  2
VPORT
  5
7
100
AcDbSymbolTable
 70
         1
  0
VPORT
  5
15
100
AcDbSymbolTableRecord
100
AcDbViewportTableRecord
  2
*ACTIVE
 70
         0
 10
0.0
 20
0.0
 11
1.0
 21
1.0
 12
1545.9056542546
 22
25.9476356997
 13
0.0
 23
0.0
 14
1.0
 24
1.0
 15
0.0
 25
0.0
 16
0.0
 26
0.0
 36
1.0
 17
0.0
 27
0.0
 37
0.0
 40
443.1628350883
 41
1.9834619625
 42
50.0
 43
0.0
 44
0.0
 50
0.0
 51
0.0
 71
         0
 72
       100
 73
         1
 74
         1
 75
         0
 76
         0
 77
         0
 78
         0
  0
ENDTAB
  0
TABLE
  2
LTYPE
  5
4
100
AcDbSymbolTable
 70
         6
  0
LTYPE
  5
11
100
AcDbSymbolTableRecord
100
AcDbLinetypeTableRecord
  2
BYBLOCK
 70
        64
  3

 72
        65
 73
         0
 40
0.0
  0
LTYPE
  5
12
100
AcDbSymbolTableRecord
100
AcDbLinetypeTableRecord
  2
BYLAYER
 70
        64
  3

 72
        65
 73
         0
 40
0.0
  0
LTYPE
  5
13
100
AcDbSymbolTableRecord
100
AcDbLinetypeTableRecord
  2
CONTINUOUS
 70
        64
  3
Solid line
 72
        65
 73
         0
 40
0.0
  0
LTYPE
  5
1D
100
AcDbSymbolTableRecord
100
AcDbLinetypeTableRecord
  2
DASHED
 70
        64
  3
_ _ _ _ _ _ _ _ _ _ _ _ _ _ _ _
 72
        65
 73
         2
 40
0.2
 49
0.1
 74
         0
 49
-0.1
 74
         0
  0
LTYPE
  5
1E
100
AcDbSymbolTableRecord
100
AcDbLinetypeTableRecord
  2
CENTER
 70
        64
  3
___ _ ___ _ ___ _ ___ _ ___ _ ___ _ ___ _ ___ _
 72
        65
 73
         4
 40
0.95
 49
0.625
 74
         0
 49
-0.125
 74
         0
 49
0.075
 74
         0
 49
-0.125
 74
         0
  0
LTYPE
  5
1F
100
AcDbSymbolTableRecord
100
AcDbLinetypeTableRecord
  2
PHANTOM
 70
        64
  3
______  __  __  ______  __  __  ______  __  __  
 72
        65
 73
         6
 40
1.025
 49
0.625
 74
         0
 49
-0.125
 74
         0
 49
0.075
 74
         0
 49
-0.125
 74
         0
 49
0.075
 74
         0
 49
-0.125
 74
         0
  0
ENDTAB
  0
TABLE
  2
LAYER
  5
2
100
AcDbSymbolTable
 70
        11
  0
LAYER
  5
14
100
AcDbSymbolTableRecord
100
AcDbLayerTableRecord
  2
0
 70
         0
 62
         7
  6
CONTINUOUS
  0
LAYER
  5
21
100
AcDbSymbolTableRecord
100
AcDbLayerTableRecord
  2
_____U
 70
         1
 62
         7
  6
CONTINUOUS
  0
LAYER
  5
22
100
AcDbSymbolTableRecord
100
AcDbLayerTableRecord
  2
___T______
 70
         1
 62
         7
  6
CONTINUOUS
  0
LAYER
  5
23
100
AcDbSymbolTableRecord
100
AcDbLayerTableRecord
  2
_____T______
 70
         1
 62
         7
  6
CONTINUOUS
  0
LAYER
  5
24
100
AcDbSymbolTableRecord
100
AcDbLayerTableRecord
  2
______L_______
 70
         1
 62
         7
  6
CONTINUOUS
  0
LAYER
  5
25
100
AcDbSymbolTableRecord
100
AcDbLayerTableRecord
  2
ERTGDAOZ____
 70
         1
 62
         7
  6
CONTINUOUS
  0
LAYER
  5
26
100
AcDbSymbolTableRecord
100
AcDbLayerTableRecord
  2
___L_W______
 70
         1
 62
         7
  6
CONTINUOUS
  0
LAYER
  5
27
100
AcDbSymbolTableRecord
100
AcDbLayerTableRecord
  2
_Y__________
 70
         0
 62
         7
  6
CONTINUOUS
  0
LAYER
  5
28
100
AcDbSymbolTableRecord
100
AcDbLayerTableRecord
  2
_X______
 70
         0
 62
         7
  6
CONTINUOUS
  0
LAYER
  5
29
100
AcDbSymbolTableRecord
100
AcDbLayerTableRecord
  2
L1_150
 70
         0
 62
         7
  6
CONTINUOUS
  0
LAYER
  5
283
100
AcDbSymbolTableRecord
100
AcDbLayerTableRecord
  2
DEFPOINTS
 70
         0
 62
        -7
  6
CONTINUOUS
  0
ENDTAB
  0
TABLE
  2
STYLE
  5
3
100
AcDbSymbolTable
 70
         6
  0
STYLE
  5
17
100
AcDbSymbolTableRecord
100
AcDbTextStyleTableRecord
  2
STANDARD
 70
         0
 40
0.0
 41
1.0
 50
0.0
 71
         0
 42
0.0
  3
txt
  4

  0
STYLE
  5
28C
100
AcDbSymbolTableRecord
100
AcDbTextStyleTableRecord
  2
BOX
 70
         0
 40
1.0
 41
1.0
 50
0.0
 71
         0
 42
0.2
  3
txt.shx
  4

  0
STYLE
  5
2BE
100
AcDbSymbolTableRecord
100
AcDbTextStyleTableRecord
  2
BOX
 70
         0
 40
1.0
 41
1.0
 50
0.0
 71
         0
 42
0.2
  3
txt.shx
  4

  0
STYLE
  5
2CC
100
AcDbSymbolTableRecord
100
AcDbTextStyleTableRecord
  2
BOX
 70
         0
 40
1.0
 41
1.0
 50
0.0
 71
         0
 42
0.2
  3
txt.shx
  4

  0
STYLE
  5
312
100
AcDbSymbolTableRecord
100
AcDbTextStyleTableRecord
  2
BOX
 70
         0
 40
1.0
 41
1.0
 50
0.0
 71
         0
 42
0.2
  3
txt.shx
  4

  0
STYLE
  5
39B
100
AcDbSymbolTableRecord
100
AcDbTextStyleTableRecord
  2
BOX
 70
         0
 40
1.0
 41
1.0
 50
0.0
 71
         0
 42
0.2
  3
txt.shx
  4

  0
ENDTAB
  0
TABLE
  2
VIEW
  5
5
100
AcDbSymbolTable
 70
         0
  0
ENDTAB
  0
TABLE
  2
UCS
  5
6
100
AcDbSymbolTable
 70
         1
  0
UCS
  5
20
100
AcDbSymbolTableRecord
100
AcDbUCSTableRecord
  2
CK_VIEW_1
 70
         0
 10
0.0
 20
0.0
 30
1.0
 11
1.0
 21
0.0
 31
0.0
 12
0.0
 22
1.0
 32
0.0
  0
ENDTAB
  0
TABLE
  2
APPID
  5
8
100
AcDbSymbolTable
 70
         1
  0
APPID
  5
16
100
AcDbSymbolTableRecord
100
AcDbRegAppTableRecord
  2
ACAD
 70
         0
  0
ENDTAB
  0
TABLE
  2
DIMSTYLE
  5
9
100
AcDbSymbolTable
 70
         2
  0
DIMSTYLE
105
18
100
AcDbSymbolTableRecord
100
AcDbDimStyleTableRecord
  2
STANDARD
 70
         0
  3

  4

  5

  6

  7

 40
1.0
 41
0.18
 42
0.0625
 43
0.38
 44
0.18
 45
0.0
 46
0.0
 47
0.0
 48
0.0
 71
         0
 72
         0
 73
         1
 74
         1
 75
         0
 76
         0
 77
         0
 78
         0
140
0.18
141
0.09
142
0.0
143
25.4
144
1.0
145
0.0
146
1.0
147
0.09
170
         0
171
         2
172
         0
173
         0
174
         0
175
         0
176
         0
177
         0
178
         0
270
         2
271
         4
272
         4
273
         2
274
         2
275
         0
280
         0
281
         0
282
         0
283
         1
284
         0
285
         0
286
         0
287
         0
288
         0
340
17
  0
DIMSTYLE
105
27F
100
AcDbSymbolTableRecord
100
AcDbDimStyleTableRecord
  2
DIMSTYLE1
 70
         0
  3

  4

  5

  6

  7

 40
1.0
 41
3.5
 42
0.0625
 43
0.38
 44
3.5
 45
0.0
 46
0.0
 47
0.0
 48
0.0
 71
         0
 72
         0
 73
         1
 74
         1
 75
         0
 76
         0
 77
         0
 78
         0
140
3.5
141
0.09
142
0.0
143
25.4
144
1.0
145
0.0
146
1.0
147
0.09
170
         0
171
         2
172
         0
173
         0
174
         0
175
         0
176
         0
177
         0
178
         0
270
         2
271
         4
272
         4
273
         2
274
         2
275
         0
280
         0
281
         0
282
         0
283
         1
284
         0
285
         0
286
         0
287
         0
288
         0
340
17
  0
ENDTAB
  0
TABLE
  2
BLOCK_RECORD
  5
1
100
AcDbSymbolTable
 70
         5
  0
BLOCK_RECORD
  5
A
100
AcDbSymbolTableRecord
100
AcDbBlockTableRecord
  2
*MODEL_SPACE
  0
BLOCK_RECORD
  5
B
100
AcDbSymbolTableRecord
100
AcDbBlockTableRecord
  2
*PAPER_SPACE
  0
BLOCK_RECORD
  5
280
100
AcDbSymbolTableRecord
100
AcDbBlockTableRecord
  2
*D0
  0
BLOCK_RECORD
  5
2B3
100
AcDbSymbolTableRecord
100
AcDbBlockTableRecord
  2
*D1
  0
BLOCK_RECORD
  5
2C1
100
AcDbSymbolTableRecord
100
AcDbBlockTableRecord
  2
*D2
  0
BLOCK_RECORD
  5
307
100
AcDbSymbolTableRecord
100
AcDbBlockTableRecord
  2
*D3
  0
BLOCK_RECORD
  5
325
100
AcDbSymbolTableRecord
100
AcDbBlockTableRecord
  2
*X4
  0
ENDTAB
  0
ENDSEC
  0
SECTION
  2
BLOCKS
  0
BLOCK
  5
D
100
AcDbEntity
  8
0
100
AcDbBlockBegin
  2
*MODEL_SPACE
 70
         0
 10
0.0
 20
0.0
 30
0.0
  3
*MODEL_SPACE
  1

  0
ENDBLK
  5
E
100
AcDbEntity
  8
0
100
AcDbBlockEnd
  0
BLOCK
  5
F
100
AcDbEntity
 67
         1
  8
0
100
AcDbBlockBegin
  2
*PAPER_SPACE
 70
         0
 10
0.0
 20
0.0
 30
0.0
  3
*PAPER_SPACE
  1

  0
ENDBLK
  5
10
100
AcDbEntity
 67
         1
  8
0
100
AcDbBlockEnd
  0
BLOCK
  5
281
100
AcDbEntity
  8
0
100
AcDbBlockBegin
  2
*D0
 70
        65
 10
0.0
 20
0.0
 30
0.0
  3
*D0
  1

  0
POINT
  5
284
100
AcDbEntity
  8
DEFPOINTS
  6
CONTINUOUS
 62
         0
100
AcDbPoint
 10
1422.1786999334
 20
221.2602880125
 30
0.0
  0
POINT
  5
285
100
AcDbEntity
  8
DEFPOINTS
  6
CONTINUOUS
 62
         0
100
AcDbPoint
 10
1422.1786999334
 20
130.1987502026
 30
0.0
  0
POINT
  5
286
100
AcDbEntity
  8
DEFPOINTS
  6
CONTINUOUS
 62
         0
100
AcDbPoint
 10
1691.2786999334
 20
112.2524144385
 30
0.0
  0
LINE
  5
287
100
AcDbEntity
  8
L1_150
  6
CONTINUOUS
 62
         4
100
AcDbLine
 10
1422.1786999334
 20
131.9487502026
 30
0.0
 11
1422.1786999334
 21
222.1352880125
 31
0.0
  0
LINE
  5
288
100
AcDbEntity
  8
L1_150
  6
CONTINUOUS
 62
         4
100
AcDbLine
 10
1691.2786999334
 20
114.0024144385
 30
0.0
 11
1691.2786999334
 21
222.1352880125
 31
0.0
  0
LINE
  5
289
100
AcDbEntity
  8
L1_150
  6
CONTINUOUS
 62
         4
100
AcDbLine
 10
1422.1786999334
 20
221.2602880125
 30
0.0
 11
1691.2786999334
 21
221.2602880125
 31
0.0
  0
SOLID
  5
28A
100
AcDbEntity
  8
L1_150
  6
CONTINUOUS
 62
         4
100
AcDbTrace
 10
1422.1786999334
 20
221.2602880125
 30
0.0
 11
1425.6786999334
 21
221.7852880125
 31
0.0
 12
1425.6786999334
 22
220.7352880125
 32
0.0
 13
1422.1786999334
 23
221.2602880125
 33
0.0
  0
SOLID
  5
28B
100
AcDbEntity
  8
L1_150
  6
CONTINUOUS
 62
         4
100
AcDbTrace
 10
1691.2786999334
 20
221.2602880125
 30
0.0
 11
1687.7786999334
 21
220.7352880125
 31
0.0
 12
1687.7786999334
 22
221.7852880125
 32
0.0
 13
1691.2786999334
 23
221.2602880125
 33
0.0
  0
TEXT
  5
28D
100
AcDbEntity
  8
L1_150
  6
CONTINUOUS
 62
         4
100
AcDbText
 10
1546.648215981
 20
223.8852880125
 30
0.0
 40
3.5
  1
269.1
  7
BOX
100
AcDbText
  0
ENDBLK
  5
28E
100
AcDbEntity
  8
0
  6
CONTINUOUS
100
AcDbBlockEnd
  0
BLOCK
  5
2B4
100
AcDbEntity
  8
0
100
AcDbBlockBegin
  2
*D1
 70
        65
 10
0.0
 20
0.0
 30
0.0
  3
*D1
  1

  0
POINT
  5
2B6
100
AcDbEntity
  8
DEFPOINTS
  6
CONTINUOUS
 62
         0
100
AcDbPoint
 10
1729.9169726237
 20
75.7524144385
 30
0.0
  0
POINT
  5
2B7
100
AcDbEntity
  8
DEFPOINTS
  6
CONTINUOUS
 62
         0
100
AcDbPoint
 10
1672.2786999334
 20
75.7524144385
 30
0.0
  0
POINT
  5
2B8
100
AcDbEntity
  8
DEFPOINTS
  6
CONTINUOUS
 62
         0
100
AcDbPoint
 10
1672.2786999334
 20
148.7524144385
 30
0.0
  0
LINE
  5
2B9
100
AcDbEntity
  8
L1_150
  6
CONTINUOUS
 62
         4
100
AcDbLine
 10
1674.0286999334
 20
75.7524144385
 30
0.0
 11
1730.7919726237
 21
75.7524144385
 31
0.0
  0
LINE
  5
2BA
100
AcDbEntity
  8
L1_150
  6
CONTINUOUS
 62
         4
100
AcDbLine
 10
1674.0286999334
 20
148.7524144385
 30
0.0
 11
1730.7919726237
 21
148.7524144385
 31
0.0
  0
LINE
  5
2BB
100
AcDbEntity
  8
L1_150
  6
CONTINUOUS
 62
         4
100
AcDbLine
 10
1729.9169726237
 20
75.7524144385
 30
0.0
 11
1729.9169726237
 21
148.7524144385
 31
0.0
  0
SOLID
  5
2BC
100
AcDbEntity
  8
L1_150
  6
CONTINUOUS
 62
         4
100
AcDbTrace
 10
1729.9169726237
 20
75.7524144385
 30
0.0
 11
1729.3919726237
 21
79.2524144385
 31
0.0
 12
1730.4419726237
 22
79.2524144385
 32
0.0
 13
1729.9169726237
 23
75.7524144385
 33
0.0
  0
SOLID
  5
2BD
100
AcDbEntity
  8
L1_150
  6
CONTINUOUS
 62
         4
100
AcDbTrace
 10
1729.9169726237
 20
148.7524144385
 30
0.0
 11
1730.4419726237
 21
145.2524144385
 31
0.0
 12
1729.3919726237
 22
145.2524144385
 32
0.0
 13
1729.9169726237
 23
148.7524144385
 33
0.0
  0
TEXT
  5
2BF
100
AcDbEntity
  8
L1_150
  6
CONTINUOUS
 62
         4
100
AcDbText
 10
1727.2919726237
 20
104.2105997294
 30
0.0
 40
3.5
  1
崷73
 50
90.0
  7
BOX
100
AcDbText
  0
ENDBLK
  5
2C0
100
AcDbEntity
  8
0
  6
CONTINUOUS
100
AcDbBlockEnd
  0
BLOCK
  5
2C2
100
AcDbEntity
  8
0
100
AcDbBlockBegin
  2
*D2
 70
        65
 10
0.0
 20
0.0
 30
0.0
  3
*D2
  1

  0
POINT
  5
2C4
100
AcDbEntity
  8
DEFPOINTS
  6
CONTINUOUS
 62
         0
100
AcDbPoint
 10
1715.3521025644
 20
96.3774144385
 30
0.0
  0
POINT
  5
2C5
100
AcDbEntity
  8
DEFPOINTS
  6
CONTINUOUS
 62
         0
100
AcDbPoint
 10
1689.7786999334
 20
96.3774144385
 30
0.0
  0
POINT
  5
2C6
100
AcDbEntity
  8
DEFPOINTS
  6
CONTINUOUS
 62
         0
100
AcDbPoint
 10
1689.7786999334
 20
128.1274144385
 30
0.0
  0
LINE
  5
2C7
100
AcDbEntity
  8
L1_150
  6
CONTINUOUS
 62
         4
100
AcDbLine
 10
1691.5286999334
 20
96.3774144385
 30
0.0
 11
1716.2271025644
 21
96.3774144385
 31
0.0
  0
LINE
  5
2C8
100
AcDbEntity
  8
L1_150
  6
CONTINUOUS
 62
         4
100
AcDbLine
 10
1691.5286999334
 20
128.1274144385
 30
0.0
 11
1716.2271025644
 21
128.1274144385
 31
0.0
  0
LINE
  5
2C9
100
AcDbEntity
  8
L1_150
  6
CONTINUOUS
 62
         4
100
AcDbLine
 10
1715.3521025644
 20
96.3774144385
 30
0.0
 11
1715.3521025644
 21
128.1274144385
 31
0.0
  0
SOLID
  5
2CA
100
AcDbEntity
  8
L1_150
  6
CONTINUOUS
 62
         4
100
AcDbTrace
 10
1715.3521025644
 20
96.3774144385
 30
0.0
 11
1714.8271025644
 21
99.8774144385
 31
0.0
 12
1715.8771025644
 22
99.8774144385
 32
0.0
 13
1715.3521025644
 23
96.3774144385
 33
0.0
  0
SOLID
  5
2CB
100
AcDbEntity
  8
L1_150
  6
CONTINUOUS
 62
         4
100
AcDbTrace
 10
1715.3521025644
 20
128.1274144385
 30
0.0
 11
1715.8771025644
 21
124.6274144385
 31
0.0
 12
1714.8271025644
 22
124.6274144385
 32
0.0
 13
1715.3521025644
 23
128.1274144385
 33
0.0
  0
TEXT
  5
2CD
100
AcDbEntity
  8
L1_150
  6
CONTINUOUS
 62
         4
100
AcDbText
 10
1712.7271025644
 20
98.3239315799
 30
0.0
 40
3.5
  1
崷31.75
 50
90.0
  7
BOX
100
AcDbText
  0
ENDBLK
  5
2CE
100
AcDbEntity
  8
0
  6
CONTINUOUS
100
AcDbBlockEnd
  0
BLOCK
  5
308
100
AcDbEntity
  8
0
100
AcDbBlockBegin
  2
*D3
 70
        65
 10
0.0
 20
0.0
 30
0.0
  3
*D3
  1

  0
POINT
  5
30A
100
AcDbEntity
  8
DEFPOINTS
  6
CONTINUOUS
 62
         0
100
AcDbPoint
 10
1723.8866582156
 20
-114.2400166132
 30
0.0
  0
POINT
  5
30B
100
AcDbEntity
  8
DEFPOINTS
  6
CONTINUOUS
 62
         0
100
AcDbPoint
 10
1690.2786999334
 20
-114.2400166132
 30
0.0
  0
POINT
  5
30C
100
AcDbEntity
  8
DEFPOINTS
  6
CONTINUOUS
 62
         0
100
AcDbPoint
 10
1690.2786999334
 20
-139.2400166132
 30
0.0
  0
LINE
  5
30D
100
AcDbEntity
  8
L1_150
  6
CONTINUOUS
 62
         4
100
AcDbLine
 10
1692.0286999334
 20
-114.2400166132
 30
0.0
 11
1724.7616582156
 21
-114.2400166132
 31
0.0
  0
LINE
  5
30E
100
AcDbEntity
  8
L1_150
  6
CONTINUOUS
 62
         4
100
AcDbLine
 10
1692.0286999334
 20
-139.2400166132
 30
0.0
 11
1724.7616582156
 21
-139.2400166132
 31
0.0
  0
LINE
  5
30F
100
AcDbEntity
  8
L1_150
  6
CONTINUOUS
 62
         4
100
AcDbLine
 10
1723.8866582156
 20
-114.2400166132
 30
0.0
 11
1723.8866582156
 21
-139.2400166132
 31
0.0
  0
SOLID
  5
310
100
AcDbEntity
  8
L1_150
  6
CONTINUOUS
 62
         4
100
AcDbTrace
 10
1723.8866582156
 20
-114.2400166132
 30
0.0
 11
1724.4116582156
 21
-117.7400166132
 31
0.0
 12
1723.3616582156
 22
-117.7400166132
 32
0.0
 13
1723.8866582156
 23
-114.2400166132
 33
0.0
  0
SOLID
  5
311
100
AcDbEntity
  8
L1_150
  6
CONTINUOUS
 62
         4
100
AcDbTrace
 10
1723.8866582156
 20
-139.2400166132
 30
0.0
 11
1723.3616582156
 21
-135.7400166132
 31
0.0
 12
1724.4116582156
 22
-135.7400166132
 32
0.0
 13
1723.8866582156
 23
-139.2400166132
 33
0.0
  0
TEXT
  5
313
100
AcDbEntity
  8
L1_150
  6
CONTINUOUS
 62
         4
100
AcDbText
 10
1721.2616582156
 20
-134.155331385
 30
0.0
 40
3.5
  1
崷25
 50
90.0
  7
BOX
100
AcDbText
  0
ENDBLK
  5
314
100
AcDbEntity
  8
0
  6
CONTINUOUS
100
AcDbBlockEnd
  0
BLOCK
  5
326
100
AcDbEntity
  8
0
100
AcDbBlockBegin
  2
*X4
 70
        65
 10
0.0
 20
0.0
 30
0.0
  3
*X4
  1

  0
LINE
  5
327
100
AcDbEntity
  8
L1_150
  6
CONTINUOUS
 62
         4
100
AcDbLine
 10
1690.2440592095
 20
-142.5410042513
 30
0.0
 11
1691.2046875715
 21
-141.5803758893
 31
0.0
  0
LINE
  5
328
100
AcDbEntity
  8
L1_150
  6
CONTINUOUS
 62
         4
100
AcDbLine
 10
1663.181085817
 20
-163.2400166132
 30
0.0
 11
1667.6786999334
 21
-158.7424024968
 31
0.0
  0
LINE
  5
329
100
AcDbEntity
  8
L1_150
  6
CONTINUOUS
 62
         4
100
AcDbLine
 10
1683.806085817
 20
-142.6150166132
 30
0.0
 11
1687.181085817
 21
-139.2400166132
 31
0.0
  0
LINE
  5
32A
100
AcDbEntity
  8
L1_150
  6
CONTINUOUS
 62
         4
100
AcDbLine
 10
1656.8171247863
 20
-163.2400166132
 30
0.0
 11
1664.2171247863
 21
-155.8400166132
 31
0.0
  0
LINE
  5
32B
100
AcDbEntity
  8
L1_150
  6
CONTINUOUS
 62
         4
100
AcDbLine
 10
1672.3171247863
 20
-147.7400166132
 30
0.0
 11
1673.7786999334
 21
-146.2784414661
 31
0.0
  0
LINE
  5
32C
100
AcDbEntity
  8
L1_150
  6
CONTINUOUS
 62
         4
100
AcDbLine
 10
1677.4421247863
 20
-142.6150166132
 30
0.0
 11
1684.2796246849
 21
-135.7775167146
 31
0.0
  0
LINE
  5
32D
100
AcDbEntity
  8
L1_150
  6
CONTINUOUS
 62
         4
100
AcDbLine
 10
1650.4531637556
 20
-163.2400166132
 30
0.0
 11
1657.8531637556
 21
-155.8400166132
 31
0.0
  0
LINE
  5
32E
100
AcDbEntity
  8
L1_150
  6
CONTINUOUS
 62
         4
100
AcDbLine
 10
1662.0531637556
 20
-151.6400166132
 30
0.0
 11
1679.6281637556
 21
-134.0650166132
 31
0.0
  0
LINE
  5
32F
100
AcDbEntity
  8
L1_150
  6
CONTINUOUS
 62
         4
100
AcDbLine
 10
1644.0892027249
 20
-163.2400166132
 30
0.0
 11
1652.2433137374
 21
-155.0859056008
 31
0.0
  0
LINE
  5
330
100
AcDbEntity
  8
L1_150
  6
CONTINUOUS
 62
         4
100
AcDbLine
 10
1655.6892027249
 20
-151.6400166132
 30
0.0
 11
1673.2642027249
 21
-134.0650166132
 31
0.0
  0
LINE
  5
331
100
AcDbEntity
  8
L1_150
  6
CONTINUOUS
 62
         4
100
AcDbLine
 10
1637.7252416943
 20
-163.2400166132
 30
0.0
 11
1666.9002416943
 21
-134.0650166132
 31
0.0
  0
LINE
  5
332
100
AcDbEntity
  8
L1_150
  6
CONTINUOUS
 62
         4
100
AcDbLine
 10
1681.5502416943
 20
-119.4150166132
 30
0.0
 11
1683.6745484957
 21
-117.2907098118
 31
0.0
  0
LINE
  5
333
100
AcDbEntity
  8
L1_150
  6
CONTINUOUS
 62
         4
100
AcDbLine
 10
1687.8214996318
 20
-113.1437586757
 30
0.0
 11
1690.071405644
 21
-110.8938526635
 31
0.0
  0
LINE
  5
334
100
AcDbEntity
  8
L1_150
  6
CONTINUOUS
 62
         4
100
AcDbLine
 10
1631.3612806636
 20
-163.2400166132
 30
0.0
 11
1660.5362806636
 21
-134.0650166132
 31
0.0
  0
LINE
  5
335
100
AcDbEntity
  8
L1_150
  6
CONTINUOUS
 62
         4
100
AcDbLine
 10
1675.1862806636
 20
-119.4150166132
 30
0.0
 11
1678.2575386011
 21
-116.3437586757
 31
0.0
  0
LINE
  5
336
100
AcDbEntity
  8
L1_150
  6
CONTINUOUS
 62
         4
100
AcDbLine
 10
1681.4575386011
 20
-113.1437586757
 30
0.0
 11
1683.7362806636
 21
-110.8650166132
 31
0.0
  0
LINE
  5
337
100
AcDbEntity
  8
L1_150
  6
CONTINUOUS
 62
         4
100
AcDbLine
 10
1624.9973196329
 20
-163.2400166132
 30
0.0
 11
1654.1723196329
 21
-134.0650166132
 31
0.0
  0
LINE
  5
338
100
AcDbEntity
  8
L1_150
  6
CONTINUOUS
 62
         4
100
AcDbLine
 10
1668.8223196329
 20
-119.4150166132
 30
0.0
 11
1671.8935775704
 21
-116.3437586757
 31
0.0
  0
LINE
  5
339
100
AcDbEntity
  8
L1_150
  6
CONTINUOUS
 62
         4
100
AcDbLine
 10
1675.0935775704
 20
-113.1437586757
 30
0.0
 11
1677.3723196329
 21
-110.8650166132
 31
0.0
  0
LINE
  5
33A
100
AcDbEntity
  8
L1_150
  6
CONTINUOUS
 62
         4
100
AcDbLine
 10
1618.6333586022
 20
-163.2400166132
 30
0.0
 11
1647.8083586022
 21
-134.0650166132
 31
0.0
  0
LINE
  5
33B
100
AcDbEntity
  8
L1_150
  6
CONTINUOUS
 62
         4
100
AcDbLine
 10
1662.4583586022
 20
-119.4150166132
 30
0.0
 11
1665.5296165397
 21
-116.3437586757
 31
0.0
  0
LINE
  5
33C
100
AcDbEntity
  8
L1_150
  6
CONTINUOUS
 62
         4
100
AcDbLine
 10
1668.7296165397
 20
-113.1437586757
 30
0.0
 11
1673.7786999334
 21
-108.094675282
 31
0.0
  0
LINE
  5
33D
100
AcDbEntity
  8
L1_150
  6
CONTINUOUS
 62
         4
100
AcDbLine
 10
1612.2693975715
 20
-163.2400166132
 30
0.0
 11
1638.3730561081
 21
-137.1363580766
 31
0.0
  0
LINE
  5
33E
100
AcDbEntity
  8
L1_150
  6
CONTINUOUS
 62
         4
100
AcDbLine
 10
1641.0523527503
 20
-134.4570614344
 30
0.0
 11
1641.4443975715
 21
-134.0650166132
 31
0.0
  0
LINE
  5
33F
100
AcDbEntity
  8
L1_150
  6
CONTINUOUS
 62
         4
100
AcDbLine
 10
1656.0943975715
 20
-119.4150166132
 30
0.0
 11
1659.1656555091
 21
-116.3437586757
 31
0.0
  0
LINE
  5
340
100
AcDbEntity
  8
L1_150
  6
CONTINUOUS
 62
         4
100
AcDbLine
 10
1662.3656555091
 20
-113.1437586757
 30
0.0
 11
1673.7786999334
 21
-101.7307142513
 31
0.0
  0
LINE
  5
341
100
AcDbEntity
  8
L1_150
  6
CONTINUOUS
 62
         4
100
AcDbLine
 10
1605.9054365409
 20
-163.2400166132
 30
0.0
 11
1632.0090950774
 21
-137.1363580766
 31
0.0
  0
LINE
  5
342
100
AcDbEntity
  8
L1_150
  6
CONTINUOUS
 62
         4
100
AcDbLine
 10
1649.7304365409
 20
-119.4150166132
 30
0.0
 11
1652.8016944784
 21
-116.3437586757
 31
0.0
  0
LINE
  5
343
100
AcDbEntity
  8
L1_150
  6
CONTINUOUS
 62
         4
100
AcDbLine
 10
1656.0016944784
 20
-113.1437586757
 30
0.0
 11
1673.7786999334
 21
-95.3667532207
 31
0.0
  0
LINE
  5
344
100
AcDbEntity
  8
L1_150
  6
CONTINUOUS
 62
         4
100
AcDbLine
 10
1599.5414755102
 20
-163.2400166132
 30
0.0
 11
1625.6451340468
 21
-137.1363580766
 31
0.0
  0
LINE
  5
345
100
AcDbEntity
  8
L1_150
  6
CONTINUOUS
 62
         4
100
AcDbLine
 10
1643.3664755102
 20
-119.4150166132
 30
0.0
 11
1646.4377334477
 21
-116.3437586757
 31
0.0
  0
LINE
  5
346
100
AcDbEntity
  8
L1_150
  6
CONTINUOUS
 62
         4
100
AcDbLine
 10
1649.6377334477
 20
-113.1437586757
 30
0.0
 11
1672.5216670459
 21
-90.2598250775
 31
0.0
  0
LINE
  5
347
100
AcDbEntity
  8
L1_150
  6
CONTINUOUS
 62
         4
100
AcDbLine
 10
1593.1775144795
 20
-163.2400166132
 30
0.0
 11
1619.2811730161
 21
-137.1363580766
 31
0.0
  0
LINE
  5
348
100
AcDbEntity
  8
L1_150
  6
CONTINUOUS
 62
         4
100
AcDbLine
 10
1643.273772417
 20
-113.1437586757
 30
0.0
 11
1666.1775144795
 21
-90.2400166132
 31
0.0
  0
LINE
  5
349
100
AcDbEntity
  8
L1_150
  6
CONTINUOUS
 62
         4
100
AcDbLine
 10
1586.8135534488
 20
-163.2400166132
 30
0.0
 11
1612.9172119854
 21
-137.1363580766
 31
0.0
  0
LINE
  5
34A
100
AcDbEntity
  8
L1_150
  6
CONTINUOUS
 62
         4
100
AcDbLine
 10
1633.7098949122
 20
-116.3436751498
 30
0.0
 11
1639.6286999334
 21
-110.4248701286
 31
0.0
  0
LINE
  5
34B
100
AcDbEntity
  8
L1_150
  6
CONTINUOUS
 62
         4
100
AcDbLine
 10
1642.9286999334
 20
-107.1248701286
 30
0.0
 11
1659.8135534488
 21
-90.2400166132
 31
0.0
  0
LINE
  5
34C
100
AcDbEntity
  8
L1_150
  6
CONTINUOUS
 62
         4
100
AcDbLine
 10
1580.4495924181
 20
-163.2400166132
 30
0.0
 11
1606.5532509547
 21
-137.1363580766
 31
0.0
  0
LINE
  5
34D
100
AcDbEntity
  8
L1_150
  6
CONTINUOUS
 62
         4
100
AcDbLine
 10
1627.3459338816
 20
-116.3436751498
 30
0.0
 11
1639.6286999334
 21
-104.0609090979
 31
0.0
  0
LINE
  5
34E
100
AcDbEntity
  8
L1_150
  6
CONTINUOUS
 62
         4
100
AcDbLine
 10
1642.9286999334
 20
-100.7609090979
 30
0.0
 11
1653.4495924181
 21
-90.2400166132
 31
0.0
  0
LINE
  5
34F
100
AcDbEntity
  8
L1_150
  6
CONTINUOUS
 62
         4
100
AcDbLine
 10
1574.0856313875
 20
-163.2400166132
 30
0.0
 11
1600.1892899241
 21
-137.1363580766
 31
0.0
  0
LINE
  5
350
100
AcDbEntity
  8
L1_150
  6
CONTINUOUS
 62
         4
100
AcDbLine
 10
1620.9819728509
 20
-116.3436751498
 30
0.0
 11
1639.6286999334
 21
-97.6969480673
 31
0.0
  0
LINE
  5
351
100
AcDbEntity
  8
L1_150
  6
CONTINUOUS
 62
         4
100
AcDbLine
 10
1643.2786999334
 20
-94.0469480673
 30
0.0
 11
1647.0856313875
 21
-90.2400166132
 31
0.0
  0
LINE
  5
352
100
AcDbEntity
  8
L1_150
  6
CONTINUOUS
 62
         4
100
AcDbLine
 10
1567.7216703568
 20
-163.2400166132
 30
0.0
 11
1593.8253288934
 21
-137.1363580766
 31
0.0
  0
LINE
  5
353
100
AcDbEntity
  8
L1_150
  6
CONTINUOUS
 62
         4
100
AcDbLine
 10
1614.6180118202
 20
-116.3436751498
 30
0.0
 11
1639.2786999334
 21
-91.6829870366
 31
0.0
  0
LINE
  5
354
100
AcDbEntity
  8
L1_150
  6
CONTINUOUS
 62
         4
100
AcDbLine
 10
1561.3577093261
 20
-163.2400166132
 30
0.0
 11
1587.4613678627
 21
-137.1363580766
 31
0.0
  0
LINE
  5
355
100
AcDbEntity
  8
L1_150
  6
CONTINUOUS
 62
         4
100
AcDbLine
 10
1608.2540507895
 20
-116.3436751498
 30
0.0
 11
1634.3577093261
 21
-90.2400166132
 31
0.0
  0
LINE
  5
356
100
AcDbEntity
  8
L1_150
  6
CONTINUOUS
 62
         4
100
AcDbLine
 10
1556.5687482954
 20
-161.6650166132
 30
0.0
 11
1581.097406832
 21
-137.1363580766
 31
0.0
  0
LINE
  5
357
100
AcDbEntity
  8
L1_150
  6
CONTINUOUS
 62
         4
100
AcDbLine
 10
1601.8900897588
 20
-116.3436751498
 30
0.0
 11
1627.9937482954
 21
-90.2400166132
 31
0.0
  0
LINE
  5
358
100
AcDbEntity
  8
L1_150
  6
CONTINUOUS
 62
         4
100
AcDbLine
 10
1537.6700416281
 20
-174.1997622498
 30
0.0
 11
1542.8786999334
 21
-168.9911039446
 31
0.0
  0
LINE
  5
359
100
AcDbEntity
  8
L1_150
  6
CONTINUOUS
 62
         4
100
AcDbLine
 10
1550.2047872647
 20
-161.6650166132
 30
0.0
 11
1574.7334458013
 21
-137.1363580766
 31
0.0
  0
LINE
  5
35A
100
AcDbEntity
  8
L1_150
  6
CONTINUOUS
 62
         4
100
AcDbLine
 10
1595.5261287282
 20
-116.3436751498
 30
0.0
 11
1621.6297872648
 21
-90.2400166132
 31
0.0
  0
LINE
  5
35B
100
AcDbEntity
  8
L1_150
  6
CONTINUOUS
 62
         4
100
AcDbLine
 10
1530.0158262341
 20
-175.4900166132
 30
0.0
 11
1542.8786999334
 21
-162.6271429139
 31
0.0
  0
LINE
  5
35C
100
AcDbEntity
  8
L1_150
  6
CONTINUOUS
 62
         4
100
AcDbLine
 10
1543.8408262341
 20
-161.6650166132
 30
0.0
 11
1568.3694847707
 21
-137.1363580766
 31
0.0
  0
LINE
  5
35D
100
AcDbEntity
  8
L1_150
  6
CONTINUOUS
 62
         4
100
AcDbLine
 10
1589.1621676975
 20
-116.3436751498
 30
0.0
 11
1615.2658262341
 21
-90.2400166132
 31
0.0
  0
LINE
  5
35E
100
AcDbEntity
  8
L1_150
  6
CONTINUOUS
 62
         4
100
AcDbLine
 10
1526.9786999334
 20
-172.1631818832
 30
0.0
 11
1562.00552374
 21
-137.1363580766
 31
0.0
  0
LINE
  5
35F
100
AcDbEntity
  8
L1_150
  6
CONTINUOUS
 62
         4
100
AcDbLine
 10
1582.7982066668
 20
-116.3436751498
 30
0.0
 11
1608.9018652034
 21
-90.2400166132
 31
0.0
  0
LINE
  5
360
100
AcDbEntity
  8
L1_150
  6
CONTINUOUS
 62
         4
100
AcDbLine
 10
1526.9786999334
 20
-165.7992208525
 30
0.0
 11
1555.6415627093
 21
-137.1363580766
 31
0.0
  0
LINE
  5
361
100
AcDbEntity
  8
L1_150
  6
CONTINUOUS
 62
         4
100
AcDbLine
 10
1576.4342456361
 20
-116.3436751498
 30
0.0
 11
1602.5379041727
 21
-90.2400166132
 31
0.0
  0
LINE
  5
362
100
AcDbEntity
  8
L1_150
  6
CONTINUOUS
 62
         4
100
AcDbLine
 10
1525.084340125
 20
-161.3296196302
 30
0.0
 11
1549.2776016786
 21
-137.1363580766
 31
0.0
  0
LINE
  5
363
100
AcDbEntity
  8
L1_150
  6
CONTINUOUS
 62
         4
100
AcDbLine
 10
1570.0702846054
 20
-116.3436751498
 30
0.0
 11
1596.173943142
 21
-90.2400166132
 31
0.0
  0
LINE
  5
364
100
AcDbEntity
  8
L1_150
  6
CONTINUOUS
 62
         4
100
AcDbLine
 10
1519.0714609293
 20
-160.9785377953
 30
0.0
 11
1542.9136406479
 21
-137.1363580766
 31
0.0
  0
LINE
  5
365
100
AcDbEntity
  8
L1_150
  6
CONTINUOUS
 62
         4
100
AcDbLine
 10
1563.7063235748
 20
-116.3436751498
 30
0.0
 11
1589.8099821114
 21
-90.2400166132
 31
0.0
  0
LINE
  5
366
100
AcDbEntity
  8
L1_150
  6
CONTINUOUS
 62
         4
100
AcDbLine
 10
1513.5174652304
 20
-160.1685724634
 30
0.0
 11
1536.5496796173
 21
-137.1363580766
 31
0.0
  0
LINE
  5
367
100
AcDbEntity
  8
L1_150
  6
CONTINUOUS
 62
         4
100
AcDbLine
 10
1557.3423625441
 20
-116.3436751498
 30
0.0
 11
1583.4460210807
 21
-90.2400166132
 31
0.0
  0
LINE
  5
368
100
AcDbEntity
  8
L1_150
  6
CONTINUOUS
 62
         4
100
AcDbLine
 10
1507.9634695316
 20
-159.3586071316
 30
0.0
 11
1530.1857185866
 21
-137.1363580766
 31
0.0
  0
LINE
  5
369
100
AcDbEntity
  8
L1_150
  6
CONTINUOUS
 62
         4
100
AcDbLine
 10
1550.9784015134
 20
-116.3436751498
 30
0.0
 11
1577.08206005
 21
-90.2400166132
 31
0.0
  0
LINE
  5
36A
100
AcDbEntity
  8
L1_150
  6
CONTINUOUS
 62
         4
100
AcDbLine
 10
1502.4094738328
 20
-158.5486417998
 30
0.0
 11
1523.8217575559
 21
-137.1363580766
 31
0.0
  0
LINE
  5
36B
100
AcDbEntity
  8
L1_150
  6
CONTINUOUS
 62
         4
100
AcDbLine
 10
1544.6144404827
 20
-116.3436751498
 30
0.0
 11
1570.7180990193
 21
-90.2400166132
 31
0.0
  0
LINE
  5
36C
100
AcDbEntity
  8
L1_150
  6
CONTINUOUS
 62
         4
100
AcDbLine
 10
1496.8554781339
 20
-157.7386764679
 30
0.0
 11
1517.4577965252
 21
-137.1363580766
 31
0.0
  0
LINE
  5
36D
100
AcDbEntity
  8
L1_150
  6
CONTINUOUS
 62
         4
100
AcDbLine
 10
1538.2504794521
 20
-116.3436751498
 30
0.0
 11
1564.3541379886
 21
-90.2400166132
 31
0.0
  0
LINE
  5
36E
100
AcDbEntity
  8
L1_150
  6
CONTINUOUS
 62
         4
100
AcDbLine
 10
1491.3014824351
 20
-156.9287111361
 30
0.0
 11
1511.0938354945
 21
-137.1363580766
 31
0.0
  0
LINE
  5
36F
100
AcDbEntity
  8
L1_150
  6
CONTINUOUS
 62
         4
100
AcDbLine
 10
1531.8865184214
 20
-116.3436751498
 30
0.0
 11
1533.2286999334
 21
-115.0014936378
 31
0.0
  0
LINE
  5
370
100
AcDbEntity
  8
L1_150
  6
CONTINUOUS
 62
         4
100
AcDbLine
 10
1536.5286999334
 20
-111.7014936378
 30
0.0
 11
1556.415176958
 21
-91.8150166132
 31
0.0
  0
LINE
  5
371
100
AcDbEntity
  8
L1_150
  6
CONTINUOUS
 62
         4
100
AcDbLine
 10
1485.7474867363
 20
-156.1187458042
 30
0.0
 11
1504.7298744639
 21
-137.1363580766
 31
0.0
  0
LINE
  5
372
100
AcDbEntity
  8
L1_150
  6
CONTINUOUS
 62
         4
100
AcDbLine
 10
1525.5225573907
 20
-116.3436751498
 30
0.0
 11
1533.2286999334
 21
-108.6375326071
 31
0.0
  0
LINE
  5
373
100
AcDbEntity
  8
L1_150
  6
CONTINUOUS
 62
         4
100
AcDbLine
 10
1536.5286999334
 20
-105.3375326071
 30
0.0
 11
1550.0512159273
 21
-91.8150166132
 31
0.0
  0
LINE
  5
374
100
AcDbEntity
  8
L1_150
  6
CONTINUOUS
 62
         4
100
AcDbLine
 10
1480.1934910374
 20
-155.3087804724
 30
0.0
 11
1498.3659134332
 21
-137.1363580766
 31
0.0
  0
LINE
  5
375
100
AcDbEntity
  8
L1_150
  6
CONTINUOUS
 62
         4
100
AcDbLine
 10
1519.15859636
 20
-116.3436751498
 30
0.0
 11
1533.2286999334
 21
-102.2735715764
 31
0.0
  0
LINE
  5
376
100
AcDbEntity
  8
L1_150
  6
CONTINUOUS
 62
         4
100
AcDbLine
 10
1536.5286999334
 20
-98.9735715764
 30
0.0
 11
1543.6872548966
 21
-91.8150166132
 31
0.0
  0
LINE
  5
377
100
AcDbEntity
  8
L1_150
  6
CONTINUOUS
 62
         4
100
AcDbLine
 10
1474.6394953386
 20
-154.4988151405
 30
0.0
 11
1492.0019524025
 21
-137.1363580766
 31
0.0
  0
LINE
  5
378
100
AcDbEntity
  8
L1_150
  6
CONTINUOUS
 62
         4
100
AcDbLine
 10
1512.7946353293
 20
-116.3436751498
 30
0.0
 11
1533.2286999334
 21
-95.9096105457
 31
0.0
  0
LINE
  5
379
100
AcDbEntity
  8
L1_150
  6
CONTINUOUS
 62
         4
100
AcDbLine
 10
1539.019306709
 20
-90.1190037702
 30
0.0
 11
1542.8786999334
 21
-86.2596105457
 31
0.0
  0
LINE
  5
37A
100
AcDbEntity
  8
L1_150
  6
CONTINUOUS
 62
         4
100
AcDbLine
 10
1469.0854996397
 20
-153.6888498087
 30
0.0
 11
1485.6379913718
 21
-137.1363580766
 31
0.0
  0
LINE
  5
37B
100
AcDbEntity
  8
L1_150
  6
CONTINUOUS
 62
         4
100
AcDbLine
 10
1506.4306742987
 20
-116.3436751498
 30
0.0
 11
1531.6861819614
 21
-91.0881674871
 31
0.0
  0
LINE
  5
37C
100
AcDbEntity
  8
L1_150
  6
CONTINUOUS
 62
         4
100
AcDbLine
 10
1536.5286999334
 20
-86.245649515
 30
0.0
 11
1542.8786999334
 21
-79.895649515
 31
0.0
  0
LINE
  5
37D
100
AcDbEntity
  8
L1_150
  6
CONTINUOUS
 62
         4
100
AcDbLine
 10
1463.5315039409
 20
-152.8788844769
 30
0.0
 11
1479.2740303412
 21
-137.1363580766
 31
0.0
  0
LINE
  5
37E
100
AcDbEntity
  8
L1_150
  6
CONTINUOUS
 62
         4
100
AcDbLine
 10
1500.066713268
 20
-116.3436751498
 30
0.0
 11
1524.4284595092
 21
-91.9819289086
 31
0.0
  0
LINE
  5
37F
100
AcDbEntity
  8
L1_150
  6
CONTINUOUS
 62
         4
100
AcDbLine
 10
1526.9786999334
 20
-89.4316884844
 30
0.0
 11
1527.9431324291
 21
-88.4672559887
 31
0.0
  0
LINE
  5
380
100
AcDbEntity
  8
L1_150
  6
CONTINUOUS
 62
         4
100
AcDbLine
 10
1531.5332076444
 20
-84.8771807734
 30
0.0
 11
1532.8786999334
 21
-83.5316884844
 31
0.0
  0
LINE
  5
381
100
AcDbEntity
  8
L1_150
  6
CONTINUOUS
 62
         4
100
AcDbLine
 10
1538.4075917837
 20
-78.0027966341
 30
0.0
 11
1538.4203718046
 21
-77.9900166132
 31
0.0
  0
LINE
  5
382
100
AcDbEntity
  8
L1_150
  6
CONTINUOUS
 62
         4
100
AcDbLine
 10
1457.9775082421
 20
-152.068919145
 30
0.0
 11
1472.9100693105
 21
-137.1363580766
 31
0.0
  0
LINE
  5
383
100
AcDbEntity
  8
L1_150
  6
CONTINUOUS
 62
         4
100
AcDbLine
 10
1493.7027522373
 20
-116.3436751498
 30
0.0
 11
1517.2843021853
 21
-92.7621252017
 31
0.0
  0
LINE
  5
384
100
AcDbEntity
  8
L1_150
  6
CONTINUOUS
 62
         4
100
AcDbLine
 10
1528.1850663858
 20
-81.8613610013
 30
0.0
 11
1531.603764806
 21
-78.4426625811
 31
0.0
  0
LINE
  5
385
100
AcDbEntity
  8
L1_150
  6
CONTINUOUS
 62
         4
100
AcDbLine
 10
1452.4235125432
 20
-151.2589538132
 30
0.0
 11
1466.5461082798
 21
-137.1363580766
 31
0.0
  0
LINE
  5
386
100
AcDbEntity
  8
L1_150
  6
CONTINUOUS
 62
         4
100
AcDbLine
 10
1487.3387912066
 20
-116.3436751498
 30
0.0
 11
1509.8337992463
 21
-93.8486671101
 31
0.0
  0
LINE
  5
387
100
AcDbEntity
  8
L1_150
  6
CONTINUOUS
 62
         4
100
AcDbLine
 10
1446.8695168444
 20
-150.4489884813
 30
0.0
 11
1460.1821472491
 21
-137.1363580766
 31
0.0
  0
LINE
  5
388
100
AcDbEntity
  8
L1_150
  6
CONTINUOUS
 62
         4
100
AcDbLine
 10
1480.9748301759
 20
-116.3436751498
 30
0.0
 11
1502.3832963074
 21
-94.9352090184
 31
0.0
  0
LINE
  5
389
100
AcDbEntity
  8
L1_150
  6
CONTINUOUS
 62
         4
100
AcDbLine
 10
1441.3155211456
 20
-149.6390231495
 30
0.0
 11
1453.8181862184
 21
-137.1363580766
 31
0.0
  0
LINE
  5
38A
100
AcDbEntity
  8
L1_150
  6
CONTINUOUS
 62
         4
100
AcDbLine
 10
1474.6108691453
 20
-116.3436751498
 30
0.0
 11
1494.9327933684
 21
-96.0217509267
 31
0.0
  0
LINE
  5
38B
100
AcDbEntity
  8
L1_150
  6
CONTINUOUS
 62
         4
100
AcDbLine
 10
1435.7615254467
 20
-148.8290578176
 30
0.0
 11
1447.4542251878
 21
-137.1363580766
 31
0.0
  0
LINE
  5
38C
100
AcDbEntity
  8
L1_150
  6
CONTINUOUS
 62
         4
100
AcDbLine
 10
1468.2469081146
 20
-116.3436751498
 30
0.0
 11
1487.4822904294
 21
-97.108292835
 31
0.0
  0
LINE
  5
38D
100
AcDbEntity
  8
L1_150
  6
CONTINUOUS
 62
         4
100
AcDbLine
 10
1430.2075297479
 20
-148.0190924858
 30
0.0
 11
1441.0902641571
 21
-137.1363580766
 31
0.0
  0
LINE
  5
38E
100
AcDbEntity
  8
L1_150
  6
CONTINUOUS
 62
         4
100
AcDbLine
 10
1461.8829470839
 20
-116.3436751498
 30
0.0
 11
1480.0317874904
 21
-98.1948347433
 31
0.0
  0
LINE
  5
38F
100
AcDbEntity
  8
L1_150
  6
CONTINUOUS
 62
         4
100
AcDbLine
 10
1424.6535340491
 20
-147.209127154
 30
0.0
 11
1434.7263031264
 21
-137.1363580766
 31
0.0
  0
LINE
  5
390
100
AcDbEntity
  8
L1_150
  6
CONTINUOUS
 62
         4
100
AcDbLine
 10
1455.5189860532
 20
-116.3436751498
 30
0.0
 11
1472.5812845514
 21
-99.2813766516
 31
0.0
  0
LINE
  5
391
100
AcDbEntity
  8
L1_150
  6
CONTINUOUS
 62
         4
100
AcDbLine
 10
1422.1786999334
 20
-143.3200002389
 30
0.0
 11
1426.2586835591
 21
-139.2400166132
 31
0.0
  0
LINE
  5
392
100
AcDbEntity
  8
L1_150
  6
CONTINUOUS
 62
         4
100
AcDbLine
 10
1449.1550250225
 20
-116.3436751498
 30
0.0
 11
1465.1307816124
 21
-100.3679185599
 31
0.0
  0
LINE
  5
393
100
AcDbEntity
  8
L1_150
  6
CONTINUOUS
 62
         4
100
AcDbLine
 10
1442.7910639919
 20
-116.3436751498
 30
0.0
 11
1457.6802786734
 21
-101.4544604682
 31
0.0
  0
LINE
  5
394
100
AcDbEntity
  8
L1_150
  6
CONTINUOUS
 62
         4
100
AcDbLine
 10
1436.4271029612
 20
-116.3436751498
 30
0.0
 11
1450.2297757344
 21
-102.5410023766
 31
0.0
  0
LINE
  5
395
100
AcDbEntity
  8
L1_150
  6
CONTINUOUS
 62
         4
100
AcDbLine
 10
1430.2555929127
 20
-116.1512241676
 30
0.0
 11
1442.7792727954
 21
-103.6275442849
 31
0.0
  0
LINE
  5
396
100
AcDbEntity
  8
L1_150
  6
CONTINUOUS
 62
         4
100
AcDbLine
 10
1425.8028394364
 20
-114.2400166132
 30
0.0
 11
1435.3287698564
 21
-104.7140861932
 31
0.0
  0
LINE
  5
397
100
AcDbEntity
  8
L1_150
  6
CONTINUOUS
 62
         4
100
AcDbLine
 10
1422.1786999334
 20
-111.5001950855
 30
0.0
 11
1427.8782669174
 21
-105.8006281015
 31
0.0
  0
ENDBLK
  5
398
100
AcDbEntity
  8
0
  6
CONTINUOUS
100
AcDbBlockEnd
  0
ENDSEC
  0
SECTION
  2
ENTITIES
  0
LINE
  5
2A
100
AcDbEntity
  8
L1_150
  6
DASHED
 62
         2
100
AcDbLine
 10
1637.7286999334
 20
-140.3362745507
 30
0.0
 11
1637.7286999334
 21
-137.1362745507
 31
0.0
  0
LINE
  5
2B
100
AcDbEntity
  8
L1_150
  6
DASHED
 62
         2
100
AcDbLine
 10
1637.7286999334
 20
-137.1362745507
 30
0.0
 11
1636.8049395027
 21
-138.7362745507
 31
0.0
  0
LINE
  5
2C
100
AcDbEntity
  8
L1_150
  6
DASHED
 62
         2
100
AcDbLine
 10
1637.7286999334
 20
-140.3362745507
 30
0.0
 11
1636.8049395027
 21
-138.7362745507
 31
0.0
  0
LINE
  5
2D
100
AcDbEntity
  8
L1_150
  6
CONTINUOUS
 62
         7
100
AcDbLine
 10
1637.7286999334
 20
-116.3436751498
 30
0.0
 11
1637.7286999334
 21
-113.1437586757
 31
0.0
  0
LINE
  5
2E
100
AcDbEntity
  8
L1_150
  6
CONTINUOUS
 62
         7
100
AcDbLine
 10
1637.7286999334
 20
-113.1437586757
 30
0.0
 11
1636.8049395027
 21
-114.7437586757
 31
0.0
  0
LINE
  5
2F
100
AcDbEntity
  8
L1_150
  6
CONTINUOUS
 62
         7
100
AcDbLine
 10
1637.7286999334
 20
-116.3437586757
 30
0.0
 11
1636.8049395027
 21
-114.7437586757
 31
0.0
  0
LINE
  5
30
100
AcDbEntity
  8
_X______
  6
CONTINUOUS
 62
         4
100
AcDbLine
 10
1531.1031389767
 20
-91.2903036885
 30
0.0
 11
1527.0073787552
 21
-88.4224215067
 31
0.0
  0
LINE
  5
31
100
AcDbEntity
  8
_X______
  6
CONTINUOUS
 62
         7
100
AcDbLine
 10
1533.2286999334
 20
-92.1682501989
 30
0.0
 11
1527.2941669734
 21
-88.0128454846
 31
0.0
  0
LINE
  5
32
100
AcDbEntity
  8
_X______
  6
CONTINUOUS
 62
         7
100
AcDbLine
 10
1527.0073787552
 20
-88.4224215067
 30
0.0
 11
1530.4488373733
 21
-83.507509241
 31
0.0
  0
LINE
  5
33
100
AcDbEntity
  8
_X______
  6
CONTINUOUS
 62
         7
100
AcDbLine
 10
1530.4775161951
 20
-83.4665516388
 30
0.0
 11
1526.9786999334
 21
-81.0166541175
 31
0.0
  0
LINE
  5
34
100
AcDbEntity
  8
_X______
  6
CONTINUOUS
 62
         7
100
AcDbLine
 10
1532.8786999334
 20
-80.6509149981
 30
0.0
 11
1532.8786999334
 21
-85.1150166132
 31
0.0
  0
LINE
  5
35
100
AcDbEntity
  8
_X______
  6
CONTINUOUS
 62
         7
100
AcDbLine
 10
1536.8786999334
 20
-80.6509149981
 30
0.0
 11
1536.8786999334
 21
-85.1150166132
 31
0.0
  0
LINE
  5
36
100
AcDbEntity
  8
_X______
  6
CENTER
 62
         1
100
AcDbLine
 10
1539.0645187937
 20
-92.8974044374
 30
0.0
 11
1527.1220940425
 21
-84.5352286021
 31
0.0
  0
LINE
  5
37
100
AcDbEntity
  8
_X______
  6
CONTINUOUS
 62
         4
100
AcDbLine
 10
1533.2286999334
 20
-86.0643772551
 30
0.0
 11
1533.2286999334
 21
-92.1682501989
 31
0.0
  0
LINE
  5
38
100
AcDbEntity
  8
_X______
  6
CONTINUOUS
 62
         4
100
AcDbLine
 10
1536.5286999334
 20
-88.3750621312
 30
0.0
 11
1536.5286999334
 21
-94.2177984316
 31
0.0
  0
LINE
  5
39
100
AcDbEntity
  8
_X______
  6
CONTINUOUS
 62
         7
100
AcDbLine
 10
1533.2286999334
 20
-85.4539899607
 30
0.0
 11
1533.2286999334
 21
-85.3170892074
 31
0.0
  0
LINE
  5
3A
100
AcDbEntity
  8
_X______
  6
CONTINUOUS
 62
         4
100
AcDbLine
 10
1533.2286999334
 20
-88.2546880449
 30
0.0
 11
1534.5445975948
 21
-86.3753914227
 31
0.0
  0
LINE
  5
3B
100
AcDbEntity
  8
_X______
  6
CONTINUOUS
 62
         4
100
AcDbLine
 10
1536.5286999334
 20
-94.2177984316
 30
0.0
 11
1536.3048394606
 21
-94.3221862844
 31
0.0
  0
LINE
  5
3C
100
AcDbEntity
  8
_X______
  6
CONTINUOUS
 62
         4
100
AcDbLine
 10
1536.3048394606
 20
-94.3221862844
 30
0.0
 11
1536.5286999334
 21
-94.0024803964
 31
0.0
  0
LINE
  5
3D
100
AcDbEntity
  8
_X______
  6
CONTINUOUS
 62
         4
100
AcDbLine
 10
1536.3048394606
 20
-94.3221862844
 30
0.0
 11
1533.2286999334
 21
-92.1682501989
 31
0.0
  0
LINE
  5
3E
100
AcDbEntity
  8
_X______
  6
CONTINUOUS
 62
         4
100
AcDbLine
 10
1536.5286999334
 20
-88.3750621312
 30
0.0
 11
1533.2286999334
 21
-86.0643772551
 31
0.0
  0
LINE
  5
3F
100
AcDbEntity
  8
_X______
  6
CONTINUOUS
 62
         7
100
AcDbLine
 10
1539.1727216423
 20
-90.226426063
 30
0.0
 11
1536.5286999334
 21
-88.3750621312
 31
0.0
  0
LINE
  5
40
100
AcDbEntity
  8
_X______
  6
CONTINUOUS
 62
         7
100
AcDbLine
 10
1536.5286999334
 20
-85.3170892074
 30
0.0
 11
1536.5286999334
 21
-88.3750621312
 31
0.0
  0
LINE
  5
41
100
AcDbEntity
  8
_X______
  6
CONTINUOUS
 62
         7
100
AcDbLine
 10
1536.8786999334
 20
-85.1150166132
 30
0.0
 11
1536.5286999334
 21
-85.3170892074
 31
0.0
  0
LINE
  5
42
100
AcDbEntity
  8
_X______
  6
CONTINUOUS
 62
         7
100
AcDbLine
 10
1533.2286999334
 20
-85.3170892074
 30
0.0
 11
1536.5286999334
 21
-85.3170892074
 31
0.0
  0
LINE
  5
43
100
AcDbEntity
  8
_X______
  6
CONTINUOUS
 62
         7
100
AcDbLine
 10
1532.8786999334
 20
-85.1150166132
 30
0.0
 11
1533.2286999334
 21
-85.3170892074
 31
0.0
  0
LINE
  5
44
100
AcDbEntity
  8
_X______
  6
CONTINUOUS
 62
         4
100
AcDbLine
 10
1532.8786999334
 20
-85.1150166132
 30
0.0
 11
1536.8786999334
 21
-85.1150166132
 31
0.0
  0
LINE
  5
45
100
AcDbEntity
  8
_X______
  6
CONTINUOUS
 62
         7
100
AcDbLine
 10
1530.4488373733
 20
-83.507509241
 30
0.0
 11
1530.4775161951
 21
-83.4665516388
 31
0.0
  0
LINE
  5
46
100
AcDbEntity
  8
_X______
  6
CONTINUOUS
 62
         7
100
AcDbLine
 10
1531.1031389767
 20
-91.2903036885
 30
0.0
 11
1531.3899271948
 21
-90.8807276663
 31
0.0
  0
LINE
  5
47
100
AcDbEntity
  8
_X______
  6
CONTINUOUS
 62
         4
100
AcDbLine
 10
1530.4488373733
 20
-83.507509241
 30
0.0
 11
1533.2286999334
 21
-85.4539899607
 31
0.0
  0
LINE
  5
48
100
AcDbEntity
  8
_X______
  6
CONTINUOUS
 62
         7
100
AcDbLine
 10
1538.9211246846
 20
-93.1021924485
 30
0.0
 11
1539.1727216423
 21
-90.226426063
 31
0.0
  0
LINE
  5
49
100
AcDbEntity
  8
_X______
  6
CONTINUOUS
 62
         7
100
AcDbLine
 10
1538.9211246846
 20
-93.1021924485
 30
0.0
 11
1536.5286999334
 21
-94.2177984316
 31
0.0
  0
LINE
  5
4A
100
AcDbEntity
  8
_X______
  6
CONTINUOUS
 62
         7
100
AcDbLine
 10
1536.5286999334
 20
-94.0024803964
 30
0.0
 11
1539.1727216423
 21
-90.226426063
 31
0.0
  0
LINE
  5
4B
100
AcDbEntity
  8
_X______
  6
CONTINUOUS
 62
         7
100
AcDbLine
 10
1533.2286999334
 20
-86.0643772551
 30
0.0
 11
1530.1620491551
 21
-83.9170852631
 31
0.0
  0
LINE
  5
4C
100
AcDbEntity
  8
_X______
  6
CONTINUOUS
 62
         7
100
AcDbLine
 10
1531.3899271948
 20
-90.8807276663
 30
0.0
 11
1533.2286999334
 21
-88.2546880449
 31
0.0
  0
LINE
  5
4D
100
AcDbEntity
  8
_X______
  6
CONTINUOUS
 62
         7
100
AcDbLine
 10
1533.2286999334
 20
-86.0643772551
 30
0.0
 11
1533.2286999334
 21
-85.4539899607
 31
0.0
  0
LINE
  5
4E
100
AcDbEntity
  8
_X______
  6
CONTINUOUS
 62
         7
100
AcDbLine
 10
1533.2286999334
 20
-85.4539899607
 30
0.0
 11
1534.5445975948
 21
-86.3753914227
 31
0.0
  0
LINE
  5
4F
100
AcDbEntity
  8
_X______
  6
CONTINUOUS
 62
         7
100
AcDbLine
 10
1533.2286999334
 20
-116.3436751498
 30
0.0
 11
1533.2286999334
 21
-92.1682501989
 31
0.0
  0
LINE
  5
50
100
AcDbEntity
  8
_X______
  6
CONTINUOUS
 62
         7
100
AcDbLine
 10
1536.5286999334
 20
-94.2177984316
 30
0.0
 11
1536.5286999334
 21
-116.3436751498
 31
0.0
  0
LINE
  5
51
100
AcDbEntity
  8
_X______
  6
CENTER
 62
         1
100
AcDbLine
 10
1534.8786999334
 20
-78.7087953246
 30
0.0
 11
1534.8786999334
 21
-116.9901454826
 31
0.0
  0
LINE
  5
52
100
AcDbEntity
  8
_X______
  6
CENTER
 62
         1
100
AcDbLine
 10
1257.3639808204
 20
160.1701802397
 30
0.0
 11
1219.8166451685
 21
57.0097233753
 31
0.0
  0
LINE
  5
53
100
AcDbEntity
  8
_X______
  6
CENTER
 62
         1
100
AcDbLine
 10
1230.564660623
 20
72.0274239428
 30
0.0
 11
1221.1677344152
 21
75.4476253761
 31
0.0
  0
POLYLINE
  5
55
100
AcDbEntity
  8
_X______
  6
CONTINUOUS
 62
         7
100
AcDb2dPolyline
 66
         1
 10
0.0
 20
0.0
 30
0.0
 70
         2
  0
VERTEX
  5
57
100
AcDbEntity
  8
_X______
  6
CONTINUOUS
 62
         7
100
AcDbVertex
100
AcDb2dVertex
 10
1227.0632680208
 20
77.0264488322
 30
0.0
 70
         1
  0
VERTEX
  5
59
100
AcDbEntity
  8
_X______
  6
CONTINUOUS
 62
         7
100
AcDbVertex
100
AcDb2dVertex
 10
1226.683266956
 20
77.1194201772
 30
0.0
 70
         1
  0
VERTEX
  5
5B
100
AcDbEntity
  8
_X______
  6
CONTINUOUS
 62
         7
100
AcDbVertex
100
AcDb2dVertex
 10
1226.5061982887
 20
77.134421675
 30
0.0
 70
         1
  0
VERTEX
  5
5D
100
AcDbEntity
  8
_X______
  6
CONTINUOUS
 62
         7
100
AcDbVertex
100
AcDb2dVertex
 10
1226.3215710186
 20
77.1325885356
 30
0.0
 70
         1
  0
VERTEX
  5
5F
100
AcDbEntity
  8
_X______
  6
CONTINUOUS
 62
         7
100
AcDbVertex
100
AcDb2dVertex
 10
1226.130564169
 20
77.1127514845
 30
0.0
 70
         1
  0
VERTEX
  5
61
100
AcDbEntity
  8
_X______
  6
CONTINUOUS
 62
         7
100
AcDbVertex
100
AcDb2dVertex
 10
1225.9345794412
 20
77.0739952132
 30
0.0
 70
         1
  0
VERTEX
  5
63
100
AcDbEntity
  8
_X______
  6
CONTINUOUS
 62
         7
100
AcDbVertex
100
AcDb2dVertex
 10
1225.7352168092
 20
77.015713354
 30
0.0
 70
         1
  0
VERTEX
  5
65
100
AcDbEntity
  8
_X______
  6
CONTINUOUS
 62
         7
100
AcDbVertex
100
AcDb2dVertex
 10
1225.5342375768
 20
76.9376539934
 30
0.0
 70
         1
  0
VERTEX
  5
67
100
AcDbEntity
  8
_X______
  6
CONTINUOUS
 62
         7
100
AcDbVertex
100
AcDb2dVertex
 10
1225.33351605
 20
76.8399514311
 30
0.0
 70
         1
  0
VERTEX
  5
69
100
AcDbEntity
  8
_X______
  6
CONTINUOUS
 62
         7
100
AcDbVertex
100
AcDb2dVertex
 10
1225.1349821801
 20
76.7231406745
 30
0.0
 70
         1
  0
VERTEX
  5
6B
100
AcDbEntity
  8
_X______
  6
CONTINUOUS
 62
         7
100
AcDbVertex
100
AcDb2dVertex
 10
1224.9405586005
 20
76.588152461
 30
0.0
 70
         1
  0
VERTEX
  5
6D
100
AcDbEntity
  8
_X______
  6
CONTINUOUS
 62
         7
100
AcDbVertex
100
AcDb2dVertex
 10
1224.7520962298
 20
76.4362882781
 30
0.0
 70
         1
  0
VERTEX
  5
6F
100
AcDbEntity
  8
_X______
  6
CONTINUOUS
 62
         7
100
AcDbVertex
100
AcDb2dVertex
 10
1224.5117674294
 20
76.2091057275
 30
0.0
 70
         1
  0
VERTEX
  5
71
100
AcDbEntity
  8
_X______
  6
CONTINUOUS
 62
         7
100
AcDbVertex
100
AcDb2dVertex
 10
1224.2888073497
 20
75.9591970514
 30
0.0
 70
         1
  0
VERTEX
  5
73
100
AcDbEntity
  8
_X______
  6
CONTINUOUS
 62
         7
100
AcDbVertex
100
AcDb2dVertex
 10
1224.0860289955
 20
75.6917599393
 30
0.0
 70
         1
  0
VERTEX
  5
75
100
AcDbEntity
  8
_X______
  6
CONTINUOUS
 62
         7
100
AcDbVertex
100
AcDb2dVertex
 10
1223.9053694283
 20
75.4122130042
 30
0.0
 70
         1
  0
VERTEX
  5
77
100
AcDbEntity
  8
_X______
  6
CONTINUOUS
 62
         7
100
AcDbVertex
100
AcDb2dVertex
 10
1223.747872154
 20
75.1258804943
 30
0.0
 70
         1
  0
VERTEX
  5
79
100
AcDbEntity
  8
_X______
  6
CONTINUOUS
 62
         7
100
AcDbVertex
100
AcDb2dVertex
 10
1223.613741859
 20
74.8377256597
 30
0.0
 70
         1
  0
VERTEX
  5
7B
100
AcDbEntity
  8
_X______
  6
CONTINUOUS
 62
         7
100
AcDbVertex
100
AcDb2dVertex
 10
1223.4693427963
 20
74.4554429838
 30
0.0
 70
         1
  0
VERTEX
  5
7D
100
AcDbEntity
  8
_X______
  6
CONTINUOUS
 62
         7
100
AcDbVertex
100
AcDb2dVertex
 10
1223.3632199707
 20
74.0864483734
 30
0.0
 70
         1
  0
VERTEX
  5
7F
100
AcDbEntity
  8
_X______
  6
CONTINUOUS
 62
         7
100
AcDbVertex
100
AcDb2dVertex
 10
1223.2912728494
 20
73.737085333
 30
0.0
 70
         1
  0
VERTEX
  5
81
100
AcDbEntity
  8
_X______
  6
CONTINUOUS
 62
         7
100
AcDbVertex
100
AcDb2dVertex
 10
1223.2487783056
 20
73.411458295
 30
0.0
 70
         1
  0
VERTEX
  5
83
100
AcDbEntity
  8
_X______
  6
CONTINUOUS
 62
         7
100
AcDbVertex
100
AcDb2dVertex
 10
1223.2308841827
 20
73.1117545015
 30
0.0
 70
         1
  0
VERTEX
  5
85
100
AcDbEntity
  8
_X______
  6
CONTINUOUS
 62
         7
100
AcDbVertex
100
AcDb2dVertex
 10
1223.2329570243
 20
72.8386468878
 30
0.0
 70
         1
  0
VERTEX
  5
87
100
AcDbEntity
  8
_X______
  6
CONTINUOUS
 62
         7
100
AcDbVertex
100
AcDb2dVertex
 10
1223.2599702964
 20
72.5119990361
 30
0.0
 70
         1
  0
VERTEX
  5
89
100
AcDbEntity
  8
_X______
  6
CONTINUOUS
 62
         7
100
AcDbVertex
100
AcDb2dVertex
 10
1223.3069203083
 20
72.229614588
 30
0.0
 70
         1
  0
VERTEX
  5
8B
100
AcDbEntity
  8
_X______
  6
CONTINUOUS
 62
         7
100
AcDbVertex
100
AcDb2dVertex
 10
1223.3669028615
 20
71.9871360674
 30
0.0
 70
         1
  0
VERTEX
  5
8D
100
AcDbEntity
  8
_X______
  6
CONTINUOUS
 62
         7
100
AcDbVertex
100
AcDb2dVertex
 10
1223.4595712795
 20
71.7143334851
 30
0.0
 70
         1
  0
VERTEX
  5
8F
100
AcDbEntity
  8
_X______
  6
CONTINUOUS
 62
         7
100
AcDbVertex
100
AcDb2dVertex
 10
1223.5575259524
 20
71.4941811418
 30
0.0
 70
         1
  0
VERTEX
  5
91
100
AcDbEntity
  8
_X______
  6
CONTINUOUS
 62
         7
100
AcDbVertex
100
AcDb2dVertex
 10
1223.6550475763
 20
71.3164934168
 30
0.0
 70
         1
  0
VERTEX
  5
93
100
AcDbEntity
  8
_X______
  6
CONTINUOUS
 62
         7
100
AcDbVertex
100
AcDb2dVertex
 10
1223.7809866716
 20
71.1281249593
 30
0.0
 70
         1
  0
VERTEX
  5
95
100
AcDbEntity
  8
_X______
  6
CONTINUOUS
 62
         7
100
AcDbVertex
100
AcDb2dVertex
 10
1223.9349251082
 20
70.9425180195
 30
0.0
 70
         1
  0
VERTEX
  5
97
100
AcDbEntity
  8
_X______
  6
CONTINUOUS
 62
         7
100
AcDbVertex
100
AcDb2dVertex
 10
1224.0655499508
 20
70.8138587098
 30
0.0
 70
         1
  0
VERTEX
  5
99
100
AcDbEntity
  8
_X______
  6
CONTINUOUS
 62
         7
100
AcDbVertex
100
AcDb2dVertex
 10
1224.2105764493
 20
70.6954910608
 30
0.0
 70
         1
  0
VERTEX
  5
9B
100
AcDbEntity
  8
_X______
  6
CONTINUOUS
 62
         7
100
AcDbVertex
100
AcDb2dVertex
 10
1224.358036374
 20
70.5970733752
 30
0.0
 70
         1
  0
VERTEX
  5
9D
100
AcDbEntity
  8
_X______
  6
CONTINUOUS
 62
         7
100
AcDbVertex
100
AcDb2dVertex
 10
1224.5348220658
 20
70.5037597257
 30
0.0
 70
         1
  0
VERTEX
  5
9F
100
AcDbEntity
  8
_X______
  6
CONTINUOUS
 62
         7
100
AcDbVertex
100
AcDb2dVertex
 10
1224.6691270175
 20
70.4486004867
 30
0.0
 70
         1
  0
VERTEX
  5
A1
100
AcDbEntity
  8
_X______
  6
CONTINUOUS
 62
         7
100
AcDbVertex
100
AcDb2dVertex
 10
1224.6691270175
 20
70.4486004867
 30
0.0
 70
         1
  0
VERTEX
  5
A3
100
AcDbEntity
  8
_X______
  6
CONTINUOUS
 62
         7
100
AcDbVertex
100
AcDb2dVertex
 10
1225.0491280822
 20
70.3556291418
 30
0.0
 70
         1
  0
VERTEX
  5
A5
100
AcDbEntity
  8
_X______
  6
CONTINUOUS
 62
         7
100
AcDbVertex
100
AcDb2dVertex
 10
1225.2261967495
 20
70.3406276439
 30
0.0
 70
         1
  0
VERTEX
  5
A7
100
AcDbEntity
  8
_X______
  6
CONTINUOUS
 62
         7
100
AcDbVertex
100
AcDb2dVertex
 10
1225.4108240196
 20
70.3424607834
 30
0.0
 70
         1
  0
VERTEX
  5
A9
100
AcDbEntity
  8
_X______
  6
CONTINUOUS
 62
         7
100
AcDbVertex
100
AcDb2dVertex
 10
1225.6018308693
 20
70.3622978345
 30
0.0
 70
         1
  0
VERTEX
  5
AB
100
AcDbEntity
  8
_X______
  6
CONTINUOUS
 62
         7
100
AcDbVertex
100
AcDb2dVertex
 10
1225.797815597
 20
70.4010541058
 30
0.0
 70
         1
  0
VERTEX
  5
AD
100
AcDbEntity
  8
_X______
  6
CONTINUOUS
 62
         7
100
AcDbVertex
100
AcDb2dVertex
 10
1225.997178229
 20
70.459335965
 30
0.0
 70
         1
  0
VERTEX
  5
AF
100
AcDbEntity
  8
_X______
  6
CONTINUOUS
 62
         7
100
AcDbVertex
100
AcDb2dVertex
 10
1226.1981574615
 20
70.5373953255
 30
0.0
 70
         1
  0
VERTEX
  5
B1
100
AcDbEntity
  8
_X______
  6
CONTINUOUS
 62
         7
100
AcDbVertex
100
AcDb2dVertex
 10
1226.3988789882
 20
70.6350978879
 30
0.0
 70
         1
  0
VERTEX
  5
B3
100
AcDbEntity
  8
_X______
  6
CONTINUOUS
 62
         7
100
AcDbVertex
100
AcDb2dVertex
 10
1226.5974128582
 20
70.7519086445
 30
0.0
 70
         1
  0
VERTEX
  5
B5
100
AcDbEntity
  8
_X______
  6
CONTINUOUS
 62
         7
100
AcDbVertex
100
AcDb2dVertex
 10
1226.7918364377
 20
70.8868968579
 30
0.0
 70
         1
  0
VERTEX
  5
B7
100
AcDbEntity
  8
_X______
  6
CONTINUOUS
 62
         7
100
AcDbVertex
100
AcDb2dVertex
 10
1226.9802988084
 20
71.0387610408
 30
0.0
 70
         1
  0
VERTEX
  5
B9
100
AcDbEntity
  8
_X______
  6
CONTINUOUS
 62
         7
100
AcDbVertex
100
AcDb2dVertex
 10
1227.2206276088
 20
71.2659435914
 30
0.0
 70
         1
  0
VERTEX
  5
BB
100
AcDbEntity
  8
_X______
  6
CONTINUOUS
 62
         7
100
AcDbVertex
100
AcDb2dVertex
 10
1227.4435876885
 20
71.5158522676
 30
0.0
 70
         1
  0
VERTEX
  5
BD
100
AcDbEntity
  8
_X______
  6
CONTINUOUS
 62
         7
100
AcDbVertex
100
AcDb2dVertex
 10
1227.6463660427
 20
71.7832893797
 30
0.0
 70
         1
  0
VERTEX
  5
BF
100
AcDbEntity
  8
_X______
  6
CONTINUOUS
 62
         7
100
AcDbVertex
100
AcDb2dVertex
 10
1227.82702561
 20
72.0628363148
 30
0.0
 70
         1
  0
VERTEX
  5
C1
100
AcDbEntity
  8
_X______
  6
CONTINUOUS
 62
         7
100
AcDbVertex
100
AcDb2dVertex
 10
1227.9845228842
 20
72.3491688246
 30
0.0
 70
         1
  0
VERTEX
  5
C3
100
AcDbEntity
  8
_X______
  6
CONTINUOUS
 62
         7
100
AcDbVertex
100
AcDb2dVertex
 10
1228.1186531792
 20
72.6373236592
 30
0.0
 70
         1
  0
VERTEX
  5
C5
100
AcDbEntity
  8
_X______
  6
CONTINUOUS
 62
         7
100
AcDbVertex
100
AcDb2dVertex
 10
1228.2630522419
 20
73.0196063351
 30
0.0
 70
         1
  0
VERTEX
  5
C7
100
AcDbEntity
  8
_X______
  6
CONTINUOUS
 62
         7
100
AcDbVertex
100
AcDb2dVertex
 10
1228.3691750675
 20
73.3886009455
 30
0.0
 70
         1
  0
VERTEX
  5
C9
100
AcDbEntity
  8
_X______
  6
CONTINUOUS
 62
         7
100
AcDbVertex
100
AcDb2dVertex
 10
1228.4411221888
 20
73.737963986
 30
0.0
 70
         1
  0
VERTEX
  5
CB
100
AcDbEntity
  8
_X______
  6
CONTINUOUS
 62
         7
100
AcDbVertex
100
AcDb2dVertex
 10
1228.4836167326
 20
74.063591024
 30
0.0
 70
         1
  0
VERTEX
  5
CD
100
AcDbEntity
  8
_X______
  6
CONTINUOUS
 62
         7
100
AcDbVertex
100
AcDb2dVertex
 10
1228.5015108555
 20
74.3632948174
 30
0.0
 70
         1
  0
VERTEX
  5
CF
100
AcDbEntity
  8
_X______
  6
CONTINUOUS
 62
         7
100
AcDbVertex
100
AcDb2dVertex
 10
1228.4994380139
 20
74.6364024311
 30
0.0
 70
         1
  0
VERTEX
  5
D1
100
AcDbEntity
  8
_X______
  6
CONTINUOUS
 62
         7
100
AcDbVertex
100
AcDb2dVertex
 10
1228.4724247418
 20
74.9630502829
 30
0.0
 70
         1
  0
VERTEX
  5
D3
100
AcDbEntity
  8
_X______
  6
CONTINUOUS
 62
         7
100
AcDbVertex
100
AcDb2dVertex
 10
1228.4254747299
 20
75.245434731
 30
0.0
 70
         1
  0
VERTEX
  5
D5
100
AcDbEntity
  8
_X______
  6
CONTINUOUS
 62
         7
100
AcDbVertex
100
AcDb2dVertex
 10
1228.3654921767
 20
75.4879132515
 30
0.0
 70
         1
  0
VERTEX
  5
D7
100
AcDbEntity
  8
_X______
  6
CONTINUOUS
 62
         7
100
AcDbVertex
100
AcDb2dVertex
 10
1228.2728237587
 20
75.7607158339
 30
0.0
 70
         1
  0
VERTEX
  5
D9
100
AcDbEntity
  8
_X______
  6
CONTINUOUS
 62
         7
100
AcDbVertex
100
AcDb2dVertex
 10
1228.1748690858
 20
75.9808681771
 30
0.0
 70
         1
  0
VERTEX
  5
DB
100
AcDbEntity
  8
_X______
  6
CONTINUOUS
 62
         7
100
AcDbVertex
100
AcDb2dVertex
 10
1228.0773474619
 20
76.1585559021
 30
0.0
 70
         1
  0
VERTEX
  5
DD
100
AcDbEntity
  8
_X______
  6
CONTINUOUS
 62
         7
100
AcDbVertex
100
AcDb2dVertex
 10
1227.9514083666
 20
76.3469243596
 30
0.0
 70
         1
  0
VERTEX
  5
DF
100
AcDbEntity
  8
_X______
  6
CONTINUOUS
 62
         7
100
AcDbVertex
100
AcDb2dVertex
 10
1227.79746993
 20
76.5325312995
 30
0.0
 70
         1
  0
VERTEX
  5
E1
100
AcDbEntity
  8
_X______
  6
CONTINUOUS
 62
         7
100
AcDbVertex
100
AcDb2dVertex
 10
1227.6668450875
 20
76.6611906092
 30
0.0
 70
         1
  0
VERTEX
  5
E3
100
AcDbEntity
  8
_X______
  6
CONTINUOUS
 62
         7
100
AcDbVertex
100
AcDb2dVertex
 10
1227.521818589
 20
76.7795582582
 30
0.0
 70
         1
  0
VERTEX
  5
E5
100
AcDbEntity
  8
_X______
  6
CONTINUOUS
 62
         7
100
AcDbVertex
100
AcDb2dVertex
 10
1227.3743586643
 20
76.8779759438
 30
0.0
 70
         1
  0
VERTEX
  5
E7
100
AcDbEntity
  8
_X______
  6
CONTINUOUS
 62
         7
100
AcDbVertex
100
AcDb2dVertex
 10
1227.1975729724
 20
76.9712895933
 30
0.0
 70
         1
  0
VERTEX
  5
E9
100
AcDbEntity
  8
_X______
  6
CONTINUOUS
 62
         7
100
AcDbVertex
100
AcDb2dVertex
 10
1227.0632680208
 20
77.0264488322
 30
0.0
 70
         1
  0
SEQEND
  5
EB
100
AcDbEntity
  8
_X______
  6
CONTINUOUS
 62
         7
  0
POLYLINE
  5
ED
100
AcDbEntity
  8
_X______
  6
CONTINUOUS
 62
         7
100
AcDb3dPolyline
 66
         1
 10
0.0
 20
0.0
 30
0.0
 70
         8
  0
VERTEX
  5
EF
100
AcDbEntity
  8
_X______
  6
CONTINUOUS
 62
         7
100
AcDbVertex
100
AcDb3dPolylineVertex
 10
1253.1887669199
 20
153.3129273476
 30
0.0
 70
        32
  0
VERTEX
  5
F1
100
AcDbEntity
  8
_X______
  6
CONTINUOUS
 62
         7
100
AcDbVertex
100
AcDb3dPolylineVertex
 10
1253.1887669199
 20
153.3129273476
 30
0.0
 70
        32
  0
SEQEND
  5
F3
100
AcDbEntity
  8
_X______
  6
CONTINUOUS
 62
         7
  0
LINE
  5
F4
100
AcDbEntity
  8
_X______
  6
CENTER
 62
         1
100
AcDbLine
 10
1258.6789463373
 20
149.057203501
 30
0.0
 11
1249.2820201295
 21
152.4774049342
 31
0.0
  0
POLYLINE
  5
F6
100
AcDbEntity
  8
_X______
  6
CONTINUOUS
 62
         7
100
AcDb2dPolyline
 66
         1
 10
0.0
 20
0.0
 30
0.0
 70
         2
  0
VERTEX
  5
F8
100
AcDbEntity
  8
_X______
  6
CONTINUOUS
 62
         7
100
AcDbVertex
100
AcDb2dVertex
 10
1255.177553735
 20
154.0562283904
 30
0.0
 70
         1
  0
VERTEX
  5
FA
100
AcDbEntity
  8
_X______
  6
CONTINUOUS
 62
         7
100
AcDbVertex
100
AcDb2dVertex
 10
1254.7975526703
 20
154.1491997353
 30
0.0
 70
         1
  0
VERTEX
  5
FC
100
AcDbEntity
  8
_X______
  6
CONTINUOUS
 62
         7
100
AcDbVertex
100
AcDb2dVertex
 10
1254.620484003
 20
154.1642012332
 30
0.0
 70
         1
  0
VERTEX
  5
FE
100
AcDbEntity
  8
_X______
  6
CONTINUOUS
 62
         7
100
AcDbVertex
100
AcDb2dVertex
 10
1254.4358567329
 20
154.1623680937
 30
0.0
 70
         1
  0
VERTEX
  5
100
100
AcDbEntity
  8
_X______
  6
CONTINUOUS
 62
         7
100
AcDbVertex
100
AcDb2dVertex
 10
1254.2448498832
 20
154.1425310426
 30
0.0
 70
         1
  0
VERTEX
  5
102
100
AcDbEntity
  8
_X______
  6
CONTINUOUS
 62
         7
100
AcDbVertex
100
AcDb2dVertex
 10
1254.0488651555
 20
154.1037747713
 30
0.0
 70
         1
  0
VERTEX
  5
104
100
AcDbEntity
  8
_X______
  6
CONTINUOUS
 62
         7
100
AcDbVertex
100
AcDb2dVertex
 10
1253.8495025235
 20
154.0454929121
 30
0.0
 70
         1
  0
VERTEX
  5
106
100
AcDbEntity
  8
_X______
  6
CONTINUOUS
 62
         7
100
AcDbVertex
100
AcDb2dVertex
 10
1253.6485232911
 20
153.9674335516
 30
0.0
 70
         1
  0
VERTEX
  5
108
100
AcDbEntity
  8
_X______
  6
CONTINUOUS
 62
         7
100
AcDbVertex
100
AcDb2dVertex
 10
1253.4478017643
 20
153.8697309892
 30
0.0
 70
         1
  0
VERTEX
  5
10A
100
AcDbEntity
  8
_X______
  6
CONTINUOUS
 62
         7
100
AcDbVertex
100
AcDb2dVertex
 10
1253.2492678944
 20
153.7529202326
 30
0.0
 70
         1
  0
VERTEX
  5
10C
100
AcDbEntity
  8
_X______
  6
CONTINUOUS
 62
         7
100
AcDbVertex
100
AcDb2dVertex
 10
1253.0548443148
 20
153.6179320192
 30
0.0
 70
         1
  0
VERTEX
  5
10E
100
AcDbEntity
  8
_X______
  6
CONTINUOUS
 62
         7
100
AcDbVertex
100
AcDb2dVertex
 10
1252.8663819441
 20
153.4660678363
 30
0.0
 70
         1
  0
VERTEX
  5
110
100
AcDbEntity
  8
_X______
  6
CONTINUOUS
 62
         7
100
AcDbVertex
100
AcDb2dVertex
 10
1252.6260531437
 20
153.2388852857
 30
0.0
 70
         1
  0
VERTEX
  5
112
100
AcDbEntity
  8
_X______
  6
CONTINUOUS
 62
         7
100
AcDbVertex
100
AcDb2dVertex
 10
1252.403093064
 20
152.9889766095
 30
0.0
 70
         1
  0
VERTEX
  5
114
100
AcDbEntity
  8
_X______
  6
CONTINUOUS
 62
         7
100
AcDbVertex
100
AcDb2dVertex
 10
1252.2003147098
 20
152.7215394974
 30
0.0
 70
         1
  0
VERTEX
  5
116
100
AcDbEntity
  8
_X______
  6
CONTINUOUS
 62
         7
100
AcDbVertex
100
AcDb2dVertex
 10
1252.0196551425
 20
152.4419925623
 30
0.0
 70
         1
  0
VERTEX
  5
118
100
AcDbEntity
  8
_X______
  6
CONTINUOUS
 62
         7
100
AcDbVertex
100
AcDb2dVertex
 10
1251.8621578683
 20
152.1556600525
 30
0.0
 70
         1
  0
VERTEX
  5
11A
100
AcDbEntity
  8
_X______
  6
CONTINUOUS
 62
         7
100
AcDbVertex
100
AcDb2dVertex
 10
1251.7280275733
 20
151.8675052179
 30
0.0
 70
         1
  0
VERTEX
  5
11C
100
AcDbEntity
  8
_X______
  6
CONTINUOUS
 62
         7
100
AcDbVertex
100
AcDb2dVertex
 10
1251.5836285106
 20
151.485222542
 30
0.0
 70
         1
  0
VERTEX
  5
11E
100
AcDbEntity
  8
_X______
  6
CONTINUOUS
 62
         7
100
AcDbVertex
100
AcDb2dVertex
 10
1251.477505685
 20
151.1162279315
 30
0.0
 70
         1
  0
VERTEX
  5
120
100
AcDbEntity
  8
_X______
  6
CONTINUOUS
 62
         7
100
AcDbVertex
100
AcDb2dVertex
 10
1251.4055585637
 20
150.7668648911
 30
0.0
 70
         1
  0
VERTEX
  5
122
100
AcDbEntity
  8
_X______
  6
CONTINUOUS
 62
         7
100
AcDbVertex
100
AcDb2dVertex
 10
1251.3630640199
 20
150.4412378531
 30
0.0
 70
         1
  0
VERTEX
  5
124
100
AcDbEntity
  8
_X______
  6
CONTINUOUS
 62
         7
100
AcDbVertex
100
AcDb2dVertex
 10
1251.345169897
 20
150.1415340596
 30
0.0
 70
         1
  0
VERTEX
  5
126
100
AcDbEntity
  8
_X______
  6
CONTINUOUS
 62
         7
100
AcDbVertex
100
AcDb2dVertex
 10
1251.3472427386
 20
149.8684264459
 30
0.0
 70
         1
  0
VERTEX
  5
128
100
AcDbEntity
  8
_X______
  6
CONTINUOUS
 62
         7
100
AcDbVertex
100
AcDb2dVertex
 10
1251.3742560107
 20
149.5417785942
 30
0.0
 70
         1
  0
VERTEX
  5
12A
100
AcDbEntity
  8
_X______
  6
CONTINUOUS
 62
         7
100
AcDbVertex
100
AcDb2dVertex
 10
1251.4212060226
 20
149.2593941461
 30
0.0
 70
         1
  0
VERTEX
  5
12C
100
AcDbEntity
  8
_X______
  6
CONTINUOUS
 62
         7
100
AcDbVertex
100
AcDb2dVertex
 10
1251.4811885758
 20
149.0169156255
 30
0.0
 70
         1
  0
VERTEX
  5
12E
100
AcDbEntity
  8
_X______
  6
CONTINUOUS
 62
         7
100
AcDbVertex
100
AcDb2dVertex
 10
1251.5738569938
 20
148.7441130432
 30
0.0
 70
         1
  0
VERTEX
  5
130
100
AcDbEntity
  8
_X______
  6
CONTINUOUS
 62
         7
100
AcDbVertex
100
AcDb2dVertex
 10
1251.6718116667
 20
148.5239606999
 30
0.0
 70
         1
  0
VERTEX
  5
132
100
AcDbEntity
  8
_X______
  6
CONTINUOUS
 62
         7
100
AcDbVertex
100
AcDb2dVertex
 10
1251.7693332906
 20
148.346272975
 30
0.0
 70
         1
  0
VERTEX
  5
134
100
AcDbEntity
  8
_X______
  6
CONTINUOUS
 62
         7
100
AcDbVertex
100
AcDb2dVertex
 10
1251.8952723859
 20
148.1579045175
 30
0.0
 70
         1
  0
VERTEX
  5
136
100
AcDbEntity
  8
_X______
  6
CONTINUOUS
 62
         7
100
AcDbVertex
100
AcDb2dVertex
 10
1252.0492108225
 20
147.9722975776
 30
0.0
 70
         1
  0
VERTEX
  5
138
100
AcDbEntity
  8
_X______
  6
CONTINUOUS
 62
         7
100
AcDbVertex
100
AcDb2dVertex
 10
1252.1798356651
 20
147.8436382679
 30
0.0
 70
         1
  0
VERTEX
  5
13A
100
AcDbEntity
  8
_X______
  6
CONTINUOUS
 62
         7
100
AcDbVertex
100
AcDb2dVertex
 10
1252.3248621636
 20
147.7252706189
 30
0.0
 70
         1
  0
VERTEX
  5
13C
100
AcDbEntity
  8
_X______
  6
CONTINUOUS
 62
         7
100
AcDbVertex
100
AcDb2dVertex
 10
1252.4723220883
 20
147.6268529333
 30
0.0
 70
         1
  0
VERTEX
  5
13E
100
AcDbEntity
  8
_X______
  6
CONTINUOUS
 62
         7
100
AcDbVertex
100
AcDb2dVertex
 10
1252.6491077801
 20
147.5335392838
 30
0.0
 70
         1
  0
VERTEX
  5
140
100
AcDbEntity
  8
_X______
  6
CONTINUOUS
 62
         7
100
AcDbVertex
100
AcDb2dVertex
 10
1252.7834127318
 20
147.4783800449
 30
0.0
 70
         1
  0
VERTEX
  5
142
100
AcDbEntity
  8
_X______
  6
CONTINUOUS
 62
         7
100
AcDbVertex
100
AcDb2dVertex
 10
1252.7834127318
 20
147.4783800449
 30
0.0
 70
         1
  0
VERTEX
  5
144
100
AcDbEntity
  8
_X______
  6
CONTINUOUS
 62
         7
100
AcDbVertex
100
AcDb2dVertex
 10
1253.1634137965
 20
147.3854086999
 30
0.0
 70
         1
  0
VERTEX
  5
146
100
AcDbEntity
  8
_X______
  6
CONTINUOUS
 62
         7
100
AcDbVertex
100
AcDb2dVertex
 10
1253.3404824638
 20
147.3704072021
 30
0.0
 70
         1
  0
VERTEX
  5
148
100
AcDbEntity
  8
_X______
  6
CONTINUOUS
 62
         7
100
AcDbVertex
100
AcDb2dVertex
 10
1253.5251097339
 20
147.3722403415
 30
0.0
 70
         1
  0
VERTEX
  5
14A
100
AcDbEntity
  8
_X______
  6
CONTINUOUS
 62
         7
100
AcDbVertex
100
AcDb2dVertex
 10
1253.7161165836
 20
147.3920773926
 30
0.0
 70
         1
  0
VERTEX
  5
14C
100
AcDbEntity
  8
_X______
  6
CONTINUOUS
 62
         7
100
AcDbVertex
100
AcDb2dVertex
 10
1253.9121013113
 20
147.4308336639
 30
0.0
 70
         1
  0
VERTEX
  5
14E
100
AcDbEntity
  8
_X______
  6
CONTINUOUS
 62
         7
100
AcDbVertex
100
AcDb2dVertex
 10
1254.1114639433
 20
147.4891155231
 30
0.0
 70
         1
  0
VERTEX
  5
150
100
AcDbEntity
  8
_X______
  6
CONTINUOUS
 62
         7
100
AcDbVertex
100
AcDb2dVertex
 10
1254.3124431757
 20
147.5671748836
 30
0.0
 70
         1
  0
VERTEX
  5
152
100
AcDbEntity
  8
_X______
  6
CONTINUOUS
 62
         7
100
AcDbVertex
100
AcDb2dVertex
 10
1254.5131647025
 20
147.664877446
 30
0.0
 70
         1
  0
VERTEX
  5
154
100
AcDbEntity
  8
_X______
  6
CONTINUOUS
 62
         7
100
AcDbVertex
100
AcDb2dVertex
 10
1254.7116985724
 20
147.7816882026
 30
0.0
 70
         1
  0
VERTEX
  5
156
100
AcDbEntity
  8
_X______
  6
CONTINUOUS
 62
         7
100
AcDbVertex
100
AcDb2dVertex
 10
1254.906122152
 20
147.9166764161
 30
0.0
 70
         1
  0
VERTEX
  5
158
100
AcDbEntity
  8
_X______
  6
CONTINUOUS
 62
         7
100
AcDbVertex
100
AcDb2dVertex
 10
1255.0945845227
 20
148.068540599
 30
0.0
 70
         1
  0
VERTEX
  5
15A
100
AcDbEntity
  8
_X______
  6
CONTINUOUS
 62
         7
100
AcDbVertex
100
AcDb2dVertex
 10
1255.3349133231
 20
148.2957231496
 30
0.0
 70
         1
  0
VERTEX
  5
15C
100
AcDbEntity
  8
_X______
  6
CONTINUOUS
 62
         7
100
AcDbVertex
100
AcDb2dVertex
 10
1255.5578734028
 20
148.5456318257
 30
0.0
 70
         1
  0
VERTEX
  5
15E
100
AcDbEntity
  8
_X______
  6
CONTINUOUS
 62
         7
100
AcDbVertex
100
AcDb2dVertex
 10
1255.760651757
 20
148.8130689378
 30
0.0
 70
         1
  0
VERTEX
  5
160
100
AcDbEntity
  8
_X______
  6
CONTINUOUS
 62
         7
100
AcDbVertex
100
AcDb2dVertex
 10
1255.9413113243
 20
149.0926158729
 30
0.0
 70
         1
  0
VERTEX
  5
162
100
AcDbEntity
  8
_X______
  6
CONTINUOUS
 62
         7
100
AcDbVertex
100
AcDb2dVertex
 10
1256.0988085985
 20
149.3789483828
 30
0.0
 70
         1
  0
VERTEX
  5
164
100
AcDbEntity
  8
_X______
  6
CONTINUOUS
 62
         7
100
AcDbVertex
100
AcDb2dVertex
 10
1256.2329388935
 20
149.6671032173
 30
0.0
 70
         1
  0
VERTEX
  5
166
100
AcDbEntity
  8
_X______
  6
CONTINUOUS
 62
         7
100
AcDbVertex
100
AcDb2dVertex
 10
1256.3773379562
 20
150.0493858933
 30
0.0
 70
         1
  0
VERTEX
  5
168
100
AcDbEntity
  8
_X______
  6
CONTINUOUS
 62
         7
100
AcDbVertex
100
AcDb2dVertex
 10
1256.4834607818
 20
150.4183805037
 30
0.0
 70
         1
  0
VERTEX
  5
16A
100
AcDbEntity
  8
_X______
  6
CONTINUOUS
 62
         7
100
AcDbVertex
100
AcDb2dVertex
 10
1256.5554079031
 20
150.7677435441
 30
0.0
 70
         1
  0
VERTEX
  5
16C
100
AcDbEntity
  8
_X______
  6
CONTINUOUS
 62
         7
100
AcDbVertex
100
AcDb2dVertex
 10
1256.5979024469
 20
151.0933705821
 30
0.0
 70
         1
  0
VERTEX
  5
16E
100
AcDbEntity
  8
_X______
  6
CONTINUOUS
 62
         7
100
AcDbVertex
100
AcDb2dVertex
 10
1256.6157965698
 20
151.3930743756
 30
0.0
 70
         1
  0
VERTEX
  5
170
100
AcDbEntity
  8
_X______
  6
CONTINUOUS
 62
         7
100
AcDbVertex
100
AcDb2dVertex
 10
1256.6137237282
 20
151.6661819893
 30
0.0
 70
         1
  0
VERTEX
  5
172
100
AcDbEntity
  8
_X______
  6
CONTINUOUS
 62
         7
100
AcDbVertex
100
AcDb2dVertex
 10
1256.5867104561
 20
151.992829841
 30
0.0
 70
         1
  0
VERTEX
  5
174
100
AcDbEntity
  8
_X______
  6
CONTINUOUS
 62
         7
100
AcDbVertex
100
AcDb2dVertex
 10
1256.5397604442
 20
152.2752142891
 30
0.0
 70
         1
  0
VERTEX
  5
176
100
AcDbEntity
  8
_X______
  6
CONTINUOUS
 62
         7
100
AcDbVertex
100
AcDb2dVertex
 10
1256.479777891
 20
152.5176928097
 30
0.0
 70
         1
  0
VERTEX
  5
178
100
AcDbEntity
  8
_X______
  6
CONTINUOUS
 62
         7
100
AcDbVertex
100
AcDb2dVertex
 10
1256.387109473
 20
152.790495392
 30
0.0
 70
         1
  0
VERTEX
  5
17A
100
AcDbEntity
  8
_X______
  6
CONTINUOUS
 62
         7
100
AcDbVertex
100
AcDb2dVertex
 10
1256.2891548001
 20
153.0106477353
 30
0.0
 70
         1
  0
VERTEX
  5
17C
100
AcDbEntity
  8
_X______
  6
CONTINUOUS
 62
         7
100
AcDbVertex
100
AcDb2dVertex
 10
1256.1916331762
 20
153.1883354603
 30
0.0
 70
         1
  0
VERTEX
  5
17E
100
AcDbEntity
  8
_X______
  6
CONTINUOUS
 62
         7
100
AcDbVertex
100
AcDb2dVertex
 10
1256.0656940809
 20
153.3767039178
 30
0.0
 70
         1
  0
VERTEX
  5
180
100
AcDbEntity
  8
_X______
  6
CONTINUOUS
 62
         7
100
AcDbVertex
100
AcDb2dVertex
 10
1255.9117556443
 20
153.5623108576
 30
0.0
 70
         1
  0
VERTEX
  5
182
100
AcDbEntity
  8
_X______
  6
CONTINUOUS
 62
         7
100
AcDbVertex
100
AcDb2dVertex
 10
1255.7811308017
 20
153.6909701673
 30
0.0
 70
         1
  0
VERTEX
  5
184
100
AcDbEntity
  8
_X______
  6
CONTINUOUS
 62
         7
100
AcDbVertex
100
AcDb2dVertex
 10
1255.6361043032
 20
153.8093378163
 30
0.0
 70
         1
  0
VERTEX
  5
186
100
AcDbEntity
  8
_X______
  6
CONTINUOUS
 62
         7
100
AcDbVertex
100
AcDb2dVertex
 10
1255.4886443785
 20
153.9077555019
 30
0.0
 70
         1
  0
VERTEX
  5
188
100
AcDbEntity
  8
_X______
  6
CONTINUOUS
 62
         7
100
AcDbVertex
100
AcDb2dVertex
 10
1255.3118586867
 20
154.0010691514
 30
0.0
 70
         1
  0
VERTEX
  5
18A
100
AcDbEntity
  8
_X______
  6
CONTINUOUS
 62
         7
100
AcDbVertex
100
AcDb2dVertex
 10
1255.177553735
 20
154.0562283904
 30
0.0
 70
         1
  0
SEQEND
  5
18C
100
AcDbEntity
  8
_X______
  6
CONTINUOUS
 62
         7
  0
LINE
  5
18D
100
AcDbEntity
  8
_X______
  6
CENTER
 62
         1
100
AcDbLine
 10
1827.5565483995
 20
162.469463445
 30
0.0
 11
1866.9196118365
 21
54.3203354914
 31
0.0
  0
LINE
  5
18E
100
AcDbEntity
  8
_X______
  6
DASHED
 62
         2
100
AcDbLine
 10
1848.4458089771
 20
100.2524144385
 30
0.0
 11
1858.4367512304
 21
72.8025261986
 31
0.0
  0
LINE
  5
18F
100
AcDbEntity
  8
_X______
  6
DASHED
 62
         2
100
AcDbLine
 10
1859.5443434151
 20
68.7361101411
 30
0.0
 11
1858.1078588132
 21
72.6828191484
 31
0.0
  0
LINE
  5
190
100
AcDbEntity
  8
_X______
  6
DASHED
 62
         2
100
AcDbLine
 10
1861.8666292963
 20
74.0508997217
 30
0.0
 11
1858.1078588132
 21
72.6828191484
 31
0.0
  0
LINE
  5
191
100
AcDbEntity
  8
_X______
  6
DASHED
 62
         2
100
AcDbLine
 10
1863.3031138983
 20
70.1041907144
 30
0.0
 11
1861.8666292963
 21
74.0508997217
 31
0.0
  0
LINE
  5
192
100
AcDbEntity
  8
_X______
  6
DASHED
 62
         2
100
AcDbLine
 10
1851.9575956263
 20
100.2524144385
 30
0.0
 11
1861.537736879
 21
73.9311926715
 31
0.0
  0
LINE
  5
193
100
AcDbEntity
  8
_X______
  6
DASHED
 62
         2
100
AcDbLine
 10
1828.3650050828
 20
154.4006381627
 30
0.0
 11
1829.8014896848
 21
150.4539291554
 31
0.0
  0
LINE
  5
194
100
AcDbEntity
  8
_X______
  6
DASHED
 62
         2
100
AcDbLine
 10
1830.130382102
 20
150.5736362055
 30
0.0
 11
1839.7105233548
 21
124.2524144385
 31
0.0
  0
LINE
  5
195
100
AcDbEntity
  8
_X______
  6
DASHED
 62
         2
100
AcDbLine
 10
1832.1237755659
 20
155.768718736
 30
0.0
 11
1833.5602601679
 21
151.8220097287
 31
0.0
  0
LINE
  5
196
100
AcDbEntity
  8
_X______
  6
DASHED
 62
         2
100
AcDbLine
 10
1829.8014896848
 20
150.4539291554
 30
0.0
 11
1833.5602601679
 21
151.8220097287
 31
0.0
  0
LINE
  5
197
100
AcDbEntity
  8
_X______
  6
DASHED
 62
         2
100
AcDbLine
 10
1833.2313677506
 20
151.7023026785
 30
0.0
 11
1843.2223100039
 21
124.2524144385
 31
0.0
  0
LINE
  5
198
100
AcDbEntity
  8
L1_150
  6
CONTINUOUS
 62
         7
100
AcDbLine
 10
1639.5054601127
 20
-116.3436751498
 30
0.0
 11
1639.5054601127
 21
-137.1363580766
 31
0.0
  0
LINE
  5
199
100
AcDbEntity
  8
L1_150
  6
CONTINUOUS
 62
         7
100
AcDbLine
 10
1641.2786999334
 20
-134.0650166132
 30
0.0
 11
1639.5054601127
 21
-137.1363580766
 31
0.0
  0
LINE
  5
19A
100
AcDbEntity
  8
L1_150
  6
CONTINUOUS
 62
         7
100
AcDbLine
 10
1641.2786999334
 20
-119.4150166132
 30
0.0
 11
1639.5054601127
 21
-116.3436751498
 31
0.0
  0
LINE
  5
19B
100
AcDbEntity
  8
L1_150
  6
CONTINUOUS
 62
         7
100
AcDbLine
 10
1639.5054601127
 20
-137.1363580766
 30
0.0
 11
1460.7224811384
 21
-137.1363580766
 31
0.0
  0
LINE
  5
19C
100
AcDbEntity
  8
L1_150
  6
CONTINUOUS
 62
         7
100
AcDbLine
 10
1639.5054601127
 20
-116.3436751498
 30
0.0
 11
1460.7224811384
 21
-116.3436751498
 31
0.0
  0
ARC
  5
19D
100
AcDbEntity
  8
L1_150
  6
CONTINUOUS
 62
         7
100
AcDbCircle
 10
1557.0485931522
 20
-162.1650166132
 30
0.0
 40
0.5
100
AcDbArc
 50
45.0
 51
90.0
  0
LINE
  5
19E
100
AcDbEntity
  8
L1_150
  6
CONTINUOUS
 62
         7
100
AcDbLine
 10
1558.8306999334
 20
-163.2400166132
 30
0.0
 11
1557.4021465428
 21
-161.8114632226
 31
0.0
  0
ARC
  5
19F
100
AcDbEntity
  8
L1_150
  6
CONTINUOUS
 62
         7
100
AcDbCircle
 10
1557.0485931522
 20
-91.3150166132
 30
0.0
 40
0.5
100
AcDbArc
 50
270.0
 51
315.0
  0
LINE
  5
1A0
100
AcDbEntity
  8
L1_150
  6
CONTINUOUS
 62
         7
100
AcDbLine
 10
1558.8306999334
 20
-90.2400166132
 30
0.0
 11
1557.4021465428
 21
-91.6685700038
 31
0.0
  0
LINE
  5
1A1
100
AcDbEntity
  8
_Y__________
  6
CONTINUOUS
 62
         7
100
AcDbLine
 10
1881.3340594905
 20
103.7671330643
 30
0.0
 11
1881.3340594905
 21
99.9024144385
 31
0.0
  0
LINE
  5
1A2
100
AcDbEntity
  8
_Y__________
  6
CONTINUOUS
 62
         7
100
AcDbLine
 10
1881.3340594905
 20
124.6024144385
 30
0.0
 11
1881.3340594905
 21
120.7376958128
 31
0.0
  0
ARC
  5
1A3
100
AcDbEntity
  8
L1_150
  6
CONTINUOUS
 62
         7
100
AcDbCircle
 10
1557.0485931522
 20
76.8274144385
 30
0.0
 40
0.5
100
AcDbArc
 50
45.0
 51
90.0
  0
LINE
  5
1A4
100
AcDbEntity
  8
L1_150
  6
CONTINUOUS
 62
         7
100
AcDbLine
 10
1558.8306999334
 20
75.7524144385
 30
0.0
 11
1557.4021465428
 21
77.1809678291
 31
0.0
  0
ARC
  5
1A5
100
AcDbEntity
  8
L1_150
  6
CONTINUOUS
 62
         7
100
AcDbCircle
 10
1557.0485931522
 20
147.6774144385
 30
0.0
 40
0.5
100
AcDbArc
 50
270.0
 51
315.0
  0
LINE
  5
1A6
100
AcDbEntity
  8
L1_150
  6
CONTINUOUS
 62
         7
100
AcDbLine
 10
1558.8306999334
 20
148.7524144385
 30
0.0
 11
1557.4021465428
 21
147.323861048
 31
0.0
  0
ARC
  5
1A7
100
AcDbEntity
  8
_Y__________
  6
CONTINUOUS
 62
         7
100
AcDbCircle
 10
1424.6786999334
 20
-144.6863523772
 30
0.0
 40
2.5
100
AcDbArc
 50
180.0
 51
261.702778
  0
LINE
  5
1A8
100
AcDbEntity
  8
_Y__________
  6
CONTINUOUS
 62
         7
100
AcDbLine
 10
1422.1786999334
 20
-108.7936808492
 30
0.0
 11
1422.1786999334
 21
-144.6863523772
 31
0.0
  0
ARC
  5
1A9
100
AcDbEntity
  8
_Y__________
  6
CONTINUOUS
 62
         7
100
AcDbCircle
 10
1424.6786999334
 20
-108.7936808492
 30
0.0
 40
2.5
100
AcDbArc
 50
98.297222
 51
180.0
  0
ARC
  5
1AA
100
AcDbEntity
  8
_Y__________
  6
CONTINUOUS
 62
         7
100
AcDbCircle
 10
1424.6786999334
 20
94.3060786745
 30
0.0
 40
2.5
100
AcDbArc
 50
180.0
 51
261.702778
  0
ARC
  5
1AB
100
AcDbEntity
  8
_Y__________
  6
CONTINUOUS
 62
         7
100
AcDbCircle
 10
1424.6786999334
 20
130.1987502026
 30
0.0
 40
2.5
100
AcDbArc
 50
98.297222
 51
180.0
  0
LINE
  5
1AC
100
AcDbEntity
  8
_Y__________
  6
CONTINUOUS
 62
         7
100
AcDbLine
 10
1422.1786999334
 20
130.1987502026
 30
0.0
 11
1422.1786999334
 21
94.3060786745
 31
0.0
  0
LINE
  5
1AD
100
AcDbEntity
  8
_Y__________
  6
CONTINUOUS
 62
         7
100
AcDbLine
 10
1526.9786999334
 20
66.0024144385
 30
0.0
 11
1526.9786999334
 21
65.0024144385
 31
0.0
  0
LINE
  5
1AE
100
AcDbEntity
  8
_Y__________
  6
CONTINUOUS
 62
         7
100
AcDbLine
 10
1542.8786999334
 20
76.8274144385
 30
0.0
 11
1542.8786999334
 21
65.0024144385
 31
0.0
  0
ARC
  5
1AF
100
AcDbEntity
  8
_Y__________
  6
CONTINUOUS
 62
         7
100
AcDbCircle
 10
1528.4786999334
 20
65.0024144385
 30
0.0
 40
1.5
100
AcDbArc
 50
180.0
 51
270.0
  0
ARC
  5
1B0
100
AcDbEntity
  8
_Y__________
  6
CONTINUOUS
 62
         7
100
AcDbCircle
 10
1541.3786999334
 20
65.0024144385
 30
0.0
 40
1.5
100
AcDbArc
 50
270.0
 51
360.0
  0
ARC
  5
1B1
100
AcDbEntity
  8
_Y__________
  6
CONTINUOUS
 62
         7
100
AcDbCircle
 10
1528.4786999334
 20
159.5024144385
 30
0.0
 40
1.5
100
AcDbArc
 50
90.0
 51
180.0
  0
ARC
  5
1B2
100
AcDbEntity
  8
_Y__________
  6
CONTINUOUS
 62
         7
100
AcDbCircle
 10
1541.3786999334
 20
159.5024144385
 30
0.0
 40
1.5
100
AcDbArc
 50
0.0
 51
90.0
  0
LINE
  5
1B3
100
AcDbEntity
  8
_Y__________
  6
CONTINUOUS
 62
         7
100
AcDbLine
 10
1540.3786999334
 20
63.5024144385
 30
0.0
 11
1541.3786999334
 21
63.5024144385
 31
0.0
  0
LINE
  5
1B4
100
AcDbEntity
  8
_Y__________
  6
CONTINUOUS
 62
         7
100
AcDbLine
 10
1528.4786999334
 20
63.5024144385
 30
0.0
 11
1529.4786999334
 21
63.5024144385
 31
0.0
  0
LINE
  5
1B5
100
AcDbEntity
  8
_Y__________
  6
CONTINUOUS
 62
         7
100
AcDbLine
 10
1542.8786999334
 20
159.5024144385
 30
0.0
 11
1542.8786999334
 21
147.6774144385
 31
0.0
  0
LINE
  5
1B6
100
AcDbEntity
  8
_Y__________
  6
CONTINUOUS
 62
         7
100
AcDbLine
 10
1540.3786999334
 20
161.0024144385
 30
0.0
 11
1541.3786999334
 21
161.0024144385
 31
0.0
  0
LINE
  5
1B7
100
AcDbEntity
  8
_Y__________
  6
CONTINUOUS
 62
         7
100
AcDbLine
 10
1528.4786999334
 20
161.0024144385
 30
0.0
 11
1529.4786999334
 21
161.0024144385
 31
0.0
  0
LINE
  5
1B8
100
AcDbEntity
  8
_Y__________
  6
CONTINUOUS
 62
         7
100
AcDbLine
 10
1526.9786999334
 20
159.5024144385
 30
0.0
 11
1526.9786999334
 21
158.5024144385
 31
0.0
  0
ARC
  5
1B9
100
AcDbEntity
  8
_Y__________
  6
CONTINUOUS
 62
         7
100
AcDbCircle
 10
1543.3786999334
 20
147.6774144385
 30
0.0
 40
0.5
100
AcDbArc
 50
180.0
 51
270.0
  0
LINE
  5
1BA
100
AcDbEntity
  8
_Y__________
  6
CONTINUOUS
 62
         7
100
AcDbLine
 10
1543.3786999334
 20
147.1774144385
 30
0.0
 11
1557.0485931522
 21
147.1774144385
 31
0.0
  0
LINE
  5
1BB
100
AcDbEntity
  8
_Y__________
  6
CONTINUOUS
 62
         7
100
AcDbLine
 10
1543.3786999334
 20
77.3274144385
 30
0.0
 11
1557.0485931522
 21
77.3274144385
 31
0.0
  0
ARC
  5
1BC
100
AcDbEntity
  8
_Y__________
  6
CONTINUOUS
 62
         7
100
AcDbCircle
 10
1543.3786999334
 20
76.8274144385
 30
0.0
 40
0.5
100
AcDbArc
 50
90.0
 51
180.0
  0
ARC
  5
1BD
100
AcDbEntity
  8
_Y__________
  6
CONTINUOUS
 62
         7
100
AcDbCircle
 10
1543.3786999334
 20
-162.1650166132
 30
0.0
 40
0.5
100
AcDbArc
 50
90.0
 51
180.0
  0
ARC
  5
1BE
100
AcDbEntity
  8
_Y__________
  6
CONTINUOUS
 62
         7
100
AcDbCircle
 10
1543.3786999334
 20
-91.3150166132
 30
0.0
 40
0.5
100
AcDbArc
 50
180.0
 51
270.0
  0
LINE
  5
1BF
100
AcDbEntity
  8
_Y__________
  6
CONTINUOUS
 62
         7
100
AcDbLine
 10
1526.9786999334
 20
-79.4900166132
 30
0.0
 11
1526.9786999334
 21
-80.4900166132
 31
0.0
  0
LINE
  5
1C0
100
AcDbEntity
  8
_Y__________
  6
CONTINUOUS
 62
         7
100
AcDbLine
 10
1528.4786999334
 20
-77.9900166132
 30
0.0
 11
1529.4786999334
 21
-77.9900166132
 31
0.0
  0
LINE
  5
1C1
100
AcDbEntity
  8
_Y__________
  6
CONTINUOUS
 62
         7
100
AcDbLine
 10
1540.3786999334
 20
-77.9900166132
 30
0.0
 11
1541.3786999334
 21
-77.9900166132
 31
0.0
  0
LINE
  5
1C2
100
AcDbEntity
  8
_Y__________
  6
CONTINUOUS
 62
         7
100
AcDbLine
 10
1542.8786999334
 20
-79.4900166132
 30
0.0
 11
1542.8786999334
 21
-91.3150166132
 31
0.0
  0
LINE
  5
1C3
100
AcDbEntity
  8
_Y__________
  6
CONTINUOUS
 62
         7
100
AcDbLine
 10
1528.4786999334
 20
-175.4900166132
 30
0.0
 11
1529.4786999334
 21
-175.4900166132
 31
0.0
  0
LINE
  5
1C4
100
AcDbEntity
  8
_Y__________
  6
CONTINUOUS
 62
         7
100
AcDbLine
 10
1540.3786999334
 20
-175.4900166132
 30
0.0
 11
1541.3786999334
 21
-175.4900166132
 31
0.0
  0
ARC
  5
1C5
100
AcDbEntity
  8
_Y__________
  6
CONTINUOUS
 62
         7
100
AcDbCircle
 10
1541.3786999334
 20
-79.4900166132
 30
0.0
 40
1.5
100
AcDbArc
 50
0.0
 51
90.0
  0
ARC
  5
1C6
100
AcDbEntity
  8
_Y__________
  6
CONTINUOUS
 62
         7
100
AcDbCircle
 10
1528.4786999334
 20
-79.4900166132
 30
0.0
 40
1.5
100
AcDbArc
 50
90.0
 51
180.0
  0
ARC
  5
1C7
100
AcDbEntity
  8
_Y__________
  6
CONTINUOUS
 62
         7
100
AcDbCircle
 10
1541.3786999334
 20
-173.9900166132
 30
0.0
 40
1.5
100
AcDbArc
 50
270.0
 51
360.0
  0
ARC
  5
1C8
100
AcDbEntity
  8
_Y__________
  6
CONTINUOUS
 62
         7
100
AcDbCircle
 10
1528.4786999334
 20
-173.9900166132
 30
0.0
 40
1.5
100
AcDbArc
 50
180.0
 51
270.0
  0
LINE
  5
1C9
100
AcDbEntity
  8
_Y__________
  6
CONTINUOUS
 62
         7
100
AcDbLine
 10
1542.8786999334
 20
-162.1650166132
 30
0.0
 11
1542.8786999334
 21
-173.9900166132
 31
0.0
  0
LINE
  5
1CA
100
AcDbEntity
  8
_Y__________
  6
CONTINUOUS
 62
         7
100
AcDbLine
 10
1526.9786999334
 20
-172.9900166132
 30
0.0
 11
1526.9786999334
 21
-173.9900166132
 31
0.0
  0
LINE
  5
1CB
100
AcDbEntity
  8
_Y__________
  6
CONTINUOUS
 62
         7
100
AcDbLine
 10
1543.3786999334
 20
-91.8150166132
 30
0.0
 11
1557.0485931522
 21
-91.8150166132
 31
0.0
  0
LINE
  5
1CC
100
AcDbEntity
  8
_Y__________
  6
CONTINUOUS
 62
         7
100
AcDbLine
 10
1543.3786999334
 20
-161.6650166132
 30
0.0
 11
1557.0485931522
 21
-161.6650166132
 31
0.0
  0
LINE
  5
1CD
100
AcDbEntity
  8
_Y__________
  6
CONTINUOUS
 62
         7
100
AcDbLine
 10
1558.8306999334
 20
75.7524144385
 30
0.0
 11
1558.8306999334
 21
148.7524144385
 31
0.0
  0
CIRCLE
  5
1CE
100
AcDbEntity
  8
_Y__________
  6
CONTINUOUS
 62
         7
100
AcDbCircle
 10
1534.8786999334
 20
112.2562679634
 30
0.0
 40
4.76
  0
LINE
  5
1CF
100
AcDbEntity
  8
_Y__________
  6
DASHED
 62
         2
100
AcDbLine
 10
1808.6340594905
 20
117.2524144385
 30
0.0
 11
1821.8480594905
 21
117.2524144385
 31
0.0
  0
LINE
  5
1D0
100
AcDbEntity
  8
_Y__________
  6
DASHED
 62
         2
100
AcDbLine
 10
1808.6340594905
 20
107.2524144385
 30
0.0
 11
1821.8480594905
 21
107.2524144385
 31
0.0
  0
LINE
  5
1D1
100
AcDbEntity
  8
_Y__________
  6
DASHED
 62
         2
100
AcDbLine
 10
1821.8480594905
 20
117.2524144385
 30
0.0
 11
1821.8480594905
 21
107.2524144385
 31
0.0
  0
LINE
  5
1D2
100
AcDbEntity
  8
_Y__________
  6
DASHED
 62
         2
100
AcDbLine
 10
1824.7348108365
 20
112.2524144385
 30
0.0
 11
1821.8480594905
 21
107.2524144385
 31
0.0
  0
LINE
  5
1D3
100
AcDbEntity
  8
_Y__________
  6
DASHED
 62
         2
100
AcDbLine
 10
1821.8480594905
 20
117.2524144385
 30
0.0
 11
1824.7348108365
 21
112.2524144385
 31
0.0
  0
LINE
  5
1D4
100
AcDbEntity
  8
_Y__________
  6
DASHED
 62
         2
100
AcDbLine
 10
1808.6340594905
 20
107.2524144385
 30
0.0
 11
1808.1340594905
 21
106.7524144385
 31
0.0
  0
LINE
  5
1D5
100
AcDbEntity
  8
_Y__________
  6
DASHED
 62
         2
100
AcDbLine
 10
1808.6340594905
 20
117.2524144385
 30
0.0
 11
1808.1340594905
 21
117.7524144385
 31
0.0
  0
LINE
  5
1D6
100
AcDbEntity
  8
_Y__________
  6
DASHED
 62
         2
100
AcDbLine
 10
1808.6340594905
 20
117.2524144385
 30
0.0
 11
1808.6340594905
 21
107.2524144385
 31
0.0
  0
CIRCLE
  5
1D7
100
AcDbEntity
  8
_Y__________
  6
DASHED
 62
         2
100
AcDbCircle
 10
1845.8340594905
 20
112.2524144385
 30
0.0
 40
34.925
  0
LINE
  5
1D8
100
AcDbEntity
  8
_Y__________
  6
CONTINUOUS
 62
         7
100
AcDbLine
 10
1277.6233403763
 20
99.9024144385
 30
0.0
 11
1278.1233403763
 21
99.4024144385
 31
0.0
  0
LINE
  5
1D9
100
AcDbEntity
  8
_Y__________
  6
CONTINUOUS
 62
         7
100
AcDbLine
 10
1278.1233403763
 20
125.1024144385
 30
0.0
 11
1277.6233403763
 21
124.6024144385
 31
0.0
  0
LINE
  5
1DA
100
AcDbEntity
  8
_Y__________
  6
CONTINUOUS
 62
         7
100
AcDbLine
 10
1203.9233403763
 20
124.6024144385
 30
0.0
 11
1203.4233403763
 21
125.1024144385
 31
0.0
  0
LINE
  5
1DB
100
AcDbEntity
  8
_Y__________
  6
CONTINUOUS
 62
         7
100
AcDbLine
 10
1203.4233403763
 20
99.4024144385
 30
0.0
 11
1203.9233403763
 21
99.9024144385
 31
0.0
  0
LINE
  5
1DC
100
AcDbEntity
  8
_Y__________
  6
CONTINUOUS
 62
         7
100
AcDbLine
 10
1286.664542757
 20
98.4024144385
 30
0.0
 11
1285.664542757
 21
99.4024144385
 31
0.0
  0
LINE
  5
1DD
100
AcDbEntity
  8
_Y__________
  6
CONTINUOUS
 62
         7
100
AcDbLine
 10
1285.664542757
 20
99.4024144385
 30
0.0
 11
1278.1233403763
 21
99.4024144385
 31
0.0
  0
LINE
  5
1DE
100
AcDbEntity
  8
_Y__________
  6
CONTINUOUS
 62
         7
100
AcDbLine
 10
1286.664542757
 20
126.1024144385
 30
0.0
 11
1285.664542757
 21
125.1024144385
 31
0.0
  0
LINE
  5
1DF
100
AcDbEntity
  8
_Y__________
  6
CONTINUOUS
 62
         7
100
AcDbLine
 10
1285.664542757
 20
125.1024144385
 30
0.0
 11
1278.1233403763
 21
125.1024144385
 31
0.0
  0
LINE
  5
1E0
100
AcDbEntity
  8
_Y__________
  6
CONTINUOUS
 62
         7
100
AcDbLine
 10
1277.6233403763
 20
99.9024144385
 30
0.0
 11
1277.6233403763
 21
124.6024144385
 31
0.0
  0
LINE
  5
1E1
100
AcDbEntity
  8
_Y__________
  6
CONTINUOUS
 62
         7
100
AcDbLine
 10
1194.1821379955
 20
125.1024144385
 30
0.0
 11
1203.4233403763
 21
125.1024144385
 31
0.0
  0
LINE
  5
1E2
100
AcDbEntity
  8
_Y__________
  6
CONTINUOUS
 62
         7
100
AcDbLine
 10
1193.1821379955
 20
126.1024144385
 30
0.0
 11
1194.1821379955
 21
125.1024144385
 31
0.0
  0
LINE
  5
1E3
100
AcDbEntity
  8
_Y__________
  6
CONTINUOUS
 62
         7
100
AcDbLine
 10
1193.1821379955
 20
98.4024144385
 30
0.0
 11
1194.1821379955
 21
99.4024144385
 31
0.0
  0
LINE
  5
1E4
100
AcDbEntity
  8
_Y__________
  6
CONTINUOUS
 62
         7
100
AcDbLine
 10
1194.1821379955
 20
99.4024144385
 30
0.0
 11
1203.4233403763
 21
99.4024144385
 31
0.0
  0
LINE
  5
1E5
100
AcDbEntity
  8
_Y__________
  6
CONTINUOUS
 62
         7
100
AcDbLine
 10
1203.9233403763
 20
99.9024144385
 30
0.0
 11
1203.9233403763
 21
124.6024144385
 31
0.0
  0
CIRCLE
  5
1E6
100
AcDbEntity
  8
_Y__________
  6
CONTINUOUS
 62
         7
100
AcDbCircle
 10
1239.9233403763
 20
112.2524144385
 30
0.0
 40
12.6589889012
  0
ARC
  5
1E7
100
AcDbEntity
  8
_Y__________
  6
CONTINUOUS
 62
         4
100
AcDbCircle
 10
1239.9233403763
 20
112.2524144385
 30
0.0
 40
12.0
100
AcDbArc
 50
278.1340859252
 51
549.6704111119
  0
CIRCLE
  5
1E8
100
AcDbEntity
  8
_Y__________
  6
CONTINUOUS
 62
         7
100
AcDbCircle
 10
1239.9233403763
 20
112.2524144385
 30
0.0
 40
10.3963414634
  0
CIRCLE
  5
1E9
100
AcDbEntity
  8
_Y__________
  6
CONTINUOUS
 62
         7
100
AcDbCircle
 10
1239.9233403763
 20
112.2524144385
 30
0.0
 40
20.3982925257
  0
CIRCLE
  5
1EA
100
AcDbEntity
  8
_Y__________
  6
CONTINUOUS
 62
         7
100
AcDbCircle
 10
1239.9233403763
 20
112.2524144385
 30
0.0
 40
34.925
  0
ARC
  5
1EB
100
AcDbEntity
  8
_Y__________
  6
CONTINUOUS
 62
         7
100
AcDbCircle
 10
1239.9233403763
 20
112.2524144385
 30
0.0
 40
48.75
100
AcDbArc
 50
196.5052120024
 51
343.4947879976
  0
LINE
  5
1EC
100
AcDbEntity
  8
_Y__________
  6
CENTER
 62
         1
100
AcDbLine
 10
1283.2887501132
 20
112.2524144385
 30
0.0
 11
1193.3587947809
 21
112.2524144385
 31
0.0
  0
ARC
  5
1ED
100
AcDbEntity
  8
_Y__________
  6
CONTINUOUS
 62
         7
100
AcDbCircle
 10
1239.9233403763
 20
112.2524144385
 30
0.0
 40
48.75
100
AcDbArc
 50
16.5052120024
 51
163.4947879976
  0
LINE
  5
1EE
100
AcDbEntity
  8
_Y__________
  6
CENTER
 62
         1
100
AcDbLine
 10
1239.9233403763
 20
165.6922817905
 30
0.0
 11
1239.9233403763
 21
50.6023837096
 31
0.0
  0
LINE
  5
1EF
100
AcDbEntity
  8
_Y__________
  6
CONTINUOUS
 62
         7
100
AcDbLine
 10
1800.0928571098
 20
99.4024144385
 30
0.0
 11
1807.6340594905
 21
99.4024144385
 31
0.0
  0
LINE
  5
1F0
100
AcDbEntity
  8
_Y__________
  6
CONTINUOUS
 62
         7
100
AcDbLine
 10
1799.0928571098
 20
98.4024144385
 30
0.0
 11
1800.0928571098
 21
99.4024144385
 31
0.0
  0
LINE
  5
1F1
100
AcDbEntity
  8
_Y__________
  6
CONTINUOUS
 62
         7
100
AcDbLine
 10
1800.0928571098
 20
125.1024144385
 30
0.0
 11
1807.6340594905
 21
125.1024144385
 31
0.0
  0
LINE
  5
1F2
100
AcDbEntity
  8
_Y__________
  6
CONTINUOUS
 62
         7
100
AcDbLine
 10
1799.0928571098
 20
126.1024144385
 30
0.0
 11
1800.0928571098
 21
125.1024144385
 31
0.0
  0
LINE
  5
1F3
100
AcDbEntity
  8
_Y__________
  6
CONTINUOUS
 62
         7
100
AcDbLine
 10
1808.1340594905
 20
124.6024144385
 30
0.0
 11
1808.1340594905
 21
99.9024144385
 31
0.0
  0
LINE
  5
1F4
100
AcDbEntity
  8
_Y__________
  6
CONTINUOUS
 62
         7
100
AcDbLine
 10
1807.6340594905
 20
125.1024144385
 30
0.0
 11
1808.1340594905
 21
124.6024144385
 31
0.0
  0
LINE
  5
1F5
100
AcDbEntity
  8
_Y__________
  6
CONTINUOUS
 62
         7
100
AcDbLine
 10
1808.1340594905
 20
99.9024144385
 30
0.0
 11
1807.6340594905
 21
99.4024144385
 31
0.0
  0
LINE
  5
1F6
100
AcDbEntity
  8
_Y__________
  6
CONTINUOUS
 62
         7
100
AcDbLine
 10
1881.3340594905
 20
99.9024144385
 30
0.0
 11
1881.8340594905
 21
99.4024144385
 31
0.0
  0
LINE
  5
1F7
100
AcDbEntity
  8
_Y__________
  6
CONTINUOUS
 62
         7
100
AcDbLine
 10
1881.3340594905
 20
124.6024144385
 30
0.0
 11
1881.8340594905
 21
125.1024144385
 31
0.0
  0
LINE
  5
1F8
100
AcDbEntity
  8
_Y__________
  6
CONTINUOUS
 62
         7
100
AcDbLine
 10
1891.5752618713
 20
99.4024144385
 30
0.0
 11
1881.8340594905
 21
99.4024144385
 31
0.0
  0
LINE
  5
1F9
100
AcDbEntity
  8
_Y__________
  6
CONTINUOUS
 62
         7
100
AcDbLine
 10
1892.5752618713
 20
98.4024144385
 30
0.0
 11
1891.5752618713
 21
99.4024144385
 31
0.0
  0
LINE
  5
1FA
100
AcDbEntity
  8
_Y__________
  6
CONTINUOUS
 62
         7
100
AcDbLine
 10
1892.5752618713
 20
126.1024144385
 30
0.0
 11
1891.5752618713
 21
125.1024144385
 31
0.0
  0
LINE
  5
1FB
100
AcDbEntity
  8
_Y__________
  6
CONTINUOUS
 62
         7
100
AcDbLine
 10
1891.5752618713
 20
125.1024144385
 30
0.0
 11
1881.8340594905
 21
125.1024144385
 31
0.0
  0
LINE
  5
1FC
100
AcDbEntity
  8
L1_150
  6
DASHED
 62
         2
100
AcDbLine
 10
1881.3340594905
 20
120.7376958128
 30
0.0
 11
1881.3340594905
 21
103.7671330643
 31
0.0
  0
LINE
  5
1FD
100
AcDbEntity
  8
_Y__________
  6
CENTER
 62
         1
100
AcDbLine
 10
1845.8340594905
 20
57.5024144385
 30
0.0
 11
1845.8340594905
 21
164.4170373134
 31
0.0
  0
LINE
  5
1FE
100
AcDbEntity
  8
_Y__________
  6
CENTER
 62
         1
100
AcDbLine
 10
1791.0840594905
 20
112.2524144385
 30
0.0
 11
1900.5840594905
 21
112.2524144385
 31
0.0
  0
ARC
  5
1FF
100
AcDbEntity
  8
_Y__________
  6
CONTINUOUS
 62
         7
100
AcDbCircle
 10
1845.8340594905
 20
112.2524144385
 30
0.0
 40
48.75
100
AcDbArc
 50
196.5052120024
 51
343.4947879976
  0
ARC
  5
200
100
AcDbEntity
  8
_Y__________
  6
DASHED
 62
         2
100
AcDbCircle
 10
1845.8340594905
 20
112.2524144385
 30
0.0
 40
45.625
100
AcDbArc
 50
16.3583384794
 51
163.6416615206
  0
ARC
  5
201
100
AcDbEntity
  8
_Y__________
  6
CONTINUOUS
 62
         7
100
AcDbCircle
 10
1845.8340594905
 20
112.2524144385
 30
0.0
 40
48.75
100
AcDbArc
 50
16.5052120024
 51
163.4947879976
  0
ARC
  5
202
100
AcDbEntity
  8
_Y__________
  6
DASHED
 62
         2
100
AcDbCircle
 10
1845.8340594905
 20
112.2524144385
 30
0.0
 40
45.625
100
AcDbArc
 50
197.6716498685
 51
343.6416615206
  0
LINE
  5
203
100
AcDbEntity
  8
_Y__________
  6
CONTINUOUS
 62
         7
100
AcDbLine
 10
1531.3424295346
 20
161.0024144385
 30
0.0
 11
1531.3424295346
 21
126.1024144385
 31
0.0
  0
LINE
  5
204
100
AcDbEntity
  8
_Y__________
  6
CONTINUOUS
 62
         7
100
AcDbLine
 10
1533.0036999334
 20
158.125024977
 30
0.0
 11
1533.0036999334
 21
125.0823202736
 31
0.0
  0
LINE
  5
205
100
AcDbEntity
  8
_Y__________
  6
CONTINUOUS
 62
         7
100
AcDbLine
 10
1536.7536999334
 20
158.125024977
 30
0.0
 11
1536.7536999334
 21
125.0823202736
 31
0.0
  0
LINE
  5
206
100
AcDbEntity
  8
_Y__________
  6
CONTINUOUS
 62
         7
100
AcDbLine
 10
1538.4149703322
 20
161.0024144385
 30
0.0
 11
1538.4149703322
 21
126.1024144385
 31
0.0
  0
LINE
  5
207
100
AcDbEntity
  8
_Y__________
  6
CONTINUOUS
 62
         7
100
AcDbLine
 10
1542.7786999334
 20
126.1024144385
 30
0.0
 11
1541.7586057685
 21
125.0823202736
 31
0.0
  0
LINE
  5
208
100
AcDbEntity
  8
_Y__________
  6
CONTINUOUS
 62
         7
100
AcDbLine
 10
1536.7536999334
 20
125.0823202736
 30
0.0
 11
1538.4149703322
 21
126.1024144385
 31
0.0
  0
LINE
  5
209
100
AcDbEntity
  8
_Y__________
  6
CONTINUOUS
 62
         7
100
AcDbLine
 10
1541.7586057685
 20
125.0823202736
 30
0.0
 11
1527.9987940983
 21
125.0823202736
 31
0.0
  0
LINE
  5
20A
100
AcDbEntity
  8
_Y__________
  6
CONTINUOUS
 62
         7
100
AcDbLine
 10
1541.7586057685
 20
125.0823202736
 30
0.0
 11
1527.9987940983
 21
125.0823202736
 31
0.0
  0
LINE
  5
20B
100
AcDbEntity
  8
_Y__________
  6
CONTINUOUS
 62
         7
100
AcDbLine
 10
1531.3424295346
 20
126.1024144385
 30
0.0
 11
1526.9786999334
 21
126.1024144385
 31
0.0
  0
LINE
  5
20C
100
AcDbEntity
  8
_Y__________
  6
CONTINUOUS
 62
         7
100
AcDbLine
 10
1526.9786999334
 20
126.1024144385
 30
0.0
 11
1527.9987940983
 21
125.0823202736
 31
0.0
  0
LINE
  5
20D
100
AcDbEntity
  8
_Y__________
  6
CONTINUOUS
 62
         7
100
AcDbLine
 10
1531.3424295346
 20
126.1024144385
 30
0.0
 11
1533.0036999334
 21
125.0823202736
 31
0.0
  0
LINE
  5
20E
100
AcDbEntity
  8
_Y__________
  6
CONTINUOUS
 62
         7
100
AcDbLine
 10
1542.8786999334
 20
126.1024144385
 30
0.0
 11
1538.4149703322
 21
126.1024144385
 31
0.0
  0
LINE
  5
20F
100
AcDbEntity
  8
_Y__________
  6
CONTINUOUS
 62
         7
100
AcDbLine
 10
1531.3424295346
 20
98.4024144385
 30
0.0
 11
1531.3424295346
 21
63.5024144385
 31
0.0
  0
LINE
  5
210
100
AcDbEntity
  8
_Y__________
  6
CONTINUOUS
 62
         7
100
AcDbLine
 10
1533.0036999334
 20
99.4225086035
 30
0.0
 11
1533.0036999334
 21
66.3798039001
 31
0.0
  0
LINE
  5
211
100
AcDbEntity
  8
_Y__________
  6
CONTINUOUS
 62
         7
100
AcDbLine
 10
1536.7536999334
 20
99.4225086035
 30
0.0
 11
1536.7536999334
 21
66.3798039001
 31
0.0
  0
LINE
  5
212
100
AcDbEntity
  8
_Y__________
  6
CONTINUOUS
 62
         7
100
AcDbLine
 10
1538.4149703322
 20
98.4024144385
 30
0.0
 11
1538.4149703322
 21
63.5024144385
 31
0.0
  0
LINE
  5
213
100
AcDbEntity
  8
_Y__________
  6
CONTINUOUS
 62
         7
100
AcDbLine
 10
1542.7786999334
 20
98.4024144385
 30
0.0
 11
1541.7586057685
 21
99.4225086035
 31
0.0
  0
LINE
  5
214
100
AcDbEntity
  8
_Y__________
  6
CONTINUOUS
 62
         7
100
AcDbLine
 10
1536.7536999334
 20
99.4225086035
 30
0.0
 11
1538.4149703322
 21
98.4024144385
 31
0.0
  0
LINE
  5
215
100
AcDbEntity
  8
_Y__________
  6
CONTINUOUS
 62
         7
100
AcDbLine
 10
1541.7586057685
 20
99.4225086035
 30
0.0
 11
1527.9987940983
 21
99.4225086035
 31
0.0
  0
LINE
  5
216
100
AcDbEntity
  8
_Y__________
  6
CONTINUOUS
 62
         7
100
AcDbLine
 10
1541.7586057685
 20
99.4225086035
 30
0.0
 11
1527.9987940983
 21
99.4225086035
 31
0.0
  0
LINE
  5
217
100
AcDbEntity
  8
_Y__________
  6
CONTINUOUS
 62
         7
100
AcDbLine
 10
1531.3424295346
 20
98.4024144385
 30
0.0
 11
1533.0036999334
 21
99.4225086035
 31
0.0
  0
LINE
  5
218
100
AcDbEntity
  8
_Y__________
  6
CONTINUOUS
 62
         7
100
AcDbLine
 10
1526.9786999334
 20
98.4024144385
 30
0.0
 11
1527.9987940983
 21
99.4225086035
 31
0.0
  0
LINE
  5
219
100
AcDbEntity
  8
_Y__________
  6
CONTINUOUS
 62
         7
100
AcDbLine
 10
1531.3424295346
 20
98.4024144385
 30
0.0
 11
1526.9786999334
 21
98.4024144385
 31
0.0
  0
LINE
  5
21A
100
AcDbEntity
  8
_Y__________
  6
CONTINUOUS
 62
         7
100
AcDbLine
 10
1542.8786999334
 20
98.4024144385
 30
0.0
 11
1538.4149703322
 21
98.4024144385
 31
0.0
  0
LINE
  5
21B
100
AcDbEntity
  8
_Y__________
  6
CONTINUOUS
 62
         7
100
AcDbLine
 10
1523.7786999334
 20
-91.8150166132
 30
0.0
 11
1525.7251100949
 21
-92.3150166132
 31
0.0
  0
ARC
  5
21C
100
AcDbEntity
  8
_Y__________
  6
CONTINUOUS
 62
         7
100
AcDbCircle
 10
1536.3220756064
 20
-80.6150166132
 30
0.0
 40
0.5
100
AcDbArc
 50
270.0
 51
330.0
  0
ARC
  5
21D
100
AcDbEntity
  8
_Y__________
  6
CONTINUOUS
 62
         7
100
AcDbCircle
 10
1533.4353242604
 20
-80.6150166132
 30
0.0
 40
0.5
100
AcDbArc
 50
210.0
 51
270.0
  0
ARC
  5
21E
100
AcDbEntity
  8
_Y__________
  6
CONTINUOUS
 62
         7
100
AcDbCircle
 10
1526.3786999334
 20
-91.7150166132
 30
0.0
 40
0.6
100
AcDbArc
 50
270.0
 51
360.0
  0
LINE
  5
21F
100
AcDbEntity
  8
_Y__________
  6
CONTINUOUS
 62
         7
100
AcDbLine
 10
1525.7251100949
 20
-92.3150166132
 30
0.0
 11
1526.3786999334
 21
-92.3150166132
 31
0.0
  0
LINE
  5
220
100
AcDbEntity
  8
_Y__________
  6
CONTINUOUS
 62
         7
100
AcDbLine
 10
1526.9786999334
 20
-79.4900166132
 30
0.0
 11
1526.9786999334
 21
-91.7150166132
 31
0.0
  0
LINE
  5
221
100
AcDbEntity
  8
_Y__________
  6
CONTINUOUS
 62
         7
100
AcDbLine
 10
1533.4353242604
 20
-81.1150166132
 30
0.0
 11
1536.3220756064
 21
-81.1150166132
 31
0.0
  0
LINE
  5
222
100
AcDbEntity
  8
_Y__________
  6
CONTINUOUS
 62
         7
100
AcDbLine
 10
1536.7550883083
 20
-80.8650166132
 30
0.0
 11
1538.4149703322
 21
-77.9900166132
 31
0.0
  0
LINE
  5
223
100
AcDbEntity
  8
_Y__________
  6
CONTINUOUS
 62
         7
100
AcDbLine
 10
1528.4786999334
 20
-77.9900166132
 30
0.0
 11
1531.3424295346
 21
-77.9900166132
 31
0.0
  0
LINE
  5
224
100
AcDbEntity
  8
_Y__________
  6
CONTINUOUS
 62
         7
100
AcDbLine
 10
1533.4353242604
 20
-81.1150166132
 30
0.0
 11
1536.3220756064
 21
-81.1150166132
 31
0.0
  0
LINE
  5
225
100
AcDbEntity
  8
_Y__________
  6
CONTINUOUS
 62
         7
100
AcDbLine
 10
1526.9786999334
 20
-79.4900166132
 30
0.0
 11
1526.9786999334
 21
-91.7150166132
 31
0.0
  0
LINE
  5
226
100
AcDbEntity
  8
_Y__________
  6
CONTINUOUS
 62
         7
100
AcDbLine
 10
1525.7251100949
 20
-92.3150166132
 30
0.0
 11
1526.3786999334
 21
-92.3150166132
 31
0.0
  0
ARC
  5
227
100
AcDbEntity
  8
_Y__________
  6
CONTINUOUS
 62
         7
100
AcDbCircle
 10
1526.3786999334
 20
-91.7150166132
 30
0.0
 40
0.6
100
AcDbArc
 50
270.0
 51
360.0
  0
ARC
  5
228
100
AcDbEntity
  8
_Y__________
  6
CONTINUOUS
 62
         7
100
AcDbCircle
 10
1533.4353242604
 20
-80.6150166132
 30
0.0
 40
0.5
100
AcDbArc
 50
210.0
 51
270.0
  0
ARC
  5
229
100
AcDbEntity
  8
_Y__________
  6
CONTINUOUS
 62
         7
100
AcDbCircle
 10
1536.3220756064
 20
-80.6150166132
 30
0.0
 40
0.5
100
AcDbArc
 50
270.0
 51
330.0
  0
LINE
  5
22A
100
AcDbEntity
  8
_Y__________
  6
CONTINUOUS
 62
         7
100
AcDbLine
 10
1533.0023115585
 20
-80.8650166132
 30
0.0
 11
1531.3424295346
 21
-77.9900166132
 31
0.0
  0
LINE
  5
22B
100
AcDbEntity
  8
_Y__________
  6
CONTINUOUS
 62
         7
100
AcDbLine
 10
1538.4149703322
 20
-77.9900166132
 30
0.0
 11
1541.3786999334
 21
-77.9900166132
 31
0.0
  0
LINE
  5
22C
100
AcDbEntity
  8
_Y__________
  6
CONTINUOUS
 62
         7
100
AcDbLine
 10
1536.8994258756
 20
-172.8650166132
 30
0.0
 11
1538.4149703322
 21
-175.4900166132
 31
0.0
  0
LINE
  5
22D
100
AcDbEntity
  8
_Y__________
  6
CONTINUOUS
 62
         7
100
AcDbLine
 10
1526.9786999334
 20
-161.7650166132
 30
0.0
 11
1526.9786999334
 21
-173.9900166132
 31
0.0
  0
LINE
  5
22E
100
AcDbEntity
  8
_Y__________
  6
CONTINUOUS
 62
         7
100
AcDbLine
 10
1533.4353242604
 20
-172.3650166132
 30
0.0
 11
1536.0334004718
 21
-172.3650166132
 31
0.0
  0
LINE
  5
22F
100
AcDbEntity
  8
_Y__________
  6
CONTINUOUS
 62
         7
100
AcDbLine
 10
1528.4786999334
 20
-175.4900166132
 30
0.0
 11
1531.3424295346
 21
-175.4900166132
 31
0.0
  0
LINE
  5
230
100
AcDbEntity
  8
_Y__________
  6
CONTINUOUS
 62
         7
100
AcDbLine
 10
1533.0023115585
 20
-172.6150166132
 30
0.0
 11
1531.3424295346
 21
-175.4900166132
 31
0.0
  0
ARC
  5
231
100
AcDbEntity
  8
_Y__________
  6
CONTINUOUS
 62
         7
100
AcDbCircle
 10
1533.4353242604
 20
-172.8650166132
 30
0.0
 40
0.5
100
AcDbArc
 50
90.0
 51
150.0
  0
LINE
  5
232
100
AcDbEntity
  8
_Y__________
  6
CONTINUOUS
 62
         7
100
AcDbLine
 10
1525.7251100949
 20
-161.1650166132
 30
0.0
 11
1526.3786999334
 21
-161.1650166132
 31
0.0
  0
ARC
  5
233
100
AcDbEntity
  8
_Y__________
  6
CONTINUOUS
 62
         7
100
AcDbCircle
 10
1526.3786999334
 20
-161.7650166132
 30
0.0
 40
0.6
100
AcDbArc
 50
0.0
 51
90.0
  0
LINE
  5
234
100
AcDbEntity
  8
_Y__________
  6
CONTINUOUS
 62
         7
100
AcDbLine
 10
1538.4149703322
 20
-175.4900166132
 30
0.0
 11
1541.3786999334
 21
-175.4900166132
 31
0.0
  0
LINE
  5
235
100
AcDbEntity
  8
_Y__________
  6
CONTINUOUS
 62
         7
100
AcDbLine
 10
1466.6786999334
 20
-114.7400166132
 30
0.0
 11
1466.6786999334
 21
-138.7400166132
 31
0.0
  0
LINE
  5
236
100
AcDbEntity
  8
_Y__________
  6
CONTINUOUS
 62
         7
100
AcDbLine
 10
1423.5286999334
 20
-114.2400166132
 30
0.0
 11
1426.3786999334
 21
-114.2400166132
 31
0.0
  0
LINE
  5
237
100
AcDbEntity
  8
_Y__________
  6
CONTINUOUS
 62
         7
100
AcDbLine
 10
1523.7786999334
 20
-161.6650166132
 30
0.0
 11
1424.1679293748
 21
-147.1383091389
 31
0.0
  0
LINE
  5
238
100
AcDbEntity
  8
_Y__________
  6
CONTINUOUS
 62
         7
100
AcDbLine
 10
1430.4480438949
 20
-137.1363580766
 30
0.0
 11
1466.6786999334
 21
-137.1363580766
 31
0.0
  0
LINE
  5
239
100
AcDbEntity
  8
_Y__________
  6
CONTINUOUS
 62
         5
100
AcDbLine
 10
1428.8443853584
 20
-138.7400166132
 30
0.0
 11
1466.6786999334
 21
-138.7400166132
 31
0.0
  0
LINE
  5
23A
100
AcDbEntity
  8
_Y__________
  6
CONTINUOUS
 62
         7
100
AcDbLine
 10
1523.7786999334
 20
-91.8150166132
 30
0.0
 11
1424.1679293748
 21
-106.3417240875
 31
0.0
  0
LINE
  5
23B
100
AcDbEntity
  8
_Y__________
  6
CONTINUOUS
 62
         7
100
AcDbLine
 10
1430.4480438949
 20
-116.3436751498
 30
0.0
 11
1466.6786999334
 21
-116.3436751498
 31
0.0
  0
LINE
  5
23C
100
AcDbEntity
  8
_Y__________
  6
CONTINUOUS
 62
         5
100
AcDbLine
 10
1428.8443853584
 20
-114.7400166132
 30
0.0
 11
1466.6786999334
 21
-114.7400166132
 31
0.0
  0
LINE
  5
23D
100
AcDbEntity
  8
_Y__________
  6
CONTINUOUS
 62
         7
100
AcDbLine
 10
1523.7786999334
 20
-161.6650166132
 30
0.0
 11
1525.7251100949
 21
-161.1650166132
 31
0.0
  0
LINE
  5
23E
100
AcDbEntity
  8
_Y__________
  6
CONTINUOUS
 62
         7
100
AcDbLine
 10
1523.7786999334
 20
-91.8150166132
 30
0.0
 11
1525.7251100949
 21
-92.3150166132
 31
0.0
  0
ARC
  5
23F
100
AcDbEntity
  8
_Y__________
  6
CONTINUOUS
 62
         7
100
AcDbCircle
 10
1536.0334004718
 20
-173.3650166132
 30
0.0
 40
1.0
100
AcDbArc
 50
30.0
 51
90.0
  0
LINE
  5
240
100
AcDbEntity
  8
_Y__________
  6
CONTINUOUS
 62
         7
100
AcDbLine
 10
1428.3786999334
 20
-139.2057020382
 30
0.0
 11
1428.3786999334
 21
-114.2743311882
 31
0.0
  0
LINE
  5
241
100
AcDbEntity
  8
_Y__________
  6
CONTINUOUS
 62
         7
100
AcDbLine
 10
1427.1251100949
 20
-114.0400166132
 30
0.0
 11
1427.9786999334
 21
-114.0400166132
 31
0.0
  0
LINE
  5
242
100
AcDbEntity
  8
_Y__________
  6
CONTINUOUS
 62
         7
100
AcDbLine
 10
1426.3786999334
 20
-139.2400166132
 30
0.0
 11
1426.3786999334
 21
-114.2400166132
 31
0.0
  0
ARC
  5
243
100
AcDbEntity
  8
_Y__________
  6
CONTINUOUS
 62
         7
100
AcDbCircle
 10
1427.9786999334
 20
-114.4400166132
 30
0.0
 40
0.4
100
AcDbArc
 50
45.0
 51
90.0
  0
LINE
  5
244
100
AcDbEntity
  8
_Y__________
  6
CONTINUOUS
 62
         7
100
AcDbLine
 10
1427.1251100949
 20
-114.0400166132
 30
0.0
 11
1426.3786999334
 21
-114.2400166132
 31
0.0
  0
ARC
  5
245
100
AcDbEntity
  8
_Y__________
  6
CONTINUOUS
 62
         7
100
AcDbCircle
 10
1423.5286999334
 20
-112.7400166132
 30
0.0
 40
1.5
100
AcDbArc
 50
205.8419327625
 51
270.0
  0
LINE
  5
246
100
AcDbEntity
  8
_Y__________
  6
CONTINUOUS
 62
         7
100
AcDbLine
 10
1428.2615426459
 20
-114.1571739007
 30
0.0
 11
1430.4480438949
 21
-116.3436751498
 31
0.0
  0
LINE
  5
247
100
AcDbEntity
  8
_Y__________
  6
CONTINUOUS
 62
         7
100
AcDbLine
 10
1423.5286999334
 20
-139.2400166132
 30
0.0
 11
1426.3786999334
 21
-139.2400166132
 31
0.0
  0
LINE
  5
248
100
AcDbEntity
  8
_Y__________
  6
CONTINUOUS
 62
         7
100
AcDbLine
 10
1427.1251100949
 20
-139.4400166132
 30
0.0
 11
1427.9786999334
 21
-139.4400166132
 31
0.0
  0
LINE
  5
249
100
AcDbEntity
  8
_Y__________
  6
CONTINUOUS
 62
         7
100
AcDbLine
 10
1427.1251100949
 20
-139.4400166132
 30
0.0
 11
1426.3786999334
 21
-139.2400166132
 31
0.0
  0
ARC
  5
24A
100
AcDbEntity
  8
_Y__________
  6
CONTINUOUS
 62
         7
100
AcDbCircle
 10
1423.5286999334
 20
-140.7400166132
 30
0.0
 40
1.5
100
AcDbArc
 50
90.0
 51
154.1580672375
  0
ARC
  5
24B
100
AcDbEntity
  8
_Y__________
  6
CONTINUOUS
 62
         7
100
AcDbCircle
 10
1427.9786999334
 20
-139.0400166132
 30
0.0
 40
0.4
100
AcDbArc
 50
270.0
 51
315.0
  0
LINE
  5
24C
100
AcDbEntity
  8
_Y__________
  6
CONTINUOUS
 62
         7
100
AcDbLine
 10
1428.2615426459
 20
-139.3228593257
 30
0.0
 11
1430.4480438949
 21
-137.1363580766
 31
0.0
  0
LINE
  5
24D
100
AcDbEntity
  8
_Y__________
  6
CONTINUOUS
 62
         7
100
AcDbLine
 10
1430.4480438949
 20
-137.1363580766
 30
0.0
 11
1430.4480438949
 21
-116.3436751498
 31
0.0
  0
LINE
  5
24E
100
AcDbEntity
  8
_Y__________
  6
CONTINUOUS
 62
         4
100
AcDbLine
 10
1423.5286999334
 20
-139.2400166132
 30
0.0
 11
1423.5286999334
 21
-114.2400166132
 31
0.0
  0
LINE
  5
24F
100
AcDbEntity
  8
_Y__________
  6
CONTINUOUS
 62
         7
100
AcDbLine
 10
1542.8786999334
 20
159.5024144385
 30
0.0
 11
1542.8786999334
 21
65.0024144385
 31
0.0
  0
LINE
  5
250
100
AcDbEntity
  8
_Y__________
  6
CONTINUOUS
 62
         7
100
AcDbLine
 10
1536.7550883083
 20
158.1274144385
 30
0.0
 11
1538.4149703322
 21
161.0024144385
 31
0.0
  0
LINE
  5
251
100
AcDbEntity
  8
_Y__________
  6
CONTINUOUS
 62
         7
100
AcDbLine
 10
1533.4353242604
 20
157.8774144385
 30
0.0
 11
1536.3220756064
 21
157.8774144385
 31
0.0
  0
LINE
  5
252
100
AcDbEntity
  8
_Y__________
  6
CONTINUOUS
 62
         7
100
AcDbLine
 10
1528.4786999334
 20
161.0024144385
 30
0.0
 11
1531.3424295346
 21
161.0024144385
 31
0.0
  0
ARC
  5
253
100
AcDbEntity
  8
_Y__________
  6
CONTINUOUS
 62
         7
100
AcDbCircle
 10
1533.4353242604
 20
158.3774144385
 30
0.0
 40
0.5
100
AcDbArc
 50
210.0
 51
270.0
  0
LINE
  5
254
100
AcDbEntity
  8
_Y__________
  6
CONTINUOUS
 62
         7
100
AcDbLine
 10
1525.7251100949
 20
146.6774144385
 30
0.0
 11
1526.3786999334
 21
146.6774144385
 31
0.0
  0
ARC
  5
255
100
AcDbEntity
  8
_Y__________
  6
CONTINUOUS
 62
         7
100
AcDbCircle
 10
1526.3786999334
 20
147.2774144385
 30
0.0
 40
0.6
100
AcDbArc
 50
270.0
 51
360.0
  0
LINE
  5
256
100
AcDbEntity
  8
_Y__________
  6
CONTINUOUS
 62
         7
100
AcDbLine
 10
1533.0023115585
 20
158.1274144385
 30
0.0
 11
1531.3424295346
 21
161.0024144385
 31
0.0
  0
ARC
  5
257
100
AcDbEntity
  8
_Y__________
  6
CONTINUOUS
 62
         7
100
AcDbCircle
 10
1536.3220756064
 20
158.3774144385
 30
0.0
 40
0.5
100
AcDbArc
 50
270.0
 51
330.0
  0
LINE
  5
258
100
AcDbEntity
  8
_Y__________
  6
CONTINUOUS
 62
         7
100
AcDbLine
 10
1538.4149703322
 20
161.0024144385
 30
0.0
 11
1541.3786999334
 21
161.0024144385
 31
0.0
  0
LINE
  5
259
100
AcDbEntity
  8
_Y__________
  6
CONTINUOUS
 62
         7
100
AcDbLine
 10
1536.7550883083
 20
66.3774144385
 30
0.0
 11
1538.4149703322
 21
63.5024144385
 31
0.0
  0
LINE
  5
25A
100
AcDbEntity
  8
_Y__________
  6
CONTINUOUS
 62
         7
100
AcDbLine
 10
1533.4353242604
 20
66.6274144385
 30
0.0
 11
1536.3220756064
 21
66.6274144385
 31
0.0
  0
ARC
  5
25B
100
AcDbEntity
  8
_Y__________
  6
CONTINUOUS
 62
         7
100
AcDbCircle
 10
1533.4353242604
 20
66.1274144385
 30
0.0
 40
0.5
100
AcDbArc
 50
90.0
 51
150.0
  0
LINE
  5
25C
100
AcDbEntity
  8
_Y__________
  6
CONTINUOUS
 62
         7
100
AcDbLine
 10
1528.4786999334
 20
63.5024144385
 30
0.0
 11
1531.3424295346
 21
63.5024144385
 31
0.0
  0
LINE
  5
25D
100
AcDbEntity
  8
_Y__________
  6
CONTINUOUS
 62
         7
100
AcDbLine
 10
1533.0023115585
 20
66.3774144385
 30
0.0
 11
1531.3424295346
 21
63.5024144385
 31
0.0
  0
ARC
  5
25E
100
AcDbEntity
  8
_Y__________
  6
CONTINUOUS
 62
         7
100
AcDbCircle
 10
1536.3220756064
 20
66.1274144385
 30
0.0
 40
0.5
100
AcDbArc
 50
30.0
 51
90.0
  0
ARC
  5
25F
100
AcDbEntity
  8
_Y__________
  6
CONTINUOUS
 62
         7
100
AcDbCircle
 10
1526.3786999334
 20
77.2274144385
 30
0.0
 40
0.6
100
AcDbArc
 50
0.0
 51
90.0
  0
LINE
  5
260
100
AcDbEntity
  8
_Y__________
  6
CONTINUOUS
 62
         7
100
AcDbLine
 10
1525.7251100949
 20
77.8274144385
 30
0.0
 11
1526.3786999334
 21
77.8274144385
 31
0.0
  0
ARC
  5
261
100
AcDbEntity
  8
_Y__________
  6
CONTINUOUS
 62
         7
100
AcDbCircle
 10
1526.3786999334
 20
77.2274144385
 30
0.0
 40
0.6
100
AcDbArc
 50
0.0
 51
90.0
  0
LINE
  5
262
100
AcDbEntity
  8
_Y__________
  6
CONTINUOUS
 62
         7
100
AcDbLine
 10
1538.4149703322
 20
63.5024144385
 30
0.0
 11
1541.3786999334
 21
63.5024144385
 31
0.0
  0
LINE
  5
263
100
AcDbEntity
  8
_Y__________
  6
CENTER
 62
         1
100
AcDbLine
 10
1534.8786999334
 20
167.2576777393
 30
0.0
 11
1534.8786999334
 21
57.2548581875
 31
0.0
  0
LINE
  5
264
100
AcDbEntity
  8
_Y__________
  6
CONTINUOUS
 62
         7
100
AcDbLine
 10
1526.9786999334
 20
159.5024144385
 30
0.0
 11
1526.9786999334
 21
65.0024144385
 31
0.0
  0
LINE
  5
265
100
AcDbEntity
  8
_Y__________
  6
CONTINUOUS
 62
         7
100
AcDbLine
 10
1525.7251100949
 20
146.6774144385
 30
0.0
 11
1525.7251100949
 21
77.8274144385
 31
0.0
  0
LINE
  5
266
100
AcDbEntity
  8
_Y__________
  6
CENTER
 62
         1
100
AcDbLine
 10
1523.7786999334
 20
151.9774144385
 30
0.0
 11
1523.7786999334
 21
73.981360093
 31
0.0
  0
LINE
  5
267
100
AcDbEntity
  8
_Y__________
  6
CONTINUOUS
 62
         7
100
AcDbLine
 10
1524.9786999334
 20
146.8691546422
 30
0.0
 11
1524.9786999334
 21
77.6356742349
 31
0.0
  0
LINE
  5
268
100
AcDbEntity
  8
_Y__________
  6
CONTINUOUS
 62
         7
100
AcDbLine
 10
1523.7786999334
 20
77.3274144385
 30
0.0
 11
1424.3179293748
 21
91.8322467069
 31
0.0
  0
LINE
  5
269
100
AcDbEntity
  8
_Y__________
  6
CONTINUOUS
 62
         7
100
AcDbLine
 10
1523.7786999334
 20
147.1774144385
 30
0.0
 11
1424.3179293748
 21
132.6725821702
 31
0.0
  0
LINE
  5
26A
100
AcDbEntity
  8
_Y__________
  6
CENTER
 62
         1
100
AcDbLine
 10
1417.2325573653
 20
112.2524144385
 30
0.0
 11
1491.1537903612
 21
112.2524144385
 31
0.0
  0
LINE
  5
26B
100
AcDbEntity
  8
_Y__________
  6
CENTER
 62
         1
100
AcDbLine
 10
1513.0227673053
 20
112.2524144385
 30
0.0
 11
1542.8786999334
 21
112.2524144385
 31
0.0
  0
LINE
  5
26C
100
AcDbEntity
  8
_Y__________
  6
CONTINUOUS
 62
         7
100
AcDbLine
 10
1523.7786999334
 20
77.3274144385
 30
0.0
 11
1525.7251100949
 21
77.8274144385
 31
0.0
  0
LINE
  5
26D
100
AcDbEntity
  8
_Y__________
  6
CONTINUOUS
 62
         7
100
AcDbLine
 10
1523.7786999334
 20
147.1774144385
 30
0.0
 11
1525.7251100949
 21
146.6774144385
 31
0.0
  0
ARC
  5
26E
100
AcDbEntity
  8
L1_150
  6
CONTINUOUS
 62
         7
100
AcDbCircle
 10
1845.8340594905
 20
112.2524144385
 30
0.0
 40
12.5
100
AcDbArc
 50
301.4783409545
 51
458.5216590455
  0
ARC
  5
26F
100
AcDbEntity
  8
L1_150
  6
CONTINUOUS
 62
         7
100
AcDbCircle
 10
1845.8340594905
 20
112.2524144385
 30
0.0
 40
12.5
100
AcDbArc
 50
121.4783409545
 51
278.5216590455
  0
LINE
  5
270
100
AcDbEntity
  8
L1_150
  6
CENTER
 62
         1
100
AcDbLine
 10
1838.4408935979
 20
122.3316553863
 30
0.0
 11
1845.0187419434
 21
124.7257963896
 31
0.0
  0
LINE
  5
271
100
AcDbEntity
  8
L1_150
  6
CENTER
 62
         1
100
AcDbLine
 10
1846.6493770377
 20
99.7790324875
 30
0.0
 11
1853.2272253832
 21
102.1731734908
 31
0.0
  0
CIRCLE
  5
272
100
AcDbEntity
  8
L1_150
  6
CONTINUOUS
 62
         7
100
AcDbCircle
 10
1849.9383012104
 20
100.9761029891
 30
0.0
 40
2.5
  0
ARC
  5
273
100
AcDbEntity
  8
L1_150
  6
CONTINUOUS
 62
         7
100
AcDbCircle
 10
1849.0832508521
 20
103.3253345411
 30
0.0
 40
5.0
100
AcDbArc
 50
225.567805911
 51
354.432194089
  0
ARC
  5
274
100
AcDbEntity
  8
L1_150
  6
CONTINUOUS
 62
         7
100
AcDbCircle
 10
1842.5848681289
 20
121.179494336
 30
0.0
 40
5.0
100
AcDbArc
 50
45.567805911
 51
174.432194089
  0
CIRCLE
  5
275
100
AcDbEntity
  8
L1_150
  6
CONTINUOUS
 62
         7
100
AcDbCircle
 10
1841.7298177706
 20
123.528725888
 30
0.0
 40
2.5
  0
LINE
  5
276
100
AcDbEntity
  8
L1_150
  6
CENTER
 62
         1
100
AcDbLine
 10
1859.1189730413
 20
75.7524144385
 30
0.0
 11
1832.3274048806
 21
149.3616429918
 31
0.0
  0
LINE
  5
277
100
AcDbEntity
  8
L1_150
  6
DASHED
 62
         2
100
AcDbLine
 10
1691.2786999334
 20
-140.3362745507
 30
0.0
 11
1637.7286999334
 21
-140.3362745507
 31
0.0
  0
LINE
  5
278
100
AcDbEntity
  8
L1_150
  6
CENTER
 62
         1
100
AcDbLine
 10
1685.9359027938
 20
-138.7362745507
 30
0.0
 11
1637.7286999334
 21
-138.7362745507
 31
0.0
  0
LINE
  5
279
100
AcDbEntity
  8
L1_150
  6
DASHED
 62
         2
100
AcDbLine
 10
1683.6745484957
 20
-134.7294940125
 30
0.0
 11
1683.6745484957
 21
-140.3362745507
 31
0.0
  0
LINE
  5
27A
100
AcDbEntity
  8
L1_150
  6
DASHED
 62
         2
100
AcDbLine
 10
1683.6745484957
 20
-137.1362745507
 30
0.0
 11
1637.7286999334
 21
-137.1362745507
 31
0.0
  0
LINE
  5
27B
100
AcDbEntity
  8
L1_150
  6
CONTINUOUS
 62
         7
100
AcDbLine
 10
1683.6745484957
 20
-118.7505392139
 30
0.0
 11
1683.6745484957
 21
-113.1437586757
 31
0.0
  0
LINE
  5
27C
100
AcDbEntity
  8
L1_150
  6
CONTINUOUS
 62
         7
100
AcDbLine
 10
1683.6745484957
 20
-116.3437586757
 30
0.0
 11
1642.9286999334
 21
-116.3437586757
 31
0.0
  0
LINE
  5
27D
100
AcDbEntity
  8
L1_150
  6
CENTER
 62
         1
100
AcDbLine
 10
1685.9359027938
 20
-114.7437586757
 30
0.0
 11
1638.2286999334
 21
-114.7437586757
 31
0.0
  0
LINE
  5
27E
100
AcDbEntity
  8
L1_150
  6
CONTINUOUS
 62
         7
100
AcDbLine
 10
1691.2786999334
 20
-113.1437586757
 30
0.0
 11
1642.9286999334
 21
-113.1437586757
 31
0.0
  0
DIMENSION
  5
282
100
AcDbEntity
  8
L1_150
  6
CONTINUOUS
 62
         4
100
AcDbDimension
  2
*D0
 10
1422.1786999334
 20
221.2602880125
 30
0.0
 11
1546.648215981
 21
223.8852880125
 31
0.0
  3
DIMSTYLE1
100
AcDbAlignedDimension
 13
1422.1786999334
 23
130.1987502026
 33
0.0
 14
1691.2786999334
 24
112.2524144385
 34
0.0
100
AcDbRotatedDimension
  0
LINE
  5
28F
100
AcDbEntity
  8
L1_150
  6
CENTER
 62
         1
100
AcDbLine
 10
1523.7786999334
 20
151.9774144385
 30
0.0
 11
1523.7786999334
 21
73.981360093
 31
0.0
  0
LINE
  5
290
100
AcDbEntity
  8
L1_150
  6
CONTINUOUS
 62
         7
100
AcDbLine
 10
1526.9786999334
 20
159.5024144385
 30
0.0
 11
1526.9786999334
 21
65.0024144385
 31
0.0
  0
LINE
  5
291
100
AcDbEntity
  8
L1_150
  6
CONTINUOUS
 62
         7
100
AcDbLine
 10
1422.1786999334
 20
130.1987502026
 30
0.0
 11
1422.1786999334
 21
94.3060786745
 31
0.0
  0
LINE
  5
292
100
AcDbEntity
  8
L1_150
  6
CENTER
 62
         1
100
AcDbLine
 10
1885.8979377716
 20
112.2524144385
 30
0.0
 11
1806.7733873924
 21
112.2524144385
 31
0.0
  0
LINE
  5
293
100
AcDbEntity
  8
L1_150
  6
CENTER
 62
         1
100
AcDbLine
 10
1845.8340594905
 20
72.1997959546
 30
0.0
 11
1845.8340594905
 21
150.53310083
 31
0.0
  0
CIRCLE
  5
294
100
AcDbEntity
  8
L1_150
  6
CONTINUOUS
 62
         7
100
AcDbCircle
 10
1845.8340594905
 20
112.2524144385
 30
0.0
 40
15.875
  0
CIRCLE
  5
295
100
AcDbEntity
  8
L1_150
  6
CONTINUOUS
 62
         7
100
AcDbCircle
 10
1845.8340594905
 20
112.2524144385
 30
0.0
 40
7.325
  0
ARC
  5
296
100
AcDbEntity
  8
L1_150
  6
CONTINUOUS
 62
         4
100
AcDbCircle
 10
1845.8340594905
 20
112.2524144385
 30
0.0
 40
7.95
100
AcDbArc
 50
180.0
 51
450.0
  0
LINE
  5
297
100
AcDbEntity
  8
L1_150
  6
CONTINUOUS
 62
         7
100
AcDbLine
 10
1849.5641910752
 20
133.2524144385
 30
0.0
 11
1842.1039279059
 21
133.2524144385
 31
0.0
  0
LINE
  5
298
100
AcDbEntity
  8
L1_150
  6
CENTER
 62
         1
100
AcDbLine
 10
1849.6861538985
 20
139.2524144385
 30
0.0
 11
1841.8278766343
 21
139.2524144385
 31
0.0
  0
LINE
  5
299
100
AcDbEntity
  8
L1_150
  6
CONTINUOUS
 62
         7
100
AcDbLine
 10
1852.1840594905
 20
136.2227437474
 30
0.0
 11
1852.1840594905
 21
148.1958074336
 31
0.0
  0
LINE
  5
29A
100
AcDbEntity
  8
L1_150
  6
CONTINUOUS
 62
         7
100
AcDbLine
 10
1839.4840594905
 20
136.2227437474
 30
0.0
 11
1839.4840594905
 21
148.1958074336
 31
0.0
  0
CIRCLE
  5
29B
100
AcDbEntity
  8
L1_150
  6
CONTINUOUS
 62
         7
100
AcDbCircle
 10
1845.8340594905
 20
139.2524144385
 30
0.0
 40
2.1
  0
ARC
  5
29C
100
AcDbEntity
  8
L1_150
  6
CONTINUOUS
 62
         4
100
AcDbCircle
 10
1845.8340594905
 20
139.2524144385
 30
0.0
 40
2.6
100
AcDbArc
 50
180.0
 51
450.0
  0
ARC
  5
29D
100
AcDbEntity
  8
L1_150
  6
CONTINUOUS
 62
         7
100
AcDbCircle
 10
1851.0840594905
 20
134.5524144385
 30
0.0
 40
2.0
100
AcDbArc
 50
220.5416018735
 51
416.6329870308
  0
ARC
  5
29E
100
AcDbEntity
  8
L1_150
  6
CONTINUOUS
 62
         7
100
AcDbCircle
 10
1840.5840594905
 20
134.5524144385
 30
0.0
 40
2.0
100
AcDbArc
 50
123.3670129692
 51
319.4583981265
  0
ARC
  5
29F
100
AcDbEntity
  8
L1_150
  6
CONTINUOUS
 62
         4
100
AcDbCircle
 10
1845.8340594905
 20
85.2524144385
 30
0.0
 40
2.6
100
AcDbArc
 50
270.0
 51
540.0
  0
CIRCLE
  5
2A0
100
AcDbEntity
  8
L1_150
  6
CONTINUOUS
 62
         7
100
AcDbCircle
 10
1845.8340594905
 20
85.2524144385
 30
0.0
 40
2.1
  0
LINE
  5
2A1
100
AcDbEntity
  8
L1_150
  6
CONTINUOUS
 62
         7
100
AcDbLine
 10
1849.5641910752
 20
91.2524144385
 30
0.0
 11
1842.1039279059
 21
91.2524144385
 31
0.0
  0
LINE
  5
2A2
100
AcDbEntity
  8
L1_150
  6
CONTINUOUS
 62
         7
100
AcDbLine
 10
1852.1840594905
 20
88.2820851297
 30
0.0
 11
1852.1840594905
 21
76.3090214435
 31
0.0
  0
LINE
  5
2A3
100
AcDbEntity
  8
L1_150
  6
CONTINUOUS
 62
         7
100
AcDbLine
 10
1839.4840594905
 20
88.2820851297
 30
0.0
 11
1839.4840594905
 21
76.3090214435
 31
0.0
  0
LINE
  5
2A4
100
AcDbEntity
  8
L1_150
  6
CENTER
 62
         1
100
AcDbLine
 10
1849.6861538985
 20
85.2524144385
 30
0.0
 11
1841.8278766343
 21
85.2524144385
 31
0.0
  0
ARC
  5
2A5
100
AcDbEntity
  8
L1_150
  6
CONTINUOUS
 62
         7
100
AcDbCircle
 10
1851.0840594905
 20
89.9524144385
 30
0.0
 40
2.0
100
AcDbArc
 50
303.3670129692
 51
499.4583981265
  0
ARC
  5
2A6
100
AcDbEntity
  8
L1_150
  6
CONTINUOUS
 62
         7
100
AcDbCircle
 10
1840.5840594905
 20
89.9524144385
 30
0.0
 40
2.0
100
AcDbArc
 50
40.5416018735
 51
236.6329870308
  0
CIRCLE
  5
2A7
100
AcDbEntity
  8
L1_150
  6
CONTINUOUS
 62
         7
100
AcDbCircle
 10
1845.8340594905
 20
112.2524144385
 30
0.0
 40
36.5
  0
LINE
  5
2A8
100
AcDbEntity
  8
L1_150
  6
CENTER
 62
         1
100
AcDbLine
 10
1700.0155949918
 20
112.2524144385
 30
0.0
 11
1558.8306999334
 21
112.2524144385
 31
0.0
  0
LINE
  5
2A9
100
AcDbEntity
  8
L1_150
  6
CONTINUOUS
 62
         7
100
AcDbLine
 10
1672.2786999334
 20
148.7524144385
 30
0.0
 11
1558.8306999334
 21
148.7524144385
 31
0.0
  0
LINE
  5
2AA
100
AcDbEntity
  8
L1_150
  6
CONTINUOUS
 62
         7
100
AcDbLine
 10
1672.2786999334
 20
75.7524144385
 30
0.0
 11
1558.8306999334
 21
75.7524144385
 31
0.0
  0
LINE
  5
2AB
100
AcDbEntity
  8
L1_150
  6
CONTINUOUS
 62
         7
100
AcDbLine
 10
1689.7786999334
 20
128.1274144385
 30
0.0
 11
1673.7786999334
 21
128.1274144385
 31
0.0
  0
LINE
  5
2AC
100
AcDbEntity
  8
L1_150
  6
CONTINUOUS
 62
         7
100
AcDbLine
 10
1689.7786999334
 20
96.3774144385
 30
0.0
 11
1673.7786999334
 21
96.3774144385
 31
0.0
  0
LINE
  5
2AD
100
AcDbEntity
  8
L1_150
  6
CONTINUOUS
 62
         7
100
AcDbLine
 10
1691.2786999334
 20
126.6274144385
 30
0.0
 11
1691.2786999334
 21
97.8774144385
 31
0.0
  0
LINE
  5
2AE
100
AcDbEntity
  8
L1_150
  6
CONTINUOUS
 62
         7
100
AcDbLine
 10
1673.7786999334
 20
77.2524144385
 30
0.0
 11
1673.7786999334
 21
147.2524144385
 31
0.0
  0
ARC
  5
2AF
100
AcDbEntity
  8
L1_150
  6
CONTINUOUS
 62
         7
100
AcDbCircle
 10
1689.7786999334
 20
126.6274144385
 30
0.0
 40
1.5
100
AcDbArc
 50
0.0
 51
90.0
  0
ARC
  5
2B0
100
AcDbEntity
  8
L1_150
  6
CONTINUOUS
 62
         7
100
AcDbCircle
 10
1689.7786999334
 20
97.8774144385
 30
0.0
 40
1.5
100
AcDbArc
 50
270.0
 51
360.0
  0
ARC
  5
2B1
100
AcDbEntity
  8
L1_150
  6
CONTINUOUS
 62
         7
100
AcDbCircle
 10
1672.2786999334
 20
77.2524144385
 30
0.0
 40
1.5
100
AcDbArc
 50
270.0
 51
360.0
  0
ARC
  5
2B2
100
AcDbEntity
  8
L1_150
  6
CONTINUOUS
 62
         7
100
AcDbCircle
 10
1672.2786999334
 20
147.2524144385
 30
0.0
 40
1.5
100
AcDbArc
 50
0.0
 51
90.0
  0
DIMENSION
  5
2B5
100
AcDbEntity
  8
L1_150
  6
CONTINUOUS
 62
         4
100
AcDbDimension
  2
*D1
 10
1729.9169726237
 20
75.7524144385
 30
0.0
 11
1727.2919726237
 21
104.2105997294
 31
0.0
  3
DIMSTYLE1
100
AcDbAlignedDimension
 13
1672.2786999334
 23
75.7524144385
 33
0.0
 14
1672.2786999334
 24
148.7524144385
 34
0.0
 50
90.0
100
AcDbRotatedDimension
  0
DIMENSION
  5
2C3
100
AcDbEntity
  8
L1_150
  6
CONTINUOUS
 62
         4
100
AcDbDimension
  2
*D2
 10
1715.3521025644
 20
96.3774144385
 30
0.0
 11
1712.7271025644
 21
98.3239315799
 31
0.0
  3
DIMSTYLE1
100
AcDbAlignedDimension
 13
1689.7786999334
 23
96.3774144385
 33
0.0
 14
1689.7786999334
 24
128.1274144385
 34
0.0
 50
90.0
100
AcDbRotatedDimension
  0
LINE
  5
2CF
100
AcDbEntity
  8
L1_150
  6
CONTINUOUS
 62
         7
100
AcDbLine
 10
1675.7786999334
 20
128.1274144385
 30
0.0
 11
1675.7786999334
 21
96.3774144385
 31
0.0
  0
LINE
  5
2D0
100
AcDbEntity
  8
L1_150
  6
CONTINUOUS
 62
         7
100
AcDbLine
 10
1683.2909122903
 20
-119.4150166132
 30
0.0
 11
1641.2786999334
 21
-119.4150166132
 31
0.0
  0
LINE
  5
2D1
100
AcDbEntity
  8
L1_150
  6
CONTINUOUS
 62
         7
100
AcDbLine
 10
1683.2909122903
 20
-134.0650166132
 30
0.0
 11
1641.2786999334
 21
-134.0650166132
 31
0.0
  0
LINE
  5
2D2
100
AcDbEntity
  8
L1_150
  6
CONTINUOUS
 62
         7
100
AcDbLine
 10
1647.2786999334
 20
-118.7900166132
 30
0.0
 11
1647.2786999334
 21
-134.6900166132
 31
0.0
  0
LINE
  5
2D3
100
AcDbEntity
  8
L1_150
  6
CONTINUOUS
 62
         7
100
AcDbLine
 10
1672.2786999334
 20
-163.2400166132
 30
0.0
 11
1558.8306999334
 21
-163.2400166132
 31
0.0
  0
LINE
  5
2D4
100
AcDbEntity
  8
L1_150
  6
CONTINUOUS
 62
         7
100
AcDbLine
 10
1672.2786999334
 20
-90.2400166132
 30
0.0
 11
1558.8306999334
 21
-90.2400166132
 31
0.0
  0
LINE
  5
2D5
100
AcDbEntity
  8
L1_150
  6
CONTINUOUS
 62
         4
100
AcDbLine
 10
1667.6786999334
 20
-156.2400166132
 30
0.0
 11
1657.6786999334
 21
-156.2400166132
 31
0.0
  0
LINE
  5
2D6
100
AcDbEntity
  8
L1_150
  6
CONTINUOUS
 62
         4
100
AcDbLine
 10
1667.6786999334
 20
-151.2400166132
 30
0.0
 11
1657.6786999334
 21
-151.2400166132
 31
0.0
  0
LINE
  5
2D7
100
AcDbEntity
  8
L1_150
  6
CONTINUOUS
 62
         7
100
AcDbLine
 10
1657.6786999334
 20
-151.2400166132
 30
0.0
 11
1657.6786999334
 21
-156.2400166132
 31
0.0
  0
LINE
  5
2D8
100
AcDbEntity
  8
L1_150
  6
CONTINUOUS
 62
         7
100
AcDbLine
 10
1652.6786999334
 20
-151.6400166132
 30
0.0
 11
1652.6786999334
 21
-155.8400166132
 31
0.0
  0
LINE
  5
2D9
100
AcDbEntity
  8
L1_150
  6
CONTINUOUS
 62
         7
100
AcDbLine
 10
1652.6786999334
 20
-151.6400166132
 30
0.0
 11
1651.4662643681
 21
-153.7400166132
 31
0.0
  0
LINE
  5
2DA
100
AcDbEntity
  8
L1_150
  6
CONTINUOUS
 62
         7
100
AcDbLine
 10
1652.6786999334
 20
-155.8400166132
 30
0.0
 11
1651.4662643681
 21
-153.7400166132
 31
0.0
  0
LINE
  5
2DB
100
AcDbEntity
  8
L1_150
  6
CONTINUOUS
 62
         7
100
AcDbLine
 10
1667.6786999334
 20
-151.6400166132
 30
0.0
 11
1652.6786999334
 21
-151.6400166132
 31
0.0
  0
LINE
  5
2DC
100
AcDbEntity
  8
L1_150
  6
CONTINUOUS
 62
         7
100
AcDbLine
 10
1667.6786999334
 20
-155.8400166132
 30
0.0
 11
1652.6786999334
 21
-155.8400166132
 31
0.0
  0
LINE
  5
2DD
100
AcDbEntity
  8
L1_150
  6
CENTER
 62
         1
100
AcDbLine
 10
1668.6264513129
 20
-153.7400166132
 30
0.0
 11
1651.4662643681
 21
-153.7400166132
 31
0.0
  0
LINE
  5
2DE
100
AcDbEntity
  8
L1_150
  6
CONTINUOUS
 62
         7
100
AcDbLine
 10
1667.6786999334
 20
-147.7400166132
 30
0.0
 11
1667.6786999334
 21
-163.2400166132
 31
0.0
  0
LINE
  5
2DF
100
AcDbEntity
  8
L1_150
  6
CONTINUOUS
 62
         7
100
AcDbLine
 10
1673.7786999334
 20
-147.7400166132
 30
0.0
 11
1667.6786999334
 21
-147.7400166132
 31
0.0
  0
LINE
  5
2E0
100
AcDbEntity
  8
L1_150
  6
DASHED
 62
         2
100
AcDbLine
 10
1652.6786999334
 20
-97.6400166132
 30
0.0
 11
1651.4662643681
 21
-99.7400166132
 31
0.0
  0
LINE
  5
2E1
100
AcDbEntity
  8
L1_150
  6
DASHED
 62
         2
100
AcDbLine
 10
1652.6786999334
 20
-101.8400166132
 30
0.0
 11
1651.4662643681
 21
-99.7400166132
 31
0.0
  0
LINE
  5
2E2
100
AcDbEntity
  8
L1_150
  6
DASHED
 62
         2
100
AcDbLine
 10
1652.6786999334
 20
-101.8400166132
 30
0.0
 11
1652.6786999334
 21
-97.6400166132
 31
0.0
  0
LINE
  5
2E3
100
AcDbEntity
  8
L1_150
  6
DASHED
 62
         2
100
AcDbLine
 10
1657.6786999334
 20
-102.2400166132
 30
0.0
 11
1657.6786999334
 21
-97.2400166132
 31
0.0
  0
LINE
  5
2E4
100
AcDbEntity
  8
L1_150
  6
DASHED
 62
         2
100
AcDbLine
 10
1667.6786999334
 20
-102.2400166132
 30
0.0
 11
1657.6786999334
 21
-102.2400166132
 31
0.0
  0
LINE
  5
2E5
100
AcDbEntity
  8
L1_150
  6
DASHED
 62
         2
100
AcDbLine
 10
1667.6786999334
 20
-97.2400166132
 30
0.0
 11
1657.6786999334
 21
-97.2400166132
 31
0.0
  0
LINE
  5
2E6
100
AcDbEntity
  8
L1_150
  6
DASHED
 62
         2
100
AcDbLine
 10
1667.6786999334
 20
-101.8400166132
 30
0.0
 11
1652.6786999334
 21
-101.8400166132
 31
0.0
  0
LINE
  5
2E7
100
AcDbEntity
  8
L1_150
  6
DASHED
 62
         2
100
AcDbLine
 10
1667.6786999334
 20
-97.6400166132
 30
0.0
 11
1652.6786999334
 21
-97.6400166132
 31
0.0
  0
LINE
  5
2E8
100
AcDbEntity
  8
L1_150
  6
CENTER
 62
         1
100
AcDbLine
 10
1668.6264513129
 20
-99.7400166132
 30
0.0
 11
1651.4662643681
 21
-99.7400166132
 31
0.0
  0
LINE
  5
2E9
100
AcDbEntity
  8
L1_150
  6
DASHED
 62
         2
100
AcDbLine
 10
1673.7786999334
 20
-105.7400166132
 30
0.0
 11
1667.6786999334
 21
-105.7400166132
 31
0.0
  0
LINE
  5
2EA
100
AcDbEntity
  8
L1_150
  6
DASHED
 62
         2
100
AcDbLine
 10
1667.6786999334
 20
-105.7400166132
 30
0.0
 11
1667.6786999334
 21
-90.2400166132
 31
0.0
  0
LINE
  5
2EB
100
AcDbEntity
  8
L1_150
  6
CONTINUOUS
 62
         7
100
AcDbLine
 10
1641.2786999334
 20
-119.4150166132
 30
0.0
 11
1641.2786999334
 21
-134.0650166132
 31
0.0
  0
LINE
  5
2EC
100
AcDbEntity
  8
L1_150
  6
CONTINUOUS
 62
         7
100
AcDbLine
 10
1686.2786999334
 20
-114.2400166132
 30
0.0
 11
1683.2909122903
 21
-119.4150166132
 31
0.0
  0
LINE
  5
2ED
100
AcDbEntity
  8
L1_150
  6
CONTINUOUS
 62
         7
100
AcDbLine
 10
1686.2786999334
 20
-139.2400166132
 30
0.0
 11
1683.2909122903
 21
-134.0650166132
 31
0.0
  0
LINE
  5
2EE
100
AcDbEntity
  8
L1_150
  6
CONTINUOUS
 62
         7
100
AcDbLine
 10
1686.2786999334
 20
-114.2400166132
 30
0.0
 11
1686.2786999334
 21
-139.2400166132
 31
0.0
  0
LINE
  5
2EF
100
AcDbEntity
  8
L1_150
  6
CONTINUOUS
 62
         7
100
AcDbLine
 10
1690.2786999334
 20
-139.2400166132
 30
0.0
 11
1686.2786999334
 21
-139.2400166132
 31
0.0
  0
LINE
  5
2F0
100
AcDbEntity
  8
L1_150
  6
CONTINUOUS
 62
         7
100
AcDbLine
 10
1690.2786999334
 20
-114.2400166132
 30
0.0
 11
1686.2786999334
 21
-114.2400166132
 31
0.0
  0
LINE
  5
2F1
100
AcDbEntity
  8
L1_150
  6
CONTINUOUS
 62
         7
100
AcDbLine
 10
1673.7786999334
 20
-161.7400166132
 30
0.0
 11
1673.7786999334
 21
-143.3645120971
 31
0.0
  0
LINE
  5
2F2
100
AcDbEntity
  8
L1_150
  6
CONTINUOUS
 62
         7
100
AcDbLine
 10
1673.5786999334
 20
-142.8150166132
 30
0.0
 11
1673.7786999334
 21
-143.3645120971
 31
0.0
  0
ARC
  5
2F3
100
AcDbEntity
  8
L1_150
  6
CONTINUOUS
 62
         7
100
AcDbCircle
 10
1675.3251100949
 20
-142.8150166132
 30
0.0
 40
0.4
100
AcDbArc
 50
60.0
 51
90.0
  0
LINE
  5
2F4
100
AcDbEntity
  8
L1_150
  6
CONTINUOUS
 62
         7
100
AcDbLine
 10
1675.3251100949
 20
-142.4150166132
 30
0.0
 11
1673.9786999334
 21
-142.4150166132
 31
0.0
  0
LINE
  5
2F5
100
AcDbEntity
  8
L1_150
  6
CONTINUOUS
 62
         7
100
AcDbLine
 10
1675.5251100949
 20
-142.4686064517
 30
0.0
 11
1675.7786999334
 21
-142.6150166132
 31
0.0
  0
ARC
  5
2F6
100
AcDbEntity
  8
L1_150
  6
CONTINUOUS
 62
         7
100
AcDbCircle
 10
1673.9786999334
 20
-142.8150166132
 30
0.0
 40
0.4
100
AcDbArc
 50
90.0
 51
180.0
  0
LINE
  5
2F7
100
AcDbEntity
  8
L1_150
  6
CONTINUOUS
 62
         7
100
AcDbLine
 10
1673.5786999334
 20
-110.6650166132
 30
0.0
 11
1673.7786999334
 21
-110.1155211293
 31
0.0
  0
ARC
  5
2F8
100
AcDbEntity
  8
L1_150
  6
CONTINUOUS
 62
         7
100
AcDbCircle
 10
1675.3251100949
 20
-110.6650166132
 30
0.0
 40
0.4
100
AcDbArc
 50
270.0
 51
300.0
  0
LINE
  5
2F9
100
AcDbEntity
  8
L1_150
  6
CONTINUOUS
 62
         7
100
AcDbLine
 10
1675.5251100949
 20
-111.0114267747
 30
0.0
 11
1675.7786999334
 21
-110.8650166132
 31
0.0
  0
ARC
  5
2FA
100
AcDbEntity
  8
L1_150
  6
CONTINUOUS
 62
         7
100
AcDbCircle
 10
1673.9786999334
 20
-110.6650166132
 30
0.0
 40
0.4
100
AcDbArc
 50
180.0
 51
270.0
  0
LINE
  5
2FB
100
AcDbEntity
  8
L1_150
  6
CONTINUOUS
 62
         7
100
AcDbLine
 10
1675.3251100949
 20
-111.0650166132
 30
0.0
 11
1673.9786999334
 21
-111.0650166132
 31
0.0
  0
LINE
  5
2FC
100
AcDbEntity
  8
L1_150
  6
CENTER
 62
         1
100
AcDbLine
 10
1697.1026062737
 20
-126.7400166132
 30
0.0
 11
1413.5742901603
 21
-126.7400166132
 31
0.0
  0
LINE
  5
2FD
100
AcDbEntity
  8
L1_150
  6
CONTINUOUS
 62
         7
100
AcDbLine
 10
1673.7786999334
 20
-110.1155211293
 30
0.0
 11
1673.7786999334
 21
-91.7400166132
 31
0.0
  0
ARC
  5
2FE
100
AcDbEntity
  8
L1_150
  6
CONTINUOUS
 62
         7
100
AcDbCircle
 10
1689.7786999334
 20
-141.1150166132
 30
0.0
 40
1.5
100
AcDbArc
 50
270.0
 51
360.0
  0
LINE
  5
2FF
100
AcDbEntity
  8
L1_150
  6
CONTINUOUS
 62
         7
100
AcDbLine
 10
1689.7786999334
 20
-142.6150166132
 30
0.0
 11
1675.7786999334
 21
-142.6150166132
 31
0.0
  0
LINE
  5
300
100
AcDbEntity
  8
L1_150
  6
CONTINUOUS
 62
         7
100
AcDbLine
 10
1691.2786999334
 20
-112.3650166132
 30
0.0
 11
1691.2786999334
 21
-141.1150166132
 31
0.0
  0
ARC
  5
301
100
AcDbEntity
  8
L1_150
  6
CONTINUOUS
 62
         7
100
AcDbCircle
 10
1689.7786999334
 20
-112.3650166132
 30
0.0
 40
1.5
100
AcDbArc
 50
0.0
 51
90.0
  0
LINE
  5
302
100
AcDbEntity
  8
L1_150
  6
CONTINUOUS
 62
         7
100
AcDbLine
 10
1689.7786999334
 20
-110.8650166132
 30
0.0
 11
1675.7786999334
 21
-110.8650166132
 31
0.0
  0
LINE
  5
303
100
AcDbEntity
  8
L1_150
  6
CONTINUOUS
 62
         7
100
AcDbLine
 10
1683.2909122903
 20
-119.4150166132
 30
0.0
 11
1683.2909122903
 21
-134.0650166132
 31
0.0
  0
ARC
  5
304
100
AcDbEntity
  8
L1_150
  6
CONTINUOUS
 62
         7
100
AcDbCircle
 10
1690.2786999334
 20
-113.2400166132
 30
0.0
 40
1.0
100
AcDbArc
 50
270.0
 51
360.0
  0
ARC
  5
305
100
AcDbEntity
  8
L1_150
  6
CONTINUOUS
 62
         7
100
AcDbCircle
 10
1690.2786999334
 20
-140.2400166132
 30
0.0
 40
1.0
100
AcDbArc
 50
0.0
 51
90.0
  0
LINE
  5
306
100
AcDbEntity
  8
L1_150
  6
CONTINUOUS
 62
         4
100
AcDbLine
 10
1690.2786999334
 20
-114.2400166132
 30
0.0
 11
1690.2786999334
 21
-139.2400166132
 31
0.0
  0
DIMENSION
  5
309
100
AcDbEntity
  8
L1_150
  6
CONTINUOUS
 62
         4
100
AcDbDimension
  2
*D3
 10
1723.8866582156
 20
-114.2400166132
 30
0.0
 11
1721.2616582156
 21
-134.155331385
 31
0.0
  3
DIMSTYLE1
100
AcDbAlignedDimension
 13
1690.2786999334
 23
-114.2400166132
 33
0.0
 14
1690.2786999334
 24
-139.2400166132
 34
0.0
 50
90.0
100
AcDbRotatedDimension
  0
LINE
  5
315
100
AcDbEntity
  8
L1_150
  6
CONTINUOUS
 62
         4
100
AcDbLine
 10
1647.2786999334
 20
-118.8025007382
 30
0.0
 11
1683.6445484957
 21
-118.8025007382
 31
0.0
  0
LINE
  5
316
100
AcDbEntity
  8
L1_150
  6
CONTINUOUS
 62
         4
100
AcDbLine
 10
1647.2786999334
 20
-134.6775324882
 30
0.0
 11
1683.6445484957
 21
-134.6775324882
 31
0.0
  0
LINE
  5
317
100
AcDbEntity
  8
L1_150
  6
CONTINUOUS
 62
         7
100
AcDbLine
 10
1642.9286999334
 20
-94.4420892074
 30
0.0
 11
1642.9286999334
 21
-113.1437586757
 31
0.0
  0
LINE
  5
318
100
AcDbEntity
  8
L1_150
  6
CENTER
 62
         1
100
AcDbLine
 10
1641.2786999334
 20
-87.8337953246
 30
0.0
 11
1641.2786999334
 21
-126.1151454826
 31
0.0
  0
LINE
  5
319
100
AcDbEntity
  8
L1_150
  6
CONTINUOUS
 62
         7
100
AcDbLine
 10
1639.6286999334
 20
-113.1437586757
 30
0.0
 11
1639.6286999334
 21
-94.4420892074
 31
0.0
  0
LINE
  5
31A
100
AcDbEntity
  8
L1_150
  6
CONTINUOUS
 62
         7
100
AcDbLine
 10
1643.2786999334
 20
-90.2400166132
 30
0.0
 11
1643.2786999334
 21
-94.2400166132
 31
0.0
  0
LINE
  5
31B
100
AcDbEntity
  8
L1_150
  6
CONTINUOUS
 62
         7
100
AcDbLine
 10
1639.2786999334
 20
-90.2400166132
 30
0.0
 11
1639.2786999334
 21
-94.2400166132
 31
0.0
  0
LINE
  5
31C
100
AcDbEntity
  8
L1_150
  6
CONTINUOUS
 62
         4
100
AcDbLine
 10
1639.2786999334
 20
-94.2400166132
 30
0.0
 11
1643.2786999334
 21
-94.2400166132
 31
0.0
  0
LINE
  5
31D
100
AcDbEntity
  8
L1_150
  6
CONTINUOUS
 62
         7
100
AcDbLine
 10
1639.2786999334
 20
-94.2400166132
 30
0.0
 11
1639.6286999334
 21
-94.4420892074
 31
0.0
  0
LINE
  5
31E
100
AcDbEntity
  8
L1_150
  6
CONTINUOUS
 62
         7
100
AcDbLine
 10
1639.6286999334
 20
-94.4420892074
 30
0.0
 11
1642.9286999334
 21
-94.4420892074
 31
0.0
  0
LINE
  5
31F
100
AcDbEntity
  8
L1_150
  6
CONTINUOUS
 62
         7
100
AcDbLine
 10
1643.2786999334
 20
-94.2400166132
 30
0.0
 11
1642.9286999334
 21
-94.4420892074
 31
0.0
  0
LINE
  5
320
100
AcDbEntity
  8
L1_150
  6
CONTINUOUS
 62
         7
100
AcDbLine
 10
1639.6286999334
 20
-113.1437586757
 30
0.0
 11
1637.7286999334
 21
-113.1437586757
 31
0.0
  0
ARC
  5
321
100
AcDbEntity
  8
L1_150
  6
CONTINUOUS
 62
         7
100
AcDbCircle
 10
1672.2786999334
 20
-91.7400166132
 30
0.0
 40
1.5
100
AcDbArc
 50
0.0
 51
90.0
  0
ARC
  5
322
100
AcDbEntity
  8
L1_150
  6
CONTINUOUS
 62
         7
100
AcDbCircle
 10
1672.2786999334
 20
-161.7400166132
 30
0.0
 40
1.5
100
AcDbArc
 50
270.0
 51
360.0
  0
LINE
  5
323
100
AcDbEntity
  8
L1_150
  6
CONTINUOUS
 62
         4
100
AcDbLine
 10
1557.2556999334
 20
147.1774144385
 30
0.0
 11
1557.2556999334
 21
77.3274144385
 31
0.0
  0
LINE
  5
324
100
AcDbEntity
  8
L1_150
  6
CONTINUOUS
 62
         7
100
AcDbLine
 10
1642.9286999334
 20
-116.3437586757
 30
0.0
 11
1642.9286999334
 21
-119.4150166132
 31
0.0
  0
INSERT
  5
39A
100
AcDbEntity
  8
0
  6
CONTINUOUS
100
AcDbBlockReference
  2
*X4
 10
0.0
 20
0.0
 30
0.0
  0
TEXT
  5
39C
100
AcDbEntity
  8
L1_150
  6
CONTINUOUS
 62
         2
100
AcDbText
 10
1830.4058372732
 20
186.4382511173
 30
0.0
 40
4.5
  1
531228
 41
0.98
  7
BOX
100
AcDbText
  0
ENDSEC
  0
SECTION
  2
OBJECTS
  0
DICTIONARY
  5
19
100
AcDbDictionary
  3
ACAD_GROUP
350
1A
  3
ACAD_MLINESTYLE
350
1B
  0
DICTIONARY
  5
1A
102
{ACAD_REACTORS
330
19
102
}
100
AcDbDictionary
  0
DICTIONARY
  5
1B
102
{ACAD_REACTORS
330
19
102
}
100
AcDbDictionary
  3
STANDARD
350
1C
  0
MLINESTYLE
  5
1C
102
{ACAD_REACTORS
330
1B
102
}
100
AcDbMlineStyle
  2
STANDARD
 70
         0
  3

 62
         0
 51
90.0
 52
90.0
 71
         2
 49
0.5
 62
       256
  6
BYLAYER
 49
-0.5
 62
       256
  6
BYLAYER
  0
ENDSEC
  0
EOF
