  0
SECTION
  2
HEADER
  9
$ACADVER
  1
AC1014
  9
$ACADMAINTVER
 70
         0
  9
$DWGCODEPAGE
  3
BIG5
  9
$INSBASE
 10
0.0
 20
0.0
 30
0.0
  9
$EXTMIN
 10
451.6887060467
 20
2826.6782883897
 30
0.0
  9
$EXTMAX
 10
1350.2077045604
 20
3280.1878775115
 30
0.0
  9
$LIMMIN
 10
0.0
 20
0.0
  9
$LIMMAX
 10
0.0
 20
0.0
  9
$ORTHOMODE
 70
         0
  9
$REGENMODE
 70
         1
  9
$FILLMODE
 70
         1
  9
$QTEXTMODE
 70
         0
  9
$MIRRTEXT
 70
         1
  9
$DRAGMODE
 70
         2
  9
$LTSCALE
 40
1.0
  9
$OSMODE
 70
         0
  9
$ATTMODE
 70
         1
  9
$TEXTSIZE
 40
1.7
  9
$TRACEWID
 40
0.05
  9
$TEXTSTYLE
  7
STANDARD
  9
$CLAYER
  8
0
  9
$CELTYPE
  6
CONTINUOUS
  9
$CECOLOR
 62
         4
  9
$CELTSCALE
 40
1.0
  9
$DELOBJ
 70
         1
  9
$DISPSILH
 70
         0
  9
$DIMSCALE
 40
1.0
  9
$DIMASZ
 40
0.18
  9
$DIMEXO
 40
0.0625
  9
$DIMDLI
 40
0.38
  9
$DIMRND
 40
0.0
  9
$DIMDLE
 40
0.0
  9
$DIMEXE
 40
0.25
  9
$DIMTP
 40
0.01
  9
$DIMTM
 40
-0.01
  9
$DIMTXT
 40
3.5
  9
$DIMCEN
 40
0.09
  9
$DIMTSZ
 40
0.0
  9
$DIMTOL
 70
         0
  9
$DIMLIM
 70
         0
  9
$DIMTIH
 70
         1
  9
$DIMTOH
 70
         1
  9
$DIMSE1
 70
         0
  9
$DIMSE2
 70
         0
  9
$DIMTAD
 70
         0
  9
$DIMZIN
 70
         0
  9
$DIMBLK
  1

  9
$DIMASO
 70
         1
  9
$DIMSHO
 70
         1
  9
$DIMPOST
  1

  9
$DIMAPOST
  1

  9
$DIMALT
 70
         0
  9
$DIMALTD
 70
         2
  9
$DIMALTF
 40
25.4
  9
$DIMLFAC
 40
1.0
  9
$DIMTOFL
 70
         0
  9
$DIMTVP
 40
0.0
  9
$DIMTIX
 70
         0
  9
$DIMSOXD
 70
         0
  9
$DIMSAH
 70
         0
  9
$DIMBLK1
  1

  9
$DIMBLK2
  1

  9
$DIMSTYLE
  2
STANDARD
  9
$DIMCLRD
 70
         0
  9
$DIMCLRE
 70
         0
  9
$DIMCLRT
 70
         4
  9
$DIMTFAC
 40
1.0
  9
$DIMGAP
 40
0.09
  9
$DIMJUST
 70
         0
  9
$DIMSD1
 70
         0
  9
$DIMSD2
 70
         0
  9
$DIMTOLJ
 70
         1
  9
$DIMTZIN
 70
         0
  9
$DIMALTZ
 70
         0
  9
$DIMALTTZ
 70
         0
  9
$DIMFIT
 70
         3
  9
$DIMUPT
 70
         0
  9
$DIMUNIT
 70
         2
  9
$DIMDEC
 70
         4
  9
$DIMTDEC
 70
         4
  9
$DIMALTU
 70
         2
  9
$DIMALTTD
 70
         2
  9
$DIMTXSTY
  7
STANDARD
  9
$DIMAUNIT
 70
         0
  9
$LUNITS
 70
         2
  9
$LUPREC
 70
        10
  9
$SKETCHINC
 40
0.1
  9
$FILLETRAD
 40
0.0
  9
$AUNITS
 70
         0
  9
$AUPREC
 70
         0
  9
$MENU
  1
acad
  9
$ELEVATION
 40
0.0
  9
$PELEVATION
 40
0.0
  9
$THICKNESS
 40
0.0
  9
$LIMCHECK
 70
         0
  9
$BLIPMODE
 70
         1
  9
$CHAMFERA
 40
0.0
  9
$CHAMFERB
 40
0.0
  9
$CHAMFERC
 40
0.0
  9
$CHAMFERD
 40
0.0
  9
$SKPOLY
 70
         0
  9
$TDCREATE
 40
0.000000000
  9
$TDUPDATE
 40
0.000000000
  9
$TDINDWG
 40
0.0000000000
  9
$TDUSRTIMER
 40
0.0000000000
  9
$USRTIMER
 70
         1
  9
$ANGBASE
 50
0.0
  9
$ANGDIR
 70
         0
  9
$PDMODE
 70
         2
  9
$PDSIZE
 40
0.0
  9
$PLINEWID
 40
0.0
  9
$COORDS
 70
         1
  9
$SPLFRAME
 70
         0
  9
$SPLINETYPE
 70
         6
  9
$SPLINESEGS
 70
         8
  9
$ATTDIA
 70
         0
  9
$ATTREQ
 70
         1
  9
$HANDLING
 70
         1
  9
$HANDSEED
  5
389
  9
$SURFTAB1
 70
         6
  9
$SURFTAB2
 70
         6
  9
$SURFTYPE
 70
         6
  9
$SURFU
 70
         6
  9
$SURFV
 70
         6
  9
$UCSNAME
  2

  9
$UCSORG
 10
0.0
 20
0.0
 30
0.0
  9
$UCSXDIR
 10
1.0
 20
0.0
 30
0.0
  9
$UCSYDIR
 10
0.0
 20
1.0
 30
0.0
  9
$PUCSNAME
  2

  9
$PUCSORG
 10
0.0
 20
0.0
 30
0.0
  9
$PUCSXDIR
 10
1.0
 20
0.0
 30
0.0
  9
$PUCSYDIR
 10
0.0
 20
1.0
 30
0.0
  9
$USERI1
 70
         0
  9
$USERI2
 70
         0
  9
$USERI3
 70
         0
  9
$USERI4
 70
         0
  9
$USERI5
 70
         0
  9
$USERR1
 40
0.0
  9
$USERR2
 40
0.0
  9
$USERR3
 40
0.0
  9
$USERR4
 40
0.0
  9
$USERR5
 40
0.0
  9
$WORLDVIEW
 70
         1
  9
$SHADEDGE
 70
         3
  9
$SHADEDIF
 70
        70
  9
$TILEMODE
 70
         1
  9
$MAXACTVP
 70
        16
  9
$PINSBASE
 10
0.0
 20
0.0
 30
0.0
  9
$PLIMCHECK
 70
         0
  9
$PEXTMIN
 10
1.0000000000E+20
 20
1.0000000000E+20
 30
1.0000000000E+20
  9
$PEXTMAX
 10
-1.0000000000E+20
 20
-1.0000000000E+20
 30
-1.0000000000E+20
  9
$PLIMMIN
 10
0.0
 20
0.0
  9
$PLIMMAX
 10
12.0
 20
9.0
  9
$UNITMODE
 70
         0
  9
$VISRETAIN
 70
         0
  9
$PLINEGEN
 70
         1
  9
$PSLTSCALE
 70
         0
  9
$TREEDEPTH
 70
      3020
  9
$PICKSTYLE
 70
         1
  9
$CMLSTYLE
  2
STANDARD
  9
$CMLJUST
 70
         0
  9
$CMLSCALE
 40
1.0
  9
$PROXYGRAPHICS
 70
         0
  9
$MEASUREMENT
 70
         0
  0
ENDSEC
  0
SECTION
  2
CLASSES
  0
CLASS
  1
LWPOLYLINE
  2
AcDbPolyline
  3
"AutoCAD"
 90
        0
280
         0
281
         1
  0
CLASS
  1
IMAGE
  2
AcDbRasterImage
  3
ISM
 90
      127
280
         0
281
         1
  0
CLASS
  1
OLE2FRAME
  2
AcDbOle2Frame
  3
""
 90
        0
280
         0
281
         1
  0
CLASS
  1
HATCH
  2
AcDbHatch
  3
"ACAD_SEDONA"
 90
        0
280
         0
281
         1
  0
CLASS
  1
DICTIONARYVAR
  2
AcDbDictionaryVar
  3
"AutoCAD"
 90
        0
280
         0
281
         0
  0
CLASS
  1
RASTERVARIABLES
  2
AcDbRasterVariables
  3
ISM
 90
        0
280
         0
281
         0
  0
CLASS
  1
IMAGEDEF
  2
AcDbRasterImageDef
  3
ISM
 90
        0
280
         0
281
         0
  0
CLASS
  1
IMAGEDEF_REACTOR
  2
AcDbRasterImageDefReactor
  3
ISM
 90
        1
280
         0
281
         0
  0
CLASS
  1
IDBUFFER
  2
AcDbIdBuffer
  3
"Acad"
 90
        0
280
         0
281
         0
  0
CLASS
  1
SPATIAL_FILTER
  2
AcDbSpatialFilter
  3
"Acad"
 90
        0
280
         0
281
         0
  0
CLASS
  1
XRECORD
  2
AcDbXrecord
  3
"<Built In>"
 90
        0
280
         0
281
         0
  0
CLASS
  1
SORTENTSTABLE
  2
AcDbSortentsTable
  3
"AutoCAD"
 90
        0
280
         0
281
         0
  0
CLASS
  1
LAYER_INDEX
  2
AcDbLayerIndex
  3
"Acad"
 90
        0
280
         0
281
         0
  0
CLASS
  1
SPATIAL_INDEX
  2
AcDbSpatialIndex
  3
"Acad"
 90
        0
280
         0
281
         0
  0
CLASS
  1
OBJECT_PTR
  2
CAseDLPNTableRecord
  3
"ASE-LPNTableRecord"
 90
        1
280
         0
281
         0
  0
CLASS
  1
LAYOUT
  2
AcDbLayout
  3
"AutoCAD 2000"
 90
        1
280
         0
281
         0
  0
CLASS
  1
PLOTSETTINGS
  2
AcDbPlotSettings
  3
"AutoCAD 2000"
 90
        1
280
         0
281
         0
  0
CLASS
  1
ACDBDICTIONARYWDFLT
  2
AcDbDictionaryWithDefault
  3
"AutoCAD 2000"
 90
        1
280
         0
281
         0
  0
CLASS
  1
ACDBPLACEHOLDER
  2
AcDbPlaceHolder
  3
"AutoCAD 2000"
 90
        1
280
         0
281
         0
  0
CLASS
  1
VBA_PROJECT
  2
AcDbVbaProject
  3
"acadvba"
 90
        1
280
         0
281
         0
  0
CLASS
  1
WIPEOUT
  2
AcDbWipeout
  3
WipeOut|AutoCAD Express Tool|expresstools@autodesk.com
 90
      127
280
         0
281
         1
  0
CLASS
  1
WIPEOUTVARIABLES
  2
AcDbWipeoutVariables
  3
WipeOut|AutoCAD Express Tool|expresstools@autodesk.com
 90
        0
280
         0
281
         0
  0
CLASS
  1
RTEXT
  2
RText
  3
RText|AutoCAD Express Tool|expresstools@autodesk.com
 90
        0
280
         0
281
         1
  0
CLASS
  1
ARCALIGNEDTEXT
  2
AcDbArcAlignedText
  3
ATEXT|AutoCAD Express Tool|expresstools@autodesk.com
 90
        0
280
         0
281
         1
  0
ENDSEC
  0
SECTION
  2
TABLES
  0
TABLE
  2
VPORT
  5
7
100
AcDbSymbolTable
 70
         1
  0
VPORT
  5
15
100
AcDbSymbolTableRecord
100
AcDbViewportTableRecord
  2
*ACTIVE
 70
         0
 10
0.0
 20
0.0
 11
1.0
 21
1.0
 12
900.9482053035
 22
3053.4330829506
 13
0.0
 23
0.0
 14
1.0
 24
1.0
 15
0.0
 25
0.0
 16
0.0
 26
0.0
 36
1.0
 17
0.0
 27
0.0
 37
0.0
 40
453.5095891218
 41
1.9812568908
 42
50.0
 43
0.0
 44
0.0
 50
0.0
 51
0.0
 71
         0
 72
       100
 73
         1
 74
         1
 75
         0
 76
         0
 77
         0
 78
         0
  0
ENDTAB
  0
TABLE
  2
LTYPE
  5
4
100
AcDbSymbolTable
 70
         6
  0
LTYPE
  5
11
100
AcDbSymbolTableRecord
100
AcDbLinetypeTableRecord
  2
BYBLOCK
 70
        64
  3

 72
        65
 73
         0
 40
0.0
  0
LTYPE
  5
12
100
AcDbSymbolTableRecord
100
AcDbLinetypeTableRecord
  2
BYLAYER
 70
        64
  3

 72
        65
 73
         0
 40
0.0
  0
LTYPE
  5
13
100
AcDbSymbolTableRecord
100
AcDbLinetypeTableRecord
  2
CONTINUOUS
 70
        64
  3
Solid line
 72
        65
 73
         0
 40
0.0
  0
LTYPE
  5
1D
100
AcDbSymbolTableRecord
100
AcDbLinetypeTableRecord
  2
DASHED
 70
        64
  3
_ _ _ _ _ _ _ _ _ _ _ _ _ _ _ _
 72
        65
 73
         2
 40
0.2
 49
0.1
 74
         0
 49
-0.1
 74
         0
  0
LTYPE
  5
1E
100
AcDbSymbolTableRecord
100
AcDbLinetypeTableRecord
  2
CENTER
 70
        64
  3
___ _ ___ _ ___ _ ___ _ ___ _ ___ _ ___ _ ___ _
 72
        65
 73
         4
 40
0.95
 49
0.625
 74
         0
 49
-0.125
 74
         0
 49
0.075
 74
         0
 49
-0.125
 74
         0
  0
LTYPE
  5
1F
100
AcDbSymbolTableRecord
100
AcDbLinetypeTableRecord
  2
PHANTOM
 70
        64
  3
______  __  __  ______  __  __  ______  __  __  
 72
        65
 73
         6
 40
1.025
 49
0.625
 74
         0
 49
-0.125
 74
         0
 49
0.075
 74
         0
 49
-0.125
 74
         0
 49
0.075
 74
         0
 49
-0.125
 74
         0
  0
ENDTAB
  0
TABLE
  2
LAYER
  5
2
100
AcDbSymbolTable
 70
        10
  0
LAYER
  5
14
100
AcDbSymbolTableRecord
100
AcDbLayerTableRecord
  2
0
 70
         0
 62
         7
  6
CONTINUOUS
  0
LAYER
  5
21
100
AcDbSymbolTableRecord
100
AcDbLayerTableRecord
  2
______
 70
         0
 62
         7
  6
CONTINUOUS
  0
LAYER
  5
22
100
AcDbSymbolTableRecord
100
AcDbLayerTableRecord
  2
______
 70
         1
 62
         7
  6
CONTINUOUS
  0
LAYER
  5
23
100
AcDbSymbolTableRecord
100
AcDbLayerTableRecord
  2
______
 70
         1
 62
         7
  6
CONTINUOUS
  0
LAYER
  5
24
100
AcDbSymbolTableRecord
100
AcDbLayerTableRecord
  2
______
 70
         1
 62
         7
  6
CONTINUOUS
  0
LAYER
  5
25
100
AcDbSymbolTableRecord
100
AcDbLayerTableRecord
  2
___G__
 70
         1
 62
         7
  6
CONTINUOUS
  0
LAYER
  5
26
100
AcDbSymbolTableRecord
100
AcDbLayerTableRecord
  2
______
 70
         1
 62
         7
  6
CONTINUOUS
  0
LAYER
  5
27
100
AcDbSymbolTableRecord
100
AcDbLayerTableRecord
  2
_____I
 70
         1
 62
         7
  6
CONTINUOUS
  0
LAYER
  5
28
100
AcDbSymbolTableRecord
100
AcDbLayerTableRecord
  2
___T__
 70
         1
 62
         7
  6
CONTINUOUS
  0
LAYER
  5
39
100
AcDbSymbolTableRecord
100
AcDbLayerTableRecord
  2
DEFPOINTS
 70
         0
 62
        -7
  6
CONTINUOUS
  0
ENDTAB
  0
TABLE
  2
STYLE
  5
3
100
AcDbSymbolTable
 70
        27
  0
STYLE
  5
17
100
AcDbSymbolTableRecord
100
AcDbTextStyleTableRecord
  2
STANDARD
 70
         0
 40
0.0
 41
1.0
 50
0.0
 71
         0
 42
0.0
  3
txt
  4

  0
STYLE
  5
42
100
AcDbSymbolTableRecord
100
AcDbTextStyleTableRecord
  2
BOX
 70
         0
 40
1.0
 41
1.0
 50
0.0
 71
         0
 42
0.2
  3
txt.shx
  4

  0
STYLE
  5
50
100
AcDbSymbolTableRecord
100
AcDbTextStyleTableRecord
  2
BOX
 70
         0
 40
1.0
 41
1.0
 50
0.0
 71
         0
 42
0.2
  3
txt.shx
  4

  0
STYLE
  5
C8
100
AcDbSymbolTableRecord
100
AcDbTextStyleTableRecord
  2
BOX
 70
         0
 40
1.0
 41
1.0
 50
0.0
 71
         0
 42
0.2
  3
txt.shx
  4

  0
STYLE
  5
D6
100
AcDbSymbolTableRecord
100
AcDbTextStyleTableRecord
  2
BOX
 70
         0
 40
1.0
 41
1.0
 50
0.0
 71
         0
 42
0.2
  3
txt.shx
  4

  0
STYLE
  5
144
100
AcDbSymbolTableRecord
100
AcDbTextStyleTableRecord
  2
BOX
 70
         0
 40
1.0
 41
1.0
 50
0.0
 71
         0
 42
0.2
  3
txt.shx
  4

  0
STYLE
  5
155
100
AcDbSymbolTableRecord
100
AcDbTextStyleTableRecord
  2
BOX
 70
         0
 40
1.0
 41
1.0
 50
0.0
 71
         0
 42
0.2
  3
txt.shx
  4

  0
STYLE
  5
1E6
100
AcDbSymbolTableRecord
100
AcDbTextStyleTableRecord
  2
BOX
 70
         0
 40
1.0
 41
1.0
 50
0.0
 71
         0
 42
0.2
  3
txt.shx
  4

  0
STYLE
  5
1F4
100
AcDbSymbolTableRecord
100
AcDbTextStyleTableRecord
  2
BOX
 70
         0
 40
1.0
 41
1.0
 50
0.0
 71
         0
 42
0.2
  3
txt.shx
  4

  0
STYLE
  5
22F
100
AcDbSymbolTableRecord
100
AcDbTextStyleTableRecord
  2
BOX
 70
         0
 40
1.0
 41
1.0
 50
0.0
 71
         0
 42
0.2
  3
txt.shx
  4

  0
STYLE
  5
25C
100
AcDbSymbolTableRecord
100
AcDbTextStyleTableRecord
  2
BOX
 70
         0
 40
1.0
 41
1.0
 50
0.0
 71
         0
 42
0.2
  3
txt.shx
  4

  0
STYLE
  5
26C
100
AcDbSymbolTableRecord
100
AcDbTextStyleTableRecord
  2
BOX
 70
         0
 40
1.0
 41
1.0
 50
0.0
 71
         0
 42
0.2
  3
txt.shx
  4

  0
STYLE
  5
27A
100
AcDbSymbolTableRecord
100
AcDbTextStyleTableRecord
  2
BOX
 70
         0
 40
1.0
 41
1.0
 50
0.0
 71
         0
 42
0.2
  3
txt.shx
  4

  0
STYLE
  5
289
100
AcDbSymbolTableRecord
100
AcDbTextStyleTableRecord
  2
BOX
 70
         0
 40
1.0
 41
1.0
 50
0.0
 71
         0
 42
0.2
  3
txt.shx
  4

  0
STYLE
  5
297
100
AcDbSymbolTableRecord
100
AcDbTextStyleTableRecord
  2
BOX
 70
         0
 40
1.0
 41
1.0
 50
0.0
 71
         0
 42
0.2
  3
txt.shx
  4

  0
STYLE
  5
2A7
100
AcDbSymbolTableRecord
100
AcDbTextStyleTableRecord
  2
BOX
 70
         0
 40
1.0
 41
1.0
 50
0.0
 71
         0
 42
0.2
  3
txt.shx
  4

  0
STYLE
  5
2B5
100
AcDbSymbolTableRecord
100
AcDbTextStyleTableRecord
  2
BOX
 70
         0
 40
1.0
 41
1.0
 50
0.0
 71
         0
 42
0.2
  3
txt.shx
  4

  0
STYLE
  5
2C3
100
AcDbSymbolTableRecord
100
AcDbTextStyleTableRecord
  2
BOX
 70
         0
 40
1.0
 41
1.0
 50
0.0
 71
         0
 42
0.2
  3
txt.shx
  4

  0
STYLE
  5
2E8
100
AcDbSymbolTableRecord
100
AcDbTextStyleTableRecord
  2
BOX
 70
         0
 40
1.0
 41
1.0
 50
0.0
 71
         0
 42
0.2
  3
txt.shx
  4

  0
STYLE
  5
2F6
100
AcDbSymbolTableRecord
100
AcDbTextStyleTableRecord
  2
BOX
 70
         0
 40
1.0
 41
1.0
 50
0.0
 71
         0
 42
0.2
  3
txt.shx
  4

  0
STYLE
  5
305
100
AcDbSymbolTableRecord
100
AcDbTextStyleTableRecord
  2
BOX
 70
         0
 40
1.0
 41
1.0
 50
0.0
 71
         0
 42
0.2
  3
txt.shx
  4

  0
STYLE
  5
313
100
AcDbSymbolTableRecord
100
AcDbTextStyleTableRecord
  2
BOX
 70
         0
 40
1.0
 41
1.0
 50
0.0
 71
         0
 42
0.2
  3
txt.shx
  4

  0
STYLE
  5
321
100
AcDbSymbolTableRecord
100
AcDbTextStyleTableRecord
  2
BOX
 70
         0
 40
1.0
 41
1.0
 50
0.0
 71
         0
 42
0.2
  3
txt.shx
  4

  0
STYLE
  5
330
100
AcDbSymbolTableRecord
100
AcDbTextStyleTableRecord
  2
BOX
 70
         0
 40
1.0
 41
1.0
 50
0.0
 71
         0
 42
0.2
  3
txt.shx
  4

  0
STYLE
  5
35D
100
AcDbSymbolTableRecord
100
AcDbTextStyleTableRecord
  2
BOX
 70
         0
 40
1.0
 41
1.0
 50
0.0
 71
         0
 42
0.2
  3
txt.shx
  4

  0
STYLE
  5
384
100
AcDbSymbolTableRecord
100
AcDbTextStyleTableRecord
  2
BOX
 70
         0
 40
1.0
 41
1.0
 50
0.0
 71
         0
 42
0.2
  3
txt.shx
  4

  0
STYLE
  5
387
100
AcDbSymbolTableRecord
100
AcDbTextStyleTableRecord
  2
BOX
 70
         0
 40
1.0
 41
1.0
 50
0.0
 71
         0
 42
0.2
  3
txt.shx
  4

  0
ENDTAB
  0
TABLE
  2
VIEW
  5
5
100
AcDbSymbolTable
 70
         0
  0
ENDTAB
  0
TABLE
  2
UCS
  5
6
100
AcDbSymbolTable
 70
         1
  0
UCS
  5
20
100
AcDbSymbolTableRecord
100
AcDbUCSTableRecord
  2
CK_VIEW_1
 70
         0
 10
0.0
 20
0.0
 30
1.0
 11
1.0
 21
0.0
 31
0.0
 12
0.0
 22
1.0
 32
0.0
  0
ENDTAB
  0
TABLE
  2
APPID
  5
8
100
AcDbSymbolTable
 70
         1
  0
APPID
  5
16
100
AcDbSymbolTableRecord
100
AcDbRegAppTableRecord
  2
ACAD
 70
         0
  0
ENDTAB
  0
TABLE
  2
DIMSTYLE
  5
9
100
AcDbSymbolTable
 70
         2
  0
DIMSTYLE
105
18
100
AcDbSymbolTableRecord
100
AcDbDimStyleTableRecord
  2
STANDARD
 70
         0
  3

  4

  5

  6

  7

 40
1.0
 41
0.18
 42
0.0625
 43
0.38
 44
0.18
 45
0.0
 46
0.0
 47
0.0
 48
0.0
 71
         0
 72
         0
 73
         1
 74
         1
 75
         0
 76
         0
 77
         0
 78
         0
140
0.18
141
0.09
142
0.0
143
25.4
144
1.0
145
0.0
146
1.0
147
0.09
170
         0
171
         2
172
         0
173
         0
174
         0
175
         0
176
         0
177
         0
178
         0
270
         2
271
         4
272
         4
273
         2
274
         2
275
         0
280
         0
281
         0
282
         0
283
         1
284
         0
285
         0
286
         0
287
         0
288
         0
340
17
  0
DIMSTYLE
105
35
100
AcDbSymbolTableRecord
100
AcDbDimStyleTableRecord
  2
DIMSTYLE1
 70
         0
  3

  4

  5

  6

  7

 40
1.0
 41
3.5
 42
0.0625
 43
0.38
 44
3.5
 45
0.0
 46
0.0
 47
0.0
 48
0.0
 71
         0
 72
         0
 73
         1
 74
         1
 75
         0
 76
         0
 77
         0
 78
         0
140
3.5
141
0.09
142
0.0
143
25.4
144
1.0
145
0.0
146
1.0
147
0.09
170
         0
171
         2
172
         0
173
         0
174
         0
175
         0
176
         0
177
         0
178
         0
270
         2
271
         4
272
         4
273
         2
274
         2
275
         0
280
         0
281
         0
282
         0
283
         1
284
         0
285
         0
286
         0
287
         0
288
         0
340
17
  0
ENDTAB
  0
TABLE
  2
BLOCK_RECORD
  5
1
100
AcDbSymbolTable
 70
        28
  0
BLOCK_RECORD
  5
A
100
AcDbSymbolTableRecord
100
AcDbBlockTableRecord
  2
*MODEL_SPACE
  0
BLOCK_RECORD
  5
B
100
AcDbSymbolTableRecord
100
AcDbBlockTableRecord
  2
*PAPER_SPACE
  0
BLOCK_RECORD
  5
36
100
AcDbSymbolTableRecord
100
AcDbBlockTableRecord
  2
*D0
  0
BLOCK_RECORD
  5
45
100
AcDbSymbolTableRecord
100
AcDbBlockTableRecord
  2
*D1
  0
BLOCK_RECORD
  5
53
100
AcDbSymbolTableRecord
100
AcDbBlockTableRecord
  2
*X2
  0
BLOCK_RECORD
  5
BD
100
AcDbSymbolTableRecord
100
AcDbBlockTableRecord
  2
*D3
  0
BLOCK_RECORD
  5
CB
100
AcDbSymbolTableRecord
100
AcDbBlockTableRecord
  2
*D4
  0
BLOCK_RECORD
  5
139
100
AcDbSymbolTableRecord
100
AcDbBlockTableRecord
  2
*D5
  0
BLOCK_RECORD
  5
14A
100
AcDbSymbolTableRecord
100
AcDbBlockTableRecord
  2
*D6
  0
BLOCK_RECORD
  5
1DB
100
AcDbSymbolTableRecord
100
AcDbBlockTableRecord
  2
*D7
  0
BLOCK_RECORD
  5
1E9
100
AcDbSymbolTableRecord
100
AcDbBlockTableRecord
  2
*D8
  0
BLOCK_RECORD
  5
224
100
AcDbSymbolTableRecord
100
AcDbBlockTableRecord
  2
*D9
  0
BLOCK_RECORD
  5
24F
100
AcDbSymbolTableRecord
100
AcDbBlockTableRecord
  2
*D10
  0
BLOCK_RECORD
  5
25F
100
AcDbSymbolTableRecord
100
AcDbBlockTableRecord
  2
*D11
  0
BLOCK_RECORD
  5
26F
100
AcDbSymbolTableRecord
100
AcDbBlockTableRecord
  2
*D12
  0
BLOCK_RECORD
  5
27E
100
AcDbSymbolTableRecord
100
AcDbBlockTableRecord
  2
*D13
  0
BLOCK_RECORD
  5
28C
100
AcDbSymbolTableRecord
100
AcDbBlockTableRecord
  2
*D14
  0
BLOCK_RECORD
  5
29C
100
AcDbSymbolTableRecord
100
AcDbBlockTableRecord
  2
*D15
  0
BLOCK_RECORD
  5
2AA
100
AcDbSymbolTableRecord
100
AcDbBlockTableRecord
  2
*D16
  0
BLOCK_RECORD
  5
2B8
100
AcDbSymbolTableRecord
100
AcDbBlockTableRecord
  2
*D17
  0
BLOCK_RECORD
  5
2DD
100
AcDbSymbolTableRecord
100
AcDbBlockTableRecord
  2
*D18
  0
BLOCK_RECORD
  5
2EB
100
AcDbSymbolTableRecord
100
AcDbBlockTableRecord
  2
*D19
  0
BLOCK_RECORD
  5
2F9
100
AcDbSymbolTableRecord
100
AcDbBlockTableRecord
  2
*D20
  0
BLOCK_RECORD
  5
308
100
AcDbSymbolTableRecord
100
AcDbBlockTableRecord
  2
*D21
  0
BLOCK_RECORD
  5
316
100
AcDbSymbolTableRecord
100
AcDbBlockTableRecord
  2
*D22
  0
BLOCK_RECORD
  5
324
100
AcDbSymbolTableRecord
100
AcDbBlockTableRecord
  2
*D23
  0
BLOCK_RECORD
  5
352
100
AcDbSymbolTableRecord
100
AcDbBlockTableRecord
  2
*D24
  0
BLOCK_RECORD
  5
360
100
AcDbSymbolTableRecord
100
AcDbBlockTableRecord
  2
*X25
  0
BLOCK_RECORD
  5
36C
100
AcDbSymbolTableRecord
100
AcDbBlockTableRecord
  2
*X26
  0
BLOCK_RECORD
  5
379
100
AcDbSymbolTableRecord
100
AcDbBlockTableRecord
  2
*D27
  0
ENDTAB
  0
ENDSEC
  0
SECTION
  2
BLOCKS
  0
BLOCK
  5
D
100
AcDbEntity
  8
0
100
AcDbBlockBegin
  2
*MODEL_SPACE
 70
         0
 10
0.0
 20
0.0
 30
0.0
  3
*MODEL_SPACE
  1

  0
ENDBLK
  5
E
100
AcDbEntity
  8
0
100
AcDbBlockEnd
  0
BLOCK
  5
F
100
AcDbEntity
 67
         1
  8
0
100
AcDbBlockBegin
  2
*PAPER_SPACE
 70
         0
 10
0.0
 20
0.0
 30
0.0
  3
*PAPER_SPACE
  1

  0
ENDBLK
  5
10
100
AcDbEntity
 67
         1
  8
0
100
AcDbBlockEnd
  0
BLOCK
  5
37
100
AcDbEntity
  8
0
100
AcDbBlockBegin
  2
*D0
 70
        65
 10
0.0
 20
0.0
 30
0.0
  3
*D0
  1

  0
POINT
  5
3A
100
AcDbEntity
  8
DEFPOINTS
  6
CONTINUOUS
 62
         0
100
AcDbPoint
 10
1123.3459934036
 20
3026.7558113524
 30
0.0
  0
POINT
  5
3B
100
AcDbEntity
  8
DEFPOINTS
  6
CONTINUOUS
 62
         0
100
AcDbPoint
 10
1123.3459934036
 20
3080.9879685999
 30
0.0
  0
POINT
  5
3C
100
AcDbEntity
  8
DEFPOINTS
  6
CONTINUOUS
 62
         0
100
AcDbPoint
 10
1195.1459934036
 20
3080.9879685999
 30
0.0
  0
LINE
  5
3D
100
AcDbEntity
  8
______
  6
CONTINUOUS
 62
         4
100
AcDbLine
 10
1123.3459934036
 20
3079.2379685999
 30
0.0
 11
1123.3459934036
 21
3025.8808113524
 31
0.0
  0
LINE
  5
3E
100
AcDbEntity
  8
______
  6
CONTINUOUS
 62
         4
100
AcDbLine
 10
1195.1459934036
 20
3079.2379685999
 30
0.0
 11
1195.1459934036
 21
3025.8808113524
 31
0.0
  0
LINE
  5
3F
100
AcDbEntity
  8
______
  6
CONTINUOUS
 62
         4
100
AcDbLine
 10
1123.3459934036
 20
3026.7558113524
 30
0.0
 11
1195.1459934036
 21
3026.7558113524
 31
0.0
  0
SOLID
  5
40
100
AcDbEntity
  8
______
  6
CONTINUOUS
 62
         4
100
AcDbTrace
 10
1123.3459934036
 20
3026.7558113524
 30
0.0
 11
1126.8459934036
 21
3027.2808113524
 31
0.0
 12
1126.8459934036
 22
3026.2308113524
 32
0.0
 13
1123.3459934036
 23
3026.7558113524
 33
0.0
  0
SOLID
  5
41
100
AcDbEntity
  8
______
  6
CONTINUOUS
 62
         4
100
AcDbTrace
 10
1195.1459934036
 20
3026.7558113524
 30
0.0
 11
1191.6459934036
 21
3026.2308113524
 31
0.0
 12
1191.6459934036
 22
3027.2808113524
 32
0.0
 13
1195.1459934036
 23
3026.7558113524
 33
0.0
  0
TEXT
  5
43
100
AcDbEntity
  8
______
  6
CONTINUOUS
 62
         4
100
AcDbText
 10
1152.5300240383
 20
3029.3808113524
 30
0.0
 40
3.5
  1
71.8
  7
BOX
100
AcDbText
  0
ENDBLK
  5
44
100
AcDbEntity
  8
0
  6
CONTINUOUS
100
AcDbBlockEnd
  0
BLOCK
  5
46
100
AcDbEntity
  8
0
100
AcDbBlockBegin
  2
*D1
 70
        65
 10
0.0
 20
0.0
 30
0.0
  3
*D1
  1

  0
POINT
  5
48
100
AcDbEntity
  8
DEFPOINTS
  6
CONTINUOUS
 62
         0
100
AcDbPoint
 10
1072.7003606144
 20
3080.9879685999
 30
0.0
  0
POINT
  5
49
100
AcDbEntity
  8
DEFPOINTS
  6
CONTINUOUS
 62
         0
100
AcDbPoint
 10
1123.3459934036
 20
3080.9879685999
 30
0.0
  0
POINT
  5
4A
100
AcDbEntity
  8
DEFPOINTS
  6
CONTINUOUS
 62
         0
100
AcDbPoint
 10
1123.3459934036
 20
3152.7879685999
 30
0.0
  0
LINE
  5
4B
100
AcDbEntity
  8
______
  6
CONTINUOUS
 62
         4
100
AcDbLine
 10
1121.5959934036
 20
3080.9879685999
 30
0.0
 11
1071.8253606144
 21
3080.9879685999
 31
0.0
  0
LINE
  5
4C
100
AcDbEntity
  8
______
  6
CONTINUOUS
 62
         4
100
AcDbLine
 10
1121.5959934036
 20
3152.7879685999
 30
0.0
 11
1071.8253606144
 21
3152.7879685999
 31
0.0
  0
LINE
  5
4D
100
AcDbEntity
  8
______
  6
CONTINUOUS
 62
         4
100
AcDbLine
 10
1072.7003606144
 20
3080.9879685999
 30
0.0
 11
1072.7003606144
 21
3152.7879685999
 31
0.0
  0
SOLID
  5
4E
100
AcDbEntity
  8
______
  6
CONTINUOUS
 62
         4
100
AcDbTrace
 10
1072.7003606144
 20
3080.9879685999
 30
0.0
 11
1072.1753606144
 21
3084.4879685999
 31
0.0
 12
1073.2253606144
 22
3084.4879685999
 32
0.0
 13
1072.7003606144
 23
3080.9879685999
 33
0.0
  0
SOLID
  5
4F
100
AcDbEntity
  8
______
  6
CONTINUOUS
 62
         4
100
AcDbTrace
 10
1072.7003606144
 20
3152.7879685999
 30
0.0
 11
1073.2253606144
 21
3149.2879685999
 31
0.0
 12
1072.1753606144
 22
3149.2879685999
 32
0.0
 13
1072.7003606144
 23
3152.7879685999
 33
0.0
  0
TEXT
  5
51
100
AcDbEntity
  8
______
  6
CONTINUOUS
 62
         4
100
AcDbText
 10
1070.0753606144
 20
3105.3887135863
 30
0.0
 40
3.5
  1
71.8
 50
90.0
  7
BOX
100
AcDbText
  0
ENDBLK
  5
52
100
AcDbEntity
  8
0
  6
CONTINUOUS
100
AcDbBlockEnd
  0
BLOCK
  5
54
100
AcDbEntity
  8
0
100
AcDbBlockBegin
  2
*X2
 70
        65
 10
0.0
 20
0.0
 30
0.0
  3
*X2
  1

  0
LINE
  5
55
100
AcDbEntity
  8
______
  6
CONTINUOUS
 62
         4
100
AcDbLine
 10
924.7786269934
 20
2895.7303765488
 30
0.0
 11
927.5725521555
 21
2898.5243017109
 31
0.0
  0
LINE
  5
56
100
AcDbEntity
  8
______
  6
CONTINUOUS
 62
         4
100
AcDbLine
 10
920.5359863063
 20
2895.7303765488
 30
0.0
 11
927.5725521555
 21
2902.766942398
 31
0.0
  0
LINE
  5
57
100
AcDbEntity
  8
______
  6
CONTINUOUS
 62
         4
100
AcDbLine
 10
884.0433456192
 20
2863.4803765488
 30
0.0
 11
885.5725521555
 21
2865.0095830851
 31
0.0
  0
LINE
  5
58
100
AcDbEntity
  8
______
  6
CONTINUOUS
 62
         4
100
AcDbLine
 10
916.2933456192
 20
2895.7303765488
 30
0.0
 11
927.5725521555
 21
2907.0095830851
 31
0.0
  0
LINE
  5
59
100
AcDbEntity
  8
______
  6
CONTINUOUS
 62
         4
100
AcDbLine
 10
879.8007049321
 20
2863.4803765488
 30
0.0
 11
885.5725521555
 21
2869.2522237722
 31
0.0
  0
LINE
  5
5A
100
AcDbEntity
  8
______
  6
CONTINUOUS
 62
         4
100
AcDbLine
 10
912.0507049321
 20
2895.7303765488
 30
0.0
 11
927.5725521555
 21
2911.2522237722
 31
0.0
  0
LINE
  5
5B
100
AcDbEntity
  8
______
  6
CONTINUOUS
 62
         4
100
AcDbLine
 10
875.5580642449
 20
2863.4803765488
 30
0.0
 11
883.1830642449
 21
2871.1053765488
 31
0.0
  0
LINE
  5
5C
100
AcDbEntity
  8
______
  6
CONTINUOUS
 62
         4
100
AcDbLine
 10
907.8080642449
 20
2895.7303765488
 30
0.0
 11
927.5725521555
 21
2915.4948644594
 31
0.0
  0
LINE
  5
5D
100
AcDbEntity
  8
______
  6
CONTINUOUS
 62
         4
100
AcDbLine
 10
871.3154235578
 20
2863.4803765488
 30
0.0
 11
878.9404235578
 21
2871.1053765488
 31
0.0
  0
LINE
  5
5E
100
AcDbEntity
  8
______
  6
CONTINUOUS
 62
         4
100
AcDbLine
 10
903.5654235578
 20
2895.7303765488
 30
0.0
 11
927.5725521555
 21
2919.7375051465
 31
0.0
  0
LINE
  5
5F
100
AcDbEntity
  8
______
  6
CONTINUOUS
 62
         4
100
AcDbLine
 10
867.0727828707
 20
2863.4803765488
 30
0.0
 11
874.6977828707
 21
2871.1053765488
 31
0.0
  0
LINE
  5
60
100
AcDbEntity
  8
______
  6
CONTINUOUS
 62
         4
100
AcDbLine
 10
881.4477828707
 20
2877.8553765488
 30
0.0
 11
885.5725521555
 21
2881.9801458336
 31
0.0
  0
LINE
  5
61
100
AcDbEntity
  8
______
  6
CONTINUOUS
 62
         4
100
AcDbLine
 10
894.0727828707
 20
2890.4803765488
 30
0.0
 11
898.0725521555
 21
2894.4801458336
 31
0.0
  0
LINE
  5
62
100
AcDbEntity
  8
______
  6
CONTINUOUS
 62
         4
100
AcDbLine
 10
899.5227828707
 20
2895.9303765488
 30
0.0
 11
927.5725521555
 21
2923.9801458336
 31
0.0
  0
LINE
  5
63
100
AcDbEntity
  8
______
  6
CONTINUOUS
 62
         4
100
AcDbLine
 10
862.8301421836
 20
2863.4803765488
 30
0.0
 11
870.5295771231
 21
2871.1798114883
 31
0.0
  0
LINE
  5
64
100
AcDbEntity
  8
______
  6
CONTINUOUS
 62
         4
100
AcDbLine
 10
877.2051421836
 20
2877.8553765488
 30
0.0
 11
885.5725521555
 21
2886.2227865207
 31
0.0
  0
LINE
  5
65
100
AcDbEntity
  8
______
  6
CONTINUOUS
 62
         4
100
AcDbLine
 10
889.8301421836
 20
2890.4803765488
 30
0.0
 11
925.8515427787
 21
2926.5017771439
 31
0.0
  0
LINE
  5
66
100
AcDbEntity
  8
______
  6
CONTINUOUS
 62
         4
100
AcDbLine
 10
858.7308976243
 20
2863.6237726766
 30
0.0
 11
868.9766628525
 21
2873.8695379048
 31
0.0
  0
LINE
  5
67
100
AcDbEntity
  8
______
  6
CONTINUOUS
 62
         4
100
AcDbLine
 10
872.9625014965
 20
2877.8553765488
 30
0.0
 11
885.5725521555
 21
2890.4654272078
 31
0.0
  0
LINE
  5
68
100
AcDbEntity
  8
______
  6
CONTINUOUS
 62
         4
100
AcDbLine
 10
885.5875014965
 20
2890.4803765488
 30
0.0
 11
927.5725521555
 21
2932.4654272078
 31
0.0
  0
LINE
  5
69
100
AcDbEntity
  8
______
  6
CONTINUOUS
 62
         4
100
AcDbLine
 10
857.4745521555
 20
2866.610067895
 30
0.0
 11
927.5725521555
 21
2936.708067895
 31
0.0
  0
LINE
  5
6A
100
AcDbEntity
  8
______
  6
CONTINUOUS
 62
         4
100
AcDbLine
 10
857.4745521555
 20
2870.8527085821
 30
0.0
 11
927.5725521555
 21
2940.9507085821
 31
0.0
  0
LINE
  5
6B
100
AcDbEntity
  8
______
  6
CONTINUOUS
 62
         4
100
AcDbLine
 10
857.4745521555
 20
2875.0953492692
 30
0.0
 11
927.5725521555
 21
2945.1933492692
 31
0.0
  0
LINE
  5
6C
100
AcDbEntity
  8
______
  6
CONTINUOUS
 62
         4
100
AcDbLine
 10
857.4745521555
 20
2879.3379899563
 30
0.0
 11
927.5725521555
 21
2949.4359899563
 31
0.0
  0
LINE
  5
6D
100
AcDbEntity
  8
______
  6
CONTINUOUS
 62
         4
100
AcDbLine
 10
857.4745521555
 20
2883.5806306434
 30
0.0
 11
927.5725521555
 21
2953.6786306434
 31
0.0
  0
LINE
  5
6E
100
AcDbEntity
  8
______
  6
CONTINUOUS
 62
         4
100
AcDbLine
 10
857.4745521555
 20
2887.8232713306
 30
0.0
 11
927.4807238782
 21
2957.8294430532
 31
0.0
  0
LINE
  5
6F
100
AcDbEntity
  8
______
  6
CONTINUOUS
 62
         4
100
AcDbLine
 10
857.4745521555
 20
2892.0659120177
 30
0.0
 11
924.6390166866
 21
2959.2303765488
 31
0.0
  0
LINE
  5
70
100
AcDbEntity
  8
______
  6
CONTINUOUS
 62
         4
100
AcDbLine
 10
839.8963759995
 20
2878.7303765488
 30
0.0
 11
842.3225521555
 21
2881.1565527048
 31
0.0
  0
LINE
  5
71
100
AcDbEntity
  8
______
  6
CONTINUOUS
 62
         4
100
AcDbLine
 10
853.7213759995
 20
2892.5553765488
 30
0.0
 11
920.3963759995
 21
2959.2303765488
 31
0.0
  0
LINE
  5
72
100
AcDbEntity
  8
______
  6
CONTINUOUS
 62
         4
100
AcDbLine
 10
837.0517046062
 20
2880.1283458426
 30
0.0
 11
842.3225521555
 21
2885.3991933919
 31
0.0
  0
LINE
  5
73
100
AcDbEntity
  8
______
  6
CONTINUOUS
 62
         4
100
AcDbLine
 10
849.4787353124
 20
2892.5553765488
 30
0.0
 11
916.1537353124
 21
2959.2303765488
 31
0.0
  0
LINE
  5
74
100
AcDbEntity
  8
______
  6
CONTINUOUS
 62
         4
100
AcDbLine
 10
834.5360946253
 20
2881.8553765488
 30
0.0
 11
842.3225521555
 21
2889.641834079
 31
0.0
  0
LINE
  5
75
100
AcDbEntity
  8
______
  6
CONTINUOUS
 62
         4
100
AcDbLine
 10
845.2360946253
 20
2892.5553765488
 30
0.0
 11
911.9110946253
 21
2959.2303765488
 31
0.0
  0
LINE
  5
76
100
AcDbEntity
  8
______
  6
CONTINUOUS
 62
         4
100
AcDbLine
 10
827.3025742313
 20
2878.864496842
 30
0.0
 11
907.6684539381
 21
2959.2303765488
 31
0.0
  0
LINE
  5
77
100
AcDbEntity
  8
______
  6
CONTINUOUS
 62
         4
100
AcDbLine
 10
826.4225521555
 20
2882.2271154533
 30
0.0
 11
903.425813251
 21
2959.2303765488
 31
0.0
  0
LINE
  5
78
100
AcDbEntity
  8
______
  6
CONTINUOUS
 62
         4
100
AcDbLine
 10
826.4225521555
 20
2886.4697561404
 30
0.0
 11
898.9831725639
 21
2959.0303765488
 31
0.0
  0
LINE
  5
79
100
AcDbEntity
  8
______
  6
CONTINUOUS
 62
         4
100
AcDbLine
 10
826.4225521555
 20
2890.7123968275
 30
0.0
 11
898.0725521555
 21
2962.3623968275
 31
0.0
  0
LINE
  5
7A
100
AcDbEntity
  8
______
  6
CONTINUOUS
 62
         4
100
AcDbLine
 10
824.2995551179
 20
2892.832040477
 30
0.0
 11
895.9478911897
 21
2964.4803765488
 31
0.0
  0
LINE
  5
7B
100
AcDbEntity
  8
______
  6
CONTINUOUS
 62
         4
100
AcDbLine
 10
820.2183652219
 20
2892.9934912681
 30
0.0
 11
891.7052505025
 21
2964.4803765488
 31
0.0
  0
LINE
  5
7C
100
AcDbEntity
  8
______
  6
CONTINUOUS
 62
         4
100
AcDbLine
 10
816.5157014226
 20
2893.533468156
 30
0.0
 11
887.4626098154
 21
2964.4803765488
 31
0.0
  0
LINE
  5
7D
100
AcDbEntity
  8
______
  6
CONTINUOUS
 62
         4
100
AcDbLine
 10
812.8130376234
 20
2894.0734450439
 30
0.0
 11
885.5725521555
 21
2966.832959576
 31
0.0
  0
LINE
  5
7E
100
AcDbEntity
  8
______
  6
CONTINUOUS
 62
         4
100
AcDbLine
 10
809.1103738242
 20
2894.6134219318
 30
0.0
 11
885.5725521555
 21
2971.0756002631
 31
0.0
  0
LINE
  5
7F
100
AcDbEntity
  8
______
  6
CONTINUOUS
 62
         4
100
AcDbLine
 10
805.407710025
 20
2895.1533988197
 30
0.0
 11
885.5725521555
 21
2975.3182409502
 31
0.0
  0
LINE
  5
80
100
AcDbEntity
  8
______
  6
CONTINUOUS
 62
         4
100
AcDbLine
 10
801.7050462257
 20
2895.6933757076
 30
0.0
 11
883.117047067
 21
2977.1053765488
 31
0.0
  0
LINE
  5
81
100
AcDbEntity
  8
______
  6
CONTINUOUS
 62
         4
100
AcDbLine
 10
798.0023824265
 20
2896.2333525955
 30
0.0
 11
878.8744063798
 21
2977.1053765488
 31
0.0
  0
LINE
  5
82
100
AcDbEntity
  8
______
  6
CONTINUOUS
 62
         4
100
AcDbLine
 10
794.2997186273
 20
2896.7733294834
 30
0.0
 11
874.6317656927
 21
2977.1053765488
 31
0.0
  0
LINE
  5
83
100
AcDbEntity
  8
______
  6
CONTINUOUS
 62
         4
100
AcDbLine
 10
881.3817656927
 20
2983.8553765488
 30
0.0
 11
885.5725521555
 21
2988.0461630116
 31
0.0
  0
LINE
  5
84
100
AcDbEntity
  8
______
  6
CONTINUOUS
 62
         4
100
AcDbLine
 10
790.5970548281
 20
2897.3133063712
 30
0.0
 11
855.6891250056
 21
2962.4053765488
 31
0.0
  0
LINE
  5
85
100
AcDbEntity
  8
______
  6
CONTINUOUS
 62
         4
100
AcDbLine
 10
857.4745521555
 20
2964.1908036987
 30
0.0
 11
870.5054131589
 21
2977.2216647021
 31
0.0
  0
LINE
  5
86
100
AcDbEntity
  8
______
  6
CONTINUOUS
 62
         4
100
AcDbLine
 10
877.1391250056
 20
2983.8553765488
 30
0.0
 11
884.7641250056
 21
2991.4803765488
 31
0.0
  0
LINE
  5
87
100
AcDbEntity
  8
______
  6
CONTINUOUS
 62
         4
100
AcDbLine
 10
786.8943910288
 20
2897.8532832591
 30
0.0
 11
851.4464843185
 21
2962.4053765488
 31
0.0
  0
LINE
  5
88
100
AcDbEntity
  8
______
  6
CONTINUOUS
 62
         4
100
AcDbLine
 10
857.4745521555
 20
2968.4334443858
 30
0.0
 11
868.9524988883
 21
2979.9113911186
 31
0.0
  0
LINE
  5
89
100
AcDbEntity
  8
______
  6
CONTINUOUS
 62
         4
100
AcDbLine
 10
872.8964843185
 20
2983.8553765488
 30
0.0
 11
880.5214843185
 21
2991.4803765488
 31
0.0
  0
LINE
  5
8A
100
AcDbEntity
  8
______
  6
CONTINUOUS
 62
         4
100
AcDbLine
 10
783.1917272296
 20
2898.393260147
 30
0.0
 11
847.2038436314
 21
2962.4053765488
 31
0.0
  0
LINE
  5
8B
100
AcDbEntity
  8
______
  6
CONTINUOUS
 62
         4
100
AcDbLine
 10
857.4745521555
 20
2972.6760850729
 30
0.0
 11
876.2788436314
 21
2991.4803765488
 31
0.0
  0
LINE
  5
8C
100
AcDbEntity
  8
______
  6
CONTINUOUS
 62
         4
100
AcDbLine
 10
779.4890634304
 20
2898.9332370349
 30
0.0
 11
842.9612029442
 21
2962.4053765488
 31
0.0
  0
LINE
  5
8D
100
AcDbEntity
  8
______
  6
CONTINUOUS
 62
         4
100
AcDbLine
 10
857.4745521555
 20
2976.9187257601
 30
0.0
 11
872.0362029442
 21
2991.4803765488
 31
0.0
  0
LINE
  5
8E
100
AcDbEntity
  8
______
  6
CONTINUOUS
 62
         4
100
AcDbLine
 10
775.7863996312
 20
2899.4732139228
 30
0.0
 11
842.3225521555
 21
2966.0093664472
 31
0.0
  0
LINE
  5
8F
100
AcDbEntity
  8
______
  6
CONTINUOUS
 62
         4
100
AcDbLine
 10
857.4745521555
 20
2981.1613664472
 30
0.0
 11
867.7935622571
 21
2991.4803765488
 31
0.0
  0
LINE
  5
90
100
AcDbEntity
  8
______
  6
CONTINUOUS
 62
         4
100
AcDbLine
 10
772.0837358319
 20
2900.0131908107
 30
0.0
 11
842.3225521555
 21
2970.2520071343
 31
0.0
  0
LINE
  5
91
100
AcDbEntity
  8
______
  6
CONTINUOUS
 62
         4
100
AcDbLine
 10
857.4745521555
 20
2985.4040071343
 30
0.0
 11
863.55092157
 21
2991.4803765488
 31
0.0
  0
LINE
  5
92
100
AcDbEntity
  8
______
  6
CONTINUOUS
 62
         4
100
AcDbLine
 10
768.3810720327
 20
2900.5531676986
 30
0.0
 11
841.0806530845
 21
2973.2527487504
 31
0.0
  0
LINE
  5
93
100
AcDbEntity
  8
______
  6
CONTINUOUS
 62
         4
100
AcDbLine
 10
842.3001799539
 20
2974.4722756198
 30
0.0
 11
842.3225521555
 21
2974.4946478214
 31
0.0
  0
LINE
  5
94
100
AcDbEntity
  8
______
  6
CONTINUOUS
 62
         4
100
AcDbLine
 10
857.4821216312
 20
2989.6542172971
 30
0.0
 11
859.3007114072
 21
2991.4728070731
 31
0.0
  0
LINE
  5
95
100
AcDbEntity
  8
______
  6
CONTINUOUS
 62
         4
100
AcDbLine
 10
764.6784082335
 20
2901.0931445865
 30
0.0
 11
825.4906401958
 21
2961.9053765488
 31
0.0
  0
LINE
  5
96
100
AcDbEntity
  8
______
  6
CONTINUOUS
 62
         4
100
AcDbLine
 10
826.4225521555
 20
2962.8372885085
 30
0.0
 11
839.8156401958
 21
2976.2303765488
 31
0.0
  0
LINE
  5
97
100
AcDbEntity
  8
______
  6
CONTINUOUS
 62
         4
100
AcDbLine
 10
760.9757444343
 20
2901.6331214744
 30
0.0
 11
776.4266580452
 21
2917.0840350854
 31
0.0
  0
LINE
  5
98
100
AcDbEntity
  8
______
  6
CONTINUOUS
 62
         4
100
AcDbLine
 10
776.5352446761
 20
2917.1926217162
 30
0.0
 11
821.4962438428
 21
2962.1536208829
 31
0.0
  0
LINE
  5
99
100
AcDbEntity
  8
______
  6
CONTINUOUS
 62
         4
100
AcDbLine
 10
826.4225521555
 20
2967.0799291957
 30
0.0
 11
832.5617132341
 21
2973.2190902742
 31
0.0
  0
LINE
  5
9A
100
AcDbEntity
  8
______
  6
CONTINUOUS
 62
         4
100
AcDbLine
 10
757.273080635
 20
2902.1730983623
 30
0.0
 11
772.1840173581
 21
2917.0840350854
 31
0.0
  0
LINE
  5
9B
100
AcDbEntity
  8
______
  6
CONTINUOUS
 62
         4
100
AcDbLine
 10
782.3307996338
 20
2927.2308173611
 30
0.0
 11
816.5292418834
 21
2961.4292596107
 31
0.0
  0
LINE
  5
9C
100
AcDbEntity
  8
______
  6
CONTINUOUS
 62
         4
100
AcDbLine
 10
826.4225521555
 20
2971.3225698828
 30
0.0
 11
830.9854277841
 21
2975.8854455113
 31
0.0
  0
LINE
  5
9D
100
AcDbEntity
  8
______
  6
CONTINUOUS
 62
         4
100
AcDbLine
 10
753.5704168358
 20
2902.7130752502
 30
0.0
 11
767.941376671
 21
2917.0840350854
 31
0.0
  0
LINE
  5
9E
100
AcDbEntity
  8
______
  6
CONTINUOUS
 62
         4
100
AcDbLine
 10
780.9605753681
 20
2930.1032337825
 30
0.0
 11
811.5622399241
 21
2960.7048983385
 31
0.0
  0
LINE
  5
9F
100
AcDbEntity
  8
______
  6
CONTINUOUS
 62
         4
100
AcDbLine
 10
749.8677530366
 20
2903.2530521381
 30
0.0
 11
763.6987359839
 21
2917.0840350854
 31
0.0
  0
LINE
  5
A0
100
AcDbEntity
  8
______
  6
CONTINUOUS
 62
         4
100
AcDbLine
 10
779.4076610975
 20
2932.792960199
 30
0.0
 11
806.5952379648
 21
2959.9805370663
 31
0.0
  0
LINE
  5
A1
100
AcDbEntity
  8
______
  6
CONTINUOUS
 62
         4
100
AcDbLine
 10
746.1650892374
 20
2903.793029026
 30
0.0
 11
759.4560952967
 21
2917.0840350854
 31
0.0
  0
LINE
  5
A2
100
AcDbEntity
  8
______
  6
CONTINUOUS
 62
         4
100
AcDbLine
 10
777.8547468269
 20
2935.4826866155
 30
0.0
 11
801.6282360055
 21
2959.2561757941
 31
0.0
  0
LINE
  5
A3
100
AcDbEntity
  8
______
  6
CONTINUOUS
 62
         4
100
AcDbLine
 10
742.4624254381
 20
2904.3330059139
 30
0.0
 11
755.2134546096
 21
2917.0840350854
 31
0.0
  0
LINE
  5
A4
100
AcDbEntity
  8
______
  6
CONTINUOUS
 62
         4
100
AcDbLine
 10
776.0061375365
 20
2937.8767180122
 30
0.0
 11
796.6612340461
 21
2958.5318145219
 31
0.0
  0
LINE
  5
A5
100
AcDbEntity
  8
______
  6
CONTINUOUS
 62
         4
100
AcDbLine
 10
738.7597616389
 20
2904.8729828018
 30
0.0
 11
750.9708139225
 21
2917.0840350854
 31
0.0
  0
LINE
  5
A6
100
AcDbEntity
  8
______
  6
CONTINUOUS
 62
         4
100
AcDbLine
 10
771.7634968493
 20
2937.8767180122
 30
0.0
 11
791.6942320868
 21
2957.8074532497
 31
0.0
  0
LINE
  5
A7
100
AcDbEntity
  8
______
  6
CONTINUOUS
 62
         4
100
AcDbLine
 10
735.0570978397
 20
2905.4129596897
 30
0.0
 11
746.7281732354
 21
2917.0840350854
 31
0.0
  0
LINE
  5
A8
100
AcDbEntity
  8
______
  6
CONTINUOUS
 62
         4
100
AcDbLine
 10
767.5208561622
 20
2937.8767180122
 30
0.0
 11
786.7272301275
 21
2957.0830919774
 31
0.0
  0
LINE
  5
A9
100
AcDbEntity
  8
______
  6
CONTINUOUS
 62
         4
100
AcDbLine
 10
731.3544340405
 20
2905.9529365776
 30
0.0
 11
742.4855325483
 21
2917.0840350854
 31
0.0
  0
LINE
  5
AA
100
AcDbEntity
  8
______
  6
CONTINUOUS
 62
         4
100
AcDbLine
 10
763.2782154751
 20
2937.8767180122
 30
0.0
 11
781.7602281681
 21
2956.3587307052
 31
0.0
  0
LINE
  5
AB
100
AcDbEntity
  8
______
  6
CONTINUOUS
 62
         4
100
AcDbLine
 10
727.6517702413
 20
2906.4929134655
 30
0.0
 11
738.2428918612
 21
2917.0840350854
 31
0.0
  0
LINE
  5
AC
100
AcDbEntity
  8
______
  6
CONTINUOUS
 62
         4
100
AcDbLine
 10
759.035574788
 20
2937.8767180122
 30
0.0
 11
776.7932262088
 21
2955.634369433
 31
0.0
  0
LINE
  5
AD
100
AcDbEntity
  8
______
  6
CONTINUOUS
 62
         4
100
AcDbLine
 10
723.949106442
 20
2907.0328903534
 30
0.0
 11
734.000251174
 21
2917.0840350854
 31
0.0
  0
LINE
  5
AE
100
AcDbEntity
  8
______
  6
CONTINUOUS
 62
         4
100
AcDbLine
 10
754.7929341009
 20
2937.8767180122
 30
0.0
 11
771.8262242495
 21
2954.9100081608
 31
0.0
  0
LINE
  5
AF
100
AcDbEntity
  8
______
  6
CONTINUOUS
 62
         4
100
AcDbLine
 10
721.5630247668
 20
2908.8894493652
 30
0.0
 11
727.4552942593
 21
2914.7817188577
 31
0.0
  0
LINE
  5
B0
100
AcDbEntity
  8
______
  6
CONTINUOUS
 62
         4
100
AcDbLine
 10
750.5502934137
 20
2937.8767180122
 30
0.0
 11
766.8592222902
 21
2954.1856468886
 31
0.0
  0
LINE
  5
B1
100
AcDbEntity
  8
______
  6
CONTINUOUS
 62
         4
100
AcDbLine
 10
721.4725521555
 20
2913.0416174411
 30
0.0
 11
723.4113112632
 21
2914.9803765488
 31
0.0
  0
LINE
  5
B2
100
AcDbEntity
  8
______
  6
CONTINUOUS
 62
         4
100
AcDbLine
 10
746.3076527266
 20
2937.8767180122
 30
0.0
 11
761.8922203308
 21
2953.4612856164
 31
0.0
  0
LINE
  5
B3
100
AcDbEntity
  8
______
  6
CONTINUOUS
 62
         4
100
AcDbLine
 10
742.0650120395
 20
2937.8767180122
 30
0.0
 11
756.9252183715
 21
2952.7369243442
 31
0.0
  0
LINE
  5
B4
100
AcDbEntity
  8
______
  6
CONTINUOUS
 62
         4
100
AcDbLine
 10
737.8223713524
 20
2937.8767180122
 30
0.0
 11
751.9582164122
 21
2952.012563072
 31
0.0
  0
LINE
  5
B5
100
AcDbEntity
  8
______
  6
CONTINUOUS
 62
         4
100
AcDbLine
 10
733.5797306653
 20
2937.8767180122
 30
0.0
 11
746.9912144529
 21
2951.2882017998
 31
0.0
  0
LINE
  5
B6
100
AcDbEntity
  8
______
  6
CONTINUOUS
 62
         4
100
AcDbLine
 10
729.6144930476
 20
2938.1541210817
 30
0.0
 11
742.0242124935
 21
2950.5638405276
 31
0.0
  0
LINE
  5
B7
100
AcDbEntity
  8
______
  6
CONTINUOUS
 62
         4
100
AcDbLine
 10
727.3981078276
 20
2940.1803765488
 30
0.0
 11
737.0572105342
 21
2949.8394792554
 31
0.0
  0
LINE
  5
B8
100
AcDbEntity
  8
______
  6
CONTINUOUS
 62
         4
100
AcDbLine
 10
722.9555633501
 20
2939.9804727584
 30
0.0
 11
732.0902085749
 21
2949.1151179832
 31
0.0
  0
LINE
  5
B9
100
AcDbEntity
  8
______
  6
CONTINUOUS
 62
         4
100
AcDbLine
 10
721.4725521555
 20
2942.7401022509
 30
0.0
 11
727.1232066155
 21
2948.3907567109
 31
0.0
  0
ENDBLK
  5
BA
100
AcDbEntity
  8
0
  6
CONTINUOUS
100
AcDbBlockEnd
  0
BLOCK
  5
BE
100
AcDbEntity
  8
0
100
AcDbBlockBegin
  2
*D3
 70
        65
 10
0.0
 20
0.0
 30
0.0
  3
*D3
  1

  0
POINT
  5
C0
100
AcDbEntity
  8
DEFPOINTS
  6
CONTINUOUS
 62
         0
100
AcDbPoint
 10
721.4725521555
 20
3253.0382588801
 30
0.0
  0
POINT
  5
C1
100
AcDbEntity
  8
DEFPOINTS
  6
CONTINUOUS
 62
         0
100
AcDbPoint
 10
721.4725521555
 20
3134.812429158
 30
0.0
  0
POINT
  5
C2
100
AcDbEntity
  8
DEFPOINTS
  6
CONTINUOUS
 62
         0
100
AcDbPoint
 10
927.5725521555
 20
3146.6379685999
 30
0.0
  0
LINE
  5
C3
100
AcDbEntity
  8
______
  6
CONTINUOUS
 62
         4
100
AcDbLine
 10
721.4725521555
 20
3136.562429158
 30
0.0
 11
721.4725521555
 21
3253.9132588801
 31
0.0
  0
LINE
  5
C4
100
AcDbEntity
  8
______
  6
CONTINUOUS
 62
         4
100
AcDbLine
 10
927.5725521555
 20
3148.3879685999
 30
0.0
 11
927.5725521555
 21
3253.9132588801
 31
0.0
  0
LINE
  5
C5
100
AcDbEntity
  8
______
  6
CONTINUOUS
 62
         4
100
AcDbLine
 10
721.4725521555
 20
3253.0382588801
 30
0.0
 11
927.5725521555
 21
3253.0382588801
 31
0.0
  0
SOLID
  5
C6
100
AcDbEntity
  8
______
  6
CONTINUOUS
 62
         4
100
AcDbTrace
 10
721.4725521555
 20
3253.0382588801
 30
0.0
 11
724.9725521555
 21
3253.5632588801
 31
0.0
 12
724.9725521555
 22
3252.5132588801
 32
0.0
 13
721.4725521555
 23
3253.0382588801
 33
0.0
  0
SOLID
  5
C7
100
AcDbEntity
  8
______
  6
CONTINUOUS
 62
         4
100
AcDbTrace
 10
927.5725521555
 20
3253.0382588801
 30
0.0
 11
924.0725521555
 21
3252.5132588801
 31
0.0
 12
924.0725521555
 22
3253.5632588801
 32
0.0
 13
927.5725521555
 23
3253.0382588801
 33
0.0
  0
TEXT
  5
C9
100
AcDbEntity
  8
______
  6
CONTINUOUS
 62
         4
100
AcDbText
 10
815.7725521555
 20
3255.6632588801
 30
0.0
 40
3.5
  1
206.1
  7
BOX
100
AcDbText
  0
ENDBLK
  5
CA
100
AcDbEntity
  8
0
  6
CONTINUOUS
100
AcDbBlockEnd
  0
BLOCK
  5
CC
100
AcDbEntity
  8
0
100
AcDbBlockBegin
  2
*D4
 70
        65
 10
0.0
 20
0.0
 30
0.0
  3
*D4
  1

  0
POINT
  5
CE
100
AcDbEntity
  8
DEFPOINTS
  6
CONTINUOUS
 62
         0
100
AcDbPoint
 10
823.2225521555
 20
3239.948633858
 30
0.0
  0
POINT
  5
CF
100
AcDbEntity
  8
DEFPOINTS
  6
CONTINUOUS
 62
         0
100
AcDbPoint
 10
823.2225521555
 20
3156.6129685999
 30
0.0
  0
POINT
  5
D0
100
AcDbEntity
  8
DEFPOINTS
  6
CONTINUOUS
 62
         0
100
AcDbPoint
 10
898.0725521555
 20
3178.8879685999
 30
0.0
  0
LINE
  5
D1
100
AcDbEntity
  8
______
  6
CONTINUOUS
 62
         4
100
AcDbLine
 10
823.2225521555
 20
3158.3629685999
 30
0.0
 11
823.2225521555
 21
3240.823633858
 31
0.0
  0
LINE
  5
D2
100
AcDbEntity
  8
______
  6
CONTINUOUS
 62
         4
100
AcDbLine
 10
898.0725521555
 20
3180.6379685999
 30
0.0
 11
898.0725521555
 21
3240.823633858
 31
0.0
  0
LINE
  5
D3
100
AcDbEntity
  8
______
  6
CONTINUOUS
 62
         4
100
AcDbLine
 10
823.2225521555
 20
3239.948633858
 30
0.0
 11
898.0725521555
 21
3239.948633858
 31
0.0
  0
SOLID
  5
D4
100
AcDbEntity
  8
______
  6
CONTINUOUS
 62
         4
100
AcDbTrace
 10
823.2225521555
 20
3239.948633858
 30
0.0
 11
826.7225521555
 21
3240.473633858
 31
0.0
 12
826.7225521555
 22
3239.423633858
 32
0.0
 13
823.2225521555
 23
3239.948633858
 33
0.0
  0
SOLID
  5
D5
100
AcDbEntity
  8
______
  6
CONTINUOUS
 62
         4
100
AcDbTrace
 10
898.0725521555
 20
3239.948633858
 30
0.0
 11
894.5725521555
 21
3239.423633858
 31
0.0
 12
894.5725521555
 22
3240.473633858
 32
0.0
 13
898.0725521555
 23
3239.948633858
 33
0.0
  0
TEXT
  5
D7
100
AcDbEntity
  8
______
  6
CONTINUOUS
 62
         4
100
AcDbText
 10
857.1475521555
 20
3242.573633858
 30
0.0
 40
3.5
  1
75
  7
BOX
100
AcDbText
  0
ENDBLK
  5
D8
100
AcDbEntity
  8
0
  6
CONTINUOUS
100
AcDbBlockEnd
  0
BLOCK
  5
13A
100
AcDbEntity
  8
0
100
AcDbBlockBegin
  2
*D5
 70
        65
 10
0.0
 20
0.0
 30
0.0
  3
*D5
  1

  0
POINT
  5
13C
100
AcDbEntity
  8
DEFPOINTS
  6
CONTINUOUS
 62
         0
100
AcDbPoint
 10
1121.5459934036
 20
3226.4582980652
 30
0.0
  0
POINT
  5
13D
100
AcDbEntity
  8
DEFPOINTS
  6
CONTINUOUS
 62
         0
100
AcDbPoint
 10
1121.5459934036
 20
3129.7379685999
 30
0.0
  0
POINT
  5
13E
100
AcDbEntity
  8
DEFPOINTS
  6
CONTINUOUS
 62
         0
100
AcDbPoint
 10
1159.2459934036
 20
3175.2299743899
 30
0.0
  0
LINE
  5
13F
100
AcDbEntity
  8
______
  6
CONTINUOUS
 62
         4
100
AcDbLine
 10
1121.5459934036
 20
3131.4879685999
 30
0.0
 11
1121.5459934036
 21
3227.3332980652
 31
0.0
  0
LINE
  5
140
100
AcDbEntity
  8
______
  6
CONTINUOUS
 62
         4
100
AcDbLine
 10
1159.2459934036
 20
3176.9799743899
 30
0.0
 11
1159.2459934036
 21
3227.3332980652
 31
0.0
  0
LINE
  5
141
100
AcDbEntity
  8
______
  6
CONTINUOUS
 62
         4
100
AcDbLine
 10
1121.5459934036
 20
3226.4582980652
 30
0.0
 11
1159.2459934036
 21
3226.4582980652
 31
0.0
  0
SOLID
  5
142
100
AcDbEntity
  8
______
  6
CONTINUOUS
 62
         4
100
AcDbTrace
 10
1121.5459934036
 20
3226.4582980652
 30
0.0
 11
1125.0459934036
 21
3226.9832980652
 31
0.0
 12
1125.0459934036
 22
3225.9332980652
 32
0.0
 13
1121.5459934036
 23
3226.4582980652
 33
0.0
  0
SOLID
  5
143
100
AcDbEntity
  8
______
  6
CONTINUOUS
 62
         4
100
AcDbTrace
 10
1159.2459934036
 20
3226.4582980652
 30
0.0
 11
1155.7459934036
 21
3225.9332980652
 31
0.0
 12
1155.7459934036
 22
3226.9832980652
 32
0.0
 13
1159.2459934036
 23
3226.4582980652
 33
0.0
  0
TEXT
  5
145
100
AcDbEntity
  8
______
  6
CONTINUOUS
 62
         4
100
AcDbText
 10
1126.832892054
 20
3229.0832980652
 30
0.0
 40
3.5
  1
37.7
  7
BOX
100
AcDbText
  0
ENDBLK
  5
146
100
AcDbEntity
  8
0
  6
CONTINUOUS
100
AcDbBlockEnd
  0
BLOCK
  5
14B
100
AcDbEntity
  8
0
100
AcDbBlockBegin
  2
*D6
 70
        65
 10
0.0
 20
0.0
 30
0.0
  3
*D6
  1

  0
POINT
  5
14D
100
AcDbEntity
  8
DEFPOINTS
  6
CONTINUOUS
 62
         0
100
AcDbPoint
 10
1159.2459934036
 20
3226.4582980652
 30
0.0
  0
POINT
  5
14E
100
AcDbEntity
  8
DEFPOINTS
  6
CONTINUOUS
 62
         0
100
AcDbPoint
 10
1159.2459934036
 20
3175.2299743899
 30
0.0
  0
POINT
  5
14F
100
AcDbEntity
  8
DEFPOINTS
  6
CONTINUOUS
 62
         0
100
AcDbPoint
 10
1194.7459934036
 20
3130.517874435
 30
0.0
  0
LINE
  5
150
100
AcDbEntity
  8
______
  6
CONTINUOUS
 62
         4
100
AcDbLine
 10
1159.2459934036
 20
3176.9799743899
 30
0.0
 11
1159.2459934036
 21
3227.3332980652
 31
0.0
  0
LINE
  5
151
100
AcDbEntity
  8
______
  6
CONTINUOUS
 62
         4
100
AcDbLine
 10
1194.7459934036
 20
3132.267874435
 30
0.0
 11
1194.7459934036
 21
3227.3332980652
 31
0.0
  0
LINE
  5
152
100
AcDbEntity
  8
______
  6
CONTINUOUS
 62
         4
100
AcDbLine
 10
1159.2459934036
 20
3226.4582980652
 30
0.0
 11
1194.7459934036
 21
3226.4582980652
 31
0.0
  0
SOLID
  5
153
100
AcDbEntity
  8
______
  6
CONTINUOUS
 62
         4
100
AcDbTrace
 10
1159.2459934036
 20
3226.4582980652
 30
0.0
 11
1162.7459934036
 21
3226.9832980652
 31
0.0
 12
1162.7459934036
 22
3225.9332980652
 32
0.0
 13
1159.2459934036
 23
3226.4582980652
 33
0.0
  0
SOLID
  5
154
100
AcDbEntity
  8
______
  6
CONTINUOUS
 62
         4
100
AcDbTrace
 10
1194.7459934036
 20
3226.4582980652
 30
0.0
 11
1191.2459934036
 21
3225.9332980652
 31
0.0
 12
1191.2459934036
 22
3226.9832980652
 32
0.0
 13
1194.7459934036
 23
3226.4582980652
 33
0.0
  0
TEXT
  5
156
100
AcDbEntity
  8
______
  6
CONTINUOUS
 62
         4
100
AcDbText
 10
1163.4137152167
 20
3229.0832980652
 30
0.0
 40
3.5
  1
35.3
  7
BOX
100
AcDbText
  0
ENDBLK
  5
157
100
AcDbEntity
  8
0
  6
CONTINUOUS
100
AcDbBlockEnd
  0
BLOCK
  5
1DC
100
AcDbEntity
  8
0
100
AcDbBlockBegin
  2
*D7
 70
        65
 10
0.0
 20
0.0
 30
0.0
  3
*D7
  1

  0
POINT
  5
1DE
100
AcDbEntity
  8
DEFPOINTS
  6
CONTINUOUS
 62
         0
100
AcDbPoint
 10
954.892861754
 20
3085.1379685999
 30
0.0
  0
POINT
  5
1DF
100
AcDbEntity
  8
DEFPOINTS
  6
CONTINUOUS
 62
         0
100
AcDbPoint
 10
925.5725521555
 20
3085.1379685999
 30
0.0
  0
POINT
  5
1E0
100
AcDbEntity
  8
DEFPOINTS
  6
CONTINUOUS
 62
         0
100
AcDbPoint
 10
925.5725521555
 20
3148.6379685999
 30
0.0
  0
LINE
  5
1E1
100
AcDbEntity
  8
______
  6
CONTINUOUS
 62
         4
100
AcDbLine
 10
927.3225521555
 20
3085.1379685999
 30
0.0
 11
955.767861754
 21
3085.1379685999
 31
0.0
  0
LINE
  5
1E2
100
AcDbEntity
  8
______
  6
CONTINUOUS
 62
         4
100
AcDbLine
 10
927.3225521555
 20
3148.6379685999
 30
0.0
 11
955.767861754
 21
3148.6379685999
 31
0.0
  0
LINE
  5
1E3
100
AcDbEntity
  8
______
  6
CONTINUOUS
 62
         4
100
AcDbLine
 10
954.892861754
 20
3085.1379685999
 30
0.0
 11
954.892861754
 21
3148.6379685999
 31
0.0
  0
SOLID
  5
1E4
100
AcDbEntity
  8
______
  6
CONTINUOUS
 62
         4
100
AcDbTrace
 10
954.892861754
 20
3085.1379685999
 30
0.0
 11
954.367861754
 21
3088.6379685999
 31
0.0
 12
955.417861754
 22
3088.6379685999
 32
0.0
 13
954.892861754
 23
3085.1379685999
 33
0.0
  0
SOLID
  5
1E5
100
AcDbEntity
  8
______
  6
CONTINUOUS
 62
         4
100
AcDbTrace
 10
954.892861754
 20
3148.6379685999
 30
0.0
 11
955.417861754
 21
3145.1379685999
 31
0.0
 12
954.367861754
 22
3145.1379685999
 32
0.0
 13
954.892861754
 23
3148.6379685999
 33
0.0
  0
TEXT
  5
1E7
100
AcDbEntity
  8
______
  6
CONTINUOUS
 62
         4
100
AcDbText
 10
952.267861754
 20
3097.5162299053
 30
0.0
 40
3.5
  1
崷63.5
 50
90.0
  7
BOX
100
AcDbText
  0
ENDBLK
  5
1E8
100
AcDbEntity
  8
0
  6
CONTINUOUS
100
AcDbBlockEnd
  0
BLOCK
  5
1EA
100
AcDbEntity
  8
0
100
AcDbBlockBegin
  2
*D8
 70
        65
 10
0.0
 20
0.0
 30
0.0
  3
*D8
  1

  0
POINT
  5
1EC
100
AcDbEntity
  8
DEFPOINTS
  6
CONTINUOUS
 62
         0
100
AcDbPoint
 10
898.0725521555
 20
3199.8452163323
 30
0.0
  0
POINT
  5
1ED
100
AcDbEntity
  8
DEFPOINTS
  6
CONTINUOUS
 62
         0
100
AcDbPoint
 10
898.0725521555
 20
3178.8879685999
 30
0.0
  0
POINT
  5
1EE
100
AcDbEntity
  8
DEFPOINTS
  6
CONTINUOUS
 62
         0
100
AcDbPoint
 10
927.5725521555
 20
3146.6379685999
 30
0.0
  0
LINE
  5
1EF
100
AcDbEntity
  8
______
  6
CONTINUOUS
 62
         4
100
AcDbLine
 10
898.0725521555
 20
3180.6379685999
 30
0.0
 11
898.0725521555
 21
3200.7202163323
 31
0.0
  0
LINE
  5
1F0
100
AcDbEntity
  8
______
  6
CONTINUOUS
 62
         4
100
AcDbLine
 10
927.5725521555
 20
3148.3879685999
 30
0.0
 11
927.5725521555
 21
3200.7202163323
 31
0.0
  0
LINE
  5
1F1
100
AcDbEntity
  8
______
  6
CONTINUOUS
 62
         4
100
AcDbLine
 10
898.0725521555
 20
3199.8452163323
 30
0.0
 11
927.5725521555
 21
3199.8452163323
 31
0.0
  0
SOLID
  5
1F2
100
AcDbEntity
  8
______
  6
CONTINUOUS
 62
         4
100
AcDbTrace
 10
898.0725521555
 20
3199.8452163323
 30
0.0
 11
901.5725521555
 21
3200.3702163323
 31
0.0
 12
901.5725521555
 22
3199.3202163323
 32
0.0
 13
898.0725521555
 23
3199.8452163323
 33
0.0
  0
SOLID
  5
1F3
100
AcDbEntity
  8
______
  6
CONTINUOUS
 62
         4
100
AcDbTrace
 10
927.5725521555
 20
3199.8452163323
 30
0.0
 11
924.0725521555
 21
3199.3202163323
 31
0.0
 12
924.0725521555
 22
3200.3702163323
 32
0.0
 13
927.5725521555
 23
3199.8452163323
 33
0.0
  0
TEXT
  5
1F5
100
AcDbEntity
  8
______
  6
CONTINUOUS
 62
         4
100
AcDbText
 10
902.1062597206
 20
3202.4702163323
 30
0.0
 40
3.5
  1
29.5
  7
BOX
100
AcDbText
  0
ENDBLK
  5
1F6
100
AcDbEntity
  8
0
  6
CONTINUOUS
100
AcDbBlockEnd
  0
BLOCK
  5
225
100
AcDbEntity
  8
0
100
AcDbBlockBegin
  2
*D9
 70
        65
 10
0.0
 20
0.0
 30
0.0
  3
*D9
  1

  0
POINT
  5
227
100
AcDbEntity
  8
DEFPOINTS
  6
CONTINUOUS
 62
         0
100
AcDbPoint
 10
898.0725521555
 20
2852.1319620639
 30
0.0
  0
POINT
  5
228
100
AcDbEntity
  8
DEFPOINTS
  6
CONTINUOUS
 62
         0
100
AcDbPoint
 10
898.0725521555
 20
2865.4803765488
 30
0.0
  0
POINT
  5
229
100
AcDbEntity
  8
DEFPOINTS
  6
CONTINUOUS
 62
         0
100
AcDbPoint
 10
885.5725521555
 20
2863.4803765488
 30
0.0
  0
LINE
  5
22A
100
AcDbEntity
  8
______
  6
CONTINUOUS
 62
         4
100
AcDbLine
 10
898.0725521555
 20
2863.7303765488
 30
0.0
 11
898.0725521555
 21
2851.2569620639
 31
0.0
  0
LINE
  5
22B
100
AcDbEntity
  8
______
  6
CONTINUOUS
 62
         4
100
AcDbLine
 10
885.5725521555
 20
2861.7303765488
 30
0.0
 11
885.5725521555
 21
2851.2569620639
 31
0.0
  0
LINE
  5
22C
100
AcDbEntity
  8
______
  6
CONTINUOUS
 62
         4
100
AcDbLine
 10
898.0725521555
 20
2852.1319620639
 30
0.0
 11
885.5725521555
 21
2852.1319620639
 31
0.0
  0
SOLID
  5
22D
100
AcDbEntity
  8
______
  6
CONTINUOUS
 62
         4
100
AcDbTrace
 10
898.0725521555
 20
2852.1319620639
 30
0.0
 11
894.5725521555
 21
2851.6069620639
 31
0.0
 12
894.5725521555
 22
2852.6569620639
 32
0.0
 13
898.0725521555
 23
2852.1319620639
 33
0.0
  0
SOLID
  5
22E
100
AcDbEntity
  8
______
  6
CONTINUOUS
 62
         4
100
AcDbTrace
 10
885.5725521555
 20
2852.1319620639
 30
0.0
 11
889.0725521555
 21
2852.6569620639
 31
0.0
 12
889.0725521555
 22
2851.6069620639
 32
0.0
 13
885.5725521555
 23
2852.1319620639
 33
0.0
  0
TEXT
  5
230
100
AcDbEntity
  8
______
  6
CONTINUOUS
 62
         4
100
AcDbText
 10
888.1005909558
 20
2854.7569620639
 30
0.0
 40
3.5
  1
12.5
  7
BOX
100
AcDbText
  0
ENDBLK
  5
231
100
AcDbEntity
  8
0
  6
CONTINUOUS
100
AcDbBlockEnd
  0
BLOCK
  5
250
100
AcDbEntity
  8
0
100
AcDbBlockBegin
  2
*D10
 70
        65
 10
0.0
 20
0.0
 30
0.0
  3
*D10
  1

  0
POINT
  5
252
100
AcDbEntity
  8
DEFPOINTS
  6
CONTINUOUS
 62
         0
100
AcDbPoint
 10
1175.5459934036
 20
3203.9084755677
 30
0.0
  0
POINT
  5
253
100
AcDbEntity
  8
DEFPOINTS
  6
CONTINUOUS
 62
         0
100
AcDbPoint
 10
1175.5459934036
 20
3157.2879685999
 30
0.0
  0
POINT
  5
254
100
AcDbEntity
  8
DEFPOINTS
  6
CONTINUOUS
 62
         0
100
AcDbPoint
 10
1171.9459934036
 20
3179.8702875474
 30
0.0
  0
LINE
  5
255
100
AcDbEntity
  8
______
  6
CONTINUOUS
 62
         4
100
AcDbLine
 10
1175.5459934036
 20
3159.0379685999
 30
0.0
 11
1175.5459934036
 21
3204.7834755677
 31
0.0
  0
LINE
  5
256
100
AcDbEntity
  8
______
  6
CONTINUOUS
 62
         4
100
AcDbLine
 10
1171.9459934036
 20
3181.6202875474
 30
0.0
 11
1171.9459934036
 21
3204.7834755677
 31
0.0
  0
LINE
  5
257
100
AcDbEntity
  8
______
  6
CONTINUOUS
 62
         4
100
AcDbLine
 10
1175.5459934036
 20
3203.9084755677
 30
0.0
 11
1189.941394382
 21
3203.9084755677
 31
0.0
  0
SOLID
  5
258
100
AcDbEntity
  8
______
  6
CONTINUOUS
 62
         4
100
AcDbTrace
 10
1175.5459934036
 20
3203.9084755677
 30
0.0
 11
1179.0459934036
 21
3204.4334755677
 31
0.0
 12
1179.0459934036
 22
3203.3834755677
 32
0.0
 13
1175.5459934036
 23
3203.9084755677
 33
0.0
  0
LINE
  5
259
100
AcDbEntity
  8
______
  6
CONTINUOUS
 62
         4
100
AcDbLine
 10
1171.9459934036
 20
3203.9084755677
 30
0.0
 11
1164.9459934036
 21
3203.9084755677
 31
0.0
  0
SOLID
  5
25A
100
AcDbEntity
  8
______
  6
CONTINUOUS
 62
         4
100
AcDbTrace
 10
1171.9459934036
 20
3203.9084755677
 30
0.0
 11
1168.4459934036
 21
3203.3834755677
 31
0.0
 12
1168.4459934036
 22
3204.4334755677
 32
0.0
 13
1171.9459934036
 23
3203.9084755677
 33
0.0
  0
LINE
  5
25B
100
AcDbEntity
  8
______
  6
CONTINUOUS
 62
         4
100
AcDbLine
 10
1175.5459934036
 20
3203.9084755677
 30
0.0
 11
1171.9459934036
 21
3203.9084755677
 31
0.0
  0
TEXT
  5
25D
100
AcDbEntity
  8
______
  6
CONTINUOUS
 62
         4
100
AcDbText
 10
1177.691394382
 20
3206.5334755677
 30
0.0
 40
3.5
  1
3.6
  7
BOX
100
AcDbText
  0
ENDBLK
  5
25E
100
AcDbEntity
  8
0
  6
CONTINUOUS
100
AcDbBlockEnd
  0
BLOCK
  5
260
100
AcDbEntity
  8
0
100
AcDbBlockBegin
  2
*D11
 70
        65
 10
0.0
 20
0.0
 30
0.0
  3
*D11
  1

  0
POINT
  5
262
100
AcDbEntity
  8
DEFPOINTS
  6
CONTINUOUS
 62
         0
100
AcDbPoint
 10
1146.5459934036
 20
3202.9062612345
 30
0.0
  0
POINT
  5
263
100
AcDbEntity
  8
DEFPOINTS
  6
CONTINUOUS
 62
         0
100
AcDbPoint
 10
1146.5459934036
 20
3179.8702875474
 30
0.0
  0
POINT
  5
264
100
AcDbEntity
  8
DEFPOINTS
  6
CONTINUOUS
 62
         0
100
AcDbPoint
 10
1142.9459934036
 20
3157.2879685999
 30
0.0
  0
LINE
  5
265
100
AcDbEntity
  8
______
  6
CONTINUOUS
 62
         4
100
AcDbLine
 10
1146.5459934036
 20
3181.6202875474
 30
0.0
 11
1146.5459934036
 21
3203.7812612345
 31
0.0
  0
LINE
  5
266
100
AcDbEntity
  8
______
  6
CONTINUOUS
 62
         4
100
AcDbLine
 10
1142.9459934036
 20
3159.0379685999
 30
0.0
 11
1142.9459934036
 21
3203.7812612345
 31
0.0
  0
LINE
  5
267
100
AcDbEntity
  8
______
  6
CONTINUOUS
 62
         4
100
AcDbLine
 10
1146.5459934036
 20
3202.9062612345
 30
0.0
 11
1153.5459934036
 21
3202.9062612345
 31
0.0
  0
SOLID
  5
268
100
AcDbEntity
  8
______
  6
CONTINUOUS
 62
         4
100
AcDbTrace
 10
1146.5459934036
 20
3202.9062612345
 30
0.0
 11
1150.0459934036
 21
3203.4312612345
 31
0.0
 12
1150.0459934036
 22
3202.3812612345
 32
0.0
 13
1146.5459934036
 23
3202.9062612345
 33
0.0
  0
LINE
  5
269
100
AcDbEntity
  8
______
  6
CONTINUOUS
 62
         4
100
AcDbLine
 10
1142.9459934036
 20
3202.9062612345
 30
0.0
 11
1131.3428565535
 21
3202.9062612345
 31
0.0
  0
SOLID
  5
26A
100
AcDbEntity
  8
______
  6
CONTINUOUS
 62
         4
100
AcDbTrace
 10
1142.9459934036
 20
3202.9062612345
 30
0.0
 11
1139.4459934036
 21
3202.3812612345
 31
0.0
 12
1139.4459934036
 22
3203.4312612345
 32
0.0
 13
1142.9459934036
 23
3202.9062612345
 33
0.0
  0
LINE
  5
26B
100
AcDbEntity
  8
______
  6
CONTINUOUS
 62
         4
100
AcDbLine
 10
1146.5459934036
 20
3202.9062612345
 30
0.0
 11
1142.9459934036
 21
3202.9062612345
 31
0.0
  0
TEXT
  5
26D
100
AcDbEntity
  8
______
  6
CONTINUOUS
 62
         4
100
AcDbText
 10
1133.0928565535
 20
3205.5312612345
 30
0.0
 40
3.5
  1
3.6
  7
BOX
100
AcDbText
  0
ENDBLK
  5
26E
100
AcDbEntity
  8
0
  6
CONTINUOUS
100
AcDbBlockEnd
  0
BLOCK
  5
270
100
AcDbEntity
  8
0
100
AcDbBlockBegin
  2
*D12
 70
        65
 10
0.0
 20
0.0
 30
0.0
  3
*D12
  1

  0
POINT
  5
272
100
AcDbEntity
  8
DEFPOINTS
  6
CONTINUOUS
 62
         0
100
AcDbPoint
 10
1146.5459934036
 20
3214.4317260665
 30
0.0
  0
POINT
  5
273
100
AcDbEntity
  8
DEFPOINTS
  6
CONTINUOUS
 62
         0
100
AcDbPoint
 10
1146.5459934036
 20
3179.8702875474
 30
0.0
  0
POINT
  5
274
100
AcDbEntity
  8
DEFPOINTS
  6
CONTINUOUS
 62
         0
100
AcDbPoint
 10
1171.9459934036
 20
3179.8702875474
 30
0.0
  0
LINE
  5
275
100
AcDbEntity
  8
______
  6
CONTINUOUS
 62
         4
100
AcDbLine
 10
1146.5459934036
 20
3181.6202875474
 30
0.0
 11
1146.5459934036
 21
3215.3067260665
 31
0.0
  0
LINE
  5
276
100
AcDbEntity
  8
______
  6
CONTINUOUS
 62
         4
100
AcDbLine
 10
1171.9459934036
 20
3181.6202875474
 30
0.0
 11
1171.9459934036
 21
3215.3067260665
 31
0.0
  0
LINE
  5
277
100
AcDbEntity
  8
______
  6
CONTINUOUS
 62
         4
100
AcDbLine
 10
1146.5459934036
 20
3214.4317260665
 30
0.0
 11
1171.9459934036
 21
3214.4317260665
 31
0.0
  0
SOLID
  5
278
100
AcDbEntity
  8
______
  6
CONTINUOUS
 62
         4
100
AcDbTrace
 10
1146.5459934036
 20
3214.4317260665
 30
0.0
 11
1150.0459934036
 21
3214.9567260665
 31
0.0
 12
1150.0459934036
 22
3213.9067260665
 32
0.0
 13
1146.5459934036
 23
3214.4317260665
 33
0.0
  0
SOLID
  5
279
100
AcDbEntity
  8
______
  6
CONTINUOUS
 62
         4
100
AcDbTrace
 10
1171.9459934036
 20
3214.4317260665
 30
0.0
 11
1168.4459934036
 21
3213.9067260665
 31
0.0
 12
1168.4459934036
 22
3214.9567260665
 32
0.0
 13
1171.9459934036
 23
3214.4317260665
 33
0.0
  0
TEXT
  5
27B
100
AcDbEntity
  8
______
  6
CONTINUOUS
 62
         4
100
AcDbText
 10
1149.3827145516
 20
3217.0567260665
 30
0.0
 40
3.5
  1
25.4
  7
BOX
100
AcDbText
  0
ENDBLK
  5
27C
100
AcDbEntity
  8
0
  6
CONTINUOUS
100
AcDbBlockEnd
  0
BLOCK
  5
27F
100
AcDbEntity
  8
0
100
AcDbBlockBegin
  2
*D13
 70
        65
 10
0.0
 20
0.0
 30
0.0
  3
*D13
  1

  0
POINT
  5
281
100
AcDbEntity
  8
DEFPOINTS
  6
CONTINUOUS
 62
         0
100
AcDbPoint
 10
1254.0952200491
 20
3153.8879685999
 30
0.0
  0
POINT
  5
282
100
AcDbEntity
  8
DEFPOINTS
  6
CONTINUOUS
 62
         0
100
AcDbPoint
 10
1164.6023105659
 20
3153.8879685999
 30
0.0
  0
POINT
  5
283
100
AcDbEntity
  8
DEFPOINTS
  6
CONTINUOUS
 62
         0
100
AcDbPoint
 10
1164.6023105659
 20
3079.8879685999
 30
0.0
  0
LINE
  5
284
100
AcDbEntity
  8
______
  6
CONTINUOUS
 62
         4
100
AcDbLine
 10
1166.3523105659
 20
3153.8879685999
 30
0.0
 11
1254.9702200491
 21
3153.8879685999
 31
0.0
  0
LINE
  5
285
100
AcDbEntity
  8
______
  6
CONTINUOUS
 62
         4
100
AcDbLine
 10
1166.3523105659
 20
3079.8879685999
 30
0.0
 11
1254.9702200491
 21
3079.8879685999
 31
0.0
  0
LINE
  5
286
100
AcDbEntity
  8
______
  6
CONTINUOUS
 62
         4
100
AcDbLine
 10
1254.0952200491
 20
3153.8879685999
 30
0.0
 11
1254.0952200491
 21
3079.8879685999
 31
0.0
  0
SOLID
  5
287
100
AcDbEntity
  8
______
  6
CONTINUOUS
 62
         4
100
AcDbTrace
 10
1254.0952200491
 20
3153.8879685999
 30
0.0
 11
1254.6202200491
 21
3150.3879685999
 31
0.0
 12
1253.5702200491
 22
3150.3879685999
 32
0.0
 13
1254.0952200491
 23
3153.8879685999
 33
0.0
  0
SOLID
  5
288
100
AcDbEntity
  8
______
  6
CONTINUOUS
 62
         4
100
AcDbTrace
 10
1254.0952200491
 20
3079.8879685999
 30
0.0
 11
1253.5702200491
 21
3083.3879685999
 31
0.0
 12
1254.6202200491
 22
3083.3879685999
 32
0.0
 13
1254.0952200491
 23
3079.8879685999
 33
0.0
  0
TEXT
  5
28A
100
AcDbEntity
  8
______
  6
CONTINUOUS
 62
         4
100
AcDbText
 10
1251.4702200491
 20
3108.9912421163
 30
0.0
 40
3.5
  1
74
 50
90.0
  7
BOX
100
AcDbText
  0
ENDBLK
  5
28B
100
AcDbEntity
  8
0
  6
CONTINUOUS
100
AcDbBlockEnd
  0
BLOCK
  5
28D
100
AcDbEntity
  8
0
100
AcDbBlockBegin
  2
*D14
 70
        65
 10
0.0
 20
0.0
 30
0.0
  3
*D14
  1

  0
POINT
  5
28F
100
AcDbEntity
  8
DEFPOINTS
  6
CONTINUOUS
 62
         0
100
AcDbPoint
 10
1266.2221553304
 20
3169.8879685999
 30
0.0
  0
POINT
  5
290
100
AcDbEntity
  8
DEFPOINTS
  6
CONTINUOUS
 62
         0
100
AcDbPoint
 10
1166.2781440121
 20
3169.8879685999
 30
0.0
  0
POINT
  5
291
100
AcDbEntity
  8
DEFPOINTS
  6
CONTINUOUS
 62
         0
100
AcDbPoint
 10
1166.2781440121
 20
3063.8879685999
 30
0.0
  0
LINE
  5
292
100
AcDbEntity
  8
______
  6
CONTINUOUS
 62
         4
100
AcDbLine
 10
1168.0281440121
 20
3169.8879685999
 30
0.0
 11
1267.0971553304
 21
3169.8879685999
 31
0.0
  0
LINE
  5
293
100
AcDbEntity
  8
______
  6
CONTINUOUS
 62
         4
100
AcDbLine
 10
1168.0281440121
 20
3063.8879685999
 30
0.0
 11
1267.0971553304
 21
3063.8879685999
 31
0.0
  0
LINE
  5
294
100
AcDbEntity
  8
______
  6
CONTINUOUS
 62
         4
100
AcDbLine
 10
1266.2221553304
 20
3169.8879685999
 30
0.0
 11
1266.2221553304
 21
3063.8879685999
 31
0.0
  0
SOLID
  5
295
100
AcDbEntity
  8
______
  6
CONTINUOUS
 62
         4
100
AcDbTrace
 10
1266.2221553304
 20
3169.8879685999
 30
0.0
 11
1266.7471553304
 21
3166.3879685999
 31
0.0
 12
1265.6971553304
 22
3166.3879685999
 32
0.0
 13
1266.2221553304
 23
3169.8879685999
 33
0.0
  0
SOLID
  5
296
100
AcDbEntity
  8
______
  6
CONTINUOUS
 62
         4
100
AcDbTrace
 10
1266.2221553304
 20
3063.8879685999
 30
0.0
 11
1265.6971553304
 21
3067.3879685999
 31
0.0
 12
1266.7471553304
 22
3067.3879685999
 32
0.0
 13
1266.2221553304
 23
3063.8879685999
 33
0.0
  0
TEXT
  5
298
100
AcDbEntity
  8
______
  6
CONTINUOUS
 62
         4
100
AcDbText
 10
1263.5971553304
 20
3105.6024670782
 30
0.0
 40
3.5
  1
106
 50
90.0
  7
BOX
100
AcDbText
  0
ENDBLK
  5
299
100
AcDbEntity
  8
0
  6
CONTINUOUS
100
AcDbBlockEnd
  0
BLOCK
  5
29D
100
AcDbEntity
  8
0
100
AcDbBlockBegin
  2
*D15
 70
        65
 10
0.0
 20
0.0
 30
0.0
  3
*D15
  1

  0
POINT
  5
29F
100
AcDbEntity
  8
DEFPOINTS
  6
CONTINUOUS
 62
         0
100
AcDbPoint
 10
1236.5048660512
 20
2905.5581770553
 30
0.0
  0
POINT
  5
2A0
100
AcDbEntity
  8
DEFPOINTS
  6
CONTINUOUS
 62
         0
100
AcDbPoint
 10
1226.1192975792
 20
2905.5581770553
 30
0.0
  0
POINT
  5
2A1
100
AcDbEntity
  8
DEFPOINTS
  6
CONTINUOUS
 62
         0
100
AcDbPoint
 10
1226.1192975792
 20
2892.5581770553
 30
0.0
  0
LINE
  5
2A2
100
AcDbEntity
  8
______
  6
CONTINUOUS
 62
         4
100
AcDbLine
 10
1227.8692975792
 20
2905.5581770553
 30
0.0
 11
1237.3798660512
 21
2905.5581770553
 31
0.0
  0
LINE
  5
2A3
100
AcDbEntity
  8
______
  6
CONTINUOUS
 62
         4
100
AcDbLine
 10
1227.8692975792
 20
2892.5581770553
 30
0.0
 11
1237.3798660512
 21
2892.5581770553
 31
0.0
  0
LINE
  5
2A4
100
AcDbEntity
  8
______
  6
CONTINUOUS
 62
         4
100
AcDbLine
 10
1236.5048660512
 20
2905.5581770553
 30
0.0
 11
1236.5048660512
 21
2892.5581770553
 31
0.0
  0
SOLID
  5
2A5
100
AcDbEntity
  8
______
  6
CONTINUOUS
 62
         4
100
AcDbTrace
 10
1236.5048660512
 20
2905.5581770553
 30
0.0
 11
1237.0298660512
 21
2902.0581770553
 31
0.0
 12
1235.9798660512
 22
2902.0581770553
 32
0.0
 13
1236.5048660512
 23
2905.5581770553
 33
0.0
  0
SOLID
  5
2A6
100
AcDbEntity
  8
______
  6
CONTINUOUS
 62
         4
100
AcDbTrace
 10
1236.5048660512
 20
2892.5581770553
 30
0.0
 11
1235.9798660512
 21
2896.0581770553
 31
0.0
 12
1237.0298660512
 22
2896.0581770553
 32
0.0
 13
1236.5048660512
 23
2892.5581770553
 33
0.0
  0
TEXT
  5
2A8
100
AcDbEntity
  8
______
  6
CONTINUOUS
 62
         4
100
AcDbText
 10
1233.8798660512
 20
2893.8308550353
 30
0.0
 40
3.5
  1
崷13
 50
90.0
  7
BOX
100
AcDbText
  0
ENDBLK
  5
2A9
100
AcDbEntity
  8
0
  6
CONTINUOUS
100
AcDbBlockEnd
  0
BLOCK
  5
2AB
100
AcDbEntity
  8
0
100
AcDbBlockBegin
  2
*D16
 70
        65
 10
0.0
 20
0.0
 30
0.0
  3
*D16
  1

  0
POINT
  5
2AD
100
AcDbEntity
  8
DEFPOINTS
  6
CONTINUOUS
 62
         0
100
AcDbPoint
 10
1193.9192975792
 20
2884.6312355839
 30
0.0
  0
POINT
  5
2AE
100
AcDbEntity
  8
DEFPOINTS
  6
CONTINUOUS
 62
         0
100
AcDbPoint
 10
1193.9192975792
 20
2895.8915020553
 30
0.0
  0
POINT
  5
2AF
100
AcDbEntity
  8
DEFPOINTS
  6
CONTINUOUS
 62
         0
100
AcDbPoint
 10
1218.9192975792
 20
2892.5581770553
 30
0.0
  0
LINE
  5
2B0
100
AcDbEntity
  8
______
  6
CONTINUOUS
 62
         4
100
AcDbLine
 10
1193.9192975792
 20
2894.1415020553
 30
0.0
 11
1193.9192975792
 21
2883.7562355839
 31
0.0
  0
LINE
  5
2B1
100
AcDbEntity
  8
______
  6
CONTINUOUS
 62
         4
100
AcDbLine
 10
1218.9192975792
 20
2890.8081770553
 30
0.0
 11
1218.9192975792
 21
2883.7562355839
 31
0.0
  0
LINE
  5
2B2
100
AcDbEntity
  8
______
  6
CONTINUOUS
 62
         4
100
AcDbLine
 10
1193.9192975792
 20
2884.6312355839
 30
0.0
 11
1218.9192975792
 21
2884.6312355839
 31
0.0
  0
SOLID
  5
2B3
100
AcDbEntity
  8
______
  6
CONTINUOUS
 62
         4
100
AcDbTrace
 10
1193.9192975792
 20
2884.6312355839
 30
0.0
 11
1197.4192975792
 21
2885.1562355839
 31
0.0
 12
1197.4192975792
 22
2884.1062355839
 32
0.0
 13
1193.9192975792
 23
2884.6312355839
 33
0.0
  0
SOLID
  5
2B4
100
AcDbEntity
  8
______
  6
CONTINUOUS
 62
         4
100
AcDbTrace
 10
1218.9192975792
 20
2884.6312355839
 30
0.0
 11
1215.4192975792
 21
2884.1062355839
 31
0.0
 12
1215.4192975792
 22
2885.1562355839
 32
0.0
 13
1218.9192975792
 23
2884.6312355839
 33
0.0
  0
TEXT
  5
2B6
100
AcDbEntity
  8
______
  6
CONTINUOUS
 62
         4
100
AcDbText
 10
1205.5789864082
 20
2887.2562355839
 30
0.0
 40
3.5
  1
25
  7
BOX
100
AcDbText
  0
ENDBLK
  5
2B7
100
AcDbEntity
  8
0
  6
CONTINUOUS
100
AcDbBlockEnd
  0
BLOCK
  5
2B9
100
AcDbEntity
  8
0
100
AcDbBlockBegin
  2
*D17
 70
        65
 10
0.0
 20
0.0
 30
0.0
  3
*D17
  1

  0
POINT
  5
2BB
100
AcDbEntity
  8
DEFPOINTS
  6
CONTINUOUS
 62
         0
100
AcDbPoint
 10
1186.0218257486
 20
2903.0581770553
 30
0.0
  0
POINT
  5
2BC
100
AcDbEntity
  8
DEFPOINTS
  6
CONTINUOUS
 62
         0
100
AcDbPoint
 10
1194.7526225792
 20
2903.0581770553
 30
0.0
  0
POINT
  5
2BD
100
AcDbEntity
  8
DEFPOINTS
  6
CONTINUOUS
 62
         0
100
AcDbPoint
 10
1194.7526225792
 20
2895.0581770553
 30
0.0
  0
LINE
  5
2BE
100
AcDbEntity
  8
______
  6
CONTINUOUS
 62
         4
100
AcDbLine
 10
1193.0026225792
 20
2903.0581770553
 30
0.0
 11
1185.1468257486
 21
2903.0581770553
 31
0.0
  0
LINE
  5
2BF
100
AcDbEntity
  8
______
  6
CONTINUOUS
 62
         4
100
AcDbLine
 10
1193.0026225792
 20
2895.0581770553
 30
0.0
 11
1185.1468257486
 21
2895.0581770553
 31
0.0
  0
LINE
  5
2C0
100
AcDbEntity
  8
______
  6
CONTINUOUS
 62
         4
100
AcDbLine
 10
1186.0218257486
 20
2903.0581770553
 30
0.0
 11
1186.0218257486
 21
2895.0581770553
 31
0.0
  0
SOLID
  5
2C1
100
AcDbEntity
  8
______
  6
CONTINUOUS
 62
         4
100
AcDbTrace
 10
1186.0218257486
 20
2903.0581770553
 30
0.0
 11
1186.5468257486
 21
2899.5581770553
 31
0.0
 12
1185.4968257486
 22
2899.5581770553
 32
0.0
 13
1186.0218257486
 23
2903.0581770553
 33
0.0
  0
SOLID
  5
2C2
100
AcDbEntity
  8
______
  6
CONTINUOUS
 62
         4
100
AcDbTrace
 10
1186.0218257486
 20
2895.0581770553
 30
0.0
 11
1185.4968257486
 21
2898.5581770553
 31
0.0
 12
1186.5468257486
 22
2898.5581770553
 32
0.0
 13
1186.0218257486
 23
2895.0581770553
 33
0.0
  0
TEXT
  5
2C4
100
AcDbEntity
  8
______
  6
CONTINUOUS
 62
         4
100
AcDbText
 10
1183.3968257486
 20
2887.0934903491
 30
0.0
 40
3.5
  1
M8xP1.25
 50
90.0
  7
BOX
100
AcDbText
  0
ENDBLK
  5
2C5
100
AcDbEntity
  8
0
  6
CONTINUOUS
100
AcDbBlockEnd
  0
BLOCK
  5
2DE
100
AcDbEntity
  8
0
100
AcDbBlockBegin
  2
*D18
 70
        65
 10
0.0
 20
0.0
 30
0.0
  3
*D18
  1

  0
POINT
  5
2E0
100
AcDbEntity
  8
DEFPOINTS
  6
CONTINUOUS
 62
         0
100
AcDbPoint
 10
1253.0386701016
 20
2980.9725480594
 30
0.0
  0
POINT
  5
2E1
100
AcDbEntity
  8
DEFPOINTS
  6
CONTINUOUS
 62
         0
100
AcDbPoint
 10
1231.8147129703
 20
2980.9725480594
 30
0.0
  0
POINT
  5
2E2
100
AcDbEntity
  8
DEFPOINTS
  6
CONTINUOUS
 62
         0
100
AcDbPoint
 10
1231.8147129703
 20
2955.0725480594
 30
0.0
  0
LINE
  5
2E3
100
AcDbEntity
  8
______
  6
CONTINUOUS
 62
         4
100
AcDbLine
 10
1233.5647129703
 20
2980.9725480594
 30
0.0
 11
1253.9136701016
 21
2980.9725480594
 31
0.0
  0
LINE
  5
2E4
100
AcDbEntity
  8
______
  6
CONTINUOUS
 62
         4
100
AcDbLine
 10
1233.5647129703
 20
2955.0725480594
 30
0.0
 11
1253.9136701016
 21
2955.0725480594
 31
0.0
  0
LINE
  5
2E5
100
AcDbEntity
  8
______
  6
CONTINUOUS
 62
         4
100
AcDbLine
 10
1253.0386701016
 20
2980.9725480594
 30
0.0
 11
1253.0386701016
 21
2955.0725480594
 31
0.0
  0
SOLID
  5
2E6
100
AcDbEntity
  8
______
  6
CONTINUOUS
 62
         4
100
AcDbTrace
 10
1253.0386701016
 20
2980.9725480594
 30
0.0
 11
1253.5636701016
 21
2977.4725480594
 31
0.0
 12
1252.5136701016
 22
2977.4725480594
 32
0.0
 13
1253.0386701016
 23
2980.9725480594
 33
0.0
  0
SOLID
  5
2E7
100
AcDbEntity
  8
______
  6
CONTINUOUS
 62
         4
100
AcDbTrace
 10
1253.0386701016
 20
2955.0725480594
 30
0.0
 11
1252.5136701016
 21
2958.5725480594
 31
0.0
 12
1253.5636701016
 22
2958.5725480594
 32
0.0
 13
1253.0386701016
 23
2955.0725480594
 33
0.0
  0
TEXT
  5
2E9
100
AcDbEntity
  8
______
  6
CONTINUOUS
 62
         4
100
AcDbText
 10
1250.4136701016
 20
2960.197789162
 30
0.0
 40
3.5
  1
25.9
 50
90.0
  7
BOX
100
AcDbText
  0
ENDBLK
  5
2EA
100
AcDbEntity
  8
0
  6
CONTINUOUS
100
AcDbBlockEnd
  0
BLOCK
  5
2EC
100
AcDbEntity
  8
0
100
AcDbBlockBegin
  2
*D19
 70
        65
 10
0.0
 20
0.0
 30
0.0
  3
*D19
  1

  0
POINT
  5
2EE
100
AcDbEntity
  8
DEFPOINTS
  6
CONTINUOUS
 62
         0
100
AcDbPoint
 10
1233.3147129703
 20
2942.1542976644
 30
0.0
  0
POINT
  5
2EF
100
AcDbEntity
  8
DEFPOINTS
  6
CONTINUOUS
 62
         0
100
AcDbPoint
 10
1233.3147129703
 20
2956.5725480594
 30
0.0
  0
POINT
  5
2F0
100
AcDbEntity
  8
DEFPOINTS
  6
CONTINUOUS
 62
         0
100
AcDbPoint
 10
1207.9147129703
 20
2956.5725480594
 30
0.0
  0
LINE
  5
2F1
100
AcDbEntity
  8
______
  6
CONTINUOUS
 62
         4
100
AcDbLine
 10
1233.3147129703
 20
2954.8225480594
 30
0.0
 11
1233.3147129703
 21
2941.2792976644
 31
0.0
  0
LINE
  5
2F2
100
AcDbEntity
  8
______
  6
CONTINUOUS
 62
         4
100
AcDbLine
 10
1207.9147129703
 20
2954.8225480594
 30
0.0
 11
1207.9147129703
 21
2941.2792976644
 31
0.0
  0
LINE
  5
2F3
100
AcDbEntity
  8
______
  6
CONTINUOUS
 62
         4
100
AcDbLine
 10
1233.3147129703
 20
2942.1542976644
 30
0.0
 11
1207.9147129703
 21
2942.1542976644
 31
0.0
  0
SOLID
  5
2F4
100
AcDbEntity
  8
______
  6
CONTINUOUS
 62
         4
100
AcDbTrace
 10
1233.3147129703
 20
2942.1542976644
 30
0.0
 11
1229.8147129703
 21
2941.6292976644
 31
0.0
 12
1229.8147129703
 22
2942.6792976644
 32
0.0
 13
1233.3147129703
 23
2942.1542976644
 33
0.0
  0
SOLID
  5
2F5
100
AcDbEntity
  8
______
  6
CONTINUOUS
 62
         4
100
AcDbTrace
 10
1207.9147129703
 20
2942.1542976644
 30
0.0
 11
1211.4147129703
 21
2942.6792976644
 31
0.0
 12
1211.4147129703
 22
2941.6292976644
 32
0.0
 13
1207.9147129703
 23
2942.1542976644
 33
0.0
  0
TEXT
  5
2F7
100
AcDbEntity
  8
______
  6
CONTINUOUS
 62
         4
100
AcDbText
 10
1213.4984788184
 20
2944.7792976644
 30
0.0
 40
3.5
  1
25.4
  7
BOX
100
AcDbText
  0
ENDBLK
  5
2F8
100
AcDbEntity
  8
0
  6
CONTINUOUS
100
AcDbBlockEnd
  0
BLOCK
  5
2FA
100
AcDbEntity
  8
0
100
AcDbBlockBegin
  2
*D20
 70
        65
 10
0.0
 20
0.0
 30
0.0
  3
*D20
  1

  0
POINT
  5
2FC
100
AcDbEntity
  8
DEFPOINTS
  6
CONTINUOUS
 62
         0
100
AcDbPoint
 10
1188.2939711554
 20
2944.2005049544
 30
0.0
  0
POINT
  5
2FD
100
AcDbEntity
  8
DEFPOINTS
  6
CONTINUOUS
 62
         0
100
AcDbPoint
 10
1188.2939711554
 20
2963.8539751793
 30
0.0
  0
POINT
  5
2FE
100
AcDbEntity
  8
DEFPOINTS
  6
CONTINUOUS
 62
         0
100
AcDbPoint
 10
1196.7939711554
 20
2956.5725480594
 30
0.0
  0
LINE
  5
2FF
100
AcDbEntity
  8
______
  6
CONTINUOUS
 62
         4
100
AcDbLine
 10
1188.2939711554
 20
2962.1039751793
 30
0.0
 11
1188.2939711554
 21
2943.3255049544
 31
0.0
  0
LINE
  5
300
100
AcDbEntity
  8
______
  6
CONTINUOUS
 62
         4
100
AcDbLine
 10
1196.7939711554
 20
2954.8225480594
 30
0.0
 11
1196.7939711554
 21
2943.3255049544
 31
0.0
  0
LINE
  5
301
100
AcDbEntity
  8
______
  6
CONTINUOUS
 62
         4
100
AcDbLine
 10
1188.2939711554
 20
2944.2005049544
 30
0.0
 11
1196.7939711554
 21
2944.2005049544
 31
0.0
  0
SOLID
  5
302
100
AcDbEntity
  8
______
  6
CONTINUOUS
 62
         4
100
AcDbTrace
 10
1188.2939711554
 20
2944.2005049544
 30
0.0
 11
1191.7939711554
 21
2944.7255049544
 31
0.0
 12
1191.7939711554
 22
2943.6755049544
 32
0.0
 13
1188.2939711554
 23
2944.2005049544
 33
0.0
  0
LINE
  5
303
100
AcDbEntity
  8
______
  6
CONTINUOUS
 62
         4
100
AcDbLine
 10
1188.2939711554
 20
2944.2005049544
 30
0.0
 11
1174.3157882916
 21
2944.2005049544
 31
0.0
  0
SOLID
  5
304
100
AcDbEntity
  8
______
  6
CONTINUOUS
 62
         4
100
AcDbTrace
 10
1196.7939711554
 20
2944.2005049544
 30
0.0
 11
1193.2939711554
 21
2943.6755049544
 31
0.0
 12
1193.2939711554
 22
2944.7255049544
 32
0.0
 13
1196.7939711554
 23
2944.2005049544
 33
0.0
  0
TEXT
  5
306
100
AcDbEntity
  8
______
  6
CONTINUOUS
 62
         4
100
AcDbText
 10
1176.0657882916
 20
2946.8255049544
 30
0.0
 40
3.5
  1
8.5
  7
BOX
100
AcDbText
  0
ENDBLK
  5
307
100
AcDbEntity
  8
0
  6
CONTINUOUS
100
AcDbBlockEnd
  0
BLOCK
  5
309
100
AcDbEntity
  8
0
100
AcDbBlockBegin
  2
*D21
 70
        65
 10
0.0
 20
0.0
 30
0.0
  3
*D21
  1

  0
POINT
  5
30B
100
AcDbEntity
  8
DEFPOINTS
  6
CONTINUOUS
 62
         0
100
AcDbPoint
 10
1171.7939711554
 20
2934.0316513534
 30
0.0
  0
POINT
  5
30C
100
AcDbEntity
  8
DEFPOINTS
  6
CONTINUOUS
 62
         0
100
AcDbPoint
 10
1171.7939711554
 20
2956.5725480594
 30
0.0
  0
POINT
  5
30D
100
AcDbEntity
  8
DEFPOINTS
  6
CONTINUOUS
 62
         0
100
AcDbPoint
 10
1196.7939711554
 20
2956.5725480594
 30
0.0
  0
LINE
  5
30E
100
AcDbEntity
  8
______
  6
CONTINUOUS
 62
         4
100
AcDbLine
 10
1171.7939711554
 20
2954.8225480594
 30
0.0
 11
1171.7939711554
 21
2933.1566513534
 31
0.0
  0
LINE
  5
30F
100
AcDbEntity
  8
______
  6
CONTINUOUS
 62
         4
100
AcDbLine
 10
1196.7939711554
 20
2954.8225480594
 30
0.0
 11
1196.7939711554
 21
2933.1566513534
 31
0.0
  0
LINE
  5
310
100
AcDbEntity
  8
______
  6
CONTINUOUS
 62
         4
100
AcDbLine
 10
1171.7939711554
 20
2934.0316513534
 30
0.0
 11
1196.7939711554
 21
2934.0316513534
 31
0.0
  0
SOLID
  5
311
100
AcDbEntity
  8
______
  6
CONTINUOUS
 62
         4
100
AcDbTrace
 10
1171.7939711554
 20
2934.0316513534
 30
0.0
 11
1175.2939711554
 21
2934.5566513534
 31
0.0
 12
1175.2939711554
 22
2933.5066513534
 32
0.0
 13
1171.7939711554
 23
2934.0316513534
 33
0.0
  0
SOLID
  5
312
100
AcDbEntity
  8
______
  6
CONTINUOUS
 62
         4
100
AcDbTrace
 10
1196.7939711554
 20
2934.0316513534
 30
0.0
 11
1193.2939711554
 21
2933.5066513534
 31
0.0
 12
1193.2939711554
 22
2934.5566513534
 32
0.0
 13
1196.7939711554
 23
2934.0316513534
 33
0.0
  0
TEXT
  5
314
100
AcDbEntity
  8
______
  6
CONTINUOUS
 62
         4
100
AcDbText
 10
1180.8015601465
 20
2936.6566513534
 30
0.0
 40
3.5
  1
25
  7
BOX
100
AcDbText
  0
ENDBLK
  5
315
100
AcDbEntity
  8
0
  6
CONTINUOUS
100
AcDbBlockEnd
  0
BLOCK
  5
317
100
AcDbEntity
  8
0
100
AcDbBlockBegin
  2
*D22
 70
        65
 10
0.0
 20
0.0
 30
0.0
  3
*D22
  1

  0
POINT
  5
319
100
AcDbEntity
  8
DEFPOINTS
  6
CONTINUOUS
 62
         0
100
AcDbPoint
 10
1152.1087645535
 20
2977.8539751793
 30
0.0
  0
POINT
  5
31A
100
AcDbEntity
  8
DEFPOINTS
  6
CONTINUOUS
 62
         0
100
AcDbPoint
 10
1188.2939711554
 20
2977.8539751793
 30
0.0
  0
POINT
  5
31B
100
AcDbEntity
  8
DEFPOINTS
  6
CONTINUOUS
 62
         0
100
AcDbPoint
 10
1188.2939711554
 20
2963.8539751793
 30
0.0
  0
LINE
  5
31C
100
AcDbEntity
  8
______
  6
CONTINUOUS
 62
         4
100
AcDbLine
 10
1186.5439711554
 20
2977.8539751793
 30
0.0
 11
1151.2337645535
 21
2977.8539751793
 31
0.0
  0
LINE
  5
31D
100
AcDbEntity
  8
______
  6
CONTINUOUS
 62
         4
100
AcDbLine
 10
1186.5439711554
 20
2963.8539751793
 30
0.0
 11
1151.2337645535
 21
2963.8539751793
 31
0.0
  0
LINE
  5
31E
100
AcDbEntity
  8
______
  6
CONTINUOUS
 62
         4
100
AcDbLine
 10
1152.1087645535
 20
2977.8539751793
 30
0.0
 11
1152.1087645535
 21
2963.8539751793
 31
0.0
  0
SOLID
  5
31F
100
AcDbEntity
  8
______
  6
CONTINUOUS
 62
         4
100
AcDbTrace
 10
1152.1087645535
 20
2977.8539751793
 30
0.0
 11
1152.6337645535
 21
2974.3539751793
 31
0.0
 12
1151.5837645535
 22
2974.3539751793
 32
0.0
 13
1152.1087645535
 23
2977.8539751793
 33
0.0
  0
SOLID
  5
320
100
AcDbEntity
  8
______
  6
CONTINUOUS
 62
         4
100
AcDbTrace
 10
1152.1087645535
 20
2963.8539751793
 30
0.0
 11
1151.5837645535
 21
2967.3539751793
 31
0.0
 12
1152.6337645535
 22
2967.3539751793
 32
0.0
 13
1152.1087645535
 23
2963.8539751793
 33
0.0
  0
TEXT
  5
322
100
AcDbEntity
  8
______
  6
CONTINUOUS
 62
         4
100
AcDbText
 10
1149.4837645535
 20
2969.2713382261
 30
0.0
 40
3.5
  1
崷14
 50
90.0
  7
BOX
100
AcDbText
  0
ENDBLK
  5
323
100
AcDbEntity
  8
0
  6
CONTINUOUS
100
AcDbBlockEnd
  0
BLOCK
  5
325
100
AcDbEntity
  8
0
100
AcDbBlockBegin
  2
*D23
 70
        65
 10
0.0
 20
0.0
 30
0.0
  3
*D23
  1

  0
POINT
  5
327
100
AcDbEntity
  8
DEFPOINTS
  6
CONTINUOUS
 62
         0
100
AcDbPoint
 10
1162.6521435006
 20
2975.1039751793
 30
0.0
  0
POINT
  5
328
100
AcDbEntity
  8
DEFPOINTS
  6
CONTINUOUS
 62
         0
100
AcDbPoint
 10
1172.7939711554
 20
2975.1039751793
 30
0.0
  0
POINT
  5
329
100
AcDbEntity
  8
DEFPOINTS
  6
CONTINUOUS
 62
         0
100
AcDbPoint
 10
1172.7939711554
 20
2966.6039751793
 30
0.0
  0
LINE
  5
32A
100
AcDbEntity
  8
______
  6
CONTINUOUS
 62
         4
100
AcDbLine
 10
1171.0439711554
 20
2975.1039751793
 30
0.0
 11
1161.7771435006
 21
2975.1039751793
 31
0.0
  0
LINE
  5
32B
100
AcDbEntity
  8
______
  6
CONTINUOUS
 62
         4
100
AcDbLine
 10
1171.0439711554
 20
2966.6039751793
 30
0.0
 11
1161.7771435006
 21
2966.6039751793
 31
0.0
  0
LINE
  5
32C
100
AcDbEntity
  8
______
  6
CONTINUOUS
 62
         4
100
AcDbLine
 10
1162.6521435006
 20
2975.1039751793
 30
0.0
 11
1162.6521435006
 21
2966.6039751793
 31
0.0
  0
SOLID
  5
32D
100
AcDbEntity
  8
______
  6
CONTINUOUS
 62
         4
100
AcDbTrace
 10
1162.6521435006
 20
2975.1039751793
 30
0.0
 11
1163.1771435006
 21
2971.6039751793
 31
0.0
 12
1162.1271435006
 22
2971.6039751793
 32
0.0
 13
1162.6521435006
 23
2975.1039751793
 33
0.0
  0
LINE
  5
32E
100
AcDbEntity
  8
______
  6
CONTINUOUS
 62
         4
100
AcDbLine
 10
1162.6521435006
 20
2975.1039751793
 30
0.0
 11
1162.6521435006
 21
2998.9794612174
 31
0.0
  0
SOLID
  5
32F
100
AcDbEntity
  8
______
  6
CONTINUOUS
 62
         4
100
AcDbTrace
 10
1162.6521435006
 20
2966.6039751793
 30
0.0
 11
1162.1271435006
 21
2970.1039751793
 31
0.0
 12
1163.1771435006
 22
2970.1039751793
 32
0.0
 13
1162.6521435006
 23
2966.6039751793
 33
0.0
  0
TEXT
  5
331
100
AcDbEntity
  8
______
  6
CONTINUOUS
 62
         4
100
AcDbText
 10
1160.0271435006
 20
2979.7294612174
 30
0.0
 40
3.5
  1
崷8.5
 50
90.0
  7
BOX
100
AcDbText
  0
ENDBLK
  5
332
100
AcDbEntity
  8
0
  6
CONTINUOUS
100
AcDbBlockEnd
  0
BLOCK
  5
353
100
AcDbEntity
  8
0
100
AcDbBlockBegin
  2
*D24
 70
        65
 10
0.0
 20
0.0
 30
0.0
  3
*D24
  1

  0
POINT
  5
355
100
AcDbEntity
  8
DEFPOINTS
  6
CONTINUOUS
 62
         0
100
AcDbPoint
 10
1242.2788804701
 20
2971.0725480594
 30
0.0
  0
POINT
  5
356
100
AcDbEntity
  8
DEFPOINTS
  6
CONTINUOUS
 62
         0
100
AcDbPoint
 10
1237.2396732784
 20
2971.0725480594
 30
0.0
  0
POINT
  5
357
100
AcDbEntity
  8
DEFPOINTS
  6
CONTINUOUS
 62
         0
100
AcDbPoint
 10
1231.8147129703
 20
2955.0725480594
 30
0.0
  0
LINE
  5
358
100
AcDbEntity
  8
______
  6
CONTINUOUS
 62
         4
100
AcDbLine
 10
1238.9896732784
 20
2971.0725480594
 30
0.0
 11
1243.1538804701
 21
2971.0725480594
 31
0.0
  0
LINE
  5
359
100
AcDbEntity
  8
______
  6
CONTINUOUS
 62
         4
100
AcDbLine
 10
1233.5647129703
 20
2955.0725480594
 30
0.0
 11
1243.1538804701
 21
2955.0725480594
 31
0.0
  0
LINE
  5
35A
100
AcDbEntity
  8
______
  6
CONTINUOUS
 62
         4
100
AcDbLine
 10
1242.2788804701
 20
2971.0725480594
 30
0.0
 11
1242.2788804701
 21
2955.0725480594
 31
0.0
  0
SOLID
  5
35B
100
AcDbEntity
  8
______
  6
CONTINUOUS
 62
         4
100
AcDbTrace
 10
1242.2788804701
 20
2971.0725480594
 30
0.0
 11
1242.8038804701
 21
2967.5725480594
 31
0.0
 12
1241.7538804701
 22
2967.5725480594
 32
0.0
 13
1242.2788804701
 23
2971.0725480594
 33
0.0
  0
SOLID
  5
35C
100
AcDbEntity
  8
______
  6
CONTINUOUS
 62
         4
100
AcDbTrace
 10
1242.2788804701
 20
2955.0725480594
 30
0.0
 11
1241.7538804701
 21
2958.5725480594
 31
0.0
 12
1242.8038804701
 22
2958.5725480594
 32
0.0
 13
1242.2788804701
 23
2955.0725480594
 33
0.0
  0
TEXT
  5
35E
100
AcDbEntity
  8
______
  6
CONTINUOUS
 62
         4
100
AcDbText
 10
1239.6538804701
 20
2959.6258504253
 30
0.0
 40
3.5
  1
16
 50
90.0
  7
BOX
100
AcDbText
  0
ENDBLK
  5
35F
100
AcDbEntity
  8
0
  6
CONTINUOUS
100
AcDbBlockEnd
  0
BLOCK
  5
361
100
AcDbEntity
  8
0
100
AcDbBlockBegin
  2
*X25
 70
        65
 10
0.0
 20
0.0
 30
0.0
  3
*X25
  1

  0
LINE
  5
362
100
AcDbEntity
  8
______
  6
CONTINUOUS
 62
         4
100
AcDbLine
 10
1194.3648008165
 20
2977.8539751793
 30
0.0
 11
1196.3886724261
 21
2979.8778467888
 31
0.0
  0
LINE
  5
363
100
AcDbEntity
  8
______
  6
CONTINUOUS
 62
         4
100
AcDbLine
 10
1187.3721601294
 20
2975.1039751793
 30
0.0
 11
1188.2939711554
 21
2976.0257862053
 31
0.0
  0
LINE
  5
364
100
AcDbEntity
  8
______
  6
CONTINUOUS
 62
         4
100
AcDbLine
 10
1190.1221601294
 20
2977.8539751793
 30
0.0
 11
1193.2407330096
 21
2980.9725480594
 31
0.0
  0
LINE
  5
365
100
AcDbEntity
  8
______
  6
CONTINUOUS
 62
         4
100
AcDbLine
 10
1183.1295194423
 20
2975.1039751793
 30
0.0
 11
1188.9980923224
 21
2980.9725480594
 31
0.0
  0
LINE
  5
366
100
AcDbEntity
  8
______
  6
CONTINUOUS
 62
         4
100
AcDbLine
 10
1178.8868787551
 20
2975.1039751793
 30
0.0
 11
1184.7554516353
 21
2980.9725480594
 31
0.0
  0
LINE
  5
367
100
AcDbEntity
  8
______
  6
CONTINUOUS
 62
         4
100
AcDbLine
 10
1174.644238068
 20
2975.1039751793
 30
0.0
 11
1180.5128109482
 21
2980.9725480594
 31
0.0
  0
LINE
  5
368
100
AcDbEntity
  8
______
  6
CONTINUOUS
 62
         4
100
AcDbLine
 10
1171.7939711554
 20
2976.4963489538
 30
0.0
 11
1176.2701702611
 21
2980.9725480594
 31
0.0
  0
ENDBLK
  5
369
100
AcDbEntity
  8
0
  6
CONTINUOUS
100
AcDbBlockEnd
  0
BLOCK
  5
36D
100
AcDbEntity
  8
0
100
AcDbBlockBegin
  2
*X26
 70
        65
 10
0.0
 20
0.0
 30
0.0
  3
*X26
  1

  0
LINE
  5
36E
100
AcDbEntity
  8
______
  6
CONTINUOUS
 62
         4
100
AcDbLine
 10
1192.7965771323
 20
2955.0725480594
 30
0.0
 11
1196.7939711554
 21
2959.0699420826
 31
0.0
  0
LINE
  5
36F
100
AcDbEntity
  8
______
  6
CONTINUOUS
 62
         4
100
AcDbLine
 10
1188.5539364451
 20
2955.0725480594
 30
0.0
 11
1196.5646673602
 21
2963.0832789745
 31
0.0
  0
LINE
  5
370
100
AcDbEntity
  8
______
  6
CONTINUOUS
 62
         4
100
AcDbLine
 10
1184.311295758
 20
2955.0725480594
 30
0.0
 11
1193.0927228778
 21
2963.8539751793
 31
0.0
  0
LINE
  5
371
100
AcDbEntity
  8
______
  6
CONTINUOUS
 62
         4
100
AcDbLine
 10
1180.0686550709
 20
2955.0725480594
 30
0.0
 11
1188.8500821907
 21
2963.8539751793
 31
0.0
  0
LINE
  5
372
100
AcDbEntity
  8
______
  6
CONTINUOUS
 62
         4
100
AcDbLine
 10
1175.8260143838
 20
2955.0725480594
 30
0.0
 11
1187.3574415036
 21
2966.6039751793
 31
0.0
  0
LINE
  5
373
100
AcDbEntity
  8
______
  6
CONTINUOUS
 62
         4
100
AcDbLine
 10
1172.4386724261
 20
2955.9278467888
 30
0.0
 11
1183.1148008165
 21
2966.6039751793
 31
0.0
  0
LINE
  5
374
100
AcDbEntity
  8
______
  6
CONTINUOUS
 62
         4
100
AcDbLine
 10
1171.7939711554
 20
2959.5257862053
 30
0.0
 11
1178.8721601294
 21
2966.6039751793
 31
0.0
  0
LINE
  5
375
100
AcDbEntity
  8
______
  6
CONTINUOUS
 62
         4
100
AcDbLine
 10
1171.7939711554
 20
2963.7684268924
 30
0.0
 11
1174.6295194423
 21
2966.6039751793
 31
0.0
  0
ENDBLK
  5
376
100
AcDbEntity
  8
0
  6
CONTINUOUS
100
AcDbBlockEnd
  0
BLOCK
  5
37A
100
AcDbEntity
  8
0
100
AcDbBlockBegin
  2
*D27
 70
        65
 10
0.0
 20
0.0
 30
0.0
  3
*D27
  1

  0
POINT
  5
37C
100
AcDbEntity
  8
DEFPOINTS
  6
CONTINUOUS
 62
         0
100
AcDbPoint
 10
979.2414494397
 20
3180.8879685999
 30
0.0
  0
POINT
  5
37D
100
AcDbEntity
  8
DEFPOINTS
  6
CONTINUOUS
 62
         0
100
AcDbPoint
 10
896.0725521555
 20
3180.8879685999
 30
0.0
  0
POINT
  5
37E
100
AcDbEntity
  8
DEFPOINTS
  6
CONTINUOUS
 62
         0
100
AcDbPoint
 10
896.0725521555
 20
3052.8879685999
 30
0.0
  0
LINE
  5
37F
100
AcDbEntity
  8
______
  6
CONTINUOUS
 62
         4
100
AcDbLine
 10
897.8225521555
 20
3180.8879685999
 30
0.0
 11
980.1164494397
 21
3180.8879685999
 31
0.0
  0
LINE
  5
380
100
AcDbEntity
  8
______
  6
CONTINUOUS
 62
         4
100
AcDbLine
 10
897.8225521555
 20
3052.8879685999
 30
0.0
 11
980.1164494397
 21
3052.8879685999
 31
0.0
  0
LINE
  5
381
100
AcDbEntity
  8
______
  6
CONTINUOUS
 62
         4
100
AcDbLine
 10
979.2414494397
 20
3180.8879685999
 30
0.0
 11
979.2414494397
 21
3052.8879685999
 31
0.0
  0
SOLID
  5
382
100
AcDbEntity
  8
______
  6
CONTINUOUS
 62
         4
100
AcDbTrace
 10
979.2414494397
 20
3180.8879685999
 30
0.0
 11
979.7664494397
 21
3177.3879685999
 31
0.0
 12
978.7164494397
 22
3177.3879685999
 32
0.0
 13
979.2414494397
 23
3180.8879685999
 33
0.0
  0
SOLID
  5
383
100
AcDbEntity
  8
______
  6
CONTINUOUS
 62
         4
100
AcDbTrace
 10
979.2414494397
 20
3052.8879685999
 30
0.0
 11
978.7164494397
 21
3056.3879685999
 31
0.0
 12
979.7664494397
 22
3056.3879685999
 32
0.0
 13
979.2414494397
 23
3052.8879685999
 33
0.0
  0
TEXT
  5
385
100
AcDbEntity
  8
______
  6
CONTINUOUS
 62
         4
100
AcDbText
 10
976.6164494397
 20
3105.8294242239
 30
0.0
 40
3.5
  1
崷128
 50
90.0
  7
BOX
100
AcDbText
  0
ENDBLK
  5
386
100
AcDbEntity
  8
0
  6
CONTINUOUS
100
AcDbBlockEnd
  0
ENDSEC
  0
SECTION
  2
ENTITIES
  0
CIRCLE
  5
29
100
AcDbEntity
  8
______
  6
CONTINUOUS
 62
         7
100
AcDbCircle
 10
1195.1459934036
 20
3080.9879685999
 30
0.0
 40
6.7
  0
ARC
  5
2A
100
AcDbEntity
  8
______
  6
CONTINUOUS
 62
         4
100
AcDbCircle
 10
1195.1459934036
 20
3080.9879685999
 30
0.0
 40
7.95
100
AcDbArc
 50
225.0
 51
490.6987776953
  0
CIRCLE
  5
2B
100
AcDbEntity
  8
______
  6
CONTINUOUS
 62
         7
100
AcDbCircle
 10
1123.3459934036
 20
3080.9879685999
 30
0.0
 40
6.7
  0
ARC
  5
2C
100
AcDbEntity
  8
______
  6
CONTINUOUS
 62
         4
100
AcDbCircle
 10
1123.3459934036
 20
3080.9879685999
 30
0.0
 40
7.95
100
AcDbArc
 50
225.0
 51
490.6987776953
  0
CIRCLE
  5
2D
100
AcDbEntity
  8
______
  6
CONTINUOUS
 62
         7
100
AcDbCircle
 10
1123.3459934036
 20
3152.7879685999
 30
0.0
 40
6.7
  0
ARC
  5
2E
100
AcDbEntity
  8
______
  6
CONTINUOUS
 62
         4
100
AcDbCircle
 10
1123.3459934036
 20
3152.7879685999
 30
0.0
 40
7.95
100
AcDbArc
 50
225.0
 51
490.6987776953
  0
CIRCLE
  5
2F
100
AcDbEntity
  8
______
  6
CONTINUOUS
 62
         7
100
AcDbCircle
 10
1195.1459934036
 20
3152.7879685999
 30
0.0
 40
6.7
  0
ARC
  5
30
100
AcDbEntity
  8
______
  6
CONTINUOUS
 62
         4
100
AcDbCircle
 10
1195.1459934036
 20
3152.7879685999
 30
0.0
 40
7.95
100
AcDbArc
 50
225.0
 51
490.6987776953
  0
ARC
  5
31
100
AcDbEntity
  8
______
  6
CENTER
 62
         1
100
AcDbCircle
 10
1159.2459934036
 20
3116.8879685999
 30
0.0
 40
50.7702668892
100
AcDbArc
 50
202.6379146531
 51
243.2361781689
  0
ARC
  5
32
100
AcDbEntity
  8
______
  6
CENTER
 62
         1
100
AcDbCircle
 10
1159.2459934036
 20
3116.8879685999
 30
0.0
 40
50.7702668892
100
AcDbArc
 50
112.6379146531
 51
153.236178169
  0
ARC
  5
33
100
AcDbEntity
  8
______
  6
CENTER
 62
         1
100
AcDbCircle
 10
1159.2459934036
 20
3116.8879685999
 30
0.0
 40
50.7702668892
100
AcDbArc
 50
22.6379146531
 51
63.2361781689
  0
ARC
  5
34
100
AcDbEntity
  8
______
  6
CENTER
 62
         1
100
AcDbCircle
 10
1159.2459934036
 20
3116.8879685999
 30
0.0
 40
50.7702668892
100
AcDbArc
 50
292.6379146531
 51
333.236178169
  0
DIMENSION
  5
38
100
AcDbEntity
  8
______
  6
CONTINUOUS
 62
         4
100
AcDbDimension
  2
*D0
 10
1123.3459934036
 20
3026.7558113524
 30
0.0
 11
1152.5300240383
 21
3029.3808113524
 31
0.0
  3
DIMSTYLE1
100
AcDbAlignedDimension
 13
1123.3459934036
 23
3080.9879685999
 33
0.0
 14
1195.1459934036
 24
3080.9879685999
 34
0.0
100
AcDbRotatedDimension
  0
DIMENSION
  5
47
100
AcDbEntity
  8
______
  6
CONTINUOUS
 62
         4
100
AcDbDimension
  2
*D1
 10
1072.7003606144
 20
3080.9879685999
 30
0.0
 11
1070.0753606144
 21
3105.3887135863
 31
0.0
  3
DIMSTYLE1
100
AcDbAlignedDimension
 13
1123.3459934036
 23
3080.9879685999
 33
0.0
 14
1123.3459934036
 24
3152.7879685999
 34
0.0
 50
90.0
100
AcDbRotatedDimension
  0
INSERT
  5
BC
100
AcDbEntity
  8
0
  6
CONTINUOUS
100
AcDbBlockReference
  2
*X2
 10
0.0
 20
0.0
 30
0.0
  0
DIMENSION
  5
BF
100
AcDbEntity
  8
______
  6
CONTINUOUS
 62
         4
100
AcDbDimension
  2
*D3
 10
721.4725521555
 20
3253.0382588801
 30
0.0
 11
815.7725521555
 21
3255.6632588801
 31
0.0
  3
DIMSTYLE1
100
AcDbAlignedDimension
 13
721.4725521555
 23
3134.812429158
 33
0.0
 14
927.5725521555
 24
3146.6379685999
 34
0.0
100
AcDbRotatedDimension
  0
DIMENSION
  5
CD
100
AcDbEntity
  8
______
  6
CONTINUOUS
 62
         4
100
AcDbDimension
  2
*D4
 10
823.2225521555
 20
3239.948633858
 30
0.0
 11
857.1475521555
 21
3242.573633858
 31
0.0
  3
DIMSTYLE1
100
AcDbAlignedDimension
 13
823.2225521555
 23
3156.6129685999
 33
0.0
 14
898.0725521555
 24
3178.8879685999
 34
0.0
100
AcDbRotatedDimension
  0
LINE
  5
D9
100
AcDbEntity
  8
______
  6
CONTINUOUS
 62
         7
100
AcDbLine
 10
776.4725521555
 20
2917.0840350854
 30
0.0
 11
782.474882698
 21
2927.4803765488
 31
0.0
  0
LINE
  5
DA
100
AcDbEntity
  8
______
  6
CONTINUOUS
 62
         7
100
AcDbLine
 10
776.4725521555
 20
2937.8767180122
 30
0.0
 11
782.474882698
 21
2927.4803765488
 31
0.0
  0
LINE
  5
DB
100
AcDbEntity
  8
______
  6
CONTINUOUS
 62
         7
100
AcDbLine
 10
776.4725521555
 20
2937.8767180122
 30
0.0
 11
776.4725521555
 21
2917.0840350854
 31
0.0
  0
ARC
  5
DC
100
AcDbEntity
  8
______
  6
CONTINUOUS
 62
         7
100
AcDbCircle
 10
859.4745521555
 20
2865.4803765488
 30
0.0
 40
2.0
100
AcDbArc
 50
180.0
 51
270.0
  0
ARC
  5
DD
100
AcDbEntity
  8
______
  6
CONTINUOUS
 62
         7
100
AcDbCircle
 10
859.4745521555
 20
2989.4803765488
 30
0.0
 40
2.0
100
AcDbArc
 50
90.0
 51
180.0
  0
LINE
  5
DE
100
AcDbEntity
  8
______
  6
CONTINUOUS
 62
         7
100
AcDbLine
 10
857.4745521555
 20
2962.4053765488
 30
0.0
 11
857.4745521555
 21
2989.4803765488
 31
0.0
  0
LINE
  5
DF
100
AcDbEntity
  8
______
  6
CONTINUOUS
 62
         7
100
AcDbLine
 10
857.4745521555
 20
2865.4803765488
 30
0.0
 11
857.4745521555
 21
2892.5553765488
 31
0.0
  0
ARC
  5
E0
100
AcDbEntity
  8
______
  6
CONTINUOUS
 62
         7
100
AcDbCircle
 10
857.4745521555
 20
3081.1629685999
 30
0.0
 40
0.8
100
AcDbArc
 50
0.0
 51
90.0
  0
ARC
  5
E1
100
AcDbEntity
  8
______
  6
CONTINUOUS
 62
         7
100
AcDbCircle
 10
857.4745521555
 20
3152.6129685999
 30
0.0
 40
0.8
100
AcDbArc
 50
270.0
 51
360.0
  0
ARC
  5
E2
100
AcDbEntity
  8
______
  6
CONTINUOUS
 62
         7
100
AcDbCircle
 10
860.2745521555
 20
3054.8879685999
 30
0.0
 40
2.0
100
AcDbArc
 50
180.0
 51
270.0
  0
ARC
  5
E3
100
AcDbEntity
  8
______
  6
CONTINUOUS
 62
         7
100
AcDbCircle
 10
860.2745521555
 20
3178.8879685999
 30
0.0
 40
2.0
100
AcDbArc
 50
90.0
 51
180.0
  0
LINE
  5
E4
100
AcDbEntity
  8
______
  6
CONTINUOUS
 62
         7
100
AcDbLine
 10
651.8213108415
 20
3129.7379685999
 30
0.0
 11
652.8213108415
 21
3130.7379685999
 31
0.0
  0
LINE
  5
E5
100
AcDbEntity
  8
______
  6
CONTINUOUS
 62
         7
100
AcDbLine
 10
652.8213108415
 20
3103.0379685999
 30
0.0
 11
651.8213108415
 21
3104.0379685999
 31
0.0
  0
LINE
  5
E6
100
AcDbEntity
  8
______
  6
CONTINUOUS
 62
         7
100
AcDbLine
 10
652.8213108415
 20
3104.5379685999
 30
0.0
 11
653.3213108415
 21
3104.0379685999
 31
0.0
  0
LINE
  5
E7
100
AcDbEntity
  8
______
  6
CONTINUOUS
 62
         7
100
AcDbLine
 10
653.3213108415
 20
3129.7379685999
 30
0.0
 11
652.8213108415
 21
3129.2379685999
 31
0.0
  0
LINE
  5
E8
100
AcDbEntity
  8
______
  6
CONTINUOUS
 62
         7
100
AcDbLine
 10
579.1213108415
 20
3129.2379685999
 30
0.0
 11
578.6213108415
 21
3129.7379685999
 31
0.0
  0
LINE
  5
E9
100
AcDbEntity
  8
______
  6
CONTINUOUS
 62
         7
100
AcDbLine
 10
578.6213108415
 20
3104.0379685999
 30
0.0
 11
579.1213108415
 21
3104.5379685999
 31
0.0
  0
LINE
  5
EA
100
AcDbEntity
  8
______
  6
CONTINUOUS
 62
         7
100
AcDbLine
 10
580.1213108415
 20
3104.0379685999
 30
0.0
 11
579.1213108415
 21
3103.0379685999
 31
0.0
  0
LINE
  5
EB
100
AcDbEntity
  8
______
  6
CONTINUOUS
 62
         7
100
AcDbLine
 10
579.1213108415
 20
3130.7379685999
 30
0.0
 11
580.1213108415
 21
3129.7379685999
 31
0.0
  0
LINE
  5
EC
100
AcDbEntity
  8
______
  6
DASHED
 62
         2
100
AcDbLine
 10
1122.5459934036
 20
3104.0379685999
 30
0.0
 11
1121.5459934036
 21
3103.0379685999
 31
0.0
  0
LINE
  5
ED
100
AcDbEntity
  8
______
  6
DASHED
 62
         2
100
AcDbLine
 10
1122.5459934036
 20
3129.7379685999
 30
0.0
 11
1121.5459934036
 21
3130.7379685999
 31
0.0
  0
LINE
  5
EE
100
AcDbEntity
  8
______
  6
DASHED
 62
         2
100
AcDbLine
 10
1121.5459934036
 20
3104.5379685999
 30
0.0
 11
1121.0459934036
 21
3104.0379685999
 31
0.0
  0
LINE
  5
EF
100
AcDbEntity
  8
______
  6
DASHED
 62
         2
100
AcDbLine
 10
1121.0459934036
 20
3129.7379685999
 30
0.0
 11
1121.5459934036
 21
3129.2379685999
 31
0.0
  0
LINE
  5
F0
100
AcDbEntity
  8
______
  6
DASHED
 62
         2
100
AcDbLine
 10
1122.5459934036
 20
3129.7379685999
 30
0.0
 11
1122.5459934036
 21
3104.0379685999
 31
0.0
  0
LINE
  5
F1
100
AcDbEntity
  8
______
  6
DASHED
 62
         2
100
AcDbLine
 10
1121.5459934036
 20
3129.2379685999
 30
0.0
 11
1121.5459934036
 21
3104.5379685999
 31
0.0
  0
LINE
  5
F2
100
AcDbEntity
  8
______
  6
DASHED
 62
         2
100
AcDbLine
 10
1194.7459934036
 20
3104.5379685999
 30
0.0
 11
1195.2459934036
 21
3104.0379685999
 31
0.0
  0
LINE
  5
F3
100
AcDbEntity
  8
______
  6
DASHED
 62
         2
100
AcDbLine
 10
1193.7459934036
 20
3104.0379685999
 30
0.0
 11
1194.7459934036
 21
3103.0379685999
 31
0.0
  0
LINE
  5
F4
100
AcDbEntity
  8
______
  6
DASHED
 62
         2
100
AcDbLine
 10
1194.7459934036
 20
3130.7379685999
 30
0.0
 11
1193.7459934036
 21
3129.7379685999
 31
0.0
  0
LINE
  5
F5
100
AcDbEntity
  8
______
  6
DASHED
 62
         2
100
AcDbLine
 10
1194.7459934036
 20
3129.2379685999
 30
0.0
 11
1195.2459934036
 21
3129.7379685999
 31
0.0
  0
ARC
  5
F6
100
AcDbEntity
  8
______
  6
CONTINUOUS
 62
         7
100
AcDbCircle
 10
722.9725521555
 20
2913.4803765488
 30
0.0
 40
1.5
100
AcDbArc
 50
90.0
 51
180.0
  0
LINE
  5
F7
100
AcDbEntity
  8
______
  6
CONTINUOUS
 62
         7
100
AcDbLine
 10
722.9725521555
 20
2914.9803765488
 30
0.0
 11
725.8225521555
 21
2914.9803765488
 31
0.0
  0
LINE
  5
F8
100
AcDbEntity
  8
______
  6
CONTINUOUS
 62
         7
100
AcDbLine
 10
726.568962317
 20
2914.7803765488
 30
0.0
 11
725.8225521555
 21
2914.9803765488
 31
0.0
  0
LINE
  5
F9
100
AcDbEntity
  8
______
  6
CONTINUOUS
 62
         7
100
AcDbLine
 10
726.568962317
 20
2914.7803765488
 30
0.0
 11
727.4225521555
 21
2914.7803765488
 31
0.0
  0
ARC
  5
FA
100
AcDbEntity
  8
______
  6
CONTINUOUS
 62
         7
100
AcDbCircle
 10
727.4225521555
 20
2915.1803765488
 30
0.0
 40
0.4
100
AcDbArc
 50
270.0
 51
315.0
  0
LINE
  5
FB
100
AcDbEntity
  8
______
  6
CONTINUOUS
 62
         7
100
AcDbLine
 10
727.705394868
 20
2914.8975338363
 30
0.0
 11
729.8918961171
 21
2917.0840350854
 31
0.0
  0
LINE
  5
FC
100
AcDbEntity
  8
______
  6
CONTINUOUS
 62
         5
100
AcDbLine
 10
728.2882375805
 20
2915.4803765488
 30
0.0
 11
765.9225521555
 21
2915.4803765488
 31
0.0
  0
LINE
  5
FD
100
AcDbEntity
  8
______
  6
CONTINUOUS
 62
         7
100
AcDbLine
 10
765.9225521555
 20
2939.4803765488
 30
0.0
 11
765.9225521555
 21
2915.4803765488
 31
0.0
  0
LINE
  5
FE
100
AcDbEntity
  8
______
  6
CONTINUOUS
 62
         7
100
AcDbLine
 10
729.8918961171
 20
2917.0840350854
 30
0.0
 11
729.8918961171
 21
2937.8767180122
 31
0.0
  0
LINE
  5
FF
100
AcDbEntity
  8
______
  6
CONTINUOUS
 62
         5
100
AcDbLine
 10
728.2882375805
 20
2939.4803765488
 30
0.0
 11
765.9225521555
 21
2939.4803765488
 31
0.0
  0
LINE
  5
100
100
AcDbEntity
  8
______
  6
CONTINUOUS
 62
         7
100
AcDbLine
 10
727.705394868
 20
2940.0632192613
 30
0.0
 11
729.8918961171
 21
2937.8767180122
 31
0.0
  0
LINE
  5
101
100
AcDbEntity
  8
______
  6
CONTINUOUS
 62
         7
100
AcDbLine
 10
727.8225521555
 20
2915.0146911238
 30
0.0
 11
727.8225521555
 21
2939.9460619737
 31
0.0
  0
LINE
  5
102
100
AcDbEntity
  8
______
  6
CONTINUOUS
 62
         7
100
AcDbLine
 10
726.568962317
 20
2940.1803765488
 30
0.0
 11
727.4225521555
 21
2940.1803765488
 31
0.0
  0
ARC
  5
103
100
AcDbEntity
  8
______
  6
CONTINUOUS
 62
         7
100
AcDbCircle
 10
727.4225521555
 20
2939.7803765488
 30
0.0
 40
0.4
100
AcDbArc
 50
45.0
 51
90.0
  0
LINE
  5
104
100
AcDbEntity
  8
______
  6
CONTINUOUS
 62
         7
100
AcDbLine
 10
726.568962317
 20
2940.1803765488
 30
0.0
 11
725.8225521555
 21
2939.9803765488
 31
0.0
  0
LINE
  5
105
100
AcDbEntity
  8
______
  6
CONTINUOUS
 62
         7
100
AcDbLine
 10
725.8225521555
 20
2914.9803765488
 30
0.0
 11
725.8225521555
 21
2939.9803765488
 31
0.0
  0
LINE
  5
106
100
AcDbEntity
  8
______
  6
CONTINUOUS
 62
         7
100
AcDbLine
 10
722.9725521555
 20
2939.9803765488
 30
0.0
 11
725.8225521555
 21
2939.9803765488
 31
0.0
  0
LINE
  5
107
100
AcDbEntity
  8
______
  6
CONTINUOUS
 62
         4
100
AcDbLine
 10
722.9725521555
 20
2914.9803765488
 30
0.0
 11
722.9725521555
 21
2939.9803765488
 31
0.0
  0
ARC
  5
108
100
AcDbEntity
  8
______
  6
CONTINUOUS
 62
         7
100
AcDbCircle
 10
722.9725521555
 20
2941.4803765488
 30
0.0
 40
1.5
100
AcDbArc
 50
180.0
 51
270.0
  0
LINE
  5
109
100
AcDbEntity
  8
______
  6
CONTINUOUS
 62
         7
100
AcDbLine
 10
651.8213108415
 20
3104.0379685999
 30
0.0
 11
651.8213108415
 21
3129.7379685999
 31
0.0
  0
LINE
  5
10A
100
AcDbEntity
  8
______
  6
CONTINUOUS
 62
         7
100
AcDbLine
 10
661.8625132223
 20
3103.0379685999
 30
0.0
 11
660.8625132223
 21
3104.0379685999
 31
0.0
  0
LINE
  5
10B
100
AcDbEntity
  8
______
  6
CONTINUOUS
 62
         7
100
AcDbLine
 10
661.8625132223
 20
3103.0379685999
 30
0.0
 11
652.8213108415
 21
3103.0379685999
 31
0.0
  0
LINE
  5
10C
100
AcDbEntity
  8
______
  6
CONTINUOUS
 62
         7
100
AcDbLine
 10
660.8625132223
 20
3104.0379685999
 30
0.0
 11
653.3213108415
 21
3104.0379685999
 31
0.0
  0
LINE
  5
10D
100
AcDbEntity
  8
______
  6
CONTINUOUS
 62
         7
100
AcDbLine
 10
661.8625132223
 20
3130.7379685999
 30
0.0
 11
660.8625132223
 21
3129.7379685999
 31
0.0
  0
LINE
  5
10E
100
AcDbEntity
  8
______
  6
CONTINUOUS
 62
         7
100
AcDbLine
 10
661.8625132223
 20
3130.7379685999
 30
0.0
 11
652.8213108415
 21
3130.7379685999
 31
0.0
  0
LINE
  5
10F
100
AcDbEntity
  8
______
  6
CONTINUOUS
 62
         7
100
AcDbLine
 10
660.8625132223
 20
3129.7379685999
 30
0.0
 11
653.3213108415
 21
3129.7379685999
 31
0.0
  0
LINE
  5
110
100
AcDbEntity
  8
______
  6
CONTINUOUS
 62
         7
100
AcDbLine
 10
652.8213108415
 20
3104.5379685999
 30
0.0
 11
652.8213108415
 21
3129.2379685999
 31
0.0
  0
LINE
  5
111
100
AcDbEntity
  8
______
  6
CONTINUOUS
 62
         7
100
AcDbLine
 10
568.3801084607
 20
3130.7379685999
 30
0.0
 11
579.1213108415
 21
3130.7379685999
 31
0.0
  0
LINE
  5
112
100
AcDbEntity
  8
______
  6
CONTINUOUS
 62
         7
100
AcDbLine
 10
569.3801084607
 20
3129.7379685999
 30
0.0
 11
578.6213108415
 21
3129.7379685999
 31
0.0
  0
LINE
  5
113
100
AcDbEntity
  8
______
  6
CONTINUOUS
 62
         7
100
AcDbLine
 10
568.3801084607
 20
3130.7379685999
 30
0.0
 11
569.3801084607
 21
3129.7379685999
 31
0.0
  0
LINE
  5
114
100
AcDbEntity
  8
______
  6
CONTINUOUS
 62
         7
100
AcDbLine
 10
568.3801084607
 20
3103.0379685999
 30
0.0
 11
569.3801084607
 21
3104.0379685999
 31
0.0
  0
LINE
  5
115
100
AcDbEntity
  8
______
  6
CONTINUOUS
 62
         7
100
AcDbLine
 10
568.3801084607
 20
3103.0379685999
 30
0.0
 11
579.1213108415
 21
3103.0379685999
 31
0.0
  0
LINE
  5
116
100
AcDbEntity
  8
______
  6
CONTINUOUS
 62
         7
100
AcDbLine
 10
569.3801084607
 20
3104.0379685999
 30
0.0
 11
578.6213108415
 21
3104.0379685999
 31
0.0
  0
LINE
  5
117
100
AcDbEntity
  8
______
  6
CONTINUOUS
 62
         7
100
AcDbLine
 10
580.1213108415
 20
3104.0379685999
 30
0.0
 11
580.1213108415
 21
3129.7379685999
 31
0.0
  0
LINE
  5
118
100
AcDbEntity
  8
______
  6
CONTINUOUS
 62
         7
100
AcDbLine
 10
579.1213108415
 20
3104.5379685999
 30
0.0
 11
579.1213108415
 21
3129.2379685999
 31
0.0
  0
LINE
  5
119
100
AcDbEntity
  8
______
  6
DASHED
 62
         2
100
AcDbLine
 10
1112.5047910228
 20
3130.7379685999
 30
0.0
 11
1113.5047910228
 21
3129.7379685999
 31
0.0
  0
LINE
  5
11A
100
AcDbEntity
  8
______
  6
DASHED
 62
         2
100
AcDbLine
 10
1112.5047910228
 20
3130.7379685999
 30
0.0
 11
1121.5459934036
 21
3130.7379685999
 31
0.0
  0
LINE
  5
11B
100
AcDbEntity
  8
______
  6
DASHED
 62
         2
100
AcDbLine
 10
1113.5047910228
 20
3129.7379685999
 30
0.0
 11
1121.0459934036
 21
3129.7379685999
 31
0.0
  0
LINE
  5
11C
100
AcDbEntity
  8
______
  6
DASHED
 62
         2
100
AcDbLine
 10
1112.5047910228
 20
3103.0379685999
 30
0.0
 11
1113.5047910228
 21
3104.0379685999
 31
0.0
  0
LINE
  5
11D
100
AcDbEntity
  8
______
  6
DASHED
 62
         2
100
AcDbLine
 10
1112.5047910228
 20
3103.0379685999
 30
0.0
 11
1121.5459934036
 21
3103.0379685999
 31
0.0
  0
LINE
  5
11E
100
AcDbEntity
  8
______
  6
DASHED
 62
         2
100
AcDbLine
 10
1113.5047910228
 20
3104.0379685999
 30
0.0
 11
1121.0459934036
 21
3104.0379685999
 31
0.0
  0
LINE
  5
11F
100
AcDbEntity
  8
______
  6
DASHED
 62
         2
100
AcDbLine
 10
1205.9871957844
 20
3103.0379685999
 30
0.0
 11
1194.7459934036
 21
3103.0379685999
 31
0.0
  0
LINE
  5
120
100
AcDbEntity
  8
______
  6
DASHED
 62
         2
100
AcDbLine
 10
1204.9871957844
 20
3104.0379685999
 30
0.0
 11
1195.2459934036
 21
3104.0379685999
 31
0.0
  0
LINE
  5
121
100
AcDbEntity
  8
______
  6
DASHED
 62
         2
100
AcDbLine
 10
1205.9871957844
 20
3103.0379685999
 30
0.0
 11
1204.9871957844
 21
3104.0379685999
 31
0.0
  0
LINE
  5
122
100
AcDbEntity
  8
______
  6
DASHED
 62
         2
100
AcDbLine
 10
1205.9871957844
 20
3130.7379685999
 30
0.0
 11
1204.9871957844
 21
3129.7379685999
 31
0.0
  0
LINE
  5
123
100
AcDbEntity
  8
______
  6
DASHED
 62
         2
100
AcDbLine
 10
1205.9871957844
 20
3130.7379685999
 30
0.0
 11
1194.7459934036
 21
3130.7379685999
 31
0.0
  0
LINE
  5
124
100
AcDbEntity
  8
______
  6
DASHED
 62
         2
100
AcDbLine
 10
1204.9871957844
 20
3129.7379685999
 30
0.0
 11
1195.2459934036
 21
3129.7379685999
 31
0.0
  0
LINE
  5
125
100
AcDbEntity
  8
______
  6
DASHED
 62
         2
100
AcDbLine
 10
1193.7459934036
 20
3129.7379685999
 30
0.0
 11
1193.7459934036
 21
3104.0379685999
 31
0.0
  0
LINE
  5
126
100
AcDbEntity
  8
______
  6
DASHED
 62
         2
100
AcDbLine
 10
1194.7459934036
 20
3129.2379685999
 30
0.0
 11
1194.7459934036
 21
3104.5379685999
 31
0.0
  0
LINE
  5
127
100
AcDbEntity
  8
______
  6
CONTINUOUS
 62
         7
100
AcDbLine
 10
842.8225521555
 20
2892.5553765488
 30
0.0
 11
857.4745521555
 21
2892.5553765488
 31
0.0
  0
LINE
  5
128
100
AcDbEntity
  8
______
  6
CONTINUOUS
 62
         7
100
AcDbLine
 10
842.8225521555
 20
2962.4053765488
 30
0.0
 11
857.4745521555
 21
2962.4053765488
 31
0.0
  0
LINE
  5
129
100
AcDbEntity
  8
______
  6
CONTINUOUS
 62
         7
100
AcDbLine
 10
858.2745521555
 20
3178.8879685999
 30
0.0
 11
858.2745521555
 21
3054.8879685999
 31
0.0
  0
LINE
  5
12A
100
AcDbEntity
  8
______
  6
CONTINUOUS
 62
         7
100
AcDbLine
 10
842.8225521555
 20
3081.9629685999
 30
0.0
 11
857.4745521555
 21
3081.9629685999
 31
0.0
  0
LINE
  5
12B
100
AcDbEntity
  8
______
  6
CONTINUOUS
 62
         7
100
AcDbLine
 10
842.8225521555
 20
3151.8129685999
 30
0.0
 11
857.4745521555
 21
3151.8129685999
 31
0.0
  0
CIRCLE
  5
12C
100
AcDbEntity
  8
______
  6
CONTINUOUS
 62
         7
100
AcDbCircle
 10
615.1213108415
 20
3116.8879685999
 30
0.0
 40
12.6589889012
  0
LINE
  5
12D
100
AcDbEntity
  8
______
  6
CONTINUOUS
 62
         7
100
AcDbLine
 10
840.8225521555
 20
3068.1379685999
 30
0.0
 11
840.8225521555
 21
3103.0379685999
 31
0.0
  0
LINE
  5
12E
100
AcDbEntity
  8
______
  6
CONTINUOUS
 62
         7
100
AcDbLine
 10
827.9225521555
 20
3068.1379685999
 30
0.0
 11
827.9225521555
 21
3103.0379685999
 31
0.0
  0
ARC
  5
12F
100
AcDbEntity
  8
______
  6
CONTINUOUS
 62
         4
100
AcDbCircle
 10
615.1213108415
 20
3116.8879685999
 30
0.0
 40
12.0
100
AcDbArc
 50
278.1340859252
 51
549.6704111119
  0
CIRCLE
  5
130
100
AcDbEntity
  8
______
  6
CONTINUOUS
 62
         7
100
AcDbCircle
 10
615.1213108415
 20
3116.8879685999
 30
0.0
 40
10.3963414634
  0
CIRCLE
  5
131
100
AcDbEntity
  8
______
  6
CONTINUOUS
 62
         7
100
AcDbCircle
 10
615.1213108415
 20
3116.8879685999
 30
0.0
 40
20.3982925257
  0
CIRCLE
  5
132
100
AcDbEntity
  8
______
  6
CONTINUOUS
 62
         7
100
AcDbCircle
 10
615.1213108415
 20
3116.8879685999
 30
0.0
 40
34.925
  0
ARC
  5
133
100
AcDbEntity
  8
______
  6
CONTINUOUS
 62
         7
100
AcDbCircle
 10
615.1213108415
 20
3116.8879685999
 30
0.0
 40
48.75
100
AcDbArc
 50
196.5052120024
 51
343.4947879976
  0
LINE
  5
134
100
AcDbEntity
  8
______
  6
CENTER
 62
         1
100
AcDbLine
 10
658.4867205784
 20
3116.8879685999
 30
0.0
 11
568.5567652461
 21
3116.8879685999
 31
0.0
  0
ARC
  5
135
100
AcDbEntity
  8
______
  6
CONTINUOUS
 62
         7
100
AcDbCircle
 10
615.1213108415
 20
3116.8879685999
 30
0.0
 40
48.75
100
AcDbArc
 50
16.5052120024
 51
163.4947879976
  0
ARC
  5
136
100
AcDbEntity
  8
______
  6
DASHED
 62
         2
100
AcDbCircle
 10
1159.2459934036
 20
3116.8879685999
 30
0.0
 40
45.625
100
AcDbArc
 50
197.6716498685
 51
343.6416615207
  0
ARC
  5
137
100
AcDbEntity
  8
______
  6
DASHED
 62
         2
100
AcDbCircle
 10
1159.2459934036
 20
3116.8879685999
 30
0.0
 40
47.25
100
AcDbArc
 50
197.0449399911
 51
342.9550600089
  0
ARC
  5
138
100
AcDbEntity
  8
______
  6
DASHED
 62
         2
100
AcDbCircle
 10
1159.2459934036
 20
3116.8879685999
 30
0.0
 40
47.25
100
AcDbArc
 50
17.0449399911
 51
162.9550600089
  0
DIMENSION
  5
13B
100
AcDbEntity
  8
______
  6
CONTINUOUS
 62
         4
100
AcDbDimension
  2
*D5
 10
1121.5459934036
 20
3226.4582980652
 30
0.0
 11
1126.832892054
 21
3229.0832980652
 31
0.0
  3
DIMSTYLE1
100
AcDbAlignedDimension
 13
1121.5459934036
 23
3129.7379685999
 33
0.0
 14
1159.2459934036
 24
3175.2299743899
 34
0.0
100
AcDbRotatedDimension
  0
ARC
  5
147
100
AcDbEntity
  8
______
  6
DASHED
 62
         2
100
AcDbCircle
 10
1159.2459934036
 20
3116.8879685999
 30
0.0
 40
48.75
100
AcDbArc
 50
16.5052120024
 51
163.4947879976
  0
ARC
  5
148
100
AcDbEntity
  8
______
  6
DASHED
 62
         2
100
AcDbCircle
 10
1159.2459934036
 20
3116.8879685999
 30
0.0
 40
45.625
100
AcDbArc
 50
16.3583384793
 51
163.6416615207
  0
ARC
  5
149
100
AcDbEntity
  8
______
  6
DASHED
 62
         2
100
AcDbCircle
 10
1159.2459934036
 20
3116.8879685999
 30
0.0
 40
48.75
100
AcDbArc
 50
196.5052120024
 51
343.4947879976
  0
DIMENSION
  5
14C
100
AcDbEntity
  8
______
  6
CONTINUOUS
 62
         4
100
AcDbDimension
  2
*D6
 10
1159.2459934036
 20
3226.4582980652
 30
0.0
 11
1163.4137152167
 21
3229.0832980652
 31
0.0
  3
DIMSTYLE1
100
AcDbAlignedDimension
 13
1159.2459934036
 23
3175.2299743899
 33
0.0
 14
1194.7459934036
 24
3130.517874435
 34
0.0
100
AcDbRotatedDimension
  0
ARC
  5
158
100
AcDbEntity
  8
______
  6
CONTINUOUS
 62
         7
100
AcDbCircle
 10
835.4772526939
 20
2880.8553765488
 30
0.0
 40
1.0
100
AcDbArc
 50
30.0
 51
90.0
  0
LINE
  5
159
100
AcDbEntity
  8
______
  6
CENTER
 62
         1
100
AcDbLine
 10
615.1213108415
 20
3170.3278359519
 30
0.0
 11
615.1213108415
 21
3055.237937871
 31
0.0
  0
LINE
  5
15A
100
AcDbEntity
  8
______
  6
CENTER
 62
         1
100
AcDbLine
 10
721.4725521555
 20
2927.4803765488
 30
0.0
 11
935.8604242356
 21
2927.4803765488
 31
0.0
  0
LINE
  5
15B
100
AcDbEntity
  8
______
  6
CONTINUOUS
 62
         7
100
AcDbLine
 10
823.2225521555
 20
2962.4053765488
 30
0.0
 11
825.168962317
 21
2961.9053765488
 31
0.0
  0
LINE
  5
15C
100
AcDbEntity
  8
______
  6
CONTINUOUS
 62
         7
100
AcDbLine
 10
823.2225521555
 20
2892.5553765488
 30
0.0
 11
825.168962317
 21
2893.0553765488
 31
0.0
  0
LINE
  5
15D
100
AcDbEntity
  8
______
  6
CONTINUOUS
 62
         7
100
AcDbLine
 10
729.8918961171
 20
2937.8767180122
 30
0.0
 11
776.4725521555
 21
2937.8767180122
 31
0.0
  0
LINE
  5
15E
100
AcDbEntity
  8
______
  6
CONTINUOUS
 62
         7
100
AcDbLine
 10
823.2225521555
 20
2962.4053765488
 30
0.0
 11
723.6117815969
 21
2947.8786690745
 31
0.0
  0
LINE
  5
15F
100
AcDbEntity
  8
______
  6
CONTINUOUS
 62
         7
100
AcDbLine
 10
729.8918961171
 20
2917.0840350854
 30
0.0
 11
776.4725521555
 21
2917.0840350854
 31
0.0
  0
LINE
  5
160
100
AcDbEntity
  8
______
  6
CONTINUOUS
 62
         7
100
AcDbLine
 10
823.2225521555
 20
2892.5553765488
 30
0.0
 11
723.6117815969
 21
2907.0820840231
 31
0.0
  0
LINE
  5
161
100
AcDbEntity
  8
______
  6
CONTINUOUS
 62
         7
100
AcDbLine
 10
721.4725521555
 20
2945.4048371068
 30
0.0
 11
721.4725521555
 21
2909.5559159907
 31
0.0
  0
ARC
  5
162
100
AcDbEntity
  8
______
  6
CONTINUOUS
 62
         7
100
AcDbCircle
 10
723.9725521555
 20
2909.5559159907
 30
0.0
 40
2.5
100
AcDbArc
 50
180.0
 51
261.702778
  0
ARC
  5
163
100
AcDbEntity
  8
______
  6
CONTINUOUS
 62
         7
100
AcDbCircle
 10
723.9725521555
 20
2945.4048371068
 30
0.0
 40
2.5
100
AcDbArc
 50
98.297222
 51
180.0
  0
LINE
  5
164
100
AcDbEntity
  8
______
  6
CONTINUOUS
 62
         7
100
AcDbLine
 10
837.8588225543
 20
2878.7303765488
 30
0.0
 11
840.8225521555
 21
2878.7303765488
 31
0.0
  0
ARC
  5
165
100
AcDbEntity
  8
______
  6
CONTINUOUS
 62
         7
100
AcDbCircle
 10
840.8225521555
 20
2880.2303765488
 30
0.0
 40
1.5
100
AcDbArc
 50
270.0
 51
360.0
  0
LINE
  5
166
100
AcDbEntity
  8
______
  6
CONTINUOUS
 62
         7
100
AcDbLine
 10
842.3225521555
 20
2892.0553765488
 30
0.0
 11
842.3225521555
 21
2880.2303765488
 31
0.0
  0
ARC
  5
167
100
AcDbEntity
  8
______
  6
CONTINUOUS
 62
         7
100
AcDbCircle
 10
825.8225521555
 20
2892.4553765488
 30
0.0
 40
0.6
100
AcDbArc
 50
0.0
 51
90.0
  0
LINE
  5
168
100
AcDbEntity
  8
______
  6
CONTINUOUS
 62
         7
100
AcDbLine
 10
825.168962317
 20
2893.0553765488
 30
0.0
 11
825.8225521555
 21
2893.0553765488
 31
0.0
  0
ARC
  5
169
100
AcDbEntity
  8
______
  6
CONTINUOUS
 62
         7
100
AcDbCircle
 10
832.8791764825
 20
2881.3553765488
 30
0.0
 40
0.5
100
AcDbArc
 50
90.0
 51
150.0
  0
LINE
  5
16A
100
AcDbEntity
  8
______
  6
CONTINUOUS
 62
         7
100
AcDbLine
 10
832.4461637807
 20
2881.6053765488
 30
0.0
 11
830.7862817567
 21
2878.7303765488
 31
0.0
  0
ARC
  5
16B
100
AcDbEntity
  8
______
  6
CONTINUOUS
 62
         7
100
AcDbCircle
 10
827.9225521555
 20
2880.2303765488
 30
0.0
 40
1.5
100
AcDbArc
 50
180.0
 51
270.0
  0
LINE
  5
16C
100
AcDbEntity
  8
______
  6
CONTINUOUS
 62
         7
100
AcDbLine
 10
827.9225521555
 20
2878.7303765488
 30
0.0
 11
830.7862817567
 21
2878.7303765488
 31
0.0
  0
LINE
  5
16D
100
AcDbEntity
  8
______
  6
CONTINUOUS
 62
         7
100
AcDbLine
 10
832.8791764825
 20
2881.8553765488
 30
0.0
 11
835.4772526939
 21
2881.8553765488
 31
0.0
  0
LINE
  5
16E
100
AcDbEntity
  8
______
  6
CONTINUOUS
 62
         7
100
AcDbLine
 10
826.4225521555
 20
2892.4553765488
 30
0.0
 11
826.4225521555
 21
2880.2303765488
 31
0.0
  0
LINE
  5
16F
100
AcDbEntity
  8
______
  6
CONTINUOUS
 62
         7
100
AcDbLine
 10
836.3432780977
 20
2881.3553765488
 30
0.0
 11
837.8588225543
 21
2878.7303765488
 31
0.0
  0
ARC
  5
170
100
AcDbEntity
  8
______
  6
CONTINUOUS
 62
         7
100
AcDbCircle
 10
840.8225521555
 20
2974.7303765488
 30
0.0
 40
1.5
100
AcDbArc
 50
0.0
 51
90.0
  0
LINE
  5
171
100
AcDbEntity
  8
______
  6
CONTINUOUS
 62
         7
100
AcDbLine
 10
842.3225521555
 20
2974.7303765488
 30
0.0
 11
842.3225521555
 21
2962.9053765488
 31
0.0
  0
LINE
  5
172
100
AcDbEntity
  8
______
  6
CONTINUOUS
 62
         7
100
AcDbLine
 10
837.8588225543
 20
2976.2303765488
 30
0.0
 11
840.8225521555
 21
2976.2303765488
 31
0.0
  0
LINE
  5
173
100
AcDbEntity
  8
______
  6
CONTINUOUS
 62
         7
100
AcDbLine
 10
832.4461637807
 20
2973.3553765488
 30
0.0
 11
830.7862817567
 21
2976.2303765488
 31
0.0
  0
ARC
  5
174
100
AcDbEntity
  8
______
  6
CONTINUOUS
 62
         7
100
AcDbCircle
 10
827.9225521555
 20
2974.7303765488
 30
0.0
 40
1.5
100
AcDbArc
 50
90.0
 51
180.0
  0
ARC
  5
175
100
AcDbEntity
  8
______
  6
CONTINUOUS
 62
         7
100
AcDbCircle
 10
835.7659278285
 20
2973.6053765488
 30
0.0
 40
0.5
100
AcDbArc
 50
270.0
 51
330.0
  0
ARC
  5
176
100
AcDbEntity
  8
______
  6
CONTINUOUS
 62
         7
100
AcDbCircle
 10
832.8791764825
 20
2973.6053765488
 30
0.0
 40
0.5
100
AcDbArc
 50
210.0
 51
270.0
  0
ARC
  5
177
100
AcDbEntity
  8
______
  6
CONTINUOUS
 62
         7
100
AcDbCircle
 10
825.8225521555
 20
2962.5053765488
 30
0.0
 40
0.6
100
AcDbArc
 50
270.0
 51
360.0
  0
LINE
  5
178
100
AcDbEntity
  8
______
  6
CONTINUOUS
 62
         7
100
AcDbLine
 10
825.168962317
 20
2961.9053765488
 30
0.0
 11
825.8225521555
 21
2961.9053765488
 31
0.0
  0
LINE
  5
179
100
AcDbEntity
  8
______
  6
CONTINUOUS
 62
         7
100
AcDbLine
 10
826.4225521555
 20
2974.7303765488
 30
0.0
 11
826.4225521555
 21
2962.5053765488
 31
0.0
  0
LINE
  5
17A
100
AcDbEntity
  8
______
  6
CONTINUOUS
 62
         7
100
AcDbLine
 10
832.8791764825
 20
2973.1053765488
 30
0.0
 11
835.7659278285
 21
2973.1053765488
 31
0.0
  0
LINE
  5
17B
100
AcDbEntity
  8
______
  6
CONTINUOUS
 62
         7
100
AcDbLine
 10
827.9225521555
 20
2976.2303765488
 30
0.0
 11
830.7862817567
 21
2976.2303765488
 31
0.0
  0
LINE
  5
17C
100
AcDbEntity
  8
______
  6
CONTINUOUS
 62
         7
100
AcDbLine
 10
836.1989405304
 20
2973.3553765488
 30
0.0
 11
837.8588225543
 21
2976.2303765488
 31
0.0
  0
LINE
  5
17D
100
AcDbEntity
  8
______
  6
CONTINUOUS
 62
         7
100
AcDbLine
 10
823.2225521555
 20
3151.8129685999
 30
0.0
 11
825.168962317
 21
3151.3129685999
 31
0.0
  0
LINE
  5
17E
100
AcDbEntity
  8
______
  6
CONTINUOUS
 62
         7
100
AcDbLine
 10
823.2225521555
 20
3081.9629685999
 30
0.0
 11
825.168962317
 21
3082.4629685999
 31
0.0
  0
LINE
  5
17F
100
AcDbEntity
  8
______
  6
CENTER
 62
         1
100
AcDbLine
 10
812.4666195275
 20
3116.8879685999
 30
0.0
 11
935.8604242356
 21
3116.8879685999
 31
0.0
  0
LINE
  5
180
100
AcDbEntity
  8
______
  6
CENTER
 62
         1
100
AcDbLine
 10
716.6764095875
 20
3116.8879685999
 30
0.0
 11
790.5976425833
 21
3116.8879685999
 31
0.0
  0
LINE
  5
181
100
AcDbEntity
  8
______
  6
CONTINUOUS
 62
         7
100
AcDbLine
 10
823.2225521555
 20
3151.8129685999
 30
0.0
 11
723.6117815969
 21
3137.2862611256
 31
0.0
  0
LINE
  5
182
100
AcDbEntity
  8
______
  6
CONTINUOUS
 62
         7
100
AcDbLine
 10
823.2225521555
 20
3081.9629685999
 30
0.0
 11
723.6117815969
 21
3096.4896760742
 31
0.0
  0
LINE
  5
183
100
AcDbEntity
  8
______
  6
CONTINUOUS
 62
         7
100
AcDbLine
 10
721.4725521555
 20
3134.812429158
 30
0.0
 11
721.4725521555
 21
3098.9635080418
 31
0.0
  0
ARC
  5
184
100
AcDbEntity
  8
______
  6
CONTINUOUS
 62
         7
100
AcDbCircle
 10
723.9725521555
 20
3098.9635080418
 30
0.0
 40
2.5
100
AcDbArc
 50
180.0
 51
261.702778
  0
ARC
  5
185
100
AcDbEntity
  8
______
  6
CONTINUOUS
 62
         7
100
AcDbCircle
 10
723.9725521555
 20
3134.812429158
 30
0.0
 40
2.5
100
AcDbArc
 50
98.297222
 51
180.0
  0
LINE
  5
186
100
AcDbEntity
  8
______
  6
CONTINUOUS
 62
         7
100
AcDbLine
 10
824.4225521555
 20
3151.5047088036
 30
0.0
 11
824.4225521555
 21
3082.2712283963
 31
0.0
  0
LINE
  5
187
100
AcDbEntity
  8
______
  6
CENTER
 62
         1
100
AcDbLine
 10
823.2225521555
 20
3156.6129685999
 30
0.0
 11
823.2225521555
 21
3078.6169142544
 31
0.0
  0
LINE
  5
188
100
AcDbEntity
  8
______
  6
CONTINUOUS
 62
         7
100
AcDbLine
 10
825.168962317
 20
3151.3129685999
 30
0.0
 11
825.168962317
 21
3082.4629685999
 31
0.0
  0
LINE
  5
189
100
AcDbEntity
  8
______
  6
CONTINUOUS
 62
         7
100
AcDbLine
 10
826.4225521555
 20
3164.1379685999
 30
0.0
 11
826.4225521555
 21
3069.6379685999
 31
0.0
  0
LINE
  5
18A
100
AcDbEntity
  8
______
  6
CENTER
 62
         1
100
AcDbLine
 10
834.3225521555
 20
3171.8932319007
 30
0.0
 11
834.3225521555
 21
3061.8904123489
 31
0.0
  0
LINE
  5
18B
100
AcDbEntity
  8
______
  6
CONTINUOUS
 62
         7
100
AcDbLine
 10
837.8588225543
 20
3068.1379685999
 30
0.0
 11
840.8225521555
 21
3068.1379685999
 31
0.0
  0
LINE
  5
18C
100
AcDbEntity
  8
______
  6
CONTINUOUS
 62
         7
100
AcDbLine
 10
837.8588225543
 20
3103.0379685999
 30
0.0
 11
837.8588225543
 21
3068.1379685999
 31
0.0
  0
ARC
  5
18D
100
AcDbEntity
  8
______
  6
CONTINUOUS
 62
         7
100
AcDbCircle
 10
840.8225521555
 20
3069.6379685999
 30
0.0
 40
1.5
100
AcDbArc
 50
270.0
 51
360.0
  0
LINE
  5
18E
100
AcDbEntity
  8
______
  6
CONTINUOUS
 62
         7
100
AcDbLine
 10
842.3225521555
 20
3103.0379685999
 30
0.0
 11
837.8588225543
 21
3103.0379685999
 31
0.0
  0
ARC
  5
18F
100
AcDbEntity
  8
______
  6
CONTINUOUS
 62
         7
100
AcDbCircle
 10
825.8225521555
 20
3081.8629685999
 30
0.0
 40
0.6
100
AcDbArc
 50
0.0
 51
90.0
  0
LINE
  5
190
100
AcDbEntity
  8
______
  6
CONTINUOUS
 62
         7
100
AcDbLine
 10
825.168962317
 20
3082.4629685999
 30
0.0
 11
825.8225521555
 21
3082.4629685999
 31
0.0
  0
ARC
  5
191
100
AcDbEntity
  8
______
  6
CONTINUOUS
 62
         7
100
AcDbCircle
 10
825.8225521555
 20
3081.8629685999
 30
0.0
 40
0.6
100
AcDbArc
 50
0.0
 51
90.0
  0
ARC
  5
192
100
AcDbEntity
  8
______
  6
CONTINUOUS
 62
         7
100
AcDbCircle
 10
835.7659278285
 20
3070.7629685999
 30
0.0
 40
0.5
100
AcDbArc
 50
30.0
 51
90.0
  0
ARC
  5
193
100
AcDbEntity
  8
______
  6
CONTINUOUS
 62
         7
100
AcDbCircle
 10
827.9225521555
 20
3069.6379685999
 30
0.0
 40
1.5
100
AcDbArc
 50
180.0
 51
270.0
  0
LINE
  5
194
100
AcDbEntity
  8
______
  6
CONTINUOUS
 62
         7
100
AcDbLine
 10
832.4461637807
 20
3071.0129685999
 30
0.0
 11
830.7862817567
 21
3068.1379685999
 31
0.0
  0
LINE
  5
195
100
AcDbEntity
  8
______
  6
CONTINUOUS
 62
         7
100
AcDbLine
 10
827.9225521555
 20
3068.1379685999
 30
0.0
 11
830.7862817567
 21
3068.1379685999
 31
0.0
  0
ARC
  5
196
100
AcDbEntity
  8
______
  6
CONTINUOUS
 62
         7
100
AcDbCircle
 10
832.8791764825
 20
3070.7629685999
 30
0.0
 40
0.5
100
AcDbArc
 50
90.0
 51
150.0
  0
LINE
  5
197
100
AcDbEntity
  8
______
  6
CONTINUOUS
 62
         7
100
AcDbLine
 10
832.8791764825
 20
3071.2629685999
 30
0.0
 11
835.7659278285
 21
3071.2629685999
 31
0.0
  0
LINE
  5
198
100
AcDbEntity
  8
______
  6
CONTINUOUS
 62
         7
100
AcDbLine
 10
830.7862817567
 20
3103.0379685999
 30
0.0
 11
830.7862817567
 21
3068.1379685999
 31
0.0
  0
LINE
  5
199
100
AcDbEntity
  8
______
  6
CONTINUOUS
 62
         7
100
AcDbLine
 10
836.1975521555
 20
3104.0580627648
 30
0.0
 11
836.1975521555
 21
3071.0153580615
 31
0.0
  0
LINE
  5
19A
100
AcDbEntity
  8
______
  6
CONTINUOUS
 62
         7
100
AcDbLine
 10
832.4475521555
 20
3104.0580627648
 30
0.0
 11
832.4475521555
 21
3071.0153580615
 31
0.0
  0
LINE
  5
19B
100
AcDbEntity
  8
______
  6
CONTINUOUS
 62
         7
100
AcDbLine
 10
830.7862817567
 20
3103.0379685999
 30
0.0
 11
826.4225521555
 21
3103.0379685999
 31
0.0
  0
LINE
  5
19C
100
AcDbEntity
  8
______
  6
CONTINUOUS
 62
         7
100
AcDbLine
 10
826.4225521555
 20
3103.0379685999
 30
0.0
 11
827.4426463204
 21
3104.0580627648
 31
0.0
  0
LINE
  5
19D
100
AcDbEntity
  8
______
  6
CONTINUOUS
 62
         7
100
AcDbLine
 10
830.7862817567
 20
3103.0379685999
 30
0.0
 11
832.4475521555
 21
3104.0580627648
 31
0.0
  0
LINE
  5
19E
100
AcDbEntity
  8
______
  6
CONTINUOUS
 62
         7
100
AcDbLine
 10
836.1989405304
 20
3071.0129685999
 30
0.0
 11
837.8588225543
 21
3068.1379685999
 31
0.0
  0
LINE
  5
19F
100
AcDbEntity
  8
______
  6
CONTINUOUS
 62
         7
100
AcDbLine
 10
841.2024579906
 20
3104.0580627648
 30
0.0
 11
827.4426463204
 21
3104.0580627648
 31
0.0
  0
LINE
  5
1A0
100
AcDbEntity
  8
______
  6
CONTINUOUS
 62
         7
100
AcDbLine
 10
841.2024579906
 20
3104.0580627648
 30
0.0
 11
827.4426463204
 21
3104.0580627648
 31
0.0
  0
LINE
  5
1A1
100
AcDbEntity
  8
______
  6
CONTINUOUS
 62
         7
100
AcDbLine
 10
836.1975521555
 20
3104.0580627648
 30
0.0
 11
837.8588225543
 21
3103.0379685999
 31
0.0
  0
LINE
  5
1A2
100
AcDbEntity
  8
______
  6
CONTINUOUS
 62
         7
100
AcDbLine
 10
837.8588225543
 20
3165.6379685999
 30
0.0
 11
837.8588225543
 21
3130.7379685999
 31
0.0
  0
LINE
  5
1A3
100
AcDbEntity
  8
______
  6
CONTINUOUS
 62
         7
100
AcDbLine
 10
842.3225521555
 20
3130.7379685999
 30
0.0
 11
837.8588225543
 21
3130.7379685999
 31
0.0
  0
LINE
  5
1A4
100
AcDbEntity
  8
______
  6
CONTINUOUS
 62
         7
100
AcDbLine
 10
837.8588225543
 20
3165.6379685999
 30
0.0
 11
840.8225521555
 21
3165.6379685999
 31
0.0
  0
ARC
  5
1A5
100
AcDbEntity
  8
______
  6
CONTINUOUS
 62
         7
100
AcDbCircle
 10
840.8225521555
 20
3164.1379685999
 30
0.0
 40
1.5
100
AcDbArc
 50
0.0
 51
90.0
  0
LINE
  5
1A6
100
AcDbEntity
  8
______
  6
CONTINUOUS
 62
         7
100
AcDbLine
 10
836.1975521555
 20
3162.7605791383
 30
0.0
 11
836.1975521555
 21
3129.717874435
 31
0.0
  0
LINE
  5
1A7
100
AcDbEntity
  8
______
  6
CONTINUOUS
 62
         7
100
AcDbLine
 10
830.7862817567
 20
3165.6379685999
 30
0.0
 11
830.7862817567
 21
3130.7379685999
 31
0.0
  0
LINE
  5
1A8
100
AcDbEntity
  8
______
  6
CONTINUOUS
 62
         7
100
AcDbLine
 10
832.4475521555
 20
3162.7605791383
 30
0.0
 11
832.4475521555
 21
3129.717874435
 31
0.0
  0
LINE
  5
1A9
100
AcDbEntity
  8
______
  6
CONTINUOUS
 62
         7
100
AcDbLine
 10
830.7862817567
 20
3130.7379685999
 30
0.0
 11
832.4475521555
 21
3129.717874435
 31
0.0
  0
LINE
  5
1AA
100
AcDbEntity
  8
______
  6
CONTINUOUS
 62
         7
100
AcDbLine
 10
826.4225521555
 20
3130.7379685999
 30
0.0
 11
827.4426463204
 21
3129.717874435
 31
0.0
  0
LINE
  5
1AB
100
AcDbEntity
  8
______
  6
CONTINUOUS
 62
         7
100
AcDbLine
 10
830.7862817567
 20
3130.7379685999
 30
0.0
 11
826.4225521555
 21
3130.7379685999
 31
0.0
  0
ARC
  5
1AC
100
AcDbEntity
  8
______
  6
CONTINUOUS
 62
         7
100
AcDbCircle
 10
835.7659278285
 20
3163.0129685999
 30
0.0
 40
0.5
100
AcDbArc
 50
270.0
 51
330.0
  0
ARC
  5
1AD
100
AcDbEntity
  8
______
  6
CONTINUOUS
 62
         7
100
AcDbCircle
 10
827.9225521555
 20
3164.1379685999
 30
0.0
 40
1.5
100
AcDbArc
 50
90.0
 51
180.0
  0
LINE
  5
1AE
100
AcDbEntity
  8
______
  6
CONTINUOUS
 62
         7
100
AcDbLine
 10
832.4461637807
 20
3162.7629685999
 30
0.0
 11
830.7862817567
 21
3165.6379685999
 31
0.0
  0
ARC
  5
1AF
100
AcDbEntity
  8
______
  6
CONTINUOUS
 62
         7
100
AcDbCircle
 10
825.8225521555
 20
3151.9129685999
 30
0.0
 40
0.6
100
AcDbArc
 50
270.0
 51
360.0
  0
LINE
  5
1B0
100
AcDbEntity
  8
______
  6
CONTINUOUS
 62
         7
100
AcDbLine
 10
825.168962317
 20
3151.3129685999
 30
0.0
 11
825.8225521555
 21
3151.3129685999
 31
0.0
  0
ARC
  5
1B1
100
AcDbEntity
  8
______
  6
CONTINUOUS
 62
         7
100
AcDbCircle
 10
832.8791764825
 20
3163.0129685999
 30
0.0
 40
0.5
100
AcDbArc
 50
210.0
 51
270.0
  0
LINE
  5
1B2
100
AcDbEntity
  8
______
  6
CONTINUOUS
 62
         7
100
AcDbLine
 10
827.9225521555
 20
3165.6379685999
 30
0.0
 11
830.7862817567
 21
3165.6379685999
 31
0.0
  0
LINE
  5
1B3
100
AcDbEntity
  8
______
  6
CONTINUOUS
 62
         7
100
AcDbLine
 10
832.8791764825
 20
3162.5129685999
 30
0.0
 11
835.7659278285
 21
3162.5129685999
 31
0.0
  0
LINE
  5
1B4
100
AcDbEntity
  8
______
  6
CONTINUOUS
 62
         7
100
AcDbLine
 10
841.2024579906
 20
3129.717874435
 30
0.0
 11
827.4426463204
 21
3129.717874435
 31
0.0
  0
LINE
  5
1B5
100
AcDbEntity
  8
______
  6
CONTINUOUS
 62
         7
100
AcDbLine
 10
841.2024579906
 20
3129.717874435
 30
0.0
 11
827.4426463204
 21
3129.717874435
 31
0.0
  0
LINE
  5
1B6
100
AcDbEntity
  8
______
  6
CONTINUOUS
 62
         7
100
AcDbLine
 10
836.1975521555
 20
3129.717874435
 30
0.0
 11
837.8588225543
 21
3130.7379685999
 31
0.0
  0
LINE
  5
1B7
100
AcDbEntity
  8
______
  6
CONTINUOUS
 62
         7
100
AcDbLine
 10
836.1989405304
 20
3162.7629685999
 30
0.0
 11
837.8588225543
 21
3165.6379685999
 31
0.0
  0
LINE
  5
1B8
100
AcDbEntity
  8
______
  6
CONTINUOUS
 62
         7
100
AcDbLine
 10
832.8791764825
 20
2973.1053765488
 30
0.0
 11
835.7659278285
 21
2973.1053765488
 31
0.0
  0
LINE
  5
1B9
100
AcDbEntity
  8
______
  6
CONTINUOUS
 62
         7
100
AcDbLine
 10
826.4225521555
 20
2974.7303765488
 30
0.0
 11
826.4225521555
 21
2962.5053765488
 31
0.0
  0
LINE
  5
1BA
100
AcDbEntity
  8
______
  6
CONTINUOUS
 62
         7
100
AcDbLine
 10
825.168962317
 20
2961.9053765488
 30
0.0
 11
825.8225521555
 21
2961.9053765488
 31
0.0
  0
ARC
  5
1BB
100
AcDbEntity
  8
______
  6
CONTINUOUS
 62
         7
100
AcDbCircle
 10
825.8225521555
 20
2962.5053765488
 30
0.0
 40
0.6
100
AcDbArc
 50
270.0
 51
360.0
  0
ARC
  5
1BC
100
AcDbEntity
  8
______
  6
CONTINUOUS
 62
         7
100
AcDbCircle
 10
832.8791764825
 20
2973.6053765488
 30
0.0
 40
0.5
100
AcDbArc
 50
210.0
 51
270.0
  0
ARC
  5
1BD
100
AcDbEntity
  8
______
  6
CONTINUOUS
 62
         7
100
AcDbCircle
 10
835.7659278285
 20
2973.6053765488
 30
0.0
 40
0.5
100
AcDbArc
 50
270.0
 51
330.0
  0
LINE
  5
1BE
100
AcDbEntity
  8
______
  6
CONTINUOUS
 62
         7
100
AcDbLine
 10
823.2225521555
 20
2962.4053765488
 30
0.0
 11
825.168962317
 21
2961.9053765488
 31
0.0
  0
LINE
  5
1BF
100
AcDbEntity
  8
______
  6
CONTINUOUS
 62
         7
100
AcDbLine
 10
842.2225521555
 20
3130.7379685999
 30
0.0
 11
841.2024579906
 21
3129.717874435
 31
0.0
  0
LINE
  5
1C0
100
AcDbEntity
  8
______
  6
CONTINUOUS
 62
         7
100
AcDbLine
 10
842.2225521555
 20
3103.0379685999
 30
0.0
 11
841.2024579906
 21
3104.0580627648
 31
0.0
  0
LINE
  5
1C1
100
AcDbEntity
  8
______
  6
CONTINUOUS
 62
         7
100
AcDbLine
 10
842.3225521555
 20
3164.1379685999
 30
0.0
 11
842.3225521555
 21
3069.6379685999
 31
0.0
  0
LINE
  5
1C2
100
AcDbEntity
  8
______
  6
CONTINUOUS
 62
         7
100
AcDbLine
 10
721.4725521555
 20
2909.5559159907
 30
0.0
 11
721.4725521555
 21
2945.4048371068
 31
0.0
  0
CIRCLE
  5
1C3
100
AcDbEntity
  8
______
  6
CONTINUOUS
 62
         7
100
AcDbCircle
 10
834.3225521555
 20
3116.8918221248
 30
0.0
 40
4.76
  0
ARC
  5
1C4
100
AcDbEntity
  8
______
  6
CONTINUOUS
 62
         7
100
AcDbCircle
 10
842.8225521555
 20
3152.3129685999
 30
0.0
 40
0.5
100
AcDbArc
 50
180.0
 51
270.0
  0
ARC
  5
1C5
100
AcDbEntity
  8
______
  6
CONTINUOUS
 62
         7
100
AcDbCircle
 10
842.8225521555
 20
3081.4629685999
 30
0.0
 40
0.5
100
AcDbArc
 50
90.0
 51
180.0
  0
ARC
  5
1C6
100
AcDbEntity
  8
______
  6
CONTINUOUS
 62
         7
100
AcDbCircle
 10
842.8225521555
 20
2892.0553765488
 30
0.0
 40
0.5
100
AcDbArc
 50
90.0
 51
180.0
  0
ARC
  5
1C7
100
AcDbEntity
  8
______
  6
CONTINUOUS
 62
         7
100
AcDbCircle
 10
842.8225521555
 20
2962.9053765488
 30
0.0
 40
0.5
100
AcDbArc
 50
180.0
 51
270.0
  0
LINE
  5
1C8
100
AcDbEntity
  8
______
  6
DASHED
 62
         2
100
AcDbLine
 10
1122.0459934036
 20
3121.8879685999
 30
0.0
 11
1135.2599934036
 21
3121.8879685999
 31
0.0
  0
LINE
  5
1C9
100
AcDbEntity
  8
______
  6
DASHED
 62
         2
100
AcDbLine
 10
1122.0459934036
 20
3111.8879685999
 30
0.0
 11
1135.2599934036
 21
3111.8879685999
 31
0.0
  0
LINE
  5
1CA
100
AcDbEntity
  8
______
  6
DASHED
 62
         2
100
AcDbLine
 10
1135.2599934036
 20
3121.8879685999
 30
0.0
 11
1135.2599934036
 21
3111.8879685999
 31
0.0
  0
LINE
  5
1CB
100
AcDbEntity
  8
______
  6
DASHED
 62
         2
100
AcDbLine
 10
1138.1467447496
 20
3116.8879685999
 30
0.0
 11
1135.2599934036
 21
3111.8879685999
 31
0.0
  0
LINE
  5
1CC
100
AcDbEntity
  8
______
  6
DASHED
 62
         2
100
AcDbLine
 10
1135.2599934036
 20
3121.8879685999
 30
0.0
 11
1138.1467447496
 21
3116.8879685999
 31
0.0
  0
LINE
  5
1CD
100
AcDbEntity
  8
______
  6
DASHED
 62
         2
100
AcDbLine
 10
1122.0459934036
 20
3111.8879685999
 30
0.0
 11
1121.5459934036
 21
3111.3879685999
 31
0.0
  0
LINE
  5
1CE
100
AcDbEntity
  8
______
  6
DASHED
 62
         2
100
AcDbLine
 10
1122.0459934036
 20
3121.8879685999
 30
0.0
 11
1121.5459934036
 21
3122.3879685999
 31
0.0
  0
LINE
  5
1CF
100
AcDbEntity
  8
______
  6
DASHED
 62
         2
100
AcDbLine
 10
1122.0459934036
 20
3121.8879685999
 30
0.0
 11
1122.0459934036
 21
3111.8879685999
 31
0.0
  0
LINE
  5
1D0
100
AcDbEntity
  8
______
  6
CONTINUOUS
 62
         7
100
AcDbLine
 10
896.0725521555
 20
3180.8879685999
 30
0.0
 11
860.2745521555
 21
3180.8879685999
 31
0.0
  0
LINE
  5
1D1
100
AcDbEntity
  8
______
  6
CONTINUOUS
 62
         7
100
AcDbLine
 10
896.0725521555
 20
3052.8879685999
 30
0.0
 11
860.2745521555
 21
3052.8879685999
 31
0.0
  0
LINE
  5
1D2
100
AcDbEntity
  8
______
  6
CONTINUOUS
 62
         7
100
AcDbLine
 10
898.0725521555
 20
3178.8879685999
 30
0.0
 11
898.0725521555
 21
3054.8879685999
 31
0.0
  0
LINE
  5
1D3
100
AcDbEntity
  8
______
  6
CONTINUOUS
 62
         7
100
AcDbLine
 10
927.5725521555
 20
3146.6379685999
 30
0.0
 11
927.5725521555
 21
3087.1379685999
 31
0.0
  0
LINE
  5
1D4
100
AcDbEntity
  8
______
  6
CONTINUOUS
 62
         7
100
AcDbLine
 10
925.5725521555
 20
3148.6379685999
 30
0.0
 11
898.0725521555
 21
3148.6379685999
 31
0.0
  0
LINE
  5
1D5
100
AcDbEntity
  8
______
  6
CONTINUOUS
 62
         7
100
AcDbLine
 10
925.5725521555
 20
3085.1379685999
 30
0.0
 11
898.0725521555
 21
3085.1379685999
 31
0.0
  0
ARC
  5
1D6
100
AcDbEntity
  8
______
  6
CONTINUOUS
 62
         7
100
AcDbCircle
 10
896.0725521555
 20
3178.8879685999
 30
0.0
 40
2.0
100
AcDbArc
 50
0.0
 51
90.0
  0
ARC
  5
1D7
100
AcDbEntity
  8
______
  6
CONTINUOUS
 62
         7
100
AcDbCircle
 10
925.5725521555
 20
3146.6379685999
 30
0.0
 40
2.0
100
AcDbArc
 50
0.0
 51
90.0
  0
ARC
  5
1D8
100
AcDbEntity
  8
______
  6
CONTINUOUS
 62
         7
100
AcDbCircle
 10
925.5725521555
 20
3087.1379685999
 30
0.0
 40
2.0
100
AcDbArc
 50
270.0
 51
360.0
  0
ARC
  5
1D9
100
AcDbEntity
  8
______
  6
CONTINUOUS
 62
         7
100
AcDbCircle
 10
896.0725521555
 20
3054.8879685999
 30
0.0
 40
2.0
100
AcDbArc
 50
270.0
 51
360.0
  0
LINE
  5
1DA
100
AcDbEntity
  8
______
  6
CONTINUOUS
 62
         7
100
AcDbLine
 10
900.0725521555
 20
3085.1379685999
 30
0.0
 11
900.0725521555
 21
3148.6379685999
 31
0.0
  0
DIMENSION
  5
1DD
100
AcDbEntity
  8
______
  6
CONTINUOUS
 62
         4
100
AcDbDimension
  2
*D7
 10
954.892861754
 20
3085.1379685999
 30
0.0
 11
952.267861754
 21
3097.5162299053
 31
0.0
  3
DIMSTYLE1
100
AcDbAlignedDimension
 13
925.5725521555
 23
3085.1379685999
 33
0.0
 14
925.5725521555
 24
3148.6379685999
 34
0.0
 50
90.0
100
AcDbRotatedDimension
  0
DIMENSION
  5
1EB
100
AcDbEntity
  8
______
  6
CONTINUOUS
 62
         4
100
AcDbDimension
  2
*D8
 10
898.0725521555
 20
3199.8452163323
 30
0.0
 11
902.1062597206
 21
3202.4702163323
 31
0.0
  3
DIMSTYLE1
100
AcDbAlignedDimension
 13
898.0725521555
 23
3178.8879685999
 33
0.0
 14
927.5725521555
 24
3146.6379685999
 34
0.0
100
AcDbRotatedDimension
  0
LINE
  5
1F7
100
AcDbEntity
  8
______
  6
CONTINUOUS
 62
         7
100
AcDbLine
 10
896.0725521555
 20
2991.4803765488
 30
0.0
 11
859.4745521555
 21
2991.4803765488
 31
0.0
  0
ARC
  5
1F8
100
AcDbEntity
  8
______
  6
CONTINUOUS
 62
         7
100
AcDbCircle
 10
896.0725521555
 20
2989.4803765488
 30
0.0
 40
2.0
100
AcDbArc
 50
0.0
 51
90.0
  0
LINE
  5
1F9
100
AcDbEntity
  8
______
  6
CONTINUOUS
 62
         7
100
AcDbLine
 10
925.5725521555
 20
2959.2303765488
 30
0.0
 11
900.0725521555
 21
2959.2303765488
 31
0.0
  0
ARC
  5
1FA
100
AcDbEntity
  8
______
  6
CONTINUOUS
 62
         7
100
AcDbCircle
 10
925.5725521555
 20
2957.2303765488
 30
0.0
 40
2.0
100
AcDbArc
 50
0.0
 51
90.0
  0
LINE
  5
1FB
100
AcDbEntity
  8
______
  6
CONTINUOUS
 62
         7
100
AcDbLine
 10
927.5725521555
 20
2957.2303765488
 30
0.0
 11
927.5725521555
 21
2897.7303765488
 31
0.0
  0
LINE
  5
1FC
100
AcDbEntity
  8
______
  6
CONTINUOUS
 62
         7
100
AcDbLine
 10
925.5725521555
 20
2895.7303765488
 30
0.0
 11
900.0725521555
 21
2895.7303765488
 31
0.0
  0
ARC
  5
1FD
100
AcDbEntity
  8
______
  6
CONTINUOUS
 62
         7
100
AcDbCircle
 10
925.5725521555
 20
2897.7303765488
 30
0.0
 40
2.0
100
AcDbArc
 50
270.0
 51
360.0
  0
LINE
  5
1FE
100
AcDbEntity
  8
______
  6
CONTINUOUS
 62
         7
100
AcDbLine
 10
898.0725521555
 20
2989.4803765488
 30
0.0
 11
898.0725521555
 21
2959.9798720327
 31
0.0
  0
LINE
  5
1FF
100
AcDbEntity
  8
______
  6
CONTINUOUS
 62
         7
100
AcDbLine
 10
896.0725521555
 20
2863.4803765488
 30
0.0
 11
859.4745521555
 21
2863.4803765488
 31
0.0
  0
ARC
  5
200
100
AcDbEntity
  8
______
  6
CONTINUOUS
 62
         7
100
AcDbCircle
 10
896.0725521555
 20
2865.4803765488
 30
0.0
 40
2.0
100
AcDbArc
 50
270.0
 51
360.0
  0
LINE
  5
201
100
AcDbEntity
  8
______
  6
CONTINUOUS
 62
         7
100
AcDbLine
 10
899.618962317
 20
2959.0303765488
 30
0.0
 11
898.2725521555
 21
2959.0303765488
 31
0.0
  0
LINE
  5
202
100
AcDbEntity
  8
______
  6
CONTINUOUS
 62
         7
100
AcDbLine
 10
899.818962317
 20
2959.0839663873
 30
0.0
 11
900.0725521555
 21
2959.2303765488
 31
0.0
  0
ARC
  5
203
100
AcDbEntity
  8
______
  6
CONTINUOUS
 62
         7
100
AcDbCircle
 10
899.618962317
 20
2959.4303765488
 30
0.0
 40
0.4
100
AcDbArc
 50
270.0
 51
300.0
  0
ARC
  5
204
100
AcDbEntity
  8
______
  6
CONTINUOUS
 62
         7
100
AcDbCircle
 10
898.2725521555
 20
2959.4303765488
 30
0.0
 40
0.4
100
AcDbArc
 50
180.0
 51
270.0
  0
LINE
  5
205
100
AcDbEntity
  8
______
  6
CONTINUOUS
 62
         7
100
AcDbLine
 10
897.8725521555
 20
2959.4303765488
 30
0.0
 11
898.0725521555
 21
2959.9798720327
 31
0.0
  0
LINE
  5
206
100
AcDbEntity
  8
______
  6
CONTINUOUS
 62
         7
100
AcDbLine
 10
899.818962317
 20
2895.8767867103
 30
0.0
 11
900.0725521555
 21
2895.7303765488
 31
0.0
  0
ARC
  5
207
100
AcDbEntity
  8
______
  6
CONTINUOUS
 62
         7
100
AcDbCircle
 10
899.618962317
 20
2895.5303765488
 30
0.0
 40
0.4
100
AcDbArc
 50
60.0
 51
90.0
  0
LINE
  5
208
100
AcDbEntity
  8
______
  6
CONTINUOUS
 62
         7
100
AcDbLine
 10
899.618962317
 20
2895.9303765488
 30
0.0
 11
898.2725521555
 21
2895.9303765488
 31
0.0
  0
ARC
  5
209
100
AcDbEntity
  8
______
  6
CONTINUOUS
 62
         7
100
AcDbCircle
 10
898.2725521555
 20
2895.5303765488
 30
0.0
 40
0.4
100
AcDbArc
 50
90.0
 51
180.0
  0
LINE
  5
20A
100
AcDbEntity
  8
______
  6
CONTINUOUS
 62
         7
100
AcDbLine
 10
897.8725521555
 20
2895.5303765488
 30
0.0
 11
898.0725521555
 21
2894.9808810649
 31
0.0
  0
LINE
  5
20B
100
AcDbEntity
  8
______
  6
CONTINUOUS
 62
         7
100
AcDbLine
 10
898.0725521555
 20
2894.9808810649
 30
0.0
 11
898.0725521555
 21
2865.4803765488
 31
0.0
  0
LINE
  5
20C
100
AcDbEntity
  8
______
  6
CONTINUOUS
 62
         7
100
AcDbLine
 10
898.0725521555
 20
2964.4803765488
 30
0.0
 11
885.5725521555
 21
2964.4803765488
 31
0.0
  0
LINE
  5
20D
100
AcDbEntity
  8
______
  6
CONTINUOUS
 62
         7
100
AcDbLine
 10
885.5725521555
 20
2991.4803765488
 30
0.0
 11
885.5725521555
 21
2964.4803765488
 31
0.0
  0
LINE
  5
20E
100
AcDbEntity
  8
______
  6
CONTINUOUS
 62
         7
100
AcDbLine
 10
874.5725521555
 20
2984.4803765488
 30
0.0
 11
874.5725521555
 21
2976.4803765488
 31
0.0
  0
LINE
  5
20F
100
AcDbEntity
  8
______
  6
CONTINUOUS
 62
         7
100
AcDbLine
 10
870.5725521555
 20
2983.8553765488
 30
0.0
 11
870.5725521555
 21
2977.1053765488
 31
0.0
  0
LINE
  5
210
100
AcDbEntity
  8
______
  6
CONTINUOUS
 62
         7
100
AcDbLine
 10
898.0725521555
 20
2964.4803765488
 30
0.0
 11
885.5725521555
 21
2964.4803765488
 31
0.0
  0
LINE
  5
211
100
AcDbEntity
  8
______
  6
CONTINUOUS
 62
         7
100
AcDbLine
 10
898.0725521555
 20
2964.4803765488
 30
0.0
 11
885.5725521555
 21
2964.4803765488
 31
0.0
  0
LINE
  5
212
100
AcDbEntity
  8
______
  6
CENTER
 62
         1
100
AcDbLine
 10
889.011129452
 20
2980.4803765488
 30
0.0
 11
868.623994997
 21
2980.4803765488
 31
0.0
  0
LINE
  5
213
100
AcDbEntity
  8
______
  6
CONTINUOUS
 62
         7
100
AcDbLine
 10
885.5725521555
 20
2983.8553765488
 30
0.0
 11
870.5725521555
 21
2983.8553765488
 31
0.0
  0
LINE
  5
214
100
AcDbEntity
  8
______
  6
CONTINUOUS
 62
         7
100
AcDbLine
 10
885.5725521555
 20
2977.1053765488
 30
0.0
 11
870.5725521555
 21
2977.1053765488
 31
0.0
  0
LINE
  5
215
100
AcDbEntity
  8
______
  6
CONTINUOUS
 62
         4
100
AcDbLine
 10
885.5725521555
 20
2984.4803765488
 30
0.0
 11
874.5725521555
 21
2984.4803765488
 31
0.0
  0
LINE
  5
216
100
AcDbEntity
  8
______
  6
CONTINUOUS
 62
         4
100
AcDbLine
 10
885.5725521555
 20
2976.4803765488
 30
0.0
 11
874.5725521555
 21
2976.4803765488
 31
0.0
  0
LINE
  5
217
100
AcDbEntity
  8
______
  6
CONTINUOUS
 62
         7
100
AcDbLine
 10
870.5725521555
 20
2977.1053765488
 30
0.0
 11
868.623994997
 21
2980.4803765488
 31
0.0
  0
LINE
  5
218
100
AcDbEntity
  8
______
  6
CONTINUOUS
 62
         7
100
AcDbLine
 10
870.5725521555
 20
2983.8553765488
 30
0.0
 11
868.623994997
 21
2980.4803765488
 31
0.0
  0
LINE
  5
219
100
AcDbEntity
  8
______
  6
CONTINUOUS
 62
         7
100
AcDbLine
 10
870.5725521555
 20
2871.1053765488
 30
0.0
 11
868.623994997
 21
2874.4803765488
 31
0.0
  0
LINE
  5
21A
100
AcDbEntity
  8
______
  6
CONTINUOUS
 62
         7
100
AcDbLine
 10
870.5725521555
 20
2877.8553765488
 30
0.0
 11
868.623994997
 21
2874.4803765488
 31
0.0
  0
LINE
  5
21B
100
AcDbEntity
  8
______
  6
CONTINUOUS
 62
         4
100
AcDbLine
 10
885.5725521555
 20
2878.4803765488
 30
0.0
 11
874.5725521555
 21
2878.4803765488
 31
0.0
  0
LINE
  5
21C
100
AcDbEntity
  8
______
  6
CONTINUOUS
 62
         4
100
AcDbLine
 10
885.5725521555
 20
2870.4803765488
 30
0.0
 11
874.5725521555
 21
2870.4803765488
 31
0.0
  0
LINE
  5
21D
100
AcDbEntity
  8
______
  6
CONTINUOUS
 62
         7
100
AcDbLine
 10
885.5725521555
 20
2877.8553765488
 30
0.0
 11
870.5725521555
 21
2877.8553765488
 31
0.0
  0
LINE
  5
21E
100
AcDbEntity
  8
______
  6
CONTINUOUS
 62
         7
100
AcDbLine
 10
885.5725521555
 20
2871.1053765488
 30
0.0
 11
870.5725521555
 21
2871.1053765488
 31
0.0
  0
LINE
  5
21F
100
AcDbEntity
  8
______
  6
CONTINUOUS
 62
         7
100
AcDbLine
 10
870.5725521555
 20
2871.1053765488
 30
0.0
 11
870.5725521555
 21
2877.8553765488
 31
0.0
  0
LINE
  5
220
100
AcDbEntity
  8
______
  6
CONTINUOUS
 62
         7
100
AcDbLine
 10
874.5725521555
 20
2870.4803765488
 30
0.0
 11
874.5725521555
 21
2878.4803765488
 31
0.0
  0
LINE
  5
221
100
AcDbEntity
  8
______
  6
CONTINUOUS
 62
         7
100
AcDbLine
 10
885.5725521555
 20
2863.4803765488
 30
0.0
 11
885.5725521555
 21
2890.4803765488
 31
0.0
  0
LINE
  5
222
100
AcDbEntity
  8
______
  6
CENTER
 62
         1
100
AcDbLine
 10
889.011129452
 20
2874.4803765488
 30
0.0
 11
868.623994997
 21
2874.4803765488
 31
0.0
  0
LINE
  5
223
100
AcDbEntity
  8
______
  6
CONTINUOUS
 62
         7
100
AcDbLine
 10
898.0725521555
 20
2890.4803765488
 30
0.0
 11
885.5725521555
 21
2890.4803765488
 31
0.0
  0
DIMENSION
  5
226
100
AcDbEntity
  8
______
  6
CONTINUOUS
 62
         4
100
AcDbDimension
  2
*D9
 10
898.0725521555
 20
2852.1319620639
 30
0.0
 11
888.1005909558
 21
2854.7569620639
 31
0.0
  3
DIMSTYLE1
100
AcDbAlignedDimension
 13
898.0725521555
 23
2865.4803765488
 33
0.0
 14
885.5725521555
 24
2863.4803765488
 34
0.0
100
AcDbRotatedDimension
  0
LINE
  5
232
100
AcDbEntity
  8
______
  6
CONTINUOUS
 62
         7
100
AcDbLine
 10
924.6344323709
 20
2928.2581519169
 30
0.0
 11
925.5806937268
 21
2928.2581519169
 31
0.0
  0
LINE
  5
233
100
AcDbEntity
  8
______
  6
CONTINUOUS
 62
         7
100
AcDbLine
 10
924.6344323709
 20
2926.6581519169
 30
0.0
 11
925.5806937268
 21
2926.6581519169
 31
0.0
  0
LINE
  5
234
100
AcDbEntity
  8
______
  6
CONTINUOUS
 62
         7
100
AcDbLine
 10
927.5725521555
 20
2929.4081519169
 30
0.0
 11
925.5806937268
 21
2928.2581519169
 31
0.0
  0
LINE
  5
235
100
AcDbEntity
  8
______
  6
CONTINUOUS
 62
         7
100
AcDbLine
 10
927.5725521555
 20
2925.5081519169
 30
0.0
 11
925.5806937268
 21
2926.6581519169
 31
0.0
  0
LINE
  5
236
100
AcDbEntity
  8
______
  6
CONTINUOUS
 62
         7
100
AcDbLine
 10
925.5806937268
 20
2928.2581519169
 30
0.0
 11
925.5806937268
 21
2926.6581519169
 31
0.0
  0
LINE
  5
237
100
AcDbEntity
  8
______
  6
CONTINUOUS
 62
         7
100
AcDbLine
 10
924.6344323709
 20
2928.2581519169
 30
0.0
 11
924.1725521555
 21
2927.4581519169
 31
0.0
  0
LINE
  5
238
100
AcDbEntity
  8
______
  6
CONTINUOUS
 62
         7
100
AcDbLine
 10
924.6344323709
 20
2926.6581519169
 30
0.0
 11
924.1725521555
 21
2927.4581519169
 31
0.0
  0
LINE
  5
239
100
AcDbEntity
  8
______
  6
CONTINUOUS
 62
         7
100
AcDbLine
 10
924.6344323709
 20
2928.2581519169
 30
0.0
 11
924.6344323709
 21
2926.6581519169
 31
0.0
  0
LINE
  5
23A
100
AcDbEntity
  8
______
  6
CENTER
 62
         1
100
AcDbLine
 10
1232.3098064746
 20
3116.8879685999
 30
0.0
 11
1086.8666217897
 21
3116.8879685999
 31
0.0
  0
LINE
  5
23B
100
AcDbEntity
  8
______
  6
CENTER
 62
         1
100
AcDbLine
 10
1159.2459934036
 20
3049.7233457251
 30
0.0
 11
1159.2459934036
 21
3184.0525914747
 31
0.0
  0
CIRCLE
  5
23C
100
AcDbEntity
  8
______
  6
CONTINUOUS
 62
         7
100
AcDbCircle
 10
1159.2459934036
 20
3116.8879685999
 30
0.0
 40
31.75
  0
LINE
  5
23D
100
AcDbEntity
  8
______
  6
CONTINUOUS
 62
         7
100
AcDbLine
 10
1171.9459934036
 20
3162.7870594339
 30
0.0
 11
1171.9459934036
 21
3179.6152353983
 31
0.0
  0
LINE
  5
23E
100
AcDbEntity
  8
______
  6
CONTINUOUS
 62
         7
100
AcDbLine
 10
1146.5459934036
 20
3162.7870594339
 30
0.0
 11
1146.5459934036
 21
3179.6152353983
 31
0.0
  0
LINE
  5
23F
100
AcDbEntity
  8
______
  6
CONTINUOUS
 62
         7
100
AcDbLine
 10
1164.6023105659
 20
3153.8879685999
 30
0.0
 11
1153.8896762413
 21
3153.8879685999
 31
0.0
  0
LINE
  5
240
100
AcDbEntity
  8
______
  6
CENTER
 62
         1
100
AcDbLine
 10
1166.2781440121
 20
3169.8879685999
 30
0.0
 11
1153.1271919034
 21
3169.8879685999
 31
0.0
  0
ARC
  5
241
100
AcDbEntity
  8
______
  6
CONTINUOUS
 62
         7
100
AcDbCircle
 10
1169.5459934036
 20
3157.2879685999
 30
0.0
 40
6.0
100
AcDbArc
 50
214.5181078411
 51
426.4218215218
  0
ARC
  5
242
100
AcDbEntity
  8
______
  6
CONTINUOUS
 62
         7
100
AcDbCircle
 10
1148.9459934036
 20
3157.2879685999
 30
0.0
 40
6.0
100
AcDbArc
 50
113.5781784782
 51
325.4818921589
  0
CIRCLE
  5
243
100
AcDbEntity
  8
______
  6
CONTINUOUS
 62
         7
100
AcDbCircle
 10
1159.2459934036
 20
3169.8879685999
 30
0.0
 40
3.375
  0
ARC
  5
244
100
AcDbEntity
  8
______
  6
CONTINUOUS
 62
         4
100
AcDbCircle
 10
1159.2459934036
 20
3169.8879685999
 30
0.0
 40
4.0
100
AcDbArc
 50
180.0
 51
450.0
  0
LINE
  5
245
100
AcDbEntity
  8
______
  6
CONTINUOUS
 62
         7
100
AcDbLine
 10
1164.6023105659
 20
3079.8879685999
 30
0.0
 11
1153.8896762413
 21
3079.8879685999
 31
0.0
  0
LINE
  5
246
100
AcDbEntity
  8
______
  6
CONTINUOUS
 62
         7
100
AcDbLine
 10
1171.9459934036
 20
3070.988877766
 30
0.0
 11
1171.9459934036
 21
3054.1607018015
 31
0.0
  0
LINE
  5
247
100
AcDbEntity
  8
______
  6
CONTINUOUS
 62
         7
100
AcDbLine
 10
1146.5459934036
 20
3070.988877766
 30
0.0
 11
1146.5459934036
 21
3054.1607018015
 31
0.0
  0
ARC
  5
248
100
AcDbEntity
  8
______
  6
CONTINUOUS
 62
         7
100
AcDbCircle
 10
1169.5459934036
 20
3076.4879685999
 30
0.0
 40
6.0
100
AcDbArc
 50
293.5781784782
 51
505.4818921589
  0
ARC
  5
249
100
AcDbEntity
  8
______
  6
CONTINUOUS
 62
         7
100
AcDbCircle
 10
1148.9459934036
 20
3076.4879685999
 30
0.0
 40
6.0
100
AcDbArc
 50
34.5181078411
 51
246.4218215218
  0
CIRCLE
  5
24A
100
AcDbEntity
  8
______
  6
CONTINUOUS
 62
         7
100
AcDbCircle
 10
1159.2459934036
 20
3063.8879685999
 30
0.0
 40
3.375
  0
ARC
  5
24B
100
AcDbEntity
  8
______
  6
CONTINUOUS
 62
         4
100
AcDbCircle
 10
1159.2459934036
 20
3063.8879685999
 30
0.0
 40
4.0
100
AcDbArc
 50
270.0
 51
540.0
  0
LINE
  5
24C
100
AcDbEntity
  8
______
  6
CENTER
 62
         1
100
AcDbLine
 10
1166.2781440121
 20
3063.8879685999
 30
0.0
 11
1153.1271919034
 21
3063.8879685999
 31
0.0
  0
LINE
  5
24D
100
AcDbEntity
  8
______
  6
CENTER
 62
         1
100
AcDbLine
 10
1209.6160191185
 20
3167.2579943148
 30
0.0
 11
1107.6871544442
 21
3065.3291296405
 31
0.0
  0
LINE
  5
24E
100
AcDbEntity
  8
______
  6
CENTER
 62
         1
100
AcDbLine
 10
1212.0856615878
 20
3064.0483004157
 30
0.0
 11
1108.1118053456
 21
3168.0221566579
 31
0.0
  0
DIMENSION
  5
251
100
AcDbEntity
  8
______
  6
CONTINUOUS
 62
         4
100
AcDbDimension
  2
*D10
 10
1175.5459934036
 20
3203.9084755677
 30
0.0
 11
1177.691394382
 21
3206.5334755677
 31
0.0
  3
DIMSTYLE1
100
AcDbAlignedDimension
 13
1175.5459934036
 23
3157.2879685999
 33
0.0
 14
1171.9459934036
 24
3179.8702875474
 34
0.0
100
AcDbRotatedDimension
  0
DIMENSION
  5
261
100
AcDbEntity
  8
______
  6
CONTINUOUS
 62
         4
100
AcDbDimension
  2
*D11
 10
1146.5459934036
 20
3202.9062612345
 30
0.0
 11
1133.0928565535
 21
3205.5312612345
 31
0.0
  3
DIMSTYLE1
100
AcDbAlignedDimension
 13
1146.5459934036
 23
3179.8702875474
 33
0.0
 14
1142.9459934036
 24
3157.2879685999
 34
0.0
100
AcDbRotatedDimension
  0
DIMENSION
  5
271
100
AcDbEntity
  8
______
  6
CONTINUOUS
 62
         4
100
AcDbDimension
  2
*D12
 10
1146.5459934036
 20
3214.4317260665
 30
0.0
 11
1149.3827145516
 21
3217.0567260665
 31
0.0
  3
DIMSTYLE1
100
AcDbAlignedDimension
 13
1146.5459934036
 23
3179.8702875474
 33
0.0
 14
1171.9459934036
 24
3179.8702875474
 34
0.0
100
AcDbRotatedDimension
  0
CIRCLE
  5
27D
100
AcDbEntity
  8
______
  6
CONTINUOUS
 62
         7
100
AcDbCircle
 10
1159.2459934036
 20
3116.8879685999
 30
0.0
 40
64.0
  0
DIMENSION
  5
280
100
AcDbEntity
  8
______
  6
CONTINUOUS
 62
         4
100
AcDbDimension
  2
*D13
 10
1254.0952200491
 20
3153.8879685999
 30
0.0
 11
1251.4702200491
 21
3108.9912421163
 31
0.0
  3
DIMSTYLE1
100
AcDbAlignedDimension
 13
1164.6023105659
 23
3153.8879685999
 33
0.0
 14
1164.6023105659
 24
3079.8879685999
 34
0.0
 50
90.0
100
AcDbRotatedDimension
  0
DIMENSION
  5
28E
100
AcDbEntity
  8
______
  6
CONTINUOUS
 62
         4
100
AcDbDimension
  2
*D14
 10
1266.2221553304
 20
3169.8879685999
 30
0.0
 11
1263.5971553304
 21
3105.6024670782
 31
0.0
  3
DIMSTYLE1
100
AcDbAlignedDimension
 13
1166.2781440121
 23
3169.8879685999
 33
0.0
 14
1166.2781440121
 24
3063.8879685999
 34
0.0
 50
90.0
100
AcDbRotatedDimension
  0
CIRCLE
  5
29A
100
AcDbEntity
  8
______
  6
CONTINUOUS
 62
         7
100
AcDbCircle
 10
1159.2459934036
 20
3116.8879685999
 30
0.0
 40
1.95
  0
CIRCLE
  5
29B
100
AcDbEntity
  8
______
  6
CONTINUOUS
 62
         7
100
AcDbCircle
 10
1159.2459934036
 20
3116.8879685999
 30
0.0
 40
0.8
  0
DIMENSION
  5
29E
100
AcDbEntity
  8
______
  6
CONTINUOUS
 62
         4
100
AcDbDimension
  2
*D15
 10
1236.5048660512
 20
2905.5581770553
 30
0.0
 11
1233.8798660512
 21
2893.8308550353
 31
0.0
  3
DIMSTYLE1
100
AcDbAlignedDimension
 13
1226.1192975792
 23
2905.5581770553
 33
0.0
 14
1226.1192975792
 24
2892.5581770553
 34
0.0
 50
90.0
100
AcDbRotatedDimension
  0
DIMENSION
  5
2AC
100
AcDbEntity
  8
______
  6
CONTINUOUS
 62
         4
100
AcDbDimension
  2
*D16
 10
1193.9192975792
 20
2884.6312355839
 30
0.0
 11
1205.5789864082
 21
2887.2562355839
 31
0.0
  3
DIMSTYLE1
100
AcDbAlignedDimension
 13
1193.9192975792
 23
2895.8915020553
 33
0.0
 14
1218.9192975792
 24
2892.5581770553
 34
0.0
100
AcDbRotatedDimension
  0
DIMENSION
  5
2BA
100
AcDbEntity
  8
______
  6
CONTINUOUS
 62
         4
100
AcDbDimension
  2
*D17
 10
1186.0218257486
 20
2903.0581770553
 30
0.0
 11
1183.3968257486
 21
2887.0934903491
 31
0.0
  3
DIMSTYLE1
100
AcDbAlignedDimension
 13
1194.7526225792
 23
2903.0581770553
 33
0.0
 14
1194.7526225792
 24
2895.0581770553
 34
0.0
 50
90.0
100
AcDbRotatedDimension
  0
LINE
  5
2C6
100
AcDbEntity
  8
______
  6
DASHED
 62
         2
100
AcDbLine
 10
1226.9192975792
 20
2900.7902278629
 30
0.0
 11
1222.9192975792
 21
2900.7902278629
 31
0.0
  0
LINE
  5
2C7
100
AcDbEntity
  8
______
  6
DASHED
 62
         2
100
AcDbLine
 10
1226.9192975792
 20
2897.3261262477
 30
0.0
 11
1222.9192975792
 21
2897.3261262477
 31
0.0
  0
LINE
  5
2C8
100
AcDbEntity
  8
______
  6
DASHED
 62
         2
100
AcDbLine
 10
1226.9192975792
 20
2902.5222786705
 30
0.0
 11
1222.9192975792
 21
2902.5222786705
 31
0.0
  0
LINE
  5
2C9
100
AcDbEntity
  8
______
  6
DASHED
 62
         2
100
AcDbLine
 10
1226.9192975792
 20
2895.5940754402
 30
0.0
 11
1222.9192975792
 21
2895.5940754402
 31
0.0
  0
LINE
  5
2CA
100
AcDbEntity
  8
______
  6
DASHED
 62
         2
100
AcDbLine
 10
1222.9192975792
 20
2895.5940754402
 30
0.0
 11
1222.9192975792
 21
2902.5222786705
 31
0.0
  0
LINE
  5
2CB
100
AcDbEntity
  8
______
  6
CONTINUOUS
 62
         4
100
AcDbLine
 10
1193.9192975792
 20
2895.8915020553
 30
0.0
 11
1215.1692975792
 21
2895.8915020553
 31
0.0
  0
LINE
  5
2CC
100
AcDbEntity
  8
______
  6
CONTINUOUS
 62
         4
100
AcDbLine
 10
1193.9192975792
 20
2902.2248520553
 30
0.0
 11
1215.1692975792
 21
2902.2248520553
 31
0.0
  0
LINE
  5
2CD
100
AcDbEntity
  8
______
  6
CONTINUOUS
 62
         7
100
AcDbLine
 10
1215.1692975792
 20
2903.0581770553
 30
0.0
 11
1215.1692975792
 21
2895.0581770553
 31
0.0
  0
LINE
  5
2CE
100
AcDbEntity
  8
______
  6
CONTINUOUS
 62
         7
100
AcDbLine
 10
1193.9192975792
 20
2902.2248520553
 30
0.0
 11
1193.9192975792
 21
2895.8915020553
 31
0.0
  0
LINE
  5
2CF
100
AcDbEntity
  8
______
  6
CONTINUOUS
 62
         7
100
AcDbLine
 10
1194.7526225792
 20
2895.0581770553
 30
0.0
 11
1218.9192975792
 21
2895.0581770553
 31
0.0
  0
LINE
  5
2D0
100
AcDbEntity
  8
______
  6
CONTINUOUS
 62
         7
100
AcDbLine
 10
1194.7526225792
 20
2903.0581770553
 30
0.0
 11
1218.9192975792
 21
2903.0581770553
 31
0.0
  0
LINE
  5
2D1
100
AcDbEntity
  8
______
  6
CONTINUOUS
 62
         7
100
AcDbLine
 10
1193.9192975792
 20
2895.8915020553
 30
0.0
 11
1194.7526225792
 21
2895.0581770553
 31
0.0
  0
LINE
  5
2D2
100
AcDbEntity
  8
______
  6
CONTINUOUS
 62
         7
100
AcDbLine
 10
1193.9192975792
 20
2902.2248520553
 30
0.0
 11
1194.7526225792
 21
2903.0581770553
 31
0.0
  0
LINE
  5
2D3
100
AcDbEntity
  8
______
  6
CONTINUOUS
 62
         7
100
AcDbLine
 10
1194.7526225792
 20
2903.0581770553
 30
0.0
 11
1194.7526225792
 21
2895.0581770553
 31
0.0
  0
LINE
  5
2D4
100
AcDbEntity
  8
______
  6
CONTINUOUS
 62
         7
100
AcDbLine
 10
1226.1192975792
 20
2905.5581770553
 30
0.0
 11
1226.9192975792
 21
2904.4268062054
 31
0.0
  0
LINE
  5
2D5
100
AcDbEntity
  8
______
  6
CONTINUOUS
 62
         7
100
AcDbLine
 10
1226.1192975792
 20
2892.5581770553
 30
0.0
 11
1226.9192975792
 21
2893.6895479052
 31
0.0
  0
LINE
  5
2D6
100
AcDbEntity
  8
______
  6
CONTINUOUS
 62
         7
100
AcDbLine
 10
1218.9192975792
 20
2905.5581770553
 30
0.0
 11
1226.1192975792
 21
2905.5581770553
 31
0.0
  0
LINE
  5
2D7
100
AcDbEntity
  8
______
  6
CONTINUOUS
 62
         7
100
AcDbLine
 10
1218.9192975792
 20
2892.5581770553
 30
0.0
 11
1226.1192975792
 21
2892.5581770553
 31
0.0
  0
LINE
  5
2D8
100
AcDbEntity
  8
______
  6
CONTINUOUS
 62
         7
100
AcDbLine
 10
1226.9192975792
 20
2893.6895479052
 30
0.0
 11
1226.9192975792
 21
2904.4268062054
 31
0.0
  0
LINE
  5
2D9
100
AcDbEntity
  8
______
  6
CONTINUOUS
 62
         7
100
AcDbLine
 10
1226.1192975792
 20
2892.5581770553
 30
0.0
 11
1226.1192975792
 21
2905.5581770553
 31
0.0
  0
LINE
  5
2DA
100
AcDbEntity
  8
______
  6
CONTINUOUS
 62
         7
100
AcDbLine
 10
1218.9192975792
 20
2892.5581770553
 30
0.0
 11
1218.9192975792
 21
2905.5581770553
 31
0.0
  0
LINE
  5
2DB
100
AcDbEntity
  8
______
  6
CENTER
 62
         1
100
AcDbLine
 10
1229.360211733
 20
2899.0581770553
 30
0.0
 11
1191.5033900097
 21
2899.0581770553
 31
0.0
  0
LINE
  5
2DC
100
AcDbEntity
  8
______
  6
CENTER
 62
         1
100
AcDbLine
 10
1220.6147129703
 20
2952.7064357076
 30
0.0
 11
1220.6147129703
 21
2983.9322511647
 31
0.0
  0
DIMENSION
  5
2DF
100
AcDbEntity
  8
______
  6
CONTINUOUS
 62
         4
100
AcDbDimension
  2
*D18
 10
1253.0386701016
 20
2980.9725480594
 30
0.0
 11
1250.4136701016
 21
2960.197789162
 31
0.0
  3
DIMSTYLE1
100
AcDbAlignedDimension
 13
1231.8147129703
 23
2980.9725480594
 33
0.0
 14
1231.8147129703
 24
2955.0725480594
 34
0.0
 50
90.0
100
AcDbRotatedDimension
  0
DIMENSION
  5
2ED
100
AcDbEntity
  8
______
  6
CONTINUOUS
 62
         4
100
AcDbDimension
  2
*D19
 10
1233.3147129703
 20
2942.1542976644
 30
0.0
 11
1213.4984788184
 21
2944.7792976644
 31
0.0
  3
DIMSTYLE1
100
AcDbAlignedDimension
 13
1233.3147129703
 23
2956.5725480594
 33
0.0
 14
1207.9147129703
 24
2956.5725480594
 34
0.0
100
AcDbRotatedDimension
  0
DIMENSION
  5
2FB
100
AcDbEntity
  8
______
  6
CONTINUOUS
 62
         4
100
AcDbDimension
  2
*D20
 10
1188.2939711554
 20
2944.2005049544
 30
0.0
 11
1176.0657882916
 21
2946.8255049544
 31
0.0
  3
DIMSTYLE1
100
AcDbAlignedDimension
 13
1188.2939711554
 23
2963.8539751793
 33
0.0
 14
1196.7939711554
 24
2956.5725480594
 34
0.0
100
AcDbRotatedDimension
  0
DIMENSION
  5
30A
100
AcDbEntity
  8
______
  6
CONTINUOUS
 62
         4
100
AcDbDimension
  2
*D21
 10
1171.7939711554
 20
2934.0316513534
 30
0.0
 11
1180.8015601465
 21
2936.6566513534
 31
0.0
  3
DIMSTYLE1
100
AcDbAlignedDimension
 13
1171.7939711554
 23
2956.5725480594
 33
0.0
 14
1196.7939711554
 24
2956.5725480594
 34
0.0
100
AcDbRotatedDimension
  0
DIMENSION
  5
318
100
AcDbEntity
  8
______
  6
CONTINUOUS
 62
         4
100
AcDbDimension
  2
*D22
 10
1152.1087645535
 20
2977.8539751793
 30
0.0
 11
1149.4837645535
 21
2969.2713382261
 31
0.0
  3
DIMSTYLE1
100
AcDbAlignedDimension
 13
1188.2939711554
 23
2977.8539751793
 33
0.0
 14
1188.2939711554
 24
2963.8539751793
 34
0.0
 50
90.0
100
AcDbRotatedDimension
  0
DIMENSION
  5
326
100
AcDbEntity
  8
______
  6
CONTINUOUS
 62
         4
100
AcDbDimension
  2
*D23
 10
1162.6521435006
 20
2975.1039751793
 30
0.0
 11
1160.0271435006
 21
2979.7294612174
 31
0.0
  3
DIMSTYLE1
100
AcDbAlignedDimension
 13
1172.7939711554
 23
2975.1039751793
 33
0.0
 14
1172.7939711554
 24
2966.6039751793
 34
0.0
 50
90.0
100
AcDbRotatedDimension
  0
LINE
  5
333
100
AcDbEntity
  8
______
  6
CONTINUOUS
 62
         7
100
AcDbLine
 10
1171.7939711554
 20
2979.4725480594
 30
0.0
 11
1173.2939711554
 21
2980.9725480594
 31
0.0
  0
LINE
  5
334
100
AcDbEntity
  8
______
  6
CONTINUOUS
 62
         7
100
AcDbLine
 10
1173.2939711554
 20
2955.0725480594
 30
0.0
 11
1171.7939711554
 21
2956.5725480594
 31
0.0
  0
LINE
  5
335
100
AcDbEntity
  8
______
  6
CONTINUOUS
 62
         7
100
AcDbLine
 10
1196.7939711554
 20
2956.5725480594
 30
0.0
 11
1195.2939711554
 21
2955.0725480594
 31
0.0
  0
LINE
  5
336
100
AcDbEntity
  8
______
  6
CONTINUOUS
 62
         7
100
AcDbLine
 10
1195.2939711554
 20
2980.9725480594
 30
0.0
 11
1196.7939711554
 21
2979.4725480594
 31
0.0
  0
LINE
  5
337
100
AcDbEntity
  8
______
  6
CENTER
 62
         1
100
AcDbLine
 10
1199.8584295414
 20
2971.0725480594
 30
0.0
 11
1167.66223132
 21
2971.0725480594
 31
0.0
  0
LINE
  5
338
100
AcDbEntity
  8
______
  6
CONTINUOUS
 62
         7
100
AcDbLine
 10
1172.7939711554
 20
2966.6039751793
 30
0.0
 11
1171.7939711554
 21
2965.6039751793
 31
0.0
  0
LINE
  5
339
100
AcDbEntity
  8
______
  6
CONTINUOUS
 62
         7
100
AcDbLine
 10
1196.7939711554
 20
2978.8539751793
 30
0.0
 11
1195.7939711554
 21
2977.8539751793
 31
0.0
  0
LINE
  5
33A
100
AcDbEntity
  8
______
  6
CONTINUOUS
 62
         7
100
AcDbLine
 10
1196.7939711554
 20
2962.8539751793
 30
0.0
 11
1195.7939711554
 21
2963.8539751793
 31
0.0
  0
LINE
  5
33B
100
AcDbEntity
  8
______
  6
CONTINUOUS
 62
         7
100
AcDbLine
 10
1172.7939711554
 20
2975.1039751793
 30
0.0
 11
1171.7939711554
 21
2976.1039751793
 31
0.0
  0
LINE
  5
33C
100
AcDbEntity
  8
______
  6
CONTINUOUS
 62
         7
100
AcDbLine
 10
1172.7939711554
 20
2975.1039751793
 30
0.0
 11
1172.7939711554
 21
2966.6039751793
 31
0.0
  0
LINE
  5
33D
100
AcDbEntity
  8
______
  6
CONTINUOUS
 62
         7
100
AcDbLine
 10
1195.7939711554
 20
2977.8539751793
 30
0.0
 11
1195.7939711554
 21
2963.8539751793
 31
0.0
  0
LINE
  5
33E
100
AcDbEntity
  8
______
  6
CONTINUOUS
 62
         7
100
AcDbLine
 10
1188.2939711554
 20
2977.8539751793
 30
0.0
 11
1188.2939711554
 21
2963.8539751793
 31
0.0
  0
LINE
  5
33F
100
AcDbEntity
  8
______
  6
CONTINUOUS
 62
         7
100
AcDbLine
 10
1195.7939711554
 20
2963.8539751793
 30
0.0
 11
1188.2939711554
 21
2963.8539751793
 31
0.0
  0
LINE
  5
340
100
AcDbEntity
  8
______
  6
CONTINUOUS
 62
         7
100
AcDbLine
 10
1188.2939711554
 20
2966.6039751793
 30
0.0
 11
1172.7939711554
 21
2966.6039751793
 31
0.0
  0
LINE
  5
341
100
AcDbEntity
  8
______
  6
CONTINUOUS
 62
         7
100
AcDbLine
 10
1188.2939711554
 20
2975.1039751793
 30
0.0
 11
1172.7939711554
 21
2975.1039751793
 31
0.0
  0
LINE
  5
342
100
AcDbEntity
  8
______
  6
CONTINUOUS
 62
         7
100
AcDbLine
 10
1195.7939711554
 20
2977.8539751793
 30
0.0
 11
1188.2939711554
 21
2977.8539751793
 31
0.0
  0
LINE
  5
343
100
AcDbEntity
  8
______
  6
CONTINUOUS
 62
         7
100
AcDbLine
 10
1171.7939711554
 20
2979.4725480594
 30
0.0
 11
1171.7939711554
 21
2956.5725480594
 31
0.0
  0
LINE
  5
344
100
AcDbEntity
  8
______
  6
CONTINUOUS
 62
         7
100
AcDbLine
 10
1196.7939711554
 20
2979.4725480594
 30
0.0
 11
1196.7939711554
 21
2956.5725480594
 31
0.0
  0
LINE
  5
345
100
AcDbEntity
  8
______
  6
CONTINUOUS
 62
         7
100
AcDbLine
 10
1195.2939711554
 20
2955.0725480594
 30
0.0
 11
1173.2939711554
 21
2955.0725480594
 31
0.0
  0
LINE
  5
346
100
AcDbEntity
  8
______
  6
CONTINUOUS
 62
         7
100
AcDbLine
 10
1195.2939711554
 20
2980.9725480594
 30
0.0
 11
1173.2939711554
 21
2980.9725480594
 31
0.0
  0
LINE
  5
347
100
AcDbEntity
  8
______
  6
CONTINUOUS
 62
         7
100
AcDbLine
 10
1207.9147129703
 20
2979.4725480594
 30
0.0
 11
1209.4147129703
 21
2980.9725480594
 31
0.0
  0
LINE
  5
348
100
AcDbEntity
  8
______
  6
CONTINUOUS
 62
         7
100
AcDbLine
 10
1209.4147129703
 20
2955.0725480594
 30
0.0
 11
1207.9147129703
 21
2956.5725480594
 31
0.0
  0
LINE
  5
349
100
AcDbEntity
  8
______
  6
CONTINUOUS
 62
         7
100
AcDbLine
 10
1233.3147129703
 20
2956.5725480594
 30
0.0
 11
1231.8147129703
 21
2955.0725480594
 31
0.0
  0
LINE
  5
34A
100
AcDbEntity
  8
______
  6
CONTINUOUS
 62
         7
100
AcDbLine
 10
1231.8147129703
 20
2980.9725480594
 30
0.0
 11
1233.3147129703
 21
2979.4725480594
 31
0.0
  0
CIRCLE
  5
34B
100
AcDbEntity
  8
______
  6
CONTINUOUS
 62
         7
100
AcDbCircle
 10
1220.6147129703
 20
2970.8539751793
 30
0.0
 40
4.25
  0
CIRCLE
  5
34C
100
AcDbEntity
  8
______
  6
CONTINUOUS
 62
         7
100
AcDbCircle
 10
1220.6147129703
 20
2970.8539751793
 30
0.0
 40
7.0
  0
LINE
  5
34D
100
AcDbEntity
  8
______
  6
CENTER
 62
         1
100
AcDbLine
 10
1237.2396732784
 20
2971.0725480594
 30
0.0
 11
1203.8716168305
 21
2971.0725480594
 31
0.0
  0
LINE
  5
34E
100
AcDbEntity
  8
______
  6
CONTINUOUS
 62
         7
100
AcDbLine
 10
1231.8147129703
 20
2980.9725480594
 30
0.0
 11
1209.4147129703
 21
2980.9725480594
 31
0.0
  0
LINE
  5
34F
100
AcDbEntity
  8
______
  6
CONTINUOUS
 62
         7
100
AcDbLine
 10
1231.8147129703
 20
2955.0725480594
 30
0.0
 11
1209.4147129703
 21
2955.0725480594
 31
0.0
  0
LINE
  5
350
100
AcDbEntity
  8
______
  6
CONTINUOUS
 62
         7
100
AcDbLine
 10
1207.9147129703
 20
2956.5725480594
 30
0.0
 11
1207.9147129703
 21
2979.4725480594
 31
0.0
  0
LINE
  5
351
100
AcDbEntity
  8
______
  6
CONTINUOUS
 62
         7
100
AcDbLine
 10
1233.3147129703
 20
2979.4725480594
 30
0.0
 11
1233.3147129703
 21
2956.5725480594
 31
0.0
  0
DIMENSION
  5
354
100
AcDbEntity
  8
______
  6
CONTINUOUS
 62
         4
100
AcDbDimension
  2
*D24
 10
1242.2788804701
 20
2971.0725480594
 30
0.0
 11
1239.6538804701
 21
2959.6258504253
 31
0.0
  3
DIMSTYLE1
100
AcDbAlignedDimension
 13
1237.2396732784
 23
2971.0725480594
 33
0.0
 14
1231.8147129703
 24
2955.0725480594
 34
0.0
 50
90.0
100
AcDbRotatedDimension
  0
INSERT
  5
36B
100
AcDbEntity
  8
0
  6
CONTINUOUS
100
AcDbBlockReference
  2
*X25
 10
0.0
 20
0.0
 30
0.0
  0
INSERT
  5
378
100
AcDbEntity
  8
0
  6
CONTINUOUS
100
AcDbBlockReference
  2
*X26
 10
0.0
 20
0.0
 30
0.0
  0
DIMENSION
  5
37B
100
AcDbEntity
  8
______
  6
CONTINUOUS
 62
         4
100
AcDbDimension
  2
*D27
 10
979.2414494397
 20
3180.8879685999
 30
0.0
 11
976.6164494397
 21
3105.8294242239
 31
0.0
  3
DIMSTYLE1
100
AcDbAlignedDimension
 13
896.0725521555
 23
3180.8879685999
 33
0.0
 14
896.0725521555
 24
3052.8879685999
 34
0.0
 50
90.0
100
AcDbRotatedDimension
  0
TEXT
  5
388
100
AcDbEntity
  8
______
  6
CONTINUOUS
 62
         2
100
AcDbText
 10
1143.8177711863
 20
3255.0738052787
 30
0.0
 40
4.5
  1
531248
 41
0.98
  7
BOX
100
AcDbText
  0
ENDSEC
  0
SECTION
  2
OBJECTS
  0
DICTIONARY
  5
19
100
AcDbDictionary
  3
ACAD_GROUP
350
1A
  3
ACAD_MLINESTYLE
350
1B
  0
DICTIONARY
  5
1A
102
{ACAD_REACTORS
330
19
102
}
100
AcDbDictionary
  0
DICTIONARY
  5
1B
102
{ACAD_REACTORS
330
19
102
}
100
AcDbDictionary
  3
STANDARD
350
1C
  0
MLINESTYLE
  5
1C
102
{ACAD_REACTORS
330
1B
102
}
100
AcDbMlineStyle
  2
STANDARD
 70
         0
  3

 62
         0
 51
90.0
 52
90.0
 71
         2
 49
0.5
 62
       256
  6
BYLAYER
 49
-0.5
 62
       256
  6
BYLAYER
  0
ENDSEC
  0
EOF
