  0
SECTION
  2
HEADER
  9
$ACADVER
  1
AC1014
  9
$ACADMAINTVER
 70
         0
  9
$DWGCODEPAGE
  3
BIG5
  9
$INSBASE
 10
0.0
 20
0.0
 30
0.0
  9
$EXTMIN
 10
118.1784311953
 20
139.2420044794
 30
0.0
  9
$EXTMAX
 10
699.266252333
 20
432.5345218816
 30
0.0
  9
$LIMMIN
 10
0.0
 20
0.0
  9
$LIMMAX
 10
0.0
 20
0.0
  9
$ORTHOMODE
 70
         0
  9
$REGENMODE
 70
         1
  9
$FILLMODE
 70
         1
  9
$QTEXTMODE
 70
         0
  9
$MIRRTEXT
 70
         1
  9
$DRAGMODE
 70
         2
  9
$LTSCALE
 40
1.0
  9
$OSMODE
 70
         0
  9
$ATTMODE
 70
         1
  9
$TEXTSIZE
 40
2.7
  9
$TRACEWID
 40
0.05
  9
$TEXTSTYLE
  7
STANDARD
  9
$CLAYER
  8
0
  9
$CELTYPE
  6
CONTINUOUS
  9
$CECOLOR
 62
        16
  9
$CELTSCALE
 40
1.0
  9
$DELOBJ
 70
         1
  9
$DISPSILH
 70
         0
  9
$DIMSCALE
 40
1.0
  9
$DIMASZ
 40
0.18
  9
$DIMEXO
 40
0.0625
  9
$DIMDLI
 40
0.38
  9
$DIMRND
 40
0.0
  9
$DIMDLE
 40
0.0
  9
$DIMEXE
 40
0.25
  9
$DIMTP
 40
0.01
  9
$DIMTM
 40
-0.01
  9
$DIMTXT
 40
2.7
  9
$DIMCEN
 40
0.09
  9
$DIMTSZ
 40
0.0
  9
$DIMTOL
 70
         0
  9
$DIMLIM
 70
         0
  9
$DIMTIH
 70
         1
  9
$DIMTOH
 70
         1
  9
$DIMSE1
 70
         0
  9
$DIMSE2
 70
         0
  9
$DIMTAD
 70
         0
  9
$DIMZIN
 70
         0
  9
$DIMBLK
  1

  9
$DIMASO
 70
         1
  9
$DIMSHO
 70
         1
  9
$DIMPOST
  1

  9
$DIMAPOST
  1

  9
$DIMALT
 70
         0
  9
$DIMALTD
 70
         2
  9
$DIMALTF
 40
25.4
  9
$DIMLFAC
 40
1.0
  9
$DIMTOFL
 70
         0
  9
$DIMTVP
 40
0.0
  9
$DIMTIX
 70
         0
  9
$DIMSOXD
 70
         0
  9
$DIMSAH
 70
         0
  9
$DIMBLK1
  1

  9
$DIMBLK2
  1

  9
$DIMSTYLE
  2
STANDARD
  9
$DIMCLRD
 70
         0
  9
$DIMCLRE
 70
         0
  9
$DIMCLRT
 70
        16
  9
$DIMTFAC
 40
1.0
  9
$DIMGAP
 40
0.09
  9
$DIMJUST
 70
         0
  9
$DIMSD1
 70
         0
  9
$DIMSD2
 70
         0
  9
$DIMTOLJ
 70
         1
  9
$DIMTZIN
 70
         0
  9
$DIMALTZ
 70
         0
  9
$DIMALTTZ
 70
         0
  9
$DIMFIT
 70
         3
  9
$DIMUPT
 70
         0
  9
$DIMUNIT
 70
         2
  9
$DIMDEC
 70
         4
  9
$DIMTDEC
 70
         4
  9
$DIMALTU
 70
         2
  9
$DIMALTTD
 70
         2
  9
$DIMTXSTY
  7
STANDARD
  9
$DIMAUNIT
 70
         0
  9
$LUNITS
 70
         2
  9
$LUPREC
 70
        10
  9
$SKETCHINC
 40
0.1
  9
$FILLETRAD
 40
0.0
  9
$AUNITS
 70
         0
  9
$AUPREC
 70
         0
  9
$MENU
  1
acad
  9
$ELEVATION
 40
0.0
  9
$PELEVATION
 40
0.0
  9
$THICKNESS
 40
0.0
  9
$LIMCHECK
 70
         0
  9
$BLIPMODE
 70
         1
  9
$CHAMFERA
 40
0.0
  9
$CHAMFERB
 40
0.0
  9
$CHAMFERC
 40
0.0
  9
$CHAMFERD
 40
0.0
  9
$SKPOLY
 70
         0
  9
$TDCREATE
 40
0.000000000
  9
$TDUPDATE
 40
0.000000000
  9
$TDINDWG
 40
0.0000000000
  9
$TDUSRTIMER
 40
0.0000000000
  9
$USRTIMER
 70
         1
  9
$ANGBASE
 50
0.0
  9
$ANGDIR
 70
         0
  9
$PDMODE
 70
         2
  9
$PDSIZE
 40
0.0
  9
$PLINEWID
 40
0.0
  9
$COORDS
 70
         1
  9
$SPLFRAME
 70
         0
  9
$SPLINETYPE
 70
         6
  9
$SPLINESEGS
 70
         8
  9
$ATTDIA
 70
         0
  9
$ATTREQ
 70
         1
  9
$HANDLING
 70
         1
  9
$HANDSEED
  5
453
  9
$SURFTAB1
 70
         6
  9
$SURFTAB2
 70
         6
  9
$SURFTYPE
 70
         6
  9
$SURFU
 70
         6
  9
$SURFV
 70
         6
  9
$UCSNAME
  2

  9
$UCSORG
 10
0.0
 20
0.0
 30
0.0
  9
$UCSXDIR
 10
1.0
 20
0.0
 30
0.0
  9
$UCSYDIR
 10
0.0
 20
1.0
 30
0.0
  9
$PUCSNAME
  2

  9
$PUCSORG
 10
0.0
 20
0.0
 30
0.0
  9
$PUCSXDIR
 10
1.0
 20
0.0
 30
0.0
  9
$PUCSYDIR
 10
0.0
 20
1.0
 30
0.0
  9
$USERI1
 70
         0
  9
$USERI2
 70
         0
  9
$USERI3
 70
         0
  9
$USERI4
 70
         0
  9
$USERI5
 70
         0
  9
$USERR1
 40
0.0
  9
$USERR2
 40
0.0
  9
$USERR3
 40
0.0
  9
$USERR4
 40
0.0
  9
$USERR5
 40
0.0
  9
$WORLDVIEW
 70
         1
  9
$SHADEDGE
 70
         3
  9
$SHADEDIF
 70
        70
  9
$TILEMODE
 70
         1
  9
$MAXACTVP
 70
        16
  9
$PINSBASE
 10
0.0
 20
0.0
 30
0.0
  9
$PLIMCHECK
 70
         0
  9
$PEXTMIN
 10
1.0000000000E+20
 20
1.0000000000E+20
 30
1.0000000000E+20
  9
$PEXTMAX
 10
-1.0000000000E+20
 20
-1.0000000000E+20
 30
-1.0000000000E+20
  9
$PLIMMIN
 10
0.0
 20
0.0
  9
$PLIMMAX
 10
12.0
 20
9.0
  9
$UNITMODE
 70
         0
  9
$VISRETAIN
 70
         0
  9
$PLINEGEN
 70
         1
  9
$PSLTSCALE
 70
         0
  9
$TREEDEPTH
 70
      3020
  9
$PICKSTYLE
 70
         1
  9
$CMLSTYLE
  2
STANDARD
  9
$CMLJUST
 70
         0
  9
$CMLSCALE
 40
1.0
  9
$PROXYGRAPHICS
 70
         0
  9
$MEASUREMENT
 70
         0
  0
ENDSEC
  0
SECTION
  2
CLASSES
  0
CLASS
  1
LWPOLYLINE
  2
AcDbPolyline
  3
"AutoCAD"
 90
        0
280
         0
281
         1
  0
CLASS
  1
IMAGE
  2
AcDbRasterImage
  3
ISM
 90
      127
280
         0
281
         1
  0
CLASS
  1
OLE2FRAME
  2
AcDbOle2Frame
  3
""
 90
        0
280
         0
281
         1
  0
CLASS
  1
HATCH
  2
AcDbHatch
  3
"ACAD_SEDONA"
 90
        0
280
         0
281
         1
  0
CLASS
  1
DICTIONARYVAR
  2
AcDbDictionaryVar
  3
"AutoCAD"
 90
        0
280
         0
281
         0
  0
CLASS
  1
RASTERVARIABLES
  2
AcDbRasterVariables
  3
ISM
 90
        0
280
         0
281
         0
  0
CLASS
  1
IMAGEDEF
  2
AcDbRasterImageDef
  3
ISM
 90
        0
280
         0
281
         0
  0
CLASS
  1
IMAGEDEF_REACTOR
  2
AcDbRasterImageDefReactor
  3
ISM
 90
        1
280
         0
281
         0
  0
CLASS
  1
IDBUFFER
  2
AcDbIdBuffer
  3
"Acad"
 90
        0
280
         0
281
         0
  0
CLASS
  1
SPATIAL_FILTER
  2
AcDbSpatialFilter
  3
"Acad"
 90
        0
280
         0
281
         0
  0
CLASS
  1
XRECORD
  2
AcDbXrecord
  3
"<Built In>"
 90
        0
280
         0
281
         0
  0
CLASS
  1
SORTENTSTABLE
  2
AcDbSortentsTable
  3
"AutoCAD"
 90
        0
280
         0
281
         0
  0
CLASS
  1
LAYER_INDEX
  2
AcDbLayerIndex
  3
"Acad"
 90
        0
280
         0
281
         0
  0
CLASS
  1
SPATIAL_INDEX
  2
AcDbSpatialIndex
  3
"Acad"
 90
        0
280
         0
281
         0
  0
CLASS
  1
OBJECT_PTR
  2
CAseDLPNTableRecord
  3
"ASE-LPNTableRecord"
 90
        1
280
         0
281
         0
  0
CLASS
  1
LAYOUT
  2
AcDbLayout
  3
"AutoCAD 2000"
 90
        1
280
         0
281
         0
  0
CLASS
  1
PLOTSETTINGS
  2
AcDbPlotSettings
  3
"AutoCAD 2000"
 90
        1
280
         0
281
         0
  0
CLASS
  1
ACDBDICTIONARYWDFLT
  2
AcDbDictionaryWithDefault
  3
"AutoCAD 2000"
 90
        1
280
         0
281
         0
  0
CLASS
  1
ACDBPLACEHOLDER
  2
AcDbPlaceHolder
  3
"AutoCAD 2000"
 90
        1
280
         0
281
         0
  0
CLASS
  1
VBA_PROJECT
  2
AcDbVbaProject
  3
"acadvba"
 90
        1
280
         0
281
         0
  0
CLASS
  1
WIPEOUT
  2
AcDbWipeout
  3
WipeOut|AutoCAD Express Tool|expresstools@autodesk.com
 90
      127
280
         0
281
         1
  0
CLASS
  1
WIPEOUTVARIABLES
  2
AcDbWipeoutVariables
  3
WipeOut|AutoCAD Express Tool|expresstools@autodesk.com
 90
        0
280
         0
281
         0
  0
CLASS
  1
RTEXT
  2
RText
  3
RText|AutoCAD Express Tool|expresstools@autodesk.com
 90
        0
280
         0
281
         1
  0
CLASS
  1
ARCALIGNEDTEXT
  2
AcDbArcAlignedText
  3
ATEXT|AutoCAD Express Tool|expresstools@autodesk.com
 90
        0
280
         0
281
         1
  0
ENDSEC
  0
SECTION
  2
TABLES
  0
TABLE
  2
VPORT
  5
7
100
AcDbSymbolTable
 70
         1
  0
VPORT
  5
15
100
AcDbSymbolTableRecord
100
AcDbViewportTableRecord
  2
*ACTIVE
 70
         0
 10
0.0
 20
0.0
 11
1.0
 21
1.0
 12
408.7223417641
 22
285.8882631805
 13
0.0
 23
0.0
 14
1.0
 24
1.0
 15
0.0
 25
0.0
 16
0.0
 26
0.0
 36
1.0
 17
0.0
 27
0.0
 37
0.0
 40
293.2925174023
 41
1.9812568908
 42
50.0
 43
0.0
 44
0.0
 50
0.0
 51
0.0
 71
         0
 72
       100
 73
         1
 74
         1
 75
         0
 76
         0
 77
         0
 78
         0
  0
ENDTAB
  0
TABLE
  2
LTYPE
  5
4
100
AcDbSymbolTable
 70
         6
  0
LTYPE
  5
11
100
AcDbSymbolTableRecord
100
AcDbLinetypeTableRecord
  2
BYBLOCK
 70
        64
  3

 72
        65
 73
         0
 40
0.0
  0
LTYPE
  5
12
100
AcDbSymbolTableRecord
100
AcDbLinetypeTableRecord
  2
BYLAYER
 70
        64
  3

 72
        65
 73
         0
 40
0.0
  0
LTYPE
  5
13
100
AcDbSymbolTableRecord
100
AcDbLinetypeTableRecord
  2
CONTINUOUS
 70
        64
  3
Solid line
 72
        65
 73
         0
 40
0.0
  0
LTYPE
  5
1D
100
AcDbSymbolTableRecord
100
AcDbLinetypeTableRecord
  2
DASHED
 70
        64
  3
_ _ _ _ _ _ _ _ _ _ _ _ _ _ _ _
 72
        65
 73
         2
 40
0.2
 49
0.1
 74
         0
 49
-0.1
 74
         0
  0
LTYPE
  5
1E
100
AcDbSymbolTableRecord
100
AcDbLinetypeTableRecord
  2
CENTER
 70
        64
  3
___ _ ___ _ ___ _ ___ _ ___ _ ___ _ ___ _ ___ _
 72
        65
 73
         4
 40
0.95
 49
0.625
 74
         0
 49
-0.125
 74
         0
 49
0.075
 74
         0
 49
-0.125
 74
         0
  0
LTYPE
  5
1F
100
AcDbSymbolTableRecord
100
AcDbLinetypeTableRecord
  2
PHANTOM
 70
        64
  3
______  __  __  ______  __  __  ______  __  __  
 72
        65
 73
         6
 40
1.025
 49
0.625
 74
         0
 49
-0.125
 74
         0
 49
0.075
 74
         0
 49
-0.125
 74
         0
 49
0.075
 74
         0
 49
-0.125
 74
         0
  0
ENDTAB
  0
TABLE
  2
LAYER
  5
2
100
AcDbSymbolTable
 70
        14
  0
LAYER
  5
14
100
AcDbSymbolTableRecord
100
AcDbLayerTableRecord
  2
0
 70
         0
 62
         7
  6
CONTINUOUS
  0
LAYER
  5
21
100
AcDbSymbolTableRecord
100
AcDbLayerTableRecord
  2
______
 70
         0
 62
         7
  6
CONTINUOUS
  0
LAYER
  5
22
100
AcDbSymbolTableRecord
100
AcDbLayerTableRecord
  2
______
 70
         1
 62
         7
  6
CONTINUOUS
  0
LAYER
  5
23
100
AcDbSymbolTableRecord
100
AcDbLayerTableRecord
  2
______
 70
         1
 62
         7
  6
CONTINUOUS
  0
LAYER
  5
24
100
AcDbSymbolTableRecord
100
AcDbLayerTableRecord
  2
______
 70
         1
 62
         7
  6
CONTINUOUS
  0
LAYER
  5
25
100
AcDbSymbolTableRecord
100
AcDbLayerTableRecord
  2
______
 70
         1
 62
         7
  6
CONTINUOUS
  0
LAYER
  5
26
100
AcDbSymbolTableRecord
100
AcDbLayerTableRecord
  2
___G__
 70
         1
 62
         7
  6
CONTINUOUS
  0
LAYER
  5
27
100
AcDbSymbolTableRecord
100
AcDbLayerTableRecord
  2
______
 70
         1
 62
         7
  6
CONTINUOUS
  0
LAYER
  5
28
100
AcDbSymbolTableRecord
100
AcDbLayerTableRecord
  2
______
 70
         1
 62
         7
  6
CONTINUOUS
  0
LAYER
  5
29
100
AcDbSymbolTableRecord
100
AcDbLayerTableRecord
  2
______
 70
         1
 62
         7
  6
CONTINUOUS
  0
LAYER
  5
2A
100
AcDbSymbolTableRecord
100
AcDbLayerTableRecord
  2
_____I
 70
         1
 62
         7
  6
CONTINUOUS
  0
LAYER
  5
2B
100
AcDbSymbolTableRecord
100
AcDbLayerTableRecord
  2
___T__
 70
         1
 62
         7
  6
CONTINUOUS
  0
LAYER
  5
2C
100
AcDbSymbolTableRecord
100
AcDbLayerTableRecord
  2
_P____
 70
         1
 62
         7
  6
CONTINUOUS
  0
LAYER
  5
161
100
AcDbSymbolTableRecord
100
AcDbLayerTableRecord
  2
DEFPOINTS
 70
         0
 62
        -7
  6
CONTINUOUS
  0
ENDTAB
  0
TABLE
  2
STYLE
  5
3
100
AcDbSymbolTable
 70
        20
  0
STYLE
  5
17
100
AcDbSymbolTableRecord
100
AcDbTextStyleTableRecord
  2
STANDARD
 70
         0
 40
0.0
 41
1.0
 50
0.0
 71
         0
 42
0.0
  3
txt
  4

  0
STYLE
  5
16A
100
AcDbSymbolTableRecord
100
AcDbTextStyleTableRecord
  2
BOX
 70
         0
 40
1.0
 41
1.0
 50
0.0
 71
         0
 42
0.2
  3
txt.shx
  4

  0
STYLE
  5
178
100
AcDbSymbolTableRecord
100
AcDbTextStyleTableRecord
  2
BOX
 70
         0
 40
1.0
 41
1.0
 50
0.0
 71
         0
 42
0.2
  3
txt.shx
  4

  0
STYLE
  5
26B
100
AcDbSymbolTableRecord
100
AcDbTextStyleTableRecord
  2
BOX
 70
         0
 40
1.0
 41
1.0
 50
0.0
 71
         0
 42
0.2
  3
txt.shx
  4

  0
STYLE
  5
27B
100
AcDbSymbolTableRecord
100
AcDbTextStyleTableRecord
  2
BOX
 70
         0
 40
1.0
 41
1.0
 50
0.0
 71
         0
 42
0.2
  3
txt.shx
  4

  0
STYLE
  5
289
100
AcDbSymbolTableRecord
100
AcDbTextStyleTableRecord
  2
BOX
 70
         0
 40
1.0
 41
1.0
 50
0.0
 71
         0
 42
0.2
  3
txt.shx
  4

  0
STYLE
  5
299
100
AcDbSymbolTableRecord
100
AcDbTextStyleTableRecord
  2
BOX
 70
         0
 40
1.0
 41
1.0
 50
0.0
 71
         0
 42
0.2
  3
txt.shx
  4

  0
STYLE
  5
2A9
100
AcDbSymbolTableRecord
100
AcDbTextStyleTableRecord
  2
BOX
 70
         0
 40
1.0
 41
1.0
 50
0.0
 71
         0
 42
0.2
  3
txt.shx
  4

  0
STYLE
  5
2C3
100
AcDbSymbolTableRecord
100
AcDbTextStyleTableRecord
  2
BOX
 70
         0
 40
1.0
 41
1.0
 50
0.0
 71
         0
 42
0.2
  3
txt.shx
  4

  0
STYLE
  5
2D1
100
AcDbSymbolTableRecord
100
AcDbTextStyleTableRecord
  2
BOX
 70
         0
 40
1.0
 41
1.0
 50
0.0
 71
         0
 42
0.2
  3
txt.shx
  4

  0
STYLE
  5
2F8
100
AcDbSymbolTableRecord
100
AcDbTextStyleTableRecord
  2
BOX
 70
         0
 40
1.0
 41
1.0
 50
0.0
 71
         0
 42
0.2
  3
txt.shx
  4

  0
STYLE
  5
30B
100
AcDbSymbolTableRecord
100
AcDbTextStyleTableRecord
  2
BOX
 70
         0
 40
1.0
 41
1.0
 50
0.0
 71
         0
 42
0.2
  3
txt.shx
  4

  0
STYLE
  5
341
100
AcDbSymbolTableRecord
100
AcDbTextStyleTableRecord
  2
BOX
 70
         0
 40
1.0
 41
1.0
 50
0.0
 71
         0
 42
0.2
  3
txt.shx
  4

  0
STYLE
  5
34F
100
AcDbSymbolTableRecord
100
AcDbTextStyleTableRecord
  2
BOX
 70
         0
 40
1.0
 41
1.0
 50
0.0
 71
         0
 42
0.2
  3
txt.shx
  4

  0
STYLE
  5
35E
100
AcDbSymbolTableRecord
100
AcDbTextStyleTableRecord
  2
BOX
 70
         0
 40
1.0
 41
1.0
 50
0.0
 71
         0
 42
0.2
  3
txt.shx
  4

  0
STYLE
  5
36C
100
AcDbSymbolTableRecord
100
AcDbTextStyleTableRecord
  2
BOX
 70
         0
 40
1.0
 41
1.0
 50
0.0
 71
         0
 42
0.2
  3
txt.shx
  4

  0
STYLE
  5
380
100
AcDbSymbolTableRecord
100
AcDbTextStyleTableRecord
  2
BOX
 70
         0
 40
1.0
 41
1.0
 50
0.0
 71
         0
 42
0.2
  3
txt.shx
  4

  0
STYLE
  5
3D2
100
AcDbSymbolTableRecord
100
AcDbTextStyleTableRecord
  2
BOX
 70
         0
 40
1.0
 41
1.0
 50
0.0
 71
         0
 42
0.2
  3
txt.shx
  4

  0
STYLE
  5
44E
100
AcDbSymbolTableRecord
100
AcDbTextStyleTableRecord
  2
BOX
 70
         0
 40
1.0
 41
1.0
 50
0.0
 71
         0
 42
0.2
  3
txt.shx
  4

  0
STYLE
  5
451
100
AcDbSymbolTableRecord
100
AcDbTextStyleTableRecord
  2
BOX
 70
         0
 40
1.0
 41
1.0
 50
0.0
 71
         0
 42
0.2
  3
txt.shx
  4

  0
ENDTAB
  0
TABLE
  2
VIEW
  5
5
100
AcDbSymbolTable
 70
         0
  0
ENDTAB
  0
TABLE
  2
UCS
  5
6
100
AcDbSymbolTable
 70
         1
  0
UCS
  5
20
100
AcDbSymbolTableRecord
100
AcDbUCSTableRecord
  2
CK_VIEW_1
 70
         0
 10
0.0
 20
0.0
 30
1.0
 11
1.0
 21
0.0
 31
0.0
 12
0.0
 22
1.0
 32
0.0
  0
ENDTAB
  0
TABLE
  2
APPID
  5
8
100
AcDbSymbolTable
 70
         1
  0
APPID
  5
16
100
AcDbSymbolTableRecord
100
AcDbRegAppTableRecord
  2
ACAD
 70
         0
  0
ENDTAB
  0
TABLE
  2
DIMSTYLE
  5
9
100
AcDbSymbolTable
 70
         2
  0
DIMSTYLE
105
18
100
AcDbSymbolTableRecord
100
AcDbDimStyleTableRecord
  2
STANDARD
 70
         0
  3

  4

  5

  6

  7

 40
1.0
 41
0.18
 42
0.0625
 43
0.38
 44
0.18
 45
0.0
 46
0.0
 47
0.0
 48
0.0
 71
         0
 72
         0
 73
         1
 74
         1
 75
         0
 76
         0
 77
         0
 78
         0
140
0.18
141
0.09
142
0.0
143
25.4
144
1.0
145
0.0
146
1.0
147
0.09
170
         0
171
         2
172
         0
173
         0
174
         0
175
         0
176
         0
177
         0
178
         0
270
         2
271
         4
272
         4
273
         2
274
         2
275
         0
280
         0
281
         0
282
         0
283
         1
284
         0
285
         0
286
         0
287
         0
288
         0
340
17
  0
DIMSTYLE
105
15D
100
AcDbSymbolTableRecord
100
AcDbDimStyleTableRecord
  2
DIMSTYLE1
 70
         0
  3

  4

  5

  6

  7

 40
1.0
 41
2.7
 42
0.0625
 43
0.38
 44
2.7
 45
0.0
 46
0.0
 47
0.0
 48
0.0
 71
         0
 72
         0
 73
         1
 74
         1
 75
         0
 76
         0
 77
         0
 78
         0
140
2.7
141
0.09
142
0.0
143
25.4
144
1.0
145
0.0
146
1.0
147
0.09
170
         0
171
         2
172
         0
173
         0
174
         0
175
         0
176
         0
177
         0
178
         0
270
         2
271
         4
272
         4
273
         2
274
         2
275
         0
280
         0
281
         0
282
         0
283
         1
284
         0
285
         0
286
         0
287
         0
288
         0
340
17
  0
ENDTAB
  0
TABLE
  2
BLOCK_RECORD
  5
1
100
AcDbSymbolTable
 70
        19
  0
BLOCK_RECORD
  5
A
100
AcDbSymbolTableRecord
100
AcDbBlockTableRecord
  2
*MODEL_SPACE
  0
BLOCK_RECORD
  5
B
100
AcDbSymbolTableRecord
100
AcDbBlockTableRecord
  2
*PAPER_SPACE
  0
BLOCK_RECORD
  5
15E
100
AcDbSymbolTableRecord
100
AcDbBlockTableRecord
  2
*D0
  0
BLOCK_RECORD
  5
16D
100
AcDbSymbolTableRecord
100
AcDbBlockTableRecord
  2
*D1
  0
BLOCK_RECORD
  5
25E
100
AcDbSymbolTableRecord
100
AcDbBlockTableRecord
  2
*D2
  0
BLOCK_RECORD
  5
26E
100
AcDbSymbolTableRecord
100
AcDbBlockTableRecord
  2
*D3
  0
BLOCK_RECORD
  5
27E
100
AcDbSymbolTableRecord
100
AcDbBlockTableRecord
  2
*D4
  0
BLOCK_RECORD
  5
28C
100
AcDbSymbolTableRecord
100
AcDbBlockTableRecord
  2
*D5
  0
BLOCK_RECORD
  5
29C
100
AcDbSymbolTableRecord
100
AcDbBlockTableRecord
  2
*D6
  0
BLOCK_RECORD
  5
2B8
100
AcDbSymbolTableRecord
100
AcDbBlockTableRecord
  2
*D7
  0
BLOCK_RECORD
  5
2C6
100
AcDbSymbolTableRecord
100
AcDbBlockTableRecord
  2
*D8
  0
BLOCK_RECORD
  5
2ED
100
AcDbSymbolTableRecord
100
AcDbBlockTableRecord
  2
*D9
  0
BLOCK_RECORD
  5
300
100
AcDbSymbolTableRecord
100
AcDbBlockTableRecord
  2
*D10
  0
BLOCK_RECORD
  5
334
100
AcDbSymbolTableRecord
100
AcDbBlockTableRecord
  2
*D11
  0
BLOCK_RECORD
  5
344
100
AcDbSymbolTableRecord
100
AcDbBlockTableRecord
  2
*D12
  0
BLOCK_RECORD
  5
352
100
AcDbSymbolTableRecord
100
AcDbBlockTableRecord
  2
*D13
  0
BLOCK_RECORD
  5
361
100
AcDbSymbolTableRecord
100
AcDbBlockTableRecord
  2
*D14
  0
BLOCK_RECORD
  5
375
100
AcDbSymbolTableRecord
100
AcDbBlockTableRecord
  2
*D15
  0
BLOCK_RECORD
  5
3C7
100
AcDbSymbolTableRecord
100
AcDbBlockTableRecord
  2
*D16
  0
BLOCK_RECORD
  5
3D5
100
AcDbSymbolTableRecord
100
AcDbBlockTableRecord
  2
*X17
  0
BLOCK_RECORD
  5
443
100
AcDbSymbolTableRecord
100
AcDbBlockTableRecord
  2
*D18
  0
ENDTAB
  0
ENDSEC
  0
SECTION
  2
BLOCKS
  0
BLOCK
  5
D
100
AcDbEntity
  8
0
100
AcDbBlockBegin
  2
*MODEL_SPACE
 70
         0
 10
0.0
 20
0.0
 30
0.0
  3
*MODEL_SPACE
  1

  0
ENDBLK
  5
E
100
AcDbEntity
  8
0
100
AcDbBlockEnd
  0
BLOCK
  5
F
100
AcDbEntity
 67
         1
  8
0
100
AcDbBlockBegin
  2
*PAPER_SPACE
 70
         0
 10
0.0
 20
0.0
 30
0.0
  3
*PAPER_SPACE
  1

  0
ENDBLK
  5
10
100
AcDbEntity
 67
         1
  8
0
100
AcDbBlockEnd
  0
BLOCK
  5
15F
100
AcDbEntity
  8
0
100
AcDbBlockBegin
  2
*D0
 70
        65
 10
0.0
 20
0.0
 30
0.0
  3
*D0
  1

  0
POINT
  5
162
100
AcDbEntity
  8
DEFPOINTS
  6
CONTINUOUS
 62
         0
100
AcDbPoint
 10
436.8111532632
 20
414.4780438179
 30
0.0
  0
POINT
  5
163
100
AcDbEntity
  8
DEFPOINTS
  6
CONTINUOUS
 62
         0
100
AcDbPoint
 10
436.8111532632
 20
327.0391470708
 30
0.0
  0
POINT
  5
164
100
AcDbEntity
  8
DEFPOINTS
  6
CONTINUOUS
 62
         0
100
AcDbPoint
 10
263.4111532632
 20
324.0164537872
 30
0.0
  0
LINE
  5
165
100
AcDbEntity
  8
______
  6
CONTINUOUS
 62
         4
100
AcDbLine
 10
436.8111532632
 20
328.3891470708
 30
0.0
 11
436.8111532632
 21
415.1530438179
 31
0.0
  0
LINE
  5
166
100
AcDbEntity
  8
______
  6
CONTINUOUS
 62
         4
100
AcDbLine
 10
263.4111532632
 20
325.3664537872
 30
0.0
 11
263.4111532632
 21
415.1530438179
 31
0.0
  0
LINE
  5
167
100
AcDbEntity
  8
______
  6
CONTINUOUS
 62
         4
100
AcDbLine
 10
436.8111532632
 20
414.4780438179
 30
0.0
 11
263.4111532632
 21
414.4780438179
 31
0.0
  0
SOLID
  5
168
100
AcDbEntity
  8
______
  6
CONTINUOUS
 62
         4
100
AcDbTrace
 10
436.8111532632
 20
414.4780438179
 30
0.0
 11
434.1111532632
 21
414.0730438179
 31
0.0
 12
434.1111532632
 22
414.8830438179
 32
0.0
 13
436.8111532632
 23
414.4780438179
 33
0.0
  0
SOLID
  5
169
100
AcDbEntity
  8
______
  6
CONTINUOUS
 62
         4
100
AcDbTrace
 10
263.4111532632
 20
414.4780438179
 30
0.0
 11
266.1111532632
 21
414.8830438179
 31
0.0
 12
266.1111532632
 22
414.0730438179
 32
0.0
 13
263.4111532632
 23
414.4780438179
 33
0.0
  0
TEXT
  5
16B
100
AcDbEntity
  8
______
  6
CONTINUOUS
 62
         4
100
AcDbText
 10
341.4086145586
 20
416.5030438179
 30
0.0
 40
2.7
  1
173.25
  7
BOX
100
AcDbText
  0
ENDBLK
  5
16C
100
AcDbEntity
  8
0
  6
CONTINUOUS
100
AcDbBlockEnd
  0
BLOCK
  5
16E
100
AcDbEntity
  8
0
100
AcDbBlockBegin
  2
*D1
 70
        65
 10
0.0
 20
0.0
 30
0.0
  3
*D1
  1

  0
POINT
  5
170
100
AcDbEntity
  8
DEFPOINTS
  6
CONTINUOUS
 62
         0
100
AcDbPoint
 10
331.8111532632
 20
403.5102075986
 30
0.0
  0
POINT
  5
171
100
AcDbEntity
  8
DEFPOINTS
  6
CONTINUOUS
 62
         0
100
AcDbPoint
 10
331.8111532632
 20
335.0291470708
 30
0.0
  0
POINT
  5
172
100
AcDbEntity
  8
DEFPOINTS
  6
CONTINUOUS
 62
         0
100
AcDbPoint
 10
436.8111532632
 20
327.0391470708
 30
0.0
  0
LINE
  5
173
100
AcDbEntity
  8
______
  6
CONTINUOUS
 62
         4
100
AcDbLine
 10
331.8111532632
 20
336.3791470708
 30
0.0
 11
331.8111532632
 21
404.1852075986
 31
0.0
  0
LINE
  5
174
100
AcDbEntity
  8
______
  6
CONTINUOUS
 62
         4
100
AcDbLine
 10
436.8111532632
 20
328.3891470708
 30
0.0
 11
436.8111532632
 21
404.1852075986
 31
0.0
  0
LINE
  5
175
100
AcDbEntity
  8
______
  6
CONTINUOUS
 62
         4
100
AcDbLine
 10
331.8111532632
 20
403.5102075986
 30
0.0
 11
436.8111532632
 21
403.5102075986
 31
0.0
  0
SOLID
  5
176
100
AcDbEntity
  8
______
  6
CONTINUOUS
 62
         4
100
AcDbTrace
 10
331.8111532632
 20
403.5102075986
 30
0.0
 11
334.5111532632
 21
403.9152075986
 31
0.0
 12
334.5111532632
 22
403.1052075986
 32
0.0
 13
331.8111532632
 23
403.5102075986
 33
0.0
  0
SOLID
  5
177
100
AcDbEntity
  8
______
  6
CONTINUOUS
 62
         4
100
AcDbTrace
 10
436.8111532632
 20
403.5102075986
 30
0.0
 11
434.1111532632
 21
403.1052075986
 31
0.0
 12
434.1111532632
 22
403.9152075986
 32
0.0
 13
436.8111532632
 23
403.5102075986
 33
0.0
  0
TEXT
  5
179
100
AcDbEntity
  8
______
  6
CONTINUOUS
 62
         4
100
AcDbText
 10
380.2611532632
 20
405.5352075986
 30
0.0
 40
2.7
  1
105
  7
BOX
100
AcDbText
  0
ENDBLK
  5
17A
100
AcDbEntity
  8
0
  6
CONTINUOUS
100
AcDbBlockEnd
  0
BLOCK
  5
25F
100
AcDbEntity
  8
0
100
AcDbBlockBegin
  2
*D2
 70
        65
 10
0.0
 20
0.0
 30
0.0
  3
*D2
  1

  0
POINT
  5
261
100
AcDbEntity
  8
DEFPOINTS
  6
CONTINUOUS
 62
         0
100
AcDbPoint
 10
395.5601490278
 20
328.3441470708
 30
0.0
  0
POINT
  5
262
100
AcDbEntity
  8
DEFPOINTS
  6
CONTINUOUS
 62
         0
100
AcDbPoint
 10
414.1622902252
 20
328.3441470708
 30
0.0
  0
POINT
  5
263
100
AcDbEntity
  8
DEFPOINTS
  6
CONTINUOUS
 62
         0
100
AcDbPoint
 10
391.9611532632
 20
328.3910420661
 30
0.0
  0
POINT
  5
264
100
AcDbEntity
  8
DEFPOINTS
  6
CONTINUOUS
 62
         0
100
AcDbPoint
 10
440.8021532632
 20
327.6275759102
 30
0.0
  0
ARC
  5
265
100
AcDbEntity
  8
______
  6
CONTINUOUS
 62
         4
100
AcDbCircle
 10
394.9611532633
 20
328.3441470708
 30
0.0
 40
3.1751562544
100
AcDbArc
 50
261.6613001064
 51
359.1044445
  0
SOLID
  5
266
100
AcDbEntity
  8
______
  6
CONTINUOUS
 62
         4
100
AcDbTrace
 10
398.1359216657
 20
328.2945201543
 30
0.0
 11
397.3834567373
 21
325.6700542026
 31
0.0
 12
396.6465580931
 22
326.0063284778
 32
0.0
 13
398.1359216657
 23
328.2945201543
 33
0.0
  0
ARC
  5
267
100
AcDbEntity
  8
______
  6
CONTINUOUS
 62
         4
100
AcDbCircle
 10
394.9611532633
 20
328.3441470708
 30
0.0
 40
3.1751562544
100
AcDbArc
 50
0.0
 51
41.0331071833
  0
SOLID
  5
268
100
AcDbEntity
  8
______
  6
CONTINUOUS
 62
         4
100
AcDbTrace
 10
398.1363095177
 20
328.3441470708
 30
0.0
 11
396.6828917508
 21
330.6553376287
 31
0.0
 12
397.4249562661
 22
330.9800532814
 32
0.0
 13
398.1363095177
 23
328.3441470708
 33
0.0
  0
ARC
  5
269
100
AcDbEntity
  8
______
  6
CONTINUOUS
 62
         4
100
AcDbCircle
 10
394.9611532633
 20
328.3441470708
 30
0.0
 40
3.1751562544
100
AcDbArc
 50
359.1044445
 51
360.0
  0
SOLID
  5
26A
100
AcDbEntity
  8
______
  6
CONTINUOUS
 62
         4
100
AcDbTrace
 10
394.9611532633
 20
328.3441470708
 30
0.0
 11
396.0349067057
 21
330.8543419925
 31
0.0
 12
396.7241385606
 22
330.4288311815
 32
0.0
 13
394.9611532633
 23
328.3441470708
 33
0.0
  0
TEXT
  5
26C
100
AcDbEntity
  8
______
  6
CONTINUOUS
 62
         4
100
AcDbText
 10
398.7062700367
 20
331.7786213166
 30
0.0
 40
2.7
  1
0%%d 53'44"
  7
BOX
100
AcDbText
  0
ENDBLK
  5
26D
100
AcDbEntity
  8
0
  6
CONTINUOUS
100
AcDbBlockEnd
  0
BLOCK
  5
26F
100
AcDbEntity
  8
0
100
AcDbBlockBegin
  2
*D3
 70
        65
 10
0.0
 20
0.0
 30
0.0
  3
*D3
  1

  0
POINT
  5
271
100
AcDbEntity
  8
DEFPOINTS
  6
CONTINUOUS
 62
         0
100
AcDbPoint
 10
394.9611532632
 20
352.1262216375
 30
0.0
  0
POINT
  5
272
100
AcDbEntity
  8
DEFPOINTS
  6
CONTINUOUS
 62
         0
100
AcDbPoint
 10
394.9611532632
 20
328.3441470708
 30
0.0
  0
POINT
  5
273
100
AcDbEntity
  8
DEFPOINTS
  6
CONTINUOUS
 62
         0
100
AcDbPoint
 10
391.9611532632
 20
336.3041470708
 30
0.0
  0
LINE
  5
274
100
AcDbEntity
  8
______
  6
CONTINUOUS
 62
         4
100
AcDbLine
 10
394.9611532632
 20
329.6941470708
 30
0.0
 11
394.9611532632
 21
352.8012216375
 31
0.0
  0
LINE
  5
275
100
AcDbEntity
  8
______
  6
CONTINUOUS
 62
         4
100
AcDbLine
 10
391.9611532632
 20
337.6541470708
 30
0.0
 11
391.9611532632
 21
352.8012216375
 31
0.0
  0
LINE
  5
276
100
AcDbEntity
  8
______
  6
CONTINUOUS
 62
         4
100
AcDbLine
 10
394.9611532632
 20
352.1262216375
 30
0.0
 11
400.5698755976
 21
352.1262216375
 31
0.0
  0
SOLID
  5
277
100
AcDbEntity
  8
______
  6
CONTINUOUS
 62
         4
100
AcDbTrace
 10
394.9611532632
 20
352.1262216375
 30
0.0
 11
397.6611532632
 21
352.5312216375
 31
0.0
 12
397.6611532632
 22
351.7212216375
 32
0.0
 13
394.9611532632
 23
352.1262216375
 33
0.0
  0
LINE
  5
278
100
AcDbEntity
  8
______
  6
CONTINUOUS
 62
         4
100
AcDbLine
 10
391.9611532632
 20
352.1262216375
 30
0.0
 11
386.5611532632
 21
352.1262216375
 31
0.0
  0
SOLID
  5
279
100
AcDbEntity
  8
______
  6
CONTINUOUS
 62
         4
100
AcDbTrace
 10
391.9611532632
 20
352.1262216375
 30
0.0
 11
389.2611532632
 21
351.7212216375
 31
0.0
 12
389.2611532632
 22
352.5312216375
 32
0.0
 13
391.9611532632
 23
352.1262216375
 33
0.0
  0
LINE
  5
27A
100
AcDbEntity
  8
______
  6
CONTINUOUS
 62
         4
100
AcDbLine
 10
394.9611532632
 20
352.1262216375
 30
0.0
 11
391.9611532632
 21
352.1262216375
 31
0.0
  0
TEXT
  5
27C
100
AcDbEntity
  8
______
  6
CONTINUOUS
 62
         4
100
AcDbText
 10
396.5198755976
 20
354.1512216375
 30
0.0
 40
2.7
  1
3
  7
BOX
100
AcDbText
  0
ENDBLK
  5
27D
100
AcDbEntity
  8
0
  6
CONTINUOUS
100
AcDbBlockEnd
  0
BLOCK
  5
27F
100
AcDbEntity
  8
0
100
AcDbBlockBegin
  2
*D4
 70
        65
 10
0.0
 20
0.0
 30
0.0
  3
*D4
  1

  0
POINT
  5
281
100
AcDbEntity
  8
DEFPOINTS
  6
CONTINUOUS
 62
         0
100
AcDbPoint
 10
391.9611532632
 20
359.5427468189
 30
0.0
  0
POINT
  5
282
100
AcDbEntity
  8
DEFPOINTS
  6
CONTINUOUS
 62
         0
100
AcDbPoint
 10
391.9611532632
 20
336.3041470708
 30
0.0
  0
POINT
  5
283
100
AcDbEntity
  8
DEFPOINTS
  6
CONTINUOUS
 62
         0
100
AcDbPoint
 10
436.8111532632
 20
326.8541470708
 30
0.0
  0
LINE
  5
284
100
AcDbEntity
  8
______
  6
CONTINUOUS
 62
         4
100
AcDbLine
 10
391.9611532632
 20
337.6541470708
 30
0.0
 11
391.9611532632
 21
360.2177468189
 31
0.0
  0
LINE
  5
285
100
AcDbEntity
  8
______
  6
CONTINUOUS
 62
         4
100
AcDbLine
 10
436.8111532632
 20
328.2041470708
 30
0.0
 11
436.8111532632
 21
360.2177468189
 31
0.0
  0
LINE
  5
286
100
AcDbEntity
  8
______
  6
CONTINUOUS
 62
         4
100
AcDbLine
 10
391.9611532632
 20
359.5427468189
 30
0.0
 11
436.8111532632
 21
359.5427468189
 31
0.0
  0
SOLID
  5
287
100
AcDbEntity
  8
______
  6
CONTINUOUS
 62
         4
100
AcDbTrace
 10
391.9611532632
 20
359.5427468189
 30
0.0
 11
394.6611532632
 21
359.9477468189
 31
0.0
 12
394.6611532632
 22
359.1377468189
 32
0.0
 13
391.9611532632
 23
359.5427468189
 33
0.0
  0
SOLID
  5
288
100
AcDbEntity
  8
______
  6
CONTINUOUS
 62
         4
100
AcDbTrace
 10
436.8111532632
 20
359.5427468189
 30
0.0
 11
434.1111532632
 21
359.1377468189
 31
0.0
 12
434.1111532632
 22
359.9477468189
 32
0.0
 13
436.8111532632
 23
359.5427468189
 33
0.0
  0
TEXT
  5
28A
100
AcDbEntity
  8
______
  6
CONTINUOUS
 62
         4
100
AcDbText
 10
407.6361532632
 20
361.5677468189
 30
0.0
 40
2.7
  1
44.85
  7
BOX
100
AcDbText
  0
ENDBLK
  5
28B
100
AcDbEntity
  8
0
  6
CONTINUOUS
100
AcDbBlockEnd
  0
BLOCK
  5
28D
100
AcDbEntity
  8
0
100
AcDbBlockBegin
  2
*D5
 70
        65
 10
0.0
 20
0.0
 30
0.0
  3
*D5
  1

  0
POINT
  5
28F
100
AcDbEntity
  8
DEFPOINTS
  6
CONTINUOUS
 62
         0
100
AcDbPoint
 10
433.7921532632
 20
355.3406757066
 30
0.0
  0
POINT
  5
290
100
AcDbEntity
  8
DEFPOINTS
  6
CONTINUOUS
 62
         0
100
AcDbPoint
 10
433.7921532632
 20
326.8074807422
 30
0.0
  0
POINT
  5
291
100
AcDbEntity
  8
DEFPOINTS
  6
CONTINUOUS
 62
         0
100
AcDbPoint
 10
436.8111532632
 20
326.1541470708
 30
0.0
  0
LINE
  5
292
100
AcDbEntity
  8
______
  6
CONTINUOUS
 62
         4
100
AcDbLine
 10
433.7921532632
 20
328.1574807422
 30
0.0
 11
433.7921532632
 21
356.0156757066
 31
0.0
  0
LINE
  5
293
100
AcDbEntity
  8
______
  6
CONTINUOUS
 62
         4
100
AcDbLine
 10
436.8111532632
 20
327.5041470708
 30
0.0
 11
436.8111532632
 21
356.0156757066
 31
0.0
  0
LINE
  5
294
100
AcDbEntity
  8
______
  6
CONTINUOUS
 62
         4
100
AcDbLine
 10
433.7921532632
 20
355.3406757066
 30
0.0
 11
428.3921532632
 21
355.3406757066
 31
0.0
  0
SOLID
  5
295
100
AcDbEntity
  8
______
  6
CONTINUOUS
 62
         4
100
AcDbTrace
 10
433.7921532632
 20
355.3406757066
 30
0.0
 11
431.0921532632
 21
354.9356757066
 31
0.0
 12
431.0921532632
 22
355.7456757066
 32
0.0
 13
433.7921532632
 23
355.3406757066
 33
0.0
  0
LINE
  5
296
100
AcDbEntity
  8
______
  6
CONTINUOUS
 62
         4
100
AcDbLine
 10
436.8111532632
 20
355.3406757066
 30
0.0
 11
443.5149819607
 21
355.3406757066
 31
0.0
  0
SOLID
  5
297
100
AcDbEntity
  8
______
  6
CONTINUOUS
 62
         4
100
AcDbTrace
 10
436.8111532632
 20
355.3406757066
 30
0.0
 11
439.5111532632
 21
355.7456757066
 31
0.0
 12
439.5111532632
 22
354.9356757066
 32
0.0
 13
436.8111532632
 23
355.3406757066
 33
0.0
  0
LINE
  5
298
100
AcDbEntity
  8
______
  6
CONTINUOUS
 62
         4
100
AcDbLine
 10
433.7921532632
 20
355.3406757066
 30
0.0
 11
436.8111532632
 21
355.3406757066
 31
0.0
  0
TEXT
  5
29A
100
AcDbEntity
  8
______
  6
CONTINUOUS
 62
         4
100
AcDbText
 10
439.4649819607
 20
357.3656757066
 30
0.0
 40
2.7
  1
3
  7
BOX
100
AcDbText
  0
ENDBLK
  5
29B
100
AcDbEntity
  8
0
  6
CONTINUOUS
100
AcDbBlockEnd
  0
BLOCK
  5
29D
100
AcDbEntity
  8
0
100
AcDbBlockBegin
  2
*D6
 70
        65
 10
0.0
 20
0.0
 30
0.0
  3
*D6
  1

  0
POINT
  5
29F
100
AcDbEntity
  8
DEFPOINTS
  6
CONTINUOUS
 62
         0
100
AcDbPoint
 10
434.2871532632
 20
350.5213688682
 30
0.0
  0
POINT
  5
2A0
100
AcDbEntity
  8
DEFPOINTS
  6
CONTINUOUS
 62
         0
100
AcDbPoint
 10
434.2871532632
 20
326.1541470708
 30
0.0
  0
POINT
  5
2A1
100
AcDbEntity
  8
DEFPOINTS
  6
CONTINUOUS
 62
         0
100
AcDbPoint
 10
435.8881532632
 20
326.1541470708
 30
0.0
  0
LINE
  5
2A2
100
AcDbEntity
  8
______
  6
CONTINUOUS
 62
         4
100
AcDbLine
 10
434.2871532632
 20
327.5041470708
 30
0.0
 11
434.2871532632
 21
351.1963688682
 31
0.0
  0
LINE
  5
2A3
100
AcDbEntity
  8
______
  6
CONTINUOUS
 62
         4
100
AcDbLine
 10
435.8881532632
 20
327.5041470708
 30
0.0
 11
435.8881532632
 21
351.1963688682
 31
0.0
  0
LINE
  5
2A4
100
AcDbEntity
  8
______
  6
CONTINUOUS
 62
         4
100
AcDbLine
 10
434.2871532632
 20
350.5213688682
 30
0.0
 11
418.5793905044
 21
350.5213688682
 31
0.0
  0
SOLID
  5
2A5
100
AcDbEntity
  8
______
  6
CONTINUOUS
 62
         4
100
AcDbTrace
 10
434.2871532632
 20
350.5213688682
 30
0.0
 11
431.5871532632
 21
350.1163688682
 31
0.0
 12
431.5871532632
 22
350.9263688682
 32
0.0
 13
434.2871532632
 23
350.5213688682
 33
0.0
  0
LINE
  5
2A6
100
AcDbEntity
  8
______
  6
CONTINUOUS
 62
         4
100
AcDbLine
 10
435.8881532632
 20
350.5213688682
 30
0.0
 11
441.2881532632
 21
350.5213688682
 31
0.0
  0
SOLID
  5
2A7
100
AcDbEntity
  8
______
  6
CONTINUOUS
 62
         4
100
AcDbTrace
 10
435.8881532632
 20
350.5213688682
 30
0.0
 11
438.5881532632
 21
350.9263688682
 31
0.0
 12
438.5881532632
 22
350.1163688682
 32
0.0
 13
435.8881532632
 23
350.5213688682
 33
0.0
  0
LINE
  5
2A8
100
AcDbEntity
  8
______
  6
CONTINUOUS
 62
         4
100
AcDbLine
 10
434.2871532632
 20
350.5213688682
 30
0.0
 11
435.8881532632
 21
350.5213688682
 31
0.0
  0
TEXT
  5
2AA
100
AcDbEntity
  8
______
  6
CONTINUOUS
 62
         4
100
AcDbText
 10
419.9293905044
 20
352.5463688682
 30
0.0
 40
2.7
  1
1.5
  7
BOX
100
AcDbText
  0
ENDBLK
  5
2AB
100
AcDbEntity
  8
0
  6
CONTINUOUS
100
AcDbBlockEnd
  0
BLOCK
  5
2B9
100
AcDbEntity
  8
0
100
AcDbBlockBegin
  2
*D7
 70
        65
 10
0.0
 20
0.0
 30
0.0
  3
*D7
  1

  0
POINT
  5
2BB
100
AcDbEntity
  8
DEFPOINTS
  6
CONTINUOUS
 62
         0
100
AcDbPoint
 10
450.6410460908
 20
326.2041470708
 30
0.0
  0
POINT
  5
2BC
100
AcDbEntity
  8
DEFPOINTS
  6
CONTINUOUS
 62
         0
100
AcDbPoint
 10
435.6881532632
 20
326.2041470708
 30
0.0
  0
POINT
  5
2BD
100
AcDbEntity
  8
DEFPOINTS
  6
CONTINUOUS
 62
         0
100
AcDbPoint
 10
435.6881532632
 20
299.4041470708
 30
0.0
  0
LINE
  5
2BE
100
AcDbEntity
  8
______
  6
CONTINUOUS
 62
         4
100
AcDbLine
 10
437.0381532632
 20
326.2041470708
 30
0.0
 11
451.3160460908
 21
326.2041470708
 31
0.0
  0
LINE
  5
2BF
100
AcDbEntity
  8
______
  6
CONTINUOUS
 62
         4
100
AcDbLine
 10
437.0381532632
 20
299.4041470708
 30
0.0
 11
451.3160460908
 21
299.4041470708
 31
0.0
  0
LINE
  5
2C0
100
AcDbEntity
  8
______
  6
CONTINUOUS
 62
         4
100
AcDbLine
 10
450.6410460908
 20
326.2041470708
 30
0.0
 11
450.6410460908
 21
299.4041470708
 31
0.0
  0
SOLID
  5
2C1
100
AcDbEntity
  8
______
  6
CONTINUOUS
 62
         4
100
AcDbTrace
 10
450.6410460908
 20
326.2041470708
 30
0.0
 11
451.0460460908
 21
323.5041470708
 31
0.0
 12
450.2360460908
 22
323.5041470708
 32
0.0
 13
450.6410460908
 23
326.2041470708
 33
0.0
  0
SOLID
  5
2C2
100
AcDbEntity
  8
______
  6
CONTINUOUS
 62
         4
100
AcDbTrace
 10
450.6410460908
 20
299.4041470708
 30
0.0
 11
450.2360460908
 21
302.1041470708
 31
0.0
 12
451.0460460908
 22
302.1041470708
 32
0.0
 13
450.6410460908
 23
299.4041470708
 33
0.0
  0
TEXT
  5
2C4
100
AcDbEntity
  8
______
  6
CONTINUOUS
 62
         4
100
AcDbText
 10
448.6160460908
 20
302.6397072741
 30
0.0
 40
2.7
  1
26.8
 50
90.0
  7
BOX
100
AcDbText
  0
ENDBLK
  5
2C5
100
AcDbEntity
  8
0
  6
CONTINUOUS
100
AcDbBlockEnd
  0
BLOCK
  5
2C7
100
AcDbEntity
  8
0
100
AcDbBlockBegin
  2
*D8
 70
        65
 10
0.0
 20
0.0
 30
0.0
  3
*D8
  1

  0
POINT
  5
2C9
100
AcDbEntity
  8
DEFPOINTS
  6
CONTINUOUS
 62
         0
100
AcDbPoint
 10
457.70870565
 20
298.5541470708
 30
0.0
  0
POINT
  5
2CA
100
AcDbEntity
  8
DEFPOINTS
  6
CONTINUOUS
 62
         0
100
AcDbPoint
 10
436.0881532632
 20
298.5541470708
 30
0.0
  0
POINT
  5
2CB
100
AcDbEntity
  8
DEFPOINTS
  6
CONTINUOUS
 62
         0
100
AcDbPoint
 10
436.0881532632
 20
327.0541470708
 30
0.0
  0
LINE
  5
2CC
100
AcDbEntity
  8
______
  6
CONTINUOUS
 62
         4
100
AcDbLine
 10
437.4381532632
 20
298.5541470708
 30
0.0
 11
458.38370565
 21
298.5541470708
 31
0.0
  0
LINE
  5
2CD
100
AcDbEntity
  8
______
  6
CONTINUOUS
 62
         4
100
AcDbLine
 10
437.4381532632
 20
327.0541470708
 30
0.0
 11
458.38370565
 21
327.0541470708
 31
0.0
  0
LINE
  5
2CE
100
AcDbEntity
  8
______
  6
CONTINUOUS
 62
         4
100
AcDbLine
 10
457.70870565
 20
298.5541470708
 30
0.0
 11
457.70870565
 21
327.0541470708
 31
0.0
  0
SOLID
  5
2CF
100
AcDbEntity
  8
______
  6
CONTINUOUS
 62
         4
100
AcDbTrace
 10
457.70870565
 20
298.5541470708
 30
0.0
 11
457.30370565
 21
301.2541470708
 31
0.0
 12
458.11370565
 22
301.2541470708
 32
0.0
 13
457.70870565
 23
298.5541470708
 33
0.0
  0
SOLID
  5
2D0
100
AcDbEntity
  8
______
  6
CONTINUOUS
 62
         4
100
AcDbTrace
 10
457.70870565
 20
327.0541470708
 30
0.0
 11
458.11370565
 21
324.3541470708
 31
0.0
 12
457.30370565
 22
324.3541470708
 32
0.0
 13
457.70870565
 23
327.0541470708
 33
0.0
  0
TEXT
  5
2D2
100
AcDbEntity
  8
______
  6
CONTINUOUS
 62
         4
100
AcDbText
 10
455.68370565
 20
301.3709120075
 30
0.0
 40
2.7
  1
28.5
 50
90.0
  7
BOX
100
AcDbText
  0
ENDBLK
  5
2D3
100
AcDbEntity
  8
0
  6
CONTINUOUS
100
AcDbBlockEnd
  0
BLOCK
  5
2EE
100
AcDbEntity
  8
0
100
AcDbBlockBegin
  2
*D9
 70
        65
 10
0.0
 20
0.0
 30
0.0
  3
*D9
  1

  0
POINT
  5
2F0
100
AcDbEntity
  8
DEFPOINTS
  6
CONTINUOUS
 62
         0
100
AcDbPoint
 10
401.3767827634
 20
328.3441470708
 30
0.0
  0
POINT
  5
2F1
100
AcDbEntity
  8
DEFPOINTS
  6
CONTINUOUS
 62
         0
100
AcDbPoint
 10
394.9611532632
 20
328.3441470708
 30
0.0
  0
POINT
  5
2F2
100
AcDbEntity
  8
DEFPOINTS
  6
CONTINUOUS
 62
         0
100
AcDbPoint
 10
394.9611532632
 20
297.2641470708
 30
0.0
  0
LINE
  5
2F3
100
AcDbEntity
  8
______
  6
CONTINUOUS
 62
         4
100
AcDbLine
 10
396.3111532632
 20
328.3441470708
 30
0.0
 11
402.0517827634
 21
328.3441470708
 31
0.0
  0
LINE
  5
2F4
100
AcDbEntity
  8
______
  6
CONTINUOUS
 62
         4
100
AcDbLine
 10
396.3111532632
 20
297.2641470708
 30
0.0
 11
402.0517827634
 21
297.2641470708
 31
0.0
  0
LINE
  5
2F5
100
AcDbEntity
  8
______
  6
CONTINUOUS
 62
         4
100
AcDbLine
 10
401.3767827634
 20
328.3441470708
 30
0.0
 11
401.3767827634
 21
297.2641470708
 31
0.0
  0
SOLID
  5
2F6
100
AcDbEntity
  8
______
  6
CONTINUOUS
 62
         4
100
AcDbTrace
 10
401.3767827634
 20
328.3441470708
 30
0.0
 11
401.7817827634
 21
325.6441470708
 31
0.0
 12
400.9717827634
 22
325.6441470708
 32
0.0
 13
401.3767827634
 23
328.3441470708
 33
0.0
  0
SOLID
  5
2F7
100
AcDbEntity
  8
______
  6
CONTINUOUS
 62
         4
100
AcDbTrace
 10
401.3767827634
 20
297.2641470708
 30
0.0
 11
400.9717827634
 21
299.9641470708
 31
0.0
 12
401.7817827634
 22
299.9641470708
 32
0.0
 13
401.3767827634
 23
297.2641470708
 33
0.0
  0
TEXT
  5
2F9
100
AcDbEntity
  8
______
  6
CONTINUOUS
 62
         4
100
AcDbText
 10
399.3517827634
 20
301.8619812636
 30
0.0
 40
2.7
  1
崷31.08
 50
90.0
  7
BOX
100
AcDbText
  0
ENDBLK
  5
2FA
100
AcDbEntity
  8
0
  6
CONTINUOUS
100
AcDbBlockEnd
  0
BLOCK
  5
301
100
AcDbEntity
  8
0
100
AcDbBlockBegin
  2
*D10
 70
        65
 10
0.0
 20
0.0
 30
0.0
  3
*D10
  1

  0
POINT
  5
303
100
AcDbEntity
  8
DEFPOINTS
  6
CONTINUOUS
 62
         0
100
AcDbPoint
 10
648.2344992287
 20
325.3541470708
 30
0.0
  0
POINT
  5
304
100
AcDbEntity
  8
DEFPOINTS
  6
CONTINUOUS
 62
         0
100
AcDbPoint
 10
585.6019451973
 20
325.3541470708
 30
0.0
  0
POINT
  5
305
100
AcDbEntity
  8
DEFPOINTS
  6
CONTINUOUS
 62
         0
100
AcDbPoint
 10
585.6019451973
 20
300.2541470708
 30
0.0
  0
LINE
  5
306
100
AcDbEntity
  8
______
  6
CONTINUOUS
 62
         4
100
AcDbLine
 10
586.9519451973
 20
325.3541470708
 30
0.0
 11
648.9094992287
 21
325.3541470708
 31
0.0
  0
LINE
  5
307
100
AcDbEntity
  8
______
  6
CONTINUOUS
 62
         4
100
AcDbLine
 10
586.9519451973
 20
300.2541470708
 30
0.0
 11
648.9094992287
 21
300.2541470708
 31
0.0
  0
LINE
  5
308
100
AcDbEntity
  8
______
  6
CONTINUOUS
 62
         4
100
AcDbLine
 10
648.2344992287
 20
325.3541470708
 30
0.0
 11
648.2344992287
 21
300.2541470708
 31
0.0
  0
SOLID
  5
309
100
AcDbEntity
  8
______
  6
CONTINUOUS
 62
         4
100
AcDbTrace
 10
648.2344992287
 20
325.3541470708
 30
0.0
 11
648.6394992287
 21
322.6541470708
 31
0.0
 12
647.8294992287
 22
322.6541470708
 32
0.0
 13
648.2344992287
 23
325.3541470708
 33
0.0
  0
SOLID
  5
30A
100
AcDbEntity
  8
______
  6
CONTINUOUS
 62
         4
100
AcDbTrace
 10
648.2344992287
 20
300.2541470708
 30
0.0
 11
647.8294992287
 21
302.9541470708
 31
0.0
 12
648.6394992287
 22
302.9541470708
 32
0.0
 13
648.2344992287
 23
300.2541470708
 33
0.0
  0
TEXT
  5
30C
100
AcDbEntity
  8
______
  6
CONTINUOUS
 62
         4
100
AcDbText
 10
646.2094992287
 20
302.9128528282
 30
0.0
 40
2.7
  1
25.1
 50
90.0
  7
BOX
100
AcDbText
  0
ENDBLK
  5
30D
100
AcDbEntity
  8
0
  6
CONTINUOUS
100
AcDbBlockEnd
  0
BLOCK
  5
335
100
AcDbEntity
  8
0
100
AcDbBlockBegin
  2
*D11
 70
        65
 10
0.0
 20
0.0
 30
0.0
  3
*D11
  1

  0
POINT
  5
337
100
AcDbEntity
  8
DEFPOINTS
  6
CONTINUOUS
 62
         0
100
AcDbPoint
 10
404.6549391986
 20
176.8575012522
 30
0.0
  0
POINT
  5
338
100
AcDbEntity
  8
DEFPOINTS
  6
CONTINUOUS
 62
         0
100
AcDbPoint
 10
391.9611532632
 20
176.8575012522
 30
0.0
  0
POINT
  5
339
100
AcDbEntity
  8
DEFPOINTS
  6
CONTINUOUS
 62
         0
100
AcDbPoint
 10
391.9611532632
 20
180.8575012522
 30
0.0
  0
LINE
  5
33A
100
AcDbEntity
  8
______
  6
CONTINUOUS
 62
         4
100
AcDbLine
 10
393.3111532632
 20
176.8575012522
 30
0.0
 11
405.3299391986
 21
176.8575012522
 31
0.0
  0
LINE
  5
33B
100
AcDbEntity
  8
______
  6
CONTINUOUS
 62
         4
100
AcDbLine
 10
393.3111532632
 20
180.8575012522
 30
0.0
 11
405.3299391986
 21
180.8575012522
 31
0.0
  0
LINE
  5
33C
100
AcDbEntity
  8
______
  6
CONTINUOUS
 62
         4
100
AcDbLine
 10
404.6549391986
 20
176.8575012522
 30
0.0
 11
404.6549391986
 21
166.1509941523
 31
0.0
  0
SOLID
  5
33D
100
AcDbEntity
  8
______
  6
CONTINUOUS
 62
         4
100
AcDbTrace
 10
404.6549391986
 20
176.8575012522
 30
0.0
 11
405.0599391986
 21
174.1575012522
 31
0.0
 12
404.2499391986
 22
174.1575012522
 32
0.0
 13
404.6549391986
 23
176.8575012522
 33
0.0
  0
LINE
  5
33E
100
AcDbEntity
  8
______
  6
CONTINUOUS
 62
         4
100
AcDbLine
 10
404.6549391986
 20
180.8575012522
 30
0.0
 11
404.6549391986
 21
186.2575012522
 31
0.0
  0
SOLID
  5
33F
100
AcDbEntity
  8
______
  6
CONTINUOUS
 62
         4
100
AcDbTrace
 10
404.6549391986
 20
180.8575012522
 30
0.0
 11
404.2499391986
 21
183.5575012522
 31
0.0
 12
405.0599391986
 22
183.5575012522
 32
0.0
 13
404.6549391986
 23
180.8575012522
 33
0.0
  0
LINE
  5
340
100
AcDbEntity
  8
______
  6
CONTINUOUS
 62
         4
100
AcDbLine
 10
404.6549391986
 20
176.8575012522
 30
0.0
 11
404.6549391986
 21
180.8575012522
 31
0.0
  0
TEXT
  5
342
100
AcDbEntity
  8
______
  6
CONTINUOUS
 62
         4
100
AcDbText
 10
402.6299391986
 20
167.5009941523
 30
0.0
 40
2.7
  1
崷4
 50
90.0
  7
BOX
100
AcDbText
  0
ENDBLK
  5
343
100
AcDbEntity
  8
0
  6
CONTINUOUS
100
AcDbBlockEnd
  0
BLOCK
  5
345
100
AcDbEntity
  8
0
100
AcDbBlockBegin
  2
*D12
 70
        65
 10
0.0
 20
0.0
 30
0.0
  3
*D12
  1

  0
POINT
  5
347
100
AcDbEntity
  8
DEFPOINTS
  6
CONTINUOUS
 62
         0
100
AcDbPoint
 10
385.9611532632
 20
165.8227483135
 30
0.0
  0
POINT
  5
348
100
AcDbEntity
  8
DEFPOINTS
  6
CONTINUOUS
 62
         0
100
AcDbPoint
 10
385.9611532632
 20
176.8575012522
 30
0.0
  0
POINT
  5
349
100
AcDbEntity
  8
DEFPOINTS
  6
CONTINUOUS
 62
         0
100
AcDbPoint
 10
391.9611532632
 20
174.1975012522
 30
0.0
  0
LINE
  5
34A
100
AcDbEntity
  8
______
  6
CONTINUOUS
 62
         4
100
AcDbLine
 10
385.9611532632
 20
175.5075012522
 30
0.0
 11
385.9611532632
 21
165.1477483135
 31
0.0
  0
LINE
  5
34B
100
AcDbEntity
  8
______
  6
CONTINUOUS
 62
         4
100
AcDbLine
 10
391.9611532632
 20
172.8475012522
 30
0.0
 11
391.9611532632
 21
165.1477483135
 31
0.0
  0
LINE
  5
34C
100
AcDbEntity
  8
______
  6
CONTINUOUS
 62
         4
100
AcDbLine
 10
385.9611532632
 20
165.8227483135
 30
0.0
 11
391.9611532632
 21
165.8227483135
 31
0.0
  0
SOLID
  5
34D
100
AcDbEntity
  8
______
  6
CONTINUOUS
 62
         4
100
AcDbTrace
 10
385.9611532632
 20
165.8227483135
 30
0.0
 11
388.6611532632
 21
166.2277483135
 31
0.0
 12
388.6611532632
 22
165.4177483135
 32
0.0
 13
385.9611532632
 23
165.8227483135
 33
0.0
  0
SOLID
  5
34E
100
AcDbEntity
  8
______
  6
CONTINUOUS
 62
         4
100
AcDbTrace
 10
391.9611532632
 20
165.8227483135
 30
0.0
 11
389.2611532632
 21
165.4177483135
 31
0.0
 12
389.2611532632
 22
166.2277483135
 32
0.0
 13
391.9611532632
 23
165.8227483135
 33
0.0
  0
TEXT
  5
350
100
AcDbEntity
  8
______
  6
CONTINUOUS
 62
         4
100
AcDbText
 10
385.9951116878
 20
167.8477483135
 30
0.0
 40
2.7
  1
6
  7
BOX
100
AcDbText
  0
ENDBLK
  5
351
100
AcDbEntity
  8
0
  6
CONTINUOUS
100
AcDbBlockEnd
  0
BLOCK
  5
353
100
AcDbEntity
  8
0
100
AcDbBlockBegin
  2
*D13
 70
        65
 10
0.0
 20
0.0
 30
0.0
  3
*D13
  1

  0
POINT
  5
355
100
AcDbEntity
  8
DEFPOINTS
  6
CONTINUOUS
 62
         0
100
AcDbPoint
 10
370.1028858991
 20
187.5475012522
 30
0.0
  0
POINT
  5
356
100
AcDbEntity
  8
DEFPOINTS
  6
CONTINUOUS
 62
         0
100
AcDbPoint
 10
376.8111532632
 20
187.5475012522
 30
0.0
  0
POINT
  5
357
100
AcDbEntity
  8
DEFPOINTS
  6
CONTINUOUS
 62
         0
100
AcDbPoint
 10
376.8111532632
 20
207.8475012522
 30
0.0
  0
LINE
  5
358
100
AcDbEntity
  8
______
  6
CONTINUOUS
 62
         4
100
AcDbLine
 10
375.4611532632
 20
187.5475012522
 30
0.0
 11
369.4278858991
 21
187.5475012522
 31
0.0
  0
LINE
  5
359
100
AcDbEntity
  8
______
  6
CONTINUOUS
 62
         4
100
AcDbLine
 10
375.4611532632
 20
207.8475012522
 30
0.0
 11
369.4278858991
 21
207.8475012522
 31
0.0
  0
LINE
  5
35A
100
AcDbEntity
  8
______
  6
CONTINUOUS
 62
         4
100
AcDbLine
 10
370.1028858991
 20
187.5475012522
 30
0.0
 11
370.1028858991
 21
207.8475012522
 31
0.0
  0
SOLID
  5
35B
100
AcDbEntity
  8
______
  6
CONTINUOUS
 62
         4
100
AcDbTrace
 10
370.1028858991
 20
187.5475012522
 30
0.0
 11
369.6978858991
 21
190.2475012522
 31
0.0
 12
370.5078858991
 22
190.2475012522
 32
0.0
 13
370.1028858991
 23
187.5475012522
 33
0.0
  0
LINE
  5
35C
100
AcDbEntity
  8
______
  6
CONTINUOUS
 62
         4
100
AcDbLine
 10
370.1028858991
 20
207.8475012522
 30
0.0
 11
370.1028858991
 21
242.8741973062
 31
0.0
  0
SOLID
  5
35D
100
AcDbEntity
  8
______
  6
CONTINUOUS
 62
         4
100
AcDbTrace
 10
370.1028858991
 20
207.8475012522
 30
0.0
 11
370.5078858991
 21
205.1475012522
 31
0.0
 12
369.6978858991
 22
205.1475012522
 32
0.0
 13
370.1028858991
 23
207.8475012522
 33
0.0
  0
TEXT
  5
35F
100
AcDbEntity
  8
______
  6
CONTINUOUS
 62
         4
100
AcDbText
 10
368.0778858991
 20
225.3241973062
 30
0.0
 40
2.7
  1
崷19.3
 50
90.0
  7
BOX
100
AcDbText
  0
ENDBLK
  5
360
100
AcDbEntity
  8
0
  6
CONTINUOUS
100
AcDbBlockEnd
  0
BLOCK
  5
362
100
AcDbEntity
  8
0
100
AcDbBlockBegin
  2
*D14
 70
        65
 10
0.0
 20
0.0
 30
0.0
  3
*D14
  1

  0
POINT
  5
364
100
AcDbEntity
  8
DEFPOINTS
  6
CONTINUOUS
 62
         0
100
AcDbPoint
 10
356.8111532632
 20
153.2484825431
 30
0.0
  0
POINT
  5
365
100
AcDbEntity
  8
DEFPOINTS
  6
CONTINUOUS
 62
         0
100
AcDbPoint
 10
356.8111532632
 20
187.1975012522
 30
0.0
  0
POINT
  5
366
100
AcDbEntity
  8
DEFPOINTS
  6
CONTINUOUS
 62
         0
100
AcDbPoint
 10
436.8111532632
 20
183.6475012522
 30
0.0
  0
LINE
  5
367
100
AcDbEntity
  8
______
  6
CONTINUOUS
 62
         4
100
AcDbLine
 10
356.8111532632
 20
185.8475012522
 30
0.0
 11
356.8111532632
 21
152.5734825431
 31
0.0
  0
LINE
  5
368
100
AcDbEntity
  8
______
  6
CONTINUOUS
 62
         4
100
AcDbLine
 10
436.8111532632
 20
182.2975012522
 30
0.0
 11
436.8111532632
 21
152.5734825431
 31
0.0
  0
LINE
  5
369
100
AcDbEntity
  8
______
  6
CONTINUOUS
 62
         4
100
AcDbLine
 10
356.8111532632
 20
153.2484825431
 30
0.0
 11
436.8111532632
 21
153.2484825431
 31
0.0
  0
SOLID
  5
36A
100
AcDbEntity
  8
______
  6
CONTINUOUS
 62
         4
100
AcDbTrace
 10
356.8111532632
 20
153.2484825431
 30
0.0
 11
359.5111532632
 21
153.6534825431
 31
0.0
 12
359.5111532632
 22
152.8434825431
 32
0.0
 13
356.8111532632
 23
153.2484825431
 33
0.0
  0
SOLID
  5
36B
100
AcDbEntity
  8
______
  6
CONTINUOUS
 62
         4
100
AcDbTrace
 10
436.8111532632
 20
153.2484825431
 30
0.0
 11
434.1111532632
 21
152.8434825431
 31
0.0
 12
434.1111532632
 22
153.6534825431
 32
0.0
 13
436.8111532632
 23
153.2484825431
 33
0.0
  0
TEXT
  5
36D
100
AcDbEntity
  8
______
  6
CONTINUOUS
 62
         4
100
AcDbText
 10
394.1111532632
 20
155.2734825431
 30
0.0
 40
2.7
  1
80
  7
BOX
100
AcDbText
  0
ENDBLK
  5
36E
100
AcDbEntity
  8
0
  6
CONTINUOUS
100
AcDbBlockEnd
  0
BLOCK
  5
376
100
AcDbEntity
  8
0
100
AcDbBlockBegin
  2
*D15
 70
        65
 10
0.0
 20
0.0
 30
0.0
  3
*D15
  1

  0
POINT
  5
378
100
AcDbEntity
  8
DEFPOINTS
  6
CONTINUOUS
 62
         0
100
AcDbPoint
 10
436.8111532632
 20
160.6694049821
 30
0.0
  0
POINT
  5
379
100
AcDbEntity
  8
DEFPOINTS
  6
CONTINUOUS
 62
         0
100
AcDbPoint
 10
436.8111532632
 20
183.6475012522
 30
0.0
  0
POINT
  5
37A
100
AcDbEntity
  8
DEFPOINTS
  6
CONTINUOUS
 62
         0
100
AcDbPoint
 10
381.8111532632
 20
184.6375012522
 30
0.0
  0
LINE
  5
37B
100
AcDbEntity
  8
______
  6
CONTINUOUS
 62
         4
100
AcDbLine
 10
436.8111532632
 20
182.2975012522
 30
0.0
 11
436.8111532632
 21
159.9944049821
 31
0.0
  0
LINE
  5
37C
100
AcDbEntity
  8
______
  6
CONTINUOUS
 62
         4
100
AcDbLine
 10
381.8111532632
 20
183.2875012522
 30
0.0
 11
381.8111532632
 21
159.9944049821
 31
0.0
  0
LINE
  5
37D
100
AcDbEntity
  8
______
  6
CONTINUOUS
 62
         4
100
AcDbLine
 10
436.8111532632
 20
160.6694049821
 30
0.0
 11
381.8111532632
 21
160.6694049821
 31
0.0
  0
SOLID
  5
37E
100
AcDbEntity
  8
______
  6
CONTINUOUS
 62
         4
100
AcDbTrace
 10
436.8111532632
 20
160.6694049821
 30
0.0
 11
434.1111532632
 21
160.2644049821
 31
0.0
 12
434.1111532632
 22
161.0744049821
 32
0.0
 13
436.8111532632
 23
160.6694049821
 33
0.0
  0
SOLID
  5
37F
100
AcDbEntity
  8
______
  6
CONTINUOUS
 62
         4
100
AcDbTrace
 10
381.8111532632
 20
160.6694049821
 30
0.0
 11
384.5111532632
 21
161.0744049821
 31
0.0
 12
384.5111532632
 22
160.2644049821
 32
0.0
 13
381.8111532632
 23
160.6694049821
 33
0.0
  0
TEXT
  5
381
100
AcDbEntity
  8
______
  6
CONTINUOUS
 62
         4
100
AcDbText
 10
406.6111532632
 20
162.6944049821
 30
0.0
 40
2.7
  1
55
  7
BOX
100
AcDbText
  0
ENDBLK
  5
382
100
AcDbEntity
  8
0
  6
CONTINUOUS
100
AcDbBlockEnd
  0
BLOCK
  5
3C8
100
AcDbEntity
  8
0
100
AcDbBlockBegin
  2
*D16
 70
        65
 10
0.0
 20
0.0
 30
0.0
  3
*D16
  1

  0
POINT
  5
3CA
100
AcDbEntity
  8
DEFPOINTS
  6
CONTINUOUS
 62
         0
100
AcDbPoint
 10
463.6357243523
 20
222.6975012522
 30
0.0
  0
POINT
  5
3CB
100
AcDbEntity
  8
DEFPOINTS
  6
CONTINUOUS
 62
         0
100
AcDbPoint
 10
390.4611532632
 20
222.6975012522
 30
0.0
  0
POINT
  5
3CC
100
AcDbEntity
  8
DEFPOINTS
  6
CONTINUOUS
 62
         0
100
AcDbPoint
 10
390.4611532632
 20
172.6975012522
 30
0.0
  0
LINE
  5
3CD
100
AcDbEntity
  8
______
  6
CONTINUOUS
 62
         4
100
AcDbLine
 10
391.8111532632
 20
222.6975012522
 30
0.0
 11
464.3107243523
 21
222.6975012522
 31
0.0
  0
LINE
  5
3CE
100
AcDbEntity
  8
______
  6
CONTINUOUS
 62
         4
100
AcDbLine
 10
391.8111532632
 20
172.6975012522
 30
0.0
 11
464.3107243523
 21
172.6975012522
 31
0.0
  0
LINE
  5
3CF
100
AcDbEntity
  8
______
  6
CONTINUOUS
 62
         4
100
AcDbLine
 10
463.6357243523
 20
222.6975012522
 30
0.0
 11
463.6357243523
 21
172.6975012522
 31
0.0
  0
SOLID
  5
3D0
100
AcDbEntity
  8
______
  6
CONTINUOUS
 62
         4
100
AcDbTrace
 10
463.6357243523
 20
222.6975012522
 30
0.0
 11
464.0407243523
 21
219.9975012522
 31
0.0
 12
463.2307243523
 22
219.9975012522
 32
0.0
 13
463.6357243523
 23
222.6975012522
 33
0.0
  0
SOLID
  5
3D1
100
AcDbEntity
  8
______
  6
CONTINUOUS
 62
         4
100
AcDbTrace
 10
463.6357243523
 20
172.6975012522
 30
0.0
 11
463.2307243523
 21
175.3975012522
 31
0.0
 12
464.0407243523
 22
175.3975012522
 32
0.0
 13
463.6357243523
 23
172.6975012522
 33
0.0
  0
TEXT
  5
3D3
100
AcDbEntity
  8
______
  6
CONTINUOUS
 62
         4
100
AcDbText
 10
461.6107243523
 20
190.234947269
 30
0.0
 40
2.7
  1
崷50
 50
90.0
  7
BOX
100
AcDbText
  0
ENDBLK
  5
3D4
100
AcDbEntity
  8
0
  6
CONTINUOUS
100
AcDbBlockEnd
  0
BLOCK
  5
3D6
100
AcDbEntity
  8
0
100
AcDbBlockBegin
  2
*X17
 70
        65
 10
0.0
 20
0.0
 30
0.0
  3
*X17
  1

  0
LINE
  5
3D7
100
AcDbEntity
  8
______
  6
CONTINUOUS
 62
         4
100
AcDbLine
 10
436.1640452323
 20
183.4475012522
 30
0.0
 11
436.8111532632
 21
184.0946092832
 31
0.0
  0
LINE
  5
3D8
100
AcDbEntity
  8
______
  6
CONTINUOUS
 62
         4
100
AcDbLine
 10
431.1978443654
 20
182.7239410724
 30
0.0
 11
433.6214045452
 21
185.1475012522
 31
0.0
  0
LINE
  5
3D9
100
AcDbEntity
  8
______
  6
CONTINUOUS
 62
         4
100
AcDbLine
 10
426.8878309926
 20
182.6565683868
 30
0.0
 11
429.378763858
 21
185.1475012522
 31
0.0
  0
LINE
  5
3DA
100
AcDbEntity
  8
______
  6
CONTINUOUS
 62
         4
100
AcDbLine
 10
422.5778176198
 20
182.5891957011
 30
0.0
 11
425.1361231709
 21
185.1475012522
 31
0.0
  0
LINE
  5
3DB
100
AcDbEntity
  8
______
  6
CONTINUOUS
 62
         4
100
AcDbLine
 10
418.267804247
 20
182.5218230154
 30
0.0
 11
420.8934824838
 21
185.1475012522
 31
0.0
  0
LINE
  5
3DC
100
AcDbEntity
  8
______
  6
CONTINUOUS
 62
         4
100
AcDbLine
 10
413.9577908742
 20
182.4544503297
 30
0.0
 11
416.6508417967
 21
185.1475012522
 31
0.0
  0
LINE
  5
3DD
100
AcDbEntity
  8
______
  6
CONTINUOUS
 62
         4
100
AcDbLine
 10
409.6477775014
 20
182.387077644
 30
0.0
 11
412.4082011096
 21
185.1475012522
 31
0.0
  0
LINE
  5
3DE
100
AcDbEntity
  8
______
  6
CONTINUOUS
 62
         4
100
AcDbLine
 10
434.4832011096
 20
207.2225012522
 30
0.0
 11
436.8111532632
 21
209.5504534059
 31
0.0
  0
LINE
  5
3DF
100
AcDbEntity
  8
______
  6
CONTINUOUS
 62
         4
100
AcDbLine
 10
405.3377641285
 20
182.3197049583
 30
0.0
 11
408.1655604225
 21
185.1475012522
 31
0.0
  0
LINE
  5
3E0
100
AcDbEntity
  8
______
  6
CONTINUOUS
 62
         4
100
AcDbLine
 10
430.2405604225
 20
207.2225012522
 30
0.0
 11
434.2889336502
 21
211.2708744799
 31
0.0
  0
LINE
  5
3E1
100
AcDbEntity
  8
______
  6
CONTINUOUS
 62
         4
100
AcDbLine
 10
401.0277507557
 20
182.2523322726
 30
0.0
 11
403.9229197353
 21
185.1475012522
 31
0.0
  0
LINE
  5
3E2
100
AcDbEntity
  8
______
  6
CONTINUOUS
 62
         4
100
AcDbLine
 10
425.9979197353
 20
207.2225012522
 30
0.0
 11
431.4426531462
 21
212.6672346631
 31
0.0
  0
LINE
  5
3E3
100
AcDbEntity
  8
______
  6
CONTINUOUS
 62
         4
100
AcDbLine
 10
387.2302790482
 20
172.6975012522
 30
0.0
 11
391.3902790482
 21
176.8575012522
 31
0.0
  0
LINE
  5
3E4
100
AcDbEntity
  8
______
  6
CONTINUOUS
 62
         4
100
AcDbLine
 10
396.7177373829
 20
182.1849595869
 30
0.0
 11
399.6802790482
 21
185.1475012522
 31
0.0
  0
LINE
  5
3E5
100
AcDbEntity
  8
______
  6
CONTINUOUS
 62
         4
100
AcDbLine
 10
421.7552790482
 20
207.2225012522
 30
0.0
 11
427.2653112684
 21
212.7325334724
 31
0.0
  0
LINE
  5
3E6
100
AcDbEntity
  8
______
  6
CONTINUOUS
 62
         4
100
AcDbLine
 10
382.9876383611
 20
172.6975012522
 30
0.0
 11
387.1476383611
 21
176.8575012522
 31
0.0
  0
LINE
  5
3E7
100
AcDbEntity
  8
______
  6
CONTINUOUS
 62
         4
100
AcDbLine
 10
391.1476383611
 20
180.8575012522
 30
0.0
 11
391.9517715818
 21
181.6616344729
 31
0.0
  0
LINE
  5
3E8
100
AcDbEntity
  8
______
  6
CONTINUOUS
 62
         4
100
AcDbLine
 10
392.6007433657
 20
182.3106062569
 30
0.0
 11
395.4376383611
 21
185.1475012522
 31
0.0
  0
LINE
  5
3E9
100
AcDbEntity
  8
______
  6
CONTINUOUS
 62
         4
100
AcDbLine
 10
417.5126383611
 20
207.2225012522
 30
0.0
 11
423.0879693906
 21
212.7978322817
 31
0.0
  0
LINE
  5
3EA
100
AcDbEntity
  8
______
  6
CONTINUOUS
 62
         4
100
AcDbLine
 10
378.744997674
 20
172.6975012522
 30
0.0
 11
384.8425226797
 21
178.7950262579
 31
0.0
  0
LINE
  5
3EB
100
AcDbEntity
  8
______
  6
CONTINUOUS
 62
         4
100
AcDbLine
 10
386.904997674
 20
180.8575012522
 30
0.0
 11
391.194997674
 21
185.1475012522
 31
0.0
  0
LINE
  5
3EC
100
AcDbEntity
  8
______
  6
CONTINUOUS
 62
         4
100
AcDbLine
 10
413.269997674
 20
207.2225012522
 30
0.0
 11
418.9106275128
 21
212.863131091
 31
0.0
  0
LINE
  5
3ED
100
AcDbEntity
  8
______
  6
CONTINUOUS
 62
         4
100
AcDbLine
 10
374.5023569869
 20
172.6975012522
 30
0.0
 11
386.9523569869
 21
185.1475012522
 31
0.0
  0
LINE
  5
3EE
100
AcDbEntity
  8
______
  6
CONTINUOUS
 62
         4
100
AcDbLine
 10
409.0273569869
 20
207.2225012522
 30
0.0
 11
414.733285635
 21
212.9284299003
 31
0.0
  0
LINE
  5
3EF
100
AcDbEntity
  8
______
  6
CONTINUOUS
 62
         4
100
AcDbLine
 10
370.2597162997
 20
172.6975012522
 30
0.0
 11
382.7097162997
 21
185.1475012522
 31
0.0
  0
LINE
  5
3F0
100
AcDbEntity
  8
______
  6
CONTINUOUS
 62
         4
100
AcDbLine
 10
404.7847162997
 20
207.2225012522
 30
0.0
 11
410.5559437572
 21
212.9937287096
 31
0.0
  0
LINE
  5
3F1
100
AcDbEntity
  8
______
  6
CONTINUOUS
 62
         4
100
AcDbLine
 10
367.7976144379
 20
174.4780400775
 30
0.0
 11
378.0170756126
 21
184.6975012522
 31
0.0
  0
LINE
  5
3F2
100
AcDbEntity
  8
______
  6
CONTINUOUS
 62
         4
100
AcDbLine
 10
400.5420756126
 20
207.2225012522
 30
0.0
 11
406.3786018794
 21
213.059027519
 31
0.0
  0
LINE
  5
3F3
100
AcDbEntity
  8
______
  6
CONTINUOUS
 62
         4
100
AcDbLine
 10
364.5494349255
 20
175.4725012522
 30
0.0
 11
376.6244349255
 21
187.5475012522
 31
0.0
  0
LINE
  5
3F4
100
AcDbEntity
  8
______
  6
CONTINUOUS
 62
         4
100
AcDbLine
 10
396.2994349255
 20
207.2225012522
 30
0.0
 11
402.2012600016
 21
213.1243263283
 31
0.0
  0
LINE
  5
3F5
100
AcDbEntity
  8
______
  6
CONTINUOUS
 62
         4
100
AcDbLine
 10
360.3067942384
 20
175.4725012522
 30
0.0
 11
372.3817942384
 21
187.5475012522
 31
0.0
  0
LINE
  5
3F6
100
AcDbEntity
  8
______
  6
CONTINUOUS
 62
         4
100
AcDbLine
 10
392.0567942384
 20
207.2225012522
 30
0.0
 11
398.0239181237
 21
213.1896251376
 31
0.0
  0
LINE
  5
3F7
100
AcDbEntity
  8
______
  6
CONTINUOUS
 62
         4
100
AcDbLine
 10
346.5141535511
 20
165.922501252
 30
0.0
 11
350.9111532632
 21
170.3195009642
 31
0.0
  0
LINE
  5
3F8
100
AcDbEntity
  8
______
  6
CONTINUOUS
 62
         4
100
AcDbLine
 10
356.0641535513
 20
175.4725012522
 30
0.0
 11
368.1391535513
 21
187.5475012522
 31
0.0
  0
LINE
  5
3F9
100
AcDbEntity
  8
______
  6
CONTINUOUS
 62
         4
100
AcDbLine
 10
387.8141535513
 20
207.2225012522
 30
0.0
 11
393.8465762459
 21
213.2549239469
 31
0.0
  0
LINE
  5
3FA
100
AcDbEntity
  8
______
  6
CONTINUOUS
 62
         4
100
AcDbLine
 10
344.9189342261
 20
168.5699226141
 30
0.0
 11
350.9111532632
 21
174.5621416513
 31
0.0
  0
LINE
  5
3FB
100
AcDbEntity
  8
______
  6
CONTINUOUS
 62
         4
100
AcDbLine
 10
351.8215128641
 20
175.4725012522
 30
0.0
 11
363.8965128641
 21
187.5475012522
 31
0.0
  0
LINE
  5
3FC
100
AcDbEntity
  8
______
  6
CONTINUOUS
 62
         4
100
AcDbLine
 10
383.5715128641
 20
207.2225012522
 30
0.0
 11
391.9611532632
 21
215.6121416513
 31
0.0
  0
LINE
  5
3FD
100
AcDbEntity
  8
______
  6
CONTINUOUS
 62
         4
100
AcDbLine
 10
338.0288721768
 20
165.922501252
 30
0.0
 11
341.1055498192
 21
168.9991788944
 31
0.0
  0
LINE
  5
3FE
100
AcDbEntity
  8
______
  6
CONTINUOUS
 62
         4
100
AcDbLine
 10
341.5832759528
 20
169.476905028
 30
0.0
 11
359.303872177
 21
187.1975012522
 31
0.0
  0
LINE
  5
3FF
100
AcDbEntity
  8
______
  6
CONTINUOUS
 62
         4
100
AcDbLine
 10
381.8111532632
 20
209.7047823384
 30
0.0
 11
391.9611532632
 21
219.8547823384
 31
0.0
  0
LINE
  5
400
100
AcDbEntity
  8
______
  6
CONTINUOUS
 62
         4
100
AcDbLine
 10
335.0111532632
 20
167.1474230256
 30
0.0
 11
356.8111532632
 21
188.9474230256
 31
0.0
  0
LINE
  5
401
100
AcDbEntity
  8
______
  6
CONTINUOUS
 62
         4
100
AcDbLine
 10
375.7112314899
 20
207.8475012522
 30
0.0
 11
376.8111532632
 21
208.9474230256
 31
0.0
  0
LINE
  5
402
100
AcDbEntity
  8
______
  6
CONTINUOUS
 62
         4
100
AcDbLine
 10
378.5612314899
 20
210.6975012522
 30
0.0
 11
390.5111923766
 21
222.6474621389
 31
0.0
  0
LINE
  5
403
100
AcDbEntity
  8
______
  6
CONTINUOUS
 62
         4
100
AcDbLine
 10
335.0111532632
 20
171.3900637127
 30
0.0
 11
354.3185908028
 21
190.6975012522
 31
0.0
  0
LINE
  5
404
100
AcDbEntity
  8
______
  6
CONTINUOUS
 62
         4
100
AcDbLine
 10
371.4685908028
 20
207.8475012522
 30
0.0
 11
386.3185908028
 21
222.6975012522
 31
0.0
  0
LINE
  5
405
100
AcDbEntity
  8
______
  6
CONTINUOUS
 62
         4
100
AcDbLine
 10
334.7623953682
 20
175.3839465047
 30
0.0
 11
350.0759501157
 21
190.6975012522
 31
0.0
  0
LINE
  5
406
100
AcDbEntity
  8
______
  6
CONTINUOUS
 62
         4
100
AcDbLine
 10
367.2259501157
 20
207.8475012522
 30
0.0
 11
382.0759501157
 21
222.6975012522
 31
0.0
  0
LINE
  5
407
100
AcDbEntity
  8
______
  6
CONTINUOUS
 62
         4
100
AcDbLine
 10
330.7613986439
 20
175.6255904675
 30
0.0
 11
345.8333094285
 21
190.6975012522
 31
0.0
  0
LINE
  5
408
100
AcDbEntity
  8
______
  6
CONTINUOUS
 62
         4
100
AcDbLine
 10
362.9833094285
 20
207.8475012522
 30
0.0
 11
377.8333094285
 21
222.6975012522
 31
0.0
  0
LINE
  5
409
100
AcDbEntity
  8
______
  6
CONTINUOUS
 62
         4
100
AcDbLine
 10
327.0587304078
 20
176.1655629186
 30
0.0
 11
341.5906687414
 21
190.6975012522
 31
0.0
  0
LINE
  5
40A
100
AcDbEntity
  8
______
  6
CONTINUOUS
 62
         4
100
AcDbLine
 10
355.5906687414
 20
204.6975012522
 30
0.0
 11
356.8111532632
 21
205.917985774
 31
0.0
  0
LINE
  5
40B
100
AcDbEntity
  8
______
  6
CONTINUOUS
 62
         4
100
AcDbLine
 10
360.0632675448
 20
209.1701000556
 30
0.0
 11
373.5906687414
 21
222.6975012522
 31
0.0
  0
LINE
  5
40C
100
AcDbEntity
  8
______
  6
CONTINUOUS
 62
         4
100
AcDbLine
 10
323.3560621718
 20
176.7055353697
 30
0.0
 11
337.3480280543
 21
190.6975012522
 31
0.0
  0
LINE
  5
40D
100
AcDbEntity
  8
______
  6
CONTINUOUS
 62
         4
100
AcDbLine
 10
351.3480280543
 20
204.6975012522
 30
0.0
 11
355.1984515479
 21
208.5479247458
 31
0.0
  0
LINE
  5
40E
100
AcDbEntity
  8
______
  6
CONTINUOUS
 62
         4
100
AcDbLine
 10
357.56790119
 20
210.9173743879
 30
0.0
 11
366.5804416778
 21
219.9299148757
 31
0.0
  0
LINE
  5
40F
100
AcDbEntity
  8
______
  6
CONTINUOUS
 62
         4
100
AcDbLine
 10
319.6533939358
 20
177.2455078208
 30
0.0
 11
333.1053873672
 21
190.6975012522
 31
0.0
  0
LINE
  5
410
100
AcDbEntity
  8
______
  6
CONTINUOUS
 62
         4
100
AcDbLine
 10
347.1053873672
 20
204.6975012522
 30
0.0
 11
352.703085193
 21
210.295199078
 31
0.0
  0
LINE
  5
411
100
AcDbEntity
  8
______
  6
CONTINUOUS
 62
         4
100
AcDbLine
 10
355.0725348351
 20
212.6646487201
 30
0.0
 11
362.3303873672
 21
219.9225012522
 31
0.0
  0
LINE
  5
412
100
AcDbEntity
  8
______
  6
CONTINUOUS
 62
         4
100
AcDbLine
 10
315.9507256997
 20
177.7854802719
 30
0.0
 11
328.8627466801
 21
190.6975012522
 31
0.0
  0
LINE
  5
413
100
AcDbEntity
  8
______
  6
CONTINUOUS
 62
         4
100
AcDbLine
 10
342.8627466801
 20
204.6975012522
 30
0.0
 11
350.2077188382
 21
212.0424734103
 31
0.0
  0
LINE
  5
414
100
AcDbEntity
  8
______
  6
CONTINUOUS
 62
         4
100
AcDbLine
 10
352.5771684803
 20
214.4119230524
 30
0.0
 11
358.0877466801
 21
219.9225012522
 31
0.0
  0
LINE
  5
415
100
AcDbEntity
  8
______
  6
CONTINUOUS
 62
         4
100
AcDbLine
 10
312.2480574637
 20
178.325452723
 30
0.0
 11
324.6201059929
 21
190.6975012522
 31
0.0
  0
LINE
  5
416
100
AcDbEntity
  8
______
  6
CONTINUOUS
 62
         4
100
AcDbLine
 10
338.6201059929
 20
204.6975012522
 30
0.0
 11
347.7123524833
 21
213.7897477426
 31
0.0
  0
LINE
  5
417
100
AcDbEntity
  8
______
  6
CONTINUOUS
 62
         4
100
AcDbLine
 10
350.0818021254
 20
216.1591973847
 30
0.0
 11
353.8451059929
 21
219.9225012522
 31
0.0
  0
LINE
  5
418
100
AcDbEntity
  8
______
  6
CONTINUOUS
 62
         4
100
AcDbLine
 10
308.5453892277
 20
178.8654251741
 30
0.0
 11
320.3774653058
 21
190.6975012522
 31
0.0
  0
LINE
  5
419
100
AcDbEntity
  8
______
  6
CONTINUOUS
 62
         4
100
AcDbLine
 10
334.3774653058
 20
204.6975012522
 30
0.0
 11
345.2169861284
 21
215.5370220748
 31
0.0
  0
LINE
  5
41A
100
AcDbEntity
  8
______
  6
CONTINUOUS
 62
         4
100
AcDbLine
 10
347.5864357706
 20
217.9064717169
 30
0.0
 11
350.9111532632
 21
221.2311892096
 31
0.0
  0
LINE
  5
41B
100
AcDbEntity
  8
______
  6
CONTINUOUS
 62
         4
100
AcDbLine
 10
304.8427209917
 20
179.4053976252
 30
0.0
 11
316.1348246187
 21
190.6975012522
 31
0.0
  0
LINE
  5
41C
100
AcDbEntity
  8
______
  6
CONTINUOUS
 62
         4
100
AcDbLine
 10
330.1348246187
 20
204.6975012522
 30
0.0
 11
342.7216197736
 21
217.2842964071
 31
0.0
  0
LINE
  5
41D
100
AcDbEntity
  8
______
  6
CONTINUOUS
 62
         4
100
AcDbLine
 10
345.0910694157
 20
219.6537460492
 30
0.0
 11
350.9111532632
 21
225.4738298967
 31
0.0
  0
LINE
  5
41E
100
AcDbEntity
  8
______
  6
CONTINUOUS
 62
         4
100
AcDbLine
 10
301.1400527556
 20
179.9453700762
 30
0.0
 11
311.8921839316
 21
190.6975012522
 31
0.0
  0
LINE
  5
41F
100
AcDbEntity
  8
______
  6
CONTINUOUS
 62
         4
100
AcDbLine
 10
325.8921839316
 20
204.6975012522
 30
0.0
 11
340.2262534187
 21
219.0315707394
 31
0.0
  0
LINE
  5
420
100
AcDbEntity
  8
______
  6
CONTINUOUS
 62
         4
100
AcDbLine
 10
342.5957030608
 20
221.4010203815
 30
0.0
 11
350.4856739753
 21
229.2909912959
 31
0.0
  0
LINE
  5
421
100
AcDbEntity
  8
______
  6
CONTINUOUS
 62
         4
100
AcDbLine
 10
297.4373845196
 20
180.4853425273
 30
0.0
 11
307.6495432445
 21
190.6975012522
 31
0.0
  0
LINE
  5
422
100
AcDbEntity
  8
______
  6
CONTINUOUS
 62
         4
100
AcDbLine
 10
321.6495432445
 20
204.6975012522
 30
0.0
 11
337.7308870639
 21
220.7788450716
 31
0.0
  0
LINE
  5
423
100
AcDbEntity
  8
______
  6
CONTINUOUS
 62
         4
100
AcDbLine
 10
340.100336706
 20
223.1482947137
 30
0.0
 11
342.7745432447
 21
225.8225012524
 31
0.0
  0
LINE
  5
424
100
AcDbEntity
  8
______
  6
CONTINUOUS
 62
         4
100
AcDbLine
 10
293.7347162836
 20
181.0253149784
 30
0.0
 11
303.4069025574
 21
190.6975012522
 31
0.0
  0
LINE
  5
425
100
AcDbEntity
  8
______
  6
CONTINUOUS
 62
         4
100
AcDbLine
 10
317.4069025574
 20
204.6975012522
 30
0.0
 11
332.7720304856
 21
220.0626291805
 31
0.0
  0
LINE
  5
426
100
AcDbEntity
  8
______
  6
CONTINUOUS
 62
         4
100
AcDbLine
 10
335.1181253446
 20
222.4087240395
 30
0.0
 11
335.235520709
 21
222.5261194039
 31
0.0
  0
LINE
  5
427
100
AcDbEntity
  8
______
  6
CONTINUOUS
 62
         4
100
AcDbLine
 10
337.6049703511
 20
224.895569046
 30
0.0
 11
340.402323381
 21
227.6929220758
 31
0.0
  0
LINE
  5
428
100
AcDbEntity
  8
______
  6
CONTINUOUS
 62
         4
100
AcDbLine
 10
290.0320480475
 20
181.5652874295
 30
0.0
 11
299.1642618702
 21
190.6975012522
 31
0.0
  0
LINE
  5
429
100
AcDbEntity
  8
______
  6
CONTINUOUS
 62
         4
100
AcDbLine
 10
313.1642618702
 20
204.6975012522
 30
0.0
 11
327.8050365105
 21
219.3382758924
 31
0.0
  0
LINE
  5
42A
100
AcDbEntity
  8
______
  6
CONTINUOUS
 62
         4
100
AcDbLine
 10
335.3968100135
 20
226.9300493955
 30
0.0
 11
337.9392618704
 21
229.4725012524
 31
0.0
  0
LINE
  5
42B
100
AcDbEntity
  8
______
  6
CONTINUOUS
 62
         4
100
AcDbLine
 10
286.3293798115
 20
182.1052598806
 30
0.0
 11
294.9216211831
 21
190.6975012522
 31
0.0
  0
LINE
  5
42C
100
AcDbEntity
  8
______
  6
CONTINUOUS
 62
         4
100
AcDbLine
 10
308.9216211831
 20
204.6975012522
 30
0.0
 11
322.8380425353
 21
218.6139226044
 31
0.0
  0
LINE
  5
42D
100
AcDbEntity
  8
______
  6
CONTINUOUS
 62
         4
100
AcDbLine
 10
282.6267115755
 20
182.6452323317
 30
0.0
 11
290.678980496
 21
190.6975012522
 31
0.0
  0
LINE
  5
42E
100
AcDbEntity
  8
______
  6
CONTINUOUS
 62
         4
100
AcDbLine
 10
304.678980496
 20
204.6975012522
 30
0.0
 11
317.8710485601
 21
217.8895693163
 31
0.0
  0
LINE
  5
42F
100
AcDbEntity
  8
______
  6
CONTINUOUS
 62
         4
100
AcDbLine
 10
278.9240433394
 20
183.1852047828
 30
0.0
 11
286.4363398089
 21
190.6975012522
 31
0.0
  0
LINE
  5
430
100
AcDbEntity
  8
______
  6
CONTINUOUS
 62
         4
100
AcDbLine
 10
300.4363398089
 20
204.6975012522
 30
0.0
 11
312.904054585
 21
217.1652160283
 31
0.0
  0
LINE
  5
431
100
AcDbEntity
  8
______
  6
CONTINUOUS
 62
         4
100
AcDbLine
 10
275.2213751034
 20
183.7251772339
 30
0.0
 11
282.1936991218
 21
190.6975012522
 31
0.0
  0
LINE
  5
432
100
AcDbEntity
  8
______
  6
CONTINUOUS
 62
         4
100
AcDbLine
 10
296.1936991218
 20
204.6975012522
 30
0.0
 11
307.9370606098
 21
216.4408627402
 31
0.0
  0
LINE
  5
433
100
AcDbEntity
  8
______
  6
CONTINUOUS
 62
         4
100
AcDbLine
 10
271.5187068674
 20
184.2651496849
 30
0.0
 11
277.9510584346
 21
190.6975012522
 31
0.0
  0
LINE
  5
434
100
AcDbEntity
  8
______
  6
CONTINUOUS
 62
         4
100
AcDbLine
 10
291.9510584346
 20
204.6975012522
 30
0.0
 11
302.9700666346
 21
215.7165094522
 31
0.0
  0
LINE
  5
435
100
AcDbEntity
  8
______
  6
CONTINUOUS
 62
         4
100
AcDbLine
 10
267.8160386313
 20
184.805122136
 30
0.0
 11
273.7084177475
 21
190.6975012522
 31
0.0
  0
LINE
  5
436
100
AcDbEntity
  8
______
  6
CONTINUOUS
 62
         4
100
AcDbLine
 10
287.7084177475
 20
204.6975012522
 30
0.0
 11
298.0030726595
 21
214.9921561642
 31
0.0
  0
LINE
  5
437
100
AcDbEntity
  8
______
  6
CONTINUOUS
 62
         4
100
AcDbLine
 10
264.1469092368
 20
185.3786334286
 30
0.0
 11
269.4657770604
 21
190.6975012522
 31
0.0
  0
LINE
  5
438
100
AcDbEntity
  8
______
  6
CONTINUOUS
 62
         4
100
AcDbLine
 10
283.4657770604
 20
204.6975012522
 30
0.0
 11
293.0360786843
 21
214.2678028761
 31
0.0
  0
LINE
  5
439
100
AcDbEntity
  8
______
  6
CONTINUOUS
 62
         4
100
AcDbLine
 10
263.5131738582
 20
188.9875387372
 30
0.0
 11
263.9711157783
 21
189.4454806572
 31
0.0
  0
LINE
  5
43A
100
AcDbEntity
  8
______
  6
CONTINUOUS
 62
         4
100
AcDbLine
 10
279.2231363733
 20
204.6975012522
 30
0.0
 11
288.0690847091
 21
213.5434495881
 31
0.0
  0
LINE
  5
43B
100
AcDbEntity
  8
______
  6
CONTINUOUS
 62
         4
100
AcDbLine
 10
274.9804956862
 20
204.6975012522
 30
0.0
 11
283.102090734
 21
212.8190963
 31
0.0
  0
LINE
  5
43C
100
AcDbEntity
  8
______
  6
CONTINUOUS
 62
         4
100
AcDbLine
 10
270.737854999
 20
204.6975012522
 30
0.0
 11
278.1350967588
 21
212.094743012
 31
0.0
  0
LINE
  5
43D
100
AcDbEntity
  8
______
  6
CONTINUOUS
 62
         4
100
AcDbLine
 10
267.7452143119
 20
205.9475012522
 30
0.0
 11
273.1681027836
 21
211.3703897239
 31
0.0
  0
LINE
  5
43E
100
AcDbEntity
  8
______
  6
CONTINUOUS
 62
         4
100
AcDbLine
 10
263.6997696755
 20
206.1446973029
 30
0.0
 11
268.2011088085
 21
210.6460364359
 31
0.0
  0
ENDBLK
  5
43F
100
AcDbEntity
  8
0
  6
CONTINUOUS
100
AcDbBlockEnd
  0
BLOCK
  5
444
100
AcDbEntity
  8
0
100
AcDbBlockBegin
  2
*D18
 70
        65
 10
0.0
 20
0.0
 30
0.0
  3
*D18
  1

  0
POINT
  5
446
100
AcDbEntity
  8
DEFPOINTS
  6
CONTINUOUS
 62
         0
100
AcDbPoint
 10
456.305733549
 20
216.5375012522
 30
0.0
  0
POINT
  5
447
100
AcDbEntity
  8
DEFPOINTS
  6
CONTINUOUS
 62
         0
100
AcDbPoint
 10
393.7352868451
 20
216.5375012522
 30
0.0
  0
POINT
  5
448
100
AcDbEntity
  8
DEFPOINTS
  6
CONTINUOUS
 62
         0
100
AcDbPoint
 10
393.7352868451
 20
178.8575012522
 30
0.0
  0
LINE
  5
449
100
AcDbEntity
  8
______
  6
CONTINUOUS
 62
         4
100
AcDbLine
 10
395.0852868451
 20
216.5375012522
 30
0.0
 11
456.980733549
 21
216.5375012522
 31
0.0
  0
LINE
  5
44A
100
AcDbEntity
  8
______
  6
CONTINUOUS
 62
         4
100
AcDbLine
 10
395.0852868451
 20
178.8575012522
 30
0.0
 11
456.980733549
 21
178.8575012522
 31
0.0
  0
LINE
  5
44B
100
AcDbEntity
  8
______
  6
CONTINUOUS
 62
         4
100
AcDbLine
 10
456.305733549
 20
216.5375012522
 30
0.0
 11
456.305733549
 21
178.8575012522
 31
0.0
  0
SOLID
  5
44C
100
AcDbEntity
  8
______
  6
CONTINUOUS
 62
         4
100
AcDbTrace
 10
456.305733549
 20
216.5375012522
 30
0.0
 11
456.710733549
 21
213.8375012522
 31
0.0
 12
455.900733549
 22
213.8375012522
 32
0.0
 13
456.305733549
 23
216.5375012522
 33
0.0
  0
SOLID
  5
44D
100
AcDbEntity
  8
______
  6
CONTINUOUS
 62
         4
100
AcDbTrace
 10
456.305733549
 20
178.8575012522
 30
0.0
 11
455.900733549
 21
181.5575012522
 31
0.0
 12
456.710733549
 22
181.5575012522
 32
0.0
 13
456.305733549
 23
178.8575012522
 33
0.0
  0
TEXT
  5
44F
100
AcDbEntity
  8
______
  6
CONTINUOUS
 62
         4
100
AcDbText
 10
454.280733549
 20
184.0034023871
 30
0.0
 40
2.7
  1
崷37.68
 50
90.0
  7
BOX
100
AcDbText
  0
ENDBLK
  5
450
100
AcDbEntity
  8
0
  6
CONTINUOUS
100
AcDbBlockEnd
  0
ENDSEC
  0
SECTION
  2
ENTITIES
  0
LINE
  5
2D
100
AcDbEntity
  8
______
  6
CENTER
 62
         1
100
AcDbLine
 10
606.5562538361
 20
300.3228649856
 30
0.0
 11
591.6376897283
 21
308.9361019892
 31
0.0
  0
LINE
  5
2E
100
AcDbEntity
  8
______
  6
CENTER
 62
         1
100
AcDbLine
 10
577.1129113092
 20
307.5265964995
 30
0.0
 11
564.0121441668
 21
299.9628650632
 31
0.0
  0
LINE
  5
2F
100
AcDbEntity
  8
______
  6
CENTER
 62
         1
100
AcDbLine
 10
579.1870328831
 20
316.8842029931
 30
0.0
 11
564.2845288947
 21
325.4881676824
 31
0.0
  0
LINE
  5
30
100
AcDbEntity
  8
______
  6
CENTER
 62
         1
100
AcDbLine
 10
605.9733208738
 20
318.262640732
 30
0.0
 11
585.6019451973
 21
312.8041470708
 31
0.0
  0
CIRCLE
  5
31
100
AcDbEntity
  8
______
  6
CONTINUOUS
 62
         7
100
AcDbCircle
 10
585.6019451973
 20
331.8941470708
 30
0.0
 40
2.0
  0
CIRCLE
  5
32
100
AcDbEntity
  8
______
  6
CONTINUOUS
 62
         7
100
AcDbCircle
 10
590.5428007683
 20
331.2436710946
 30
0.0
 40
2.0
  0
CIRCLE
  5
33
100
AcDbEntity
  8
______
  6
CONTINUOUS
 62
         7
100
AcDbCircle
 10
595.1469451973
 20
329.336572029
 30
0.0
 40
2.0
  0
CIRCLE
  5
34
100
AcDbEntity
  8
______
  6
CONTINUOUS
 62
         7
100
AcDbCircle
 10
599.1006136502
 20
326.3028155236
 30
0.0
 40
2.0
  0
CIRCLE
  5
35
100
AcDbEntity
  8
______
  6
CONTINUOUS
 62
         7
100
AcDbCircle
 10
602.1343701556
 20
322.3491470708
 30
0.0
 40
2.0
  0
CIRCLE
  5
36
100
AcDbEntity
  8
______
  6
CONTINUOUS
 62
         7
100
AcDbCircle
 10
604.0414692212
 20
317.7450026418
 30
0.0
 40
2.0
  0
CIRCLE
  5
37
100
AcDbEntity
  8
______
  6
CONTINUOUS
 62
         7
100
AcDbCircle
 10
604.6919451973
 20
312.8041470708
 30
0.0
 40
2.0
  0
CIRCLE
  5
38
100
AcDbEntity
  8
______
  6
CONTINUOUS
 62
         7
100
AcDbCircle
 10
604.0414692212
 20
307.8632914998
 30
0.0
 40
2.0
  0
CIRCLE
  5
39
100
AcDbEntity
  8
______
  6
CONTINUOUS
 62
         7
100
AcDbCircle
 10
602.1343701556
 20
303.2591470708
 30
0.0
 40
2.0
  0
CIRCLE
  5
3A
100
AcDbEntity
  8
______
  6
CONTINUOUS
 62
         7
100
AcDbCircle
 10
599.1006136502
 20
299.3054786179
 30
0.0
 40
2.0
  0
CIRCLE
  5
3B
100
AcDbEntity
  8
______
  6
CONTINUOUS
 62
         7
100
AcDbCircle
 10
595.1469451973
 20
296.2717221125
 30
0.0
 40
2.0
  0
CIRCLE
  5
3C
100
AcDbEntity
  8
______
  6
CONTINUOUS
 62
         7
100
AcDbCircle
 10
590.5428007683
 20
294.3646230469
 30
0.0
 40
2.0
  0
CIRCLE
  5
3D
100
AcDbEntity
  8
______
  6
CONTINUOUS
 62
         7
100
AcDbCircle
 10
585.6019451973
 20
293.7141470708
 30
0.0
 40
2.0
  0
CIRCLE
  5
3E
100
AcDbEntity
  8
______
  6
CONTINUOUS
 62
         7
100
AcDbCircle
 10
580.6610896263
 20
294.3646230469
 30
0.0
 40
2.0
  0
CIRCLE
  5
3F
100
AcDbEntity
  8
______
  6
CONTINUOUS
 62
         7
100
AcDbCircle
 10
576.0569451973
 20
296.2717221125
 30
0.0
 40
2.0
  0
CIRCLE
  5
40
100
AcDbEntity
  8
______
  6
CONTINUOUS
 62
         7
100
AcDbCircle
 10
572.1032767445
 20
299.3054786179
 30
0.0
 40
2.0
  0
CIRCLE
  5
41
100
AcDbEntity
  8
______
  6
CONTINUOUS
 62
         7
100
AcDbCircle
 10
569.0695202391
 20
303.2591470708
 30
0.0
 40
2.0
  0
CIRCLE
  5
42
100
AcDbEntity
  8
______
  6
CONTINUOUS
 62
         7
100
AcDbCircle
 10
567.1624211735
 20
307.8632914998
 30
0.0
 40
2.0
  0
CIRCLE
  5
43
100
AcDbEntity
  8
______
  6
CONTINUOUS
 62
         7
100
AcDbCircle
 10
566.5119451973
 20
312.8041470708
 30
0.0
 40
2.0
  0
CIRCLE
  5
44
100
AcDbEntity
  8
______
  6
CONTINUOUS
 62
         7
100
AcDbCircle
 10
567.1624211735
 20
317.7450026418
 30
0.0
 40
2.0
  0
CIRCLE
  5
45
100
AcDbEntity
  8
______
  6
CONTINUOUS
 62
         7
100
AcDbCircle
 10
569.0695202391
 20
322.3491470708
 30
0.0
 40
2.0
  0
CIRCLE
  5
46
100
AcDbEntity
  8
______
  6
CONTINUOUS
 62
         7
100
AcDbCircle
 10
572.1032767445
 20
326.3028155236
 30
0.0
 40
2.0
  0
CIRCLE
  5
47
100
AcDbEntity
  8
______
  6
CONTINUOUS
 62
         7
100
AcDbCircle
 10
576.0569451973
 20
329.336572029
 30
0.0
 40
2.0
  0
CIRCLE
  5
48
100
AcDbEntity
  8
______
  6
CONTINUOUS
 62
         7
100
AcDbCircle
 10
580.6610896263
 20
331.2436710946
 30
0.0
 40
2.0
  0
CIRCLE
  5
49
100
AcDbEntity
  8
______
  6
CONTINUOUS
 62
         7
100
AcDbCircle
 10
585.6019451973
 20
331.8941470708
 30
0.0
 40
2.0
  0
CIRCLE
  5
4A
100
AcDbEntity
  8
______
  6
CENTER
 62
         1
100
AcDbCircle
 10
585.6019451973
 20
312.8041470708
 30
0.0
 40
19.09
  0
ARC
  5
4B
100
AcDbEntity
  8
______
  6
CONTINUOUS
 62
         7
100
AcDbCircle
 10
585.6019451973
 20
312.8041470708
 30
0.0
 40
23.5
100
AcDbArc
 50
14.0196344853
 51
345.9803655147
  0
ARC
  5
4C
100
AcDbEntity
  8
______
  6
CONTINUOUS
 62
         7
100
AcDbCircle
 10
585.6019451973
 20
312.8041470708
 30
0.0
 40
25.0
100
AcDbArc
 50
18.783919611
 51
341.216080389
  0
LINE
  5
4D
100
AcDbEntity
  8
______
  6
DASHED
 62
         2
100
AcDbLine
 10
587.424775044
 20
302.9716859674
 30
0.0
 11
592.2099320446
 21
289.8245751596
 31
0.0
  0
LINE
  5
4E
100
AcDbEntity
  8
______
  6
DASHED
 62
         2
100
AcDbLine
 10
590.5257606925
 20
304.1003524403
 30
0.0
 11
595.3109176932
 21
290.9532416325
 31
0.0
  0
LINE
  5
4F
100
AcDbEntity
  8
______
  6
DASHED
 62
         2
100
AcDbLine
 10
595.6398101105
 20
291.0729486827
 30
0.0
 11
597.0762947124
 21
287.1262396754
 31
0.0
  0
LINE
  5
50
100
AcDbEntity
  8
______
  6
DASHED
 62
         2
100
AcDbLine
 10
595.6398101105
 20
291.0729486827
 30
0.0
 11
591.8810396273
 21
289.7048681094
 31
0.0
  0
LINE
  5
51
100
AcDbEntity
  8
______
  6
DASHED
 62
         2
100
AcDbLine
 10
591.8810396273
 20
289.7048681094
 30
0.0
 11
593.3175242293
 21
285.7581591021
 31
0.0
  0
LINE
  5
52
100
AcDbEntity
  8
______
  6
DASHED
 62
         2
100
AcDbLine
 10
579.3228507673
 20
335.9034260321
 30
0.0
 11
575.5640802842
 21
334.5353454588
 31
0.0
  0
LINE
  5
53
100
AcDbEntity
  8
______
  6
DASHED
 62
         2
100
AcDbLine
 10
575.8929727015
 20
334.655052509
 30
0.0
 11
580.6781297021
 21
321.5079417012
 31
0.0
  0
LINE
  5
54
100
AcDbEntity
  8
______
  6
DASHED
 62
         2
100
AcDbLine
 10
578.99395835
 20
335.783718982
 30
0.0
 11
583.7791153507
 21
322.6366081742
 31
0.0
  0
LINE
  5
55
100
AcDbEntity
  8
______
  6
DASHED
 62
         2
100
AcDbLine
 10
575.5640802842
 20
334.5353454588
 30
0.0
 11
574.1275956822
 21
338.4820544661
 31
0.0
  0
LINE
  5
56
100
AcDbEntity
  8
______
  6
DASHED
 62
         2
100
AcDbLine
 10
579.3228507673
 20
335.9034260321
 30
0.0
 11
577.8863661653
 21
339.8501350394
 31
0.0
  0
LINE
  5
57
100
AcDbEntity
  8
______
  6
CENTER
 62
         1
100
AcDbLine
 10
573.7081947132
 20
345.4819579586
 30
0.0
 11
597.6428184566
 21
279.7221196804
 31
0.0
  0
LINE
  5
58
100
AcDbEntity
  8
______
  6
CENTER
 62
         1
100
AcDbLine
 10
211.347451327
 20
346.2678719801
 30
0.0
 11
187.1173556587
 21
279.6962312603
 31
0.0
  0
LINE
  5
59
100
AcDbEntity
  8
______
  6
CENTER
 62
         1
100
AcDbLine
 10
192.7521855248
 20
286.4063858796
 30
0.0
 11
187.1140298001
 21
288.4585067395
 31
0.0
  0
POLYLINE
  5
5B
100
AcDbEntity
  8
______
  6
CONTINUOUS
 62
         7
100
AcDb3dPolyline
 66
         1
 10
0.0
 20
0.0
 30
0.0
 70
         8
  0
VERTEX
  5
5D
100
AcDbEntity
  8
______
  6
CONTINUOUS
 62
         7
100
AcDbVertex
100
AcDb3dPolylineVertex
 10
188.0537224209
 20
288.1164865962
 30
0.0
 70
        32
  0
VERTEX
  5
5F
100
AcDbEntity
  8
______
  6
CONTINUOUS
 62
         7
100
AcDbVertex
100
AcDb3dPolylineVertex
 10
188.0537224209
 20
288.1164865962
 30
0.0
 70
        32
  0
SEQEND
  5
61
100
AcDbEntity
  8
______
  6
CONTINUOUS
 62
         7
  0
ARC
  5
62
100
AcDbEntity
  8
______
  6
CONTINUOUS
 62
         7
100
AcDbCircle
 10
190.8467014744
 20
287.0999253558
 30
0.0
 40
2.9722262277
100
AcDbArc
 50
141.257725858
 51
160.0
  0
POLYLINE
  5
64
100
AcDbEntity
  8
______
  6
CONTINUOUS
 62
         7
100
AcDb3dPolyline
 66
         1
 10
0.0
 20
0.0
 30
0.0
 70
         8
  0
VERTEX
  5
66
100
AcDbEntity
  8
______
  6
CONTINUOUS
 62
         7
100
AcDbVertex
100
AcDb3dPolylineVertex
 10
188.5284575227
 20
288.9599989374
 30
0.0
 70
        32
  0
VERTEX
  5
68
100
AcDbEntity
  8
______
  6
CONTINUOUS
 62
         7
100
AcDbVertex
100
AcDb3dPolylineVertex
 10
188.5284575227
 20
288.9599989374
 30
0.0
 70
        32
  0
SEQEND
  5
6A
100
AcDbEntity
  8
______
  6
CONTINUOUS
 62
         7
  0
ARC
  5
6B
100
AcDbEntity
  8
______
  6
CONTINUOUS
 62
         7
100
AcDbCircle
 10
190.4546241189
 20
287.4145137883
 30
0.0
 40
2.4695428935
100
AcDbArc
 50
120.6773100904
 51
141.257725858
  0
POLYLINE
  5
6D
100
AcDbEntity
  8
______
  6
CONTINUOUS
 62
         7
100
AcDb3dPolyline
 66
         1
 10
0.0
 20
0.0
 30
0.0
 70
         8
  0
VERTEX
  5
6F
100
AcDbEntity
  8
______
  6
CONTINUOUS
 62
         7
100
AcDbVertex
100
AcDb3dPolylineVertex
 10
189.194657495
 20
289.5384549855
 30
0.0
 70
        32
  0
VERTEX
  5
71
100
AcDbEntity
  8
______
  6
CONTINUOUS
 62
         7
100
AcDbVertex
100
AcDb3dPolylineVertex
 10
189.194657495
 20
289.5384549855
 30
0.0
 70
        32
  0
SEQEND
  5
73
100
AcDbEntity
  8
______
  6
CONTINUOUS
 62
         7
  0
ARC
  5
74
100
AcDbEntity
  8
______
  6
CONTINUOUS
 62
         7
100
AcDbCircle
 10
190.2548855879
 20
287.7512154808
 30
0.0
 40
2.0780540551
100
AcDbArc
 50
96.8239621527
 51
120.6773100904
  0
ARC
  5
75
100
AcDbEntity
  8
______
  6
CONTINUOUS
 62
         7
100
AcDbCircle
 10
190.2039752592
 20
288.1766489151
 30
0.0
 40
1.6495853065
100
AcDbArc
 50
70.0
 51
96.8239621528
  0
POLYLINE
  5
77
100
AcDbEntity
  8
______
  6
CONTINUOUS
 62
         7
100
AcDb3dPolyline
 66
         1
 10
0.0
 20
0.0
 30
0.0
 70
         8
  0
VERTEX
  5
79
100
AcDbEntity
  8
______
  6
CONTINUOUS
 62
         7
100
AcDbVertex
100
AcDb3dPolylineVertex
 10
190.7681666621
 20
289.726752055
 30
0.0
 70
        32
  0
VERTEX
  5
7B
100
AcDbEntity
  8
______
  6
CONTINUOUS
 62
         7
100
AcDbVertex
100
AcDb3dPolylineVertex
 10
190.7681666621
 20
289.726752055
 30
0.0
 70
        32
  0
SEQEND
  5
7D
100
AcDbEntity
  8
______
  6
CONTINUOUS
 62
         7
  0
ARC
  5
7E
100
AcDbEntity
  8
______
  6
CONTINUOUS
 62
         7
100
AcDbCircle
 10
190.2039752592
 20
288.1766489151
 30
0.0
 40
1.6495853065
100
AcDbArc
 50
43.1760378472
 51
70.0
  0
POLYLINE
  5
80
100
AcDbEntity
  8
______
  6
CONTINUOUS
 62
         7
100
AcDb3dPolyline
 66
         1
 10
0.0
 20
0.0
 30
0.0
 70
         8
  0
VERTEX
  5
82
100
AcDbEntity
  8
______
  6
CONTINUOUS
 62
         7
100
AcDbVertex
100
AcDb3dPolylineVertex
 10
191.4069433508
 20
289.3053647579
 30
0.0
 70
        32
  0
VERTEX
  5
84
100
AcDbEntity
  8
______
  6
CONTINUOUS
 62
         7
100
AcDbVertex
100
AcDb3dPolylineVertex
 10
191.4069433508
 20
289.3053647579
 30
0.0
 70
        32
  0
SEQEND
  5
86
100
AcDbEntity
  8
______
  6
CONTINUOUS
 62
         7
  0
POLYLINE
  5
88
100
AcDbEntity
  8
______
  6
CONTINUOUS
 62
         7
100
AcDb3dPolyline
 66
         1
 10
0.0
 20
0.0
 30
0.0
 70
         8
  0
VERTEX
  5
8A
100
AcDbEntity
  8
______
  6
CONTINUOUS
 62
         7
100
AcDbVertex
100
AcDb3dPolylineVertex
 10
191.9910239989
 20
287.6997278059
 30
0.0
 70
        32
  0
VERTEX
  5
8C
100
AcDbEntity
  8
______
  6
CONTINUOUS
 62
         7
100
AcDbVertex
100
AcDb3dPolylineVertex
 10
191.9910239989
 20
287.6997278059
 30
0.0
 70
        32
  0
SEQEND
  5
8E
100
AcDbEntity
  8
______
  6
CONTINUOUS
 62
         7
  0
ARC
  5
8F
100
AcDbEntity
  8
______
  6
CONTINUOUS
 62
         7
100
AcDbCircle
 10
189.0195138505
 20
287.7649672633
 30
0.0
 40
2.9722262277
100
AcDbArc
 50
339.9999999999
 51
358.742274142
  0
POLYLINE
  5
91
100
AcDbEntity
  8
______
  6
CONTINUOUS
 62
         7
100
AcDb3dPolyline
 66
         1
 10
0.0
 20
0.0
 30
0.0
 70
         8
  0
VERTEX
  5
93
100
AcDbEntity
  8
______
  6
CONTINUOUS
 62
         7
100
AcDbVertex
100
AcDb3dPolylineVertex
 10
191.8124929041
 20
286.7484060229
 30
0.0
 70
        32
  0
VERTEX
  5
95
100
AcDbEntity
  8
______
  6
CONTINUOUS
 62
         7
100
AcDbVertex
100
AcDb3dPolylineVertex
 10
191.8124929041
 20
286.7484060229
 30
0.0
 70
        32
  0
SEQEND
  5
97
100
AcDbEntity
  8
______
  6
CONTINUOUS
 62
         7
  0
ARC
  5
98
100
AcDbEntity
  8
______
  6
CONTINUOUS
 62
         7
100
AcDbCircle
 10
189.0195138506
 20
287.7649672633
 30
0.0
 40
2.9722262277
100
AcDbArc
 50
321.257725858
 51
340.0
  0
POLYLINE
  5
9A
100
AcDbEntity
  8
______
  6
CONTINUOUS
 62
         7
100
AcDb3dPolyline
 66
         1
 10
0.0
 20
0.0
 30
0.0
 70
         8
  0
VERTEX
  5
9C
100
AcDbEntity
  8
______
  6
CONTINUOUS
 62
         7
100
AcDbVertex
100
AcDb3dPolylineVertex
 10
191.3377578023
 20
285.9048936817
 30
0.0
 70
        32
  0
VERTEX
  5
9E
100
AcDbEntity
  8
______
  6
CONTINUOUS
 62
         7
100
AcDbVertex
100
AcDb3dPolylineVertex
 10
191.3377578023
 20
285.9048936817
 30
0.0
 70
        32
  0
SEQEND
  5
A0
100
AcDbEntity
  8
______
  6
CONTINUOUS
 62
         7
  0
ARC
  5
A1
100
AcDbEntity
  8
______
  6
CONTINUOUS
 62
         7
100
AcDbCircle
 10
189.411591206
 20
287.4503788308
 30
0.0
 40
2.4695428935
100
AcDbArc
 50
300.6773100904
 51
321.2577258581
  0
POLYLINE
  5
A3
100
AcDbEntity
  8
______
  6
CONTINUOUS
 62
         7
100
AcDb3dPolyline
 66
         1
 10
0.0
 20
0.0
 30
0.0
 70
         8
  0
VERTEX
  5
A5
100
AcDbEntity
  8
______
  6
CONTINUOUS
 62
         7
100
AcDbVertex
100
AcDb3dPolylineVertex
 10
190.6715578299
 20
285.3264376336
 30
0.0
 70
        32
  0
VERTEX
  5
A7
100
AcDbEntity
  8
______
  6
CONTINUOUS
 62
         7
100
AcDbVertex
100
AcDb3dPolylineVertex
 10
190.6715578299
 20
285.3264376336
 30
0.0
 70
        32
  0
SEQEND
  5
A9
100
AcDbEntity
  8
______
  6
CONTINUOUS
 62
         7
  0
ARC
  5
AA
100
AcDbEntity
  8
______
  6
CONTINUOUS
 62
         7
100
AcDbCircle
 10
189.6113297371
 20
287.1136771383
 30
0.0
 40
2.0780540551
100
AcDbArc
 50
276.8239621528
 51
300.6773100903
  0
POLYLINE
  5
AC
100
AcDbEntity
  8
______
  6
CONTINUOUS
 62
         7
100
AcDb3dPolyline
 66
         1
 10
0.0
 20
0.0
 30
0.0
 70
         8
  0
VERTEX
  5
AE
100
AcDbEntity
  8
______
  6
CONTINUOUS
 62
         7
100
AcDbVertex
100
AcDb3dPolylineVertex
 10
189.8582425291
 20
285.0503442206
 30
0.0
 70
        32
  0
VERTEX
  5
B0
100
AcDbEntity
  8
______
  6
CONTINUOUS
 62
         7
100
AcDbVertex
100
AcDb3dPolylineVertex
 10
189.8582425291
 20
285.0503442206
 30
0.0
 70
        32
  0
SEQEND
  5
B2
100
AcDbEntity
  8
______
  6
CONTINUOUS
 62
         7
  0
ARC
  5
B3
100
AcDbEntity
  8
______
  6
CONTINUOUS
 62
         7
100
AcDbCircle
 10
189.6622400658
 20
286.688243704
 30
0.0
 40
1.6495853065
100
AcDbArc
 50
250.0
 51
276.8239621528
  0
POLYLINE
  5
B5
100
AcDbEntity
  8
______
  6
CONTINUOUS
 62
         7
100
AcDb3dPolyline
 66
         1
 10
0.0
 20
0.0
 30
0.0
 70
         8
  0
VERTEX
  5
B7
100
AcDbEntity
  8
______
  6
CONTINUOUS
 62
         7
100
AcDbVertex
100
AcDb3dPolylineVertex
 10
189.0980486628
 20
285.1381405641
 30
0.0
 70
        32
  0
VERTEX
  5
B9
100
AcDbEntity
  8
______
  6
CONTINUOUS
 62
         7
100
AcDbVertex
100
AcDb3dPolylineVertex
 10
189.0980486628
 20
285.1381405641
 30
0.0
 70
        32
  0
SEQEND
  5
BB
100
AcDbEntity
  8
______
  6
CONTINUOUS
 62
         7
  0
ARC
  5
BC
100
AcDbEntity
  8
______
  6
CONTINUOUS
 62
         7
100
AcDbCircle
 10
189.6622400658
 20
286.688243704
 30
0.0
 40
1.6495853065
100
AcDbArc
 50
223.1760378472
 51
250.0
  0
POLYLINE
  5
BE
100
AcDbEntity
  8
______
  6
CONTINUOUS
 62
         7
100
AcDb3dPolyline
 66
         1
 10
0.0
 20
0.0
 30
0.0
 70
         8
  0
VERTEX
  5
C0
100
AcDbEntity
  8
______
  6
CONTINUOUS
 62
         7
100
AcDbVertex
100
AcDb3dPolylineVertex
 10
188.4592719741
 20
285.5595278612
 30
0.0
 70
        32
  0
VERTEX
  5
C2
100
AcDbEntity
  8
______
  6
CONTINUOUS
 62
         7
100
AcDbVertex
100
AcDb3dPolylineVertex
 10
188.4592719741
 20
285.5595278612
 30
0.0
 70
        32
  0
SEQEND
  5
C4
100
AcDbEntity
  8
______
  6
CONTINUOUS
 62
         7
  0
ARC
  5
C5
100
AcDbEntity
  8
______
  6
CONTINUOUS
 62
         7
100
AcDbCircle
 10
189.9747029805
 20
286.9814200937
 30
0.0
 40
2.0780540551
100
AcDbArc
 50
199.3226899096
 51
223.1760378473
  0
ARC
  5
C6
100
AcDbEntity
  8
______
  6
CONTINUOUS
 62
         7
100
AcDbCircle
 10
190.3441392484
 20
287.1109591014
 30
0.0
 40
2.4695428935
100
AcDbArc
 50
178.742274142
 51
199.3226899096
  0
ARC
  5
C7
100
AcDbEntity
  8
______
  6
CONTINUOUS
 62
         7
100
AcDbCircle
 10
190.8467014744
 20
287.0999253558
 30
0.0
 40
2.9722262277
100
AcDbArc
 50
160.0
 51
178.742274142
  0
ARC
  5
C8
100
AcDbEntity
  8
______
  6
CONTINUOUS
 62
         7
100
AcDbCircle
 10
189.5220760765
 20
287.7539335177
 30
0.0
 40
2.4695428935
100
AcDbArc
 50
358.742274142
 51
379.3226899097
  0
ARC
  5
C9
100
AcDbEntity
  8
______
  6
CONTINUOUS
 62
         7
100
AcDbCircle
 10
189.8915123445
 20
287.8834725254
 30
0.0
 40
2.0780540551
100
AcDbArc
 50
19.3226899096
 51
43.1760378472
  0
POLYLINE
  5
CB
100
AcDbEntity
  8
______
  6
CONTINUOUS
 62
         7
100
AcDb3dPolyline
 66
         1
 10
0.0
 20
0.0
 30
0.0
 70
         8
  0
VERTEX
  5
CD
100
AcDbEntity
  8
______
  6
CONTINUOUS
 62
         7
100
AcDbVertex
100
AcDb3dPolylineVertex
 10
206.5228101605
 20
338.8598881186
 30
0.0
 70
        32
  0
VERTEX
  5
CF
100
AcDbEntity
  8
______
  6
CONTINUOUS
 62
         7
100
AcDbVertex
100
AcDb3dPolylineVertex
 10
206.5228101605
 20
338.8598881186
 30
0.0
 70
        32
  0
SEQEND
  5
D1
100
AcDbEntity
  8
______
  6
CONTINUOUS
 62
         7
  0
ARC
  5
D2
100
AcDbEntity
  8
______
  6
CONTINUOUS
 62
         7
100
AcDbCircle
 10
209.315789214
 20
337.8433268782
 30
0.0
 40
2.9722262277
100
AcDbArc
 50
160.0
 51
178.7422741421
  0
POLYLINE
  5
D4
100
AcDbEntity
  8
______
  6
CONTINUOUS
 62
         7
100
AcDb3dPolyline
 66
         1
 10
0.0
 20
0.0
 30
0.0
 70
         8
  0
VERTEX
  5
D6
100
AcDbEntity
  8
______
  6
CONTINUOUS
 62
         7
100
AcDbVertex
100
AcDb3dPolylineVertex
 10
206.3442790656
 20
337.9085663356
 30
0.0
 70
        32
  0
VERTEX
  5
D8
100
AcDbEntity
  8
______
  6
CONTINUOUS
 62
         7
100
AcDbVertex
100
AcDb3dPolylineVertex
 10
206.3442790656
 20
337.9085663356
 30
0.0
 70
        32
  0
SEQEND
  5
DA
100
AcDbEntity
  8
______
  6
CONTINUOUS
 62
         7
  0
ARC
  5
DB
100
AcDbEntity
  8
______
  6
CONTINUOUS
 62
         7
100
AcDbCircle
 10
208.813226988
 20
337.8543606238
 30
0.0
 40
2.4695428935
100
AcDbArc
 50
178.7422741421
 51
199.3226899097
  0
POLYLINE
  5
DD
100
AcDbEntity
  8
______
  6
CONTINUOUS
 62
         7
100
AcDb3dPolyline
 66
         1
 10
0.0
 20
0.0
 30
0.0
 70
         8
  0
VERTEX
  5
DF
100
AcDbEntity
  8
______
  6
CONTINUOUS
 62
         7
100
AcDbVertex
100
AcDb3dPolylineVertex
 10
206.482793472
 20
337.0372182066
 30
0.0
 70
        32
  0
VERTEX
  5
E1
100
AcDbEntity
  8
______
  6
CONTINUOUS
 62
         7
100
AcDbVertex
100
AcDb3dPolylineVertex
 10
206.482793472
 20
337.0372182066
 30
0.0
 70
        32
  0
SEQEND
  5
E3
100
AcDbEntity
  8
______
  6
CONTINUOUS
 62
         7
  0
ARC
  5
E4
100
AcDbEntity
  8
______
  6
CONTINUOUS
 62
         7
100
AcDbCircle
 10
208.4437907201
 20
337.7248216162
 30
0.0
 40
2.0780540551
100
AcDbArc
 50
199.3226899097
 51
223.1760378473
  0
POLYLINE
  5
E6
100
AcDbEntity
  8
______
  6
CONTINUOUS
 62
         7
100
AcDb3dPolyline
 66
         1
 10
0.0
 20
0.0
 30
0.0
 70
         8
  0
VERTEX
  5
E8
100
AcDbEntity
  8
______
  6
CONTINUOUS
 62
         7
100
AcDbVertex
100
AcDb3dPolylineVertex
 10
206.9283597137
 20
336.3029293836
 30
0.0
 70
        32
  0
VERTEX
  5
EA
100
AcDbEntity
  8
______
  6
CONTINUOUS
 62
         7
100
AcDbVertex
100
AcDb3dPolylineVertex
 10
206.9283597137
 20
336.3029293836
 30
0.0
 70
        32
  0
SEQEND
  5
EC
100
AcDbEntity
  8
______
  6
CONTINUOUS
 62
         7
  0
ARC
  5
ED
100
AcDbEntity
  8
______
  6
CONTINUOUS
 62
         7
100
AcDbCircle
 10
208.1313278054
 20
337.4316452264
 30
0.0
 40
1.6495853065
100
AcDbArc
 50
223.1760378472
 51
249.9999999999
  0
POLYLINE
  5
EF
100
AcDbEntity
  8
______
  6
CONTINUOUS
 62
         7
100
AcDb3dPolyline
 66
         1
 10
0.0
 20
0.0
 30
0.0
 70
         8
  0
VERTEX
  5
F1
100
AcDbEntity
  8
______
  6
CONTINUOUS
 62
         7
100
AcDbVertex
100
AcDb3dPolylineVertex
 10
207.5671364024
 20
335.8815420866
 30
0.0
 70
        32
  0
VERTEX
  5
F3
100
AcDbEntity
  8
______
  6
CONTINUOUS
 62
         7
100
AcDbVertex
100
AcDb3dPolylineVertex
 10
207.5671364024
 20
335.8815420866
 30
0.0
 70
        32
  0
SEQEND
  5
F5
100
AcDbEntity
  8
______
  6
CONTINUOUS
 62
         7
  0
ARC
  5
F6
100
AcDbEntity
  8
______
  6
CONTINUOUS
 62
         7
100
AcDbCircle
 10
208.1313278054
 20
337.4316452264
 30
0.0
 40
1.6495853065
100
AcDbArc
 50
250.0
 51
276.8239621528
  0
POLYLINE
  5
F8
100
AcDbEntity
  8
______
  6
CONTINUOUS
 62
         7
100
AcDb3dPolyline
 66
         1
 10
0.0
 20
0.0
 30
0.0
 70
         8
  0
VERTEX
  5
FA
100
AcDbEntity
  8
______
  6
CONTINUOUS
 62
         7
100
AcDbVertex
100
AcDb3dPolylineVertex
 10
208.3273302687
 20
335.793745743
 30
0.0
 70
        32
  0
VERTEX
  5
FC
100
AcDbEntity
  8
______
  6
CONTINUOUS
 62
         7
100
AcDbVertex
100
AcDb3dPolylineVertex
 10
208.3273302687
 20
335.793745743
 30
0.0
 70
        32
  0
SEQEND
  5
FE
100
AcDbEntity
  8
______
  6
CONTINUOUS
 62
         7
  0
ARC
  5
FF
100
AcDbEntity
  8
______
  6
CONTINUOUS
 62
         7
100
AcDbCircle
 10
208.0804174767
 20
337.8570786607
 30
0.0
 40
2.0780540551
100
AcDbArc
 50
276.8239621528
 51
300.6773100904
  0
POLYLINE
  5
101
100
AcDbEntity
  8
______
  6
CONTINUOUS
 62
         7
100
AcDb3dPolyline
 66
         1
 10
0.0
 20
0.0
 30
0.0
 70
         8
  0
VERTEX
  5
103
100
AcDbEntity
  8
______
  6
CONTINUOUS
 62
         7
100
AcDbVertex
100
AcDb3dPolylineVertex
 10
209.1406455695
 20
336.069839156
 30
0.0
 70
        32
  0
VERTEX
  5
105
100
AcDbEntity
  8
______
  6
CONTINUOUS
 62
         7
100
AcDbVertex
100
AcDb3dPolylineVertex
 10
209.1406455695
 20
336.069839156
 30
0.0
 70
        32
  0
SEQEND
  5
107
100
AcDbEntity
  8
______
  6
CONTINUOUS
 62
         7
  0
ARC
  5
108
100
AcDbEntity
  8
______
  6
CONTINUOUS
 62
         7
100
AcDbCircle
 10
207.8806789456
 20
338.1937803533
 30
0.0
 40
2.4695428935
100
AcDbArc
 50
300.6773100903
 51
321.2577258579
  0
POLYLINE
  5
10A
100
AcDbEntity
  8
______
  6
CONTINUOUS
 62
         7
100
AcDb3dPolyline
 66
         1
 10
0.0
 20
0.0
 30
0.0
 70
         8
  0
VERTEX
  5
10C
100
AcDbEntity
  8
______
  6
CONTINUOUS
 62
         7
100
AcDbVertex
100
AcDb3dPolylineVertex
 10
209.8068455419
 20
336.6482952041
 30
0.0
 70
        32
  0
VERTEX
  5
10E
100
AcDbEntity
  8
______
  6
CONTINUOUS
 62
         7
100
AcDbVertex
100
AcDb3dPolylineVertex
 10
209.8068455419
 20
336.6482952041
 30
0.0
 70
        32
  0
SEQEND
  5
110
100
AcDbEntity
  8
______
  6
CONTINUOUS
 62
         7
  0
ARC
  5
111
100
AcDbEntity
  8
______
  6
CONTINUOUS
 62
         7
100
AcDbCircle
 10
207.4886015901
 20
338.5083687857
 30
0.0
 40
2.9722262277
100
AcDbArc
 50
321.257725858
 51
340.0
  0
POLYLINE
  5
113
100
AcDbEntity
  8
______
  6
CONTINUOUS
 62
         7
100
AcDb3dPolyline
 66
         1
 10
0.0
 20
0.0
 30
0.0
 70
         8
  0
VERTEX
  5
115
100
AcDbEntity
  8
______
  6
CONTINUOUS
 62
         7
100
AcDbVertex
100
AcDb3dPolylineVertex
 10
210.2815806436
 20
337.4918075453
 30
0.0
 70
        32
  0
VERTEX
  5
117
100
AcDbEntity
  8
______
  6
CONTINUOUS
 62
         7
100
AcDbVertex
100
AcDb3dPolylineVertex
 10
210.2815806436
 20
337.4918075453
 30
0.0
 70
        32
  0
SEQEND
  5
119
100
AcDbEntity
  8
______
  6
CONTINUOUS
 62
         7
  0
ARC
  5
11A
100
AcDbEntity
  8
______
  6
CONTINUOUS
 62
         7
100
AcDbCircle
 10
207.4886015901
 20
338.5083687857
 30
0.0
 40
2.9722262277
100
AcDbArc
 50
339.9999999999
 51
358.742274142
  0
POLYLINE
  5
11C
100
AcDbEntity
  8
______
  6
CONTINUOUS
 62
         7
100
AcDb3dPolyline
 66
         1
 10
0.0
 20
0.0
 30
0.0
 70
         8
  0
VERTEX
  5
11E
100
AcDbEntity
  8
______
  6
CONTINUOUS
 62
         7
100
AcDbVertex
100
AcDb3dPolylineVertex
 10
210.4601117385
 20
338.4431293283
 30
0.0
 70
        32
  0
VERTEX
  5
120
100
AcDbEntity
  8
______
  6
CONTINUOUS
 62
         7
100
AcDbVertex
100
AcDb3dPolylineVertex
 10
210.4601117385
 20
338.4431293283
 30
0.0
 70
        32
  0
SEQEND
  5
122
100
AcDbEntity
  8
______
  6
CONTINUOUS
 62
         7
  0
ARC
  5
123
100
AcDbEntity
  8
______
  6
CONTINUOUS
 62
         7
100
AcDbCircle
 10
207.9911638161
 20
338.4973350402
 30
0.0
 40
2.4695428935
100
AcDbArc
 50
358.742274142
 51
379.3226899097
  0
POLYLINE
  5
125
100
AcDbEntity
  8
______
  6
CONTINUOUS
 62
         7
100
AcDb3dPolyline
 66
         1
 10
0.0
 20
0.0
 30
0.0
 70
         8
  0
VERTEX
  5
127
100
AcDbEntity
  8
______
  6
CONTINUOUS
 62
         7
100
AcDbVertex
100
AcDb3dPolylineVertex
 10
210.3215973322
 20
339.3144774574
 30
0.0
 70
        32
  0
VERTEX
  5
129
100
AcDbEntity
  8
______
  6
CONTINUOUS
 62
         7
100
AcDbVertex
100
AcDb3dPolylineVertex
 10
210.3215973322
 20
339.3144774574
 30
0.0
 70
        32
  0
SEQEND
  5
12B
100
AcDbEntity
  8
______
  6
CONTINUOUS
 62
         7
  0
ARC
  5
12C
100
AcDbEntity
  8
______
  6
CONTINUOUS
 62
         7
100
AcDbCircle
 10
208.3606000841
 20
338.6268740478
 30
0.0
 40
2.0780540551
100
AcDbArc
 50
19.3226899096
 51
43.1760378472
  0
POLYLINE
  5
12E
100
AcDbEntity
  8
______
  6
CONTINUOUS
 62
         7
100
AcDb3dPolyline
 66
         1
 10
0.0
 20
0.0
 30
0.0
 70
         8
  0
VERTEX
  5
130
100
AcDbEntity
  8
______
  6
CONTINUOUS
 62
         7
100
AcDbVertex
100
AcDb3dPolylineVertex
 10
209.8760310904
 20
340.0487662803
 30
0.0
 70
        32
  0
VERTEX
  5
132
100
AcDbEntity
  8
______
  6
CONTINUOUS
 62
         7
100
AcDbVertex
100
AcDb3dPolylineVertex
 10
209.8760310904
 20
340.0487662803
 30
0.0
 70
        32
  0
SEQEND
  5
134
100
AcDbEntity
  8
______
  6
CONTINUOUS
 62
         7
  0
ARC
  5
135
100
AcDbEntity
  8
______
  6
CONTINUOUS
 62
         7
100
AcDbCircle
 10
208.6730629987
 20
338.9200504375
 30
0.0
 40
1.6495853065
100
AcDbArc
 50
43.1760378472
 51
70.0
  0
POLYLINE
  5
137
100
AcDbEntity
  8
______
  6
CONTINUOUS
 62
         7
100
AcDb3dPolyline
 66
         1
 10
0.0
 20
0.0
 30
0.0
 70
         8
  0
VERTEX
  5
139
100
AcDbEntity
  8
______
  6
CONTINUOUS
 62
         7
100
AcDbVertex
100
AcDb3dPolylineVertex
 10
209.2372544017
 20
340.4701535774
 30
0.0
 70
        32
  0
VERTEX
  5
13B
100
AcDbEntity
  8
______
  6
CONTINUOUS
 62
         7
100
AcDbVertex
100
AcDb3dPolylineVertex
 10
209.2372544017
 20
340.4701535774
 30
0.0
 70
        32
  0
SEQEND
  5
13D
100
AcDbEntity
  8
______
  6
CONTINUOUS
 62
         7
  0
ARC
  5
13E
100
AcDbEntity
  8
______
  6
CONTINUOUS
 62
         7
100
AcDbCircle
 10
208.6730629987
 20
338.9200504375
 30
0.0
 40
1.6495853065
100
AcDbArc
 50
70.0000000001
 51
96.8239621529
  0
POLYLINE
  5
140
100
AcDbEntity
  8
______
  6
CONTINUOUS
 62
         7
100
AcDb3dPolyline
 66
         1
 10
0.0
 20
0.0
 30
0.0
 70
         8
  0
VERTEX
  5
142
100
AcDbEntity
  8
______
  6
CONTINUOUS
 62
         7
100
AcDbVertex
100
AcDb3dPolylineVertex
 10
208.4770605355
 20
340.5579499209
 30
0.0
 70
        32
  0
VERTEX
  5
144
100
AcDbEntity
  8
______
  6
CONTINUOUS
 62
         7
100
AcDbVertex
100
AcDb3dPolylineVertex
 10
208.4770605355
 20
340.5579499209
 30
0.0
 70
        32
  0
SEQEND
  5
146
100
AcDbEntity
  8
______
  6
CONTINUOUS
 62
         7
  0
ARC
  5
147
100
AcDbEntity
  8
______
  6
CONTINUOUS
 62
         7
100
AcDbCircle
 10
208.7239733274
 20
338.4946170033
 30
0.0
 40
2.0780540551
100
AcDbArc
 50
96.8239621528
 51
120.6773100904
  0
POLYLINE
  5
149
100
AcDbEntity
  8
______
  6
CONTINUOUS
 62
         7
100
AcDb3dPolyline
 66
         1
 10
0.0
 20
0.0
 30
0.0
 70
         8
  0
VERTEX
  5
14B
100
AcDbEntity
  8
______
  6
CONTINUOUS
 62
         7
100
AcDbVertex
100
AcDb3dPolylineVertex
 10
207.6637452346
 20
340.281856508
 30
0.0
 70
        32
  0
VERTEX
  5
14D
100
AcDbEntity
  8
______
  6
CONTINUOUS
 62
         7
100
AcDbVertex
100
AcDb3dPolylineVertex
 10
207.6637452346
 20
340.281856508
 30
0.0
 70
        32
  0
SEQEND
  5
14F
100
AcDbEntity
  8
______
  6
CONTINUOUS
 62
         7
  0
ARC
  5
150
100
AcDbEntity
  8
______
  6
CONTINUOUS
 62
         7
100
AcDbCircle
 10
208.9237118585
 20
338.1579153107
 30
0.0
 40
2.4695428935
100
AcDbArc
 50
120.6773100903
 51
141.257725858
  0
ARC
  5
151
100
AcDbEntity
  8
______
  6
CONTINUOUS
 62
         7
100
AcDbCircle
 10
209.315789214
 20
337.8433268782
 30
0.0
 40
2.9722262277
100
AcDbArc
 50
141.257725858
 51
160.0
  0
LINE
  5
152
100
AcDbEntity
  8
______
  6
CENTER
 62
         1
100
AcDbLine
 10
211.2212732644
 20
337.149787402
 30
0.0
 11
205.5831175397
 21
339.201908262
 31
0.0
  0
LINE
  5
153
100
AcDbEntity
  8
______
  6
CONTINUOUS
 62
         7
100
AcDbLine
 10
335.0111532632
 20
222.2559520747
 30
0.0
 11
337.3341378305
 21
225.5735178541
 31
0.0
  0
LINE
  5
154
100
AcDbEntity
  8
______
  6
CONTINUOUS
 62
         4
100
AcDbLine
 10
335.0111532633
 20
222.2559520747
 30
0.0
 11
339.1069134847
 21
219.3880698929
 31
0.0
  0
LINE
  5
155
100
AcDbEntity
  8
______
  6
CONTINUOUS
 62
         7
100
AcDbLine
 10
339.1069134847
 20
219.3880698929
 30
0.0
 11
341.4012192301
 21
222.6646780701
 31
0.0
  0
LINE
  5
156
100
AcDbEntity
  8
______
  6
CONTINUOUS
 62
         4
100
AcDbLine
 10
337.3054590087
 20
225.5325602518
 30
0.0
 11
341.4012192301
 21
222.6646780701
 31
0.0
  0
LINE
  5
157
100
AcDbEntity
  8
______
  6
CONTINUOUS
 62
         7
100
AcDbLine
 10
335.0111532633
 20
227.2000891592
 30
0.0
 11
337.3341378305
 21
225.5735178541
 31
0.0
  0
LINE
  5
158
100
AcDbEntity
  8
______
  6
CENTER
 62
         1
100
AcDbLine
 10
334.3005226079
 20
225.195090194
 30
0.0
 11
356.8111532632
 21
209.4329769192
 31
0.0
  0
LINE
  5
159
100
AcDbEntity
  8
______
  6
CONTINUOUS
 62
         7
100
AcDbLine
 10
335.211905016
 20
222.5426552902
 30
0.0
 11
356.8111532632
 21
207.4186988478
 31
0.0
  0
LINE
  5
15A
100
AcDbEntity
  8
______
  6
CONTINUOUS
 62
         7
100
AcDbLine
 10
337.1047072559
 20
225.2458570363
 30
0.0
 11
361.4522825873
 21
208.1975012522
 31
0.0
  0
LINE
  5
15B
100
AcDbEntity
  8
______
  6
CENTER
 62
         1
100
AcDbLine
 10
443.5107892834
 20
312.8041470708
 30
0.0
 11
363.9560025994
 21
312.8041470708
 31
0.0
  0
LINE
  5
15C
100
AcDbEntity
  8
______
  6
CENTER
 62
         1
100
AcDbLine
 10
352.2064493649
 20
312.8041470708
 30
0.0
 11
327.1700181737
 21
312.8041470708
 31
0.0
  0
DIMENSION
  5
160
100
AcDbEntity
  8
______
  6
CONTINUOUS
 62
         4
100
AcDbDimension
  2
*D0
 10
436.8111532632
 20
414.4780438179
 30
0.0
 11
341.4086145586
 21
416.5030438179
 31
0.0
  3
DIMSTYLE1
100
AcDbAlignedDimension
 13
436.8111532632
 23
327.0391470708
 33
0.0
 14
263.4111532632
 24
324.0164537872
 34
0.0
100
AcDbRotatedDimension
  0
DIMENSION
  5
16F
100
AcDbEntity
  8
______
  6
CONTINUOUS
 62
         4
100
AcDbDimension
  2
*D1
 10
331.8111532632
 20
403.5102075986
 30
0.0
 11
380.2611532632
 21
405.5352075986
 31
0.0
  3
DIMSTYLE1
100
AcDbAlignedDimension
 13
331.8111532632
 23
335.0291470708
 33
0.0
 14
436.8111532632
 24
327.0391470708
 34
0.0
100
AcDbRotatedDimension
  0
ARC
  5
17B
100
AcDbEntity
  8
______
  6
CONTINUOUS
 62
         7
100
AcDbCircle
 10
366.4717824133
 20
174.6725012522
 30
0.0
 40
0.8
100
AcDbArc
 50
45.0
 51
90.0
  0
ARC
  5
17C
100
AcDbEntity
  8
______
  6
CONTINUOUS
 62
         7
100
AcDbCircle
 10
366.4717824133
 20
220.7225012522
 30
0.0
 40
0.8
100
AcDbArc
 50
270.0
 51
315.0
  0
LINE
  5
17D
100
AcDbEntity
  8
______
  6
CONTINUOUS
 62
         7
100
AcDbLine
 10
367.0374678383
 20
220.1568158273
 30
0.0
 11
369.5781532632
 21
222.6975012522
 31
0.0
  0
LINE
  5
17E
100
AcDbEntity
  8
______
  6
CONTINUOUS
 62
         7
100
AcDbLine
 10
367.0374678383
 20
175.2381866772
 30
0.0
 11
369.5781532632
 21
172.6975012522
 31
0.0
  0
ARC
  5
17F
100
AcDbEntity
  8
______
  6
CONTINUOUS
 62
         7
100
AcDbCircle
 10
366.5317824133
 20
335.8891470708
 30
0.0
 40
0.8
100
AcDbArc
 50
270.0
 51
315.0
  0
ARC
  5
180
100
AcDbEntity
  8
______
  6
CONTINUOUS
 62
         7
100
AcDbCircle
 10
366.5317824133
 20
289.7191470708
 30
0.0
 40
0.8
100
AcDbArc
 50
45.0
 51
90.0
  0
LINE
  5
181
100
AcDbEntity
  8
______
  6
CONTINUOUS
 62
         7
100
AcDbLine
 10
369.5781532632
 20
337.8041470708
 30
0.0
 11
369.5781532632
 21
287.8041470708
 31
0.0
  0
LINE
  5
182
100
AcDbEntity
  8
______
  6
CONTINUOUS
 62
         7
100
AcDbLine
 10
367.0974678383
 20
335.3234616458
 30
0.0
 11
369.5781532632
 21
337.8041470708
 31
0.0
  0
LINE
  5
183
100
AcDbEntity
  8
______
  6
CONTINUOUS
 62
         7
100
AcDbLine
 10
367.0974678383
 20
290.2848324957
 30
0.0
 11
369.5781532632
 21
287.8041470708
 31
0.0
  0
LINE
  5
184
100
AcDbEntity
  8
______
  6
CONTINUOUS
 62
         7
100
AcDbLine
 10
366.8631532632
 20
335.0891470708
 30
0.0
 11
366.8631532632
 21
290.5191470708
 31
0.0
  0
LINE
  5
185
100
AcDbEntity
  8
______
  6
CENTER
 62
         1
100
AcDbLine
 10
438.5845856843
 20
197.6975012522
 30
0.0
 11
260.939941209
 21
197.6975012522
 31
0.0
  0
LINE
  5
186
100
AcDbEntity
  8
______
  6
CONTINUOUS
 62
         7
100
AcDbLine
 10
388.1856532632
 20
222.6975012522
 30
0.0
 11
369.5781532632
 21
222.6975012522
 31
0.0
  0
LINE
  5
187
100
AcDbEntity
  8
______
  6
CONTINUOUS
 62
         7
100
AcDbLine
 10
388.1856532632
 20
172.6975012522
 30
0.0
 11
369.5781532632
 21
172.6975012522
 31
0.0
  0
LINE
  5
188
100
AcDbEntity
  8
______
  6
CONTINUOUS
 62
         7
100
AcDbLine
 10
388.1856532632
 20
337.8041470708
 30
0.0
 11
369.5781532632
 21
337.8041470708
 31
0.0
  0
LINE
  5
189
100
AcDbEntity
  8
______
  6
CONTINUOUS
 62
         7
100
AcDbLine
 10
388.1856532632
 20
287.8041470708
 30
0.0
 11
369.5781532632
 21
287.8041470708
 31
0.0
  0
ARC
  5
18A
100
AcDbEntity
  8
______
  6
CONTINUOUS
 62
         7
100
AcDbCircle
 10
585.6019451973
 20
312.8041470708
 30
0.0
 40
23.5
100
AcDbArc
 50
345.9803655147
 51
374.0196344853
  0
ARC
  5
18B
100
AcDbEntity
  8
______
  6
CONTINUOUS
 62
         7
100
AcDbCircle
 10
585.6019451973
 20
312.8041470708
 30
0.0
 40
25.0
100
AcDbArc
 50
341.216080389
 51
378.783919611
  0
CIRCLE
  5
18C
100
AcDbEntity
  8
______
  6
CONTINUOUS
 62
         7
100
AcDbCircle
 10
585.6019451973
 20
312.8041470708
 30
0.0
 40
14.235
  0
LINE
  5
18D
100
AcDbEntity
  8
______
  6
DASHED
 62
         2
100
AcDbLine
 10
561.1019451973
 20
307.8041470708
 30
0.0
 11
560.6019451973
 21
307.3041470708
 31
0.0
  0
LINE
  5
18E
100
AcDbEntity
  8
______
  6
DASHED
 62
         2
100
AcDbLine
 10
561.1019451973
 20
317.8041470708
 30
0.0
 11
560.6019451973
 21
318.3041470708
 31
0.0
  0
LINE
  5
18F
100
AcDbEntity
  8
______
  6
DASHED
 62
         2
100
AcDbLine
 10
561.1019451973
 20
317.8041470708
 30
0.0
 11
561.1019451973
 21
307.8041470708
 31
0.0
  0
LINE
  5
190
100
AcDbEntity
  8
______
  6
DASHED
 62
         2
100
AcDbLine
 10
561.1019451973
 20
307.8041470708
 30
0.0
 11
567.2759451973
 21
307.8041470708
 31
0.0
  0
LINE
  5
191
100
AcDbEntity
  8
______
  6
DASHED
 62
         2
100
AcDbLine
 10
570.1626965433
 20
312.8041470708
 30
0.0
 11
567.2759451973
 21
307.8041470708
 31
0.0
  0
LINE
  5
192
100
AcDbEntity
  8
______
  6
DASHED
 62
         2
100
AcDbLine
 10
567.2759451973
 20
317.8041470708
 30
0.0
 11
570.1626965433
 21
312.8041470708
 31
0.0
  0
LINE
  5
193
100
AcDbEntity
  8
______
  6
DASHED
 62
         2
100
AcDbLine
 10
567.2759451973
 20
317.8041470708
 30
0.0
 11
567.2759451973
 21
307.8041470708
 31
0.0
  0
LINE
  5
194
100
AcDbEntity
  8
______
  6
DASHED
 62
         2
100
AcDbLine
 10
561.1019451973
 20
317.8041470708
 30
0.0
 11
567.2759451973
 21
317.8041470708
 31
0.0
  0
ARC
  5
195
100
AcDbEntity
  8
______
  6
CONTINUOUS
 62
         7
100
AcDbCircle
 10
351.4111532632
 20
335.5891470708
 30
0.0
 40
0.5
100
AcDbArc
 50
180.0
 51
270.0
  0
ARC
  5
196
100
AcDbEntity
  8
______
  6
CONTINUOUS
 62
         7
100
AcDbCircle
 10
351.4111532632
 20
290.0191470708
 30
0.0
 40
0.5
100
AcDbArc
 50
90.0
 51
180.0
  0
LINE
  5
197
100
AcDbEntity
  8
______
  6
CONTINUOUS
 62
         7
100
AcDbLine
 10
351.4111532632
 20
290.5191470708
 30
0.0
 11
366.5317824133
 21
290.5191470708
 31
0.0
  0
LINE
  5
198
100
AcDbEntity
  8
______
  6
CONTINUOUS
 62
         7
100
AcDbLine
 10
351.4111532632
 20
335.0891470708
 30
0.0
 11
366.5317824133
 21
335.0891470708
 31
0.0
  0
LINE
  5
199
100
AcDbEntity
  8
______
  6
CENTER
 62
         1
100
AcDbLine
 10
540.4814838241
 20
312.8041470708
 30
0.0
 11
613.0880145966
 21
312.8041470708
 31
0.0
  0
LINE
  5
19A
100
AcDbEntity
  8
______
  6
CONTINUOUS
 62
         7
100
AcDbLine
 10
561.0019451973
 20
304.8600617896
 30
0.0
 11
560.5019451973
 21
304.3600617896
 31
0.0
  0
LINE
  5
19B
100
AcDbEntity
  8
______
  6
CONTINUOUS
 62
         7
100
AcDbLine
 10
554.9694779646
 20
304.3600617896
 30
0.0
 11
560.5019451973
 21
304.3600617896
 31
0.0
  0
LINE
  5
19C
100
AcDbEntity
  8
______
  6
CONTINUOUS
 62
         7
100
AcDbLine
 10
555.3635632458
 20
304.7541470708
 30
0.0
 11
560.1019451973
 21
304.7541470708
 31
0.0
  0
LINE
  5
19D
100
AcDbEntity
  8
______
  6
CONTINUOUS
 62
         7
100
AcDbLine
 10
554.9694779646
 20
304.3600617896
 30
0.0
 11
555.3635632458
 21
304.7541470708
 31
0.0
  0
LINE
  5
19E
100
AcDbEntity
  8
______
  6
CONTINUOUS
 62
         7
100
AcDbLine
 10
560.6019451973
 20
305.2541470708
 30
0.0
 11
560.1019451973
 21
304.7541470708
 31
0.0
  0
LINE
  5
19F
100
AcDbEntity
  8
______
  6
CONTINUOUS
 62
         7
100
AcDbLine
 10
561.0019451973
 20
320.7482323519
 30
0.0
 11
560.5019451973
 21
321.2482323519
 31
0.0
  0
LINE
  5
1A0
100
AcDbEntity
  8
______
  6
CONTINUOUS
 62
         7
100
AcDbLine
 10
554.9694779646
 20
321.2482323519
 30
0.0
 11
555.3635632458
 21
320.8541470708
 31
0.0
  0
LINE
  5
1A1
100
AcDbEntity
  8
______
  6
CONTINUOUS
 62
         7
100
AcDbLine
 10
560.6019451973
 20
320.3541470708
 30
0.0
 11
560.1019451973
 21
320.8541470708
 31
0.0
  0
LINE
  5
1A2
100
AcDbEntity
  8
______
  6
CONTINUOUS
 62
         7
100
AcDbLine
 10
560.6019451973
 20
320.3541470708
 30
0.0
 11
560.6019451973
 21
305.2541470708
 31
0.0
  0
LINE
  5
1A3
100
AcDbEntity
  8
______
  6
CONTINUOUS
 62
         7
100
AcDbLine
 10
555.3635632458
 20
320.8541470708
 30
0.0
 11
560.1019451973
 21
320.8541470708
 31
0.0
  0
LINE
  5
1A4
100
AcDbEntity
  8
______
  6
CONTINUOUS
 62
         7
100
AcDbLine
 10
554.9694779646
 20
321.2482323519
 30
0.0
 11
560.5019451973
 21
321.2482323519
 31
0.0
  0
LINE
  5
1A5
100
AcDbEntity
  8
______
  6
DASHED
 62
         2
100
AcDbLine
 10
608.0019451973
 20
320.7482323519
 30
0.0
 11
608.5019451973
 21
321.2482323519
 31
0.0
  0
LINE
  5
1A6
100
AcDbEntity
  8
______
  6
DASHED
 62
         2
100
AcDbLine
 10
608.0019451973
 20
304.8600617896
 30
0.0
 11
608.5019451973
 21
304.3600617896
 31
0.0
  0
LINE
  5
1A7
100
AcDbEntity
  8
______
  6
CONTINUOUS
 62
         7
100
AcDbLine
 10
616.23441243
 20
304.3600617896
 30
0.0
 11
615.8403271489
 21
304.7541470708
 31
0.0
  0
LINE
  5
1A8
100
AcDbEntity
  8
______
  6
DASHED
 62
         2
100
AcDbLine
 10
608.4019451973
 20
305.2541470708
 30
0.0
 11
608.9019451973
 21
304.7541470708
 31
0.0
  0
LINE
  5
1A9
100
AcDbEntity
  8
______
  6
CONTINUOUS
 62
         7
100
AcDbLine
 10
609.270436911
 20
304.7541470708
 30
0.0
 11
615.8403271489
 21
304.7541470708
 31
0.0
  0
LINE
  5
1AA
100
AcDbEntity
  8
______
  6
CONTINUOUS
 62
         7
100
AcDbLine
 10
616.23441243
 20
304.3600617896
 30
0.0
 11
609.1327212951
 21
304.3600617896
 31
0.0
  0
LINE
  5
1AB
100
AcDbEntity
  8
______
  6
DASHED
 62
         2
100
AcDbLine
 10
608.0019451973
 20
320.7482323519
 30
0.0
 11
608.0019451973
 21
304.8600617896
 31
0.0
  0
LINE
  5
1AC
100
AcDbEntity
  8
______
  6
CONTINUOUS
 62
         7
100
AcDbLine
 10
616.23441243
 20
321.2482323519
 30
0.0
 11
615.8403271489
 21
320.8541470708
 31
0.0
  0
LINE
  5
1AD
100
AcDbEntity
  8
______
  6
CONTINUOUS
 62
         7
100
AcDbLine
 10
609.270436911
 20
320.8541470708
 30
0.0
 11
615.8403271489
 21
320.8541470708
 31
0.0
  0
LINE
  5
1AE
100
AcDbEntity
  8
______
  6
CONTINUOUS
 62
         7
100
AcDbLine
 10
616.23441243
 20
321.2482323519
 30
0.0
 11
609.1327212951
 21
321.2482323519
 31
0.0
  0
LINE
  5
1AF
100
AcDbEntity
  8
______
  6
DASHED
 62
         2
100
AcDbLine
 10
608.4019451973
 20
320.3541470708
 30
0.0
 11
608.9019451973
 21
320.8541470708
 31
0.0
  0
LINE
  5
1B0
100
AcDbEntity
  8
______
  6
DASHED
 62
         2
100
AcDbLine
 10
608.4019451973
 20
320.3541470708
 30
0.0
 11
608.4019451973
 21
305.2541470708
 31
0.0
  0
LINE
  5
1B1
100
AcDbEntity
  8
______
  6
DASHED
 62
         2
100
AcDbLine
 10
561.0019451973
 20
317.258358561
 30
0.0
 11
561.0019451973
 21
308.3499355805
 31
0.0
  0
ARC
  5
1B2
100
AcDbEntity
  8
______
  6
DASHED
 62
         2
100
AcDbCircle
 10
585.6019451973
 20
312.8041470708
 30
0.0
 40
28.125
100
AcDbArc
 50
198.3406919436
 51
343.3680794645
  0
ARC
  5
1B3
100
AcDbEntity
  8
______
  6
DASHED
 62
         2
100
AcDbCircle
 10
585.6019451973
 20
312.8041470708
 30
0.0
 40
28.125
100
AcDbArc
 50
16.6319205355
 51
163.3680794645
  0
LINE
  5
1B4
100
AcDbEntity
  8
______
  6
CENTER
 62
         1
100
AcDbLine
 10
585.6019451973
 20
347.5791470708
 30
0.0
 11
585.6019451973
 21
278.0291470708
 31
0.0
  0
ARC
  5
1B5
100
AcDbEntity
  8
______
  6
CONTINUOUS
 62
         7
100
AcDbCircle
 10
585.6019451973
 20
312.8041470708
 30
0.0
 40
30.775
100
AcDbArc
 50
195.9251485826
 51
344.0748514174
  0
ARC
  5
1B6
100
AcDbEntity
  8
______
  6
CONTINUOUS
 62
         7
100
AcDbCircle
 10
585.6019451973
 20
312.8041470708
 30
0.0
 40
31.775
100
AcDbArc
 50
15.411296411
 51
164.588703589
  0
ARC
  5
1B7
100
AcDbEntity
  8
______
  6
CONTINUOUS
 62
         7
100
AcDbCircle
 10
585.6019451973
 20
312.8041470708
 30
0.0
 40
30.775
100
AcDbArc
 50
15.9251485826
 51
164.0748514174
  0
LINE
  5
1B8
100
AcDbEntity
  8
______
  6
CONTINUOUS
 62
         7
100
AcDbLine
 10
341.0361532632
 20
341.701742335
 30
0.0
 11
339.3748828645
 21
344.5791470708
 31
0.0
  0
LINE
  5
1B9
100
AcDbEntity
  8
______
  6
CONTINUOUS
 62
         7
100
AcDbLine
 10
350.1111532632
 20
320.8541470708
 30
0.0
 11
335.8111532632
 21
320.8541470708
 31
0.0
  0
LINE
  5
1BA
100
AcDbEntity
  8
______
  6
CONTINUOUS
 62
         7
100
AcDbLine
 10
350.1111532632
 20
304.7541470708
 30
0.0
 11
335.8111532632
 21
304.7541470708
 31
0.0
  0
LINE
  5
1BB
100
AcDbEntity
  8
______
  6
CONTINUOUS
 62
         7
100
AcDbLine
 10
339.3748828645
 20
321.6541470708
 30
0.0
 11
341.0361532632
 21
320.8541470708
 31
0.0
  0
LINE
  5
1BC
100
AcDbEntity
  8
______
  6
CONTINUOUS
 62
         7
100
AcDbLine
 10
341.0361532632
 20
283.9065518066
 30
0.0
 11
339.3748828645
 21
281.0291470708
 31
0.0
  0
LINE
  5
1BD
100
AcDbEntity
  8
______
  6
CONTINUOUS
 62
         7
100
AcDbLine
 10
339.3748828645
 20
303.9541470708
 30
0.0
 11
341.0361532632
 21
304.7541470708
 31
0.0
  0
LINE
  5
1BE
100
AcDbEntity
  8
______
  6
CONTINUOUS
 62
         7
100
AcDbLine
 10
335.8111532632
 20
320.8541470708
 30
0.0
 11
335.8111532632
 21
304.7541470708
 31
0.0
  0
LINE
  5
1BF
100
AcDbEntity
  8
______
  6
CONTINUOUS
 62
         7
100
AcDbLine
 10
335.0111532632
 20
343.5791470708
 30
0.0
 11
335.0111532632
 21
282.0291470708
 31
0.0
  0
LINE
  5
1C0
100
AcDbEntity
  8
______
  6
CENTER
 62
         1
100
AcDbLine
 10
331.8111532632
 20
335.0291470708
 30
0.0
 11
331.8111532632
 21
290.5791470708
 31
0.0
  0
LINE
  5
1C1
100
AcDbEntity
  8
______
  6
CONTINUOUS
 62
         7
100
AcDbLine
 10
339.3748828645
 20
303.9541470708
 30
0.0
 11
339.3748828645
 21
281.0291470708
 31
0.0
  0
LINE
  5
1C2
100
AcDbEntity
  8
______
  6
CONTINUOUS
 62
         7
100
AcDbLine
 10
336.0111532632
 20
281.0291470708
 30
0.0
 11
339.3748828645
 21
281.0291470708
 31
0.0
  0
LINE
  5
1C3
100
AcDbEntity
  8
______
  6
CONTINUOUS
 62
         7
100
AcDbLine
 10
339.3748828645
 20
303.9541470708
 30
0.0
 11
335.0111532632
 21
303.9541470708
 31
0.0
  0
LINE
  5
1C4
100
AcDbEntity
  8
______
  6
CONTINUOUS
 62
         7
100
AcDbLine
 10
335.8111532632
 20
304.7541470708
 30
0.0
 11
335.0111532632
 21
303.9541470708
 31
0.0
  0
LINE
  5
1C5
100
AcDbEntity
  8
______
  6
CONTINUOUS
 62
         7
100
AcDbLine
 10
336.0111532632
 20
344.5791470708
 30
0.0
 11
339.3748828645
 21
344.5791470708
 31
0.0
  0
LINE
  5
1C6
100
AcDbEntity
  8
______
  6
CONTINUOUS
 62
         7
100
AcDbLine
 10
335.0111532632
 20
321.6541470708
 30
0.0
 11
335.8111532632
 21
320.8541470708
 31
0.0
  0
LINE
  5
1C7
100
AcDbEntity
  8
______
  6
CONTINUOUS
 62
         7
100
AcDbLine
 10
339.3748828645
 20
321.6541470708
 30
0.0
 11
335.0111532632
 21
321.6541470708
 31
0.0
  0
LINE
  5
1C8
100
AcDbEntity
  8
______
  6
CONTINUOUS
 62
         7
100
AcDbLine
 10
339.3748828645
 20
344.5791470708
 30
0.0
 11
339.3748828645
 21
321.6541470708
 31
0.0
  0
LINE
  5
1C9
100
AcDbEntity
  8
______
  6
CONTINUOUS
 62
         7
100
AcDbLine
 10
350.1111532632
 20
320.8541470708
 30
0.0
 11
350.1111532632
 21
304.7541470708
 31
0.0
  0
LINE
  5
1CA
100
AcDbEntity
  8
______
  6
CONTINUOUS
 62
         7
100
AcDbLine
 10
350.9111532632
 20
343.5791470708
 30
0.0
 11
350.9111532632
 21
282.0291470708
 31
0.0
  0
LINE
  5
1CB
100
AcDbEntity
  8
______
  6
CONTINUOUS
 62
         7
100
AcDbLine
 10
350.9111532632
 20
343.5791470708
 30
0.0
 11
350.9111532632
 21
331.8041470708
 31
0.0
  0
LINE
  5
1CC
100
AcDbEntity
  8
______
  6
CONTINUOUS
 62
         7
100
AcDbLine
 10
346.447423662
 20
303.9541470708
 30
0.0
 11
346.447423662
 21
281.0291470708
 31
0.0
  0
LINE
  5
1CD
100
AcDbEntity
  8
______
  6
CONTINUOUS
 62
         7
100
AcDbLine
 10
344.7861532632
 20
304.7541470708
 30
0.0
 11
344.7861532632
 21
283.9065518066
 31
0.0
  0
LINE
  5
1CE
100
AcDbEntity
  8
______
  6
CONTINUOUS
 62
         7
100
AcDbLine
 10
341.0361532632
 20
304.7541470708
 30
0.0
 11
341.0361532632
 21
283.9065518066
 31
0.0
  0
LINE
  5
1CF
100
AcDbEntity
  8
______
  6
CONTINUOUS
 62
         7
100
AcDbLine
 10
342.009953595
 20
284.6791470708
 30
0.0
 11
343.8123529315
 21
284.6791470708
 31
0.0
  0
ARC
  5
1D0
100
AcDbEntity
  8
______
  6
CONTINUOUS
 62
         7
100
AcDbCircle
 10
342.009953595
 20
283.6791470708
 30
0.0
 40
1.0
100
AcDbArc
 50
90.0
 51
166.8556743105
  0
LINE
  5
1D1
100
AcDbEntity
  8
______
  6
CONTINUOUS
 62
         7
100
AcDbLine
 10
344.7861532632
 20
283.9065518066
 30
0.0
 11
346.447423662
 21
281.0291470708
 31
0.0
  0
ARC
  5
1D2
100
AcDbEntity
  8
______
  6
CONTINUOUS
 62
         7
100
AcDbCircle
 10
343.8123529315
 20
283.6791470708
 30
0.0
 40
1.0
100
AcDbArc
 50
13.1443256895
 51
90.0
  0
LINE
  5
1D3
100
AcDbEntity
  8
______
  6
CONTINUOUS
 62
         7
100
AcDbLine
 10
346.447423662
 20
281.0291470708
 30
0.0
 11
349.9111532632
 21
281.0291470708
 31
0.0
  0
LINE
  5
1D4
100
AcDbEntity
  8
______
  6
CONTINUOUS
 62
         7
100
AcDbLine
 10
350.9111532632
 20
303.9541470708
 30
0.0
 11
346.447423662
 21
303.9541470708
 31
0.0
  0
LINE
  5
1D5
100
AcDbEntity
  8
______
  6
CONTINUOUS
 62
         7
100
AcDbLine
 10
350.1111532632
 20
304.7541470708
 30
0.0
 11
350.9111532632
 21
303.9541470708
 31
0.0
  0
LINE
  5
1D6
100
AcDbEntity
  8
______
  6
CONTINUOUS
 62
         7
100
AcDbLine
 10
344.7861532632
 20
304.7541470708
 30
0.0
 11
346.447423662
 21
303.9541470708
 31
0.0
  0
LINE
  5
1D7
100
AcDbEntity
  8
______
  6
CONTINUOUS
 62
         7
100
AcDbLine
 10
344.7861532632
 20
341.701742335
 30
0.0
 11
346.447423662
 21
344.5791470708
 31
0.0
  0
LINE
  5
1D8
100
AcDbEntity
  8
______
  6
CONTINUOUS
 62
         7
100
AcDbLine
 10
346.447423662
 20
344.5791470708
 30
0.0
 11
349.9111532632
 21
344.5791470708
 31
0.0
  0
LINE
  5
1D9
100
AcDbEntity
  8
______
  6
CONTINUOUS
 62
         7
100
AcDbLine
 10
342.009953595
 20
340.9291470708
 30
0.0
 11
343.8123529315
 21
340.9291470708
 31
0.0
  0
ARC
  5
1DA
100
AcDbEntity
  8
______
  6
CONTINUOUS
 62
         7
100
AcDbCircle
 10
342.009953595
 20
341.9291470708
 30
0.0
 40
1.0
100
AcDbArc
 50
193.1443256895
 51
270.0
  0
ARC
  5
1DB
100
AcDbEntity
  8
______
  6
CONTINUOUS
 62
         7
100
AcDbCircle
 10
343.8123529315
 20
341.9291470708
 30
0.0
 40
1.0
100
AcDbArc
 50
270.0
 51
346.8556743105
  0
LINE
  5
1DC
100
AcDbEntity
  8
______
  6
CONTINUOUS
 62
         7
100
AcDbLine
 10
350.9111532632
 20
321.6541470708
 30
0.0
 11
350.1111532632
 21
320.8541470708
 31
0.0
  0
LINE
  5
1DD
100
AcDbEntity
  8
______
  6
CONTINUOUS
 62
         7
100
AcDbLine
 10
344.7861532632
 20
320.8541470708
 30
0.0
 11
346.447423662
 21
321.6541470708
 31
0.0
  0
LINE
  5
1DE
100
AcDbEntity
  8
______
  6
CONTINUOUS
 62
         7
100
AcDbLine
 10
350.9111532632
 20
321.6541470708
 30
0.0
 11
346.447423662
 21
321.6541470708
 31
0.0
  0
LINE
  5
1DF
100
AcDbEntity
  8
______
  6
CONTINUOUS
 62
         7
100
AcDbLine
 10
344.7861532632
 20
341.701742335
 30
0.0
 11
344.7861532632
 21
320.8541470708
 31
0.0
  0
LINE
  5
1E0
100
AcDbEntity
  8
______
  6
CONTINUOUS
 62
         7
100
AcDbLine
 10
346.447423662
 20
344.5791470708
 30
0.0
 11
346.447423662
 21
321.6541470708
 31
0.0
  0
LINE
  5
1E1
100
AcDbEntity
  8
______
  6
CONTINUOUS
 62
         7
100
AcDbLine
 10
341.0361532632
 20
341.701742335
 30
0.0
 11
341.0361532632
 21
320.8541470708
 31
0.0
  0
LINE
  5
1E2
100
AcDbEntity
  8
______
  6
CENTER
 62
         1
100
AcDbLine
 10
342.9111532632
 20
350.3094103715
 30
0.0
 11
342.9111532632
 21
275.3065908198
 31
0.0
  0
LINE
  5
1E3
100
AcDbEntity
  8
______
  6
CONTINUOUS
 62
         7
100
AcDbLine
 10
263.4111532632
 20
324.0164537872
 30
0.0
 11
263.4111532632
 21
301.5918403543
 31
0.0
  0
ARC
  5
1E4
100
AcDbEntity
  8
______
  6
CONTINUOUS
 62
         7
100
AcDbCircle
 10
264.6111532632
 20
301.5918403543
 30
0.0
 40
1.2
100
AcDbArc
 50
180.0
 51
261.7028550302
  0
ARC
  5
1E5
100
AcDbEntity
  8
______
  6
CONTINUOUS
 62
         7
100
AcDbCircle
 10
264.6111532632
 20
324.0164537872
 30
0.0
 40
1.2
100
AcDbArc
 50
98.2971449698
 51
180.0
  0
LINE
  5
1E6
100
AcDbEntity
  8
______
  6
CONTINUOUS
 62
         7
100
AcDbLine
 10
264.4379849916
 20
300.4044007771
 30
0.0
 11
333.0111532632
 21
290.4041470708
 31
0.0
  0
LINE
  5
1E7
100
AcDbEntity
  8
______
  6
CENTER
 62
         1
100
AcDbLine
 10
261.1676515323
 20
312.8041470708
 30
0.0
 11
313.9380446713
 21
312.8041470708
 31
0.0
  0
LINE
  5
1E8
100
AcDbEntity
  8
______
  6
CONTINUOUS
 62
         7
100
AcDbLine
 10
264.4379849916
 20
325.2038933645
 30
0.0
 11
333.0111532632
 21
335.2041470708
 31
0.0
  0
ARC
  5
1E9
100
AcDbEntity
  8
______
  6
CONTINUOUS
 62
         7
100
AcDbCircle
 10
585.6019451973
 20
312.8041470708
 30
0.0
 40
31.775
100
AcDbArc
 50
195.411296411
 51
344.588703589
  0
LINE
  5
1EA
100
AcDbEntity
  8
______
  6
CONTINUOUS
 62
         7
100
AcDbLine
 10
333.7575634248
 20
290.6041470708
 30
0.0
 11
334.4111532632
 21
290.6041470708
 31
0.0
  0
LINE
  5
1EB
100
AcDbEntity
  8
______
  6
CONTINUOUS
 62
         7
100
AcDbLine
 10
333.0111532632
 20
290.4041470708
 30
0.0
 11
333.7575634248
 21
290.6041470708
 31
0.0
  0
ARC
  5
1EC
100
AcDbEntity
  8
______
  6
CONTINUOUS
 62
         7
100
AcDbCircle
 10
334.4111532632
 20
290.0041470708
 30
0.0
 40
0.6
100
AcDbArc
 50
0.0
 51
90.0
  0
LINE
  5
1ED
100
AcDbEntity
  8
______
  6
CONTINUOUS
 62
         7
100
AcDbLine
 10
333.7575634248
 20
290.6041470708
 30
0.0
 11
333.7575634248
 21
335.0041470708
 31
0.0
  0
LINE
  5
1EE
100
AcDbEntity
  8
______
  6
CONTINUOUS
 62
         7
100
AcDbLine
 10
333.0111532632
 20
290.4041470708
 30
0.0
 11
333.0111532632
 21
335.2041470708
 31
0.0
  0
LINE
  5
1EF
100
AcDbEntity
  8
______
  6
CONTINUOUS
 62
         7
100
AcDbLine
 10
333.7575634248
 20
335.0041470708
 30
0.0
 11
334.4111532632
 21
335.0041470708
 31
0.0
  0
LINE
  5
1F0
100
AcDbEntity
  8
______
  6
CONTINUOUS
 62
         7
100
AcDbLine
 10
333.0111532632
 20
335.2041470708
 30
0.0
 11
333.7575634248
 21
335.0041470708
 31
0.0
  0
ARC
  5
1F1
100
AcDbEntity
  8
______
  6
CONTINUOUS
 62
         7
100
AcDbCircle
 10
334.4111532632
 20
335.6041470708
 30
0.0
 40
0.6
100
AcDbArc
 50
270.0
 51
360.0
  0
CIRCLE
  5
1F2
100
AcDbEntity
  8
______
  6
CONTINUOUS
 62
         7
100
AcDbCircle
 10
342.9111532632
 20
312.8041470708
 30
0.0
 40
5.0
  0
LINE
  5
1F3
100
AcDbEntity
  8
______
  6
CONTINUOUS
 62
         7
100
AcDbLine
 10
351.7111532632
 20
175.4725012522
 30
0.0
 11
366.4717824133
 21
175.4725012522
 31
0.0
  0
ARC
  5
1F4
100
AcDbEntity
  8
______
  6
CONTINUOUS
 62
         7
100
AcDbCircle
 10
351.7111532632
 20
174.6725012522
 30
0.0
 40
0.8
100
AcDbArc
 50
90.0
 51
180.0
  0
LINE
  5
1F5
100
AcDbEntity
  8
______
  6
CONTINUOUS
 62
         7
100
AcDbLine
 10
350.9111532632
 20
174.6725012522
 30
0.0
 11
350.9111532632
 21
166.922501252
 31
0.0
  0
LINE
  5
1F6
100
AcDbEntity
  8
______
  6
CONTINUOUS
 62
         7
100
AcDbLine
 10
346.447423662
 20
165.922501252
 30
0.0
 11
349.9111532632
 21
165.922501252
 31
0.0
  0
LINE
  5
1F7
100
AcDbEntity
  8
______
  6
CONTINUOUS
 62
         7
100
AcDbLine
 10
344.7861532632
 20
168.799905988
 30
0.0
 11
346.447423662
 21
165.9225012522
 31
0.0
  0
ARC
  5
1F8
100
AcDbEntity
  8
______
  6
CONTINUOUS
 62
         7
100
AcDbCircle
 10
343.8123529315
 20
168.572501252
 30
0.0
 40
1.0
100
AcDbArc
 50
13.1443256895
 51
90.0
  0
LINE
  5
1F9
100
AcDbEntity
  8
______
  6
CONTINUOUS
 62
         7
100
AcDbLine
 10
342.009953595
 20
169.5725012522
 30
0.0
 11
343.8123529315
 21
169.5725012522
 31
0.0
  0
ARC
  5
1FA
100
AcDbEntity
  8
______
  6
CONTINUOUS
 62
         7
100
AcDbCircle
 10
342.009953595
 20
168.5725012522
 30
0.0
 40
1.0
100
AcDbArc
 50
90.0
 51
166.8556743105
  0
LINE
  5
1FB
100
AcDbEntity
  8
______
  6
CONTINUOUS
 62
         7
100
AcDbLine
 10
341.0361532632
 20
168.799905988
 30
0.0
 11
339.3748828645
 21
165.9225012522
 31
0.0
  0
LINE
  5
1FC
100
AcDbEntity
  8
______
  6
CONTINUOUS
 62
         7
100
AcDbLine
 10
335.0111532632
 20
174.897501252
 30
0.0
 11
335.0111532632
 21
166.922501252
 31
0.0
  0
LINE
  5
1FD
100
AcDbEntity
  8
______
  6
CONTINUOUS
 62
         7
100
AcDbLine
 10
336.0111532632
 20
165.922501252
 30
0.0
 11
339.3748828645
 21
165.922501252
 31
0.0
  0
ARC
  5
1FE
100
AcDbEntity
  8
______
  6
CONTINUOUS
 62
         7
100
AcDbCircle
 10
334.4111532632
 20
174.8975012522
 30
0.0
 40
0.6
100
AcDbArc
 50
0.0
 51
90.0
  0
LINE
  5
1FF
100
AcDbEntity
  8
______
  6
CONTINUOUS
 62
         7
100
AcDbLine
 10
333.7575634248
 20
175.4975012522
 30
0.0
 11
334.4111532632
 21
175.4975012522
 31
0.0
  0
LINE
  5
200
100
AcDbEntity
  8
______
  6
CONTINUOUS
 62
         7
100
AcDbLine
 10
333.0111532632
 20
175.297501252
 30
0.0
 11
333.7575634248
 21
175.497501252
 31
0.0
  0
LINE
  5
201
100
AcDbEntity
  8
______
  6
CONTINUOUS
 62
         7
100
AcDbLine
 10
291.8611532632
 20
205.6975012522
 30
0.0
 11
291.8611532632
 21
189.6975012522
 31
0.0
  0
LINE
  5
202
100
AcDbEntity
  8
______
  6
CONTINUOUS
 62
         5
100
AcDbLine
 10
268.3139959757
 20
189.6975012522
 30
0.0
 11
291.8611532632
 21
189.6975012522
 31
0.0
  0
LINE
  5
203
100
AcDbEntity
  8
______
  6
CONTINUOUS
 62
         7
100
AcDbLine
 10
264.4379849916
 20
185.2977549585
 30
0.0
 11
333.0111532637
 21
175.2975012521
 31
0.0
  0
ARC
  5
204
100
AcDbEntity
  8
______
  6
CONTINUOUS
 62
         7
100
AcDbCircle
 10
264.6111532632
 20
186.4851945358
 30
0.0
 40
1.2
100
AcDbArc
 50
180.0
 51
261.7028550302
  0
ARC
  5
205
100
AcDbEntity
  8
______
  6
CONTINUOUS
 62
         7
100
AcDbCircle
 10
264.4111532632
 20
188.5475012522
 30
0.0
 40
1.0
100
AcDbArc
 50
90.0
 51
180.0
  0
LINE
  5
206
100
AcDbEntity
  8
______
  6
CONTINUOUS
 62
         7
100
AcDbLine
 10
264.4111532632
 20
189.5475012522
 30
0.0
 11
267.1811532632
 21
189.5475012522
 31
0.0
  0
LINE
  5
207
100
AcDbEntity
  8
______
  6
CONTINUOUS
 62
         7
100
AcDbLine
 10
267.5289250345
 20
189.454316087
 30
0.0
 11
267.1811532632
 21
189.5475012522
 31
0.0
  0
LINE
  5
208
100
AcDbEntity
  8
______
  6
CONTINUOUS
 62
         7
100
AcDbLine
 10
267.5806888435
 20
189.4475012522
 30
0.0
 11
267.9811532632
 21
189.4475012522
 31
0.0
  0
ARC
  5
209
100
AcDbEntity
  8
______
  6
CONTINUOUS
 62
         7
100
AcDbCircle
 10
267.9811532632
 20
189.6475012522
 30
0.0
 40
0.2
100
AcDbArc
 50
270.0
 51
314.9999999962
  0
LINE
  5
20A
100
AcDbEntity
  8
______
  6
CONTINUOUS
 62
         7
100
AcDbLine
 10
268.1225746195
 20
189.506079896
 30
0.0
 11
269.3139959757
 21
190.6975012522
 31
0.0
  0
LINE
  5
20B
100
AcDbEntity
  8
______
  6
CONTINUOUS
 62
         7
100
AcDbLine
 10
269.3139959757
 20
190.6975012522
 30
0.0
 11
356.8111532632
 21
190.6975012522
 31
0.0
  0
LINE
  5
20C
100
AcDbEntity
  8
______
  6
CONTINUOUS
 62
         7
100
AcDbLine
 10
269.3139959757
 20
204.6975012522
 30
0.0
 11
269.3139959757
 21
190.6975012522
 31
0.0
  0
LINE
  5
20D
100
AcDbEntity
  8
______
  6
CONTINUOUS
 62
         7
100
AcDbLine
 10
269.3139959757
 20
204.6975012522
 30
0.0
 11
356.8111532632
 21
204.6975012522
 31
0.0
  0
LINE
  5
20E
100
AcDbEntity
  8
______
  6
CONTINUOUS
 62
         5
100
AcDbLine
 10
268.3139959757
 20
205.6975012522
 30
0.0
 11
291.8611532632
 21
205.6975012522
 31
0.0
  0
LINE
  5
20F
100
AcDbEntity
  8
______
  6
CONTINUOUS
 62
         7
100
AcDbLine
 10
267.1811532632
 20
205.8475012522
 30
0.0
 11
267.1811532632
 21
189.5475012522
 31
0.0
  0
LINE
  5
210
100
AcDbEntity
  8
______
  6
CONTINUOUS
 62
         7
100
AcDbLine
 10
268.1811532632
 20
205.4910240929
 30
0.0
 11
268.1811532632
 21
190.0187479167
 31
0.0
  0
ARC
  5
211
100
AcDbEntity
  8
______
  6
CONTINUOUS
 62
         7
100
AcDbCircle
 10
267.9811532632
 20
205.7475012522
 30
0.0
 40
0.2
100
AcDbArc
 50
45.0000000038
 51
90.0
  0
LINE
  5
212
100
AcDbEntity
  8
______
  6
CONTINUOUS
 62
         7
100
AcDbLine
 10
268.1225746195
 20
205.8889226085
 30
0.0
 11
269.3139959757
 21
204.6975012522
 31
0.0
  0
LINE
  5
213
100
AcDbEntity
  8
______
  6
CONTINUOUS
 62
         7
100
AcDbLine
 10
267.5806888435
 20
205.9475012522
 30
0.0
 11
267.9811532632
 21
205.9475012522
 31
0.0
  0
LINE
  5
214
100
AcDbEntity
  8
______
  6
CONTINUOUS
 62
         7
100
AcDbLine
 10
267.5289250345
 20
205.9406864175
 30
0.0
 11
267.1811532632
 21
205.8475012522
 31
0.0
  0
ARC
  5
215
100
AcDbEntity
  8
______
  6
CONTINUOUS
 62
         7
100
AcDbCircle
 10
267.5806888435
 20
205.7475012522
 30
0.0
 40
0.2
100
AcDbArc
 50
90.0
 51
105.0
  0
LINE
  5
216
100
AcDbEntity
  8
______
  6
CONTINUOUS
 62
         7
100
AcDbLine
 10
264.4111532632
 20
205.8475012522
 30
0.0
 11
267.1811532632
 21
205.8475012522
 31
0.0
  0
ARC
  5
217
100
AcDbEntity
  8
______
  6
CONTINUOUS
 62
         7
100
AcDbCircle
 10
264.4111532632
 20
206.8475012522
 30
0.0
 40
1.0
100
AcDbArc
 50
180.0
 51
270.0
  0
LINE
  5
218
100
AcDbEntity
  8
______
  6
CONTINUOUS
 62
         7
100
AcDbLine
 10
263.4111532632
 20
208.9098079686
 30
0.0
 11
263.4111532632
 21
186.4851945358
 31
0.0
  0
ARC
  5
219
100
AcDbEntity
  8
______
  6
CONTINUOUS
 62
         7
100
AcDbCircle
 10
264.6111532632
 20
208.9098079686
 30
0.0
 40
1.2
100
AcDbArc
 50
98.2971449698
 51
180.0
  0
LINE
  5
21A
100
AcDbEntity
  8
______
  6
CONTINUOUS
 62
         7
100
AcDbLine
 10
333.0111532632
 20
220.0975012522
 30
0.0
 11
333.7575634248
 21
219.8975012522
 31
0.0
  0
LINE
  5
21B
100
AcDbEntity
  8
______
  6
CONTINUOUS
 62
         7
100
AcDbLine
 10
264.4379849916
 20
210.0972475459
 30
0.0
 11
333.0111532632
 21
220.0975012522
 31
0.0
  0
LINE
  5
21C
100
AcDbEntity
  8
______
  6
CONTINUOUS
 62
         7
100
AcDbLine
 10
333.7575634248
 20
219.8975012522
 30
0.0
 11
334.4111532632
 21
219.8975012522
 31
0.0
  0
ARC
  5
21D
100
AcDbEntity
  8
______
  6
CONTINUOUS
 62
         7
100
AcDbCircle
 10
334.4111532632
 20
220.4975012522
 30
0.0
 40
0.6
100
AcDbArc
 50
270.0
 51
360.0
  0
LINE
  5
21E
100
AcDbEntity
  8
______
  6
CONTINUOUS
 62
         7
100
AcDbLine
 10
335.0111532632
 20
220.4975012522
 30
0.0
 11
335.0111532632
 21
228.4725012524
 31
0.0
  0
LINE
  5
21F
100
AcDbEntity
  8
______
  6
CONTINUOUS
 62
         7
100
AcDbLine
 10
336.0111532632
 20
229.4725012524
 30
0.0
 11
339.3748828645
 21
229.4725012524
 31
0.0
  0
LINE
  5
220
100
AcDbEntity
  8
______
  6
CONTINUOUS
 62
         7
100
AcDbLine
 10
341.0361532632
 20
226.5950965164
 30
0.0
 11
339.3748828645
 21
229.4725012522
 31
0.0
  0
ARC
  5
221
100
AcDbEntity
  8
______
  6
CONTINUOUS
 62
         7
100
AcDbCircle
 10
342.009953595
 20
226.8225012524
 30
0.0
 40
1.0
100
AcDbArc
 50
193.1443256895
 51
270.0
  0
LINE
  5
222
100
AcDbEntity
  8
______
  6
CONTINUOUS
 62
         7
100
AcDbLine
 10
342.009953595
 20
225.8225012524
 30
0.0
 11
343.8123529315
 21
225.8225012524
 31
0.0
  0
ARC
  5
223
100
AcDbEntity
  8
______
  6
CONTINUOUS
 62
         7
100
AcDbCircle
 10
343.8123529315
 20
226.8225012524
 30
0.0
 40
1.0
100
AcDbArc
 50
270.0
 51
346.8556743105
  0
LINE
  5
224
100
AcDbEntity
  8
______
  6
CONTINUOUS
 62
         7
100
AcDbLine
 10
344.7861532632
 20
226.5950965166
 30
0.0
 11
346.447423662
 21
229.4725012524
 31
0.0
  0
LINE
  5
225
100
AcDbEntity
  8
______
  6
CONTINUOUS
 62
         7
100
AcDbLine
 10
350.9111532632
 20
228.4725012524
 30
0.0
 11
350.9111532632
 21
220.7225012522
 31
0.0
  0
LINE
  5
226
100
AcDbEntity
  8
______
  6
CONTINUOUS
 62
         7
100
AcDbLine
 10
346.447423662
 20
229.4725012524
 30
0.0
 11
349.9111532632
 21
229.4725012524
 31
0.0
  0
ARC
  5
227
100
AcDbEntity
  8
______
  6
CONTINUOUS
 62
         7
100
AcDbCircle
 10
351.7111532632
 20
220.7225012522
 30
0.0
 40
0.8
100
AcDbArc
 50
180.0
 51
270.0
  0
LINE
  5
228
100
AcDbEntity
  8
______
  6
CONTINUOUS
 62
         7
100
AcDbLine
 10
351.7111532632
 20
219.9225012522
 30
0.0
 11
366.4717824133
 21
219.9225012522
 31
0.0
  0
LINE
  5
229
100
AcDbEntity
  8
______
  6
CONTINUOUS
 62
         7
100
AcDbLine
 10
223.7676515323
 20
304.8600617896
 30
0.0
 11
223.7676515323
 21
320.7482323519
 31
0.0
  0
LINE
  5
22A
100
AcDbEntity
  8
______
  6
CONTINUOUS
 62
         7
100
AcDbLine
 10
176.3676515323
 20
305.2541470708
 30
0.0
 11
176.3676515323
 21
320.3541470708
 31
0.0
  0
LINE
  5
22B
100
AcDbEntity
  8
______
  6
CONTINUOUS
 62
         7
100
AcDbLine
 10
176.3676515323
 20
305.2541470708
 30
0.0
 11
175.8676515323
 21
304.7541470708
 31
0.0
  0
LINE
  5
22C
100
AcDbEntity
  8
______
  6
CONTINUOUS
 62
         7
100
AcDbLine
 10
168.5351842995
 20
304.3600617896
 30
0.0
 11
176.2676515323
 21
304.3600617896
 31
0.0
  0
LINE
  5
22D
100
AcDbEntity
  8
______
  6
CONTINUOUS
 62
         7
100
AcDbLine
 10
175.8676515323
 20
304.7541470708
 30
0.0
 11
168.9292695807
 21
304.7541470708
 31
0.0
  0
LINE
  5
22E
100
AcDbEntity
  8
______
  6
CONTINUOUS
 62
         7
100
AcDbLine
 10
168.5351842995
 20
304.3600617896
 30
0.0
 11
168.9292695807
 21
304.7541470708
 31
0.0
  0
LINE
  5
22F
100
AcDbEntity
  8
______
  6
CONTINUOUS
 62
         7
100
AcDbLine
 10
176.7676515323
 20
304.8600617896
 30
0.0
 11
176.7676515323
 21
320.7482323519
 31
0.0
  0
LINE
  5
230
100
AcDbEntity
  8
______
  6
CONTINUOUS
 62
         7
100
AcDbLine
 10
168.5351842995
 20
321.2482323519
 30
0.0
 11
176.2676515323
 21
321.2482323519
 31
0.0
  0
LINE
  5
231
100
AcDbEntity
  8
______
  6
CONTINUOUS
 62
         7
100
AcDbLine
 10
175.8676515323
 20
320.8541470708
 30
0.0
 11
168.9292695807
 21
320.8541470708
 31
0.0
  0
LINE
  5
232
100
AcDbEntity
  8
______
  6
CONTINUOUS
 62
         7
100
AcDbLine
 10
176.3676515323
 20
320.3541470708
 30
0.0
 11
175.8676515323
 21
320.8541470708
 31
0.0
  0
LINE
  5
233
100
AcDbEntity
  8
______
  6
CONTINUOUS
 62
         7
100
AcDbLine
 10
168.5351842995
 20
321.2482323519
 30
0.0
 11
168.9292695807
 21
320.8541470708
 31
0.0
  0
LINE
  5
234
100
AcDbEntity
  8
______
  6
CONTINUOUS
 62
         7
100
AcDbLine
 10
176.7676515323
 20
320.7482323519
 30
0.0
 11
176.2676515323
 21
321.2482323519
 31
0.0
  0
LINE
  5
235
100
AcDbEntity
  8
______
  6
CONTINUOUS
 62
         7
100
AcDbLine
 10
176.7676515323
 20
304.8600617896
 30
0.0
 11
176.2676515323
 21
304.3600617896
 31
0.0
  0
LINE
  5
236
100
AcDbEntity
  8
______
  6
CONTINUOUS
 62
         7
100
AcDbLine
 10
229.800118765
 20
304.3600617896
 30
0.0
 11
224.2676515323
 21
304.3600617896
 31
0.0
  0
LINE
  5
237
100
AcDbEntity
  8
______
  6
CONTINUOUS
 62
         7
100
AcDbLine
 10
229.4060334838
 20
304.7541470708
 30
0.0
 11
224.6676515323
 21
304.7541470708
 31
0.0
  0
LINE
  5
238
100
AcDbEntity
  8
______
  6
CONTINUOUS
 62
         7
100
AcDbLine
 10
224.1676515323
 20
305.2541470708
 30
0.0
 11
224.1676515323
 21
320.3541470708
 31
0.0
  0
LINE
  5
239
100
AcDbEntity
  8
______
  6
CONTINUOUS
 62
         7
100
AcDbLine
 10
224.1676515323
 20
305.2541470708
 30
0.0
 11
224.6676515323
 21
304.7541470708
 31
0.0
  0
LINE
  5
23A
100
AcDbEntity
  8
______
  6
CONTINUOUS
 62
         7
100
AcDbLine
 10
229.800118765
 20
304.3600617896
 30
0.0
 11
229.4060334838
 21
304.7541470708
 31
0.0
  0
LINE
  5
23B
100
AcDbEntity
  8
______
  6
CONTINUOUS
 62
         7
100
AcDbLine
 10
223.7676515323
 20
304.8600617896
 30
0.0
 11
224.2676515323
 21
304.3600617896
 31
0.0
  0
LINE
  5
23C
100
AcDbEntity
  8
______
  6
CONTINUOUS
 62
         7
100
AcDbLine
 10
224.1676515323
 20
320.3541470708
 30
0.0
 11
224.6676515323
 21
320.8541470708
 31
0.0
  0
LINE
  5
23D
100
AcDbEntity
  8
______
  6
CONTINUOUS
 62
         7
100
AcDbLine
 10
229.800118765
 20
321.2482323519
 30
0.0
 11
229.4060334838
 21
320.8541470708
 31
0.0
  0
LINE
  5
23E
100
AcDbEntity
  8
______
  6
CONTINUOUS
 62
         7
100
AcDbLine
 10
229.4060334838
 20
320.8541470708
 30
0.0
 11
224.6676515323
 21
320.8541470708
 31
0.0
  0
LINE
  5
23F
100
AcDbEntity
  8
______
  6
CONTINUOUS
 62
         7
100
AcDbLine
 10
229.800118765
 20
321.2482323519
 30
0.0
 11
224.2676515323
 21
321.2482323519
 31
0.0
  0
LINE
  5
240
100
AcDbEntity
  8
______
  6
CONTINUOUS
 62
         7
100
AcDbLine
 10
223.7676515323
 20
320.7482323519
 30
0.0
 11
224.2676515323
 21
321.2482323519
 31
0.0
  0
CIRCLE
  5
241
100
AcDbEntity
  8
______
  6
CONTINUOUS
 62
         7
100
AcDbCircle
 10
199.1676515323
 20
312.8041470708
 30
0.0
 40
22.225
  0
CIRCLE
  5
242
100
AcDbEntity
  8
______
  6
CONTINUOUS
 62
         7
100
AcDbCircle
 10
199.1676515323
 20
312.8041470708
 30
0.0
 40
8.5
  0
CIRCLE
  5
243
100
AcDbEntity
  8
______
  6
CONTINUOUS
 62
         7
100
AcDbCircle
 10
199.1676515323
 20
312.8041470708
 30
0.0
 40
9.5
  0
ARC
  5
244
100
AcDbEntity
  8
______
  6
CONTINUOUS
 62
         5
100
AcDbCircle
 10
199.1676515323
 20
312.8041470708
 30
0.0
 40
8.0
100
AcDbArc
 50
352.9901372228
 51
621.2264515101
  0
CIRCLE
  5
245
100
AcDbEntity
  8
______
  6
CONTINUOUS
 62
         7
100
AcDbCircle
 10
199.1676515323
 20
312.8041470708
 30
0.0
 40
7.0
  0
CIRCLE
  5
246
100
AcDbEntity
  8
______
  6
CONTINUOUS
 62
         7
100
AcDbCircle
 10
199.1676515323
 20
312.8041470708
 30
0.0
 40
12.7165768873
  0
LINE
  5
247
100
AcDbEntity
  8
______
  6
CENTER
 62
         1
100
AcDbLine
 10
199.1676515323
 20
277.192794838
 30
0.0
 11
199.1676515323
 21
348.0368551693
 31
0.0
  0
ARC
  5
248
100
AcDbEntity
  8
______
  6
CONTINUOUS
 62
         7
100
AcDbCircle
 10
199.1676515323
 20
312.8041470708
 30
0.0
 40
31.775
100
AcDbArc
 50
15.411296411
 51
164.588703589
  0
LINE
  5
249
100
AcDbEntity
  8
______
  6
CENTER
 62
         1
100
AcDbLine
 10
170.9737897243
 20
312.8041470708
 30
0.0
 11
228.3143037456
 21
312.8041470708
 31
0.0
  0
ARC
  5
24A
100
AcDbEntity
  8
______
  6
CONTINUOUS
 62
         7
100
AcDbCircle
 10
199.1676515323
 20
312.8041470708
 30
0.0
 40
31.775
100
AcDbArc
 50
195.411296411
 51
344.588703589
  0
ARC
  5
24B
100
AcDbEntity
  8
______
  6
CONTINUOUS
 62
         7
100
AcDbCircle
 10
336.0111532632
 20
228.4725012524
 30
0.0
 40
1.0
100
AcDbArc
 50
90.0
 51
180.0
  0
ARC
  5
24C
100
AcDbEntity
  8
______
  6
CONTINUOUS
 62
         7
100
AcDbCircle
 10
349.9111532632
 20
228.4725012524
 30
0.0
 40
1.0
100
AcDbArc
 50
0.0
 51
90.0
  0
ARC
  5
24D
100
AcDbEntity
  8
______
  6
CONTINUOUS
 62
         7
100
AcDbCircle
 10
349.9111532632
 20
166.922501252
 30
0.0
 40
1.0
100
AcDbArc
 50
270.0
 51
360.0
  0
ARC
  5
24E
100
AcDbEntity
  8
______
  6
CONTINUOUS
 62
         7
100
AcDbCircle
 10
336.0111532632
 20
166.922501252
 30
0.0
 40
1.0
100
AcDbArc
 50
180.0
 51
270.0
  0
LINE
  5
24F
100
AcDbEntity
  8
______
  6
CONTINUOUS
 62
         4
100
AcDbLine
 10
336.0111532632
 20
344.5791470708
 30
0.0
 11
336.0111532632
 21
321.6541470708
 31
0.0
  0
ARC
  5
250
100
AcDbEntity
  8
______
  6
CONTINUOUS
 62
         7
100
AcDbCircle
 10
336.0111532632
 20
343.5791470708
 30
0.0
 40
1.0
100
AcDbArc
 50
90.0
 51
180.0
  0
LINE
  5
251
100
AcDbEntity
  8
______
  6
CONTINUOUS
 62
         4
100
AcDbLine
 10
349.9111532632
 20
344.5791470708
 30
0.0
 11
349.9111532632
 21
321.6541470708
 31
0.0
  0
ARC
  5
252
100
AcDbEntity
  8
______
  6
CONTINUOUS
 62
         7
100
AcDbCircle
 10
349.9111532632
 20
343.5791470708
 30
0.0
 40
1.0
100
AcDbArc
 50
0.0
 51
90.0
  0
ARC
  5
253
100
AcDbEntity
  8
______
  6
CONTINUOUS
 62
         7
100
AcDbCircle
 10
336.0111532632
 20
282.0291470708
 30
0.0
 40
1.0
100
AcDbArc
 50
180.0
 51
270.0
  0
LINE
  5
254
100
AcDbEntity
  8
______
  6
CONTINUOUS
 62
         4
100
AcDbLine
 10
336.0111532632
 20
303.9541470708
 30
0.0
 11
336.0111532632
 21
281.0291470708
 31
0.0
  0
ARC
  5
255
100
AcDbEntity
  8
______
  6
CONTINUOUS
 62
         7
100
AcDbCircle
 10
349.9111532632
 20
282.0291470708
 30
0.0
 40
1.0
100
AcDbArc
 50
270.0
 51
360.0
  0
LINE
  5
256
100
AcDbEntity
  8
______
  6
CONTINUOUS
 62
         4
100
AcDbLine
 10
349.9111532632
 20
303.9541470708
 30
0.0
 11
349.9111532632
 21
281.0291470708
 31
0.0
  0
LINE
  5
257
100
AcDbEntity
  8
______
  6
DASHED
 62
         2
100
AcDbLine
 10
609.1327212951
 20
321.2482323519
 30
0.0
 11
608.5019451973
 21
321.2482323519
 31
0.0
  0
LINE
  5
258
100
AcDbEntity
  8
______
  6
DASHED
 62
         2
100
AcDbLine
 10
608.9019451973
 20
320.8541470708
 30
0.0
 11
609.270436911
 21
320.8541470708
 31
0.0
  0
LINE
  5
259
100
AcDbEntity
  8
______
  6
DASHED
 62
         2
100
AcDbLine
 10
608.9019451973
 20
304.7541470708
 30
0.0
 11
609.270436911
 21
304.7541470708
 31
0.0
  0
LINE
  5
25A
100
AcDbEntity
  8
______
  6
DASHED
 62
         2
100
AcDbLine
 10
609.1327212951
 20
304.3600617896
 30
0.0
 11
608.5019451973
 21
304.3600617896
 31
0.0
  0
LINE
  5
25B
100
AcDbEntity
  8
______
  6
CONTINUOUS
 62
         7
100
AcDbLine
 10
561.0019451973
 20
320.7482323519
 30
0.0
 11
561.0019451973
 21
317.258358561
 31
0.0
  0
LINE
  5
25C
100
AcDbEntity
  8
______
  6
CONTINUOUS
 62
         7
100
AcDbLine
 10
561.0019451973
 20
308.3499355805
 30
0.0
 11
561.0019451973
 21
304.8600617896
 31
0.0
  0
LINE
  5
25D
100
AcDbEntity
  8
______
  6
CONTINUOUS
 62
         4
100
AcDbLine
 10
409.4021463498
 20
328.3441470708
 30
0.0
 11
395.5601490278
 21
328.3441470708
 31
0.0
  0
DIMENSION
  5
260
100
AcDbEntity
  8
______
  6
CONTINUOUS
 62
         4
100
AcDbDimension
  2
*D2
 10
391.9611532632
 20
328.3910420661
 30
0.0
 11
398.7062700367
 21
331.7786213166
 31
0.0
 70
         2
  3
DIMSTYLE1
100
AcDb2LineAngularDimension
 13
395.5601490278
 23
328.3441470708
 33
0.0
 14
414.1622902252
 24
328.3441470708
 34
0.0
 15
440.8021532632
 25
327.6275759102
 35
0.0
 16
394.5006777075
 26
325.2025583799
 36
0.0
  0
DIMENSION
  5
270
100
AcDbEntity
  8
______
  6
CONTINUOUS
 62
         4
100
AcDbDimension
  2
*D3
 10
394.9611532632
 20
352.1262216375
 30
0.0
 11
396.5198755976
 21
354.1512216375
 31
0.0
  3
DIMSTYLE1
100
AcDbAlignedDimension
 13
394.9611532632
 23
328.3441470708
 33
0.0
 14
391.9611532632
 24
336.3041470708
 34
0.0
100
AcDbRotatedDimension
  0
DIMENSION
  5
280
100
AcDbEntity
  8
______
  6
CONTINUOUS
 62
         4
100
AcDbDimension
  2
*D4
 10
391.9611532632
 20
359.5427468189
 30
0.0
 11
407.6361532632
 21
361.5677468189
 31
0.0
  3
DIMSTYLE1
100
AcDbAlignedDimension
 13
391.9611532632
 23
336.3041470708
 33
0.0
 14
436.8111532632
 24
326.8541470708
 34
0.0
100
AcDbRotatedDimension
  0
DIMENSION
  5
28E
100
AcDbEntity
  8
______
  6
CONTINUOUS
 62
         4
100
AcDbDimension
  2
*D5
 10
433.7921532632
 20
355.3406757066
 30
0.0
 11
439.4649819607
 21
357.3656757066
 31
0.0
  3
DIMSTYLE1
100
AcDbAlignedDimension
 13
433.7921532632
 23
326.8074807422
 33
0.0
 14
436.8111532632
 24
326.1541470708
 34
0.0
100
AcDbRotatedDimension
  0
DIMENSION
  5
29E
100
AcDbEntity
  8
______
  6
CONTINUOUS
 62
         4
100
AcDbDimension
  2
*D6
 10
434.2871532632
 20
350.5213688682
 30
0.0
 11
419.9293905044
 21
352.5463688682
 31
0.0
  3
DIMSTYLE1
100
AcDbAlignedDimension
 13
434.2871532632
 23
326.1541470708
 33
0.0
 14
435.8881532632
 24
326.1541470708
 34
0.0
100
AcDbRotatedDimension
  0
LINE
  5
2AC
100
AcDbEntity
  8
______
  6
CONTINUOUS
 62
         7
100
AcDbLine
 10
391.9611532632
 20
296.7425043335
 30
0.0
 11
391.8611532632
 21
297.0172520754
 31
0.0
  0
ARC
  5
2AD
100
AcDbEntity
  8
______
  6
CONTINUOUS
 62
         7
100
AcDbCircle
 10
393.0620821027
 20
297.0172520754
 30
0.0
 40
0.4
100
AcDbArc
 50
75.0
 51
90.0
  0
LINE
  5
2AE
100
AcDbEntity
  8
______
  6
CONTINUOUS
 62
         7
100
AcDbLine
 10
393.0620821027
 20
297.4172520754
 30
0.0
 11
392.2611532632
 21
297.4172520754
 31
0.0
  0
LINE
  5
2AF
100
AcDbEntity
  8
______
  6
CONTINUOUS
 62
         7
100
AcDbLine
 10
393.1656097207
 20
297.4036224059
 30
0.0
 11
393.7566303251
 21
297.2452589123
 31
0.0
  0
ARC
  5
2B0
100
AcDbEntity
  8
______
  6
CONTINUOUS
 62
         7
100
AcDbCircle
 10
392.2611532632
 20
297.0172520754
 30
0.0
 40
0.4
100
AcDbArc
 50
90.0
 51
180.0
  0
LINE
  5
2B1
100
AcDbEntity
  8
______
  6
CONTINUOUS
 62
         7
100
AcDbLine
 10
391.9611532632
 20
328.8657898081
 30
0.0
 11
391.8611532632
 21
328.5910420661
 31
0.0
  0
ARC
  5
2B2
100
AcDbEntity
  8
______
  6
CONTINUOUS
 62
         7
100
AcDbCircle
 10
393.0620821027
 20
328.5910420661
 30
0.0
 40
0.4
100
AcDbArc
 50
270.0
 51
285.0
  0
LINE
  5
2B3
100
AcDbEntity
  8
______
  6
CONTINUOUS
 62
         7
100
AcDbLine
 10
393.0620821027
 20
328.1910420661
 30
0.0
 11
392.2611532632
 21
328.1910420661
 31
0.0
  0
LINE
  5
2B4
100
AcDbEntity
  8
______
  6
CONTINUOUS
 62
         7
100
AcDbLine
 10
393.1656097207
 20
328.2046717356
 30
0.0
 11
393.7566303251
 21
328.3630352292
 31
0.0
  0
ARC
  5
2B5
100
AcDbEntity
  8
______
  6
CONTINUOUS
 62
         7
100
AcDbCircle
 10
392.2611532632
 20
328.5910420661
 30
0.0
 40
0.4
100
AcDbArc
 50
180.0
 51
270.0
  0
ARC
  5
2B6
100
AcDbEntity
  8
______
  6
CONTINUOUS
 62
         7
100
AcDbCircle
 10
433.5921532632
 20
327.5402557823
 30
0.0
 40
0.2
100
AcDbArc
 50
0.0
 51
89.1044445001
  0
ARC
  5
2B7
100
AcDbEntity
  8
______
  6
CONTINUOUS
 62
         7
100
AcDbCircle
 10
433.5921532632
 20
298.0680383593
 30
0.0
 40
0.2
100
AcDbArc
 50
270.8955554999
 51
360.0
  0
DIMENSION
  5
2BA
100
AcDbEntity
  8
______
  6
CONTINUOUS
 62
         4
100
AcDbDimension
  2
*D7
 10
450.6410460908
 20
326.2041470708
 30
0.0
 11
448.6160460908
 21
302.6397072741
 31
0.0
  3
DIMSTYLE1
100
AcDbAlignedDimension
 13
435.6881532632
 23
326.2041470708
 33
0.0
 14
435.6881532632
 24
299.4041470708
 34
0.0
 50
90.0
100
AcDbRotatedDimension
  0
DIMENSION
  5
2C8
100
AcDbEntity
  8
______
  6
CONTINUOUS
 62
         4
100
AcDbDimension
  2
*D8
 10
457.70870565
 20
298.5541470708
 30
0.0
 11
455.68370565
 21
301.3709120075
 31
0.0
  3
DIMSTYLE1
100
AcDbAlignedDimension
 13
436.0881532632
 23
298.5541470708
 33
0.0
 14
436.0881532632
 24
327.0541470708
 34
0.0
 50
90.0
100
AcDbRotatedDimension
  0
ARC
  5
2D4
100
AcDbEntity
  8
______
  6
CONTINUOUS
 62
         7
100
AcDbCircle
 10
435.6881532632
 20
299.2041470708
 30
0.0
 40
0.2
100
AcDbArc
 50
0.0
 51
90.0000000001
  0
ARC
  5
2D5
100
AcDbEntity
  8
______
  6
CONTINUOUS
 62
         7
100
AcDbCircle
 10
434.4871532632
 20
299.2041470708
 30
0.0
 40
0.2
100
AcDbArc
 50
90.0
 51
180.0000000001
  0
ARC
  5
2D6
100
AcDbEntity
  8
______
  6
CONTINUOUS
 62
         7
100
AcDbCircle
 10
434.0871532632
 20
298.7541470708
 30
0.0
 40
0.2
100
AcDbArc
 50
270.0
 51
360.0
  0
ARC
  5
2D7
100
AcDbEntity
  8
______
  6
CONTINUOUS
 62
         7
100
AcDbCircle
 10
436.0881532632
 20
298.7541470708
 30
0.0
 40
0.2
100
AcDbArc
 50
180.0
 51
270.0
  0
ARC
  5
2D8
100
AcDbEntity
  8
______
  6
CONTINUOUS
 62
         7
100
AcDbCircle
 10
436.6111532632
 20
298.7541470708
 30
0.0
 40
0.2
100
AcDbArc
 50
270.0
 51
360.0
  0
ARC
  5
2D9
100
AcDbEntity
  8
______
  6
CONTINUOUS
 62
         7
100
AcDbCircle
 10
435.6881532632
 20
326.4041470708
 30
0.0
 40
0.2
100
AcDbArc
 50
270.0
 51
360.0000000001
  0
ARC
  5
2DA
100
AcDbEntity
  8
______
  6
CONTINUOUS
 62
         7
100
AcDbCircle
 10
434.4871532632
 20
326.4041470708
 30
0.0
 40
0.2
100
AcDbArc
 50
179.9999999999
 51
270.0
  0
ARC
  5
2DB
100
AcDbEntity
  8
______
  6
CONTINUOUS
 62
         7
100
AcDbCircle
 10
434.0871532632
 20
326.8541470708
 30
0.0
 40
0.2
100
AcDbArc
 50
0.0
 51
90.0
  0
ARC
  5
2DC
100
AcDbEntity
  8
______
  6
CONTINUOUS
 62
         7
100
AcDbCircle
 10
436.0881532632
 20
326.8541470708
 30
0.0
 40
0.2
100
AcDbArc
 50
90.0
 51
180.0
  0
ARC
  5
2DD
100
AcDbEntity
  8
______
  6
CONTINUOUS
 62
         7
100
AcDbCircle
 10
436.6111532632
 20
326.8541470708
 30
0.0
 40
0.2
100
AcDbArc
 50
0.0
 51
90.0
  0
LINE
  5
2DE
100
AcDbEntity
  8
______
  6
CONTINUOUS
 62
         7
100
AcDbLine
 10
436.8111532632
 20
298.7541470708
 30
0.0
 11
436.8111532632
 21
326.8541470708
 31
0.0
  0
LINE
  5
2DF
100
AcDbEntity
  8
______
  6
CONTINUOUS
 62
         7
100
AcDbLine
 10
433.7921532632
 20
298.0680383593
 30
0.0
 11
433.7921532632
 21
327.5402557823
 31
0.0
  0
LINE
  5
2E0
100
AcDbEntity
  8
______
  6
CONTINUOUS
 62
         7
100
AcDbLine
 10
436.6111532632
 20
327.0541470708
 30
0.0
 11
436.0881532632
 21
327.0541470708
 31
0.0
  0
LINE
  5
2E1
100
AcDbEntity
  8
______
  6
CONTINUOUS
 62
         7
100
AcDbLine
 10
435.8881532632
 20
298.7541470708
 30
0.0
 11
435.8881532632
 21
326.8541470708
 31
0.0
  0
LINE
  5
2E2
100
AcDbEntity
  8
______
  6
CONTINUOUS
 62
         7
100
AcDbLine
 10
434.2871532632
 20
298.7541470708
 30
0.0
 11
434.2871532632
 21
326.8541470708
 31
0.0
  0
LINE
  5
2E3
100
AcDbEntity
  8
______
  6
CONTINUOUS
 62
         7
100
AcDbLine
 10
435.6881532632
 20
326.2041470708
 30
0.0
 11
434.4871532632
 21
326.2041470708
 31
0.0
  0
LINE
  5
2E4
100
AcDbEntity
  8
______
  6
CONTINUOUS
 62
         7
100
AcDbLine
 10
434.0871532632
 20
327.0541470708
 30
0.0
 11
433.7921532632
 21
327.0541470708
 31
0.0
  0
LINE
  5
2E5
100
AcDbEntity
  8
______
  6
CONTINUOUS
 62
         7
100
AcDbLine
 10
436.6111532632
 20
298.5541470708
 30
0.0
 11
436.0881532632
 21
298.5541470708
 31
0.0
  0
LINE
  5
2E6
100
AcDbEntity
  8
______
  6
CONTINUOUS
 62
         7
100
AcDbLine
 10
435.6881532632
 20
299.4041470708
 30
0.0
 11
434.4871532632
 21
299.4041470708
 31
0.0
  0
LINE
  5
2E7
100
AcDbEntity
  8
______
  6
CONTINUOUS
 62
         7
100
AcDbLine
 10
434.0871532632
 20
298.5541470708
 30
0.0
 11
433.7921532632
 21
298.5541470708
 31
0.0
  0
LINE
  5
2E8
100
AcDbEntity
  8
______
  6
CONTINUOUS
 62
         7
100
AcDbLine
 10
390.4611532632
 20
337.8041470708
 30
0.0
 11
390.4611532632
 21
287.8041470708
 31
0.0
  0
LINE
  5
2E9
100
AcDbEntity
  8
______
  6
CONTINUOUS
 62
         7
100
AcDbLine
 10
391.9611532632
 20
336.3041470708
 30
0.0
 11
390.4611532632
 21
337.8041470708
 31
0.0
  0
LINE
  5
2EA
100
AcDbEntity
  8
______
  6
CONTINUOUS
 62
         7
100
AcDbLine
 10
391.9611532632
 20
289.3041470708
 30
0.0
 11
390.4611532632
 21
287.8041470708
 31
0.0
  0
LINE
  5
2EB
100
AcDbEntity
  8
______
  6
CONTINUOUS
 62
         7
100
AcDbLine
 10
390.4611532632
 20
287.8041470708
 30
0.0
 11
382.0985081974
 21
287.8041470708
 31
0.0
  0
LINE
  5
2EC
100
AcDbEntity
  8
______
  6
CONTINUOUS
 62
         7
100
AcDbLine
 10
390.4611532632
 20
337.8041470708
 30
0.0
 11
382.0985081974
 21
337.8041470708
 31
0.0
  0
DIMENSION
  5
2EF
100
AcDbEntity
  8
______
  6
CONTINUOUS
 62
         4
100
AcDbDimension
  2
*D9
 10
401.3767827634
 20
328.3441470708
 30
0.0
 11
399.3517827634
 21
301.8619812636
 31
0.0
  3
DIMSTYLE1
100
AcDbAlignedDimension
 13
394.9611532632
 23
328.3441470708
 33
0.0
 14
394.9611532632
 24
297.2641470708
 34
0.0
 50
90.0
100
AcDbRotatedDimension
  0
LINE
  5
2FB
100
AcDbEntity
  8
______
  6
CONTINUOUS
 62
         7
100
AcDbLine
 10
433.5952792144
 20
297.8680627897
 30
0.0
 11
393.756420652
 21
297.245315094
 31
0.0
  0
LINE
  5
2FC
100
AcDbEntity
  8
______
  6
CONTINUOUS
 62
         7
100
AcDbLine
 10
433.5952792144
 20
327.7402313518
 30
0.0
 11
393.756420652
 21
328.3629790475
 31
0.0
  0
LINE
  5
2FD
100
AcDbEntity
  8
______
  6
CENTER
 62
         1
100
AcDbLine
 10
394.9611532632
 20
297.2641470708
 30
0.0
 11
394.9611532632
 21
328.3441470708
 31
0.0
  0
LINE
  5
2FE
100
AcDbEntity
  8
______
  6
CENTER
 62
         1
100
AcDbLine
 10
440.8336699551
 20
312.8041470708
 30
0.0
 11
382.0985081974
 21
312.8041470708
 31
0.0
  0
LINE
  5
2FF
100
AcDbEntity
  8
______
  6
CONTINUOUS
 62
         7
100
AcDbLine
 10
391.9611532632
 20
289.3041470708
 30
0.0
 11
391.9611532632
 21
336.3041470708
 31
0.0
  0
DIMENSION
  5
302
100
AcDbEntity
  8
______
  6
CONTINUOUS
 62
         4
100
AcDbDimension
  2
*D10
 10
648.2344992287
 20
325.3541470708
 30
0.0
 11
646.2094992287
 21
302.9128528282
 31
0.0
  3
DIMSTYLE1
100
AcDbAlignedDimension
 13
585.6019451973
 23
325.3541470708
 33
0.0
 14
585.6019451973
 24
300.2541470708
 34
0.0
 50
90.0
100
AcDbRotatedDimension
  0
LINE
  5
30E
100
AcDbEntity
  8
______
  6
CONTINUOUS
 62
         7
100
AcDbLine
 10
584.6319451973
 20
322.5168563388
 30
0.0
 11
584.6319451973
 21
325.2483591731
 31
0.0
  0
LINE
  5
30F
100
AcDbEntity
  8
______
  6
CONTINUOUS
 62
         7
100
AcDbLine
 10
586.5719451973
 20
322.5168563388
 30
0.0
 11
586.5719451973
 21
325.2483591731
 31
0.0
  0
ARC
  5
310
100
AcDbEntity
  8
______
  6
CONTINUOUS
 62
         7
100
AcDbCircle
 10
585.6019451973
 20
312.8041470708
 30
0.0
 40
9.525
100
AcDbArc
 50
97.4716065782
 51
142.528393422
  0
LINE
  5
311
100
AcDbEntity
  8
______
  6
CONTINUOUS
 62
         7
100
AcDbLine
 10
584.6319451973
 20
322.5168563388
 30
0.0
 11
584.3633631835
 21
322.2482743251
 31
0.0
  0
LINE
  5
312
100
AcDbEntity
  8
______
  6
CONTINUOUS
 62
         7
100
AcDbLine
 10
586.8405272111
 20
322.2482743251
 30
0.0
 11
586.5719451973
 21
322.5168563388
 31
0.0
  0
LINE
  5
313
100
AcDbEntity
  8
______
  6
CONTINUOUS
 62
         7
100
AcDbLine
 10
576.7054922316
 20
316.8204570631
 30
0.0
 11
574.3399413866
 21
318.1862084802
 31
0.0
  0
LINE
  5
314
100
AcDbEntity
  8
______
  6
CONTINUOUS
 62
         7
100
AcDbLine
 10
577.6754922316
 20
318.5005463465
 30
0.0
 11
575.3099413866
 21
319.8662977636
 31
0.0
  0
ARC
  5
315
100
AcDbEntity
  8
______
  6
CONTINUOUS
 62
         7
100
AcDbCircle
 10
578.6304406968
 20
316.8291470708
 30
0.0
 40
4.5
100
AcDbArc
 50
137.5518774403
 51
162.4481225597
  0
LINE
  5
316
100
AcDbEntity
  8
______
  6
CONTINUOUS
 62
         7
100
AcDbLine
 10
576.7054922316
 20
316.8204570631
 30
0.0
 11
576.8038000716
 21
316.4535672093
 31
0.0
  0
LINE
  5
317
100
AcDbEntity
  8
______
  6
CONTINUOUS
 62
         7
100
AcDbLine
 10
578.0423820854
 20
318.5988541865
 30
0.0
 11
577.6754922316
 21
318.5005463465
 31
0.0
  0
LINE
  5
318
100
AcDbEntity
  8
______
  6
CONTINUOUS
 62
         7
100
AcDbLine
 10
577.6754922316
 20
307.1077477951
 30
0.0
 11
575.3099413866
 21
305.7419963779
 31
0.0
  0
LINE
  5
319
100
AcDbEntity
  8
______
  6
CONTINUOUS
 62
         7
100
AcDbLine
 10
576.7054922316
 20
308.7878370784
 30
0.0
 11
574.3399413866
 21
307.4220856613
 31
0.0
  0
ARC
  5
31A
100
AcDbEntity
  8
______
  6
CONTINUOUS
 62
         7
100
AcDbCircle
 10
578.6304406969
 20
308.7791470708
 30
0.0
 40
4.5
100
AcDbArc
 50
197.5518774403
 51
222.4481225597
  0
LINE
  5
31B
100
AcDbEntity
  8
______
  6
CONTINUOUS
 62
         7
100
AcDbLine
 10
577.6754922316
 20
307.1077477951
 30
0.0
 11
578.0423820854
 21
307.009439955
 31
0.0
  0
LINE
  5
31C
100
AcDbEntity
  8
______
  6
CONTINUOUS
 62
         7
100
AcDbLine
 10
576.8038000716
 20
309.1547269322
 30
0.0
 11
576.7054922316
 21
308.7878370784
 31
0.0
  0
LINE
  5
31D
100
AcDbEntity
  8
______
  6
CONTINUOUS
 62
         7
100
AcDbLine
 10
586.5719451973
 20
303.0914378027
 30
0.0
 11
586.5719451973
 21
300.3599349685
 31
0.0
  0
LINE
  5
31E
100
AcDbEntity
  8
______
  6
CONTINUOUS
 62
         7
100
AcDbLine
 10
584.6319451973
 20
303.0914378027
 30
0.0
 11
584.6319451973
 21
300.3599349685
 31
0.0
  0
ARC
  5
31F
100
AcDbEntity
  8
______
  6
CONTINUOUS
 62
         7
100
AcDbCircle
 10
585.6019451973
 20
304.7541470708
 30
0.0
 40
4.5
100
AcDbArc
 50
257.5518774403
 51
282.4481225597
  0
LINE
  5
320
100
AcDbEntity
  8
______
  6
CONTINUOUS
 62
         7
100
AcDbLine
 10
586.5719451973
 20
303.0914378027
 30
0.0
 11
586.8405272111
 21
303.3600198165
 31
0.0
  0
LINE
  5
321
100
AcDbEntity
  8
______
  6
CONTINUOUS
 62
         7
100
AcDbLine
 10
584.3633631836
 20
303.3600198165
 30
0.0
 11
584.6319451973
 21
303.0914378027
 31
0.0
  0
LINE
  5
322
100
AcDbEntity
  8
______
  6
CONTINUOUS
 62
         7
100
AcDbLine
 10
594.498398163
 20
308.7878370784
 30
0.0
 11
596.863949008
 21
307.4220856613
 31
0.0
  0
LINE
  5
323
100
AcDbEntity
  8
______
  6
CONTINUOUS
 62
         7
100
AcDbLine
 10
593.528398163
 20
307.1077477951
 30
0.0
 11
595.893949008
 21
305.741996378
 31
0.0
  0
ARC
  5
324
100
AcDbEntity
  8
______
  6
CONTINUOUS
 62
         7
100
AcDbCircle
 10
592.5734496978
 20
308.7791470708
 30
0.0
 40
4.5
100
AcDbArc
 50
317.5518774403
 51
342.4481225597
  0
LINE
  5
325
100
AcDbEntity
  8
______
  6
CONTINUOUS
 62
         7
100
AcDbLine
 10
594.498398163
 20
308.7878370784
 30
0.0
 11
594.400090323
 21
309.1547269322
 31
0.0
  0
LINE
  5
326
100
AcDbEntity
  8
______
  6
CONTINUOUS
 62
         7
100
AcDbLine
 10
593.1615083092
 20
307.009439955
 30
0.0
 11
593.528398163
 21
307.1077477951
 31
0.0
  0
LINE
  5
327
100
AcDbEntity
  8
______
  6
CONTINUOUS
 62
         7
100
AcDbLine
 10
593.528398163
 20
318.5005463465
 30
0.0
 11
595.893949008
 21
319.8662977636
 31
0.0
  0
LINE
  5
328
100
AcDbEntity
  8
______
  6
CONTINUOUS
 62
         7
100
AcDbLine
 10
594.498398163
 20
316.8204570631
 30
0.0
 11
596.863949008
 21
318.1862084803
 31
0.0
  0
ARC
  5
329
100
AcDbEntity
  8
______
  6
CONTINUOUS
 62
         7
100
AcDbCircle
 10
592.5734496978
 20
316.8291470708
 30
0.0
 40
4.5
100
AcDbArc
 50
17.5518774403
 51
42.4481225597
  0
LINE
  5
32A
100
AcDbEntity
  8
______
  6
CONTINUOUS
 62
         7
100
AcDbLine
 10
593.528398163
 20
318.5005463465
 30
0.0
 11
593.1615083092
 21
318.5988541865
 31
0.0
  0
LINE
  5
32B
100
AcDbEntity
  8
______
  6
CONTINUOUS
 62
         7
100
AcDbLine
 10
594.400090323
 20
316.4535672093
 30
0.0
 11
594.498398163
 21
316.8204570631
 31
0.0
  0
ARC
  5
32C
100
AcDbEntity
  8
______
  6
CONTINUOUS
 62
         7
100
AcDbCircle
 10
585.6019451973
 20
312.8041470708
 30
0.0
 40
9.525
100
AcDbArc
 50
157.4716065782
 51
202.528393422
  0
ARC
  5
32D
100
AcDbEntity
  8
______
  6
CONTINUOUS
 62
         7
100
AcDbCircle
 10
585.6019451973
 20
312.8041470708
 30
0.0
 40
9.525
100
AcDbArc
 50
217.4716065782
 51
262.528393422
  0
ARC
  5
32E
100
AcDbEntity
  8
______
  6
CONTINUOUS
 62
         7
100
AcDbCircle
 10
585.6019451973
 20
312.8041470708
 30
0.0
 40
9.525
100
AcDbArc
 50
277.4716065782
 51
322.528393422
  0
ARC
  5
32F
100
AcDbEntity
  8
______
  6
CONTINUOUS
 62
         7
100
AcDbCircle
 10
585.6019451973
 20
312.8041470708
 30
0.0
 40
9.525
100
AcDbArc
 50
337.4716065782
 51
382.528393422
  0
ARC
  5
330
100
AcDbEntity
  8
______
  6
CONTINUOUS
 62
         7
100
AcDbCircle
 10
585.6019451973
 20
312.8041470708
 30
0.0
 40
9.525
100
AcDbArc
 50
37.4716065782
 51
82.528393422
  0
ARC
  5
331
100
AcDbEntity
  8
______
  6
CONTINUOUS
 62
         7
100
AcDbCircle
 10
585.6019451973
 20
320.8541470708
 30
0.0
 40
4.5
100
AcDbArc
 50
77.5518774403
 51
102.4481225597
  0
ARC
  5
332
100
AcDbEntity
  8
______
  6
CONTINUOUS
 62
         7
100
AcDbCircle
 10
434.8111532632
 20
186.1725012522
 30
0.0
 40
2.0
100
AcDbArc
 50
0.0
 51
90.0
  0
ARC
  5
333
100
AcDbEntity
  8
______
  6
CONTINUOUS
 62
         7
100
AcDbCircle
 10
434.8111532632
 20
209.2225012522
 30
0.0
 40
2.0
100
AcDbArc
 50
270.0
 51
360.0
  0
DIMENSION
  5
336
100
AcDbEntity
  8
______
  6
CONTINUOUS
 62
         4
100
AcDbDimension
  2
*D11
 10
404.6549391986
 20
176.8575012522
 30
0.0
 11
402.6299391986
 21
167.5009941523
 31
0.0
  3
DIMSTYLE1
100
AcDbAlignedDimension
 13
391.9611532632
 23
176.8575012522
 33
0.0
 14
391.9611532632
 24
180.8575012522
 34
0.0
 50
90.0
100
AcDbRotatedDimension
  0
DIMENSION
  5
346
100
AcDbEntity
  8
______
  6
CONTINUOUS
 62
         4
100
AcDbDimension
  2
*D12
 10
385.9611532632
 20
165.8227483135
 30
0.0
 11
385.9951116878
 21
167.8477483135
 31
0.0
  3
DIMSTYLE1
100
AcDbAlignedDimension
 13
385.9611532632
 23
176.8575012522
 33
0.0
 14
391.9611532632
 24
174.1975012522
 34
0.0
100
AcDbRotatedDimension
  0
DIMENSION
  5
354
100
AcDbEntity
  8
______
  6
CONTINUOUS
 62
         4
100
AcDbDimension
  2
*D13
 10
370.1028858991
 20
187.5475012522
 30
0.0
 11
368.0778858991
 21
225.3241973062
 31
0.0
  3
DIMSTYLE1
100
AcDbAlignedDimension
 13
376.8111532632
 23
187.5475012522
 33
0.0
 14
376.8111532632
 24
207.8475012522
 34
0.0
 50
90.0
100
AcDbRotatedDimension
  0
DIMENSION
  5
363
100
AcDbEntity
  8
______
  6
CONTINUOUS
 62
         4
100
AcDbDimension
  2
*D14
 10
356.8111532632
 20
153.2484825431
 30
0.0
 11
394.1111532632
 21
155.2734825431
 31
0.0
  3
DIMSTYLE1
100
AcDbAlignedDimension
 13
356.8111532632
 23
187.1975012522
 33
0.0
 14
436.8111532632
 24
183.6475012522
 34
0.0
100
AcDbRotatedDimension
  0
LINE
  5
36F
100
AcDbEntity
  8
______
  6
CONTINUOUS
 62
         7
100
AcDbLine
 10
361.8111532632
 20
187.1975012522
 30
0.0
 11
356.8111532632
 21
187.1975012522
 31
0.0
  0
LINE
  5
370
100
AcDbEntity
  8
______
  6
CONTINUOUS
 62
         7
100
AcDbLine
 10
361.8111532632
 20
208.1975012522
 30
0.0
 11
356.8111532632
 21
208.1975012522
 31
0.0
  0
LINE
  5
371
100
AcDbEntity
  8
______
  6
CONTINUOUS
 62
         7
100
AcDbLine
 10
376.8111532632
 20
187.5475012522
 30
0.0
 11
361.8111532632
 21
187.5475012522
 31
0.0
  0
LINE
  5
372
100
AcDbEntity
  8
______
  6
CONTINUOUS
 62
         7
100
AcDbLine
 10
376.8111532632
 20
207.8475012522
 30
0.0
 11
361.8111532632
 21
207.8475012522
 31
0.0
  0
LINE
  5
373
100
AcDbEntity
  8
______
  6
CONTINUOUS
 62
         7
100
AcDbLine
 10
381.8111532632
 20
184.6975012522
 30
0.0
 11
376.8111532632
 21
184.6975012522
 31
0.0
  0
LINE
  5
374
100
AcDbEntity
  8
______
  6
CONTINUOUS
 62
         7
100
AcDbLine
 10
381.8111532632
 20
210.6975012522
 30
0.0
 11
376.8111532632
 21
210.6975012522
 31
0.0
  0
DIMENSION
  5
377
100
AcDbEntity
  8
______
  6
CONTINUOUS
 62
         4
100
AcDbDimension
  2
*D15
 10
436.8111532632
 20
160.6694049821
 30
0.0
 11
406.6111532632
 21
162.6944049821
 31
0.0
  3
DIMSTYLE1
100
AcDbAlignedDimension
 13
436.8111532632
 23
183.6475012522
 33
0.0
 14
381.8111532632
 24
184.6375012522
 34
0.0
100
AcDbRotatedDimension
  0
LINE
  5
383
100
AcDbEntity
  8
______
  6
CONTINUOUS
 62
         7
100
AcDbLine
 10
436.8111532632
 20
191.6633581265
 30
0.0
 11
381.8111532632
 21
191.6633581265
 31
0.0
  0
LINE
  5
384
100
AcDbEntity
  8
______
  6
CONTINUOUS
 62
         7
100
AcDbLine
 10
436.8111532632
 20
193.8086451037
 30
0.0
 11
381.8111532632
 21
193.8086451037
 31
0.0
  0
LINE
  5
385
100
AcDbEntity
  8
______
  6
CONTINUOUS
 62
         7
100
AcDbLine
 10
436.8111532632
 20
201.5863574007
 30
0.0
 11
381.8111532632
 21
201.5863574007
 31
0.0
  0
LINE
  5
386
100
AcDbEntity
  8
______
  6
CONTINUOUS
 62
         7
100
AcDbLine
 10
436.8111532632
 20
203.7316443779
 30
0.0
 11
381.8111532632
 21
203.7316443779
 31
0.0
  0
LINE
  5
387
100
AcDbEntity
  8
______
  6
DASHED
 62
         2
100
AcDbLine
 10
436.8111532632
 20
210.2475012522
 30
0.0
 11
381.8111532632
 21
210.2475012522
 31
0.0
  0
LINE
  5
388
100
AcDbEntity
  8
______
  6
CONTINUOUS
 62
         7
100
AcDbLine
 10
436.8111532632
 20
185.1475012522
 30
0.0
 11
381.8111532632
 21
185.1475012522
 31
0.0
  0
LINE
  5
389
100
AcDbEntity
  8
______
  6
CONTINUOUS
 62
         7
100
AcDbLine
 10
361.8111532632
 20
187.1975012522
 30
0.0
 11
361.8111532632
 21
208.1975012522
 31
0.0
  0
LINE
  5
38A
100
AcDbEntity
  8
______
  6
CONTINUOUS
 62
         7
100
AcDbLine
 10
376.8111532632
 20
184.6975012522
 30
0.0
 11
376.8111532632
 21
210.6975012522
 31
0.0
  0
LINE
  5
38B
100
AcDbEntity
  8
______
  6
CONTINUOUS
 62
         7
100
AcDbLine
 10
381.8111532632
 20
184.6975012522
 30
0.0
 11
381.8111532632
 21
210.6975012522
 31
0.0
  0
LINE
  5
38C
100
AcDbEntity
  8
______
  6
CONTINUOUS
 62
         7
100
AcDbLine
 10
356.8111532632
 20
187.1975012522
 30
0.0
 11
356.8111532632
 21
208.1975012522
 31
0.0
  0
LINE
  5
38D
100
AcDbEntity
  8
______
  6
CONTINUOUS
 62
         7
100
AcDbLine
 10
434.8111532632
 20
188.1725012522
 30
0.0
 11
381.8111532632
 21
188.1725012522
 31
0.0
  0
LINE
  5
38E
100
AcDbEntity
  8
______
  6
CONTINUOUS
 62
         7
100
AcDbLine
 10
434.8111532632
 20
207.2225012522
 30
0.0
 11
381.8111532632
 21
207.2225012522
 31
0.0
  0
LINE
  5
38F
100
AcDbEntity
  8
______
  6
CENTER
 62
         1
100
AcDbLine
 10
438.9930069987
 20
197.6975012522
 30
0.0
 11
353.300929075
 21
197.6975012522
 31
0.0
  0
LINE
  5
390
100
AcDbEntity
  8
______
  6
CONTINUOUS
 62
         7
100
AcDbLine
 10
433.7921532632
 20
211.9475012522
 30
0.0
 11
433.7921532632
 21
212.4336099637
 31
0.0
  0
LINE
  5
391
100
AcDbEntity
  8
______
  6
CONTINUOUS
 62
         7
100
AcDbLine
 10
434.2871532632
 20
211.2975012522
 30
0.0
 11
434.2871532632
 21
211.7475012522
 31
0.0
  0
LINE
  5
392
100
AcDbEntity
  8
______
  6
CONTINUOUS
 62
         7
100
AcDbLine
 10
435.8881532632
 20
211.2975012522
 30
0.0
 11
435.8881532632
 21
211.7475012522
 31
0.0
  0
LINE
  5
393
100
AcDbEntity
  8
______
  6
CONTINUOUS
 62
         7
100
AcDbLine
 10
391.9611532632
 20
213.7591439895
 30
0.0
 11
391.9611532632
 21
221.1975012522
 31
0.0
  0
LINE
  5
394
100
AcDbEntity
  8
______
  6
CONTINUOUS
 62
         7
100
AcDbLine
 10
391.9611532632
 20
174.1975012522
 30
0.0
 11
391.9611532632
 21
181.6358585149
 31
0.0
  0
LINE
  5
395
100
AcDbEntity
  8
______
  6
CONTINUOUS
 62
         7
100
AcDbLine
 10
433.5952792144
 20
212.6335855333
 30
0.0
 11
393.756420652
 21
213.2563332289
 31
0.0
  0
LINE
  5
396
100
AcDbEntity
  8
______
  6
CONTINUOUS
 62
         7
100
AcDbLine
 10
433.5952792144
 20
182.7614169711
 30
0.0
 11
393.756420652
 21
182.1386692755
 31
0.0
  0
LINE
  5
397
100
AcDbEntity
  8
______
  6
CONTINUOUS
 62
         7
100
AcDbLine
 10
390.4611532632
 20
222.6975012522
 30
0.0
 11
382.0985081974
 21
222.6975012522
 31
0.0
  0
LINE
  5
398
100
AcDbEntity
  8
______
  6
CONTINUOUS
 62
         7
100
AcDbLine
 10
390.4611532632
 20
172.6975012522
 30
0.0
 11
382.0985081974
 21
172.6975012522
 31
0.0
  0
LINE
  5
399
100
AcDbEntity
  8
______
  6
CONTINUOUS
 62
         7
100
AcDbLine
 10
391.9611532632
 20
174.1975012522
 30
0.0
 11
390.4611532632
 21
172.6975012522
 31
0.0
  0
LINE
  5
39A
100
AcDbEntity
  8
______
  6
CONTINUOUS
 62
         7
100
AcDbLine
 10
391.9611532632
 20
221.1975012522
 30
0.0
 11
390.4611532632
 21
222.6975012522
 31
0.0
  0
LINE
  5
39B
100
AcDbEntity
  8
______
  6
CONTINUOUS
 62
         7
100
AcDbLine
 10
434.0871532632
 20
183.4475012522
 30
0.0
 11
433.7921532632
 21
183.4475012522
 31
0.0
  0
LINE
  5
39C
100
AcDbEntity
  8
______
  6
CONTINUOUS
 62
         7
100
AcDbLine
 10
435.6881532632
 20
184.2975012522
 30
0.0
 11
434.4871532632
 21
184.2975012522
 31
0.0
  0
LINE
  5
39D
100
AcDbEntity
  8
______
  6
CONTINUOUS
 62
         7
100
AcDbLine
 10
436.6111532632
 20
183.4475012522
 30
0.0
 11
436.0881532632
 21
183.4475012522
 31
0.0
  0
LINE
  5
39E
100
AcDbEntity
  8
______
  6
CONTINUOUS
 62
         7
100
AcDbLine
 10
434.0871532632
 20
211.9475012522
 30
0.0
 11
433.7921532632
 21
211.9475012522
 31
0.0
  0
LINE
  5
39F
100
AcDbEntity
  8
______
  6
CONTINUOUS
 62
         7
100
AcDbLine
 10
435.6881532632
 20
211.0975012522
 30
0.0
 11
434.4871532632
 21
211.0975012522
 31
0.0
  0
LINE
  5
3A0
100
AcDbEntity
  8
______
  6
CONTINUOUS
 62
         7
100
AcDbLine
 10
434.2871532632
 20
183.6475012522
 30
0.0
 11
434.2871532632
 21
184.0975012522
 31
0.0
  0
LINE
  5
3A1
100
AcDbEntity
  8
______
  6
CONTINUOUS
 62
         7
100
AcDbLine
 10
435.8881532632
 20
183.6475012522
 30
0.0
 11
435.8881532632
 21
184.0975012522
 31
0.0
  0
LINE
  5
3A2
100
AcDbEntity
  8
______
  6
CONTINUOUS
 62
         7
100
AcDbLine
 10
436.6111532632
 20
211.9475012522
 30
0.0
 11
436.0881532632
 21
211.9475012522
 31
0.0
  0
LINE
  5
3A3
100
AcDbEntity
  8
______
  6
CONTINUOUS
 62
         7
100
AcDbLine
 10
433.7921532632
 20
182.9613925407
 30
0.0
 11
433.7921532632
 21
183.4475012522
 31
0.0
  0
LINE
  5
3A4
100
AcDbEntity
  8
______
  6
CONTINUOUS
 62
         7
100
AcDbLine
 10
436.8111532632
 20
183.6475012522
 30
0.0
 11
436.8111532632
 21
211.7475012522
 31
0.0
  0
ARC
  5
3A5
100
AcDbEntity
  8
______
  6
CONTINUOUS
 62
         7
100
AcDbCircle
 10
436.6111532632
 20
211.7475012522
 30
0.0
 40
0.2
100
AcDbArc
 50
0.0
 51
90.0
  0
ARC
  5
3A6
100
AcDbEntity
  8
______
  6
CONTINUOUS
 62
         7
100
AcDbCircle
 10
436.0881532632
 20
211.7475012522
 30
0.0
 40
0.2
100
AcDbArc
 50
90.0
 51
180.0
  0
ARC
  5
3A7
100
AcDbEntity
  8
______
  6
CONTINUOUS
 62
         7
100
AcDbCircle
 10
434.0871532632
 20
211.7475012522
 30
0.0
 40
0.2
100
AcDbArc
 50
0.0
 51
90.0
  0
ARC
  5
3A8
100
AcDbEntity
  8
______
  6
CONTINUOUS
 62
         7
100
AcDbCircle
 10
434.4871532632
 20
211.2975012522
 30
0.0
 40
0.2
100
AcDbArc
 50
179.9999999999
 51
270.0
  0
ARC
  5
3A9
100
AcDbEntity
  8
______
  6
CONTINUOUS
 62
         7
100
AcDbCircle
 10
435.6881532632
 20
211.2975012522
 30
0.0
 40
0.2
100
AcDbArc
 50
270.0
 51
360.0000000001
  0
ARC
  5
3AA
100
AcDbEntity
  8
______
  6
CONTINUOUS
 62
         7
100
AcDbCircle
 10
436.6111532632
 20
183.6475012522
 30
0.0
 40
0.2
100
AcDbArc
 50
270.0
 51
360.0
  0
ARC
  5
3AB
100
AcDbEntity
  8
______
  6
CONTINUOUS
 62
         7
100
AcDbCircle
 10
436.0881532632
 20
183.6475012522
 30
0.0
 40
0.2
100
AcDbArc
 50
180.0
 51
270.0
  0
ARC
  5
3AC
100
AcDbEntity
  8
______
  6
CONTINUOUS
 62
         7
100
AcDbCircle
 10
434.0871532632
 20
183.6475012522
 30
0.0
 40
0.2
100
AcDbArc
 50
270.0
 51
360.0
  0
ARC
  5
3AD
100
AcDbEntity
  8
______
  6
CONTINUOUS
 62
         7
100
AcDbCircle
 10
434.4871532632
 20
184.0975012522
 30
0.0
 40
0.2
100
AcDbArc
 50
90.0
 51
180.0000000001
  0
ARC
  5
3AE
100
AcDbEntity
  8
______
  6
CONTINUOUS
 62
         7
100
AcDbCircle
 10
435.6881532632
 20
184.0975012522
 30
0.0
 40
0.2
100
AcDbArc
 50
0.0
 51
90.0000000001
  0
ARC
  5
3AF
100
AcDbEntity
  8
______
  6
CONTINUOUS
 62
         7
100
AcDbCircle
 10
433.5921532632
 20
182.9613925407
 30
0.0
 40
0.2
100
AcDbArc
 50
270.8955554999
 51
360.0
  0
ARC
  5
3B0
100
AcDbEntity
  8
______
  6
CONTINUOUS
 62
         7
100
AcDbCircle
 10
433.5921532632
 20
212.4336099637
 30
0.0
 40
0.2
100
AcDbArc
 50
0.0
 51
89.1044445001
  0
LINE
  5
3B1
100
AcDbEntity
  8
______
  6
CENTER
 62
         1
100
AcDbLine
 10
393.7352868451
 20
216.5375012522
 30
0.0
 11
383.2075215082
 21
216.5375012522
 31
0.0
  0
LINE
  5
3B2
100
AcDbEntity
  8
______
  6
DASHED
 62
         2
100
AcDbLine
 10
391.9611532632
 20
214.5375012522
 30
0.0
 11
385.9611532632
 21
214.5375012522
 31
0.0
  0
LINE
  5
3B3
100
AcDbEntity
  8
______
  6
DASHED
 62
         2
100
AcDbLine
 10
391.9611532632
 20
218.5375012522
 30
0.0
 11
385.9611532632
 21
218.5375012522
 31
0.0
  0
LINE
  5
3B4
100
AcDbEntity
  8
______
  6
DASHED
 62
         2
100
AcDbLine
 10
385.9611532632
 20
214.5375012522
 30
0.0
 11
385.9611532632
 21
218.5375012522
 31
0.0
  0
LINE
  5
3B5
100
AcDbEntity
  8
______
  6
DASHED
 62
         2
100
AcDbLine
 10
384.8064527249
 20
216.5375012522
 30
0.0
 11
385.9611532632
 21
214.5375012522
 31
0.0
  0
LINE
  5
3B6
100
AcDbEntity
  8
______
  6
DASHED
 62
         2
100
AcDbLine
 10
385.9611532632
 20
218.5375012522
 30
0.0
 11
384.8064527249
 21
216.5375012522
 31
0.0
  0
LINE
  5
3B7
100
AcDbEntity
  8
______
  6
CENTER
 62
         1
100
AcDbLine
 10
393.7352868451
 20
178.8575012522
 30
0.0
 11
383.2075215082
 21
178.8575012522
 31
0.0
  0
LINE
  5
3B8
100
AcDbEntity
  8
______
  6
CONTINUOUS
 62
         7
100
AcDbLine
 10
391.9611532632
 20
180.8575012522
 30
0.0
 11
385.9611532632
 21
180.8575012522
 31
0.0
  0
LINE
  5
3B9
100
AcDbEntity
  8
______
  6
CONTINUOUS
 62
         7
100
AcDbLine
 10
391.9611532632
 20
176.8575012522
 30
0.0
 11
385.9611532632
 21
176.8575012522
 31
0.0
  0
LINE
  5
3BA
100
AcDbEntity
  8
______
  6
CONTINUOUS
 62
         7
100
AcDbLine
 10
385.9611532632
 20
180.8575012522
 30
0.0
 11
385.9611532632
 21
176.8575012522
 31
0.0
  0
LINE
  5
3BB
100
AcDbEntity
  8
______
  6
CONTINUOUS
 62
         7
100
AcDbLine
 10
384.8064527249
 20
178.8575012522
 30
0.0
 11
385.9611532632
 21
180.8575012522
 31
0.0
  0
LINE
  5
3BC
100
AcDbEntity
  8
______
  6
CONTINUOUS
 62
         7
100
AcDbLine
 10
385.9611532632
 20
176.8575012522
 30
0.0
 11
384.8064527249
 21
178.8575012522
 31
0.0
  0
ARC
  5
3BD
100
AcDbEntity
  8
______
  6
CONTINUOUS
 62
         7
100
AcDbCircle
 10
392.2611532632
 20
213.4843962476
 30
0.0
 40
0.4
100
AcDbArc
 50
180.0
 51
270.0
  0
LINE
  5
3BE
100
AcDbEntity
  8
______
  6
CONTINUOUS
 62
         7
100
AcDbLine
 10
393.1656097207
 20
213.098025917
 30
0.0
 11
393.7566303251
 21
213.2563894107
 31
0.0
  0
LINE
  5
3BF
100
AcDbEntity
  8
______
  6
CONTINUOUS
 62
         7
100
AcDbLine
 10
393.0620821027
 20
213.0843962476
 30
0.0
 11
392.2611532632
 21
213.0843962476
 31
0.0
  0
ARC
  5
3C0
100
AcDbEntity
  8
______
  6
CONTINUOUS
 62
         7
100
AcDbCircle
 10
393.0620821027
 20
213.4843962476
 30
0.0
 40
0.4
100
AcDbArc
 50
270.0
 51
285.0
  0
LINE
  5
3C1
100
AcDbEntity
  8
______
  6
CONTINUOUS
 62
         7
100
AcDbLine
 10
391.9611532632
 20
213.7591439895
 30
0.0
 11
391.8611532632
 21
213.4843962476
 31
0.0
  0
ARC
  5
3C2
100
AcDbEntity
  8
______
  6
CONTINUOUS
 62
         7
100
AcDbCircle
 10
392.2611532632
 20
181.9106062569
 30
0.0
 40
0.4
100
AcDbArc
 50
90.0
 51
180.0
  0
LINE
  5
3C3
100
AcDbEntity
  8
______
  6
CONTINUOUS
 62
         7
100
AcDbLine
 10
393.1656097207
 20
182.2969765874
 30
0.0
 11
393.7566303251
 21
182.1386130937
 31
0.0
  0
LINE
  5
3C4
100
AcDbEntity
  8
______
  6
CONTINUOUS
 62
         7
100
AcDbLine
 10
393.0620821027
 20
182.3106062569
 30
0.0
 11
392.2611532632
 21
182.3106062569
 31
0.0
  0
ARC
  5
3C5
100
AcDbEntity
  8
______
  6
CONTINUOUS
 62
         7
100
AcDbCircle
 10
393.0620821027
 20
181.9106062569
 30
0.0
 40
0.4
100
AcDbArc
 50
75.0
 51
90.0
  0
LINE
  5
3C6
100
AcDbEntity
  8
______
  6
CONTINUOUS
 62
         7
100
AcDbLine
 10
391.9611532632
 20
181.6358585149
 30
0.0
 11
391.8611532632
 21
181.9106062569
 31
0.0
  0
DIMENSION
  5
3C9
100
AcDbEntity
  8
______
  6
CONTINUOUS
 62
         4
100
AcDbDimension
  2
*D16
 10
463.6357243523
 20
222.6975012522
 30
0.0
 11
461.6107243523
 21
190.234947269
 31
0.0
  3
DIMSTYLE1
100
AcDbAlignedDimension
 13
390.4611532632
 23
222.6975012522
 33
0.0
 14
390.4611532632
 24
172.6975012522
 34
0.0
 50
90.0
100
AcDbRotatedDimension
  0
INSERT
  5
441
100
AcDbEntity
  8
0
  6
CONTINUOUS
100
AcDbBlockReference
  2
*X17
 10
0.0
 20
0.0
 30
0.0
  0
LINE
  5
442
100
AcDbEntity
  8
______
  6
CENTER
 62
         1
100
AcDbLine
 10
607.3269207635
 20
325.7303739139
 30
0.0
 11
591.0755314224
 21
316.3476299031
 31
0.0
  0
DIMENSION
  5
445
100
AcDbEntity
  8
______
  6
CONTINUOUS
 62
         4
100
AcDbDimension
  2
*D18
 10
456.305733549
 20
216.5375012522
 30
0.0
 11
454.280733549
 21
184.0034023871
 31
0.0
  3
DIMSTYLE1
100
AcDbAlignedDimension
 13
393.7352868451
 23
216.5375012522
 33
0.0
 14
393.7352868451
 24
178.8575012522
 34
0.0
 50
90.0
100
AcDbRotatedDimension
  0
TEXT
  5
452
100
AcDbEntity
  8
______
  6
CONTINUOUS
 62
         2
100
AcDbText
 10
570.17372298
 20
386.9899837496
 30
0.0
 40
4.5
  1
531250
 41
0.98
  7
BOX
100
AcDbText
  0
ENDSEC
  0
SECTION
  2
OBJECTS
  0
DICTIONARY
  5
19
100
AcDbDictionary
  3
ACAD_GROUP
350
1A
  3
ACAD_MLINESTYLE
350
1B
  0
DICTIONARY
  5
1A
102
{ACAD_REACTORS
330
19
102
}
100
AcDbDictionary
  0
DICTIONARY
  5
1B
102
{ACAD_REACTORS
330
19
102
}
100
AcDbDictionary
  3
STANDARD
350
1C
  0
MLINESTYLE
  5
1C
102
{ACAD_REACTORS
330
1B
102
}
100
AcDbMlineStyle
  2
STANDARD
 70
         0
  3

 62
         0
 51
90.0
 52
90.0
 71
         2
 49
0.5
 62
       256
  6
BYLAYER
 49
-0.5
 62
       256
  6
BYLAYER
  0
ENDSEC
  0
EOF
