  0
SECTION
  2
HEADER
  9
$ACADVER
  1
AC1014
  9
$ACADMAINTVER
 70
         0
  9
$DWGCODEPAGE
  3
BIG5
  9
$INSBASE
 10
0.0
 20
0.0
 30
0.0
  9
$EXTMIN
 10
1104.7524306508
 20
-73.1438157316
 30
0.0
  9
$EXTMAX
 10
1732.3117173344
 20
243.2521114625
 30
0.0
  9
$LIMMIN
 10
0.0
 20
0.0
  9
$LIMMAX
 10
0.0
 20
0.0
  9
$ORTHOMODE
 70
         0
  9
$REGENMODE
 70
         1
  9
$FILLMODE
 70
         1
  9
$QTEXTMODE
 70
         0
  9
$MIRRTEXT
 70
         1
  9
$DRAGMODE
 70
         2
  9
$LTSCALE
 40
1.0
  9
$OSMODE
 70
         0
  9
$ATTMODE
 70
         1
  9
$TEXTSIZE
 40
2.0
  9
$TRACEWID
 40
0.05
  9
$TEXTSTYLE
  7
STANDARD
  9
$CLAYER
  8
0
  9
$CELTYPE
  6
CONTINUOUS
  9
$CECOLOR
 62
         4
  9
$CELTSCALE
 40
1.0
  9
$DELOBJ
 70
         1
  9
$DISPSILH
 70
         0
  9
$DIMSCALE
 40
1.0
  9
$DIMASZ
 40
0.18
  9
$DIMEXO
 40
0.0625
  9
$DIMDLI
 40
0.38
  9
$DIMRND
 40
0.0
  9
$DIMDLE
 40
0.0
  9
$DIMEXE
 40
0.25
  9
$DIMTP
 40
0.01
  9
$DIMTM
 40
-0.01
  9
$DIMTXT
 40
2.7
  9
$DIMCEN
 40
0.09
  9
$DIMTSZ
 40
0.0
  9
$DIMTOL
 70
         0
  9
$DIMLIM
 70
         0
  9
$DIMTIH
 70
         1
  9
$DIMTOH
 70
         1
  9
$DIMSE1
 70
         0
  9
$DIMSE2
 70
         0
  9
$DIMTAD
 70
         0
  9
$DIMZIN
 70
         0
  9
$DIMBLK
  1

  9
$DIMASO
 70
         1
  9
$DIMSHO
 70
         1
  9
$DIMPOST
  1

  9
$DIMAPOST
  1

  9
$DIMALT
 70
         0
  9
$DIMALTD
 70
         2
  9
$DIMALTF
 40
25.4
  9
$DIMLFAC
 40
1.0
  9
$DIMTOFL
 70
         0
  9
$DIMTVP
 40
0.0
  9
$DIMTIX
 70
         0
  9
$DIMSOXD
 70
         0
  9
$DIMSAH
 70
         0
  9
$DIMBLK1
  1

  9
$DIMBLK2
  1

  9
$DIMSTYLE
  2
STANDARD
  9
$DIMCLRD
 70
         0
  9
$DIMCLRE
 70
         0
  9
$DIMCLRT
 70
         4
  9
$DIMTFAC
 40
1.0
  9
$DIMGAP
 40
0.09
  9
$DIMJUST
 70
         0
  9
$DIMSD1
 70
         0
  9
$DIMSD2
 70
         0
  9
$DIMTOLJ
 70
         1
  9
$DIMTZIN
 70
         0
  9
$DIMALTZ
 70
         0
  9
$DIMALTTZ
 70
         0
  9
$DIMFIT
 70
         3
  9
$DIMUPT
 70
         0
  9
$DIMUNIT
 70
         2
  9
$DIMDEC
 70
         4
  9
$DIMTDEC
 70
         4
  9
$DIMALTU
 70
         2
  9
$DIMALTTD
 70
         2
  9
$DIMTXSTY
  7
STANDARD
  9
$DIMAUNIT
 70
         0
  9
$LUNITS
 70
         2
  9
$LUPREC
 70
        10
  9
$SKETCHINC
 40
0.1
  9
$FILLETRAD
 40
0.0
  9
$AUNITS
 70
         0
  9
$AUPREC
 70
         0
  9
$MENU
  1
acad
  9
$ELEVATION
 40
0.0
  9
$PELEVATION
 40
0.0
  9
$THICKNESS
 40
0.0
  9
$LIMCHECK
 70
         0
  9
$BLIPMODE
 70
         1
  9
$CHAMFERA
 40
0.0
  9
$CHAMFERB
 40
0.0
  9
$CHAMFERC
 40
0.0
  9
$CHAMFERD
 40
0.0
  9
$SKPOLY
 70
         0
  9
$TDCREATE
 40
0.000000000
  9
$TDUPDATE
 40
0.000000000
  9
$TDINDWG
 40
0.0000000000
  9
$TDUSRTIMER
 40
0.0000000000
  9
$USRTIMER
 70
         1
  9
$ANGBASE
 50
0.0
  9
$ANGDIR
 70
         0
  9
$PDMODE
 70
         2
  9
$PDSIZE
 40
0.0
  9
$PLINEWID
 40
0.0
  9
$COORDS
 70
         1
  9
$SPLFRAME
 70
         0
  9
$SPLINETYPE
 70
         6
  9
$SPLINESEGS
 70
         8
  9
$ATTDIA
 70
         0
  9
$ATTREQ
 70
         1
  9
$HANDLING
 70
         1
  9
$HANDSEED
  5
552
  9
$SURFTAB1
 70
         6
  9
$SURFTAB2
 70
         6
  9
$SURFTYPE
 70
         6
  9
$SURFU
 70
         6
  9
$SURFV
 70
         6
  9
$UCSNAME
  2

  9
$UCSORG
 10
0.0
 20
0.0
 30
0.0
  9
$UCSXDIR
 10
1.0
 20
0.0
 30
0.0
  9
$UCSYDIR
 10
0.0
 20
1.0
 30
0.0
  9
$PUCSNAME
  2

  9
$PUCSORG
 10
0.0
 20
0.0
 30
0.0
  9
$PUCSXDIR
 10
1.0
 20
0.0
 30
0.0
  9
$PUCSYDIR
 10
0.0
 20
1.0
 30
0.0
  9
$USERI1
 70
         0
  9
$USERI2
 70
         0
  9
$USERI3
 70
         0
  9
$USERI4
 70
         0
  9
$USERI5
 70
         0
  9
$USERR1
 40
0.0
  9
$USERR2
 40
0.0
  9
$USERR3
 40
0.0
  9
$USERR4
 40
0.0
  9
$USERR5
 40
0.0
  9
$WORLDVIEW
 70
         1
  9
$SHADEDGE
 70
         3
  9
$SHADEDIF
 70
        70
  9
$TILEMODE
 70
         1
  9
$MAXACTVP
 70
        16
  9
$PINSBASE
 10
0.0
 20
0.0
 30
0.0
  9
$PLIMCHECK
 70
         0
  9
$PEXTMIN
 10
1.0000000000E+20
 20
1.0000000000E+20
 30
1.0000000000E+20
  9
$PEXTMAX
 10
-1.0000000000E+20
 20
-1.0000000000E+20
 30
-1.0000000000E+20
  9
$PLIMMIN
 10
0.0
 20
0.0
  9
$PLIMMAX
 10
12.0
 20
9.0
  9
$UNITMODE
 70
         0
  9
$VISRETAIN
 70
         0
  9
$PLINEGEN
 70
         1
  9
$PSLTSCALE
 70
         0
  9
$TREEDEPTH
 70
      3020
  9
$PICKSTYLE
 70
         1
  9
$CMLSTYLE
  2
STANDARD
  9
$CMLJUST
 70
         0
  9
$CMLSCALE
 40
1.0
  9
$PROXYGRAPHICS
 70
         0
  9
$MEASUREMENT
 70
         0
  0
ENDSEC
  0
SECTION
  2
CLASSES
  0
CLASS
  1
LWPOLYLINE
  2
AcDbPolyline
  3
"AutoCAD"
 90
        0
280
         0
281
         1
  0
CLASS
  1
IMAGE
  2
AcDbRasterImage
  3
ISM
 90
      127
280
         0
281
         1
  0
CLASS
  1
OLE2FRAME
  2
AcDbOle2Frame
  3
""
 90
        0
280
         0
281
         1
  0
CLASS
  1
HATCH
  2
AcDbHatch
  3
"ACAD_SEDONA"
 90
        0
280
         0
281
         1
  0
CLASS
  1
DICTIONARYVAR
  2
AcDbDictionaryVar
  3
"AutoCAD"
 90
        0
280
         0
281
         0
  0
CLASS
  1
RASTERVARIABLES
  2
AcDbRasterVariables
  3
ISM
 90
        0
280
         0
281
         0
  0
CLASS
  1
IMAGEDEF
  2
AcDbRasterImageDef
  3
ISM
 90
        0
280
         0
281
         0
  0
CLASS
  1
IMAGEDEF_REACTOR
  2
AcDbRasterImageDefReactor
  3
ISM
 90
        1
280
         0
281
         0
  0
CLASS
  1
IDBUFFER
  2
AcDbIdBuffer
  3
"Acad"
 90
        0
280
         0
281
         0
  0
CLASS
  1
SPATIAL_FILTER
  2
AcDbSpatialFilter
  3
"Acad"
 90
        0
280
         0
281
         0
  0
CLASS
  1
XRECORD
  2
AcDbXrecord
  3
"<Built In>"
 90
        0
280
         0
281
         0
  0
CLASS
  1
SORTENTSTABLE
  2
AcDbSortentsTable
  3
"AutoCAD"
 90
        0
280
         0
281
         0
  0
CLASS
  1
LAYER_INDEX
  2
AcDbLayerIndex
  3
"Acad"
 90
        0
280
         0
281
         0
  0
CLASS
  1
SPATIAL_INDEX
  2
AcDbSpatialIndex
  3
"Acad"
 90
        0
280
         0
281
         0
  0
CLASS
  1
OBJECT_PTR
  2
CAseDLPNTableRecord
  3
"ASE-LPNTableRecord"
 90
        1
280
         0
281
         0
  0
CLASS
  1
LAYOUT
  2
AcDbLayout
  3
"AutoCAD 2000"
 90
        1
280
         0
281
         0
  0
CLASS
  1
PLOTSETTINGS
  2
AcDbPlotSettings
  3
"AutoCAD 2000"
 90
        1
280
         0
281
         0
  0
CLASS
  1
ACDBDICTIONARYWDFLT
  2
AcDbDictionaryWithDefault
  3
"AutoCAD 2000"
 90
        1
280
         0
281
         0
  0
CLASS
  1
ACDBPLACEHOLDER
  2
AcDbPlaceHolder
  3
"AutoCAD 2000"
 90
        1
280
         0
281
         0
  0
CLASS
  1
VBA_PROJECT
  2
AcDbVbaProject
  3
"acadvba"
 90
        1
280
         0
281
         0
  0
CLASS
  1
WIPEOUT
  2
AcDbWipeout
  3
WipeOut|AutoCAD Express Tool|expresstools@autodesk.com
 90
      127
280
         0
281
         1
  0
CLASS
  1
WIPEOUTVARIABLES
  2
AcDbWipeoutVariables
  3
WipeOut|AutoCAD Express Tool|expresstools@autodesk.com
 90
        0
280
         0
281
         0
  0
CLASS
  1
RTEXT
  2
RText
  3
RText|AutoCAD Express Tool|expresstools@autodesk.com
 90
        0
280
         0
281
         1
  0
CLASS
  1
ARCALIGNEDTEXT
  2
AcDbArcAlignedText
  3
ATEXT|AutoCAD Express Tool|expresstools@autodesk.com
 90
        0
280
         0
281
         1
  0
ENDSEC
  0
SECTION
  2
TABLES
  0
TABLE
  2
VPORT
  5
7
100
AcDbSymbolTable
 70
         1
  0
VPORT
  5
15
100
AcDbSymbolTableRecord
100
AcDbViewportTableRecord
  2
*ACTIVE
 70
         0
 10
0.0
 20
0.0
 11
1.0
 21
1.0
 12
1418.5320739926
 22
85.0541478654
 13
0.0
 23
0.0
 14
1.0
 24
1.0
 15
0.0
 25
0.0
 16
0.0
 26
0.0
 36
1.0
 17
0.0
 27
0.0
 37
0.0
 40
316.395927194
 41
1.9834619625
 42
50.0
 43
0.0
 44
0.0
 50
0.0
 51
0.0
 71
         0
 72
       100
 73
         1
 74
         1
 75
         0
 76
         0
 77
         0
 78
         0
  0
ENDTAB
  0
TABLE
  2
LTYPE
  5
4
100
AcDbSymbolTable
 70
         6
  0
LTYPE
  5
11
100
AcDbSymbolTableRecord
100
AcDbLinetypeTableRecord
  2
BYBLOCK
 70
        64
  3

 72
        65
 73
         0
 40
0.0
  0
LTYPE
  5
12
100
AcDbSymbolTableRecord
100
AcDbLinetypeTableRecord
  2
BYLAYER
 70
        64
  3

 72
        65
 73
         0
 40
0.0
  0
LTYPE
  5
13
100
AcDbSymbolTableRecord
100
AcDbLinetypeTableRecord
  2
CONTINUOUS
 70
        64
  3
Solid line
 72
        65
 73
         0
 40
0.0
  0
LTYPE
  5
1D
100
AcDbSymbolTableRecord
100
AcDbLinetypeTableRecord
  2
DASHED
 70
        64
  3
_ _ _ _ _ _ _ _ _ _ _ _ _ _ _ _
 72
        65
 73
         2
 40
0.2
 49
0.1
 74
         0
 49
-0.1
 74
         0
  0
LTYPE
  5
1E
100
AcDbSymbolTableRecord
100
AcDbLinetypeTableRecord
  2
CENTER
 70
        64
  3
___ _ ___ _ ___ _ ___ _ ___ _ ___ _ ___ _ ___ _
 72
        65
 73
         4
 40
0.95
 49
0.625
 74
         0
 49
-0.125
 74
         0
 49
0.075
 74
         0
 49
-0.125
 74
         0
  0
LTYPE
  5
1F
100
AcDbSymbolTableRecord
100
AcDbLinetypeTableRecord
  2
PHANTOM
 70
        64
  3
______  __  __  ______  __  __  ______  __  __  
 72
        65
 73
         6
 40
1.025
 49
0.625
 74
         0
 49
-0.125
 74
         0
 49
0.075
 74
         0
 49
-0.125
 74
         0
 49
0.075
 74
         0
 49
-0.125
 74
         0
  0
ENDTAB
  0
TABLE
  2
LAYER
  5
2
100
AcDbSymbolTable
 70
         5
  0
LAYER
  5
14
100
AcDbSymbolTableRecord
100
AcDbLayerTableRecord
  2
0
 70
         0
 62
         7
  6
CONTINUOUS
  0
LAYER
  5
21
100
AcDbSymbolTableRecord
100
AcDbLayerTableRecord
  2
_____U
 70
         1
 62
         7
  6
CONTINUOUS
  0
LAYER
  5
22
100
AcDbSymbolTableRecord
100
AcDbLayerTableRecord
  2
_Y________
 70
         0
 62
         7
  6
CONTINUOUS
  0
LAYER
  5
23
100
AcDbSymbolTableRecord
100
AcDbLayerTableRecord
  2
L1_65
 70
         0
 62
         7
  6
CONTINUOUS
  0
LAYER
  5
79
100
AcDbSymbolTableRecord
100
AcDbLayerTableRecord
  2
DEFPOINTS
 70
         0
 62
        -7
  6
CONTINUOUS
  0
ENDTAB
  0
TABLE
  2
STYLE
  5
3
100
AcDbSymbolTable
 70
        17
  0
STYLE
  5
17
100
AcDbSymbolTableRecord
100
AcDbTextStyleTableRecord
  2
STANDARD
 70
         0
 40
0.0
 41
1.0
 50
0.0
 71
         0
 42
0.0
  3
txt
  4

  0
STYLE
  5
83
100
AcDbSymbolTableRecord
100
AcDbTextStyleTableRecord
  2
BOX
 70
         0
 40
1.0
 41
1.0
 50
0.0
 71
         0
 42
0.2
  3
txt.shx
  4

  0
STYLE
  5
91
100
AcDbSymbolTableRecord
100
AcDbTextStyleTableRecord
  2
BOX
 70
         0
 40
1.0
 41
1.0
 50
0.0
 71
         0
 42
0.2
  3
txt.shx
  4

  0
STYLE
  5
A2
100
AcDbSymbolTableRecord
100
AcDbTextStyleTableRecord
  2
BOX
 70
         0
 40
1.0
 41
1.0
 50
0.0
 71
         0
 42
0.2
  3
txt.shx
  4

  0
STYLE
  5
111
100
AcDbSymbolTableRecord
100
AcDbTextStyleTableRecord
  2
BOX
 70
         0
 40
1.0
 41
1.0
 50
0.0
 71
         0
 42
0.2
  3
txt.shx
  4

  0
STYLE
  5
11F
100
AcDbSymbolTableRecord
100
AcDbTextStyleTableRecord
  2
BOX
 70
         0
 40
1.0
 41
1.0
 50
0.0
 71
         0
 42
0.2
  3
txt.shx
  4

  0
STYLE
  5
15A
100
AcDbSymbolTableRecord
100
AcDbTextStyleTableRecord
  2
BOX
 70
         0
 40
1.0
 41
1.0
 50
0.0
 71
         0
 42
0.2
  3
txt.shx
  4

  0
STYLE
  5
169
100
AcDbSymbolTableRecord
100
AcDbTextStyleTableRecord
  2
BOX
 70
         0
 40
1.0
 41
1.0
 50
0.0
 71
         0
 42
0.2
  3
txt.shx
  4

  0
STYLE
  5
17E
100
AcDbSymbolTableRecord
100
AcDbTextStyleTableRecord
  2
BOX
 70
         0
 40
1.0
 41
1.0
 50
0.0
 71
         0
 42
0.2
  3
txt.shx
  4

  0
STYLE
  5
199
100
AcDbSymbolTableRecord
100
AcDbTextStyleTableRecord
  2
BOX
 70
         0
 40
1.0
 41
1.0
 50
0.0
 71
         0
 42
0.2
  3
txt.shx
  4

  0
STYLE
  5
1B6
100
AcDbSymbolTableRecord
100
AcDbTextStyleTableRecord
  2
BOX
 70
         0
 40
1.0
 41
1.0
 50
0.0
 71
         0
 42
0.2
  3
txt.shx
  4

  0
STYLE
  5
1C4
100
AcDbSymbolTableRecord
100
AcDbTextStyleTableRecord
  2
BOX
 70
         0
 40
1.0
 41
1.0
 50
0.0
 71
         0
 42
0.2
  3
txt.shx
  4

  0
STYLE
  5
1D8
100
AcDbSymbolTableRecord
100
AcDbTextStyleTableRecord
  2
BOX
 70
         0
 40
1.0
 41
1.0
 50
0.0
 71
         0
 42
0.2
  3
txt.shx
  4

  0
STYLE
  5
1E6
100
AcDbSymbolTableRecord
100
AcDbTextStyleTableRecord
  2
BOX
 70
         0
 40
1.0
 41
1.0
 50
0.0
 71
         0
 42
0.2
  3
txt.shx
  4

  0
STYLE
  5
1F6
100
AcDbSymbolTableRecord
100
AcDbTextStyleTableRecord
  2
BOX
 70
         0
 40
1.0
 41
1.0
 50
0.0
 71
         0
 42
0.2
  3
txt.shx
  4

  0
STYLE
  5
449
100
AcDbSymbolTableRecord
100
AcDbTextStyleTableRecord
  2
BOX
 70
         0
 40
1.0
 41
1.0
 50
0.0
 71
         0
 42
0.2
  3
txt.shx
  4

  0
STYLE
  5
550
100
AcDbSymbolTableRecord
100
AcDbTextStyleTableRecord
  2
BOX
 70
         0
 40
1.0
 41
1.0
 50
0.0
 71
         0
 42
0.2
  3
txt.shx
  4

  0
ENDTAB
  0
TABLE
  2
VIEW
  5
5
100
AcDbSymbolTable
 70
         0
  0
ENDTAB
  0
TABLE
  2
UCS
  5
6
100
AcDbSymbolTable
 70
         1
  0
UCS
  5
20
100
AcDbSymbolTableRecord
100
AcDbUCSTableRecord
  2
CK_VIEW_1
 70
         0
 10
0.0
 20
0.0
 30
1.0
 11
1.0
 21
0.0
 31
0.0
 12
0.0
 22
1.0
 32
0.0
  0
ENDTAB
  0
TABLE
  2
APPID
  5
8
100
AcDbSymbolTable
 70
         1
  0
APPID
  5
16
100
AcDbSymbolTableRecord
100
AcDbRegAppTableRecord
  2
ACAD
 70
         0
  0
ENDTAB
  0
TABLE
  2
DIMSTYLE
  5
9
100
AcDbSymbolTable
 70
         2
  0
DIMSTYLE
105
18
100
AcDbSymbolTableRecord
100
AcDbDimStyleTableRecord
  2
STANDARD
 70
         0
  3

  4

  5

  6

  7

 40
1.0
 41
0.18
 42
0.0625
 43
0.38
 44
0.18
 45
0.0
 46
0.0
 47
0.0
 48
0.0
 71
         0
 72
         0
 73
         1
 74
         1
 75
         0
 76
         0
 77
         0
 78
         0
140
0.18
141
0.09
142
0.0
143
25.4
144
1.0
145
0.0
146
1.0
147
0.09
170
         0
171
         2
172
         0
173
         0
174
         0
175
         0
176
         0
177
         0
178
         0
270
         2
271
         4
272
         4
273
         2
274
         2
275
         0
280
         0
281
         0
282
         0
283
         1
284
         0
285
         0
286
         0
287
         0
288
         0
340
17
  0
DIMSTYLE
105
75
100
AcDbSymbolTableRecord
100
AcDbDimStyleTableRecord
  2
DIMSTYLE1
 70
         0
  3

  4

  5

  6

  7

 40
1.0
 41
2.7
 42
0.0625
 43
0.38
 44
2.7
 45
0.0
 46
0.0
 47
0.0
 48
0.0
 71
         0
 72
         0
 73
         1
 74
         1
 75
         0
 76
         0
 77
         0
 78
         0
140
2.7
141
0.09
142
0.0
143
25.4
144
1.0
145
0.0
146
1.0
147
0.09
170
         0
171
         2
172
         0
173
         0
174
         0
175
         0
176
         0
177
         0
178
         0
270
         2
271
         4
272
         4
273
         2
274
         2
275
         0
280
         0
281
         0
282
         0
283
         1
284
         0
285
         0
286
         0
287
         0
288
         0
340
17
  0
ENDTAB
  0
TABLE
  2
BLOCK_RECORD
  5
1
100
AcDbSymbolTable
 70
        22
  0
BLOCK_RECORD
  5
A
100
AcDbSymbolTableRecord
100
AcDbBlockTableRecord
  2
*MODEL_SPACE
  0
BLOCK_RECORD
  5
B
100
AcDbSymbolTableRecord
100
AcDbBlockTableRecord
  2
*PAPER_SPACE
  0
BLOCK_RECORD
  5
24
100
AcDbSymbolTableRecord
100
AcDbBlockTableRecord
  2
*X0
  0
BLOCK_RECORD
  5
76
100
AcDbSymbolTableRecord
100
AcDbBlockTableRecord
  2
*D1
  0
BLOCK_RECORD
  5
86
100
AcDbSymbolTableRecord
100
AcDbBlockTableRecord
  2
*D2
  0
BLOCK_RECORD
  5
97
100
AcDbSymbolTableRecord
100
AcDbBlockTableRecord
  2
*D3
  0
BLOCK_RECORD
  5
CE
100
AcDbSymbolTableRecord
100
AcDbBlockTableRecord
  2
*X4
  0
BLOCK_RECORD
  5
DF
100
AcDbSymbolTableRecord
100
AcDbBlockTableRecord
  2
*X5
  0
BLOCK_RECORD
  5
E8
100
AcDbSymbolTableRecord
100
AcDbBlockTableRecord
  2
*X6
  0
BLOCK_RECORD
  5
F7
100
AcDbSymbolTableRecord
100
AcDbBlockTableRecord
  2
*X7
  0
BLOCK_RECORD
  5
FF
100
AcDbSymbolTableRecord
100
AcDbBlockTableRecord
  2
*X8
  0
BLOCK_RECORD
  5
106
100
AcDbSymbolTableRecord
100
AcDbBlockTableRecord
  2
*D9
  0
BLOCK_RECORD
  5
114
100
AcDbSymbolTableRecord
100
AcDbBlockTableRecord
  2
*D10
  0
BLOCK_RECORD
  5
14F
100
AcDbSymbolTableRecord
100
AcDbBlockTableRecord
  2
*D11
  0
BLOCK_RECORD
  5
15D
100
AcDbSymbolTableRecord
100
AcDbBlockTableRecord
  2
*D12
  0
BLOCK_RECORD
  5
171
100
AcDbSymbolTableRecord
100
AcDbBlockTableRecord
  2
*D13
  0
BLOCK_RECORD
  5
18E
100
AcDbSymbolTableRecord
100
AcDbBlockTableRecord
  2
*D14
  0
BLOCK_RECORD
  5
1AB
100
AcDbSymbolTableRecord
100
AcDbBlockTableRecord
  2
*D15
  0
BLOCK_RECORD
  5
1B9
100
AcDbSymbolTableRecord
100
AcDbBlockTableRecord
  2
*D16
  0
BLOCK_RECORD
  5
1CD
100
AcDbSymbolTableRecord
100
AcDbBlockTableRecord
  2
*D17
  0
BLOCK_RECORD
  5
1DB
100
AcDbSymbolTableRecord
100
AcDbBlockTableRecord
  2
*D18
  0
BLOCK_RECORD
  5
1EA
100
AcDbSymbolTableRecord
100
AcDbBlockTableRecord
  2
*D19
  0
BLOCK_RECORD
  5
2DB
100
AcDbSymbolTableRecord
100
AcDbBlockTableRecord
  2
*X20
  0
BLOCK_RECORD
  5
409
100
AcDbSymbolTableRecord
100
AcDbBlockTableRecord
  2
*X21
  0
ENDTAB
  0
ENDSEC
  0
SECTION
  2
BLOCKS
  0
BLOCK
  5
D
100
AcDbEntity
  8
0
100
AcDbBlockBegin
  2
*MODEL_SPACE
 70
         0
 10
0.0
 20
0.0
 30
0.0
  3
*MODEL_SPACE
  1

  0
ENDBLK
  5
E
100
AcDbEntity
  8
0
100
AcDbBlockEnd
  0
BLOCK
  5
F
100
AcDbEntity
 67
         1
  8
0
100
AcDbBlockBegin
  2
*PAPER_SPACE
 70
         0
 10
0.0
 20
0.0
 30
0.0
  3
*PAPER_SPACE
  1

  0
ENDBLK
  5
10
100
AcDbEntity
 67
         1
  8
0
100
AcDbBlockEnd
  0
BLOCK
  5
25
100
AcDbEntity
  8
0
100
AcDbBlockBegin
  2
*X0
 70
        65
 10
0.0
 20
0.0
 30
0.0
  3
*X0
  1

  0
LINE
  5
26
100
AcDbEntity
  8
L1_65
  6
CONTINUOUS
 62
         4
100
AcDbLine
 10
1453.0790435842
 20
-23.9330086589
 30
0.0
 11
1454.3930142945
 21
-22.6190379486
 31
0.0
  0
LINE
  5
27
100
AcDbEntity
  8
L1_65
  6
CONTINUOUS
 62
         4
100
AcDbLine
 10
1448.8260768153
 20
-23.9433347407
 30
0.0
 11
1452.1433180977
 21
-20.6260934583
 31
0.0
  0
LINE
  5
28
100
AcDbEntity
  8
L1_65
  6
CONTINUOUS
 62
         4
100
AcDbLine
 10
1433.2984361282
 20
-35.2283347407
 30
0.0
 11
1435.0553403763
 21
-33.4714304926
 31
0.0
  0
LINE
  5
29
100
AcDbEntity
  8
L1_65
  6
CONTINUOUS
 62
         4
100
AcDbLine
 10
1444.5834361282
 20
-23.9433347407
 30
0.0
 11
1448.4234682177
 21
-20.1033026512
 31
0.0
  0
LINE
  5
2A
100
AcDbEntity
  8
L1_65
  6
CONTINUOUS
 62
         4
100
AcDbLine
 10
1429.0557954411
 20
-35.2283347407
 30
0.0
 11
1435.0553403763
 21
-29.2287898055
 31
0.0
  0
LINE
  5
2B
100
AcDbEntity
  8
L1_65
  6
CONTINUOUS
 62
         4
100
AcDbLine
 10
1440.3407954411
 20
-23.9433347407
 30
0.0
 11
1444.7036183376
 21
-19.5805118441
 31
0.0
  0
LINE
  5
2C
100
AcDbEntity
  8
L1_65
  6
CONTINUOUS
 62
         4
100
AcDbLine
 10
1415.3231547538
 20
-44.7183347409
 30
0.0
 11
1419.1033403763
 21
-40.9381491184
 31
0.0
  0
LINE
  5
2D
100
AcDbEntity
  8
L1_65
  6
CONTINUOUS
 62
         4
100
AcDbLine
 10
1424.813154754
 20
-35.2283347407
 30
0.0
 11
1435.0553403763
 21
-24.9861491184
 31
0.0
  0
LINE
  5
2E
100
AcDbEntity
  8
L1_65
  6
CONTINUOUS
 62
         4
100
AcDbLine
 10
1436.098154754
 20
-23.9433347407
 30
0.0
 11
1440.9837684576
 21
-19.057721037
 31
0.0
  0
LINE
  5
2F
100
AcDbEntity
  8
L1_65
  6
CONTINUOUS
 62
         4
100
AcDbLine
 10
1413.3368909653
 20
-42.4619578422
 30
0.0
 11
1419.1033403763
 21
-36.6955084313
 31
0.0
  0
LINE
  5
30
100
AcDbEntity
  8
L1_65
  6
CONTINUOUS
 62
         4
100
AcDbLine
 10
1420.5705140668
 20
-35.2283347407
 30
0.0
 11
1437.2505140668
 21
-18.5483347407
 31
0.0
  0
LINE
  5
31
100
AcDbEntity
  8
L1_65
  6
CONTINUOUS
 62
         4
100
AcDbLine
 10
1450.2758119054
 20
-5.5230369021
 30
0.0
 11
1453.6541084323
 21
-2.1447403752
 31
0.0
  0
LINE
  5
32
100
AcDbEntity
  8
L1_65
  6
CONTINUOUS
 62
         4
100
AcDbLine
 10
1406.8378733795
 20
-44.7183347409
 30
0.0
 11
1408.5631710543
 21
-42.9930370661
 31
0.0
  0
LINE
  5
33
100
AcDbEntity
  8
L1_65
  6
CONTINUOUS
 62
         4
100
AcDbLine
 10
1410.4878733797
 20
-41.0683347407
 30
0.0
 11
1433.0078733797
 21
-18.5483347407
 31
0.0
  0
LINE
  5
34
100
AcDbEntity
  8
L1_65
  6
CONTINUOUS
 62
         4
100
AcDbLine
 10
1445.3394043849
 20
-6.2168037355
 30
0.0
 11
1449.6128733797
 21
-1.9433347407
 31
0.0
  0
LINE
  5
35
100
AcDbEntity
  8
L1_65
  6
CONTINUOUS
 62
         4
100
AcDbLine
 10
1403.260889118
 20
-44.0526783153
 30
0.0
 11
1429.2952326926
 21
-18.0183347407
 31
0.0
  0
LINE
  5
36
100
AcDbEntity
  8
L1_65
  6
CONTINUOUS
 62
         4
100
AcDbLine
 10
1440.4029968645
 20
-6.9105705688
 30
0.0
 11
1445.3702326926
 21
-1.9433347407
 31
0.0
  0
LINE
  5
37
100
AcDbEntity
  8
L1_65
  6
CONTINUOUS
 62
         4
100
AcDbLine
 10
1403.2033403763
 20
-39.8675863699
 30
0.0
 11
1425.0525920055
 21
-18.0183347407
 31
0.0
  0
LINE
  5
38
100
AcDbEntity
  8
L1_65
  6
CONTINUOUS
 62
         4
100
AcDbLine
 10
1435.7325920055
 20
-7.3383347407
 30
0.0
 11
1441.1275920055
 21
-1.9433347407
 31
0.0
  0
LINE
  5
39
100
AcDbEntity
  8
L1_65
  6
CONTINUOUS
 62
         4
100
AcDbLine
 10
1403.1934490467
 20
-35.6348370123
 30
0.0
 11
1420.8099513184
 21
-18.0183347407
 31
0.0
  0
LINE
  5
3A
100
AcDbEntity
  8
L1_65
  6
CONTINUOUS
 62
         4
100
AcDbLine
 10
1430.9599513184
 20
-7.8683347407
 30
0.0
 11
1436.8849513184
 21
-1.9433347407
 31
0.0
  0
LINE
  5
3B
100
AcDbEntity
  8
L1_65
  6
CONTINUOUS
 62
         4
100
AcDbLine
 10
1399.4918962352
 20
-35.0937491368
 30
0.0
 11
1416.5673106312
 21
-18.0183347407
 31
0.0
  0
LINE
  5
3C
100
AcDbEntity
  8
L1_65
  6
CONTINUOUS
 62
         4
100
AcDbLine
 10
1426.7173106312
 20
-7.8683347407
 30
0.0
 11
1435.0553403763
 21
0.4696950043
 31
0.0
  0
LINE
  5
3D
100
AcDbEntity
  8
L1_65
  6
CONTINUOUS
 62
         4
100
AcDbLine
 10
1395.7892279991
 20
-34.5537766857
 30
0.0
 11
1412.3246699441
 21
-18.0183347407
 31
0.0
  0
LINE
  5
3E
100
AcDbEntity
  8
L1_65
  6
CONTINUOUS
 62
         4
100
AcDbLine
 10
1422.4746699441
 20
-7.8683347407
 30
0.0
 11
1435.0553403763
 21
4.7123356915
 31
0.0
  0
LINE
  5
3F
100
AcDbEntity
  8
L1_65
  6
CONTINUOUS
 62
         4
100
AcDbLine
 10
1392.0865597631
 20
-34.0138042346
 30
0.0
 11
1408.082029257
 21
-18.0183347407
 31
0.0
  0
LINE
  5
40
100
AcDbEntity
  8
L1_65
  6
CONTINUOUS
 62
         4
100
AcDbLine
 10
1418.232029257
 20
-7.8683347407
 30
0.0
 11
1434.9803030324
 21
8.8799390348
 31
0.0
  0
LINE
  5
41
100
AcDbEntity
  8
L1_65
  6
CONTINUOUS
 62
         4
100
AcDbLine
 10
1388.3838915271
 20
-33.4738317835
 30
0.0
 11
1403.8393885699
 21
-18.0183347407
 31
0.0
  0
LINE
  5
42
100
AcDbEntity
  8
L1_65
  6
CONTINUOUS
 62
         4
100
AcDbLine
 10
1413.9893885699
 20
-7.8683347407
 30
0.0
 11
1431.1993885699
 21
9.3416652593
 31
0.0
  0
LINE
  5
43
100
AcDbEntity
  8
L1_65
  6
CONTINUOUS
 62
         4
100
AcDbLine
 10
1384.681223291
 20
-32.9338593324
 30
0.0
 11
1399.5967478828
 21
-18.0183347407
 31
0.0
  0
LINE
  5
44
100
AcDbEntity
  8
L1_65
  6
CONTINUOUS
 62
         4
100
AcDbLine
 10
1409.7467478828
 20
-7.8683347407
 30
0.0
 11
1426.9567478828
 21
9.3416652593
 31
0.0
  0
LINE
  5
45
100
AcDbEntity
  8
L1_65
  6
CONTINUOUS
 62
         4
100
AcDbLine
 10
1380.978555055
 20
-32.3938868813
 30
0.0
 11
1395.3541071956
 21
-18.0183347407
 31
0.0
  0
LINE
  5
46
100
AcDbEntity
  8
L1_65
  6
CONTINUOUS
 62
         4
100
AcDbLine
 10
1405.5041071956
 20
-7.8683347407
 30
0.0
 11
1422.7141071957
 21
9.3416652593
 31
0.0
  0
LINE
  5
47
100
AcDbEntity
  8
L1_65
  6
CONTINUOUS
 62
         4
100
AcDbLine
 10
1377.275886819
 20
-31.8539144302
 30
0.0
 11
1391.1114665085
 21
-18.0183347407
 31
0.0
  0
LINE
  5
48
100
AcDbEntity
  8
L1_65
  6
CONTINUOUS
 62
         4
100
AcDbLine
 10
1401.2614665085
 20
-7.8683347407
 30
0.0
 11
1419.1033403763
 21
9.973539127
 31
0.0
  0
LINE
  5
49
100
AcDbEntity
  8
L1_65
  6
CONTINUOUS
 62
         4
100
AcDbLine
 10
1373.5732185829
 20
-31.3139419791
 30
0.0
 11
1386.8688258214
 21
-18.0183347407
 31
0.0
  0
LINE
  5
4A
100
AcDbEntity
  8
L1_65
  6
CONTINUOUS
 62
         4
100
AcDbLine
 10
1397.0188258214
 20
-7.8683347407
 30
0.0
 11
1411.4745307856
 21
6.5873702235
 31
0.0
  0
LINE
  5
4B
100
AcDbEntity
  8
L1_65
  6
CONTINUOUS
 62
         4
100
AcDbLine
 10
1412.9863784029
 20
8.0992178408
 30
0.0
 11
1413.8809550151
 21
8.993794453
 31
0.0
  0
LINE
  5
4C
100
AcDbEntity
  8
L1_65
  6
CONTINUOUS
 62
         4
100
AcDbLine
 10
1369.8705503469
 20
-30.7739695281
 30
0.0
 11
1380.7011851343
 21
-19.9433347407
 31
0.0
  0
LINE
  5
4D
100
AcDbEntity
  8
L1_65
  6
CONTINUOUS
 62
         4
100
AcDbLine
 10
1392.7761851343
 20
-7.8683347407
 30
0.0
 11
1403.2514834837
 21
2.6069636087
 31
0.0
  0
LINE
  5
4E
100
AcDbEntity
  8
L1_65
  6
CONTINUOUS
 62
         4
100
AcDbLine
 10
1413.919966983
 20
13.275447108
 30
0.0
 11
1418.9718527029
 21
18.3273328279
 31
0.0
  0
LINE
  5
4F
100
AcDbEntity
  8
L1_65
  6
CONTINUOUS
 62
         4
100
AcDbLine
 10
1366.1678821109
 20
-30.233997077
 30
0.0
 11
1376.4585444472
 21
-19.9433347407
 31
0.0
  0
LINE
  5
50
100
AcDbEntity
  8
L1_65
  6
CONTINUOUS
 62
         4
100
AcDbLine
 10
1388.5335444472
 20
-7.8683347407
 30
0.0
 11
1392.6220119523
 21
-3.7798672356
 31
0.0
  0
LINE
  5
51
100
AcDbEntity
  8
L1_65
  6
CONTINUOUS
 62
         4
100
AcDbLine
 10
1402.2674901845
 20
5.8656109967
 30
0.0
 11
1406.2858617048
 21
9.8839825169
 31
0.0
  0
LINE
  5
52
100
AcDbEntity
  8
L1_65
  6
CONTINUOUS
 62
         4
100
AcDbLine
 10
1408.6553113469
 20
12.253432159
 30
0.0
 11
1411.5835444474
 21
15.1816652595
 31
0.0
  0
LINE
  5
53
100
AcDbEntity
  8
L1_65
  6
CONTINUOUS
 62
         4
100
AcDbLine
 10
1413.8282822905
 20
17.4264031026
 30
0.0
 11
1415.2335444474
 21
18.8316652595
 31
0.0
  0
LINE
  5
54
100
AcDbEntity
  8
L1_65
  6
CONTINUOUS
 62
         4
100
AcDbLine
 10
1362.4652138748
 20
-29.6940246259
 30
0.0
 11
1372.2159037601
 21
-19.9433347407
 31
0.0
  0
LINE
  5
55
100
AcDbEntity
  8
L1_65
  6
CONTINUOUS
 62
         4
100
AcDbLine
 10
1391.6380186531
 20
-0.5212198476
 30
0.0
 11
1401.5287188585
 21
9.3694803578
 31
0.0
  0
LINE
  5
56
100
AcDbEntity
  8
L1_65
  6
CONTINUOUS
 62
         4
100
AcDbLine
 10
1403.2033403763
 20
11.0441018755
 30
0.0
 11
1403.7904953499
 21
11.6312568492
 31
0.0
  0
LINE
  5
57
100
AcDbEntity
  8
L1_65
  6
CONTINUOUS
 62
         4
100
AcDbLine
 10
1406.159944992
 20
14.0007064913
 30
0.0
 11
1408.8202801202
 21
16.6610416195
 31
0.0
  0
LINE
  5
58
100
AcDbEntity
  8
L1_65
  6
CONTINUOUS
 62
         4
100
AcDbLine
 10
1358.7625456388
 20
-29.1540521748
 30
0.0
 11
1367.9732630729
 21
-19.9433347407
 31
0.0
  0
LINE
  5
59
100
AcDbEntity
  8
L1_65
  6
CONTINUOUS
 62
         4
100
AcDbLine
 10
1381.9732630729
 20
-5.9433347407
 30
0.0
 11
1396.7193474358
 21
8.8027496222
 31
0.0
  0
LINE
  5
5A
100
AcDbEntity
  8
L1_65
  6
CONTINUOUS
 62
         4
100
AcDbLine
 10
1403.9517846544
 20
16.0351868408
 30
0.0
 11
1406.7482630731
 21
18.8316652595
 31
0.0
  0
LINE
  5
5B
100
AcDbEntity
  8
L1_65
  6
CONTINUOUS
 62
         4
100
AcDbLine
 10
1355.0598774028
 20
-28.6140797237
 30
0.0
 11
1363.7306223858
 21
-19.9433347407
 31
0.0
  0
LINE
  5
5C
100
AcDbEntity
  8
L1_65
  6
CONTINUOUS
 62
         4
100
AcDbLine
 10
1377.7306223858
 20
-5.9433347407
 30
0.0
 11
1391.7523534606
 21
8.0783963341
 31
0.0
  0
LINE
  5
5D
100
AcDbEntity
  8
L1_65
  6
CONTINUOUS
 62
         4
100
AcDbLine
 10
1351.3572091667
 20
-28.0741072726
 30
0.0
 11
1359.4879816987
 21
-19.9433347407
 31
0.0
  0
LINE
  5
5E
100
AcDbEntity
  8
L1_65
  6
CONTINUOUS
 62
         4
100
AcDbLine
 10
1373.4879816987
 20
-5.9433347407
 30
0.0
 11
1386.7853594855
 21
7.3540430461
 31
0.0
  0
LINE
  5
5F
100
AcDbEntity
  8
L1_65
  6
CONTINUOUS
 62
         4
100
AcDbLine
 10
1347.6545409307
 20
-27.5341348215
 30
0.0
 11
1355.2453410116
 21
-19.9433347407
 31
0.0
  0
LINE
  5
60
100
AcDbEntity
  8
L1_65
  6
CONTINUOUS
 62
         4
100
AcDbLine
 10
1369.2453410116
 20
-5.9433347407
 30
0.0
 11
1381.8183655103
 21
6.629689758
 31
0.0
  0
LINE
  5
61
100
AcDbEntity
  8
L1_65
  6
CONTINUOUS
 62
         4
100
AcDbLine
 10
1343.9518726947
 20
-26.9941623704
 30
0.0
 11
1351.0027003245
 21
-19.9433347407
 31
0.0
  0
LINE
  5
62
100
AcDbEntity
  8
L1_65
  6
CONTINUOUS
 62
         4
100
AcDbLine
 10
1365.0027003245
 20
-5.9433347407
 30
0.0
 11
1376.8513715351
 21
5.90533647
 31
0.0
  0
LINE
  5
63
100
AcDbEntity
  8
L1_65
  6
CONTINUOUS
 62
         4
100
AcDbLine
 10
1340.2492044587
 20
-26.4541899194
 30
0.0
 11
1346.7600596373
 21
-19.9433347407
 31
0.0
  0
LINE
  5
64
100
AcDbEntity
  8
L1_65
  6
CONTINUOUS
 62
         4
100
AcDbLine
 10
1360.7600596373
 20
-5.9433347407
 30
0.0
 11
1371.88437756
 21
5.180983182
 31
0.0
  0
LINE
  5
65
100
AcDbEntity
  8
L1_65
  6
CONTINUOUS
 62
         4
100
AcDbLine
 10
1336.5465362226
 20
-25.9142174683
 30
0.0
 11
1342.5174189502
 21
-19.9433347407
 31
0.0
  0
LINE
  5
66
100
AcDbEntity
  8
L1_65
  6
CONTINUOUS
 62
         4
100
AcDbLine
 10
1356.5174189502
 20
-5.9433347407
 30
0.0
 11
1366.9173835848
 21
4.4566298939
 31
0.0
  0
LINE
  5
67
100
AcDbEntity
  8
L1_65
  6
CONTINUOUS
 62
         4
100
AcDbLine
 10
1332.8438679866
 20
-25.3742450172
 30
0.0
 11
1338.2747782631
 21
-19.9433347407
 31
0.0
  0
LINE
  5
68
100
AcDbEntity
  8
L1_65
  6
CONTINUOUS
 62
         4
100
AcDbLine
 10
1352.2747782631
 20
-5.9433347407
 30
0.0
 11
1361.9503896096
 21
3.7322766059
 31
0.0
  0
LINE
  5
69
100
AcDbEntity
  8
L1_65
  6
CONTINUOUS
 62
         4
100
AcDbLine
 10
1331.7533403763
 20
-22.2221319404
 30
0.0
 11
1332.882137576
 21
-21.0933347407
 31
0.0
  0
LINE
  5
6A
100
AcDbEntity
  8
L1_65
  6
CONTINUOUS
 62
         4
100
AcDbLine
 10
1348.032137576
 20
-5.9433347407
 30
0.0
 11
1356.9833956345
 21
3.0079233178
 31
0.0
  0
LINE
  5
6B
100
AcDbEntity
  8
L1_65
  6
CONTINUOUS
 62
         4
100
AcDbLine
 10
1343.7894968889
 20
-5.9433347407
 30
0.0
 11
1352.0164016593
 21
2.2835700298
 31
0.0
  0
LINE
  5
6C
100
AcDbEntity
  8
L1_65
  6
CONTINUOUS
 62
         4
100
AcDbLine
 10
1339.5468562017
 20
-5.9433347407
 30
0.0
 11
1347.0494076841
 21
1.5592167417
 31
0.0
  0
LINE
  5
6D
100
AcDbEntity
  8
L1_65
  6
CONTINUOUS
 62
         4
100
AcDbLine
 10
1336.4801993017
 20
-4.7673509536
 30
0.0
 11
1342.082413709
 21
0.8348634537
 31
0.0
  0
LINE
  5
6E
100
AcDbEntity
  8
L1_65
  6
CONTINUOUS
 62
         4
100
AcDbLine
 10
1332.3134992348
 20
-4.6914103334
 30
0.0
 11
1337.1154197338
 21
0.1105101656
 31
0.0
  0
ENDBLK
  5
6F
100
AcDbEntity
  8
0
  6
CONTINUOUS
100
AcDbBlockEnd
  0
BLOCK
  5
77
100
AcDbEntity
  8
0
100
AcDbBlockBegin
  2
*D1
 70
        65
 10
0.0
 20
0.0
 30
0.0
  3
*D1
  1

  0
POINT
  5
7A
100
AcDbEntity
  8
DEFPOINTS
  6
CONTINUOUS
 62
         0
100
AcDbPoint
 10
1470.7376724774
 20
-7.3383347407
 30
0.0
  0
POINT
  5
7B
100
AcDbEntity
  8
DEFPOINTS
  6
CONTINUOUS
 62
         0
100
AcDbPoint
 10
1437.3633403763
 20
-7.3383347407
 30
0.0
  0
POINT
  5
7C
100
AcDbEntity
  8
DEFPOINTS
  6
CONTINUOUS
 62
         0
100
AcDbPoint
 10
1437.3633403763
 20
-18.5483347407
 30
0.0
  0
LINE
  5
7D
100
AcDbEntity
  8
L1_65
  6
CONTINUOUS
 62
         4
100
AcDbLine
 10
1438.7133403763
 20
-7.3383347407
 30
0.0
 11
1471.4126724774
 21
-7.3383347407
 31
0.0
  0
LINE
  5
7E
100
AcDbEntity
  8
L1_65
  6
CONTINUOUS
 62
         4
100
AcDbLine
 10
1438.7133403763
 20
-18.5483347407
 30
0.0
 11
1471.4126724774
 21
-18.5483347407
 31
0.0
  0
LINE
  5
7F
100
AcDbEntity
  8
L1_65
  6
CONTINUOUS
 62
         4
100
AcDbLine
 10
1470.7376724774
 20
-7.3383347407
 30
0.0
 11
1470.7376724774
 21
-18.5483347407
 31
0.0
  0
SOLID
  5
80
100
AcDbEntity
  8
L1_65
  6
CONTINUOUS
 62
         4
100
AcDbTrace
 10
1470.7376724774
 20
-7.3383347407
 30
0.0
 11
1471.1426724774
 21
-10.0383347407
 31
0.0
 12
1470.3326724774
 22
-10.0383347407
 32
0.0
 13
1470.7376724774
 23
-7.3383347407
 33
0.0
  0
LINE
  5
81
100
AcDbEntity
  8
L1_65
  6
CONTINUOUS
 62
         4
100
AcDbLine
 10
1470.7376724774
 20
-7.3383347407
 30
0.0
 11
1470.7376724774
 21
15.650234573
 31
0.0
  0
SOLID
  5
82
100
AcDbEntity
  8
L1_65
  6
CONTINUOUS
 62
         4
100
AcDbTrace
 10
1470.7376724774
 20
-18.5483347407
 30
0.0
 11
1470.3326724774
 21
-15.8483347407
 31
0.0
 12
1471.1426724774
 22
-15.8483347407
 32
0.0
 13
1470.7376724774
 23
-18.5483347407
 33
0.0
  0
TEXT
  5
84
100
AcDbEntity
  8
L1_65
  6
CONTINUOUS
 62
         4
100
AcDbText
 10
1468.7126724774
 20
-4.599765427
 30
0.0
 40
2.7
  1
崷11.21
 50
90.0
  7
BOX
100
AcDbText
  0
ENDBLK
  5
85
100
AcDbEntity
  8
0
  6
CONTINUOUS
100
AcDbBlockEnd
  0
BLOCK
  5
87
100
AcDbEntity
  8
0
100
AcDbBlockBegin
  2
*D2
 70
        65
 10
0.0
 20
0.0
 30
0.0
  3
*D2
  1

  0
POINT
  5
89
100
AcDbEntity
  8
DEFPOINTS
  6
CONTINUOUS
 62
         0
100
AcDbPoint
 10
1437.3633403763
 20
-45.3762912935
 30
0.0
  0
POINT
  5
8A
100
AcDbEntity
  8
DEFPOINTS
  6
CONTINUOUS
 62
         0
100
AcDbPoint
 10
1437.3633403763
 20
-18.5483347407
 30
0.0
  0
POINT
  5
8B
100
AcDbEntity
  8
DEFPOINTS
  6
CONTINUOUS
 62
         0
100
AcDbPoint
 10
1454.4033403763
 20
-22.4433347407
 30
0.0
  0
LINE
  5
8C
100
AcDbEntity
  8
L1_65
  6
CONTINUOUS
 62
         4
100
AcDbLine
 10
1437.3633403763
 20
-19.8983347407
 30
0.0
 11
1437.3633403763
 21
-46.0512912935
 31
0.0
  0
LINE
  5
8D
100
AcDbEntity
  8
L1_65
  6
CONTINUOUS
 62
         4
100
AcDbLine
 10
1454.4033403763
 20
-23.7933347407
 30
0.0
 11
1454.4033403763
 21
-46.0512912935
 31
0.0
  0
LINE
  5
8E
100
AcDbEntity
  8
L1_65
  6
CONTINUOUS
 62
         4
100
AcDbLine
 10
1437.3633403763
 20
-45.3762912935
 30
0.0
 11
1454.4033403763
 21
-45.3762912935
 31
0.0
  0
SOLID
  5
8F
100
AcDbEntity
  8
L1_65
  6
CONTINUOUS
 62
         4
100
AcDbTrace
 10
1437.3633403763
 20
-45.3762912935
 30
0.0
 11
1440.0633403763
 21
-44.9712912935
 31
0.0
 12
1440.0633403763
 22
-45.7812912935
 32
0.0
 13
1437.3633403763
 23
-45.3762912935
 33
0.0
  0
SOLID
  5
90
100
AcDbEntity
  8
L1_65
  6
CONTINUOUS
 62
         4
100
AcDbTrace
 10
1454.4033403763
 20
-45.3762912935
 30
0.0
 11
1451.7033403763
 21
-45.7812912935
 31
0.0
 12
1451.7033403763
 22
-44.9712912935
 32
0.0
 13
1454.4033403763
 23
-45.3762912935
 33
0.0
  0
TEXT
  5
92
100
AcDbEntity
  8
L1_65
  6
CONTINUOUS
 62
         4
100
AcDbText
 10
1446.6522749135
 20
-43.3512912935
 30
0.0
 40
2.7
  1
17.04
  7
BOX
100
AcDbText
  0
ENDBLK
  5
93
100
AcDbEntity
  8
0
  6
CONTINUOUS
100
AcDbBlockEnd
  0
BLOCK
  5
98
100
AcDbEntity
  8
0
100
AcDbBlockBegin
  2
*D3
 70
        65
 10
0.0
 20
0.0
 30
0.0
  3
*D3
  1

  0
POINT
  5
9A
100
AcDbEntity
  8
DEFPOINTS
  6
CONTINUOUS
 62
         0
100
AcDbPoint
 10
1585.7114532185
 20
8.7385251381
 30
0.0
  0
POINT
  5
9B
100
AcDbEntity
  8
DEFPOINTS
  6
CONTINUOUS
 62
         0
100
AcDbPoint
 10
1572.8428111523
 20
8.7385251381
 30
0.0
  0
POINT
  5
9C
100
AcDbEntity
  8
DEFPOINTS
  6
CONTINUOUS
 62
         0
100
AcDbPoint
 10
1564.7871487196
 20
30.7385251381
 30
0.0
  0
LINE
  5
9D
100
AcDbEntity
  8
L1_65
  6
CONTINUOUS
 62
         4
100
AcDbLine
 10
1574.1928111523
 20
8.7385251381
 30
0.0
 11
1586.3864532185
 21
8.7385251381
 31
0.0
  0
LINE
  5
9E
100
AcDbEntity
  8
L1_65
  6
CONTINUOUS
 62
         4
100
AcDbLine
 10
1566.1371487196
 20
30.7385251381
 30
0.0
 11
1586.3864532185
 21
30.7385251381
 31
0.0
  0
LINE
  5
9F
100
AcDbEntity
  8
L1_65
  6
CONTINUOUS
 62
         4
100
AcDbLine
 10
1585.7114532185
 20
8.7385251381
 30
0.0
 11
1585.7114532185
 21
30.7385251381
 31
0.0
  0
SOLID
  5
A0
100
AcDbEntity
  8
L1_65
  6
CONTINUOUS
 62
         4
100
AcDbTrace
 10
1585.7114532185
 20
8.7385251381
 30
0.0
 11
1585.3064532185
 21
11.4385251381
 31
0.0
 12
1586.1164532185
 22
11.4385251381
 32
0.0
 13
1585.7114532185
 23
8.7385251381
 33
0.0
  0
SOLID
  5
A1
100
AcDbEntity
  8
L1_65
  6
CONTINUOUS
 62
         4
100
AcDbTrace
 10
1585.7114532185
 20
30.7385251381
 30
0.0
 11
1586.1164532185
 21
28.0385251381
 31
0.0
 12
1585.3064532185
 22
28.0385251381
 32
0.0
 13
1585.7114532185
 23
30.7385251381
 33
0.0
  0
TEXT
  5
A3
100
AcDbEntity
  8
L1_65
  6
CONTINUOUS
 62
         4
100
AcDbText
 10
1583.6864532185
 20
9.1958852566
 30
0.0
 40
2.7
  1
M22xP1.5-5H
 50
90.0
  7
BOX
100
AcDbText
  0
ENDBLK
  5
A4
100
AcDbEntity
  8
0
  6
CONTINUOUS
100
AcDbBlockEnd
  0
BLOCK
  5
CF
100
AcDbEntity
  8
0
100
AcDbBlockBegin
  2
*X4
 70
        65
 10
0.0
 20
0.0
 30
0.0
  3
*X4
  1

  0
LINE
  5
D0
100
AcDbEntity
  8
L1_65
  6
CONTINUOUS
 62
         4
100
AcDbLine
 10
1571.7851251809
 20
30.7385251381
 30
0.0
 11
1572.9871487196
 21
31.9405486768
 31
0.0
  0
LINE
  5
D1
100
AcDbEntity
  8
L1_65
  6
CONTINUOUS
 62
         4
100
AcDbLine
 10
1569.6638048374
 20
30.7385251381
 30
0.0
 11
1572.3737430536
 21
33.4484633543
 31
0.0
  0
LINE
  5
D2
100
AcDbEntity
  8
L1_65
  6
CONTINUOUS
 62
         4
100
AcDbLine
 10
1567.5424844938
 20
30.7385251381
 30
0.0
 11
1570.5424844938
 21
33.7385251381
 31
0.0
  0
LINE
  5
D3
100
AcDbEntity
  8
L1_65
  6
CONTINUOUS
 62
         4
100
AcDbLine
 10
1565.4211641503
 20
30.7385251381
 30
0.0
 11
1567.0721612783
 21
32.3895222661
 31
0.0
  0
LINE
  5
D4
100
AcDbEntity
  8
L1_65
  6
CONTINUOUS
 62
         4
100
AcDbLine
 10
1567.3927759186
 20
32.7101369065
 30
0.0
 11
1568.4211641503
 21
33.7385251381
 31
0.0
  0
LINE
  5
D5
100
AcDbEntity
  8
L1_65
  6
CONTINUOUS
 62
         4
100
AcDbLine
 10
1560.1871487196
 20
27.6258300511
 30
0.0
 11
1561.2871487196
 21
28.7258300511
 31
0.0
  0
LINE
  5
D6
100
AcDbEntity
  8
L1_65
  6
CONTINUOUS
 62
         4
100
AcDbLine
 10
1563.7998438067
 20
31.2385251381
 30
0.0
 11
1564.7998438067
 21
32.2385251381
 31
0.0
  0
LINE
  5
D7
100
AcDbEntity
  8
L1_65
  6
CONTINUOUS
 62
         4
100
AcDbLine
 10
1557.4576420564
 20
27.0176437314
 30
0.0
 11
1559.1871487196
 21
28.7471503946
 31
0.0
  0
LINE
  5
D8
100
AcDbEntity
  8
L1_65
  6
CONTINUOUS
 62
         4
100
AcDbLine
 10
1559.9785234631
 20
29.5385251381
 30
0.0
 11
1562.6785234631
 21
32.2385251381
 31
0.0
  0
LINE
  5
D9
100
AcDbEntity
  8
L1_65
  6
CONTINUOUS
 62
         4
100
AcDbLine
 10
1555.4871487196
 20
27.1684707382
 30
0.0
 11
1560.5572031196
 21
32.2385251381
 31
0.0
  0
LINE
  5
DA
100
AcDbEntity
  8
L1_65
  6
CONTINUOUS
 62
         4
100
AcDbLine
 10
1555.4871487196
 20
29.2897910817
 30
0.0
 11
1558.435882776
 21
32.2385251381
 31
0.0
  0
LINE
  5
DB
100
AcDbEntity
  8
L1_65
  6
CONTINUOUS
 62
         4
100
AcDbLine
 10
1556.0644123231
 20
31.9883750288
 30
0.0
 11
1556.3145624325
 21
32.2385251381
 31
0.0
  0
ENDBLK
  5
DC
100
AcDbEntity
  8
0
  6
CONTINUOUS
100
AcDbBlockEnd
  0
BLOCK
  5
E0
100
AcDbEntity
  8
0
100
AcDbBlockBegin
  2
*X5
 70
        65
 10
0.0
 20
0.0
 30
0.0
  3
*X5
  1

  0
LINE
  5
E1
100
AcDbEntity
  8
L1_65
  6
CONTINUOUS
 62
         4
100
AcDbLine
 10
1570.9731251809
 20
29.9265251381
 30
0.0
 11
1571.7851251809
 21
30.7385251381
 31
0.0
  0
LINE
  5
E2
100
AcDbEntity
  8
L1_65
  6
CONTINUOUS
 62
         4
100
AcDbLine
 10
1568.8518048374
 20
29.9265251381
 30
0.0
 11
1569.6638048374
 21
30.7385251381
 31
0.0
  0
LINE
  5
E3
100
AcDbEntity
  8
L1_65
  6
CONTINUOUS
 62
         4
100
AcDbLine
 10
1566.7304844938
 20
29.9265251381
 30
0.0
 11
1567.5424844938
 21
30.7385251381
 31
0.0
  0
LINE
  5
E4
100
AcDbEntity
  8
L1_65
  6
CONTINUOUS
 62
         4
100
AcDbLine
 10
1565.1041564349
 20
30.4215174228
 30
0.0
 11
1565.4211641503
 21
30.7385251381
 31
0.0
  0
ENDBLK
  5
E5
100
AcDbEntity
  8
0
  6
CONTINUOUS
100
AcDbBlockEnd
  0
BLOCK
  5
E9
100
AcDbEntity
  8
0
100
AcDbBlockBegin
  2
*X6
 70
        65
 10
0.0
 20
0.0
 30
0.0
  3
*X6
  1

  0
LINE
  5
EA
100
AcDbEntity
  8
L1_65
  6
CONTINUOUS
 62
         4
100
AcDbLine
 10
1570.1196489601
 20
5.7385251381
 30
0.0
 11
1572.9441408227
 21
8.5630170007
 31
0.0
  0
LINE
  5
EB
100
AcDbEntity
  8
L1_65
  6
CONTINUOUS
 62
         4
100
AcDbLine
 10
1567.9983286165
 20
5.7385251381
 30
0.0
 11
1570.9983286165
 21
8.7385251381
 31
0.0
  0
LINE
  5
EC
100
AcDbEntity
  8
L1_65
  6
CONTINUOUS
 62
         4
100
AcDbLine
 10
1567.1625639843
 20
7.0240808494
 30
0.0
 11
1568.877008273
 21
8.7385251381
 31
0.0
  0
LINE
  5
ED
100
AcDbEntity
  8
L1_65
  6
CONTINUOUS
 62
         4
100
AcDbLine
 10
1565.2556879294
 20
7.2385251381
 30
0.0
 11
1566.7556879294
 21
8.7385251381
 31
0.0
  0
LINE
  5
EE
100
AcDbEntity
  8
L1_65
  6
CONTINUOUS
 62
         4
100
AcDbLine
 10
1563.1343675859
 20
7.2385251381
 30
0.0
 11
1564.1343675859
 21
8.2385251381
 31
0.0
  0
LINE
  5
EF
100
AcDbEntity
  8
L1_65
  6
CONTINUOUS
 62
         4
100
AcDbLine
 10
1561.0130472423
 20
7.2385251381
 30
0.0
 11
1562.0432472302
 21
8.268725126
 31
0.0
  0
LINE
  5
F0
100
AcDbEntity
  8
L1_65
  6
CONTINUOUS
 62
         4
100
AcDbLine
 10
1558.8917268987
 20
7.2385251381
 30
0.0
 11
1561.2871487196
 21
9.633946959
 31
0.0
  0
LINE
  5
F1
100
AcDbEntity
  8
L1_65
  6
CONTINUOUS
 62
         4
100
AcDbLine
 10
1556.7704065552
 20
7.2385251381
 30
0.0
 11
1559.4704065552
 21
9.9385251381
 31
0.0
  0
LINE
  5
F2
100
AcDbEntity
  8
L1_65
  6
CONTINUOUS
 62
         4
100
AcDbLine
 10
1555.640434296
 20
8.2298732225
 30
0.0
 11
1558.9869951805
 21
11.576434107
 31
0.0
  0
LINE
  5
F3
100
AcDbEntity
  8
L1_65
  6
CONTINUOUS
 62
         4
100
AcDbLine
 10
1555.4871487196
 20
10.1979079897
 30
0.0
 11
1556.8894519049
 21
11.600211175
 31
0.0
  0
ENDBLK
  5
F4
100
AcDbEntity
  8
0
  6
CONTINUOUS
100
AcDbBlockEnd
  0
BLOCK
  5
F8
100
AcDbEntity
  8
0
100
AcDbBlockBegin
  2
*X7
 70
        65
 10
0.0
 20
0.0
 30
0.0
  3
*X7
  1

  0
LINE
  5
F9
100
AcDbEntity
  8
L1_65
  6
CONTINUOUS
 62
         4
100
AcDbLine
 10
1570.9983286165
 20
8.7385251381
 30
0.0
 11
1571.8103286165
 21
9.5505251381
 31
0.0
  0
LINE
  5
FA
100
AcDbEntity
  8
L1_65
  6
CONTINUOUS
 62
         4
100
AcDbLine
 10
1568.877008273
 20
8.7385251381
 30
0.0
 11
1569.689008273
 21
9.5505251381
 31
0.0
  0
LINE
  5
FB
100
AcDbEntity
  8
L1_65
  6
CONTINUOUS
 62
         4
100
AcDbLine
 10
1566.7556879294
 20
8.7385251381
 30
0.0
 11
1567.5676879294
 21
9.5505251381
 31
0.0
  0
ENDBLK
  5
FC
100
AcDbEntity
  8
0
  6
CONTINUOUS
100
AcDbBlockEnd
  0
BLOCK
  5
100
100
AcDbEntity
  8
0
100
AcDbBlockBegin
  2
*X8
 70
        65
 10
0.0
 20
0.0
 30
0.0
  3
*X8
  1

  0
LINE
  5
101
100
AcDbEntity
  8
L1_65
  6
CONTINUOUS
 62
         4
100
AcDbLine
 10
1556.8894519049
 20
11.600211175
 30
0.0
 11
1557.6421319722
 21
12.3528912423
 31
0.0
  0
LINE
  5
102
100
AcDbEntity
  8
L1_65
  6
CONTINUOUS
 62
         4
100
AcDbLine
 10
1555.4871487196
 20
12.3192283333
 30
0.0
 11
1556.297268764
 21
13.1293483776
 31
0.0
  0
ENDBLK
  5
103
100
AcDbEntity
  8
0
  6
CONTINUOUS
100
AcDbBlockEnd
  0
BLOCK
  5
107
100
AcDbEntity
  8
0
100
AcDbBlockBegin
  2
*D9
 70
        65
 10
0.0
 20
0.0
 30
0.0
  3
*D9
  1

  0
POINT
  5
109
100
AcDbEntity
  8
DEFPOINTS
  6
CONTINUOUS
 62
         0
100
AcDbPoint
 10
1572.9871487196
 20
41.9044820001
 30
0.0
  0
POINT
  5
10A
100
AcDbEntity
  8
DEFPOINTS
  6
CONTINUOUS
 62
         0
100
AcDbPoint
 10
1572.9871487196
 20
32.2385251381
 30
0.0
  0
POINT
  5
10B
100
AcDbEntity
  8
DEFPOINTS
  6
CONTINUOUS
 62
         0
100
AcDbPoint
 10
1555.4871487196
 20
30.5866013495
 30
0.0
  0
LINE
  5
10C
100
AcDbEntity
  8
L1_65
  6
CONTINUOUS
 62
         4
100
AcDbLine
 10
1572.9871487196
 20
33.5885251381
 30
0.0
 11
1572.9871487196
 21
42.5794820001
 31
0.0
  0
LINE
  5
10D
100
AcDbEntity
  8
L1_65
  6
CONTINUOUS
 62
         4
100
AcDbLine
 10
1555.4871487196
 20
31.9366013495
 30
0.0
 11
1555.4871487196
 21
42.5794820001
 31
0.0
  0
LINE
  5
10E
100
AcDbEntity
  8
L1_65
  6
CONTINUOUS
 62
         4
100
AcDbLine
 10
1572.9871487196
 20
41.9044820001
 30
0.0
 11
1555.4871487196
 21
41.9044820001
 31
0.0
  0
SOLID
  5
10F
100
AcDbEntity
  8
L1_65
  6
CONTINUOUS
 62
         4
100
AcDbTrace
 10
1572.9871487196
 20
41.9044820001
 30
0.0
 11
1570.2871487196
 21
41.4994820001
 31
0.0
 12
1570.2871487196
 22
42.3094820001
 32
0.0
 13
1572.9871487196
 23
41.9044820001
 33
0.0
  0
SOLID
  5
110
100
AcDbEntity
  8
L1_65
  6
CONTINUOUS
 62
         4
100
AcDbTrace
 10
1555.4871487196
 20
41.9044820001
 30
0.0
 11
1558.1871487196
 21
42.3094820001
 31
0.0
 12
1558.1871487196
 22
41.4994820001
 32
0.0
 13
1555.4871487196
 23
41.9044820001
 33
0.0
  0
TEXT
  5
112
100
AcDbEntity
  8
L1_65
  6
CONTINUOUS
 62
         4
100
AcDbText
 10
1558.8371487196
 20
43.9294820001
 30
0.0
 40
2.7
  1
17.5
  7
BOX
100
AcDbText
  0
ENDBLK
  5
113
100
AcDbEntity
  8
0
  6
CONTINUOUS
100
AcDbBlockEnd
  0
BLOCK
  5
115
100
AcDbEntity
  8
0
100
AcDbBlockBegin
  2
*D10
 70
        65
 10
0.0
 20
0.0
 30
0.0
  3
*D10
  1

  0
POINT
  5
117
100
AcDbEntity
  8
DEFPOINTS
  6
CONTINUOUS
 62
         0
100
AcDbPoint
 10
1594.0376932772
 20
33.7385251381
 30
0.0
  0
POINT
  5
118
100
AcDbEntity
  8
DEFPOINTS
  6
CONTINUOUS
 62
         0
100
AcDbPoint
 10
1571.4871487196
 20
33.7385251381
 30
0.0
  0
POINT
  5
119
100
AcDbEntity
  8
DEFPOINTS
  6
CONTINUOUS
 62
         0
100
AcDbPoint
 10
1571.4871487196
 20
5.7385251381
 30
0.0
  0
LINE
  5
11A
100
AcDbEntity
  8
L1_65
  6
CONTINUOUS
 62
         4
100
AcDbLine
 10
1572.8371487196
 20
33.7385251381
 30
0.0
 11
1594.7126932772
 21
33.7385251381
 31
0.0
  0
LINE
  5
11B
100
AcDbEntity
  8
L1_65
  6
CONTINUOUS
 62
         4
100
AcDbLine
 10
1572.8371487196
 20
5.7385251381
 30
0.0
 11
1594.7126932772
 21
5.7385251381
 31
0.0
  0
LINE
  5
11C
100
AcDbEntity
  8
L1_65
  6
CONTINUOUS
 62
         4
100
AcDbLine
 10
1594.0376932772
 20
33.7385251381
 30
0.0
 11
1594.0376932772
 21
5.7385251381
 31
0.0
  0
SOLID
  5
11D
100
AcDbEntity
  8
L1_65
  6
CONTINUOUS
 62
         4
100
AcDbTrace
 10
1594.0376932772
 20
33.7385251381
 30
0.0
 11
1594.4426932772
 21
31.0385251381
 31
0.0
 12
1593.6326932772
 22
31.0385251381
 32
0.0
 13
1594.0376932772
 23
33.7385251381
 33
0.0
  0
SOLID
  5
11E
100
AcDbEntity
  8
L1_65
  6
CONTINUOUS
 62
         4
100
AcDbTrace
 10
1594.0376932772
 20
5.7385251381
 30
0.0
 11
1593.6326932772
 21
8.4385251381
 31
0.0
 12
1594.4426932772
 22
8.4385251381
 32
0.0
 13
1594.0376932772
 23
5.7385251381
 33
0.0
  0
TEXT
  5
120
100
AcDbEntity
  8
L1_65
  6
CONTINUOUS
 62
         4
100
AcDbText
 10
1592.0126932772
 20
14.5643950318
 30
0.0
 40
2.7
  1
崷28
 50
90.0
  7
BOX
100
AcDbText
  0
ENDBLK
  5
121
100
AcDbEntity
  8
0
  6
CONTINUOUS
100
AcDbBlockEnd
  0
BLOCK
  5
150
100
AcDbEntity
  8
0
100
AcDbBlockBegin
  2
*D11
 70
        65
 10
0.0
 20
0.0
 30
0.0
  3
*D11
  1

  0
POINT
  5
152
100
AcDbEntity
  8
DEFPOINTS
  6
CONTINUOUS
 62
         0
100
AcDbPoint
 10
1584.5271828547
 20
82.2906724147
 30
0.0
  0
POINT
  5
153
100
AcDbEntity
  8
DEFPOINTS
  6
CONTINUOUS
 62
         0
100
AcDbPoint
 10
1584.5271828547
 20
74.1972711027
 30
0.0
  0
POINT
  5
154
100
AcDbEntity
  8
DEFPOINTS
  6
CONTINUOUS
 62
         0
100
AcDbPoint
 10
1597.5271828547
 20
74.1972711027
 30
0.0
  0
LINE
  5
155
100
AcDbEntity
  8
L1_65
  6
CONTINUOUS
 62
         4
100
AcDbLine
 10
1584.5271828547
 20
75.5472711027
 30
0.0
 11
1584.5271828547
 21
82.9656724147
 31
0.0
  0
LINE
  5
156
100
AcDbEntity
  8
L1_65
  6
CONTINUOUS
 62
         4
100
AcDbLine
 10
1597.5271828547
 20
75.5472711027
 30
0.0
 11
1597.5271828547
 21
82.9656724147
 31
0.0
  0
LINE
  5
157
100
AcDbEntity
  8
L1_65
  6
CONTINUOUS
 62
         4
100
AcDbLine
 10
1584.5271828547
 20
82.2906724147
 30
0.0
 11
1597.5271828547
 21
82.2906724147
 31
0.0
  0
SOLID
  5
158
100
AcDbEntity
  8
L1_65
  6
CONTINUOUS
 62
         4
100
AcDbTrace
 10
1584.5271828547
 20
82.2906724147
 30
0.0
 11
1587.2271828547
 21
82.6956724147
 31
0.0
 12
1587.2271828547
 22
81.8856724147
 32
0.0
 13
1584.5271828547
 23
82.2906724147
 33
0.0
  0
SOLID
  5
159
100
AcDbEntity
  8
L1_65
  6
CONTINUOUS
 62
         4
100
AcDbTrace
 10
1597.5271828547
 20
82.2906724147
 30
0.0
 11
1594.8271828547
 21
81.8856724147
 31
0.0
 12
1594.8271828547
 22
82.6956724147
 32
0.0
 13
1597.5271828547
 23
82.2906724147
 33
0.0
  0
TEXT
  5
15B
100
AcDbEntity
  8
L1_65
  6
CONTINUOUS
 62
         4
100
AcDbText
 10
1588.3271828547
 20
84.3156724147
 30
0.0
 40
2.7
  1
13
  7
BOX
100
AcDbText
  0
ENDBLK
  5
15C
100
AcDbEntity
  8
0
  6
CONTINUOUS
100
AcDbBlockEnd
  0
BLOCK
  5
15E
100
AcDbEntity
  8
0
100
AcDbBlockBegin
  2
*D12
 70
        65
 10
0.0
 20
0.0
 30
0.0
  3
*D12
  1

  0
POINT
  5
160
100
AcDbEntity
  8
DEFPOINTS
  6
CONTINUOUS
 62
         0
100
AcDbPoint
 10
1607.8507003943
 20
76.1722711027
 30
0.0
  0
POINT
  5
161
100
AcDbEntity
  8
DEFPOINTS
  6
CONTINUOUS
 62
         0
100
AcDbPoint
 10
1594.0521828547
 20
76.1722711027
 30
0.0
  0
POINT
  5
162
100
AcDbEntity
  8
DEFPOINTS
  6
CONTINUOUS
 62
         0
100
AcDbPoint
 10
1594.0521828547
 20
65.0622711027
 30
0.0
  0
LINE
  5
163
100
AcDbEntity
  8
L1_65
  6
CONTINUOUS
 62
         4
100
AcDbLine
 10
1595.4021828547
 20
76.1722711027
 30
0.0
 11
1608.5257003943
 21
76.1722711027
 31
0.0
  0
LINE
  5
164
100
AcDbEntity
  8
L1_65
  6
CONTINUOUS
 62
         4
100
AcDbLine
 10
1595.4021828547
 20
65.0622711027
 30
0.0
 11
1608.5257003943
 21
65.0622711027
 31
0.0
  0
LINE
  5
165
100
AcDbEntity
  8
L1_65
  6
CONTINUOUS
 62
         4
100
AcDbLine
 10
1607.8507003943
 20
76.1722711027
 30
0.0
 11
1607.8507003943
 21
65.0622711027
 31
0.0
  0
SOLID
  5
166
100
AcDbEntity
  8
L1_65
  6
CONTINUOUS
 62
         4
100
AcDbTrace
 10
1607.8507003943
 20
76.1722711027
 30
0.0
 11
1608.2557003943
 21
73.4722711027
 31
0.0
 12
1607.4457003943
 22
73.4722711027
 32
0.0
 13
1607.8507003943
 23
76.1722711027
 33
0.0
  0
LINE
  5
167
100
AcDbEntity
  8
L1_65
  6
CONTINUOUS
 62
         4
100
AcDbLine
 10
1607.8507003943
 20
76.1722711027
 30
0.0
 11
1607.8507003943
 21
64.0431891971
 31
0.0
  0
SOLID
  5
168
100
AcDbEntity
  8
L1_65
  6
CONTINUOUS
 62
         4
100
AcDbTrace
 10
1607.8507003943
 20
65.0622711027
 30
0.0
 11
1607.4457003943
 21
67.7622711027
 31
0.0
 12
1608.2557003943
 22
67.7622711027
 32
0.0
 13
1607.8507003943
 23
65.0622711027
 33
0.0
  0
TEXT
  5
16A
100
AcDbEntity
  8
L1_65
  6
CONTINUOUS
 62
         4
100
AcDbText
 10
1605.8257003943
 20
65.3931891971
 30
0.0
 40
2.7
  1
7/16"-20UNF
 50
90.0
  7
BOX
100
AcDbText
  0
ENDBLK
  5
16B
100
AcDbEntity
  8
0
  6
CONTINUOUS
100
AcDbBlockEnd
  0
BLOCK
  5
172
100
AcDbEntity
  8
0
100
AcDbBlockBegin
  2
*D13
 70
        65
 10
0.0
 20
0.0
 30
0.0
  3
*D13
  1

  0
POINT
  5
174
100
AcDbEntity
  8
DEFPOINTS
  6
CONTINUOUS
 62
         0
100
AcDbPoint
 10
1566.1311971778
 20
83.7172530904
 30
0.0
  0
POINT
  5
175
100
AcDbEntity
  8
DEFPOINTS
  6
CONTINUOUS
 62
         0
100
AcDbPoint
 10
1566.1311971778
 20
76.0815208224
 30
0.0
  0
POINT
  5
176
100
AcDbEntity
  8
DEFPOINTS
  6
CONTINUOUS
 62
         0
100
AcDbPoint
 10
1568.1311971778
 20
76.0815208224
 30
0.0
  0
LINE
  5
177
100
AcDbEntity
  8
L1_65
  6
CONTINUOUS
 62
         4
100
AcDbLine
 10
1566.1311971778
 20
77.4315208224
 30
0.0
 11
1566.1311971778
 21
84.3922530904
 31
0.0
  0
LINE
  5
178
100
AcDbEntity
  8
L1_65
  6
CONTINUOUS
 62
         4
100
AcDbLine
 10
1568.1311971778
 20
77.4315208224
 30
0.0
 11
1568.1311971778
 21
84.3922530904
 31
0.0
  0
LINE
  5
179
100
AcDbEntity
  8
L1_65
  6
CONTINUOUS
 62
         4
100
AcDbLine
 10
1566.1311971778
 20
83.7172530904
 30
0.0
 11
1560.7311971778
 21
83.7172530904
 31
0.0
  0
SOLID
  5
17A
100
AcDbEntity
  8
L1_65
  6
CONTINUOUS
 62
         4
100
AcDbTrace
 10
1566.1311971778
 20
83.7172530904
 30
0.0
 11
1563.4311971778
 21
83.3122530904
 31
0.0
 12
1563.4311971778
 22
84.1222530904
 32
0.0
 13
1566.1311971778
 23
83.7172530904
 33
0.0
  0
LINE
  5
17B
100
AcDbEntity
  8
L1_65
  6
CONTINUOUS
 62
         4
100
AcDbLine
 10
1568.1311971778
 20
83.7172530904
 30
0.0
 11
1573.5311971778
 21
83.7172530904
 31
0.0
  0
SOLID
  5
17C
100
AcDbEntity
  8
L1_65
  6
CONTINUOUS
 62
         4
100
AcDbTrace
 10
1568.1311971778
 20
83.7172530904
 30
0.0
 11
1570.8311971778
 21
84.1222530904
 31
0.0
 12
1570.8311971778
 22
83.3122530904
 32
0.0
 13
1568.1311971778
 23
83.7172530904
 33
0.0
  0
LINE
  5
17D
100
AcDbEntity
  8
L1_65
  6
CONTINUOUS
 62
         4
100
AcDbLine
 10
1566.1311971778
 20
83.7172530904
 30
0.0
 11
1568.1311971778
 21
83.7172530904
 31
0.0
  0
TEXT
  5
17F
100
AcDbEntity
  8
L1_65
  6
CONTINUOUS
 62
         4
100
AcDbText
 10
1565.7811971778
 20
85.7422530904
 30
0.0
 40
2.7
  1
2
  7
BOX
100
AcDbText
  0
ENDBLK
  5
180
100
AcDbEntity
  8
0
  6
CONTINUOUS
100
AcDbBlockEnd
  0
BLOCK
  5
18F
100
AcDbEntity
  8
0
100
AcDbBlockBegin
  2
*D14
 70
        65
 10
0.0
 20
0.0
 30
0.0
  3
*D14
  1

  0
POINT
  5
191
100
AcDbEntity
  8
DEFPOINTS
  6
CONTINUOUS
 62
         0
100
AcDbPoint
 10
1441.4033403763
 20
-37.283992942
 30
0.0
  0
POINT
  5
192
100
AcDbEntity
  8
DEFPOINTS
  6
CONTINUOUS
 62
         0
100
AcDbPoint
 10
1441.4033403763
 20
-22.9433347407
 30
0.0
  0
POINT
  5
193
100
AcDbEntity
  8
DEFPOINTS
  6
CONTINUOUS
 62
         0
100
AcDbPoint
 10
1454.4033403763
 20
-22.9433347407
 30
0.0
  0
LINE
  5
194
100
AcDbEntity
  8
L1_65
  6
CONTINUOUS
 62
         4
100
AcDbLine
 10
1441.4033403763
 20
-24.2933347407
 30
0.0
 11
1441.4033403763
 21
-37.958992942
 31
0.0
  0
LINE
  5
195
100
AcDbEntity
  8
L1_65
  6
CONTINUOUS
 62
         4
100
AcDbLine
 10
1454.4033403763
 20
-24.2933347407
 30
0.0
 11
1454.4033403763
 21
-37.958992942
 31
0.0
  0
LINE
  5
196
100
AcDbEntity
  8
L1_65
  6
CONTINUOUS
 62
         4
100
AcDbLine
 10
1441.4033403763
 20
-37.283992942
 30
0.0
 11
1454.4033403763
 21
-37.283992942
 31
0.0
  0
SOLID
  5
197
100
AcDbEntity
  8
L1_65
  6
CONTINUOUS
 62
         4
100
AcDbTrace
 10
1441.4033403763
 20
-37.283992942
 30
0.0
 11
1444.1033403763
 21
-36.878992942
 31
0.0
 12
1444.1033403763
 22
-37.688992942
 32
0.0
 13
1441.4033403763
 23
-37.283992942
 33
0.0
  0
SOLID
  5
198
100
AcDbEntity
  8
L1_65
  6
CONTINUOUS
 62
         4
100
AcDbTrace
 10
1454.4033403763
 20
-37.283992942
 30
0.0
 11
1451.7033403763
 21
-37.688992942
 31
0.0
 12
1451.7033403763
 22
-36.878992942
 32
0.0
 13
1454.4033403763
 23
-37.283992942
 33
0.0
  0
TEXT
  5
19A
100
AcDbEntity
  8
L1_65
  6
CONTINUOUS
 62
         4
100
AcDbText
 10
1443.2371365769
 20
-35.258992942
 30
0.0
 40
2.7
  1
13
  7
BOX
100
AcDbText
  0
ENDBLK
  5
19B
100
AcDbEntity
  8
0
  6
CONTINUOUS
100
AcDbBlockEnd
  0
BLOCK
  5
1AC
100
AcDbEntity
  8
0
100
AcDbBlockBegin
  2
*D15
 70
        65
 10
0.0
 20
0.0
 30
0.0
  3
*D15
  1

  0
POINT
  5
1AE
100
AcDbEntity
  8
DEFPOINTS
  6
CONTINUOUS
 62
         0
100
AcDbPoint
 10
1400.0033403763
 20
215.4872150424
 30
0.0
  0
POINT
  5
1AF
100
AcDbEntity
  8
DEFPOINTS
  6
CONTINUOUS
 62
         0
100
AcDbPoint
 10
1400.0033403763
 20
172.4096417294
 30
0.0
  0
POINT
  5
1B0
100
AcDbEntity
  8
DEFPOINTS
  6
CONTINUOUS
 62
         0
100
AcDbPoint
 10
1454.4033403763
 20
150.1846417294
 30
0.0
  0
LINE
  5
1B1
100
AcDbEntity
  8
L1_65
  6
CONTINUOUS
 62
         4
100
AcDbLine
 10
1400.0033403763
 20
173.7596417294
 30
0.0
 11
1400.0033403763
 21
216.1622150424
 31
0.0
  0
LINE
  5
1B2
100
AcDbEntity
  8
L1_65
  6
CONTINUOUS
 62
         4
100
AcDbLine
 10
1454.4033403763
 20
151.5346417294
 30
0.0
 11
1454.4033403763
 21
216.1622150424
 31
0.0
  0
LINE
  5
1B3
100
AcDbEntity
  8
L1_65
  6
CONTINUOUS
 62
         4
100
AcDbLine
 10
1400.0033403763
 20
215.4872150424
 30
0.0
 11
1454.4033403763
 21
215.4872150424
 31
0.0
  0
SOLID
  5
1B4
100
AcDbEntity
  8
L1_65
  6
CONTINUOUS
 62
         4
100
AcDbTrace
 10
1400.0033403763
 20
215.4872150424
 30
0.0
 11
1402.7033403763
 21
215.8922150424
 31
0.0
 12
1402.7033403763
 22
215.0822150424
 32
0.0
 13
1400.0033403763
 23
215.4872150424
 33
0.0
  0
SOLID
  5
1B5
100
AcDbEntity
  8
L1_65
  6
CONTINUOUS
 62
         4
100
AcDbTrace
 10
1454.4033403763
 20
215.4872150424
 30
0.0
 11
1451.7033403763
 21
215.0822150424
 31
0.0
 12
1451.7033403763
 22
215.8922150424
 32
0.0
 13
1454.4033403763
 23
215.4872150424
 33
0.0
  0
TEXT
  5
1B7
100
AcDbEntity
  8
L1_65
  6
CONTINUOUS
 62
         4
100
AcDbText
 10
1421.6168964293
 20
217.5122150424
 30
0.0
 40
2.7
  1
54.4
  7
BOX
100
AcDbText
  0
ENDBLK
  5
1B8
100
AcDbEntity
  8
0
  6
CONTINUOUS
100
AcDbBlockEnd
  0
BLOCK
  5
1BA
100
AcDbEntity
  8
0
100
AcDbBlockBegin
  2
*D16
 70
        65
 10
0.0
 20
0.0
 30
0.0
  3
*D16
  1

  0
POINT
  5
1BC
100
AcDbEntity
  8
DEFPOINTS
  6
CONTINUOUS
 62
         0
100
AcDbPoint
 10
1331.7533403763
 20
221.8025952129
 30
0.0
  0
POINT
  5
1BD
100
AcDbEntity
  8
DEFPOINTS
  6
CONTINUOUS
 62
         0
100
AcDbPoint
 10
1331.7533403763
 20
161.4188234458
 30
0.0
  0
POINT
  5
1BE
100
AcDbEntity
  8
DEFPOINTS
  6
CONTINUOUS
 62
         0
100
AcDbPoint
 10
1454.4033403763
 20
150.1846417294
 30
0.0
  0
LINE
  5
1BF
100
AcDbEntity
  8
L1_65
  6
CONTINUOUS
 62
         4
100
AcDbLine
 10
1331.7533403763
 20
162.7688234458
 30
0.0
 11
1331.7533403763
 21
222.4775952129
 31
0.0
  0
LINE
  5
1C0
100
AcDbEntity
  8
L1_65
  6
CONTINUOUS
 62
         4
100
AcDbLine
 10
1454.4033403763
 20
151.5346417294
 30
0.0
 11
1454.4033403763
 21
222.4775952129
 31
0.0
  0
LINE
  5
1C1
100
AcDbEntity
  8
L1_65
  6
CONTINUOUS
 62
         4
100
AcDbLine
 10
1331.7533403763
 20
221.8025952129
 30
0.0
 11
1454.4033403763
 21
221.8025952129
 31
0.0
  0
SOLID
  5
1C2
100
AcDbEntity
  8
L1_65
  6
CONTINUOUS
 62
         4
100
AcDbTrace
 10
1331.7533403763
 20
221.8025952129
 30
0.0
 11
1334.4533403763
 21
222.2075952129
 31
0.0
 12
1334.4533403763
 22
221.3975952129
 32
0.0
 13
1331.7533403763
 23
221.8025952129
 33
0.0
  0
SOLID
  5
1C3
100
AcDbEntity
  8
L1_65
  6
CONTINUOUS
 62
         4
100
AcDbTrace
 10
1454.4033403763
 20
221.8025952129
 30
0.0
 11
1451.7033403763
 21
221.3975952129
 31
0.0
 12
1451.7033403763
 22
222.2075952129
 32
0.0
 13
1454.4033403763
 23
221.8025952129
 33
0.0
  0
TEXT
  5
1C5
100
AcDbEntity
  8
L1_65
  6
CONTINUOUS
 62
         4
100
AcDbText
 10
1396.6147316398
 20
223.8275952129
 30
0.0
 40
2.7
  1
122.65
  7
BOX
100
AcDbText
  0
ENDBLK
  5
1C6
100
AcDbEntity
  8
0
  6
CONTINUOUS
100
AcDbBlockEnd
  0
BLOCK
  5
1CE
100
AcDbEntity
  8
0
100
AcDbBlockBegin
  2
*D17
 70
        65
 10
0.0
 20
0.0
 30
0.0
  3
*D17
  1

  0
POINT
  5
1D0
100
AcDbEntity
  8
DEFPOINTS
  6
CONTINUOUS
 62
         0
100
AcDbPoint
 10
1394.4033403763
 20
-58.0871826773
 30
0.0
  0
POINT
  5
1D1
100
AcDbEntity
  8
DEFPOINTS
  6
CONTINUOUS
 62
         0
100
AcDbPoint
 10
1394.4033403763
 20
-17.9433347407
 30
0.0
  0
POINT
  5
1D2
100
AcDbEntity
  8
DEFPOINTS
  6
CONTINUOUS
 62
         0
100
AcDbPoint
 10
1454.4033403763
 20
-22.9433347407
 30
0.0
  0
LINE
  5
1D3
100
AcDbEntity
  8
L1_65
  6
CONTINUOUS
 62
         4
100
AcDbLine
 10
1394.4033403763
 20
-19.2933347407
 30
0.0
 11
1394.4033403763
 21
-58.7621826773
 31
0.0
  0
LINE
  5
1D4
100
AcDbEntity
  8
L1_65
  6
CONTINUOUS
 62
         4
100
AcDbLine
 10
1454.4033403763
 20
-24.2933347407
 30
0.0
 11
1454.4033403763
 21
-58.7621826773
 31
0.0
  0
LINE
  5
1D5
100
AcDbEntity
  8
L1_65
  6
CONTINUOUS
 62
         4
100
AcDbLine
 10
1394.4033403763
 20
-58.0871826773
 30
0.0
 11
1454.4033403763
 21
-58.0871826773
 31
0.0
  0
SOLID
  5
1D6
100
AcDbEntity
  8
L1_65
  6
CONTINUOUS
 62
         4
100
AcDbTrace
 10
1394.4033403763
 20
-58.0871826773
 30
0.0
 11
1397.1033403763
 21
-57.6821826773
 31
0.0
 12
1397.1033403763
 22
-58.4921826773
 32
0.0
 13
1394.4033403763
 23
-58.0871826773
 33
0.0
  0
SOLID
  5
1D7
100
AcDbEntity
  8
L1_65
  6
CONTINUOUS
 62
         4
100
AcDbTrace
 10
1454.4033403763
 20
-58.0871826773
 30
0.0
 11
1451.7033403763
 21
-58.4921826773
 31
0.0
 12
1451.7033403763
 22
-57.6821826773
 32
0.0
 13
1454.4033403763
 23
-58.0871826773
 33
0.0
  0
TEXT
  5
1D9
100
AcDbEntity
  8
L1_65
  6
CONTINUOUS
 62
         4
100
AcDbText
 10
1419.2675626103
 20
-56.0621826773
 30
0.0
 40
2.7
  1
60
  7
BOX
100
AcDbText
  0
ENDBLK
  5
1DA
100
AcDbEntity
  8
0
  6
CONTINUOUS
100
AcDbBlockEnd
  0
BLOCK
  5
1DC
100
AcDbEntity
  8
0
100
AcDbBlockBegin
  2
*D18
 70
        65
 10
0.0
 20
0.0
 30
0.0
  3
*D18
  1

  0
POINT
  5
1DE
100
AcDbEntity
  8
DEFPOINTS
  6
CONTINUOUS
 62
         0
100
AcDbPoint
 10
1432.4033403763
 20
-51.8587669525
 30
0.0
  0
POINT
  5
1DF
100
AcDbEntity
  8
DEFPOINTS
  6
CONTINUOUS
 62
         0
100
AcDbPoint
 10
1432.4033403763
 20
-18.7933347407
 30
0.0
  0
POINT
  5
1E0
100
AcDbEntity
  8
DEFPOINTS
  6
CONTINUOUS
 62
         0
100
AcDbPoint
 10
1454.4033403763
 20
-22.9433347407
 30
0.0
  0
LINE
  5
1E1
100
AcDbEntity
  8
L1_65
  6
CONTINUOUS
 62
         4
100
AcDbLine
 10
1432.4033403763
 20
-20.1433347407
 30
0.0
 11
1432.4033403763
 21
-52.5337669525
 31
0.0
  0
LINE
  5
1E2
100
AcDbEntity
  8
L1_65
  6
CONTINUOUS
 62
         4
100
AcDbLine
 10
1454.4033403763
 20
-24.2933347407
 30
0.0
 11
1454.4033403763
 21
-52.5337669525
 31
0.0
  0
LINE
  5
1E3
100
AcDbEntity
  8
L1_65
  6
CONTINUOUS
 62
         4
100
AcDbLine
 10
1432.4033403763
 20
-51.8587669525
 30
0.0
 11
1454.4033403763
 21
-51.8587669525
 31
0.0
  0
SOLID
  5
1E4
100
AcDbEntity
  8
L1_65
  6
CONTINUOUS
 62
         4
100
AcDbTrace
 10
1432.4033403763
 20
-51.8587669525
 30
0.0
 11
1435.1033403763
 21
-51.4537669525
 31
0.0
 12
1435.1033403763
 22
-52.2637669525
 32
0.0
 13
1432.4033403763
 23
-51.8587669525
 33
0.0
  0
SOLID
  5
1E5
100
AcDbEntity
  8
L1_65
  6
CONTINUOUS
 62
         4
100
AcDbTrace
 10
1454.4033403763
 20
-51.8587669525
 30
0.0
 11
1451.7033403763
 21
-52.2637669525
 31
0.0
 12
1451.7033403763
 22
-51.4537669525
 32
0.0
 13
1454.4033403763
 23
-51.8587669525
 33
0.0
  0
TEXT
  5
1E7
100
AcDbEntity
  8
L1_65
  6
CONTINUOUS
 62
         4
100
AcDbText
 10
1439.1409197234
 20
-49.8337669525
 30
0.0
 40
2.7
  1
22
  7
BOX
100
AcDbText
  0
ENDBLK
  5
1E8
100
AcDbEntity
  8
0
  6
CONTINUOUS
100
AcDbBlockEnd
  0
BLOCK
  5
1EB
100
AcDbEntity
  8
0
100
AcDbBlockBegin
  2
*D19
 70
        65
 10
0.0
 20
0.0
 30
0.0
  3
*D19
  1

  0
POINT
  5
1ED
100
AcDbEntity
  8
DEFPOINTS
  6
CONTINUOUS
 62
         0
100
AcDbPoint
 10
1479.475798815
 20
-20.7622468794
 30
0.0
  0
POINT
  5
1EE
100
AcDbEntity
  8
DEFPOINTS
  6
CONTINUOUS
 62
         0
100
AcDbPoint
 10
1453.1121000277
 20
-20.7622468794
 30
0.0
  0
POINT
  5
1EF
100
AcDbEntity
  8
DEFPOINTS
  6
CONTINUOUS
 62
         0
100
AcDbPoint
 10
1453.1121000277
 20
-5.1244226019
 30
0.0
  0
LINE
  5
1F0
100
AcDbEntity
  8
L1_65
  6
CONTINUOUS
 62
         4
100
AcDbLine
 10
1454.4621000277
 20
-20.7622468794
 30
0.0
 11
1480.150798815
 21
-20.7622468794
 31
0.0
  0
LINE
  5
1F1
100
AcDbEntity
  8
L1_65
  6
CONTINUOUS
 62
         4
100
AcDbLine
 10
1454.4621000277
 20
-5.1244226019
 30
0.0
 11
1480.150798815
 21
-5.1244226019
 31
0.0
  0
LINE
  5
1F2
100
AcDbEntity
  8
L1_65
  6
CONTINUOUS
 62
         4
100
AcDbLine
 10
1479.475798815
 20
-20.7622468794
 30
0.0
 11
1479.475798815
 21
-5.1244226019
 31
0.0
  0
SOLID
  5
1F3
100
AcDbEntity
  8
L1_65
  6
CONTINUOUS
 62
         4
100
AcDbTrace
 10
1479.475798815
 20
-20.7622468794
 30
0.0
 11
1479.070798815
 21
-18.0622468794
 31
0.0
 12
1479.880798815
 22
-18.0622468794
 32
0.0
 13
1479.475798815
 23
-20.7622468794
 33
0.0
  0
LINE
  5
1F4
100
AcDbEntity
  8
L1_65
  6
CONTINUOUS
 62
         4
100
AcDbLine
 10
1479.475798815
 20
-5.1244226019
 30
0.0
 11
1479.475798815
 21
16.2922908564
 31
0.0
  0
SOLID
  5
1F5
100
AcDbEntity
  8
L1_65
  6
CONTINUOUS
 62
         4
100
AcDbTrace
 10
1479.475798815
 20
-5.1244226019
 30
0.0
 11
1479.880798815
 21
-7.8244226019
 31
0.0
 12
1479.070798815
 22
-7.8244226019
 32
0.0
 13
1479.475798815
 23
-5.1244226019
 33
0.0
  0
TEXT
  5
1F7
100
AcDbEntity
  8
L1_65
  6
CONTINUOUS
 62
         4
100
AcDbText
 10
1477.450798815
 20
-3.9577091436
 30
0.0
 40
2.7
  1
崷16.05
 50
90.0
  7
BOX
100
AcDbText
  0
ENDBLK
  5
1F8
100
AcDbEntity
  8
0
  6
CONTINUOUS
100
AcDbBlockEnd
  0
BLOCK
  5
2DC
100
AcDbEntity
  8
0
100
AcDbBlockBegin
  2
*X20
 70
        65
 10
0.0
 20
0.0
 30
0.0
  3
*X20
  1

  0
LINE
  5
2DD
100
AcDbEntity
  8
_Y________
  6
CONTINUOUS
 62
         4
100
AcDbLine
 10
1408.969965023
 20
12.0331092831
 30
0.0
 11
1409.0351534306
 21
12.0982976908
 31
0.0
  0
LINE
  5
2DE
100
AcDbEntity
  8
_Y________
  6
CONTINUOUS
 62
         4
100
AcDbLine
 10
1406.4745986681
 20
13.7803836154
 30
0.0
 11
1406.7259039332
 21
14.0316888805
 31
0.0
  0
ENDBLK
  5
2DF
100
AcDbEntity
  8
0
  6
CONTINUOUS
100
AcDbBlockEnd
  0
BLOCK
  5
40A
100
AcDbEntity
  8
0
100
AcDbBlockBegin
  2
*X21
 70
        65
 10
0.0
 20
0.0
 30
0.0
  3
*X21
  1

  0
LINE
  5
40B
100
AcDbEntity
  8
_Y________
  6
CONTINUOUS
 62
         4
100
AcDbLine
 10
1605.7878187963
 20
183.3347600927
 30
0.0
 11
1605.7807710386
 21
183.327712335
 31
0.0
  0
LINE
  5
40C
100
AcDbEntity
  8
_Y________
  6
CONTINUOUS
 62
         4
100
AcDbLine
 10
1605.8746890129
 20
183.3509196312
 30
0.0
 11
1605.7996399123
 21
183.2758705306
 31
0.0
  0
LINE
  5
40D
100
AcDbEntity
  8
_Y________
  6
CONTINUOUS
 62
         4
100
AcDbLine
 10
1605.9615592295
 20
183.3670791697
 30
0.0
 11
1605.818508786
 21
183.2240287262
 31
0.0
  0
LINE
  5
40E
100
AcDbEntity
  8
_Y________
  6
CONTINUOUS
 62
         4
100
AcDbLine
 10
1606.0484294461
 20
183.3832387082
 30
0.0
 11
1605.8373776597
 21
183.1721869217
 31
0.0
  0
LINE
  5
40F
100
AcDbEntity
  8
_Y________
  6
CONTINUOUS
 62
         4
100
AcDbLine
 10
1606.1352996627
 20
183.3993982467
 30
0.0
 11
1605.8562465334
 21
183.1203451173
 31
0.0
  0
LINE
  5
410
100
AcDbEntity
  8
_Y________
  6
CONTINUOUS
 62
         4
100
AcDbLine
 10
1606.2221698793
 20
183.4155577852
 30
0.0
 11
1605.8751154071
 21
183.0685033129
 31
0.0
  0
LINE
  5
411
100
AcDbEntity
  8
_Y________
  6
CONTINUOUS
 62
         4
100
AcDbLine
 10
1606.309040096
 20
183.4317173236
 30
0.0
 11
1605.8939842808
 21
183.0166615085
 31
0.0
  0
LINE
  5
412
100
AcDbEntity
  8
_Y________
  6
CONTINUOUS
 62
         4
100
AcDbLine
 10
1606.3959103126
 20
183.4478768621
 30
0.0
 11
1605.9128531545
 21
182.9648197041
 31
0.0
  0
LINE
  5
413
100
AcDbEntity
  8
_Y________
  6
CONTINUOUS
 62
         4
100
AcDbLine
 10
1606.4827805292
 20
183.4640364006
 30
0.0
 11
1605.9317220282
 21
182.9129778996
 31
0.0
  0
LINE
  5
414
100
AcDbEntity
  8
_Y________
  6
CONTINUOUS
 62
         4
100
AcDbLine
 10
1606.5696507458
 20
183.4801959391
 30
0.0
 11
1605.9505909019
 21
182.8611360952
 31
0.0
  0
LINE
  5
415
100
AcDbEntity
  8
_Y________
  6
CONTINUOUS
 62
         4
100
AcDbLine
 10
1606.6565209624
 20
183.4963554776
 30
0.0
 11
1605.9694597756
 21
182.8092942908
 31
0.0
  0
LINE
  5
416
100
AcDbEntity
  8
_Y________
  6
CONTINUOUS
 62
         4
100
AcDbLine
 10
1606.743391179
 20
183.5125150161
 30
0.0
 11
1605.9883286493
 21
182.7574524864
 31
0.0
  0
LINE
  5
417
100
AcDbEntity
  8
_Y________
  6
CONTINUOUS
 62
         4
100
AcDbLine
 10
1606.8302613956
 20
183.5286745546
 30
0.0
 11
1606.007197523
 21
182.705610682
 31
0.0
  0
LINE
  5
418
100
AcDbEntity
  8
_Y________
  6
CONTINUOUS
 62
         4
100
AcDbLine
 10
1606.9171316122
 20
183.544834093
 30
0.0
 11
1606.0260663967
 21
182.6537688775
 31
0.0
  0
LINE
  5
419
100
AcDbEntity
  8
_Y________
  6
CONTINUOUS
 62
         4
100
AcDbLine
 10
1607.0040018288
 20
183.5609936315
 30
0.0
 11
1606.0449352704
 21
182.6019270731
 31
0.0
  0
LINE
  5
41A
100
AcDbEntity
  8
_Y________
  6
CONTINUOUS
 62
         4
100
AcDbLine
 10
1607.0908720454
 20
183.57715317
 30
0.0
 11
1606.0638041441
 21
182.5500852687
 31
0.0
  0
LINE
  5
41B
100
AcDbEntity
  8
_Y________
  6
CONTINUOUS
 62
         4
100
AcDbLine
 10
1607.177742262
 20
183.5933127085
 30
0.0
 11
1606.0826730178
 21
182.4982434643
 31
0.0
  0
LINE
  5
41C
100
AcDbEntity
  8
_Y________
  6
CONTINUOUS
 62
         4
100
AcDbLine
 10
1607.2646124786
 20
183.609472247
 30
0.0
 11
1606.1015418915
 21
182.4464016599
 31
0.0
  0
LINE
  5
41D
100
AcDbEntity
  8
_Y________
  6
CONTINUOUS
 62
         4
100
AcDbLine
 10
1607.3514826952
 20
183.6256317855
 30
0.0
 11
1606.1204107652
 21
182.3945598555
 31
0.0
  0
LINE
  5
41E
100
AcDbEntity
  8
_Y________
  6
CONTINUOUS
 62
         4
100
AcDbLine
 10
1607.4383529118
 20
183.641791324
 30
0.0
 11
1606.1392796389
 21
182.342718051
 31
0.0
  0
LINE
  5
41F
100
AcDbEntity
  8
_Y________
  6
CONTINUOUS
 62
         4
100
AcDbLine
 10
1607.5252231284
 20
183.6579508624
 30
0.0
 11
1606.1581485126
 21
182.2908762466
 31
0.0
  0
LINE
  5
420
100
AcDbEntity
  8
_Y________
  6
CONTINUOUS
 62
         4
100
AcDbLine
 10
1607.612093345
 20
183.6741104009
 30
0.0
 11
1606.1770173863
 21
182.2390344422
 31
0.0
  0
LINE
  5
421
100
AcDbEntity
  8
_Y________
  6
CONTINUOUS
 62
         4
100
AcDbLine
 10
1607.6989635616
 20
183.6902699394
 30
0.0
 11
1606.19588626
 21
182.1871926378
 31
0.0
  0
LINE
  5
422
100
AcDbEntity
  8
_Y________
  6
CONTINUOUS
 62
         4
100
AcDbLine
 10
1607.7858337782
 20
183.7064294779
 30
0.0
 11
1606.2147551337
 21
182.1353508334
 31
0.0
  0
LINE
  5
423
100
AcDbEntity
  8
_Y________
  6
CONTINUOUS
 62
         4
100
AcDbLine
 10
1607.8727039948
 20
183.7225890164
 30
0.0
 11
1606.2336240074
 21
182.0835090289
 31
0.0
  0
LINE
  5
424
100
AcDbEntity
  8
_Y________
  6
CONTINUOUS
 62
         4
100
AcDbLine
 10
1607.9595742114
 20
183.7387485549
 30
0.0
 11
1606.2524928811
 21
182.0316672245
 31
0.0
  0
LINE
  5
425
100
AcDbEntity
  8
_Y________
  6
CONTINUOUS
 62
         4
100
AcDbLine
 10
1608.046444428
 20
183.7549080934
 30
0.0
 11
1606.2713617548
 21
181.9798254201
 31
0.0
  0
LINE
  5
426
100
AcDbEntity
  8
_Y________
  6
CONTINUOUS
 62
         4
100
AcDbLine
 10
1608.1333146446
 20
183.7710676318
 30
0.0
 11
1606.2902306285
 21
181.9279836157
 31
0.0
  0
LINE
  5
427
100
AcDbEntity
  8
_Y________
  6
CONTINUOUS
 62
         4
100
AcDbLine
 10
1608.2201848612
 20
183.7872271703
 30
0.0
 11
1606.3090995022
 21
181.8761418113
 31
0.0
  0
LINE
  5
428
100
AcDbEntity
  8
_Y________
  6
CONTINUOUS
 62
         4
100
AcDbLine
 10
1608.3070550779
 20
183.8033867088
 30
0.0
 11
1606.3279683759
 21
181.8243000068
 31
0.0
  0
LINE
  5
429
100
AcDbEntity
  8
_Y________
  6
CONTINUOUS
 62
         4
100
AcDbLine
 10
1608.3939252945
 20
183.8195462473
 30
0.0
 11
1606.3468372496
 21
181.7724582024
 31
0.0
  0
LINE
  5
42A
100
AcDbEntity
  8
_Y________
  6
CONTINUOUS
 62
         4
100
AcDbLine
 10
1608.4807955111
 20
183.8357057858
 30
0.0
 11
1606.4940394636
 21
181.8489497383
 31
0.0
  0
LINE
  5
42B
100
AcDbEntity
  8
_Y________
  6
CONTINUOUS
 62
         4
100
AcDbLine
 10
1608.5676657277
 20
183.8518653243
 30
0.0
 11
1606.6565572549
 21
181.9407568515
 31
0.0
  0
LINE
  5
42C
100
AcDbEntity
  8
_Y________
  6
CONTINUOUS
 62
         4
100
AcDbLine
 10
1608.6545359443
 20
183.8680248628
 30
0.0
 11
1606.8190750463
 21
182.0325639648
 31
0.0
  0
LINE
  5
42D
100
AcDbEntity
  8
_Y________
  6
CONTINUOUS
 62
         4
100
AcDbLine
 10
1608.7414061609
 20
183.8841844013
 30
0.0
 11
1606.9815928376
 21
182.124371078
 31
0.0
  0
LINE
  5
42E
100
AcDbEntity
  8
_Y________
  6
CONTINUOUS
 62
         4
100
AcDbLine
 10
1608.8282763775
 20
183.9003439397
 30
0.0
 11
1607.144110629
 21
182.2161781912
 31
0.0
  0
LINE
  5
42F
100
AcDbEntity
  8
_Y________
  6
CONTINUOUS
 62
         4
100
AcDbLine
 10
1608.9151465941
 20
183.9165034782
 30
0.0
 11
1607.3066284203
 21
182.3079853045
 31
0.0
  0
LINE
  5
430
100
AcDbEntity
  8
_Y________
  6
CONTINUOUS
 62
         4
100
AcDbLine
 10
1609.0020168107
 20
183.9326630167
 30
0.0
 11
1607.4691462117
 21
182.3997924177
 31
0.0
  0
LINE
  5
431
100
AcDbEntity
  8
_Y________
  6
CONTINUOUS
 62
         4
100
AcDbLine
 10
1609.0888870273
 20
183.9488225552
 30
0.0
 11
1607.6316640031
 21
182.4915995309
 31
0.0
  0
LINE
  5
432
100
AcDbEntity
  8
_Y________
  6
CONTINUOUS
 62
         4
100
AcDbLine
 10
1609.1757572439
 20
183.9649820937
 30
0.0
 11
1607.7941817944
 21
182.5834066442
 31
0.0
  0
LINE
  5
433
100
AcDbEntity
  8
_Y________
  6
CONTINUOUS
 62
         4
100
AcDbLine
 10
1609.2626274605
 20
183.9811416322
 30
0.0
 11
1607.9566995858
 21
182.6752137574
 31
0.0
  0
LINE
  5
434
100
AcDbEntity
  8
_Y________
  6
CONTINUOUS
 62
         4
100
AcDbLine
 10
1609.3494976771
 20
183.9973011707
 30
0.0
 11
1608.1192173771
 21
182.7670208707
 31
0.0
  0
LINE
  5
435
100
AcDbEntity
  8
_Y________
  6
CONTINUOUS
 62
         4
100
AcDbLine
 10
1609.4363678937
 20
184.0134607091
 30
0.0
 11
1608.2817351685
 21
182.8588279839
 31
0.0
  0
LINE
  5
436
100
AcDbEntity
  8
_Y________
  6
CONTINUOUS
 62
         4
100
AcDbLine
 10
1609.5232381103
 20
184.0296202476
 30
0.0
 11
1608.4442529598
 21
182.9506350971
 31
0.0
  0
LINE
  5
437
100
AcDbEntity
  8
_Y________
  6
CONTINUOUS
 62
         4
100
AcDbLine
 10
1609.6101083269
 20
184.0457797861
 30
0.0
 11
1608.6067707512
 21
183.0424422104
 31
0.0
  0
LINE
  5
438
100
AcDbEntity
  8
_Y________
  6
CONTINUOUS
 62
         4
100
AcDbLine
 10
1609.6969785435
 20
184.0619393246
 30
0.0
 11
1608.7692885425
 21
183.1342493236
 31
0.0
  0
LINE
  5
439
100
AcDbEntity
  8
_Y________
  6
CONTINUOUS
 62
         4
100
AcDbLine
 10
1609.7838487601
 20
184.0780988631
 30
0.0
 11
1608.9318063339
 21
183.2260564368
 31
0.0
  0
LINE
  5
43A
100
AcDbEntity
  8
_Y________
  6
CONTINUOUS
 62
         4
100
AcDbLine
 10
1609.8707189767
 20
184.0942584016
 30
0.0
 11
1609.0943241252
 21
183.3178635501
 31
0.0
  0
LINE
  5
43B
100
AcDbEntity
  8
_Y________
  6
CONTINUOUS
 62
         4
100
AcDbLine
 10
1609.9575891933
 20
184.1104179401
 30
0.0
 11
1609.2568419166
 21
183.4096706633
 31
0.0
  0
LINE
  5
43C
100
AcDbEntity
  8
_Y________
  6
CONTINUOUS
 62
         4
100
AcDbLine
 10
1610.0444594099
 20
184.1265774785
 30
0.0
 11
1609.419359708
 21
183.5014777765
 31
0.0
  0
LINE
  5
43D
100
AcDbEntity
  8
_Y________
  6
CONTINUOUS
 62
         4
100
AcDbLine
 10
1610.1313296266
 20
184.142737017
 30
0.0
 11
1609.5818774993
 21
183.5932848898
 31
0.0
  0
LINE
  5
43E
100
AcDbEntity
  8
_Y________
  6
CONTINUOUS
 62
         4
100
AcDbLine
 10
1610.2181998432
 20
184.1588965555
 30
0.0
 11
1609.7443952907
 21
183.685092003
 31
0.0
  0
LINE
  5
43F
100
AcDbEntity
  8
_Y________
  6
CONTINUOUS
 62
         4
100
AcDbLine
 10
1610.3050700598
 20
184.175056094
 30
0.0
 11
1609.906913082
 21
183.7768991163
 31
0.0
  0
LINE
  5
440
100
AcDbEntity
  8
_Y________
  6
CONTINUOUS
 62
         4
100
AcDbLine
 10
1610.3919402764
 20
184.1912156325
 30
0.0
 11
1610.0694308734
 21
183.8687062295
 31
0.0
  0
LINE
  5
441
100
AcDbEntity
  8
_Y________
  6
CONTINUOUS
 62
         4
100
AcDbLine
 10
1610.478810493
 20
184.207375171
 30
0.0
 11
1610.2319486647
 21
183.9605133427
 31
0.0
  0
LINE
  5
442
100
AcDbEntity
  8
_Y________
  6
CONTINUOUS
 62
         4
100
AcDbLine
 10
1610.5656807096
 20
184.2235347095
 30
0.0
 11
1610.3944664561
 21
184.052320456
 31
0.0
  0
LINE
  5
443
100
AcDbEntity
  8
_Y________
  6
CONTINUOUS
 62
         4
100
AcDbLine
 10
1610.6525509262
 20
184.2396942479
 30
0.0
 11
1610.5569842474
 21
184.1441275692
 31
0.0
  0
LINE
  5
444
100
AcDbEntity
  8
_Y________
  6
CONTINUOUS
 62
         4
100
AcDbLine
 10
1610.7394211428
 20
184.2558537864
 30
0.0
 11
1610.7195020388
 21
184.2359346824
 31
0.0
  0
ENDBLK
  5
445
100
AcDbEntity
  8
0
  6
CONTINUOUS
100
AcDbBlockEnd
  0
ENDSEC
  0
SECTION
  2
ENTITIES
  0
INSERT
  5
71
100
AcDbEntity
  8
0
  6
CONTINUOUS
100
AcDbBlockReference
  2
*X0
 10
0.0
 20
0.0
 30
0.0
  0
LINE
  5
72
100
AcDbEntity
  8
L1_65
  6
CONTINUOUS
 62
         4
100
AcDbLine
 10
1432.4033403763
 20
-18.4983347407
 30
0.0
 11
1394.4033403763
 21
-18.4983347407
 31
0.0
  0
LINE
  5
73
100
AcDbEntity
  8
L1_65
  6
CONTINUOUS
 62
         4
100
AcDbLine
 10
1432.4033403763
 20
-7.3883347407
 30
0.0
 11
1394.4033403763
 21
-7.3883347407
 31
0.0
  0
LINE
  5
74
100
AcDbEntity
  8
L1_65
  6
CONTINUOUS
 62
         7
100
AcDbLine
 10
1384.6082997218
 20
-7.8683347407
 30
0.0
 11
1384.6082997218
 21
-18.0183347407
 31
0.0
  0
DIMENSION
  5
78
100
AcDbEntity
  8
L1_65
  6
CONTINUOUS
 62
         4
100
AcDbDimension
  2
*D1
 10
1470.7376724774
 20
-7.3383347407
 30
0.0
 11
1468.7126724774
 21
-4.599765427
 31
0.0
  3
DIMSTYLE1
100
AcDbAlignedDimension
 13
1437.3633403763
 23
-7.3383347407
 33
0.0
 14
1437.3633403763
 24
-18.5483347407
 34
0.0
 50
90.0
100
AcDbRotatedDimension
  0
DIMENSION
  5
88
100
AcDbEntity
  8
L1_65
  6
CONTINUOUS
 62
         4
100
AcDbDimension
  2
*D2
 10
1437.3633403763
 20
-45.3762912935
 30
0.0
 11
1446.6522749135
 21
-43.3512912935
 31
0.0
  3
DIMSTYLE1
100
AcDbAlignedDimension
 13
1437.3633403763
 23
-18.5483347407
 33
0.0
 14
1454.4033403763
 24
-22.4433347407
 34
0.0
100
AcDbRotatedDimension
  0
LINE
  5
94
100
AcDbEntity
  8
L1_65
  6
CONTINUOUS
 62
         7
100
AcDbLine
 10
1437.3633403763
 20
-7.3383347407
 30
0.0
 11
1437.3633403763
 21
-18.5483347407
 31
0.0
  0
LINE
  5
95
100
AcDbEntity
  8
L1_65
  6
CONTINUOUS
 62
         7
100
AcDbLine
 10
1432.4033403763
 20
-18.5483347407
 30
0.0
 11
1437.3633403763
 21
-18.5483347407
 31
0.0
  0
LINE
  5
96
100
AcDbEntity
  8
L1_65
  6
CONTINUOUS
 62
         7
100
AcDbLine
 10
1432.4033403763
 20
-7.3383347407
 30
0.0
 11
1437.3633403763
 21
-7.3383347407
 31
0.0
  0
DIMENSION
  5
99
100
AcDbEntity
  8
L1_65
  6
CONTINUOUS
 62
         4
100
AcDbDimension
  2
*D3
 10
1585.7114532185
 20
8.7385251381
 30
0.0
 11
1583.6864532185
 21
9.1958852566
 31
0.0
  3
DIMSTYLE1
100
AcDbAlignedDimension
 13
1572.8428111523
 23
8.7385251381
 33
0.0
 14
1564.7871487196
 24
30.7385251381
 34
0.0
 50
90.0
100
AcDbRotatedDimension
  0
LINE
  5
A5
100
AcDbEntity
  8
L1_65
  6
CONTINUOUS
 62
         7
100
AcDbLine
 10
1560.1871487196
 20
29.5385251381
 30
0.0
 11
1560.1871487196
 21
26.9385251381
 31
0.0
  0
LINE
  5
A6
100
AcDbEntity
  8
L1_65
  6
CONTINUOUS
 62
         7
100
AcDbLine
 10
1572.3740027337
 20
9.5505251381
 30
0.0
 11
1572.3740027337
 21
29.9265251381
 31
0.0
  0
LINE
  5
A7
100
AcDbEntity
  8
L1_65
  6
CONTINUOUS
 62
         7
100
AcDbLine
 10
1572.9871487196
 20
8.4885251381
 30
0.0
 11
1572.3740027337
 21
9.5505251381
 31
0.0
  0
LINE
  5
A8
100
AcDbEntity
  8
L1_65
  6
CONTINUOUS
 62
         7
100
AcDbLine
 10
1572.9871487196
 20
30.9885251381
 30
0.0
 11
1572.3740027337
 21
29.9265251381
 31
0.0
  0
LINE
  5
A9
100
AcDbEntity
  8
L1_65
  6
CONTINUOUS
 62
         7
100
AcDbLine
 10
1556.2088365561
 20
7.2385251381
 30
0.0
 11
1566.5437730466
 21
7.2385251381
 31
0.0
  0
LINE
  5
AA
100
AcDbEntity
  8
L1_65
  6
CONTINUOUS
 62
         7
100
AcDbLine
 10
1567.9871487196
 20
5.7385251381
 30
0.0
 11
1567.4097984504
 21
6.7385251381
 31
0.0
  0
LINE
  5
AB
100
AcDbEntity
  8
L1_65
  6
CONTINUOUS
 62
         7
100
AcDbLine
 10
1567.9871487196
 20
33.7385251381
 30
0.0
 11
1567.4097984504
 21
32.7385251381
 31
0.0
  0
LINE
  5
AC
100
AcDbEntity
  8
L1_65
  6
CONTINUOUS
 62
         7
100
AcDbLine
 10
1556.2088365561
 20
32.2385251381
 30
0.0
 11
1566.5437730466
 21
32.2385251381
 31
0.0
  0
LINE
  5
AD
100
AcDbEntity
  8
L1_65
  6
CONTINUOUS
 62
         7
100
AcDbLine
 10
1567.9871487196
 20
5.7385251381
 30
0.0
 11
1571.4871487196
 21
5.7385251381
 31
0.0
  0
ARC
  5
AE
100
AcDbEntity
  8
L1_65
  6
CONTINUOUS
 62
         7
100
AcDbCircle
 10
1556.9871487196
 20
8.8904489268
 30
0.0
 40
1.5
100
AcDbArc
 50
180.0
 51
210.0
  0
LINE
  5
AF
100
AcDbEntity
  8
L1_65
  6
CONTINUOUS
 62
         7
100
AcDbLine
 10
1555.6881106139
 20
8.1404489268
 30
0.0
 11
1556.2088365561
 21
7.2385251381
 31
0.0
  0
ARC
  5
B0
100
AcDbEntity
  8
L1_65
  6
CONTINUOUS
 62
         7
100
AcDbCircle
 10
1571.4871487196
 20
7.2385251381
 30
0.0
 40
1.5
100
AcDbArc
 50
270.0
 51
360.0
  0
ARC
  5
B1
100
AcDbEntity
  8
L1_65
  6
CONTINUOUS
 62
         7
100
AcDbCircle
 10
1571.4871487196
 20
32.2385251381
 30
0.0
 40
1.5
100
AcDbArc
 50
0.0
 51
90.0
  0
LINE
  5
B2
100
AcDbEntity
  8
L1_65
  6
CONTINUOUS
 62
         7
100
AcDbLine
 10
1567.9871487196
 20
33.7385251381
 30
0.0
 11
1571.4871487196
 21
33.7385251381
 31
0.0
  0
ARC
  5
B3
100
AcDbEntity
  8
L1_65
  6
CONTINUOUS
 62
         7
100
AcDbCircle
 10
1556.9871487196
 20
30.5866013495
 30
0.0
 40
1.5
100
AcDbArc
 50
150.0
 51
180.0
  0
LINE
  5
B4
100
AcDbEntity
  8
L1_65
  6
CONTINUOUS
 62
         7
100
AcDbLine
 10
1555.6881106139
 20
31.3366013495
 30
0.0
 11
1556.2088365561
 21
32.2385251381
 31
0.0
  0
LINE
  5
B5
100
AcDbEntity
  8
L1_65
  6
CONTINUOUS
 62
         7
100
AcDbLine
 10
1564.2871487196
 20
8.2385251381
 30
0.0
 11
1565.5991487196
 21
9.5505251381
 31
0.0
  0
ARC
  5
B6
100
AcDbEntity
  8
L1_65
  6
CONTINUOUS
 62
         7
100
AcDbCircle
 10
1562.2871487196
 20
30.2385251381
 30
0.0
 40
1.0
100
AcDbArc
 50
90.0
 51
180.0
  0
ARC
  5
B7
100
AcDbEntity
  8
L1_65
  6
CONTINUOUS
 62
         7
100
AcDbCircle
 10
1562.2871487196
 20
9.2385251381
 30
0.0
 40
1.0
100
AcDbArc
 50
180.0
 51
270.0
  0
LINE
  5
B8
100
AcDbEntity
  8
L1_65
  6
CONTINUOUS
 62
         7
100
AcDbLine
 10
1559.1871487196
 20
29.5385251381
 30
0.0
 11
1560.1871487196
 21
29.5385251381
 31
0.0
  0
LINE
  5
B9
100
AcDbEntity
  8
L1_65
  6
CONTINUOUS
 62
         7
100
AcDbLine
 10
1559.1871487196
 20
9.9385251381
 30
0.0
 11
1561.2871487196
 21
9.9385251381
 31
0.0
  0
LINE
  5
BA
100
AcDbEntity
  8
L1_65
  6
CONTINUOUS
 62
         7
100
AcDbLine
 10
1559.1871487196
 20
29.5385251381
 30
0.0
 11
1559.1871487196
 21
9.9385251381
 31
0.0
  0
LINE
  5
BB
100
AcDbEntity
  8
L1_65
  6
CONTINUOUS
 62
         7
100
AcDbLine
 10
1562.2871487196
 20
8.2385251381
 30
0.0
 11
1564.2871487196
 21
8.2385251381
 31
0.0
  0
LINE
  5
BC
100
AcDbEntity
  8
L1_65
  6
CONTINUOUS
 62
         7
100
AcDbLine
 10
1562.2871487196
 20
31.2385251381
 30
0.0
 11
1564.2871487196
 21
31.2385251381
 31
0.0
  0
LINE
  5
BD
100
AcDbEntity
  8
L1_65
  6
CONTINUOUS
 62
         7
100
AcDbLine
 10
1564.2871487196
 20
31.2385251381
 30
0.0
 11
1564.2871487196
 21
8.2385251381
 31
0.0
  0
LINE
  5
BE
100
AcDbEntity
  8
L1_65
  6
CONTINUOUS
 62
         4
100
AcDbLine
 10
1564.7871487196
 20
8.7385251381
 30
0.0
 11
1572.8428111523
 21
8.7385251381
 31
0.0
  0
LINE
  5
BF
100
AcDbEntity
  8
L1_65
  6
CONTINUOUS
 62
         4
100
AcDbLine
 10
1564.7871487196
 20
30.7385251381
 30
0.0
 11
1572.8428111523
 21
30.7385251381
 31
0.0
  0
LINE
  5
C0
100
AcDbEntity
  8
L1_65
  6
CONTINUOUS
 62
         7
100
AcDbLine
 10
1565.5991487196
 20
9.5505251381
 30
0.0
 11
1572.3740027337
 21
9.5505251381
 31
0.0
  0
LINE
  5
C1
100
AcDbEntity
  8
L1_65
  6
CONTINUOUS
 62
         7
100
AcDbLine
 10
1565.5991487196
 20
29.9265251381
 30
0.0
 11
1572.3740027337
 21
29.9265251381
 31
0.0
  0
LINE
  5
C2
100
AcDbEntity
  8
L1_65
  6
CONTINUOUS
 62
         7
100
AcDbLine
 10
1560.1871487196
 20
26.9385251381
 30
0.0
 11
1561.2871487196
 21
26.9385251381
 31
0.0
  0
LINE
  5
C3
100
AcDbEntity
  8
L1_65
  6
CONTINUOUS
 62
         7
100
AcDbLine
 10
1559.1871487196
 20
11.4608754073
 30
0.0
 11
1555.4871487196
 21
13.5970714033
 31
0.0
  0
LINE
  5
C4
100
AcDbEntity
  8
L1_65
  6
CONTINUOUS
 62
         7
100
AcDbLine
 10
1559.1871487196
 20
28.016174869
 30
0.0
 11
1555.4871487196
 21
25.879978873
 31
0.0
  0
LINE
  5
C5
100
AcDbEntity
  8
L1_65
  6
CONTINUOUS
 62
         7
100
AcDbLine
 10
1561.2871487196
 20
30.2385251381
 30
0.0
 11
1561.2871487196
 21
9.2385251381
 31
0.0
  0
LINE
  5
C6
100
AcDbEntity
  8
L1_65
  6
CONTINUOUS
 62
         7
100
AcDbLine
 10
1560.1871487196
 20
26.9385251381
 30
0.0
 11
1560.1871487196
 21
9.9385251381
 31
0.0
  0
LINE
  5
C7
100
AcDbEntity
  8
L1_65
  6
CONTINUOUS
 62
         7
100
AcDbLine
 10
1555.4871487196
 20
30.5866013495
 30
0.0
 11
1555.4871487196
 21
8.8904489268
 31
0.0
  0
LINE
  5
C8
100
AcDbEntity
  8
L1_65
  6
CENTER
 62
         1
100
AcDbLine
 10
1553.8957601467
 20
19.7385251381
 30
0.0
 11
1574.7227308261
 21
19.7385251381
 31
0.0
  0
LINE
  5
C9
100
AcDbEntity
  8
L1_65
  6
CONTINUOUS
 62
         7
100
AcDbLine
 10
1572.9871487196
 20
32.2385251381
 30
0.0
 11
1572.9871487196
 21
7.2385251381
 31
0.0
  0
ARC
  5
CA
100
AcDbEntity
  8
L1_65
  6
CONTINUOUS
 62
         7
100
AcDbCircle
 10
1566.5437730466
 20
33.2385251381
 30
0.0
 40
1.0
100
AcDbArc
 50
270.0
 51
330.0
  0
ARC
  5
CB
100
AcDbEntity
  8
L1_65
  6
CONTINUOUS
 62
         7
100
AcDbCircle
 10
1566.5437730466
 20
6.2385251381
 30
0.0
 40
1.0
100
AcDbArc
 50
30.0
 51
90.0
  0
LINE
  5
CC
100
AcDbEntity
  8
L1_65
  6
CONTINUOUS
 62
         7
100
AcDbLine
 10
1565.5991487196
 20
9.5505251381
 30
0.0
 11
1565.5991487196
 21
29.9265251381
 31
0.0
  0
LINE
  5
CD
100
AcDbEntity
  8
L1_65
  6
CONTINUOUS
 62
         7
100
AcDbLine
 10
1564.2871487196
 20
31.2385251381
 30
0.0
 11
1565.5991487196
 21
29.9265251381
 31
0.0
  0
INSERT
  5
DE
100
AcDbEntity
  8
0
  6
CONTINUOUS
100
AcDbBlockReference
  2
*X4
 10
0.0
 20
0.0
 30
0.0
  0
INSERT
  5
E7
100
AcDbEntity
  8
0
  6
CONTINUOUS
100
AcDbBlockReference
  2
*X5
 10
0.0
 20
0.0
 30
0.0
  0
INSERT
  5
F6
100
AcDbEntity
  8
0
  6
CONTINUOUS
100
AcDbBlockReference
  2
*X6
 10
0.0
 20
0.0
 30
0.0
  0
INSERT
  5
FE
100
AcDbEntity
  8
0
  6
CONTINUOUS
100
AcDbBlockReference
  2
*X7
 10
0.0
 20
0.0
 30
0.0
  0
INSERT
  5
105
100
AcDbEntity
  8
0
  6
CONTINUOUS
100
AcDbBlockReference
  2
*X8
 10
0.0
 20
0.0
 30
0.0
  0
DIMENSION
  5
108
100
AcDbEntity
  8
L1_65
  6
CONTINUOUS
 62
         4
100
AcDbDimension
  2
*D9
 10
1572.9871487196
 20
41.9044820001
 30
0.0
 11
1558.8371487196
 21
43.9294820001
 31
0.0
  3
DIMSTYLE1
100
AcDbAlignedDimension
 13
1572.9871487196
 23
32.2385251381
 33
0.0
 14
1555.4871487196
 24
30.5866013495
 34
0.0
100
AcDbRotatedDimension
  0
DIMENSION
  5
116
100
AcDbEntity
  8
L1_65
  6
CONTINUOUS
 62
         4
100
AcDbDimension
  2
*D10
 10
1594.0376932772
 20
33.7385251381
 30
0.0
 11
1592.0126932772
 21
14.5643950318
 31
0.0
  3
DIMSTYLE1
100
AcDbAlignedDimension
 13
1571.4871487196
 23
33.7385251381
 33
0.0
 14
1571.4871487196
 24
5.7385251381
 34
0.0
 50
90.0
100
AcDbRotatedDimension
  0
LINE
  5
122
100
AcDbEntity
  8
L1_65
  6
CENTER
 62
         1
100
AcDbLine
 10
1529.3272615239
 20
2.6947649048
 30
0.0
 11
1529.3272615239
 21
37.5376138765
 31
0.0
  0
CIRCLE
  5
123
100
AcDbEntity
  8
L1_65
  6
CONTINUOUS
 62
         7
100
AcDbCircle
 10
1529.3272615239
 20
19.7385251381
 30
0.0
 40
14.0
  0
LINE
  5
124
100
AcDbEntity
  8
L1_65
  6
CONTINUOUS
 62
         7
100
AcDbLine
 10
1540.3272615239
 20
26.0893780992
 30
0.0
 11
1529.3272615239
 21
32.4402310603
 31
0.0
  0
LINE
  5
125
100
AcDbEntity
  8
L1_65
  6
CONTINUOUS
 62
         7
100
AcDbLine
 10
1529.3272615239
 20
32.4402310603
 30
0.0
 11
1518.3272615239
 21
26.0893780992
 31
0.0
  0
LINE
  5
126
100
AcDbEntity
  8
L1_65
  6
CONTINUOUS
 62
         7
100
AcDbLine
 10
1518.3272615239
 20
26.0893780992
 30
0.0
 11
1518.3272615239
 21
13.3876721771
 31
0.0
  0
LINE
  5
127
100
AcDbEntity
  8
L1_65
  6
CONTINUOUS
 62
         7
100
AcDbLine
 10
1518.3272615239
 20
13.3876721771
 30
0.0
 11
1529.3272615239
 21
7.036819216
 31
0.0
  0
LINE
  5
128
100
AcDbEntity
  8
L1_65
  6
CONTINUOUS
 62
         7
100
AcDbLine
 10
1529.3272615239
 20
7.036819216
 30
0.0
 11
1540.3272615239
 21
13.3876721771
 31
0.0
  0
LINE
  5
129
100
AcDbEntity
  8
L1_65
  6
CONTINUOUS
 62
         7
100
AcDbLine
 10
1540.3272615239
 20
13.3876721771
 30
0.0
 11
1540.3272615239
 21
26.0893780992
 31
0.0
  0
CIRCLE
  5
12A
100
AcDbEntity
  8
L1_65
  6
CONTINUOUS
 62
         7
100
AcDbCircle
 10
1529.3272615239
 20
19.7385251381
 30
0.0
 40
6.1414537348
  0
CIRCLE
  5
12B
100
AcDbEntity
  8
L1_65
  6
CONTINUOUS
 62
         7
100
AcDbCircle
 10
1529.3272615239
 20
19.7385251381
 30
0.0
 40
11.0
  0
LINE
  5
12C
100
AcDbEntity
  8
L1_65
  6
CENTER
 62
         1
100
AcDbLine
 10
1546.6900280148
 20
19.7385251381
 30
0.0
 11
1512.4337589922
 21
19.7385251381
 31
0.0
  0
LINE
  5
12D
100
AcDbEntity
  8
L1_65
  6
CENTER
 62
         1
100
AcDbLine
 10
1574.8722998784
 20
70.6172711027
 30
0.0
 11
1559.1876664875
 21
70.6172711027
 31
0.0
  0
LINE
  5
12E
100
AcDbEntity
  8
L1_65
  6
CENTER
 62
         1
100
AcDbLine
 10
1567.1311971778
 20
62.3425907895
 30
0.0
 11
1567.1311971778
 21
78.858985042
 31
0.0
  0
LINE
  5
12F
100
AcDbEntity
  8
L1_65
  6
CENTER
 62
         1
100
AcDbLine
 10
1583.2252260193
 20
70.6172711027
 30
0.0
 11
1598.7247547668
 21
70.6172711027
 31
0.0
  0
LINE
  5
130
100
AcDbEntity
  8
L1_65
  6
CONTINUOUS
 62
         7
100
AcDbLine
 10
1584.5271828547
 20
67.0372711027
 30
0.0
 11
1584.5271828547
 21
74.1972711027
 31
0.0
  0
LINE
  5
131
100
AcDbEntity
  8
L1_65
  6
CONTINUOUS
 62
         7
100
AcDbLine
 10
1586.5271828547
 20
66.5372711027
 30
0.0
 11
1586.5271828547
 21
74.6972711027
 31
0.0
  0
LINE
  5
132
100
AcDbEntity
  8
L1_65
  6
CONTINUOUS
 62
         7
100
AcDbLine
 10
1597.5271828547
 20
67.0372711027
 30
0.0
 11
1597.5271828547
 21
74.1972711027
 31
0.0
  0
LINE
  5
133
100
AcDbEntity
  8
L1_65
  6
CONTINUOUS
 62
         7
100
AcDbLine
 10
1595.5271828547
 20
66.5372711027
 30
0.0
 11
1595.5271828547
 21
74.6972711027
 31
0.0
  0
LINE
  5
134
100
AcDbEntity
  8
L1_65
  6
CONTINUOUS
 62
         7
100
AcDbLine
 10
1585.0271828547
 20
74.6972711027
 30
0.0
 11
1586.5271828547
 21
74.6972711027
 31
0.0
  0
LINE
  5
135
100
AcDbEntity
  8
L1_65
  6
CONTINUOUS
 62
         7
100
AcDbLine
 10
1588.0021828547
 20
76.1722711027
 30
0.0
 11
1594.0521828547
 21
76.1722711027
 31
0.0
  0
LINE
  5
136
100
AcDbEntity
  8
L1_65
  6
CONTINUOUS
 62
         7
100
AcDbLine
 10
1595.5271828547
 20
74.6972711027
 30
0.0
 11
1597.0271828547
 21
74.6972711027
 31
0.0
  0
LINE
  5
137
100
AcDbEntity
  8
L1_65
  6
CONTINUOUS
 62
         7
100
AcDbLine
 10
1594.0521828547
 20
76.1722711027
 30
0.0
 11
1595.5271828547
 21
74.6972711027
 31
0.0
  0
LINE
  5
138
100
AcDbEntity
  8
L1_65
  6
CONTINUOUS
 62
         7
100
AcDbLine
 10
1588.0021828547
 20
76.1722711027
 30
0.0
 11
1586.5271828547
 21
74.6972711027
 31
0.0
  0
LINE
  5
139
100
AcDbEntity
  8
L1_65
  6
CONTINUOUS
 62
         7
100
AcDbLine
 10
1597.0271828547
 20
74.6972711027
 30
0.0
 11
1597.5271828547
 21
74.1972711027
 31
0.0
  0
LINE
  5
13A
100
AcDbEntity
  8
L1_65
  6
CONTINUOUS
 62
         7
100
AcDbLine
 10
1585.0271828547
 20
74.6972711027
 30
0.0
 11
1584.5271828547
 21
74.1972711027
 31
0.0
  0
LINE
  5
13B
100
AcDbEntity
  8
L1_65
  6
CONTINUOUS
 62
         7
100
AcDbLine
 10
1585.0271828547
 20
66.5372711027
 30
0.0
 11
1585.0271828547
 21
74.6972711027
 31
0.0
  0
LINE
  5
13C
100
AcDbEntity
  8
L1_65
  6
CONTINUOUS
 62
         7
100
AcDbLine
 10
1597.0271828547
 20
66.5372711027
 30
0.0
 11
1597.0271828547
 21
74.6972711027
 31
0.0
  0
LINE
  5
13D
100
AcDbEntity
  8
L1_65
  6
CONTINUOUS
 62
         7
100
AcDbLine
 10
1588.0021828547
 20
65.0622711027
 30
0.0
 11
1594.0521828547
 21
65.0622711027
 31
0.0
  0
LINE
  5
13E
100
AcDbEntity
  8
L1_65
  6
CONTINUOUS
 62
         7
100
AcDbLine
 10
1588.0021828547
 20
65.0622711027
 30
0.0
 11
1586.5271828547
 21
66.5372711027
 31
0.0
  0
LINE
  5
13F
100
AcDbEntity
  8
L1_65
  6
CONTINUOUS
 62
         7
100
AcDbLine
 10
1594.0521828547
 20
65.0622711027
 30
0.0
 11
1595.5271828547
 21
66.5372711027
 31
0.0
  0
LINE
  5
140
100
AcDbEntity
  8
L1_65
  6
CONTINUOUS
 62
         7
100
AcDbLine
 10
1595.5271828547
 20
66.5372711027
 30
0.0
 11
1597.0271828547
 21
66.5372711027
 31
0.0
  0
LINE
  5
141
100
AcDbEntity
  8
L1_65
  6
CONTINUOUS
 62
         7
100
AcDbLine
 10
1597.0271828547
 20
66.5372711027
 30
0.0
 11
1597.5271828547
 21
67.0372711027
 31
0.0
  0
LINE
  5
142
100
AcDbEntity
  8
L1_65
  6
CONTINUOUS
 62
         7
100
AcDbLine
 10
1585.0271828547
 20
66.5372711027
 30
0.0
 11
1586.5271828547
 21
66.5372711027
 31
0.0
  0
LINE
  5
143
100
AcDbEntity
  8
L1_65
  6
CONTINUOUS
 62
         7
100
AcDbLine
 10
1585.0271828547
 20
66.5372711027
 30
0.0
 11
1584.5271828547
 21
67.0372711027
 31
0.0
  0
LINE
  5
144
100
AcDbEntity
  8
L1_65
  6
DASHED
 62
         2
100
AcDbLine
 10
1595.7271828547
 20
66.5372711027
 30
0.0
 11
1595.7271828547
 21
74.6972711027
 31
0.0
  0
LINE
  5
145
100
AcDbEntity
  8
L1_65
  6
DASHED
 62
         2
100
AcDbLine
 10
1586.3271828547
 20
66.5372711027
 30
0.0
 11
1586.3271828547
 21
74.6972711027
 31
0.0
  0
ARC
  5
146
100
AcDbEntity
  8
L1_65
  6
CONTINUOUS
 62
         7
100
AcDbCircle
 10
1567.1311971778
 20
70.6172711027
 30
0.0
 40
4.08
100
AcDbArc
 50
90.0
 51
270.0
  0
CIRCLE
  5
147
100
AcDbEntity
  8
L1_65
  6
CONTINUOUS
 62
         7
100
AcDbCircle
 10
1567.1311971778
 20
70.6172711027
 30
0.0
 40
5.555
  0
LINE
  5
148
100
AcDbEntity
  8
L1_65
  6
CONTINUOUS
 62
         4
100
AcDbLine
 10
1587.2121828547
 20
75.3822711027
 30
0.0
 11
1594.8421828547
 21
75.3822711027
 31
0.0
  0
LINE
  5
149
100
AcDbEntity
  8
L1_65
  6
CONTINUOUS
 62
         4
100
AcDbLine
 10
1587.2121828547
 20
65.8522711027
 30
0.0
 11
1594.8421828547
 21
65.8522711027
 31
0.0
  0
ARC
  5
14A
100
AcDbEntity
  8
L1_65
  6
CONTINUOUS
 62
         7
100
AcDbCircle
 10
1567.1311971778
 20
70.6172711027
 30
0.0
 40
3.7
100
AcDbArc
 50
105.6803501348
 51
254.3196498652
  0
LINE
  5
14B
100
AcDbEntity
  8
L1_65
  6
DASHED
 62
         2
100
AcDbLine
 10
1595.7271828547
 20
73.7926975832
 30
0.0
 11
1586.3271828547
 21
73.7926975832
 31
0.0
  0
LINE
  5
14C
100
AcDbEntity
  8
L1_65
  6
DASHED
 62
         2
100
AcDbLine
 10
1595.7271828547
 20
67.4418446221
 30
0.0
 11
1586.3271828547
 21
67.4418446221
 31
0.0
  0
LINE
  5
14D
100
AcDbEntity
  8
L1_65
  6
DASHED
 62
         2
100
AcDbLine
 10
1595.7271828547
 20
72.2049843429
 30
0.0
 11
1586.3271828547
 21
72.2049843429
 31
0.0
  0
LINE
  5
14E
100
AcDbEntity
  8
L1_65
  6
DASHED
 62
         2
100
AcDbLine
 10
1595.7271828547
 20
69.0295578624
 30
0.0
 11
1586.3271828547
 21
69.0295578624
 31
0.0
  0
DIMENSION
  5
151
100
AcDbEntity
  8
L1_65
  6
CONTINUOUS
 62
         4
100
AcDbDimension
  2
*D11
 10
1584.5271828547
 20
82.2906724147
 30
0.0
 11
1588.3271828547
 21
84.3156724147
 31
0.0
  3
DIMSTYLE1
100
AcDbAlignedDimension
 13
1584.5271828547
 23
74.1972711027
 33
0.0
 14
1597.5271828547
 24
74.1972711027
 34
0.0
100
AcDbRotatedDimension
  0
DIMENSION
  5
15F
100
AcDbEntity
  8
L1_65
  6
CONTINUOUS
 62
         4
100
AcDbDimension
  2
*D12
 10
1607.8507003943
 20
76.1722711027
 30
0.0
 11
1605.8257003943
 21
65.3931891971
 31
0.0
  3
DIMSTYLE1
100
AcDbAlignedDimension
 13
1594.0521828547
 23
76.1722711027
 33
0.0
 14
1594.0521828547
 24
65.0622711027
 34
0.0
 50
90.0
100
AcDbRotatedDimension
  0
LINE
  5
16C
100
AcDbEntity
  8
L1_65
  6
CONTINUOUS
 62
         7
100
AcDbLine
 10
1568.1311971778
 20
71.7353050914
 30
0.0
 11
1568.1311971778
 21
74.5728241614
 31
0.0
  0
LINE
  5
16D
100
AcDbEntity
  8
L1_65
  6
CONTINUOUS
 62
         7
100
AcDbLine
 10
1566.1311971778
 20
71.7353050914
 30
0.0
 11
1566.1311971778
 21
74.5728241614
 31
0.0
  0
LINE
  5
16E
100
AcDbEntity
  8
L1_65
  6
CONTINUOUS
 62
         7
100
AcDbLine
 10
1568.1311971778
 20
66.661718044
 30
0.0
 11
1568.1311971778
 21
69.4992371139
 31
0.0
  0
LINE
  5
16F
100
AcDbEntity
  8
L1_65
  6
CONTINUOUS
 62
         7
100
AcDbLine
 10
1566.1311971778
 20
66.661718044
 30
0.0
 11
1566.1311971778
 21
69.4992371139
 31
0.0
  0
CIRCLE
  5
170
100
AcDbEntity
  8
L1_65
  6
CONTINUOUS
 62
         7
100
AcDbCircle
 10
1567.1311971778
 20
70.6172711027
 30
0.0
 40
1.5
  0
DIMENSION
  5
173
100
AcDbEntity
  8
L1_65
  6
CONTINUOUS
 62
         4
100
AcDbDimension
  2
*D13
 10
1566.1311971778
 20
83.7172530904
 30
0.0
 11
1565.7811971778
 21
85.7422530904
 31
0.0
  3
DIMSTYLE1
100
AcDbAlignedDimension
 13
1566.1311971778
 23
76.0815208224
 33
0.0
 14
1568.1311971778
 24
76.0815208224
 34
0.0
100
AcDbRotatedDimension
  0
ARC
  5
181
100
AcDbEntity
  8
L1_65
  6
CONTINUOUS
 62
         7
100
AcDbCircle
 10
1567.1311971778
 20
70.6172711027
 30
0.0
 40
3.7
100
AcDbArc
 50
285.6803501348
 51
434.3196498652
  0
ARC
  5
182
100
AcDbEntity
  8
L1_65
  6
CONTINUOUS
 62
         7
100
AcDbCircle
 10
1567.1311971778
 20
70.6172711027
 30
0.0
 40
4.08
100
AcDbArc
 50
270.0
 51
450.0
  0
CIRCLE
  5
183
100
AcDbEntity
  8
L1_65
  6
CONTINUOUS
 62
         7
100
AcDbCircle
 10
1623.2833403763
 20
150.1846417294
 30
0.0
 40
5.25
  0
ARC
  5
184
100
AcDbEntity
  8
L1_65
  6
CONTINUOUS
 62
         4
100
AcDbCircle
 10
1623.2833403763
 20
150.1846417294
 30
0.0
 40
10.0
100
AcDbArc
 50
250.2170796992
 51
556.8024117489
  0
CIRCLE
  5
185
100
AcDbEntity
  8
L1_65
  6
CONTINUOUS
 62
         7
100
AcDbCircle
 10
1623.2833403763
 20
150.1846417294
 30
0.0
 40
11.0
  0
CIRCLE
  5
186
100
AcDbEntity
  8
L1_65
  6
CONTINUOUS
 62
         7
100
AcDbCircle
 10
1623.2833403763
 20
150.1846417294
 30
0.0
 40
8.0
  0
LINE
  5
187
100
AcDbEntity
  8
L1_65
  6
CENTER
 62
         1
100
AcDbLine
 10
1606.745855002
 20
150.1846417294
 30
0.0
 11
1640.599022848
 21
150.1846417294
 31
0.0
  0
ARC
  5
188
100
AcDbEntity
  8
L1_65
  6
CONTINUOUS
 62
         4
100
AcDbCircle
 10
1623.2833403763
 20
150.1846417294
 30
0.0
 40
4.25
100
AcDbArc
 50
254.3280623399
 51
556.8024117489
  0
LINE
  5
189
100
AcDbEntity
  8
L1_65
  6
CENTER
 62
         1
100
AcDbLine
 10
1623.2833403763
 20
133.7841083594
 30
0.0
 11
1623.2833403763
 21
166.5070850428
 31
0.0
  0
ARC
  5
18A
100
AcDbEntity
  8
L1_65
  6
CONTINUOUS
 62
         7
100
AcDbCircle
 10
1452.9033403763
 20
-22.4433347407
 30
0.0
 40
1.5
100
AcDbArc
 50
270.0
 51
360.0
  0
ARC
  5
18B
100
AcDbEntity
  8
L1_65
  6
CONTINUOUS
 62
         7
100
AcDbCircle
 10
1452.9033403763
 20
-3.4433347407
 30
0.0
 40
1.5
100
AcDbArc
 50
0.0
 51
90.0
  0
LINE
  5
18C
100
AcDbEntity
  8
L1_65
  6
CONTINUOUS
 62
         7
100
AcDbLine
 10
1436.0553403763
 20
-23.9433347407
 30
0.0
 11
1452.9033403763
 21
-23.9433347407
 31
0.0
  0
LINE
  5
18D
100
AcDbEntity
  8
L1_65
  6
CONTINUOUS
 62
         7
100
AcDbLine
 10
1436.0553403763
 20
-1.9433347407
 30
0.0
 11
1452.9033403763
 21
-1.9433347407
 31
0.0
  0
DIMENSION
  5
190
100
AcDbEntity
  8
L1_65
  6
CONTINUOUS
 62
         4
100
AcDbDimension
  2
*D14
 10
1441.4033403763
 20
-37.283992942
 30
0.0
 11
1443.2371365769
 21
-35.258992942
 31
0.0
  3
DIMSTYLE1
100
AcDbAlignedDimension
 13
1441.4033403763
 23
-22.9433347407
 33
0.0
 14
1454.4033403763
 24
-22.9433347407
 34
0.0
100
AcDbRotatedDimension
  0
LINE
  5
19C
100
AcDbEntity
  8
L1_65
  6
CONTINUOUS
 62
         7
100
AcDbLine
 10
1441.4033403763
 20
-22.9433347407
 30
0.0
 11
1441.4033403763
 21
-23.9433347407
 31
0.0
  0
LINE
  5
19D
100
AcDbEntity
  8
L1_65
  6
CONTINUOUS
 62
         4
100
AcDbLine
 10
1454.3175539386
 20
-22.9433347407
 30
0.0
 11
1441.4033403763
 21
-22.9433347407
 31
0.0
  0
LINE
  5
19E
100
AcDbEntity
  8
L1_65
  6
CONTINUOUS
 62
         7
100
AcDbLine
 10
1441.4033403763
 20
-1.9433347407
 30
0.0
 11
1441.4033403763
 21
-2.9433347407
 31
0.0
  0
LINE
  5
19F
100
AcDbEntity
  8
L1_65
  6
CONTINUOUS
 62
         4
100
AcDbLine
 10
1454.3175539386
 20
-2.9433347407
 30
0.0
 11
1441.4033403763
 21
-2.9433347407
 31
0.0
  0
LINE
  5
1A0
100
AcDbEntity
  8
L1_65
  6
CONTINUOUS
 62
         7
100
AcDbLine
 10
1454.4033403763
 20
-3.4433347407
 30
0.0
 11
1454.4033403763
 21
-22.4433347407
 31
0.0
  0
LINE
  5
1A1
100
AcDbEntity
  8
L1_65
  6
CENTER
 62
         1
100
AcDbLine
 10
1392.546272041
 20
-12.9433347407
 30
0.0
 11
1456.5657159943
 21
-12.9433347407
 31
0.0
  0
LINE
  5
1A2
100
AcDbEntity
  8
L1_65
  6
CENTER
 62
         1
100
AcDbLine
 10
1409.2508489578
 20
150.1846417294
 30
0.0
 11
1455.7770515294
 21
150.1846417294
 31
0.0
  0
LINE
  5
1A3
100
AcDbEntity
  8
L1_65
  6
CONTINUOUS
 62
         7
100
AcDbLine
 10
1436.0553403763
 20
161.1846417294
 30
0.0
 11
1452.9033403763
 21
161.1846417294
 31
0.0
  0
LINE
  5
1A4
100
AcDbEntity
  8
L1_65
  6
CONTINUOUS
 62
         7
100
AcDbLine
 10
1436.0553403763
 20
139.1846417294
 30
0.0
 11
1452.9033403763
 21
139.1846417294
 31
0.0
  0
LINE
  5
1A5
100
AcDbEntity
  8
L1_65
  6
CONTINUOUS
 62
         7
100
AcDbLine
 10
1441.4033403763
 20
161.1846417294
 30
0.0
 11
1441.4033403763
 21
139.1846417294
 31
0.0
  0
LINE
  5
1A6
100
AcDbEntity
  8
L1_65
  6
CONTINUOUS
 62
         4
100
AcDbLine
 10
1454.3175539386
 20
160.1846417294
 30
0.0
 11
1441.4033403763
 21
160.1846417294
 31
0.0
  0
LINE
  5
1A7
100
AcDbEntity
  8
L1_65
  6
CONTINUOUS
 62
         4
100
AcDbLine
 10
1454.3175539386
 20
140.1846417294
 30
0.0
 11
1441.4033403763
 21
140.1846417294
 31
0.0
  0
LINE
  5
1A8
100
AcDbEntity
  8
L1_65
  6
CONTINUOUS
 62
         7
100
AcDbLine
 10
1454.4033403763
 20
159.6846417294
 30
0.0
 11
1454.4033403763
 21
140.6846417294
 31
0.0
  0
ARC
  5
1A9
100
AcDbEntity
  8
L1_65
  6
CONTINUOUS
 62
         7
100
AcDbCircle
 10
1452.9033403763
 20
140.6846417294
 30
0.0
 40
1.5
100
AcDbArc
 50
270.0
 51
360.0
  0
ARC
  5
1AA
100
AcDbEntity
  8
L1_65
  6
CONTINUOUS
 62
         7
100
AcDbCircle
 10
1452.9033403763
 20
159.6846417294
 30
0.0
 40
1.5
100
AcDbArc
 50
0.0
 51
90.0
  0
DIMENSION
  5
1AD
100
AcDbEntity
  8
L1_65
  6
CONTINUOUS
 62
         4
100
AcDbDimension
  2
*D15
 10
1400.0033403763
 20
215.4872150424
 30
0.0
 11
1421.6168964293
 21
217.5122150424
 31
0.0
  3
DIMSTYLE1
100
AcDbAlignedDimension
 13
1400.0033403763
 23
172.4096417294
 33
0.0
 14
1454.4033403763
 24
150.1846417294
 34
0.0
100
AcDbRotatedDimension
  0
DIMENSION
  5
1BB
100
AcDbEntity
  8
L1_65
  6
CONTINUOUS
 62
         4
100
AcDbDimension
  2
*D16
 10
1331.7533403763
 20
221.8025952129
 30
0.0
 11
1396.6147316398
 21
223.8275952129
 31
0.0
  3
DIMSTYLE1
100
AcDbAlignedDimension
 13
1331.7533403763
 23
161.4188234458
 33
0.0
 14
1454.4033403763
 24
150.1846417294
 34
0.0
100
AcDbRotatedDimension
  0
LINE
  5
1C7
100
AcDbEntity
  8
L1_65
  6
CONTINUOUS
 62
         7
100
AcDbLine
 10
1403.2033403763
 20
180.9596417294
 30
0.0
 11
1403.2033403763
 21
119.4096417294
 31
0.0
  0
LINE
  5
1C8
100
AcDbEntity
  8
L1_65
  6
CENTER
 62
         1
100
AcDbLine
 10
1400.0033403763
 20
172.4096417294
 30
0.0
 11
1400.0033403763
 21
127.9596417294
 31
0.0
  0
LINE
  5
1C9
100
AcDbEntity
  8
L1_65
  6
CONTINUOUS
 62
         7
100
AcDbLine
 10
1331.7533403763
 20
161.4188234458
 30
0.0
 11
1331.7533403763
 21
138.9504600129
 31
0.0
  0
LINE
  5
1CA
100
AcDbEntity
  8
L1_65
  6
CONTINUOUS
 62
         7
100
AcDbLine
 10
1384.6082997218
 20
-7.8683347407
 30
0.0
 11
1432.4033403763
 21
-7.8683347407
 31
0.0
  0
LINE
  5
1CB
100
AcDbEntity
  8
L1_65
  6
CONTINUOUS
 62
         7
100
AcDbLine
 10
1384.6082997218
 20
-18.0183347407
 30
0.0
 11
1432.4033403763
 21
-18.0183347407
 31
0.0
  0
LINE
  5
1CC
100
AcDbEntity
  8
L1_65
  6
CONTINUOUS
 62
         7
100
AcDbLine
 10
1394.4033403763
 20
-7.3883347407
 30
0.0
 11
1394.4033403763
 21
-18.4983347407
 31
0.0
  0
DIMENSION
  5
1CF
100
AcDbEntity
  8
L1_65
  6
CONTINUOUS
 62
         4
100
AcDbDimension
  2
*D17
 10
1394.4033403763
 20
-58.0871826773
 30
0.0
 11
1419.2675626103
 21
-56.0621826773
 31
0.0
  3
DIMSTYLE1
100
AcDbAlignedDimension
 13
1394.4033403763
 23
-17.9433347407
 33
0.0
 14
1454.4033403763
 24
-22.9433347407
 34
0.0
100
AcDbRotatedDimension
  0
DIMENSION
  5
1DD
100
AcDbEntity
  8
L1_65
  6
CONTINUOUS
 62
         4
100
AcDbDimension
  2
*D18
 10
1432.4033403763
 20
-51.8587669525
 30
0.0
 11
1439.1409197234
 21
-49.8337669525
 31
0.0
  3
DIMSTYLE1
100
AcDbAlignedDimension
 13
1432.4033403763
 23
-18.7933347407
 33
0.0
 14
1454.4033403763
 24
-22.9433347407
 34
0.0
100
AcDbRotatedDimension
  0
LINE
  5
1E9
100
AcDbEntity
  8
L1_65
  6
CONTINUOUS
 62
         7
100
AcDbLine
 10
1432.4033403763
 20
-7.3383347407
 30
0.0
 11
1432.4033403763
 21
-18.5483347407
 31
0.0
  0
DIMENSION
  5
1EC
100
AcDbEntity
  8
L1_65
  6
CONTINUOUS
 62
         4
100
AcDbDimension
  2
*D19
 10
1479.475798815
 20
-20.7622468794
 30
0.0
 11
1477.450798815
 21
-3.9577091436
 31
0.0
  3
DIMSTYLE1
100
AcDbAlignedDimension
 13
1453.1121000277
 23
-20.7622468794
 33
0.0
 14
1453.1121000277
 24
-5.1244226019
 34
0.0
 50
90.0
100
AcDbRotatedDimension
  0
LINE
  5
1F9
100
AcDbEntity
  8
L1_65
  6
CONTINUOUS
 62
         7
100
AcDbLine
 10
1437.3592966277
 20
-7.3383347407
 30
0.0
 11
1453.1121000277
 21
-5.1244226019
 31
0.0
  0
ARC
  5
1FA
100
AcDbEntity
  8
L1_65
  6
CONTINUOUS
 62
         7
100
AcDbCircle
 10
1452.9033403763
 20
-3.6390204988
 30
0.0
 40
1.5
100
AcDbArc
 50
278.0
 51
360.0
  0
LINE
  5
1FB
100
AcDbEntity
  8
L1_65
  6
CONTINUOUS
 62
         4
100
AcDbLine
 10
1453.1121000277
 20
-20.7622468794
 30
0.0
 11
1453.1121000277
 21
-5.1244226019
 31
0.0
  0
LINE
  5
1FC
100
AcDbEntity
  8
L1_65
  6
CONTINUOUS
 62
         7
100
AcDbLine
 10
1437.3592966277
 20
-18.5483347407
 30
0.0
 11
1453.1121000277
 21
-20.7622468794
 31
0.0
  0
ARC
  5
1FD
100
AcDbEntity
  8
L1_65
  6
CONTINUOUS
 62
         7
100
AcDbCircle
 10
1452.9033403763
 20
-22.2476489825
 30
0.0
 40
1.5
100
AcDbArc
 50
0.0
 51
82.0
  0
ARC
  5
1FE
100
AcDbEntity
  8
_Y________
  6
CONTINUOUS
 62
         7
100
AcDbCircle
 10
1332.7533403763
 20
-3.7933347407
 30
0.0
 40
1.0
100
AcDbArc
 50
180.0
 51
270.0
  0
LINE
  5
1FF
100
AcDbEntity
  8
_Y________
  6
CONTINUOUS
 62
         7
100
AcDbLine
 10
1332.7533403763
 20
-4.7933347407
 30
0.0
 11
1335.5233403763
 21
-4.7933347407
 31
0.0
  0
ARC
  5
200
100
AcDbEntity
  8
_Y________
  6
CONTINUOUS
 62
         7
100
AcDbCircle
 10
1335.9228759565
 20
-4.8933347407
 30
0.0
 40
0.2
100
AcDbArc
 50
90.0
 51
105.0
  0
LINE
  5
201
100
AcDbEntity
  8
_Y________
  6
CONTINUOUS
 62
         7
100
AcDbLine
 10
1335.8711121475
 20
-4.7001495754
 30
0.0
 11
1335.5233403763
 21
-4.7933347407
 31
0.0
  0
LINE
  5
202
100
AcDbEntity
  8
_Y________
  6
CONTINUOUS
 62
         7
100
AcDbLine
 10
1335.9228759565
 20
-4.6933347407
 30
0.0
 11
1336.3233403763
 21
-4.6933347407
 31
0.0
  0
LINE
  5
203
100
AcDbEntity
  8
_Y________
  6
CONTINUOUS
 62
         7
100
AcDbLine
 10
1336.4647617325
 20
-4.7519133844
 30
0.0
 11
1337.6561830887
 21
-5.9433347407
 31
0.0
  0
ARC
  5
204
100
AcDbEntity
  8
_Y________
  6
CONTINUOUS
 62
         7
100
AcDbCircle
 10
1336.3233403763
 20
-4.8933347407
 30
0.0
 40
0.2
100
AcDbArc
 50
45.0000000038
 51
90.0
  0
LINE
  5
205
100
AcDbEntity
  8
_Y________
  6
CONTINUOUS
 62
         7
100
AcDbLine
 10
1336.5233403763
 20
-5.1498119
 30
0.0
 11
1336.5233403763
 21
-20.6220880762
 31
0.0
  0
LINE
  5
206
100
AcDbEntity
  8
_Y________
  6
CONTINUOUS
 62
         7
100
AcDbLine
 10
1335.5233403763
 20
-4.7933347407
 30
0.0
 11
1335.5233403763
 21
-21.0933347407
 31
0.0
  0
LINE
  5
207
100
AcDbEntity
  8
_Y________
  6
CONTINUOUS
 62
         5
100
AcDbLine
 10
1336.6561830887
 20
-4.9433347407
 30
0.0
 11
1360.2033403763
 21
-4.9433347407
 31
0.0
  0
LINE
  5
208
100
AcDbEntity
  8
_Y________
  6
CONTINUOUS
 62
         7
100
AcDbLine
 10
1337.6561830887
 20
-5.9433347407
 30
0.0
 11
1360.2033403763
 21
-5.9433347407
 31
0.0
  0
LINE
  5
209
100
AcDbEntity
  8
_Y________
  6
CONTINUOUS
 62
         7
100
AcDbLine
 10
1337.6561830887
 20
-5.9433347407
 30
0.0
 11
1337.6561830887
 21
-19.9433347407
 31
0.0
  0
LINE
  5
20A
100
AcDbEntity
  8
_Y________
  6
CONTINUOUS
 62
         7
100
AcDbLine
 10
1337.6561830887
 20
-19.9433347407
 30
0.0
 11
1360.2033403763
 21
-19.9433347407
 31
0.0
  0
LINE
  5
20B
100
AcDbEntity
  8
_Y________
  6
CONTINUOUS
 62
         7
100
AcDbLine
 10
1336.4647617325
 20
-21.1347560969
 30
0.0
 11
1337.6561830887
 21
-19.9433347407
 31
0.0
  0
ARC
  5
20C
100
AcDbEntity
  8
_Y________
  6
CONTINUOUS
 62
         7
100
AcDbCircle
 10
1336.3233403763
 20
-20.9933347407
 30
0.0
 40
0.2
100
AcDbArc
 50
270.0
 51
314.9999999962
  0
LINE
  5
20D
100
AcDbEntity
  8
_Y________
  6
CONTINUOUS
 62
         7
100
AcDbLine
 10
1335.9228759565
 20
-21.1933347407
 30
0.0
 11
1336.3233403763
 21
-21.1933347407
 31
0.0
  0
LINE
  5
20E
100
AcDbEntity
  8
_Y________
  6
CONTINUOUS
 62
         7
100
AcDbLine
 10
1335.8711121475
 20
-21.1865199059
 30
0.0
 11
1335.5233403763
 21
-21.0933347407
 31
0.0
  0
LINE
  5
20F
100
AcDbEntity
  8
_Y________
  6
CONTINUOUS
 62
         7
100
AcDbLine
 10
1332.7533403763
 20
-21.0933347407
 30
0.0
 11
1335.5233403763
 21
-21.0933347407
 31
0.0
  0
ARC
  5
210
100
AcDbEntity
  8
_Y________
  6
CONTINUOUS
 62
         7
100
AcDbCircle
 10
1332.7533403763
 20
-22.0933347407
 30
0.0
 40
1.0
100
AcDbArc
 50
90.0
 51
180.0
  0
LINE
  5
211
100
AcDbEntity
  8
_Y________
  6
CONTINUOUS
 62
         5
100
AcDbLine
 10
1336.6561830887
 20
-20.9433347407
 30
0.0
 11
1360.2033403763
 21
-20.9433347407
 31
0.0
  0
LINE
  5
212
100
AcDbEntity
  8
_Y________
  6
CONTINUOUS
 62
         7
100
AcDbLine
 10
1360.2033403763
 20
-4.9433347407
 30
0.0
 11
1360.2033403763
 21
-20.9433347407
 31
0.0
  0
ARC
  5
213
100
AcDbEntity
  8
_Y________
  6
CONTINUOUS
 62
         7
100
AcDbCircle
 10
1332.9533403763
 20
-24.1775164571
 30
0.0
 40
1.2
100
AcDbArc
 50
180.0
 51
261.7028550302
  0
ARC
  5
214
100
AcDbEntity
  8
_Y________
  6
CONTINUOUS
 62
         7
100
AcDbCircle
 10
1332.9533403763
 20
-1.7091530242
 30
0.0
 40
1.2
100
AcDbArc
 50
98.2971449698
 51
180.0
  0
LINE
  5
215
100
AcDbEntity
  8
_Y________
  6
CONTINUOUS
 62
         7
100
AcDbLine
 10
1331.7533403763
 20
-1.7091530242
 30
0.0
 11
1331.7533403763
 21
-24.1775164571
 31
0.0
  0
ARC
  5
216
100
AcDbEntity
  8
_Y________
  6
CONTINUOUS
 62
         7
100
AcDbCircle
 10
1332.9533403763
 20
138.9504600129
 30
0.0
 40
1.2
100
AcDbArc
 50
180.0
 51
261.7028550302
  0
ARC
  5
217
100
AcDbEntity
  8
_Y________
  6
CONTINUOUS
 62
         7
100
AcDbCircle
 10
1332.9533403763
 20
161.4188234458
 30
0.0
 40
1.2
100
AcDbArc
 50
98.2971449698
 51
180.0
  0
LINE
  5
218
100
AcDbEntity
  8
_Y________
  6
CONTINUOUS
 62
         7
100
AcDbLine
 10
1331.7533403763
 20
161.4188234458
 30
0.0
 11
1331.7533403763
 21
138.9504600129
 31
0.0
  0
LINE
  5
219
100
AcDbEntity
  8
_Y________
  6
CONTINUOUS
 62
         7
100
AcDbLine
 10
1192.1233403763
 20
142.6346417294
 30
0.0
 11
1192.1233403763
 21
157.7346417294
 31
0.0
  0
LINE
  5
21A
100
AcDbEntity
  8
_Y________
  6
CONTINUOUS
 62
         7
100
AcDbLine
 10
1192.1233403763
 20
142.6346417294
 30
0.0
 11
1191.6233403763
 21
142.1346417294
 31
0.0
  0
LINE
  5
21B
100
AcDbEntity
  8
_Y________
  6
CONTINUOUS
 62
         7
100
AcDbLine
 10
1191.6233403763
 20
142.1346417294
 30
0.0
 11
1184.6849584247
 21
142.1346417294
 31
0.0
  0
LINE
  5
21C
100
AcDbEntity
  8
_Y________
  6
CONTINUOUS
 62
         7
100
AcDbLine
 10
1184.2908731435
 20
141.7405564482
 30
0.0
 11
1184.6849584247
 21
142.1346417294
 31
0.0
  0
LINE
  5
21D
100
AcDbEntity
  8
_Y________
  6
CONTINUOUS
 62
         7
100
AcDbLine
 10
1191.6233403763
 20
158.2346417294
 30
0.0
 11
1184.6849584247
 21
158.2346417294
 31
0.0
  0
LINE
  5
21E
100
AcDbEntity
  8
_Y________
  6
CONTINUOUS
 62
         7
100
AcDbLine
 10
1192.1233403763
 20
157.7346417294
 30
0.0
 11
1191.6233403763
 21
158.2346417294
 31
0.0
  0
LINE
  5
21F
100
AcDbEntity
  8
_Y________
  6
CONTINUOUS
 62
         7
100
AcDbLine
 10
1184.2908731435
 20
158.6287270106
 30
0.0
 11
1184.6849584247
 21
158.2346417294
 31
0.0
  0
LINE
  5
220
100
AcDbEntity
  8
_Y________
  6
CONTINUOUS
 62
         7
100
AcDbLine
 10
1245.1617223278
 20
142.1346417294
 30
0.0
 11
1240.4233403763
 21
142.1346417294
 31
0.0
  0
LINE
  5
221
100
AcDbEntity
  8
_Y________
  6
CONTINUOUS
 62
         7
100
AcDbLine
 10
1239.9233403763
 20
142.6346417294
 30
0.0
 11
1239.9233403763
 21
157.7346417294
 31
0.0
  0
LINE
  5
222
100
AcDbEntity
  8
_Y________
  6
CONTINUOUS
 62
         7
100
AcDbLine
 10
1239.9233403763
 20
142.6346417294
 30
0.0
 11
1240.4233403763
 21
142.1346417294
 31
0.0
  0
LINE
  5
223
100
AcDbEntity
  8
_Y________
  6
CONTINUOUS
 62
         7
100
AcDbLine
 10
1245.555807609
 20
141.7405564482
 30
0.0
 11
1245.1617223278
 21
142.1346417294
 31
0.0
  0
LINE
  5
224
100
AcDbEntity
  8
_Y________
  6
CONTINUOUS
 62
         7
100
AcDbLine
 10
1239.9233403763
 20
157.7346417294
 30
0.0
 11
1240.4233403763
 21
158.2346417294
 31
0.0
  0
LINE
  5
225
100
AcDbEntity
  8
_Y________
  6
CONTINUOUS
 62
         7
100
AcDbLine
 10
1245.555807609
 20
158.6287270106
 30
0.0
 11
1245.1617223278
 21
158.2346417294
 31
0.0
  0
LINE
  5
226
100
AcDbEntity
  8
_Y________
  6
CONTINUOUS
 62
         7
100
AcDbLine
 10
1245.1617223278
 20
158.2346417294
 30
0.0
 11
1240.4233403763
 21
158.2346417294
 31
0.0
  0
CIRCLE
  5
227
100
AcDbEntity
  8
_Y________
  6
CONTINUOUS
 62
         7
100
AcDbCircle
 10
1214.9233403763
 20
150.1846417294
 30
0.0
 40
22.225
  0
CIRCLE
  5
228
100
AcDbEntity
  8
_Y________
  6
CONTINUOUS
 62
         7
100
AcDbCircle
 10
1214.9233403763
 20
150.1846417294
 30
0.0
 40
8.5
  0
CIRCLE
  5
229
100
AcDbEntity
  8
_Y________
  6
CONTINUOUS
 62
         7
100
AcDbCircle
 10
1214.9233403763
 20
150.1846417294
 30
0.0
 40
9.5
  0
ARC
  5
22A
100
AcDbEntity
  8
_Y________
  6
CONTINUOUS
 62
         5
100
AcDbCircle
 10
1214.9233403763
 20
150.1846417294
 30
0.0
 40
8.0
100
AcDbArc
 50
352.9901372228
 51
621.2264515101
  0
CIRCLE
  5
22B
100
AcDbEntity
  8
_Y________
  6
CONTINUOUS
 62
         7
100
AcDbCircle
 10
1214.9233403763
 20
150.1846417294
 30
0.0
 40
7.0
  0
CIRCLE
  5
22C
100
AcDbEntity
  8
_Y________
  6
CONTINUOUS
 62
         7
100
AcDbCircle
 10
1214.9233403763
 20
150.1846417294
 30
0.0
 40
12.7165768873
  0
LINE
  5
22D
100
AcDbEntity
  8
_Y________
  6
CENTER
 62
         1
100
AcDbLine
 10
1214.9233403763
 20
114.5732894966
 30
0.0
 11
1214.9233403763
 21
185.4173498279
 31
0.0
  0
ARC
  5
22E
100
AcDbEntity
  8
_Y________
  6
CONTINUOUS
 62
         7
100
AcDbCircle
 10
1214.9233403763
 20
150.1846417294
 30
0.0
 40
31.775
100
AcDbArc
 50
15.411296411
 51
164.588703589
  0
ARC
  5
22F
100
AcDbEntity
  8
_Y________
  6
CONTINUOUS
 62
         7
100
AcDbCircle
 10
1214.9233403763
 20
150.1846417294
 30
0.0
 40
31.775
100
AcDbArc
 50
195.411296411
 51
344.588703589
  0
LINE
  5
230
100
AcDbEntity
  8
_Y________
  6
CENTER
 62
         1
100
AcDbLine
 10
1183.1483403763
 20
150.1846417294
 30
0.0
 11
1246.6983403763
 21
150.1846417294
 31
0.0
  0
LINE
  5
231
100
AcDbEntity
  8
_Y________
  6
CENTER
 62
         1
100
AcDbLine
 10
1596.790952795
 20
150.1846417294
 30
0.0
 11
1650.7694097755
 21
150.1846417294
 31
0.0
  0
LINE
  5
232
100
AcDbEntity
  8
_Y________
  6
CONTINUOUS
 62
         7
100
AcDbLine
 10
1593.0449584247
 20
142.1346417294
 30
0.0
 11
1597.7833403762
 21
142.1346417294
 31
0.0
  0
LINE
  5
233
100
AcDbEntity
  8
_Y________
  6
CONTINUOUS
 62
         7
100
AcDbLine
 10
1592.6508731435
 20
141.7405564482
 30
0.0
 11
1593.0449584247
 21
142.1346417294
 31
0.0
  0
LINE
  5
234
100
AcDbEntity
  8
_Y________
  6
CONTINUOUS
 62
         7
100
AcDbLine
 10
1598.2833403762
 20
142.6346417294
 30
0.0
 11
1597.7833403762
 21
142.1346417294
 31
0.0
  0
LINE
  5
235
100
AcDbEntity
  8
_Y________
  6
CONTINUOUS
 62
         7
100
AcDbLine
 10
1592.6508731435
 20
158.6287270106
 30
0.0
 11
1593.0449584247
 21
158.2346417294
 31
0.0
  0
LINE
  5
236
100
AcDbEntity
  8
_Y________
  6
CONTINUOUS
 62
         7
100
AcDbLine
 10
1598.2833403762
 20
157.7346417294
 30
0.0
 11
1597.7833403762
 21
158.2346417294
 31
0.0
  0
LINE
  5
237
100
AcDbEntity
  8
_Y________
  6
CONTINUOUS
 62
         7
100
AcDbLine
 10
1598.2833403762
 20
157.7346417294
 30
0.0
 11
1598.2833403762
 21
142.6346417294
 31
0.0
  0
LINE
  5
238
100
AcDbEntity
  8
_Y________
  6
CONTINUOUS
 62
         7
100
AcDbLine
 10
1593.0449584247
 20
158.2346417294
 30
0.0
 11
1597.7833403762
 21
158.2346417294
 31
0.0
  0
LINE
  5
239
100
AcDbEntity
  8
_Y________
  6
CONTINUOUS
 62
         7
100
AcDbLine
 10
1653.915807609
 20
141.7405564482
 30
0.0
 11
1653.5217223278
 21
142.1346417294
 31
0.0
  0
LINE
  5
23A
100
AcDbEntity
  8
_Y________
  6
CONTINUOUS
 62
         7
100
AcDbLine
 10
1646.0833403763
 20
142.6346417294
 30
0.0
 11
1646.5833403763
 21
142.1346417294
 31
0.0
  0
LINE
  5
23B
100
AcDbEntity
  8
_Y________
  6
CONTINUOUS
 62
         7
100
AcDbLine
 10
1646.5833403763
 20
142.1346417294
 30
0.0
 11
1653.5217223278
 21
142.1346417294
 31
0.0
  0
LINE
  5
23C
100
AcDbEntity
  8
_Y________
  6
CONTINUOUS
 62
         7
100
AcDbLine
 10
1653.915807609
 20
158.6287270106
 30
0.0
 11
1653.5217223278
 21
158.2346417294
 31
0.0
  0
LINE
  5
23D
100
AcDbEntity
  8
_Y________
  6
CONTINUOUS
 62
         7
100
AcDbLine
 10
1646.5833403763
 20
158.2346417294
 30
0.0
 11
1653.5217223278
 21
158.2346417294
 31
0.0
  0
LINE
  5
23E
100
AcDbEntity
  8
_Y________
  6
CONTINUOUS
 62
         7
100
AcDbLine
 10
1646.0833403763
 20
157.7346417294
 30
0.0
 11
1646.5833403763
 21
158.2346417294
 31
0.0
  0
LINE
  5
23F
100
AcDbEntity
  8
_Y________
  6
CONTINUOUS
 62
         7
100
AcDbLine
 10
1646.0833403763
 20
157.7346417294
 30
0.0
 11
1646.0833403763
 21
142.6346417294
 31
0.0
  0
ARC
  5
240
100
AcDbEntity
  8
_Y________
  6
DASHED
 62
         2
100
AcDbCircle
 10
1623.2833403763
 20
150.1846417294
 30
0.0
 40
28.125
100
AcDbArc
 50
198.3406919436
 51
343.3680794645
  0
ARC
  5
241
100
AcDbEntity
  8
_Y________
  6
DASHED
 62
         2
100
AcDbCircle
 10
1623.2833403763
 20
150.1846417294
 30
0.0
 40
28.125
100
AcDbArc
 50
16.6319205355
 51
163.3680794645
  0
LINE
  5
242
100
AcDbEntity
  8
_Y________
  6
CENTER
 62
         1
100
AcDbLine
 10
1623.2833403763
 20
184.9596417294
 30
0.0
 11
1623.2833403763
 21
115.4096417294
 31
0.0
  0
ARC
  5
243
100
AcDbEntity
  8
_Y________
  6
CONTINUOUS
 62
         7
100
AcDbCircle
 10
1623.2833403763
 20
150.1846417294
 30
0.0
 40
31.775
100
AcDbArc
 50
15.411296411
 51
164.588703589
  0
ARC
  5
244
100
AcDbEntity
  8
_Y________
  6
CONTINUOUS
 62
         7
100
AcDbCircle
 10
1623.2833403763
 20
150.1846417294
 30
0.0
 40
31.775
100
AcDbArc
 50
195.411296411
 51
344.588703589
  0
LINE
  5
245
100
AcDbEntity
  8
_Y________
  6
CONTINUOUS
 62
         7
100
AcDbLine
 10
1407.5670699775
 20
181.9596417294
 30
0.0
 11
1407.5670699775
 21
159.0346417294
 31
0.0
  0
LINE
  5
246
100
AcDbEntity
  8
_Y________
  6
CONTINUOUS
 62
         7
100
AcDbLine
 10
1409.2283403763
 20
179.0822369936
 30
0.0
 11
1409.2283403763
 21
158.2346417294
 31
0.0
  0
LINE
  5
247
100
AcDbEntity
  8
_Y________
  6
CONTINUOUS
 62
         7
100
AcDbLine
 10
1412.9783403763
 20
179.0822369936
 30
0.0
 11
1412.9783403763
 21
158.2346417294
 31
0.0
  0
LINE
  5
248
100
AcDbEntity
  8
_Y________
  6
CONTINUOUS
 62
         7
100
AcDbLine
 10
1414.639610775
 20
181.9596417294
 30
0.0
 11
1414.639610775
 21
159.0346417294
 31
0.0
  0
LINE
  5
249
100
AcDbEntity
  8
_Y________
  6
CONTINUOUS
 62
         7
100
AcDbLine
 10
1418.3033403763
 20
158.2346417294
 30
0.0
 11
1404.0033403763
 21
158.2346417294
 31
0.0
  0
LINE
  5
24A
100
AcDbEntity
  8
_Y________
  6
CONTINUOUS
 62
         7
100
AcDbLine
 10
1418.3033403763
 20
142.1346417294
 30
0.0
 11
1404.0033403763
 21
142.1346417294
 31
0.0
  0
LINE
  5
24B
100
AcDbEntity
  8
_Y________
  6
CONTINUOUS
 62
         7
100
AcDbLine
 10
1407.5670699775
 20
159.0346417294
 30
0.0
 11
1409.2283403763
 21
158.2346417294
 31
0.0
  0
LINE
  5
24C
100
AcDbEntity
  8
_Y________
  6
CONTINUOUS
 62
         7
100
AcDbLine
 10
1407.5670699775
 20
141.3346417294
 30
0.0
 11
1409.2283403763
 21
142.1346417294
 31
0.0
  0
LINE
  5
24D
100
AcDbEntity
  8
_Y________
  6
CONTINUOUS
 62
         7
100
AcDbLine
 10
1404.0033403763
 20
158.2346417294
 30
0.0
 11
1404.0033403763
 21
142.1346417294
 31
0.0
  0
LINE
  5
24E
100
AcDbEntity
  8
_Y________
  6
CONTINUOUS
 62
         7
100
AcDbLine
 10
1407.5670699775
 20
141.3346417294
 30
0.0
 11
1403.2033403763
 21
141.3346417294
 31
0.0
  0
LINE
  5
24F
100
AcDbEntity
  8
_Y________
  6
CONTINUOUS
 62
         7
100
AcDbLine
 10
1404.0033403763
 20
142.1346417294
 30
0.0
 11
1403.2033403763
 21
141.3346417294
 31
0.0
  0
LINE
  5
250
100
AcDbEntity
  8
_Y________
  6
CONTINUOUS
 62
         7
100
AcDbLine
 10
1403.2033403763
 20
159.0346417294
 30
0.0
 11
1404.0033403763
 21
158.2346417294
 31
0.0
  0
LINE
  5
251
100
AcDbEntity
  8
_Y________
  6
CONTINUOUS
 62
         7
100
AcDbLine
 10
1407.5670699775
 20
159.0346417294
 30
0.0
 11
1403.2033403763
 21
159.0346417294
 31
0.0
  0
LINE
  5
252
100
AcDbEntity
  8
_Y________
  6
CONTINUOUS
 62
         7
100
AcDbLine
 10
1418.3033403763
 20
158.2346417294
 30
0.0
 11
1418.3033403763
 21
142.1346417294
 31
0.0
  0
LINE
  5
253
100
AcDbEntity
  8
_Y________
  6
CONTINUOUS
 62
         7
100
AcDbLine
 10
1419.1033403763
 20
141.3346417294
 30
0.0
 11
1414.639610775
 21
141.3346417294
 31
0.0
  0
LINE
  5
254
100
AcDbEntity
  8
_Y________
  6
CONTINUOUS
 62
         7
100
AcDbLine
 10
1418.3033403763
 20
142.1346417294
 30
0.0
 11
1419.1033403763
 21
141.3346417294
 31
0.0
  0
LINE
  5
255
100
AcDbEntity
  8
_Y________
  6
CONTINUOUS
 62
         7
100
AcDbLine
 10
1412.9783403763
 20
142.1346417294
 30
0.0
 11
1414.639610775
 21
141.3346417294
 31
0.0
  0
LINE
  5
256
100
AcDbEntity
  8
_Y________
  6
CONTINUOUS
 62
         7
100
AcDbLine
 10
1419.1033403763
 20
159.0346417294
 30
0.0
 11
1418.3033403763
 21
158.2346417294
 31
0.0
  0
LINE
  5
257
100
AcDbEntity
  8
_Y________
  6
CONTINUOUS
 62
         7
100
AcDbLine
 10
1412.9783403763
 20
158.2346417294
 30
0.0
 11
1414.639610775
 21
159.0346417294
 31
0.0
  0
LINE
  5
258
100
AcDbEntity
  8
_Y________
  6
CONTINUOUS
 62
         7
100
AcDbLine
 10
1419.1033403763
 20
159.0346417294
 30
0.0
 11
1414.639610775
 21
159.0346417294
 31
0.0
  0
LINE
  5
259
100
AcDbEntity
  8
_Y________
  6
CONTINUOUS
 62
         7
100
AcDbLine
 10
1407.5670699775
 20
141.3346417294
 30
0.0
 11
1407.5670699775
 21
118.4096417294
 31
0.0
  0
LINE
  5
25A
100
AcDbEntity
  8
_Y________
  6
CONTINUOUS
 62
         7
100
AcDbLine
 10
1409.2283403763
 20
142.1346417294
 30
0.0
 11
1409.2283403763
 21
121.2870464652
 31
0.0
  0
LINE
  5
25B
100
AcDbEntity
  8
_Y________
  6
CONTINUOUS
 62
         7
100
AcDbLine
 10
1412.9783403763
 20
142.1346417294
 30
0.0
 11
1412.9783403763
 21
121.2870464652
 31
0.0
  0
LINE
  5
25C
100
AcDbEntity
  8
_Y________
  6
CONTINUOUS
 62
         7
100
AcDbLine
 10
1414.639610775
 20
141.3346417294
 30
0.0
 11
1414.639610775
 21
118.4096417294
 31
0.0
  0
CIRCLE
  5
25D
100
AcDbEntity
  8
_Y________
  6
CONTINUOUS
 62
         7
100
AcDbCircle
 10
1623.2833403763
 20
150.1846417294
 30
0.0
 40
22.225
  0
LINE
  5
25E
100
AcDbEntity
  8
_Y________
  6
CONTINUOUS
 62
         7
100
AcDbLine
 10
1414.639610775
 20
-44.7183347409
 30
0.0
 11
1418.1033403763
 21
-44.7183347409
 31
0.0
  0
LINE
  5
25F
100
AcDbEntity
  8
_Y________
  6
CONTINUOUS
 62
         7
100
AcDbLine
 10
1412.9783403763
 20
-41.8409300049
 30
0.0
 11
1414.639610775
 21
-44.7183347407
 31
0.0
  0
ARC
  5
260
100
AcDbEntity
  8
_Y________
  6
CONTINUOUS
 62
         7
100
AcDbCircle
 10
1412.0045400445
 20
-42.0683347409
 30
0.0
 40
1.0
100
AcDbArc
 50
13.1443256895
 51
90.0
  0
LINE
  5
261
100
AcDbEntity
  8
_Y________
  6
CONTINUOUS
 62
         7
100
AcDbLine
 10
1410.202140708
 20
-41.0683347407
 30
0.0
 11
1412.0045400445
 21
-41.0683347407
 31
0.0
  0
ARC
  5
262
100
AcDbEntity
  8
_Y________
  6
CONTINUOUS
 62
         7
100
AcDbCircle
 10
1410.202140708
 20
-42.0683347407
 30
0.0
 40
1.0
100
AcDbArc
 50
90.0
 51
166.8556743105
  0
LINE
  5
263
100
AcDbEntity
  8
_Y________
  6
CONTINUOUS
 62
         7
100
AcDbLine
 10
1409.2283403763
 20
-41.8409300049
 30
0.0
 11
1407.5670699775
 21
-44.7183347407
 31
0.0
  0
LINE
  5
264
100
AcDbEntity
  8
_Y________
  6
CONTINUOUS
 62
         7
100
AcDbLine
 10
1403.2033403763
 20
-35.7433347409
 30
0.0
 11
1403.2033403763
 21
-43.7183347409
 31
0.0
  0
LINE
  5
265
100
AcDbEntity
  8
_Y________
  6
CONTINUOUS
 62
         7
100
AcDbLine
 10
1404.2033403763
 20
-44.7183347409
 30
0.0
 11
1407.5670699775
 21
-44.7183347409
 31
0.0
  0
ARC
  5
266
100
AcDbEntity
  8
_Y________
  6
CONTINUOUS
 62
         7
100
AcDbCircle
 10
1402.6033403763
 20
-35.7433347407
 30
0.0
 40
0.6
100
AcDbArc
 50
0.0
 51
90.0
  0
LINE
  5
267
100
AcDbEntity
  8
_Y________
  6
CONTINUOUS
 62
         7
100
AcDbLine
 10
1401.9497505378
 20
-35.1433347407
 30
0.0
 11
1402.6033403763
 21
-35.1433347407
 31
0.0
  0
LINE
  5
268
100
AcDbEntity
  8
_Y________
  6
CONTINUOUS
 62
         7
100
AcDbLine
 10
1401.2033403763
 20
-35.3433347409
 30
0.0
 11
1401.9497505378
 21
-35.1433347409
 31
0.0
  0
LINE
  5
269
100
AcDbEntity
  8
_Y________
  6
CENTER
 62
         1
100
AcDbLine
 10
1328.5556074009
 20
-12.9433347407
 30
0.0
 11
1419.1033403763
 21
-12.9433347407
 31
0.0
  0
LINE
  5
26A
100
AcDbEntity
  8
_Y________
  6
CONTINUOUS
 62
         7
100
AcDbLine
 10
1332.6301721046
 20
-25.3430810344
 30
0.0
 11
1401.2033403767
 21
-35.3433347407
 31
0.0
  0
LINE
  5
26B
100
AcDbEntity
  8
_Y________
  6
CONTINUOUS
 62
         7
100
AcDbLine
 10
1401.2033403763
 20
9.4566652593
 30
0.0
 11
1401.9497505378
 21
9.2566652593
 31
0.0
  0
LINE
  5
26C
100
AcDbEntity
  8
_Y________
  6
CONTINUOUS
 62
         7
100
AcDbLine
 10
1332.6301721046
 20
-0.543588447
 30
0.0
 11
1401.2033403763
 21
9.4566652593
 31
0.0
  0
LINE
  5
26D
100
AcDbEntity
  8
_Y________
  6
CONTINUOUS
 62
         7
100
AcDbLine
 10
1401.9497505378
 20
9.2566652593
 30
0.0
 11
1402.6033403763
 21
9.2566652593
 31
0.0
  0
ARC
  5
26E
100
AcDbEntity
  8
_Y________
  6
CONTINUOUS
 62
         7
100
AcDbCircle
 10
1402.6033403763
 20
9.8566652593
 30
0.0
 40
0.6
100
AcDbArc
 50
270.0
 51
360.0
  0
LINE
  5
26F
100
AcDbEntity
  8
_Y________
  6
CONTINUOUS
 62
         7
100
AcDbLine
 10
1403.2033403763
 20
9.8566652593
 30
0.0
 11
1403.2033403763
 21
17.8316652595
 31
0.0
  0
LINE
  5
270
100
AcDbEntity
  8
_Y________
  6
CONTINUOUS
 62
         7
100
AcDbLine
 10
1404.2033403763
 20
18.8316652595
 30
0.0
 11
1407.5670699775
 21
18.8316652595
 31
0.0
  0
LINE
  5
271
100
AcDbEntity
  8
_Y________
  6
CONTINUOUS
 62
         7
100
AcDbLine
 10
1409.2283403763
 20
15.9542605235
 30
0.0
 11
1407.5670699775
 21
18.8316652593
 31
0.0
  0
ARC
  5
272
100
AcDbEntity
  8
_Y________
  6
CONTINUOUS
 62
         7
100
AcDbCircle
 10
1410.202140708
 20
16.1816652595
 30
0.0
 40
1.0
100
AcDbArc
 50
193.1443256895
 51
270.0
  0
LINE
  5
273
100
AcDbEntity
  8
_Y________
  6
CONTINUOUS
 62
         7
100
AcDbLine
 10
1410.202140708
 20
15.1816652595
 30
0.0
 11
1412.0045400445
 21
15.1816652595
 31
0.0
  0
ARC
  5
274
100
AcDbEntity
  8
_Y________
  6
CONTINUOUS
 62
         7
100
AcDbCircle
 10
1412.0045400445
 20
16.1816652595
 30
0.0
 40
1.0
100
AcDbArc
 50
270.0
 51
346.8556743105
  0
LINE
  5
275
100
AcDbEntity
  8
_Y________
  6
CONTINUOUS
 62
         7
100
AcDbLine
 10
1412.9783403763
 20
15.9542605237
 30
0.0
 11
1414.639610775
 21
18.8316652595
 31
0.0
  0
LINE
  5
276
100
AcDbEntity
  8
_Y________
  6
CONTINUOUS
 62
         7
100
AcDbLine
 10
1414.639610775
 20
18.8316652595
 30
0.0
 11
1418.1033403763
 21
18.8316652595
 31
0.0
  0
LINE
  5
277
100
AcDbEntity
  8
_Y________
  6
CONTINUOUS
 62
         7
100
AcDbLine
 10
1409.2283403763
 20
179.0822369936
 30
0.0
 11
1407.5670699775
 21
181.9596417294
 31
0.0
  0
LINE
  5
278
100
AcDbEntity
  8
_Y________
  6
CONTINUOUS
 62
         7
100
AcDbLine
 10
1409.2283403763
 20
121.2870464652
 30
0.0
 11
1407.5670699775
 21
118.4096417294
 31
0.0
  0
LINE
  5
279
100
AcDbEntity
  8
_Y________
  6
CONTINUOUS
 62
         7
100
AcDbLine
 10
1403.2033403763
 20
180.9596417294
 30
0.0
 11
1403.2033403763
 21
119.4096417294
 31
0.0
  0
LINE
  5
27A
100
AcDbEntity
  8
_Y________
  6
CENTER
 62
         1
100
AcDbLine
 10
1400.0033403763
 20
172.4096417294
 30
0.0
 11
1400.0033403763
 21
127.9596417294
 31
0.0
  0
LINE
  5
27B
100
AcDbEntity
  8
_Y________
  6
CONTINUOUS
 62
         7
100
AcDbLine
 10
1404.2033403763
 20
118.4096417294
 30
0.0
 11
1407.5670699775
 21
118.4096417294
 31
0.0
  0
LINE
  5
27C
100
AcDbEntity
  8
_Y________
  6
CONTINUOUS
 62
         7
100
AcDbLine
 10
1404.2033403763
 20
181.9596417294
 30
0.0
 11
1407.5670699775
 21
181.9596417294
 31
0.0
  0
LINE
  5
27D
100
AcDbEntity
  8
_Y________
  6
CONTINUOUS
 62
         7
100
AcDbLine
 10
1419.1033403763
 20
180.9596417294
 30
0.0
 11
1419.1033403763
 21
119.4096417294
 31
0.0
  0
LINE
  5
27E
100
AcDbEntity
  8
_Y________
  6
CONTINUOUS
 62
         7
100
AcDbLine
 10
1419.1033403763
 20
180.9596417294
 30
0.0
 11
1419.1033403763
 21
169.1846417294
 31
0.0
  0
LINE
  5
27F
100
AcDbEntity
  8
_Y________
  6
CONTINUOUS
 62
         7
100
AcDbLine
 10
1410.202140708
 20
122.0596417294
 30
0.0
 11
1412.0045400445
 21
122.0596417294
 31
0.0
  0
ARC
  5
280
100
AcDbEntity
  8
_Y________
  6
CONTINUOUS
 62
         7
100
AcDbCircle
 10
1410.202140708
 20
121.0596417294
 30
0.0
 40
1.0
100
AcDbArc
 50
90.0
 51
166.8556743105
  0
LINE
  5
281
100
AcDbEntity
  8
_Y________
  6
CONTINUOUS
 62
         7
100
AcDbLine
 10
1412.9783403763
 20
121.2870464652
 30
0.0
 11
1414.639610775
 21
118.4096417294
 31
0.0
  0
ARC
  5
282
100
AcDbEntity
  8
_Y________
  6
CONTINUOUS
 62
         7
100
AcDbCircle
 10
1412.0045400445
 20
121.0596417294
 30
0.0
 40
1.0
100
AcDbArc
 50
13.1443256895
 51
90.0
  0
LINE
  5
283
100
AcDbEntity
  8
_Y________
  6
CONTINUOUS
 62
         7
100
AcDbLine
 10
1414.639610775
 20
118.4096417294
 30
0.0
 11
1418.1033403763
 21
118.4096417294
 31
0.0
  0
LINE
  5
284
100
AcDbEntity
  8
_Y________
  6
CONTINUOUS
 62
         7
100
AcDbLine
 10
1412.9783403763
 20
179.0822369936
 30
0.0
 11
1414.639610775
 21
181.9596417294
 31
0.0
  0
LINE
  5
285
100
AcDbEntity
  8
_Y________
  6
CONTINUOUS
 62
         7
100
AcDbLine
 10
1414.639610775
 20
181.9596417294
 30
0.0
 11
1418.1033403763
 21
181.9596417294
 31
0.0
  0
LINE
  5
286
100
AcDbEntity
  8
_Y________
  6
CONTINUOUS
 62
         7
100
AcDbLine
 10
1410.202140708
 20
178.3096417294
 30
0.0
 11
1412.0045400445
 21
178.3096417294
 31
0.0
  0
ARC
  5
287
100
AcDbEntity
  8
_Y________
  6
CONTINUOUS
 62
         7
100
AcDbCircle
 10
1410.202140708
 20
179.3096417294
 30
0.0
 40
1.0
100
AcDbArc
 50
193.1443256895
 51
270.0
  0
ARC
  5
288
100
AcDbEntity
  8
_Y________
  6
CONTINUOUS
 62
         7
100
AcDbCircle
 10
1412.0045400445
 20
179.3096417294
 30
0.0
 40
1.0
100
AcDbArc
 50
270.0
 51
346.8556743105
  0
LINE
  5
289
100
AcDbEntity
  8
_Y________
  6
CENTER
 62
         1
100
AcDbLine
 10
1411.1033403763
 20
187.6899050302
 30
0.0
 11
1411.1033403763
 21
112.6870854784
 31
0.0
  0
LINE
  5
28A
100
AcDbEntity
  8
_Y________
  6
CONTINUOUS
 62
         7
100
AcDbLine
 10
1332.7801721046
 20
137.7630204357
 30
0.0
 11
1401.2033403763
 21
127.7846417294
 31
0.0
  0
LINE
  5
28B
100
AcDbEntity
  8
_Y________
  6
CENTER
 62
         1
100
AcDbLine
 10
1329.3598386453
 20
150.1846417294
 30
0.0
 11
1378.4659535144
 21
150.1846417294
 31
0.0
  0
LINE
  5
28C
100
AcDbEntity
  8
_Y________
  6
CONTINUOUS
 62
         7
100
AcDbLine
 10
1332.7801721046
 20
162.6062630231
 30
0.0
 11
1401.2033403763
 21
172.5846417294
 31
0.0
  0
LINE
  5
28D
100
AcDbEntity
  8
_Y________
  6
CENTER
 62
         1
100
AcDbLine
 10
1396.6508489578
 20
150.1846417294
 30
0.0
 11
1419.1033403763
 21
150.1846417294
 31
0.0
  0
LINE
  5
28E
100
AcDbEntity
  8
_Y________
  6
CONTINUOUS
 62
         7
100
AcDbLine
 10
1401.9497505378
 20
127.9846417294
 30
0.0
 11
1402.6033403763
 21
127.9846417294
 31
0.0
  0
LINE
  5
28F
100
AcDbEntity
  8
_Y________
  6
CONTINUOUS
 62
         7
100
AcDbLine
 10
1401.2033403763
 20
127.7846417294
 30
0.0
 11
1401.9497505378
 21
127.9846417294
 31
0.0
  0
ARC
  5
290
100
AcDbEntity
  8
_Y________
  6
CONTINUOUS
 62
         7
100
AcDbCircle
 10
1402.6033403763
 20
127.3846417294
 30
0.0
 40
0.6
100
AcDbArc
 50
0.0
 51
90.0
  0
LINE
  5
291
100
AcDbEntity
  8
_Y________
  6
CONTINUOUS
 62
         7
100
AcDbLine
 10
1401.9497505378
 20
127.9846417294
 30
0.0
 11
1401.9497505378
 21
172.3846417294
 31
0.0
  0
LINE
  5
292
100
AcDbEntity
  8
_Y________
  6
CONTINUOUS
 62
         7
100
AcDbLine
 10
1401.2033403763
 20
127.7846417294
 30
0.0
 11
1401.2033403763
 21
172.5846417294
 31
0.0
  0
LINE
  5
293
100
AcDbEntity
  8
_Y________
  6
CONTINUOUS
 62
         7
100
AcDbLine
 10
1401.9497505378
 20
172.3846417294
 30
0.0
 11
1402.6033403763
 21
172.3846417294
 31
0.0
  0
LINE
  5
294
100
AcDbEntity
  8
_Y________
  6
CONTINUOUS
 62
         7
100
AcDbLine
 10
1401.2033403763
 20
172.5846417294
 30
0.0
 11
1401.9497505378
 21
172.3846417294
 31
0.0
  0
ARC
  5
295
100
AcDbEntity
  8
_Y________
  6
CONTINUOUS
 62
         7
100
AcDbCircle
 10
1402.6033403763
 20
172.9846417294
 30
0.0
 40
0.6
100
AcDbArc
 50
270.0
 51
360.0
  0
CIRCLE
  5
296
100
AcDbEntity
  8
_Y________
  6
CONTINUOUS
 62
         7
100
AcDbCircle
 10
1411.1033403763
 20
150.1846417294
 30
0.0
 40
5.0
  0
LINE
  5
297
100
AcDbEntity
  8
_Y________
  6
DASHED
 62
         2
100
AcDbLine
 10
1598.7833403762
 20
145.1846417294
 30
0.0
 11
1598.2833403762
 21
144.6846417294
 31
0.0
  0
LINE
  5
298
100
AcDbEntity
  8
_Y________
  6
DASHED
 62
         2
100
AcDbLine
 10
1598.7833403762
 20
155.1846417294
 30
0.0
 11
1598.2833403762
 21
155.6846417294
 31
0.0
  0
LINE
  5
299
100
AcDbEntity
  8
_Y________
  6
DASHED
 62
         2
100
AcDbLine
 10
1598.7833403762
 20
155.1846417294
 30
0.0
 11
1598.7833403762
 21
145.1846417294
 31
0.0
  0
LINE
  5
29A
100
AcDbEntity
  8
_Y________
  6
DASHED
 62
         2
100
AcDbLine
 10
1598.7833403762
 20
145.1846417294
 30
0.0
 11
1604.9573403762
 21
145.1846417294
 31
0.0
  0
LINE
  5
29B
100
AcDbEntity
  8
_Y________
  6
DASHED
 62
         2
100
AcDbLine
 10
1607.8440917222
 20
150.1846417294
 30
0.0
 11
1604.9573403762
 21
145.1846417294
 31
0.0
  0
LINE
  5
29C
100
AcDbEntity
  8
_Y________
  6
DASHED
 62
         2
100
AcDbLine
 10
1604.9573403762
 20
155.1846417294
 30
0.0
 11
1607.8440917222
 21
150.1846417294
 31
0.0
  0
LINE
  5
29D
100
AcDbEntity
  8
_Y________
  6
DASHED
 62
         2
100
AcDbLine
 10
1604.9573403762
 20
155.1846417294
 30
0.0
 11
1604.9573403762
 21
145.1846417294
 31
0.0
  0
LINE
  5
29E
100
AcDbEntity
  8
_Y________
  6
DASHED
 62
         2
100
AcDbLine
 10
1598.7833403762
 20
155.1846417294
 30
0.0
 11
1604.9573403762
 21
155.1846417294
 31
0.0
  0
LINE
  5
29F
100
AcDbEntity
  8
_Y________
  6
CONTINUOUS
 62
         7
100
AcDbLine
 10
1598.2833403762
 20
155.6846417294
 30
0.0
 11
1598.2833403762
 21
144.6846417294
 31
0.0
  0
LINE
  5
2A0
100
AcDbEntity
  8
_Y________
  6
CONTINUOUS
 62
         7
100
AcDbLine
 10
1435.0553403763
 20
-33.4283347407
 30
0.0
 11
1435.0553403763
 21
-34.4283347407
 31
0.0
  0
ARC
  5
2A1
100
AcDbEntity
  8
_Y________
  6
CONTINUOUS
 62
         7
100
AcDbCircle
 10
1434.2553403763
 20
-34.4283347407
 30
0.0
 40
0.8
100
AcDbArc
 50
269.9999999999
 51
360.0
  0
LINE
  5
2A2
100
AcDbEntity
  8
_Y________
  6
CONTINUOUS
 62
         7
100
AcDbLine
 10
1435.0553403763
 20
8.5416652593
 30
0.0
 11
1435.0553403763
 21
7.5416652593
 31
0.0
  0
ARC
  5
2A3
100
AcDbEntity
  8
_Y________
  6
CONTINUOUS
 62
         7
100
AcDbCircle
 10
1434.2553403763
 20
8.5416652593
 30
0.0
 40
0.8
100
AcDbArc
 50
0.0
 51
90.0000000003
  0
LINE
  5
2A4
100
AcDbEntity
  8
_Y________
  6
CONTINUOUS
 62
         7
100
AcDbLine
 10
1419.6033403763
 20
127.8996417294
 30
0.0
 11
1434.2553403763
 21
127.8996417294
 31
0.0
  0
ARC
  5
2A5
100
AcDbEntity
  8
_Y________
  6
CONTINUOUS
 62
         7
100
AcDbCircle
 10
1434.2553403763
 20
128.6996417294
 30
0.0
 40
0.8
100
AcDbArc
 50
269.9999999999
 51
360.0
  0
ARC
  5
2A6
100
AcDbEntity
  8
_Y________
  6
CONTINUOUS
 62
         7
100
AcDbCircle
 10
1434.2553403763
 20
171.6696417294
 30
0.0
 40
0.8
100
AcDbArc
 50
0.0
 51
90.0000000003
  0
LINE
  5
2A7
100
AcDbEntity
  8
_Y________
  6
CONTINUOUS
 62
         7
100
AcDbLine
 10
1419.1033403763
 20
-35.7283347407
 30
0.0
 11
1419.1033403763
 21
-43.7183347409
 31
0.0
  0
LINE
  5
2A8
100
AcDbEntity
  8
_Y________
  6
CONTINUOUS
 62
         7
100
AcDbLine
 10
1419.1033403763
 20
17.8316652595
 30
0.0
 11
1419.1033403763
 21
9.8416652593
 31
0.0
  0
ARC
  5
2A9
100
AcDbEntity
  8
_Y________
  6
CONTINUOUS
 62
         7
100
AcDbCircle
 10
1419.6033403763
 20
172.9696417294
 30
0.0
 40
0.5
100
AcDbArc
 50
180.0
 51
270.0
  0
ARC
  5
2AA
100
AcDbEntity
  8
_Y________
  6
CONTINUOUS
 62
         7
100
AcDbCircle
 10
1419.6033403763
 20
127.3996417294
 30
0.0
 40
0.5
100
AcDbArc
 50
90.0
 51
180.0
  0
LINE
  5
2AB
100
AcDbEntity
  8
_Y________
  6
CONTINUOUS
 62
         7
100
AcDbLine
 10
1419.6033403763
 20
172.4696417294
 30
0.0
 11
1434.2553403763
 21
172.4696417294
 31
0.0
  0
LINE
  5
2AC
100
AcDbEntity
  8
_Y________
  6
CONTINUOUS
 62
         7
100
AcDbLine
 10
1435.0553403763
 20
171.6696417294
 30
0.0
 11
1435.0553403763
 21
128.6996417294
 31
0.0
  0
ARC
  5
2AD
100
AcDbEntity
  8
_Y________
  6
CONTINUOUS
 62
         7
100
AcDbCircle
 10
1404.2033403763
 20
17.8316652593
 30
0.0
 40
1.0
100
AcDbArc
 50
90.0
 51
180.0
  0
LINE
  5
2AE
100
AcDbEntity
  8
_Y________
  6
CONTINUOUS
 62
         7
100
AcDbLine
 10
1404.2033403763
 20
18.8316652593
 30
0.0
 11
1405.2033403763
 21
18.8316652593
 31
0.0
  0
LINE
  5
2AF
100
AcDbEntity
  8
_Y________
  6
CONTINUOUS
 62
         7
100
AcDbLine
 10
1403.2033403763
 20
17.8316652593
 30
0.0
 11
1403.2033403763
 21
16.8316652593
 31
0.0
  0
LINE
  5
2B0
100
AcDbEntity
  8
_Y________
  6
CONTINUOUS
 62
         7
100
AcDbLine
 10
1417.1033403763
 20
18.8316652593
 30
0.0
 11
1418.1033403763
 21
18.8316652593
 31
0.0
  0
ARC
  5
2B1
100
AcDbEntity
  8
_Y________
  6
CONTINUOUS
 62
         7
100
AcDbCircle
 10
1418.1033403763
 20
17.8316652593
 30
0.0
 40
1.0
100
AcDbArc
 50
0.0
 51
90.0
  0
ARC
  5
2B2
100
AcDbEntity
  8
_Y________
  6
CONTINUOUS
 62
         7
100
AcDbCircle
 10
1404.2033403763
 20
-43.7183347407
 30
0.0
 40
1.0
100
AcDbArc
 50
180.0
 51
270.0
  0
LINE
  5
2B3
100
AcDbEntity
  8
_Y________
  6
CONTINUOUS
 62
         7
100
AcDbLine
 10
1404.2033403763
 20
-44.7183347407
 30
0.0
 11
1405.2033403763
 21
-44.7183347407
 31
0.0
  0
LINE
  5
2B4
100
AcDbEntity
  8
_Y________
  6
CONTINUOUS
 62
         7
100
AcDbLine
 10
1417.1033403763
 20
-44.7183347407
 30
0.0
 11
1418.1033403763
 21
-44.7183347407
 31
0.0
  0
ARC
  5
2B5
100
AcDbEntity
  8
_Y________
  6
CONTINUOUS
 62
         7
100
AcDbCircle
 10
1418.1033403763
 20
-43.7183347407
 30
0.0
 40
1.0
100
AcDbArc
 50
270.0
 51
360.0
  0
LINE
  5
2B6
100
AcDbEntity
  8
_Y________
  6
CONTINUOUS
 62
         7
100
AcDbLine
 10
1419.1033403763
 20
17.8316652593
 30
0.0
 11
1419.1033403763
 21
16.8316652593
 31
0.0
  0
LINE
  5
2B7
100
AcDbEntity
  8
_Y________
  6
CONTINUOUS
 62
         7
100
AcDbLine
 10
1403.2033403763
 20
-42.7183347407
 30
0.0
 11
1403.2033403763
 21
-43.7183347407
 31
0.0
  0
LINE
  5
2B8
100
AcDbEntity
  8
_Y________
  6
CONTINUOUS
 62
         7
100
AcDbLine
 10
1419.1033403763
 20
-42.7183347407
 30
0.0
 11
1419.1033403763
 21
-43.7183347407
 31
0.0
  0
LINE
  5
2B9
100
AcDbEntity
  8
_Y________
  6
CONTINUOUS
 62
         7
100
AcDbLine
 10
1419.1033403763
 20
127.3996417294
 30
0.0
 11
1419.1033403763
 21
119.4096417294
 31
0.0
  0
LINE
  5
2BA
100
AcDbEntity
  8
_Y________
  6
CONTINUOUS
 62
         7
100
AcDbLine
 10
1403.2033403763
 20
120.4096417294
 30
0.0
 11
1403.2033403763
 21
119.4096417294
 31
0.0
  0
LINE
  5
2BB
100
AcDbEntity
  8
_Y________
  6
CONTINUOUS
 62
         7
100
AcDbLine
 10
1419.1033403763
 20
180.9596417294
 30
0.0
 11
1419.1033403763
 21
172.9696417294
 31
0.0
  0
ARC
  5
2BC
100
AcDbEntity
  8
_Y________
  6
CONTINUOUS
 62
         7
100
AcDbCircle
 10
1418.1033403763
 20
119.4096417294
 30
0.0
 40
1.0
100
AcDbArc
 50
270.0
 51
360.0
  0
LINE
  5
2BD
100
AcDbEntity
  8
_Y________
  6
CONTINUOUS
 62
         7
100
AcDbLine
 10
1417.1033403763
 20
118.4096417294
 30
0.0
 11
1418.1033403763
 21
118.4096417294
 31
0.0
  0
LINE
  5
2BE
100
AcDbEntity
  8
_Y________
  6
CONTINUOUS
 62
         7
100
AcDbLine
 10
1404.2033403763
 20
118.4096417294
 30
0.0
 11
1405.2033403763
 21
118.4096417294
 31
0.0
  0
ARC
  5
2BF
100
AcDbEntity
  8
_Y________
  6
CONTINUOUS
 62
         7
100
AcDbCircle
 10
1404.2033403763
 20
119.4096417294
 30
0.0
 40
1.0
100
AcDbArc
 50
180.0
 51
270.0
  0
ARC
  5
2C0
100
AcDbEntity
  8
_Y________
  6
CONTINUOUS
 62
         7
100
AcDbCircle
 10
1418.1033403763
 20
180.9596417294
 30
0.0
 40
1.0
100
AcDbArc
 50
0.0
 51
90.0
  0
LINE
  5
2C1
100
AcDbEntity
  8
_Y________
  6
CONTINUOUS
 62
         7
100
AcDbLine
 10
1417.1033403763
 20
181.9596417294
 30
0.0
 11
1418.1033403763
 21
181.9596417294
 31
0.0
  0
LINE
  5
2C2
100
AcDbEntity
  8
_Y________
  6
CONTINUOUS
 62
         7
100
AcDbLine
 10
1403.2033403763
 20
180.9596417294
 30
0.0
 11
1403.2033403763
 21
179.9596417294
 31
0.0
  0
LINE
  5
2C3
100
AcDbEntity
  8
_Y________
  6
CONTINUOUS
 62
         7
100
AcDbLine
 10
1404.2033403763
 20
181.9596417294
 30
0.0
 11
1405.2033403763
 21
181.9596417294
 31
0.0
  0
ARC
  5
2C4
100
AcDbEntity
  8
_Y________
  6
CONTINUOUS
 62
         7
100
AcDbCircle
 10
1404.2033403763
 20
180.9596417294
 30
0.0
 40
1.0
100
AcDbArc
 50
90.0
 51
180.0
  0
LINE
  5
2C5
100
AcDbEntity
  8
_Y________
  6
CONTINUOUS
 62
         7
100
AcDbLine
 10
1419.6033403763
 20
9.3416652593
 30
0.0
 11
1434.2553403763
 21
9.3416652593
 31
0.0
  0
LINE
  5
2C6
100
AcDbEntity
  8
_Y________
  6
CONTINUOUS
 62
         7
100
AcDbLine
 10
1419.6033403763
 20
-35.2283347407
 30
0.0
 11
1434.2553403763
 21
-35.2283347407
 31
0.0
  0
ARC
  5
2C7
100
AcDbEntity
  8
_Y________
  6
CONTINUOUS
 62
         7
100
AcDbCircle
 10
1419.6033403763
 20
-35.7283347407
 30
0.0
 40
0.5
100
AcDbArc
 50
90.0
 51
180.0
  0
ARC
  5
2C8
100
AcDbEntity
  8
_Y________
  6
CONTINUOUS
 62
         7
100
AcDbCircle
 10
1419.6033403763
 20
9.8416652593
 30
0.0
 40
0.5
100
AcDbArc
 50
180.0
 51
270.0
  0
LINE
  5
2C9
100
AcDbEntity
  8
_Y________
  6
CONTINUOUS
 62
         7
100
AcDbLine
 10
1419.1033403763
 20
120.4096417294
 30
0.0
 11
1419.1033403763
 21
119.4096417294
 31
0.0
  0
LINE
  5
2CA
100
AcDbEntity
  8
_Y________
  6
CONTINUOUS
 62
         7
100
AcDbLine
 10
1419.1033403763
 20
180.9596417294
 30
0.0
 11
1419.1033403763
 21
179.9596417294
 31
0.0
  0
LINE
  5
2CB
100
AcDbEntity
  8
L1_65
  6
CONTINUOUS
 62
         7
100
AcDbLine
 10
1383.4969004536
 20
-5.9433347407
 30
0.0
 11
1353.4666455523
 21
-5.9433347407
 31
0.0
  0
LINE
  5
2CC
100
AcDbEntity
  8
L1_65
  6
CONTINUOUS
 62
         7
100
AcDbLine
 10
1383.4969004536
 20
-19.9433347407
 30
0.0
 11
1353.4666455523
 21
-19.9433347407
 31
0.0
  0
LINE
  5
2CD
100
AcDbEntity
  8
L1_65
  6
CONTINUOUS
 62
         7
100
AcDbLine
 10
1383.4969004536
 20
-5.9433347407
 30
0.0
 11
1384.6082997218
 21
-7.8683347407
 31
0.0
  0
LINE
  5
2CE
100
AcDbEntity
  8
L1_65
  6
CONTINUOUS
 62
         7
100
AcDbLine
 10
1383.4969004536
 20
-19.9433347407
 30
0.0
 11
1384.6082997218
 21
-18.0183347407
 31
0.0
  0
LINE
  5
2CF
100
AcDbEntity
  8
L1_65
  6
CONTINUOUS
 62
         7
100
AcDbLine
 10
1383.4969004536
 20
-5.9433347407
 30
0.0
 11
1383.4969004536
 21
-19.9433347407
 31
0.0
  0
ARC
  5
2D0
100
AcDbEntity
  8
L1_65
  6
CONTINUOUS
 62
         7
100
AcDbCircle
 10
1436.0553403763
 20
162.1846417294
 30
0.0
 40
1.0
100
AcDbArc
 50
180.0
 51
270.0
  0
ARC
  5
2D1
100
AcDbEntity
  8
L1_65
  6
CONTINUOUS
 62
         7
100
AcDbCircle
 10
1436.0553403763
 20
138.1846417294
 30
0.0
 40
1.0
100
AcDbArc
 50
90.0
 51
180.0
  0
LINE
  5
2D2
100
AcDbEntity
  8
L1_65
  6
CONTINUOUS
 62
         7
100
AcDbLine
 10
1435.0553403763
 20
-34.4283347407
 30
0.0
 11
1435.0553403763
 21
-24.9433347407
 31
0.0
  0
LINE
  5
2D3
100
AcDbEntity
  8
L1_65
  6
CONTINUOUS
 62
         7
100
AcDbLine
 10
1435.0553403763
 20
-0.9433347407
 30
0.0
 11
1435.0553403763
 21
8.5416652593
 31
0.0
  0
ARC
  5
2D4
100
AcDbEntity
  8
L1_65
  6
CONTINUOUS
 62
         7
100
AcDbCircle
 10
1436.0553403763
 20
-0.9433347407
 30
0.0
 40
1.0
100
AcDbArc
 50
180.0
 51
270.0
  0
ARC
  5
2D5
100
AcDbEntity
  8
L1_65
  6
CONTINUOUS
 62
         7
100
AcDbCircle
 10
1436.0553403763
 20
-24.9433347407
 30
0.0
 40
1.0
100
AcDbArc
 50
90.0
 51
180.0
  0
LINE
  5
2D6
100
AcDbEntity
  8
_Y________
  6
CENTER
 62
         1
100
AcDbLine
 10
1402.4927097209
 20
14.5542542011
 30
0.0
 11
1412.8533372581
 21
7.2996646989
 31
0.0
  0
LINE
  5
2D7
100
AcDbEntity
  8
_Y________
  6
CONTINUOUS
 62
         4
100
AcDbLine
 10
1403.2033403763
 20
11.6151160818
 30
0.0
 11
1406.8895245756
 21
9.0340221182
 31
0.0
  0
LINE
  5
2D8
100
AcDbEntity
  8
_Y________
  6
CONTINUOUS
 62
         7
100
AcDbLine
 10
1403.404092129
 20
11.9018192973
 30
0.0
 11
1407.5186105905
 21
9.0208024544
 31
0.0
  0
LINE
  5
2D9
100
AcDbEntity
  8
_Y________
  6
CONTINUOUS
 62
         7
100
AcDbLine
 10
1403.2033403763
 20
11.6151160818
 30
0.0
 11
1405.5263249435
 21
14.9326818612
 31
0.0
  0
LINE
  5
2DA
100
AcDbEntity
  8
_Y________
  6
CONTINUOUS
 62
         7
100
AcDbLine
 10
1403.2033403763
 20
16.5592531663
 30
0.0
 11
1405.5263249435
 21
14.9326818612
 31
0.0
  0
INSERT
  5
2E1
100
AcDbEntity
  8
0
  6
CONTINUOUS
100
AcDbBlockReference
  2
*X20
 10
0.0
 20
0.0
 30
0.0
  0
LINE
  5
2E2
100
AcDbEntity
  8
_Y________
  6
CONTINUOUS
 62
         4
100
AcDbLine
 10
1407.5186105905
 20
9.0208024544
 30
0.0
 11
1411.1860365497
 21
6.452843152
 31
0.0
  0
LINE
  5
2E3
100
AcDbEntity
  8
_Y________
  6
CONTINUOUS
 62
         7
100
AcDbLine
 10
1406.8895245756
 20
9.0340221182
 30
0.0
 11
1409.183830321
 21
12.3106302954
 31
0.0
  0
LINE
  5
2E4
100
AcDbEntity
  8
_Y________
  6
CONTINUOUS
 62
         7
100
AcDbLine
 10
1405.2968943689
 20
14.6050210435
 30
0.0
 11
1410.6149557901
 21
10.8812743477
 31
0.0
  0
LINE
  5
2E5
100
AcDbEntity
  8
_Y________
  6
CONTINUOUS
 62
         4
100
AcDbLine
 10
1405.4976461217
 20
14.891724259
 30
0.0
 11
1409.183830321
 21
12.3106302954
 31
0.0
  0
LINE
  5
2E6
100
AcDbEntity
  8
_Y________
  6
CONTINUOUS
 62
         4
100
AcDbLine
 10
1413.0788387897
 20
9.1560448981
 30
0.0
 11
1411.1860365497
 21
6.452843152
 31
0.0
  0
LINE
  5
2E7
100
AcDbEntity
  8
_Y________
  6
CONTINUOUS
 62
         4
100
AcDbLine
 10
1412.9127847976
 20
7.2580390837
 30
0.0
 11
1411.1860365497
 21
6.452843152
 31
0.0
  0
LINE
  5
2E8
100
AcDbEntity
  8
_Y________
  6
CONTINUOUS
 62
         7
100
AcDbLine
 10
1413.0788387897
 20
9.1560448981
 30
0.0
 11
1412.9127847976
 21
7.2580390837
 31
0.0
  0
LINE
  5
2E9
100
AcDbEntity
  8
_Y________
  6
CONTINUOUS
 62
         4
100
AcDbLine
 10
1410.6149557901
 20
10.8812743477
 30
0.0
 11
1413.0788387897
 21
9.1560448981
 31
0.0
  0
LINE
  5
2EA
100
AcDbEntity
  8
_Y________
  6
CONTINUOUS
 62
         7
100
AcDbLine
 10
1414.3032034923
 20
8.8391852454
 30
0.0
 11
1413.949730146
 21
9.0351187207
 31
0.0
  0
LINE
  5
2EB
100
AcDbEntity
  8
_Y________
  6
CONTINUOUS
 62
         7
100
AcDbLine
 10
1412.2430511927
 20
12.2678544482
 30
0.0
 11
1412.2501044988
 21
11.863770813
 31
0.0
  0
LINE
  5
2EC
100
AcDbEntity
  8
_Y________
  6
CONTINUOUS
 62
         7
100
AcDbLine
 10
1414.3032034923
 20
8.8391852454
 30
0.0
 11
1412.2430511927
 21
12.2678544482
 31
0.0
  0
LINE
  5
2ED
100
AcDbEntity
  8
_Y________
  6
CONTINUOUS
 62
         7
100
AcDbLine
 10
1413.949730146
 20
9.0351187207
 30
0.0
 11
1412.2501044988
 21
11.863770813
 31
0.0
  0
LINE
  5
2EE
100
AcDbEntity
  8
_Y________
  6
CONTINUOUS
 62
         7
100
AcDbLine
 10
1413.949730146
 20
9.0351187207
 30
0.0
 11
1413.0193504626
 21
8.4760902083
 31
0.0
  0
LINE
  5
2EF
100
AcDbEntity
  8
_Y________
  6
CONTINUOUS
 62
         7
100
AcDbLine
 10
1412.2501044988
 20
11.863770813
 30
0.0
 11
1410.6149557901
 21
10.8812743477
 31
0.0
  0
LINE
  5
2F0
100
AcDbEntity
  8
_Y________
  6
CENTER
 62
         1
100
AcDbLine
 10
1420.8176749776
 20
15.0867414091
 30
0.0
 11
1384.0946546235
 21
-6.9786753334
 31
0.0
  0
LINE
  5
2F1
100
AcDbEntity
  8
_Y________
  6
CONTINUOUS
 62
         7
100
AcDbLine
 10
1419.110676138
 20
11.7278062353
 30
0.0
 11
1414.3032034923
 21
8.8391852454
 31
0.0
  0
LINE
  5
2F2
100
AcDbEntity
  8
_Y________
  6
CONTINUOUS
 62
         7
100
AcDbLine
 10
1419.1033403763
 20
16.3899320538
 30
0.0
 11
1412.2430511927
 21
12.2678544482
 31
0.0
  0
LINE
  5
2F3
100
AcDbEntity
  8
_Y________
  6
CONTINUOUS
 62
         7
100
AcDbLine
 10
1410.47763329
 20
6.9488724545
 30
0.0
 11
1385.8176593693
 21
-7.8683347407
 31
0.0
  0
LINE
  5
2F4
100
AcDbEntity
  8
_Y________
  6
CONTINUOUS
 62
         7
100
AcDbLine
 10
1407.5186105905
 20
9.0208024544
 30
0.0
 11
1382.6141040856
 21
-5.9433347407
 31
0.0
  0
LINE
  5
2F5
100
AcDbEntity
  8
_Y________
  6
CENTER
 62
         1
100
AcDbLine
 10
1208.5078743688
 20
123.7868805382
 30
0.0
 11
1202.8697186441
 21
125.8390013981
 31
0.0
  0
POLYLINE
  5
2F7
100
AcDbEntity
  8
_Y________
  6
CONTINUOUS
 62
         7
100
AcDb3dPolyline
 66
         1
 10
0.0
 20
0.0
 30
0.0
 70
         8
  0
VERTEX
  5
2F9
100
AcDbEntity
  8
_Y________
  6
CONTINUOUS
 62
         7
100
AcDbVertex
100
AcDb3dPolylineVertex
 10
1203.8094112649
 20
125.4969812548
 30
0.0
 70
        32
  0
VERTEX
  5
2FB
100
AcDbEntity
  8
_Y________
  6
CONTINUOUS
 62
         7
100
AcDbVertex
100
AcDb3dPolylineVertex
 10
1203.8094112649
 20
125.4969812548
 30
0.0
 70
        32
  0
SEQEND
  5
2FD
100
AcDbEntity
  8
_Y________
  6
CONTINUOUS
 62
         7
  0
ARC
  5
2FE
100
AcDbEntity
  8
_Y________
  6
CONTINUOUS
 62
         7
100
AcDbCircle
 10
1206.6023903184
 20
124.4804200144
 30
0.0
 40
2.9722262277
100
AcDbArc
 50
141.257725858
 51
160.0
  0
POLYLINE
  5
300
100
AcDbEntity
  8
_Y________
  6
CONTINUOUS
 62
         7
100
AcDb3dPolyline
 66
         1
 10
0.0
 20
0.0
 30
0.0
 70
         8
  0
VERTEX
  5
302
100
AcDbEntity
  8
_Y________
  6
CONTINUOUS
 62
         7
100
AcDbVertex
100
AcDb3dPolylineVertex
 10
1204.2841463667
 20
126.340493596
 30
0.0
 70
        32
  0
VERTEX
  5
304
100
AcDbEntity
  8
_Y________
  6
CONTINUOUS
 62
         7
100
AcDbVertex
100
AcDb3dPolylineVertex
 10
1204.2841463667
 20
126.340493596
 30
0.0
 70
        32
  0
SEQEND
  5
306
100
AcDbEntity
  8
_Y________
  6
CONTINUOUS
 62
         7
  0
ARC
  5
307
100
AcDbEntity
  8
_Y________
  6
CONTINUOUS
 62
         7
100
AcDbCircle
 10
1206.2103129629
 20
124.7950084469
 30
0.0
 40
2.4695428935
100
AcDbArc
 50
120.6773100904
 51
141.257725858
  0
POLYLINE
  5
309
100
AcDbEntity
  8
_Y________
  6
CONTINUOUS
 62
         7
100
AcDb3dPolyline
 66
         1
 10
0.0
 20
0.0
 30
0.0
 70
         8
  0
VERTEX
  5
30B
100
AcDbEntity
  8
_Y________
  6
CONTINUOUS
 62
         7
100
AcDbVertex
100
AcDb3dPolylineVertex
 10
1204.950346339
 20
126.9189496442
 30
0.0
 70
        32
  0
VERTEX
  5
30D
100
AcDbEntity
  8
_Y________
  6
CONTINUOUS
 62
         7
100
AcDbVertex
100
AcDb3dPolylineVertex
 10
1204.950346339
 20
126.9189496442
 30
0.0
 70
        32
  0
SEQEND
  5
30F
100
AcDbEntity
  8
_Y________
  6
CONTINUOUS
 62
         7
  0
ARC
  5
310
100
AcDbEntity
  8
_Y________
  6
CONTINUOUS
 62
         7
100
AcDbCircle
 10
1206.0105744318
 20
125.1317101395
 30
0.0
 40
2.0780540551
100
AcDbArc
 50
96.8239621528
 51
120.6773100904
  0
POLYLINE
  5
312
100
AcDbEntity
  8
_Y________
  6
CONTINUOUS
 62
         7
100
AcDb3dPolyline
 66
         1
 10
0.0
 20
0.0
 30
0.0
 70
         8
  0
VERTEX
  5
314
100
AcDbEntity
  8
_Y________
  6
CONTINUOUS
 62
         7
100
AcDbVertex
100
AcDb3dPolylineVertex
 10
1205.7636616399
 20
127.1950430571
 30
0.0
 70
        32
  0
VERTEX
  5
316
100
AcDbEntity
  8
_Y________
  6
CONTINUOUS
 62
         7
100
AcDbVertex
100
AcDb3dPolylineVertex
 10
1205.7636616399
 20
127.1950430571
 30
0.0
 70
        32
  0
SEQEND
  5
318
100
AcDbEntity
  8
_Y________
  6
CONTINUOUS
 62
         7
  0
ARC
  5
319
100
AcDbEntity
  8
_Y________
  6
CONTINUOUS
 62
         7
100
AcDbCircle
 10
1205.9596641031
 20
125.5571435737
 30
0.0
 40
1.6495853065
100
AcDbArc
 50
70.0
 51
96.8239621528
  0
POLYLINE
  5
31B
100
AcDbEntity
  8
_Y________
  6
CONTINUOUS
 62
         7
100
AcDb3dPolyline
 66
         1
 10
0.0
 20
0.0
 30
0.0
 70
         8
  0
VERTEX
  5
31D
100
AcDbEntity
  8
_Y________
  6
CONTINUOUS
 62
         7
100
AcDbVertex
100
AcDb3dPolylineVertex
 10
1206.5238555061
 20
127.1072467136
 30
0.0
 70
        32
  0
VERTEX
  5
31F
100
AcDbEntity
  8
_Y________
  6
CONTINUOUS
 62
         7
100
AcDbVertex
100
AcDb3dPolylineVertex
 10
1206.5238555061
 20
127.1072467136
 30
0.0
 70
        32
  0
SEQEND
  5
321
100
AcDbEntity
  8
_Y________
  6
CONTINUOUS
 62
         7
  0
ARC
  5
322
100
AcDbEntity
  8
_Y________
  6
CONTINUOUS
 62
         7
100
AcDbCircle
 10
1205.9596641031
 20
125.5571435737
 30
0.0
 40
1.6495853065
100
AcDbArc
 50
43.1760378472
 51
70.0
  0
POLYLINE
  5
324
100
AcDbEntity
  8
_Y________
  6
CONTINUOUS
 62
         7
100
AcDb3dPolyline
 66
         1
 10
0.0
 20
0.0
 30
0.0
 70
         8
  0
VERTEX
  5
326
100
AcDbEntity
  8
_Y________
  6
CONTINUOUS
 62
         7
100
AcDbVertex
100
AcDb3dPolylineVertex
 10
1207.1626321948
 20
126.6858594165
 30
0.0
 70
        32
  0
VERTEX
  5
328
100
AcDbEntity
  8
_Y________
  6
CONTINUOUS
 62
         7
100
AcDbVertex
100
AcDb3dPolylineVertex
 10
1207.1626321948
 20
126.6858594165
 30
0.0
 70
        32
  0
SEQEND
  5
32A
100
AcDbEntity
  8
_Y________
  6
CONTINUOUS
 62
         7
  0
ARC
  5
32B
100
AcDbEntity
  8
_Y________
  6
CONTINUOUS
 62
         7
100
AcDbCircle
 10
1205.6472011885
 20
125.263967184
 30
0.0
 40
2.0780540551
100
AcDbArc
 50
19.3226899097
 51
43.1760378473
  0
POLYLINE
  5
32D
100
AcDbEntity
  8
_Y________
  6
CONTINUOUS
 62
         7
100
AcDb3dPolyline
 66
         1
 10
0.0
 20
0.0
 30
0.0
 70
         8
  0
VERTEX
  5
32F
100
AcDbEntity
  8
_Y________
  6
CONTINUOUS
 62
         7
100
AcDbVertex
100
AcDb3dPolylineVertex
 10
1207.6081984366
 20
125.9515705936
 30
0.0
 70
        32
  0
VERTEX
  5
331
100
AcDbEntity
  8
_Y________
  6
CONTINUOUS
 62
         7
100
AcDbVertex
100
AcDb3dPolylineVertex
 10
1207.6081984366
 20
125.9515705936
 30
0.0
 70
        32
  0
SEQEND
  5
333
100
AcDbEntity
  8
_Y________
  6
CONTINUOUS
 62
         7
  0
ARC
  5
334
100
AcDbEntity
  8
_Y________
  6
CONTINUOUS
 62
         7
100
AcDbCircle
 10
1205.2777649205
 20
125.1344281764
 30
0.0
 40
2.4695428935
100
AcDbArc
 50
358.742274142
 51
379.3226899096
  0
POLYLINE
  5
336
100
AcDbEntity
  8
_Y________
  6
CONTINUOUS
 62
         7
100
AcDb3dPolyline
 66
         1
 10
0.0
 20
0.0
 30
0.0
 70
         8
  0
VERTEX
  5
338
100
AcDbEntity
  8
_Y________
  6
CONTINUOUS
 62
         7
100
AcDbVertex
100
AcDb3dPolylineVertex
 10
1207.7467128429
 20
125.0802224645
 30
0.0
 70
        32
  0
VERTEX
  5
33A
100
AcDbEntity
  8
_Y________
  6
CONTINUOUS
 62
         7
100
AcDbVertex
100
AcDb3dPolylineVertex
 10
1207.7467128429
 20
125.0802224645
 30
0.0
 70
        32
  0
SEQEND
  5
33C
100
AcDbEntity
  8
_Y________
  6
CONTINUOUS
 62
         7
  0
ARC
  5
33D
100
AcDbEntity
  8
_Y________
  6
CONTINUOUS
 62
         7
100
AcDbCircle
 10
1204.7752026945
 20
125.1454619219
 30
0.0
 40
2.9722262277
100
AcDbArc
 50
339.9999999999
 51
358.742274142
  0
POLYLINE
  5
33F
100
AcDbEntity
  8
_Y________
  6
CONTINUOUS
 62
         7
100
AcDb3dPolyline
 66
         1
 10
0.0
 20
0.0
 30
0.0
 70
         8
  0
VERTEX
  5
341
100
AcDbEntity
  8
_Y________
  6
CONTINUOUS
 62
         7
100
AcDbVertex
100
AcDb3dPolylineVertex
 10
1207.568181748
 20
124.1289006815
 30
0.0
 70
        32
  0
VERTEX
  5
343
100
AcDbEntity
  8
_Y________
  6
CONTINUOUS
 62
         7
100
AcDbVertex
100
AcDb3dPolylineVertex
 10
1207.568181748
 20
124.1289006815
 30
0.0
 70
        32
  0
SEQEND
  5
345
100
AcDbEntity
  8
_Y________
  6
CONTINUOUS
 62
         7
  0
ARC
  5
346
100
AcDbEntity
  8
_Y________
  6
CONTINUOUS
 62
         7
100
AcDbCircle
 10
1204.7752026945
 20
125.1454619219
 30
0.0
 40
2.9722262277
100
AcDbArc
 50
321.257725858
 51
340.0
  0
POLYLINE
  5
348
100
AcDbEntity
  8
_Y________
  6
CONTINUOUS
 62
         7
100
AcDb3dPolyline
 66
         1
 10
0.0
 20
0.0
 30
0.0
 70
         8
  0
VERTEX
  5
34A
100
AcDbEntity
  8
_Y________
  6
CONTINUOUS
 62
         7
100
AcDbVertex
100
AcDb3dPolylineVertex
 10
1207.0934466463
 20
123.2853883403
 30
0.0
 70
        32
  0
VERTEX
  5
34C
100
AcDbEntity
  8
_Y________
  6
CONTINUOUS
 62
         7
100
AcDbVertex
100
AcDb3dPolylineVertex
 10
1207.0934466463
 20
123.2853883403
 30
0.0
 70
        32
  0
SEQEND
  5
34E
100
AcDbEntity
  8
_Y________
  6
CONTINUOUS
 62
         7
  0
ARC
  5
34F
100
AcDbEntity
  8
_Y________
  6
CONTINUOUS
 62
         7
100
AcDbCircle
 10
1205.16728005
 20
124.8308734895
 30
0.0
 40
2.4695428935
100
AcDbArc
 50
300.6773100904
 51
321.2577258581
  0
POLYLINE
  5
351
100
AcDbEntity
  8
_Y________
  6
CONTINUOUS
 62
         7
100
AcDb3dPolyline
 66
         1
 10
0.0
 20
0.0
 30
0.0
 70
         8
  0
VERTEX
  5
353
100
AcDbEntity
  8
_Y________
  6
CONTINUOUS
 62
         7
100
AcDbVertex
100
AcDb3dPolylineVertex
 10
1206.4272466739
 20
122.7069322922
 30
0.0
 70
        32
  0
VERTEX
  5
355
100
AcDbEntity
  8
_Y________
  6
CONTINUOUS
 62
         7
100
AcDbVertex
100
AcDb3dPolylineVertex
 10
1206.4272466739
 20
122.7069322922
 30
0.0
 70
        32
  0
SEQEND
  5
357
100
AcDbEntity
  8
_Y________
  6
CONTINUOUS
 62
         7
  0
ARC
  5
358
100
AcDbEntity
  8
_Y________
  6
CONTINUOUS
 62
         7
100
AcDbCircle
 10
1205.3670185811
 20
124.4941717969
 30
0.0
 40
2.0780540551
100
AcDbArc
 50
276.8239621528
 51
300.6773100903
  0
POLYLINE
  5
35A
100
AcDbEntity
  8
_Y________
  6
CONTINUOUS
 62
         7
100
AcDb3dPolyline
 66
         1
 10
0.0
 20
0.0
 30
0.0
 70
         8
  0
VERTEX
  5
35C
100
AcDbEntity
  8
_Y________
  6
CONTINUOUS
 62
         7
100
AcDbVertex
100
AcDb3dPolylineVertex
 10
1205.6139313731
 20
122.4308388792
 30
0.0
 70
        32
  0
VERTEX
  5
35E
100
AcDbEntity
  8
_Y________
  6
CONTINUOUS
 62
         7
100
AcDbVertex
100
AcDb3dPolylineVertex
 10
1205.6139313731
 20
122.4308388792
 30
0.0
 70
        32
  0
SEQEND
  5
360
100
AcDbEntity
  8
_Y________
  6
CONTINUOUS
 62
         7
  0
ARC
  5
361
100
AcDbEntity
  8
_Y________
  6
CONTINUOUS
 62
         7
100
AcDbCircle
 10
1205.4179289098
 20
124.0687383626
 30
0.0
 40
1.6495853065
100
AcDbArc
 50
250.0
 51
276.8239621528
  0
POLYLINE
  5
363
100
AcDbEntity
  8
_Y________
  6
CONTINUOUS
 62
         7
100
AcDb3dPolyline
 66
         1
 10
0.0
 20
0.0
 30
0.0
 70
         8
  0
VERTEX
  5
365
100
AcDbEntity
  8
_Y________
  6
CONTINUOUS
 62
         7
100
AcDbVertex
100
AcDb3dPolylineVertex
 10
1204.8537375068
 20
122.5186352228
 30
0.0
 70
        32
  0
VERTEX
  5
367
100
AcDbEntity
  8
_Y________
  6
CONTINUOUS
 62
         7
100
AcDbVertex
100
AcDb3dPolylineVertex
 10
1204.8537375068
 20
122.5186352228
 30
0.0
 70
        32
  0
SEQEND
  5
369
100
AcDbEntity
  8
_Y________
  6
CONTINUOUS
 62
         7
  0
ARC
  5
36A
100
AcDbEntity
  8
_Y________
  6
CONTINUOUS
 62
         7
100
AcDbCircle
 10
1205.4179289098
 20
124.0687383626
 30
0.0
 40
1.6495853065
100
AcDbArc
 50
223.1760378472
 51
250.0
  0
POLYLINE
  5
36C
100
AcDbEntity
  8
_Y________
  6
CONTINUOUS
 62
         7
100
AcDb3dPolyline
 66
         1
 10
0.0
 20
0.0
 30
0.0
 70
         8
  0
VERTEX
  5
36E
100
AcDbEntity
  8
_Y________
  6
CONTINUOUS
 62
         7
100
AcDbVertex
100
AcDb3dPolylineVertex
 10
1204.2149608181
 20
122.9400225198
 30
0.0
 70
        32
  0
VERTEX
  5
370
100
AcDbEntity
  8
_Y________
  6
CONTINUOUS
 62
         7
100
AcDbVertex
100
AcDb3dPolylineVertex
 10
1204.2149608181
 20
122.9400225198
 30
0.0
 70
        32
  0
SEQEND
  5
372
100
AcDbEntity
  8
_Y________
  6
CONTINUOUS
 62
         7
  0
ARC
  5
373
100
AcDbEntity
  8
_Y________
  6
CONTINUOUS
 62
         7
100
AcDbCircle
 10
1205.7303918245
 20
124.3619147524
 30
0.0
 40
2.0780540551
100
AcDbArc
 50
199.3226899096
 51
223.1760378473
  0
ARC
  5
374
100
AcDbEntity
  8
_Y________
  6
CONTINUOUS
 62
         7
100
AcDbCircle
 10
1206.0998280924
 20
124.49145376
 30
0.0
 40
2.4695428935
100
AcDbArc
 50
178.742274142
 51
199.3226899096
  0
ARC
  5
375
100
AcDbEntity
  8
_Y________
  6
CONTINUOUS
 62
         7
100
AcDbCircle
 10
1206.6023903184
 20
124.4804200144
 30
0.0
 40
2.9722262277
100
AcDbArc
 50
160.0
 51
178.742274142
  0
POLYLINE
  5
377
100
AcDbEntity
  8
_Y________
  6
CONTINUOUS
 62
         7
100
AcDb3dPolyline
 66
         1
 10
0.0
 20
0.0
 30
0.0
 70
         8
  0
VERTEX
  5
379
100
AcDbEntity
  8
_Y________
  6
CONTINUOUS
 62
         7
100
AcDbVertex
100
AcDb3dPolylineVertex
 10
1222.2784990045
 20
176.2403827773
 30
0.0
 70
        32
  0
VERTEX
  5
37B
100
AcDbEntity
  8
_Y________
  6
CONTINUOUS
 62
         7
100
AcDbVertex
100
AcDb3dPolylineVertex
 10
1222.2784990045
 20
176.2403827773
 30
0.0
 70
        32
  0
SEQEND
  5
37D
100
AcDbEntity
  8
_Y________
  6
CONTINUOUS
 62
         7
  0
ARC
  5
37E
100
AcDbEntity
  8
_Y________
  6
CONTINUOUS
 62
         7
100
AcDbCircle
 10
1225.071478058
 20
175.2238215369
 30
0.0
 40
2.9722262277
100
AcDbArc
 50
160.0
 51
178.7422741421
  0
POLYLINE
  5
380
100
AcDbEntity
  8
_Y________
  6
CONTINUOUS
 62
         7
100
AcDb3dPolyline
 66
         1
 10
0.0
 20
0.0
 30
0.0
 70
         8
  0
VERTEX
  5
382
100
AcDbEntity
  8
_Y________
  6
CONTINUOUS
 62
         7
100
AcDbVertex
100
AcDb3dPolylineVertex
 10
1222.0999679096
 20
175.2890609943
 30
0.0
 70
        32
  0
VERTEX
  5
384
100
AcDbEntity
  8
_Y________
  6
CONTINUOUS
 62
         7
100
AcDbVertex
100
AcDb3dPolylineVertex
 10
1222.0999679096
 20
175.2890609943
 30
0.0
 70
        32
  0
SEQEND
  5
386
100
AcDbEntity
  8
_Y________
  6
CONTINUOUS
 62
         7
  0
ARC
  5
387
100
AcDbEntity
  8
_Y________
  6
CONTINUOUS
 62
         7
100
AcDbCircle
 10
1224.568915832
 20
175.2348552824
 30
0.0
 40
2.4695428935
100
AcDbArc
 50
178.7422741421
 51
199.3226899097
  0
POLYLINE
  5
389
100
AcDbEntity
  8
_Y________
  6
CONTINUOUS
 62
         7
100
AcDb3dPolyline
 66
         1
 10
0.0
 20
0.0
 30
0.0
 70
         8
  0
VERTEX
  5
38B
100
AcDbEntity
  8
_Y________
  6
CONTINUOUS
 62
         7
100
AcDbVertex
100
AcDb3dPolylineVertex
 10
1222.2384823159
 20
174.4177128652
 30
0.0
 70
        32
  0
VERTEX
  5
38D
100
AcDbEntity
  8
_Y________
  6
CONTINUOUS
 62
         7
100
AcDbVertex
100
AcDb3dPolylineVertex
 10
1222.2384823159
 20
174.4177128652
 30
0.0
 70
        32
  0
SEQEND
  5
38F
100
AcDbEntity
  8
_Y________
  6
CONTINUOUS
 62
         7
  0
ARC
  5
390
100
AcDbEntity
  8
_Y________
  6
CONTINUOUS
 62
         7
100
AcDbCircle
 10
1224.199479564
 20
175.1053162748
 30
0.0
 40
2.0780540551
100
AcDbArc
 50
199.3226899097
 51
223.1760378473
  0
POLYLINE
  5
392
100
AcDbEntity
  8
_Y________
  6
CONTINUOUS
 62
         7
100
AcDb3dPolyline
 66
         1
 10
0.0
 20
0.0
 30
0.0
 70
         8
  0
VERTEX
  5
394
100
AcDbEntity
  8
_Y________
  6
CONTINUOUS
 62
         7
100
AcDbVertex
100
AcDb3dPolylineVertex
 10
1222.6840485577
 20
173.6834240423
 30
0.0
 70
        32
  0
VERTEX
  5
396
100
AcDbEntity
  8
_Y________
  6
CONTINUOUS
 62
         7
100
AcDbVertex
100
AcDb3dPolylineVertex
 10
1222.6840485577
 20
173.6834240423
 30
0.0
 70
        32
  0
SEQEND
  5
398
100
AcDbEntity
  8
_Y________
  6
CONTINUOUS
 62
         7
  0
ARC
  5
399
100
AcDbEntity
  8
_Y________
  6
CONTINUOUS
 62
         7
100
AcDbCircle
 10
1223.8870166494
 20
174.8121398851
 30
0.0
 40
1.6495853065
100
AcDbArc
 50
223.1760378472
 51
249.9999999999
  0
POLYLINE
  5
39B
100
AcDbEntity
  8
_Y________
  6
CONTINUOUS
 62
         7
100
AcDb3dPolyline
 66
         1
 10
0.0
 20
0.0
 30
0.0
 70
         8
  0
VERTEX
  5
39D
100
AcDbEntity
  8
_Y________
  6
CONTINUOUS
 62
         7
100
AcDbVertex
100
AcDb3dPolylineVertex
 10
1223.3228252464
 20
173.2620367452
 30
0.0
 70
        32
  0
VERTEX
  5
39F
100
AcDbEntity
  8
_Y________
  6
CONTINUOUS
 62
         7
100
AcDbVertex
100
AcDb3dPolylineVertex
 10
1223.3228252464
 20
173.2620367452
 30
0.0
 70
        32
  0
SEQEND
  5
3A1
100
AcDbEntity
  8
_Y________
  6
CONTINUOUS
 62
         7
  0
ARC
  5
3A2
100
AcDbEntity
  8
_Y________
  6
CONTINUOUS
 62
         7
100
AcDbCircle
 10
1223.8870166494
 20
174.8121398851
 30
0.0
 40
1.6495853065
100
AcDbArc
 50
250.0
 51
276.8239621528
  0
POLYLINE
  5
3A4
100
AcDbEntity
  8
_Y________
  6
CONTINUOUS
 62
         7
100
AcDb3dPolyline
 66
         1
 10
0.0
 20
0.0
 30
0.0
 70
         8
  0
VERTEX
  5
3A6
100
AcDbEntity
  8
_Y________
  6
CONTINUOUS
 62
         7
100
AcDbVertex
100
AcDb3dPolylineVertex
 10
1224.0830191126
 20
173.1742404017
 30
0.0
 70
        32
  0
VERTEX
  5
3A8
100
AcDbEntity
  8
_Y________
  6
CONTINUOUS
 62
         7
100
AcDbVertex
100
AcDb3dPolylineVertex
 10
1224.0830191126
 20
173.1742404017
 30
0.0
 70
        32
  0
SEQEND
  5
3AA
100
AcDbEntity
  8
_Y________
  6
CONTINUOUS
 62
         7
  0
ARC
  5
3AB
100
AcDbEntity
  8
_Y________
  6
CONTINUOUS
 62
         7
100
AcDbCircle
 10
1223.8361063207
 20
175.2375733193
 30
0.0
 40
2.0780540551
100
AcDbArc
 50
276.8239621528
 51
300.6773100904
  0
POLYLINE
  5
3AD
100
AcDbEntity
  8
_Y________
  6
CONTINUOUS
 62
         7
100
AcDb3dPolyline
 66
         1
 10
0.0
 20
0.0
 30
0.0
 70
         8
  0
VERTEX
  5
3AF
100
AcDbEntity
  8
_Y________
  6
CONTINUOUS
 62
         7
100
AcDbVertex
100
AcDb3dPolylineVertex
 10
1224.8963344135
 20
173.4503338146
 30
0.0
 70
        32
  0
VERTEX
  5
3B1
100
AcDbEntity
  8
_Y________
  6
CONTINUOUS
 62
         7
100
AcDbVertex
100
AcDb3dPolylineVertex
 10
1224.8963344135
 20
173.4503338146
 30
0.0
 70
        32
  0
SEQEND
  5
3B3
100
AcDbEntity
  8
_Y________
  6
CONTINUOUS
 62
         7
  0
ARC
  5
3B4
100
AcDbEntity
  8
_Y________
  6
CONTINUOUS
 62
         7
100
AcDbCircle
 10
1223.6363677896
 20
175.5742750119
 30
0.0
 40
2.4695428935
100
AcDbArc
 50
300.6773100903
 51
321.257725858
  0
POLYLINE
  5
3B6
100
AcDbEntity
  8
_Y________
  6
CONTINUOUS
 62
         7
100
AcDb3dPolyline
 66
         1
 10
0.0
 20
0.0
 30
0.0
 70
         8
  0
VERTEX
  5
3B8
100
AcDbEntity
  8
_Y________
  6
CONTINUOUS
 62
         7
100
AcDbVertex
100
AcDb3dPolylineVertex
 10
1225.5625343858
 20
174.0287898627
 30
0.0
 70
        32
  0
VERTEX
  5
3BA
100
AcDbEntity
  8
_Y________
  6
CONTINUOUS
 62
         7
100
AcDbVertex
100
AcDb3dPolylineVertex
 10
1225.5625343858
 20
174.0287898627
 30
0.0
 70
        32
  0
SEQEND
  5
3BC
100
AcDbEntity
  8
_Y________
  6
CONTINUOUS
 62
         7
  0
ARC
  5
3BD
100
AcDbEntity
  8
_Y________
  6
CONTINUOUS
 62
         7
100
AcDbCircle
 10
1223.2442904341
 20
175.8888634444
 30
0.0
 40
2.9722262277
100
AcDbArc
 50
321.257725858
 51
340.0
  0
POLYLINE
  5
3BF
100
AcDbEntity
  8
_Y________
  6
CONTINUOUS
 62
         7
100
AcDb3dPolyline
 66
         1
 10
0.0
 20
0.0
 30
0.0
 70
         8
  0
VERTEX
  5
3C1
100
AcDbEntity
  8
_Y________
  6
CONTINUOUS
 62
         7
100
AcDbVertex
100
AcDb3dPolylineVertex
 10
1226.0372694876
 20
174.872302204
 30
0.0
 70
        32
  0
VERTEX
  5
3C3
100
AcDbEntity
  8
_Y________
  6
CONTINUOUS
 62
         7
100
AcDbVertex
100
AcDb3dPolylineVertex
 10
1226.0372694876
 20
174.872302204
 30
0.0
 70
        32
  0
SEQEND
  5
3C5
100
AcDbEntity
  8
_Y________
  6
CONTINUOUS
 62
         7
  0
ARC
  5
3C6
100
AcDbEntity
  8
_Y________
  6
CONTINUOUS
 62
         7
100
AcDbCircle
 10
1223.2442904341
 20
175.8888634444
 30
0.0
 40
2.9722262277
100
AcDbArc
 50
339.9999999999
 51
358.742274142
  0
POLYLINE
  5
3C8
100
AcDbEntity
  8
_Y________
  6
CONTINUOUS
 62
         7
100
AcDb3dPolyline
 66
         1
 10
0.0
 20
0.0
 30
0.0
 70
         8
  0
VERTEX
  5
3CA
100
AcDbEntity
  8
_Y________
  6
CONTINUOUS
 62
         7
100
AcDbVertex
100
AcDb3dPolylineVertex
 10
1226.2158005825
 20
175.823623987
 30
0.0
 70
        32
  0
VERTEX
  5
3CC
100
AcDbEntity
  8
_Y________
  6
CONTINUOUS
 62
         7
100
AcDbVertex
100
AcDb3dPolylineVertex
 10
1226.2158005825
 20
175.823623987
 30
0.0
 70
        32
  0
SEQEND
  5
3CE
100
AcDbEntity
  8
_Y________
  6
CONTINUOUS
 62
         7
  0
ARC
  5
3CF
100
AcDbEntity
  8
_Y________
  6
CONTINUOUS
 62
         7
100
AcDbCircle
 10
1223.7468526601
 20
175.8778296988
 30
0.0
 40
2.4695428935
100
AcDbArc
 50
358.742274142
 51
379.3226899097
  0
POLYLINE
  5
3D1
100
AcDbEntity
  8
_Y________
  6
CONTINUOUS
 62
         7
100
AcDb3dPolyline
 66
         1
 10
0.0
 20
0.0
 30
0.0
 70
         8
  0
VERTEX
  5
3D3
100
AcDbEntity
  8
_Y________
  6
CONTINUOUS
 62
         7
100
AcDbVertex
100
AcDb3dPolylineVertex
 10
1226.0772861762
 20
176.694972116
 30
0.0
 70
        32
  0
VERTEX
  5
3D5
100
AcDbEntity
  8
_Y________
  6
CONTINUOUS
 62
         7
100
AcDbVertex
100
AcDb3dPolylineVertex
 10
1226.0772861762
 20
176.694972116
 30
0.0
 70
        32
  0
SEQEND
  5
3D7
100
AcDbEntity
  8
_Y________
  6
CONTINUOUS
 62
         7
  0
ARC
  5
3D8
100
AcDbEntity
  8
_Y________
  6
CONTINUOUS
 62
         7
100
AcDbCircle
 10
1224.1162889281
 20
176.0073687064
 30
0.0
 40
2.0780540551
100
AcDbArc
 50
19.3226899096
 51
43.1760378472
  0
POLYLINE
  5
3DA
100
AcDbEntity
  8
_Y________
  6
CONTINUOUS
 62
         7
100
AcDb3dPolyline
 66
         1
 10
0.0
 20
0.0
 30
0.0
 70
         8
  0
VERTEX
  5
3DC
100
AcDbEntity
  8
_Y________
  6
CONTINUOUS
 62
         7
100
AcDbVertex
100
AcDb3dPolylineVertex
 10
1225.6317199344
 20
177.429260939
 30
0.0
 70
        32
  0
VERTEX
  5
3DE
100
AcDbEntity
  8
_Y________
  6
CONTINUOUS
 62
         7
100
AcDbVertex
100
AcDb3dPolylineVertex
 10
1225.6317199344
 20
177.429260939
 30
0.0
 70
        32
  0
SEQEND
  5
3E0
100
AcDbEntity
  8
_Y________
  6
CONTINUOUS
 62
         7
  0
ARC
  5
3E1
100
AcDbEntity
  8
_Y________
  6
CONTINUOUS
 62
         7
100
AcDbCircle
 10
1224.4287518427
 20
176.3005450962
 30
0.0
 40
1.6495853065
100
AcDbArc
 50
43.1760378472
 51
70.0
  0
POLYLINE
  5
3E3
100
AcDbEntity
  8
_Y________
  6
CONTINUOUS
 62
         7
100
AcDb3dPolyline
 66
         1
 10
0.0
 20
0.0
 30
0.0
 70
         8
  0
VERTEX
  5
3E5
100
AcDbEntity
  8
_Y________
  6
CONTINUOUS
 62
         7
100
AcDbVertex
100
AcDb3dPolylineVertex
 10
1224.9929432457
 20
177.850648236
 30
0.0
 70
        32
  0
VERTEX
  5
3E7
100
AcDbEntity
  8
_Y________
  6
CONTINUOUS
 62
         7
100
AcDbVertex
100
AcDb3dPolylineVertex
 10
1224.9929432457
 20
177.850648236
 30
0.0
 70
        32
  0
SEQEND
  5
3E9
100
AcDbEntity
  8
_Y________
  6
CONTINUOUS
 62
         7
  0
ARC
  5
3EA
100
AcDbEntity
  8
_Y________
  6
CONTINUOUS
 62
         7
100
AcDbCircle
 10
1224.4287518427
 20
176.3005450962
 30
0.0
 40
1.6495853065
100
AcDbArc
 50
70.0000000001
 51
96.8239621529
  0
POLYLINE
  5
3EC
100
AcDbEntity
  8
_Y________
  6
CONTINUOUS
 62
         7
100
AcDb3dPolyline
 66
         1
 10
0.0
 20
0.0
 30
0.0
 70
         8
  0
VERTEX
  5
3EE
100
AcDbEntity
  8
_Y________
  6
CONTINUOUS
 62
         7
100
AcDbVertex
100
AcDb3dPolylineVertex
 10
1224.2327493795
 20
177.9384445796
 30
0.0
 70
        32
  0
VERTEX
  5
3F0
100
AcDbEntity
  8
_Y________
  6
CONTINUOUS
 62
         7
100
AcDbVertex
100
AcDb3dPolylineVertex
 10
1224.2327493795
 20
177.9384445796
 30
0.0
 70
        32
  0
SEQEND
  5
3F2
100
AcDbEntity
  8
_Y________
  6
CONTINUOUS
 62
         7
  0
ARC
  5
3F3
100
AcDbEntity
  8
_Y________
  6
CONTINUOUS
 62
         7
100
AcDbCircle
 10
1224.4796621714
 20
175.8751116619
 30
0.0
 40
2.0780540551
100
AcDbArc
 50
96.8239621528
 51
120.6773100904
  0
POLYLINE
  5
3F5
100
AcDbEntity
  8
_Y________
  6
CONTINUOUS
 62
         7
100
AcDb3dPolyline
 66
         1
 10
0.0
 20
0.0
 30
0.0
 70
         8
  0
VERTEX
  5
3F7
100
AcDbEntity
  8
_Y________
  6
CONTINUOUS
 62
         7
100
AcDbVertex
100
AcDb3dPolylineVertex
 10
1223.4194340786
 20
177.6623511666
 30
0.0
 70
        32
  0
VERTEX
  5
3F9
100
AcDbEntity
  8
_Y________
  6
CONTINUOUS
 62
         7
100
AcDbVertex
100
AcDb3dPolylineVertex
 10
1223.4194340786
 20
177.6623511666
 30
0.0
 70
        32
  0
SEQEND
  5
3FB
100
AcDbEntity
  8
_Y________
  6
CONTINUOUS
 62
         7
  0
ARC
  5
3FC
100
AcDbEntity
  8
_Y________
  6
CONTINUOUS
 62
         7
100
AcDbCircle
 10
1224.6794007025
 20
175.5384099693
 30
0.0
 40
2.4695428935
100
AcDbArc
 50
120.6773100903
 51
141.257725858
  0
ARC
  5
3FD
100
AcDbEntity
  8
_Y________
  6
CONTINUOUS
 62
         7
100
AcDbCircle
 10
1225.071478058
 20
175.2238215369
 30
0.0
 40
2.9722262277
100
AcDbArc
 50
141.257725858
 51
160.0
  0
LINE
  5
3FE
100
AcDbEntity
  8
_Y________
  6
CENTER
 62
         1
100
AcDbLine
 10
1226.9769621084
 20
174.5302820606
 30
0.0
 11
1221.3388063837
 21
176.5824029206
 31
0.0
  0
LINE
  5
3FF
100
AcDbEntity
  8
_Y________
  6
CENTER
 62
         1
100
AcDbLine
 10
1227.1031401709
 20
183.6483666388
 30
0.0
 11
1202.8730445027
 21
117.0767259189
 31
0.0
  0
LINE
  5
400
100
AcDbEntity
  8
_Y________
  6
CENTER
 62
         1
100
AcDbLine
 10
1611.3895898921
 20
182.8624526172
 30
0.0
 11
1635.3242136355
 21
117.102614339
 31
0.0
  0
LINE
  5
401
100
AcDbEntity
  8
_Y________
  6
DASHED
 62
         2
100
AcDbLine
 10
1629.5624348063
 20
127.085362768
 30
0.0
 11
1630.9989194082
 21
123.1386537607
 31
0.0
  0
LINE
  5
402
100
AcDbEntity
  8
_Y________
  6
DASHED
 62
         2
100
AcDbLine
 10
1633.3212052894
 20
128.4534433413
 30
0.0
 11
1629.5624348063
 21
127.085362768
 31
0.0
  0
LINE
  5
403
100
AcDbEntity
  8
_Y________
  6
DASHED
 62
         2
100
AcDbLine
 10
1633.3212052894
 20
128.4534433413
 30
0.0
 11
1634.7576898914
 21
124.506734334
 31
0.0
  0
LINE
  5
404
100
AcDbEntity
  8
_Y________
  6
DASHED
 62
         2
100
AcDbLine
 10
1627.3361377455
 20
143.8739497321
 30
0.0
 11
1632.9923128721
 21
128.3337362912
 31
0.0
  0
LINE
  5
405
100
AcDbEntity
  8
_Y________
  6
DASHED
 62
         2
100
AcDbLine
 10
1624.2351520969
 20
142.7452832592
 30
0.0
 11
1629.8913272235
 21
127.2050698182
 31
0.0
  0
LINE
  5
406
100
AcDbEntity
  8
_Y________
  6
DASHED
 62
         2
100
AcDbLine
 10
1616.675353529
 20
173.1642136406
 30
0.0
 11
1622.3315286556
 21
157.6240001996
 31
0.0
  0
LINE
  5
407
100
AcDbEntity
  8
_Y________
  6
DASHED
 62
         2
100
AcDbLine
 10
1613.5743678804
 20
172.0355471676
 30
0.0
 11
1619.2305430071
 21
156.4953337266
 31
0.0
  0
LINE
  5
408
100
AcDbEntity
  8
_Y________
  6
CONTINUOUS
 62
         4
100
AcDbLine
 10
1606.0638322273
 20
182.5500081107
 30
0.0
 11
1598.4909306441
 21
179.7936973474
 31
0.0
  0
INSERT
  5
447
100
AcDbEntity
  8
0
  6
CONTINUOUS
100
AcDbBlockReference
  2
*X21
 10
0.0
 20
0.0
 30
0.0
  0
LINE
  5
448
100
AcDbEntity
  8
_Y________
  6
CONTINUOUS
 62
         6
100
AcDbLine
 10
1611.3895898921
 20
182.8624526172
 30
0.0
 11
1609.5804793522
 21
187.832942975
 31
0.0
  0
TEXT
  5
44A
100
AcDbEntity
  8
_Y________
  6
CONTINUOUS
 62
         4
100
AcDbText
 10
1600.2911725555
 20
183.8770257851
 30
0.0
 40
6.0
  1
A
 50
20.0
  7
BOX
100
AcDbText
  0
LINE
  5
44B
100
AcDbEntity
  8
_Y________
  6
DASHED
 62
         2
100
AcDbLine
 10
1617.0042459463
 20
173.2839206908
 30
0.0
 11
1615.5677613443
 21
177.2306296981
 31
0.0
  0
LINE
  5
44C
100
AcDbEntity
  8
_Y________
  6
DASHED
 62
         2
100
AcDbLine
 10
1613.2454754631
 20
171.9158401175
 30
0.0
 11
1611.8089908611
 21
175.8625491248
 31
0.0
  0
LINE
  5
44D
100
AcDbEntity
  8
_Y________
  6
DASHED
 62
         2
100
AcDbLine
 10
1617.0042459463
 20
173.2839206908
 30
0.0
 11
1613.2454754631
 21
171.9158401175
 31
0.0
  0
ARC
  5
44E
100
AcDbEntity
  8
_Y________
  6
CONTINUOUS
 62
         7
100
AcDbCircle
 10
1632.559479564
 20
125.263967184
 30
0.0
 40
2.0780540551
100
AcDbArc
 50
136.8239621527
 51
160.6773100903
  0
ARC
  5
44F
100
AcDbEntity
  8
_Y________
  6
CONTINUOUS
 62
         7
100
AcDbCircle
 10
1632.1961063207
 20
125.1317101395
 30
0.0
 40
2.0780540551
100
AcDbArc
 50
59.3226899096
 51
83.1760378472
  0
POLYLINE
  5
451
100
AcDbEntity
  8
_Y________
  6
CONTINUOUS
 62
         7
100
AcDb3dPolyline
 66
         1
 10
0.0
 20
0.0
 30
0.0
 70
         8
  0
VERTEX
  5
453
100
AcDbEntity
  8
_Y________
  6
CONTINUOUS
 62
         7
100
AcDbVertex
100
AcDb3dPolylineVertex
 10
1634.4372861762
 20
123.6743113428
 30
0.0
 70
        32
  0
VERTEX
  5
455
100
AcDbEntity
  8
_Y________
  6
CONTINUOUS
 62
         7
100
AcDbVertex
100
AcDb3dPolylineVertex
 10
1634.4372861762
 20
123.6743113428
 30
0.0
 70
        32
  0
SEQEND
  5
457
100
AcDbEntity
  8
_Y________
  6
CONTINUOUS
 62
         7
  0
POLYLINE
  5
459
100
AcDbEntity
  8
_Y________
  6
CONTINUOUS
 62
         7
100
AcDb3dPolyline
 66
         1
 10
0.0
 20
0.0
 30
0.0
 70
         8
  0
VERTEX
  5
45B
100
AcDbEntity
  8
_Y________
  6
CONTINUOUS
 62
         7
100
AcDbVertex
100
AcDb3dPolylineVertex
 10
1633.9917199344
 20
122.9400225198
 30
0.0
 70
        32
  0
VERTEX
  5
45D
100
AcDbEntity
  8
_Y________
  6
CONTINUOUS
 62
         7
100
AcDbVertex
100
AcDb3dPolylineVertex
 10
1633.9917199344
 20
122.9400225198
 30
0.0
 70
        32
  0
SEQEND
  5
45F
100
AcDbEntity
  8
_Y________
  6
CONTINUOUS
 62
         7
  0
POLYLINE
  5
461
100
AcDbEntity
  8
_Y________
  6
CONTINUOUS
 62
         7
100
AcDb3dPolyline
 66
         1
 10
0.0
 20
0.0
 30
0.0
 70
         8
  0
VERTEX
  5
463
100
AcDbEntity
  8
_Y________
  6
CONTINUOUS
 62
         7
100
AcDbVertex
100
AcDb3dPolylineVertex
 10
1633.3529432457
 20
122.5186352228
 30
0.0
 70
        32
  0
VERTEX
  5
465
100
AcDbEntity
  8
_Y________
  6
CONTINUOUS
 62
         7
100
AcDbVertex
100
AcDb3dPolylineVertex
 10
1633.3529432457
 20
122.5186352228
 30
0.0
 70
        32
  0
SEQEND
  5
467
100
AcDbEntity
  8
_Y________
  6
CONTINUOUS
 62
         7
  0
POLYLINE
  5
469
100
AcDbEntity
  8
_Y________
  6
CONTINUOUS
 62
         7
100
AcDb3dPolyline
 66
         1
 10
0.0
 20
0.0
 30
0.0
 70
         8
  0
VERTEX
  5
46B
100
AcDbEntity
  8
_Y________
  6
CONTINUOUS
 62
         7
100
AcDbVertex
100
AcDb3dPolylineVertex
 10
1632.5927493795
 20
122.4308388792
 30
0.0
 70
        32
  0
VERTEX
  5
46D
100
AcDbEntity
  8
_Y________
  6
CONTINUOUS
 62
         7
100
AcDbVertex
100
AcDb3dPolylineVertex
 10
1632.5927493795
 20
122.4308388792
 30
0.0
 70
        32
  0
SEQEND
  5
46F
100
AcDbEntity
  8
_Y________
  6
CONTINUOUS
 62
         7
  0
POLYLINE
  5
471
100
AcDbEntity
  8
_Y________
  6
CONTINUOUS
 62
         7
100
AcDb3dPolyline
 66
         1
 10
0.0
 20
0.0
 30
0.0
 70
         8
  0
VERTEX
  5
473
100
AcDbEntity
  8
_Y________
  6
CONTINUOUS
 62
         7
100
AcDbVertex
100
AcDb3dPolylineVertex
 10
1631.7794340786
 20
122.7069322922
 30
0.0
 70
        32
  0
VERTEX
  5
475
100
AcDbEntity
  8
_Y________
  6
CONTINUOUS
 62
         7
100
AcDbVertex
100
AcDb3dPolylineVertex
 10
1631.7794340786
 20
122.7069322922
 30
0.0
 70
        32
  0
SEQEND
  5
477
100
AcDbEntity
  8
_Y________
  6
CONTINUOUS
 62
         7
  0
POLYLINE
  5
479
100
AcDbEntity
  8
_Y________
  6
CONTINUOUS
 62
         7
100
AcDb3dPolyline
 66
         1
 10
0.0
 20
0.0
 30
0.0
 70
         8
  0
VERTEX
  5
47B
100
AcDbEntity
  8
_Y________
  6
CONTINUOUS
 62
         7
100
AcDbVertex
100
AcDb3dPolylineVertex
 10
1631.1132341063
 20
123.2853883403
 30
0.0
 70
        32
  0
VERTEX
  5
47D
100
AcDbEntity
  8
_Y________
  6
CONTINUOUS
 62
         7
100
AcDbVertex
100
AcDb3dPolylineVertex
 10
1631.1132341063
 20
123.2853883403
 30
0.0
 70
        32
  0
SEQEND
  5
47F
100
AcDbEntity
  8
_Y________
  6
CONTINUOUS
 62
         7
  0
POLYLINE
  5
481
100
AcDbEntity
  8
_Y________
  6
CONTINUOUS
 62
         7
100
AcDb3dPolyline
 66
         1
 10
0.0
 20
0.0
 30
0.0
 70
         8
  0
VERTEX
  5
483
100
AcDbEntity
  8
_Y________
  6
CONTINUOUS
 62
         7
100
AcDbVertex
100
AcDb3dPolylineVertex
 10
1630.6384990045
 20
124.1289006815
 30
0.0
 70
        32
  0
VERTEX
  5
485
100
AcDbEntity
  8
_Y________
  6
CONTINUOUS
 62
         7
100
AcDbVertex
100
AcDb3dPolylineVertex
 10
1630.6384990045
 20
124.1289006815
 30
0.0
 70
        32
  0
SEQEND
  5
487
100
AcDbEntity
  8
_Y________
  6
CONTINUOUS
 62
         7
  0
POLYLINE
  5
489
100
AcDbEntity
  8
_Y________
  6
CONTINUOUS
 62
         7
100
AcDb3dPolyline
 66
         1
 10
0.0
 20
0.0
 30
0.0
 70
         8
  0
VERTEX
  5
48B
100
AcDbEntity
  8
_Y________
  6
CONTINUOUS
 62
         7
100
AcDbVertex
100
AcDb3dPolylineVertex
 10
1630.4599679096
 20
125.0802224645
 30
0.0
 70
        32
  0
VERTEX
  5
48D
100
AcDbEntity
  8
_Y________
  6
CONTINUOUS
 62
         7
100
AcDbVertex
100
AcDb3dPolylineVertex
 10
1630.4599679096
 20
125.0802224645
 30
0.0
 70
        32
  0
SEQEND
  5
48F
100
AcDbEntity
  8
_Y________
  6
CONTINUOUS
 62
         7
  0
POLYLINE
  5
491
100
AcDbEntity
  8
_Y________
  6
CONTINUOUS
 62
         7
100
AcDb3dPolyline
 66
         1
 10
0.0
 20
0.0
 30
0.0
 70
         8
  0
VERTEX
  5
493
100
AcDbEntity
  8
_Y________
  6
CONTINUOUS
 62
         7
100
AcDbVertex
100
AcDb3dPolylineVertex
 10
1630.5984823159
 20
125.9515705936
 30
0.0
 70
        32
  0
VERTEX
  5
495
100
AcDbEntity
  8
_Y________
  6
CONTINUOUS
 62
         7
100
AcDbVertex
100
AcDb3dPolylineVertex
 10
1630.5984823159
 20
125.9515705936
 30
0.0
 70
        32
  0
SEQEND
  5
497
100
AcDbEntity
  8
_Y________
  6
CONTINUOUS
 62
         7
  0
POLYLINE
  5
499
100
AcDbEntity
  8
_Y________
  6
CONTINUOUS
 62
         7
100
AcDb3dPolyline
 66
         1
 10
0.0
 20
0.0
 30
0.0
 70
         8
  0
VERTEX
  5
49B
100
AcDbEntity
  8
_Y________
  6
CONTINUOUS
 62
         7
100
AcDbVertex
100
AcDb3dPolylineVertex
 10
1631.0440485577
 20
126.6858594165
 30
0.0
 70
        32
  0
VERTEX
  5
49D
100
AcDbEntity
  8
_Y________
  6
CONTINUOUS
 62
         7
100
AcDbVertex
100
AcDb3dPolylineVertex
 10
1631.0440485577
 20
126.6858594165
 30
0.0
 70
        32
  0
SEQEND
  5
49F
100
AcDbEntity
  8
_Y________
  6
CONTINUOUS
 62
         7
  0
POLYLINE
  5
4A1
100
AcDbEntity
  8
_Y________
  6
CONTINUOUS
 62
         7
100
AcDb3dPolyline
 66
         1
 10
0.0
 20
0.0
 30
0.0
 70
         8
  0
VERTEX
  5
4A3
100
AcDbEntity
  8
_Y________
  6
CONTINUOUS
 62
         7
100
AcDbVertex
100
AcDb3dPolylineVertex
 10
1633.2563344135
 20
126.9189496442
 30
0.0
 70
        32
  0
VERTEX
  5
4A5
100
AcDbEntity
  8
_Y________
  6
CONTINUOUS
 62
         7
100
AcDbVertex
100
AcDb3dPolylineVertex
 10
1633.2563344135
 20
126.9189496442
 30
0.0
 70
        32
  0
SEQEND
  5
4A7
100
AcDbEntity
  8
_Y________
  6
CONTINUOUS
 62
         7
  0
POLYLINE
  5
4A9
100
AcDbEntity
  8
_Y________
  6
CONTINUOUS
 62
         7
100
AcDb3dPolyline
 66
         1
 10
0.0
 20
0.0
 30
0.0
 70
         8
  0
VERTEX
  5
4AB
100
AcDbEntity
  8
_Y________
  6
CONTINUOUS
 62
         7
100
AcDbVertex
100
AcDb3dPolylineVertex
 10
1633.9225343858
 20
126.340493596
 30
0.0
 70
        32
  0
VERTEX
  5
4AD
100
AcDbEntity
  8
_Y________
  6
CONTINUOUS
 62
         7
100
AcDbVertex
100
AcDb3dPolylineVertex
 10
1633.9225343858
 20
126.340493596
 30
0.0
 70
        32
  0
SEQEND
  5
4AF
100
AcDbEntity
  8
_Y________
  6
CONTINUOUS
 62
         7
  0
POLYLINE
  5
4B1
100
AcDbEntity
  8
_Y________
  6
CONTINUOUS
 62
         7
100
AcDb3dPolyline
 66
         1
 10
0.0
 20
0.0
 30
0.0
 70
         8
  0
VERTEX
  5
4B3
100
AcDbEntity
  8
_Y________
  6
CONTINUOUS
 62
         7
100
AcDbVertex
100
AcDb3dPolylineVertex
 10
1634.3972694876
 20
125.4969812548
 30
0.0
 70
        32
  0
VERTEX
  5
4B5
100
AcDbEntity
  8
_Y________
  6
CONTINUOUS
 62
         7
100
AcDbVertex
100
AcDb3dPolylineVertex
 10
1634.3972694876
 20
125.4969812548
 30
0.0
 70
        32
  0
SEQEND
  5
4B7
100
AcDbEntity
  8
_Y________
  6
CONTINUOUS
 62
         7
  0
ARC
  5
4B8
100
AcDbEntity
  8
_Y________
  6
CONTINUOUS
 62
         7
100
AcDbCircle
 10
1631.6042904341
 20
124.4804200144
 30
0.0
 40
2.9722262277
100
AcDbArc
 50
1.257725858
 51
20.0
  0
ARC
  5
4B9
100
AcDbEntity
  8
_Y________
  6
CONTINUOUS
 62
         7
100
AcDbCircle
 10
1632.1068526601
 20
124.49145376
 30
0.0
 40
2.4695428935
100
AcDbArc
 50
340.6773100904
 51
361.257725858
  0
ARC
  5
4BA
100
AcDbEntity
  8
_Y________
  6
CONTINUOUS
 62
         7
100
AcDbCircle
 10
1632.4762889281
 20
124.3619147524
 30
0.0
 40
2.0780540551
100
AcDbArc
 50
316.8239621527
 51
340.6773100903
  0
ARC
  5
4BB
100
AcDbEntity
  8
_Y________
  6
CONTINUOUS
 62
         7
100
AcDbCircle
 10
1632.7887518427
 20
124.0687383626
 30
0.0
 40
1.6495853065
100
AcDbArc
 50
290.0
 51
316.8239621528
  0
ARC
  5
4BC
100
AcDbEntity
  8
_Y________
  6
CONTINUOUS
 62
         7
100
AcDbCircle
 10
1632.7887518427
 20
124.0687383626
 30
0.0
 40
1.6495853065
100
AcDbArc
 50
263.1760378472
 51
290.0
  0
ARC
  5
4BD
100
AcDbEntity
  8
_Y________
  6
CONTINUOUS
 62
         7
100
AcDbCircle
 10
1632.8396621714
 20
124.4941717969
 30
0.0
 40
2.0780540551
100
AcDbArc
 50
239.3226899097
 51
263.1760378472
  0
ARC
  5
4BE
100
AcDbEntity
  8
_Y________
  6
CONTINUOUS
 62
         7
100
AcDbCircle
 10
1633.0394007025
 20
124.8308734895
 30
0.0
 40
2.4695428935
100
AcDbArc
 50
218.7422741419
 51
239.3226899096
  0
ARC
  5
4BF
100
AcDbEntity
  8
_Y________
  6
CONTINUOUS
 62
         7
100
AcDbCircle
 10
1633.431478058
 20
125.1454619219
 30
0.0
 40
2.9722262277
100
AcDbArc
 50
200.0
 51
218.742274142
  0
ARC
  5
4C0
100
AcDbEntity
  8
_Y________
  6
CONTINUOUS
 62
         7
100
AcDbCircle
 10
1633.431478058
 20
125.1454619219
 30
0.0
 40
2.9722262277
100
AcDbArc
 50
181.257725858
 51
200.0000000001
  0
ARC
  5
4C1
100
AcDbEntity
  8
_Y________
  6
CONTINUOUS
 62
         7
100
AcDbCircle
 10
1632.928915832
 20
125.1344281764
 30
0.0
 40
2.4695428935
100
AcDbArc
 50
160.6773100904
 51
181.257725858
  0
ARC
  5
4C2
100
AcDbEntity
  8
_Y________
  6
CONTINUOUS
 62
         7
100
AcDbCircle
 10
1631.9963677896
 20
124.7950084469
 30
0.0
 40
2.4695428935
100
AcDbArc
 50
38.742274142
 51
59.3226899096
  0
ARC
  5
4C3
100
AcDbEntity
  8
_Y________
  6
CONTINUOUS
 62
         7
100
AcDbCircle
 10
1631.6042904341
 20
124.4804200144
 30
0.0
 40
2.9722262277
100
AcDbArc
 50
20.0
 51
38.742274142
  0
LINE
  5
4C4
100
AcDbEntity
  8
_Y________
  6
CENTER
 62
         1
100
AcDbLine
 10
1629.6988063837
 20
123.7868805382
 30
0.0
 11
1635.3369621084
 21
125.8390013981
 31
0.0
  0
ARC
  5
4C5
100
AcDbEntity
  8
_Y________
  6
CONTINUOUS
 62
         7
100
AcDbCircle
 10
1632.2470166494
 20
125.5571435737
 30
0.0
 40
1.6495853065
100
AcDbArc
 50
110.0
 51
136.8239621528
  0
ARC
  5
4C6
100
AcDbEntity
  8
_Y________
  6
CONTINUOUS
 62
         7
100
AcDbCircle
 10
1632.2470166494
 20
125.5571435737
 30
0.0
 40
1.6495853065
100
AcDbArc
 50
83.1760378472
 51
110.0
  0
POLYLINE
  5
4C8
100
AcDbEntity
  8
_Y________
  6
CONTINUOUS
 62
         7
100
AcDb3dPolyline
 66
         1
 10
0.0
 20
0.0
 30
0.0
 70
         8
  0
VERTEX
  5
4CA
100
AcDbEntity
  8
_Y________
  6
CONTINUOUS
 62
         7
100
AcDbVertex
100
AcDb3dPolylineVertex
 10
1614.7872466739
 20
177.6623511666
 30
0.0
 70
        32
  0
VERTEX
  5
4CC
100
AcDbEntity
  8
_Y________
  6
CONTINUOUS
 62
         7
100
AcDbVertex
100
AcDb3dPolylineVertex
 10
1614.7872466739
 20
177.6623511666
 30
0.0
 70
        32
  0
SEQEND
  5
4CE
100
AcDbEntity
  8
_Y________
  6
CONTINUOUS
 62
         7
  0
POLYLINE
  5
4D0
100
AcDbEntity
  8
_Y________
  6
CONTINUOUS
 62
         7
100
AcDb3dPolyline
 66
         1
 10
0.0
 20
0.0
 30
0.0
 70
         8
  0
VERTEX
  5
4D2
100
AcDbEntity
  8
_Y________
  6
CONTINUOUS
 62
         7
100
AcDbVertex
100
AcDb3dPolylineVertex
 10
1613.973931373
 20
177.9384445796
 30
0.0
 70
        32
  0
VERTEX
  5
4D4
100
AcDbEntity
  8
_Y________
  6
CONTINUOUS
 62
         7
100
AcDbVertex
100
AcDb3dPolylineVertex
 10
1613.973931373
 20
177.9384445796
 30
0.0
 70
        32
  0
SEQEND
  5
4D6
100
AcDbEntity
  8
_Y________
  6
CONTINUOUS
 62
         7
  0
POLYLINE
  5
4D8
100
AcDbEntity
  8
_Y________
  6
CONTINUOUS
 62
         7
100
AcDb3dPolyline
 66
         1
 10
0.0
 20
0.0
 30
0.0
 70
         8
  0
VERTEX
  5
4DA
100
AcDbEntity
  8
_Y________
  6
CONTINUOUS
 62
         7
100
AcDbVertex
100
AcDb3dPolylineVertex
 10
1613.2137375068
 20
177.850648236
 30
0.0
 70
        32
  0
VERTEX
  5
4DC
100
AcDbEntity
  8
_Y________
  6
CONTINUOUS
 62
         7
100
AcDbVertex
100
AcDb3dPolylineVertex
 10
1613.2137375068
 20
177.850648236
 30
0.0
 70
        32
  0
SEQEND
  5
4DE
100
AcDbEntity
  8
_Y________
  6
CONTINUOUS
 62
         7
  0
POLYLINE
  5
4E0
100
AcDbEntity
  8
_Y________
  6
CONTINUOUS
 62
         7
100
AcDb3dPolyline
 66
         1
 10
0.0
 20
0.0
 30
0.0
 70
         8
  0
VERTEX
  5
4E2
100
AcDbEntity
  8
_Y________
  6
CONTINUOUS
 62
         7
100
AcDbVertex
100
AcDb3dPolylineVertex
 10
1612.5749608181
 20
177.429260939
 30
0.0
 70
        32
  0
VERTEX
  5
4E4
100
AcDbEntity
  8
_Y________
  6
CONTINUOUS
 62
         7
100
AcDbVertex
100
AcDb3dPolylineVertex
 10
1612.5749608181
 20
177.429260939
 30
0.0
 70
        32
  0
SEQEND
  5
4E6
100
AcDbEntity
  8
_Y________
  6
CONTINUOUS
 62
         7
  0
POLYLINE
  5
4E8
100
AcDbEntity
  8
_Y________
  6
CONTINUOUS
 62
         7
100
AcDb3dPolyline
 66
         1
 10
0.0
 20
0.0
 30
0.0
 70
         8
  0
VERTEX
  5
4EA
100
AcDbEntity
  8
_Y________
  6
CONTINUOUS
 62
         7
100
AcDbVertex
100
AcDb3dPolylineVertex
 10
1612.1293945764
 20
176.694972116
 30
0.0
 70
        32
  0
VERTEX
  5
4EC
100
AcDbEntity
  8
_Y________
  6
CONTINUOUS
 62
         7
100
AcDbVertex
100
AcDb3dPolylineVertex
 10
1612.1293945764
 20
176.694972116
 30
0.0
 70
        32
  0
SEQEND
  5
4EE
100
AcDbEntity
  8
_Y________
  6
CONTINUOUS
 62
         7
  0
POLYLINE
  5
4F0
100
AcDbEntity
  8
_Y________
  6
CONTINUOUS
 62
         7
100
AcDb3dPolyline
 66
         1
 10
0.0
 20
0.0
 30
0.0
 70
         8
  0
VERTEX
  5
4F2
100
AcDbEntity
  8
_Y________
  6
CONTINUOUS
 62
         7
100
AcDbVertex
100
AcDb3dPolylineVertex
 10
1611.99088017
 20
175.823623987
 30
0.0
 70
        32
  0
VERTEX
  5
4F4
100
AcDbEntity
  8
_Y________
  6
CONTINUOUS
 62
         7
100
AcDbVertex
100
AcDb3dPolylineVertex
 10
1611.99088017
 20
175.823623987
 30
0.0
 70
        32
  0
SEQEND
  5
4F6
100
AcDbEntity
  8
_Y________
  6
CONTINUOUS
 62
         7
  0
POLYLINE
  5
4F8
100
AcDbEntity
  8
_Y________
  6
CONTINUOUS
 62
         7
100
AcDb3dPolyline
 66
         1
 10
0.0
 20
0.0
 30
0.0
 70
         8
  0
VERTEX
  5
4FA
100
AcDbEntity
  8
_Y________
  6
CONTINUOUS
 62
         7
100
AcDbVertex
100
AcDb3dPolylineVertex
 10
1612.1694112649
 20
174.872302204
 30
0.0
 70
        32
  0
VERTEX
  5
4FC
100
AcDbEntity
  8
_Y________
  6
CONTINUOUS
 62
         7
100
AcDbVertex
100
AcDb3dPolylineVertex
 10
1612.1694112649
 20
174.872302204
 30
0.0
 70
        32
  0
SEQEND
  5
4FE
100
AcDbEntity
  8
_Y________
  6
CONTINUOUS
 62
         7
  0
POLYLINE
  5
500
100
AcDbEntity
  8
_Y________
  6
CONTINUOUS
 62
         7
100
AcDb3dPolyline
 66
         1
 10
0.0
 20
0.0
 30
0.0
 70
         8
  0
VERTEX
  5
502
100
AcDbEntity
  8
_Y________
  6
CONTINUOUS
 62
         7
100
AcDbVertex
100
AcDb3dPolylineVertex
 10
1612.6441463667
 20
174.0287898627
 30
0.0
 70
        32
  0
VERTEX
  5
504
100
AcDbEntity
  8
_Y________
  6
CONTINUOUS
 62
         7
100
AcDbVertex
100
AcDb3dPolylineVertex
 10
1612.6441463667
 20
174.0287898627
 30
0.0
 70
        32
  0
SEQEND
  5
506
100
AcDbEntity
  8
_Y________
  6
CONTINUOUS
 62
         7
  0
POLYLINE
  5
508
100
AcDbEntity
  8
_Y________
  6
CONTINUOUS
 62
         7
100
AcDb3dPolyline
 66
         1
 10
0.0
 20
0.0
 30
0.0
 70
         8
  0
VERTEX
  5
50A
100
AcDbEntity
  8
_Y________
  6
CONTINUOUS
 62
         7
100
AcDbVertex
100
AcDb3dPolylineVertex
 10
1613.310346339
 20
173.4503338146
 30
0.0
 70
        32
  0
VERTEX
  5
50C
100
AcDbEntity
  8
_Y________
  6
CONTINUOUS
 62
         7
100
AcDbVertex
100
AcDb3dPolylineVertex
 10
1613.310346339
 20
173.4503338146
 30
0.0
 70
        32
  0
SEQEND
  5
50E
100
AcDbEntity
  8
_Y________
  6
CONTINUOUS
 62
         7
  0
POLYLINE
  5
510
100
AcDbEntity
  8
_Y________
  6
CONTINUOUS
 62
         7
100
AcDb3dPolyline
 66
         1
 10
0.0
 20
0.0
 30
0.0
 70
         8
  0
VERTEX
  5
512
100
AcDbEntity
  8
_Y________
  6
CONTINUOUS
 62
         7
100
AcDbVertex
100
AcDb3dPolylineVertex
 10
1614.1236616399
 20
173.1742404017
 30
0.0
 70
        32
  0
VERTEX
  5
514
100
AcDbEntity
  8
_Y________
  6
CONTINUOUS
 62
         7
100
AcDbVertex
100
AcDb3dPolylineVertex
 10
1614.1236616399
 20
173.1742404017
 30
0.0
 70
        32
  0
SEQEND
  5
516
100
AcDbEntity
  8
_Y________
  6
CONTINUOUS
 62
         7
  0
POLYLINE
  5
518
100
AcDbEntity
  8
_Y________
  6
CONTINUOUS
 62
         7
100
AcDb3dPolyline
 66
         1
 10
0.0
 20
0.0
 30
0.0
 70
         8
  0
VERTEX
  5
51A
100
AcDbEntity
  8
_Y________
  6
CONTINUOUS
 62
         7
100
AcDbVertex
100
AcDb3dPolylineVertex
 10
1614.8838555061
 20
173.2620367452
 30
0.0
 70
        32
  0
VERTEX
  5
51C
100
AcDbEntity
  8
_Y________
  6
CONTINUOUS
 62
         7
100
AcDbVertex
100
AcDb3dPolylineVertex
 10
1614.8838555061
 20
173.2620367452
 30
0.0
 70
        32
  0
SEQEND
  5
51E
100
AcDbEntity
  8
_Y________
  6
CONTINUOUS
 62
         7
  0
POLYLINE
  5
520
100
AcDbEntity
  8
_Y________
  6
CONTINUOUS
 62
         7
100
AcDb3dPolyline
 66
         1
 10
0.0
 20
0.0
 30
0.0
 70
         8
  0
VERTEX
  5
522
100
AcDbEntity
  8
_Y________
  6
CONTINUOUS
 62
         7
100
AcDbVertex
100
AcDb3dPolylineVertex
 10
1615.5226321948
 20
173.6834240423
 30
0.0
 70
        32
  0
VERTEX
  5
524
100
AcDbEntity
  8
_Y________
  6
CONTINUOUS
 62
         7
100
AcDbVertex
100
AcDb3dPolylineVertex
 10
1615.5226321948
 20
173.6834240423
 30
0.0
 70
        32
  0
SEQEND
  5
526
100
AcDbEntity
  8
_Y________
  6
CONTINUOUS
 62
         7
  0
POLYLINE
  5
528
100
AcDbEntity
  8
_Y________
  6
CONTINUOUS
 62
         7
100
AcDb3dPolyline
 66
         1
 10
0.0
 20
0.0
 30
0.0
 70
         8
  0
VERTEX
  5
52A
100
AcDbEntity
  8
_Y________
  6
CONTINUOUS
 62
         7
100
AcDbVertex
100
AcDb3dPolylineVertex
 10
1615.9681984366
 20
174.4177128652
 30
0.0
 70
        32
  0
VERTEX
  5
52C
100
AcDbEntity
  8
_Y________
  6
CONTINUOUS
 62
         7
100
AcDbVertex
100
AcDb3dPolylineVertex
 10
1615.9681984366
 20
174.4177128652
 30
0.0
 70
        32
  0
SEQEND
  5
52E
100
AcDbEntity
  8
_Y________
  6
CONTINUOUS
 62
         7
  0
POLYLINE
  5
530
100
AcDbEntity
  8
_Y________
  6
CONTINUOUS
 62
         7
100
AcDb3dPolyline
 66
         1
 10
0.0
 20
0.0
 30
0.0
 70
         8
  0
VERTEX
  5
532
100
AcDbEntity
  8
_Y________
  6
CONTINUOUS
 62
         7
100
AcDbVertex
100
AcDb3dPolylineVertex
 10
1616.1067128429
 20
175.2890609943
 30
0.0
 70
        32
  0
VERTEX
  5
534
100
AcDbEntity
  8
_Y________
  6
CONTINUOUS
 62
         7
100
AcDbVertex
100
AcDb3dPolylineVertex
 10
1616.1067128429
 20
175.2890609943
 30
0.0
 70
        32
  0
SEQEND
  5
536
100
AcDbEntity
  8
_Y________
  6
CONTINUOUS
 62
         7
  0
POLYLINE
  5
538
100
AcDbEntity
  8
_Y________
  6
CONTINUOUS
 62
         7
100
AcDb3dPolyline
 66
         1
 10
0.0
 20
0.0
 30
0.0
 70
         8
  0
VERTEX
  5
53A
100
AcDbEntity
  8
_Y________
  6
CONTINUOUS
 62
         7
100
AcDbVertex
100
AcDb3dPolylineVertex
 10
1615.928181748
 20
176.2403827773
 30
0.0
 70
        32
  0
VERTEX
  5
53C
100
AcDbEntity
  8
_Y________
  6
CONTINUOUS
 62
         7
100
AcDbVertex
100
AcDb3dPolylineVertex
 10
1615.928181748
 20
176.2403827773
 30
0.0
 70
        32
  0
SEQEND
  5
53E
100
AcDbEntity
  8
_Y________
  6
CONTINUOUS
 62
         7
  0
LINE
  5
53F
100
AcDbEntity
  8
_Y________
  6
CENTER
 62
         1
100
AcDbLine
 10
1611.2297186441
 20
174.5302820606
 30
0.0
 11
1616.8678743688
 21
176.5824029206
 31
0.0
  0
ARC
  5
540
100
AcDbEntity
  8
_Y________
  6
CONTINUOUS
 62
         7
100
AcDbCircle
 10
1613.1352026945
 20
175.2238215369
 30
0.0
 40
2.9722262277
100
AcDbArc
 50
20.0
 51
38.742274142
  0
ARC
  5
541
100
AcDbEntity
  8
_Y________
  6
CONTINUOUS
 62
         7
100
AcDbCircle
 10
1613.52728005
 20
175.5384099693
 30
0.0
 40
2.4695428935
100
AcDbArc
 50
38.742274142
 51
59.3226899097
  0
ARC
  5
542
100
AcDbEntity
  8
_Y________
  6
CONTINUOUS
 62
         7
100
AcDbCircle
 10
1613.7270185811
 20
175.8751116619
 30
0.0
 40
2.0780540551
100
AcDbArc
 50
59.3226899096
 51
83.1760378472
  0
ARC
  5
543
100
AcDbEntity
  8
_Y________
  6
CONTINUOUS
 62
         7
100
AcDbCircle
 10
1613.7779289098
 20
176.3005450962
 30
0.0
 40
1.6495853065
100
AcDbArc
 50
83.1760378471
 51
109.9999999999
  0
ARC
  5
544
100
AcDbEntity
  8
_Y________
  6
CONTINUOUS
 62
         7
100
AcDbCircle
 10
1613.7779289098
 20
176.3005450962
 30
0.0
 40
1.6495853065
100
AcDbArc
 50
110.0
 51
136.8239621528
  0
ARC
  5
545
100
AcDbEntity
  8
_Y________
  6
CONTINUOUS
 62
         7
100
AcDbCircle
 10
1614.0903918245
 20
176.0073687064
 30
0.0
 40
2.0780540551
100
AcDbArc
 50
136.8239621528
 51
160.6773100904
  0
ARC
  5
546
100
AcDbEntity
  8
_Y________
  6
CONTINUOUS
 62
         7
100
AcDbCircle
 10
1614.4598280924
 20
175.8778296988
 30
0.0
 40
2.4695428935
100
AcDbArc
 50
160.6773100903
 51
181.257725858
  0
ARC
  5
547
100
AcDbEntity
  8
_Y________
  6
CONTINUOUS
 62
         7
100
AcDbCircle
 10
1614.9623903184
 20
175.8888634444
 30
0.0
 40
2.9722262277
100
AcDbArc
 50
181.257725858
 51
200.0000000001
  0
ARC
  5
548
100
AcDbEntity
  8
_Y________
  6
CONTINUOUS
 62
         7
100
AcDbCircle
 10
1614.9623903184
 20
175.8888634444
 30
0.0
 40
2.9722262277
100
AcDbArc
 50
200.0
 51
218.742274142
  0
ARC
  5
549
100
AcDbEntity
  8
_Y________
  6
CONTINUOUS
 62
         7
100
AcDbCircle
 10
1614.5703129629
 20
175.5742750119
 30
0.0
 40
2.4695428935
100
AcDbArc
 50
218.742274142
 51
239.3226899097
  0
ARC
  5
54A
100
AcDbEntity
  8
_Y________
  6
CONTINUOUS
 62
         7
100
AcDbCircle
 10
1614.3705744318
 20
175.2375733193
 30
0.0
 40
2.0780540551
100
AcDbArc
 50
239.3226899096
 51
263.1760378472
  0
ARC
  5
54B
100
AcDbEntity
  8
_Y________
  6
CONTINUOUS
 62
         7
100
AcDbCircle
 10
1614.3196641031
 20
174.8121398851
 30
0.0
 40
1.6495853065
100
AcDbArc
 50
263.1760378472
 51
290.0
  0
ARC
  5
54C
100
AcDbEntity
  8
_Y________
  6
CONTINUOUS
 62
         7
100
AcDbCircle
 10
1614.3196641031
 20
174.8121398851
 30
0.0
 40
1.6495853065
100
AcDbArc
 50
290.0000000001
 51
316.8239621528
  0
ARC
  5
54D
100
AcDbEntity
  8
_Y________
  6
CONTINUOUS
 62
         7
100
AcDbCircle
 10
1614.0072011885
 20
175.1053162748
 30
0.0
 40
2.0780540551
100
AcDbArc
 50
316.8239621527
 51
340.6773100903
  0
ARC
  5
54E
100
AcDbEntity
  8
_Y________
  6
CONTINUOUS
 62
         7
100
AcDbCircle
 10
1613.6377649205
 20
175.2348552824
 30
0.0
 40
2.4695428935
100
AcDbArc
 50
340.6773100903
 51
361.2577258579
  0
ARC
  5
54F
100
AcDbEntity
  8
_Y________
  6
CONTINUOUS
 62
         7
100
AcDbCircle
 10
1613.1352026945
 20
175.2238215369
 30
0.0
 40
2.9722262277
100
AcDbArc
 50
1.2577258579
 51
20.0
  0
TEXT
  5
551
100
AcDbEntity
  8
L1_65
  6
CONTINUOUS
 62
         2
100
AcDbText
 10
1607.8551181589
 20
224.3704784082
 30
0.0
 40
4.5
  1
531406
 41
0.98
  7
BOX
100
AcDbText
  0
ENDSEC
  0
SECTION
  2
OBJECTS
  0
DICTIONARY
  5
19
100
AcDbDictionary
  3
ACAD_GROUP
350
1A
  3
ACAD_MLINESTYLE
350
1B
  0
DICTIONARY
  5
1A
102
{ACAD_REACTORS
330
19
102
}
100
AcDbDictionary
  0
DICTIONARY
  5
1B
102
{ACAD_REACTORS
330
19
102
}
100
AcDbDictionary
  3
STANDARD
350
1C
  0
MLINESTYLE
  5
1C
102
{ACAD_REACTORS
330
1B
102
}
100
AcDbMlineStyle
  2
STANDARD
 70
         0
  3

 62
         0
 51
90.0
 52
90.0
 71
         2
 49
0.5
 62
       256
  6
BYLAYER
 49
-0.5
 62
       256
  6
BYLAYER
  0
ENDSEC
  0
EOF
