  0
SECTION
  2
HEADER
  9
$ACADVER
  1
AC1014
  9
$ACADMAINTVER
 70
         0
  9
$DWGCODEPAGE
  3
BIG5
  9
$INSBASE
 10
0.0
 20
0.0
 30
0.0
  9
$EXTMIN
 10
1106.5818670999
 20
-71.9328214803
 30
0.0
  9
$EXTMAX
 10
1731.6248136526
 20
243.1944450695
 30
0.0
  9
$LIMMIN
 10
0.0
 20
0.0
  9
$LIMMAX
 10
0.0
 20
0.0
  9
$ORTHOMODE
 70
         0
  9
$REGENMODE
 70
         1
  9
$FILLMODE
 70
         1
  9
$QTEXTMODE
 70
         0
  9
$MIRRTEXT
 70
         1
  9
$DRAGMODE
 70
         2
  9
$LTSCALE
 40
1.0
  9
$OSMODE
 70
         0
  9
$ATTMODE
 70
         1
  9
$TEXTSIZE
 40
1.7
  9
$TRACEWID
 40
0.05
  9
$TEXTSTYLE
  7
STANDARD
  9
$CLAYER
  8
0
  9
$CELTYPE
  6
CONTINUOUS
  9
$CECOLOR
 62
         4
  9
$CELTSCALE
 40
1.0
  9
$DELOBJ
 70
         1
  9
$DISPSILH
 70
         0
  9
$DIMSCALE
 40
1.0
  9
$DIMASZ
 40
0.18
  9
$DIMEXO
 40
0.0625
  9
$DIMDLI
 40
0.38
  9
$DIMRND
 40
0.0
  9
$DIMDLE
 40
0.0
  9
$DIMEXE
 40
0.25
  9
$DIMTP
 40
0.01
  9
$DIMTM
 40
-0.01
  9
$DIMTXT
 40
2.7
  9
$DIMCEN
 40
0.09
  9
$DIMTSZ
 40
0.0
  9
$DIMTOL
 70
         0
  9
$DIMLIM
 70
         0
  9
$DIMTIH
 70
         1
  9
$DIMTOH
 70
         1
  9
$DIMSE1
 70
         0
  9
$DIMSE2
 70
         0
  9
$DIMTAD
 70
         0
  9
$DIMZIN
 70
         0
  9
$DIMBLK
  1

  9
$DIMASO
 70
         1
  9
$DIMSHO
 70
         1
  9
$DIMPOST
  1

  9
$DIMAPOST
  1

  9
$DIMALT
 70
         0
  9
$DIMALTD
 70
         2
  9
$DIMALTF
 40
25.4
  9
$DIMLFAC
 40
1.0
  9
$DIMTOFL
 70
         0
  9
$DIMTVP
 40
0.0
  9
$DIMTIX
 70
         0
  9
$DIMSOXD
 70
         0
  9
$DIMSAH
 70
         0
  9
$DIMBLK1
  1

  9
$DIMBLK2
  1

  9
$DIMSTYLE
  2
STANDARD
  9
$DIMCLRD
 70
         0
  9
$DIMCLRE
 70
         0
  9
$DIMCLRT
 70
         4
  9
$DIMTFAC
 40
1.0
  9
$DIMGAP
 40
0.09
  9
$DIMJUST
 70
         0
  9
$DIMSD1
 70
         0
  9
$DIMSD2
 70
         0
  9
$DIMTOLJ
 70
         1
  9
$DIMTZIN
 70
         0
  9
$DIMALTZ
 70
         0
  9
$DIMALTTZ
 70
         0
  9
$DIMFIT
 70
         3
  9
$DIMUPT
 70
         0
  9
$DIMUNIT
 70
         2
  9
$DIMDEC
 70
         4
  9
$DIMTDEC
 70
         4
  9
$DIMALTU
 70
         2
  9
$DIMALTTD
 70
         2
  9
$DIMTXSTY
  7
STANDARD
  9
$DIMAUNIT
 70
         0
  9
$LUNITS
 70
         2
  9
$LUPREC
 70
        10
  9
$SKETCHINC
 40
0.1
  9
$FILLETRAD
 40
0.0
  9
$AUNITS
 70
         0
  9
$AUPREC
 70
         0
  9
$MENU
  1
acad
  9
$ELEVATION
 40
0.0
  9
$PELEVATION
 40
0.0
  9
$THICKNESS
 40
0.0
  9
$LIMCHECK
 70
         0
  9
$BLIPMODE
 70
         1
  9
$CHAMFERA
 40
0.0
  9
$CHAMFERB
 40
0.0
  9
$CHAMFERC
 40
0.0
  9
$CHAMFERD
 40
0.0
  9
$SKPOLY
 70
         0
  9
$TDCREATE
 40
0.000000000
  9
$TDUPDATE
 40
0.000000000
  9
$TDINDWG
 40
0.0000000000
  9
$TDUSRTIMER
 40
0.0000000000
  9
$USRTIMER
 70
         1
  9
$ANGBASE
 50
0.0
  9
$ANGDIR
 70
         0
  9
$PDMODE
 70
         2
  9
$PDSIZE
 40
0.0
  9
$PLINEWID
 40
0.0
  9
$COORDS
 70
         1
  9
$SPLFRAME
 70
         0
  9
$SPLINETYPE
 70
         6
  9
$SPLINESEGS
 70
         8
  9
$ATTDIA
 70
         0
  9
$ATTREQ
 70
         1
  9
$HANDLING
 70
         1
  9
$HANDSEED
  5
532
  9
$SURFTAB1
 70
         6
  9
$SURFTAB2
 70
         6
  9
$SURFTYPE
 70
         6
  9
$SURFU
 70
         6
  9
$SURFV
 70
         6
  9
$UCSNAME
  2

  9
$UCSORG
 10
0.0
 20
0.0
 30
0.0
  9
$UCSXDIR
 10
1.0
 20
0.0
 30
0.0
  9
$UCSYDIR
 10
0.0
 20
1.0
 30
0.0
  9
$PUCSNAME
  2

  9
$PUCSORG
 10
0.0
 20
0.0
 30
0.0
  9
$PUCSXDIR
 10
1.0
 20
0.0
 30
0.0
  9
$PUCSYDIR
 10
0.0
 20
1.0
 30
0.0
  9
$USERI1
 70
         0
  9
$USERI2
 70
         0
  9
$USERI3
 70
         0
  9
$USERI4
 70
         0
  9
$USERI5
 70
         0
  9
$USERR1
 40
0.0
  9
$USERR2
 40
0.0
  9
$USERR3
 40
0.0
  9
$USERR4
 40
0.0
  9
$USERR5
 40
0.0
  9
$WORLDVIEW
 70
         1
  9
$SHADEDGE
 70
         3
  9
$SHADEDIF
 70
        70
  9
$TILEMODE
 70
         1
  9
$MAXACTVP
 70
        16
  9
$PINSBASE
 10
0.0
 20
0.0
 30
0.0
  9
$PLIMCHECK
 70
         0
  9
$PEXTMIN
 10
1.0000000000E+20
 20
1.0000000000E+20
 30
1.0000000000E+20
  9
$PEXTMAX
 10
-1.0000000000E+20
 20
-1.0000000000E+20
 30
-1.0000000000E+20
  9
$PLIMMIN
 10
0.0
 20
0.0
  9
$PLIMMAX
 10
12.0
 20
9.0
  9
$UNITMODE
 70
         0
  9
$VISRETAIN
 70
         0
  9
$PLINEGEN
 70
         1
  9
$PSLTSCALE
 70
         0
  9
$TREEDEPTH
 70
      3020
  9
$PICKSTYLE
 70
         1
  9
$CMLSTYLE
  2
STANDARD
  9
$CMLJUST
 70
         0
  9
$CMLSCALE
 40
1.0
  9
$PROXYGRAPHICS
 70
         0
  9
$MEASUREMENT
 70
         0
  0
ENDSEC
  0
SECTION
  2
CLASSES
  0
CLASS
  1
LWPOLYLINE
  2
AcDbPolyline
  3
"AutoCAD"
 90
        0
280
         0
281
         1
  0
CLASS
  1
IMAGE
  2
AcDbRasterImage
  3
ISM
 90
      127
280
         0
281
         1
  0
CLASS
  1
OLE2FRAME
  2
AcDbOle2Frame
  3
""
 90
        0
280
         0
281
         1
  0
CLASS
  1
HATCH
  2
AcDbHatch
  3
"ACAD_SEDONA"
 90
        0
280
         0
281
         1
  0
CLASS
  1
DICTIONARYVAR
  2
AcDbDictionaryVar
  3
"AutoCAD"
 90
        0
280
         0
281
         0
  0
CLASS
  1
RASTERVARIABLES
  2
AcDbRasterVariables
  3
ISM
 90
        0
280
         0
281
         0
  0
CLASS
  1
IMAGEDEF
  2
AcDbRasterImageDef
  3
ISM
 90
        0
280
         0
281
         0
  0
CLASS
  1
IMAGEDEF_REACTOR
  2
AcDbRasterImageDefReactor
  3
ISM
 90
        1
280
         0
281
         0
  0
CLASS
  1
IDBUFFER
  2
AcDbIdBuffer
  3
"Acad"
 90
        0
280
         0
281
         0
  0
CLASS
  1
SPATIAL_FILTER
  2
AcDbSpatialFilter
  3
"Acad"
 90
        0
280
         0
281
         0
  0
CLASS
  1
XRECORD
  2
AcDbXrecord
  3
"<Built In>"
 90
        0
280
         0
281
         0
  0
CLASS
  1
SORTENTSTABLE
  2
AcDbSortentsTable
  3
"AutoCAD"
 90
        0
280
         0
281
         0
  0
CLASS
  1
LAYER_INDEX
  2
AcDbLayerIndex
  3
"Acad"
 90
        0
280
         0
281
         0
  0
CLASS
  1
SPATIAL_INDEX
  2
AcDbSpatialIndex
  3
"Acad"
 90
        0
280
         0
281
         0
  0
CLASS
  1
OBJECT_PTR
  2
CAseDLPNTableRecord
  3
"ASE-LPNTableRecord"
 90
        1
280
         0
281
         0
  0
CLASS
  1
LAYOUT
  2
AcDbLayout
  3
"AutoCAD 2000"
 90
        1
280
         0
281
         0
  0
CLASS
  1
PLOTSETTINGS
  2
AcDbPlotSettings
  3
"AutoCAD 2000"
 90
        1
280
         0
281
         0
  0
CLASS
  1
ACDBDICTIONARYWDFLT
  2
AcDbDictionaryWithDefault
  3
"AutoCAD 2000"
 90
        1
280
         0
281
         0
  0
CLASS
  1
ACDBPLACEHOLDER
  2
AcDbPlaceHolder
  3
"AutoCAD 2000"
 90
        1
280
         0
281
         0
  0
CLASS
  1
VBA_PROJECT
  2
AcDbVbaProject
  3
"acadvba"
 90
        1
280
         0
281
         0
  0
CLASS
  1
WIPEOUT
  2
AcDbWipeout
  3
WipeOut|AutoCAD Express Tool|expresstools@autodesk.com
 90
      127
280
         0
281
         1
  0
CLASS
  1
WIPEOUTVARIABLES
  2
AcDbWipeoutVariables
  3
WipeOut|AutoCAD Express Tool|expresstools@autodesk.com
 90
        0
280
         0
281
         0
  0
CLASS
  1
RTEXT
  2
RText
  3
RText|AutoCAD Express Tool|expresstools@autodesk.com
 90
        0
280
         0
281
         1
  0
CLASS
  1
ARCALIGNEDTEXT
  2
AcDbArcAlignedText
  3
ATEXT|AutoCAD Express Tool|expresstools@autodesk.com
 90
        0
280
         0
281
         1
  0
ENDSEC
  0
SECTION
  2
TABLES
  0
TABLE
  2
VPORT
  5
7
100
AcDbSymbolTable
 70
         1
  0
VPORT
  5
15
100
AcDbSymbolTableRecord
100
AcDbViewportTableRecord
  2
*ACTIVE
 70
         0
 10
0.0
 20
0.0
 11
1.0
 21
1.0
 12
1419.1033403763
 22
85.6308117946
 13
0.0
 23
0.0
 14
1.0
 24
1.0
 15
0.0
 25
0.0
 16
0.0
 26
0.0
 36
1.0
 17
0.0
 27
0.0
 37
0.0
 40
315.1272665499
 41
1.9834619625
 42
50.0
 43
0.0
 44
0.0
 50
0.0
 51
0.0
 71
         0
 72
       100
 73
         1
 74
         1
 75
         0
 76
         0
 77
         0
 78
         0
  0
ENDTAB
  0
TABLE
  2
LTYPE
  5
4
100
AcDbSymbolTable
 70
         6
  0
LTYPE
  5
11
100
AcDbSymbolTableRecord
100
AcDbLinetypeTableRecord
  2
BYBLOCK
 70
        64
  3

 72
        65
 73
         0
 40
0.0
  0
LTYPE
  5
12
100
AcDbSymbolTableRecord
100
AcDbLinetypeTableRecord
  2
BYLAYER
 70
        64
  3

 72
        65
 73
         0
 40
0.0
  0
LTYPE
  5
13
100
AcDbSymbolTableRecord
100
AcDbLinetypeTableRecord
  2
CONTINUOUS
 70
        64
  3
Solid line
 72
        65
 73
         0
 40
0.0
  0
LTYPE
  5
1D
100
AcDbSymbolTableRecord
100
AcDbLinetypeTableRecord
  2
DASHED
 70
        64
  3
_ _ _ _ _ _ _ _ _ _ _ _ _ _ _ _
 72
        65
 73
         2
 40
0.2
 49
0.1
 74
         0
 49
-0.1
 74
         0
  0
LTYPE
  5
1E
100
AcDbSymbolTableRecord
100
AcDbLinetypeTableRecord
  2
CENTER
 70
        64
  3
___ _ ___ _ ___ _ ___ _ ___ _ ___ _ ___ _ ___ _
 72
        65
 73
         4
 40
0.95
 49
0.625
 74
         0
 49
-0.125
 74
         0
 49
0.075
 74
         0
 49
-0.125
 74
         0
  0
LTYPE
  5
1F
100
AcDbSymbolTableRecord
100
AcDbLinetypeTableRecord
  2
PHANTOM
 70
        64
  3
______  __  __  ______  __  __  ______  __  __  
 72
        65
 73
         6
 40
1.025
 49
0.625
 74
         0
 49
-0.125
 74
         0
 49
0.075
 74
         0
 49
-0.125
 74
         0
 49
0.075
 74
         0
 49
-0.125
 74
         0
  0
ENDTAB
  0
TABLE
  2
LAYER
  5
2
100
AcDbSymbolTable
 70
        11
  0
LAYER
  5
14
100
AcDbSymbolTableRecord
100
AcDbLayerTableRecord
  2
0
 70
         0
 62
         7
  6
CONTINUOUS
  0
LAYER
  5
21
100
AcDbSymbolTableRecord
100
AcDbLayerTableRecord
  2
_____U
 70
         1
 62
         7
  6
CONTINUOUS
  0
LAYER
  5
22
100
AcDbSymbolTableRecord
100
AcDbLayerTableRecord
  2
___T______
 70
         1
 62
         7
  6
CONTINUOUS
  0
LAYER
  5
23
100
AcDbSymbolTableRecord
100
AcDbLayerTableRecord
  2
_____T______
 70
         1
 62
         7
  6
CONTINUOUS
  0
LAYER
  5
24
100
AcDbSymbolTableRecord
100
AcDbLayerTableRecord
  2
______L_______
 70
         1
 62
         7
  6
CONTINUOUS
  0
LAYER
  5
25
100
AcDbSymbolTableRecord
100
AcDbLayerTableRecord
  2
_____M_____M____
 70
         1
 62
         7
  6
CONTINUOUS
  0
LAYER
  5
26
100
AcDbSymbolTableRecord
100
AcDbLayerTableRecord
  2
___L_W______
 70
         1
 62
         7
  6
CONTINUOUS
  0
LAYER
  5
27
100
AcDbSymbolTableRecord
100
AcDbLayerTableRecord
  2
_Y__________
 70
         0
 62
         7
  6
CONTINUOUS
  0
LAYER
  5
28
100
AcDbSymbolTableRecord
100
AcDbLayerTableRecord
  2
_X______
 70
         0
 62
         7
  6
CONTINUOUS
  0
LAYER
  5
29
100
AcDbSymbolTableRecord
100
AcDbLayerTableRecord
  2
L1_65
 70
         0
 62
         7
  6
CONTINUOUS
  0
LAYER
  5
2E
100
AcDbSymbolTableRecord
100
AcDbLayerTableRecord
  2
DEFPOINTS
 70
         0
 62
        -7
  6
CONTINUOUS
  0
ENDTAB
  0
TABLE
  2
STYLE
  5
3
100
AcDbSymbolTable
 70
        13
  0
STYLE
  5
17
100
AcDbSymbolTableRecord
100
AcDbTextStyleTableRecord
  2
STANDARD
 70
         0
 40
0.0
 41
1.0
 50
0.0
 71
         0
 42
0.0
  3
txt
  4

  0
STYLE
  5
37
100
AcDbSymbolTableRecord
100
AcDbTextStyleTableRecord
  2
BOX
 70
         0
 40
1.0
 41
1.0
 50
0.0
 71
         0
 42
0.2
  3
txt.shx
  4

  0
STYLE
  5
9A
100
AcDbSymbolTableRecord
100
AcDbTextStyleTableRecord
  2
BOX
 70
         0
 40
1.0
 41
1.0
 50
0.0
 71
         0
 42
0.2
  3
txt.shx
  4

  0
STYLE
  5
104
100
AcDbSymbolTableRecord
100
AcDbTextStyleTableRecord
  2
BOX
 70
         0
 40
1.0
 41
1.0
 50
0.0
 71
         0
 42
0.2
  3
txt.shx
  4

  0
STYLE
  5
112
100
AcDbSymbolTableRecord
100
AcDbTextStyleTableRecord
  2
BOX
 70
         0
 40
1.0
 41
1.0
 50
0.0
 71
         0
 42
0.2
  3
txt.shx
  4

  0
STYLE
  5
13F
100
AcDbSymbolTableRecord
100
AcDbTextStyleTableRecord
  2
BOX
 70
         0
 40
1.0
 41
1.0
 50
0.0
 71
         0
 42
0.2
  3
txt.shx
  4

  0
STYLE
  5
1E8
100
AcDbSymbolTableRecord
100
AcDbTextStyleTableRecord
  2
BOX
 70
         0
 40
1.0
 41
1.0
 50
0.0
 71
         0
 42
0.2
  3
txt.shx
  4

  0
STYLE
  5
229
100
AcDbSymbolTableRecord
100
AcDbTextStyleTableRecord
  2
BOX
 70
         0
 40
1.0
 41
1.0
 50
0.0
 71
         0
 42
0.2
  3
txt.shx
  4

  0
STYLE
  5
237
100
AcDbSymbolTableRecord
100
AcDbTextStyleTableRecord
  2
BOX
 70
         0
 40
1.0
 41
1.0
 50
0.0
 71
         0
 42
0.2
  3
txt.shx
  4

  0
STYLE
  5
256
100
AcDbSymbolTableRecord
100
AcDbTextStyleTableRecord
  2
BOX
 70
         0
 40
1.0
 41
1.0
 50
0.0
 71
         0
 42
0.2
  3
txt.shx
  4

  0
STYLE
  5
273
100
AcDbSymbolTableRecord
100
AcDbTextStyleTableRecord
  2
BOX
 70
         0
 40
1.0
 41
1.0
 50
0.0
 71
         0
 42
0.2
  3
txt.shx
  4

  0
STYLE
  5
291
100
AcDbSymbolTableRecord
100
AcDbTextStyleTableRecord
  2
BOX
 70
         0
 40
1.0
 41
1.0
 50
0.0
 71
         0
 42
0.2
  3
txt.shx
  4

  0
STYLE
  5
530
100
AcDbSymbolTableRecord
100
AcDbTextStyleTableRecord
  2
BOX
 70
         0
 40
1.0
 41
1.0
 50
0.0
 71
         0
 42
0.2
  3
txt.shx
  4

  0
ENDTAB
  0
TABLE
  2
VIEW
  5
5
100
AcDbSymbolTable
 70
         0
  0
ENDTAB
  0
TABLE
  2
UCS
  5
6
100
AcDbSymbolTable
 70
         1
  0
UCS
  5
20
100
AcDbSymbolTableRecord
100
AcDbUCSTableRecord
  2
CK_VIEW_1
 70
         0
 10
0.0
 20
0.0
 30
1.0
 11
1.0
 21
0.0
 31
0.0
 12
0.0
 22
1.0
 32
0.0
  0
ENDTAB
  0
TABLE
  2
APPID
  5
8
100
AcDbSymbolTable
 70
         1
  0
APPID
  5
16
100
AcDbSymbolTableRecord
100
AcDbRegAppTableRecord
  2
ACAD
 70
         0
  0
ENDTAB
  0
TABLE
  2
DIMSTYLE
  5
9
100
AcDbSymbolTable
 70
         2
  0
DIMSTYLE
105
18
100
AcDbSymbolTableRecord
100
AcDbDimStyleTableRecord
  2
STANDARD
 70
         0
  3

  4

  5

  6

  7

 40
1.0
 41
0.18
 42
0.0625
 43
0.38
 44
0.18
 45
0.0
 46
0.0
 47
0.0
 48
0.0
 71
         0
 72
         0
 73
         1
 74
         1
 75
         0
 76
         0
 77
         0
 78
         0
140
0.18
141
0.09
142
0.0
143
25.4
144
1.0
145
0.0
146
1.0
147
0.09
170
         0
171
         2
172
         0
173
         0
174
         0
175
         0
176
         0
177
         0
178
         0
270
         2
271
         4
272
         4
273
         2
274
         2
275
         0
280
         0
281
         0
282
         0
283
         1
284
         0
285
         0
286
         0
287
         0
288
         0
340
17
  0
DIMSTYLE
105
2A
100
AcDbSymbolTableRecord
100
AcDbDimStyleTableRecord
  2
DIMSTYLE1
 70
         0
  3

  4

  5

  6

  7

 40
1.0
 41
2.7
 42
0.0625
 43
0.38
 44
2.7
 45
0.0
 46
0.0
 47
0.0
 48
0.0
 71
         0
 72
         0
 73
         1
 74
         1
 75
         0
 76
         0
 77
         0
 78
         0
140
2.7
141
0.09
142
0.0
143
25.4
144
1.0
145
0.0
146
1.0
147
0.09
170
         0
171
         2
172
         0
173
         0
174
         0
175
         0
176
         0
177
         0
178
         0
270
         2
271
         4
272
         4
273
         2
274
         2
275
         0
280
         0
281
         0
282
         0
283
         1
284
         0
285
         0
286
         0
287
         0
288
         0
340
17
  0
ENDTAB
  0
TABLE
  2
BLOCK_RECORD
  5
1
100
AcDbSymbolTable
 70
        23
  0
BLOCK_RECORD
  5
A
100
AcDbSymbolTableRecord
100
AcDbBlockTableRecord
  2
*MODEL_SPACE
  0
BLOCK_RECORD
  5
B
100
AcDbSymbolTableRecord
100
AcDbBlockTableRecord
  2
*PAPER_SPACE
  0
BLOCK_RECORD
  5
2B
100
AcDbSymbolTableRecord
100
AcDbBlockTableRecord
  2
*D0
  0
BLOCK_RECORD
  5
64
100
AcDbSymbolTableRecord
100
AcDbBlockTableRecord
  2
*X1
  0
BLOCK_RECORD
  5
6F
100
AcDbSymbolTableRecord
100
AcDbBlockTableRecord
  2
*X2
  0
BLOCK_RECORD
  5
76
100
AcDbSymbolTableRecord
100
AcDbBlockTableRecord
  2
*X3
  0
BLOCK_RECORD
  5
7D
100
AcDbSymbolTableRecord
100
AcDbBlockTableRecord
  2
*X4
  0
BLOCK_RECORD
  5
88
100
AcDbSymbolTableRecord
100
AcDbBlockTableRecord
  2
*X5
  0
BLOCK_RECORD
  5
8F
100
AcDbSymbolTableRecord
100
AcDbBlockTableRecord
  2
*D6
  0
BLOCK_RECORD
  5
C7
100
AcDbSymbolTableRecord
100
AcDbBlockTableRecord
  2
*X7
  0
BLOCK_RECORD
  5
D2
100
AcDbSymbolTableRecord
100
AcDbBlockTableRecord
  2
*X8
  0
BLOCK_RECORD
  5
D9
100
AcDbSymbolTableRecord
100
AcDbBlockTableRecord
  2
*X9
  0
BLOCK_RECORD
  5
E0
100
AcDbSymbolTableRecord
100
AcDbBlockTableRecord
  2
*X10
  0
BLOCK_RECORD
  5
EB
100
AcDbSymbolTableRecord
100
AcDbBlockTableRecord
  2
*X11
  0
BLOCK_RECORD
  5
F9
100
AcDbSymbolTableRecord
100
AcDbBlockTableRecord
  2
*D12
  0
BLOCK_RECORD
  5
107
100
AcDbSymbolTableRecord
100
AcDbBlockTableRecord
  2
*D13
  0
BLOCK_RECORD
  5
132
100
AcDbSymbolTableRecord
100
AcDbBlockTableRecord
  2
*D14
  0
BLOCK_RECORD
  5
1DD
100
AcDbSymbolTableRecord
100
AcDbBlockTableRecord
  2
*D15
  0
BLOCK_RECORD
  5
21E
100
AcDbSymbolTableRecord
100
AcDbBlockTableRecord
  2
*D16
  0
BLOCK_RECORD
  5
22C
100
AcDbSymbolTableRecord
100
AcDbBlockTableRecord
  2
*D17
  0
BLOCK_RECORD
  5
24B
100
AcDbSymbolTableRecord
100
AcDbBlockTableRecord
  2
*D18
  0
BLOCK_RECORD
  5
268
100
AcDbSymbolTableRecord
100
AcDbBlockTableRecord
  2
*D19
  0
BLOCK_RECORD
  5
286
100
AcDbSymbolTableRecord
100
AcDbBlockTableRecord
  2
*D20
  0
BLOCK_RECORD
  5
4C0
100
AcDbSymbolTableRecord
100
AcDbBlockTableRecord
  2
*X21
  0
BLOCK_RECORD
  5
4E6
100
AcDbSymbolTableRecord
100
AcDbBlockTableRecord
  2
*X22
  0
ENDTAB
  0
ENDSEC
  0
SECTION
  2
BLOCKS
  0
BLOCK
  5
D
100
AcDbEntity
  8
0
100
AcDbBlockBegin
  2
*MODEL_SPACE
 70
         0
 10
0.0
 20
0.0
 30
0.0
  3
*MODEL_SPACE
  1

  0
ENDBLK
  5
E
100
AcDbEntity
  8
0
100
AcDbBlockEnd
  0
BLOCK
  5
F
100
AcDbEntity
 67
         1
  8
0
100
AcDbBlockBegin
  2
*PAPER_SPACE
 70
         0
 10
0.0
 20
0.0
 30
0.0
  3
*PAPER_SPACE
  1

  0
ENDBLK
  5
10
100
AcDbEntity
 67
         1
  8
0
100
AcDbBlockEnd
  0
BLOCK
  5
2C
100
AcDbEntity
  8
0
100
AcDbBlockBegin
  2
*D0
 70
        65
 10
0.0
 20
0.0
 30
0.0
  3
*D0
  1

  0
POINT
  5
2F
100
AcDbEntity
  8
DEFPOINTS
  6
CONTINUOUS
 62
         0
100
AcDbPoint
 10
1400.0033403763
 20
105.0309089868
 30
0.0
  0
POINT
  5
30
100
AcDbEntity
  8
DEFPOINTS
  6
CONTINUOUS
 62
         0
100
AcDbPoint
 10
1400.0033403763
 20
127.9596417294
 30
0.0
  0
POINT
  5
31
100
AcDbEntity
  8
DEFPOINTS
  6
CONTINUOUS
 62
         0
100
AcDbPoint
 10
1465.0033403763
 20
137.7205401142
 30
0.0
  0
LINE
  5
32
100
AcDbEntity
  8
L1_65
  6
CONTINUOUS
 62
         4
100
AcDbLine
 10
1400.0033403763
 20
126.6096417294
 30
0.0
 11
1400.0033403763
 21
104.3559089868
 31
0.0
  0
LINE
  5
33
100
AcDbEntity
  8
L1_65
  6
CONTINUOUS
 62
         4
100
AcDbLine
 10
1465.0033403763
 20
136.3705401142
 30
0.0
 11
1465.0033403763
 21
104.3559089868
 31
0.0
  0
LINE
  5
34
100
AcDbEntity
  8
L1_65
  6
CONTINUOUS
 62
         4
100
AcDbLine
 10
1400.0033403763
 20
105.0309089868
 30
0.0
 11
1465.0033403763
 21
105.0309089868
 31
0.0
  0
SOLID
  5
35
100
AcDbEntity
  8
L1_65
  6
CONTINUOUS
 62
         4
100
AcDbTrace
 10
1400.0033403763
 20
105.0309089868
 30
0.0
 11
1402.7033403763
 21
105.4359089868
 31
0.0
 12
1402.7033403763
 22
104.6259089868
 32
0.0
 13
1400.0033403763
 23
105.0309089868
 33
0.0
  0
SOLID
  5
36
100
AcDbEntity
  8
L1_65
  6
CONTINUOUS
 62
         4
100
AcDbTrace
 10
1465.0033403763
 20
105.0309089868
 30
0.0
 11
1462.3033403763
 21
104.6259089868
 31
0.0
 12
1462.3033403763
 22
105.4359089868
 32
0.0
 13
1465.0033403763
 23
105.0309089868
 33
0.0
  0
TEXT
  5
38
100
AcDbEntity
  8
L1_65
  6
CONTINUOUS
 62
         4
100
AcDbText
 10
1429.8033403763
 20
107.0559089868
 30
0.0
 40
2.7
  1
65
  7
BOX
100
AcDbText
  0
ENDBLK
  5
39
100
AcDbEntity
  8
0
  6
CONTINUOUS
100
AcDbBlockEnd
  0
BLOCK
  5
65
100
AcDbEntity
  8
0
100
AcDbBlockBegin
  2
*X1
 70
        65
 10
0.0
 20
0.0
 30
0.0
  3
*X1
  1

  0
LINE
  5
66
100
AcDbEntity
  8
L1_65
  6
CONTINUOUS
 62
         4
100
AcDbLine
 10
1448.8771955886
 20
-0.4433347407
 30
0.0
 11
1446.0033403763
 21
2.4305204717
 31
0.0
  0
LINE
  5
67
100
AcDbEntity
  8
L1_65
  6
CONTINUOUS
 62
         4
100
AcDbLine
 10
1453.1198362757
 20
-0.4433347407
 30
0.0
 11
1448.1198362757
 21
4.5566652593
 31
0.0
  0
LINE
  5
68
100
AcDbEntity
  8
L1_65
  6
CONTINUOUS
 62
         4
100
AcDbLine
 10
1459.5033403763
 20
-2.5841981541
 30
0.0
 11
1458.3033403763
 21
-1.3841981541
 31
0.0
  0
LINE
  5
69
100
AcDbEntity
  8
L1_65
  6
CONTINUOUS
 62
         4
100
AcDbLine
 10
1456.8624769628
 20
0.0566652593
 30
0.0
 11
1452.3624769628
 21
4.5566652593
 31
0.0
  0
LINE
  5
6A
100
AcDbEntity
  8
L1_65
  6
CONTINUOUS
 62
         4
100
AcDbLine
 10
1465.0033403763
 20
-3.841557467
 30
0.0
 11
1459.1551176499
 21
2.0066652593
 31
0.0
  0
LINE
  5
6B
100
AcDbEntity
  8
L1_65
  6
CONTINUOUS
 62
         4
100
AcDbLine
 10
1464.5328566923
 20
0.8715669041
 30
0.0
 11
1463.4030677329
 21
2.0013558635
 31
0.0
  0
ENDBLK
  5
6C
100
AcDbEntity
  8
0
  6
CONTINUOUS
100
AcDbBlockEnd
  0
BLOCK
  5
70
100
AcDbEntity
  8
0
100
AcDbBlockBegin
  2
*X2
 70
        65
 10
0.0
 20
0.0
 30
0.0
  3
*X2
  1

  0
LINE
  5
71
100
AcDbEntity
  8
L1_65
  6
CONTINUOUS
 62
         4
100
AcDbLine
 10
1449.6891955886
 20
-1.2553347407
 30
0.0
 11
1448.8771955886
 21
-0.4433347407
 31
0.0
  0
LINE
  5
72
100
AcDbEntity
  8
L1_65
  6
CONTINUOUS
 62
         4
100
AcDbLine
 10
1453.9318362757
 20
-1.2553347407
 30
0.0
 11
1453.1198362757
 21
-0.4433347407
 31
0.0
  0
ENDBLK
  5
73
100
AcDbEntity
  8
0
  6
CONTINUOUS
100
AcDbBlockEnd
  0
BLOCK
  5
77
100
AcDbEntity
  8
0
100
AcDbBlockBegin
  2
*X3
 70
        65
 10
0.0
 20
0.0
 30
0.0
  3
*X3
  1

  0
LINE
  5
78
100
AcDbEntity
  8
L1_65
  6
CONTINUOUS
 62
         4
100
AcDbLine
 10
1448.4213514659
 20
-25.4433347407
 30
0.0
 11
1447.6093514659
 21
-24.6313347407
 31
0.0
  0
LINE
  5
79
100
AcDbEntity
  8
L1_65
  6
CONTINUOUS
 62
         4
100
AcDbLine
 10
1452.663992153
 20
-25.4433347407
 30
0.0
 11
1451.851992153
 21
-24.6313347407
 31
0.0
  0
ENDBLK
  5
7A
100
AcDbEntity
  8
0
  6
CONTINUOUS
100
AcDbBlockEnd
  0
BLOCK
  5
7E
100
AcDbEntity
  8
0
100
AcDbBlockBegin
  2
*X4
 70
        65
 10
0.0
 20
0.0
 30
0.0
  3
*X4
  1

  0
LINE
  5
7F
100
AcDbEntity
  8
L1_65
  6
CONTINUOUS
 62
         4
100
AcDbLine
 10
1449.1787107788
 20
-30.4433347407
 30
0.0
 11
1446.0033403763
 21
-27.2679643382
 31
0.0
  0
LINE
  5
80
100
AcDbEntity
  8
L1_65
  6
CONTINUOUS
 62
         4
100
AcDbLine
 10
1453.4213514659
 20
-30.4433347407
 30
0.0
 11
1448.4213514659
 21
-25.4433347407
 31
0.0
  0
LINE
  5
81
100
AcDbEntity
  8
L1_65
  6
CONTINUOUS
 62
         4
100
AcDbLine
 10
1455.3770155631
 20
-28.1563581508
 30
0.0
 11
1452.663992153
 21
-25.4433347407
 31
0.0
  0
LINE
  5
82
100
AcDbEntity
  8
L1_65
  6
CONTINUOUS
 62
         4
100
AcDbLine
 10
1459.3566328401
 20
-27.8933347407
 30
0.0
 11
1457.4017762374
 21
-25.938478138
 31
0.0
  0
LINE
  5
83
100
AcDbEntity
  8
L1_65
  6
CONTINUOUS
 62
         4
100
AcDbLine
 10
1463.5638737212
 20
-27.8579349347
 30
0.0
 11
1460.4492735272
 21
-24.7433347407
 31
0.0
  0
LINE
  5
84
100
AcDbEntity
  8
L1_65
  6
CONTINUOUS
 62
         4
100
AcDbLine
 10
1465.0033403763
 20
-25.0547609026
 30
0.0
 11
1464.4277863092
 21
-24.4792068356
 31
0.0
  0
ENDBLK
  5
85
100
AcDbEntity
  8
0
  6
CONTINUOUS
100
AcDbBlockEnd
  0
BLOCK
  5
89
100
AcDbEntity
  8
0
100
AcDbBlockBegin
  2
*X5
 70
        65
 10
0.0
 20
0.0
 30
0.0
  3
*X5
  1

  0
LINE
  5
8A
100
AcDbEntity
  8
L1_65
  6
CONTINUOUS
 62
         4
100
AcDbLine
 10
1464.4277863092
 20
-24.4792068356
 30
0.0
 11
1462.2095077517
 21
-22.260928278
 31
0.0
  0
LINE
  5
8B
100
AcDbEntity
  8
L1_65
  6
CONTINUOUS
 62
         4
100
AcDbLine
 10
1465.0033403763
 20
-20.8121202155
 30
0.0
 11
1464.8992341682
 21
-20.7080140074
 31
0.0
  0
ENDBLK
  5
8C
100
AcDbEntity
  8
0
  6
CONTINUOUS
100
AcDbBlockEnd
  0
BLOCK
  5
90
100
AcDbEntity
  8
0
100
AcDbBlockBegin
  2
*D6
 70
        65
 10
0.0
 20
0.0
 30
0.0
  3
*D6
  1

  0
POINT
  5
92
100
AcDbEntity
  8
DEFPOINTS
  6
CONTINUOUS
 62
         0
100
AcDbPoint
 10
1483.8371406064
 20
167.6846417294
 30
0.0
  0
POINT
  5
93
100
AcDbEntity
  8
DEFPOINTS
  6
CONTINUOUS
 62
         0
100
AcDbPoint
 10
1454.0033403763
 20
167.6846417294
 30
0.0
  0
POINT
  5
94
100
AcDbEntity
  8
DEFPOINTS
  6
CONTINUOUS
 62
         0
100
AcDbPoint
 10
1454.0033403763
 20
132.6846417294
 30
0.0
  0
LINE
  5
95
100
AcDbEntity
  8
L1_65
  6
CONTINUOUS
 62
         4
100
AcDbLine
 10
1455.3533403763
 20
167.6846417294
 30
0.0
 11
1484.5121406064
 21
167.6846417294
 31
0.0
  0
LINE
  5
96
100
AcDbEntity
  8
L1_65
  6
CONTINUOUS
 62
         4
100
AcDbLine
 10
1455.3533403763
 20
132.6846417294
 30
0.0
 11
1484.5121406064
 21
132.6846417294
 31
0.0
  0
LINE
  5
97
100
AcDbEntity
  8
L1_65
  6
CONTINUOUS
 62
         4
100
AcDbLine
 10
1483.8371406064
 20
167.6846417294
 30
0.0
 11
1483.8371406064
 21
132.6846417294
 31
0.0
  0
SOLID
  5
98
100
AcDbEntity
  8
L1_65
  6
CONTINUOUS
 62
         4
100
AcDbTrace
 10
1483.8371406064
 20
167.6846417294
 30
0.0
 11
1484.2421406064
 21
164.9846417294
 31
0.0
 12
1483.4321406064
 22
164.9846417294
 32
0.0
 13
1483.8371406064
 23
167.6846417294
 33
0.0
  0
SOLID
  5
99
100
AcDbEntity
  8
L1_65
  6
CONTINUOUS
 62
         4
100
AcDbTrace
 10
1483.8371406064
 20
132.6846417294
 30
0.0
 11
1483.4321406064
 21
135.3846417294
 31
0.0
 12
1484.2421406064
 22
135.3846417294
 32
0.0
 13
1483.8371406064
 23
132.6846417294
 33
0.0
  0
TEXT
  5
9B
100
AcDbEntity
  8
L1_65
  6
CONTINUOUS
 62
         4
100
AcDbText
 10
1481.8121406064
 20
144.7846417294
 30
0.0
 40
2.7
  1
崷34
 50
90.0
  7
BOX
100
AcDbText
  0
ENDBLK
  5
9C
100
AcDbEntity
  8
0
  6
CONTINUOUS
100
AcDbBlockEnd
  0
BLOCK
  5
C8
100
AcDbEntity
  8
0
100
AcDbBlockBegin
  2
*X7
 70
        65
 10
0.0
 20
0.0
 30
0.0
  3
*X7
  1

  0
LINE
  5
C9
100
AcDbEntity
  8
L1_65
  6
CONTINUOUS
 62
         4
100
AcDbLine
 10
1448.8771955886
 20
162.6846417294
 30
0.0
 11
1446.0033403763
 21
165.5584969417
 31
0.0
  0
LINE
  5
CA
100
AcDbEntity
  8
L1_65
  6
CONTINUOUS
 62
         4
100
AcDbLine
 10
1453.1198362757
 20
162.6846417294
 30
0.0
 11
1448.1198362757
 21
167.6846417294
 31
0.0
  0
LINE
  5
CB
100
AcDbEntity
  8
L1_65
  6
CONTINUOUS
 62
         4
100
AcDbLine
 10
1459.5033403763
 20
160.543778316
 30
0.0
 11
1458.3033403763
 21
161.743778316
 31
0.0
  0
LINE
  5
CC
100
AcDbEntity
  8
L1_65
  6
CONTINUOUS
 62
         4
100
AcDbLine
 10
1456.8624769628
 20
163.1846417294
 30
0.0
 11
1452.3624769628
 21
167.6846417294
 31
0.0
  0
LINE
  5
CD
100
AcDbEntity
  8
L1_65
  6
CONTINUOUS
 62
         4
100
AcDbLine
 10
1465.0033403763
 20
159.2864190031
 30
0.0
 11
1459.1551176499
 21
165.1346417294
 31
0.0
  0
LINE
  5
CE
100
AcDbEntity
  8
L1_65
  6
CONTINUOUS
 62
         4
100
AcDbLine
 10
1464.5328566923
 20
163.9995433742
 30
0.0
 11
1463.4030677329
 21
165.1293323335
 31
0.0
  0
ENDBLK
  5
CF
100
AcDbEntity
  8
0
  6
CONTINUOUS
100
AcDbBlockEnd
  0
BLOCK
  5
D3
100
AcDbEntity
  8
0
100
AcDbBlockBegin
  2
*X8
 70
        65
 10
0.0
 20
0.0
 30
0.0
  3
*X8
  1

  0
LINE
  5
D4
100
AcDbEntity
  8
L1_65
  6
CONTINUOUS
 62
         4
100
AcDbLine
 10
1449.6891955886
 20
161.8726417294
 30
0.0
 11
1448.8771955886
 21
162.6846417294
 31
0.0
  0
LINE
  5
D5
100
AcDbEntity
  8
L1_65
  6
CONTINUOUS
 62
         4
100
AcDbLine
 10
1453.9318362757
 20
161.8726417294
 30
0.0
 11
1453.1198362757
 21
162.6846417294
 31
0.0
  0
ENDBLK
  5
D6
100
AcDbEntity
  8
0
  6
CONTINUOUS
100
AcDbBlockEnd
  0
BLOCK
  5
DA
100
AcDbEntity
  8
0
100
AcDbBlockBegin
  2
*X9
 70
        65
 10
0.0
 20
0.0
 30
0.0
  3
*X9
  1

  0
LINE
  5
DB
100
AcDbEntity
  8
L1_65
  6
CONTINUOUS
 62
         4
100
AcDbLine
 10
1448.4213514659
 20
137.6846417294
 30
0.0
 11
1447.6093514659
 21
138.4966417294
 31
0.0
  0
LINE
  5
DC
100
AcDbEntity
  8
L1_65
  6
CONTINUOUS
 62
         4
100
AcDbLine
 10
1452.663992153
 20
137.6846417294
 30
0.0
 11
1451.851992153
 21
138.4966417294
 31
0.0
  0
ENDBLK
  5
DD
100
AcDbEntity
  8
0
  6
CONTINUOUS
100
AcDbBlockEnd
  0
BLOCK
  5
E1
100
AcDbEntity
  8
0
100
AcDbBlockBegin
  2
*X10
 70
        65
 10
0.0
 20
0.0
 30
0.0
  3
*X10
  1

  0
LINE
  5
E2
100
AcDbEntity
  8
L1_65
  6
CONTINUOUS
 62
         4
100
AcDbLine
 10
1449.1787107788
 20
132.6846417294
 30
0.0
 11
1446.0033403763
 21
135.8600121319
 31
0.0
  0
LINE
  5
E3
100
AcDbEntity
  8
L1_65
  6
CONTINUOUS
 62
         4
100
AcDbLine
 10
1453.4213514659
 20
132.6846417294
 30
0.0
 11
1448.4213514659
 21
137.6846417294
 31
0.0
  0
LINE
  5
E4
100
AcDbEntity
  8
L1_65
  6
CONTINUOUS
 62
         4
100
AcDbLine
 10
1455.3770155631
 20
134.9716183192
 30
0.0
 11
1452.663992153
 21
137.6846417294
 31
0.0
  0
LINE
  5
E5
100
AcDbEntity
  8
L1_65
  6
CONTINUOUS
 62
         4
100
AcDbLine
 10
1459.3566328401
 20
135.2346417294
 30
0.0
 11
1457.4017762374
 21
137.1894983321
 31
0.0
  0
LINE
  5
E6
100
AcDbEntity
  8
L1_65
  6
CONTINUOUS
 62
         4
100
AcDbLine
 10
1463.5638737212
 20
135.2700415354
 30
0.0
 11
1460.4492735272
 21
138.3846417294
 31
0.0
  0
LINE
  5
E7
100
AcDbEntity
  8
L1_65
  6
CONTINUOUS
 62
         4
100
AcDbLine
 10
1465.0033403763
 20
138.0732155675
 30
0.0
 11
1464.4277863092
 21
138.6487696345
 31
0.0
  0
ENDBLK
  5
E8
100
AcDbEntity
  8
0
  6
CONTINUOUS
100
AcDbBlockEnd
  0
BLOCK
  5
EC
100
AcDbEntity
  8
0
100
AcDbBlockBegin
  2
*X11
 70
        65
 10
0.0
 20
0.0
 30
0.0
  3
*X11
  1

  0
LINE
  5
ED
100
AcDbEntity
  8
L1_65
  6
CONTINUOUS
 62
         4
100
AcDbLine
 10
1464.4277863092
 20
138.6487696345
 30
0.0
 11
1462.2095077517
 21
140.8670481921
 31
0.0
  0
LINE
  5
EE
100
AcDbEntity
  8
L1_65
  6
CONTINUOUS
 62
         4
100
AcDbLine
 10
1465.0033403763
 20
142.3158562546
 30
0.0
 11
1464.8992341682
 21
142.4199624627
 31
0.0
  0
ENDBLK
  5
EF
100
AcDbEntity
  8
0
  6
CONTINUOUS
100
AcDbBlockEnd
  0
BLOCK
  5
FA
100
AcDbEntity
  8
0
100
AcDbBlockBegin
  2
*D12
 70
        65
 10
0.0
 20
0.0
 30
0.0
  3
*D12
  1

  0
POINT
  5
FC
100
AcDbEntity
  8
DEFPOINTS
  6
CONTINUOUS
 62
         0
100
AcDbPoint
 10
1423.6352198724
 20
75.498112948
 30
0.0
  0
POINT
  5
FD
100
AcDbEntity
  8
DEFPOINTS
  6
CONTINUOUS
 62
         0
100
AcDbPoint
 10
1423.6352198724
 20
67.4047116361
 30
0.0
  0
POINT
  5
FE
100
AcDbEntity
  8
DEFPOINTS
  6
CONTINUOUS
 62
         0
100
AcDbPoint
 10
1436.6352198724
 20
67.4047116361
 30
0.0
  0
LINE
  5
FF
100
AcDbEntity
  8
L1_65
  6
CONTINUOUS
 62
         4
100
AcDbLine
 10
1423.6352198724
 20
68.7547116361
 30
0.0
 11
1423.6352198724
 21
76.173112948
 31
0.0
  0
LINE
  5
100
100
AcDbEntity
  8
L1_65
  6
CONTINUOUS
 62
         4
100
AcDbLine
 10
1436.6352198724
 20
68.7547116361
 30
0.0
 11
1436.6352198724
 21
76.173112948
 31
0.0
  0
LINE
  5
101
100
AcDbEntity
  8
L1_65
  6
CONTINUOUS
 62
         4
100
AcDbLine
 10
1423.6352198724
 20
75.498112948
 30
0.0
 11
1436.6352198724
 21
75.498112948
 31
0.0
  0
SOLID
  5
102
100
AcDbEntity
  8
L1_65
  6
CONTINUOUS
 62
         4
100
AcDbTrace
 10
1423.6352198724
 20
75.498112948
 30
0.0
 11
1426.3352198724
 21
75.903112948
 31
0.0
 12
1426.3352198724
 22
75.093112948
 32
0.0
 13
1423.6352198724
 23
75.498112948
 33
0.0
  0
SOLID
  5
103
100
AcDbEntity
  8
L1_65
  6
CONTINUOUS
 62
         4
100
AcDbTrace
 10
1436.6352198724
 20
75.498112948
 30
0.0
 11
1433.9352198724
 21
75.093112948
 31
0.0
 12
1433.9352198724
 22
75.903112948
 32
0.0
 13
1436.6352198724
 23
75.498112948
 33
0.0
  0
TEXT
  5
105
100
AcDbEntity
  8
L1_65
  6
CONTINUOUS
 62
         4
100
AcDbText
 10
1427.4594533589
 20
77.523112948
 30
0.0
 40
2.7
  1
13
  7
BOX
100
AcDbText
  0
ENDBLK
  5
106
100
AcDbEntity
  8
0
  6
CONTINUOUS
100
AcDbBlockEnd
  0
BLOCK
  5
108
100
AcDbEntity
  8
0
100
AcDbBlockBegin
  2
*D13
 70
        65
 10
0.0
 20
0.0
 30
0.0
  3
*D13
  1

  0
POINT
  5
10A
100
AcDbEntity
  8
DEFPOINTS
  6
CONTINUOUS
 62
         0
100
AcDbPoint
 10
1456.0324676778
 20
70.969711636
 30
0.0
  0
POINT
  5
10B
100
AcDbEntity
  8
DEFPOINTS
  6
CONTINUOUS
 62
         0
100
AcDbPoint
 10
1433.1602198724
 20
70.969711636
 30
0.0
  0
POINT
  5
10C
100
AcDbEntity
  8
DEFPOINTS
  6
CONTINUOUS
 62
         0
100
AcDbPoint
 10
1433.1602198724
 20
56.6797116361
 30
0.0
  0
LINE
  5
10D
100
AcDbEntity
  8
L1_65
  6
CONTINUOUS
 62
         4
100
AcDbLine
 10
1434.5102198724
 20
70.969711636
 30
0.0
 11
1456.7074676778
 21
70.969711636
 31
0.0
  0
LINE
  5
10E
100
AcDbEntity
  8
L1_65
  6
CONTINUOUS
 62
         4
100
AcDbLine
 10
1434.5102198724
 20
56.6797116361
 30
0.0
 11
1456.7074676778
 21
56.6797116361
 31
0.0
  0
LINE
  5
10F
100
AcDbEntity
  8
L1_65
  6
CONTINUOUS
 62
         4
100
AcDbLine
 10
1456.0324676778
 20
70.969711636
 30
0.0
 11
1456.0324676778
 21
56.6797116361
 31
0.0
  0
SOLID
  5
110
100
AcDbEntity
  8
L1_65
  6
CONTINUOUS
 62
         4
100
AcDbTrace
 10
1456.0324676778
 20
70.969711636
 30
0.0
 11
1456.4374676778
 21
68.269711636
 31
0.0
 12
1455.6274676778
 22
68.269711636
 32
0.0
 13
1456.0324676778
 23
70.969711636
 33
0.0
  0
SOLID
  5
111
100
AcDbEntity
  8
L1_65
  6
CONTINUOUS
 62
         4
100
AcDbTrace
 10
1456.0324676778
 20
56.6797116361
 30
0.0
 11
1455.6274676778
 21
59.3797116361
 31
0.0
 12
1456.4374676778
 22
59.3797116361
 32
0.0
 13
1456.0324676778
 23
56.6797116361
 33
0.0
  0
TEXT
  5
113
100
AcDbEntity
  8
L1_65
  6
CONTINUOUS
 62
         4
100
AcDbText
 10
1454.0074676778
 20
49.4075267117
 30
0.0
 40
2.7
  1
9/16"-18UNF
 50
90.0
  7
BOX
100
AcDbText
  0
ENDBLK
  5
114
100
AcDbEntity
  8
0
  6
CONTINUOUS
100
AcDbBlockEnd
  0
BLOCK
  5
133
100
AcDbEntity
  8
0
100
AcDbBlockBegin
  2
*D14
 70
        65
 10
0.0
 20
0.0
 30
0.0
  3
*D14
  1

  0
POINT
  5
135
100
AcDbEntity
  8
DEFPOINTS
  6
CONTINUOUS
 62
         0
100
AcDbPoint
 10
1407.2392341955
 20
78.1321389851
 30
0.0
  0
POINT
  5
136
100
AcDbEntity
  8
DEFPOINTS
  6
CONTINUOUS
 62
         0
100
AcDbPoint
 10
1407.2392341955
 20
69.4058315953
 30
0.0
  0
POINT
  5
137
100
AcDbEntity
  8
DEFPOINTS
  6
CONTINUOUS
 62
         0
100
AcDbPoint
 10
1405.2392341955
 20
69.4058315953
 30
0.0
  0
LINE
  5
138
100
AcDbEntity
  8
L1_65
  6
CONTINUOUS
 62
         4
100
AcDbLine
 10
1407.2392341955
 20
70.7558315953
 30
0.0
 11
1407.2392341955
 21
78.8071389851
 31
0.0
  0
LINE
  5
139
100
AcDbEntity
  8
L1_65
  6
CONTINUOUS
 62
         4
100
AcDbLine
 10
1405.2392341955
 20
70.7558315953
 30
0.0
 11
1405.2392341955
 21
78.8071389851
 31
0.0
  0
LINE
  5
13A
100
AcDbEntity
  8
L1_65
  6
CONTINUOUS
 62
         4
100
AcDbLine
 10
1407.2392341955
 20
78.1321389851
 30
0.0
 11
1412.6392341955
 21
78.1321389851
 31
0.0
  0
SOLID
  5
13B
100
AcDbEntity
  8
L1_65
  6
CONTINUOUS
 62
         4
100
AcDbTrace
 10
1407.2392341955
 20
78.1321389851
 30
0.0
 11
1409.9392341955
 21
78.5371389851
 31
0.0
 12
1409.9392341955
 22
77.7271389851
 32
0.0
 13
1407.2392341955
 23
78.1321389851
 33
0.0
  0
LINE
  5
13C
100
AcDbEntity
  8
L1_65
  6
CONTINUOUS
 62
         4
100
AcDbLine
 10
1405.2392341955
 20
78.1321389851
 30
0.0
 11
1402.1901195335
 21
78.1321389851
 31
0.0
  0
SOLID
  5
13D
100
AcDbEntity
  8
L1_65
  6
CONTINUOUS
 62
         4
100
AcDbTrace
 10
1405.2392341955
 20
78.1321389851
 30
0.0
 11
1402.5392341955
 21
77.7271389851
 31
0.0
 12
1402.5392341955
 22
78.5371389851
 32
0.0
 13
1405.2392341955
 23
78.1321389851
 33
0.0
  0
LINE
  5
13E
100
AcDbEntity
  8
L1_65
  6
CONTINUOUS
 62
         4
100
AcDbLine
 10
1407.2392341955
 20
78.1321389851
 30
0.0
 11
1405.2392341955
 21
78.1321389851
 31
0.0
  0
TEXT
  5
140
100
AcDbEntity
  8
L1_65
  6
CONTINUOUS
 62
         4
100
AcDbText
 10
1403.5401195335
 20
80.1571389851
 30
0.0
 40
2.7
  1
2
  7
BOX
100
AcDbText
  0
ENDBLK
  5
141
100
AcDbEntity
  8
0
  6
CONTINUOUS
100
AcDbBlockEnd
  0
BLOCK
  5
1DE
100
AcDbEntity
  8
0
100
AcDbBlockBegin
  2
*D15
 70
        65
 10
0.0
 20
0.0
 30
0.0
  3
*D15
  1

  0
POINT
  5
1E0
100
AcDbEntity
  8
DEFPOINTS
  6
CONTINUOUS
 62
         0
100
AcDbPoint
 10
1394.7940429477
 20
127.9846417294
 30
0.0
  0
POINT
  5
1E1
100
AcDbEntity
  8
DEFPOINTS
  6
CONTINUOUS
 62
         0
100
AcDbPoint
 10
1401.9497505378
 20
127.9846417294
 30
0.0
  0
POINT
  5
1E2
100
AcDbEntity
  8
DEFPOINTS
  6
CONTINUOUS
 62
         0
100
AcDbPoint
 10
1401.9497505378
 20
172.3846417294
 30
0.0
  0
LINE
  5
1E3
100
AcDbEntity
  8
_Y__________
  6
CONTINUOUS
 62
         4
100
AcDbLine
 10
1400.5997505378
 20
127.9846417294
 30
0.0
 11
1394.1190429477
 21
127.9846417294
 31
0.0
  0
LINE
  5
1E4
100
AcDbEntity
  8
_Y__________
  6
CONTINUOUS
 62
         4
100
AcDbLine
 10
1400.5997505378
 20
172.3846417294
 30
0.0
 11
1394.1190429477
 21
172.3846417294
 31
0.0
  0
LINE
  5
1E5
100
AcDbEntity
  8
_Y__________
  6
CONTINUOUS
 62
         4
100
AcDbLine
 10
1394.7940429477
 20
127.9846417294
 30
0.0
 11
1394.7940429477
 21
172.3846417294
 31
0.0
  0
SOLID
  5
1E6
100
AcDbEntity
  8
_Y__________
  6
CONTINUOUS
 62
         4
100
AcDbTrace
 10
1394.7940429477
 20
127.9846417294
 30
0.0
 11
1394.3890429477
 21
130.6846417294
 31
0.0
 12
1395.1990429477
 22
130.6846417294
 32
0.0
 13
1394.7940429477
 23
127.9846417294
 33
0.0
  0
SOLID
  5
1E7
100
AcDbEntity
  8
_Y__________
  6
CONTINUOUS
 62
         4
100
AcDbTrace
 10
1394.7940429477
 20
172.3846417294
 30
0.0
 11
1395.1990429477
 21
169.6846417294
 31
0.0
 12
1394.3890429477
 22
169.6846417294
 32
0.0
 13
1394.7940429477
 23
172.3846417294
 33
0.0
  0
TEXT
  5
1E9
100
AcDbEntity
  8
_Y__________
  6
CONTINUOUS
 62
         4
100
AcDbText
 10
1392.7690429477
 20
139.1573342283
 30
0.0
 40
2.7
  1
崷44.45
 50
90.0
  7
BOX
100
AcDbText
  0
ENDBLK
  5
1EA
100
AcDbEntity
  8
0
  6
CONTINUOUS
100
AcDbBlockEnd
  0
BLOCK
  5
21F
100
AcDbEntity
  8
0
100
AcDbBlockBegin
  2
*D16
 70
        65
 10
0.0
 20
0.0
 30
0.0
  3
*D16
  1

  0
POINT
  5
221
100
AcDbEntity
  8
DEFPOINTS
  6
CONTINUOUS
 62
         0
100
AcDbPoint
 10
1331.7533403763
 20
220.9254862057
 30
0.0
  0
POINT
  5
222
100
AcDbEntity
  8
DEFPOINTS
  6
CONTINUOUS
 62
         0
100
AcDbPoint
 10
1331.7533403763
 20
161.4188234458
 30
0.0
  0
POINT
  5
223
100
AcDbEntity
  8
DEFPOINTS
  6
CONTINUOUS
 62
         0
100
AcDbPoint
 10
1453.5033403763
 20
150.1846417294
 30
0.0
  0
LINE
  5
224
100
AcDbEntity
  8
L1_65
  6
CONTINUOUS
 62
         4
100
AcDbLine
 10
1331.7533403763
 20
162.7688234458
 30
0.0
 11
1331.7533403763
 21
221.6004862057
 31
0.0
  0
LINE
  5
225
100
AcDbEntity
  8
L1_65
  6
CONTINUOUS
 62
         4
100
AcDbLine
 10
1453.5033403763
 20
151.5346417294
 30
0.0
 11
1453.5033403763
 21
221.6004862057
 31
0.0
  0
LINE
  5
226
100
AcDbEntity
  8
L1_65
  6
CONTINUOUS
 62
         4
100
AcDbLine
 10
1331.7533403763
 20
220.9254862057
 30
0.0
 11
1453.5033403763
 21
220.9254862057
 31
0.0
  0
SOLID
  5
227
100
AcDbEntity
  8
L1_65
  6
CONTINUOUS
 62
         4
100
AcDbTrace
 10
1331.7533403763
 20
220.9254862057
 30
0.0
 11
1334.4533403763
 21
221.3304862057
 31
0.0
 12
1334.4533403763
 22
220.5204862057
 32
0.0
 13
1331.7533403763
 23
220.9254862057
 33
0.0
  0
SOLID
  5
228
100
AcDbEntity
  8
L1_65
  6
CONTINUOUS
 62
         4
100
AcDbTrace
 10
1453.5033403763
 20
220.9254862057
 30
0.0
 11
1450.8033403763
 21
220.5204862057
 31
0.0
 12
1450.8033403763
 22
221.3304862057
 32
0.0
 13
1453.5033403763
 23
220.9254862057
 33
0.0
  0
TEXT
  5
22A
100
AcDbEntity
  8
L1_65
  6
CONTINUOUS
 62
         4
100
AcDbText
 10
1388.9387947931
 20
222.9504862057
 30
0.0
 40
2.7
  1
121.75
  7
BOX
100
AcDbText
  0
ENDBLK
  5
22B
100
AcDbEntity
  8
0
  6
CONTINUOUS
100
AcDbBlockEnd
  0
BLOCK
  5
22D
100
AcDbEntity
  8
0
100
AcDbBlockBegin
  2
*D17
 70
        65
 10
0.0
 20
0.0
 30
0.0
  3
*D17
  1

  0
POINT
  5
22F
100
AcDbEntity
  8
DEFPOINTS
  6
CONTINUOUS
 62
         0
100
AcDbPoint
 10
1400.0033403763
 20
212.0987783841
 30
0.0
  0
POINT
  5
230
100
AcDbEntity
  8
DEFPOINTS
  6
CONTINUOUS
 62
         0
100
AcDbPoint
 10
1400.0033403763
 20
172.4096417294
 30
0.0
  0
POINT
  5
231
100
AcDbEntity
  8
DEFPOINTS
  6
CONTINUOUS
 62
         0
100
AcDbPoint
 10
1453.5033403763
 20
150.1846417294
 30
0.0
  0
LINE
  5
232
100
AcDbEntity
  8
L1_65
  6
CONTINUOUS
 62
         4
100
AcDbLine
 10
1400.0033403763
 20
173.7596417294
 30
0.0
 11
1400.0033403763
 21
212.7737783841
 31
0.0
  0
LINE
  5
233
100
AcDbEntity
  8
L1_65
  6
CONTINUOUS
 62
         4
100
AcDbLine
 10
1453.5033403763
 20
151.5346417294
 30
0.0
 11
1453.5033403763
 21
212.7737783841
 31
0.0
  0
LINE
  5
234
100
AcDbEntity
  8
L1_65
  6
CONTINUOUS
 62
         4
100
AcDbLine
 10
1400.0033403763
 20
212.0987783841
 30
0.0
 11
1453.5033403763
 21
212.0987783841
 31
0.0
  0
SOLID
  5
235
100
AcDbEntity
  8
L1_65
  6
CONTINUOUS
 62
         4
100
AcDbTrace
 10
1400.0033403763
 20
212.0987783841
 30
0.0
 11
1402.7033403763
 21
212.5037783841
 31
0.0
 12
1402.7033403763
 22
211.6937783841
 32
0.0
 13
1400.0033403763
 23
212.0987783841
 33
0.0
  0
SOLID
  5
236
100
AcDbEntity
  8
L1_65
  6
CONTINUOUS
 62
         4
100
AcDbTrace
 10
1453.5033403763
 20
212.0987783841
 30
0.0
 11
1450.8033403763
 21
211.6937783841
 31
0.0
 12
1450.8033403763
 22
212.5037783841
 32
0.0
 13
1453.5033403763
 23
212.0987783841
 33
0.0
  0
TEXT
  5
238
100
AcDbEntity
  8
L1_65
  6
CONTINUOUS
 62
         4
100
AcDbText
 10
1420.7268092051
 20
214.1237783841
 30
0.0
 40
2.7
  1
53.5
  7
BOX
100
AcDbText
  0
ENDBLK
  5
239
100
AcDbEntity
  8
0
  6
CONTINUOUS
100
AcDbBlockEnd
  0
BLOCK
  5
24C
100
AcDbEntity
  8
0
100
AcDbBlockBegin
  2
*D18
 70
        65
 10
0.0
 20
0.0
 30
0.0
  3
*D18
  1

  0
POINT
  5
24E
100
AcDbEntity
  8
DEFPOINTS
  6
CONTINUOUS
 62
         0
100
AcDbPoint
 10
1432.1894650851
 20
167.6346417294
 30
0.0
  0
POINT
  5
24F
100
AcDbEntity
  8
DEFPOINTS
  6
CONTINUOUS
 62
         0
100
AcDbPoint
 10
1434.6423378978
 20
167.6346417294
 30
0.0
  0
POINT
  5
250
100
AcDbEntity
  8
DEFPOINTS
  6
CONTINUOUS
 62
         0
100
AcDbPoint
 10
1434.6423378978
 20
132.7346417294
 30
0.0
  0
LINE
  5
251
100
AcDbEntity
  8
L1_65
  6
CONTINUOUS
 62
         4
100
AcDbLine
 10
1433.2923378978
 20
167.6346417294
 30
0.0
 11
1431.5144650851
 21
167.6346417294
 31
0.0
  0
LINE
  5
252
100
AcDbEntity
  8
L1_65
  6
CONTINUOUS
 62
         4
100
AcDbLine
 10
1433.2923378978
 20
132.7346417294
 30
0.0
 11
1431.5144650851
 21
132.7346417294
 31
0.0
  0
LINE
  5
253
100
AcDbEntity
  8
L1_65
  6
CONTINUOUS
 62
         4
100
AcDbLine
 10
1432.1894650851
 20
167.6346417294
 30
0.0
 11
1432.1894650851
 21
132.7346417294
 31
0.0
  0
SOLID
  5
254
100
AcDbEntity
  8
L1_65
  6
CONTINUOUS
 62
         4
100
AcDbTrace
 10
1432.1894650851
 20
167.6346417294
 30
0.0
 11
1432.5944650851
 21
164.9346417294
 31
0.0
 12
1431.7844650851
 22
164.9346417294
 32
0.0
 13
1432.1894650851
 23
167.6346417294
 33
0.0
  0
SOLID
  5
255
100
AcDbEntity
  8
L1_65
  6
CONTINUOUS
 62
         4
100
AcDbTrace
 10
1432.1894650851
 20
132.7346417294
 30
0.0
 11
1431.7844650851
 21
135.4346417294
 31
0.0
 12
1432.5944650851
 22
135.4346417294
 32
0.0
 13
1432.1894650851
 23
132.7346417294
 33
0.0
  0
TEXT
  5
257
100
AcDbEntity
  8
L1_65
  6
CONTINUOUS
 62
         4
100
AcDbText
 10
1430.1644650851
 20
145.8903655125
 30
0.0
 40
2.7
  1
崷34
 50
90.0
  7
BOX
100
AcDbText
  0
ENDBLK
  5
258
100
AcDbEntity
  8
0
  6
CONTINUOUS
100
AcDbBlockEnd
  0
BLOCK
  5
269
100
AcDbEntity
  8
0
100
AcDbBlockBegin
  2
*D19
 70
        65
 10
0.0
 20
0.0
 30
0.0
  3
*D19
  1

  0
POINT
  5
26B
100
AcDbEntity
  8
DEFPOINTS
  6
CONTINUOUS
 62
         0
100
AcDbPoint
 10
1440.0033403763
 20
-39.2842378916
 30
0.0
  0
POINT
  5
26C
100
AcDbEntity
  8
DEFPOINTS
  6
CONTINUOUS
 62
         0
100
AcDbPoint
 10
1440.0033403763
 20
-25.4433347407
 30
0.0
  0
POINT
  5
26D
100
AcDbEntity
  8
DEFPOINTS
  6
CONTINUOUS
 62
         0
100
AcDbPoint
 10
1453.5033403763
 20
-24.4433347407
 30
0.0
  0
LINE
  5
26E
100
AcDbEntity
  8
L1_65
  6
CONTINUOUS
 62
         4
100
AcDbLine
 10
1440.0033403763
 20
-26.7933347407
 30
0.0
 11
1440.0033403763
 21
-39.9592378916
 31
0.0
  0
LINE
  5
26F
100
AcDbEntity
  8
L1_65
  6
CONTINUOUS
 62
         4
100
AcDbLine
 10
1453.5033403763
 20
-25.7933347407
 30
0.0
 11
1453.5033403763
 21
-39.9592378916
 31
0.0
  0
LINE
  5
270
100
AcDbEntity
  8
L1_65
  6
CONTINUOUS
 62
         4
100
AcDbLine
 10
1440.0033403763
 20
-39.2842378916
 30
0.0
 11
1453.5033403763
 21
-39.2842378916
 31
0.0
  0
SOLID
  5
271
100
AcDbEntity
  8
L1_65
  6
CONTINUOUS
 62
         4
100
AcDbTrace
 10
1440.0033403763
 20
-39.2842378916
 30
0.0
 11
1442.7033403763
 21
-38.8792378916
 31
0.0
 12
1442.7033403763
 22
-39.6892378916
 32
0.0
 13
1440.0033403763
 23
-39.2842378916
 33
0.0
  0
SOLID
  5
272
100
AcDbEntity
  8
L1_65
  6
CONTINUOUS
 62
         4
100
AcDbTrace
 10
1453.5033403763
 20
-39.2842378916
 30
0.0
 11
1450.8033403763
 21
-39.6892378916
 31
0.0
 12
1450.8033403763
 22
-38.8792378916
 32
0.0
 13
1453.5033403763
 23
-39.2842378916
 33
0.0
  0
TEXT
  5
274
100
AcDbEntity
  8
L1_65
  6
CONTINUOUS
 62
         4
100
AcDbText
 10
1441.0248646871
 20
-37.2592378916
 30
0.0
 40
2.7
  1
13.5
  7
BOX
100
AcDbText
  0
ENDBLK
  5
275
100
AcDbEntity
  8
0
  6
CONTINUOUS
100
AcDbBlockEnd
  0
BLOCK
  5
287
100
AcDbEntity
  8
0
100
AcDbBlockBegin
  2
*D20
 70
        65
 10
0.0
 20
0.0
 30
0.0
  3
*D20
  1

  0
POINT
  5
289
100
AcDbEntity
  8
DEFPOINTS
  6
CONTINUOUS
 62
         0
100
AcDbPoint
 10
1383.5033403763
 20
-56.933854819
 30
0.0
  0
POINT
  5
28A
100
AcDbEntity
  8
DEFPOINTS
  6
CONTINUOUS
 62
         0
100
AcDbPoint
 10
1383.5033403763
 20
-18.0433347407
 30
0.0
  0
POINT
  5
28B
100
AcDbEntity
  8
DEFPOINTS
  6
CONTINUOUS
 62
         0
100
AcDbPoint
 10
1453.5033403763
 20
-24.4433347407
 30
0.0
  0
LINE
  5
28C
100
AcDbEntity
  8
L1_65
  6
CONTINUOUS
 62
         4
100
AcDbLine
 10
1383.5033403763
 20
-19.3933347407
 30
0.0
 11
1383.5033403763
 21
-57.608854819
 31
0.0
  0
LINE
  5
28D
100
AcDbEntity
  8
L1_65
  6
CONTINUOUS
 62
         4
100
AcDbLine
 10
1453.5033403763
 20
-25.7933347407
 30
0.0
 11
1453.5033403763
 21
-57.608854819
 31
0.0
  0
LINE
  5
28E
100
AcDbEntity
  8
L1_65
  6
CONTINUOUS
 62
         4
100
AcDbLine
 10
1383.5033403763
 20
-56.933854819
 30
0.0
 11
1453.5033403763
 21
-56.933854819
 31
0.0
  0
SOLID
  5
28F
100
AcDbEntity
  8
L1_65
  6
CONTINUOUS
 62
         4
100
AcDbTrace
 10
1383.5033403763
 20
-56.933854819
 30
0.0
 11
1386.2033403763
 21
-56.528854819
 31
0.0
 12
1386.2033403763
 22
-57.338854819
 32
0.0
 13
1383.5033403763
 23
-56.933854819
 33
0.0
  0
SOLID
  5
290
100
AcDbEntity
  8
L1_65
  6
CONTINUOUS
 62
         4
100
AcDbTrace
 10
1453.5033403763
 20
-56.933854819
 30
0.0
 11
1450.8033403763
 21
-57.338854819
 31
0.0
 12
1450.8033403763
 22
-56.528854819
 32
0.0
 13
1453.5033403763
 23
-56.933854819
 33
0.0
  0
TEXT
  5
292
100
AcDbEntity
  8
L1_65
  6
CONTINUOUS
 62
         4
100
AcDbText
 10
1418.1023107467
 20
-54.908854819
 30
0.0
 40
2.7
  1
70
  7
BOX
100
AcDbText
  0
ENDBLK
  5
293
100
AcDbEntity
  8
0
  6
CONTINUOUS
100
AcDbBlockEnd
  0
BLOCK
  5
4C1
100
AcDbEntity
  8
0
100
AcDbBlockBegin
  2
*X21
 70
        65
 10
0.0
 20
0.0
 30
0.0
  3
*X21
  1

  0
LINE
  5
4C2
100
AcDbEntity
  8
_X______
  6
CONTINUOUS
 62
         4
100
AcDbLine
 10
1408.4155316623
 20
12.4213277017
 30
0.0
 11
1408.6668369273
 21
12.6726329668
 31
0.0
  0
LINE
  5
4C3
100
AcDbEntity
  8
_X______
  6
CONTINUOUS
 62
         4
100
AcDbLine
 10
1405.9201653074
 20
14.168602034
 30
0.0
 11
1406.1714705725
 21
14.4199072991
 31
0.0
  0
ENDBLK
  5
4C4
100
AcDbEntity
  8
0
  6
CONTINUOUS
100
AcDbBlockEnd
  0
BLOCK
  5
4E7
100
AcDbEntity
  8
0
100
AcDbBlockBegin
  2
*X22
 70
        65
 10
0.0
 20
0.0
 30
0.0
  3
*X22
  1

  0
LINE
  5
4E8
100
AcDbEntity
  8
L1_65
  6
CONTINUOUS
 62
         4
100
AcDbLine
 10
1448.8255910474
 20
-25.4433347407
 30
0.0
 11
1451.5939397984
 21
-22.6749859897
 31
0.0
  0
LINE
  5
4E9
100
AcDbEntity
  8
L1_65
  6
CONTINUOUS
 62
         4
100
AcDbLine
 10
1444.5829503603
 20
-25.4433347407
 30
0.0
 11
1447.8740899184
 21
-22.1521951826
 31
0.0
  0
LINE
  5
4EA
100
AcDbEntity
  8
L1_65
  6
CONTINUOUS
 62
         4
100
AcDbLine
 10
1435.6814166634
 20
-30.1022277504
 30
0.0
 11
1436.3512309075
 21
-29.4324135064
 31
0.0
  0
LINE
  5
4EB
100
AcDbEntity
  8
L1_65
  6
CONTINUOUS
 62
         4
100
AcDbLine
 10
1440.3403096732
 20
-25.4433347407
 30
0.0
 11
1444.1542400384
 21
-21.6294043755
 31
0.0
  0
LINE
  5
4EC
100
AcDbEntity
  8
L1_65
  6
CONTINUOUS
 62
         4
100
AcDbLine
 10
1416.8226689859
 20
-44.7183347409
 30
0.0
 11
1419.1033403763
 21
-42.4376633505
 31
0.0
  0
LINE
  5
4ED
100
AcDbEntity
  8
L1_65
  6
CONTINUOUS
 62
         4
100
AcDbLine
 10
1431.1476689861
 20
-30.3933347407
 30
0.0
 11
1440.4343901584
 21
-21.1066135684
 31
0.0
  0
LINE
  5
4EE
100
AcDbEntity
  8
L1_65
  6
CONTINUOUS
 62
         4
100
AcDbLine
 10
1413.8857512676
 20
-43.412611772
 30
0.0
 11
1419.1033403763
 21
-38.1950226634
 31
0.0
  0
LINE
  5
4EF
100
AcDbEntity
  8
L1_65
  6
CONTINUOUS
 62
         4
100
AcDbLine
 10
1426.9050282989
 20
-30.3933347407
 30
0.0
 11
1436.7145402783
 21
-20.5838227613
 31
0.0
  0
LINE
  5
4F0
100
AcDbEntity
  8
L1_65
  6
CONTINUOUS
 62
         4
100
AcDbLine
 10
1411.9873876118
 20
-41.0683347407
 30
0.0
 11
1419.1033403763
 21
-33.9523819762
 31
0.0
  0
LINE
  5
4F1
100
AcDbEntity
  8
L1_65
  6
CONTINUOUS
 62
         4
100
AcDbLine
 10
1422.6623876118
 20
-30.3933347407
 30
0.0
 11
1432.6123876118
 21
-20.4433347407
 31
0.0
  0
LINE
  5
4F2
100
AcDbEntity
  8
L1_65
  6
CONTINUOUS
 62
         4
100
AcDbLine
 10
1449.5578908408
 20
-3.4978315117
 30
0.0
 11
1452.5204390783
 21
-0.5352832742
 31
0.0
  0
LINE
  5
4F3
100
AcDbEntity
  8
L1_65
  6
CONTINUOUS
 62
         4
100
AcDbLine
 10
1404.1000913836
 20
-44.7129902818
 30
0.0
 11
1428.3697469247
 21
-20.4433347407
 31
0.0
  0
LINE
  5
4F4
100
AcDbEntity
  8
L1_65
  6
CONTINUOUS
 62
         4
100
AcDbLine
 10
1444.6214833204
 20
-4.191598345
 30
0.0
 11
1448.3697469247
 21
-0.4433347407
 31
0.0
  0
LINE
  5
4F5
100
AcDbEntity
  8
L1_65
  6
CONTINUOUS
 62
         4
100
AcDbLine
 10
1403.2033403763
 20
-41.367100602
 30
0.0
 11
1424.1271062376
 21
-20.4433347407
 31
0.0
  0
LINE
  5
4F6
100
AcDbEntity
  8
L1_65
  6
CONTINUOUS
 62
         4
100
AcDbLine
 10
1439.6850757999
 20
-4.8853651784
 30
0.0
 11
1444.1271062376
 21
-0.4433347407
 31
0.0
  0
LINE
  5
4F7
100
AcDbEntity
  8
L1_65
  6
CONTINUOUS
 62
         4
100
AcDbLine
 10
1403.2033403763
 20
-37.1244599149
 30
0.0
 11
1420.9844655505
 21
-19.3433347407
 31
0.0
  0
LINE
  5
4F8
100
AcDbEntity
  8
L1_65
  6
CONTINUOUS
 62
         4
100
AcDbLine
 10
1434.8844655505
 20
-5.4433347407
 30
0.0
 11
1439.8844655505
 21
-0.4433347407
 31
0.0
  0
LINE
  5
4F9
100
AcDbEntity
  8
L1_65
  6
CONTINUOUS
 62
         4
100
AcDbLine
 10
1400.8005632013
 20
-35.2845964027
 30
0.0
 11
1416.7418248633
 21
-19.3433347407
 31
0.0
  0
LINE
  5
4FA
100
AcDbEntity
  8
L1_65
  6
CONTINUOUS
 62
         4
100
AcDbLine
 10
1430.6418248633
 20
-5.4433347407
 30
0.0
 11
1437.109955861
 21
1.024796257
 31
0.0
  0
LINE
  5
4FB
100
AcDbEntity
  8
L1_65
  6
CONTINUOUS
 62
         4
100
AcDbLine
 10
1397.0978949653
 20
-34.7446239516
 30
0.0
 11
1412.4991841762
 21
-19.3433347407
 31
0.0
  0
LINE
  5
4FC
100
AcDbEntity
  8
L1_65
  6
CONTINUOUS
 62
         4
100
AcDbLine
 10
1426.3991841762
 20
-5.4433347407
 30
0.0
 11
1435.9023580738
 21
4.0598391569
 31
0.0
  0
LINE
  5
4FD
100
AcDbEntity
  8
L1_65
  6
CONTINUOUS
 62
         4
100
AcDbLine
 10
1393.3952267293
 20
-34.2046515005
 30
0.0
 11
1408.2565434891
 21
-19.3433347407
 31
0.0
  0
LINE
  5
4FE
100
AcDbEntity
  8
L1_65
  6
CONTINUOUS
 62
         4
100
AcDbLine
 10
1421.0565434891
 20
-6.5433347407
 30
0.0
 11
1432.1065434891
 21
4.5066652593
 31
0.0
  0
LINE
  5
4FF
100
AcDbEntity
  8
L1_65
  6
CONTINUOUS
 62
         4
100
AcDbLine
 10
1389.6925584933
 20
-33.6646790494
 30
0.0
 11
1404.013902802
 21
-19.3433347407
 31
0.0
  0
LINE
  5
500
100
AcDbEntity
  8
L1_65
  6
CONTINUOUS
 62
         4
100
AcDbLine
 10
1416.813902802
 20
-6.5433347407
 30
0.0
 11
1427.863902802
 21
4.5066652593
 31
0.0
  0
LINE
  5
501
100
AcDbEntity
  8
L1_65
  6
CONTINUOUS
 62
         4
100
AcDbLine
 10
1385.9898902572
 20
-33.1247065983
 30
0.0
 11
1399.7712621149
 21
-19.3433347407
 31
0.0
  0
LINE
  5
502
100
AcDbEntity
  8
L1_65
  6
CONTINUOUS
 62
         4
100
AcDbLine
 10
1412.5712621149
 20
-6.5433347407
 30
0.0
 11
1423.6212621149
 21
4.5066652593
 31
0.0
  0
LINE
  5
503
100
AcDbEntity
  8
L1_65
  6
CONTINUOUS
 62
         4
100
AcDbLine
 10
1382.2872220212
 20
-32.5847341472
 30
0.0
 11
1395.5286214277
 21
-19.3433347407
 31
0.0
  0
LINE
  5
504
100
AcDbEntity
  8
L1_65
  6
CONTINUOUS
 62
         4
100
AcDbLine
 10
1408.3286214277
 20
-6.5433347407
 30
0.0
 11
1420.1241306273
 21
5.2521744588
 31
0.0
  0
LINE
  5
505
100
AcDbEntity
  8
L1_65
  6
CONTINUOUS
 62
         4
100
AcDbLine
 10
1378.5845537852
 20
-32.0447616961
 30
0.0
 11
1391.2859807406
 21
-19.3433347407
 31
0.0
  0
LINE
  5
506
100
AcDbEntity
  8
L1_65
  6
CONTINUOUS
 62
         4
100
AcDbLine
 10
1404.0859807406
 20
-6.5433347407
 30
0.0
 11
1419.1033403763
 21
8.474024895
 31
0.0
  0
LINE
  5
507
100
AcDbEntity
  8
L1_65
  6
CONTINUOUS
 62
         4
100
AcDbLine
 10
1374.8818855491
 20
-31.5047892451
 30
0.0
 11
1387.0433400535
 21
-19.3433347407
 31
0.0
  0
LINE
  5
508
100
AcDbEntity
  8
L1_65
  6
CONTINUOUS
 62
         4
100
AcDbLine
 10
1399.8433400535
 20
-6.5433347407
 30
0.0
 11
1417.2588964656
 21
10.8722216714
 31
0.0
  0
LINE
  5
509
100
AcDbEntity
  8
L1_65
  6
CONTINUOUS
 62
         4
100
AcDbLine
 10
1371.1792173131
 20
-30.964816794
 30
0.0
 11
1382.8006993664
 21
-19.3433347407
 31
0.0
  0
LINE
  5
50A
100
AcDbEntity
  8
L1_65
  6
CONTINUOUS
 62
         4
100
AcDbLine
 10
1395.6006993664
 20
-6.5433347407
 30
0.0
 11
1409.4097093875
 21
7.2656752805
 31
0.0
  0
LINE
  5
50B
100
AcDbEntity
  8
L1_65
  6
CONTINUOUS
 62
         4
100
AcDbLine
 10
1417.7618058687
 20
15.6177717616
 30
0.0
 11
1419.1033403763
 21
16.9593062692
 31
0.0
  0
LINE
  5
50C
100
AcDbEntity
  8
L1_65
  6
CONTINUOUS
 62
         4
100
AcDbLine
 10
1367.4765490771
 20
-30.4248443429
 30
0.0
 11
1378.5580586793
 21
-19.3433347407
 31
0.0
  0
LINE
  5
50D
100
AcDbEntity
  8
L1_65
  6
CONTINUOUS
 62
         4
100
AcDbLine
 10
1391.3580586793
 20
-6.5433347407
 30
0.0
 11
1400.7596363455
 21
2.8582429256
 31
0.0
  0
LINE
  5
50E
100
AcDbEntity
  8
L1_65
  6
CONTINUOUS
 62
         4
100
AcDbLine
 10
1409.5372708715
 20
11.6358774515
 30
0.0
 11
1416.7330586794
 21
18.8316652595
 31
0.0
  0
LINE
  5
50F
100
AcDbEntity
  8
L1_65
  6
CONTINUOUS
 62
         4
100
AcDbLine
 10
1363.773880841
 20
-29.8848718918
 30
0.0
 11
1374.3154179921
 21
-19.3433347407
 31
0.0
  0
LINE
  5
510
100
AcDbEntity
  8
L1_65
  6
CONTINUOUS
 62
         4
100
AcDbLine
 10
1387.1154179921
 20
-6.5433347407
 30
0.0
 11
1392.1095633035
 21
-1.5491894293
 31
0.0
  0
LINE
  5
511
100
AcDbEntity
  8
L1_65
  6
CONTINUOUS
 62
         4
100
AcDbLine
 10
1399.6607738207
 20
6.0020210879
 30
0.0
 11
1404.6724548745
 21
11.0137021417
 31
0.0
  0
LINE
  5
512
100
AcDbEntity
  8
L1_65
  6
CONTINUOUS
 62
         4
100
AcDbLine
 10
1407.0419045166
 20
13.3831517838
 30
0.0
 11
1409.3376938257
 21
15.6789410929
 31
0.0
  0
LINE
  5
513
100
AcDbEntity
  8
L1_65
  6
CONTINUOUS
 62
         4
100
AcDbLine
 10
1360.071212605
 20
-29.3448994407
 30
0.0
 11
1369.472777305
 21
-19.9433347407
 31
0.0
  0
LINE
  5
514
100
AcDbEntity
  8
L1_65
  6
CONTINUOUS
 62
         4
100
AcDbLine
 10
1382.872777305
 20
-6.5433347407
 30
0.0
 11
1383.4594902615
 21
-5.9566217842
 31
0.0
  0
LINE
  5
515
100
AcDbEntity
  8
L1_65
  6
CONTINUOUS
 62
         4
100
AcDbLine
 10
1391.0107007787
 20
1.594588733
 30
0.0
 11
1398.4748762929
 21
9.0587642472
 31
0.0
  0
LINE
  5
516
100
AcDbEntity
  8
L1_65
  6
CONTINUOUS
 62
         4
100
AcDbLine
 10
1404.833744179
 20
15.4176321333
 30
0.0
 11
1407.8162261519
 21
18.4001141062
 31
0.0
  0
LINE
  5
517
100
AcDbEntity
  8
L1_65
  6
CONTINUOUS
 62
         4
100
AcDbLine
 10
1356.368544369
 20
-28.8049269896
 30
0.0
 11
1365.2301366179
 21
-19.9433347407
 31
0.0
  0
LINE
  5
518
100
AcDbEntity
  8
L1_65
  6
CONTINUOUS
 62
         4
100
AcDbLine
 10
1382.3606277367
 20
-2.8128436219
 30
0.0
 11
1393.5078823177
 21
8.3344109591
 31
0.0
  0
LINE
  5
519
100
AcDbEntity
  8
L1_65
  6
CONTINUOUS
 62
         4
100
AcDbLine
 10
1403.228636396
 20
18.0551650374
 30
0.0
 11
1403.9798405982
 21
18.8063692396
 31
0.0
  0
LINE
  5
51A
100
AcDbEntity
  8
L1_65
  6
CONTINUOUS
 62
         4
100
AcDbLine
 10
1352.6658761329
 20
-28.2649545385
 30
0.0
 11
1360.9874959308
 21
-19.9433347407
 31
0.0
  0
LINE
  5
51B
100
AcDbEntity
  8
L1_65
  6
CONTINUOUS
 62
         4
100
AcDbLine
 10
1374.3874959308
 20
-6.5433347407
 30
0.0
 11
1388.5408883425
 21
7.6100576711
 31
0.0
  0
LINE
  5
51C
100
AcDbEntity
  8
L1_65
  6
CONTINUOUS
 62
         4
100
AcDbLine
 10
1348.9632078969
 20
-27.7249820874
 30
0.0
 11
1356.7448552437
 21
-19.9433347407
 31
0.0
  0
LINE
  5
51D
100
AcDbEntity
  8
L1_65
  6
CONTINUOUS
 62
         4
100
AcDbLine
 10
1370.7448552437
 20
-5.9433347407
 30
0.0
 11
1383.5738943674
 21
6.885704383
 31
0.0
  0
LINE
  5
51E
100
AcDbEntity
  8
L1_65
  6
CONTINUOUS
 62
         4
100
AcDbLine
 10
1345.2605396609
 20
-27.1850096363
 30
0.0
 11
1352.5022145566
 21
-19.9433347407
 31
0.0
  0
LINE
  5
51F
100
AcDbEntity
  8
L1_65
  6
CONTINUOUS
 62
         4
100
AcDbLine
 10
1366.5022145566
 20
-5.9433347407
 30
0.0
 11
1378.6069003922
 21
6.161351095
 31
0.0
  0
LINE
  5
520
100
AcDbEntity
  8
L1_65
  6
CONTINUOUS
 62
         4
100
AcDbLine
 10
1341.5578714248
 20
-26.6450371853
 30
0.0
 11
1348.2595738694
 21
-19.9433347407
 31
0.0
  0
LINE
  5
521
100
AcDbEntity
  8
L1_65
  6
CONTINUOUS
 62
         4
100
AcDbLine
 10
1362.2595738694
 20
-5.9433347407
 30
0.0
 11
1373.6399064171
 21
5.4369978069
 31
0.0
  0
LINE
  5
522
100
AcDbEntity
  8
L1_65
  6
CONTINUOUS
 62
         4
100
AcDbLine
 10
1337.8552031888
 20
-26.1050647342
 30
0.0
 11
1344.0169331823
 21
-19.9433347407
 31
0.0
  0
LINE
  5
523
100
AcDbEntity
  8
L1_65
  6
CONTINUOUS
 62
         4
100
AcDbLine
 10
1358.0169331823
 20
-5.9433347407
 30
0.0
 11
1368.6729124419
 21
4.7126445189
 31
0.0
  0
LINE
  5
524
100
AcDbEntity
  8
L1_65
  6
CONTINUOUS
 62
         4
100
AcDbLine
 10
1334.1525349528
 20
-25.5650922831
 30
0.0
 11
1339.7742924952
 21
-19.9433347407
 31
0.0
  0
LINE
  5
525
100
AcDbEntity
  8
L1_65
  6
CONTINUOUS
 62
         4
100
AcDbLine
 10
1353.7742924952
 20
-5.9433347407
 30
0.0
 11
1363.7059184667
 21
3.9882912309
 31
0.0
  0
LINE
  5
526
100
AcDbEntity
  8
L1_65
  6
CONTINUOUS
 62
         4
100
AcDbLine
 10
1331.7533403763
 20
-23.7216461725
 30
0.0
 11
1334.3816518081
 21
-21.0933347407
 31
0.0
  0
LINE
  5
527
100
AcDbEntity
  8
L1_65
  6
CONTINUOUS
 62
         4
100
AcDbLine
 10
1349.5316518081
 20
-5.9433347407
 30
0.0
 11
1358.7389244916
 21
3.2639379428
 31
0.0
  0
LINE
  5
528
100
AcDbEntity
  8
L1_65
  6
CONTINUOUS
 62
         4
100
AcDbLine
 10
1345.289011121
 20
-5.9433347407
 30
0.0
 11
1353.7719305164
 21
2.5395846548
 31
0.0
  0
LINE
  5
529
100
AcDbEntity
  8
L1_65
  6
CONTINUOUS
 62
         4
100
AcDbLine
 10
1341.0463704338
 20
-5.9433347407
 30
0.0
 11
1348.8049365412
 21
1.8152313667
 31
0.0
  0
LINE
  5
52A
100
AcDbEntity
  8
L1_65
  6
CONTINUOUS
 62
         4
100
AcDbLine
 10
1337.2299564177
 20
-5.5171080697
 30
0.0
 11
1343.8379425661
 21
1.0908780787
 31
0.0
  0
LINE
  5
52B
100
AcDbEntity
  8
L1_65
  6
CONTINUOUS
 62
         4
100
AcDbLine
 10
1333.7110890596
 20
-4.7933347407
 30
0.0
 11
1338.8709485909
 21
0.3665247906
 31
0.0
  0
LINE
  5
52C
100
AcDbEntity
  8
L1_65
  6
CONTINUOUS
 62
         4
100
AcDbLine
 10
1331.7533403763
 20
-2.5084427369
 30
0.0
 11
1333.9039546157
 21
-0.3578284974
 31
0.0
  0
ENDBLK
  5
52D
100
AcDbEntity
  8
0
  6
CONTINUOUS
100
AcDbBlockEnd
  0
ENDSEC
  0
SECTION
  2
ENTITIES
  0
DIMENSION
  5
2D
100
AcDbEntity
  8
L1_65
  6
CONTINUOUS
 62
         4
100
AcDbDimension
  2
*D0
 10
1400.0033403763
 20
105.0309089868
 30
0.0
 11
1429.8033403763
 21
107.0559089868
 31
0.0
  3
DIMSTYLE1
100
AcDbAlignedDimension
 13
1400.0033403763
 23
127.9596417294
 33
0.0
 14
1465.0033403763
 24
137.7205401142
 34
0.0
100
AcDbRotatedDimension
  0
LINE
  5
3A
100
AcDbEntity
  8
L1_65
  6
CONTINUOUS
 62
         7
100
AcDbLine
 10
1454.0033403763
 20
4.5566652593
 30
0.0
 11
1455.1869084281
 21
2.5066652593
 31
0.0
  0
ARC
  5
3B
100
AcDbEntity
  8
L1_65
  6
CONTINUOUS
 62
         7
100
AcDbCircle
 10
1463.3001570821
 20
-26.8933347407
 30
0.0
 40
1.0
100
AcDbArc
 50
270.0
 51
330.0
  0
LINE
  5
3C
100
AcDbEntity
  8
L1_65
  6
CONTINUOUS
 62
         7
100
AcDbLine
 10
1446.0033403763
 20
3.0566652593
 30
0.0
 11
1446.0033403763
 21
-28.9433347407
 31
0.0
  0
LINE
  5
3D
100
AcDbEntity
  8
L1_65
  6
CONTINUOUS
 62
         7
100
AcDbLine
 10
1465.0033403763
 20
-0.4792331255
 30
0.0
 11
1465.0033403763
 21
-25.4074363558
 31
0.0
  0
LINE
  5
3E
100
AcDbEntity
  8
L1_65
  6
CONTINUOUS
 62
         7
100
AcDbLine
 10
1454.0033403763
 20
4.5566652593
 30
0.0
 11
1447.5033403763
 21
4.5566652593
 31
0.0
  0
LINE
  5
3F
100
AcDbEntity
  8
L1_65
  6
CONTINUOUS
 62
         7
100
AcDbLine
 10
1454.0033403763
 20
-30.4433347407
 30
0.0
 11
1447.5033403763
 21
-30.4433347407
 31
0.0
  0
LINE
  5
40
100
AcDbEntity
  8
L1_65
  6
CONTINUOUS
 62
         7
100
AcDbLine
 10
1459.5033403763
 20
-1.1433347407
 30
0.0
 11
1459.5033403763
 21
-24.7433347407
 31
0.0
  0
LINE
  5
41
100
AcDbEntity
  8
L1_65
  6
CONTINUOUS
 62
         7
100
AcDbLine
 10
1458.3033403763
 20
-0.9433347407
 30
0.0
 11
1458.3033403763
 21
-24.9433347407
 31
0.0
  0
LINE
  5
42
100
AcDbEntity
  8
L1_65
  6
CONTINUOUS
 62
         7
100
AcDbLine
 10
1460.5033403763
 20
-2.6406850099
 30
0.0
 11
1465.0033403763
 21
-5.2387612212
 31
0.0
  0
LINE
  5
43
100
AcDbEntity
  8
L1_65
  6
CONTINUOUS
 62
         7
100
AcDbLine
 10
1460.5033403763
 20
-23.2459844715
 30
0.0
 11
1465.0033403763
 21
-20.6479082601
 31
0.0
  0
LINE
  5
44
100
AcDbEntity
  8
L1_65
  6
CONTINUOUS
 62
         7
100
AcDbLine
 10
1459.5033403763
 20
-3.7433347407
 30
0.0
 11
1458.3033403763
 21
-3.7433347407
 31
0.0
  0
LINE
  5
45
100
AcDbEntity
  8
L1_65
  6
CONTINUOUS
 62
         4
100
AcDbLine
 10
1454.8033403763
 20
-0.4433347407
 30
0.0
 11
1446.1476779435
 21
-0.4433347407
 31
0.0
  0
LINE
  5
46
100
AcDbEntity
  8
L1_65
  6
CONTINUOUS
 62
         4
100
AcDbLine
 10
1454.8033403763
 20
-25.4433347407
 30
0.0
 11
1446.1476779435
 21
-25.4433347407
 31
0.0
  0
LINE
  5
47
100
AcDbEntity
  8
L1_65
  6
CONTINUOUS
 62
         7
100
AcDbLine
 10
1453.9913403763
 20
-1.2553347407
 30
0.0
 11
1446.6164863621
 21
-1.2553347407
 31
0.0
  0
LINE
  5
48
100
AcDbEntity
  8
L1_65
  6
CONTINUOUS
 62
         7
100
AcDbLine
 10
1453.9913403763
 20
-24.6313347407
 30
0.0
 11
1446.6164863621
 21
-24.6313347407
 31
0.0
  0
LINE
  5
49
100
AcDbEntity
  8
L1_65
  6
CONTINUOUS
 62
         7
100
AcDbLine
 10
1457.3033403763
 20
0.0566652593
 30
0.0
 11
1455.3033403763
 21
0.0566652593
 31
0.0
  0
LINE
  5
4A
100
AcDbEntity
  8
L1_65
  6
CONTINUOUS
 62
         7
100
AcDbLine
 10
1457.3033403763
 20
-25.9433347407
 30
0.0
 11
1455.3033403763
 21
-25.9433347407
 31
0.0
  0
LINE
  5
4B
100
AcDbEntity
  8
L1_65
  6
CONTINUOUS
 62
         7
100
AcDbLine
 10
1455.3033403763
 20
0.0566652593
 30
0.0
 11
1455.3033403763
 21
-25.9433347407
 31
0.0
  0
LINE
  5
4C
100
AcDbEntity
  8
L1_65
  6
CENTER
 62
         1
100
AcDbLine
 10
1467.580148076
 20
-12.9433347407
 30
0.0
 11
1444.0710909646
 21
-12.9433347407
 31
0.0
  0
LINE
  5
4D
100
AcDbEntity
  8
L1_65
  6
CONTINUOUS
 62
         7
100
AcDbLine
 10
1460.5033403763
 20
-1.1433347407
 30
0.0
 11
1460.5033403763
 21
-24.7433347407
 31
0.0
  0
LINE
  5
4E
100
AcDbEntity
  8
L1_65
  6
CONTINUOUS
 62
         7
100
AcDbLine
 10
1460.5033403763
 20
-24.7433347407
 30
0.0
 11
1458.3033403763
 21
-24.7433347407
 31
0.0
  0
LINE
  5
4F
100
AcDbEntity
  8
L1_65
  6
CONTINUOUS
 62
         7
100
AcDbLine
 10
1460.5033403763
 20
-1.1433347407
 30
0.0
 11
1459.5033403763
 21
-1.1433347407
 31
0.0
  0
ARC
  5
50
100
AcDbEntity
  8
L1_65
  6
CONTINUOUS
 62
         7
100
AcDbCircle
 10
1457.3033403763
 20
-24.9433347407
 30
0.0
 40
1.0
100
AcDbArc
 50
270.0
 51
360.0
  0
ARC
  5
51
100
AcDbEntity
  8
L1_65
  6
CONTINUOUS
 62
         7
100
AcDbCircle
 10
1457.3033403763
 20
-0.9433347407
 30
0.0
 40
1.0
100
AcDbArc
 50
360.0
 51
450.0
  0
LINE
  5
52
100
AcDbEntity
  8
L1_65
  6
CONTINUOUS
 62
         7
100
AcDbLine
 10
1455.3033403763
 20
-25.9433347407
 30
0.0
 11
1453.9913403763
 21
-24.6313347407
 31
0.0
  0
LINE
  5
53
100
AcDbEntity
  8
L1_65
  6
CONTINUOUS
 62
         7
100
AcDbLine
 10
1455.3033403763
 20
0.0566652593
 30
0.0
 11
1453.9913403763
 21
-1.2553347407
 31
0.0
  0
LINE
  5
54
100
AcDbEntity
  8
L1_65
  6
CONTINUOUS
 62
         7
100
AcDbLine
 10
1464.7353911838
 20
0.5207668745
 30
0.0
 11
1464.1661824859
 21
1.5066652593
 31
0.0
  0
LINE
  5
55
100
AcDbEntity
  8
L1_65
  6
CONTINUOUS
 62
         7
100
AcDbLine
 10
1463.3001570821
 20
2.0066652593
 30
0.0
 11
1456.0529338319
 21
2.0066652593
 31
0.0
  0
ARC
  5
56
100
AcDbEntity
  8
L1_65
  6
CONTINUOUS
 62
         7
100
AcDbCircle
 10
1463.0033403763
 20
-0.4792331255
 30
0.0
 40
2.0
100
AcDbArc
 50
360.0
 51
390.0
  0
LINE
  5
57
100
AcDbEntity
  8
L1_65
  6
CONTINUOUS
 62
         7
100
AcDbLine
 10
1463.3001570821
 20
-27.8933347407
 30
0.0
 11
1456.0529338319
 21
-27.8933347407
 31
0.0
  0
ARC
  5
58
100
AcDbEntity
  8
L1_65
  6
CONTINUOUS
 62
         7
100
AcDbCircle
 10
1463.0033403763
 20
-25.4074363558
 30
0.0
 40
2.0
100
AcDbArc
 50
330.0
 51
360.0
  0
LINE
  5
59
100
AcDbEntity
  8
L1_65
  6
CONTINUOUS
 62
         7
100
AcDbLine
 10
1464.7353911838
 20
-26.4074363558
 30
0.0
 11
1464.1661824859
 21
-27.3933347407
 31
0.0
  0
LINE
  5
5A
100
AcDbEntity
  8
L1_65
  6
CONTINUOUS
 62
         7
100
AcDbLine
 10
1454.0033403763
 20
-30.4433347407
 30
0.0
 11
1455.1869084281
 21
-28.3933347407
 31
0.0
  0
LINE
  5
5B
100
AcDbEntity
  8
L1_65
  6
CONTINUOUS
 62
         7
100
AcDbLine
 10
1446.0033403763
 20
-0.1933347407
 30
0.0
 11
1446.6164863621
 21
-1.2553347407
 31
0.0
  0
LINE
  5
5C
100
AcDbEntity
  8
L1_65
  6
CONTINUOUS
 62
         7
100
AcDbLine
 10
1446.6164863621
 20
-1.2553347407
 30
0.0
 11
1446.6164863621
 21
-24.6313347407
 31
0.0
  0
LINE
  5
5D
100
AcDbEntity
  8
L1_65
  6
CONTINUOUS
 62
         7
100
AcDbLine
 10
1446.0033403763
 20
-25.6933347407
 30
0.0
 11
1446.6164863621
 21
-24.6313347407
 31
0.0
  0
ARC
  5
5E
100
AcDbEntity
  8
L1_65
  6
CONTINUOUS
 62
         7
100
AcDbCircle
 10
1447.5033403763
 20
-28.9433347407
 30
0.0
 40
1.5
100
AcDbArc
 50
180.0
 51
270.0
  0
ARC
  5
5F
100
AcDbEntity
  8
L1_65
  6
CONTINUOUS
 62
         7
100
AcDbCircle
 10
1447.5033403763
 20
3.0566652593
 30
0.0
 40
1.5
100
AcDbArc
 50
90.0
 51
180.0
  0
ARC
  5
60
100
AcDbEntity
  8
L1_65
  6
CONTINUOUS
 62
         7
100
AcDbCircle
 10
1463.3001570821
 20
1.0066652593
 30
0.0
 40
1.0
100
AcDbArc
 50
30.0
 51
90.0
  0
LINE
  5
61
100
AcDbEntity
  8
L1_65
  6
CONTINUOUS
 62
         7
100
AcDbLine
 10
1453.9913403763
 20
-24.6313347407
 30
0.0
 11
1453.9913403763
 21
-1.2553347407
 31
0.0
  0
ARC
  5
62
100
AcDbEntity
  8
L1_65
  6
CONTINUOUS
 62
         7
100
AcDbCircle
 10
1456.0529338319
 20
3.0066652593
 30
0.0
 40
1.0
100
AcDbArc
 50
210.0
 51
270.0
  0
ARC
  5
63
100
AcDbEntity
  8
L1_65
  6
CONTINUOUS
 62
         7
100
AcDbCircle
 10
1456.0529338319
 20
-28.8933347407
 30
0.0
 40
1.0
100
AcDbArc
 50
90.0
 51
150.0
  0
INSERT
  5
6E
100
AcDbEntity
  8
0
  6
CONTINUOUS
100
AcDbBlockReference
  2
*X1
 10
0.0
 20
0.0
 30
0.0
  0
INSERT
  5
75
100
AcDbEntity
  8
0
  6
CONTINUOUS
100
AcDbBlockReference
  2
*X2
 10
0.0
 20
0.0
 30
0.0
  0
INSERT
  5
7C
100
AcDbEntity
  8
0
  6
CONTINUOUS
100
AcDbBlockReference
  2
*X3
 10
0.0
 20
0.0
 30
0.0
  0
INSERT
  5
87
100
AcDbEntity
  8
0
  6
CONTINUOUS
100
AcDbBlockReference
  2
*X4
 10
0.0
 20
0.0
 30
0.0
  0
INSERT
  5
8E
100
AcDbEntity
  8
0
  6
CONTINUOUS
100
AcDbBlockReference
  2
*X5
 10
0.0
 20
0.0
 30
0.0
  0
DIMENSION
  5
91
100
AcDbEntity
  8
L1_65
  6
CONTINUOUS
 62
         4
100
AcDbDimension
  2
*D6
 10
1483.8371406064
 20
167.6846417294
 30
0.0
 11
1481.8121406064
 21
144.7846417294
 31
0.0
  3
DIMSTYLE1
100
AcDbAlignedDimension
 13
1454.0033403763
 23
167.6846417294
 33
0.0
 14
1454.0033403763
 24
132.6846417294
 34
0.0
 50
90.0
100
AcDbRotatedDimension
  0
LINE
  5
9D
100
AcDbEntity
  8
L1_65
  6
CONTINUOUS
 62
         7
100
AcDbLine
 10
1454.0033403763
 20
167.6846417294
 30
0.0
 11
1455.1869084281
 21
165.6346417294
 31
0.0
  0
ARC
  5
9E
100
AcDbEntity
  8
L1_65
  6
CONTINUOUS
 62
         7
100
AcDbCircle
 10
1463.3001570821
 20
136.2346417294
 30
0.0
 40
1.0
100
AcDbArc
 50
270.0
 51
330.0
  0
LINE
  5
9F
100
AcDbEntity
  8
L1_65
  6
CONTINUOUS
 62
         7
100
AcDbLine
 10
1446.0033403763
 20
166.1846417294
 30
0.0
 11
1446.0033403763
 21
134.1846417294
 31
0.0
  0
LINE
  5
A0
100
AcDbEntity
  8
L1_65
  6
CONTINUOUS
 62
         7
100
AcDbLine
 10
1465.0033403763
 20
162.6487433445
 30
0.0
 11
1465.0033403763
 21
137.7205401142
 31
0.0
  0
LINE
  5
A1
100
AcDbEntity
  8
L1_65
  6
CONTINUOUS
 62
         7
100
AcDbLine
 10
1454.0033403763
 20
167.6846417294
 30
0.0
 11
1447.5033403763
 21
167.6846417294
 31
0.0
  0
LINE
  5
A2
100
AcDbEntity
  8
L1_65
  6
CONTINUOUS
 62
         7
100
AcDbLine
 10
1454.0033403763
 20
132.6846417294
 30
0.0
 11
1447.5033403763
 21
132.6846417294
 31
0.0
  0
LINE
  5
A3
100
AcDbEntity
  8
L1_65
  6
CONTINUOUS
 62
         7
100
AcDbLine
 10
1459.5033403763
 20
161.9846417294
 30
0.0
 11
1459.5033403763
 21
138.3846417294
 31
0.0
  0
LINE
  5
A4
100
AcDbEntity
  8
L1_65
  6
CONTINUOUS
 62
         7
100
AcDbLine
 10
1458.3033403763
 20
162.1846417294
 30
0.0
 11
1458.3033403763
 21
138.1846417294
 31
0.0
  0
LINE
  5
A5
100
AcDbEntity
  8
L1_65
  6
CONTINUOUS
 62
         7
100
AcDbLine
 10
1460.5033403763
 20
160.4872914602
 30
0.0
 11
1465.0033403763
 21
157.8892152488
 31
0.0
  0
LINE
  5
A6
100
AcDbEntity
  8
L1_65
  6
CONTINUOUS
 62
         7
100
AcDbLine
 10
1460.5033403763
 20
139.8819919986
 30
0.0
 11
1465.0033403763
 21
142.4800682099
 31
0.0
  0
LINE
  5
A7
100
AcDbEntity
  8
L1_65
  6
CONTINUOUS
 62
         7
100
AcDbLine
 10
1459.5033403763
 20
159.3846417294
 30
0.0
 11
1458.3033403763
 21
159.3846417294
 31
0.0
  0
LINE
  5
A8
100
AcDbEntity
  8
L1_65
  6
CONTINUOUS
 62
         4
100
AcDbLine
 10
1454.8033403763
 20
162.6846417294
 30
0.0
 11
1446.1476779435
 21
162.6846417294
 31
0.0
  0
LINE
  5
A9
100
AcDbEntity
  8
L1_65
  6
CONTINUOUS
 62
         4
100
AcDbLine
 10
1454.8033403763
 20
137.6846417294
 30
0.0
 11
1446.1476779435
 21
137.6846417294
 31
0.0
  0
LINE
  5
AA
100
AcDbEntity
  8
L1_65
  6
CONTINUOUS
 62
         7
100
AcDbLine
 10
1453.9913403763
 20
161.8726417294
 30
0.0
 11
1446.6164863621
 21
161.8726417294
 31
0.0
  0
LINE
  5
AB
100
AcDbEntity
  8
L1_65
  6
CONTINUOUS
 62
         7
100
AcDbLine
 10
1453.9913403763
 20
138.4966417294
 30
0.0
 11
1446.6164863621
 21
138.4966417294
 31
0.0
  0
LINE
  5
AC
100
AcDbEntity
  8
L1_65
  6
CONTINUOUS
 62
         7
100
AcDbLine
 10
1457.3033403763
 20
163.1846417294
 30
0.0
 11
1455.3033403763
 21
163.1846417294
 31
0.0
  0
LINE
  5
AD
100
AcDbEntity
  8
L1_65
  6
CONTINUOUS
 62
         7
100
AcDbLine
 10
1457.3033403763
 20
137.1846417294
 30
0.0
 11
1455.3033403763
 21
137.1846417294
 31
0.0
  0
LINE
  5
AE
100
AcDbEntity
  8
L1_65
  6
CONTINUOUS
 62
         7
100
AcDbLine
 10
1455.3033403763
 20
163.1846417294
 30
0.0
 11
1455.3033403763
 21
137.1846417294
 31
0.0
  0
LINE
  5
AF
100
AcDbEntity
  8
L1_65
  6
CENTER
 62
         1
100
AcDbLine
 10
1467.580148076
 20
150.1846417294
 30
0.0
 11
1444.0710909646
 21
150.1846417294
 31
0.0
  0
LINE
  5
B0
100
AcDbEntity
  8
L1_65
  6
CONTINUOUS
 62
         7
100
AcDbLine
 10
1460.5033403763
 20
161.9846417294
 30
0.0
 11
1460.5033403763
 21
138.3846417294
 31
0.0
  0
LINE
  5
B1
100
AcDbEntity
  8
L1_65
  6
CONTINUOUS
 62
         7
100
AcDbLine
 10
1460.5033403763
 20
138.3846417294
 30
0.0
 11
1458.3033403763
 21
138.3846417294
 31
0.0
  0
LINE
  5
B2
100
AcDbEntity
  8
L1_65
  6
CONTINUOUS
 62
         7
100
AcDbLine
 10
1460.5033403763
 20
161.9846417294
 30
0.0
 11
1459.5033403763
 21
161.9846417294
 31
0.0
  0
ARC
  5
B3
100
AcDbEntity
  8
L1_65
  6
CONTINUOUS
 62
         7
100
AcDbCircle
 10
1457.3033403763
 20
138.1846417294
 30
0.0
 40
1.0
100
AcDbArc
 50
270.0
 51
360.0
  0
ARC
  5
B4
100
AcDbEntity
  8
L1_65
  6
CONTINUOUS
 62
         7
100
AcDbCircle
 10
1457.3033403763
 20
162.1846417294
 30
0.0
 40
1.0
100
AcDbArc
 50
0.0
 51
90.0
  0
LINE
  5
B5
100
AcDbEntity
  8
L1_65
  6
CONTINUOUS
 62
         7
100
AcDbLine
 10
1455.3033403763
 20
137.1846417294
 30
0.0
 11
1453.9913403763
 21
138.4966417294
 31
0.0
  0
LINE
  5
B6
100
AcDbEntity
  8
L1_65
  6
CONTINUOUS
 62
         7
100
AcDbLine
 10
1455.3033403763
 20
163.1846417294
 30
0.0
 11
1453.9913403763
 21
161.8726417294
 31
0.0
  0
LINE
  5
B7
100
AcDbEntity
  8
L1_65
  6
CONTINUOUS
 62
         7
100
AcDbLine
 10
1464.7353911838
 20
163.6487433445
 30
0.0
 11
1464.1661824859
 21
164.6346417294
 31
0.0
  0
LINE
  5
B8
100
AcDbEntity
  8
L1_65
  6
CONTINUOUS
 62
         7
100
AcDbLine
 10
1463.3001570821
 20
165.1346417294
 30
0.0
 11
1456.0529338319
 21
165.1346417294
 31
0.0
  0
ARC
  5
B9
100
AcDbEntity
  8
L1_65
  6
CONTINUOUS
 62
         7
100
AcDbCircle
 10
1463.0033403763
 20
162.6487433445
 30
0.0
 40
2.0
100
AcDbArc
 50
0.0
 51
30.0
  0
LINE
  5
BA
100
AcDbEntity
  8
L1_65
  6
CONTINUOUS
 62
         7
100
AcDbLine
 10
1463.3001570821
 20
135.2346417294
 30
0.0
 11
1456.0529338319
 21
135.2346417294
 31
0.0
  0
ARC
  5
BB
100
AcDbEntity
  8
L1_65
  6
CONTINUOUS
 62
         7
100
AcDbCircle
 10
1463.0033403763
 20
137.7205401142
 30
0.0
 40
2.0
100
AcDbArc
 50
330.0
 51
360.0
  0
LINE
  5
BC
100
AcDbEntity
  8
L1_65
  6
CONTINUOUS
 62
         7
100
AcDbLine
 10
1464.7353911838
 20
136.7205401142
 30
0.0
 11
1464.1661824859
 21
135.7346417294
 31
0.0
  0
LINE
  5
BD
100
AcDbEntity
  8
L1_65
  6
CONTINUOUS
 62
         7
100
AcDbLine
 10
1454.0033403763
 20
132.6846417294
 30
0.0
 11
1455.1869084281
 21
134.7346417294
 31
0.0
  0
LINE
  5
BE
100
AcDbEntity
  8
L1_65
  6
CONTINUOUS
 62
         7
100
AcDbLine
 10
1446.0033403763
 20
162.9346417294
 30
0.0
 11
1446.6164863621
 21
161.8726417294
 31
0.0
  0
LINE
  5
BF
100
AcDbEntity
  8
L1_65
  6
CONTINUOUS
 62
         7
100
AcDbLine
 10
1446.6164863621
 20
161.8726417294
 30
0.0
 11
1446.6164863621
 21
138.4966417294
 31
0.0
  0
LINE
  5
C0
100
AcDbEntity
  8
L1_65
  6
CONTINUOUS
 62
         7
100
AcDbLine
 10
1446.0033403763
 20
137.4346417294
 30
0.0
 11
1446.6164863621
 21
138.4966417294
 31
0.0
  0
ARC
  5
C1
100
AcDbEntity
  8
L1_65
  6
CONTINUOUS
 62
         7
100
AcDbCircle
 10
1447.5033403763
 20
134.1846417294
 30
0.0
 40
1.5
100
AcDbArc
 50
180.0
 51
270.0
  0
ARC
  5
C2
100
AcDbEntity
  8
L1_65
  6
CONTINUOUS
 62
         7
100
AcDbCircle
 10
1447.5033403763
 20
166.1846417294
 30
0.0
 40
1.5
100
AcDbArc
 50
90.0
 51
180.0
  0
ARC
  5
C3
100
AcDbEntity
  8
L1_65
  6
CONTINUOUS
 62
         7
100
AcDbCircle
 10
1463.3001570821
 20
164.1346417294
 30
0.0
 40
1.0
100
AcDbArc
 50
30.0
 51
90.0
  0
LINE
  5
C4
100
AcDbEntity
  8
L1_65
  6
CONTINUOUS
 62
         7
100
AcDbLine
 10
1453.9913403763
 20
138.4966417294
 30
0.0
 11
1453.9913403763
 21
161.8726417294
 31
0.0
  0
ARC
  5
C5
100
AcDbEntity
  8
L1_65
  6
CONTINUOUS
 62
         7
100
AcDbCircle
 10
1456.0529338319
 20
166.1346417294
 30
0.0
 40
1.0
100
AcDbArc
 50
210.0
 51
270.0
  0
ARC
  5
C6
100
AcDbEntity
  8
L1_65
  6
CONTINUOUS
 62
         7
100
AcDbCircle
 10
1456.0529338319
 20
134.2346417294
 30
0.0
 40
1.0
100
AcDbArc
 50
90.0
 51
150.0
  0
INSERT
  5
D1
100
AcDbEntity
  8
0
  6
CONTINUOUS
100
AcDbBlockReference
  2
*X7
 10
0.0
 20
0.0
 30
0.0
  0
INSERT
  5
D8
100
AcDbEntity
  8
0
  6
CONTINUOUS
100
AcDbBlockReference
  2
*X8
 10
0.0
 20
0.0
 30
0.0
  0
INSERT
  5
DF
100
AcDbEntity
  8
0
  6
CONTINUOUS
100
AcDbBlockReference
  2
*X9
 10
0.0
 20
0.0
 30
0.0
  0
INSERT
  5
EA
100
AcDbEntity
  8
0
  6
CONTINUOUS
100
AcDbBlockReference
  2
*X10
 10
0.0
 20
0.0
 30
0.0
  0
INSERT
  5
F1
100
AcDbEntity
  8
0
  6
CONTINUOUS
100
AcDbBlockReference
  2
*X11
 10
0.0
 20
0.0
 30
0.0
  0
LINE
  5
F2
100
AcDbEntity
  8
L1_65
  6
CENTER
 62
         1
100
AcDbLine
 10
1414.0815508909
 20
63.8247116361
 30
0.0
 11
1398.3969175
 21
63.8247116361
 31
0.0
  0
CIRCLE
  5
F3
100
AcDbEntity
  8
L1_65
  6
CONTINUOUS
 62
         7
100
AcDbCircle
 10
1406.2392341955
 20
63.8247116361
 30
0.0
 40
7.145
  0
CIRCLE
  5
F4
100
AcDbEntity
  8
L1_65
  6
CONTINUOUS
 62
         7
100
AcDbCircle
 10
1406.2392341955
 20
63.8247116361
 30
0.0
 40
5.67
  0
LINE
  5
F5
100
AcDbEntity
  8
L1_65
  6
CONTINUOUS
 62
         7
100
AcDbLine
 10
1424.1352198724
 20
58.1547116361
 30
0.0
 11
1423.6352198724
 21
58.6547116361
 31
0.0
  0
LINE
  5
F6
100
AcDbEntity
  8
L1_65
  6
CONTINUOUS
 62
         7
100
AcDbLine
 10
1436.1352198724
 20
58.1547116361
 30
0.0
 11
1436.6352198724
 21
58.6547116361
 31
0.0
  0
LINE
  5
F7
100
AcDbEntity
  8
L1_65
  6
CONTINUOUS
 62
         7
100
AcDbLine
 10
1436.1352198724
 20
69.4947116361
 30
0.0
 11
1436.6352198724
 21
68.9947116361
 31
0.0
  0
LINE
  5
F8
100
AcDbEntity
  8
L1_65
  6
CONTINUOUS
 62
         7
100
AcDbLine
 10
1424.1352198724
 20
69.4947116361
 30
0.0
 11
1423.6352198724
 21
68.9947116361
 31
0.0
  0
DIMENSION
  5
FB
100
AcDbEntity
  8
L1_65
  6
CONTINUOUS
 62
         4
100
AcDbDimension
  2
*D12
 10
1423.6352198724
 20
75.498112948
 30
0.0
 11
1427.4594533589
 21
77.523112948
 31
0.0
  3
DIMSTYLE1
100
AcDbAlignedDimension
 13
1423.6352198724
 23
67.4047116361
 33
0.0
 14
1436.6352198724
 24
67.4047116361
 34
0.0
100
AcDbRotatedDimension
  0
DIMENSION
  5
109
100
AcDbEntity
  8
L1_65
  6
CONTINUOUS
 62
         4
100
AcDbDimension
  2
*D13
 10
1456.0324676778
 20
70.969711636
 30
0.0
 11
1454.0074676778
 21
49.4075267117
 31
0.0
  3
DIMSTYLE1
100
AcDbAlignedDimension
 13
1433.1602198724
 23
70.969711636
 33
0.0
 14
1433.1602198724
 24
56.6797116361
 34
0.0
 50
90.0
100
AcDbRotatedDimension
  0
LINE
  5
115
100
AcDbEntity
  8
L1_65
  6
CENTER
 62
         1
100
AcDbLine
 10
1406.2392341955
 20
55.5500313228
 30
0.0
 11
1406.2392341955
 21
72.0664255754
 31
0.0
  0
LINE
  5
116
100
AcDbEntity
  8
L1_65
  6
CENTER
 62
         1
100
AcDbLine
 10
1422.333263037
 20
63.8247116361
 30
0.0
 11
1437.8327917845
 21
63.8247116361
 31
0.0
  0
LINE
  5
117
100
AcDbEntity
  8
L1_65
  6
CONTINUOUS
 62
         7
100
AcDbLine
 10
1423.6352198724
 20
58.6547116361
 30
0.0
 11
1423.6352198724
 21
68.9947116361
 31
0.0
  0
LINE
  5
118
100
AcDbEntity
  8
L1_65
  6
CONTINUOUS
 62
         7
100
AcDbLine
 10
1425.6352198724
 20
58.1547116361
 30
0.0
 11
1425.6352198724
 21
69.4947116361
 31
0.0
  0
LINE
  5
119
100
AcDbEntity
  8
L1_65
  6
CONTINUOUS
 62
         7
100
AcDbLine
 10
1436.6352198724
 20
58.6547116361
 30
0.0
 11
1436.6352198724
 21
68.9947116361
 31
0.0
  0
LINE
  5
11A
100
AcDbEntity
  8
L1_65
  6
CONTINUOUS
 62
         7
100
AcDbLine
 10
1434.6352198724
 20
58.1547116361
 30
0.0
 11
1434.6352198724
 21
69.4947116361
 31
0.0
  0
LINE
  5
11B
100
AcDbEntity
  8
L1_65
  6
CONTINUOUS
 62
         7
100
AcDbLine
 10
1424.1352198724
 20
69.4947116361
 30
0.0
 11
1425.6352198724
 21
69.4947116361
 31
0.0
  0
LINE
  5
11C
100
AcDbEntity
  8
L1_65
  6
CONTINUOUS
 62
         7
100
AcDbLine
 10
1427.1102198724
 20
70.969711636
 30
0.0
 11
1433.1602198724
 21
70.969711636
 31
0.0
  0
LINE
  5
11D
100
AcDbEntity
  8
L1_65
  6
CONTINUOUS
 62
         7
100
AcDbLine
 10
1434.6352198724
 20
69.4947116361
 30
0.0
 11
1436.1352198724
 21
69.4947116361
 31
0.0
  0
LINE
  5
11E
100
AcDbEntity
  8
L1_65
  6
CONTINUOUS
 62
         7
100
AcDbLine
 10
1433.1602198724
 20
70.969711636
 30
0.0
 11
1434.6352198724
 21
69.4947116361
 31
0.0
  0
LINE
  5
11F
100
AcDbEntity
  8
L1_65
  6
CONTINUOUS
 62
         7
100
AcDbLine
 10
1427.1102198724
 20
70.969711636
 30
0.0
 11
1425.6352198724
 21
69.4947116361
 31
0.0
  0
LINE
  5
120
100
AcDbEntity
  8
L1_65
  6
CONTINUOUS
 62
         7
100
AcDbLine
 10
1424.1352198724
 20
58.1547116361
 30
0.0
 11
1424.1352198724
 21
69.4947116361
 31
0.0
  0
LINE
  5
121
100
AcDbEntity
  8
L1_65
  6
CONTINUOUS
 62
         7
100
AcDbLine
 10
1436.1352198724
 20
58.1547116361
 30
0.0
 11
1436.1352198724
 21
69.4947116361
 31
0.0
  0
LINE
  5
122
100
AcDbEntity
  8
L1_65
  6
CONTINUOUS
 62
         7
100
AcDbLine
 10
1427.1102198724
 20
56.6797116361
 30
0.0
 11
1433.1602198724
 21
56.6797116361
 31
0.0
  0
LINE
  5
123
100
AcDbEntity
  8
L1_65
  6
CONTINUOUS
 62
         7
100
AcDbLine
 10
1427.1102198724
 20
56.6797116361
 30
0.0
 11
1425.6352198724
 21
58.1547116361
 31
0.0
  0
LINE
  5
124
100
AcDbEntity
  8
L1_65
  6
CONTINUOUS
 62
         7
100
AcDbLine
 10
1433.1602198724
 20
56.6797116361
 30
0.0
 11
1434.6352198724
 21
58.1547116361
 31
0.0
  0
LINE
  5
125
100
AcDbEntity
  8
L1_65
  6
CONTINUOUS
 62
         7
100
AcDbLine
 10
1434.6352198724
 20
58.1547116361
 30
0.0
 11
1436.1352198724
 21
58.1547116361
 31
0.0
  0
LINE
  5
126
100
AcDbEntity
  8
L1_65
  6
CONTINUOUS
 62
         7
100
AcDbLine
 10
1424.1352198724
 20
58.1547116361
 30
0.0
 11
1425.6352198724
 21
58.1547116361
 31
0.0
  0
LINE
  5
127
100
AcDbEntity
  8
L1_65
  6
DASHED
 62
         2
100
AcDbLine
 10
1434.8352198724
 20
58.1547116361
 30
0.0
 11
1434.8352198724
 21
69.4947116361
 31
0.0
  0
LINE
  5
128
100
AcDbEntity
  8
L1_65
  6
DASHED
 62
         2
100
AcDbLine
 10
1425.4352198724
 20
58.1547116361
 30
0.0
 11
1425.4352198724
 21
69.4947116361
 31
0.0
  0
LINE
  5
129
100
AcDbEntity
  8
L1_65
  6
CONTINUOUS
 62
         4
100
AcDbLine
 10
1426.3202198724
 20
70.1797116361
 30
0.0
 11
1433.9502198724
 21
70.1797116361
 31
0.0
  0
LINE
  5
12A
100
AcDbEntity
  8
L1_65
  6
CONTINUOUS
 62
         4
100
AcDbLine
 10
1426.3202198724
 20
57.469711636
 30
0.0
 11
1433.9502198724
 21
57.469711636
 31
0.0
  0
CIRCLE
  5
12B
100
AcDbEntity
  8
L1_65
  6
CONTINUOUS
 62
         7
100
AcDbCircle
 10
1406.2392341955
 20
63.8247116361
 30
0.0
 40
1.5
  0
LINE
  5
12C
100
AcDbEntity
  8
L1_65
  6
CONTINUOUS
 62
         7
100
AcDbLine
 10
1407.2392341955
 20
58.2435916768
 30
0.0
 11
1407.2392341955
 21
62.7066776473
 31
0.0
  0
LINE
  5
12D
100
AcDbEntity
  8
L1_65
  6
CONTINUOUS
 62
         7
100
AcDbLine
 10
1405.2392341955
 20
58.2435916768
 30
0.0
 11
1405.2392341955
 21
62.7066776473
 31
0.0
  0
LINE
  5
12E
100
AcDbEntity
  8
L1_65
  6
DASHED
 62
         2
100
AcDbLine
 10
1425.4352198724
 20
65.3247116361
 30
0.0
 11
1434.8352198724
 21
65.3247116361
 31
0.0
  0
LINE
  5
12F
100
AcDbEntity
  8
L1_65
  6
DASHED
 62
         2
100
AcDbLine
 10
1425.4352198724
 20
62.3247116361
 30
0.0
 11
1434.8352198724
 21
62.3247116361
 31
0.0
  0
LINE
  5
130
100
AcDbEntity
  8
L1_65
  6
CONTINUOUS
 62
         7
100
AcDbLine
 10
1405.2392341955
 20
64.9427456248
 30
0.0
 11
1405.2392341955
 21
69.4058315953
 31
0.0
  0
LINE
  5
131
100
AcDbEntity
  8
L1_65
  6
CONTINUOUS
 62
         7
100
AcDbLine
 10
1407.2392341955
 20
64.9427456248
 30
0.0
 11
1407.2392341955
 21
69.4058315953
 31
0.0
  0
DIMENSION
  5
134
100
AcDbEntity
  8
L1_65
  6
CONTINUOUS
 62
         4
100
AcDbDimension
  2
*D14
 10
1407.2392341955
 20
78.1321389851
 30
0.0
 11
1403.5401195335
 21
80.1571389851
 31
0.0
  3
DIMSTYLE1
100
AcDbAlignedDimension
 13
1407.2392341955
 23
69.4058315953
 33
0.0
 14
1405.2392341955
 24
69.4058315953
 34
0.0
100
AcDbRotatedDimension
  0
ARC
  5
142
100
AcDbEntity
  8
_Y__________
  6
CONTINUOUS
 62
         7
100
AcDbCircle
 10
1332.7533403763
 20
-3.7933347407
 30
0.0
 40
1.0
100
AcDbArc
 50
180.0
 51
270.0
  0
LINE
  5
143
100
AcDbEntity
  8
_Y__________
  6
CONTINUOUS
 62
         7
100
AcDbLine
 10
1332.7533403763
 20
-4.7933347407
 30
0.0
 11
1335.5233403763
 21
-4.7933347407
 31
0.0
  0
ARC
  5
144
100
AcDbEntity
  8
_Y__________
  6
CONTINUOUS
 62
         7
100
AcDbCircle
 10
1335.9228759565
 20
-4.8933347407
 30
0.0
 40
0.2
100
AcDbArc
 50
90.0
 51
105.0
  0
LINE
  5
145
100
AcDbEntity
  8
_Y__________
  6
CONTINUOUS
 62
         7
100
AcDbLine
 10
1335.8711121475
 20
-4.7001495754
 30
0.0
 11
1335.5233403763
 21
-4.7933347407
 31
0.0
  0
LINE
  5
146
100
AcDbEntity
  8
_Y__________
  6
CONTINUOUS
 62
         7
100
AcDbLine
 10
1335.9228759565
 20
-4.6933347407
 30
0.0
 11
1336.3233403763
 21
-4.6933347407
 31
0.0
  0
LINE
  5
147
100
AcDbEntity
  8
_Y__________
  6
CONTINUOUS
 62
         7
100
AcDbLine
 10
1336.4647617325
 20
-4.7519133844
 30
0.0
 11
1337.6561830887
 21
-5.9433347407
 31
0.0
  0
ARC
  5
148
100
AcDbEntity
  8
_Y__________
  6
CONTINUOUS
 62
         7
100
AcDbCircle
 10
1336.3233403763
 20
-4.8933347407
 30
0.0
 40
0.2
100
AcDbArc
 50
45.0000000038
 51
90.0
  0
LINE
  5
149
100
AcDbEntity
  8
_Y__________
  6
CONTINUOUS
 62
         7
100
AcDbLine
 10
1336.5233403763
 20
-5.1498119
 30
0.0
 11
1336.5233403763
 21
-20.6220880762
 31
0.0
  0
LINE
  5
14A
100
AcDbEntity
  8
_Y__________
  6
CONTINUOUS
 62
         7
100
AcDbLine
 10
1335.5233403763
 20
-4.7933347407
 30
0.0
 11
1335.5233403763
 21
-21.0933347407
 31
0.0
  0
LINE
  5
14B
100
AcDbEntity
  8
_Y__________
  6
CONTINUOUS
 62
         5
100
AcDbLine
 10
1336.6561830887
 20
-4.9433347407
 30
0.0
 11
1360.2033403763
 21
-4.9433347407
 31
0.0
  0
LINE
  5
14C
100
AcDbEntity
  8
_Y__________
  6
CONTINUOUS
 62
         7
100
AcDbLine
 10
1337.6561830887
 20
-5.9433347407
 30
0.0
 11
1360.2033403763
 21
-5.9433347407
 31
0.0
  0
LINE
  5
14D
100
AcDbEntity
  8
_Y__________
  6
CONTINUOUS
 62
         7
100
AcDbLine
 10
1337.6561830887
 20
-5.9433347407
 30
0.0
 11
1337.6561830887
 21
-19.9433347407
 31
0.0
  0
LINE
  5
14E
100
AcDbEntity
  8
_Y__________
  6
CONTINUOUS
 62
         7
100
AcDbLine
 10
1337.6561830887
 20
-19.9433347407
 30
0.0
 11
1360.2033403763
 21
-19.9433347407
 31
0.0
  0
LINE
  5
14F
100
AcDbEntity
  8
_Y__________
  6
CONTINUOUS
 62
         7
100
AcDbLine
 10
1336.4647617325
 20
-21.1347560969
 30
0.0
 11
1337.6561830887
 21
-19.9433347407
 31
0.0
  0
ARC
  5
150
100
AcDbEntity
  8
_Y__________
  6
CONTINUOUS
 62
         7
100
AcDbCircle
 10
1336.3233403763
 20
-20.9933347407
 30
0.0
 40
0.2
100
AcDbArc
 50
270.0
 51
314.9999999962
  0
LINE
  5
151
100
AcDbEntity
  8
_Y__________
  6
CONTINUOUS
 62
         7
100
AcDbLine
 10
1335.9228759565
 20
-21.1933347407
 30
0.0
 11
1336.3233403763
 21
-21.1933347407
 31
0.0
  0
LINE
  5
152
100
AcDbEntity
  8
_Y__________
  6
CONTINUOUS
 62
         7
100
AcDbLine
 10
1335.8711121475
 20
-21.1865199059
 30
0.0
 11
1335.5233403763
 21
-21.0933347407
 31
0.0
  0
LINE
  5
153
100
AcDbEntity
  8
_Y__________
  6
CONTINUOUS
 62
         7
100
AcDbLine
 10
1332.7533403763
 20
-21.0933347407
 30
0.0
 11
1335.5233403763
 21
-21.0933347407
 31
0.0
  0
ARC
  5
154
100
AcDbEntity
  8
_Y__________
  6
CONTINUOUS
 62
         7
100
AcDbCircle
 10
1332.7533403763
 20
-22.0933347407
 30
0.0
 40
1.0
100
AcDbArc
 50
90.0
 51
180.0
  0
LINE
  5
155
100
AcDbEntity
  8
_Y__________
  6
CONTINUOUS
 62
         5
100
AcDbLine
 10
1336.6561830887
 20
-20.9433347407
 30
0.0
 11
1360.2033403763
 21
-20.9433347407
 31
0.0
  0
LINE
  5
156
100
AcDbEntity
  8
_Y__________
  6
CONTINUOUS
 62
         7
100
AcDbLine
 10
1360.2033403763
 20
-4.9433347407
 30
0.0
 11
1360.2033403763
 21
-20.9433347407
 31
0.0
  0
ARC
  5
157
100
AcDbEntity
  8
_Y__________
  6
CONTINUOUS
 62
         7
100
AcDbCircle
 10
1332.9533403763
 20
-24.1775164571
 30
0.0
 40
1.2
100
AcDbArc
 50
180.0
 51
261.7028550302
  0
ARC
  5
158
100
AcDbEntity
  8
_Y__________
  6
CONTINUOUS
 62
         7
100
AcDbCircle
 10
1332.9533403763
 20
-1.7091530242
 30
0.0
 40
1.2
100
AcDbArc
 50
98.2971449698
 51
180.0
  0
LINE
  5
159
100
AcDbEntity
  8
_Y__________
  6
CONTINUOUS
 62
         7
100
AcDbLine
 10
1331.7533403763
 20
-1.7091530242
 30
0.0
 11
1331.7533403763
 21
-24.1775164571
 31
0.0
  0
ARC
  5
15A
100
AcDbEntity
  8
_Y__________
  6
CONTINUOUS
 62
         7
100
AcDbCircle
 10
1332.9533403763
 20
138.9504600129
 30
0.0
 40
1.2
100
AcDbArc
 50
180.0
 51
261.7028550302
  0
ARC
  5
15B
100
AcDbEntity
  8
_Y__________
  6
CONTINUOUS
 62
         7
100
AcDbCircle
 10
1332.9533403763
 20
161.4188234458
 30
0.0
 40
1.2
100
AcDbArc
 50
98.2971449698
 51
180.0
  0
LINE
  5
15C
100
AcDbEntity
  8
_Y__________
  6
CONTINUOUS
 62
         7
100
AcDbLine
 10
1331.7533403763
 20
161.4188234458
 30
0.0
 11
1331.7533403763
 21
138.9504600129
 31
0.0
  0
LINE
  5
15D
100
AcDbEntity
  8
_Y__________
  6
CONTINUOUS
 62
         7
100
AcDbLine
 10
1414.639610775
 20
141.3346417294
 30
0.0
 11
1414.639610775
 21
118.4096417294
 31
0.0
  0
LINE
  5
15E
100
AcDbEntity
  8
_Y__________
  6
CONTINUOUS
 62
         7
100
AcDbLine
 10
1412.9783403763
 20
142.1346417294
 30
0.0
 11
1412.9783403763
 21
121.2870464652
 31
0.0
  0
LINE
  5
15F
100
AcDbEntity
  8
_Y__________
  6
CONTINUOUS
 62
         7
100
AcDbLine
 10
1409.2283403763
 20
142.1346417294
 30
0.0
 11
1409.2283403763
 21
121.2870464652
 31
0.0
  0
LINE
  5
160
100
AcDbEntity
  8
_Y__________
  6
CONTINUOUS
 62
         7
100
AcDbLine
 10
1407.5670699775
 20
141.3346417294
 30
0.0
 11
1407.5670699775
 21
118.4096417294
 31
0.0
  0
LINE
  5
161
100
AcDbEntity
  8
_Y__________
  6
CONTINUOUS
 62
         7
100
AcDbLine
 10
1419.1033403763
 20
159.0346417294
 30
0.0
 11
1414.639610775
 21
159.0346417294
 31
0.0
  0
LINE
  5
162
100
AcDbEntity
  8
_Y__________
  6
CONTINUOUS
 62
         7
100
AcDbLine
 10
1412.9783403763
 20
158.2346417294
 30
0.0
 11
1414.639610775
 21
159.0346417294
 31
0.0
  0
LINE
  5
163
100
AcDbEntity
  8
_Y__________
  6
CONTINUOUS
 62
         7
100
AcDbLine
 10
1419.1033403763
 20
159.0346417294
 30
0.0
 11
1418.3033403763
 21
158.2346417294
 31
0.0
  0
LINE
  5
164
100
AcDbEntity
  8
_Y__________
  6
CONTINUOUS
 62
         7
100
AcDbLine
 10
1412.9783403763
 20
142.1346417294
 30
0.0
 11
1414.639610775
 21
141.3346417294
 31
0.0
  0
LINE
  5
165
100
AcDbEntity
  8
_Y__________
  6
CONTINUOUS
 62
         7
100
AcDbLine
 10
1418.3033403763
 20
142.1346417294
 30
0.0
 11
1419.1033403763
 21
141.3346417294
 31
0.0
  0
LINE
  5
166
100
AcDbEntity
  8
_Y__________
  6
CONTINUOUS
 62
         7
100
AcDbLine
 10
1419.1033403763
 20
141.3346417294
 30
0.0
 11
1414.639610775
 21
141.3346417294
 31
0.0
  0
LINE
  5
167
100
AcDbEntity
  8
_Y__________
  6
CONTINUOUS
 62
         7
100
AcDbLine
 10
1418.3033403763
 20
158.2346417294
 30
0.0
 11
1418.3033403763
 21
142.1346417294
 31
0.0
  0
LINE
  5
168
100
AcDbEntity
  8
_Y__________
  6
CONTINUOUS
 62
         7
100
AcDbLine
 10
1407.5670699775
 20
159.0346417294
 30
0.0
 11
1403.2033403763
 21
159.0346417294
 31
0.0
  0
LINE
  5
169
100
AcDbEntity
  8
_Y__________
  6
CONTINUOUS
 62
         7
100
AcDbLine
 10
1403.2033403763
 20
159.0346417294
 30
0.0
 11
1404.0033403763
 21
158.2346417294
 31
0.0
  0
LINE
  5
16A
100
AcDbEntity
  8
_Y__________
  6
CONTINUOUS
 62
         7
100
AcDbLine
 10
1404.0033403763
 20
142.1346417294
 30
0.0
 11
1403.2033403763
 21
141.3346417294
 31
0.0
  0
LINE
  5
16B
100
AcDbEntity
  8
_Y__________
  6
CONTINUOUS
 62
         7
100
AcDbLine
 10
1407.5670699775
 20
141.3346417294
 30
0.0
 11
1403.2033403763
 21
141.3346417294
 31
0.0
  0
LINE
  5
16C
100
AcDbEntity
  8
_Y__________
  6
CONTINUOUS
 62
         7
100
AcDbLine
 10
1404.0033403763
 20
158.2346417294
 30
0.0
 11
1404.0033403763
 21
142.1346417294
 31
0.0
  0
LINE
  5
16D
100
AcDbEntity
  8
_Y__________
  6
CONTINUOUS
 62
         7
100
AcDbLine
 10
1407.5670699775
 20
141.3346417294
 30
0.0
 11
1409.2283403763
 21
142.1346417294
 31
0.0
  0
LINE
  5
16E
100
AcDbEntity
  8
_Y__________
  6
CONTINUOUS
 62
         7
100
AcDbLine
 10
1407.5670699775
 20
159.0346417294
 30
0.0
 11
1409.2283403763
 21
158.2346417294
 31
0.0
  0
LINE
  5
16F
100
AcDbEntity
  8
_Y__________
  6
CONTINUOUS
 62
         7
100
AcDbLine
 10
1418.3033403763
 20
142.1346417294
 30
0.0
 11
1404.0033403763
 21
142.1346417294
 31
0.0
  0
LINE
  5
170
100
AcDbEntity
  8
_Y__________
  6
CONTINUOUS
 62
         7
100
AcDbLine
 10
1418.3033403763
 20
158.2346417294
 30
0.0
 11
1404.0033403763
 21
158.2346417294
 31
0.0
  0
LINE
  5
171
100
AcDbEntity
  8
_Y__________
  6
CONTINUOUS
 62
         7
100
AcDbLine
 10
1414.639610775
 20
181.9596417294
 30
0.0
 11
1414.639610775
 21
159.0346417294
 31
0.0
  0
LINE
  5
172
100
AcDbEntity
  8
_Y__________
  6
CONTINUOUS
 62
         7
100
AcDbLine
 10
1412.9783403763
 20
179.0822369936
 30
0.0
 11
1412.9783403763
 21
158.2346417294
 31
0.0
  0
LINE
  5
173
100
AcDbEntity
  8
_Y__________
  6
CONTINUOUS
 62
         7
100
AcDbLine
 10
1409.2283403763
 20
179.0822369936
 30
0.0
 11
1409.2283403763
 21
158.2346417294
 31
0.0
  0
LINE
  5
174
100
AcDbEntity
  8
_Y__________
  6
CONTINUOUS
 62
         7
100
AcDbLine
 10
1407.5670699775
 20
181.9596417294
 30
0.0
 11
1407.5670699775
 21
159.0346417294
 31
0.0
  0
ARC
  5
175
100
AcDbEntity
  8
_Y__________
  6
CONTINUOUS
 62
         7
100
AcDbCircle
 10
1623.2833403763
 20
150.1846417294
 30
0.0
 40
31.775
100
AcDbArc
 50
195.411296411
 51
344.588703589
  0
ARC
  5
176
100
AcDbEntity
  8
_Y__________
  6
CONTINUOUS
 62
         7
100
AcDbCircle
 10
1623.2833403763
 20
150.1846417294
 30
0.0
 40
31.775
100
AcDbArc
 50
15.411296411
 51
164.588703589
  0
LINE
  5
177
100
AcDbEntity
  8
_Y__________
  6
CENTER
 62
         1
100
AcDbLine
 10
1623.2833403763
 20
184.9596417294
 30
0.0
 11
1623.2833403763
 21
115.4096417294
 31
0.0
  0
ARC
  5
178
100
AcDbEntity
  8
_Y__________
  6
DASHED
 62
         2
100
AcDbCircle
 10
1623.2833403763
 20
150.1846417294
 30
0.0
 40
28.125
100
AcDbArc
 50
16.6319205355
 51
163.3680794645
  0
ARC
  5
179
100
AcDbEntity
  8
_Y__________
  6
DASHED
 62
         2
100
AcDbCircle
 10
1623.2833403763
 20
150.1846417294
 30
0.0
 40
28.125
100
AcDbArc
 50
196.6319205355
 51
343.3680794645
  0
LINE
  5
17A
100
AcDbEntity
  8
_Y__________
  6
CONTINUOUS
 62
         7
100
AcDbLine
 10
1646.0833403763
 20
157.7346417294
 30
0.0
 11
1646.0833403763
 21
142.6346417294
 31
0.0
  0
LINE
  5
17B
100
AcDbEntity
  8
_Y__________
  6
CONTINUOUS
 62
         7
100
AcDbLine
 10
1646.0833403763
 20
157.7346417294
 30
0.0
 11
1646.5833403763
 21
158.2346417294
 31
0.0
  0
LINE
  5
17C
100
AcDbEntity
  8
_Y__________
  6
CONTINUOUS
 62
         7
100
AcDbLine
 10
1646.5833403763
 20
158.2346417294
 30
0.0
 11
1653.5217223278
 21
158.2346417294
 31
0.0
  0
LINE
  5
17D
100
AcDbEntity
  8
_Y__________
  6
CONTINUOUS
 62
         7
100
AcDbLine
 10
1653.915807609
 20
158.6287270106
 30
0.0
 11
1653.5217223278
 21
158.2346417294
 31
0.0
  0
LINE
  5
17E
100
AcDbEntity
  8
_Y__________
  6
CONTINUOUS
 62
         7
100
AcDbLine
 10
1646.5833403763
 20
142.1346417294
 30
0.0
 11
1653.5217223278
 21
142.1346417294
 31
0.0
  0
LINE
  5
17F
100
AcDbEntity
  8
_Y__________
  6
CONTINUOUS
 62
         7
100
AcDbLine
 10
1646.0833403763
 20
142.6346417294
 30
0.0
 11
1646.5833403763
 21
142.1346417294
 31
0.0
  0
LINE
  5
180
100
AcDbEntity
  8
_Y__________
  6
CONTINUOUS
 62
         7
100
AcDbLine
 10
1653.915807609
 20
141.7405564482
 30
0.0
 11
1653.5217223278
 21
142.1346417294
 31
0.0
  0
LINE
  5
181
100
AcDbEntity
  8
_Y__________
  6
CONTINUOUS
 62
         7
100
AcDbLine
 10
1593.0449584247
 20
158.2346417294
 30
0.0
 11
1597.7833403762
 21
158.2346417294
 31
0.0
  0
LINE
  5
182
100
AcDbEntity
  8
_Y__________
  6
CONTINUOUS
 62
         7
100
AcDbLine
 10
1598.2833403762
 20
157.7346417294
 30
0.0
 11
1598.2833403762
 21
142.6346417294
 31
0.0
  0
LINE
  5
183
100
AcDbEntity
  8
_Y__________
  6
CONTINUOUS
 62
         7
100
AcDbLine
 10
1598.2833403762
 20
157.7346417294
 30
0.0
 11
1597.7833403762
 21
158.2346417294
 31
0.0
  0
LINE
  5
184
100
AcDbEntity
  8
_Y__________
  6
CONTINUOUS
 62
         7
100
AcDbLine
 10
1592.6508731435
 20
158.6287270106
 30
0.0
 11
1593.0449584247
 21
158.2346417294
 31
0.0
  0
LINE
  5
185
100
AcDbEntity
  8
_Y__________
  6
CONTINUOUS
 62
         7
100
AcDbLine
 10
1598.2833403762
 20
142.6346417294
 30
0.0
 11
1597.7833403762
 21
142.1346417294
 31
0.0
  0
LINE
  5
186
100
AcDbEntity
  8
_Y__________
  6
CONTINUOUS
 62
         7
100
AcDbLine
 10
1592.6508731435
 20
141.7405564482
 30
0.0
 11
1593.0449584247
 21
142.1346417294
 31
0.0
  0
LINE
  5
187
100
AcDbEntity
  8
_Y__________
  6
CONTINUOUS
 62
         7
100
AcDbLine
 10
1593.0449584247
 20
142.1346417294
 30
0.0
 11
1597.7833403762
 21
142.1346417294
 31
0.0
  0
LINE
  5
188
100
AcDbEntity
  8
_Y__________
  6
CENTER
 62
         1
100
AcDbLine
 10
1591.5083403763
 20
150.1846417294
 30
0.0
 11
1655.0583403763
 21
150.1846417294
 31
0.0
  0
LINE
  5
189
100
AcDbEntity
  8
_Y__________
  6
CENTER
 62
         1
100
AcDbLine
 10
1183.1483403763
 20
150.1846417294
 30
0.0
 11
1246.6983403763
 21
150.1846417294
 31
0.0
  0
ARC
  5
18A
100
AcDbEntity
  8
_Y__________
  6
CONTINUOUS
 62
         7
100
AcDbCircle
 10
1214.9233403763
 20
150.1846417294
 30
0.0
 40
31.775
100
AcDbArc
 50
195.411296411
 51
344.588703589
  0
ARC
  5
18B
100
AcDbEntity
  8
_Y__________
  6
CONTINUOUS
 62
         7
100
AcDbCircle
 10
1214.9233403763
 20
150.1846417294
 30
0.0
 40
31.775
100
AcDbArc
 50
15.411296411
 51
164.588703589
  0
LINE
  5
18C
100
AcDbEntity
  8
_Y__________
  6
CENTER
 62
         1
100
AcDbLine
 10
1214.9233403763
 20
114.5732894966
 30
0.0
 11
1214.9233403763
 21
185.4173498279
 31
0.0
  0
CIRCLE
  5
18D
100
AcDbEntity
  8
_Y__________
  6
CONTINUOUS
 62
         7
100
AcDbCircle
 10
1214.9233403763
 20
150.1846417294
 30
0.0
 40
12.7165768873
  0
CIRCLE
  5
18E
100
AcDbEntity
  8
_Y__________
  6
CONTINUOUS
 62
         7
100
AcDbCircle
 10
1214.9233403763
 20
150.1846417294
 30
0.0
 40
7.0
  0
ARC
  5
18F
100
AcDbEntity
  8
_Y__________
  6
CONTINUOUS
 62
         5
100
AcDbCircle
 10
1214.9233403763
 20
150.1846417294
 30
0.0
 40
8.0
100
AcDbArc
 50
352.9901372228
 51
621.2264515101
  0
CIRCLE
  5
190
100
AcDbEntity
  8
_Y__________
  6
CONTINUOUS
 62
         7
100
AcDbCircle
 10
1214.9233403763
 20
150.1846417294
 30
0.0
 40
9.5
  0
CIRCLE
  5
191
100
AcDbEntity
  8
_Y__________
  6
CONTINUOUS
 62
         7
100
AcDbCircle
 10
1214.9233403763
 20
150.1846417294
 30
0.0
 40
8.5
  0
CIRCLE
  5
192
100
AcDbEntity
  8
_Y__________
  6
CONTINUOUS
 62
         7
100
AcDbCircle
 10
1214.9233403763
 20
150.1846417294
 30
0.0
 40
22.225
  0
LINE
  5
193
100
AcDbEntity
  8
_Y__________
  6
CONTINUOUS
 62
         7
100
AcDbLine
 10
1245.1617223278
 20
158.2346417294
 30
0.0
 11
1240.4233403763
 21
158.2346417294
 31
0.0
  0
LINE
  5
194
100
AcDbEntity
  8
_Y__________
  6
CONTINUOUS
 62
         7
100
AcDbLine
 10
1245.555807609
 20
158.6287270106
 30
0.0
 11
1245.1617223278
 21
158.2346417294
 31
0.0
  0
LINE
  5
195
100
AcDbEntity
  8
_Y__________
  6
CONTINUOUS
 62
         7
100
AcDbLine
 10
1239.9233403763
 20
157.7346417294
 30
0.0
 11
1240.4233403763
 21
158.2346417294
 31
0.0
  0
LINE
  5
196
100
AcDbEntity
  8
_Y__________
  6
CONTINUOUS
 62
         7
100
AcDbLine
 10
1245.555807609
 20
141.7405564482
 30
0.0
 11
1245.1617223278
 21
142.1346417294
 31
0.0
  0
LINE
  5
197
100
AcDbEntity
  8
_Y__________
  6
CONTINUOUS
 62
         7
100
AcDbLine
 10
1239.9233403763
 20
142.6346417294
 30
0.0
 11
1240.4233403763
 21
142.1346417294
 31
0.0
  0
LINE
  5
198
100
AcDbEntity
  8
_Y__________
  6
CONTINUOUS
 62
         7
100
AcDbLine
 10
1239.9233403763
 20
142.6346417294
 30
0.0
 11
1239.9233403763
 21
157.7346417294
 31
0.0
  0
LINE
  5
199
100
AcDbEntity
  8
_Y__________
  6
CONTINUOUS
 62
         7
100
AcDbLine
 10
1245.1617223278
 20
142.1346417294
 30
0.0
 11
1240.4233403763
 21
142.1346417294
 31
0.0
  0
LINE
  5
19A
100
AcDbEntity
  8
_Y__________
  6
CONTINUOUS
 62
         7
100
AcDbLine
 10
1184.2908731435
 20
158.6287270106
 30
0.0
 11
1184.6849584247
 21
158.2346417294
 31
0.0
  0
LINE
  5
19B
100
AcDbEntity
  8
_Y__________
  6
CONTINUOUS
 62
         7
100
AcDbLine
 10
1192.1233403763
 20
157.7346417294
 30
0.0
 11
1191.6233403763
 21
158.2346417294
 31
0.0
  0
LINE
  5
19C
100
AcDbEntity
  8
_Y__________
  6
CONTINUOUS
 62
         7
100
AcDbLine
 10
1191.6233403763
 20
158.2346417294
 30
0.0
 11
1184.6849584247
 21
158.2346417294
 31
0.0
  0
LINE
  5
19D
100
AcDbEntity
  8
_Y__________
  6
CONTINUOUS
 62
         7
100
AcDbLine
 10
1184.2908731435
 20
141.7405564482
 30
0.0
 11
1184.6849584247
 21
142.1346417294
 31
0.0
  0
LINE
  5
19E
100
AcDbEntity
  8
_Y__________
  6
CONTINUOUS
 62
         7
100
AcDbLine
 10
1191.6233403763
 20
142.1346417294
 30
0.0
 11
1184.6849584247
 21
142.1346417294
 31
0.0
  0
LINE
  5
19F
100
AcDbEntity
  8
_Y__________
  6
CONTINUOUS
 62
         7
100
AcDbLine
 10
1192.1233403763
 20
142.6346417294
 30
0.0
 11
1191.6233403763
 21
142.1346417294
 31
0.0
  0
LINE
  5
1A0
100
AcDbEntity
  8
_Y__________
  6
CONTINUOUS
 62
         7
100
AcDbLine
 10
1192.1233403763
 20
142.6346417294
 30
0.0
 11
1192.1233403763
 21
157.7346417294
 31
0.0
  0
LINE
  5
1A1
100
AcDbEntity
  8
_Y__________
  6
CONTINUOUS
 62
         7
100
AcDbLine
 10
1414.639610775
 20
-44.7183347409
 30
0.0
 11
1418.1033403763
 21
-44.7183347409
 31
0.0
  0
LINE
  5
1A2
100
AcDbEntity
  8
_Y__________
  6
CONTINUOUS
 62
         7
100
AcDbLine
 10
1412.9783403763
 20
-41.8409300049
 30
0.0
 11
1414.639610775
 21
-44.7183347407
 31
0.0
  0
ARC
  5
1A3
100
AcDbEntity
  8
_Y__________
  6
CONTINUOUS
 62
         7
100
AcDbCircle
 10
1412.0045400445
 20
-42.0683347409
 30
0.0
 40
1.0
100
AcDbArc
 50
13.1443256895
 51
90.0
  0
LINE
  5
1A4
100
AcDbEntity
  8
_Y__________
  6
CONTINUOUS
 62
         7
100
AcDbLine
 10
1410.202140708
 20
-41.0683347407
 30
0.0
 11
1412.0045400445
 21
-41.0683347407
 31
0.0
  0
ARC
  5
1A5
100
AcDbEntity
  8
_Y__________
  6
CONTINUOUS
 62
         7
100
AcDbCircle
 10
1410.202140708
 20
-42.0683347407
 30
0.0
 40
1.0
100
AcDbArc
 50
90.0
 51
166.8556743105
  0
LINE
  5
1A6
100
AcDbEntity
  8
_Y__________
  6
CONTINUOUS
 62
         7
100
AcDbLine
 10
1409.2283403763
 20
-41.8409300049
 30
0.0
 11
1407.5670699775
 21
-44.7183347407
 31
0.0
  0
LINE
  5
1A7
100
AcDbEntity
  8
_Y__________
  6
CONTINUOUS
 62
         7
100
AcDbLine
 10
1403.2033403763
 20
-35.7433347409
 30
0.0
 11
1403.2033403763
 21
-43.7183347409
 31
0.0
  0
LINE
  5
1A8
100
AcDbEntity
  8
_Y__________
  6
CONTINUOUS
 62
         7
100
AcDbLine
 10
1404.2033403763
 20
-44.7183347409
 30
0.0
 11
1407.5670699775
 21
-44.7183347409
 31
0.0
  0
ARC
  5
1A9
100
AcDbEntity
  8
_Y__________
  6
CONTINUOUS
 62
         7
100
AcDbCircle
 10
1402.6033403763
 20
-35.7433347407
 30
0.0
 40
0.6
100
AcDbArc
 50
0.0
 51
90.0
  0
LINE
  5
1AA
100
AcDbEntity
  8
_Y__________
  6
CONTINUOUS
 62
         7
100
AcDbLine
 10
1401.9497505378
 20
-35.1433347407
 30
0.0
 11
1402.6033403763
 21
-35.1433347407
 31
0.0
  0
LINE
  5
1AB
100
AcDbEntity
  8
_Y__________
  6
CONTINUOUS
 62
         7
100
AcDbLine
 10
1401.2033403763
 20
-35.3433347409
 30
0.0
 11
1401.9497505378
 21
-35.1433347409
 31
0.0
  0
LINE
  5
1AC
100
AcDbEntity
  8
_Y__________
  6
CENTER
 62
         1
100
AcDbLine
 10
1328.5556074009
 20
-12.9433347407
 30
0.0
 11
1419.1033403763
 21
-12.9433347407
 31
0.0
  0
LINE
  5
1AD
100
AcDbEntity
  8
_Y__________
  6
CONTINUOUS
 62
         7
100
AcDbLine
 10
1332.6301721046
 20
-25.3430810344
 30
0.0
 11
1401.2033403767
 21
-35.3433347407
 31
0.0
  0
LINE
  5
1AE
100
AcDbEntity
  8
_Y__________
  6
CONTINUOUS
 62
         7
100
AcDbLine
 10
1401.2033403763
 20
9.4566652593
 30
0.0
 11
1401.9497505378
 21
9.2566652593
 31
0.0
  0
LINE
  5
1AF
100
AcDbEntity
  8
_Y__________
  6
CONTINUOUS
 62
         7
100
AcDbLine
 10
1332.6301721046
 20
-0.543588447
 30
0.0
 11
1401.2033403763
 21
9.4566652593
 31
0.0
  0
LINE
  5
1B0
100
AcDbEntity
  8
_Y__________
  6
CONTINUOUS
 62
         7
100
AcDbLine
 10
1401.9497505378
 20
9.2566652593
 30
0.0
 11
1402.6033403763
 21
9.2566652593
 31
0.0
  0
ARC
  5
1B1
100
AcDbEntity
  8
_Y__________
  6
CONTINUOUS
 62
         7
100
AcDbCircle
 10
1402.6033403763
 20
9.8566652593
 30
0.0
 40
0.6
100
AcDbArc
 50
270.0
 51
360.0
  0
LINE
  5
1B2
100
AcDbEntity
  8
_Y__________
  6
CONTINUOUS
 62
         7
100
AcDbLine
 10
1403.2033403763
 20
9.8566652593
 30
0.0
 11
1403.2033403763
 21
17.8316652595
 31
0.0
  0
LINE
  5
1B3
100
AcDbEntity
  8
_Y__________
  6
CONTINUOUS
 62
         7
100
AcDbLine
 10
1404.2033403763
 20
18.8316652595
 30
0.0
 11
1407.5670699775
 21
18.8316652595
 31
0.0
  0
LINE
  5
1B4
100
AcDbEntity
  8
_Y__________
  6
CONTINUOUS
 62
         7
100
AcDbLine
 10
1409.2283403763
 20
15.9542605235
 30
0.0
 11
1407.5670699775
 21
18.8316652593
 31
0.0
  0
ARC
  5
1B5
100
AcDbEntity
  8
_Y__________
  6
CONTINUOUS
 62
         7
100
AcDbCircle
 10
1410.202140708
 20
16.1816652595
 30
0.0
 40
1.0
100
AcDbArc
 50
193.1443256895
 51
270.0
  0
LINE
  5
1B6
100
AcDbEntity
  8
_Y__________
  6
CONTINUOUS
 62
         7
100
AcDbLine
 10
1410.202140708
 20
15.1816652595
 30
0.0
 11
1412.0045400445
 21
15.1816652595
 31
0.0
  0
ARC
  5
1B7
100
AcDbEntity
  8
_Y__________
  6
CONTINUOUS
 62
         7
100
AcDbCircle
 10
1412.0045400445
 20
16.1816652595
 30
0.0
 40
1.0
100
AcDbArc
 50
270.0
 51
346.8556743105
  0
LINE
  5
1B8
100
AcDbEntity
  8
_Y__________
  6
CONTINUOUS
 62
         7
100
AcDbLine
 10
1412.9783403763
 20
15.9542605237
 30
0.0
 11
1414.639610775
 21
18.8316652595
 31
0.0
  0
LINE
  5
1B9
100
AcDbEntity
  8
_Y__________
  6
CONTINUOUS
 62
         7
100
AcDbLine
 10
1414.639610775
 20
18.8316652595
 30
0.0
 11
1418.1033403763
 21
18.8316652595
 31
0.0
  0
POLYLINE
  5
1BB
100
AcDbEntity
  8
_Y__________
  6
CONTINUOUS
 62
         4
100
AcDb3dPolyline
 66
         1
 10
0.0
 20
0.0
 30
0.0
 70
         9
  0
VERTEX
  5
1BD
100
AcDbEntity
  8
_Y__________
  6
CONTINUOUS
 62
         4
100
AcDbVertex
100
AcDb3dPolylineVertex
 10
1388.9865192201
 20
138.7296307145
 30
0.0
 70
        32
  0
VERTEX
  5
1BF
100
AcDbEntity
  8
_Y__________
  6
CONTINUOUS
 62
         4
100
AcDbVertex
100
AcDb3dPolylineVertex
 10
1393.8238764033
 20
138.7296307145
 30
0.0
 70
        32
  0
VERTEX
  5
1C1
100
AcDbEntity
  8
_Y__________
  6
CONTINUOUS
 62
         4
100
AcDbVertex
100
AcDb3dPolylineVertex
 10
1393.8238764033
 20
158.9633075346
 30
0.0
 70
        32
  0
VERTEX
  5
1C3
100
AcDbEntity
  8
_Y__________
  6
CONTINUOUS
 62
         4
100
AcDbVertex
100
AcDb3dPolylineVertex
 10
1388.9865192201
 20
158.9633075346
 30
0.0
 70
        32
  0
VERTEX
  5
1C5
100
AcDbEntity
  8
_Y__________
  6
CONTINUOUS
 62
         4
100
AcDbVertex
100
AcDb3dPolylineVertex
 10
1388.9865192201
 20
138.7296307145
 30
0.0
 70
        32
  0
SEQEND
  5
1C7
100
AcDbEntity
  8
_Y__________
  6
CONTINUOUS
 62
         4
  0
CIRCLE
  5
1C8
100
AcDbEntity
  8
_Y__________
  6
CENTER
 62
         1
100
AcDbCircle
 10
1411.1033403763
 20
182.8346417294
 30
0.0
 40
3.5
  0
LINE
  5
1C9
100
AcDbEntity
  8
_Y__________
  6
CONTINUOUS
 62
         7
100
AcDbLine
 10
1409.2283403763
 20
179.0822369936
 30
0.0
 11
1407.5670699775
 21
181.9596417294
 31
0.0
  0
LINE
  5
1CA
100
AcDbEntity
  8
_Y__________
  6
CENTER
 62
         1
100
AcDbLine
 10
1406.7923351177
 20
182.8346417294
 30
0.0
 11
1415.2011696861
 21
182.8346417294
 31
0.0
  0
LINE
  5
1CB
100
AcDbEntity
  8
_Y__________
  6
CENTER
 62
         1
100
AcDbLine
 10
1406.7923351177
 20
117.5346417294
 30
0.0
 11
1415.2011696861
 21
117.5346417294
 31
0.0
  0
LINE
  5
1CC
100
AcDbEntity
  8
_Y__________
  6
CONTINUOUS
 62
         7
100
AcDbLine
 10
1409.2283403763
 20
121.2870464652
 30
0.0
 11
1407.5670699775
 21
118.4096417294
 31
0.0
  0
LINE
  5
1CD
100
AcDbEntity
  8
_Y__________
  6
CONTINUOUS
 62
         7
100
AcDbLine
 10
1403.2033403763
 20
180.9596417294
 30
0.0
 11
1403.2033403763
 21
119.4096417294
 31
0.0
  0
LINE
  5
1CE
100
AcDbEntity
  8
_Y__________
  6
CENTER
 62
         1
100
AcDbLine
 10
1400.0033403763
 20
172.4096417294
 30
0.0
 11
1400.0033403763
 21
127.9596417294
 31
0.0
  0
LINE
  5
1CF
100
AcDbEntity
  8
_Y__________
  6
CONTINUOUS
 62
         7
100
AcDbLine
 10
1404.2033403763
 20
118.4096417294
 30
0.0
 11
1407.5670699775
 21
118.4096417294
 31
0.0
  0
LINE
  5
1D0
100
AcDbEntity
  8
_Y__________
  6
CONTINUOUS
 62
         7
100
AcDbLine
 10
1404.2033403763
 20
181.9596417294
 30
0.0
 11
1407.5670699775
 21
181.9596417294
 31
0.0
  0
LINE
  5
1D1
100
AcDbEntity
  8
_Y__________
  6
CONTINUOUS
 62
         7
100
AcDbLine
 10
1419.1033403763
 20
180.9596417294
 30
0.0
 11
1419.1033403763
 21
119.4096417294
 31
0.0
  0
LINE
  5
1D2
100
AcDbEntity
  8
_Y__________
  6
CONTINUOUS
 62
         7
100
AcDbLine
 10
1419.1033403763
 20
180.9596417294
 30
0.0
 11
1419.1033403763
 21
169.1846417294
 31
0.0
  0
LINE
  5
1D3
100
AcDbEntity
  8
_Y__________
  6
CONTINUOUS
 62
         7
100
AcDbLine
 10
1410.202140708
 20
122.0596417294
 30
0.0
 11
1412.0045400445
 21
122.0596417294
 31
0.0
  0
ARC
  5
1D4
100
AcDbEntity
  8
_Y__________
  6
CONTINUOUS
 62
         7
100
AcDbCircle
 10
1410.202140708
 20
121.0596417294
 30
0.0
 40
1.0
100
AcDbArc
 50
90.0
 51
166.8556743105
  0
LINE
  5
1D5
100
AcDbEntity
  8
_Y__________
  6
CONTINUOUS
 62
         7
100
AcDbLine
 10
1412.9783403763
 20
121.2870464652
 30
0.0
 11
1414.639610775
 21
118.4096417294
 31
0.0
  0
ARC
  5
1D6
100
AcDbEntity
  8
_Y__________
  6
CONTINUOUS
 62
         7
100
AcDbCircle
 10
1412.0045400445
 20
121.0596417294
 30
0.0
 40
1.0
100
AcDbArc
 50
13.1443256895
 51
90.0
  0
LINE
  5
1D7
100
AcDbEntity
  8
_Y__________
  6
CONTINUOUS
 62
         7
100
AcDbLine
 10
1414.639610775
 20
118.4096417294
 30
0.0
 11
1418.1033403763
 21
118.4096417294
 31
0.0
  0
LINE
  5
1D8
100
AcDbEntity
  8
_Y__________
  6
CONTINUOUS
 62
         7
100
AcDbLine
 10
1412.9783403763
 20
179.0822369936
 30
0.0
 11
1414.639610775
 21
181.9596417294
 31
0.0
  0
LINE
  5
1D9
100
AcDbEntity
  8
_Y__________
  6
CONTINUOUS
 62
         7
100
AcDbLine
 10
1414.639610775
 20
181.9596417294
 30
0.0
 11
1418.1033403763
 21
181.9596417294
 31
0.0
  0
LINE
  5
1DA
100
AcDbEntity
  8
_Y__________
  6
CONTINUOUS
 62
         7
100
AcDbLine
 10
1410.202140708
 20
178.3096417294
 30
0.0
 11
1412.0045400445
 21
178.3096417294
 31
0.0
  0
ARC
  5
1DB
100
AcDbEntity
  8
_Y__________
  6
CONTINUOUS
 62
         7
100
AcDbCircle
 10
1410.202140708
 20
179.3096417294
 30
0.0
 40
1.0
100
AcDbArc
 50
193.1443256895
 51
270.0
  0
ARC
  5
1DC
100
AcDbEntity
  8
_Y__________
  6
CONTINUOUS
 62
         7
100
AcDbCircle
 10
1412.0045400445
 20
179.3096417294
 30
0.0
 40
1.0
100
AcDbArc
 50
270.0
 51
346.8556743105
  0
DIMENSION
  5
1DF
100
AcDbEntity
  8
_Y__________
  6
CONTINUOUS
 62
         4
100
AcDbDimension
  2
*D15
 10
1394.7940429477
 20
127.9846417294
 30
0.0
 11
1392.7690429477
 21
139.1573342283
 31
0.0
  3
DIMSTYLE1
100
AcDbAlignedDimension
 13
1401.9497505378
 23
127.9846417294
 33
0.0
 14
1401.9497505378
 24
172.3846417294
 34
0.0
 50
90.0
100
AcDbRotatedDimension
  0
CIRCLE
  5
1EB
100
AcDbEntity
  8
_Y__________
  6
CENTER
 62
         1
100
AcDbCircle
 10
1411.1033403763
 20
117.5346417294
 30
0.0
 40
3.5
  0
LINE
  5
1EC
100
AcDbEntity
  8
_Y__________
  6
CENTER
 62
         1
100
AcDbLine
 10
1411.1033403763
 20
187.6899050302
 30
0.0
 11
1411.1033403763
 21
112.6870854784
 31
0.0
  0
LINE
  5
1ED
100
AcDbEntity
  8
_Y__________
  6
CONTINUOUS
 62
         7
100
AcDbLine
 10
1332.7801721046
 20
137.7630204357
 30
0.0
 11
1401.2033403763
 21
127.7846417294
 31
0.0
  0
LINE
  5
1EE
100
AcDbEntity
  8
_Y__________
  6
CENTER
 62
         1
100
AcDbLine
 10
1329.3598386453
 20
150.1846417294
 30
0.0
 11
1378.4659535144
 21
150.1846417294
 31
0.0
  0
LINE
  5
1EF
100
AcDbEntity
  8
_Y__________
  6
CONTINUOUS
 62
         7
100
AcDbLine
 10
1332.7801721046
 20
162.6062630231
 30
0.0
 11
1401.2033403763
 21
172.5846417294
 31
0.0
  0
LINE
  5
1F0
100
AcDbEntity
  8
_Y__________
  6
CENTER
 62
         1
100
AcDbLine
 10
1396.6508489578
 20
150.1846417294
 30
0.0
 11
1419.1033403763
 21
150.1846417294
 31
0.0
  0
LINE
  5
1F1
100
AcDbEntity
  8
_Y__________
  6
CONTINUOUS
 62
         7
100
AcDbLine
 10
1401.9497505378
 20
127.9846417294
 30
0.0
 11
1402.6033403763
 21
127.9846417294
 31
0.0
  0
LINE
  5
1F2
100
AcDbEntity
  8
_Y__________
  6
CONTINUOUS
 62
         7
100
AcDbLine
 10
1401.2033403763
 20
127.7846417294
 30
0.0
 11
1401.9497505378
 21
127.9846417294
 31
0.0
  0
ARC
  5
1F3
100
AcDbEntity
  8
_Y__________
  6
CONTINUOUS
 62
         7
100
AcDbCircle
 10
1402.6033403763
 20
127.3846417294
 30
0.0
 40
0.6
100
AcDbArc
 50
0.0
 51
90.0
  0
LINE
  5
1F4
100
AcDbEntity
  8
_Y__________
  6
CONTINUOUS
 62
         7
100
AcDbLine
 10
1401.9497505378
 20
127.9846417294
 30
0.0
 11
1401.9497505378
 21
172.3846417294
 31
0.0
  0
LINE
  5
1F5
100
AcDbEntity
  8
_Y__________
  6
CONTINUOUS
 62
         7
100
AcDbLine
 10
1401.2033403763
 20
127.7846417294
 30
0.0
 11
1401.2033403763
 21
172.5846417294
 31
0.0
  0
LINE
  5
1F6
100
AcDbEntity
  8
_Y__________
  6
CONTINUOUS
 62
         7
100
AcDbLine
 10
1401.9497505378
 20
172.3846417294
 30
0.0
 11
1402.6033403763
 21
172.3846417294
 31
0.0
  0
LINE
  5
1F7
100
AcDbEntity
  8
_Y__________
  6
CONTINUOUS
 62
         7
100
AcDbLine
 10
1401.2033403763
 20
172.5846417294
 30
0.0
 11
1401.9497505378
 21
172.3846417294
 31
0.0
  0
ARC
  5
1F8
100
AcDbEntity
  8
_Y__________
  6
CONTINUOUS
 62
         7
100
AcDbCircle
 10
1402.6033403763
 20
172.9846417294
 30
0.0
 40
0.6
100
AcDbArc
 50
270.0
 51
360.0
  0
CIRCLE
  5
1F9
100
AcDbEntity
  8
_Y__________
  6
CONTINUOUS
 62
         7
100
AcDbCircle
 10
1411.1033403763
 20
150.1846417294
 30
0.0
 40
5.0
  0
LINE
  5
1FA
100
AcDbEntity
  8
_Y__________
  6
DASHED
 62
         2
100
AcDbLine
 10
1598.7833403762
 20
145.1846417294
 30
0.0
 11
1598.2833403762
 21
144.6846417294
 31
0.0
  0
LINE
  5
1FB
100
AcDbEntity
  8
_Y__________
  6
DASHED
 62
         2
100
AcDbLine
 10
1598.7833403762
 20
155.1846417294
 30
0.0
 11
1598.2833403762
 21
155.6846417294
 31
0.0
  0
LINE
  5
1FC
100
AcDbEntity
  8
_Y__________
  6
DASHED
 62
         2
100
AcDbLine
 10
1598.7833403762
 20
155.1846417294
 30
0.0
 11
1598.7833403762
 21
145.1846417294
 31
0.0
  0
LINE
  5
1FD
100
AcDbEntity
  8
_Y__________
  6
DASHED
 62
         2
100
AcDbLine
 10
1598.7833403762
 20
145.1846417294
 30
0.0
 11
1604.9573403762
 21
145.1846417294
 31
0.0
  0
LINE
  5
1FE
100
AcDbEntity
  8
_Y__________
  6
DASHED
 62
         2
100
AcDbLine
 10
1607.8440917222
 20
150.1846417294
 30
0.0
 11
1604.9573403762
 21
145.1846417294
 31
0.0
  0
LINE
  5
1FF
100
AcDbEntity
  8
_Y__________
  6
DASHED
 62
         2
100
AcDbLine
 10
1604.9573403762
 20
155.1846417294
 30
0.0
 11
1607.8440917222
 21
150.1846417294
 31
0.0
  0
LINE
  5
200
100
AcDbEntity
  8
_Y__________
  6
DASHED
 62
         2
100
AcDbLine
 10
1604.9573403762
 20
155.1846417294
 30
0.0
 11
1604.9573403762
 21
145.1846417294
 31
0.0
  0
LINE
  5
201
100
AcDbEntity
  8
_Y__________
  6
DASHED
 62
         2
100
AcDbLine
 10
1598.7833403762
 20
155.1846417294
 30
0.0
 11
1604.9573403762
 21
155.1846417294
 31
0.0
  0
LINE
  5
202
100
AcDbEntity
  8
_Y__________
  6
CONTINUOUS
 62
         7
100
AcDbLine
 10
1598.2833403762
 20
155.6846417294
 30
0.0
 11
1598.2833403762
 21
144.6846417294
 31
0.0
  0
ARC
  5
203
100
AcDbEntity
  8
_Y__________
  6
CONTINUOUS
 62
         7
100
AcDbCircle
 10
1404.2033403763
 20
17.8316652593
 30
0.0
 40
1.0
100
AcDbArc
 50
90.0
 51
180.0
  0
LINE
  5
204
100
AcDbEntity
  8
_Y__________
  6
CONTINUOUS
 62
         7
100
AcDbLine
 10
1404.2033403763
 20
18.8316652593
 30
0.0
 11
1405.2033403763
 21
18.8316652593
 31
0.0
  0
LINE
  5
205
100
AcDbEntity
  8
_Y__________
  6
CONTINUOUS
 62
         7
100
AcDbLine
 10
1403.2033403763
 20
17.8316652593
 30
0.0
 11
1403.2033403763
 21
16.8316652593
 31
0.0
  0
LINE
  5
206
100
AcDbEntity
  8
_Y__________
  6
CONTINUOUS
 62
         7
100
AcDbLine
 10
1417.1033403763
 20
18.8316652593
 30
0.0
 11
1418.1033403763
 21
18.8316652593
 31
0.0
  0
ARC
  5
207
100
AcDbEntity
  8
_Y__________
  6
CONTINUOUS
 62
         7
100
AcDbCircle
 10
1418.1033403763
 20
17.8316652593
 30
0.0
 40
1.0
100
AcDbArc
 50
0.0
 51
90.0
  0
ARC
  5
208
100
AcDbEntity
  8
_Y__________
  6
CONTINUOUS
 62
         7
100
AcDbCircle
 10
1404.2033403763
 20
-43.7183347407
 30
0.0
 40
1.0
100
AcDbArc
 50
180.0
 51
270.0
  0
LINE
  5
209
100
AcDbEntity
  8
_Y__________
  6
CONTINUOUS
 62
         7
100
AcDbLine
 10
1404.2033403763
 20
-44.7183347407
 30
0.0
 11
1405.2033403763
 21
-44.7183347407
 31
0.0
  0
LINE
  5
20A
100
AcDbEntity
  8
_Y__________
  6
CONTINUOUS
 62
         7
100
AcDbLine
 10
1417.1033403763
 20
-44.7183347407
 30
0.0
 11
1418.1033403763
 21
-44.7183347407
 31
0.0
  0
ARC
  5
20B
100
AcDbEntity
  8
_Y__________
  6
CONTINUOUS
 62
         7
100
AcDbCircle
 10
1418.1033403763
 20
-43.7183347407
 30
0.0
 40
1.0
100
AcDbArc
 50
270.0
 51
360.0
  0
LINE
  5
20C
100
AcDbEntity
  8
_Y__________
  6
CONTINUOUS
 62
         7
100
AcDbLine
 10
1419.1033403763
 20
17.8316652593
 30
0.0
 11
1419.1033403763
 21
16.8316652593
 31
0.0
  0
LINE
  5
20D
100
AcDbEntity
  8
_Y__________
  6
CONTINUOUS
 62
         7
100
AcDbLine
 10
1403.2033403763
 20
-42.7183347407
 30
0.0
 11
1403.2033403763
 21
-43.7183347407
 31
0.0
  0
LINE
  5
20E
100
AcDbEntity
  8
_Y__________
  6
CONTINUOUS
 62
         7
100
AcDbLine
 10
1419.1033403763
 20
-42.7183347407
 30
0.0
 11
1419.1033403763
 21
-43.7183347407
 31
0.0
  0
LINE
  5
20F
100
AcDbEntity
  8
_Y__________
  6
CONTINUOUS
 62
         7
100
AcDbLine
 10
1419.1033403763
 20
120.4096417294
 30
0.0
 11
1419.1033403763
 21
119.4096417294
 31
0.0
  0
LINE
  5
210
100
AcDbEntity
  8
_Y__________
  6
CONTINUOUS
 62
         7
100
AcDbLine
 10
1403.2033403763
 20
120.4096417294
 30
0.0
 11
1403.2033403763
 21
119.4096417294
 31
0.0
  0
LINE
  5
211
100
AcDbEntity
  8
_Y__________
  6
CONTINUOUS
 62
         7
100
AcDbLine
 10
1419.1033403763
 20
180.9596417294
 30
0.0
 11
1419.1033403763
 21
179.9596417294
 31
0.0
  0
ARC
  5
212
100
AcDbEntity
  8
_Y__________
  6
CONTINUOUS
 62
         7
100
AcDbCircle
 10
1418.1033403763
 20
119.4096417294
 30
0.0
 40
1.0
100
AcDbArc
 50
270.0
 51
360.0
  0
LINE
  5
213
100
AcDbEntity
  8
_Y__________
  6
CONTINUOUS
 62
         7
100
AcDbLine
 10
1417.1033403763
 20
118.4096417294
 30
0.0
 11
1418.1033403763
 21
118.4096417294
 31
0.0
  0
LINE
  5
214
100
AcDbEntity
  8
_Y__________
  6
CONTINUOUS
 62
         7
100
AcDbLine
 10
1404.2033403763
 20
118.4096417294
 30
0.0
 11
1405.2033403763
 21
118.4096417294
 31
0.0
  0
ARC
  5
215
100
AcDbEntity
  8
_Y__________
  6
CONTINUOUS
 62
         7
100
AcDbCircle
 10
1404.2033403763
 20
119.4096417294
 30
0.0
 40
1.0
100
AcDbArc
 50
180.0
 51
270.0
  0
ARC
  5
216
100
AcDbEntity
  8
_Y__________
  6
CONTINUOUS
 62
         7
100
AcDbCircle
 10
1418.1033403763
 20
180.9596417294
 30
0.0
 40
1.0
100
AcDbArc
 50
0.0
 51
90.0
  0
LINE
  5
217
100
AcDbEntity
  8
_Y__________
  6
CONTINUOUS
 62
         7
100
AcDbLine
 10
1417.1033403763
 20
181.9596417294
 30
0.0
 11
1418.1033403763
 21
181.9596417294
 31
0.0
  0
LINE
  5
218
100
AcDbEntity
  8
_Y__________
  6
CONTINUOUS
 62
         7
100
AcDbLine
 10
1403.2033403763
 20
180.9596417294
 30
0.0
 11
1403.2033403763
 21
179.9596417294
 31
0.0
  0
LINE
  5
219
100
AcDbEntity
  8
_Y__________
  6
CONTINUOUS
 62
         7
100
AcDbLine
 10
1404.2033403763
 20
181.9596417294
 30
0.0
 11
1405.2033403763
 21
181.9596417294
 31
0.0
  0
ARC
  5
21A
100
AcDbEntity
  8
_Y__________
  6
CONTINUOUS
 62
         7
100
AcDbCircle
 10
1404.2033403763
 20
180.9596417294
 30
0.0
 40
1.0
100
AcDbArc
 50
90.0
 51
180.0
  0
LINE
  5
21B
100
AcDbEntity
  8
L1_65
  6
CONTINUOUS
 62
         7
100
AcDbLine
 10
1331.7533403763
 20
161.4188234458
 30
0.0
 11
1331.7533403763
 21
138.9504600129
 31
0.0
  0
LINE
  5
21C
100
AcDbEntity
  8
L1_65
  6
CENTER
 62
         1
100
AcDbLine
 10
1400.0033403763
 20
172.4096417294
 30
0.0
 11
1400.0033403763
 21
127.9596417294
 31
0.0
  0
LINE
  5
21D
100
AcDbEntity
  8
L1_65
  6
CONTINUOUS
 62
         7
100
AcDbLine
 10
1403.2033403763
 20
180.9596417294
 30
0.0
 11
1403.2033403763
 21
119.4096417294
 31
0.0
  0
DIMENSION
  5
220
100
AcDbEntity
  8
L1_65
  6
CONTINUOUS
 62
         4
100
AcDbDimension
  2
*D16
 10
1331.7533403763
 20
220.9254862057
 30
0.0
 11
1388.9387947931
 21
222.9504862057
 31
0.0
  3
DIMSTYLE1
100
AcDbAlignedDimension
 13
1331.7533403763
 23
161.4188234458
 33
0.0
 14
1453.5033403763
 24
150.1846417294
 34
0.0
100
AcDbRotatedDimension
  0
DIMENSION
  5
22E
100
AcDbEntity
  8
L1_65
  6
CONTINUOUS
 62
         4
100
AcDbDimension
  2
*D17
 10
1400.0033403763
 20
212.0987783841
 30
0.0
 11
1420.7268092051
 21
214.1237783841
 31
0.0
  3
DIMSTYLE1
100
AcDbAlignedDimension
 13
1400.0033403763
 23
172.4096417294
 33
0.0
 14
1453.5033403763
 24
150.1846417294
 34
0.0
100
AcDbRotatedDimension
  0
LINE
  5
23A
100
AcDbEntity
  8
L1_65
  6
CONTINUOUS
 62
         4
100
AcDbLine
 10
1435.8598607558
 20
133.1479350488
 30
0.0
 11
1435.8598607558
 21
167.22134841
 31
0.0
  0
LINE
  5
23B
100
AcDbEntity
  8
L1_65
  6
CENTER
 62
         1
100
AcDbLine
 10
1419.1033403763
 20
150.1846417294
 30
0.0
 11
1454.98809976
 21
150.1846417294
 31
0.0
  0
LINE
  5
23C
100
AcDbEntity
  8
L1_65
  6
CONTINUOUS
 62
         7
100
AcDbLine
 10
1453.5033403763
 20
161.1846417294
 30
0.0
 11
1453.5033403763
 21
139.1846417294
 31
0.0
  0
LINE
  5
23D
100
AcDbEntity
  8
L1_65
  6
CONTINUOUS
 62
         7
100
AcDbLine
 10
1438.2706673642
 20
162.6846417294
 30
0.0
 11
1452.0033403763
 21
162.6846417294
 31
0.0
  0
LINE
  5
23E
100
AcDbEntity
  8
L1_65
  6
CONTINUOUS
 62
         7
100
AcDbLine
 10
1438.2706673642
 20
137.6846417294
 30
0.0
 11
1452.0033403763
 21
137.6846417294
 31
0.0
  0
LINE
  5
23F
100
AcDbEntity
  8
L1_65
  6
CONTINUOUS
 62
         7
100
AcDbLine
 10
1440.0033403763
 20
162.6846417294
 30
0.0
 11
1440.0033403763
 21
137.6846417294
 31
0.0
  0
LINE
  5
240
100
AcDbEntity
  8
L1_65
  6
CONTINUOUS
 62
         4
100
AcDbLine
 10
1453.4175539386
 20
161.6846417294
 30
0.0
 11
1440.0033403763
 21
161.6846417294
 31
0.0
  0
LINE
  5
241
100
AcDbEntity
  8
L1_65
  6
CONTINUOUS
 62
         4
100
AcDbLine
 10
1453.4175539386
 20
138.6846417294
 30
0.0
 11
1440.0033403763
 21
138.6846417294
 31
0.0
  0
LINE
  5
242
100
AcDbEntity
  8
L1_65
  6
CONTINUOUS
 62
         7
100
AcDbLine
 10
1436.5741895503
 20
166.1522798196
 30
0.0
 11
1437.3047415379
 21
163.4258226843
 31
0.0
  0
LINE
  5
243
100
AcDbEntity
  8
L1_65
  6
CONTINUOUS
 62
         4
100
AcDbLine
 10
1437.5033403763
 20
138.3139943395
 30
0.0
 11
1437.5033403763
 21
162.000330469
 31
0.0
  0
ARC
  5
244
100
AcDbEntity
  8
L1_65
  6
CONTINUOUS
 62
         7
100
AcDbCircle
 10
1438.2706673642
 20
163.6846417294
 30
0.0
 40
1.0
100
AcDbArc
 50
195.0
 51
270.0
  0
LINE
  5
245
100
AcDbEntity
  8
L1_65
  6
CONTINUOUS
 62
         7
100
AcDbLine
 10
1436.5741895503
 20
134.2170036392
 30
0.0
 11
1437.3047415379
 21
136.9434607745
 31
0.0
  0
ARC
  5
246
100
AcDbEntity
  8
L1_65
  6
CONTINUOUS
 62
         7
100
AcDbCircle
 10
1438.2706673642
 20
136.6846417294
 30
0.0
 40
1.0
100
AcDbArc
 50
90.0
 51
165.0
  0
LINE
  5
247
100
AcDbEntity
  8
L1_65
  6
CONTINUOUS
 62
         7
100
AcDbLine
 10
1434.6423378978
 20
132.7346417294
 30
0.0
 11
1422.1033403763
 21
132.7346417294
 31
0.0
  0
ARC
  5
248
100
AcDbEntity
  8
L1_65
  6
CONTINUOUS
 62
         7
100
AcDbCircle
 10
1434.6423378978
 20
134.7346417294
 30
0.0
 40
2.0
100
AcDbArc
 50
270.0
 51
345.0
  0
LINE
  5
249
100
AcDbEntity
  8
L1_65
  6
CONTINUOUS
 62
         7
100
AcDbLine
 10
1434.6423378978
 20
167.6346417294
 30
0.0
 11
1422.1033403763
 21
167.6346417294
 31
0.0
  0
ARC
  5
24A
100
AcDbEntity
  8
L1_65
  6
CONTINUOUS
 62
         7
100
AcDbCircle
 10
1434.6423378978
 20
165.6346417294
 30
0.0
 40
2.0
100
AcDbArc
 50
15.0
 51
90.0
  0
DIMENSION
  5
24D
100
AcDbEntity
  8
L1_65
  6
CONTINUOUS
 62
         4
100
AcDbDimension
  2
*D18
 10
1432.1894650851
 20
167.6346417294
 30
0.0
 11
1430.1644650851
 21
145.8903655125
 31
0.0
  3
DIMSTYLE1
100
AcDbAlignedDimension
 13
1434.6423378978
 23
167.6346417294
 33
0.0
 14
1434.6423378978
 24
132.7346417294
 34
0.0
 50
90.0
100
AcDbRotatedDimension
  0
ARC
  5
259
100
AcDbEntity
  8
L1_65
  6
CONTINUOUS
 62
         7
100
AcDbCircle
 10
1452.0033403763
 20
161.1846417294
 30
0.0
 40
1.5
100
AcDbArc
 50
0.0
 51
90.0
  0
ARC
  5
25A
100
AcDbEntity
  8
L1_65
  6
CONTINUOUS
 62
         7
100
AcDbCircle
 10
1452.0033403763
 20
139.1846417294
 30
0.0
 40
1.5
100
AcDbArc
 50
270.0
 51
360.0
  0
CIRCLE
  5
25B
100
AcDbEntity
  8
L1_65
  6
CONTINUOUS
 62
         7
100
AcDbCircle
 10
1623.2833403763
 20
150.1846417294
 30
0.0
 40
12.5
  0
ARC
  5
25C
100
AcDbEntity
  8
L1_65
  6
CONTINUOUS
 62
         4
100
AcDbCircle
 10
1623.2833403763
 20
150.1846417294
 30
0.0
 40
11.5
100
AcDbArc
 50
247.8784907407
 51
565.5783865413
  0
CIRCLE
  5
25D
100
AcDbEntity
  8
L1_65
  6
CONTINUOUS
 62
         7
100
AcDbCircle
 10
1623.2833403763
 20
150.1846417294
 30
0.0
 40
10.0756654474
  0
CIRCLE
  5
25E
100
AcDbEntity
  8
L1_65
  6
CONTINUOUS
 62
         7
100
AcDbCircle
 10
1623.2833403763
 20
150.1846417294
 30
0.0
 40
17.45
  0
LINE
  5
25F
100
AcDbEntity
  8
L1_65
  6
CONTINUOUS
 62
         7
100
AcDbLine
 10
1453.5033403763
 20
-1.9433347407
 30
0.0
 11
1453.5033403763
 21
-23.9433347407
 31
0.0
  0
LINE
  5
260
100
AcDbEntity
  8
L1_65
  6
CENTER
 62
         1
100
AcDbLine
 10
1419.1033403763
 20
-12.9433347407
 30
0.0
 11
1458.5511467354
 21
-12.9433347407
 31
0.0
  0
LINE
  5
261
100
AcDbEntity
  8
L1_65
  6
CONTINUOUS
 62
         7
100
AcDbLine
 10
1453.5033403763
 20
-1.9433347407
 30
0.0
 11
1453.5033403763
 21
-23.9433347407
 31
0.0
  0
LINE
  5
262
100
AcDbEntity
  8
L1_65
  6
CONTINUOUS
 62
         7
100
AcDbLine
 10
1438.2706673642
 20
-0.4433347407
 30
0.0
 11
1452.0033403763
 21
-0.4433347407
 31
0.0
  0
LINE
  5
263
100
AcDbEntity
  8
L1_65
  6
CONTINUOUS
 62
         7
100
AcDbLine
 10
1438.2706673642
 20
-25.4433347407
 30
0.0
 11
1452.0033403763
 21
-25.4433347407
 31
0.0
  0
LINE
  5
264
100
AcDbEntity
  8
L1_65
  6
CONTINUOUS
 62
         7
100
AcDbLine
 10
1440.0033403763
 20
-0.4433347407
 30
0.0
 11
1440.0033403763
 21
-1.4433347407
 31
0.0
  0
LINE
  5
265
100
AcDbEntity
  8
L1_65
  6
CONTINUOUS
 62
         4
100
AcDbLine
 10
1453.4175539386
 20
-1.4433347407
 30
0.0
 11
1440.0033403763
 21
-1.4433347407
 31
0.0
  0
LINE
  5
266
100
AcDbEntity
  8
L1_65
  6
CONTINUOUS
 62
         4
100
AcDbLine
 10
1453.4175539386
 20
-24.4433347407
 30
0.0
 11
1440.0033403763
 21
-24.4433347407
 31
0.0
  0
LINE
  5
267
100
AcDbEntity
  8
L1_65
  6
CONTINUOUS
 62
         7
100
AcDbLine
 10
1440.0033403763
 20
-24.4433347407
 30
0.0
 11
1440.0033403763
 21
-25.4433347407
 31
0.0
  0
DIMENSION
  5
26A
100
AcDbEntity
  8
L1_65
  6
CONTINUOUS
 62
         4
100
AcDbDimension
  2
*D19
 10
1440.0033403763
 20
-39.2842378916
 30
0.0
 11
1441.0248646871
 21
-37.2592378916
 31
0.0
  3
DIMSTYLE1
100
AcDbAlignedDimension
 13
1440.0033403763
 23
-25.4433347407
 33
0.0
 14
1453.5033403763
 24
-24.4433347407
 34
0.0
100
AcDbRotatedDimension
  0
ARC
  5
276
100
AcDbEntity
  8
L1_65
  6
CONTINUOUS
 62
         7
100
AcDbCircle
 10
1438.2706673642
 20
0.5566652593
 30
0.0
 40
1.0
100
AcDbArc
 50
195.0
 51
270.0
  0
ARC
  5
277
100
AcDbEntity
  8
L1_65
  6
CONTINUOUS
 62
         7
100
AcDbCircle
 10
1438.2706673642
 20
-26.4433347407
 30
0.0
 40
1.0
100
AcDbArc
 50
90.0
 51
165.0
  0
LINE
  5
278
100
AcDbEntity
  8
L1_65
  6
CONTINUOUS
 62
         7
100
AcDbLine
 10
1422.1033403763
 20
4.5066652593
 30
0.0
 11
1434.6423378978
 21
4.5066652593
 31
0.0
  0
LINE
  5
279
100
AcDbEntity
  8
L1_65
  6
CONTINUOUS
 62
         7
100
AcDbLine
 10
1422.1033403763
 20
-30.3933347407
 30
0.0
 11
1434.6423378978
 21
-30.3933347407
 31
0.0
  0
ARC
  5
27A
100
AcDbEntity
  8
L1_65
  6
CONTINUOUS
 62
         7
100
AcDbCircle
 10
1434.6423378978
 20
2.5066652593
 30
0.0
 40
2.0
100
AcDbArc
 50
15.0
 51
90.0
  0
ARC
  5
27B
100
AcDbEntity
  8
L1_65
  6
CONTINUOUS
 62
         7
100
AcDbCircle
 10
1434.6423378978
 20
-28.3933347407
 30
0.0
 40
2.0
100
AcDbArc
 50
270.0
 51
345.0
  0
LINE
  5
27C
100
AcDbEntity
  8
L1_65
  6
CONTINUOUS
 62
         7
100
AcDbLine
 10
1436.5741895503
 20
-28.9109728309
 30
0.0
 11
1437.3047415379
 21
-26.1845156956
 31
0.0
  0
LINE
  5
27D
100
AcDbEntity
  8
L1_65
  6
CONTINUOUS
 62
         7
100
AcDbLine
 10
1436.5741895503
 20
3.0243033495
 30
0.0
 11
1437.3047415379
 21
0.2978462142
 31
0.0
  0
ARC
  5
27E
100
AcDbEntity
  8
L1_65
  6
CONTINUOUS
 62
         7
100
AcDbCircle
 10
1452.0033403763
 20
-23.9433347407
 30
0.0
 40
1.5
100
AcDbArc
 50
270.0
 51
360.0
  0
ARC
  5
27F
100
AcDbEntity
  8
L1_65
  6
CONTINUOUS
 62
         7
100
AcDbCircle
 10
1452.0033403763
 20
-1.9433347407
 30
0.0
 40
1.5
100
AcDbArc
 50
0.0
 51
90.0
  0
LINE
  5
280
100
AcDbEntity
  8
L1_65
  6
CONTINUOUS
 62
         7
100
AcDbLine
 10
1373.5033403763
 20
-6.5433347407
 30
0.0
 11
1373.5033403763
 21
-19.3433347407
 31
0.0
  0
LINE
  5
281
100
AcDbEntity
  8
L1_65
  6
CONTINUOUS
 62
         7
100
AcDbLine
 10
1373.5033403763
 20
-19.3433347407
 30
0.0
 11
1422.5033403763
 21
-19.3433347407
 31
0.0
  0
LINE
  5
282
100
AcDbEntity
  8
L1_65
  6
CONTINUOUS
 62
         7
100
AcDbLine
 10
1373.5033403763
 20
-6.5433347407
 30
0.0
 11
1422.5033403763
 21
-6.5433347407
 31
0.0
  0
LINE
  5
283
100
AcDbEntity
  8
L1_65
  6
CONTINUOUS
 62
         7
100
AcDbLine
 10
1383.5033403763
 20
-5.9342790348
 30
0.0
 11
1383.5033403763
 21
-20.0873347407
 31
0.0
  0
LINE
  5
284
100
AcDbEntity
  8
L1_65
  6
CONTINUOUS
 62
         4
100
AcDbLine
 10
1383.7681834655
 20
-5.7993347407
 30
0.0
 11
1422.5033403763
 21
-5.7993347407
 31
0.0
  0
LINE
  5
285
100
AcDbEntity
  8
L1_65
  6
CONTINUOUS
 62
         4
100
AcDbLine
 10
1383.5033403763
 20
-20.0873347407
 30
0.0
 11
1422.5033403763
 21
-20.0873347407
 31
0.0
  0
DIMENSION
  5
288
100
AcDbEntity
  8
L1_65
  6
CONTINUOUS
 62
         4
100
AcDbDimension
  2
*D20
 10
1383.5033403763
 20
-56.933854819
 30
0.0
 11
1418.1023107467
 21
-54.908854819
 31
0.0
  3
DIMSTYLE1
100
AcDbAlignedDimension
 13
1383.5033403763
 23
-18.0433347407
 33
0.0
 14
1453.5033403763
 24
-24.4433347407
 34
0.0
100
AcDbRotatedDimension
  0
LINE
  5
294
100
AcDbEntity
  8
L1_65
  6
CONTINUOUS
 62
         7
100
AcDbLine
 10
1422.5033403763
 20
-20.4433347407
 30
0.0
 11
1435.7149160703
 21
-20.4433347407
 31
0.0
  0
LINE
  5
295
100
AcDbEntity
  8
L1_65
  6
CONTINUOUS
 62
         7
100
AcDbLine
 10
1422.5033403763
 20
-5.4433347407
 30
0.0
 11
1422.5033403763
 21
-20.4433347407
 31
0.0
  0
LINE
  5
296
100
AcDbEntity
  8
L1_65
  6
CONTINUOUS
 62
         7
100
AcDbLine
 10
1422.5033403763
 20
-5.4433347407
 30
0.0
 11
1435.7149160703
 21
-5.4433347407
 31
0.0
  0
LINE
  5
297
100
AcDbEntity
  8
L1_65
  6
CONTINUOUS
 62
         7
100
AcDbLine
 10
1435.7149160703
 20
-5.4433347407
 30
0.0
 11
1435.7149160703
 21
-20.4433347407
 31
0.0
  0
LINE
  5
298
100
AcDbEntity
  8
L1_65
  6
CONTINUOUS
 62
         7
100
AcDbLine
 10
1452.2121000277
 20
-3.1248067371
 30
0.0
 11
1435.7149160703
 21
-5.4433347407
 31
0.0
  0
LINE
  5
299
100
AcDbEntity
  8
L1_65
  6
CONTINUOUS
 62
         7
100
AcDbLine
 10
1452.2121000277
 20
-22.7618627443
 30
0.0
 11
1435.7149160703
 21
-20.4433347407
 31
0.0
  0
ARC
  5
29A
100
AcDbEntity
  8
L1_65
  6
CONTINUOUS
 62
         7
100
AcDbCircle
 10
1452.0033403763
 20
-1.6394046339
 30
0.0
 40
1.5
100
AcDbArc
 50
319.0000000004
 51
354.1853868636
  0
LINE
  5
29B
100
AcDbEntity
  8
L1_65
  6
CONTINUOUS
 62
         4
100
AcDbLine
 10
1452.2121000277
 20
-3.1248067371
 30
0.0
 11
1452.2121000277
 21
-22.7618627443
 31
0.0
  0
ARC
  5
29C
100
AcDbEntity
  8
L1_65
  6
CONTINUOUS
 62
         7
100
AcDbCircle
 10
1452.0033403763
 20
-1.639404634
 30
0.0
 40
1.5
100
AcDbArc
 50
278.0
 51
280.9999999996
  0
LINE
  5
29D
100
AcDbEntity
  8
L1_65
  6
CONTINUOUS
 62
         7
100
AcDbLine
 10
1453.1354047466
 20
-2.6234931774
 30
0.0
 11
1452.2895538693
 21
-3.1118454091
 31
0.0
  0
ARC
  5
29E
100
AcDbEntity
  8
L1_65
  6
CONTINUOUS
 62
         7
100
AcDbCircle
 10
1452.0033403763
 20
-24.2472648474
 30
0.0
 40
1.5
100
AcDbArc
 50
5.8146131364
 51
40.9999999996
  0
LINE
  5
29F
100
AcDbEntity
  8
L1_65
  6
CONTINUOUS
 62
         7
100
AcDbLine
 10
1453.1354047466
 20
-23.2631763039
 30
0.0
 11
1452.2895538693
 21
-22.7748240722
 31
0.0
  0
ARC
  5
2A0
100
AcDbEntity
  8
L1_65
  6
CONTINUOUS
 62
         7
100
AcDbCircle
 10
1452.0033403763
 20
-24.2472648474
 30
0.0
 40
1.5
100
AcDbArc
 50
79.0000000004
 51
82.0
  0
LINE
  5
2A1
100
AcDbEntity
  8
L1_65
  6
CONTINUOUS
 62
         7
100
AcDbLine
 10
1419.1033403763
 20
17.8316652593
 30
0.0
 11
1419.1033403763
 21
7.5066652593
 31
0.0
  0
LINE
  5
2A2
100
AcDbEntity
  8
L1_65
  6
CONTINUOUS
 62
         7
100
AcDbLine
 10
1419.1033403763
 20
-33.3933347407
 30
0.0
 11
1419.1033403763
 21
-43.7183347407
 31
0.0
  0
LINE
  5
2A3
100
AcDbEntity
  8
_X______
  6
CENTER
 62
         1
100
AcDbLine
 10
1208.5078743688
 20
123.7868805382
 30
0.0
 11
1202.8697186441
 21
125.8390013981
 31
0.0
  0
POLYLINE
  5
2A5
100
AcDbEntity
  8
_X______
  6
CONTINUOUS
 62
         7
100
AcDb3dPolyline
 66
         1
 10
0.0
 20
0.0
 30
0.0
 70
         8
  0
VERTEX
  5
2A7
100
AcDbEntity
  8
_X______
  6
CONTINUOUS
 62
         7
100
AcDbVertex
100
AcDb3dPolylineVertex
 10
1203.8094112649
 20
125.4969812548
 30
0.0
 70
        32
  0
VERTEX
  5
2A9
100
AcDbEntity
  8
_X______
  6
CONTINUOUS
 62
         7
100
AcDbVertex
100
AcDb3dPolylineVertex
 10
1203.8094112649
 20
125.4969812548
 30
0.0
 70
        32
  0
SEQEND
  5
2AB
100
AcDbEntity
  8
_X______
  6
CONTINUOUS
 62
         7
  0
ARC
  5
2AC
100
AcDbEntity
  8
_X______
  6
CONTINUOUS
 62
         7
100
AcDbCircle
 10
1206.6023903184
 20
124.4804200144
 30
0.0
 40
2.9722262277
100
AcDbArc
 50
141.257725858
 51
160.0
  0
POLYLINE
  5
2AE
100
AcDbEntity
  8
_X______
  6
CONTINUOUS
 62
         7
100
AcDb3dPolyline
 66
         1
 10
0.0
 20
0.0
 30
0.0
 70
         8
  0
VERTEX
  5
2B0
100
AcDbEntity
  8
_X______
  6
CONTINUOUS
 62
         7
100
AcDbVertex
100
AcDb3dPolylineVertex
 10
1204.2841463667
 20
126.340493596
 30
0.0
 70
        32
  0
VERTEX
  5
2B2
100
AcDbEntity
  8
_X______
  6
CONTINUOUS
 62
         7
100
AcDbVertex
100
AcDb3dPolylineVertex
 10
1204.2841463667
 20
126.340493596
 30
0.0
 70
        32
  0
SEQEND
  5
2B4
100
AcDbEntity
  8
_X______
  6
CONTINUOUS
 62
         7
  0
ARC
  5
2B5
100
AcDbEntity
  8
_X______
  6
CONTINUOUS
 62
         7
100
AcDbCircle
 10
1206.2103129629
 20
124.7950084469
 30
0.0
 40
2.4695428935
100
AcDbArc
 50
120.6773100904
 51
141.257725858
  0
POLYLINE
  5
2B7
100
AcDbEntity
  8
_X______
  6
CONTINUOUS
 62
         7
100
AcDb3dPolyline
 66
         1
 10
0.0
 20
0.0
 30
0.0
 70
         8
  0
VERTEX
  5
2B9
100
AcDbEntity
  8
_X______
  6
CONTINUOUS
 62
         7
100
AcDbVertex
100
AcDb3dPolylineVertex
 10
1204.950346339
 20
126.9189496442
 30
0.0
 70
        32
  0
VERTEX
  5
2BB
100
AcDbEntity
  8
_X______
  6
CONTINUOUS
 62
         7
100
AcDbVertex
100
AcDb3dPolylineVertex
 10
1204.950346339
 20
126.9189496442
 30
0.0
 70
        32
  0
SEQEND
  5
2BD
100
AcDbEntity
  8
_X______
  6
CONTINUOUS
 62
         7
  0
ARC
  5
2BE
100
AcDbEntity
  8
_X______
  6
CONTINUOUS
 62
         7
100
AcDbCircle
 10
1206.0105744318
 20
125.1317101395
 30
0.0
 40
2.0780540551
100
AcDbArc
 50
96.8239621528
 51
120.6773100904
  0
POLYLINE
  5
2C0
100
AcDbEntity
  8
_X______
  6
CONTINUOUS
 62
         7
100
AcDb3dPolyline
 66
         1
 10
0.0
 20
0.0
 30
0.0
 70
         8
  0
VERTEX
  5
2C2
100
AcDbEntity
  8
_X______
  6
CONTINUOUS
 62
         7
100
AcDbVertex
100
AcDb3dPolylineVertex
 10
1205.7636616399
 20
127.1950430571
 30
0.0
 70
        32
  0
VERTEX
  5
2C4
100
AcDbEntity
  8
_X______
  6
CONTINUOUS
 62
         7
100
AcDbVertex
100
AcDb3dPolylineVertex
 10
1205.7636616399
 20
127.1950430571
 30
0.0
 70
        32
  0
SEQEND
  5
2C6
100
AcDbEntity
  8
_X______
  6
CONTINUOUS
 62
         7
  0
ARC
  5
2C7
100
AcDbEntity
  8
_X______
  6
CONTINUOUS
 62
         7
100
AcDbCircle
 10
1205.9596641031
 20
125.5571435737
 30
0.0
 40
1.6495853065
100
AcDbArc
 50
70.0
 51
96.8239621528
  0
POLYLINE
  5
2C9
100
AcDbEntity
  8
_X______
  6
CONTINUOUS
 62
         7
100
AcDb3dPolyline
 66
         1
 10
0.0
 20
0.0
 30
0.0
 70
         8
  0
VERTEX
  5
2CB
100
AcDbEntity
  8
_X______
  6
CONTINUOUS
 62
         7
100
AcDbVertex
100
AcDb3dPolylineVertex
 10
1206.5238555061
 20
127.1072467136
 30
0.0
 70
        32
  0
VERTEX
  5
2CD
100
AcDbEntity
  8
_X______
  6
CONTINUOUS
 62
         7
100
AcDbVertex
100
AcDb3dPolylineVertex
 10
1206.5238555061
 20
127.1072467136
 30
0.0
 70
        32
  0
SEQEND
  5
2CF
100
AcDbEntity
  8
_X______
  6
CONTINUOUS
 62
         7
  0
ARC
  5
2D0
100
AcDbEntity
  8
_X______
  6
CONTINUOUS
 62
         7
100
AcDbCircle
 10
1205.9596641031
 20
125.5571435737
 30
0.0
 40
1.6495853065
100
AcDbArc
 50
43.1760378472
 51
70.0
  0
POLYLINE
  5
2D2
100
AcDbEntity
  8
_X______
  6
CONTINUOUS
 62
         7
100
AcDb3dPolyline
 66
         1
 10
0.0
 20
0.0
 30
0.0
 70
         8
  0
VERTEX
  5
2D4
100
AcDbEntity
  8
_X______
  6
CONTINUOUS
 62
         7
100
AcDbVertex
100
AcDb3dPolylineVertex
 10
1207.1626321948
 20
126.6858594165
 30
0.0
 70
        32
  0
VERTEX
  5
2D6
100
AcDbEntity
  8
_X______
  6
CONTINUOUS
 62
         7
100
AcDbVertex
100
AcDb3dPolylineVertex
 10
1207.1626321948
 20
126.6858594165
 30
0.0
 70
        32
  0
SEQEND
  5
2D8
100
AcDbEntity
  8
_X______
  6
CONTINUOUS
 62
         7
  0
ARC
  5
2D9
100
AcDbEntity
  8
_X______
  6
CONTINUOUS
 62
         7
100
AcDbCircle
 10
1205.6472011885
 20
125.263967184
 30
0.0
 40
2.0780540551
100
AcDbArc
 50
19.3226899097
 51
43.1760378473
  0
POLYLINE
  5
2DB
100
AcDbEntity
  8
_X______
  6
CONTINUOUS
 62
         7
100
AcDb3dPolyline
 66
         1
 10
0.0
 20
0.0
 30
0.0
 70
         8
  0
VERTEX
  5
2DD
100
AcDbEntity
  8
_X______
  6
CONTINUOUS
 62
         7
100
AcDbVertex
100
AcDb3dPolylineVertex
 10
1207.6081984366
 20
125.9515705936
 30
0.0
 70
        32
  0
VERTEX
  5
2DF
100
AcDbEntity
  8
_X______
  6
CONTINUOUS
 62
         7
100
AcDbVertex
100
AcDb3dPolylineVertex
 10
1207.6081984366
 20
125.9515705936
 30
0.0
 70
        32
  0
SEQEND
  5
2E1
100
AcDbEntity
  8
_X______
  6
CONTINUOUS
 62
         7
  0
ARC
  5
2E2
100
AcDbEntity
  8
_X______
  6
CONTINUOUS
 62
         7
100
AcDbCircle
 10
1205.2777649205
 20
125.1344281764
 30
0.0
 40
2.4695428935
100
AcDbArc
 50
358.742274142
 51
379.3226899096
  0
POLYLINE
  5
2E4
100
AcDbEntity
  8
_X______
  6
CONTINUOUS
 62
         7
100
AcDb3dPolyline
 66
         1
 10
0.0
 20
0.0
 30
0.0
 70
         8
  0
VERTEX
  5
2E6
100
AcDbEntity
  8
_X______
  6
CONTINUOUS
 62
         7
100
AcDbVertex
100
AcDb3dPolylineVertex
 10
1207.7467128429
 20
125.0802224645
 30
0.0
 70
        32
  0
VERTEX
  5
2E8
100
AcDbEntity
  8
_X______
  6
CONTINUOUS
 62
         7
100
AcDbVertex
100
AcDb3dPolylineVertex
 10
1207.7467128429
 20
125.0802224645
 30
0.0
 70
        32
  0
SEQEND
  5
2EA
100
AcDbEntity
  8
_X______
  6
CONTINUOUS
 62
         7
  0
ARC
  5
2EB
100
AcDbEntity
  8
_X______
  6
CONTINUOUS
 62
         7
100
AcDbCircle
 10
1204.7752026945
 20
125.1454619219
 30
0.0
 40
2.9722262277
100
AcDbArc
 50
339.9999999999
 51
358.742274142
  0
POLYLINE
  5
2ED
100
AcDbEntity
  8
_X______
  6
CONTINUOUS
 62
         7
100
AcDb3dPolyline
 66
         1
 10
0.0
 20
0.0
 30
0.0
 70
         8
  0
VERTEX
  5
2EF
100
AcDbEntity
  8
_X______
  6
CONTINUOUS
 62
         7
100
AcDbVertex
100
AcDb3dPolylineVertex
 10
1207.568181748
 20
124.1289006815
 30
0.0
 70
        32
  0
VERTEX
  5
2F1
100
AcDbEntity
  8
_X______
  6
CONTINUOUS
 62
         7
100
AcDbVertex
100
AcDb3dPolylineVertex
 10
1207.568181748
 20
124.1289006815
 30
0.0
 70
        32
  0
SEQEND
  5
2F3
100
AcDbEntity
  8
_X______
  6
CONTINUOUS
 62
         7
  0
ARC
  5
2F4
100
AcDbEntity
  8
_X______
  6
CONTINUOUS
 62
         7
100
AcDbCircle
 10
1204.7752026945
 20
125.1454619219
 30
0.0
 40
2.9722262277
100
AcDbArc
 50
321.257725858
 51
340.0
  0
POLYLINE
  5
2F6
100
AcDbEntity
  8
_X______
  6
CONTINUOUS
 62
         7
100
AcDb3dPolyline
 66
         1
 10
0.0
 20
0.0
 30
0.0
 70
         8
  0
VERTEX
  5
2F8
100
AcDbEntity
  8
_X______
  6
CONTINUOUS
 62
         7
100
AcDbVertex
100
AcDb3dPolylineVertex
 10
1207.0934466463
 20
123.2853883403
 30
0.0
 70
        32
  0
VERTEX
  5
2FA
100
AcDbEntity
  8
_X______
  6
CONTINUOUS
 62
         7
100
AcDbVertex
100
AcDb3dPolylineVertex
 10
1207.0934466463
 20
123.2853883403
 30
0.0
 70
        32
  0
SEQEND
  5
2FC
100
AcDbEntity
  8
_X______
  6
CONTINUOUS
 62
         7
  0
ARC
  5
2FD
100
AcDbEntity
  8
_X______
  6
CONTINUOUS
 62
         7
100
AcDbCircle
 10
1205.16728005
 20
124.8308734895
 30
0.0
 40
2.4695428935
100
AcDbArc
 50
300.6773100904
 51
321.2577258581
  0
POLYLINE
  5
2FF
100
AcDbEntity
  8
_X______
  6
CONTINUOUS
 62
         7
100
AcDb3dPolyline
 66
         1
 10
0.0
 20
0.0
 30
0.0
 70
         8
  0
VERTEX
  5
301
100
AcDbEntity
  8
_X______
  6
CONTINUOUS
 62
         7
100
AcDbVertex
100
AcDb3dPolylineVertex
 10
1206.4272466739
 20
122.7069322922
 30
0.0
 70
        32
  0
VERTEX
  5
303
100
AcDbEntity
  8
_X______
  6
CONTINUOUS
 62
         7
100
AcDbVertex
100
AcDb3dPolylineVertex
 10
1206.4272466739
 20
122.7069322922
 30
0.0
 70
        32
  0
SEQEND
  5
305
100
AcDbEntity
  8
_X______
  6
CONTINUOUS
 62
         7
  0
ARC
  5
306
100
AcDbEntity
  8
_X______
  6
CONTINUOUS
 62
         7
100
AcDbCircle
 10
1205.3670185811
 20
124.4941717969
 30
0.0
 40
2.0780540551
100
AcDbArc
 50
276.8239621528
 51
300.6773100903
  0
POLYLINE
  5
308
100
AcDbEntity
  8
_X______
  6
CONTINUOUS
 62
         7
100
AcDb3dPolyline
 66
         1
 10
0.0
 20
0.0
 30
0.0
 70
         8
  0
VERTEX
  5
30A
100
AcDbEntity
  8
_X______
  6
CONTINUOUS
 62
         7
100
AcDbVertex
100
AcDb3dPolylineVertex
 10
1205.6139313731
 20
122.4308388792
 30
0.0
 70
        32
  0
VERTEX
  5
30C
100
AcDbEntity
  8
_X______
  6
CONTINUOUS
 62
         7
100
AcDbVertex
100
AcDb3dPolylineVertex
 10
1205.6139313731
 20
122.4308388792
 30
0.0
 70
        32
  0
SEQEND
  5
30E
100
AcDbEntity
  8
_X______
  6
CONTINUOUS
 62
         7
  0
ARC
  5
30F
100
AcDbEntity
  8
_X______
  6
CONTINUOUS
 62
         7
100
AcDbCircle
 10
1205.4179289098
 20
124.0687383626
 30
0.0
 40
1.6495853065
100
AcDbArc
 50
250.0
 51
276.8239621528
  0
POLYLINE
  5
311
100
AcDbEntity
  8
_X______
  6
CONTINUOUS
 62
         7
100
AcDb3dPolyline
 66
         1
 10
0.0
 20
0.0
 30
0.0
 70
         8
  0
VERTEX
  5
313
100
AcDbEntity
  8
_X______
  6
CONTINUOUS
 62
         7
100
AcDbVertex
100
AcDb3dPolylineVertex
 10
1204.8537375068
 20
122.5186352228
 30
0.0
 70
        32
  0
VERTEX
  5
315
100
AcDbEntity
  8
_X______
  6
CONTINUOUS
 62
         7
100
AcDbVertex
100
AcDb3dPolylineVertex
 10
1204.8537375068
 20
122.5186352228
 30
0.0
 70
        32
  0
SEQEND
  5
317
100
AcDbEntity
  8
_X______
  6
CONTINUOUS
 62
         7
  0
ARC
  5
318
100
AcDbEntity
  8
_X______
  6
CONTINUOUS
 62
         7
100
AcDbCircle
 10
1205.4179289098
 20
124.0687383626
 30
0.0
 40
1.6495853065
100
AcDbArc
 50
223.1760378472
 51
250.0
  0
POLYLINE
  5
31A
100
AcDbEntity
  8
_X______
  6
CONTINUOUS
 62
         7
100
AcDb3dPolyline
 66
         1
 10
0.0
 20
0.0
 30
0.0
 70
         8
  0
VERTEX
  5
31C
100
AcDbEntity
  8
_X______
  6
CONTINUOUS
 62
         7
100
AcDbVertex
100
AcDb3dPolylineVertex
 10
1204.2149608181
 20
122.9400225198
 30
0.0
 70
        32
  0
VERTEX
  5
31E
100
AcDbEntity
  8
_X______
  6
CONTINUOUS
 62
         7
100
AcDbVertex
100
AcDb3dPolylineVertex
 10
1204.2149608181
 20
122.9400225198
 30
0.0
 70
        32
  0
SEQEND
  5
320
100
AcDbEntity
  8
_X______
  6
CONTINUOUS
 62
         7
  0
ARC
  5
321
100
AcDbEntity
  8
_X______
  6
CONTINUOUS
 62
         7
100
AcDbCircle
 10
1205.7303918245
 20
124.3619147524
 30
0.0
 40
2.0780540551
100
AcDbArc
 50
199.3226899096
 51
223.1760378473
  0
ARC
  5
322
100
AcDbEntity
  8
_X______
  6
CONTINUOUS
 62
         7
100
AcDbCircle
 10
1206.0998280924
 20
124.49145376
 30
0.0
 40
2.4695428935
100
AcDbArc
 50
178.742274142
 51
199.3226899096
  0
ARC
  5
323
100
AcDbEntity
  8
_X______
  6
CONTINUOUS
 62
         7
100
AcDbCircle
 10
1206.6023903184
 20
124.4804200144
 30
0.0
 40
2.9722262277
100
AcDbArc
 50
160.0
 51
178.742274142
  0
POLYLINE
  5
325
100
AcDbEntity
  8
_X______
  6
CONTINUOUS
 62
         7
100
AcDb3dPolyline
 66
         1
 10
0.0
 20
0.0
 30
0.0
 70
         8
  0
VERTEX
  5
327
100
AcDbEntity
  8
_X______
  6
CONTINUOUS
 62
         7
100
AcDbVertex
100
AcDb3dPolylineVertex
 10
1222.2784990045
 20
176.2403827773
 30
0.0
 70
        32
  0
VERTEX
  5
329
100
AcDbEntity
  8
_X______
  6
CONTINUOUS
 62
         7
100
AcDbVertex
100
AcDb3dPolylineVertex
 10
1222.2784990045
 20
176.2403827773
 30
0.0
 70
        32
  0
SEQEND
  5
32B
100
AcDbEntity
  8
_X______
  6
CONTINUOUS
 62
         7
  0
ARC
  5
32C
100
AcDbEntity
  8
_X______
  6
CONTINUOUS
 62
         7
100
AcDbCircle
 10
1225.071478058
 20
175.2238215369
 30
0.0
 40
2.9722262277
100
AcDbArc
 50
160.0
 51
178.7422741421
  0
POLYLINE
  5
32E
100
AcDbEntity
  8
_X______
  6
CONTINUOUS
 62
         7
100
AcDb3dPolyline
 66
         1
 10
0.0
 20
0.0
 30
0.0
 70
         8
  0
VERTEX
  5
330
100
AcDbEntity
  8
_X______
  6
CONTINUOUS
 62
         7
100
AcDbVertex
100
AcDb3dPolylineVertex
 10
1222.0999679096
 20
175.2890609943
 30
0.0
 70
        32
  0
VERTEX
  5
332
100
AcDbEntity
  8
_X______
  6
CONTINUOUS
 62
         7
100
AcDbVertex
100
AcDb3dPolylineVertex
 10
1222.0999679096
 20
175.2890609943
 30
0.0
 70
        32
  0
SEQEND
  5
334
100
AcDbEntity
  8
_X______
  6
CONTINUOUS
 62
         7
  0
ARC
  5
335
100
AcDbEntity
  8
_X______
  6
CONTINUOUS
 62
         7
100
AcDbCircle
 10
1224.568915832
 20
175.2348552824
 30
0.0
 40
2.4695428935
100
AcDbArc
 50
178.7422741421
 51
199.3226899097
  0
POLYLINE
  5
337
100
AcDbEntity
  8
_X______
  6
CONTINUOUS
 62
         7
100
AcDb3dPolyline
 66
         1
 10
0.0
 20
0.0
 30
0.0
 70
         8
  0
VERTEX
  5
339
100
AcDbEntity
  8
_X______
  6
CONTINUOUS
 62
         7
100
AcDbVertex
100
AcDb3dPolylineVertex
 10
1222.2384823159
 20
174.4177128652
 30
0.0
 70
        32
  0
VERTEX
  5
33B
100
AcDbEntity
  8
_X______
  6
CONTINUOUS
 62
         7
100
AcDbVertex
100
AcDb3dPolylineVertex
 10
1222.2384823159
 20
174.4177128652
 30
0.0
 70
        32
  0
SEQEND
  5
33D
100
AcDbEntity
  8
_X______
  6
CONTINUOUS
 62
         7
  0
ARC
  5
33E
100
AcDbEntity
  8
_X______
  6
CONTINUOUS
 62
         7
100
AcDbCircle
 10
1224.199479564
 20
175.1053162748
 30
0.0
 40
2.0780540551
100
AcDbArc
 50
199.3226899097
 51
223.1760378473
  0
POLYLINE
  5
340
100
AcDbEntity
  8
_X______
  6
CONTINUOUS
 62
         7
100
AcDb3dPolyline
 66
         1
 10
0.0
 20
0.0
 30
0.0
 70
         8
  0
VERTEX
  5
342
100
AcDbEntity
  8
_X______
  6
CONTINUOUS
 62
         7
100
AcDbVertex
100
AcDb3dPolylineVertex
 10
1222.6840485577
 20
173.6834240423
 30
0.0
 70
        32
  0
VERTEX
  5
344
100
AcDbEntity
  8
_X______
  6
CONTINUOUS
 62
         7
100
AcDbVertex
100
AcDb3dPolylineVertex
 10
1222.6840485577
 20
173.6834240423
 30
0.0
 70
        32
  0
SEQEND
  5
346
100
AcDbEntity
  8
_X______
  6
CONTINUOUS
 62
         7
  0
ARC
  5
347
100
AcDbEntity
  8
_X______
  6
CONTINUOUS
 62
         7
100
AcDbCircle
 10
1223.8870166494
 20
174.8121398851
 30
0.0
 40
1.6495853065
100
AcDbArc
 50
223.1760378472
 51
249.9999999999
  0
POLYLINE
  5
349
100
AcDbEntity
  8
_X______
  6
CONTINUOUS
 62
         7
100
AcDb3dPolyline
 66
         1
 10
0.0
 20
0.0
 30
0.0
 70
         8
  0
VERTEX
  5
34B
100
AcDbEntity
  8
_X______
  6
CONTINUOUS
 62
         7
100
AcDbVertex
100
AcDb3dPolylineVertex
 10
1223.3228252464
 20
173.2620367452
 30
0.0
 70
        32
  0
VERTEX
  5
34D
100
AcDbEntity
  8
_X______
  6
CONTINUOUS
 62
         7
100
AcDbVertex
100
AcDb3dPolylineVertex
 10
1223.3228252464
 20
173.2620367452
 30
0.0
 70
        32
  0
SEQEND
  5
34F
100
AcDbEntity
  8
_X______
  6
CONTINUOUS
 62
         7
  0
ARC
  5
350
100
AcDbEntity
  8
_X______
  6
CONTINUOUS
 62
         7
100
AcDbCircle
 10
1223.8870166494
 20
174.8121398851
 30
0.0
 40
1.6495853065
100
AcDbArc
 50
250.0
 51
276.8239621528
  0
POLYLINE
  5
352
100
AcDbEntity
  8
_X______
  6
CONTINUOUS
 62
         7
100
AcDb3dPolyline
 66
         1
 10
0.0
 20
0.0
 30
0.0
 70
         8
  0
VERTEX
  5
354
100
AcDbEntity
  8
_X______
  6
CONTINUOUS
 62
         7
100
AcDbVertex
100
AcDb3dPolylineVertex
 10
1224.0830191126
 20
173.1742404017
 30
0.0
 70
        32
  0
VERTEX
  5
356
100
AcDbEntity
  8
_X______
  6
CONTINUOUS
 62
         7
100
AcDbVertex
100
AcDb3dPolylineVertex
 10
1224.0830191126
 20
173.1742404017
 30
0.0
 70
        32
  0
SEQEND
  5
358
100
AcDbEntity
  8
_X______
  6
CONTINUOUS
 62
         7
  0
ARC
  5
359
100
AcDbEntity
  8
_X______
  6
CONTINUOUS
 62
         7
100
AcDbCircle
 10
1223.8361063207
 20
175.2375733193
 30
0.0
 40
2.0780540551
100
AcDbArc
 50
276.8239621528
 51
300.6773100904
  0
POLYLINE
  5
35B
100
AcDbEntity
  8
_X______
  6
CONTINUOUS
 62
         7
100
AcDb3dPolyline
 66
         1
 10
0.0
 20
0.0
 30
0.0
 70
         8
  0
VERTEX
  5
35D
100
AcDbEntity
  8
_X______
  6
CONTINUOUS
 62
         7
100
AcDbVertex
100
AcDb3dPolylineVertex
 10
1224.8963344135
 20
173.4503338146
 30
0.0
 70
        32
  0
VERTEX
  5
35F
100
AcDbEntity
  8
_X______
  6
CONTINUOUS
 62
         7
100
AcDbVertex
100
AcDb3dPolylineVertex
 10
1224.8963344135
 20
173.4503338146
 30
0.0
 70
        32
  0
SEQEND
  5
361
100
AcDbEntity
  8
_X______
  6
CONTINUOUS
 62
         7
  0
ARC
  5
362
100
AcDbEntity
  8
_X______
  6
CONTINUOUS
 62
         7
100
AcDbCircle
 10
1223.6363677896
 20
175.5742750119
 30
0.0
 40
2.4695428935
100
AcDbArc
 50
300.6773100903
 51
321.257725858
  0
POLYLINE
  5
364
100
AcDbEntity
  8
_X______
  6
CONTINUOUS
 62
         7
100
AcDb3dPolyline
 66
         1
 10
0.0
 20
0.0
 30
0.0
 70
         8
  0
VERTEX
  5
366
100
AcDbEntity
  8
_X______
  6
CONTINUOUS
 62
         7
100
AcDbVertex
100
AcDb3dPolylineVertex
 10
1225.5625343858
 20
174.0287898627
 30
0.0
 70
        32
  0
VERTEX
  5
368
100
AcDbEntity
  8
_X______
  6
CONTINUOUS
 62
         7
100
AcDbVertex
100
AcDb3dPolylineVertex
 10
1225.5625343858
 20
174.0287898627
 30
0.0
 70
        32
  0
SEQEND
  5
36A
100
AcDbEntity
  8
_X______
  6
CONTINUOUS
 62
         7
  0
ARC
  5
36B
100
AcDbEntity
  8
_X______
  6
CONTINUOUS
 62
         7
100
AcDbCircle
 10
1223.2442904341
 20
175.8888634444
 30
0.0
 40
2.9722262277
100
AcDbArc
 50
321.257725858
 51
340.0
  0
POLYLINE
  5
36D
100
AcDbEntity
  8
_X______
  6
CONTINUOUS
 62
         7
100
AcDb3dPolyline
 66
         1
 10
0.0
 20
0.0
 30
0.0
 70
         8
  0
VERTEX
  5
36F
100
AcDbEntity
  8
_X______
  6
CONTINUOUS
 62
         7
100
AcDbVertex
100
AcDb3dPolylineVertex
 10
1226.0372694876
 20
174.872302204
 30
0.0
 70
        32
  0
VERTEX
  5
371
100
AcDbEntity
  8
_X______
  6
CONTINUOUS
 62
         7
100
AcDbVertex
100
AcDb3dPolylineVertex
 10
1226.0372694876
 20
174.872302204
 30
0.0
 70
        32
  0
SEQEND
  5
373
100
AcDbEntity
  8
_X______
  6
CONTINUOUS
 62
         7
  0
ARC
  5
374
100
AcDbEntity
  8
_X______
  6
CONTINUOUS
 62
         7
100
AcDbCircle
 10
1223.2442904341
 20
175.8888634444
 30
0.0
 40
2.9722262277
100
AcDbArc
 50
339.9999999999
 51
358.742274142
  0
POLYLINE
  5
376
100
AcDbEntity
  8
_X______
  6
CONTINUOUS
 62
         7
100
AcDb3dPolyline
 66
         1
 10
0.0
 20
0.0
 30
0.0
 70
         8
  0
VERTEX
  5
378
100
AcDbEntity
  8
_X______
  6
CONTINUOUS
 62
         7
100
AcDbVertex
100
AcDb3dPolylineVertex
 10
1226.2158005825
 20
175.823623987
 30
0.0
 70
        32
  0
VERTEX
  5
37A
100
AcDbEntity
  8
_X______
  6
CONTINUOUS
 62
         7
100
AcDbVertex
100
AcDb3dPolylineVertex
 10
1226.2158005825
 20
175.823623987
 30
0.0
 70
        32
  0
SEQEND
  5
37C
100
AcDbEntity
  8
_X______
  6
CONTINUOUS
 62
         7
  0
ARC
  5
37D
100
AcDbEntity
  8
_X______
  6
CONTINUOUS
 62
         7
100
AcDbCircle
 10
1223.7468526601
 20
175.8778296988
 30
0.0
 40
2.4695428935
100
AcDbArc
 50
358.742274142
 51
379.3226899097
  0
POLYLINE
  5
37F
100
AcDbEntity
  8
_X______
  6
CONTINUOUS
 62
         7
100
AcDb3dPolyline
 66
         1
 10
0.0
 20
0.0
 30
0.0
 70
         8
  0
VERTEX
  5
381
100
AcDbEntity
  8
_X______
  6
CONTINUOUS
 62
         7
100
AcDbVertex
100
AcDb3dPolylineVertex
 10
1226.0772861762
 20
176.694972116
 30
0.0
 70
        32
  0
VERTEX
  5
383
100
AcDbEntity
  8
_X______
  6
CONTINUOUS
 62
         7
100
AcDbVertex
100
AcDb3dPolylineVertex
 10
1226.0772861762
 20
176.694972116
 30
0.0
 70
        32
  0
SEQEND
  5
385
100
AcDbEntity
  8
_X______
  6
CONTINUOUS
 62
         7
  0
ARC
  5
386
100
AcDbEntity
  8
_X______
  6
CONTINUOUS
 62
         7
100
AcDbCircle
 10
1224.1162889281
 20
176.0073687064
 30
0.0
 40
2.0780540551
100
AcDbArc
 50
19.3226899096
 51
43.1760378472
  0
POLYLINE
  5
388
100
AcDbEntity
  8
_X______
  6
CONTINUOUS
 62
         7
100
AcDb3dPolyline
 66
         1
 10
0.0
 20
0.0
 30
0.0
 70
         8
  0
VERTEX
  5
38A
100
AcDbEntity
  8
_X______
  6
CONTINUOUS
 62
         7
100
AcDbVertex
100
AcDb3dPolylineVertex
 10
1225.6317199344
 20
177.429260939
 30
0.0
 70
        32
  0
VERTEX
  5
38C
100
AcDbEntity
  8
_X______
  6
CONTINUOUS
 62
         7
100
AcDbVertex
100
AcDb3dPolylineVertex
 10
1225.6317199344
 20
177.429260939
 30
0.0
 70
        32
  0
SEQEND
  5
38E
100
AcDbEntity
  8
_X______
  6
CONTINUOUS
 62
         7
  0
ARC
  5
38F
100
AcDbEntity
  8
_X______
  6
CONTINUOUS
 62
         7
100
AcDbCircle
 10
1224.4287518427
 20
176.3005450962
 30
0.0
 40
1.6495853065
100
AcDbArc
 50
43.1760378472
 51
70.0
  0
POLYLINE
  5
391
100
AcDbEntity
  8
_X______
  6
CONTINUOUS
 62
         7
100
AcDb3dPolyline
 66
         1
 10
0.0
 20
0.0
 30
0.0
 70
         8
  0
VERTEX
  5
393
100
AcDbEntity
  8
_X______
  6
CONTINUOUS
 62
         7
100
AcDbVertex
100
AcDb3dPolylineVertex
 10
1224.9929432457
 20
177.850648236
 30
0.0
 70
        32
  0
VERTEX
  5
395
100
AcDbEntity
  8
_X______
  6
CONTINUOUS
 62
         7
100
AcDbVertex
100
AcDb3dPolylineVertex
 10
1224.9929432457
 20
177.850648236
 30
0.0
 70
        32
  0
SEQEND
  5
397
100
AcDbEntity
  8
_X______
  6
CONTINUOUS
 62
         7
  0
ARC
  5
398
100
AcDbEntity
  8
_X______
  6
CONTINUOUS
 62
         7
100
AcDbCircle
 10
1224.4287518427
 20
176.3005450962
 30
0.0
 40
1.6495853065
100
AcDbArc
 50
70.0000000001
 51
96.8239621529
  0
POLYLINE
  5
39A
100
AcDbEntity
  8
_X______
  6
CONTINUOUS
 62
         7
100
AcDb3dPolyline
 66
         1
 10
0.0
 20
0.0
 30
0.0
 70
         8
  0
VERTEX
  5
39C
100
AcDbEntity
  8
_X______
  6
CONTINUOUS
 62
         7
100
AcDbVertex
100
AcDb3dPolylineVertex
 10
1224.2327493795
 20
177.9384445796
 30
0.0
 70
        32
  0
VERTEX
  5
39E
100
AcDbEntity
  8
_X______
  6
CONTINUOUS
 62
         7
100
AcDbVertex
100
AcDb3dPolylineVertex
 10
1224.2327493795
 20
177.9384445796
 30
0.0
 70
        32
  0
SEQEND
  5
3A0
100
AcDbEntity
  8
_X______
  6
CONTINUOUS
 62
         7
  0
ARC
  5
3A1
100
AcDbEntity
  8
_X______
  6
CONTINUOUS
 62
         7
100
AcDbCircle
 10
1224.4796621714
 20
175.8751116619
 30
0.0
 40
2.0780540551
100
AcDbArc
 50
96.8239621528
 51
120.6773100904
  0
POLYLINE
  5
3A3
100
AcDbEntity
  8
_X______
  6
CONTINUOUS
 62
         7
100
AcDb3dPolyline
 66
         1
 10
0.0
 20
0.0
 30
0.0
 70
         8
  0
VERTEX
  5
3A5
100
AcDbEntity
  8
_X______
  6
CONTINUOUS
 62
         7
100
AcDbVertex
100
AcDb3dPolylineVertex
 10
1223.4194340786
 20
177.6623511666
 30
0.0
 70
        32
  0
VERTEX
  5
3A7
100
AcDbEntity
  8
_X______
  6
CONTINUOUS
 62
         7
100
AcDbVertex
100
AcDb3dPolylineVertex
 10
1223.4194340786
 20
177.6623511666
 30
0.0
 70
        32
  0
SEQEND
  5
3A9
100
AcDbEntity
  8
_X______
  6
CONTINUOUS
 62
         7
  0
ARC
  5
3AA
100
AcDbEntity
  8
_X______
  6
CONTINUOUS
 62
         7
100
AcDbCircle
 10
1224.6794007025
 20
175.5384099693
 30
0.0
 40
2.4695428935
100
AcDbArc
 50
120.6773100903
 51
141.257725858
  0
ARC
  5
3AB
100
AcDbEntity
  8
_X______
  6
CONTINUOUS
 62
         7
100
AcDbCircle
 10
1225.071478058
 20
175.2238215369
 30
0.0
 40
2.9722262277
100
AcDbArc
 50
141.257725858
 51
160.0
  0
LINE
  5
3AC
100
AcDbEntity
  8
_X______
  6
CENTER
 62
         1
100
AcDbLine
 10
1226.9769621084
 20
174.5302820606
 30
0.0
 11
1221.3388063837
 21
176.5824029206
 31
0.0
  0
LINE
  5
3AD
100
AcDbEntity
  8
_X______
  6
CENTER
 62
         1
100
AcDbLine
 10
1227.1031401709
 20
183.6483666388
 30
0.0
 11
1202.8730445027
 21
117.0767259189
 31
0.0
  0
LINE
  5
3AE
100
AcDbEntity
  8
_X______
  6
CENTER
 62
         1
100
AcDbLine
 10
1611.3895898921
 20
182.8624526172
 30
0.0
 11
1635.3242136355
 21
117.102614339
 31
0.0
  0
LINE
  5
3AF
100
AcDbEntity
  8
_X______
  6
DASHED
 62
         2
100
AcDbLine
 10
1629.5624348063
 20
127.085362768
 30
0.0
 11
1630.9989194082
 21
123.1386537607
 31
0.0
  0
LINE
  5
3B0
100
AcDbEntity
  8
_X______
  6
DASHED
 62
         2
100
AcDbLine
 10
1633.3212052894
 20
128.4534433413
 30
0.0
 11
1629.5624348063
 21
127.085362768
 31
0.0
  0
LINE
  5
3B1
100
AcDbEntity
  8
_X______
  6
DASHED
 62
         2
100
AcDbLine
 10
1633.3212052894
 20
128.4534433413
 30
0.0
 11
1634.7576898914
 21
124.506734334
 31
0.0
  0
LINE
  5
3B2
100
AcDbEntity
  8
_X______
  6
DASHED
 62
         2
100
AcDbLine
 10
1626.9487653042
 20
144.9382467674
 30
0.0
 11
1632.9923128721
 21
128.3337362912
 31
0.0
  0
LINE
  5
3B3
100
AcDbEntity
  8
_X______
  6
DASHED
 62
         2
100
AcDbLine
 10
1623.8477796556
 20
143.8095802944
 30
0.0
 11
1629.8913272235
 21
127.2050698182
 31
0.0
  0
LINE
  5
3B4
100
AcDbEntity
  8
_X______
  6
DASHED
 62
         2
100
AcDbLine
 10
1616.675353529
 20
173.1642136406
 30
0.0
 11
1622.7189010969
 21
156.5597031644
 31
0.0
  0
LINE
  5
3B5
100
AcDbEntity
  8
_X______
  6
DASHED
 62
         2
100
AcDbLine
 10
1613.5743678804
 20
172.0355471676
 30
0.0
 11
1619.6179154483
 21
155.4310366914
 31
0.0
  0
LINE
  5
3B6
100
AcDbEntity
  8
_X______
  6
DASHED
 62
         2
100
AcDbLine
 10
1617.0042459463
 20
173.2839206908
 30
0.0
 11
1615.5677613443
 21
177.2306296981
 31
0.0
  0
LINE
  5
3B7
100
AcDbEntity
  8
_X______
  6
DASHED
 62
         2
100
AcDbLine
 10
1613.2454754631
 20
171.9158401175
 30
0.0
 11
1611.8089908611
 21
175.8625491248
 31
0.0
  0
LINE
  5
3B8
100
AcDbEntity
  8
_X______
  6
DASHED
 62
         2
100
AcDbLine
 10
1617.0042459463
 20
173.2839206908
 30
0.0
 11
1613.2454754631
 21
171.9158401175
 31
0.0
  0
ARC
  5
3B9
100
AcDbEntity
  8
_X______
  6
CONTINUOUS
 62
         7
100
AcDbCircle
 10
1632.559479564
 20
125.263967184
 30
0.0
 40
2.0780540551
100
AcDbArc
 50
136.8239621527
 51
160.6773100903
  0
ARC
  5
3BA
100
AcDbEntity
  8
_X______
  6
CONTINUOUS
 62
         7
100
AcDbCircle
 10
1632.1961063207
 20
125.1317101395
 30
0.0
 40
2.0780540551
100
AcDbArc
 50
59.3226899096
 51
83.1760378472
  0
POLYLINE
  5
3BC
100
AcDbEntity
  8
_X______
  6
CONTINUOUS
 62
         7
100
AcDb3dPolyline
 66
         1
 10
0.0
 20
0.0
 30
0.0
 70
         8
  0
VERTEX
  5
3BE
100
AcDbEntity
  8
_X______
  6
CONTINUOUS
 62
         7
100
AcDbVertex
100
AcDb3dPolylineVertex
 10
1634.4372861762
 20
123.6743113428
 30
0.0
 70
        32
  0
VERTEX
  5
3C0
100
AcDbEntity
  8
_X______
  6
CONTINUOUS
 62
         7
100
AcDbVertex
100
AcDb3dPolylineVertex
 10
1634.4372861762
 20
123.6743113428
 30
0.0
 70
        32
  0
SEQEND
  5
3C2
100
AcDbEntity
  8
_X______
  6
CONTINUOUS
 62
         7
  0
POLYLINE
  5
3C4
100
AcDbEntity
  8
_X______
  6
CONTINUOUS
 62
         7
100
AcDb3dPolyline
 66
         1
 10
0.0
 20
0.0
 30
0.0
 70
         8
  0
VERTEX
  5
3C6
100
AcDbEntity
  8
_X______
  6
CONTINUOUS
 62
         7
100
AcDbVertex
100
AcDb3dPolylineVertex
 10
1633.9917199344
 20
122.9400225198
 30
0.0
 70
        32
  0
VERTEX
  5
3C8
100
AcDbEntity
  8
_X______
  6
CONTINUOUS
 62
         7
100
AcDbVertex
100
AcDb3dPolylineVertex
 10
1633.9917199344
 20
122.9400225198
 30
0.0
 70
        32
  0
SEQEND
  5
3CA
100
AcDbEntity
  8
_X______
  6
CONTINUOUS
 62
         7
  0
POLYLINE
  5
3CC
100
AcDbEntity
  8
_X______
  6
CONTINUOUS
 62
         7
100
AcDb3dPolyline
 66
         1
 10
0.0
 20
0.0
 30
0.0
 70
         8
  0
VERTEX
  5
3CE
100
AcDbEntity
  8
_X______
  6
CONTINUOUS
 62
         7
100
AcDbVertex
100
AcDb3dPolylineVertex
 10
1633.3529432457
 20
122.5186352228
 30
0.0
 70
        32
  0
VERTEX
  5
3D0
100
AcDbEntity
  8
_X______
  6
CONTINUOUS
 62
         7
100
AcDbVertex
100
AcDb3dPolylineVertex
 10
1633.3529432457
 20
122.5186352228
 30
0.0
 70
        32
  0
SEQEND
  5
3D2
100
AcDbEntity
  8
_X______
  6
CONTINUOUS
 62
         7
  0
POLYLINE
  5
3D4
100
AcDbEntity
  8
_X______
  6
CONTINUOUS
 62
         7
100
AcDb3dPolyline
 66
         1
 10
0.0
 20
0.0
 30
0.0
 70
         8
  0
VERTEX
  5
3D6
100
AcDbEntity
  8
_X______
  6
CONTINUOUS
 62
         7
100
AcDbVertex
100
AcDb3dPolylineVertex
 10
1632.5927493795
 20
122.4308388792
 30
0.0
 70
        32
  0
VERTEX
  5
3D8
100
AcDbEntity
  8
_X______
  6
CONTINUOUS
 62
         7
100
AcDbVertex
100
AcDb3dPolylineVertex
 10
1632.5927493795
 20
122.4308388792
 30
0.0
 70
        32
  0
SEQEND
  5
3DA
100
AcDbEntity
  8
_X______
  6
CONTINUOUS
 62
         7
  0
POLYLINE
  5
3DC
100
AcDbEntity
  8
_X______
  6
CONTINUOUS
 62
         7
100
AcDb3dPolyline
 66
         1
 10
0.0
 20
0.0
 30
0.0
 70
         8
  0
VERTEX
  5
3DE
100
AcDbEntity
  8
_X______
  6
CONTINUOUS
 62
         7
100
AcDbVertex
100
AcDb3dPolylineVertex
 10
1631.7794340786
 20
122.7069322922
 30
0.0
 70
        32
  0
VERTEX
  5
3E0
100
AcDbEntity
  8
_X______
  6
CONTINUOUS
 62
         7
100
AcDbVertex
100
AcDb3dPolylineVertex
 10
1631.7794340786
 20
122.7069322922
 30
0.0
 70
        32
  0
SEQEND
  5
3E2
100
AcDbEntity
  8
_X______
  6
CONTINUOUS
 62
         7
  0
POLYLINE
  5
3E4
100
AcDbEntity
  8
_X______
  6
CONTINUOUS
 62
         7
100
AcDb3dPolyline
 66
         1
 10
0.0
 20
0.0
 30
0.0
 70
         8
  0
VERTEX
  5
3E6
100
AcDbEntity
  8
_X______
  6
CONTINUOUS
 62
         7
100
AcDbVertex
100
AcDb3dPolylineVertex
 10
1631.1132341063
 20
123.2853883403
 30
0.0
 70
        32
  0
VERTEX
  5
3E8
100
AcDbEntity
  8
_X______
  6
CONTINUOUS
 62
         7
100
AcDbVertex
100
AcDb3dPolylineVertex
 10
1631.1132341063
 20
123.2853883403
 30
0.0
 70
        32
  0
SEQEND
  5
3EA
100
AcDbEntity
  8
_X______
  6
CONTINUOUS
 62
         7
  0
POLYLINE
  5
3EC
100
AcDbEntity
  8
_X______
  6
CONTINUOUS
 62
         7
100
AcDb3dPolyline
 66
         1
 10
0.0
 20
0.0
 30
0.0
 70
         8
  0
VERTEX
  5
3EE
100
AcDbEntity
  8
_X______
  6
CONTINUOUS
 62
         7
100
AcDbVertex
100
AcDb3dPolylineVertex
 10
1630.6384990045
 20
124.1289006815
 30
0.0
 70
        32
  0
VERTEX
  5
3F0
100
AcDbEntity
  8
_X______
  6
CONTINUOUS
 62
         7
100
AcDbVertex
100
AcDb3dPolylineVertex
 10
1630.6384990045
 20
124.1289006815
 30
0.0
 70
        32
  0
SEQEND
  5
3F2
100
AcDbEntity
  8
_X______
  6
CONTINUOUS
 62
         7
  0
POLYLINE
  5
3F4
100
AcDbEntity
  8
_X______
  6
CONTINUOUS
 62
         7
100
AcDb3dPolyline
 66
         1
 10
0.0
 20
0.0
 30
0.0
 70
         8
  0
VERTEX
  5
3F6
100
AcDbEntity
  8
_X______
  6
CONTINUOUS
 62
         7
100
AcDbVertex
100
AcDb3dPolylineVertex
 10
1630.4599679096
 20
125.0802224645
 30
0.0
 70
        32
  0
VERTEX
  5
3F8
100
AcDbEntity
  8
_X______
  6
CONTINUOUS
 62
         7
100
AcDbVertex
100
AcDb3dPolylineVertex
 10
1630.4599679096
 20
125.0802224645
 30
0.0
 70
        32
  0
SEQEND
  5
3FA
100
AcDbEntity
  8
_X______
  6
CONTINUOUS
 62
         7
  0
POLYLINE
  5
3FC
100
AcDbEntity
  8
_X______
  6
CONTINUOUS
 62
         7
100
AcDb3dPolyline
 66
         1
 10
0.0
 20
0.0
 30
0.0
 70
         8
  0
VERTEX
  5
3FE
100
AcDbEntity
  8
_X______
  6
CONTINUOUS
 62
         7
100
AcDbVertex
100
AcDb3dPolylineVertex
 10
1630.5984823159
 20
125.9515705936
 30
0.0
 70
        32
  0
VERTEX
  5
400
100
AcDbEntity
  8
_X______
  6
CONTINUOUS
 62
         7
100
AcDbVertex
100
AcDb3dPolylineVertex
 10
1630.5984823159
 20
125.9515705936
 30
0.0
 70
        32
  0
SEQEND
  5
402
100
AcDbEntity
  8
_X______
  6
CONTINUOUS
 62
         7
  0
POLYLINE
  5
404
100
AcDbEntity
  8
_X______
  6
CONTINUOUS
 62
         7
100
AcDb3dPolyline
 66
         1
 10
0.0
 20
0.0
 30
0.0
 70
         8
  0
VERTEX
  5
406
100
AcDbEntity
  8
_X______
  6
CONTINUOUS
 62
         7
100
AcDbVertex
100
AcDb3dPolylineVertex
 10
1631.0440485577
 20
126.6858594165
 30
0.0
 70
        32
  0
VERTEX
  5
408
100
AcDbEntity
  8
_X______
  6
CONTINUOUS
 62
         7
100
AcDbVertex
100
AcDb3dPolylineVertex
 10
1631.0440485577
 20
126.6858594165
 30
0.0
 70
        32
  0
SEQEND
  5
40A
100
AcDbEntity
  8
_X______
  6
CONTINUOUS
 62
         7
  0
POLYLINE
  5
40C
100
AcDbEntity
  8
_X______
  6
CONTINUOUS
 62
         7
100
AcDb3dPolyline
 66
         1
 10
0.0
 20
0.0
 30
0.0
 70
         8
  0
VERTEX
  5
40E
100
AcDbEntity
  8
_X______
  6
CONTINUOUS
 62
         7
100
AcDbVertex
100
AcDb3dPolylineVertex
 10
1633.2563344135
 20
126.9189496442
 30
0.0
 70
        32
  0
VERTEX
  5
410
100
AcDbEntity
  8
_X______
  6
CONTINUOUS
 62
         7
100
AcDbVertex
100
AcDb3dPolylineVertex
 10
1633.2563344135
 20
126.9189496442
 30
0.0
 70
        32
  0
SEQEND
  5
412
100
AcDbEntity
  8
_X______
  6
CONTINUOUS
 62
         7
  0
POLYLINE
  5
414
100
AcDbEntity
  8
_X______
  6
CONTINUOUS
 62
         7
100
AcDb3dPolyline
 66
         1
 10
0.0
 20
0.0
 30
0.0
 70
         8
  0
VERTEX
  5
416
100
AcDbEntity
  8
_X______
  6
CONTINUOUS
 62
         7
100
AcDbVertex
100
AcDb3dPolylineVertex
 10
1633.9225343858
 20
126.340493596
 30
0.0
 70
        32
  0
VERTEX
  5
418
100
AcDbEntity
  8
_X______
  6
CONTINUOUS
 62
         7
100
AcDbVertex
100
AcDb3dPolylineVertex
 10
1633.9225343858
 20
126.340493596
 30
0.0
 70
        32
  0
SEQEND
  5
41A
100
AcDbEntity
  8
_X______
  6
CONTINUOUS
 62
         7
  0
POLYLINE
  5
41C
100
AcDbEntity
  8
_X______
  6
CONTINUOUS
 62
         7
100
AcDb3dPolyline
 66
         1
 10
0.0
 20
0.0
 30
0.0
 70
         8
  0
VERTEX
  5
41E
100
AcDbEntity
  8
_X______
  6
CONTINUOUS
 62
         7
100
AcDbVertex
100
AcDb3dPolylineVertex
 10
1634.3972694876
 20
125.4969812548
 30
0.0
 70
        32
  0
VERTEX
  5
420
100
AcDbEntity
  8
_X______
  6
CONTINUOUS
 62
         7
100
AcDbVertex
100
AcDb3dPolylineVertex
 10
1634.3972694876
 20
125.4969812548
 30
0.0
 70
        32
  0
SEQEND
  5
422
100
AcDbEntity
  8
_X______
  6
CONTINUOUS
 62
         7
  0
ARC
  5
423
100
AcDbEntity
  8
_X______
  6
CONTINUOUS
 62
         7
100
AcDbCircle
 10
1631.6042904341
 20
124.4804200144
 30
0.0
 40
2.9722262277
100
AcDbArc
 50
1.257725858
 51
20.0
  0
ARC
  5
424
100
AcDbEntity
  8
_X______
  6
CONTINUOUS
 62
         7
100
AcDbCircle
 10
1632.1068526601
 20
124.49145376
 30
0.0
 40
2.4695428935
100
AcDbArc
 50
340.6773100904
 51
361.257725858
  0
ARC
  5
425
100
AcDbEntity
  8
_X______
  6
CONTINUOUS
 62
         7
100
AcDbCircle
 10
1632.4762889281
 20
124.3619147524
 30
0.0
 40
2.0780540551
100
AcDbArc
 50
316.8239621527
 51
340.6773100903
  0
ARC
  5
426
100
AcDbEntity
  8
_X______
  6
CONTINUOUS
 62
         7
100
AcDbCircle
 10
1632.7887518427
 20
124.0687383626
 30
0.0
 40
1.6495853065
100
AcDbArc
 50
290.0
 51
316.8239621528
  0
ARC
  5
427
100
AcDbEntity
  8
_X______
  6
CONTINUOUS
 62
         7
100
AcDbCircle
 10
1632.7887518427
 20
124.0687383626
 30
0.0
 40
1.6495853065
100
AcDbArc
 50
263.1760378472
 51
290.0
  0
ARC
  5
428
100
AcDbEntity
  8
_X______
  6
CONTINUOUS
 62
         7
100
AcDbCircle
 10
1632.8396621714
 20
124.4941717969
 30
0.0
 40
2.0780540551
100
AcDbArc
 50
239.3226899097
 51
263.1760378472
  0
ARC
  5
429
100
AcDbEntity
  8
_X______
  6
CONTINUOUS
 62
         7
100
AcDbCircle
 10
1633.0394007025
 20
124.8308734895
 30
0.0
 40
2.4695428935
100
AcDbArc
 50
218.7422741419
 51
239.3226899096
  0
ARC
  5
42A
100
AcDbEntity
  8
_X______
  6
CONTINUOUS
 62
         7
100
AcDbCircle
 10
1633.431478058
 20
125.1454619219
 30
0.0
 40
2.9722262277
100
AcDbArc
 50
200.0
 51
218.742274142
  0
ARC
  5
42B
100
AcDbEntity
  8
_X______
  6
CONTINUOUS
 62
         7
100
AcDbCircle
 10
1633.431478058
 20
125.1454619219
 30
0.0
 40
2.9722262277
100
AcDbArc
 50
181.257725858
 51
200.0000000001
  0
ARC
  5
42C
100
AcDbEntity
  8
_X______
  6
CONTINUOUS
 62
         7
100
AcDbCircle
 10
1632.928915832
 20
125.1344281764
 30
0.0
 40
2.4695428935
100
AcDbArc
 50
160.6773100904
 51
181.257725858
  0
ARC
  5
42D
100
AcDbEntity
  8
_X______
  6
CONTINUOUS
 62
         7
100
AcDbCircle
 10
1631.9963677896
 20
124.7950084469
 30
0.0
 40
2.4695428935
100
AcDbArc
 50
38.742274142
 51
59.3226899096
  0
ARC
  5
42E
100
AcDbEntity
  8
_X______
  6
CONTINUOUS
 62
         7
100
AcDbCircle
 10
1631.6042904341
 20
124.4804200144
 30
0.0
 40
2.9722262277
100
AcDbArc
 50
20.0
 51
38.742274142
  0
LINE
  5
42F
100
AcDbEntity
  8
_X______
  6
CENTER
 62
         1
100
AcDbLine
 10
1629.6988063837
 20
123.7868805382
 30
0.0
 11
1635.3369621084
 21
125.8390013981
 31
0.0
  0
ARC
  5
430
100
AcDbEntity
  8
_X______
  6
CONTINUOUS
 62
         7
100
AcDbCircle
 10
1632.2470166494
 20
125.5571435737
 30
0.0
 40
1.6495853065
100
AcDbArc
 50
110.0
 51
136.8239621528
  0
ARC
  5
431
100
AcDbEntity
  8
_X______
  6
CONTINUOUS
 62
         7
100
AcDbCircle
 10
1632.2470166494
 20
125.5571435737
 30
0.0
 40
1.6495853065
100
AcDbArc
 50
83.1760378472
 51
110.0
  0
POLYLINE
  5
433
100
AcDbEntity
  8
_X______
  6
CONTINUOUS
 62
         7
100
AcDb3dPolyline
 66
         1
 10
0.0
 20
0.0
 30
0.0
 70
         8
  0
VERTEX
  5
435
100
AcDbEntity
  8
_X______
  6
CONTINUOUS
 62
         7
100
AcDbVertex
100
AcDb3dPolylineVertex
 10
1614.7872466739
 20
177.6623511666
 30
0.0
 70
        32
  0
VERTEX
  5
437
100
AcDbEntity
  8
_X______
  6
CONTINUOUS
 62
         7
100
AcDbVertex
100
AcDb3dPolylineVertex
 10
1614.7872466739
 20
177.6623511666
 30
0.0
 70
        32
  0
SEQEND
  5
439
100
AcDbEntity
  8
_X______
  6
CONTINUOUS
 62
         7
  0
POLYLINE
  5
43B
100
AcDbEntity
  8
_X______
  6
CONTINUOUS
 62
         7
100
AcDb3dPolyline
 66
         1
 10
0.0
 20
0.0
 30
0.0
 70
         8
  0
VERTEX
  5
43D
100
AcDbEntity
  8
_X______
  6
CONTINUOUS
 62
         7
100
AcDbVertex
100
AcDb3dPolylineVertex
 10
1613.973931373
 20
177.9384445796
 30
0.0
 70
        32
  0
VERTEX
  5
43F
100
AcDbEntity
  8
_X______
  6
CONTINUOUS
 62
         7
100
AcDbVertex
100
AcDb3dPolylineVertex
 10
1613.973931373
 20
177.9384445796
 30
0.0
 70
        32
  0
SEQEND
  5
441
100
AcDbEntity
  8
_X______
  6
CONTINUOUS
 62
         7
  0
POLYLINE
  5
443
100
AcDbEntity
  8
_X______
  6
CONTINUOUS
 62
         7
100
AcDb3dPolyline
 66
         1
 10
0.0
 20
0.0
 30
0.0
 70
         8
  0
VERTEX
  5
445
100
AcDbEntity
  8
_X______
  6
CONTINUOUS
 62
         7
100
AcDbVertex
100
AcDb3dPolylineVertex
 10
1613.2137375068
 20
177.850648236
 30
0.0
 70
        32
  0
VERTEX
  5
447
100
AcDbEntity
  8
_X______
  6
CONTINUOUS
 62
         7
100
AcDbVertex
100
AcDb3dPolylineVertex
 10
1613.2137375068
 20
177.850648236
 30
0.0
 70
        32
  0
SEQEND
  5
449
100
AcDbEntity
  8
_X______
  6
CONTINUOUS
 62
         7
  0
POLYLINE
  5
44B
100
AcDbEntity
  8
_X______
  6
CONTINUOUS
 62
         7
100
AcDb3dPolyline
 66
         1
 10
0.0
 20
0.0
 30
0.0
 70
         8
  0
VERTEX
  5
44D
100
AcDbEntity
  8
_X______
  6
CONTINUOUS
 62
         7
100
AcDbVertex
100
AcDb3dPolylineVertex
 10
1612.5749608181
 20
177.429260939
 30
0.0
 70
        32
  0
VERTEX
  5
44F
100
AcDbEntity
  8
_X______
  6
CONTINUOUS
 62
         7
100
AcDbVertex
100
AcDb3dPolylineVertex
 10
1612.5749608181
 20
177.429260939
 30
0.0
 70
        32
  0
SEQEND
  5
451
100
AcDbEntity
  8
_X______
  6
CONTINUOUS
 62
         7
  0
POLYLINE
  5
453
100
AcDbEntity
  8
_X______
  6
CONTINUOUS
 62
         7
100
AcDb3dPolyline
 66
         1
 10
0.0
 20
0.0
 30
0.0
 70
         8
  0
VERTEX
  5
455
100
AcDbEntity
  8
_X______
  6
CONTINUOUS
 62
         7
100
AcDbVertex
100
AcDb3dPolylineVertex
 10
1612.1293945764
 20
176.694972116
 30
0.0
 70
        32
  0
VERTEX
  5
457
100
AcDbEntity
  8
_X______
  6
CONTINUOUS
 62
         7
100
AcDbVertex
100
AcDb3dPolylineVertex
 10
1612.1293945764
 20
176.694972116
 30
0.0
 70
        32
  0
SEQEND
  5
459
100
AcDbEntity
  8
_X______
  6
CONTINUOUS
 62
         7
  0
POLYLINE
  5
45B
100
AcDbEntity
  8
_X______
  6
CONTINUOUS
 62
         7
100
AcDb3dPolyline
 66
         1
 10
0.0
 20
0.0
 30
0.0
 70
         8
  0
VERTEX
  5
45D
100
AcDbEntity
  8
_X______
  6
CONTINUOUS
 62
         7
100
AcDbVertex
100
AcDb3dPolylineVertex
 10
1611.99088017
 20
175.823623987
 30
0.0
 70
        32
  0
VERTEX
  5
45F
100
AcDbEntity
  8
_X______
  6
CONTINUOUS
 62
         7
100
AcDbVertex
100
AcDb3dPolylineVertex
 10
1611.99088017
 20
175.823623987
 30
0.0
 70
        32
  0
SEQEND
  5
461
100
AcDbEntity
  8
_X______
  6
CONTINUOUS
 62
         7
  0
POLYLINE
  5
463
100
AcDbEntity
  8
_X______
  6
CONTINUOUS
 62
         7
100
AcDb3dPolyline
 66
         1
 10
0.0
 20
0.0
 30
0.0
 70
         8
  0
VERTEX
  5
465
100
AcDbEntity
  8
_X______
  6
CONTINUOUS
 62
         7
100
AcDbVertex
100
AcDb3dPolylineVertex
 10
1612.1694112649
 20
174.872302204
 30
0.0
 70
        32
  0
VERTEX
  5
467
100
AcDbEntity
  8
_X______
  6
CONTINUOUS
 62
         7
100
AcDbVertex
100
AcDb3dPolylineVertex
 10
1612.1694112649
 20
174.872302204
 30
0.0
 70
        32
  0
SEQEND
  5
469
100
AcDbEntity
  8
_X______
  6
CONTINUOUS
 62
         7
  0
POLYLINE
  5
46B
100
AcDbEntity
  8
_X______
  6
CONTINUOUS
 62
         7
100
AcDb3dPolyline
 66
         1
 10
0.0
 20
0.0
 30
0.0
 70
         8
  0
VERTEX
  5
46D
100
AcDbEntity
  8
_X______
  6
CONTINUOUS
 62
         7
100
AcDbVertex
100
AcDb3dPolylineVertex
 10
1612.6441463667
 20
174.0287898627
 30
0.0
 70
        32
  0
VERTEX
  5
46F
100
AcDbEntity
  8
_X______
  6
CONTINUOUS
 62
         7
100
AcDbVertex
100
AcDb3dPolylineVertex
 10
1612.6441463667
 20
174.0287898627
 30
0.0
 70
        32
  0
SEQEND
  5
471
100
AcDbEntity
  8
_X______
  6
CONTINUOUS
 62
         7
  0
POLYLINE
  5
473
100
AcDbEntity
  8
_X______
  6
CONTINUOUS
 62
         7
100
AcDb3dPolyline
 66
         1
 10
0.0
 20
0.0
 30
0.0
 70
         8
  0
VERTEX
  5
475
100
AcDbEntity
  8
_X______
  6
CONTINUOUS
 62
         7
100
AcDbVertex
100
AcDb3dPolylineVertex
 10
1613.310346339
 20
173.4503338146
 30
0.0
 70
        32
  0
VERTEX
  5
477
100
AcDbEntity
  8
_X______
  6
CONTINUOUS
 62
         7
100
AcDbVertex
100
AcDb3dPolylineVertex
 10
1613.310346339
 20
173.4503338146
 30
0.0
 70
        32
  0
SEQEND
  5
479
100
AcDbEntity
  8
_X______
  6
CONTINUOUS
 62
         7
  0
POLYLINE
  5
47B
100
AcDbEntity
  8
_X______
  6
CONTINUOUS
 62
         7
100
AcDb3dPolyline
 66
         1
 10
0.0
 20
0.0
 30
0.0
 70
         8
  0
VERTEX
  5
47D
100
AcDbEntity
  8
_X______
  6
CONTINUOUS
 62
         7
100
AcDbVertex
100
AcDb3dPolylineVertex
 10
1614.1236616399
 20
173.1742404017
 30
0.0
 70
        32
  0
VERTEX
  5
47F
100
AcDbEntity
  8
_X______
  6
CONTINUOUS
 62
         7
100
AcDbVertex
100
AcDb3dPolylineVertex
 10
1614.1236616399
 20
173.1742404017
 30
0.0
 70
        32
  0
SEQEND
  5
481
100
AcDbEntity
  8
_X______
  6
CONTINUOUS
 62
         7
  0
POLYLINE
  5
483
100
AcDbEntity
  8
_X______
  6
CONTINUOUS
 62
         7
100
AcDb3dPolyline
 66
         1
 10
0.0
 20
0.0
 30
0.0
 70
         8
  0
VERTEX
  5
485
100
AcDbEntity
  8
_X______
  6
CONTINUOUS
 62
         7
100
AcDbVertex
100
AcDb3dPolylineVertex
 10
1614.8838555061
 20
173.2620367452
 30
0.0
 70
        32
  0
VERTEX
  5
487
100
AcDbEntity
  8
_X______
  6
CONTINUOUS
 62
         7
100
AcDbVertex
100
AcDb3dPolylineVertex
 10
1614.8838555061
 20
173.2620367452
 30
0.0
 70
        32
  0
SEQEND
  5
489
100
AcDbEntity
  8
_X______
  6
CONTINUOUS
 62
         7
  0
POLYLINE
  5
48B
100
AcDbEntity
  8
_X______
  6
CONTINUOUS
 62
         7
100
AcDb3dPolyline
 66
         1
 10
0.0
 20
0.0
 30
0.0
 70
         8
  0
VERTEX
  5
48D
100
AcDbEntity
  8
_X______
  6
CONTINUOUS
 62
         7
100
AcDbVertex
100
AcDb3dPolylineVertex
 10
1615.5226321948
 20
173.6834240423
 30
0.0
 70
        32
  0
VERTEX
  5
48F
100
AcDbEntity
  8
_X______
  6
CONTINUOUS
 62
         7
100
AcDbVertex
100
AcDb3dPolylineVertex
 10
1615.5226321948
 20
173.6834240423
 30
0.0
 70
        32
  0
SEQEND
  5
491
100
AcDbEntity
  8
_X______
  6
CONTINUOUS
 62
         7
  0
POLYLINE
  5
493
100
AcDbEntity
  8
_X______
  6
CONTINUOUS
 62
         7
100
AcDb3dPolyline
 66
         1
 10
0.0
 20
0.0
 30
0.0
 70
         8
  0
VERTEX
  5
495
100
AcDbEntity
  8
_X______
  6
CONTINUOUS
 62
         7
100
AcDbVertex
100
AcDb3dPolylineVertex
 10
1615.9681984366
 20
174.4177128652
 30
0.0
 70
        32
  0
VERTEX
  5
497
100
AcDbEntity
  8
_X______
  6
CONTINUOUS
 62
         7
100
AcDbVertex
100
AcDb3dPolylineVertex
 10
1615.9681984366
 20
174.4177128652
 30
0.0
 70
        32
  0
SEQEND
  5
499
100
AcDbEntity
  8
_X______
  6
CONTINUOUS
 62
         7
  0
POLYLINE
  5
49B
100
AcDbEntity
  8
_X______
  6
CONTINUOUS
 62
         7
100
AcDb3dPolyline
 66
         1
 10
0.0
 20
0.0
 30
0.0
 70
         8
  0
VERTEX
  5
49D
100
AcDbEntity
  8
_X______
  6
CONTINUOUS
 62
         7
100
AcDbVertex
100
AcDb3dPolylineVertex
 10
1616.1067128429
 20
175.2890609943
 30
0.0
 70
        32
  0
VERTEX
  5
49F
100
AcDbEntity
  8
_X______
  6
CONTINUOUS
 62
         7
100
AcDbVertex
100
AcDb3dPolylineVertex
 10
1616.1067128429
 20
175.2890609943
 30
0.0
 70
        32
  0
SEQEND
  5
4A1
100
AcDbEntity
  8
_X______
  6
CONTINUOUS
 62
         7
  0
POLYLINE
  5
4A3
100
AcDbEntity
  8
_X______
  6
CONTINUOUS
 62
         7
100
AcDb3dPolyline
 66
         1
 10
0.0
 20
0.0
 30
0.0
 70
         8
  0
VERTEX
  5
4A5
100
AcDbEntity
  8
_X______
  6
CONTINUOUS
 62
         7
100
AcDbVertex
100
AcDb3dPolylineVertex
 10
1615.928181748
 20
176.2403827773
 30
0.0
 70
        32
  0
VERTEX
  5
4A7
100
AcDbEntity
  8
_X______
  6
CONTINUOUS
 62
         7
100
AcDbVertex
100
AcDb3dPolylineVertex
 10
1615.928181748
 20
176.2403827773
 30
0.0
 70
        32
  0
SEQEND
  5
4A9
100
AcDbEntity
  8
_X______
  6
CONTINUOUS
 62
         7
  0
LINE
  5
4AA
100
AcDbEntity
  8
_X______
  6
CENTER
 62
         1
100
AcDbLine
 10
1611.2297186441
 20
174.5302820606
 30
0.0
 11
1616.8678743688
 21
176.5824029206
 31
0.0
  0
ARC
  5
4AB
100
AcDbEntity
  8
_X______
  6
CONTINUOUS
 62
         7
100
AcDbCircle
 10
1613.1352026945
 20
175.2238215369
 30
0.0
 40
2.9722262277
100
AcDbArc
 50
20.0
 51
38.742274142
  0
ARC
  5
4AC
100
AcDbEntity
  8
_X______
  6
CONTINUOUS
 62
         7
100
AcDbCircle
 10
1613.52728005
 20
175.5384099693
 30
0.0
 40
2.4695428935
100
AcDbArc
 50
38.742274142
 51
59.3226899097
  0
ARC
  5
4AD
100
AcDbEntity
  8
_X______
  6
CONTINUOUS
 62
         7
100
AcDbCircle
 10
1613.7270185811
 20
175.8751116619
 30
0.0
 40
2.0780540551
100
AcDbArc
 50
59.3226899096
 51
83.1760378472
  0
ARC
  5
4AE
100
AcDbEntity
  8
_X______
  6
CONTINUOUS
 62
         7
100
AcDbCircle
 10
1613.7779289098
 20
176.3005450962
 30
0.0
 40
1.6495853065
100
AcDbArc
 50
83.1760378471
 51
109.9999999999
  0
ARC
  5
4AF
100
AcDbEntity
  8
_X______
  6
CONTINUOUS
 62
         7
100
AcDbCircle
 10
1613.7779289098
 20
176.3005450962
 30
0.0
 40
1.6495853065
100
AcDbArc
 50
110.0
 51
136.8239621528
  0
ARC
  5
4B0
100
AcDbEntity
  8
_X______
  6
CONTINUOUS
 62
         7
100
AcDbCircle
 10
1614.0903918245
 20
176.0073687064
 30
0.0
 40
2.0780540551
100
AcDbArc
 50
136.8239621528
 51
160.6773100904
  0
ARC
  5
4B1
100
AcDbEntity
  8
_X______
  6
CONTINUOUS
 62
         7
100
AcDbCircle
 10
1614.4598280924
 20
175.8778296988
 30
0.0
 40
2.4695428935
100
AcDbArc
 50
160.6773100903
 51
181.257725858
  0
ARC
  5
4B2
100
AcDbEntity
  8
_X______
  6
CONTINUOUS
 62
         7
100
AcDbCircle
 10
1614.9623903184
 20
175.8888634444
 30
0.0
 40
2.9722262277
100
AcDbArc
 50
181.257725858
 51
200.0000000001
  0
ARC
  5
4B3
100
AcDbEntity
  8
_X______
  6
CONTINUOUS
 62
         7
100
AcDbCircle
 10
1614.9623903184
 20
175.8888634444
 30
0.0
 40
2.9722262277
100
AcDbArc
 50
200.0
 51
218.742274142
  0
ARC
  5
4B4
100
AcDbEntity
  8
_X______
  6
CONTINUOUS
 62
         7
100
AcDbCircle
 10
1614.5703129629
 20
175.5742750119
 30
0.0
 40
2.4695428935
100
AcDbArc
 50
218.742274142
 51
239.3226899097
  0
ARC
  5
4B5
100
AcDbEntity
  8
_X______
  6
CONTINUOUS
 62
         7
100
AcDbCircle
 10
1614.3705744318
 20
175.2375733193
 30
0.0
 40
2.0780540551
100
AcDbArc
 50
239.3226899096
 51
263.1760378472
  0
ARC
  5
4B6
100
AcDbEntity
  8
_X______
  6
CONTINUOUS
 62
         7
100
AcDbCircle
 10
1614.3196641031
 20
174.8121398851
 30
0.0
 40
1.6495853065
100
AcDbArc
 50
263.1760378472
 51
290.0
  0
ARC
  5
4B7
100
AcDbEntity
  8
_X______
  6
CONTINUOUS
 62
         7
100
AcDbCircle
 10
1614.3196641031
 20
174.8121398851
 30
0.0
 40
1.6495853065
100
AcDbArc
 50
290.0000000001
 51
316.8239621528
  0
ARC
  5
4B8
100
AcDbEntity
  8
_X______
  6
CONTINUOUS
 62
         7
100
AcDbCircle
 10
1614.0072011885
 20
175.1053162748
 30
0.0
 40
2.0780540551
100
AcDbArc
 50
316.8239621527
 51
340.6773100903
  0
ARC
  5
4B9
100
AcDbEntity
  8
_X______
  6
CONTINUOUS
 62
         7
100
AcDbCircle
 10
1613.6377649205
 20
175.2348552824
 30
0.0
 40
2.4695428935
100
AcDbArc
 50
340.6773100903
 51
361.2577258579
  0
ARC
  5
4BA
100
AcDbEntity
  8
_X______
  6
CONTINUOUS
 62
         7
100
AcDbCircle
 10
1613.1352026945
 20
175.2238215369
 30
0.0
 40
2.9722262277
100
AcDbArc
 50
1.2577258579
 51
20.0
  0
LINE
  5
4BB
100
AcDbEntity
  8
_X______
  6
CENTER
 62
         1
100
AcDbLine
 10
1420.8853534246
 20
14.9646462588
 30
0.0
 11
1378.6735639628
 21
-6.5433347407
 31
0.0
  0
LINE
  5
4BC
100
AcDbEntity
  8
_X______
  6
CONTINUOUS
 62
         7
100
AcDbLine
 10
1419.1033403763
 20
11.8120127841
 30
0.0
 11
1415.7175155843
 21
10.0868488851
 31
0.0
  0
LINE
  5
4BD
100
AcDbEntity
  8
_X______
  6
CONTINUOUS
 62
         7
100
AcDbLine
 10
1419.1033403763
 20
16.3013177346
 30
0.0
 11
1413.9015535854
 21
13.6508749818
 31
0.0
  0
LINE
  5
4BE
100
AcDbEntity
  8
_X______
  6
CONTINUOUS
 62
         7
100
AcDbLine
 10
1406.3511979746
 20
9.4109624622
 30
0.0
 11
1375.0391266763
 21
-6.5433347407
 31
0.0
  0
LINE
  5
4BF
100
AcDbEntity
  8
_X______
  6
CONTINUOUS
 62
         7
100
AcDbLine
 10
1409.7659578698
 20
7.4471929485
 30
0.0
 11
1382.3080012494
 21
-6.5433347407
 31
0.0
  0
INSERT
  5
4C6
100
AcDbEntity
  8
0
  6
CONTINUOUS
100
AcDbBlockReference
  2
*X21
 10
0.0
 20
0.0
 30
0.0
  0
LINE
  5
4C7
100
AcDbEntity
  8
_X______
  6
CONTINUOUS
 62
         4
100
AcDbLine
 10
1410.0345126352
 20
11.2877050203
 30
0.0
 11
1413.0788387897
 21
9.1560448981
 31
0.0
  0
LINE
  5
4C8
100
AcDbEntity
  8
_X______
  6
CONTINUOUS
 62
         7
100
AcDbLine
 10
1413.0769291007
 20
9.1342170532
 30
0.0
 11
1412.9127847976
 21
7.2580390837
 31
0.0
  0
LINE
  5
4C9
100
AcDbEntity
  8
_X______
  6
CONTINUOUS
 62
         4
100
AcDbLine
 10
1412.9127847976
 20
7.2580390837
 30
0.0
 11
1411.1860365497
 21
6.452843152
 31
0.0
  0
LINE
  5
4CA
100
AcDbEntity
  8
_X______
  6
CONTINUOUS
 62
         4
100
AcDbLine
 10
1413.0788387897
 20
9.1560448981
 30
0.0
 11
1411.1860365497
 21
6.452843152
 31
0.0
  0
LINE
  5
4CB
100
AcDbEntity
  8
_X______
  6
CONTINUOUS
 62
         4
100
AcDbLine
 10
1409.7659578698
 20
7.4471929485
 30
0.0
 11
1411.1860365497
 21
6.452843152
 31
0.0
  0
LINE
  5
4CC
100
AcDbEntity
  8
_X______
  6
CONTINUOUS
 62
         7
100
AcDbLine
 10
1415.7175155843
 20
10.0868488851
 30
0.0
 11
1415.3785709096
 21
10.3069621305
 31
0.0
  0
LINE
  5
4CD
100
AcDbEntity
  8
_X______
  6
CONTINUOUS
 62
         7
100
AcDbLine
 10
1413.9015535854
 20
13.6508749818
 30
0.0
 11
1413.8804022605
 21
13.2472836603
 31
0.0
  0
LINE
  5
4CE
100
AcDbEntity
  8
_X______
  6
CONTINUOUS
 62
         7
100
AcDbLine
 10
1415.7175155843
 20
10.0868488851
 30
0.0
 11
1413.9015535854
 21
13.6508749818
 31
0.0
  0
LINE
  5
4CF
100
AcDbEntity
  8
_X______
  6
CONTINUOUS
 62
         7
100
AcDbLine
 10
1415.3785709096
 20
10.3069621305
 30
0.0
 11
1413.8804022605
 21
13.2472836603
 31
0.0
  0
LINE
  5
4D0
100
AcDbEntity
  8
_X______
  6
CONTINUOUS
 62
         7
100
AcDbLine
 10
1413.8804022605
 20
13.2472836603
 30
0.0
 11
1410.0345126352
 21
11.2877050203
 31
0.0
  0
LINE
  5
4D1
100
AcDbEntity
  8
_X______
  6
CONTINUOUS
 62
         7
100
AcDbLine
 10
1415.3785709096
 20
10.3069621305
 30
0.0
 11
1413.0769291007
 21
9.1342170532
 31
0.0
  0
LINE
  5
4D2
100
AcDbEntity
  8
_X______
  6
CONTINUOUS
 62
         7
100
AcDbLine
 10
1406.8895245756
 20
9.0340221182
 30
0.0
 11
1409.183830321
 21
12.3106302954
 31
0.0
  0
LINE
  5
4D3
100
AcDbEntity
  8
_X______
  6
CONTINUOUS
 62
         7
100
AcDbLine
 10
1405.2968943689
 20
14.6050210435
 30
0.0
 11
1410.0345126352
 21
11.2877050203
 31
0.0
  0
LINE
  5
4D4
100
AcDbEntity
  8
_X______
  6
CENTER
 62
         1
100
AcDbLine
 10
1402.4927097209
 20
14.5542542011
 30
0.0
 11
1412.6840464289
 21
7.4182034137
 31
0.0
  0
LINE
  5
4D5
100
AcDbEntity
  8
_X______
  6
CONTINUOUS
 62
         4
100
AcDbLine
 10
1403.2033403763
 20
11.6151160818
 30
0.0
 11
1406.8895245756
 21
9.0340221182
 31
0.0
  0
LINE
  5
4D6
100
AcDbEntity
  8
_X______
  6
CONTINUOUS
 62
         7
100
AcDbLine
 10
1403.404092129
 20
11.9018192973
 30
0.0
 11
1409.7659578698
 21
7.4471929485
 31
0.0
  0
LINE
  5
4D7
100
AcDbEntity
  8
_X______
  6
CONTINUOUS
 62
         7
100
AcDbLine
 10
1403.2033403763
 20
11.6151160818
 30
0.0
 11
1405.5263249435
 21
14.9326818612
 31
0.0
  0
LINE
  5
4D8
100
AcDbEntity
  8
_X______
  6
CONTINUOUS
 62
         7
100
AcDbLine
 10
1403.2033403763
 20
16.5592531663
 30
0.0
 11
1405.5263249435
 21
14.9326818612
 31
0.0
  0
LINE
  5
4D9
100
AcDbEntity
  8
_X______
  6
CONTINUOUS
 62
         4
100
AcDbLine
 10
1405.4976461217
 20
14.891724259
 30
0.0
 11
1409.183830321
 21
12.3106302954
 31
0.0
  0
ARC
  5
4DA
100
AcDbEntity
  8
L1_65
  6
CONTINUOUS
 62
         7
100
AcDbCircle
 10
1422.1033403763
 20
7.5066652593
 30
0.0
 40
3.0
100
AcDbArc
 50
180.0
 51
270.0
  0
ARC
  5
4DB
100
AcDbEntity
  8
L1_65
  6
CONTINUOUS
 62
         7
100
AcDbCircle
 10
1422.1033403763
 20
-33.3933347407
 30
0.0
 40
3.0
100
AcDbArc
 50
90.0
 51
180.0
  0
ARC
  5
4DC
100
AcDbEntity
  8
L1_65
  6
CONTINUOUS
 62
         7
100
AcDbCircle
 10
1422.1033403763
 20
170.6346417294
 30
0.0
 40
3.0
100
AcDbArc
 50
180.0
 51
270.0
  0
ARC
  5
4DD
100
AcDbEntity
  8
L1_65
  6
CONTINUOUS
 62
         7
100
AcDbCircle
 10
1422.1033403763
 20
129.7346417294
 30
0.0
 40
3.0
100
AcDbArc
 50
90.0
 51
180.0
  0
LINE
  5
4DE
100
AcDbEntity
  8
L1_65
  6
CONTINUOUS
 62
         7
100
AcDbLine
 10
1373.1569302147
 20
-5.9433347407
 30
0.0
 11
1360.2033403763
 21
-5.9433347407
 31
0.0
  0
LINE
  5
4DF
100
AcDbEntity
  8
L1_65
  6
CONTINUOUS
 62
         7
100
AcDbLine
 10
1373.1569302147
 20
-19.9433347407
 30
0.0
 11
1360.2033403763
 21
-19.9433347407
 31
0.0
  0
LINE
  5
4E0
100
AcDbEntity
  8
L1_65
  6
CONTINUOUS
 62
         7
100
AcDbLine
 10
1373.5033403763
 20
-6.5433347407
 30
0.0
 11
1373.1569302147
 21
-5.9433347407
 31
0.0
  0
LINE
  5
4E1
100
AcDbEntity
  8
L1_65
  6
CONTINUOUS
 62
         7
100
AcDbLine
 10
1373.5033403763
 20
-19.3433347407
 30
0.0
 11
1373.1569302147
 21
-19.9433347407
 31
0.0
  0
LINE
  5
4E2
100
AcDbEntity
  8
L1_65
  6
CONTINUOUS
 62
         7
100
AcDbLine
 10
1373.1569302147
 20
-5.9433347407
 30
0.0
 11
1373.1569302147
 21
-19.9433347407
 31
0.0
  0
CIRCLE
  5
4E3
100
AcDbEntity
  8
L1_65
  6
CONTINUOUS
 62
         7
100
AcDbCircle
 10
1623.2833403763
 20
150.1846417294
 30
0.0
 40
7.5
  0
ARC
  5
4E4
100
AcDbEntity
  8
L1_65
  6
CONTINUOUS
 62
         4
100
AcDbCircle
 10
1623.2833403763
 20
150.1846417294
 30
0.0
 40
7.144
100
AcDbArc
 50
180.0
 51
450.0
  0
CIRCLE
  5
4E5
100
AcDbEntity
  8
L1_65
  6
CONTINUOUS
 62
         7
100
AcDbCircle
 10
1623.2833403763
 20
150.1846417294
 30
0.0
 40
6.4
  0
INSERT
  5
52F
100
AcDbEntity
  8
0
  6
CONTINUOUS
100
AcDbBlockReference
  2
*X22
 10
0.0
 20
0.0
 30
0.0
  0
TEXT
  5
531
100
AcDbEntity
  8
L1_65
  6
CONTINUOUS
 62
         2
100
AcDbText
 10
1607.8551181589
 20
224.3704784082
 30
0.0
 40
4.5
  1
531412
 41
0.98
  7
BOX
100
AcDbText
  0
ENDSEC
  0
SECTION
  2
OBJECTS
  0
DICTIONARY
  5
19
100
AcDbDictionary
  3
ACAD_GROUP
350
1A
  3
ACAD_MLINESTYLE
350
1B
  0
DICTIONARY
  5
1A
102
{ACAD_REACTORS
330
19
102
}
100
AcDbDictionary
  0
DICTIONARY
  5
1B
102
{ACAD_REACTORS
330
19
102
}
100
AcDbDictionary
  3
STANDARD
350
1C
  0
MLINESTYLE
  5
1C
102
{ACAD_REACTORS
330
1B
102
}
100
AcDbMlineStyle
  2
STANDARD
 70
         0
  3

 62
         0
 51
90.0
 52
90.0
 71
         2
 49
0.5
 62
       256
  6
BYLAYER
 49
-0.5
 62
       256
  6
BYLAYER
  0
ENDSEC
  0
EOF
