  0
SECTION
  2
HEADER
  9
$ACADVER
  1
AC1014
  9
$ACADMAINTVER
 70
         0
  9
$DWGCODEPAGE
  3
BIG5
  9
$INSBASE
 10
0.0
 20
0.0
 30
0.0
  9
$EXTMIN
 10
1097.8433274859
 20
-79.7938580774
 30
0.0
  9
$EXTMAX
 10
1739.2208204993
 20
243.5687801456
 30
0.0
  9
$LIMMIN
 10
0.0
 20
0.0
  9
$LIMMAX
 10
0.0
 20
0.0
  9
$ORTHOMODE
 70
         0
  9
$REGENMODE
 70
         1
  9
$FILLMODE
 70
         1
  9
$QTEXTMODE
 70
         0
  9
$MIRRTEXT
 70
         1
  9
$DRAGMODE
 70
         2
  9
$LTSCALE
 40
1.0
  9
$OSMODE
 70
         0
  9
$ATTMODE
 70
         1
  9
$TEXTSIZE
 40
1.7
  9
$TRACEWID
 40
0.05
  9
$TEXTSTYLE
  7
STANDARD
  9
$CLAYER
  8
0
  9
$CELTYPE
  6
CONTINUOUS
  9
$CECOLOR
 62
         4
  9
$CELTSCALE
 40
1.0
  9
$DELOBJ
 70
         1
  9
$DISPSILH
 70
         0
  9
$DIMSCALE
 40
1.0
  9
$DIMASZ
 40
0.18
  9
$DIMEXO
 40
0.0625
  9
$DIMDLI
 40
0.38
  9
$DIMRND
 40
0.0
  9
$DIMDLE
 40
0.0
  9
$DIMEXE
 40
0.25
  9
$DIMTP
 40
0.01
  9
$DIMTM
 40
-0.01
  9
$DIMTXT
 40
2.7
  9
$DIMCEN
 40
0.09
  9
$DIMTSZ
 40
0.0
  9
$DIMTOL
 70
         0
  9
$DIMLIM
 70
         0
  9
$DIMTIH
 70
         1
  9
$DIMTOH
 70
         1
  9
$DIMSE1
 70
         0
  9
$DIMSE2
 70
         0
  9
$DIMTAD
 70
         0
  9
$DIMZIN
 70
         0
  9
$DIMBLK
  1

  9
$DIMASO
 70
         1
  9
$DIMSHO
 70
         1
  9
$DIMPOST
  1

  9
$DIMAPOST
  1

  9
$DIMALT
 70
         0
  9
$DIMALTD
 70
         2
  9
$DIMALTF
 40
25.4
  9
$DIMLFAC
 40
1.0
  9
$DIMTOFL
 70
         0
  9
$DIMTVP
 40
0.0
  9
$DIMTIX
 70
         0
  9
$DIMSOXD
 70
         0
  9
$DIMSAH
 70
         0
  9
$DIMBLK1
  1

  9
$DIMBLK2
  1

  9
$DIMSTYLE
  2
STANDARD
  9
$DIMCLRD
 70
         0
  9
$DIMCLRE
 70
         0
  9
$DIMCLRT
 70
         4
  9
$DIMTFAC
 40
1.0
  9
$DIMGAP
 40
0.09
  9
$DIMJUST
 70
         0
  9
$DIMSD1
 70
         0
  9
$DIMSD2
 70
         0
  9
$DIMTOLJ
 70
         1
  9
$DIMTZIN
 70
         0
  9
$DIMALTZ
 70
         0
  9
$DIMALTTZ
 70
         0
  9
$DIMFIT
 70
         3
  9
$DIMUPT
 70
         0
  9
$DIMUNIT
 70
         2
  9
$DIMDEC
 70
         4
  9
$DIMTDEC
 70
         4
  9
$DIMALTU
 70
         2
  9
$DIMALTTD
 70
         2
  9
$DIMTXSTY
  7
STANDARD
  9
$DIMAUNIT
 70
         0
  9
$LUNITS
 70
         2
  9
$LUPREC
 70
        10
  9
$SKETCHINC
 40
0.1
  9
$FILLETRAD
 40
0.0
  9
$AUNITS
 70
         0
  9
$AUPREC
 70
         0
  9
$MENU
  1
acad
  9
$ELEVATION
 40
0.0
  9
$PELEVATION
 40
0.0
  9
$THICKNESS
 40
0.0
  9
$LIMCHECK
 70
         0
  9
$BLIPMODE
 70
         1
  9
$CHAMFERA
 40
0.0
  9
$CHAMFERB
 40
0.0
  9
$CHAMFERC
 40
0.0
  9
$CHAMFERD
 40
0.0
  9
$SKPOLY
 70
         0
  9
$TDCREATE
 40
0.000000000
  9
$TDUPDATE
 40
0.000000000
  9
$TDINDWG
 40
0.0000000000
  9
$TDUSRTIMER
 40
0.0000000000
  9
$USRTIMER
 70
         1
  9
$ANGBASE
 50
0.0
  9
$ANGDIR
 70
         0
  9
$PDMODE
 70
         2
  9
$PDSIZE
 40
0.0
  9
$PLINEWID
 40
0.0
  9
$COORDS
 70
         1
  9
$SPLFRAME
 70
         0
  9
$SPLINETYPE
 70
         6
  9
$SPLINESEGS
 70
         8
  9
$ATTDIA
 70
         0
  9
$ATTREQ
 70
         1
  9
$HANDLING
 70
         1
  9
$HANDSEED
  5
406
  9
$SURFTAB1
 70
         6
  9
$SURFTAB2
 70
         6
  9
$SURFTYPE
 70
         6
  9
$SURFU
 70
         6
  9
$SURFV
 70
         6
  9
$UCSNAME
  2

  9
$UCSORG
 10
0.0
 20
0.0
 30
0.0
  9
$UCSXDIR
 10
1.0
 20
0.0
 30
0.0
  9
$UCSYDIR
 10
0.0
 20
1.0
 30
0.0
  9
$PUCSNAME
  2

  9
$PUCSORG
 10
0.0
 20
0.0
 30
0.0
  9
$PUCSXDIR
 10
1.0
 20
0.0
 30
0.0
  9
$PUCSYDIR
 10
0.0
 20
1.0
 30
0.0
  9
$USERI1
 70
         0
  9
$USERI2
 70
         0
  9
$USERI3
 70
         0
  9
$USERI4
 70
         0
  9
$USERI5
 70
         0
  9
$USERR1
 40
0.0
  9
$USERR2
 40
0.0
  9
$USERR3
 40
0.0
  9
$USERR4
 40
0.0
  9
$USERR5
 40
0.0
  9
$WORLDVIEW
 70
         1
  9
$SHADEDGE
 70
         3
  9
$SHADEDIF
 70
        70
  9
$TILEMODE
 70
         1
  9
$MAXACTVP
 70
        16
  9
$PINSBASE
 10
0.0
 20
0.0
 30
0.0
  9
$PLIMCHECK
 70
         0
  9
$PEXTMIN
 10
1.0000000000E+20
 20
1.0000000000E+20
 30
1.0000000000E+20
  9
$PEXTMAX
 10
-1.0000000000E+20
 20
-1.0000000000E+20
 30
-1.0000000000E+20
  9
$PLIMMIN
 10
0.0
 20
0.0
  9
$PLIMMAX
 10
12.0
 20
9.0
  9
$UNITMODE
 70
         0
  9
$VISRETAIN
 70
         0
  9
$PLINEGEN
 70
         1
  9
$PSLTSCALE
 70
         0
  9
$TREEDEPTH
 70
      3020
  9
$PICKSTYLE
 70
         1
  9
$CMLSTYLE
  2
STANDARD
  9
$CMLJUST
 70
         0
  9
$CMLSCALE
 40
1.0
  9
$PROXYGRAPHICS
 70
         0
  9
$MEASUREMENT
 70
         0
  0
ENDSEC
  0
SECTION
  2
CLASSES
  0
CLASS
  1
LWPOLYLINE
  2
AcDbPolyline
  3
"AutoCAD"
 90
        0
280
         0
281
         1
  0
CLASS
  1
IMAGE
  2
AcDbRasterImage
  3
ISM
 90
      127
280
         0
281
         1
  0
CLASS
  1
OLE2FRAME
  2
AcDbOle2Frame
  3
""
 90
        0
280
         0
281
         1
  0
CLASS
  1
HATCH
  2
AcDbHatch
  3
"ACAD_SEDONA"
 90
        0
280
         0
281
         1
  0
CLASS
  1
DICTIONARYVAR
  2
AcDbDictionaryVar
  3
"AutoCAD"
 90
        0
280
         0
281
         0
  0
CLASS
  1
RASTERVARIABLES
  2
AcDbRasterVariables
  3
ISM
 90
        0
280
         0
281
         0
  0
CLASS
  1
IMAGEDEF
  2
AcDbRasterImageDef
  3
ISM
 90
        0
280
         0
281
         0
  0
CLASS
  1
IMAGEDEF_REACTOR
  2
AcDbRasterImageDefReactor
  3
ISM
 90
        1
280
         0
281
         0
  0
CLASS
  1
IDBUFFER
  2
AcDbIdBuffer
  3
"Acad"
 90
        0
280
         0
281
         0
  0
CLASS
  1
SPATIAL_FILTER
  2
AcDbSpatialFilter
  3
"Acad"
 90
        0
280
         0
281
         0
  0
CLASS
  1
XRECORD
  2
AcDbXrecord
  3
"<Built In>"
 90
        0
280
         0
281
         0
  0
CLASS
  1
SORTENTSTABLE
  2
AcDbSortentsTable
  3
"AutoCAD"
 90
        0
280
         0
281
         0
  0
CLASS
  1
LAYER_INDEX
  2
AcDbLayerIndex
  3
"Acad"
 90
        0
280
         0
281
         0
  0
CLASS
  1
SPATIAL_INDEX
  2
AcDbSpatialIndex
  3
"Acad"
 90
        0
280
         0
281
         0
  0
CLASS
  1
OBJECT_PTR
  2
CAseDLPNTableRecord
  3
"ASE-LPNTableRecord"
 90
        1
280
         0
281
         0
  0
CLASS
  1
LAYOUT
  2
AcDbLayout
  3
"AutoCAD 2000"
 90
        1
280
         0
281
         0
  0
CLASS
  1
PLOTSETTINGS
  2
AcDbPlotSettings
  3
"AutoCAD 2000"
 90
        1
280
         0
281
         0
  0
CLASS
  1
ACDBDICTIONARYWDFLT
  2
AcDbDictionaryWithDefault
  3
"AutoCAD 2000"
 90
        1
280
         0
281
         0
  0
CLASS
  1
ACDBPLACEHOLDER
  2
AcDbPlaceHolder
  3
"AutoCAD 2000"
 90
        1
280
         0
281
         0
  0
CLASS
  1
VBA_PROJECT
  2
AcDbVbaProject
  3
"acadvba"
 90
        1
280
         0
281
         0
  0
CLASS
  1
WIPEOUT
  2
AcDbWipeout
  3
WipeOut|AutoCAD Express Tool|expresstools@autodesk.com
 90
      127
280
         0
281
         1
  0
CLASS
  1
WIPEOUTVARIABLES
  2
AcDbWipeoutVariables
  3
WipeOut|AutoCAD Express Tool|expresstools@autodesk.com
 90
        0
280
         0
281
         0
  0
CLASS
  1
RTEXT
  2
RText
  3
RText|AutoCAD Express Tool|expresstools@autodesk.com
 90
        0
280
         0
281
         1
  0
CLASS
  1
ARCALIGNEDTEXT
  2
AcDbArcAlignedText
  3
ATEXT|AutoCAD Express Tool|expresstools@autodesk.com
 90
        0
280
         0
281
         1
  0
ENDSEC
  0
SECTION
  2
TABLES
  0
TABLE
  2
VPORT
  5
7
100
AcDbSymbolTable
 70
         1
  0
VPORT
  5
15
100
AcDbSymbolTableRecord
100
AcDbViewportTableRecord
  2
*ACTIVE
 70
         0
 10
0.0
 20
0.0
 11
1.0
 21
1.0
 12
1418.5320739926
 22
81.8874610341
 13
0.0
 23
0.0
 14
1.0
 24
1.0
 15
0.0
 25
0.0
 16
0.0
 26
0.0
 36
1.0
 17
0.0
 27
0.0
 37
0.0
 40
323.362638223
 41
1.9834619625
 42
50.0
 43
0.0
 44
0.0
 50
0.0
 51
0.0
 71
         0
 72
       100
 73
         1
 74
         1
 75
         0
 76
         0
 77
         0
 78
         0
  0
ENDTAB
  0
TABLE
  2
LTYPE
  5
4
100
AcDbSymbolTable
 70
         6
  0
LTYPE
  5
11
100
AcDbSymbolTableRecord
100
AcDbLinetypeTableRecord
  2
BYBLOCK
 70
        64
  3

 72
        65
 73
         0
 40
0.0
  0
LTYPE
  5
12
100
AcDbSymbolTableRecord
100
AcDbLinetypeTableRecord
  2
BYLAYER
 70
        64
  3

 72
        65
 73
         0
 40
0.0
  0
LTYPE
  5
13
100
AcDbSymbolTableRecord
100
AcDbLinetypeTableRecord
  2
CONTINUOUS
 70
        64
  3
Solid line
 72
        65
 73
         0
 40
0.0
  0
LTYPE
  5
1D
100
AcDbSymbolTableRecord
100
AcDbLinetypeTableRecord
  2
DASHED
 70
        64
  3
_ _ _ _ _ _ _ _ _ _ _ _ _ _ _ _
 72
        65
 73
         2
 40
0.2
 49
0.1
 74
         0
 49
-0.1
 74
         0
  0
LTYPE
  5
1E
100
AcDbSymbolTableRecord
100
AcDbLinetypeTableRecord
  2
CENTER
 70
        64
  3
___ _ ___ _ ___ _ ___ _ ___ _ ___ _ ___ _ ___ _
 72
        65
 73
         4
 40
0.95
 49
0.625
 74
         0
 49
-0.125
 74
         0
 49
0.075
 74
         0
 49
-0.125
 74
         0
  0
LTYPE
  5
1F
100
AcDbSymbolTableRecord
100
AcDbLinetypeTableRecord
  2
PHANTOM
 70
        64
  3
______  __  __  ______  __  __  ______  __  __  
 72
        65
 73
         6
 40
1.025
 49
0.625
 74
         0
 49
-0.125
 74
         0
 49
0.075
 74
         0
 49
-0.125
 74
         0
 49
0.075
 74
         0
 49
-0.125
 74
         0
  0
ENDTAB
  0
TABLE
  2
LAYER
  5
2
100
AcDbSymbolTable
 70
        11
  0
LAYER
  5
14
100
AcDbSymbolTableRecord
100
AcDbLayerTableRecord
  2
0
 70
         0
 62
         7
  6
CONTINUOUS
  0
LAYER
  5
21
100
AcDbSymbolTableRecord
100
AcDbLayerTableRecord
  2
_____U
 70
         1
 62
         7
  6
CONTINUOUS
  0
LAYER
  5
22
100
AcDbSymbolTableRecord
100
AcDbLayerTableRecord
  2
___T______
 70
         1
 62
         7
  6
CONTINUOUS
  0
LAYER
  5
23
100
AcDbSymbolTableRecord
100
AcDbLayerTableRecord
  2
_____T______
 70
         1
 62
         7
  6
CONTINUOUS
  0
LAYER
  5
24
100
AcDbSymbolTableRecord
100
AcDbLayerTableRecord
  2
______L_______
 70
         1
 62
         7
  6
CONTINUOUS
  0
LAYER
  5
25
100
AcDbSymbolTableRecord
100
AcDbLayerTableRecord
  2
_____M_____M____
 70
         1
 62
         7
  6
CONTINUOUS
  0
LAYER
  5
26
100
AcDbSymbolTableRecord
100
AcDbLayerTableRecord
  2
___L_W______
 70
         1
 62
         7
  6
CONTINUOUS
  0
LAYER
  5
27
100
AcDbSymbolTableRecord
100
AcDbLayerTableRecord
  2
_Y__________
 70
         0
 62
         7
  6
CONTINUOUS
  0
LAYER
  5
28
100
AcDbSymbolTableRecord
100
AcDbLayerTableRecord
  2
_X______
 70
         0
 62
         7
  6
CONTINUOUS
  0
LAYER
  5
29
100
AcDbSymbolTableRecord
100
AcDbLayerTableRecord
  2
L1_80
 70
         0
 62
         7
  6
CONTINUOUS
  0
LAYER
  5
97
100
AcDbSymbolTableRecord
100
AcDbLayerTableRecord
  2
DEFPOINTS
 70
         0
 62
        -7
  6
CONTINUOUS
  0
ENDTAB
  0
TABLE
  2
STYLE
  5
3
100
AcDbSymbolTable
 70
        12
  0
STYLE
  5
17
100
AcDbSymbolTableRecord
100
AcDbTextStyleTableRecord
  2
STANDARD
 70
         0
 40
0.0
 41
1.0
 50
0.0
 71
         0
 42
0.0
  3
txt
  4

  0
STYLE
  5
A0
100
AcDbSymbolTableRecord
100
AcDbTextStyleTableRecord
  2
BOX
 70
         0
 40
1.0
 41
1.0
 50
0.0
 71
         0
 42
0.2
  3
txt.shx
  4

  0
STYLE
  5
C4
100
AcDbSymbolTableRecord
100
AcDbTextStyleTableRecord
  2
BOX
 70
         0
 40
1.0
 41
1.0
 50
0.0
 71
         0
 42
0.2
  3
txt.shx
  4

  0
STYLE
  5
D7
100
AcDbSymbolTableRecord
100
AcDbTextStyleTableRecord
  2
BOX
 70
         0
 40
1.0
 41
1.0
 50
0.0
 71
         0
 42
0.2
  3
txt.shx
  4

  0
STYLE
  5
226
100
AcDbSymbolTableRecord
100
AcDbTextStyleTableRecord
  2
BOX
 70
         0
 40
1.0
 41
1.0
 50
0.0
 71
         0
 42
0.2
  3
txt.shx
  4

  0
STYLE
  5
244
100
AcDbSymbolTableRecord
100
AcDbTextStyleTableRecord
  2
BOX
 70
         0
 40
1.0
 41
1.0
 50
0.0
 71
         0
 42
0.2
  3
txt.shx
  4

  0
STYLE
  5
252
100
AcDbSymbolTableRecord
100
AcDbTextStyleTableRecord
  2
BOX
 70
         0
 40
1.0
 41
1.0
 50
0.0
 71
         0
 42
0.2
  3
txt.shx
  4

  0
STYLE
  5
263
100
AcDbSymbolTableRecord
100
AcDbTextStyleTableRecord
  2
BOX
 70
         0
 40
1.0
 41
1.0
 50
0.0
 71
         0
 42
0.2
  3
txt.shx
  4

  0
STYLE
  5
31C
100
AcDbSymbolTableRecord
100
AcDbTextStyleTableRecord
  2
BOX
 70
         0
 40
1.0
 41
1.0
 50
0.0
 71
         0
 42
0.2
  3
txt.shx
  4

  0
STYLE
  5
3A2
100
AcDbSymbolTableRecord
100
AcDbTextStyleTableRecord
  2
BOX
 70
         0
 40
1.0
 41
1.0
 50
0.0
 71
         0
 42
0.2
  3
txt.shx
  4

  0
STYLE
  5
401
100
AcDbSymbolTableRecord
100
AcDbTextStyleTableRecord
  2
BOX
 70
         0
 40
1.0
 41
1.0
 50
0.0
 71
         0
 42
0.2
  3
txt.shx
  4

  0
STYLE
  5
404
100
AcDbSymbolTableRecord
100
AcDbTextStyleTableRecord
  2
BOX
 70
         0
 40
1.0
 41
1.0
 50
0.0
 71
         0
 42
0.2
  3
txt.shx
  4

  0
ENDTAB
  0
TABLE
  2
VIEW
  5
5
100
AcDbSymbolTable
 70
         0
  0
ENDTAB
  0
TABLE
  2
UCS
  5
6
100
AcDbSymbolTable
 70
         1
  0
UCS
  5
20
100
AcDbSymbolTableRecord
100
AcDbUCSTableRecord
  2
CK_VIEW_1
 70
         0
 10
0.0
 20
0.0
 30
1.0
 11
1.0
 21
0.0
 31
0.0
 12
0.0
 22
1.0
 32
0.0
  0
ENDTAB
  0
TABLE
  2
APPID
  5
8
100
AcDbSymbolTable
 70
         1
  0
APPID
  5
16
100
AcDbSymbolTableRecord
100
AcDbRegAppTableRecord
  2
ACAD
 70
         0
  0
ENDTAB
  0
TABLE
  2
DIMSTYLE
  5
9
100
AcDbSymbolTable
 70
         2
  0
DIMSTYLE
105
18
100
AcDbSymbolTableRecord
100
AcDbDimStyleTableRecord
  2
STANDARD
 70
         0
  3

  4

  5

  6

  7

 40
1.0
 41
0.18
 42
0.0625
 43
0.38
 44
0.18
 45
0.0
 46
0.0
 47
0.0
 48
0.0
 71
         0
 72
         0
 73
         1
 74
         1
 75
         0
 76
         0
 77
         0
 78
         0
140
0.18
141
0.09
142
0.0
143
25.4
144
1.0
145
0.0
146
1.0
147
0.09
170
         0
171
         2
172
         0
173
         0
174
         0
175
         0
176
         0
177
         0
178
         0
270
         2
271
         4
272
         4
273
         2
274
         2
275
         0
280
         0
281
         0
282
         0
283
         1
284
         0
285
         0
286
         0
287
         0
288
         0
340
17
  0
DIMSTYLE
105
93
100
AcDbSymbolTableRecord
100
AcDbDimStyleTableRecord
  2
DIMSTYLE1
 70
         0
  3

  4

  5

  6

  7

 40
1.0
 41
2.7
 42
0.0625
 43
0.38
 44
2.7
 45
0.0
 46
0.0
 47
0.0
 48
0.0
 71
         0
 72
         0
 73
         1
 74
         1
 75
         0
 76
         0
 77
         0
 78
         0
140
2.7
141
0.09
142
0.0
143
25.4
144
1.0
145
0.0
146
1.0
147
0.09
170
         0
171
         2
172
         0
173
         0
174
         0
175
         0
176
         0
177
         0
178
         0
270
         2
271
         4
272
         4
273
         2
274
         2
275
         0
280
         0
281
         0
282
         0
283
         1
284
         0
285
         0
286
         0
287
         0
288
         0
340
17
  0
ENDTAB
  0
TABLE
  2
BLOCK_RECORD
  5
1
100
AcDbSymbolTable
 70
        19
  0
BLOCK_RECORD
  5
A
100
AcDbSymbolTableRecord
100
AcDbBlockTableRecord
  2
*MODEL_SPACE
  0
BLOCK_RECORD
  5
B
100
AcDbSymbolTableRecord
100
AcDbBlockTableRecord
  2
*PAPER_SPACE
  0
BLOCK_RECORD
  5
36
100
AcDbSymbolTableRecord
100
AcDbBlockTableRecord
  2
*X0
  0
BLOCK_RECORD
  5
94
100
AcDbSymbolTableRecord
100
AcDbBlockTableRecord
  2
*D1
  0
BLOCK_RECORD
  5
B9
100
AcDbSymbolTableRecord
100
AcDbBlockTableRecord
  2
*D2
  0
BLOCK_RECORD
  5
CA
100
AcDbSymbolTableRecord
100
AcDbBlockTableRecord
  2
*D3
  0
BLOCK_RECORD
  5
21B
100
AcDbSymbolTableRecord
100
AcDbBlockTableRecord
  2
*D4
  0
BLOCK_RECORD
  5
239
100
AcDbSymbolTableRecord
100
AcDbBlockTableRecord
  2
*D5
  0
BLOCK_RECORD
  5
247
100
AcDbSymbolTableRecord
100
AcDbBlockTableRecord
  2
*D6
  0
BLOCK_RECORD
  5
258
100
AcDbSymbolTableRecord
100
AcDbBlockTableRecord
  2
*D7
  0
BLOCK_RECORD
  5
311
100
AcDbSymbolTableRecord
100
AcDbBlockTableRecord
  2
*D8
  0
BLOCK_RECORD
  5
36E
100
AcDbSymbolTableRecord
100
AcDbBlockTableRecord
  2
*X9
  0
BLOCK_RECORD
  5
37A
100
AcDbSymbolTableRecord
100
AcDbBlockTableRecord
  2
*X10
  0
BLOCK_RECORD
  5
381
100
AcDbSymbolTableRecord
100
AcDbBlockTableRecord
  2
*X11
  0
BLOCK_RECORD
  5
389
100
AcDbSymbolTableRecord
100
AcDbBlockTableRecord
  2
*X12
  0
BLOCK_RECORD
  5
397
100
AcDbSymbolTableRecord
100
AcDbBlockTableRecord
  2
*D13
  0
BLOCK_RECORD
  5
3CD
100
AcDbSymbolTableRecord
100
AcDbBlockTableRecord
  2
*X14
  0
BLOCK_RECORD
  5
3D9
100
AcDbSymbolTableRecord
100
AcDbBlockTableRecord
  2
*X15
  0
BLOCK_RECORD
  5
3E0
100
AcDbSymbolTableRecord
100
AcDbBlockTableRecord
  2
*X16
  0
BLOCK_RECORD
  5
3E8
100
AcDbSymbolTableRecord
100
AcDbBlockTableRecord
  2
*X17
  0
BLOCK_RECORD
  5
3F6
100
AcDbSymbolTableRecord
100
AcDbBlockTableRecord
  2
*D18
  0
ENDTAB
  0
ENDSEC
  0
SECTION
  2
BLOCKS
  0
BLOCK
  5
D
100
AcDbEntity
  8
0
100
AcDbBlockBegin
  2
*MODEL_SPACE
 70
         0
 10
0.0
 20
0.0
 30
0.0
  3
*MODEL_SPACE
  1

  0
ENDBLK
  5
E
100
AcDbEntity
  8
0
100
AcDbBlockEnd
  0
BLOCK
  5
F
100
AcDbEntity
 67
         1
  8
0
100
AcDbBlockBegin
  2
*PAPER_SPACE
 70
         0
 10
0.0
 20
0.0
 30
0.0
  3
*PAPER_SPACE
  1

  0
ENDBLK
  5
10
100
AcDbEntity
 67
         1
  8
0
100
AcDbBlockEnd
  0
BLOCK
  5
37
100
AcDbEntity
  8
0
100
AcDbBlockBegin
  2
*X0
 70
        65
 10
0.0
 20
0.0
 30
0.0
  3
*X0
  1

  0
LINE
  5
38
100
AcDbEntity
  8
L1_80
  6
CONTINUOUS
 62
         4
100
AcDbLine
 10
1465.6491253681
 20
-32.836206037
 30
0.0
 11
1466.8962116726
 21
-31.5891197325
 31
0.0
  0
LINE
  5
39
100
AcDbEntity
  8
L1_80
  6
CONTINUOUS
 62
         4
100
AcDbLine
 10
1461.2993559772
 20
-32.9433347407
 30
0.0
 11
1465.5093260041
 21
-28.7333647138
 31
0.0
  0
LINE
  5
3A
100
AcDbEntity
  8
L1_80
  6
CONTINUOUS
 62
         4
100
AcDbLine
 10
1457.0567152901
 20
-32.9433347407
 30
0.0
 11
1461.7894761241
 21
-28.2105739067
 31
0.0
  0
LINE
  5
3B
100
AcDbEntity
  8
L1_80
  6
CONTINUOUS
 62
         4
100
AcDbLine
 10
1452.814074603
 20
-32.9433347407
 30
0.0
 11
1458.0696262441
 21
-27.6877830996
 31
0.0
  0
LINE
  5
3C
100
AcDbEntity
  8
L1_80
  6
CONTINUOUS
 62
         4
100
AcDbLine
 10
1446.2864339159
 20
-35.2283347407
 30
0.0
 11
1454.3497763641
 21
-27.1649922924
 31
0.0
  0
LINE
  5
3D
100
AcDbEntity
  8
L1_80
  6
CONTINUOUS
 62
         4
100
AcDbLine
 10
1442.0437932288
 20
-35.2283347407
 30
0.0
 11
1450.6299264841
 21
-26.6422014853
 31
0.0
  0
LINE
  5
3E
100
AcDbEntity
  8
L1_80
  6
CONTINUOUS
 62
         4
100
AcDbLine
 10
1437.8011525416
 20
-35.2283347407
 30
0.0
 11
1446.9100766041
 21
-26.1194106782
 31
0.0
  0
LINE
  5
3F
100
AcDbEntity
  8
L1_80
  6
CONTINUOUS
 62
         4
100
AcDbLine
 10
1433.5585118545
 20
-35.2283347407
 30
0.0
 11
1443.1902267241
 21
-25.5966198711
 31
0.0
  0
LINE
  5
40
100
AcDbEntity
  8
L1_80
  6
CONTINUOUS
 62
         4
100
AcDbLine
 10
1429.3158711674
 20
-35.2283347407
 30
0.0
 11
1439.470376844
 21
-25.073829064
 31
0.0
  0
LINE
  5
41
100
AcDbEntity
  8
L1_80
  6
CONTINUOUS
 62
         4
100
AcDbLine
 10
1415.5832304801
 20
-44.7183347409
 30
0.0
 11
1419.1033403763
 21
-41.1982248447
 31
0.0
  0
LINE
  5
42
100
AcDbEntity
  8
L1_80
  6
CONTINUOUS
 62
         4
100
AcDbLine
 10
1425.0732304803
 20
-35.2283347407
 30
0.0
 11
1435.3082304803
 21
-24.9933347407
 31
0.0
  0
LINE
  5
43
100
AcDbEntity
  8
L1_80
  6
CONTINUOUS
 62
         4
100
AcDbLine
 10
1462.7621733224
 20
2.4606081015
 30
0.0
 11
1466.5838225816
 21
6.2822573606
 31
0.0
  0
LINE
  5
44
100
AcDbEntity
  8
L1_80
  6
CONTINUOUS
 62
         4
100
AcDbLine
 10
1413.4320852881
 20
-42.6268392458
 30
0.0
 11
1419.1033403763
 21
-36.9555841576
 31
0.0
  0
LINE
  5
45
100
AcDbEntity
  8
L1_80
  6
CONTINUOUS
 62
         4
100
AcDbLine
 10
1420.8305897932
 20
-35.2283347407
 30
0.0
 11
1431.0655897932
 21
-24.9933347407
 31
0.0
  0
LINE
  5
46
100
AcDbEntity
  8
L1_80
  6
CONTINUOUS
 62
         4
100
AcDbLine
 10
1457.8257658019
 20
1.7668412681
 30
0.0
 11
1463.1155897932
 21
7.0566652593
 31
0.0
  0
LINE
  5
47
100
AcDbEntity
  8
L1_80
  6
CONTINUOUS
 62
         4
100
AcDbLine
 10
1407.0979491059
 20
-44.7183347409
 30
0.0
 11
1408.2079010053
 21
-43.6083828414
 31
0.0
  0
LINE
  5
48
100
AcDbEntity
  8
L1_80
  6
CONTINUOUS
 62
         4
100
AcDbLine
 10
1410.747949106
 20
-41.0683347407
 30
0.0
 11
1427.0033403763
 21
-24.8129434705
 31
0.0
  0
LINE
  5
49
100
AcDbEntity
  8
L1_80
  6
CONTINUOUS
 62
         4
100
AcDbLine
 10
1452.8893582815
 20
1.0730744348
 30
0.0
 11
1458.872949106
 21
7.0566652593
 31
0.0
  0
LINE
  5
4A
100
AcDbEntity
  8
L1_80
  6
CONTINUOUS
 62
         4
100
AcDbLine
 10
1403.3439643177
 20
-44.2296788419
 30
0.0
 11
1423.3203084189
 21
-24.2533347407
 31
0.0
  0
LINE
  5
4B
100
AcDbEntity
  8
L1_80
  6
CONTINUOUS
 62
         4
100
AcDbLine
 10
1447.952950761
 20
0.3793076014
 30
0.0
 11
1454.6303084189
 21
7.0566652593
 31
0.0
  0
LINE
  5
4C
100
AcDbEntity
  8
L1_80
  6
CONTINUOUS
 62
         4
100
AcDbLine
 10
1403.2033403763
 20
-40.1276620962
 30
0.0
 11
1419.0776677318
 21
-24.2533347407
 31
0.0
  0
LINE
  5
4D
100
AcDbEntity
  8
L1_80
  6
CONTINUOUS
 62
         4
100
AcDbLine
 10
1443.0165432405
 20
-0.314459232
 30
0.0
 11
1450.3876677318
 21
7.0566652593
 31
0.0
  0
LINE
  5
4E
100
AcDbEntity
  8
L1_80
  6
CONTINUOUS
 62
         4
100
AcDbLine
 10
1403.2033403763
 20
-35.8850214091
 30
0.0
 11
1414.8350270447
 21
-24.2533347407
 31
0.0
  0
LINE
  5
4F
100
AcDbEntity
  8
L1_80
  6
CONTINUOUS
 62
         4
100
AcDbLine
 10
1438.1950270447
 20
-0.8933347407
 30
0.0
 11
1447.9672131977
 21
8.8788514123
 31
0.0
  0
LINE
  5
50
100
AcDbEntity
  8
L1_80
  6
CONTINUOUS
 62
         4
100
AcDbLine
 10
1399.7188714145
 20
-35.1268496837
 30
0.0
 11
1410.5923863576
 21
-24.2533347407
 31
0.0
  0
LINE
  5
51
100
AcDbEntity
  8
L1_80
  6
CONTINUOUS
 62
         4
100
AcDbLine
 10
1434.1325052026
 20
-0.7132158956
 30
0.0
 11
1444.1873863576
 21
9.3416652593
 31
0.0
  0
LINE
  5
52
100
AcDbEntity
  8
L1_80
  6
CONTINUOUS
 62
         4
100
AcDbLine
 10
1396.0162031785
 20
-34.5868772327
 30
0.0
 11
1406.3497456704
 21
-24.2533347407
 31
0.0
  0
LINE
  5
53
100
AcDbEntity
  8
L1_80
  6
CONTINUOUS
 62
         4
100
AcDbLine
 10
1431.3626321448
 20
0.7595517337
 30
0.0
 11
1439.9447456704
 21
9.3416652593
 31
0.0
  0
LINE
  5
54
100
AcDbEntity
  8
L1_80
  6
CONTINUOUS
 62
         4
100
AcDbLine
 10
1392.3135349424
 20
-34.0469047816
 30
0.0
 11
1402.1071049833
 21
-24.2533347407
 31
0.0
  0
LINE
  5
55
100
AcDbEntity
  8
L1_80
  6
CONTINUOUS
 62
         4
100
AcDbLine
 10
1424.7271049833
 20
-1.6333347407
 30
0.0
 11
1426.1526871713
 21
-0.2077525527
 31
0.0
  0
LINE
  5
56
100
AcDbEntity
  8
L1_80
  6
CONTINUOUS
 62
         4
100
AcDbLine
 10
1428.5927590871
 20
2.2323193631
 30
0.0
 11
1435.7021049833
 21
9.3416652593
 31
0.0
  0
LINE
  5
57
100
AcDbEntity
  8
L1_80
  6
CONTINUOUS
 62
         4
100
AcDbLine
 10
1388.6108667064
 20
-33.5069323305
 30
0.0
 11
1397.8644642962
 21
-24.2533347407
 31
0.0
  0
LINE
  5
58
100
AcDbEntity
  8
L1_80
  6
CONTINUOUS
 62
         4
100
AcDbLine
 10
1420.4844642962
 20
-1.6333347407
 30
0.0
 11
1423.3828141135
 21
1.2650150766
 31
0.0
  0
LINE
  5
59
100
AcDbEntity
  8
L1_80
  6
CONTINUOUS
 62
         4
100
AcDbLine
 10
1425.8228860293
 20
3.7050869924
 30
0.0
 11
1431.4594642962
 21
9.3416652593
 31
0.0
  0
LINE
  5
5A
100
AcDbEntity
  8
L1_80
  6
CONTINUOUS
 62
         4
100
AcDbLine
 10
1384.9081984704
 20
-32.9669598794
 30
0.0
 11
1393.6218236091
 21
-24.2533347407
 31
0.0
  0
LINE
  5
5B
100
AcDbEntity
  8
L1_80
  6
CONTINUOUS
 62
         4
100
AcDbLine
 10
1416.2418236091
 20
-1.6333347407
 30
0.0
 11
1420.6129410557
 21
2.737782706
 31
0.0
  0
LINE
  5
5C
100
AcDbEntity
  8
L1_80
  6
CONTINUOUS
 62
         4
100
AcDbLine
 10
1423.0530129715
 20
5.1778546217
 30
0.0
 11
1427.2168236091
 21
9.3416652593
 31
0.0
  0
LINE
  5
5D
100
AcDbEntity
  8
L1_80
  6
CONTINUOUS
 62
         4
100
AcDbLine
 10
1381.2055302343
 20
-32.4269874283
 30
0.0
 11
1389.379182922
 21
-24.2533347407
 31
0.0
  0
LINE
  5
5E
100
AcDbEntity
  8
L1_80
  6
CONTINUOUS
 62
         4
100
AcDbLine
 10
1411.999182922
 20
-1.6333347407
 30
0.0
 11
1417.8430679979
 21
4.2105503353
 31
0.0
  0
LINE
  5
5F
100
AcDbEntity
  8
L1_80
  6
CONTINUOUS
 62
         4
100
AcDbLine
 10
1420.2831399137
 20
6.650622251
 30
0.0
 11
1422.974182922
 21
9.3416652593
 31
0.0
  0
LINE
  5
60
100
AcDbEntity
  8
L1_80
  6
CONTINUOUS
 62
         4
100
AcDbLine
 10
1377.5028619983
 20
-31.8870149772
 30
0.0
 11
1385.1365422348
 21
-24.2533347407
 31
0.0
  0
LINE
  5
61
100
AcDbEntity
  8
L1_80
  6
CONTINUOUS
 62
         4
100
AcDbLine
 10
1407.7565422348
 20
-1.6333347407
 30
0.0
 11
1415.0731949402
 21
5.6833179646
 31
0.0
  0
LINE
  5
62
100
AcDbEntity
  8
L1_80
  6
CONTINUOUS
 62
         4
100
AcDbLine
 10
1417.5132668559
 20
8.1233898804
 30
0.0
 11
1419.1167063134
 21
9.7268293379
 31
0.0
  0
LINE
  5
63
100
AcDbEntity
  8
L1_80
  6
CONTINUOUS
 62
         4
100
AcDbLine
 10
1373.8001937623
 20
-31.3470425261
 30
0.0
 11
1380.8939015477
 21
-24.2533347407
 31
0.0
  0
LINE
  5
64
100
AcDbEntity
  8
L1_80
  6
CONTINUOUS
 62
         4
100
AcDbLine
 10
1403.5139015477
 20
-1.6333347407
 30
0.0
 11
1412.3033218824
 21
7.156085594
 31
0.0
  0
LINE
  5
65
100
AcDbEntity
  8
L1_80
  6
CONTINUOUS
 62
         4
100
AcDbLine
 10
1414.7433937981
 20
9.5961575097
 30
0.0
 11
1419.1033403763
 21
13.9561040878
 31
0.0
  0
LINE
  5
66
100
AcDbEntity
  8
L1_80
  6
CONTINUOUS
 62
         4
100
AcDbLine
 10
1370.0975255262
 20
-30.807070075
 30
0.0
 11
1376.6512608606
 21
-24.2533347407
 31
0.0
  0
LINE
  5
67
100
AcDbEntity
  8
L1_80
  6
CONTINUOUS
 62
         4
100
AcDbLine
 10
1399.2712608606
 20
-1.6333347407
 30
0.0
 11
1409.5334488246
 21
8.6288532233
 31
0.0
  0
LINE
  5
68
100
AcDbEntity
  8
L1_80
  6
CONTINUOUS
 62
         4
100
AcDbLine
 10
1411.9735207403
 20
11.068925139
 30
0.0
 11
1419.052139859
 21
18.1475442577
 31
0.0
  0
LINE
  5
69
100
AcDbEntity
  8
L1_80
  6
CONTINUOUS
 62
         4
100
AcDbLine
 10
1366.3948572902
 20
-30.267097624
 30
0.0
 11
1372.4086201735
 21
-24.2533347407
 31
0.0
  0
LINE
  5
6A
100
AcDbEntity
  8
L1_80
  6
CONTINUOUS
 62
         4
100
AcDbLine
 10
1395.0286201735
 20
-1.6333347407
 30
0.0
 11
1406.7635757668
 21
10.1016208526
 31
0.0
  0
LINE
  5
6B
100
AcDbEntity
  8
L1_80
  6
CONTINUOUS
 62
         4
100
AcDbLine
 10
1409.2036476825
 20
12.5416927684
 30
0.0
 11
1411.8436201737
 21
15.1816652595
 31
0.0
  0
LINE
  5
6C
100
AcDbEntity
  8
L1_80
  6
CONTINUOUS
 62
         4
100
AcDbLine
 10
1413.4730122414
 20
16.8110573273
 30
0.0
 11
1415.4936201737
 21
18.8316652595
 31
0.0
  0
LINE
  5
6D
100
AcDbEntity
  8
L1_80
  6
CONTINUOUS
 62
         4
100
AcDbLine
 10
1362.6921890542
 20
-29.7271251729
 30
0.0
 11
1368.1659794864
 21
-24.2533347407
 31
0.0
  0
LINE
  5
6E
100
AcDbEntity
  8
L1_80
  6
CONTINUOUS
 62
         4
100
AcDbLine
 10
1390.7859794864
 20
-1.6333347407
 30
0.0
 11
1401.733834117
 21
9.3145198899
 31
0.0
  0
LINE
  5
6F
100
AcDbEntity
  8
L1_80
  6
CONTINUOUS
 62
         4
100
AcDbLine
 10
1403.2033403763
 20
10.7840261492
 30
0.0
 11
1403.993702709
 21
11.574388482
 31
0.0
  0
LINE
  5
70
100
AcDbEntity
  8
L1_80
  6
CONTINUOUS
 62
         4
100
AcDbLine
 10
1406.4337746247
 20
14.0144603977
 30
0.0
 11
1408.915474443
 21
16.4961602159
 31
0.0
  0
LINE
  5
71
100
AcDbEntity
  8
L1_80
  6
CONTINUOUS
 62
         4
100
AcDbLine
 10
1358.9895208181
 20
-29.1871527218
 30
0.0
 11
1365.8759815554
 21
-22.3006919846
 31
0.0
  0
LINE
  5
72
100
AcDbEntity
  8
L1_80
  6
CONTINUOUS
 62
         4
100
AcDbLine
 10
1386.5433387993
 20
-1.6333347407
 30
0.0
 11
1397.0238263349
 21
8.847152795
 31
0.0
  0
LINE
  5
73
100
AcDbEntity
  8
L1_80
  6
CONTINUOUS
 62
         4
100
AcDbLine
 10
1403.9596678598
 20
15.7829943199
 30
0.0
 11
1407.0083387994
 21
18.8316652595
 31
0.0
  0
LINE
  5
74
100
AcDbEntity
  8
L1_80
  6
CONTINUOUS
 62
         4
100
AcDbLine
 10
1355.2868525821
 20
-28.6471802707
 30
0.0
 11
1363.9906981121
 21
-19.9433347407
 31
0.0
  0
LINE
  5
75
100
AcDbEntity
  8
L1_80
  6
CONTINUOUS
 62
         4
100
AcDbLine
 10
1382.3006981121
 20
-1.6333347407
 30
0.0
 11
1392.0568323597
 21
8.1227995069
 31
0.0
  0
LINE
  5
76
100
AcDbEntity
  8
L1_80
  6
CONTINUOUS
 62
         4
100
AcDbLine
 10
1351.5841843461
 20
-28.1072078196
 30
0.0
 11
1359.748057425
 21
-19.9433347407
 31
0.0
  0
LINE
  5
77
100
AcDbEntity
  8
L1_80
  6
CONTINUOUS
 62
         4
100
AcDbLine
 10
1378.058057425
 20
-1.6333347407
 30
0.0
 11
1387.0898383846
 21
7.3984462189
 31
0.0
  0
LINE
  5
78
100
AcDbEntity
  8
L1_80
  6
CONTINUOUS
 62
         4
100
AcDbLine
 10
1347.8815161101
 20
-27.5672353685
 30
0.0
 11
1355.5054167379
 21
-19.9433347407
 31
0.0
  0
LINE
  5
79
100
AcDbEntity
  8
L1_80
  6
CONTINUOUS
 62
         4
100
AcDbLine
 10
1373.8154167379
 20
-1.6333347407
 30
0.0
 11
1382.1228444094
 21
6.6740929308
 31
0.0
  0
LINE
  5
7A
100
AcDbEntity
  8
L1_80
  6
CONTINUOUS
 62
         4
100
AcDbLine
 10
1344.178847874
 20
-27.0272629174
 30
0.0
 11
1351.2627760508
 21
-19.9433347407
 31
0.0
  0
LINE
  5
7B
100
AcDbEntity
  8
L1_80
  6
CONTINUOUS
 62
         4
100
AcDbLine
 10
1369.5727760508
 20
-1.6333347407
 30
0.0
 11
1377.1558504342
 21
5.9497396428
 31
0.0
  0
LINE
  5
7C
100
AcDbEntity
  8
L1_80
  6
CONTINUOUS
 62
         4
100
AcDbLine
 10
1340.476179638
 20
-26.4872904663
 30
0.0
 11
1347.0201353637
 21
-19.9433347407
 31
0.0
  0
LINE
  5
7D
100
AcDbEntity
  8
L1_80
  6
CONTINUOUS
 62
         4
100
AcDbLine
 10
1361.0201353637
 20
-5.9433347407
 30
0.0
 11
1372.1888564591
 21
5.2253863547
 31
0.0
  0
LINE
  5
7E
100
AcDbEntity
  8
L1_80
  6
CONTINUOUS
 62
         4
100
AcDbLine
 10
1336.773511402
 20
-25.9473180153
 30
0.0
 11
1342.7774946765
 21
-19.9433347407
 31
0.0
  0
LINE
  5
7F
100
AcDbEntity
  8
L1_80
  6
CONTINUOUS
 62
         4
100
AcDbLine
 10
1356.7774946765
 20
-5.9433347407
 30
0.0
 11
1367.2218624839
 21
4.5010330667
 31
0.0
  0
LINE
  5
80
100
AcDbEntity
  8
L1_80
  6
CONTINUOUS
 62
         4
100
AcDbLine
 10
1333.0708431659
 20
-25.4073455642
 30
0.0
 11
1338.5348539894
 21
-19.9433347407
 31
0.0
  0
LINE
  5
81
100
AcDbEntity
  8
L1_80
  6
CONTINUOUS
 62
         4
100
AcDbLine
 10
1352.5348539894
 20
-5.9433347407
 30
0.0
 11
1362.2548685087
 21
3.7766797786
 31
0.0
  0
LINE
  5
82
100
AcDbEntity
  8
L1_80
  6
CONTINUOUS
 62
         4
100
AcDbLine
 10
1331.7533403763
 20
-22.4822076667
 30
0.0
 11
1333.1422133023
 21
-21.0933347407
 31
0.0
  0
LINE
  5
83
100
AcDbEntity
  8
L1_80
  6
CONTINUOUS
 62
         4
100
AcDbLine
 10
1348.2922133023
 20
-5.9433347407
 30
0.0
 11
1357.2878745336
 21
3.0523264906
 31
0.0
  0
LINE
  5
84
100
AcDbEntity
  8
L1_80
  6
CONTINUOUS
 62
         4
100
AcDbLine
 10
1344.0495726152
 20
-5.9433347407
 30
0.0
 11
1352.3208805584
 21
2.3279732026
 31
0.0
  0
LINE
  5
85
100
AcDbEntity
  8
L1_80
  6
CONTINUOUS
 62
         4
100
AcDbLine
 10
1339.8069319281
 20
-5.9433347407
 30
0.0
 11
1347.3538865832
 21
1.6036199145
 31
0.0
  0
LINE
  5
86
100
AcDbEntity
  8
L1_80
  6
CONTINUOUS
 62
         4
100
AcDbLine
 10
1336.6102371648
 20
-4.8973888168
 30
0.0
 11
1342.3868926081
 21
0.8792666265
 31
0.0
  0
LINE
  5
87
100
AcDbEntity
  8
L1_80
  6
CONTINUOUS
 62
         4
100
AcDbLine
 10
1332.5033915148
 20
-4.7615937797
 30
0.0
 11
1337.4198986329
 21
0.1549133384
 31
0.0
  0
LINE
  5
88
100
AcDbEntity
  8
L1_80
  6
CONTINUOUS
 62
         4
100
AcDbLine
 10
1331.9153715463
 20
-1.1069730611
 30
0.0
 11
1332.3511604131
 21
-0.6711841943
 31
0.0
  0
ENDBLK
  5
89
100
AcDbEntity
  8
0
  6
CONTINUOUS
100
AcDbBlockEnd
  0
BLOCK
  5
95
100
AcDbEntity
  8
0
100
AcDbBlockBegin
  2
*D1
 70
        65
 10
0.0
 20
0.0
 30
0.0
  3
*D1
  1

  0
POINT
  5
98
100
AcDbEntity
  8
DEFPOINTS
  6
CONTINUOUS
 62
         0
100
AcDbPoint
 10
1633.1679071681
 20
76.7058471747
 30
0.0
  0
POINT
  5
99
100
AcDbEntity
  8
DEFPOINTS
  6
CONTINUOUS
 62
         0
100
AcDbPoint
 10
1609.2610983789
 20
76.7058471747
 30
0.0
  0
POINT
  5
9A
100
AcDbEntity
  8
DEFPOINTS
  6
CONTINUOUS
 62
         0
100
AcDbPoint
 10
1609.2610983789
 20
52.8958471747
 30
0.0
  0
LINE
  5
9B
100
AcDbEntity
  8
L1_80
  6
CONTINUOUS
 62
         4
100
AcDbLine
 10
1610.6110983789
 20
76.7058471747
 30
0.0
 11
1633.8429071681
 21
76.7058471747
 31
0.0
  0
LINE
  5
9C
100
AcDbEntity
  8
L1_80
  6
CONTINUOUS
 62
         4
100
AcDbLine
 10
1610.6110983789
 20
52.8958471747
 30
0.0
 11
1633.8429071681
 21
52.8958471747
 31
0.0
  0
LINE
  5
9D
100
AcDbEntity
  8
L1_80
  6
CONTINUOUS
 62
         4
100
AcDbLine
 10
1633.1679071681
 20
76.7058471747
 30
0.0
 11
1633.1679071681
 21
52.8958471747
 31
0.0
  0
SOLID
  5
9E
100
AcDbEntity
  8
L1_80
  6
CONTINUOUS
 62
         4
100
AcDbTrace
 10
1633.1679071681
 20
76.7058471747
 30
0.0
 11
1633.5729071681
 21
74.0058471747
 31
0.0
 12
1632.7629071681
 22
74.0058471747
 32
0.0
 13
1633.1679071681
 23
76.7058471747
 33
0.0
  0
SOLID
  5
9F
100
AcDbEntity
  8
L1_80
  6
CONTINUOUS
 62
         4
100
AcDbTrace
 10
1633.1679071681
 20
52.8958471747
 30
0.0
 11
1632.7629071681
 21
55.5958471747
 31
0.0
 12
1633.5729071681
 22
55.5958471747
 32
0.0
 13
1633.1679071681
 23
52.8958471747
 33
0.0
  0
TEXT
  5
A1
100
AcDbEntity
  8
L1_80
  6
CONTINUOUS
 62
         4
100
AcDbText
 10
1631.1429071681
 20
52.5436126103
 30
0.0
 40
2.7
  1
15/16"-16UN
 50
90.0
  7
BOX
100
AcDbText
  0
ENDBLK
  5
A2
100
AcDbEntity
  8
0
  6
CONTINUOUS
100
AcDbBlockEnd
  0
BLOCK
  5
BA
100
AcDbEntity
  8
0
100
AcDbBlockBegin
  2
*D2
 70
        65
 10
0.0
 20
0.0
 30
0.0
  3
*D2
  1

  0
POINT
  5
BC
100
AcDbEntity
  8
DEFPOINTS
  6
CONTINUOUS
 62
         0
100
AcDbPoint
 10
1599.7360983789
 20
84.26855781
 30
0.0
  0
POINT
  5
BD
100
AcDbEntity
  8
DEFPOINTS
  6
CONTINUOUS
 62
         0
100
AcDbPoint
 10
1599.7360983789
 20
73.3808471747
 30
0.0
  0
POINT
  5
BE
100
AcDbEntity
  8
DEFPOINTS
  6
CONTINUOUS
 62
         0
100
AcDbPoint
 10
1612.7360983789
 20
73.3808471747
 30
0.0
  0
LINE
  5
BF
100
AcDbEntity
  8
L1_80
  6
CONTINUOUS
 62
         4
100
AcDbLine
 10
1599.7360983789
 20
74.7308471747
 30
0.0
 11
1599.7360983789
 21
84.94355781
 31
0.0
  0
LINE
  5
C0
100
AcDbEntity
  8
L1_80
  6
CONTINUOUS
 62
         4
100
AcDbLine
 10
1612.7360983789
 20
74.7308471747
 30
0.0
 11
1612.7360983789
 21
84.94355781
 31
0.0
  0
LINE
  5
C1
100
AcDbEntity
  8
L1_80
  6
CONTINUOUS
 62
         4
100
AcDbLine
 10
1599.7360983789
 20
84.26855781
 30
0.0
 11
1612.7360983789
 21
84.26855781
 31
0.0
  0
SOLID
  5
C2
100
AcDbEntity
  8
L1_80
  6
CONTINUOUS
 62
         4
100
AcDbTrace
 10
1599.7360983789
 20
84.26855781
 30
0.0
 11
1602.4360983789
 21
84.67355781
 31
0.0
 12
1602.4360983789
 22
83.86355781
 32
0.0
 13
1599.7360983789
 23
84.26855781
 33
0.0
  0
SOLID
  5
C3
100
AcDbEntity
  8
L1_80
  6
CONTINUOUS
 62
         4
100
AcDbTrace
 10
1612.7360983789
 20
84.26855781
 30
0.0
 11
1610.0360983789
 21
83.86355781
 31
0.0
 12
1610.0360983789
 22
84.67355781
 32
0.0
 13
1612.7360983789
 23
84.26855781
 33
0.0
  0
TEXT
  5
C5
100
AcDbEntity
  8
L1_80
  6
CONTINUOUS
 62
         4
100
AcDbText
 10
1603.6354909931
 20
86.29355781
 30
0.0
 40
2.7
  1
13
  7
BOX
100
AcDbText
  0
ENDBLK
  5
C6
100
AcDbEntity
  8
0
  6
CONTINUOUS
100
AcDbBlockEnd
  0
BLOCK
  5
CB
100
AcDbEntity
  8
0
100
AcDbBlockBegin
  2
*D3
 70
        65
 10
0.0
 20
0.0
 30
0.0
  3
*D3
  1

  0
POINT
  5
CD
100
AcDbEntity
  8
DEFPOINTS
  6
CONTINUOUS
 62
         0
100
AcDbPoint
 10
1583.340112702
 20
83.1082745237
 30
0.0
  0
POINT
  5
CE
100
AcDbEntity
  8
DEFPOINTS
  6
CONTINUOUS
 62
         0
100
AcDbPoint
 10
1583.340112702
 20
74.381967134
 30
0.0
  0
POINT
  5
CF
100
AcDbEntity
  8
DEFPOINTS
  6
CONTINUOUS
 62
         0
100
AcDbPoint
 10
1581.340112702
 20
74.381967134
 30
0.0
  0
LINE
  5
D0
100
AcDbEntity
  8
L1_80
  6
CONTINUOUS
 62
         4
100
AcDbLine
 10
1583.340112702
 20
75.731967134
 30
0.0
 11
1583.340112702
 21
83.7832745237
 31
0.0
  0
LINE
  5
D1
100
AcDbEntity
  8
L1_80
  6
CONTINUOUS
 62
         4
100
AcDbLine
 10
1581.340112702
 20
75.731967134
 30
0.0
 11
1581.340112702
 21
83.7832745237
 31
0.0
  0
LINE
  5
D2
100
AcDbEntity
  8
L1_80
  6
CONTINUOUS
 62
         4
100
AcDbLine
 10
1583.340112702
 20
83.1082745237
 30
0.0
 11
1588.740112702
 21
83.1082745237
 31
0.0
  0
SOLID
  5
D3
100
AcDbEntity
  8
L1_80
  6
CONTINUOUS
 62
         4
100
AcDbTrace
 10
1583.340112702
 20
83.1082745237
 30
0.0
 11
1586.040112702
 21
83.5132745237
 31
0.0
 12
1586.040112702
 22
82.7032745237
 32
0.0
 13
1583.340112702
 23
83.1082745237
 33
0.0
  0
LINE
  5
D4
100
AcDbEntity
  8
L1_80
  6
CONTINUOUS
 62
         4
100
AcDbLine
 10
1581.340112702
 20
83.1082745237
 30
0.0
 11
1578.29099804
 21
83.1082745237
 31
0.0
  0
SOLID
  5
D5
100
AcDbEntity
  8
L1_80
  6
CONTINUOUS
 62
         4
100
AcDbTrace
 10
1581.340112702
 20
83.1082745237
 30
0.0
 11
1578.640112702
 21
82.7032745237
 31
0.0
 12
1578.640112702
 22
83.5132745237
 32
0.0
 13
1581.340112702
 23
83.1082745237
 33
0.0
  0
LINE
  5
D6
100
AcDbEntity
  8
L1_80
  6
CONTINUOUS
 62
         4
100
AcDbLine
 10
1583.340112702
 20
83.1082745237
 30
0.0
 11
1581.340112702
 21
83.1082745237
 31
0.0
  0
TEXT
  5
D8
100
AcDbEntity
  8
L1_80
  6
CONTINUOUS
 62
         4
100
AcDbText
 10
1579.64099804
 20
85.1332745237
 30
0.0
 40
2.7
  1
2
  7
BOX
100
AcDbText
  0
ENDBLK
  5
D9
100
AcDbEntity
  8
0
  6
CONTINUOUS
100
AcDbBlockEnd
  0
BLOCK
  5
21C
100
AcDbEntity
  8
0
100
AcDbBlockBegin
  2
*D4
 70
        65
 10
0.0
 20
0.0
 30
0.0
  3
*D4
  1

  0
POINT
  5
21E
100
AcDbEntity
  8
DEFPOINTS
  6
CONTINUOUS
 62
         0
100
AcDbPoint
 10
1451.0033403763
 20
-43.5955824982
 30
0.0
  0
POINT
  5
21F
100
AcDbEntity
  8
DEFPOINTS
  6
CONTINUOUS
 62
         0
100
AcDbPoint
 10
1451.0033403763
 20
-31.9433347407
 30
0.0
  0
POINT
  5
220
100
AcDbEntity
  8
DEFPOINTS
  6
CONTINUOUS
 62
         0
100
AcDbPoint
 10
1467.0033403763
 20
-30.9433347407
 30
0.0
  0
LINE
  5
221
100
AcDbEntity
  8
L1_80
  6
CONTINUOUS
 62
         4
100
AcDbLine
 10
1451.0033403763
 20
-33.2933347407
 30
0.0
 11
1451.0033403763
 21
-44.2705824982
 31
0.0
  0
LINE
  5
222
100
AcDbEntity
  8
L1_80
  6
CONTINUOUS
 62
         4
100
AcDbLine
 10
1467.0033403763
 20
-32.2933347407
 30
0.0
 11
1467.0033403763
 21
-44.2705824982
 31
0.0
  0
LINE
  5
223
100
AcDbEntity
  8
L1_80
  6
CONTINUOUS
 62
         4
100
AcDbLine
 10
1451.0033403763
 20
-43.5955824982
 30
0.0
 11
1467.0033403763
 21
-43.5955824982
 31
0.0
  0
SOLID
  5
224
100
AcDbEntity
  8
L1_80
  6
CONTINUOUS
 62
         4
100
AcDbTrace
 10
1451.0033403763
 20
-43.5955824982
 30
0.0
 11
1453.7033403763
 21
-43.1905824982
 31
0.0
 12
1453.7033403763
 22
-44.0005824982
 32
0.0
 13
1451.0033403763
 23
-43.5955824982
 33
0.0
  0
SOLID
  5
225
100
AcDbEntity
  8
L1_80
  6
CONTINUOUS
 62
         4
100
AcDbTrace
 10
1467.0033403763
 20
-43.5955824982
 30
0.0
 11
1464.3033403763
 21
-44.0005824982
 31
0.0
 12
1464.3033403763
 22
-43.1905824982
 32
0.0
 13
1467.0033403763
 23
-43.5955824982
 33
0.0
  0
TEXT
  5
227
100
AcDbEntity
  8
L1_80
  6
CONTINUOUS
 62
         4
100
AcDbText
 10
1456.1745216898
 20
-41.5705824982
 30
0.0
 40
2.7
  1
16
  7
BOX
100
AcDbText
  0
ENDBLK
  5
228
100
AcDbEntity
  8
0
  6
CONTINUOUS
100
AcDbBlockEnd
  0
BLOCK
  5
23A
100
AcDbEntity
  8
0
100
AcDbBlockBegin
  2
*D5
 70
        65
 10
0.0
 20
0.0
 30
0.0
  3
*D5
  1

  0
POINT
  5
23C
100
AcDbEntity
  8
DEFPOINTS
  6
CONTINUOUS
 62
         0
100
AcDbPoint
 10
1400.0033403763
 20
214.0253549573
 30
0.0
  0
POINT
  5
23D
100
AcDbEntity
  8
DEFPOINTS
  6
CONTINUOUS
 62
         0
100
AcDbPoint
 10
1400.0033403763
 20
172.4096417294
 30
0.0
  0
POINT
  5
23E
100
AcDbEntity
  8
DEFPOINTS
  6
CONTINUOUS
 62
         0
100
AcDbPoint
 10
1467.0033403763
 20
150.1846417294
 30
0.0
  0
LINE
  5
23F
100
AcDbEntity
  8
L1_80
  6
CONTINUOUS
 62
         4
100
AcDbLine
 10
1400.0033403763
 20
173.7596417294
 30
0.0
 11
1400.0033403763
 21
214.7003549573
 31
0.0
  0
LINE
  5
240
100
AcDbEntity
  8
L1_80
  6
CONTINUOUS
 62
         4
100
AcDbLine
 10
1467.0033403763
 20
151.5346417294
 30
0.0
 11
1467.0033403763
 21
214.7003549573
 31
0.0
  0
LINE
  5
241
100
AcDbEntity
  8
L1_80
  6
CONTINUOUS
 62
         4
100
AcDbLine
 10
1400.0033403763
 20
214.0253549573
 30
0.0
 11
1467.0033403763
 21
214.0253549573
 31
0.0
  0
SOLID
  5
242
100
AcDbEntity
  8
L1_80
  6
CONTINUOUS
 62
         4
100
AcDbTrace
 10
1400.0033403763
 20
214.0253549573
 30
0.0
 11
1402.7033403763
 21
214.4303549573
 31
0.0
 12
1402.7033403763
 22
213.6203549573
 32
0.0
 13
1400.0033403763
 23
214.0253549573
 33
0.0
  0
SOLID
  5
243
100
AcDbEntity
  8
L1_80
  6
CONTINUOUS
 62
         4
100
AcDbTrace
 10
1467.0033403763
 20
214.0253549573
 30
0.0
 11
1464.3033403763
 21
213.6203549573
 31
0.0
 12
1464.3033403763
 22
214.4303549573
 32
0.0
 13
1467.0033403763
 23
214.0253549573
 33
0.0
  0
TEXT
  5
245
100
AcDbEntity
  8
L1_80
  6
CONTINUOUS
 62
         4
100
AcDbText
 10
1430.3341180757
 20
216.0503549573
 30
0.0
 40
2.7
  1
67
  7
BOX
100
AcDbText
  0
ENDBLK
  5
246
100
AcDbEntity
  8
0
  6
CONTINUOUS
100
AcDbBlockEnd
  0
BLOCK
  5
248
100
AcDbEntity
  8
0
100
AcDbBlockBegin
  2
*D6
 70
        65
 10
0.0
 20
0.0
 30
0.0
  3
*D6
  1

  0
POINT
  5
24A
100
AcDbEntity
  8
DEFPOINTS
  6
CONTINUOUS
 62
         0
100
AcDbPoint
 10
1331.7533403763
 20
222.1695310519
 30
0.0
  0
POINT
  5
24B
100
AcDbEntity
  8
DEFPOINTS
  6
CONTINUOUS
 62
         0
100
AcDbPoint
 10
1331.7533403763
 20
161.4188234458
 30
0.0
  0
POINT
  5
24C
100
AcDbEntity
  8
DEFPOINTS
  6
CONTINUOUS
 62
         0
100
AcDbPoint
 10
1467.0033403763
 20
150.1846417294
 30
0.0
  0
LINE
  5
24D
100
AcDbEntity
  8
L1_80
  6
CONTINUOUS
 62
         4
100
AcDbLine
 10
1331.7533403763
 20
162.7688234458
 30
0.0
 11
1331.7533403763
 21
222.8445310519
 31
0.0
  0
LINE
  5
24E
100
AcDbEntity
  8
L1_80
  6
CONTINUOUS
 62
         4
100
AcDbLine
 10
1467.0033403763
 20
151.5346417294
 30
0.0
 11
1467.0033403763
 21
222.8445310519
 31
0.0
  0
LINE
  5
24F
100
AcDbEntity
  8
L1_80
  6
CONTINUOUS
 62
         4
100
AcDbLine
 10
1331.7533403763
 20
222.1695310519
 30
0.0
 11
1467.0033403763
 21
222.1695310519
 31
0.0
  0
SOLID
  5
250
100
AcDbEntity
  8
L1_80
  6
CONTINUOUS
 62
         4
100
AcDbTrace
 10
1331.7533403763
 20
222.1695310519
 30
0.0
 11
1334.4533403763
 21
222.5745310519
 31
0.0
 12
1334.4533403763
 22
221.7645310519
 32
0.0
 13
1331.7533403763
 23
222.1695310519
 33
0.0
  0
SOLID
  5
251
100
AcDbEntity
  8
L1_80
  6
CONTINUOUS
 62
         4
100
AcDbTrace
 10
1467.0033403763
 20
222.1695310519
 30
0.0
 11
1464.3033403763
 21
221.7645310519
 31
0.0
 12
1464.3033403763
 22
222.5745310519
 32
0.0
 13
1467.0033403763
 23
222.1695310519
 33
0.0
  0
TEXT
  5
253
100
AcDbEntity
  8
L1_80
  6
CONTINUOUS
 62
         4
100
AcDbText
 10
1391.3801125657
 20
224.1945310519
 30
0.0
 40
2.7
  1
135.25
  7
BOX
100
AcDbText
  0
ENDBLK
  5
254
100
AcDbEntity
  8
0
  6
CONTINUOUS
100
AcDbBlockEnd
  0
BLOCK
  5
259
100
AcDbEntity
  8
0
100
AcDbBlockBegin
  2
*D7
 70
        65
 10
0.0
 20
0.0
 30
0.0
  3
*D7
  1

  0
POINT
  5
25B
100
AcDbEntity
  8
DEFPOINTS
  6
CONTINUOUS
 62
         0
100
AcDbPoint
 10
1377.0033403763
 20
-64.42055634
 30
0.0
  0
POINT
  5
25C
100
AcDbEntity
  8
DEFPOINTS
  6
CONTINUOUS
 62
         0
100
AcDbPoint
 10
1377.0033403763
 20
-24.9433347407
 30
0.0
  0
POINT
  5
25D
100
AcDbEntity
  8
DEFPOINTS
  6
CONTINUOUS
 62
         0
100
AcDbPoint
 10
1467.0033403763
 20
-31.9433347407
 30
0.0
  0
LINE
  5
25E
100
AcDbEntity
  8
L1_80
  6
CONTINUOUS
 62
         4
100
AcDbLine
 10
1377.0033403763
 20
-26.2933347407
 30
0.0
 11
1377.0033403763
 21
-65.09555634
 31
0.0
  0
LINE
  5
25F
100
AcDbEntity
  8
L1_80
  6
CONTINUOUS
 62
         4
100
AcDbLine
 10
1467.0033403763
 20
-33.2933347407
 30
0.0
 11
1467.0033403763
 21
-65.09555634
 31
0.0
  0
LINE
  5
260
100
AcDbEntity
  8
L1_80
  6
CONTINUOUS
 62
         4
100
AcDbLine
 10
1377.0033403763
 20
-64.42055634
 30
0.0
 11
1467.0033403763
 21
-64.42055634
 31
0.0
  0
SOLID
  5
261
100
AcDbEntity
  8
L1_80
  6
CONTINUOUS
 62
         4
100
AcDbTrace
 10
1377.0033403763
 20
-64.42055634
 30
0.0
 11
1379.7033403763
 21
-64.01555634
 31
0.0
 12
1379.7033403763
 22
-64.82555634
 32
0.0
 13
1377.0033403763
 23
-64.42055634
 33
0.0
  0
SOLID
  5
262
100
AcDbEntity
  8
L1_80
  6
CONTINUOUS
 62
         4
100
AcDbTrace
 10
1467.0033403763
 20
-64.42055634
 30
0.0
 11
1464.3033403763
 21
-64.82555634
 31
0.0
 12
1464.3033403763
 22
-64.01555634
 32
0.0
 13
1467.0033403763
 23
-64.42055634
 33
0.0
  0
TEXT
  5
264
100
AcDbEntity
  8
L1_80
  6
CONTINUOUS
 62
         4
100
AcDbText
 10
1419.7893819603
 20
-62.39555634
 30
0.0
 40
2.7
  1
90
  7
BOX
100
AcDbText
  0
ENDBLK
  5
265
100
AcDbEntity
  8
0
  6
CONTINUOUS
100
AcDbBlockEnd
  0
BLOCK
  5
312
100
AcDbEntity
  8
0
100
AcDbBlockBegin
  2
*D8
 70
        65
 10
0.0
 20
0.0
 30
0.0
  3
*D8
  1

  0
POINT
  5
314
100
AcDbEntity
  8
DEFPOINTS
  6
CONTINUOUS
 62
         0
100
AcDbPoint
 10
1433.075104058
 20
172.4096417294
 30
0.0
  0
POINT
  5
315
100
AcDbEntity
  8
DEFPOINTS
  6
CONTINUOUS
 62
         0
100
AcDbPoint
 10
1435.0553403763
 20
172.4096417294
 30
0.0
  0
POINT
  5
316
100
AcDbEntity
  8
DEFPOINTS
  6
CONTINUOUS
 62
         0
100
AcDbPoint
 10
1435.0553403763
 20
127.9596417294
 30
0.0
  0
LINE
  5
317
100
AcDbEntity
  8
_Y__________
  6
CONTINUOUS
 62
         4
100
AcDbLine
 10
1433.7053403763
 20
172.4096417294
 30
0.0
 11
1432.400104058
 21
172.4096417294
 31
0.0
  0
LINE
  5
318
100
AcDbEntity
  8
_Y__________
  6
CONTINUOUS
 62
         4
100
AcDbLine
 10
1433.7053403763
 20
127.9596417294
 30
0.0
 11
1432.400104058
 21
127.9596417294
 31
0.0
  0
LINE
  5
319
100
AcDbEntity
  8
_Y__________
  6
CONTINUOUS
 62
         4
100
AcDbLine
 10
1433.075104058
 20
172.4096417294
 30
0.0
 11
1433.075104058
 21
127.9596417294
 31
0.0
  0
SOLID
  5
31A
100
AcDbEntity
  8
_Y__________
  6
CONTINUOUS
 62
         4
100
AcDbTrace
 10
1433.075104058
 20
172.4096417294
 30
0.0
 11
1433.480104058
 21
169.7096417294
 31
0.0
 12
1432.670104058
 22
169.7096417294
 32
0.0
 13
1433.075104058
 23
172.4096417294
 33
0.0
  0
SOLID
  5
31B
100
AcDbEntity
  8
_Y__________
  6
CONTINUOUS
 62
         4
100
AcDbTrace
 10
1433.075104058
 20
127.9596417294
 30
0.0
 11
1432.670104058
 21
130.6596417294
 31
0.0
 12
1433.480104058
 22
130.6596417294
 32
0.0
 13
1433.075104058
 23
127.9596417294
 33
0.0
  0
TEXT
  5
31D
100
AcDbEntity
  8
_Y__________
  6
CONTINUOUS
 62
         4
100
AcDbText
 10
1429.943104058
 20
136.7372719626
 30
0.0
 40
2.7
  1
崷44.57
 50
90.0
  7
BOX
100
AcDbText
  0
ENDBLK
  5
31E
100
AcDbEntity
  8
0
  6
CONTINUOUS
100
AcDbBlockEnd
  0
BLOCK
  5
36F
100
AcDbEntity
  8
0
100
AcDbBlockBegin
  2
*X9
 70
        65
 10
0.0
 20
0.0
 30
0.0
  3
*X9
  1

  0
LINE
  5
370
100
AcDbEntity
  8
L1_80
  6
CONTINUOUS
 62
         4
100
AcDbLine
 10
1461.3495860175
 20
175.1846417294
 30
0.0
 11
1457.5033403763
 21
171.3383960882
 31
0.0
  0
LINE
  5
371
100
AcDbEntity
  8
L1_80
  6
CONTINUOUS
 62
         4
100
AcDbLine
 10
1464.5033403763
 20
174.095755401
 30
0.0
 11
1460.5922267046
 21
170.1846417294
 31
0.0
  0
LINE
  5
372
100
AcDbEntity
  8
L1_80
  6
CONTINUOUS
 62
         4
100
AcDbLine
 10
1466.6348673917
 20
171.9846417294
 30
0.0
 11
1464.8348673917
 21
170.1846417294
 31
0.0
  0
LINE
  5
373
100
AcDbEntity
  8
L1_80
  6
CONTINUOUS
 62
         4
100
AcDbLine
 10
1470.8775080788
 20
171.9846417294
 30
0.0
 11
1469.5775080788
 21
170.6846417294
 31
0.0
  0
LINE
  5
374
100
AcDbEntity
  8
L1_80
  6
CONTINUOUS
 62
         4
100
AcDbLine
 10
1475.120148766
 20
171.9846417294
 30
0.0
 11
1472.1033403763
 21
168.9678333397
 31
0.0
  0
LINE
  5
375
100
AcDbEntity
  8
L1_80
  6
CONTINUOUS
 62
         4
100
AcDbLine
 10
1478.5609986335
 20
171.1828509098
 30
0.0
 11
1474.8033403763
 21
167.4251926526
 31
0.0
  0
LINE
  5
376
100
AcDbEntity
  8
L1_80
  6
CONTINUOUS
 62
         4
100
AcDbLine
 10
1479.9910364474
 20
168.3702480366
 30
0.0
 11
1476.9143106279
 21
165.2935222171
 31
0.0
  0
ENDBLK
  5
377
100
AcDbEntity
  8
0
  6
CONTINUOUS
100
AcDbBlockEnd
  0
BLOCK
  5
37B
100
AcDbEntity
  8
0
100
AcDbBlockBegin
  2
*X10
 70
        65
 10
0.0
 20
0.0
 30
0.0
  3
*X10
  1

  0
LINE
  5
37C
100
AcDbEntity
  8
L1_80
  6
CONTINUOUS
 62
         4
100
AcDbLine
 10
1460.5922267046
 20
170.1846417294
 30
0.0
 11
1459.7802267046
 21
169.3726417294
 31
0.0
  0
LINE
  5
37D
100
AcDbEntity
  8
L1_80
  6
CONTINUOUS
 62
         4
100
AcDbLine
 10
1464.8348673917
 20
170.1846417294
 30
0.0
 11
1464.0228673917
 21
169.3726417294
 31
0.0
  0
ENDBLK
  5
37E
100
AcDbEntity
  8
0
  6
CONTINUOUS
100
AcDbBlockEnd
  0
BLOCK
  5
382
100
AcDbEntity
  8
0
100
AcDbBlockBegin
  2
*X11
 70
        65
 10
0.0
 20
0.0
 30
0.0
  3
*X11
  1

  0
LINE
  5
383
100
AcDbEntity
  8
L1_80
  6
CONTINUOUS
 62
         4
100
AcDbLine
 10
1459.5879928887
 20
130.9966417294
 30
0.0
 11
1458.7759928887
 21
130.1846417294
 31
0.0
  0
LINE
  5
384
100
AcDbEntity
  8
L1_80
  6
CONTINUOUS
 62
         4
100
AcDbLine
 10
1463.8306335758
 20
130.9966417294
 30
0.0
 11
1463.0186335758
 21
130.1846417294
 31
0.0
  0
LINE
  5
385
100
AcDbEntity
  8
L1_80
  6
CONTINUOUS
 62
         4
100
AcDbLine
 10
1467.9323073196
 20
130.8556747861
 30
0.0
 11
1467.2612742629
 21
130.1846417294
 31
0.0
  0
ENDBLK
  5
386
100
AcDbEntity
  8
0
  6
CONTINUOUS
100
AcDbBlockEnd
  0
BLOCK
  5
38A
100
AcDbEntity
  8
0
100
AcDbBlockBegin
  2
*X12
 70
        65
 10
0.0
 20
0.0
 30
0.0
  3
*X12
  1

  0
LINE
  5
38B
100
AcDbEntity
  8
L1_80
  6
CONTINUOUS
 62
         4
100
AcDbLine
 10
1458.7759928887
 20
130.1846417294
 30
0.0
 11
1457.5033403763
 21
128.911989217
 31
0.0
  0
LINE
  5
38C
100
AcDbEntity
  8
L1_80
  6
CONTINUOUS
 62
         4
100
AcDbLine
 10
1463.0186335758
 20
130.1846417294
 30
0.0
 11
1458.3704409575
 21
125.5364491111
 31
0.0
  0
LINE
  5
38D
100
AcDbEntity
  8
L1_80
  6
CONTINUOUS
 62
         4
100
AcDbLine
 10
1472.3612742629
 20
135.2846417294
 30
0.0
 11
1472.1033403763
 21
135.0267078427
 31
0.0
  0
LINE
  5
38E
100
AcDbEntity
  8
L1_80
  6
CONTINUOUS
 62
         4
100
AcDbLine
 10
1467.2612742629
 20
130.1846417294
 30
0.0
 11
1465.4612742629
 21
128.3846417294
 31
0.0
  0
LINE
  5
38F
100
AcDbEntity
  8
L1_80
  6
CONTINUOUS
 62
         4
100
AcDbLine
 10
1464.5033403763
 20
127.4267078427
 30
0.0
 11
1462.2612742629
 21
125.1846417294
 31
0.0
  0
LINE
  5
390
100
AcDbEntity
  8
L1_80
  6
CONTINUOUS
 62
         4
100
AcDbLine
 10
1475.6856900284
 20
134.3664168078
 30
0.0
 11
1474.8033403763
 21
133.4840671556
 31
0.0
  0
LINE
  5
391
100
AcDbEntity
  8
L1_80
  6
CONTINUOUS
 62
         4
100
AcDbLine
 10
1473.8033403763
 20
132.4840671556
 30
0.0
 11
1472.1033403763
 21
130.7840671556
 31
0.0
  0
LINE
  5
392
100
AcDbEntity
  8
L1_80
  6
CONTINUOUS
 62
         4
100
AcDbLine
 10
1471.00391495
 20
129.6846417294
 30
0.0
 11
1469.70391495
 21
128.3846417294
 31
0.0
  0
LINE
  5
393
100
AcDbEntity
  8
L1_80
  6
CONTINUOUS
 62
         4
100
AcDbLine
 10
1480.0033403763
 20
134.4414264685
 30
0.0
 11
1473.9465556372
 21
128.3846417294
 31
0.0
  0
ENDBLK
  5
394
100
AcDbEntity
  8
0
  6
CONTINUOUS
100
AcDbBlockEnd
  0
BLOCK
  5
398
100
AcDbEntity
  8
0
100
AcDbBlockBegin
  2
*D13
 70
        65
 10
0.0
 20
0.0
 30
0.0
  3
*D13
  1

  0
POINT
  5
39A
100
AcDbEntity
  8
DEFPOINTS
  6
CONTINUOUS
 62
         0
100
AcDbPoint
 10
1504.2140753147
 20
175.1846417294
 30
0.0
  0
POINT
  5
39B
100
AcDbEntity
  8
DEFPOINTS
  6
CONTINUOUS
 62
         0
100
AcDbPoint
 10
1475.0958630881
 20
175.1846417294
 30
0.0
  0
POINT
  5
39C
100
AcDbEntity
  8
DEFPOINTS
  6
CONTINUOUS
 62
         0
100
AcDbPoint
 10
1475.0958630881
 20
125.1846417294
 30
0.0
  0
LINE
  5
39D
100
AcDbEntity
  8
L1_80
  6
CONTINUOUS
 62
         4
100
AcDbLine
 10
1476.4458630881
 20
175.1846417294
 30
0.0
 11
1504.8890753147
 21
175.1846417294
 31
0.0
  0
LINE
  5
39E
100
AcDbEntity
  8
L1_80
  6
CONTINUOUS
 62
         4
100
AcDbLine
 10
1476.4458630881
 20
125.1846417294
 30
0.0
 11
1504.8890753147
 21
125.1846417294
 31
0.0
  0
LINE
  5
39F
100
AcDbEntity
  8
L1_80
  6
CONTINUOUS
 62
         4
100
AcDbLine
 10
1504.2140753147
 20
175.1846417294
 30
0.0
 11
1504.2140753147
 21
125.1846417294
 31
0.0
  0
SOLID
  5
3A0
100
AcDbEntity
  8
L1_80
  6
CONTINUOUS
 62
         4
100
AcDbTrace
 10
1504.2140753147
 20
175.1846417294
 30
0.0
 11
1504.6190753147
 21
172.4846417294
 31
0.0
 12
1503.8090753147
 22
172.4846417294
 32
0.0
 13
1504.2140753147
 23
175.1846417294
 33
0.0
  0
SOLID
  5
3A1
100
AcDbEntity
  8
L1_80
  6
CONTINUOUS
 62
         4
100
AcDbTrace
 10
1504.2140753147
 20
125.1846417294
 30
0.0
 11
1503.8090753147
 21
127.8846417294
 31
0.0
 12
1504.6190753147
 22
127.8846417294
 32
0.0
 13
1504.2140753147
 23
125.1846417294
 33
0.0
  0
TEXT
  5
3A3
100
AcDbEntity
  8
L1_80
  6
CONTINUOUS
 62
         4
100
AcDbText
 10
1502.1890753147
 20
144.7846417294
 30
0.0
 40
2.7
  1
崷50
 50
90.0
  7
BOX
100
AcDbText
  0
ENDBLK
  5
3A4
100
AcDbEntity
  8
0
  6
CONTINUOUS
100
AcDbBlockEnd
  0
BLOCK
  5
3CE
100
AcDbEntity
  8
0
100
AcDbBlockBegin
  2
*X14
 70
        65
 10
0.0
 20
0.0
 30
0.0
  3
*X14
  1

  0
LINE
  5
3CF
100
AcDbEntity
  8
L1_80
  6
CONTINUOUS
 62
         4
100
AcDbLine
 10
1461.3495860175
 20
12.0566652593
 30
0.0
 11
1457.5033403763
 21
8.2104196181
 31
0.0
  0
LINE
  5
3D0
100
AcDbEntity
  8
L1_80
  6
CONTINUOUS
 62
         4
100
AcDbLine
 10
1464.5033403763
 20
10.967778931
 30
0.0
 11
1460.5922267046
 21
7.0566652593
 31
0.0
  0
LINE
  5
3D1
100
AcDbEntity
  8
L1_80
  6
CONTINUOUS
 62
         4
100
AcDbLine
 10
1466.6348673917
 20
8.8566652593
 30
0.0
 11
1464.8348673917
 21
7.0566652593
 31
0.0
  0
LINE
  5
3D2
100
AcDbEntity
  8
L1_80
  6
CONTINUOUS
 62
         4
100
AcDbLine
 10
1470.8775080788
 20
8.8566652593
 30
0.0
 11
1469.5775080788
 21
7.5566652593
 31
0.0
  0
LINE
  5
3D3
100
AcDbEntity
  8
L1_80
  6
CONTINUOUS
 62
         4
100
AcDbLine
 10
1475.120148766
 20
8.8566652593
 30
0.0
 11
1472.1033403763
 21
5.8398568696
 31
0.0
  0
LINE
  5
3D4
100
AcDbEntity
  8
L1_80
  6
CONTINUOUS
 62
         4
100
AcDbLine
 10
1478.5609986335
 20
8.0548744397
 30
0.0
 11
1474.8033403763
 21
4.2972161825
 31
0.0
  0
LINE
  5
3D5
100
AcDbEntity
  8
L1_80
  6
CONTINUOUS
 62
         4
100
AcDbLine
 10
1479.9910364474
 20
5.2422715666
 30
0.0
 11
1476.9143106279
 21
2.1655457471
 31
0.0
  0
ENDBLK
  5
3D6
100
AcDbEntity
  8
0
  6
CONTINUOUS
100
AcDbBlockEnd
  0
BLOCK
  5
3DA
100
AcDbEntity
  8
0
100
AcDbBlockBegin
  2
*X15
 70
        65
 10
0.0
 20
0.0
 30
0.0
  3
*X15
  1

  0
LINE
  5
3DB
100
AcDbEntity
  8
L1_80
  6
CONTINUOUS
 62
         4
100
AcDbLine
 10
1460.5922267046
 20
7.0566652593
 30
0.0
 11
1459.7802267046
 21
6.2446652593
 31
0.0
  0
LINE
  5
3DC
100
AcDbEntity
  8
L1_80
  6
CONTINUOUS
 62
         4
100
AcDbLine
 10
1464.8348673917
 20
7.0566652593
 30
0.0
 11
1464.0228673917
 21
6.2446652593
 31
0.0
  0
ENDBLK
  5
3DD
100
AcDbEntity
  8
0
  6
CONTINUOUS
100
AcDbBlockEnd
  0
BLOCK
  5
3E1
100
AcDbEntity
  8
0
100
AcDbBlockBegin
  2
*X16
 70
        65
 10
0.0
 20
0.0
 30
0.0
  3
*X16
  1

  0
LINE
  5
3E2
100
AcDbEntity
  8
L1_80
  6
CONTINUOUS
 62
         4
100
AcDbLine
 10
1459.5879928887
 20
-32.1313347407
 30
0.0
 11
1458.7759928887
 21
-32.9433347407
 31
0.0
  0
LINE
  5
3E3
100
AcDbEntity
  8
L1_80
  6
CONTINUOUS
 62
         4
100
AcDbLine
 10
1463.8306335758
 20
-32.1313347407
 30
0.0
 11
1463.0186335758
 21
-32.9433347407
 31
0.0
  0
LINE
  5
3E4
100
AcDbEntity
  8
L1_80
  6
CONTINUOUS
 62
         4
100
AcDbLine
 10
1467.9323073196
 20
-32.272301684
 30
0.0
 11
1467.2612742629
 21
-32.9433347407
 31
0.0
  0
ENDBLK
  5
3E5
100
AcDbEntity
  8
0
  6
CONTINUOUS
100
AcDbBlockEnd
  0
BLOCK
  5
3E9
100
AcDbEntity
  8
0
100
AcDbBlockBegin
  2
*X17
 70
        65
 10
0.0
 20
0.0
 30
0.0
  3
*X17
  1

  0
LINE
  5
3EA
100
AcDbEntity
  8
L1_80
  6
CONTINUOUS
 62
         4
100
AcDbLine
 10
1458.7759928887
 20
-32.9433347407
 30
0.0
 11
1457.5033403763
 21
-34.2159872531
 31
0.0
  0
LINE
  5
3EB
100
AcDbEntity
  8
L1_80
  6
CONTINUOUS
 62
         4
100
AcDbLine
 10
1463.0186335758
 20
-32.9433347407
 30
0.0
 11
1458.3704409575
 21
-37.591527359
 31
0.0
  0
LINE
  5
3EC
100
AcDbEntity
  8
L1_80
  6
CONTINUOUS
 62
         4
100
AcDbLine
 10
1472.3612742629
 20
-27.8433347407
 30
0.0
 11
1472.1033403763
 21
-28.1012686273
 31
0.0
  0
LINE
  5
3ED
100
AcDbEntity
  8
L1_80
  6
CONTINUOUS
 62
         4
100
AcDbLine
 10
1467.2612742629
 20
-32.9433347407
 30
0.0
 11
1465.4612742629
 21
-34.7433347407
 31
0.0
  0
LINE
  5
3EE
100
AcDbEntity
  8
L1_80
  6
CONTINUOUS
 62
         4
100
AcDbLine
 10
1464.5033403763
 20
-35.7012686273
 30
0.0
 11
1462.2612742629
 21
-37.9433347407
 31
0.0
  0
LINE
  5
3EF
100
AcDbEntity
  8
L1_80
  6
CONTINUOUS
 62
         4
100
AcDbLine
 10
1475.6856900284
 20
-28.7615596623
 30
0.0
 11
1474.8033403763
 21
-29.6439093145
 31
0.0
  0
LINE
  5
3F0
100
AcDbEntity
  8
L1_80
  6
CONTINUOUS
 62
         4
100
AcDbLine
 10
1473.8033403763
 20
-30.6439093145
 30
0.0
 11
1472.1033403763
 21
-32.3439093145
 31
0.0
  0
LINE
  5
3F1
100
AcDbEntity
  8
L1_80
  6
CONTINUOUS
 62
         4
100
AcDbLine
 10
1471.00391495
 20
-33.4433347407
 30
0.0
 11
1469.70391495
 21
-34.7433347407
 31
0.0
  0
LINE
  5
3F2
100
AcDbEntity
  8
L1_80
  6
CONTINUOUS
 62
         4
100
AcDbLine
 10
1480.0033403763
 20
-28.6865500016
 30
0.0
 11
1473.9465556372
 21
-34.7433347407
 31
0.0
  0
ENDBLK
  5
3F3
100
AcDbEntity
  8
0
  6
CONTINUOUS
100
AcDbBlockEnd
  0
BLOCK
  5
3F7
100
AcDbEntity
  8
0
100
AcDbBlockBegin
  2
*D18
 70
        65
 10
0.0
 20
0.0
 30
0.0
  3
*D18
  1

  0
POINT
  5
3F9
100
AcDbEntity
  8
DEFPOINTS
  6
CONTINUOUS
 62
         0
100
AcDbPoint
 10
1400.0033403763
 20
102.2866925985
 30
0.0
  0
POINT
  5
3FA
100
AcDbEntity
  8
DEFPOINTS
  6
CONTINUOUS
 62
         0
100
AcDbPoint
 10
1400.0033403763
 20
127.9596417294
 30
0.0
  0
POINT
  5
3FB
100
AcDbEntity
  8
DEFPOINTS
  6
CONTINUOUS
 62
         0
100
AcDbPoint
 10
1480.0033403763
 20
132.2205401142
 30
0.0
  0
LINE
  5
3FC
100
AcDbEntity
  8
L1_80
  6
CONTINUOUS
 62
         4
100
AcDbLine
 10
1400.0033403763
 20
126.6096417294
 30
0.0
 11
1400.0033403763
 21
101.6116925985
 31
0.0
  0
LINE
  5
3FD
100
AcDbEntity
  8
L1_80
  6
CONTINUOUS
 62
         4
100
AcDbLine
 10
1480.0033403763
 20
130.8705401142
 30
0.0
 11
1480.0033403763
 21
101.6116925985
 31
0.0
  0
LINE
  5
3FE
100
AcDbEntity
  8
L1_80
  6
CONTINUOUS
 62
         4
100
AcDbLine
 10
1400.0033403763
 20
102.2866925985
 30
0.0
 11
1480.0033403763
 21
102.2866925985
 31
0.0
  0
SOLID
  5
3FF
100
AcDbEntity
  8
L1_80
  6
CONTINUOUS
 62
         4
100
AcDbTrace
 10
1400.0033403763
 20
102.2866925985
 30
0.0
 11
1402.7033403763
 21
102.6916925985
 31
0.0
 12
1402.7033403763
 22
101.8816925985
 32
0.0
 13
1400.0033403763
 23
102.2866925985
 33
0.0
  0
SOLID
  5
400
100
AcDbEntity
  8
L1_80
  6
CONTINUOUS
 62
         4
100
AcDbTrace
 10
1480.0033403763
 20
102.2866925985
 30
0.0
 11
1477.3033403763
 21
101.8816925985
 31
0.0
 12
1477.3033403763
 22
102.6916925985
 32
0.0
 13
1480.0033403763
 23
102.2866925985
 33
0.0
  0
TEXT
  5
402
100
AcDbEntity
  8
L1_80
  6
CONTINUOUS
 62
         4
100
AcDbText
 10
1437.3033403763
 20
104.3116925985
 30
0.0
 40
2.7
  1
80
  7
BOX
100
AcDbText
  0
ENDBLK
  5
403
100
AcDbEntity
  8
0
  6
CONTINUOUS
100
AcDbBlockEnd
  0
ENDSEC
  0
SECTION
  2
ENTITIES
  0
LINE
  5
2A
100
AcDbEntity
  8
L1_80
  6
CONTINUOUS
 62
         7
100
AcDbLine
 10
1448.5033403763
 20
-34.7283347407
 30
0.0
 11
1448.5033403763
 21
-33.4433347407
 31
0.0
  0
LINE
  5
2B
100
AcDbEntity
  8
L1_80
  6
CONTINUOUS
 62
         7
100
AcDbLine
 10
1448.0033403763
 20
9.3416652593
 30
0.0
 11
1448.5033403763
 21
8.8416652593
 31
0.0
  0
ARC
  5
2C
100
AcDbEntity
  8
L1_80
  6
CONTINUOUS
 62
         7
100
AcDbCircle
 10
1449.0033403763
 20
7.5566652593
 30
0.0
 40
0.5
100
AcDbArc
 50
180.0
 51
270.0
  0
LINE
  5
2D
100
AcDbEntity
  8
L1_80
  6
CONTINUOUS
 62
         7
100
AcDbLine
 10
1448.0033403763
 20
-35.2283347407
 30
0.0
 11
1448.5033403763
 21
-34.7283347407
 31
0.0
  0
ARC
  5
2E
100
AcDbEntity
  8
L1_80
  6
CONTINUOUS
 62
         7
100
AcDbCircle
 10
1449.0033403763
 20
-33.4433347407
 30
0.0
 40
0.5
100
AcDbArc
 50
90.0
 51
180.0
  0
LINE
  5
2F
100
AcDbEntity
  8
L1_80
  6
CONTINUOUS
 62
         7
100
AcDbLine
 10
1448.5033403763
 20
7.5566652593
 30
0.0
 11
1448.5033403763
 21
8.8416652593
 31
0.0
  0
LINE
  5
30
100
AcDbEntity
  8
L1_80
  6
CONTINUOUS
 62
         7
100
AcDbLine
 10
1448.0033403763
 20
172.4696417294
 30
0.0
 11
1448.5033403763
 21
171.9696417294
 31
0.0
  0
ARC
  5
31
100
AcDbEntity
  8
L1_80
  6
CONTINUOUS
 62
         7
100
AcDbCircle
 10
1449.0033403763
 20
170.6846417294
 30
0.0
 40
0.5
100
AcDbArc
 50
180.0
 51
270.0
  0
LINE
  5
32
100
AcDbEntity
  8
L1_80
  6
CONTINUOUS
 62
         7
100
AcDbLine
 10
1448.0033403763
 20
127.8996417294
 30
0.0
 11
1448.5033403763
 21
128.3996417294
 31
0.0
  0
ARC
  5
33
100
AcDbEntity
  8
L1_80
  6
CONTINUOUS
 62
         7
100
AcDbCircle
 10
1449.0033403763
 20
129.6846417294
 30
0.0
 40
0.5
100
AcDbArc
 50
90.0
 51
180.0
  0
LINE
  5
34
100
AcDbEntity
  8
L1_80
  6
CONTINUOUS
 62
         7
100
AcDbLine
 10
1448.5033403763
 20
128.3996417294
 30
0.0
 11
1448.5033403763
 21
171.9696417294
 31
0.0
  0
LINE
  5
35
100
AcDbEntity
  8
L1_80
  6
CONTINUOUS
 62
         4
100
AcDbLine
 10
1448.0033403763
 20
172.4696417294
 30
0.0
 11
1448.0033403763
 21
127.8996417294
 31
0.0
  0
INSERT
  5
8B
100
AcDbEntity
  8
0
  6
CONTINUOUS
100
AcDbBlockReference
  2
*X0
 10
0.0
 20
0.0
 30
0.0
  0
LINE
  5
8C
100
AcDbEntity
  8
L1_80
  6
CONTINUOUS
 62
         7
100
AcDbLine
 10
1364.514960716
 20
-5.9433347407
 30
0.0
 11
1364.514960716
 21
-19.9433347407
 31
0.0
  0
LINE
  5
8D
100
AcDbEntity
  8
L1_80
  6
CONTINUOUS
 62
         7
100
AcDbLine
 10
1367.0033403763
 20
-24.2533347407
 30
0.0
 11
1364.514960716
 21
-19.9433347407
 31
0.0
  0
LINE
  5
8E
100
AcDbEntity
  8
L1_80
  6
CONTINUOUS
 62
         7
100
AcDbLine
 10
1367.0033403763
 20
-1.6333347407
 30
0.0
 11
1364.514960716
 21
-5.9433347407
 31
0.0
  0
CIRCLE
  5
8F
100
AcDbEntity
  8
L1_80
  6
CONTINUOUS
 62
         7
100
AcDbCircle
 10
1582.340112702
 20
64.8008471747
 30
0.0
 40
11.905
  0
CIRCLE
  5
90
100
AcDbEntity
  8
L1_80
  6
CONTINUOUS
 62
         7
100
AcDbCircle
 10
1582.340112702
 20
64.8008471747
 30
0.0
 40
10.4948350988
  0
LINE
  5
91
100
AcDbEntity
  8
L1_80
  6
CENTER
 62
         1
100
AcDbLine
 10
1595.7467993632
 20
64.8008471747
 30
0.0
 11
1567.8311577936
 21
64.8008471747
 31
0.0
  0
LINE
  5
92
100
AcDbEntity
  8
L1_80
  6
CENTER
 62
         1
100
AcDbLine
 10
1582.340112702
 20
50.9269257947
 30
0.0
 11
1582.340112702
 21
79.5301447429
 31
0.0
  0
DIMENSION
  5
96
100
AcDbEntity
  8
L1_80
  6
CONTINUOUS
 62
         4
100
AcDbDimension
  2
*D1
 10
1633.1679071681
 20
76.7058471747
 30
0.0
 11
1631.1429071681
 21
52.5436126103
 31
0.0
  3
DIMSTYLE1
100
AcDbAlignedDimension
 13
1609.2610983789
 23
76.7058471747
 33
0.0
 14
1609.2610983789
 24
52.8958471747
 34
0.0
 50
90.0
100
AcDbRotatedDimension
  0
LINE
  5
A3
100
AcDbEntity
  8
L1_80
  6
CONTINUOUS
 62
         7
100
AcDbLine
 10
1612.2360983789
 20
54.3708471747
 30
0.0
 11
1612.2360983789
 21
75.2308471747
 31
0.0
  0
LINE
  5
A4
100
AcDbEntity
  8
L1_80
  6
CONTINUOUS
 62
         7
100
AcDbLine
 10
1599.7360983789
 20
54.8708471747
 30
0.0
 11
1599.7360983789
 21
74.7308471747
 31
0.0
  0
LINE
  5
A5
100
AcDbEntity
  8
L1_80
  6
CONTINUOUS
 62
         7
100
AcDbLine
 10
1612.7360983789
 20
54.8708471747
 30
0.0
 11
1612.7360983789
 21
74.7308471747
 31
0.0
  0
LINE
  5
A6
100
AcDbEntity
  8
L1_80
  6
CONTINUOUS
 62
         7
100
AcDbLine
 10
1612.2360983789
 20
54.3708471747
 30
0.0
 11
1612.7360983789
 21
54.8708471747
 31
0.0
  0
LINE
  5
A7
100
AcDbEntity
  8
L1_80
  6
CONTINUOUS
 62
         7
100
AcDbLine
 10
1600.2360983789
 20
54.3708471747
 30
0.0
 11
1599.7360983789
 21
54.8708471747
 31
0.0
  0
LINE
  5
A8
100
AcDbEntity
  8
L1_80
  6
CONTINUOUS
 62
         7
100
AcDbLine
 10
1612.2360983789
 20
75.2308471747
 30
0.0
 11
1612.7360983789
 21
74.7308471747
 31
0.0
  0
LINE
  5
A9
100
AcDbEntity
  8
L1_80
  6
CONTINUOUS
 62
         7
100
AcDbLine
 10
1600.2360983789
 20
75.2308471747
 30
0.0
 11
1599.7360983789
 21
74.7308471747
 31
0.0
  0
LINE
  5
AA
100
AcDbEntity
  8
L1_80
  6
CONTINUOUS
 62
         7
100
AcDbLine
 10
1601.7360983789
 20
54.3708471747
 30
0.0
 11
1601.7360983789
 21
75.2308471747
 31
0.0
  0
LINE
  5
AB
100
AcDbEntity
  8
L1_80
  6
CONTINUOUS
 62
         7
100
AcDbLine
 10
1610.7360983789
 20
54.3708471747
 30
0.0
 11
1610.7360983789
 21
75.2308471747
 31
0.0
  0
LINE
  5
AC
100
AcDbEntity
  8
L1_80
  6
CONTINUOUS
 62
         7
100
AcDbLine
 10
1600.2360983789
 20
54.3708471747
 30
0.0
 11
1600.2360983789
 21
75.2308471747
 31
0.0
  0
LINE
  5
AD
100
AcDbEntity
  8
L1_80
  6
CONTINUOUS
 62
         7
100
AcDbLine
 10
1603.2110983789
 20
52.8958471747
 30
0.0
 11
1609.2610983789
 21
52.8958471747
 31
0.0
  0
LINE
  5
AE
100
AcDbEntity
  8
L1_80
  6
CONTINUOUS
 62
         7
100
AcDbLine
 10
1603.2110983789
 20
52.8958471747
 30
0.0
 11
1601.7360983789
 21
54.3708471747
 31
0.0
  0
LINE
  5
AF
100
AcDbEntity
  8
L1_80
  6
CONTINUOUS
 62
         7
100
AcDbLine
 10
1609.2610983789
 20
52.8958471747
 30
0.0
 11
1610.7360983789
 21
54.3708471747
 31
0.0
  0
LINE
  5
B0
100
AcDbEntity
  8
L1_80
  6
CONTINUOUS
 62
         7
100
AcDbLine
 10
1610.7360983789
 20
54.3708471747
 30
0.0
 11
1612.2360983789
 21
54.3708471747
 31
0.0
  0
LINE
  5
B1
100
AcDbEntity
  8
L1_80
  6
CONTINUOUS
 62
         7
100
AcDbLine
 10
1600.2360983789
 20
54.3708471747
 30
0.0
 11
1601.7360983789
 21
54.3708471747
 31
0.0
  0
LINE
  5
B2
100
AcDbEntity
  8
L1_80
  6
CONTINUOUS
 62
         4
100
AcDbLine
 10
1602.4210983789
 20
53.6858471747
 30
0.0
 11
1610.0510983789
 21
53.6858471747
 31
0.0
  0
LINE
  5
B3
100
AcDbEntity
  8
L1_80
  6
CONTINUOUS
 62
         7
100
AcDbLine
 10
1600.2360983789
 20
75.2308471747
 30
0.0
 11
1601.7360983789
 21
75.2308471747
 31
0.0
  0
LINE
  5
B4
100
AcDbEntity
  8
L1_80
  6
CONTINUOUS
 62
         7
100
AcDbLine
 10
1603.2110983789
 20
76.7058471747
 30
0.0
 11
1609.2610983789
 21
76.7058471747
 31
0.0
  0
LINE
  5
B5
100
AcDbEntity
  8
L1_80
  6
CONTINUOUS
 62
         7
100
AcDbLine
 10
1610.7360983789
 20
75.2308471747
 30
0.0
 11
1612.2360983789
 21
75.2308471747
 31
0.0
  0
LINE
  5
B6
100
AcDbEntity
  8
L1_80
  6
CONTINUOUS
 62
         7
100
AcDbLine
 10
1609.2610983789
 20
76.7058471747
 30
0.0
 11
1610.7360983789
 21
75.2308471747
 31
0.0
  0
LINE
  5
B7
100
AcDbEntity
  8
L1_80
  6
CONTINUOUS
 62
         7
100
AcDbLine
 10
1603.2110983789
 20
76.7058471747
 30
0.0
 11
1601.7360983789
 21
75.2308471747
 31
0.0
  0
LINE
  5
B8
100
AcDbEntity
  8
L1_80
  6
CONTINUOUS
 62
         4
100
AcDbLine
 10
1602.4210983789
 20
75.9158471747
 30
0.0
 11
1610.0510983789
 21
75.9158471747
 31
0.0
  0
DIMENSION
  5
BB
100
AcDbEntity
  8
L1_80
  6
CONTINUOUS
 62
         4
100
AcDbDimension
  2
*D2
 10
1599.7360983789
 20
84.26855781
 30
0.0
 11
1603.6354909931
 21
86.29355781
 31
0.0
  3
DIMSTYLE1
100
AcDbAlignedDimension
 13
1599.7360983789
 23
73.3808471747
 33
0.0
 14
1612.7360983789
 24
73.3808471747
 34
0.0
100
AcDbRotatedDimension
  0
LINE
  5
C7
100
AcDbEntity
  8
L1_80
  6
CENTER
 62
         1
100
AcDbLine
 10
1598.4341415435
 20
64.8008471747
 30
0.0
 11
1613.933670291
 21
64.8008471747
 31
0.0
  0
LINE
  5
C8
100
AcDbEntity
  8
L1_80
  6
DASHED
 62
         2
100
AcDbLine
 10
1610.9360983789
 20
54.3708471747
 30
0.0
 11
1610.9360983789
 21
75.2308471747
 31
0.0
  0
LINE
  5
C9
100
AcDbEntity
  8
L1_80
  6
DASHED
 62
         2
100
AcDbLine
 10
1601.5360983789
 20
54.3708471747
 30
0.0
 11
1601.5360983789
 21
75.2308471747
 31
0.0
  0
DIMENSION
  5
CC
100
AcDbEntity
  8
L1_80
  6
CONTINUOUS
 62
         4
100
AcDbDimension
  2
*D3
 10
1583.340112702
 20
83.1082745237
 30
0.0
 11
1579.64099804
 21
85.1332745237
 31
0.0
  3
DIMSTYLE1
100
AcDbAlignedDimension
 13
1583.340112702
 23
74.381967134
 33
0.0
 14
1581.340112702
 24
74.381967134
 34
0.0
100
AcDbRotatedDimension
  0
LINE
  5
DA
100
AcDbEntity
  8
L1_80
  6
CONTINUOUS
 62
         7
100
AcDbLine
 10
1583.340112702
 20
65.9188811635
 30
0.0
 11
1583.340112702
 21
75.2479311578
 31
0.0
  0
LINE
  5
DB
100
AcDbEntity
  8
L1_80
  6
CONTINUOUS
 62
         7
100
AcDbLine
 10
1581.340112702
 20
65.9188811635
 30
0.0
 11
1581.340112702
 21
75.2479311578
 31
0.0
  0
CIRCLE
  5
DC
100
AcDbEntity
  8
L1_80
  6
CONTINUOUS
 62
         7
100
AcDbCircle
 10
1582.340112702
 20
64.8008471747
 30
0.0
 40
1.5
  0
LINE
  5
DD
100
AcDbEntity
  8
L1_80
  6
CONTINUOUS
 62
         7
100
AcDbLine
 10
1583.340112702
 20
54.3537631916
 30
0.0
 11
1583.340112702
 21
63.682813186
 31
0.0
  0
LINE
  5
DE
100
AcDbEntity
  8
L1_80
  6
CONTINUOUS
 62
         7
100
AcDbLine
 10
1581.340112702
 20
54.3537631916
 30
0.0
 11
1581.340112702
 21
63.682813186
 31
0.0
  0
LINE
  5
DF
100
AcDbEntity
  8
L1_80
  6
DASHED
 62
         2
100
AcDbLine
 10
1601.5360983789
 20
66.3008471747
 30
0.0
 11
1610.9360983789
 21
66.3008471747
 31
0.0
  0
LINE
  5
E0
100
AcDbEntity
  8
L1_80
  6
DASHED
 62
         2
100
AcDbLine
 10
1601.5360983789
 20
63.3008471747
 30
0.0
 11
1610.9360983789
 21
63.3008471747
 31
0.0
  0
ARC
  5
E1
100
AcDbEntity
  8
L1_80
  6
CONTINUOUS
 62
         7
100
AcDbCircle
 10
1465.5033403763
 20
-30.2472648474
 30
0.0
 40
1.5
100
AcDbArc
 50
0.0
 51
82.0
  0
LINE
  5
E2
100
AcDbEntity
  8
L1_80
  6
CONTINUOUS
 62
         7
100
AcDbLine
 10
1465.7121000277
 20
-28.7618627443
 30
0.0
 11
1438.8976299728
 21
-24.9933347407
 31
0.0
  0
ARC
  5
E3
100
AcDbEntity
  8
L1_80
  6
CONTINUOUS
 62
         7
100
AcDbCircle
 10
1465.5033403763
 20
4.360595366
 30
0.0
 40
1.5
100
AcDbArc
 50
278.0
 51
360.0
  0
LINE
  5
E4
100
AcDbEntity
  8
L1_80
  6
CONTINUOUS
 62
         7
100
AcDbLine
 10
1465.7121000277
 20
2.8751932629
 30
0.0
 11
1438.8976299728
 21
-0.8933347407
 31
0.0
  0
LINE
  5
E5
100
AcDbEntity
  8
L1_80
  6
CONTINUOUS
 62
         7
100
AcDbLine
 10
1427.0033403763
 20
-0.8933347407
 30
0.0
 11
1438.8976299728
 21
-0.8933347407
 31
0.0
  0
LINE
  5
E6
100
AcDbEntity
  8
L1_80
  6
CONTINUOUS
 62
         7
100
AcDbLine
 10
1438.8976299728
 20
-0.8933347407
 30
0.0
 11
1438.8976299728
 21
-24.9933347407
 31
0.0
  0
LINE
  5
E7
100
AcDbEntity
  8
L1_80
  6
CONTINUOUS
 62
         7
100
AcDbLine
 10
1427.0033403763
 20
-24.9933347407
 30
0.0
 11
1427.0033403763
 21
-0.8933347407
 31
0.0
  0
LINE
  5
E8
100
AcDbEntity
  8
L1_80
  6
CONTINUOUS
 62
         7
100
AcDbLine
 10
1427.0033403763
 20
-24.9933347407
 30
0.0
 11
1438.8976299728
 21
-24.9933347407
 31
0.0
  0
LINE
  5
E9
100
AcDbEntity
  8
L1_80
  6
CONTINUOUS
 62
         4
100
AcDbLine
 10
1377.0033403763
 20
-24.8495847407
 30
0.0
 11
1427.0033403763
 21
-24.8495847407
 31
0.0
  0
LINE
  5
EA
100
AcDbEntity
  8
L1_80
  6
CONTINUOUS
 62
         7
100
AcDbLine
 10
1367.0033403763
 20
-24.2533347407
 30
0.0
 11
1427.0033403763
 21
-24.2533347407
 31
0.0
  0
LINE
  5
EB
100
AcDbEntity
  8
L1_80
  6
CONTINUOUS
 62
         7
100
AcDbLine
 10
1367.0033403763
 20
-1.6333347407
 30
0.0
 11
1427.0033403763
 21
-1.6333347407
 31
0.0
  0
LINE
  5
EC
100
AcDbEntity
  8
L1_80
  6
CONTINUOUS
 62
         4
100
AcDbLine
 10
1377.0033403763
 20
-1.0370847407
 30
0.0
 11
1427.0033403763
 21
-1.0370847407
 31
0.0
  0
LINE
  5
ED
100
AcDbEntity
  8
L1_80
  6
CONTINUOUS
 62
         7
100
AcDbLine
 10
1434.2553403763
 20
127.8996417294
 30
0.0
 11
1448.0033403763
 21
127.8996417294
 31
0.0
  0
LINE
  5
EE
100
AcDbEntity
  8
L1_80
  6
CONTINUOUS
 62
         7
100
AcDbLine
 10
1434.2553403763
 20
172.4696417294
 30
0.0
 11
1448.0033403763
 21
172.4696417294
 31
0.0
  0
LINE
  5
EF
100
AcDbEntity
  8
L1_80
  6
CONTINUOUS
 62
         7
100
AcDbLine
 10
1434.2553403763
 20
-35.2283347407
 30
0.0
 11
1448.0033403763
 21
-35.2283347407
 31
0.0
  0
LINE
  5
F0
100
AcDbEntity
  8
L1_80
  6
CONTINUOUS
 62
         7
100
AcDbLine
 10
1434.2553403763
 20
9.3416652593
 30
0.0
 11
1448.0033403763
 21
9.3416652593
 31
0.0
  0
LINE
  5
F1
100
AcDbEntity
  8
_X______
  6
CONTINUOUS
 62
         7
100
AcDbLine
 10
1403.2033403763
 20
11.598232071
 30
0.0
 11
1405.1047002055
 21
15.1741698221
 31
0.0
  0
LINE
  5
F2
100
AcDbEntity
  8
_X______
  6
CONTINUOUS
 62
         7
100
AcDbLine
 10
1403.2033403763
 20
16.1851407763
 30
0.0
 11
1405.1047002055
 21
15.1741698221
 31
0.0
  0
LINE
  5
F3
100
AcDbEntity
  8
_X______
  6
CONTINUOUS
 62
         4
100
AcDbLine
 10
1403.2033403763
 20
11.598232071
 30
0.0
 11
1410.2669211191
 21
7.8424595687
 31
0.0
  0
LINE
  5
F4
100
AcDbEntity
  8
_X______
  6
CONTINUOUS
 62
         4
100
AcDbLine
 10
1405.0812266274
 20
15.1300224424
 30
0.0
 11
1412.1448073703
 21
11.3742499401
 31
0.0
  0
LINE
  5
F5
100
AcDbEntity
  8
_X______
  6
CONTINUOUS
 62
         7
100
AcDbLine
 10
1410.2669211191
 20
7.8424595687
 30
0.0
 11
1412.1448073703
 21
11.3742499401
 31
0.0
  0
LINE
  5
F6
100
AcDbEntity
  8
_X______
  6
CONTINUOUS
 62
         7
100
AcDbLine
 10
1404.9169115804
 20
14.8209907849
 30
0.0
 11
1434.4712594815
 21
-0.8933347407
 31
0.0
  0
LINE
  5
F7
100
AcDbEntity
  8
_X______
  6
CONTINUOUS
 62
         7
100
AcDbLine
 10
1403.3676554232
 20
11.9072637285
 30
0.0
 11
1427.4420797364
 21
-0.8933347407
 31
0.0
  0
LINE
  5
F8
100
AcDbEntity
  8
_X______
  6
CENTER
 62
         1
100
AcDbLine
 10
1402.1398158213
 20
14.428858209
 30
0.0
 11
1430.956669609
 21
-0.8933347407
 31
0.0
  0
LINE
  5
F9
100
AcDbEntity
  8
_X______
  6
CENTER
 62
         1
100
AcDbLine
 10
1611.3895898921
 20
182.8624526172
 30
0.0
 11
1635.3242136355
 21
117.102614339
 31
0.0
  0
LINE
  5
FA
100
AcDbEntity
  8
_X______
  6
DASHED
 62
         2
100
AcDbLine
 10
1629.5624348063
 20
127.085362768
 30
0.0
 11
1630.9989194082
 21
123.1386537607
 31
0.0
  0
LINE
  5
FB
100
AcDbEntity
  8
_X______
  6
DASHED
 62
         2
100
AcDbLine
 10
1633.3212052894
 20
128.4534433413
 30
0.0
 11
1629.5624348063
 21
127.085362768
 31
0.0
  0
LINE
  5
FC
100
AcDbEntity
  8
_X______
  6
DASHED
 62
         2
100
AcDbLine
 10
1633.3212052894
 20
128.4534433413
 30
0.0
 11
1634.7576898914
 21
124.506734334
 31
0.0
  0
LINE
  5
FD
100
AcDbEntity
  8
_X______
  6
DASHED
 62
         2
100
AcDbLine
 10
1629.0716753259
 20
139.1055994192
 30
0.0
 11
1632.9923128721
 21
128.3337362912
 31
0.0
  0
LINE
  5
FE
100
AcDbEntity
  8
_X______
  6
DASHED
 62
         2
100
AcDbLine
 10
1625.9706896773
 20
137.9769329462
 30
0.0
 11
1629.8913272235
 21
127.2050698182
 31
0.0
  0
LINE
  5
FF
100
AcDbEntity
  8
_X______
  6
DASHED
 62
         2
100
AcDbLine
 10
1616.675353529
 20
173.1642136406
 30
0.0
 11
1620.5959910752
 21
162.3923505125
 31
0.0
  0
LINE
  5
100
100
AcDbEntity
  8
_X______
  6
DASHED
 62
         2
100
AcDbLine
 10
1613.5743678804
 20
172.0355471676
 30
0.0
 11
1617.4950054266
 21
161.2636840396
 31
0.0
  0
LINE
  5
101
100
AcDbEntity
  8
_X______
  6
DASHED
 62
         2
100
AcDbLine
 10
1617.0042459463
 20
173.2839206908
 30
0.0
 11
1615.5677613443
 21
177.2306296981
 31
0.0
  0
LINE
  5
102
100
AcDbEntity
  8
_X______
  6
DASHED
 62
         2
100
AcDbLine
 10
1613.2454754631
 20
171.9158401175
 30
0.0
 11
1611.8089908611
 21
175.8625491248
 31
0.0
  0
LINE
  5
103
100
AcDbEntity
  8
_X______
  6
DASHED
 62
         2
100
AcDbLine
 10
1617.0042459463
 20
173.2839206908
 30
0.0
 11
1613.2454754631
 21
171.9158401175
 31
0.0
  0
LINE
  5
104
100
AcDbEntity
  8
_X______
  6
CENTER
 62
         1
100
AcDbLine
 10
1227.1031401709
 20
183.6483666388
 30
0.0
 11
1202.8730445027
 21
117.0767259189
 31
0.0
  0
LINE
  5
105
100
AcDbEntity
  8
_X______
  6
CENTER
 62
         1
100
AcDbLine
 10
1208.5078743688
 20
123.7868805382
 30
0.0
 11
1202.8697186441
 21
125.8390013981
 31
0.0
  0
POLYLINE
  5
107
100
AcDbEntity
  8
_X______
  6
CONTINUOUS
 62
         7
100
AcDb3dPolyline
 66
         1
 10
0.0
 20
0.0
 30
0.0
 70
         8
  0
VERTEX
  5
109
100
AcDbEntity
  8
_X______
  6
CONTINUOUS
 62
         7
100
AcDbVertex
100
AcDb3dPolylineVertex
 10
1203.8094112649
 20
125.4969812548
 30
0.0
 70
        32
  0
VERTEX
  5
10B
100
AcDbEntity
  8
_X______
  6
CONTINUOUS
 62
         7
100
AcDbVertex
100
AcDb3dPolylineVertex
 10
1203.8094112649
 20
125.4969812548
 30
0.0
 70
        32
  0
SEQEND
  5
10D
100
AcDbEntity
  8
_X______
  6
CONTINUOUS
 62
         7
  0
ARC
  5
10E
100
AcDbEntity
  8
_X______
  6
CONTINUOUS
 62
         7
100
AcDbCircle
 10
1206.6023903184
 20
124.4804200144
 30
0.0
 40
2.9722262277
100
AcDbArc
 50
141.257725858
 51
160.0
  0
POLYLINE
  5
110
100
AcDbEntity
  8
_X______
  6
CONTINUOUS
 62
         7
100
AcDb3dPolyline
 66
         1
 10
0.0
 20
0.0
 30
0.0
 70
         8
  0
VERTEX
  5
112
100
AcDbEntity
  8
_X______
  6
CONTINUOUS
 62
         7
100
AcDbVertex
100
AcDb3dPolylineVertex
 10
1204.2841463667
 20
126.340493596
 30
0.0
 70
        32
  0
VERTEX
  5
114
100
AcDbEntity
  8
_X______
  6
CONTINUOUS
 62
         7
100
AcDbVertex
100
AcDb3dPolylineVertex
 10
1204.2841463667
 20
126.340493596
 30
0.0
 70
        32
  0
SEQEND
  5
116
100
AcDbEntity
  8
_X______
  6
CONTINUOUS
 62
         7
  0
ARC
  5
117
100
AcDbEntity
  8
_X______
  6
CONTINUOUS
 62
         7
100
AcDbCircle
 10
1206.2103129629
 20
124.7950084469
 30
0.0
 40
2.4695428935
100
AcDbArc
 50
120.6773100904
 51
141.257725858
  0
POLYLINE
  5
119
100
AcDbEntity
  8
_X______
  6
CONTINUOUS
 62
         7
100
AcDb3dPolyline
 66
         1
 10
0.0
 20
0.0
 30
0.0
 70
         8
  0
VERTEX
  5
11B
100
AcDbEntity
  8
_X______
  6
CONTINUOUS
 62
         7
100
AcDbVertex
100
AcDb3dPolylineVertex
 10
1204.950346339
 20
126.9189496442
 30
0.0
 70
        32
  0
VERTEX
  5
11D
100
AcDbEntity
  8
_X______
  6
CONTINUOUS
 62
         7
100
AcDbVertex
100
AcDb3dPolylineVertex
 10
1204.950346339
 20
126.9189496442
 30
0.0
 70
        32
  0
SEQEND
  5
11F
100
AcDbEntity
  8
_X______
  6
CONTINUOUS
 62
         7
  0
ARC
  5
120
100
AcDbEntity
  8
_X______
  6
CONTINUOUS
 62
         7
100
AcDbCircle
 10
1206.0105744318
 20
125.1317101395
 30
0.0
 40
2.0780540551
100
AcDbArc
 50
96.8239621528
 51
120.6773100904
  0
POLYLINE
  5
122
100
AcDbEntity
  8
_X______
  6
CONTINUOUS
 62
         7
100
AcDb3dPolyline
 66
         1
 10
0.0
 20
0.0
 30
0.0
 70
         8
  0
VERTEX
  5
124
100
AcDbEntity
  8
_X______
  6
CONTINUOUS
 62
         7
100
AcDbVertex
100
AcDb3dPolylineVertex
 10
1205.7636616399
 20
127.1950430571
 30
0.0
 70
        32
  0
VERTEX
  5
126
100
AcDbEntity
  8
_X______
  6
CONTINUOUS
 62
         7
100
AcDbVertex
100
AcDb3dPolylineVertex
 10
1205.7636616399
 20
127.1950430571
 30
0.0
 70
        32
  0
SEQEND
  5
128
100
AcDbEntity
  8
_X______
  6
CONTINUOUS
 62
         7
  0
ARC
  5
129
100
AcDbEntity
  8
_X______
  6
CONTINUOUS
 62
         7
100
AcDbCircle
 10
1205.9596641031
 20
125.5571435737
 30
0.0
 40
1.6495853065
100
AcDbArc
 50
70.0
 51
96.8239621528
  0
POLYLINE
  5
12B
100
AcDbEntity
  8
_X______
  6
CONTINUOUS
 62
         7
100
AcDb3dPolyline
 66
         1
 10
0.0
 20
0.0
 30
0.0
 70
         8
  0
VERTEX
  5
12D
100
AcDbEntity
  8
_X______
  6
CONTINUOUS
 62
         7
100
AcDbVertex
100
AcDb3dPolylineVertex
 10
1206.5238555061
 20
127.1072467136
 30
0.0
 70
        32
  0
VERTEX
  5
12F
100
AcDbEntity
  8
_X______
  6
CONTINUOUS
 62
         7
100
AcDbVertex
100
AcDb3dPolylineVertex
 10
1206.5238555061
 20
127.1072467136
 30
0.0
 70
        32
  0
SEQEND
  5
131
100
AcDbEntity
  8
_X______
  6
CONTINUOUS
 62
         7
  0
ARC
  5
132
100
AcDbEntity
  8
_X______
  6
CONTINUOUS
 62
         7
100
AcDbCircle
 10
1205.9596641031
 20
125.5571435737
 30
0.0
 40
1.6495853065
100
AcDbArc
 50
43.1760378472
 51
70.0
  0
POLYLINE
  5
134
100
AcDbEntity
  8
_X______
  6
CONTINUOUS
 62
         7
100
AcDb3dPolyline
 66
         1
 10
0.0
 20
0.0
 30
0.0
 70
         8
  0
VERTEX
  5
136
100
AcDbEntity
  8
_X______
  6
CONTINUOUS
 62
         7
100
AcDbVertex
100
AcDb3dPolylineVertex
 10
1207.1626321948
 20
126.6858594165
 30
0.0
 70
        32
  0
VERTEX
  5
138
100
AcDbEntity
  8
_X______
  6
CONTINUOUS
 62
         7
100
AcDbVertex
100
AcDb3dPolylineVertex
 10
1207.1626321948
 20
126.6858594165
 30
0.0
 70
        32
  0
SEQEND
  5
13A
100
AcDbEntity
  8
_X______
  6
CONTINUOUS
 62
         7
  0
ARC
  5
13B
100
AcDbEntity
  8
_X______
  6
CONTINUOUS
 62
         7
100
AcDbCircle
 10
1205.6472011885
 20
125.263967184
 30
0.0
 40
2.0780540551
100
AcDbArc
 50
19.3226899097
 51
43.1760378473
  0
POLYLINE
  5
13D
100
AcDbEntity
  8
_X______
  6
CONTINUOUS
 62
         7
100
AcDb3dPolyline
 66
         1
 10
0.0
 20
0.0
 30
0.0
 70
         8
  0
VERTEX
  5
13F
100
AcDbEntity
  8
_X______
  6
CONTINUOUS
 62
         7
100
AcDbVertex
100
AcDb3dPolylineVertex
 10
1207.6081984366
 20
125.9515705936
 30
0.0
 70
        32
  0
VERTEX
  5
141
100
AcDbEntity
  8
_X______
  6
CONTINUOUS
 62
         7
100
AcDbVertex
100
AcDb3dPolylineVertex
 10
1207.6081984366
 20
125.9515705936
 30
0.0
 70
        32
  0
SEQEND
  5
143
100
AcDbEntity
  8
_X______
  6
CONTINUOUS
 62
         7
  0
ARC
  5
144
100
AcDbEntity
  8
_X______
  6
CONTINUOUS
 62
         7
100
AcDbCircle
 10
1205.2777649205
 20
125.1344281764
 30
0.0
 40
2.4695428935
100
AcDbArc
 50
358.742274142
 51
379.3226899096
  0
POLYLINE
  5
146
100
AcDbEntity
  8
_X______
  6
CONTINUOUS
 62
         7
100
AcDb3dPolyline
 66
         1
 10
0.0
 20
0.0
 30
0.0
 70
         8
  0
VERTEX
  5
148
100
AcDbEntity
  8
_X______
  6
CONTINUOUS
 62
         7
100
AcDbVertex
100
AcDb3dPolylineVertex
 10
1207.7467128429
 20
125.0802224645
 30
0.0
 70
        32
  0
VERTEX
  5
14A
100
AcDbEntity
  8
_X______
  6
CONTINUOUS
 62
         7
100
AcDbVertex
100
AcDb3dPolylineVertex
 10
1207.7467128429
 20
125.0802224645
 30
0.0
 70
        32
  0
SEQEND
  5
14C
100
AcDbEntity
  8
_X______
  6
CONTINUOUS
 62
         7
  0
ARC
  5
14D
100
AcDbEntity
  8
_X______
  6
CONTINUOUS
 62
         7
100
AcDbCircle
 10
1204.7752026945
 20
125.1454619219
 30
0.0
 40
2.9722262277
100
AcDbArc
 50
339.9999999999
 51
358.742274142
  0
POLYLINE
  5
14F
100
AcDbEntity
  8
_X______
  6
CONTINUOUS
 62
         7
100
AcDb3dPolyline
 66
         1
 10
0.0
 20
0.0
 30
0.0
 70
         8
  0
VERTEX
  5
151
100
AcDbEntity
  8
_X______
  6
CONTINUOUS
 62
         7
100
AcDbVertex
100
AcDb3dPolylineVertex
 10
1207.568181748
 20
124.1289006815
 30
0.0
 70
        32
  0
VERTEX
  5
153
100
AcDbEntity
  8
_X______
  6
CONTINUOUS
 62
         7
100
AcDbVertex
100
AcDb3dPolylineVertex
 10
1207.568181748
 20
124.1289006815
 30
0.0
 70
        32
  0
SEQEND
  5
155
100
AcDbEntity
  8
_X______
  6
CONTINUOUS
 62
         7
  0
ARC
  5
156
100
AcDbEntity
  8
_X______
  6
CONTINUOUS
 62
         7
100
AcDbCircle
 10
1204.7752026945
 20
125.1454619219
 30
0.0
 40
2.9722262277
100
AcDbArc
 50
321.257725858
 51
340.0
  0
POLYLINE
  5
158
100
AcDbEntity
  8
_X______
  6
CONTINUOUS
 62
         7
100
AcDb3dPolyline
 66
         1
 10
0.0
 20
0.0
 30
0.0
 70
         8
  0
VERTEX
  5
15A
100
AcDbEntity
  8
_X______
  6
CONTINUOUS
 62
         7
100
AcDbVertex
100
AcDb3dPolylineVertex
 10
1207.0934466463
 20
123.2853883403
 30
0.0
 70
        32
  0
VERTEX
  5
15C
100
AcDbEntity
  8
_X______
  6
CONTINUOUS
 62
         7
100
AcDbVertex
100
AcDb3dPolylineVertex
 10
1207.0934466463
 20
123.2853883403
 30
0.0
 70
        32
  0
SEQEND
  5
15E
100
AcDbEntity
  8
_X______
  6
CONTINUOUS
 62
         7
  0
ARC
  5
15F
100
AcDbEntity
  8
_X______
  6
CONTINUOUS
 62
         7
100
AcDbCircle
 10
1205.16728005
 20
124.8308734895
 30
0.0
 40
2.4695428935
100
AcDbArc
 50
300.6773100904
 51
321.2577258581
  0
POLYLINE
  5
161
100
AcDbEntity
  8
_X______
  6
CONTINUOUS
 62
         7
100
AcDb3dPolyline
 66
         1
 10
0.0
 20
0.0
 30
0.0
 70
         8
  0
VERTEX
  5
163
100
AcDbEntity
  8
_X______
  6
CONTINUOUS
 62
         7
100
AcDbVertex
100
AcDb3dPolylineVertex
 10
1206.4272466739
 20
122.7069322922
 30
0.0
 70
        32
  0
VERTEX
  5
165
100
AcDbEntity
  8
_X______
  6
CONTINUOUS
 62
         7
100
AcDbVertex
100
AcDb3dPolylineVertex
 10
1206.4272466739
 20
122.7069322922
 30
0.0
 70
        32
  0
SEQEND
  5
167
100
AcDbEntity
  8
_X______
  6
CONTINUOUS
 62
         7
  0
ARC
  5
168
100
AcDbEntity
  8
_X______
  6
CONTINUOUS
 62
         7
100
AcDbCircle
 10
1205.3670185811
 20
124.4941717969
 30
0.0
 40
2.0780540551
100
AcDbArc
 50
276.8239621528
 51
300.6773100903
  0
POLYLINE
  5
16A
100
AcDbEntity
  8
_X______
  6
CONTINUOUS
 62
         7
100
AcDb3dPolyline
 66
         1
 10
0.0
 20
0.0
 30
0.0
 70
         8
  0
VERTEX
  5
16C
100
AcDbEntity
  8
_X______
  6
CONTINUOUS
 62
         7
100
AcDbVertex
100
AcDb3dPolylineVertex
 10
1205.6139313731
 20
122.4308388792
 30
0.0
 70
        32
  0
VERTEX
  5
16E
100
AcDbEntity
  8
_X______
  6
CONTINUOUS
 62
         7
100
AcDbVertex
100
AcDb3dPolylineVertex
 10
1205.6139313731
 20
122.4308388792
 30
0.0
 70
        32
  0
SEQEND
  5
170
100
AcDbEntity
  8
_X______
  6
CONTINUOUS
 62
         7
  0
ARC
  5
171
100
AcDbEntity
  8
_X______
  6
CONTINUOUS
 62
         7
100
AcDbCircle
 10
1205.4179289098
 20
124.0687383626
 30
0.0
 40
1.6495853065
100
AcDbArc
 50
250.0
 51
276.8239621528
  0
POLYLINE
  5
173
100
AcDbEntity
  8
_X______
  6
CONTINUOUS
 62
         7
100
AcDb3dPolyline
 66
         1
 10
0.0
 20
0.0
 30
0.0
 70
         8
  0
VERTEX
  5
175
100
AcDbEntity
  8
_X______
  6
CONTINUOUS
 62
         7
100
AcDbVertex
100
AcDb3dPolylineVertex
 10
1204.8537375068
 20
122.5186352228
 30
0.0
 70
        32
  0
VERTEX
  5
177
100
AcDbEntity
  8
_X______
  6
CONTINUOUS
 62
         7
100
AcDbVertex
100
AcDb3dPolylineVertex
 10
1204.8537375068
 20
122.5186352228
 30
0.0
 70
        32
  0
SEQEND
  5
179
100
AcDbEntity
  8
_X______
  6
CONTINUOUS
 62
         7
  0
ARC
  5
17A
100
AcDbEntity
  8
_X______
  6
CONTINUOUS
 62
         7
100
AcDbCircle
 10
1205.4179289098
 20
124.0687383626
 30
0.0
 40
1.6495853065
100
AcDbArc
 50
223.1760378472
 51
250.0
  0
POLYLINE
  5
17C
100
AcDbEntity
  8
_X______
  6
CONTINUOUS
 62
         7
100
AcDb3dPolyline
 66
         1
 10
0.0
 20
0.0
 30
0.0
 70
         8
  0
VERTEX
  5
17E
100
AcDbEntity
  8
_X______
  6
CONTINUOUS
 62
         7
100
AcDbVertex
100
AcDb3dPolylineVertex
 10
1204.2149608181
 20
122.9400225198
 30
0.0
 70
        32
  0
VERTEX
  5
180
100
AcDbEntity
  8
_X______
  6
CONTINUOUS
 62
         7
100
AcDbVertex
100
AcDb3dPolylineVertex
 10
1204.2149608181
 20
122.9400225198
 30
0.0
 70
        32
  0
SEQEND
  5
182
100
AcDbEntity
  8
_X______
  6
CONTINUOUS
 62
         7
  0
ARC
  5
183
100
AcDbEntity
  8
_X______
  6
CONTINUOUS
 62
         7
100
AcDbCircle
 10
1205.7303918245
 20
124.3619147524
 30
0.0
 40
2.0780540551
100
AcDbArc
 50
199.3226899096
 51
223.1760378473
  0
ARC
  5
184
100
AcDbEntity
  8
_X______
  6
CONTINUOUS
 62
         7
100
AcDbCircle
 10
1206.0998280924
 20
124.49145376
 30
0.0
 40
2.4695428935
100
AcDbArc
 50
178.742274142
 51
199.3226899096
  0
ARC
  5
185
100
AcDbEntity
  8
_X______
  6
CONTINUOUS
 62
         7
100
AcDbCircle
 10
1206.6023903184
 20
124.4804200144
 30
0.0
 40
2.9722262277
100
AcDbArc
 50
160.0
 51
178.742274142
  0
POLYLINE
  5
187
100
AcDbEntity
  8
_X______
  6
CONTINUOUS
 62
         7
100
AcDb3dPolyline
 66
         1
 10
0.0
 20
0.0
 30
0.0
 70
         8
  0
VERTEX
  5
189
100
AcDbEntity
  8
_X______
  6
CONTINUOUS
 62
         7
100
AcDbVertex
100
AcDb3dPolylineVertex
 10
1222.2784990045
 20
176.2403827773
 30
0.0
 70
        32
  0
VERTEX
  5
18B
100
AcDbEntity
  8
_X______
  6
CONTINUOUS
 62
         7
100
AcDbVertex
100
AcDb3dPolylineVertex
 10
1222.2784990045
 20
176.2403827773
 30
0.0
 70
        32
  0
SEQEND
  5
18D
100
AcDbEntity
  8
_X______
  6
CONTINUOUS
 62
         7
  0
ARC
  5
18E
100
AcDbEntity
  8
_X______
  6
CONTINUOUS
 62
         7
100
AcDbCircle
 10
1225.071478058
 20
175.2238215369
 30
0.0
 40
2.9722262277
100
AcDbArc
 50
160.0
 51
178.7422741421
  0
POLYLINE
  5
190
100
AcDbEntity
  8
_X______
  6
CONTINUOUS
 62
         7
100
AcDb3dPolyline
 66
         1
 10
0.0
 20
0.0
 30
0.0
 70
         8
  0
VERTEX
  5
192
100
AcDbEntity
  8
_X______
  6
CONTINUOUS
 62
         7
100
AcDbVertex
100
AcDb3dPolylineVertex
 10
1222.0999679096
 20
175.2890609943
 30
0.0
 70
        32
  0
VERTEX
  5
194
100
AcDbEntity
  8
_X______
  6
CONTINUOUS
 62
         7
100
AcDbVertex
100
AcDb3dPolylineVertex
 10
1222.0999679096
 20
175.2890609943
 30
0.0
 70
        32
  0
SEQEND
  5
196
100
AcDbEntity
  8
_X______
  6
CONTINUOUS
 62
         7
  0
ARC
  5
197
100
AcDbEntity
  8
_X______
  6
CONTINUOUS
 62
         7
100
AcDbCircle
 10
1224.568915832
 20
175.2348552824
 30
0.0
 40
2.4695428935
100
AcDbArc
 50
178.7422741421
 51
199.3226899097
  0
POLYLINE
  5
199
100
AcDbEntity
  8
_X______
  6
CONTINUOUS
 62
         7
100
AcDb3dPolyline
 66
         1
 10
0.0
 20
0.0
 30
0.0
 70
         8
  0
VERTEX
  5
19B
100
AcDbEntity
  8
_X______
  6
CONTINUOUS
 62
         7
100
AcDbVertex
100
AcDb3dPolylineVertex
 10
1222.2384823159
 20
174.4177128652
 30
0.0
 70
        32
  0
VERTEX
  5
19D
100
AcDbEntity
  8
_X______
  6
CONTINUOUS
 62
         7
100
AcDbVertex
100
AcDb3dPolylineVertex
 10
1222.2384823159
 20
174.4177128652
 30
0.0
 70
        32
  0
SEQEND
  5
19F
100
AcDbEntity
  8
_X______
  6
CONTINUOUS
 62
         7
  0
ARC
  5
1A0
100
AcDbEntity
  8
_X______
  6
CONTINUOUS
 62
         7
100
AcDbCircle
 10
1224.199479564
 20
175.1053162748
 30
0.0
 40
2.0780540551
100
AcDbArc
 50
199.3226899097
 51
223.1760378473
  0
POLYLINE
  5
1A2
100
AcDbEntity
  8
_X______
  6
CONTINUOUS
 62
         7
100
AcDb3dPolyline
 66
         1
 10
0.0
 20
0.0
 30
0.0
 70
         8
  0
VERTEX
  5
1A4
100
AcDbEntity
  8
_X______
  6
CONTINUOUS
 62
         7
100
AcDbVertex
100
AcDb3dPolylineVertex
 10
1222.6840485577
 20
173.6834240423
 30
0.0
 70
        32
  0
VERTEX
  5
1A6
100
AcDbEntity
  8
_X______
  6
CONTINUOUS
 62
         7
100
AcDbVertex
100
AcDb3dPolylineVertex
 10
1222.6840485577
 20
173.6834240423
 30
0.0
 70
        32
  0
SEQEND
  5
1A8
100
AcDbEntity
  8
_X______
  6
CONTINUOUS
 62
         7
  0
ARC
  5
1A9
100
AcDbEntity
  8
_X______
  6
CONTINUOUS
 62
         7
100
AcDbCircle
 10
1223.8870166494
 20
174.8121398851
 30
0.0
 40
1.6495853065
100
AcDbArc
 50
223.1760378472
 51
249.9999999999
  0
POLYLINE
  5
1AB
100
AcDbEntity
  8
_X______
  6
CONTINUOUS
 62
         7
100
AcDb3dPolyline
 66
         1
 10
0.0
 20
0.0
 30
0.0
 70
         8
  0
VERTEX
  5
1AD
100
AcDbEntity
  8
_X______
  6
CONTINUOUS
 62
         7
100
AcDbVertex
100
AcDb3dPolylineVertex
 10
1223.3228252464
 20
173.2620367452
 30
0.0
 70
        32
  0
VERTEX
  5
1AF
100
AcDbEntity
  8
_X______
  6
CONTINUOUS
 62
         7
100
AcDbVertex
100
AcDb3dPolylineVertex
 10
1223.3228252464
 20
173.2620367452
 30
0.0
 70
        32
  0
SEQEND
  5
1B1
100
AcDbEntity
  8
_X______
  6
CONTINUOUS
 62
         7
  0
ARC
  5
1B2
100
AcDbEntity
  8
_X______
  6
CONTINUOUS
 62
         7
100
AcDbCircle
 10
1223.8870166494
 20
174.8121398851
 30
0.0
 40
1.6495853065
100
AcDbArc
 50
250.0
 51
276.8239621528
  0
POLYLINE
  5
1B4
100
AcDbEntity
  8
_X______
  6
CONTINUOUS
 62
         7
100
AcDb3dPolyline
 66
         1
 10
0.0
 20
0.0
 30
0.0
 70
         8
  0
VERTEX
  5
1B6
100
AcDbEntity
  8
_X______
  6
CONTINUOUS
 62
         7
100
AcDbVertex
100
AcDb3dPolylineVertex
 10
1224.0830191126
 20
173.1742404017
 30
0.0
 70
        32
  0
VERTEX
  5
1B8
100
AcDbEntity
  8
_X______
  6
CONTINUOUS
 62
         7
100
AcDbVertex
100
AcDb3dPolylineVertex
 10
1224.0830191126
 20
173.1742404017
 30
0.0
 70
        32
  0
SEQEND
  5
1BA
100
AcDbEntity
  8
_X______
  6
CONTINUOUS
 62
         7
  0
ARC
  5
1BB
100
AcDbEntity
  8
_X______
  6
CONTINUOUS
 62
         7
100
AcDbCircle
 10
1223.8361063207
 20
175.2375733193
 30
0.0
 40
2.0780540551
100
AcDbArc
 50
276.8239621528
 51
300.6773100904
  0
POLYLINE
  5
1BD
100
AcDbEntity
  8
_X______
  6
CONTINUOUS
 62
         7
100
AcDb3dPolyline
 66
         1
 10
0.0
 20
0.0
 30
0.0
 70
         8
  0
VERTEX
  5
1BF
100
AcDbEntity
  8
_X______
  6
CONTINUOUS
 62
         7
100
AcDbVertex
100
AcDb3dPolylineVertex
 10
1224.8963344135
 20
173.4503338146
 30
0.0
 70
        32
  0
VERTEX
  5
1C1
100
AcDbEntity
  8
_X______
  6
CONTINUOUS
 62
         7
100
AcDbVertex
100
AcDb3dPolylineVertex
 10
1224.8963344135
 20
173.4503338146
 30
0.0
 70
        32
  0
SEQEND
  5
1C3
100
AcDbEntity
  8
_X______
  6
CONTINUOUS
 62
         7
  0
ARC
  5
1C4
100
AcDbEntity
  8
_X______
  6
CONTINUOUS
 62
         7
100
AcDbCircle
 10
1223.6363677896
 20
175.5742750119
 30
0.0
 40
2.4695428935
100
AcDbArc
 50
300.6773100903
 51
321.257725858
  0
POLYLINE
  5
1C6
100
AcDbEntity
  8
_X______
  6
CONTINUOUS
 62
         7
100
AcDb3dPolyline
 66
         1
 10
0.0
 20
0.0
 30
0.0
 70
         8
  0
VERTEX
  5
1C8
100
AcDbEntity
  8
_X______
  6
CONTINUOUS
 62
         7
100
AcDbVertex
100
AcDb3dPolylineVertex
 10
1225.5625343858
 20
174.0287898627
 30
0.0
 70
        32
  0
VERTEX
  5
1CA
100
AcDbEntity
  8
_X______
  6
CONTINUOUS
 62
         7
100
AcDbVertex
100
AcDb3dPolylineVertex
 10
1225.5625343858
 20
174.0287898627
 30
0.0
 70
        32
  0
SEQEND
  5
1CC
100
AcDbEntity
  8
_X______
  6
CONTINUOUS
 62
         7
  0
ARC
  5
1CD
100
AcDbEntity
  8
_X______
  6
CONTINUOUS
 62
         7
100
AcDbCircle
 10
1223.2442904341
 20
175.8888634444
 30
0.0
 40
2.9722262277
100
AcDbArc
 50
321.257725858
 51
340.0
  0
POLYLINE
  5
1CF
100
AcDbEntity
  8
_X______
  6
CONTINUOUS
 62
         7
100
AcDb3dPolyline
 66
         1
 10
0.0
 20
0.0
 30
0.0
 70
         8
  0
VERTEX
  5
1D1
100
AcDbEntity
  8
_X______
  6
CONTINUOUS
 62
         7
100
AcDbVertex
100
AcDb3dPolylineVertex
 10
1226.0372694876
 20
174.872302204
 30
0.0
 70
        32
  0
VERTEX
  5
1D3
100
AcDbEntity
  8
_X______
  6
CONTINUOUS
 62
         7
100
AcDbVertex
100
AcDb3dPolylineVertex
 10
1226.0372694876
 20
174.872302204
 30
0.0
 70
        32
  0
SEQEND
  5
1D5
100
AcDbEntity
  8
_X______
  6
CONTINUOUS
 62
         7
  0
ARC
  5
1D6
100
AcDbEntity
  8
_X______
  6
CONTINUOUS
 62
         7
100
AcDbCircle
 10
1223.2442904341
 20
175.8888634444
 30
0.0
 40
2.9722262277
100
AcDbArc
 50
339.9999999999
 51
358.742274142
  0
POLYLINE
  5
1D8
100
AcDbEntity
  8
_X______
  6
CONTINUOUS
 62
         7
100
AcDb3dPolyline
 66
         1
 10
0.0
 20
0.0
 30
0.0
 70
         8
  0
VERTEX
  5
1DA
100
AcDbEntity
  8
_X______
  6
CONTINUOUS
 62
         7
100
AcDbVertex
100
AcDb3dPolylineVertex
 10
1226.2158005825
 20
175.823623987
 30
0.0
 70
        32
  0
VERTEX
  5
1DC
100
AcDbEntity
  8
_X______
  6
CONTINUOUS
 62
         7
100
AcDbVertex
100
AcDb3dPolylineVertex
 10
1226.2158005825
 20
175.823623987
 30
0.0
 70
        32
  0
SEQEND
  5
1DE
100
AcDbEntity
  8
_X______
  6
CONTINUOUS
 62
         7
  0
ARC
  5
1DF
100
AcDbEntity
  8
_X______
  6
CONTINUOUS
 62
         7
100
AcDbCircle
 10
1223.7468526601
 20
175.8778296988
 30
0.0
 40
2.4695428935
100
AcDbArc
 50
358.742274142
 51
379.3226899097
  0
POLYLINE
  5
1E1
100
AcDbEntity
  8
_X______
  6
CONTINUOUS
 62
         7
100
AcDb3dPolyline
 66
         1
 10
0.0
 20
0.0
 30
0.0
 70
         8
  0
VERTEX
  5
1E3
100
AcDbEntity
  8
_X______
  6
CONTINUOUS
 62
         7
100
AcDbVertex
100
AcDb3dPolylineVertex
 10
1226.0772861762
 20
176.694972116
 30
0.0
 70
        32
  0
VERTEX
  5
1E5
100
AcDbEntity
  8
_X______
  6
CONTINUOUS
 62
         7
100
AcDbVertex
100
AcDb3dPolylineVertex
 10
1226.0772861762
 20
176.694972116
 30
0.0
 70
        32
  0
SEQEND
  5
1E7
100
AcDbEntity
  8
_X______
  6
CONTINUOUS
 62
         7
  0
ARC
  5
1E8
100
AcDbEntity
  8
_X______
  6
CONTINUOUS
 62
         7
100
AcDbCircle
 10
1224.1162889281
 20
176.0073687064
 30
0.0
 40
2.0780540551
100
AcDbArc
 50
19.3226899096
 51
43.1760378472
  0
POLYLINE
  5
1EA
100
AcDbEntity
  8
_X______
  6
CONTINUOUS
 62
         7
100
AcDb3dPolyline
 66
         1
 10
0.0
 20
0.0
 30
0.0
 70
         8
  0
VERTEX
  5
1EC
100
AcDbEntity
  8
_X______
  6
CONTINUOUS
 62
         7
100
AcDbVertex
100
AcDb3dPolylineVertex
 10
1225.6317199344
 20
177.429260939
 30
0.0
 70
        32
  0
VERTEX
  5
1EE
100
AcDbEntity
  8
_X______
  6
CONTINUOUS
 62
         7
100
AcDbVertex
100
AcDb3dPolylineVertex
 10
1225.6317199344
 20
177.429260939
 30
0.0
 70
        32
  0
SEQEND
  5
1F0
100
AcDbEntity
  8
_X______
  6
CONTINUOUS
 62
         7
  0
ARC
  5
1F1
100
AcDbEntity
  8
_X______
  6
CONTINUOUS
 62
         7
100
AcDbCircle
 10
1224.4287518427
 20
176.3005450962
 30
0.0
 40
1.6495853065
100
AcDbArc
 50
43.1760378472
 51
70.0
  0
POLYLINE
  5
1F3
100
AcDbEntity
  8
_X______
  6
CONTINUOUS
 62
         7
100
AcDb3dPolyline
 66
         1
 10
0.0
 20
0.0
 30
0.0
 70
         8
  0
VERTEX
  5
1F5
100
AcDbEntity
  8
_X______
  6
CONTINUOUS
 62
         7
100
AcDbVertex
100
AcDb3dPolylineVertex
 10
1224.9929432457
 20
177.850648236
 30
0.0
 70
        32
  0
VERTEX
  5
1F7
100
AcDbEntity
  8
_X______
  6
CONTINUOUS
 62
         7
100
AcDbVertex
100
AcDb3dPolylineVertex
 10
1224.9929432457
 20
177.850648236
 30
0.0
 70
        32
  0
SEQEND
  5
1F9
100
AcDbEntity
  8
_X______
  6
CONTINUOUS
 62
         7
  0
ARC
  5
1FA
100
AcDbEntity
  8
_X______
  6
CONTINUOUS
 62
         7
100
AcDbCircle
 10
1224.4287518427
 20
176.3005450962
 30
0.0
 40
1.6495853065
100
AcDbArc
 50
70.0000000001
 51
96.8239621529
  0
POLYLINE
  5
1FC
100
AcDbEntity
  8
_X______
  6
CONTINUOUS
 62
         7
100
AcDb3dPolyline
 66
         1
 10
0.0
 20
0.0
 30
0.0
 70
         8
  0
VERTEX
  5
1FE
100
AcDbEntity
  8
_X______
  6
CONTINUOUS
 62
         7
100
AcDbVertex
100
AcDb3dPolylineVertex
 10
1224.2327493795
 20
177.9384445796
 30
0.0
 70
        32
  0
VERTEX
  5
200
100
AcDbEntity
  8
_X______
  6
CONTINUOUS
 62
         7
100
AcDbVertex
100
AcDb3dPolylineVertex
 10
1224.2327493795
 20
177.9384445796
 30
0.0
 70
        32
  0
SEQEND
  5
202
100
AcDbEntity
  8
_X______
  6
CONTINUOUS
 62
         7
  0
ARC
  5
203
100
AcDbEntity
  8
_X______
  6
CONTINUOUS
 62
         7
100
AcDbCircle
 10
1224.4796621714
 20
175.8751116619
 30
0.0
 40
2.0780540551
100
AcDbArc
 50
96.8239621528
 51
120.6773100904
  0
POLYLINE
  5
205
100
AcDbEntity
  8
_X______
  6
CONTINUOUS
 62
         7
100
AcDb3dPolyline
 66
         1
 10
0.0
 20
0.0
 30
0.0
 70
         8
  0
VERTEX
  5
207
100
AcDbEntity
  8
_X______
  6
CONTINUOUS
 62
         7
100
AcDbVertex
100
AcDb3dPolylineVertex
 10
1223.4194340786
 20
177.6623511666
 30
0.0
 70
        32
  0
VERTEX
  5
209
100
AcDbEntity
  8
_X______
  6
CONTINUOUS
 62
         7
100
AcDbVertex
100
AcDb3dPolylineVertex
 10
1223.4194340786
 20
177.6623511666
 30
0.0
 70
        32
  0
SEQEND
  5
20B
100
AcDbEntity
  8
_X______
  6
CONTINUOUS
 62
         7
  0
ARC
  5
20C
100
AcDbEntity
  8
_X______
  6
CONTINUOUS
 62
         7
100
AcDbCircle
 10
1224.6794007025
 20
175.5384099693
 30
0.0
 40
2.4695428935
100
AcDbArc
 50
120.6773100903
 51
141.257725858
  0
ARC
  5
20D
100
AcDbEntity
  8
_X______
  6
CONTINUOUS
 62
         7
100
AcDbCircle
 10
1225.071478058
 20
175.2238215369
 30
0.0
 40
2.9722262277
100
AcDbArc
 50
141.257725858
 51
160.0
  0
LINE
  5
20E
100
AcDbEntity
  8
_X______
  6
CENTER
 62
         1
100
AcDbLine
 10
1226.9769621084
 20
174.5302820606
 30
0.0
 11
1221.3388063837
 21
176.5824029206
 31
0.0
  0
LINE
  5
20F
100
AcDbEntity
  8
L1_80
  6
CONTINUOUS
 62
         7
100
AcDbLine
 10
1364.514960716
 20
-19.9433347407
 30
0.0
 11
1360.2033403763
 21
-19.9433347407
 31
0.0
  0
LINE
  5
210
100
AcDbEntity
  8
L1_80
  6
CONTINUOUS
 62
         7
100
AcDbLine
 10
1364.514960716
 20
-5.9433347407
 30
0.0
 11
1360.2033403763
 21
-5.9433347407
 31
0.0
  0
ARC
  5
211
100
AcDbEntity
  8
L1_80
  6
CONTINUOUS
 62
         7
100
AcDbCircle
 10
1465.0033403763
 20
-30.9433347407
 30
0.0
 40
2.0
100
AcDbArc
 50
270.0
 51
360.0
  0
ARC
  5
212
100
AcDbEntity
  8
L1_80
  6
CONTINUOUS
 62
         7
100
AcDbCircle
 10
1465.0033403763
 20
5.0566652593
 30
0.0
 40
2.0
100
AcDbArc
 50
0.0
 51
90.0
  0
LINE
  5
213
100
AcDbEntity
  8
L1_80
  6
CONTINUOUS
 62
         4
100
AcDbLine
 10
1451.0033403763
 20
6.0566652593
 30
0.0
 11
1466.7353911838
 21
6.0566652593
 31
0.0
  0
LINE
  5
214
100
AcDbEntity
  8
L1_80
  6
CONTINUOUS
 62
         7
100
AcDbLine
 10
1465.0033403763
 20
7.0566652593
 30
0.0
 11
1449.0033403763
 21
7.0566652593
 31
0.0
  0
ARC
  5
215
100
AcDbEntity
  8
L1_80
  6
CONTINUOUS
 62
         7
100
AcDbCircle
 10
1465.0033403763
 20
5.0566652593
 30
0.0
 40
2.0
100
AcDbArc
 50
0.0
 51
90.0
  0
ARC
  5
216
100
AcDbEntity
  8
L1_80
  6
CONTINUOUS
 62
         7
100
AcDbCircle
 10
1465.0033403763
 20
-30.9433347407
 30
0.0
 40
2.0
100
AcDbArc
 50
270.0
 51
360.0
  0
LINE
  5
217
100
AcDbEntity
  8
L1_80
  6
CONTINUOUS
 62
         7
100
AcDbLine
 10
1465.0033403763
 20
-32.9433347407
 30
0.0
 11
1449.0033403763
 21
-32.9433347407
 31
0.0
  0
LINE
  5
218
100
AcDbEntity
  8
L1_80
  6
CONTINUOUS
 62
         4
100
AcDbLine
 10
1451.0033403763
 20
-31.9433347407
 30
0.0
 11
1466.7353911838
 21
-31.9433347407
 31
0.0
  0
LINE
  5
219
100
AcDbEntity
  8
L1_80
  6
CONTINUOUS
 62
         7
100
AcDbLine
 10
1451.0033403763
 20
-32.9433347407
 30
0.0
 11
1451.0033403763
 21
-31.9433347407
 31
0.0
  0
LINE
  5
21A
100
AcDbEntity
  8
L1_80
  6
CONTINUOUS
 62
         7
100
AcDbLine
 10
1451.0033403763
 20
6.0566652593
 30
0.0
 11
1451.0033403763
 21
7.0566652593
 31
0.0
  0
DIMENSION
  5
21D
100
AcDbEntity
  8
L1_80
  6
CONTINUOUS
 62
         4
100
AcDbDimension
  2
*D4
 10
1451.0033403763
 20
-43.5955824982
 30
0.0
 11
1456.1745216898
 21
-41.5705824982
 31
0.0
  3
DIMSTYLE1
100
AcDbAlignedDimension
 13
1451.0033403763
 23
-31.9433347407
 33
0.0
 14
1467.0033403763
 24
-30.9433347407
 34
0.0
100
AcDbRotatedDimension
  0
LINE
  5
229
100
AcDbEntity
  8
L1_80
  6
CONTINUOUS
 62
         7
100
AcDbLine
 10
1467.0033403763
 20
-30.9433347407
 30
0.0
 11
1467.0033403763
 21
5.0566652593
 31
0.0
  0
LINE
  5
22A
100
AcDbEntity
  8
L1_80
  6
CENTER
 62
         1
100
AcDbLine
 10
1419.1033403763
 20
-12.9433347407
 30
0.0
 11
1469.2126039409
 21
-12.9433347407
 31
0.0
  0
LINE
  5
22B
100
AcDbEntity
  8
L1_80
  6
CENTER
 62
         1
100
AcDbLine
 10
1419.1033403763
 20
150.1846417294
 30
0.0
 11
1469.5232924663
 21
150.1846417294
 31
0.0
  0
ARC
  5
22C
100
AcDbEntity
  8
L1_80
  6
CONTINUOUS
 62
         7
100
AcDbCircle
 10
1465.0033403763
 20
132.1846417294
 30
0.0
 40
2.0
100
AcDbArc
 50
270.0
 51
360.0
  0
ARC
  5
22D
100
AcDbEntity
  8
L1_80
  6
CONTINUOUS
 62
         7
100
AcDbCircle
 10
1465.0033403763
 20
168.1846417294
 30
0.0
 40
2.0
100
AcDbArc
 50
0.0
 51
90.0
  0
LINE
  5
22E
100
AcDbEntity
  8
L1_80
  6
CONTINUOUS
 62
         7
100
AcDbLine
 10
1467.0033403763
 20
132.1846417294
 30
0.0
 11
1467.0033403763
 21
168.1846417294
 31
0.0
  0
LINE
  5
22F
100
AcDbEntity
  8
L1_80
  6
CONTINUOUS
 62
         4
100
AcDbLine
 10
1452.0033403763
 20
169.1846417294
 30
0.0
 11
1466.7353911838
 21
169.1846417294
 31
0.0
  0
LINE
  5
230
100
AcDbEntity
  8
L1_80
  6
CONTINUOUS
 62
         4
100
AcDbLine
 10
1452.0033403763
 20
131.1846417294
 30
0.0
 11
1466.7353911838
 21
131.1846417294
 31
0.0
  0
LINE
  5
231
100
AcDbEntity
  8
L1_80
  6
CONTINUOUS
 62
         4
100
AcDbLine
 10
1451.0033403763
 20
169.1846417294
 30
0.0
 11
1466.7353911838
 21
169.1846417294
 31
0.0
  0
LINE
  5
232
100
AcDbEntity
  8
L1_80
  6
CONTINUOUS
 62
         7
100
AcDbLine
 10
1465.5033403763
 20
170.1846417294
 30
0.0
 11
1449.0033403763
 21
170.1846417294
 31
0.0
  0
ARC
  5
233
100
AcDbEntity
  8
L1_80
  6
CONTINUOUS
 62
         7
100
AcDbCircle
 10
1465.0033403763
 20
168.1846417294
 30
0.0
 40
2.0
100
AcDbArc
 50
0.0
 51
90.0
  0
LINE
  5
234
100
AcDbEntity
  8
L1_80
  6
CONTINUOUS
 62
         7
100
AcDbLine
 10
1467.0033403763
 20
132.1846417294
 30
0.0
 11
1467.0033403763
 21
168.1846417294
 31
0.0
  0
ARC
  5
235
100
AcDbEntity
  8
L1_80
  6
CONTINUOUS
 62
         7
100
AcDbCircle
 10
1465.0033403763
 20
132.1846417294
 30
0.0
 40
2.0
100
AcDbArc
 50
270.0
 51
360.0
  0
LINE
  5
236
100
AcDbEntity
  8
L1_80
  6
CONTINUOUS
 62
         7
100
AcDbLine
 10
1465.5033403763
 20
130.1846417294
 30
0.0
 11
1449.0033403763
 21
130.1846417294
 31
0.0
  0
LINE
  5
237
100
AcDbEntity
  8
L1_80
  6
CONTINUOUS
 62
         4
100
AcDbLine
 10
1451.0033403763
 20
131.1846417294
 30
0.0
 11
1466.7353911838
 21
131.1846417294
 31
0.0
  0
LINE
  5
238
100
AcDbEntity
  8
L1_80
  6
CONTINUOUS
 62
         7
100
AcDbLine
 10
1451.0033403763
 20
130.1846417294
 30
0.0
 11
1451.0033403763
 21
170.1846417294
 31
0.0
  0
DIMENSION
  5
23B
100
AcDbEntity
  8
L1_80
  6
CONTINUOUS
 62
         4
100
AcDbDimension
  2
*D5
 10
1400.0033403763
 20
214.0253549573
 30
0.0
 11
1430.3341180757
 21
216.0503549573
 31
0.0
  3
DIMSTYLE1
100
AcDbAlignedDimension
 13
1400.0033403763
 23
172.4096417294
 33
0.0
 14
1467.0033403763
 24
150.1846417294
 34
0.0
100
AcDbRotatedDimension
  0
DIMENSION
  5
249
100
AcDbEntity
  8
L1_80
  6
CONTINUOUS
 62
         4
100
AcDbDimension
  2
*D6
 10
1331.7533403763
 20
222.1695310519
 30
0.0
 11
1391.3801125657
 21
224.1945310519
 31
0.0
  3
DIMSTYLE1
100
AcDbAlignedDimension
 13
1331.7533403763
 23
161.4188234458
 33
0.0
 14
1467.0033403763
 24
150.1846417294
 34
0.0
100
AcDbRotatedDimension
  0
LINE
  5
255
100
AcDbEntity
  8
L1_80
  6
CONTINUOUS
 62
         7
100
AcDbLine
 10
1403.2033403763
 20
180.9596417294
 30
0.0
 11
1403.2033403763
 21
119.4096417294
 31
0.0
  0
LINE
  5
256
100
AcDbEntity
  8
L1_80
  6
CENTER
 62
         1
100
AcDbLine
 10
1400.0033403763
 20
172.4096417294
 30
0.0
 11
1400.0033403763
 21
127.9596417294
 31
0.0
  0
LINE
  5
257
100
AcDbEntity
  8
L1_80
  6
CONTINUOUS
 62
         7
100
AcDbLine
 10
1331.7533403763
 20
161.4188234458
 30
0.0
 11
1331.7533403763
 21
138.9504600129
 31
0.0
  0
DIMENSION
  5
25A
100
AcDbEntity
  8
L1_80
  6
CONTINUOUS
 62
         4
100
AcDbDimension
  2
*D7
 10
1377.0033403763
 20
-64.42055634
 30
0.0
 11
1419.7893819603
 21
-62.39555634
 31
0.0
  3
DIMSTYLE1
100
AcDbAlignedDimension
 13
1377.0033403763
 23
-24.9433347407
 33
0.0
 14
1467.0033403763
 24
-31.9433347407
 34
0.0
100
AcDbRotatedDimension
  0
LINE
  5
266
100
AcDbEntity
  8
L1_80
  6
CONTINUOUS
 62
         4
100
AcDbLine
 10
1465.7121000277
 20
-28.7618627443
 30
0.0
 11
1465.7121000277
 21
2.8751932629
 31
0.0
  0
LINE
  5
267
100
AcDbEntity
  8
L1_80
  6
CONTINUOUS
 62
         7
100
AcDbLine
 10
1367.0033403763
 20
-24.2533347407
 30
0.0
 11
1367.0033403763
 21
-1.6333347407
 31
0.0
  0
LINE
  5
268
100
AcDbEntity
  8
L1_80
  6
CONTINUOUS
 62
         7
100
AcDbLine
 10
1377.0033403763
 20
-24.8495847407
 30
0.0
 11
1377.0033403763
 21
-1.0370847407
 31
0.0
  0
CIRCLE
  5
269
100
AcDbEntity
  8
L1_80
  6
CONTINUOUS
 62
         7
100
AcDbCircle
 10
1623.2833403763
 20
150.1846417294
 30
0.0
 40
20.0
  0
CIRCLE
  5
26A
100
AcDbEntity
  8
L1_80
  6
CONTINUOUS
 62
         7
100
AcDbCircle
 10
1623.2833403763
 20
150.1846417294
 30
0.0
 40
16.0
  0
ARC
  5
26B
100
AcDbEntity
  8
L1_80
  6
CONTINUOUS
 62
         4
100
AcDbCircle
 10
1623.2833403763
 20
150.1846417294
 30
0.0
 40
19.0
100
AcDbArc
 50
165.9957742927
 51
464.626061893
  0
CIRCLE
  5
26C
100
AcDbEntity
  8
L1_80
  6
CONTINUOUS
 62
         7
100
AcDbCircle
 10
1623.2833403763
 20
150.1846417294
 30
0.0
 40
12.5
  0
CIRCLE
  5
26D
100
AcDbEntity
  8
L1_80
  6
CONTINUOUS
 62
         7
100
AcDbCircle
 10
1623.2833403763
 20
150.1846417294
 30
0.0
 40
10.245
  0
ARC
  5
26E
100
AcDbEntity
  8
L1_80
  6
CONTINUOUS
 62
         4
100
AcDbCircle
 10
1623.2833403763
 20
150.1846417294
 30
0.0
 40
11.11
100
AcDbArc
 50
180.0
 51
450.0
  0
ARC
  5
26F
100
AcDbEntity
  8
_Y__________
  6
CONTINUOUS
 62
         7
100
AcDbCircle
 10
1332.7533403763
 20
-3.7933347407
 30
0.0
 40
1.0
100
AcDbArc
 50
180.0
 51
270.0
  0
LINE
  5
270
100
AcDbEntity
  8
_Y__________
  6
CONTINUOUS
 62
         7
100
AcDbLine
 10
1332.7533403763
 20
-4.7933347407
 30
0.0
 11
1335.5233403763
 21
-4.7933347407
 31
0.0
  0
ARC
  5
271
100
AcDbEntity
  8
_Y__________
  6
CONTINUOUS
 62
         7
100
AcDbCircle
 10
1335.9228759565
 20
-4.8933347407
 30
0.0
 40
0.2
100
AcDbArc
 50
90.0
 51
105.0
  0
LINE
  5
272
100
AcDbEntity
  8
_Y__________
  6
CONTINUOUS
 62
         7
100
AcDbLine
 10
1335.8711121475
 20
-4.7001495754
 30
0.0
 11
1335.5233403763
 21
-4.7933347407
 31
0.0
  0
LINE
  5
273
100
AcDbEntity
  8
_Y__________
  6
CONTINUOUS
 62
         7
100
AcDbLine
 10
1335.9228759565
 20
-4.6933347407
 30
0.0
 11
1336.3233403763
 21
-4.6933347407
 31
0.0
  0
LINE
  5
274
100
AcDbEntity
  8
_Y__________
  6
CONTINUOUS
 62
         7
100
AcDbLine
 10
1336.4647617325
 20
-4.7519133844
 30
0.0
 11
1337.6561830887
 21
-5.9433347407
 31
0.0
  0
ARC
  5
275
100
AcDbEntity
  8
_Y__________
  6
CONTINUOUS
 62
         7
100
AcDbCircle
 10
1336.3233403763
 20
-4.8933347407
 30
0.0
 40
0.2
100
AcDbArc
 50
45.0000000038
 51
90.0
  0
LINE
  5
276
100
AcDbEntity
  8
_Y__________
  6
CONTINUOUS
 62
         7
100
AcDbLine
 10
1336.5233403763
 20
-5.1498119
 30
0.0
 11
1336.5233403763
 21
-20.6220880762
 31
0.0
  0
LINE
  5
277
100
AcDbEntity
  8
_Y__________
  6
CONTINUOUS
 62
         7
100
AcDbLine
 10
1335.5233403763
 20
-4.7933347407
 30
0.0
 11
1335.5233403763
 21
-21.0933347407
 31
0.0
  0
LINE
  5
278
100
AcDbEntity
  8
_Y__________
  6
CONTINUOUS
 62
         5
100
AcDbLine
 10
1336.6561830887
 20
-4.9433347407
 30
0.0
 11
1360.2033403763
 21
-4.9433347407
 31
0.0
  0
LINE
  5
279
100
AcDbEntity
  8
_Y__________
  6
CONTINUOUS
 62
         7
100
AcDbLine
 10
1337.6561830887
 20
-5.9433347407
 30
0.0
 11
1360.2033403763
 21
-5.9433347407
 31
0.0
  0
LINE
  5
27A
100
AcDbEntity
  8
_Y__________
  6
CONTINUOUS
 62
         7
100
AcDbLine
 10
1337.6561830887
 20
-5.9433347407
 30
0.0
 11
1337.6561830887
 21
-19.9433347407
 31
0.0
  0
LINE
  5
27B
100
AcDbEntity
  8
_Y__________
  6
CONTINUOUS
 62
         7
100
AcDbLine
 10
1337.6561830887
 20
-19.9433347407
 30
0.0
 11
1360.2033403763
 21
-19.9433347407
 31
0.0
  0
LINE
  5
27C
100
AcDbEntity
  8
_Y__________
  6
CONTINUOUS
 62
         7
100
AcDbLine
 10
1336.4647617325
 20
-21.1347560969
 30
0.0
 11
1337.6561830887
 21
-19.9433347407
 31
0.0
  0
ARC
  5
27D
100
AcDbEntity
  8
_Y__________
  6
CONTINUOUS
 62
         7
100
AcDbCircle
 10
1336.3233403763
 20
-20.9933347407
 30
0.0
 40
0.2
100
AcDbArc
 50
270.0
 51
314.9999999962
  0
LINE
  5
27E
100
AcDbEntity
  8
_Y__________
  6
CONTINUOUS
 62
         7
100
AcDbLine
 10
1335.9228759565
 20
-21.1933347407
 30
0.0
 11
1336.3233403763
 21
-21.1933347407
 31
0.0
  0
LINE
  5
27F
100
AcDbEntity
  8
_Y__________
  6
CONTINUOUS
 62
         7
100
AcDbLine
 10
1335.8711121475
 20
-21.1865199059
 30
0.0
 11
1335.5233403763
 21
-21.0933347407
 31
0.0
  0
LINE
  5
280
100
AcDbEntity
  8
_Y__________
  6
CONTINUOUS
 62
         7
100
AcDbLine
 10
1332.7533403763
 20
-21.0933347407
 30
0.0
 11
1335.5233403763
 21
-21.0933347407
 31
0.0
  0
ARC
  5
281
100
AcDbEntity
  8
_Y__________
  6
CONTINUOUS
 62
         7
100
AcDbCircle
 10
1332.7533403763
 20
-22.0933347407
 30
0.0
 40
1.0
100
AcDbArc
 50
90.0
 51
180.0
  0
LINE
  5
282
100
AcDbEntity
  8
_Y__________
  6
CONTINUOUS
 62
         5
100
AcDbLine
 10
1336.6561830887
 20
-20.9433347407
 30
0.0
 11
1360.2033403763
 21
-20.9433347407
 31
0.0
  0
LINE
  5
283
100
AcDbEntity
  8
_Y__________
  6
CONTINUOUS
 62
         7
100
AcDbLine
 10
1360.2033403763
 20
-4.9433347407
 30
0.0
 11
1360.2033403763
 21
-20.9433347407
 31
0.0
  0
ARC
  5
284
100
AcDbEntity
  8
_Y__________
  6
CONTINUOUS
 62
         7
100
AcDbCircle
 10
1332.9533403763
 20
-24.1775164571
 30
0.0
 40
1.2
100
AcDbArc
 50
180.0
 51
261.7028550302
  0
ARC
  5
285
100
AcDbEntity
  8
_Y__________
  6
CONTINUOUS
 62
         7
100
AcDbCircle
 10
1332.9533403763
 20
-1.7091530242
 30
0.0
 40
1.2
100
AcDbArc
 50
98.2971449698
 51
180.0
  0
LINE
  5
286
100
AcDbEntity
  8
_Y__________
  6
CONTINUOUS
 62
         7
100
AcDbLine
 10
1331.7533403763
 20
-1.7091530242
 30
0.0
 11
1331.7533403763
 21
-24.1775164571
 31
0.0
  0
ARC
  5
287
100
AcDbEntity
  8
_Y__________
  6
CONTINUOUS
 62
         7
100
AcDbCircle
 10
1332.9533403763
 20
138.9504600129
 30
0.0
 40
1.2
100
AcDbArc
 50
180.0
 51
261.7028550302
  0
ARC
  5
288
100
AcDbEntity
  8
_Y__________
  6
CONTINUOUS
 62
         7
100
AcDbCircle
 10
1332.9533403763
 20
161.4188234458
 30
0.0
 40
1.2
100
AcDbArc
 50
98.2971449698
 51
180.0
  0
LINE
  5
289
100
AcDbEntity
  8
_Y__________
  6
CONTINUOUS
 62
         7
100
AcDbLine
 10
1331.7533403763
 20
161.4188234458
 30
0.0
 11
1331.7533403763
 21
138.9504600129
 31
0.0
  0
LINE
  5
28A
100
AcDbEntity
  8
_Y__________
  6
CONTINUOUS
 62
         7
100
AcDbLine
 10
1192.1233403763
 20
142.6346417294
 30
0.0
 11
1192.1233403763
 21
157.7346417294
 31
0.0
  0
LINE
  5
28B
100
AcDbEntity
  8
_Y__________
  6
CONTINUOUS
 62
         7
100
AcDbLine
 10
1192.1233403763
 20
142.6346417294
 30
0.0
 11
1191.6233403763
 21
142.1346417294
 31
0.0
  0
LINE
  5
28C
100
AcDbEntity
  8
_Y__________
  6
CONTINUOUS
 62
         7
100
AcDbLine
 10
1191.6233403763
 20
142.1346417294
 30
0.0
 11
1184.6849584247
 21
142.1346417294
 31
0.0
  0
LINE
  5
28D
100
AcDbEntity
  8
_Y__________
  6
CONTINUOUS
 62
         7
100
AcDbLine
 10
1184.2908731435
 20
141.7405564482
 30
0.0
 11
1184.6849584247
 21
142.1346417294
 31
0.0
  0
LINE
  5
28E
100
AcDbEntity
  8
_Y__________
  6
CONTINUOUS
 62
         7
100
AcDbLine
 10
1191.6233403763
 20
158.2346417294
 30
0.0
 11
1184.6849584247
 21
158.2346417294
 31
0.0
  0
LINE
  5
28F
100
AcDbEntity
  8
_Y__________
  6
CONTINUOUS
 62
         7
100
AcDbLine
 10
1192.1233403763
 20
157.7346417294
 30
0.0
 11
1191.6233403763
 21
158.2346417294
 31
0.0
  0
LINE
  5
290
100
AcDbEntity
  8
_Y__________
  6
CONTINUOUS
 62
         7
100
AcDbLine
 10
1184.2908731435
 20
158.6287270106
 30
0.0
 11
1184.6849584247
 21
158.2346417294
 31
0.0
  0
LINE
  5
291
100
AcDbEntity
  8
_Y__________
  6
CONTINUOUS
 62
         7
100
AcDbLine
 10
1245.1617223278
 20
142.1346417294
 30
0.0
 11
1240.4233403763
 21
142.1346417294
 31
0.0
  0
LINE
  5
292
100
AcDbEntity
  8
_Y__________
  6
CONTINUOUS
 62
         7
100
AcDbLine
 10
1239.9233403763
 20
142.6346417294
 30
0.0
 11
1239.9233403763
 21
157.7346417294
 31
0.0
  0
LINE
  5
293
100
AcDbEntity
  8
_Y__________
  6
CONTINUOUS
 62
         7
100
AcDbLine
 10
1239.9233403763
 20
142.6346417294
 30
0.0
 11
1240.4233403763
 21
142.1346417294
 31
0.0
  0
LINE
  5
294
100
AcDbEntity
  8
_Y__________
  6
CONTINUOUS
 62
         7
100
AcDbLine
 10
1245.555807609
 20
141.7405564482
 30
0.0
 11
1245.1617223278
 21
142.1346417294
 31
0.0
  0
LINE
  5
295
100
AcDbEntity
  8
_Y__________
  6
CONTINUOUS
 62
         7
100
AcDbLine
 10
1239.9233403763
 20
157.7346417294
 30
0.0
 11
1240.4233403763
 21
158.2346417294
 31
0.0
  0
LINE
  5
296
100
AcDbEntity
  8
_Y__________
  6
CONTINUOUS
 62
         7
100
AcDbLine
 10
1245.555807609
 20
158.6287270106
 30
0.0
 11
1245.1617223278
 21
158.2346417294
 31
0.0
  0
LINE
  5
297
100
AcDbEntity
  8
_Y__________
  6
CONTINUOUS
 62
         7
100
AcDbLine
 10
1245.1617223278
 20
158.2346417294
 30
0.0
 11
1240.4233403763
 21
158.2346417294
 31
0.0
  0
CIRCLE
  5
298
100
AcDbEntity
  8
_Y__________
  6
CONTINUOUS
 62
         7
100
AcDbCircle
 10
1214.9233403763
 20
150.1846417294
 30
0.0
 40
22.225
  0
CIRCLE
  5
299
100
AcDbEntity
  8
_Y__________
  6
CONTINUOUS
 62
         7
100
AcDbCircle
 10
1214.9233403763
 20
150.1846417294
 30
0.0
 40
8.5
  0
CIRCLE
  5
29A
100
AcDbEntity
  8
_Y__________
  6
CONTINUOUS
 62
         7
100
AcDbCircle
 10
1214.9233403763
 20
150.1846417294
 30
0.0
 40
9.5
  0
ARC
  5
29B
100
AcDbEntity
  8
_Y__________
  6
CONTINUOUS
 62
         5
100
AcDbCircle
 10
1214.9233403763
 20
150.1846417294
 30
0.0
 40
8.0
100
AcDbArc
 50
352.9901372228
 51
621.2264515101
  0
CIRCLE
  5
29C
100
AcDbEntity
  8
_Y__________
  6
CONTINUOUS
 62
         7
100
AcDbCircle
 10
1214.9233403763
 20
150.1846417294
 30
0.0
 40
7.0
  0
CIRCLE
  5
29D
100
AcDbEntity
  8
_Y__________
  6
CONTINUOUS
 62
         7
100
AcDbCircle
 10
1214.9233403763
 20
150.1846417294
 30
0.0
 40
12.7165768873
  0
LINE
  5
29E
100
AcDbEntity
  8
_Y__________
  6
CENTER
 62
         1
100
AcDbLine
 10
1214.9233403763
 20
114.5732894966
 30
0.0
 11
1214.9233403763
 21
185.4173498279
 31
0.0
  0
ARC
  5
29F
100
AcDbEntity
  8
_Y__________
  6
CONTINUOUS
 62
         7
100
AcDbCircle
 10
1214.9233403763
 20
150.1846417294
 30
0.0
 40
31.775
100
AcDbArc
 50
15.411296411
 51
164.588703589
  0
ARC
  5
2A0
100
AcDbEntity
  8
_Y__________
  6
CONTINUOUS
 62
         7
100
AcDbCircle
 10
1214.9233403763
 20
150.1846417294
 30
0.0
 40
31.775
100
AcDbArc
 50
195.411296411
 51
344.588703589
  0
LINE
  5
2A1
100
AcDbEntity
  8
_Y__________
  6
CENTER
 62
         1
100
AcDbLine
 10
1183.1483403763
 20
150.1846417294
 30
0.0
 11
1246.6983403763
 21
150.1846417294
 31
0.0
  0
LINE
  5
2A2
100
AcDbEntity
  8
_Y__________
  6
CENTER
 62
         1
100
AcDbLine
 10
1596.790952795
 20
150.1846417294
 30
0.0
 11
1650.7694097755
 21
150.1846417294
 31
0.0
  0
LINE
  5
2A3
100
AcDbEntity
  8
_Y__________
  6
CONTINUOUS
 62
         7
100
AcDbLine
 10
1593.0449584247
 20
142.1346417294
 30
0.0
 11
1597.7833403762
 21
142.1346417294
 31
0.0
  0
LINE
  5
2A4
100
AcDbEntity
  8
_Y__________
  6
CONTINUOUS
 62
         7
100
AcDbLine
 10
1592.6508731435
 20
141.7405564482
 30
0.0
 11
1593.0449584247
 21
142.1346417294
 31
0.0
  0
LINE
  5
2A5
100
AcDbEntity
  8
_Y__________
  6
CONTINUOUS
 62
         7
100
AcDbLine
 10
1598.2833403762
 20
142.6346417294
 30
0.0
 11
1597.7833403762
 21
142.1346417294
 31
0.0
  0
LINE
  5
2A6
100
AcDbEntity
  8
_Y__________
  6
CONTINUOUS
 62
         7
100
AcDbLine
 10
1592.6508731435
 20
158.6287270106
 30
0.0
 11
1593.0449584247
 21
158.2346417294
 31
0.0
  0
LINE
  5
2A7
100
AcDbEntity
  8
_Y__________
  6
CONTINUOUS
 62
         7
100
AcDbLine
 10
1598.2833403762
 20
157.7346417294
 30
0.0
 11
1597.7833403762
 21
158.2346417294
 31
0.0
  0
LINE
  5
2A8
100
AcDbEntity
  8
_Y__________
  6
CONTINUOUS
 62
         7
100
AcDbLine
 10
1598.2833403762
 20
157.7346417294
 30
0.0
 11
1598.2833403762
 21
142.6346417294
 31
0.0
  0
LINE
  5
2A9
100
AcDbEntity
  8
_Y__________
  6
CONTINUOUS
 62
         7
100
AcDbLine
 10
1593.0449584247
 20
158.2346417294
 30
0.0
 11
1597.7833403762
 21
158.2346417294
 31
0.0
  0
LINE
  5
2AA
100
AcDbEntity
  8
_Y__________
  6
CONTINUOUS
 62
         7
100
AcDbLine
 10
1653.915807609
 20
141.7405564482
 30
0.0
 11
1653.5217223278
 21
142.1346417294
 31
0.0
  0
LINE
  5
2AB
100
AcDbEntity
  8
_Y__________
  6
CONTINUOUS
 62
         7
100
AcDbLine
 10
1646.0833403763
 20
142.6346417294
 30
0.0
 11
1646.5833403763
 21
142.1346417294
 31
0.0
  0
LINE
  5
2AC
100
AcDbEntity
  8
_Y__________
  6
CONTINUOUS
 62
         7
100
AcDbLine
 10
1646.5833403763
 20
142.1346417294
 30
0.0
 11
1653.5217223278
 21
142.1346417294
 31
0.0
  0
LINE
  5
2AD
100
AcDbEntity
  8
_Y__________
  6
CONTINUOUS
 62
         7
100
AcDbLine
 10
1653.915807609
 20
158.6287270106
 30
0.0
 11
1653.5217223278
 21
158.2346417294
 31
0.0
  0
LINE
  5
2AE
100
AcDbEntity
  8
_Y__________
  6
CONTINUOUS
 62
         7
100
AcDbLine
 10
1646.5833403763
 20
158.2346417294
 30
0.0
 11
1653.5217223278
 21
158.2346417294
 31
0.0
  0
LINE
  5
2AF
100
AcDbEntity
  8
_Y__________
  6
CONTINUOUS
 62
         7
100
AcDbLine
 10
1646.0833403763
 20
157.7346417294
 30
0.0
 11
1646.5833403763
 21
158.2346417294
 31
0.0
  0
LINE
  5
2B0
100
AcDbEntity
  8
_Y__________
  6
CONTINUOUS
 62
         7
100
AcDbLine
 10
1646.0833403763
 20
157.7346417294
 30
0.0
 11
1646.0833403763
 21
142.6346417294
 31
0.0
  0
ARC
  5
2B1
100
AcDbEntity
  8
_Y__________
  6
DASHED
 62
         2
100
AcDbCircle
 10
1623.2833403763
 20
150.1846417294
 30
0.0
 40
28.125
100
AcDbArc
 50
198.3406919436
 51
343.3680794645
  0
ARC
  5
2B2
100
AcDbEntity
  8
_Y__________
  6
DASHED
 62
         2
100
AcDbCircle
 10
1623.2833403763
 20
150.1846417294
 30
0.0
 40
28.125
100
AcDbArc
 50
16.6319205355
 51
163.3680794645
  0
LINE
  5
2B3
100
AcDbEntity
  8
_Y__________
  6
CENTER
 62
         1
100
AcDbLine
 10
1623.2833403763
 20
184.9596417294
 30
0.0
 11
1623.2833403763
 21
115.4096417294
 31
0.0
  0
ARC
  5
2B4
100
AcDbEntity
  8
_Y__________
  6
CONTINUOUS
 62
         7
100
AcDbCircle
 10
1623.2833403763
 20
150.1846417294
 30
0.0
 40
31.775
100
AcDbArc
 50
15.411296411
 51
164.588703589
  0
ARC
  5
2B5
100
AcDbEntity
  8
_Y__________
  6
CONTINUOUS
 62
         7
100
AcDbCircle
 10
1623.2833403763
 20
150.1846417294
 30
0.0
 40
31.775
100
AcDbArc
 50
195.411296411
 51
344.588703589
  0
LINE
  5
2B6
100
AcDbEntity
  8
_Y__________
  6
CONTINUOUS
 62
         7
100
AcDbLine
 10
1407.5670699775
 20
181.9596417294
 30
0.0
 11
1407.5670699775
 21
159.0346417294
 31
0.0
  0
LINE
  5
2B7
100
AcDbEntity
  8
_Y__________
  6
CONTINUOUS
 62
         7
100
AcDbLine
 10
1409.2283403763
 20
179.0822369936
 30
0.0
 11
1409.2283403763
 21
158.2346417294
 31
0.0
  0
LINE
  5
2B8
100
AcDbEntity
  8
_Y__________
  6
CONTINUOUS
 62
         7
100
AcDbLine
 10
1412.9783403763
 20
179.0822369936
 30
0.0
 11
1412.9783403763
 21
158.2346417294
 31
0.0
  0
LINE
  5
2B9
100
AcDbEntity
  8
_Y__________
  6
CONTINUOUS
 62
         7
100
AcDbLine
 10
1414.639610775
 20
181.9596417294
 30
0.0
 11
1414.639610775
 21
159.0346417294
 31
0.0
  0
LINE
  5
2BA
100
AcDbEntity
  8
_Y__________
  6
CONTINUOUS
 62
         7
100
AcDbLine
 10
1418.3033403763
 20
158.2346417294
 30
0.0
 11
1404.0033403763
 21
158.2346417294
 31
0.0
  0
LINE
  5
2BB
100
AcDbEntity
  8
_Y__________
  6
CONTINUOUS
 62
         7
100
AcDbLine
 10
1418.3033403763
 20
142.1346417294
 30
0.0
 11
1404.0033403763
 21
142.1346417294
 31
0.0
  0
LINE
  5
2BC
100
AcDbEntity
  8
_Y__________
  6
CONTINUOUS
 62
         7
100
AcDbLine
 10
1407.5670699775
 20
159.0346417294
 30
0.0
 11
1409.2283403763
 21
158.2346417294
 31
0.0
  0
LINE
  5
2BD
100
AcDbEntity
  8
_Y__________
  6
CONTINUOUS
 62
         7
100
AcDbLine
 10
1407.5670699775
 20
141.3346417294
 30
0.0
 11
1409.2283403763
 21
142.1346417294
 31
0.0
  0
LINE
  5
2BE
100
AcDbEntity
  8
_Y__________
  6
CONTINUOUS
 62
         7
100
AcDbLine
 10
1404.0033403763
 20
158.2346417294
 30
0.0
 11
1404.0033403763
 21
142.1346417294
 31
0.0
  0
LINE
  5
2BF
100
AcDbEntity
  8
_Y__________
  6
CONTINUOUS
 62
         7
100
AcDbLine
 10
1407.5670699775
 20
141.3346417294
 30
0.0
 11
1403.2033403763
 21
141.3346417294
 31
0.0
  0
LINE
  5
2C0
100
AcDbEntity
  8
_Y__________
  6
CONTINUOUS
 62
         7
100
AcDbLine
 10
1404.0033403763
 20
142.1346417294
 30
0.0
 11
1403.2033403763
 21
141.3346417294
 31
0.0
  0
LINE
  5
2C1
100
AcDbEntity
  8
_Y__________
  6
CONTINUOUS
 62
         7
100
AcDbLine
 10
1403.2033403763
 20
159.0346417294
 30
0.0
 11
1404.0033403763
 21
158.2346417294
 31
0.0
  0
LINE
  5
2C2
100
AcDbEntity
  8
_Y__________
  6
CONTINUOUS
 62
         7
100
AcDbLine
 10
1407.5670699775
 20
159.0346417294
 30
0.0
 11
1403.2033403763
 21
159.0346417294
 31
0.0
  0
LINE
  5
2C3
100
AcDbEntity
  8
_Y__________
  6
CONTINUOUS
 62
         7
100
AcDbLine
 10
1418.3033403763
 20
158.2346417294
 30
0.0
 11
1418.3033403763
 21
142.1346417294
 31
0.0
  0
LINE
  5
2C4
100
AcDbEntity
  8
_Y__________
  6
CONTINUOUS
 62
         7
100
AcDbLine
 10
1419.1033403763
 20
141.3346417294
 30
0.0
 11
1414.639610775
 21
141.3346417294
 31
0.0
  0
LINE
  5
2C5
100
AcDbEntity
  8
_Y__________
  6
CONTINUOUS
 62
         7
100
AcDbLine
 10
1418.3033403763
 20
142.1346417294
 30
0.0
 11
1419.1033403763
 21
141.3346417294
 31
0.0
  0
LINE
  5
2C6
100
AcDbEntity
  8
_Y__________
  6
CONTINUOUS
 62
         7
100
AcDbLine
 10
1412.9783403763
 20
142.1346417294
 30
0.0
 11
1414.639610775
 21
141.3346417294
 31
0.0
  0
LINE
  5
2C7
100
AcDbEntity
  8
_Y__________
  6
CONTINUOUS
 62
         7
100
AcDbLine
 10
1419.1033403763
 20
159.0346417294
 30
0.0
 11
1418.3033403763
 21
158.2346417294
 31
0.0
  0
LINE
  5
2C8
100
AcDbEntity
  8
_Y__________
  6
CONTINUOUS
 62
         7
100
AcDbLine
 10
1412.9783403763
 20
158.2346417294
 30
0.0
 11
1414.639610775
 21
159.0346417294
 31
0.0
  0
LINE
  5
2C9
100
AcDbEntity
  8
_Y__________
  6
CONTINUOUS
 62
         7
100
AcDbLine
 10
1419.1033403763
 20
159.0346417294
 30
0.0
 11
1414.639610775
 21
159.0346417294
 31
0.0
  0
LINE
  5
2CA
100
AcDbEntity
  8
_Y__________
  6
CONTINUOUS
 62
         7
100
AcDbLine
 10
1407.5670699775
 20
141.3346417294
 30
0.0
 11
1407.5670699775
 21
118.4096417294
 31
0.0
  0
LINE
  5
2CB
100
AcDbEntity
  8
_Y__________
  6
CONTINUOUS
 62
         7
100
AcDbLine
 10
1409.2283403763
 20
142.1346417294
 30
0.0
 11
1409.2283403763
 21
121.2870464652
 31
0.0
  0
LINE
  5
2CC
100
AcDbEntity
  8
_Y__________
  6
CONTINUOUS
 62
         7
100
AcDbLine
 10
1412.9783403763
 20
142.1346417294
 30
0.0
 11
1412.9783403763
 21
121.2870464652
 31
0.0
  0
LINE
  5
2CD
100
AcDbEntity
  8
_Y__________
  6
CONTINUOUS
 62
         7
100
AcDbLine
 10
1414.639610775
 20
141.3346417294
 30
0.0
 11
1414.639610775
 21
118.4096417294
 31
0.0
  0
CIRCLE
  5
2CE
100
AcDbEntity
  8
_Y__________
  6
CONTINUOUS
 62
         7
100
AcDbCircle
 10
1623.2833403763
 20
150.1846417294
 30
0.0
 40
22.225
  0
LINE
  5
2CF
100
AcDbEntity
  8
_Y__________
  6
CONTINUOUS
 62
         7
100
AcDbLine
 10
1414.639610775
 20
-44.7183347409
 30
0.0
 11
1418.1033403763
 21
-44.7183347409
 31
0.0
  0
LINE
  5
2D0
100
AcDbEntity
  8
_Y__________
  6
CONTINUOUS
 62
         7
100
AcDbLine
 10
1412.9783403763
 20
-41.8409300049
 30
0.0
 11
1414.639610775
 21
-44.7183347407
 31
0.0
  0
ARC
  5
2D1
100
AcDbEntity
  8
_Y__________
  6
CONTINUOUS
 62
         7
100
AcDbCircle
 10
1412.0045400445
 20
-42.0683347409
 30
0.0
 40
1.0
100
AcDbArc
 50
13.1443256895
 51
90.0
  0
LINE
  5
2D2
100
AcDbEntity
  8
_Y__________
  6
CONTINUOUS
 62
         7
100
AcDbLine
 10
1410.202140708
 20
-41.0683347407
 30
0.0
 11
1412.0045400445
 21
-41.0683347407
 31
0.0
  0
ARC
  5
2D3
100
AcDbEntity
  8
_Y__________
  6
CONTINUOUS
 62
         7
100
AcDbCircle
 10
1410.202140708
 20
-42.0683347407
 30
0.0
 40
1.0
100
AcDbArc
 50
90.0
 51
166.8556743105
  0
LINE
  5
2D4
100
AcDbEntity
  8
_Y__________
  6
CONTINUOUS
 62
         7
100
AcDbLine
 10
1409.2283403763
 20
-41.8409300049
 30
0.0
 11
1407.5670699775
 21
-44.7183347407
 31
0.0
  0
LINE
  5
2D5
100
AcDbEntity
  8
_Y__________
  6
CONTINUOUS
 62
         7
100
AcDbLine
 10
1403.2033403763
 20
-35.7433347409
 30
0.0
 11
1403.2033403763
 21
-43.7183347409
 31
0.0
  0
LINE
  5
2D6
100
AcDbEntity
  8
_Y__________
  6
CONTINUOUS
 62
         7
100
AcDbLine
 10
1404.2033403763
 20
-44.7183347409
 30
0.0
 11
1407.5670699775
 21
-44.7183347409
 31
0.0
  0
ARC
  5
2D7
100
AcDbEntity
  8
_Y__________
  6
CONTINUOUS
 62
         7
100
AcDbCircle
 10
1402.6033403763
 20
-35.7433347407
 30
0.0
 40
0.6
100
AcDbArc
 50
0.0
 51
90.0
  0
LINE
  5
2D8
100
AcDbEntity
  8
_Y__________
  6
CONTINUOUS
 62
         7
100
AcDbLine
 10
1401.9497505378
 20
-35.1433347407
 30
0.0
 11
1402.6033403763
 21
-35.1433347407
 31
0.0
  0
LINE
  5
2D9
100
AcDbEntity
  8
_Y__________
  6
CONTINUOUS
 62
         7
100
AcDbLine
 10
1401.2033403763
 20
-35.3433347409
 30
0.0
 11
1401.9497505378
 21
-35.1433347409
 31
0.0
  0
LINE
  5
2DA
100
AcDbEntity
  8
_Y__________
  6
CENTER
 62
         1
100
AcDbLine
 10
1328.5556074009
 20
-12.9433347407
 30
0.0
 11
1419.1033403763
 21
-12.9433347407
 31
0.0
  0
LINE
  5
2DB
100
AcDbEntity
  8
_Y__________
  6
CONTINUOUS
 62
         7
100
AcDbLine
 10
1332.6301721046
 20
-25.3430810344
 30
0.0
 11
1401.2033403767
 21
-35.3433347407
 31
0.0
  0
LINE
  5
2DC
100
AcDbEntity
  8
_Y__________
  6
CONTINUOUS
 62
         7
100
AcDbLine
 10
1401.2033403763
 20
9.4566652593
 30
0.0
 11
1401.9497505378
 21
9.2566652593
 31
0.0
  0
LINE
  5
2DD
100
AcDbEntity
  8
_Y__________
  6
CONTINUOUS
 62
         7
100
AcDbLine
 10
1332.6301721046
 20
-0.543588447
 30
0.0
 11
1401.2033403763
 21
9.4566652593
 31
0.0
  0
LINE
  5
2DE
100
AcDbEntity
  8
_Y__________
  6
CONTINUOUS
 62
         7
100
AcDbLine
 10
1401.9497505378
 20
9.2566652593
 30
0.0
 11
1402.6033403763
 21
9.2566652593
 31
0.0
  0
ARC
  5
2DF
100
AcDbEntity
  8
_Y__________
  6
CONTINUOUS
 62
         7
100
AcDbCircle
 10
1402.6033403763
 20
9.8566652593
 30
0.0
 40
0.6
100
AcDbArc
 50
270.0
 51
360.0
  0
LINE
  5
2E0
100
AcDbEntity
  8
_Y__________
  6
CONTINUOUS
 62
         7
100
AcDbLine
 10
1403.2033403763
 20
9.8566652593
 30
0.0
 11
1403.2033403763
 21
17.8316652595
 31
0.0
  0
LINE
  5
2E1
100
AcDbEntity
  8
_Y__________
  6
CONTINUOUS
 62
         7
100
AcDbLine
 10
1404.2033403763
 20
18.8316652595
 30
0.0
 11
1407.5670699775
 21
18.8316652595
 31
0.0
  0
LINE
  5
2E2
100
AcDbEntity
  8
_Y__________
  6
CONTINUOUS
 62
         7
100
AcDbLine
 10
1409.2283403763
 20
15.9542605235
 30
0.0
 11
1407.5670699775
 21
18.8316652593
 31
0.0
  0
ARC
  5
2E3
100
AcDbEntity
  8
_Y__________
  6
CONTINUOUS
 62
         7
100
AcDbCircle
 10
1410.202140708
 20
16.1816652595
 30
0.0
 40
1.0
100
AcDbArc
 50
193.1443256895
 51
270.0
  0
LINE
  5
2E4
100
AcDbEntity
  8
_Y__________
  6
CONTINUOUS
 62
         7
100
AcDbLine
 10
1410.202140708
 20
15.1816652595
 30
0.0
 11
1412.0045400445
 21
15.1816652595
 31
0.0
  0
ARC
  5
2E5
100
AcDbEntity
  8
_Y__________
  6
CONTINUOUS
 62
         7
100
AcDbCircle
 10
1412.0045400445
 20
16.1816652595
 30
0.0
 40
1.0
100
AcDbArc
 50
270.0
 51
346.8556743105
  0
LINE
  5
2E6
100
AcDbEntity
  8
_Y__________
  6
CONTINUOUS
 62
         7
100
AcDbLine
 10
1412.9783403763
 20
15.9542605237
 30
0.0
 11
1414.639610775
 21
18.8316652595
 31
0.0
  0
LINE
  5
2E7
100
AcDbEntity
  8
_Y__________
  6
CONTINUOUS
 62
         7
100
AcDbLine
 10
1414.639610775
 20
18.8316652595
 30
0.0
 11
1418.1033403763
 21
18.8316652595
 31
0.0
  0
LINE
  5
2E8
100
AcDbEntity
  8
_Y__________
  6
CONTINUOUS
 62
         7
100
AcDbLine
 10
1409.2283403763
 20
179.0822369936
 30
0.0
 11
1407.5670699775
 21
181.9596417294
 31
0.0
  0
LINE
  5
2E9
100
AcDbEntity
  8
_Y__________
  6
CONTINUOUS
 62
         7
100
AcDbLine
 10
1409.2283403763
 20
121.2870464652
 30
0.0
 11
1407.5670699775
 21
118.4096417294
 31
0.0
  0
LINE
  5
2EA
100
AcDbEntity
  8
_Y__________
  6
CONTINUOUS
 62
         7
100
AcDbLine
 10
1403.2033403763
 20
180.9596417294
 30
0.0
 11
1403.2033403763
 21
119.4096417294
 31
0.0
  0
LINE
  5
2EB
100
AcDbEntity
  8
_Y__________
  6
CENTER
 62
         1
100
AcDbLine
 10
1400.0033403763
 20
172.4096417294
 30
0.0
 11
1400.0033403763
 21
127.9596417294
 31
0.0
  0
LINE
  5
2EC
100
AcDbEntity
  8
_Y__________
  6
CONTINUOUS
 62
         7
100
AcDbLine
 10
1404.2033403763
 20
118.4096417294
 30
0.0
 11
1407.5670699775
 21
118.4096417294
 31
0.0
  0
LINE
  5
2ED
100
AcDbEntity
  8
_Y__________
  6
CONTINUOUS
 62
         7
100
AcDbLine
 10
1404.2033403763
 20
181.9596417294
 30
0.0
 11
1407.5670699775
 21
181.9596417294
 31
0.0
  0
LINE
  5
2EE
100
AcDbEntity
  8
_Y__________
  6
CONTINUOUS
 62
         7
100
AcDbLine
 10
1419.1033403763
 20
180.9596417294
 30
0.0
 11
1419.1033403763
 21
119.4096417294
 31
0.0
  0
LINE
  5
2EF
100
AcDbEntity
  8
_Y__________
  6
CONTINUOUS
 62
         7
100
AcDbLine
 10
1419.1033403763
 20
180.9596417294
 30
0.0
 11
1419.1033403763
 21
169.1846417294
 31
0.0
  0
LINE
  5
2F0
100
AcDbEntity
  8
_Y__________
  6
CONTINUOUS
 62
         7
100
AcDbLine
 10
1410.202140708
 20
122.0596417294
 30
0.0
 11
1412.0045400445
 21
122.0596417294
 31
0.0
  0
ARC
  5
2F1
100
AcDbEntity
  8
_Y__________
  6
CONTINUOUS
 62
         7
100
AcDbCircle
 10
1410.202140708
 20
121.0596417294
 30
0.0
 40
1.0
100
AcDbArc
 50
90.0
 51
166.8556743105
  0
LINE
  5
2F2
100
AcDbEntity
  8
_Y__________
  6
CONTINUOUS
 62
         7
100
AcDbLine
 10
1412.9783403763
 20
121.2870464652
 30
0.0
 11
1414.639610775
 21
118.4096417294
 31
0.0
  0
ARC
  5
2F3
100
AcDbEntity
  8
_Y__________
  6
CONTINUOUS
 62
         7
100
AcDbCircle
 10
1412.0045400445
 20
121.0596417294
 30
0.0
 40
1.0
100
AcDbArc
 50
13.1443256895
 51
90.0
  0
LINE
  5
2F4
100
AcDbEntity
  8
_Y__________
  6
CONTINUOUS
 62
         7
100
AcDbLine
 10
1414.639610775
 20
118.4096417294
 30
0.0
 11
1418.1033403763
 21
118.4096417294
 31
0.0
  0
LINE
  5
2F5
100
AcDbEntity
  8
_Y__________
  6
CONTINUOUS
 62
         7
100
AcDbLine
 10
1412.9783403763
 20
179.0822369936
 30
0.0
 11
1414.639610775
 21
181.9596417294
 31
0.0
  0
LINE
  5
2F6
100
AcDbEntity
  8
_Y__________
  6
CONTINUOUS
 62
         7
100
AcDbLine
 10
1414.639610775
 20
181.9596417294
 30
0.0
 11
1418.1033403763
 21
181.9596417294
 31
0.0
  0
LINE
  5
2F7
100
AcDbEntity
  8
_Y__________
  6
CONTINUOUS
 62
         7
100
AcDbLine
 10
1410.202140708
 20
178.3096417294
 30
0.0
 11
1412.0045400445
 21
178.3096417294
 31
0.0
  0
ARC
  5
2F8
100
AcDbEntity
  8
_Y__________
  6
CONTINUOUS
 62
         7
100
AcDbCircle
 10
1410.202140708
 20
179.3096417294
 30
0.0
 40
1.0
100
AcDbArc
 50
193.1443256895
 51
270.0
  0
ARC
  5
2F9
100
AcDbEntity
  8
_Y__________
  6
CONTINUOUS
 62
         7
100
AcDbCircle
 10
1412.0045400445
 20
179.3096417294
 30
0.0
 40
1.0
100
AcDbArc
 50
270.0
 51
346.8556743105
  0
LINE
  5
2FA
100
AcDbEntity
  8
_Y__________
  6
CENTER
 62
         1
100
AcDbLine
 10
1411.1033403763
 20
187.6899050302
 30
0.0
 11
1411.1033403763
 21
112.6870854784
 31
0.0
  0
LINE
  5
2FB
100
AcDbEntity
  8
_Y__________
  6
CONTINUOUS
 62
         7
100
AcDbLine
 10
1332.7801721046
 20
137.7630204357
 30
0.0
 11
1401.2033403763
 21
127.7846417294
 31
0.0
  0
LINE
  5
2FC
100
AcDbEntity
  8
_Y__________
  6
CENTER
 62
         1
100
AcDbLine
 10
1329.3598386453
 20
150.1846417294
 30
0.0
 11
1378.4659535144
 21
150.1846417294
 31
0.0
  0
LINE
  5
2FD
100
AcDbEntity
  8
_Y__________
  6
CONTINUOUS
 62
         7
100
AcDbLine
 10
1332.7801721046
 20
162.6062630231
 30
0.0
 11
1401.2033403763
 21
172.5846417294
 31
0.0
  0
LINE
  5
2FE
100
AcDbEntity
  8
_Y__________
  6
CENTER
 62
         1
100
AcDbLine
 10
1396.6508489578
 20
150.1846417294
 30
0.0
 11
1419.1033403763
 21
150.1846417294
 31
0.0
  0
LINE
  5
2FF
100
AcDbEntity
  8
_Y__________
  6
CONTINUOUS
 62
         7
100
AcDbLine
 10
1401.9497505378
 20
127.9846417294
 30
0.0
 11
1402.6033403763
 21
127.9846417294
 31
0.0
  0
LINE
  5
300
100
AcDbEntity
  8
_Y__________
  6
CONTINUOUS
 62
         7
100
AcDbLine
 10
1401.2033403763
 20
127.7846417294
 30
0.0
 11
1401.9497505378
 21
127.9846417294
 31
0.0
  0
ARC
  5
301
100
AcDbEntity
  8
_Y__________
  6
CONTINUOUS
 62
         7
100
AcDbCircle
 10
1402.6033403763
 20
127.3846417294
 30
0.0
 40
0.6
100
AcDbArc
 50
0.0
 51
90.0
  0
LINE
  5
302
100
AcDbEntity
  8
_Y__________
  6
CONTINUOUS
 62
         7
100
AcDbLine
 10
1401.9497505378
 20
127.9846417294
 30
0.0
 11
1401.9497505378
 21
172.3846417294
 31
0.0
  0
LINE
  5
303
100
AcDbEntity
  8
_Y__________
  6
CONTINUOUS
 62
         7
100
AcDbLine
 10
1401.2033403763
 20
127.7846417294
 30
0.0
 11
1401.2033403763
 21
172.5846417294
 31
0.0
  0
LINE
  5
304
100
AcDbEntity
  8
_Y__________
  6
CONTINUOUS
 62
         7
100
AcDbLine
 10
1401.9497505378
 20
172.3846417294
 30
0.0
 11
1402.6033403763
 21
172.3846417294
 31
0.0
  0
LINE
  5
305
100
AcDbEntity
  8
_Y__________
  6
CONTINUOUS
 62
         7
100
AcDbLine
 10
1401.2033403763
 20
172.5846417294
 30
0.0
 11
1401.9497505378
 21
172.3846417294
 31
0.0
  0
ARC
  5
306
100
AcDbEntity
  8
_Y__________
  6
CONTINUOUS
 62
         7
100
AcDbCircle
 10
1402.6033403763
 20
172.9846417294
 30
0.0
 40
0.6
100
AcDbArc
 50
270.0
 51
360.0
  0
CIRCLE
  5
307
100
AcDbEntity
  8
_Y__________
  6
CONTINUOUS
 62
         7
100
AcDbCircle
 10
1411.1033403763
 20
150.1846417294
 30
0.0
 40
5.0
  0
LINE
  5
308
100
AcDbEntity
  8
_Y__________
  6
DASHED
 62
         2
100
AcDbLine
 10
1598.7833403762
 20
145.1846417294
 30
0.0
 11
1598.2833403762
 21
144.6846417294
 31
0.0
  0
LINE
  5
309
100
AcDbEntity
  8
_Y__________
  6
DASHED
 62
         2
100
AcDbLine
 10
1598.7833403762
 20
155.1846417294
 30
0.0
 11
1598.2833403762
 21
155.6846417294
 31
0.0
  0
LINE
  5
30A
100
AcDbEntity
  8
_Y__________
  6
DASHED
 62
         2
100
AcDbLine
 10
1598.7833403762
 20
155.1846417294
 30
0.0
 11
1598.7833403762
 21
145.1846417294
 31
0.0
  0
LINE
  5
30B
100
AcDbEntity
  8
_Y__________
  6
DASHED
 62
         2
100
AcDbLine
 10
1598.7833403762
 20
145.1846417294
 30
0.0
 11
1604.9573403762
 21
145.1846417294
 31
0.0
  0
LINE
  5
30C
100
AcDbEntity
  8
_Y__________
  6
DASHED
 62
         2
100
AcDbLine
 10
1607.8440917222
 20
150.1846417294
 30
0.0
 11
1604.9573403762
 21
145.1846417294
 31
0.0
  0
LINE
  5
30D
100
AcDbEntity
  8
_Y__________
  6
DASHED
 62
         2
100
AcDbLine
 10
1604.9573403762
 20
155.1846417294
 30
0.0
 11
1607.8440917222
 21
150.1846417294
 31
0.0
  0
LINE
  5
30E
100
AcDbEntity
  8
_Y__________
  6
DASHED
 62
         2
100
AcDbLine
 10
1604.9573403762
 20
155.1846417294
 30
0.0
 11
1604.9573403762
 21
145.1846417294
 31
0.0
  0
LINE
  5
30F
100
AcDbEntity
  8
_Y__________
  6
DASHED
 62
         2
100
AcDbLine
 10
1598.7833403762
 20
155.1846417294
 30
0.0
 11
1604.9573403762
 21
155.1846417294
 31
0.0
  0
LINE
  5
310
100
AcDbEntity
  8
_Y__________
  6
CONTINUOUS
 62
         7
100
AcDbLine
 10
1598.2833403762
 20
155.6846417294
 30
0.0
 11
1598.2833403762
 21
144.6846417294
 31
0.0
  0
DIMENSION
  5
313
100
AcDbEntity
  8
_Y__________
  6
CONTINUOUS
 62
         4
100
AcDbDimension
  2
*D8
 10
1433.075104058
 20
172.4096417294
 30
0.0
 11
1429.943104058
 21
136.7372719626
 31
0.0
  3
DIMSTYLE1
100
AcDbAlignedDimension
 13
1435.0553403763
 23
172.4096417294
 33
0.0
 14
1435.0553403763
 24
127.9596417294
 34
0.0
 50
90.0
100
AcDbRotatedDimension
  0
LINE
  5
31F
100
AcDbEntity
  8
_Y__________
  6
CONTINUOUS
 62
         7
100
AcDbLine
 10
1419.6033403763
 20
127.8996417294
 30
0.0
 11
1434.2553403763
 21
127.8996417294
 31
0.0
  0
LINE
  5
320
100
AcDbEntity
  8
_Y__________
  6
CONTINUOUS
 62
         7
100
AcDbLine
 10
1419.1033403763
 20
-35.7283347407
 30
0.0
 11
1419.1033403763
 21
-43.7183347409
 31
0.0
  0
LINE
  5
321
100
AcDbEntity
  8
_Y__________
  6
CONTINUOUS
 62
         7
100
AcDbLine
 10
1419.1033403763
 20
17.8316652595
 30
0.0
 11
1419.1033403763
 21
9.8416652593
 31
0.0
  0
ARC
  5
322
100
AcDbEntity
  8
_Y__________
  6
CONTINUOUS
 62
         7
100
AcDbCircle
 10
1419.6033403763
 20
172.9696417294
 30
0.0
 40
0.5
100
AcDbArc
 50
180.0
 51
270.0
  0
ARC
  5
323
100
AcDbEntity
  8
_Y__________
  6
CONTINUOUS
 62
         7
100
AcDbCircle
 10
1419.6033403763
 20
127.3996417294
 30
0.0
 40
0.5
100
AcDbArc
 50
90.0
 51
180.0
  0
LINE
  5
324
100
AcDbEntity
  8
_Y__________
  6
CONTINUOUS
 62
         7
100
AcDbLine
 10
1419.6033403763
 20
172.4696417294
 30
0.0
 11
1434.2553403763
 21
172.4696417294
 31
0.0
  0
ARC
  5
325
100
AcDbEntity
  8
_Y__________
  6
CONTINUOUS
 62
         7
100
AcDbCircle
 10
1404.2033403763
 20
17.8316652593
 30
0.0
 40
1.0
100
AcDbArc
 50
90.0
 51
180.0
  0
LINE
  5
326
100
AcDbEntity
  8
_Y__________
  6
CONTINUOUS
 62
         7
100
AcDbLine
 10
1404.2033403763
 20
18.8316652593
 30
0.0
 11
1405.2033403763
 21
18.8316652593
 31
0.0
  0
LINE
  5
327
100
AcDbEntity
  8
_Y__________
  6
CONTINUOUS
 62
         7
100
AcDbLine
 10
1403.2033403763
 20
17.8316652593
 30
0.0
 11
1403.2033403763
 21
16.8316652593
 31
0.0
  0
LINE
  5
328
100
AcDbEntity
  8
_Y__________
  6
CONTINUOUS
 62
         7
100
AcDbLine
 10
1417.1033403763
 20
18.8316652593
 30
0.0
 11
1418.1033403763
 21
18.8316652593
 31
0.0
  0
ARC
  5
329
100
AcDbEntity
  8
_Y__________
  6
CONTINUOUS
 62
         7
100
AcDbCircle
 10
1418.1033403763
 20
17.8316652593
 30
0.0
 40
1.0
100
AcDbArc
 50
0.0
 51
90.0
  0
ARC
  5
32A
100
AcDbEntity
  8
_Y__________
  6
CONTINUOUS
 62
         7
100
AcDbCircle
 10
1404.2033403763
 20
-43.7183347407
 30
0.0
 40
1.0
100
AcDbArc
 50
180.0
 51
270.0
  0
LINE
  5
32B
100
AcDbEntity
  8
_Y__________
  6
CONTINUOUS
 62
         7
100
AcDbLine
 10
1404.2033403763
 20
-44.7183347407
 30
0.0
 11
1405.2033403763
 21
-44.7183347407
 31
0.0
  0
LINE
  5
32C
100
AcDbEntity
  8
_Y__________
  6
CONTINUOUS
 62
         7
100
AcDbLine
 10
1417.1033403763
 20
-44.7183347407
 30
0.0
 11
1418.1033403763
 21
-44.7183347407
 31
0.0
  0
ARC
  5
32D
100
AcDbEntity
  8
_Y__________
  6
CONTINUOUS
 62
         7
100
AcDbCircle
 10
1418.1033403763
 20
-43.7183347407
 30
0.0
 40
1.0
100
AcDbArc
 50
270.0
 51
360.0
  0
LINE
  5
32E
100
AcDbEntity
  8
_Y__________
  6
CONTINUOUS
 62
         7
100
AcDbLine
 10
1419.1033403763
 20
17.8316652593
 30
0.0
 11
1419.1033403763
 21
16.8316652593
 31
0.0
  0
LINE
  5
32F
100
AcDbEntity
  8
_Y__________
  6
CONTINUOUS
 62
         7
100
AcDbLine
 10
1403.2033403763
 20
-42.7183347407
 30
0.0
 11
1403.2033403763
 21
-43.7183347407
 31
0.0
  0
LINE
  5
330
100
AcDbEntity
  8
_Y__________
  6
CONTINUOUS
 62
         7
100
AcDbLine
 10
1419.1033403763
 20
-42.7183347407
 30
0.0
 11
1419.1033403763
 21
-43.7183347407
 31
0.0
  0
LINE
  5
331
100
AcDbEntity
  8
_Y__________
  6
CONTINUOUS
 62
         7
100
AcDbLine
 10
1419.1033403763
 20
127.3996417294
 30
0.0
 11
1419.1033403763
 21
119.4096417294
 31
0.0
  0
LINE
  5
332
100
AcDbEntity
  8
_Y__________
  6
CONTINUOUS
 62
         7
100
AcDbLine
 10
1403.2033403763
 20
120.4096417294
 30
0.0
 11
1403.2033403763
 21
119.4096417294
 31
0.0
  0
LINE
  5
333
100
AcDbEntity
  8
_Y__________
  6
CONTINUOUS
 62
         7
100
AcDbLine
 10
1419.1033403763
 20
180.9596417294
 30
0.0
 11
1419.1033403763
 21
172.9696417294
 31
0.0
  0
ARC
  5
334
100
AcDbEntity
  8
_Y__________
  6
CONTINUOUS
 62
         7
100
AcDbCircle
 10
1418.1033403763
 20
119.4096417294
 30
0.0
 40
1.0
100
AcDbArc
 50
270.0
 51
360.0
  0
LINE
  5
335
100
AcDbEntity
  8
_Y__________
  6
CONTINUOUS
 62
         7
100
AcDbLine
 10
1417.1033403763
 20
118.4096417294
 30
0.0
 11
1418.1033403763
 21
118.4096417294
 31
0.0
  0
LINE
  5
336
100
AcDbEntity
  8
_Y__________
  6
CONTINUOUS
 62
         7
100
AcDbLine
 10
1404.2033403763
 20
118.4096417294
 30
0.0
 11
1405.2033403763
 21
118.4096417294
 31
0.0
  0
ARC
  5
337
100
AcDbEntity
  8
_Y__________
  6
CONTINUOUS
 62
         7
100
AcDbCircle
 10
1404.2033403763
 20
119.4096417294
 30
0.0
 40
1.0
100
AcDbArc
 50
180.0
 51
270.0
  0
ARC
  5
338
100
AcDbEntity
  8
_Y__________
  6
CONTINUOUS
 62
         7
100
AcDbCircle
 10
1418.1033403763
 20
180.9596417294
 30
0.0
 40
1.0
100
AcDbArc
 50
0.0
 51
90.0
  0
LINE
  5
339
100
AcDbEntity
  8
_Y__________
  6
CONTINUOUS
 62
         7
100
AcDbLine
 10
1417.1033403763
 20
181.9596417294
 30
0.0
 11
1418.1033403763
 21
181.9596417294
 31
0.0
  0
LINE
  5
33A
100
AcDbEntity
  8
_Y__________
  6
CONTINUOUS
 62
         7
100
AcDbLine
 10
1403.2033403763
 20
180.9596417294
 30
0.0
 11
1403.2033403763
 21
179.9596417294
 31
0.0
  0
LINE
  5
33B
100
AcDbEntity
  8
_Y__________
  6
CONTINUOUS
 62
         7
100
AcDbLine
 10
1404.2033403763
 20
181.9596417294
 30
0.0
 11
1405.2033403763
 21
181.9596417294
 31
0.0
  0
ARC
  5
33C
100
AcDbEntity
  8
_Y__________
  6
CONTINUOUS
 62
         7
100
AcDbCircle
 10
1404.2033403763
 20
180.9596417294
 30
0.0
 40
1.0
100
AcDbArc
 50
90.0
 51
180.0
  0
LINE
  5
33D
100
AcDbEntity
  8
_Y__________
  6
CONTINUOUS
 62
         7
100
AcDbLine
 10
1419.6033403763
 20
9.3416652593
 30
0.0
 11
1434.2553403763
 21
9.3416652593
 31
0.0
  0
LINE
  5
33E
100
AcDbEntity
  8
_Y__________
  6
CONTINUOUS
 62
         7
100
AcDbLine
 10
1419.6033403763
 20
-35.2283347407
 30
0.0
 11
1434.2553403763
 21
-35.2283347407
 31
0.0
  0
ARC
  5
33F
100
AcDbEntity
  8
_Y__________
  6
CONTINUOUS
 62
         7
100
AcDbCircle
 10
1419.6033403763
 20
-35.7283347407
 30
0.0
 40
0.5
100
AcDbArc
 50
90.0
 51
180.0
  0
ARC
  5
340
100
AcDbEntity
  8
_Y__________
  6
CONTINUOUS
 62
         7
100
AcDbCircle
 10
1419.6033403763
 20
9.8416652593
 30
0.0
 40
0.5
100
AcDbArc
 50
180.0
 51
270.0
  0
LINE
  5
341
100
AcDbEntity
  8
_Y__________
  6
CONTINUOUS
 62
         7
100
AcDbLine
 10
1419.1033403763
 20
120.4096417294
 30
0.0
 11
1419.1033403763
 21
119.4096417294
 31
0.0
  0
LINE
  5
342
100
AcDbEntity
  8
_Y__________
  6
CONTINUOUS
 62
         7
100
AcDbLine
 10
1419.1033403763
 20
180.9596417294
 30
0.0
 11
1419.1033403763
 21
179.9596417294
 31
0.0
  0
CIRCLE
  5
343
100
AcDbEntity
  8
L1_80
  6
CONTINUOUS
 62
         7
100
AcDbCircle
 10
1623.2833403763
 20
150.1846417294
 30
0.0
 40
7.05
  0
LINE
  5
344
100
AcDbEntity
  8
L1_80
  6
CENTER
 62
         6
100
AcDbLine
 10
1467.0033403763
 20
8.0566652593
 30
0.0
 11
1451.0033403763
 21
8.0566652593
 31
0.0
  0
LINE
  5
345
100
AcDbEntity
  8
L1_80
  6
CENTER
 62
         6
100
AcDbLine
 10
1467.0033403763
 20
-33.9433347407
 30
0.0
 11
1451.0033403763
 21
-33.9433347407
 31
0.0
  0
LINE
  5
346
100
AcDbEntity
  8
L1_80
  6
CONTINUOUS
 62
         7
100
AcDbLine
 10
1467.7913403763
 20
169.3726417294
 30
0.0
 11
1467.7913403763
 21
130.9966417294
 31
0.0
  0
LINE
  5
347
100
AcDbEntity
  8
L1_80
  6
CONTINUOUS
 62
         7
100
AcDbLine
 10
1474.8033403763
 20
168.2846417294
 30
0.0
 11
1472.1033403763
 21
168.2846417294
 31
0.0
  0
LINE
  5
348
100
AcDbEntity
  8
L1_80
  6
CONTINUOUS
 62
         7
100
AcDbLine
 10
1464.5033403763
 20
175.1846417294
 30
0.0
 11
1464.5033403763
 21
171.9846417294
 31
0.0
  0
LINE
  5
349
100
AcDbEntity
  8
L1_80
  6
CONTINUOUS
 62
         7
100
AcDbLine
 10
1478.0980844879
 20
171.9846417294
 30
0.0
 11
1464.5033403763
 21
171.9846417294
 31
0.0
  0
LINE
  5
34A
100
AcDbEntity
  8
L1_80
  6
CONTINUOUS
 62
         7
100
AcDbLine
 10
1464.5033403763
 20
125.1846417294
 30
0.0
 11
1464.5033403763
 21
128.3846417294
 31
0.0
  0
LINE
  5
34B
100
AcDbEntity
  8
L1_80
  6
CONTINUOUS
 62
         7
100
AcDbLine
 10
1478.0980844879
 20
128.3846417294
 30
0.0
 11
1464.5033403763
 21
128.3846417294
 31
0.0
  0
ARC
  5
34C
100
AcDbEntity
  8
L1_80
  6
CONTINUOUS
 62
         7
100
AcDbCircle
 10
1475.0958630881
 20
127.1846417294
 30
0.0
 40
2.0
100
AcDbArc
 50
270.0
 51
330.0
  0
ARC
  5
34D
100
AcDbEntity
  8
L1_80
  6
CONTINUOUS
 62
         7
100
AcDbCircle
 10
1478.0033403763
 20
132.2205401142
 30
0.0
 40
2.0
100
AcDbArc
 50
330.0
 51
360.0
  0
ARC
  5
34E
100
AcDbEntity
  8
L1_80
  6
CONTINUOUS
 62
         7
100
AcDbCircle
 10
1478.0033403763
 20
168.1487433445
 30
0.0
 40
2.0
100
AcDbArc
 50
0.0
 51
30.0
  0
ARC
  5
34F
100
AcDbEntity
  8
L1_80
  6
CONTINUOUS
 62
         7
100
AcDbCircle
 10
1475.0958630881
 20
173.1846417294
 30
0.0
 40
2.0
100
AcDbArc
 50
30.0
 51
90.0
  0
LINE
  5
350
100
AcDbEntity
  8
L1_80
  6
CONTINUOUS
 62
         7
100
AcDbLine
 10
1479.7353911838
 20
169.1487433445
 30
0.0
 11
1476.8279138957
 21
174.1846417294
 31
0.0
  0
LINE
  5
351
100
AcDbEntity
  8
L1_80
  6
CONTINUOUS
 62
         7
100
AcDbLine
 10
1479.7353911838
 20
131.2205401142
 30
0.0
 11
1476.8279138957
 21
126.1846417294
 31
0.0
  0
LINE
  5
352
100
AcDbEntity
  8
L1_80
  6
CONTINUOUS
 62
         7
100
AcDbLine
 10
1458.4051614967
 20
169.3726417294
 30
0.0
 11
1458.4051614967
 21
130.9966417294
 31
0.0
  0
LINE
  5
353
100
AcDbEntity
  8
L1_80
  6
CONTINUOUS
 62
         7
100
AcDbLine
 10
1457.5033403763
 20
170.9346417294
 30
0.0
 11
1458.4051614967
 21
169.3726417294
 31
0.0
  0
LINE
  5
354
100
AcDbEntity
  8
L1_80
  6
CONTINUOUS
 62
         7
100
AcDbLine
 10
1457.5033403763
 20
129.4346417294
 30
0.0
 11
1458.4051614967
 21
130.9966417294
 31
0.0
  0
ARC
  5
355
100
AcDbEntity
  8
L1_80
  6
CONTINUOUS
 62
         7
100
AcDbCircle
 10
1459.5033403763
 20
173.1846417294
 30
0.0
 40
2.0
100
AcDbArc
 50
90.0
 51
180.0
  0
ARC
  5
356
100
AcDbEntity
  8
L1_80
  6
CONTINUOUS
 62
         7
100
AcDbCircle
 10
1459.5033403763
 20
127.1846417294
 30
0.0
 40
2.0
100
AcDbArc
 50
180.0
 51
270.0
  0
LINE
  5
357
100
AcDbEntity
  8
L1_80
  6
CONTINUOUS
 62
         7
100
AcDbLine
 10
1469.1033403763
 20
129.6846417294
 30
0.0
 11
1467.7913403763
 21
130.9966417294
 31
0.0
  0
ARC
  5
358
100
AcDbEntity
  8
L1_80
  6
CONTINUOUS
 62
         7
100
AcDbCircle
 10
1471.1033403763
 20
130.6846417294
 30
0.0
 40
1.0
100
AcDbArc
 50
270.0
 51
360.0
  0
LINE
  5
359
100
AcDbEntity
  8
L1_80
  6
CONTINUOUS
 62
         7
100
AcDbLine
 10
1469.1033403763
 20
170.6846417294
 30
0.0
 11
1467.7913403763
 21
169.3726417294
 31
0.0
  0
ARC
  5
35A
100
AcDbEntity
  8
L1_80
  6
CONTINUOUS
 62
         7
100
AcDbCircle
 10
1471.1033403763
 20
169.6846417294
 30
0.0
 40
1.0
100
AcDbArc
 50
0.0
 51
90.0
  0
LINE
  5
35B
100
AcDbEntity
  8
L1_80
  6
CONTINUOUS
 62
         7
100
AcDbLine
 10
1474.8033403763
 20
132.0846417294
 30
0.0
 11
1473.8033403763
 21
132.0846417294
 31
0.0
  0
LINE
  5
35C
100
AcDbEntity
  8
L1_80
  6
CONTINUOUS
 62
         7
100
AcDbLine
 10
1474.8033403763
 20
132.0846417294
 30
0.0
 11
1474.8033403763
 21
168.2846417294
 31
0.0
  0
LINE
  5
35D
100
AcDbEntity
  8
L1_80
  6
CENTER
 62
         1
100
AcDbLine
 10
1480.5773877014
 20
150.1846417294
 30
0.0
 11
1454.7333273646
 21
150.1846417294
 31
0.0
  0
LINE
  5
35E
100
AcDbEntity
  8
L1_80
  6
CONTINUOUS
 62
         7
100
AcDbLine
 10
1469.1033403763
 20
129.6846417294
 30
0.0
 11
1469.1033403763
 21
170.6846417294
 31
0.0
  0
LINE
  5
35F
100
AcDbEntity
  8
L1_80
  6
CONTINUOUS
 62
         7
100
AcDbLine
 10
1471.1033403763
 20
170.6846417294
 30
0.0
 11
1469.1033403763
 21
170.6846417294
 31
0.0
  0
LINE
  5
360
100
AcDbEntity
  8
L1_80
  6
CONTINUOUS
 62
         7
100
AcDbLine
 10
1471.1033403763
 20
129.6846417294
 30
0.0
 11
1469.1033403763
 21
129.6846417294
 31
0.0
  0
LINE
  5
361
100
AcDbEntity
  8
L1_80
  6
CONTINUOUS
 62
         7
100
AcDbLine
 10
1467.7913403763
 20
169.3726417294
 30
0.0
 11
1458.4051614967
 21
169.3726417294
 31
0.0
  0
LINE
  5
362
100
AcDbEntity
  8
L1_80
  6
CONTINUOUS
 62
         7
100
AcDbLine
 10
1467.7913403763
 20
130.9966417294
 30
0.0
 11
1458.4051614967
 21
130.9966417294
 31
0.0
  0
LINE
  5
363
100
AcDbEntity
  8
L1_80
  6
CONTINUOUS
 62
         4
100
AcDbLine
 10
1468.6033403763
 20
170.1846417294
 30
0.0
 11
1457.9363530781
 21
170.1846417294
 31
0.0
  0
LINE
  5
364
100
AcDbEntity
  8
L1_80
  6
CONTINUOUS
 62
         4
100
AcDbLine
 10
1468.6033403763
 20
130.1846417294
 30
0.0
 11
1457.9363530781
 21
130.1846417294
 31
0.0
  0
LINE
  5
365
100
AcDbEntity
  8
L1_80
  6
CONTINUOUS
 62
         7
100
AcDbLine
 10
1474.8033403763
 20
166.5122914602
 30
0.0
 11
1480.0033403763
 21
163.5100700604
 31
0.0
  0
LINE
  5
366
100
AcDbEntity
  8
L1_80
  6
CONTINUOUS
 62
         7
100
AcDbLine
 10
1474.8033403763
 20
133.8569919986
 30
0.0
 11
1480.0033403763
 21
136.8592133984
 31
0.0
  0
LINE
  5
367
100
AcDbEntity
  8
L1_80
  6
CONTINUOUS
 62
         7
100
AcDbLine
 10
1473.8033403763
 20
135.2846417294
 30
0.0
 11
1472.1033403763
 21
135.2846417294
 31
0.0
  0
LINE
  5
368
100
AcDbEntity
  8
L1_80
  6
CONTINUOUS
 62
         7
100
AcDbLine
 10
1472.1033403763
 20
130.6846417294
 30
0.0
 11
1472.1033403763
 21
169.6846417294
 31
0.0
  0
LINE
  5
369
100
AcDbEntity
  8
L1_80
  6
CONTINUOUS
 62
         7
100
AcDbLine
 10
1473.8033403763
 20
132.0846417294
 30
0.0
 11
1473.8033403763
 21
168.2846417294
 31
0.0
  0
LINE
  5
36A
100
AcDbEntity
  8
L1_80
  6
CONTINUOUS
 62
         7
100
AcDbLine
 10
1480.0033403763
 20
132.2205401142
 30
0.0
 11
1480.0033403763
 21
168.1487433445
 31
0.0
  0
LINE
  5
36B
100
AcDbEntity
  8
L1_80
  6
CONTINUOUS
 62
         7
100
AcDbLine
 10
1475.0958630881
 20
175.1846417294
 30
0.0
 11
1459.5033403763
 21
175.1846417294
 31
0.0
  0
LINE
  5
36C
100
AcDbEntity
  8
L1_80
  6
CONTINUOUS
 62
         7
100
AcDbLine
 10
1475.0958630881
 20
125.1846417294
 30
0.0
 11
1459.5033403763
 21
125.1846417294
 31
0.0
  0
LINE
  5
36D
100
AcDbEntity
  8
L1_80
  6
CONTINUOUS
 62
         7
100
AcDbLine
 10
1457.5033403763
 20
127.1846417294
 30
0.0
 11
1457.5033403763
 21
173.1846417294
 31
0.0
  0
INSERT
  5
379
100
AcDbEntity
  8
0
  6
CONTINUOUS
100
AcDbBlockReference
  2
*X9
 10
0.0
 20
0.0
 30
0.0
  0
INSERT
  5
380
100
AcDbEntity
  8
0
  6
CONTINUOUS
100
AcDbBlockReference
  2
*X10
 10
0.0
 20
0.0
 30
0.0
  0
INSERT
  5
388
100
AcDbEntity
  8
0
  6
CONTINUOUS
100
AcDbBlockReference
  2
*X11
 10
0.0
 20
0.0
 30
0.0
  0
INSERT
  5
396
100
AcDbEntity
  8
0
  6
CONTINUOUS
100
AcDbBlockReference
  2
*X12
 10
0.0
 20
0.0
 30
0.0
  0
DIMENSION
  5
399
100
AcDbEntity
  8
L1_80
  6
CONTINUOUS
 62
         4
100
AcDbDimension
  2
*D13
 10
1504.2140753147
 20
175.1846417294
 30
0.0
 11
1502.1890753147
 21
144.7846417294
 31
0.0
  3
DIMSTYLE1
100
AcDbAlignedDimension
 13
1475.0958630881
 23
175.1846417294
 33
0.0
 14
1475.0958630881
 24
125.1846417294
 34
0.0
 50
90.0
100
AcDbRotatedDimension
  0
LINE
  5
3A5
100
AcDbEntity
  8
L1_80
  6
CONTINUOUS
 62
         7
100
AcDbLine
 10
1467.7913403763
 20
6.2446652593
 30
0.0
 11
1467.7913403763
 21
-32.1313347407
 31
0.0
  0
LINE
  5
3A6
100
AcDbEntity
  8
L1_80
  6
CONTINUOUS
 62
         7
100
AcDbLine
 10
1474.8033403763
 20
5.1566652593
 30
0.0
 11
1472.1033403763
 21
5.1566652593
 31
0.0
  0
LINE
  5
3A7
100
AcDbEntity
  8
L1_80
  6
CONTINUOUS
 62
         7
100
AcDbLine
 10
1464.5033403763
 20
12.0566652593
 30
0.0
 11
1464.5033403763
 21
8.8566652593
 31
0.0
  0
LINE
  5
3A8
100
AcDbEntity
  8
L1_80
  6
CONTINUOUS
 62
         7
100
AcDbLine
 10
1478.0980844879
 20
8.8566652593
 30
0.0
 11
1464.5033403763
 21
8.8566652593
 31
0.0
  0
LINE
  5
3A9
100
AcDbEntity
  8
L1_80
  6
CONTINUOUS
 62
         7
100
AcDbLine
 10
1464.5033403763
 20
-37.9433347407
 30
0.0
 11
1464.5033403763
 21
-34.7433347407
 31
0.0
  0
LINE
  5
3AA
100
AcDbEntity
  8
L1_80
  6
CONTINUOUS
 62
         7
100
AcDbLine
 10
1478.0980844879
 20
-34.7433347407
 30
0.0
 11
1464.5033403763
 21
-34.7433347407
 31
0.0
  0
ARC
  5
3AB
100
AcDbEntity
  8
L1_80
  6
CONTINUOUS
 62
         7
100
AcDbCircle
 10
1475.0958630881
 20
-35.9433347407
 30
0.0
 40
2.0
100
AcDbArc
 50
270.0
 51
330.0
  0
ARC
  5
3AC
100
AcDbEntity
  8
L1_80
  6
CONTINUOUS
 62
         7
100
AcDbCircle
 10
1478.0033403763
 20
-30.9074363558
 30
0.0
 40
2.0
100
AcDbArc
 50
330.0
 51
360.0
  0
ARC
  5
3AD
100
AcDbEntity
  8
L1_80
  6
CONTINUOUS
 62
         7
100
AcDbCircle
 10
1478.0033403763
 20
5.0207668745
 30
0.0
 40
2.0
100
AcDbArc
 50
0.0
 51
30.0
  0
ARC
  5
3AE
100
AcDbEntity
  8
L1_80
  6
CONTINUOUS
 62
         7
100
AcDbCircle
 10
1475.0958630881
 20
10.0566652593
 30
0.0
 40
2.0
100
AcDbArc
 50
30.0
 51
90.0
  0
LINE
  5
3AF
100
AcDbEntity
  8
L1_80
  6
CONTINUOUS
 62
         7
100
AcDbLine
 10
1479.7353911838
 20
6.0207668745
 30
0.0
 11
1476.8279138957
 21
11.0566652593
 31
0.0
  0
LINE
  5
3B0
100
AcDbEntity
  8
L1_80
  6
CONTINUOUS
 62
         7
100
AcDbLine
 10
1479.7353911838
 20
-31.9074363558
 30
0.0
 11
1476.8279138957
 21
-36.9433347407
 31
0.0
  0
LINE
  5
3B1
100
AcDbEntity
  8
L1_80
  6
CONTINUOUS
 62
         7
100
AcDbLine
 10
1458.4051614967
 20
6.2446652593
 30
0.0
 11
1458.4051614967
 21
-32.1313347407
 31
0.0
  0
LINE
  5
3B2
100
AcDbEntity
  8
L1_80
  6
CONTINUOUS
 62
         7
100
AcDbLine
 10
1457.5033403763
 20
7.8066652593
 30
0.0
 11
1458.4051614967
 21
6.2446652593
 31
0.0
  0
LINE
  5
3B3
100
AcDbEntity
  8
L1_80
  6
CONTINUOUS
 62
         7
100
AcDbLine
 10
1457.5033403763
 20
-33.6933347407
 30
0.0
 11
1458.4051614967
 21
-32.1313347407
 31
0.0
  0
ARC
  5
3B4
100
AcDbEntity
  8
L1_80
  6
CONTINUOUS
 62
         7
100
AcDbCircle
 10
1459.5033403763
 20
10.0566652593
 30
0.0
 40
2.0
100
AcDbArc
 50
90.0
 51
180.0
  0
ARC
  5
3B5
100
AcDbEntity
  8
L1_80
  6
CONTINUOUS
 62
         7
100
AcDbCircle
 10
1459.5033403763
 20
-35.9433347407
 30
0.0
 40
2.0
100
AcDbArc
 50
180.0
 51
270.0
  0
LINE
  5
3B6
100
AcDbEntity
  8
L1_80
  6
CONTINUOUS
 62
         7
100
AcDbLine
 10
1469.1033403763
 20
-33.4433347407
 30
0.0
 11
1467.7913403763
 21
-32.1313347407
 31
0.0
  0
ARC
  5
3B7
100
AcDbEntity
  8
L1_80
  6
CONTINUOUS
 62
         7
100
AcDbCircle
 10
1471.1033403763
 20
-32.4433347407
 30
0.0
 40
1.0
100
AcDbArc
 50
270.0
 51
360.0
  0
LINE
  5
3B8
100
AcDbEntity
  8
L1_80
  6
CONTINUOUS
 62
         7
100
AcDbLine
 10
1469.1033403763
 20
7.5566652593
 30
0.0
 11
1467.7913403763
 21
6.2446652593
 31
0.0
  0
ARC
  5
3B9
100
AcDbEntity
  8
L1_80
  6
CONTINUOUS
 62
         7
100
AcDbCircle
 10
1471.1033403763
 20
6.5566652593
 30
0.0
 40
1.0
100
AcDbArc
 50
360.0
 51
450.0
  0
LINE
  5
3BA
100
AcDbEntity
  8
L1_80
  6
CONTINUOUS
 62
         7
100
AcDbLine
 10
1474.8033403763
 20
-31.0433347407
 30
0.0
 11
1473.8033403763
 21
-31.0433347407
 31
0.0
  0
LINE
  5
3BB
100
AcDbEntity
  8
L1_80
  6
CONTINUOUS
 62
         7
100
AcDbLine
 10
1474.8033403763
 20
-31.0433347407
 30
0.0
 11
1474.8033403763
 21
5.1566652593
 31
0.0
  0
LINE
  5
3BC
100
AcDbEntity
  8
L1_80
  6
CENTER
 62
         1
100
AcDbLine
 10
1480.5773877014
 20
-12.9433347407
 30
0.0
 11
1454.7333273646
 21
-12.9433347407
 31
0.0
  0
LINE
  5
3BD
100
AcDbEntity
  8
L1_80
  6
CONTINUOUS
 62
         7
100
AcDbLine
 10
1469.1033403763
 20
-33.4433347407
 30
0.0
 11
1469.1033403763
 21
7.5566652593
 31
0.0
  0
LINE
  5
3BE
100
AcDbEntity
  8
L1_80
  6
CONTINUOUS
 62
         7
100
AcDbLine
 10
1471.1033403763
 20
7.5566652593
 30
0.0
 11
1469.1033403763
 21
7.5566652593
 31
0.0
  0
LINE
  5
3BF
100
AcDbEntity
  8
L1_80
  6
CONTINUOUS
 62
         7
100
AcDbLine
 10
1471.1033403763
 20
-33.4433347407
 30
0.0
 11
1469.1033403763
 21
-33.4433347407
 31
0.0
  0
LINE
  5
3C0
100
AcDbEntity
  8
L1_80
  6
CONTINUOUS
 62
         7
100
AcDbLine
 10
1467.7913403763
 20
6.2446652593
 30
0.0
 11
1458.4051614967
 21
6.2446652593
 31
0.0
  0
LINE
  5
3C1
100
AcDbEntity
  8
L1_80
  6
CONTINUOUS
 62
         7
100
AcDbLine
 10
1467.7913403763
 20
-32.1313347407
 30
0.0
 11
1458.4051614967
 21
-32.1313347407
 31
0.0
  0
LINE
  5
3C2
100
AcDbEntity
  8
L1_80
  6
CONTINUOUS
 62
         4
100
AcDbLine
 10
1468.6033403763
 20
7.0566652593
 30
0.0
 11
1457.9363530781
 21
7.0566652593
 31
0.0
  0
LINE
  5
3C3
100
AcDbEntity
  8
L1_80
  6
CONTINUOUS
 62
         4
100
AcDbLine
 10
1468.6033403763
 20
-32.9433347407
 30
0.0
 11
1457.9363530781
 21
-32.9433347407
 31
0.0
  0
LINE
  5
3C4
100
AcDbEntity
  8
L1_80
  6
CONTINUOUS
 62
         7
100
AcDbLine
 10
1474.8033403763
 20
3.3843149901
 30
0.0
 11
1480.0033403763
 21
0.3820935904
 31
0.0
  0
LINE
  5
3C5
100
AcDbEntity
  8
L1_80
  6
CONTINUOUS
 62
         7
100
AcDbLine
 10
1474.8033403763
 20
-29.2709844715
 30
0.0
 11
1480.0033403763
 21
-26.2687630717
 31
0.0
  0
LINE
  5
3C6
100
AcDbEntity
  8
L1_80
  6
CONTINUOUS
 62
         7
100
AcDbLine
 10
1473.8033403763
 20
-27.8433347407
 30
0.0
 11
1472.1033403763
 21
-27.8433347407
 31
0.0
  0
LINE
  5
3C7
100
AcDbEntity
  8
L1_80
  6
CONTINUOUS
 62
         7
100
AcDbLine
 10
1472.1033403763
 20
-32.4433347407
 30
0.0
 11
1472.1033403763
 21
6.5566652593
 31
0.0
  0
LINE
  5
3C8
100
AcDbEntity
  8
L1_80
  6
CONTINUOUS
 62
         7
100
AcDbLine
 10
1473.8033403763
 20
-31.0433347407
 30
0.0
 11
1473.8033403763
 21
5.1566652593
 31
0.0
  0
LINE
  5
3C9
100
AcDbEntity
  8
L1_80
  6
CONTINUOUS
 62
         7
100
AcDbLine
 10
1480.0033403763
 20
-30.9074363558
 30
0.0
 11
1480.0033403763
 21
5.0207668745
 31
0.0
  0
LINE
  5
3CA
100
AcDbEntity
  8
L1_80
  6
CONTINUOUS
 62
         7
100
AcDbLine
 10
1475.0958630881
 20
12.0566652593
 30
0.0
 11
1459.5033403763
 21
12.0566652593
 31
0.0
  0
LINE
  5
3CB
100
AcDbEntity
  8
L1_80
  6
CONTINUOUS
 62
         7
100
AcDbLine
 10
1475.0958630881
 20
-37.9433347407
 30
0.0
 11
1459.5033403763
 21
-37.9433347407
 31
0.0
  0
LINE
  5
3CC
100
AcDbEntity
  8
L1_80
  6
CONTINUOUS
 62
         7
100
AcDbLine
 10
1457.5033403763
 20
-35.9433347407
 30
0.0
 11
1457.5033403763
 21
10.0566652593
 31
0.0
  0
INSERT
  5
3D8
100
AcDbEntity
  8
0
  6
CONTINUOUS
100
AcDbBlockReference
  2
*X14
 10
0.0
 20
0.0
 30
0.0
  0
INSERT
  5
3DF
100
AcDbEntity
  8
0
  6
CONTINUOUS
100
AcDbBlockReference
  2
*X15
 10
0.0
 20
0.0
 30
0.0
  0
INSERT
  5
3E7
100
AcDbEntity
  8
0
  6
CONTINUOUS
100
AcDbBlockReference
  2
*X16
 10
0.0
 20
0.0
 30
0.0
  0
INSERT
  5
3F5
100
AcDbEntity
  8
0
  6
CONTINUOUS
100
AcDbBlockReference
  2
*X17
 10
0.0
 20
0.0
 30
0.0
  0
DIMENSION
  5
3F8
100
AcDbEntity
  8
L1_80
  6
CONTINUOUS
 62
         4
100
AcDbDimension
  2
*D18
 10
1400.0033403763
 20
102.2866925985
 30
0.0
 11
1437.3033403763
 21
104.3116925985
 31
0.0
  3
DIMSTYLE1
100
AcDbAlignedDimension
 13
1400.0033403763
 23
127.9596417294
 33
0.0
 14
1480.0033403763
 24
132.2205401142
 34
0.0
100
AcDbRotatedDimension
  0
TEXT
  5
405
100
AcDbEntity
  8
L1_80
  6
CONTINUOUS
 62
         2
100
AcDbText
 10
1607.8551181589
 20
224.3704784082
 30
0.0
 40
4.5
  1
531424
 41
0.98
  7
BOX
100
AcDbText
  0
ENDSEC
  0
SECTION
  2
OBJECTS
  0
DICTIONARY
  5
19
100
AcDbDictionary
  3
ACAD_GROUP
350
1A
  3
ACAD_MLINESTYLE
350
1B
  0
DICTIONARY
  5
1A
102
{ACAD_REACTORS
330
19
102
}
100
AcDbDictionary
  0
DICTIONARY
  5
1B
102
{ACAD_REACTORS
330
19
102
}
100
AcDbDictionary
  3
STANDARD
350
1C
  0
MLINESTYLE
  5
1C
102
{ACAD_REACTORS
330
1B
102
}
100
AcDbMlineStyle
  2
STANDARD
 70
         0
  3

 62
         0
 51
90.0
 52
90.0
 71
         2
 49
0.5
 62
       256
  6
BYLAYER
 49
-0.5
 62
       256
  6
BYLAYER
  0
ENDSEC
  0
EOF
